  0
SECTION
  2
HEADER
  9
$ACADVER
  1
AC1014
  9
$DWGCODEPAGE
  3
ANSI_932
  9
$LTSCALE
 40
20.0
  9
$FILLMODE
 70
     1
  9
$CLAYER
  8
0
  9
$PDMODE
 70
     0
  9
$SPLFRAME
 70
     0
  9
$SPLINETYPE
 70
     6
  9
$SPLINESEGS
 70
     8
  9
$DIMASZ
 40
2.000000
  9
$DIMEXE
 40
2.000000
  9
$DIMEXO
 40
0.800000
  9
$DIMTAD
 70
     1
  9
$DIMTIH
 70
     0
  9
$DIMTOH
 70
     0
  9
$DIMTVP
 40
0.500000
  9
$DIMTXT
 40
3.100000
  9
$EXTMIN
 10
0.000000
 20
0.000000
 30
0.000000
  9
$EXTMAX
 10
420.000000
 20
594.000000
 30
0.000000
  9
$MEASUREMENT
 70
  1
  9
$LIMMIN
 10
0.000000
 20
0.000000
  9
$LIMMAX
 10
420.000000
 20
594.000000
  9
$HANDLING
 70
     1
  9
$HANDSEED
  5
4A0
  9
$DIMBLK
  1
_OPEN
  9
$DIMDEC
 70
     3
  9
$DIMAUNIT
 70
     1
  9
$DIMZIN
 70
     8
  9
$DIMTOFL
 70
     1
  0
ENDSEC
  0
SECTION
  2
CLASSES
  0
ENDSEC
  0
SECTION
  2
TABLES
  0
TABLE
  2
VPORT
  5
447
100
AcDbSymbolTable
 70
     1
  0
VPORT
  5
448
100
AcDbSymbolTableRecord
100
AcDbViewportTableRecord
  2
*ACTIVE
 70
     0
 12
427.527753
 22
277.949461
 40
555.898923
 41
1.538149
  0
ENDTAB
  0
TABLE
  2
LTYPE
  5
449
100
AcDbSymbolTable
 70
     4
  0
LTYPE
  5
44A
100
AcDbSymbolTableRecord
100
AcDbLinetypeTableRecord
  2
BYBLOCK
 70
     0
  3

 72
    65
 73
     0
 40
0.0
  0
LTYPE
  5
44B
100
AcDbSymbolTableRecord
100
AcDbLinetypeTableRecord
  2
BYLAYER
 70
     0
  3

 72
    65
 73
     0
 40
0.0
  0
LTYPE
  5
44C
100
AcDbSymbolTableRecord
100
AcDbLinetypeTableRecord
  2
CONTINUOUS
 70
     0
  3
Solid line (NEC CAE2D for Win R12.1 : 2015.02.18)
 72
    65
 73
     0
 40
0.0
  0
LTYPE
  5
44D
100
AcDbSymbolTableRecord
100
AcDbLinetypeTableRecord
  2
HIDDEN
 70
     0
  3
__ __ __ __ __ __ __ __ __ __ __ __ __ __
 72
    65
 73
     2
 40
0.375
 49
0.25
 74
     0
 49
-0.125
 74
     0
  0
LTYPE
  5
44E
100
AcDbSymbolTableRecord
100
AcDbLinetypeTableRecord
  2
CENTER
 70
     0
  3
____ _ ____ _ ____ _ ____ _ ____ _ ____
 72
    65
 73
     4
 40
2.0
 49
1.25
 74
     0
 49
-0.25
 74
     0
 49
0.25
 74
     0
 49
-0.25
 74
     0
  0
LTYPE
  5
44F
100
AcDbSymbolTableRecord
100
AcDbLinetypeTableRecord
  2
PHANTOM
 70
     0
  3
______  __  __  ______  __  __  ______ 
 72
    65
 73
     6
 40
2.5
 49
1.25
 74
     0
 49
-0.25
 74
     0
 49
0.25
 74
     0
 49
-0.25
 74
     0
 49
0.25
 74
     0
 49
-0.25
 74
     0
  0
ENDTAB
  0
TABLE
  2
LAYER
  5
450
100
AcDbSymbolTable
 70
    12
  0
LAYER
  5
451
100
AcDbSymbolTableRecord
100
AcDbLayerTableRecord
  2
0
 70
     0
 62
     7
  6
CONTINUOUS
  0
LAYER
  5
452
100
AcDbSymbolTableRecord
100
AcDbLayerTableRecord
  2
MAIN0
 70
     0
 62
     7
  6
CONTINUOUS
  0
LAYER
  5
453
100
AcDbSymbolTableRecord
100
AcDbLayerTableRecord
  2
MAIN1
 70
     0
 62
     7
  6
CONTINUOUS
  0
LAYER
  5
454
100
AcDbSymbolTableRecord
100
AcDbLayerTableRecord
  2
MAIN2
 70
     0
 62
     7
  6
CONTINUOUS
  0
LAYER
  5
455
100
AcDbSymbolTableRecord
100
AcDbLayerTableRecord
  2
MAIN3
 70
     0
 62
     7
  6
CONTINUOUS
  0
LAYER
  5
456
100
AcDbSymbolTableRecord
100
AcDbLayerTableRecord
  2
MAIN4
 70
     0
 62
     7
  6
CONTINUOUS
  0
LAYER
  5
457
100
AcDbSymbolTableRecord
100
AcDbLayerTableRecord
  2
MAIN5
 70
     0
 62
     7
  6
CONTINUOUS
  0
LAYER
  5
458
100
AcDbSymbolTableRecord
100
AcDbLayerTableRecord
  2
MAIN6
 70
     0
 62
     7
  6
CONTINUOUS
  0
LAYER
  5
459
100
AcDbSymbolTableRecord
100
AcDbLayerTableRecord
  2
MAIN10
 70
     0
 62
     7
  6
CONTINUOUS
  0
LAYER
  5
45A
100
AcDbSymbolTableRecord
100
AcDbLayerTableRecord
  2
MAIN1023
 70
     0
 62
    16
  6
CONTINUOUS
  0
LAYER
  5
45B
100
AcDbSymbolTableRecord
100
AcDbLayerTableRecord
  2
WAKU0
 70
     0
 62
     7
  6
CONTINUOUS
  0
LAYER
  5
45C
100
AcDbSymbolTableRecord
100
AcDbLayerTableRecord
  2
WAKU1023
 70
     0
 62
    16
  6
CONTINUOUS
  0
ENDTAB
  0
TABLE
  2
STYLE
  5
45D
100
AcDbSymbolTable
 70
     4
  0
STYLE
  5
45E
100
AcDbSymbolTableRecord
100
AcDbTextStyleTableRecord
  2
STANDARD
 70
    64
 40
0.0
 41
1.0
 50
0.0
 71
     0
 42
3.099999904632568
  3
TXT
  4

  0
STYLE
  5
45F
100
AcDbSymbolTableRecord
100
AcDbTextStyleTableRecord
  2
ANKTATE
 70
    68
 40
0.0
 41
1.0
 50
0.0
 71
     0
 42
3.099999904632568
  3
TXT
  4

  0
STYLE
  5
87
100
AcDbSymbolTableRecord
100
AcDbTextStyleTableRecord
  2
KNJYOKO
 70
    64
 40
0.0
 41
1.0
 50
0.0
 71
     0
 42
3.099999904632568
  3
TXT
  4
BIGFONT
  0
STYLE
  5
460
100
AcDbSymbolTableRecord
100
AcDbTextStyleTableRecord
  2
KNJTATE
 70
    68
 40
0.0
 41
1.0
 50
0.0
 71
     0
 42
3.099999904632568
  3
TXT
  4
BIGFONT
  0
ENDTAB
  0
TABLE
  2
VIEW
  5
461
100
AcDbSymbolTable
 70
     0
  0
ENDTAB
  0
TABLE
  2
UCS
  5
462
100
AcDbSymbolTable
 70
     0
  0
ENDTAB
  0
TABLE
  2
APPID
  5
463
100
AcDbSymbolTable
 70
     1
  0
APPID
  5
464
100
AcDbSymbolTableRecord
100
AcDbRegAppTableRecord
  2
ACAD
 70
     0
  0
ENDTAB
  0
TABLE
  2
DIMSTYLE
  5
465
100
AcDbSymbolTable
 70
     1
  0
DIMSTYLE
105
466
100
AcDbSymbolTableRecord
100
AcDbDimStyleTableRecord
  2
STANDARD
 70
     0
 41
2.000000
 44
2.000000
 42
0.800000
145
0.661290
140
3.100000
144
1.000000
146
0.903226
340
45E
  0
DIMSTYLE
105
467
100
AcDbSymbolTableRecord
100
AcDbDimStyleTableRecord
  2
MAIN001
 70
     0
 41
3.000000
 44
3.000000
 42
1.200000
145
0.607527
140
4.650000
144
1.000000
146
0.903226
 77
     1
 73
     0
 74
     0
271
     3
275
     1
 78
     8
172
     1
340
45E
  0
DIMSTYLE
105
468
100
AcDbSymbolTableRecord
100
AcDbDimStyleTableRecord
  2
WAKU002
 70
     0
 41
2.000000
 44
2.000000
 42
0.800000
145
0.661290
140
3.100000
144
1.000000
146
0.903226
 77
     1
 73
     0
 74
     0
271
     3
275
     1
 78
     8
172
     1
340
45E
  0
ENDTAB
  0
TABLE
  2
BLOCK_RECORD
  5
469
100
AcDbSymbolTable
 70
    55
  0
BLOCK_RECORD
  5
46A
100
AcDbSymbolTableRecord
100
AcDbBlockTableRecord
  2
*MODEL_SPACE
  0
BLOCK_RECORD
  5
46B
100
AcDbSymbolTableRecord
100
AcDbBlockTableRecord
  2
*PAPER_SPACE
  0
BLOCK_RECORD
  5
1
100
AcDbSymbolTableRecord
100
AcDbBlockTableRecord
  2
_NONE
  0
BLOCK_RECORD
  5
4
100
AcDbSymbolTableRecord
100
AcDbBlockTableRecord
  2
_CLOSED
  0
BLOCK_RECORD
  5
B
100
AcDbSymbolTableRecord
100
AcDbBlockTableRecord
  2
_DOT
  0
BLOCK_RECORD
  5
13
100
AcDbSymbolTableRecord
100
AcDbBlockTableRecord
  2
_OPEN
  0
BLOCK_RECORD
  5
19
100
AcDbSymbolTableRecord
100
AcDbBlockTableRecord
  2
_ORIGIN
  0
BLOCK_RECORD
  5
1E
100
AcDbSymbolTableRecord
100
AcDbBlockTableRecord
  2
_OPEN30
  0
BLOCK_RECORD
  5
24
100
AcDbSymbolTableRecord
100
AcDbBlockTableRecord
  2
_BOXFILLED
  0
BLOCK_RECORD
  5
29
100
AcDbSymbolTableRecord
100
AcDbBlockTableRecord
  2
_BOXBLANK
  0
BLOCK_RECORD
  5
31
100
AcDbSymbolTableRecord
100
AcDbBlockTableRecord
  2
_OBLIQUE
  0
BLOCK_RECORD
  5
35
100
AcDbSymbolTableRecord
100
AcDbBlockTableRecord
  2
_OPEN90
  0
BLOCK_RECORD
  5
3B
100
AcDbSymbolTableRecord
100
AcDbBlockTableRecord
  2
_CLOSEDBLANK
  0
BLOCK_RECORD
  5
41
100
AcDbSymbolTableRecord
100
AcDbBlockTableRecord
  2
_DOTBLANK
  0
BLOCK_RECORD
  5
46C
100
AcDbSymbolTableRecord
100
AcDbBlockTableRecord
  2
*D0
  0
BLOCK_RECORD
  5
46D
100
AcDbSymbolTableRecord
100
AcDbBlockTableRecord
  2
*D1
  0
BLOCK_RECORD
  5
46E
100
AcDbSymbolTableRecord
100
AcDbBlockTableRecord
  2
*D2
  0
BLOCK_RECORD
  5
46F
100
AcDbSymbolTableRecord
100
AcDbBlockTableRecord
  2
*D3
  0
BLOCK_RECORD
  5
470
100
AcDbSymbolTableRecord
100
AcDbBlockTableRecord
  2
*D4
  0
BLOCK_RECORD
  5
471
100
AcDbSymbolTableRecord
100
AcDbBlockTableRecord
  2
*D5
  0
BLOCK_RECORD
  5
472
100
AcDbSymbolTableRecord
100
AcDbBlockTableRecord
  2
*D6
  0
BLOCK_RECORD
  5
473
100
AcDbSymbolTableRecord
100
AcDbBlockTableRecord
  2
*D7
  0
BLOCK_RECORD
  5
474
100
AcDbSymbolTableRecord
100
AcDbBlockTableRecord
  2
*D8
  0
BLOCK_RECORD
  5
475
100
AcDbSymbolTableRecord
100
AcDbBlockTableRecord
  2
*D9
  0
BLOCK_RECORD
  5
476
100
AcDbSymbolTableRecord
100
AcDbBlockTableRecord
  2
*D10
  0
BLOCK_RECORD
  5
477
100
AcDbSymbolTableRecord
100
AcDbBlockTableRecord
  2
*D11
  0
BLOCK_RECORD
  5
478
100
AcDbSymbolTableRecord
100
AcDbBlockTableRecord
  2
*D12
  0
BLOCK_RECORD
  5
479
100
AcDbSymbolTableRecord
100
AcDbBlockTableRecord
  2
*D13
  0
BLOCK_RECORD
  5
47A
100
AcDbSymbolTableRecord
100
AcDbBlockTableRecord
  2
*D14
  0
BLOCK_RECORD
  5
47B
100
AcDbSymbolTableRecord
100
AcDbBlockTableRecord
  2
*D15
  0
BLOCK_RECORD
  5
47C
100
AcDbSymbolTableRecord
100
AcDbBlockTableRecord
  2
*D16
  0
BLOCK_RECORD
  5
47D
100
AcDbSymbolTableRecord
100
AcDbBlockTableRecord
  2
*D17
  0
BLOCK_RECORD
  5
47E
100
AcDbSymbolTableRecord
100
AcDbBlockTableRecord
  2
*D18
  0
BLOCK_RECORD
  5
47F
100
AcDbSymbolTableRecord
100
AcDbBlockTableRecord
  2
*D19
  0
BLOCK_RECORD
  5
480
100
AcDbSymbolTableRecord
100
AcDbBlockTableRecord
  2
*D20
  0
BLOCK_RECORD
  5
481
100
AcDbSymbolTableRecord
100
AcDbBlockTableRecord
  2
*D21
  0
BLOCK_RECORD
  5
482
100
AcDbSymbolTableRecord
100
AcDbBlockTableRecord
  2
*D22
  0
BLOCK_RECORD
  5
483
100
AcDbSymbolTableRecord
100
AcDbBlockTableRecord
  2
*D23
  0
BLOCK_RECORD
  5
484
100
AcDbSymbolTableRecord
100
AcDbBlockTableRecord
  2
*D24
  0
BLOCK_RECORD
  5
485
100
AcDbSymbolTableRecord
100
AcDbBlockTableRecord
  2
*D25
  0
BLOCK_RECORD
  5
486
100
AcDbSymbolTableRecord
100
AcDbBlockTableRecord
  2
*D26
  0
BLOCK_RECORD
  5
487
100
AcDbSymbolTableRecord
100
AcDbBlockTableRecord
  2
*D27
  0
BLOCK_RECORD
  5
488
100
AcDbSymbolTableRecord
100
AcDbBlockTableRecord
  2
*D28
  0
BLOCK_RECORD
  5
489
100
AcDbSymbolTableRecord
100
AcDbBlockTableRecord
  2
*D29
  0
BLOCK_RECORD
  5
48A
100
AcDbSymbolTableRecord
100
AcDbBlockTableRecord
  2
*D30
  0
BLOCK_RECORD
  5
48B
100
AcDbSymbolTableRecord
100
AcDbBlockTableRecord
  2
*D31
  0
BLOCK_RECORD
  5
48C
100
AcDbSymbolTableRecord
100
AcDbBlockTableRecord
  2
*D32
  0
BLOCK_RECORD
  5
48D
100
AcDbSymbolTableRecord
100
AcDbBlockTableRecord
  2
*D33
  0
BLOCK_RECORD
  5
48E
100
AcDbSymbolTableRecord
100
AcDbBlockTableRecord
  2
*D34
  0
BLOCK_RECORD
  5
48F
100
AcDbSymbolTableRecord
100
AcDbBlockTableRecord
  2
*D35
  0
BLOCK_RECORD
  5
490
100
AcDbSymbolTableRecord
100
AcDbBlockTableRecord
  2
*D36
  0
BLOCK_RECORD
  5
491
100
AcDbSymbolTableRecord
100
AcDbBlockTableRecord
  2
*D37
  0
BLOCK_RECORD
  5
492
100
AcDbSymbolTableRecord
100
AcDbBlockTableRecord
  2
M0
  0
BLOCK_RECORD
  5
493
100
AcDbSymbolTableRecord
100
AcDbBlockTableRecord
  2
M1
  0
BLOCK_RECORD
  5
494
100
AcDbSymbolTableRecord
100
AcDbBlockTableRecord
  2
*X0
  0
BLOCK_RECORD
  5
495
100
AcDbSymbolTableRecord
100
AcDbBlockTableRecord
  2
*X1
  0
BLOCK_RECORD
  5
496
100
AcDbSymbolTableRecord
100
AcDbBlockTableRecord
  2
*D38
  0
ENDTAB
  0
ENDSEC
  0
SECTION
  2
BLOCKS
  0
BLOCK
  5
497
100
AcDbEntity
  8
0
100
AcDbBlockBegin
  2
*MODEL_SPACE
 70
     0
 10
0.0
 20
0.0
 30
0.0
  3
*MODEL_SPACE
  1

  0
ENDBLK
  5
498
100
AcDbEntity
  8
0
100
AcDbBlockEnd
  0
BLOCK
  5
499
100
AcDbEntity
  8
0
100
AcDbBlockBegin
  2
*PAPER_SPACE
 70
     0
 10
0.0
 20
0.0
 30
0.0
  3
*PAPER_SPACE
  1

  0
ENDBLK
  5
49A
100
AcDbEntity
  8
0
100
AcDbBlockEnd
  0
BLOCK
  5
2
100
AcDbEntity
  8
0
100
AcDbBlockBegin
  2
_NONE
 70
     0
 10
0.0
 20
0.0
 30
0.0
  3
_NONE
  1

  0
ENDBLK
  5
3
100
AcDbEntity
  8
0
100
AcDbBlockEnd
  0
BLOCK
  5
5
100
AcDbEntity
  8
0
100
AcDbBlockBegin
  2
_CLOSED
 70
     0
 10
0.0
 20
0.0
 30
0.0
  3
_CLOSED
  1

  0
LINE
  5
6
100
AcDbEntity
  8
0
  6
BYBLOCK
 62
     0
100
AcDbLine
 10
-1.0
 20
0.166667
 30
0.0
 11
0.0
 21
0.0
 31
0.0
  0
LINE
  5
7
100
AcDbEntity
  8
0
  6
BYBLOCK
 62
     0
100
AcDbLine
 10
0.0
 20
0.0
 30
0.0
 11
-1.0
 21
-0.166667
 31
0.0
  0
LINE
  5
8
100
AcDbEntity
  8
0
  6
BYBLOCK
 62
     0
100
AcDbLine
 10
-1.0
 20
0.166667
 30
0.0
 11
-1.0
 21
-0.166667
 31
0.0
  0
LINE
  5
9
100
AcDbEntity
  8
0
  6
BYBLOCK
 62
     0
100
AcDbLine
 10
0.0
 20
0.0
 30
0.0
 11
-1.0
 21
0.0
 31
0.0
  0
ENDBLK
  5
A
100
AcDbEntity
  8
0
100
AcDbBlockEnd
  0
BLOCK
  5
C
100
AcDbEntity
  8
0
100
AcDbBlockBegin
  2
_DOT
 70
     0
 10
0.0
 20
0.0
 30
0.0
  3
_DOT
  1

  0
POLYLINE
  5
D
100
AcDbEntity
  8
0
  6
BYBLOCK
 62
     0
100
AcDb2dPolyline
 66
     1
 10
0.0
 20
0.0
 30
0.0
 70
     1
 40
0.5
 41
0.5
  0
VERTEX
  5
E
100
AcDbEntity
  8
0
  6
BYBLOCK
 62
     0
100
AcDbVertex
100
AcDb2dVertex
 10
-0.25
 20
0.0
 30
0.0
 42
1.0
  0
VERTEX
  5
F
100
AcDbEntity
  8
0
  6
BYBLOCK
 62
     0
100
AcDbVertex
100
AcDb2dVertex
 10
0.25
 20
0.0
 30
0.0
 42
1.0
  0
SEQEND
  5
10
100
AcDbEntity
  8
0
  6
BYBLOCK
 62
     0
  0
LINE
  5
11
100
AcDbEntity
  8
0
  6
BYBLOCK
 62
     0
100
AcDbLine
 10
-0.5
 20
0.0
 30
0.0
 11
-1.0
 21
0.0
 31
0.0
  0
ENDBLK
  5
12
100
AcDbEntity
  8
0
100
AcDbBlockEnd
  0
BLOCK
  5
14
100
AcDbEntity
  8
0
100
AcDbBlockBegin
  2
_OPEN
 70
     0
 10
0.0
 20
0.0
 30
0.0
  3
_OPEN
  1

  0
LINE
  5
15
100
AcDbEntity
  8
0
  6
BYBLOCK
 62
     0
100
AcDbLine
 10
-1.0
 20
0.166667
 30
0.0
 11
0.0
 21
0.0
 31
0.0
  0
LINE
  5
16
100
AcDbEntity
  8
0
  6
BYBLOCK
 62
     0
100
AcDbLine
 10
0.0
 20
0.0
 30
0.0
 11
-1.0
 21
-0.166667
 31
0.0
  0
LINE
  5
17
100
AcDbEntity
  8
0
  6
BYBLOCK
 62
     0
100
AcDbLine
 10
0.0
 20
0.0
 30
0.0
 11
-1.0
 21
0.0
 31
0.0
  0
ENDBLK
  5
18
100
AcDbEntity
  8
0
100
AcDbBlockEnd
  0
BLOCK
  5
1A
100
AcDbEntity
  8
0
100
AcDbBlockBegin
  2
_ORIGIN
 70
     0
 10
0.0
 20
0.0
 30
0.0
  3
_ORIGIN
  1

  0
CIRCLE
  5
1B
100
AcDbEntity
  8
0
  6
BYBLOCK
 62
     0
100
AcDbCircle
 10
0.0
 20
0.0
 30
0.0
 40
0.5
  0
LINE
  5
1C
100
AcDbEntity
  8
0
  6
BYBLOCK
 62
     0
100
AcDbLine
 10
0.0
 20
0.0
 30
0.0
 11
-1.0
 21
0.0
 31
0.0
  0
ENDBLK
  5
1D
100
AcDbEntity
  8
0
100
AcDbBlockEnd
  0
BLOCK
  5
1F
100
AcDbEntity
  8
0
100
AcDbBlockBegin
  2
_OPEN30
 70
     0
 10
0.0
 20
0.0
 30
0.0
  3
_OPEN30
  1

  0
LINE
  5
20
100
AcDbEntity
  8
0
  6
BYBLOCK
 62
     0
100
AcDbLine
 10
-1.0
 20
0.267949
 30
0.0
 11
0.0
 21
0.0
 31
0.0
  0
LINE
  5
21
100
AcDbEntity
  8
0
  6
BYBLOCK
 62
     0
100
AcDbLine
 10
0.0
 20
0.0
 30
0.0
 11
-1.0
 21
-0.267949
 31
0.0
  0
LINE
  5
22
100
AcDbEntity
  8
0
  6
BYBLOCK
 62
     0
100
AcDbLine
 10
0.0
 20
0.0
 30
0.0
 11
-1.0
 21
0.0
 31
0.0
  0
ENDBLK
  5
23
100
AcDbEntity
  8
0
100
AcDbBlockEnd
  0
BLOCK
  5
25
100
AcDbEntity
  8
0
100
AcDbBlockBegin
  2
_BOXFILLED
 70
     0
 10
0.0
 20
0.0
 30
0.0
  3
_BOXFILLED
  1

  0
SOLID
  5
26
100
AcDbEntity
  8
0
  6
BYBLOCK
 62
     0
100
AcDbTrace
 10
-0.5
 20
0.5
 30
0.0
 11
0.5
 21
0.5
 31
0.0
 12
-0.5
 22
-0.5
 32
0.0
 13
0.5
 23
-0.5
 33
0.0
  0
LINE
  5
27
100
AcDbEntity
  8
0
  6
BYBLOCK
 62
     0
100
AcDbLine
 10
-0.5
 20
0.0
 30
0.0
 11
-1.0
 21
0.0
 31
0.0
  0
ENDBLK
  5
28
100
AcDbEntity
  8
0
100
AcDbBlockEnd
  0
BLOCK
  5
2A
100
AcDbEntity
  8
0
100
AcDbBlockBegin
  2
_BOXBLANK
 70
     0
 10
0.0
 20
0.0
 30
0.0
  3
_BOXBLANK
  1

  0
LINE
  5
2B
100
AcDbEntity
  8
0
  6
BYBLOCK
 62
     0
100
AcDbLine
 10
-0.5
 20
-0.5
 30
0.0
 11
0.5
 21
-0.5
 31
0.0
  0
LINE
  5
2C
100
AcDbEntity
  8
0
  6
BYBLOCK
 62
     0
100
AcDbLine
 10
0.5
 20
-0.5
 30
0.0
 11
0.5
 21
0.5
 31
0.0
  0
LINE
  5
2D
100
AcDbEntity
  8
0
  6
BYBLOCK
 62
     0
100
AcDbLine
 10
0.5
 20
0.5
 30
0.0
 11
-0.5
 21
0.5
 31
0.0
  0
LINE
  5
2E
100
AcDbEntity
  8
0
  6
BYBLOCK
 62
     0
100
AcDbLine
 10
-0.5
 20
0.5
 30
0.0
 11
-0.5
 21
-0.5
 31
0.0
  0
LINE
  5
2F
100
AcDbEntity
  8
0
  6
BYBLOCK
 62
     0
100
AcDbLine
 10
-0.5
 20
0.0
 30
0.0
 11
-1.0
 21
0.0
 31
0.0
  0
ENDBLK
  5
30
100
AcDbEntity
  8
0
100
AcDbBlockEnd
  0
BLOCK
  5
32
100
AcDbEntity
  8
0
100
AcDbBlockBegin
  2
_OBLIQUE
 70
     0
 10
0.0
 20
0.0
 30
0.0
  3
_OBLIQUE
  1

  0
LINE
  5
33
100
AcDbEntity
  8
0
  6
BYBLOCK
 62
     0
100
AcDbLine
 10
-0.5
 20
-0.5
 30
0.0
 11
0.5
 21
0.5
 31
0.0
  0
ENDBLK
  5
34
100
AcDbEntity
  8
0
100
AcDbBlockEnd
  0
BLOCK
  5
36
100
AcDbEntity
  8
0
100
AcDbBlockBegin
  2
_OPEN90
 70
     0
 10
0.0
 20
0.0
 30
0.0
  3
_OPEN90
  1

  0
LINE
  5
37
100
AcDbEntity
  8
0
  6
BYBLOCK
 62
     0
100
AcDbLine
 10
-0.5
 20
0.5
 30
0.0
 11
0.0
 21
0.0
 31
0.0
  0
LINE
  5
38
100
AcDbEntity
  8
0
  6
BYBLOCK
 62
     0
100
AcDbLine
 10
0.0
 20
0.0
 30
0.0
 11
-0.5
 21
-0.5
 31
0.0
  0
LINE
  5
39
100
AcDbEntity
  8
0
  6
BYBLOCK
 62
     0
100
AcDbLine
 10
0.0
 20
0.0
 30
0.0
 11
-1.0
 21
0.0
 31
0.0
  0
ENDBLK
  5
3A
100
AcDbEntity
  8
0
100
AcDbBlockEnd
  0
BLOCK
  5
3C
100
AcDbEntity
  8
0
100
AcDbBlockBegin
  2
_CLOSEDBLANK
 70
     0
 10
0.0
 20
0.0
 30
0.0
  3
_CLOSEDBLANK
  1

  0
LINE
  5
3D
100
AcDbEntity
  8
0
  6
BYBLOCK
 62
     0
100
AcDbLine
 10
-1.0
 20
0.1666666666666666
 30
0.0
 11
0.0
 21
0.0
 31
0.0
  0
LINE
  5
3E
100
AcDbEntity
  8
0
  6
BYBLOCK
 62
     0
100
AcDbLine
 10
0.0
 20
0.0
 30
0.0
 11
-1.0
 21
-0.1666666666666666
 31
0.0
  0
LINE
  5
3F
100
AcDbEntity
  8
0
  6
BYBLOCK
 62
     0
100
AcDbLine
 10
-1.0
 20
0.1666666666666666
 30
0.0
 11
-1.0
 21
-0.1666666666666666
 31
0.0
  0
ENDBLK
  5
40
100
AcDbEntity
  8
0
100
AcDbBlockEnd
  0
BLOCK
  5
42
100
AcDbEntity
  8
0
100
AcDbBlockBegin
  2
_DOTBLANK
 70
     0
 10
0.0
 20
0.0
 30
0.0
  3
_DOTBLANK
  1

  0
CIRCLE
  5
43
100
AcDbEntity
  8
0
  6
BYBLOCK
 62
     0
100
AcDbCircle
 10
0.0
 20
0.0
 30
0.0
 40
0.5
  0
LINE
  5
44
100
AcDbEntity
  8
0
  6
BYBLOCK
 62
     0
100
AcDbLine
 10
-0.5
 20
0.0
 30
0.0
 11
-1.0
 21
0.0
 31
0.0
  0
ENDBLK
  5
45
100
AcDbEntity
  8
0
100
AcDbBlockEnd
  0
BLOCK
  5
65
100
AcDbEntity
  8
MAIN0
  6
CONTINUOUS
 62
3
100
AcDbBlockBegin
  2
*D0
 70
    65
 10
0.0
 20
0.0
 30
0.0
  0
LINE
  5
66
100
AcDbEntity
  8
MAIN0
  6
BYBLOCK
 62
0
100
AcDbLine
 10
630.0249562938259
 20
249.0242600053272
 30
0.0000000000000000
 11
630.0249562938259
 21
207.5844434593847
 31
0.0000000000000000
  0
LINE
  5
67
100
AcDbEntity
  8
MAIN0
  6
BYBLOCK
 62
0
100
AcDbLine
 10
633.0249562938259
 20
210.5844434593847
 30
0.0000000000000000
 11
674.0249562938259
 21
210.5844434593847
 31
0.0000000000000000
  0
INSERT
  5
68
100
AcDbEntity
  8
MAIN0
  6
BYBLOCK
 62
0
100
AcDbBlockReference
  2
_OPEN
 10
630.0249562938259
 20
210.5844434593847
 30
0.0000000000000000
 41
3.000000000000000
 42
3.000000000000000
 43
3.000000000000000
 50
180.0000000000000
  0
INSERT
  5
69
100
AcDbEntity
  8
MAIN0
  6
BYBLOCK
 62
0
100
AcDbBlockReference
  2
_OPEN
 10
677.0249562938259
 20
210.5844434593847
 30
0.0000000000000000
 41
3.000000000000000
 42
3.000000000000000
 43
3.000000000000000
 50
0.0000000000000000
  0
LINE
  5
6A
100
AcDbEntity
  8
MAIN0
  6
BYBLOCK
 62
0
100
AcDbLine
 10
677.0249562938259
 20
247.7822796834812
 30
0.0000000000000000
 11
677.0249562938259
 21
207.5844434593847
 31
0.0000000000000000
  0
MTEXT
  5
6B
100
AcDbEntity
  8
MAIN0
  6
BYBLOCK
 62
0
100
AcDbMText
 10
653.5249562938259
 20
213.4094433878592
 30
0.0000000000000000
 40
4.649999856948853
 41
0.0000000000000000
 71
     5
 72
     1
  1
\A1;47
 11
1.000000000000000
 21
0.0000000000000000
 31
0.0000000000000000
  7
STANDARD
  0
ENDBLK
  5
6C
100
AcDbEntity
  8
MAIN0
  6
CONTINUOUS
 62
3
100
AcDbBlockEnd
  0
BLOCK
  5
78
100
AcDbEntity
  8
MAIN0
  6
CONTINUOUS
 62
3
100
AcDbBlockBegin
  2
*D1
 70
    65
 10
0.0
 20
0.0
 30
0.0
  0
LINE
  5
79
100
AcDbEntity
  8
MAIN0
  6
BYBLOCK
 62
0
100
AcDbLine
 10
190.4597072535735
 20
255.3355445859378
 30
0.0000000000000000
 11
139.0270551711660
 21
255.3355445859378
 31
0.0000000000000000
  0
LINE
  5
7A
100
AcDbEntity
  8
MAIN0
  6
BYBLOCK
 62
0
100
AcDbLine
 10
142.0270551711660
 20
258.3355445859378
 30
0.0000000000000000
 11
142.0270551711660
 21
500.3355445859378
 31
0.0000000000000000
  0
INSERT
  5
7B
100
AcDbEntity
  8
MAIN0
  6
BYBLOCK
 62
0
100
AcDbBlockReference
  2
_OPEN
 10
142.0270551711660
 20
255.3355445859378
 30
0.0000000000000000
 41
3.000000000000000
 42
3.000000000000000
 43
3.000000000000000
 50
270.0000000000000
  0
INSERT
  5
7C
100
AcDbEntity
  8
MAIN0
  6
BYBLOCK
 62
0
100
AcDbBlockReference
  2
_OPEN
 10
142.0270551711660
 20
503.3355445859378
 30
0.0000000000000000
 41
3.000000000000000
 42
3.000000000000000
 43
3.000000000000000
 50
90.00000000000000
  0
LINE
  5
7D
100
AcDbEntity
  8
MAIN0
  6
BYBLOCK
 62
0
100
AcDbLine
 10
190.4597072535735
 20
503.3355445859378
 30
0.0000000000000000
 11
139.0270551711660
 21
503.3355445859378
 31
0.0000000000000000
  0
MTEXT
  5
7E
100
AcDbEntity
  8
MAIN0
  6
BYBLOCK
 62
0
100
AcDbMText
 10
138.9520552426916
 20
378.6233832926606
 30
0.0000000000000000
 40
4.649999856948853
 41
0.0000000000000000
 71
     5
 72
     1
  1
\A1;\U+2205248h7
 11
6.123233995736766e-017
 21
1.000000000000000
 31
0.0000000000000000
  7
STANDARD
  0
ENDBLK
  5
7F
100
AcDbEntity
  8
MAIN0
  6
CONTINUOUS
 62
3
100
AcDbBlockEnd
  0
BLOCK
  5
81
100
AcDbEntity
  8
MAIN0
  6
CONTINUOUS
 62
3
100
AcDbBlockBegin
  2
*D2
 70
    65
 10
0.0
 20
0.0
 30
0.0
  0
LINE
  5
82
100
AcDbEntity
  8
MAIN0
  6
BYBLOCK
 62
0
100
AcDbLine
 10
653.5249562938259
 20
379.3355445854544
 30
0.0000000000000000
 11
606.4185303866134
 21
318.4259013567481
 31
0.0000000000000000
  0
INSERT
  5
83
100
AcDbEntity
  8
MAIN0
  6
BYBLOCK
 62
0
100
AcDbBlockReference
  2
_OPEN
 10
604.5832150915271
 20
316.0527983738115
 30
0.0000000000000000
 41
3.000000000000000
 42
3.000000000000000
 43
3.000000000000000
 50
232.2822763395556
  0
MTEXT
  5
84
100
AcDbEntity
  8
MAIN0
  6
BYBLOCK
 62
0
100
AcDbMText
 10
611.8704250291962
 20
330.5017050531110
 30
0.0000000000000000
 40
4.649999856948853
 41
0.0000000000000000
 71
     5
 72
     1
  1
\A1;Ｒ80
 11
0.6117717650287348
 21
0.7910343276455368
 31
0.0000000000000000
  7
KNJYOKO
  0
ENDBLK
  5
85
100
AcDbEntity
  8
MAIN0
  6
CONTINUOUS
 62
3
100
AcDbBlockEnd
  0
BLOCK
  5
88
100
AcDbEntity
  8
MAIN0
  6
CONTINUOUS
 62
3
100
AcDbBlockBegin
  2
*D3
 70
    65
 10
0.0
 20
0.0
 30
0.0
  0
LINE
  5
89
100
AcDbEntity
  8
MAIN0
  6
BYBLOCK
 62
0
100
AcDbLine
 10
191.0597072714549
 20
254.7355445680564
 30
0.0000000000000000
 11
191.0597072714549
 21
226.3355445859377
 31
0.0000000000000000
  0
LINE
  5
8A
100
AcDbEntity
  8
MAIN0
  6
BYBLOCK
 62
0
100
AcDbLine
 10
194.0597072714549
 20
229.3355445859377
 30
0.0000000000000000
 11
218.0596927000375
 21
229.3355445859377
 31
0.0000000000000000
  0
INSERT
  5
8B
100
AcDbEntity
  8
MAIN0
  6
BYBLOCK
 62
0
100
AcDbBlockReference
  2
_OPEN
 10
191.0597072714549
 20
229.3355445859377
 30
0.0000000000000000
 41
3.000000000000000
 42
3.000000000000000
 43
3.000000000000000
 50
180.0000000000000
  0
INSERT
  5
8C
100
AcDbEntity
  8
MAIN0
  6
BYBLOCK
 62
0
100
AcDbBlockReference
  2
_OPEN
 10
221.0596927000375
 20
229.3355445859377
 30
0.0000000000000000
 41
3.000000000000000
 42
3.000000000000000
 43
3.000000000000000
 50
0.0000000000000000
  0
LINE
  5
8D
100
AcDbEntity
  8
MAIN0
  6
BYBLOCK
 62
0
100
AcDbLine
 10
221.0596927000375
 20
240.8712565803829
 30
0.0000000000000000
 11
221.0596927000375
 21
226.3355445859377
 31
0.0000000000000000
  0
MTEXT
  5
8E
100
AcDbEntity
  8
MAIN0
  6
BYBLOCK
 62
0
100
AcDbMText
 10
210.5530092407391
 20
232.4105445144121
 30
0.0000000000000000
 40
4.649999856948853
 41
0.0000000000000000
 71
     5
 72
     1
  1
\A1;30
 11
1.000000000000000
 21
0.0000000000000000
 31
0.0000000000000000
  7
STANDARD
  0
ENDBLK
  5
8F
100
AcDbEntity
  8
MAIN0
  6
CONTINUOUS
 62
3
100
AcDbBlockEnd
  0
BLOCK
  5
91
100
AcDbEntity
  8
MAIN0
  6
CONTINUOUS
 62
3
100
AcDbBlockBegin
  2
*D4
 70
    65
 10
0.0
 20
0.0
 30
0.0
  0
LINE
  5
92
100
AcDbEntity
  8
MAIN0
  6
BYBLOCK
 62
0
100
AcDbLine
 10
191.0597072714549
 20
254.7355445680564
 30
0.0000000000000000
 11
191.0597072714549
 21
211.3355445859377
 31
0.0000000000000000
  0
LINE
  5
93
100
AcDbEntity
  8
MAIN0
  6
BYBLOCK
 62
0
100
AcDbLine
 10
194.0597072714549
 20
214.3355445859377
 30
0.0000000000000000
 11
203.0597072714549
 21
214.3355445859377
 31
0.0000000000000000
  0
INSERT
  5
94
100
AcDbEntity
  8
MAIN0
  6
BYBLOCK
 62
0
100
AcDbBlockReference
  2
_OPEN
 10
191.0597072714549
 20
214.3355445859377
 30
0.0000000000000000
 41
3.000000000000000
 42
3.000000000000000
 43
3.000000000000000
 50
180.0000000000000
  0
INSERT
  5
95
100
AcDbEntity
  8
MAIN0
  6
BYBLOCK
 62
0
100
AcDbBlockReference
  2
_OPEN
 10
206.0597072714549
 20
214.3355445859377
 30
0.0000000000000000
 41
3.000000000000000
 42
3.000000000000000
 43
3.000000000000000
 50
0.0000000000000000
  0
LINE
  5
96
100
AcDbEntity
  8
MAIN0
  6
BYBLOCK
 62
0
100
AcDbLine
 10
206.0597072714549
 20
252.6355445680562
 30
0.0000000000000000
 11
206.0597072714549
 21
211.3355445859377
 31
0.0000000000000000
  0
MTEXT
  5
97
100
AcDbEntity
  8
MAIN0
  6
BYBLOCK
 62
0
100
AcDbMText
 10
198.5597072714549
 20
217.1605445144121
 30
0.0000000000000000
 40
4.649999856948853
 41
0.0000000000000000
 71
     5
 72
     1
  1
\A1;15
 11
1.000000000000000
 21
0.0000000000000000
 31
0.0000000000000000
  7
STANDARD
  0
ENDBLK
  5
98
100
AcDbEntity
  8
MAIN0
  6
CONTINUOUS
 62
3
100
AcDbBlockEnd
  0
BLOCK
  5
9A
100
AcDbEntity
  8
MAIN0
  6
CONTINUOUS
 62
3
100
AcDbBlockBegin
  2
*D5
 70
    65
 10
0.0
 20
0.0
 30
0.0
  0
LINE
  5
9B
100
AcDbEntity
  8
MAIN0
  6
BYBLOCK
 62
0
100
AcDbLine
 10
206.0597072714549
 20
252.6355445680562
 30
0.0000000000000000
 11
206.0597072714549
 21
211.3355445859377
 31
0.0000000000000000
  0
LINE
  5
9C
100
AcDbEntity
  8
MAIN0
  6
BYBLOCK
 62
0
100
AcDbLine
 10
209.0597072714549
 20
214.3355445859377
 30
0.0000000000000000
 11
233.0596927000377
 21
214.3355445859377
 31
0.0000000000000000
  0
INSERT
  5
9D
100
AcDbEntity
  8
MAIN0
  6
BYBLOCK
 62
0
100
AcDbBlockReference
  2
_OPEN
 10
206.0597072714549
 20
214.3355445859377
 30
0.0000000000000000
 41
3.000000000000000
 42
3.000000000000000
 43
3.000000000000000
 50
180.0000000000000
  0
INSERT
  5
9E
100
AcDbEntity
  8
MAIN0
  6
BYBLOCK
 62
0
100
AcDbBlockReference
  2
_OPEN
 10
236.0596927000377
 20
214.3355445859377
 30
0.0000000000000000
 41
3.000000000000000
 42
3.000000000000000
 43
3.000000000000000
 50
0.0000000000000000
  0
LINE
  5
9F
100
AcDbEntity
  8
MAIN0
  6
BYBLOCK
 62
0
100
AcDbLine
 10
236.0596927000377
 20
252.6355445680559
 30
0.0000000000000000
 11
236.0596927000377
 21
211.3355445859377
 31
0.0000000000000000
  0
MTEXT
  5
A0
100
AcDbEntity
  8
MAIN0
  6
BYBLOCK
 62
0
100
AcDbMText
 10
221.0596999857463
 20
217.1605445144121
 30
0.0000000000000000
 40
4.649999856948853
 41
0.0000000000000000
 71
     5
 72
     1
  1
\A1;30
 11
1.000000000000000
 21
0.0000000000000000
 31
0.0000000000000000
  7
STANDARD
  0
ENDBLK
  5
A1
100
AcDbEntity
  8
MAIN0
  6
CONTINUOUS
 62
3
100
AcDbBlockEnd
  0
BLOCK
  5
A3
100
AcDbEntity
  8
MAIN0
  6
CONTINUOUS
 62
3
100
AcDbBlockBegin
  2
*D6
 70
    65
 10
0.0
 20
0.0
 30
0.0
  0
LINE
  5
A4
100
AcDbEntity
  8
MAIN0
  6
BYBLOCK
 62
0
100
AcDbLine
 10
236.0596927000377
 20
252.6355445680559
 30
0.0000000000000000
 11
236.0596927000377
 21
211.3355445859377
 31
0.0000000000000000
  0
LINE
  5
A5
100
AcDbEntity
  8
MAIN0
  6
BYBLOCK
 62
0
100
AcDbLine
 10
239.0596927000377
 20
214.3355445859377
 30
0.0000000000000000
 11
280.0597072714548
 21
214.3355445859377
 31
0.0000000000000000
  0
INSERT
  5
A6
100
AcDbEntity
  8
MAIN0
  6
BYBLOCK
 62
0
100
AcDbBlockReference
  2
_OPEN
 10
236.0596927000377
 20
214.3355445859377
 30
0.0000000000000000
 41
3.000000000000000
 42
3.000000000000000
 43
3.000000000000000
 50
180.0000000000000
  0
INSERT
  5
A7
100
AcDbEntity
  8
MAIN0
  6
BYBLOCK
 62
0
100
AcDbBlockReference
  2
_OPEN
 10
283.0597072714548
 20
214.3355445859377
 30
0.0000000000000000
 41
3.000000000000000
 42
3.000000000000000
 43
3.000000000000000
 50
0.0000000000000000
  0
LINE
  5
A8
100
AcDbEntity
  8
MAIN0
  6
BYBLOCK
 62
0
100
AcDbLine
 10
283.0597072714548
 20
293.5355445680556
 30
0.0000000000000000
 11
283.0597072714548
 21
211.3355445859377
 31
0.0000000000000000
  0
MTEXT
  5
A9
100
AcDbEntity
  8
MAIN0
  6
BYBLOCK
 62
0
100
AcDbMText
 10
259.5596999857463
 20
217.1605445144121
 30
0.0000000000000000
 40
4.649999856948853
 41
0.0000000000000000
 71
     5
 72
     1
  1
\A1;47
 11
1.000000000000000
 21
0.0000000000000000
 31
0.0000000000000000
  7
STANDARD
  0
ENDBLK
  5
AA
100
AcDbEntity
  8
MAIN0
  6
CONTINUOUS
 62
3
100
AcDbBlockEnd
  0
BLOCK
  5
B3
100
AcDbEntity
  8
MAIN0
  6
CONTINUOUS
 62
3
100
AcDbBlockBegin
  2
*D7
 70
    65
 10
0.0
 20
0.0
 30
0.0
  0
LINE
  5
B4
100
AcDbEntity
  8
MAIN0
  6
BYBLOCK
 62
0
100
AcDbLine
 10
191.0597072714549
 20
503.9355446038192
 30
0.0000000000000000
 11
191.0597072714549
 21
532.3355445859377
 31
0.0000000000000000
  0
LINE
  5
B5
100
AcDbEntity
  8
MAIN0
  6
BYBLOCK
 62
0
100
AcDbLine
 10
194.0597072714549
 20
529.3355445859377
 30
0.0000000000000000
 11
280.0597072714548
 21
529.3355445859377
 31
0.0000000000000000
  0
INSERT
  5
B6
100
AcDbEntity
  8
MAIN0
  6
BYBLOCK
 62
0
100
AcDbBlockReference
  2
_OPEN
 10
191.0597072714549
 20
529.3355445859377
 30
0.0000000000000000
 41
3.000000000000000
 42
3.000000000000000
 43
3.000000000000000
 50
180.0000000000000
  0
INSERT
  5
B7
100
AcDbEntity
  8
MAIN0
  6
BYBLOCK
 62
0
100
AcDbBlockReference
  2
_OPEN
 10
283.0597072714548
 20
529.3355445859377
 30
0.0000000000000000
 41
3.000000000000000
 42
3.000000000000000
 43
3.000000000000000
 50
0.0000000000000000
  0
LINE
  5
B8
100
AcDbEntity
  8
MAIN0
  6
BYBLOCK
 62
0
100
AcDbLine
 10
283.0597072714548
 20
465.1355446038183
 30
0.0000000000000000
 11
283.0597072714548
 21
532.3355445859377
 31
0.0000000000000000
  0
MTEXT
  5
B9
100
AcDbEntity
  8
MAIN0
  6
BYBLOCK
 62
0
100
AcDbMText
 10
237.0597072714549
 20
532.1605445144121
 30
0.0000000000000000
 40
4.649999856948853
 41
0.0000000000000000
 71
     5
 72
     1
  1
\A1;92
 11
1.000000000000000
 21
0.0000000000000000
 31
0.0000000000000000
  7
STANDARD
  0
ENDBLK
  5
BA
100
AcDbEntity
  8
MAIN0
  6
CONTINUOUS
 62
3
100
AcDbBlockEnd
  0
BLOCK
  5
BC
100
AcDbEntity
  8
MAIN0
  6
CONTINUOUS
 62
3
100
AcDbBlockBegin
  2
*D8
 70
    65
 10
0.0
 20
0.0
 30
0.0
  0
LINE
  5
BD
100
AcDbEntity
  8
MAIN0
  6
BYBLOCK
 62
0
100
AcDbLine
 10
277.5597072714548
 20
484.5355446038191
 30
0.0000000000000000
 11
277.5597072714548
 21
517.3355445859377
 31
0.0000000000000000
  0
LINE
  5
BE
100
AcDbEntity
  8
MAIN0
  6
BYBLOCK
 62
0
100
AcDbLine
 10
277.5597072714548
 20
514.3355445859377
 30
0.0000000000000000
 11
283.0597072714548
 21
514.3355445859377
 31
0.0000000000000000
  0
INSERT
  5
BF
100
AcDbEntity
  8
MAIN0
  6
BYBLOCK
 62
0
100
AcDbBlockReference
  2
_OPEN
 10
277.5597072714548
 20
514.3355445859377
 30
0.0000000000000000
 41
3.000000000000000
 42
3.000000000000000
 43
3.000000000000000
 50
0.0000000000000000
  0
INSERT
  5
C0
100
AcDbEntity
  8
MAIN0
  6
BYBLOCK
 62
0
100
AcDbBlockReference
  2
_OPEN
 10
283.0597072714548
 20
514.3355445859377
 30
0.0000000000000000
 41
3.000000000000000
 42
3.000000000000000
 43
3.000000000000000
 50
180.0000000000000
  0
LINE
  5
C1
100
AcDbEntity
  8
MAIN0
  6
BYBLOCK
 62
0
100
AcDbLine
 10
274.5597072714548
 20
514.3355445859377
 30
0.0000000000000000
 11
264.7563056886035
 21
514.3355445859377
 31
0.0000000000000000
  0
LINE
  5
C2
100
AcDbEntity
  8
MAIN0
  6
BYBLOCK
 62
0
100
AcDbLine
 10
286.0597072714548
 20
514.3355445859377
 30
0.0000000000000000
 11
287.5597072714548
 21
514.3355445859377
 31
0.0000000000000000
  0
LINE
  5
C3
100
AcDbEntity
  8
MAIN0
  6
BYBLOCK
 62
0
100
AcDbLine
 10
283.0597072714548
 20
465.1355446038183
 30
0.0000000000000000
 11
283.0597072714548
 21
517.3355445859377
 31
0.0000000000000000
  0
MTEXT
  5
C4
100
AcDbEntity
  8
MAIN0
  6
BYBLOCK
 62
0
100
AcDbMText
 10
268.6563055455523
 20
517.4105445144121
 30
0.0000000000000000
 40
4.649999856948853
 41
0.0000000000000000
 71
     5
 72
     1
  1
\A1;5.5
 11
1.000000000000000
 21
0.0000000000000000
 31
0.0000000000000000
  7
STANDARD
  0
ENDBLK
  5
C5
100
AcDbEntity
  8
MAIN0
  6
CONTINUOUS
 62
3
100
AcDbBlockEnd
  0
BLOCK
  5
C7
100
AcDbEntity
  8
MAIN0
  6
CONTINUOUS
 62
3
100
AcDbBlockBegin
  2
*D9
 70
    65
 10
0.0
 20
0.0
 30
0.0
  0
LINE
  5
C8
100
AcDbEntity
  8
MAIN0
  6
BYBLOCK
 62
0
100
AcDbLine
 10
283.8597072893346
 20
294.3355445859369
 30
0.0000000000000000
 11
358.5596927000393
 21
294.3355445859369
 31
0.0000000000000000
  0
LINE
  5
C9
100
AcDbEntity
  8
MAIN0
  6
BYBLOCK
 62
0
100
AcDbLine
 10
355.5596927000393
 20
297.3355445859369
 30
0.0000000000000000
 11
355.5596927000393
 21
461.3355445859369
 31
0.0000000000000000
  0
INSERT
  5
CA
100
AcDbEntity
  8
MAIN0
  6
BYBLOCK
 62
0
100
AcDbBlockReference
  2
_OPEN
 10
355.5596927000393
 20
294.3355445859369
 30
0.0000000000000000
 41
3.000000000000000
 42
3.000000000000000
 43
3.000000000000000
 50
270.0000000000000
  0
INSERT
  5
CB
100
AcDbEntity
  8
MAIN0
  6
BYBLOCK
 62
0
100
AcDbBlockReference
  2
_OPEN
 10
355.5596927000393
 20
464.3355445859369
 30
0.0000000000000000
 41
3.000000000000000
 42
3.000000000000000
 43
3.000000000000000
 50
90.00000000000000
  0
LINE
  5
CC
100
AcDbEntity
  8
MAIN0
  6
BYBLOCK
 62
0
100
AcDbLine
 10
283.8597072893363
 20
464.3355445859369
 30
0.0000000000000000
 11
358.5596927000393
 21
464.3355445859369
 31
0.0000000000000000
  0
MTEXT
  5
CD
100
AcDbEntity
  8
MAIN0
  6
BYBLOCK
 62
0
100
AcDbMText
 10
352.4846927715648
 20
379.2206121356361
 30
0.0000000000000000
 40
4.649999856948853
 41
0.0000000000000000
 71
     5
 72
     1
  1
\A1;\U+2205170h7
 11
6.123233995736766e-017
 21
1.000000000000000
 31
0.0000000000000000
  7
STANDARD
  0
ENDBLK
  5
CE
100
AcDbEntity
  8
MAIN0
  6
CONTINUOUS
 62
3
100
AcDbBlockEnd
  0
BLOCK
  5
E2
100
AcDbEntity
  8
MAIN0
  6
CONTINUOUS
 62
3
100
AcDbBlockBegin
  2
*D10
 70
    65
 10
0.0
 20
0.0
 30
0.0
  0
LINE
  5
E3
100
AcDbEntity
  8
MAIN0
  6
BYBLOCK
 62
0
100
AcDbLine
 10
625.9035379973461
 20
321.9356556370349
 30
0.0000000000000000
 11
681.1463745903059
 21
436.7354335338738
 31
0.0000000000000000
  0
INSERT
  5
E4
100
AcDbEntity
  8
MAIN0
  6
BYBLOCK
 62
0
100
AcDbBlockReference
  2
_OPEN
 10
624.6026862722372
 20
319.2323641637969
 30
0.0000000000000000
 41
3.000000000000000
 42
3.000000000000000
 43
3.000000000000000
 50
244.3026605871015
  0
INSERT
  5
E5
100
AcDbEntity
  8
MAIN0
  6
BYBLOCK
 62
0
100
AcDbBlockReference
  2
_OPEN
 10
682.4472263154148
 20
439.4387250071118
 30
0.0000000000000000
 41
3.000000000000000
 42
3.000000000000000
 43
3.000000000000000
 50
64.30266058710146
  0
MTEXT
  5
E6
100
AcDbEntity
  8
MAIN0
  6
BYBLOCK
 62
0
100
AcDbMText
 10
673.0995185868120
 20
427.1048221479790
 30
0.0000000000000000
 40
4.649999856948853
 41
0.0000000000000000
 71
     5
 72
     1
  1
\A1;\U+2205133.4\H0.903226x;\U+00B10.2
 11
0.4336172417029808
 21
0.9010971577459884
 31
0.0000000000000000
  7
STANDARD
  0
ENDBLK
  5
E7
100
AcDbEntity
  8
MAIN0
  6
CONTINUOUS
 62
3
100
AcDbBlockEnd
  0
BLOCK
  5
113
100
AcDbEntity
  8
MAIN0
  6
CONTINUOUS
 62
3
100
AcDbBlockBegin
  2
*D11
 70
    65
 10
0.0
 20
0.0
 30
0.0
  0
LINE
  5
114
100
AcDbEntity
  8
MAIN0
  6
BYBLOCK
 62
0
100
AcDbLine
 10
653.5249562938260
 20
246.1288558978818
 30
0.0000000000000000
 11
653.5249562938259
 21
221.2738023259704
 31
0.0000000000000000
  0
LINE
  5
115
100
AcDbEntity
  8
MAIN0
  6
BYBLOCK
 62
0
100
AcDbLine
 10
673.6796198095333
 20
304.1173163278897
 30
0.0000000000000000
 11
694.4343454908931
 21
226.6596255885852
 31
0.0000000000000000
  0
ARC
  5
116
100
AcDbEntity
  8
MAIN0
  6
BYBLOCK
 62
0
100
AcDbCircle
 10
653.5249562938260
 20
379.3355445772986
 30
0.0000000000000000
 40
155.0617422513282
100
AcDbArc
 50
271.1085090109503
 51
283.8914909891765
  0
INSERT
  5
117
100
AcDbEntity
  8
MAIN0
  6
BYBLOCK
 62
0
100
AcDbBlockReference
  2
_OPEN
 10
653.5249562938260
 20
224.2738023259704
 30
0.0000000000000000
 41
3.000000000000000
 42
3.000000000000000
 43
3.000000000000000
 50
180.0000000000000
  0
INSERT
  5
118
100
AcDbEntity
  8
MAIN0
  6
BYBLOCK
 62
0
100
AcDbBlockReference
  2
_OPEN
 10
693.6578883555793
 20
229.5574030674507
 30
0.0000000000000000
 41
3.000000000000000
 42
3.000000000000000
 43
3.000000000000000
 50
15.00000000012670
  0
MTEXT
  5
119
100
AcDbEntity
  8
MAIN0
  6
BYBLOCK
 62
0
100
AcDbMText
 10
673.3958385853800
 20
228.4012086890384
 30
0.0000000000000000
 40
4.649999856948853
 41
0.0000000000000000
 71
     5
 72
     1
  1
\A1;15\U+00B0
 11
0.9914448613736661
 21
0.1305261922211478
 31
0.0000000000000000
  7
STANDARD
  0
ENDBLK
  5
11A
100
AcDbEntity
  8
MAIN0
  6
CONTINUOUS
 62
3
100
AcDbBlockEnd
  0
BLOCK
  5
11C
100
AcDbEntity
  8
MAIN0
  6
CONTINUOUS
 62
3
100
AcDbBlockBegin
  2
*D12
 70
    65
 10
0.0
 20
0.0
 30
0.0
  0
LINE
  5
11D
100
AcDbEntity
  8
MAIN0
  6
BYBLOCK
 62
0
100
AcDbLine
 10
673.6796198095333
 20
304.1173163278897
 30
0.0000000000000000
 11
694.4343454908931
 21
226.6596255885852
 31
0.0000000000000000
  0
LINE
  5
11E
100
AcDbEntity
  8
MAIN0
  6
BYBLOCK
 62
0
100
AcDbLine
 10
715.2127962891480
 20
272.4890715043075
 30
0.0000000000000000
 11
732.5558274239759
 21
242.4500604238100
 31
0.0000000000000000
  0
ARC
  5
11F
100
AcDbEntity
  8
MAIN0
  6
BYBLOCK
 62
0
100
AcDbCircle
 10
653.5249562938260
 20
379.3355445772986
 30
0.0000000000000000
 40
155.0617422513282
100
AcDbArc
 50
286.1085090110771
 51
298.8914909909273
  0
INSERT
  5
120
100
AcDbEntity
  8
MAIN0
  6
BYBLOCK
 62
0
100
AcDbBlockReference
  2
_OPEN
 10
693.6578883555793
 20
229.5574030674507
 30
0.0000000000000000
 41
3.000000000000000
 42
3.000000000000000
 43
3.000000000000000
 50
195.0000000001267
  0
INSERT
  5
121
100
AcDbEntity
  8
MAIN0
  6
BYBLOCK
 62
0
100
AcDbBlockReference
  2
_OPEN
 10
731.0558274238906
 20
245.0481366351142
 30
0.0000000000000000
 41
3.000000000000000
 42
3.000000000000000
 43
3.000000000000000
 50
30.00000000187760
  0
MTEXT
  5
122
100
AcDbEntity
  8
MAIN0
  6
BYBLOCK
 62
0
100
AcDbMText
 10
711.7834353804753
 20
238.6871342500382
 30
0.0000000000000000
 40
4.649999856948853
 41
0.0000000000000000
 71
     5
 72
     1
  1
\A1;15\U+00B0
 11
0.9238795325045934
 21
0.3826834323812489
 31
0.0000000000000000
  7
STANDARD
  0
ENDBLK
  5
123
100
AcDbEntity
  8
MAIN0
  6
CONTINUOUS
 62
3
100
AcDbBlockEnd
  0
BLOCK
  5
125
100
AcDbEntity
  8
MAIN0
  6
CONTINUOUS
 62
3
100
AcDbBlockBegin
  2
*D13
 70
    65
 10
0.0
 20
0.0
 30
0.0
  0
LINE
  5
126
100
AcDbEntity
  8
MAIN0
  6
BYBLOCK
 62
0
100
AcDbLine
 10
715.2127962891480
 20
272.4890715043075
 30
0.0000000000000000
 11
732.5558274239759
 21
242.4500604238100
 31
0.0000000000000000
  0
LINE
  5
127
100
AcDbEntity
  8
MAIN0
  6
BYBLOCK
 62
0
100
AcDbLine
 10
741.0152575154282
 20
291.8452433636477
 30
0.0000000000000000
 11
765.2914860909791
 21
267.5690147903031
 31
0.0000000000000000
  0
ARC
  5
128
100
AcDbEntity
  8
MAIN0
  6
BYBLOCK
 62
0
100
AcDbCircle
 10
653.5249562938260
 20
379.3355445772986
 30
0.0000000000000000
 40
155.0617422513282
100
AcDbArc
 50
301.1085090128278
 51
313.8914909916534
  0
INSERT
  5
129
100
AcDbEntity
  8
MAIN0
  6
BYBLOCK
 62
0
100
AcDbBlockReference
  2
_OPEN
 10
731.0558274238906
 20
245.0481366351142
 30
0.0000000000000000
 41
3.000000000000000
 42
3.000000000000000
 43
3.000000000000000
 50
210.0000000018777
  0
INSERT
  5
12A
100
AcDbEntity
  8
MAIN0
  6
BYBLOCK
 62
0
100
AcDbBlockReference
  2
_OPEN
 10
763.1701657473232
 20
269.6903351337663
 30
0.0000000000000000
 41
3.000000000000000
 42
3.000000000000000
 43
3.000000000000000
 50
45.00000000260360
  0
MTEXT
  5
12B
100
AcDbEntity
  8
MAIN0
  6
BYBLOCK
 62
0
100
AcDbMText
 10
746.2008131026419
 20
258.5580165440307
 30
0.0000000000000000
 40
4.649999856948853
 41
0.0000000000000000
 71
     5
 72
     1
  1
\A1;15\U+00B0
 11
0.7933533402674291
 21
0.6087614290397453
 31
0.0000000000000000
  7
STANDARD
  0
ENDBLK
  5
12C
100
AcDbEntity
  8
MAIN0
  6
CONTINUOUS
 62
3
100
AcDbBlockEnd
  0
BLOCK
  5
159
100
AcDbEntity
  8
MAIN0
  6
CONTINUOUS
 62
3
100
AcDbBlockBegin
  2
*D14
 70
    65
 10
0.0
 20
0.0
 30
0.0
  0
LINE
  5
15A
100
AcDbEntity
  8
MAIN0
  6
BYBLOCK
 62
0
100
AcDbLine
 10
294.0597072714548
 20
389.7825446038181
 30
0.0000000000000000
 11
294.0597072714548
 21
553.4989228762044
 31
0.0000000000000000
  0
LINE
  5
15B
100
AcDbEntity
  8
MAIN0
  6
BYBLOCK
 62
0
100
AcDbLine
 10
291.0597072714548
 20
550.4989228762044
 30
0.0000000000000000
 11
194.0597072714549
 21
550.4989228762044
 31
0.0000000000000000
  0
INSERT
  5
15C
100
AcDbEntity
  8
MAIN0
  6
BYBLOCK
 62
0
100
AcDbBlockReference
  2
_OPEN
 10
294.0597072714548
 20
550.4989228762044
 30
0.0000000000000000
 41
3.000000000000000
 42
3.000000000000000
 43
3.000000000000000
 50
360.0000000000000
  0
INSERT
  5
15D
100
AcDbEntity
  8
MAIN0
  6
BYBLOCK
 62
0
100
AcDbBlockReference
  2
_OPEN
 10
191.0597072714549
 20
550.4989228762044
 30
0.0000000000000000
 41
3.000000000000000
 42
3.000000000000000
 43
3.000000000000000
 50
180.0000000000000
  0
LINE
  5
15E
100
AcDbEntity
  8
MAIN0
  6
BYBLOCK
 62
0
100
AcDbLine
 10
191.0597072714549
 20
503.9355446038192
 30
0.0000000000000000
 11
191.0597072714549
 21
553.4989228762044
 31
0.0000000000000000
  0
MTEXT
  5
15F
100
AcDbEntity
  8
MAIN0
  6
BYBLOCK
 62
0
100
AcDbMText
 10
242.5597072714548
 20
553.3239228046788
 30
0.0000000000000000
 40
4.649999856948853
 41
0.0000000000000000
 71
     5
 72
     1
  1
\A1;103
 11
1.000000000000000
 21
0.0000000000000000
 31
0.0000000000000000
  7
STANDARD
  0
ENDBLK
  5
160
100
AcDbEntity
  8
MAIN0
  6
CONTINUOUS
 62
3
100
AcDbBlockEnd
  0
BLOCK
  5
162
100
AcDbEntity
  8
MAIN0
  6
CONTINUOUS
 62
3
100
AcDbBlockBegin
  2
*D15
 70
    65
 10
0.0
 20
0.0
 30
0.0
  0
LINE
  5
163
100
AcDbEntity
  8
MAIN0
  6
BYBLOCK
 62
0
100
AcDbLine
 10
283.0597072714548
 20
465.1355446038183
 30
0.0000000000000000
 11
283.0597072714548
 21
532.3355445859377
 31
0.0000000000000000
  0
LINE
  5
164
100
AcDbEntity
  8
MAIN0
  6
BYBLOCK
 62
0
100
AcDbLine
 10
283.0597072714548
 20
529.3355445859377
 30
0.0000000000000000
 11
294.0597072714548
 21
529.3355445859377
 31
0.0000000000000000
  0
INSERT
  5
165
100
AcDbEntity
  8
MAIN0
  6
BYBLOCK
 62
0
100
AcDbBlockReference
  2
_OPEN
 10
283.0597072714548
 20
529.3355445859377
 30
0.0000000000000000
 41
3.000000000000000
 42
3.000000000000000
 43
3.000000000000000
 50
0.0000000000000000
  0
INSERT
  5
166
100
AcDbEntity
  8
MAIN0
  6
BYBLOCK
 62
0
100
AcDbBlockReference
  2
_OPEN
 10
294.0597072714548
 20
529.3355445859377
 30
0.0000000000000000
 41
3.000000000000000
 42
3.000000000000000
 43
3.000000000000000
 50
180.0000000000000
  0
LINE
  5
167
100
AcDbEntity
  8
MAIN0
  6
BYBLOCK
 62
0
100
AcDbLine
 10
280.0597072714548
 20
529.3355445859377
 30
0.0000000000000000
 11
278.5597072714548
 21
529.3355445859377
 31
0.0000000000000000
  0
LINE
  5
168
100
AcDbEntity
  8
MAIN0
  6
BYBLOCK
 62
0
100
AcDbLine
 10
297.0597072714548
 20
529.3355445859377
 30
0.0000000000000000
 11
316.3958390358265
 21
529.3355445859377
 31
0.0000000000000000
  0
LINE
  5
169
100
AcDbEntity
  8
MAIN0
  6
BYBLOCK
 62
0
100
AcDbLine
 10
294.0597072714548
 20
394.9355446038181
 30
0.0000000000000000
 11
294.0597072714548
 21
532.3355445859377
 31
0.0000000000000000
  0
MTEXT
  5
16A
100
AcDbEntity
  8
MAIN0
  6
BYBLOCK
 62
0
100
AcDbMText
 10
307.0208390358265
 20
532.4105445144121
 30
0.0000000000000000
 40
4.649999856948853
 41
0.0000000000000000
 71
     5
 72
     1
  1
\A1;MAX 11
 11
1.000000000000000
 21
0.0000000000000000
 31
0.0000000000000000
  7
STANDARD
  0
ENDBLK
  5
16B
100
AcDbEntity
  8
MAIN0
  6
CONTINUOUS
 62
3
100
AcDbBlockEnd
  0
BLOCK
  5
16D
100
AcDbEntity
  8
MAIN0
  6
CONTINUOUS
 62
3
100
AcDbBlockBegin
  2
*D16
 70
    65
 10
0.0
 20
0.0
 30
0.0
  0
LINE
  5
16E
100
AcDbEntity
  8
MAIN0
  6
BYBLOCK
 62
0
100
AcDbLine
 10
294.6597072893362
 20
394.3355445859367
 30
0.0000000000000000
 11
328.5596927000393
 21
394.3355445859367
 31
0.0000000000000000
  0
LINE
  5
16F
100
AcDbEntity
  8
MAIN0
  6
BYBLOCK
 62
0
100
AcDbLine
 10
325.5596927000393
 20
391.3355445859367
 30
0.0000000000000000
 11
325.5596927000393
 21
367.3355445859367
 31
0.0000000000000000
  0
INSERT
  5
170
100
AcDbEntity
  8
MAIN0
  6
BYBLOCK
 62
0
100
AcDbBlockReference
  2
_OPEN
 10
325.5596927000393
 20
394.3355445859367
 30
0.0000000000000000
 41
3.000000000000000
 42
3.000000000000000
 43
3.000000000000000
 50
90.00000000000000
  0
INSERT
  5
171
100
AcDbEntity
  8
MAIN0
  6
BYBLOCK
 62
0
100
AcDbBlockReference
  2
_OPEN
 10
325.5596927000393
 20
364.3355445859367
 30
0.0000000000000000
 41
3.000000000000000
 42
3.000000000000000
 43
3.000000000000000
 50
270.0000000000000
  0
LINE
  5
172
100
AcDbEntity
  8
MAIN0
  6
BYBLOCK
 62
0
100
AcDbLine
 10
294.6597072893362
 20
364.3355445859367
 30
0.0000000000000000
 11
328.5596927000393
 21
364.3355445859367
 31
0.0000000000000000
  0
MTEXT
  5
173
100
AcDbEntity
  8
MAIN0
  6
BYBLOCK
 62
0
100
AcDbMText
 10
322.7346927715648
 20
379.3355445859367
 30
0.0000000000000000
 40
4.649999856948853
 41
0.0000000000000000
 71
     5
 72
     1
  1
\A1;\U+220530
 11
6.123233995736766e-017
 21
1.000000000000000
 31
0.0000000000000000
  7
STANDARD
  0
ENDBLK
  5
174
100
AcDbEntity
  8
MAIN0
  6
CONTINUOUS
 62
3
100
AcDbBlockEnd
  0
BLOCK
  5
199
100
AcDbEntity
  8
MAIN0
  6
CONTINUOUS
 62
3
100
AcDbBlockBegin
  2
*D17
 70
    65
 10
0.0
 20
0.0
 30
0.0
  0
LINE
  5
19A
100
AcDbEntity
  8
MAIN0
  6
BYBLOCK
 62
0
100
AcDbLine
 10
514.5072897050095
 20
376.3355445854558
 30
0.0000000000000000
 11
514.5072897050095
 21
305.8649620057885
 31
0.0000000000000000
  0
INSERT
  5
19B
100
AcDbEntity
  8
MAIN0
  6
BYBLOCK
 62
0
100
AcDbBlockReference
  2
_OPEN
 10
514.5072897050095
 20
379.3355445854558
 30
0.0000000000000000
 41
3.000000000000000
 42
3.000000000000000
 43
3.000000000000000
 50
90.00000000000000
  0
INSERT
  5
19C
100
AcDbEntity
  8
MAIN0
  6
BYBLOCK
 62
0
100
AcDbBlockReference
  2
_OPEN
 10
514.5072897050095
 20
302.8649620057885
 30
0.0000000000000000
 41
3.000000000000000
 42
3.000000000000000
 43
3.000000000000000
 50
270.0000000000000
  0
LINE
  5
19D
100
AcDbEntity
  8
MAIN0
  6
BYBLOCK
 62
0
100
AcDbLine
 10
620.3249562759445
 20
302.8649620057885
 30
0.0000000000000000
 11
511.5072897050095
 21
302.8649620057885
 31
0.0000000000000000
  0
MTEXT
  5
19E
100
AcDbEntity
  8
MAIN0
  6
BYBLOCK
 62
0
100
AcDbMText
 10
511.4322897765351
 20
341.3291031962629
 30
0.0000000000000000
 40
4.649999856948853
 41
0.0000000000000000
 71
     5
 72
     1
  1
\A1;（76.47）
 11
6.123233995736766e-017
 21
1.000000000000000
 31
0.0000000000000000
  7
KNJYOKO
  0
ENDBLK
  5
19F
100
AcDbEntity
  8
MAIN0
  6
CONTINUOUS
 62
3
100
AcDbBlockEnd
  0
BLOCK
  5
1A1
100
AcDbEntity
  8
MAIN0
  6
CONTINUOUS
 62
3
100
AcDbBlockBegin
  2
*D18
 70
    65
 10
0.0
 20
0.0
 30
0.0
  0
LINE
  5
1A2
100
AcDbEntity
  8
MAIN0
  6
BYBLOCK
 62
0
100
AcDbLine
 10
250.7597072893363
 20
391.8355445859376
 30
0.0000000000000000
 11
265.5657433038286
 21
391.8355445859376
 31
0.0000000000000000
  0
LINE
  5
1A3
100
AcDbEntity
  8
MAIN0
  6
BYBLOCK
 62
0
100
AcDbLine
 10
262.5657433038286
 20
388.8355445859376
 30
0.0000000000000000
 11
262.5657433038286
 21
369.8355445859364
 31
0.0000000000000000
  0
INSERT
  5
1A4
100
AcDbEntity
  8
MAIN0
  6
BYBLOCK
 62
0
100
AcDbBlockReference
  2
_OPEN
 10
262.5657433038286
 20
391.8355445859376
 30
0.0000000000000000
 41
3.000000000000000
 42
3.000000000000000
 43
3.000000000000000
 50
90.00000000000000
  0
INSERT
  5
1A5
100
AcDbEntity
  8
MAIN0
  6
BYBLOCK
 62
0
100
AcDbBlockReference
  2
_OPEN
 10
262.5657433038286
 20
366.8355445859364
 30
0.0000000000000000
 41
3.000000000000000
 42
3.000000000000000
 43
3.000000000000000
 50
270.0000000000000
  0
LINE
  5
1A6
100
AcDbEntity
  8
MAIN0
  6
BYBLOCK
 62
0
100
AcDbLine
 10
250.7597072893361
 20
366.8355445859364
 30
0.0000000000000000
 11
265.5657433038286
 21
366.8355445859364
 31
0.0000000000000000
  0
MTEXT
  5
1A7
100
AcDbEntity
  8
MAIN0
  6
BYBLOCK
 62
0
100
AcDbMText
 10
259.7407433753542
 20
379.3355445859370
 30
0.0000000000000000
 40
4.649999856948853
 41
0.0000000000000000
 71
     5
 72
     1
  1
\A1;\U+220525
 11
6.123233995736766e-017
 21
1.000000000000000
 31
0.0000000000000000
  7
STANDARD
  0
ENDBLK
  5
1A8
100
AcDbEntity
  8
MAIN0
  6
CONTINUOUS
 62
3
100
AcDbBlockEnd
  0
BLOCK
  5
1B4
100
AcDbEntity
  8
MAIN0
  6
CONTINUOUS
 62
3
100
AcDbBlockBegin
  2
*D19
 70
    65
 10
0.0
 20
0.0
 30
0.0
  0
LINE
  5
1B5
100
AcDbEntity
  8
MAIN0
  6
BYBLOCK
 62
0
100
AcDbLine
 10
226.1474762708852
 20
385.8355445859375
 30
0.0000000000000000
 11
226.1474762708852
 21
372.8355445859375
 31
0.0000000000000000
  0
INSERT
  5
1B6
100
AcDbEntity
  8
MAIN0
  6
BYBLOCK
 62
0
100
AcDbBlockReference
  2
_OPEN
 10
226.1474762708852
 20
385.8355445859375
 30
0.0000000000000000
 41
3.000000000000000
 42
3.000000000000000
 43
3.000000000000000
 50
270.0000000000000
  0
INSERT
  5
1B7
100
AcDbEntity
  8
MAIN0
  6
BYBLOCK
 62
0
100
AcDbBlockReference
  2
_OPEN
 10
226.1474762708852
 20
372.8355445859375
 30
0.0000000000000000
 41
3.000000000000000
 42
3.000000000000000
 43
3.000000000000000
 50
90.00000000000000
  0
LINE
  5
1B8
100
AcDbEntity
  8
MAIN0
  6
BYBLOCK
 62
0
100
AcDbLine
 10
226.1474762708852
 20
388.8355445859375
 30
0.0000000000000000
 11
226.1474762708852
 21
390.3355445859375
 31
0.0000000000000000
  0
LINE
  5
1B9
100
AcDbEntity
  8
MAIN0
  6
BYBLOCK
 62
0
100
AcDbLine
 10
226.1474762708852
 20
369.8355445859375
 30
0.0000000000000000
 11
226.1474762708852
 21
368.3355445859375
 31
0.0000000000000000
  0
MTEXT
  5
1BA
100
AcDbEntity
  8
MAIN0
  6
BYBLOCK
 62
0
100
AcDbMText
 10
223.3224763424107
 20
379.3355445859375
 30
0.0000000000000000
 40
4.649999856948853
 41
0.0000000000000000
 71
     5
 72
     1
  1
\A1;\U+220513
 11
6.123233995736766e-017
 21
1.000000000000000
 31
0.0000000000000000
  7
STANDARD
  0
ENDBLK
  5
1BB
100
AcDbEntity
  8
MAIN0
  6
CONTINUOUS
 62
3
100
AcDbBlockEnd
  0
BLOCK
  5
1D3
100
AcDbEntity
  8
MAIN0
  6
CONTINUOUS
 62
3
100
AcDbBlockBegin
  2
*D20
 70
    65
 10
0.0
 20
0.0
 30
0.0
  0
LINE
  5
1D4
100
AcDbEntity
  8
MAIN0
  6
BYBLOCK
 62
0
100
AcDbLine
 10
717.9549099789429
 20
490.9314978975440
 30
0.0000000000000000
 11
732.5558274187582
 21
516.2210287404585
 31
0.0000000000000000
  0
LINE
  5
1D5
100
AcDbEntity
  8
MAIN0
  6
BYBLOCK
 62
0
100
AcDbLine
 10
653.5249562938260
 20
512.5422128038509
 30
0.0000000000000000
 11
653.5249562938260
 21
537.3972868354863
 31
0.0000000000000000
  0
ARC
  5
1D6
100
AcDbEntity
  8
MAIN0
  6
BYBLOCK
 62
0
100
AcDbCircle
 10
653.5249562938261
 20
379.3355445854552
 30
0.0000000000000000
 40
155.0617422500312
100
AcDbArc
 50
61.10850901099447
 51
88.89149098904051
  0
INSERT
  5
1D7
100
AcDbEntity
  8
MAIN0
  6
BYBLOCK
 62
0
100
AcDbBlockReference
  2
_OPEN
 10
731.0558274187599
 20
513.6229525291042
 30
0.0000000000000000
 41
3.000000000000000
 42
3.000000000000000
 43
3.000000000000000
 50
330.0000000000349
  0
INSERT
  5
1D8
100
AcDbEntity
  8
MAIN0
  6
BYBLOCK
 62
0
100
AcDbBlockReference
  2
_OPEN
 10
653.5249562938260
 20
534.3972868354863
 30
0.0000000000000000
 41
3.000000000000000
 42
3.000000000000000
 43
3.000000000000000
 50
180.0000000000000
  0
MTEXT
  5
1D9
100
AcDbEntity
  8
MAIN0
  6
BYBLOCK
 62
0
100
AcDbMText
 10
694.3890521387682
 20
531.8424264843297
 30
0.0000000000000000
 40
4.649999856948853
 41
0.0000000000000000
 71
     5
 72
     1
  1
\A1;30\U+00B0
 11
0.9659258262891471
 21
-0.2588190451022264
 31
0.0000000000000000
  7
STANDARD
  0
ENDBLK
  5
1DA
100
AcDbEntity
  8
MAIN0
  6
CONTINUOUS
 62
3
100
AcDbBlockEnd
  0
BLOCK
  5
1DF
100
AcDbEntity
  8
MAIN0
  6
CONTINUOUS
 62
3
100
AcDbBlockBegin
  2
*D21
 70
    65
 10
0.0
 20
0.0
 30
0.0
  0
LINE
  5
1E0
100
AcDbEntity
  8
MAIN0
  6
BYBLOCK
 62
0
100
AcDbLine
 10
621.5249562938260
 20
466.4958123241544
 30
0.0000000000000000
 11
685.5249562938260
 21
466.4958123241544
 31
0.0000000000000000
  0
INSERT
  5
1E1
100
AcDbEntity
  8
MAIN0
  6
BYBLOCK
 62
0
100
AcDbBlockReference
  2
_OPEN
 10
618.5249562938260
 20
466.4958123241544
 30
0.0000000000000000
 41
3.000000000000000
 42
3.000000000000000
 43
3.000000000000000
 50
180.0000000000000
  0
INSERT
  5
1E2
100
AcDbEntity
  8
MAIN0
  6
BYBLOCK
 62
0
100
AcDbBlockReference
  2
_OPEN
 10
688.5249562938260
 20
466.4958123241544
 30
0.0000000000000000
 41
3.000000000000000
 42
3.000000000000000
 43
3.000000000000000
 50
0.0000000000000000
  0
MTEXT
  5
1E3
100
AcDbEntity
  8
MAIN0
  6
BYBLOCK
 62
0
100
AcDbMText
 10
653.5249562938260
 20
469.3208122526288
 30
0.0000000000000000
 40
4.649999856948853
 41
0.0000000000000000
 71
     5
 72
     1
  1
\A1;70
 11
1.000000000000000
 21
0.0000000000000000
 31
0.0000000000000000
  7
STANDARD
  0
ENDBLK
  5
1E4
100
AcDbEntity
  8
MAIN0
  6
CONTINUOUS
 62
3
100
AcDbBlockEnd
  0
BLOCK
  5
1E8
100
AcDbEntity
  8
MAIN0
  6
CONTINUOUS
 62
3
100
AcDbBlockBegin
  2
*D22
 70
    65
 10
0.0
 20
0.0
 30
0.0
  0
LINE
  5
1E9
100
AcDbEntity
  8
MAIN0
  6
BYBLOCK
 62
0
100
AcDbLine
 10
287.2597072896783
 20
399.3355445859368
 30
0.0000000000000000
 11
343.5596927000393
 21
399.3355445859368
 31
0.0000000000000000
  0
LINE
  5
1EA
100
AcDbEntity
  8
MAIN0
  6
BYBLOCK
 62
0
100
AcDbLine
 10
340.5596927000393
 20
396.3355445859368
 30
0.0000000000000000
 11
340.5596927000393
 21
362.3355445859368
 31
0.0000000000000000
  0
INSERT
  5
1EB
100
AcDbEntity
  8
MAIN0
  6
BYBLOCK
 62
0
100
AcDbBlockReference
  2
_OPEN
 10
340.5596927000393
 20
399.3355445859368
 30
0.0000000000000000
 41
3.000000000000000
 42
3.000000000000000
 43
3.000000000000000
 50
90.00000000000000
  0
INSERT
  5
1EC
100
AcDbEntity
  8
MAIN0
  6
BYBLOCK
 62
0
100
AcDbBlockReference
  2
_OPEN
 10
340.5596927000393
 20
359.3355445859368
 30
0.0000000000000000
 41
3.000000000000000
 42
3.000000000000000
 43
3.000000000000000
 50
270.0000000000000
  0
LINE
  5
1ED
100
AcDbEntity
  8
MAIN0
  6
BYBLOCK
 62
0
100
AcDbLine
 10
286.9597072893985
 20
359.3355445859368
 30
0.0000000000000000
 11
343.5596927000393
 21
359.3355445859368
 31
0.0000000000000000
  0
MTEXT
  5
1EE
100
AcDbEntity
  8
MAIN0
  6
BYBLOCK
 62
0
100
AcDbMText
 10
337.7346927715648
 20
379.3355445859368
 30
0.0000000000000000
 40
4.649999856948853
 41
0.0000000000000000
 71
     5
 72
     1
  1
\A1;\U+220540
 11
6.123233995736766e-017
 21
1.000000000000000
 31
0.0000000000000000
  7
STANDARD
  0
ENDBLK
  5
1EF
100
AcDbEntity
  8
MAIN0
  6
CONTINUOUS
 62
3
100
AcDbBlockEnd
  0
BLOCK
  5
1F1
100
AcDbEntity
  8
MAIN0
  6
CONTINUOUS
 62
3
100
AcDbBlockBegin
  2
*D23
 70
    65
 10
0.0
 20
0.0
 30
0.0
  0
LINE
  5
1F2
100
AcDbEntity
  8
MAIN0
  6
BYBLOCK
 62
0
100
AcDbLine
 10
294.0597072714548
 20
394.9355446038181
 30
0.0000000000000000
 11
294.0597072714548
 21
442.3355445859377
 31
0.0000000000000000
  0
LINE
  5
1F3
100
AcDbEntity
  8
MAIN0
  6
BYBLOCK
 62
0
100
AcDbLine
 10
291.0597072714548
 20
439.3355445859377
 30
0.0000000000000000
 11
275.5597072714548
 21
439.3355445859377
 31
0.0000000000000000
  0
INSERT
  5
1F4
100
AcDbEntity
  8
MAIN0
  6
BYBLOCK
 62
0
100
AcDbBlockReference
  2
_OPEN
 10
294.0597072714548
 20
439.3355445859377
 30
0.0000000000000000
 41
3.000000000000000
 42
3.000000000000000
 43
3.000000000000000
 50
360.0000000000000
  0
INSERT
  5
1F5
100
AcDbEntity
  8
MAIN0
  6
BYBLOCK
 62
0
100
AcDbBlockReference
  2
_OPEN
 10
272.5597072714548
 20
439.3355445859377
 30
0.0000000000000000
 41
3.000000000000000
 42
3.000000000000000
 43
3.000000000000000
 50
180.0000000000000
  0
LINE
  5
1F6
100
AcDbEntity
  8
MAIN0
  6
BYBLOCK
 62
0
100
AcDbLine
 10
294.0597072714548
 20
439.3355445859377
 30
0.0000000000000000
 11
308.5011023319258
 21
439.3355445859377
 31
0.0000000000000000
  0
LINE
  5
1F7
100
AcDbEntity
  8
MAIN0
  6
BYBLOCK
 62
0
100
AcDbLine
 10
272.5597072714549
 20
393.1355446038189
 30
0.0000000000000000
 11
272.5597072714548
 21
442.3355445859377
 31
0.0000000000000000
  0
MTEXT
  5
1F8
100
AcDbEntity
  8
MAIN0
  6
BYBLOCK
 62
0
100
AcDbMText
 10
303.0261021888747
 20
442.4105445144121
 30
0.0000000000000000
 40
4.649999856948853
 41
0.0000000000000000
 71
     5
 72
     1
  1
\A1;21.5
 11
1.000000000000000
 21
0.0000000000000000
 31
0.0000000000000000
  7
STANDARD
  0
ENDBLK
  5
1F9
100
AcDbEntity
  8
MAIN0
  6
CONTINUOUS
 62
3
100
AcDbBlockEnd
  0
BLOCK
  5
204
100
AcDbEntity
  8
MAIN0
  6
CONTINUOUS
 62
3
100
AcDbBlockBegin
  2
*D24
 70
    65
 10
0.0
 20
0.0
 30
0.0
  0
LINE
  5
205
100
AcDbEntity
  8
MAIN0
  6
BYBLOCK
 62
0
100
AcDbLine
 10
786.6840280640535
 20
379.3355445854852
 30
0.0000000000000000
 11
811.5866985509210
 21
379.3355445761773
 31
0.0000000000000000
  0
LINE
  5
206
100
AcDbEntity
  8
MAIN0
  6
BYBLOCK
 62
0
100
AcDbLine
 10
729.2992746305619
 20
399.6392119929681
 30
0.0000000000000000
 11
806.2008752830005
 21
420.2449337949255
 31
0.0000000000000000
  0
ARC
  5
207
100
AcDbEntity
  8
MAIN0
  6
BYBLOCK
 62
0
100
AcDbCircle
 10
653.5249562938260
 20
379.3355445772986
 30
0.0000000000000000
 40
155.0617422570950
100
AcDbArc
 50
1.108509010909053
 51
13.89149099637314
  0
INSERT
  5
208
100
AcDbEntity
  8
MAIN0
  6
BYBLOCK
 62
0
100
AcDbBlockReference
  2
_OPEN
 10
808.5866985509210
 20
379.3355445772986
 30
0.0000000000000000
 41
3.000000000000000
 42
3.000000000000000
 43
3.000000000000000
 50
270.0000000000000
  0
INSERT
  5
209
100
AcDbEntity
  8
MAIN0
  6
BYBLOCK
 62
0
100
AcDbBlockReference
  2
_OPEN
 10
803.3030978042323
 20
419.4684766592497
 30
0.0000000000000000
 41
3.000000000000000
 42
3.000000000000000
 43
3.000000000000000
 50
105.0000000072822
  0
MTEXT
  5
20A
100
AcDbEntity
  8
MAIN0
  6
BYBLOCK
 62
0
100
AcDbMText
 10
804.4592921865628
 20
399.2064268790304
 30
0.0000000000000000
 40
4.649999856948853
 41
0.0000000000000000
 71
     5
 72
     1
  1
\A1;15\U+00B0
 11
-0.1305261922830569
 21
0.9914448613655156
 31
0.0000000000000000
  7
STANDARD
  0
ENDBLK
  5
20B
100
AcDbEntity
  8
MAIN0
  6
CONTINUOUS
 62
3
100
AcDbBlockEnd
  0
BLOCK
  5
20D
100
AcDbEntity
  8
MAIN0
  6
CONTINUOUS
 62
3
100
AcDbBlockBegin
  2
*D25
 70
    65
 10
0.0
 20
0.0
 30
0.0
  0
LINE
  5
20E
100
AcDbEntity
  8
MAIN0
  6
BYBLOCK
 62
0
100
AcDbLine
 10
729.2992746305619
 20
399.6392119929681
 30
0.0000000000000000
 11
806.2008752830005
 21
420.2449337949255
 31
0.0000000000000000
  0
LINE
  5
20F
100
AcDbEntity
  8
MAIN0
  6
BYBLOCK
 62
0
100
AcDbLine
 10
741.0152575153488
 20
466.8258458073410
 30
0.0000000000000000
 11
765.2914860845365
 21
491.1020743788927
 31
0.0000000000000000
  0
ARC
  5
210
100
AcDbEntity
  8
MAIN0
  6
BYBLOCK
 62
0
100
AcDbCircle
 10
653.5249562938260
 20
379.3355445772986
 30
0.0000000000000000
 40
155.0617422570950
100
AcDbArc
 50
16.10850901819124
 51
43.89149099188067
  0
INSERT
  5
211
100
AcDbEntity
  8
MAIN0
  6
BYBLOCK
 62
0
100
AcDbBlockReference
  2
_OPEN
 10
803.3030978042323
 20
419.4684766592497
 30
0.0000000000000000
 41
3.000000000000000
 42
3.000000000000000
 43
3.000000000000000
 50
285.0000000072822
  0
INSERT
  5
212
100
AcDbEntity
  8
MAIN0
  6
BYBLOCK
 62
0
100
AcDbBlockReference
  2
_OPEN
 10
763.1701657410799
 20
488.9807540352297
 30
0.0000000000000000
 41
3.000000000000000
 42
3.000000000000000
 43
3.000000000000000
 50
135.0000000027897
  0
MTEXT
  5
213
100
AcDbEntity
  8
MAIN0
  6
BYBLOCK
 62
0
100
AcDbMText
 10
785.3658425331066
 20
455.4539157531968
 30
0.0000000000000000
 40
4.649999856948853
 41
0.0000000000000000
 71
     5
 72
     1
  1
\A1;30\U+00B0
 11
-0.5000000000761183
 21
0.8660254037404916
 31
0.0000000000000000
  7
STANDARD
  0
ENDBLK
  5
214
100
AcDbEntity
  8
MAIN0
  6
CONTINUOUS
 62
3
100
AcDbBlockEnd
  0
BLOCK
  5
216
100
AcDbEntity
  8
MAIN0
  6
CONTINUOUS
 62
3
100
AcDbBlockBegin
  2
*D26
 70
    65
 10
0.0
 20
0.0
 30
0.0
  0
LINE
  5
217
100
AcDbEntity
  8
MAIN0
  6
BYBLOCK
 62
0
100
AcDbLine
 10
741.0152575153488
 20
466.8258458073410
 30
0.0000000000000000
 11
765.2914860845365
 21
491.1020743788927
 31
0.0000000000000000
  0
LINE
  5
218
100
AcDbEntity
  8
MAIN0
  6
BYBLOCK
 62
0
100
AcDbLine
 10
717.9549099789097
 20
490.9314978975632
 30
0.0000000000000000
 11
732.5558274179173
 21
516.2210287409441
 31
0.0000000000000000
  0
ARC
  5
219
100
AcDbEntity
  8
MAIN0
  6
BYBLOCK
 62
0
100
AcDbCircle
 10
653.5249562938260
 20
379.3355445772986
 30
0.0000000000000000
 40
155.0617422570950
100
AcDbArc
 50
46.10850901369877
 51
58.89149099095619
  0
INSERT
  5
21A
100
AcDbEntity
  8
MAIN0
  6
BYBLOCK
 62
0
100
AcDbBlockReference
  2
_OPEN
 10
763.1701657410799
 20
488.9807540352297
 30
0.0000000000000000
 41
3.000000000000000
 42
3.000000000000000
 43
3.000000000000000
 50
315.0000000027898
  0
INSERT
  5
21B
100
AcDbEntity
  8
MAIN0
  6
BYBLOCK
 62
0
100
AcDbBlockReference
  2
_OPEN
 10
731.0558274180019
 20
513.6229525295419
 30
0.0000000000000000
 41
3.000000000000000
 42
3.000000000000000
 43
3.000000000000000
 50
150.0000000018652
  0
MTEXT
  5
21C
100
AcDbEntity
  8
MAIN0
  6
BYBLOCK
 62
0
100
AcDbMText
 10
749.6403150831565
 20
504.5955188818256
 30
0.0000000000000000
 40
4.649999856948853
 41
0.0000000000000000
 71
     5
 72
     1
  1
\A1;15\U+00B0
 11
0.7933533403159644
 21
-0.6087614289764929
 31
0.0000000000000000
  7
STANDARD
  0
ENDBLK
  5
21D
100
AcDbEntity
  8
MAIN0
  6
CONTINUOUS
 62
3
100
AcDbBlockEnd
  0
BLOCK
  5
21F
100
AcDbEntity
  8
MAIN0
  6
CONTINUOUS
 62
3
100
AcDbBlockBegin
  2
*D27
 70
    65
 10
0.0
 20
0.0
 30
0.0
  0
LINE
  5
220
100
AcDbEntity
  8
MAIN0
  6
BYBLOCK
 62
0
100
AcDbLine
 10
741.0152575153884
 20
291.8452433636078
 30
0.0000000000000000
 11
765.2914860897968
 21
267.5690147891204
 31
0.0000000000000000
  0
LINE
  5
221
100
AcDbEntity
  8
MAIN0
  6
BYBLOCK
 62
0
100
AcDbLine
 10
758.4561920232146
 20
318.7534673906917
 30
0.0000000000000000
 11
790.4104404548988
 21
300.3046734569065
 31
0.0000000000000000
  0
ARC
  5
222
100
AcDbEntity
  8
MAIN0
  6
BYBLOCK
 62
0
100
AcDbCircle
 10
653.5249562938279
 20
379.3355445854535
 30
0.0000000000000000
 40
155.0617422570932
100
AcDbArc
 50
316.1085090108157
 51
328.8914909890908
  0
INSERT
  5
223
100
AcDbEntity
  8
MAIN0
  6
BYBLOCK
 62
0
100
AcDbBlockReference
  2
_OPEN
 10
763.1701657462404
 20
269.6903351326836
 30
0.0000000000000000
 41
3.000000000000000
 42
3.000000000000000
 43
3.000000000000000
 50
224.9999999999067
  0
INSERT
  5
224
100
AcDbEntity
  8
MAIN0
  6
BYBLOCK
 62
0
100
AcDbBlockReference
  2
_OPEN
 10
787.8123642435454
 20
301.8046734569066
 30
0.0000000000000000
 41
3.000000000000000
 42
3.000000000000000
 43
3.000000000000000
 50
59.99999999999989
  0
MTEXT
  5
225
100
AcDbEntity
  8
MAIN0
  6
BYBLOCK
 62
0
100
AcDbMText
 10
774.3024843352180
 20
286.6596877777527
 30
0.0000000000000000
 40
4.649999856948853
 41
0.0000000000000000
 71
     5
 72
     1
  1
\A1;15\U+00B0
 11
0.6087614290093677
 21
0.7933533402907387
 31
0.0000000000000000
  7
STANDARD
  0
ENDBLK
  5
226
100
AcDbEntity
  8
MAIN0
  6
CONTINUOUS
 62
3
100
AcDbBlockEnd
  0
BLOCK
  5
228
100
AcDbEntity
  8
MAIN0
  6
CONTINUOUS
 62
3
100
AcDbBlockBegin
  2
*D28
 70
    65
 10
0.0
 20
0.0
 30
0.0
  0
LINE
  5
229
100
AcDbEntity
  8
MAIN0
  6
BYBLOCK
 62
0
100
AcDbLine
 10
758.4561920232146
 20
318.7534673906917
 30
0.0000000000000000
 11
790.4104404548988
 21
300.3046734569065
 31
0.0000000000000000
  0
LINE
  5
22A
100
AcDbEntity
  8
MAIN0
  6
BYBLOCK
 62
0
100
AcDbLine
 10
786.6840280640535
 20
379.3355445859087
 30
0.0000000000000000
 11
811.5866985509210
 21
379.3355445853911
 31
0.0000000000000000
  0
ARC
  5
22B
100
AcDbEntity
  8
MAIN0
  6
BYBLOCK
 62
0
100
AcDbCircle
 10
653.5249562938279
 20
379.3355445854535
 30
0.0000000000000000
 40
155.0617422570932
100
AcDbArc
 50
331.1085090109089
 51
358.8914909890910
  0
INSERT
  5
22C
100
AcDbEntity
  8
MAIN0
  6
BYBLOCK
 62
0
100
AcDbBlockReference
  2
_OPEN
 10
787.8123642435454
 20
301.8046734569066
 30
0.0000000000000000
 41
3.000000000000000
 42
3.000000000000000
 43
3.000000000000000
 50
239.9999999999999
  0
INSERT
  5
22D
100
AcDbEntity
  8
MAIN0
  6
BYBLOCK
 62
0
100
AcDbBlockReference
  2
_OPEN
 10
808.5866985509210
 20
379.3355445854534
 30
0.0000000000000000
 41
3.000000000000000
 42
3.000000000000000
 43
3.000000000000000
 50
90.00000000000000
  0
MTEXT
  5
22E
100
AcDbEntity
  8
MAIN0
  6
BYBLOCK
 62
0
100
AcDbMText
 10
800.5743574191548
 20
339.9337763064416
 30
0.0000000000000000
 40
4.649999856948853
 41
0.0000000000000000
 71
     5
 72
     1
  1
\A1;30\U+00B0
 11
0.2588190451025222
 21
0.9659258262890679
 31
0.0000000000000000
  7
STANDARD
  0
ENDBLK
  5
22F
100
AcDbEntity
  8
MAIN0
  6
CONTINUOUS
 62
3
100
AcDbBlockEnd
  0
BLOCK
  5
24A
100
AcDbEntity
  8
MAIN0
  6
CONTINUOUS
 62
3
100
AcDbBlockBegin
  2
*D29
 70
    65
 10
0.0
 20
0.0
 30
0.0
  0
LINE
  5
24B
100
AcDbEntity
  8
MAIN0
  6
BYBLOCK
 62
0
100
AcDbLine
 10
277.7597072893362
 20
484.3355445859377
 30
0.0000000000000000
 11
373.5596927000393
 21
484.3355445859377
 31
0.0000000000000000
  0
LINE
  5
24C
100
AcDbEntity
  8
MAIN0
  6
BYBLOCK
 62
0
100
AcDbLine
 10
370.5596927000393
 20
481.3355445859377
 30
0.0000000000000000
 11
370.5596927000393
 21
277.3355445859377
 31
0.0000000000000000
  0
INSERT
  5
24D
100
AcDbEntity
  8
MAIN0
  6
BYBLOCK
 62
0
100
AcDbBlockReference
  2
_OPEN
 10
370.5596927000393
 20
484.3355445859377
 30
0.0000000000000000
 41
3.000000000000000
 42
3.000000000000000
 43
3.000000000000000
 50
90.00000000000000
  0
INSERT
  5
24E
100
AcDbEntity
  8
MAIN0
  6
BYBLOCK
 62
0
100
AcDbBlockReference
  2
_OPEN
 10
370.5596927000393
 20
274.3355445859377
 30
0.0000000000000000
 41
3.000000000000000
 42
3.000000000000000
 43
3.000000000000000
 50
270.0000000000000
  0
LINE
  5
24F
100
AcDbEntity
  8
MAIN0
  6
BYBLOCK
 62
0
100
AcDbLine
 10
277.7597072893342
 20
274.3355445859377
 30
0.0000000000000000
 11
373.5596927000393
 21
274.3355445859377
 31
0.0000000000000000
  0
MTEXT
  5
250
100
AcDbEntity
  8
MAIN0
  6
BYBLOCK
 62
0
100
AcDbMText
 10
367.7346927715648
 20
379.3355445859377
 30
0.0000000000000000
 40
4.649999856948853
 41
0.0000000000000000
 71
     5
 72
     1
  1
\A1;\U+2205210
 11
6.123233995736766e-017
 21
1.000000000000000
 31
0.0000000000000000
  7
STANDARD
  0
ENDBLK
  5
251
100
AcDbEntity
  8
MAIN0
  6
CONTINUOUS
 62
3
100
AcDbBlockEnd
  0
BLOCK
  5
257
100
AcDbEntity
  8
MAIN0
  6
CONTINUOUS
 62
3
100
AcDbBlockBegin
  2
*D30
 70
    65
 10
0.0
 20
0.0
 30
0.0
  0
LINE
  5
258
100
AcDbEntity
  8
MAIN0
  6
BYBLOCK
 62
0
100
AcDbLine
 10
294.0597072714548
 20
367.7355445680553
 30
0.0000000000000000
 11
294.0597072714548
 21
316.3355445859377
 31
0.0000000000000000
  0
LINE
  5
259
100
AcDbEntity
  8
MAIN0
  6
BYBLOCK
 62
0
100
AcDbLine
 10
291.0597072714548
 20
319.3355445859377
 30
0.0000000000000000
 11
250.5597072714548
 21
319.3355445859377
 31
0.0000000000000000
  0
INSERT
  5
25A
100
AcDbEntity
  8
MAIN0
  6
BYBLOCK
 62
0
100
AcDbBlockReference
  2
_OPEN
 10
294.0597072714548
 20
319.3355445859377
 30
0.0000000000000000
 41
3.000000000000000
 42
3.000000000000000
 43
3.000000000000000
 50
360.0000000000000
  0
INSERT
  5
25B
100
AcDbEntity
  8
MAIN0
  6
BYBLOCK
 62
0
100
AcDbBlockReference
  2
_OPEN
 10
247.5597072714548
 20
319.3355445859377
 30
0.0000000000000000
 41
3.000000000000000
 42
3.000000000000000
 43
3.000000000000000
 50
180.0000000000000
  0
LINE
  5
25C
100
AcDbEntity
  8
MAIN0
  6
BYBLOCK
 62
0
100
AcDbLine
 10
247.5597072714548
 20
366.3426513492428
 30
0.0000000000000000
 11
247.5597072714548
 21
316.3355445859377
 31
0.0000000000000000
  0
MTEXT
  5
25D
100
AcDbEntity
  8
MAIN0
  6
BYBLOCK
 62
0
100
AcDbMText
 10
262.7830677740568
 20
322.4105445144121
 30
0.0000000000000000
 40
4.649999856948853
 41
0.0000000000000000
 71
     5
 72
     1
  1
\A1;46.5
 11
1.000000000000000
 21
0.0000000000000000
 31
0.0000000000000000
  7
STANDARD
  0
ENDBLK
  5
25E
100
AcDbEntity
  8
MAIN0
  6
CONTINUOUS
 62
3
100
AcDbBlockEnd
  0
BLOCK
  5
260
100
AcDbEntity
  8
MAIN0
  6
CONTINUOUS
 62
3
100
AcDbBlockBegin
  2
*D31
 70
    65
 10
0.0
 20
0.0
 30
0.0
  0
LINE
  5
261
100
AcDbEntity
  8
MAIN0
  6
BYBLOCK
 62
0
100
AcDbLine
 10
247.5597072714548
 20
366.3426513492428
 30
0.0000000000000000
 11
247.5597072714548
 21
316.3355445859377
 31
0.0000000000000000
  0
LINE
  5
262
100
AcDbEntity
  8
MAIN0
  6
BYBLOCK
 62
0
100
AcDbLine
 10
244.5597072714548
 20
319.3355445859377
 30
0.0000000000000000
 11
219.5597072714549
 21
319.3355445859377
 31
0.0000000000000000
  0
INSERT
  5
263
100
AcDbEntity
  8
MAIN0
  6
BYBLOCK
 62
0
100
AcDbBlockReference
  2
_OPEN
 10
247.5597072714548
 20
319.3355445859377
 30
0.0000000000000000
 41
3.000000000000000
 42
3.000000000000000
 43
3.000000000000000
 50
360.0000000000000
  0
INSERT
  5
264
100
AcDbEntity
  8
MAIN0
  6
BYBLOCK
 62
0
100
AcDbBlockReference
  2
_OPEN
 10
216.5597072714549
 20
319.3355445859377
 30
0.0000000000000000
 41
3.000000000000000
 42
3.000000000000000
 43
3.000000000000000
 50
180.0000000000000
  0
LINE
  5
265
100
AcDbEntity
  8
MAIN0
  6
BYBLOCK
 62
0
100
AcDbLine
 10
216.5597072714549
 20
371.6355445680562
 30
0.0000000000000000
 11
216.5597072714549
 21
316.3355445859377
 31
0.0000000000000000
  0
MTEXT
  5
266
100
AcDbEntity
  8
MAIN0
  6
BYBLOCK
 62
0
100
AcDbMText
 10
232.0597072714549
 20
322.1605445144121
 30
0.0000000000000000
 40
4.649999856948853
 41
0.0000000000000000
 71
     5
 72
     1
  1
\A1;31
 11
1.000000000000000
 21
0.0000000000000000
 31
0.0000000000000000
  7
STANDARD
  0
ENDBLK
  5
267
100
AcDbEntity
  8
MAIN0
  6
CONTINUOUS
 62
3
100
AcDbBlockEnd
  0
BLOCK
  5
26E
100
AcDbEntity
  8
MAIN0
  6
CONTINUOUS
 62
3
100
AcDbBlockBegin
  2
*D32
 70
    65
 10
0.0
 20
0.0
 30
0.0
  0
LINE
  5
26F
100
AcDbEntity
  8
MAIN0
  6
BYBLOCK
 62
0
100
AcDbLine
 10
294.0597072714548
 20
367.7355445680553
 30
0.0000000000000000
 11
294.0597072714548
 21
331.3355445859377
 31
0.0000000000000000
  0
LINE
  5
270
100
AcDbEntity
  8
MAIN0
  6
BYBLOCK
 62
0
100
AcDbLine
 10
294.0597072714548
 20
334.3355445859377
 30
0.0000000000000000
 11
286.7597072714545
 21
334.3355445859377
 31
0.0000000000000000
  0
INSERT
  5
271
100
AcDbEntity
  8
MAIN0
  6
BYBLOCK
 62
0
100
AcDbBlockReference
  2
_OPEN
 10
294.0597072714548
 20
334.3355445859377
 30
0.0000000000000000
 41
3.000000000000000
 42
3.000000000000000
 43
3.000000000000000
 50
180.0000000000000
  0
INSERT
  5
272
100
AcDbEntity
  8
MAIN0
  6
BYBLOCK
 62
0
100
AcDbBlockReference
  2
_OPEN
 10
286.7597072714545
 20
334.3355445859377
 30
0.0000000000000000
 41
3.000000000000000
 42
3.000000000000000
 43
3.000000000000000
 50
360.0000000000000
  0
LINE
  5
273
100
AcDbEntity
  8
MAIN0
  6
BYBLOCK
 62
0
100
AcDbLine
 10
297.0597072714548
 20
334.3355445859377
 30
0.0000000000000000
 11
304.6653854845063
 21
334.3355445859377
 31
0.0000000000000000
  0
LINE
  5
274
100
AcDbEntity
  8
MAIN0
  6
BYBLOCK
 62
0
100
AcDbLine
 10
283.7597072714545
 20
334.3355445859377
 30
0.0000000000000000
 11
282.2597072714545
 21
334.3355445859377
 31
0.0000000000000000
  0
LINE
  5
275
100
AcDbEntity
  8
MAIN0
  6
BYBLOCK
 62
0
100
AcDbLine
 10
286.7597072714544
 20
358.7128948372089
 30
0.0000000000000000
 11
286.7597072714545
 21
331.3355445859377
 31
0.0000000000000000
  0
MTEXT
  5
276
100
AcDbEntity
  8
MAIN0
  6
BYBLOCK
 62
0
100
AcDbMText
 10
300.7653856275574
 20
337.4105445144121
 30
0.0000000000000000
 40
4.649999856948853
 41
0.0000000000000000
 71
     5
 72
     1
  1
\A1;7.3
 11
1.000000000000000
 21
0.0000000000000000
 31
0.0000000000000000
  7
STANDARD
  0
ENDBLK
  5
277
100
AcDbEntity
  8
MAIN0
  6
CONTINUOUS
 62
3
100
AcDbBlockEnd
  0
BLOCK
  5
27B
100
AcDbEntity
  8
MAIN0
  6
CONTINUOUS
 62
3
100
AcDbBlockBegin
  2
*D33
 70
    65
 10
0.0
 20
0.0
 30
0.0
  0
LINE
  5
27C
100
AcDbEntity
  8
MAIN0
  6
BYBLOCK
 62
0
100
AcDbLine
 10
191.0597072714549
 20
389.9112331767136
 30
0.0000000000000000
 11
191.5597072714538
 21
389.9112331767136
 31
0.0000000000000000
  0
INSERT
  5
27D
100
AcDbEntity
  8
MAIN0
  6
BYBLOCK
 62
0
100
AcDbBlockReference
  2
_OPEN
 10
191.0597072714549
 20
389.9112331767136
 30
0.0000000000000000
 41
3.000000000000000
 42
3.000000000000000
 43
3.000000000000000
 50
0.0000000000000000
  0
INSERT
  5
27E
100
AcDbEntity
  8
MAIN0
  6
BYBLOCK
 62
0
100
AcDbBlockReference
  2
_OPEN
 10
191.5597072714538
 20
389.9112331767136
 30
0.0000000000000000
 41
3.000000000000000
 42
3.000000000000000
 43
3.000000000000000
 50
180.0000000000000
  0
LINE
  5
27F
100
AcDbEntity
  8
MAIN0
  6
BYBLOCK
 62
0
100
AcDbLine
 10
188.0597072714549
 20
389.9112331767136
 30
0.0000000000000000
 11
180.8469047351597
 21
389.9112331767136
 31
0.0000000000000000
  0
LINE
  5
280
100
AcDbEntity
  8
MAIN0
  6
BYBLOCK
 62
0
100
AcDbLine
 10
194.5597072714538
 20
389.9112331767136
 30
0.0000000000000000
 11
196.0597072714538
 21
389.9112331767136
 31
0.0000000000000000
  0
MTEXT
  5
281
100
AcDbEntity
  8
MAIN0
  6
BYBLOCK
 62
0
100
AcDbMText
 10
184.7469045921085
 20
392.9862331051880
 30
0.0000000000000000
 40
4.649999856948853
 41
0.0000000000000000
 71
     5
 72
     1
  1
\A1;0.2
 11
1.000000000000000
 21
0.0000000000000000
 31
0.0000000000000000
  7
STANDARD
  0
ENDBLK
  5
282
100
AcDbEntity
  8
MAIN0
  6
CONTINUOUS
 62
3
100
AcDbBlockEnd
  0
BLOCK
  5
286
100
AcDbEntity
  8
MAIN0
  6
CONTINUOUS
 62
3
100
AcDbBlockBegin
  2
*D34
 70
    65
 10
0.0
 20
0.0
 30
0.0
  0
LINE
  5
287
100
AcDbEntity
  8
MAIN0
  6
BYBLOCK
 62
0
100
AcDbLine
 10
189.8597072535735
 20
441.8355445860871
 30
0.0000000000000000
 11
156.0538189656427
 21
441.8355445860871
 31
0.0000000000000000
  0
LINE
  5
288
100
AcDbEntity
  8
MAIN0
  6
BYBLOCK
 62
0
100
AcDbLine
 10
159.0538189656428
 20
438.8355445860871
 30
0.0000000000000000
 11
159.0538189656428
 21
319.8355445857911
 31
0.0000000000000000
  0
INSERT
  5
289
100
AcDbEntity
  8
MAIN0
  6
BYBLOCK
 62
0
100
AcDbBlockReference
  2
_OPEN
 10
159.0538189656428
 20
441.8355445860871
 30
0.0000000000000000
 41
3.000000000000000
 42
3.000000000000000
 43
3.000000000000000
 50
90.00000000000000
  0
INSERT
  5
28A
100
AcDbEntity
  8
MAIN0
  6
BYBLOCK
 62
0
100
AcDbBlockReference
  2
_OPEN
 10
159.0538189656428
 20
316.8355445857911
 30
0.0000000000000000
 41
3.000000000000000
 42
3.000000000000000
 43
3.000000000000000
 50
270.0000000000000
  0
LINE
  5
28B
100
AcDbEntity
  8
MAIN0
  6
BYBLOCK
 62
0
100
AcDbLine
 10
189.8597072535736
 20
316.8355445857911
 30
0.0000000000000000
 11
156.0538189656428
 21
316.8355445857911
 31
0.0000000000000000
  0
MTEXT
  5
28C
100
AcDbEntity
  8
MAIN0
  6
BYBLOCK
 62
0
100
AcDbMText
 10
156.2288190371683
 20
379.3355445859391
 30
0.0000000000000000
 40
4.649999856948853
 41
0.0000000000000000
 71
     5
 72
     1
  1
\A1;\U+2205125
 11
6.123233995736766e-017
 21
1.000000000000000
 31
0.0000000000000000
  7
STANDARD
  0
ENDBLK
  5
28D
100
AcDbEntity
  8
MAIN0
  6
CONTINUOUS
 62
3
100
AcDbBlockEnd
  0
BLOCK
  5
292
100
AcDbEntity
  8
MAIN0
  6
CONTINUOUS
 62
3
100
AcDbBlockBegin
  2
*D35
 70
    65
 10
0.0
 20
0.0
 30
0.0
  0
LINE
  5
293
100
AcDbEntity
  8
MAIN0
  6
BYBLOCK
 62
0
100
AcDbLine
 10
189.8597072535735
 20
306.3355445859378
 30
0.0000000000000000
 11
156.0538189656428
 21
306.3355445859378
 31
0.0000000000000000
  0
LINE
  5
294
100
AcDbEntity
  8
MAIN0
  6
BYBLOCK
 62
0
100
AcDbLine
 10
159.0538189656428
 20
303.3355445859378
 30
0.0000000000000000
 11
159.0538189656428
 21
295.3355445859378
 31
0.0000000000000000
  0
INSERT
  5
295
100
AcDbEntity
  8
MAIN0
  6
BYBLOCK
 62
0
100
AcDbBlockReference
  2
_OPEN
 10
159.0538189656428
 20
306.3355445859378
 30
0.0000000000000000
 41
3.000000000000000
 42
3.000000000000000
 43
3.000000000000000
 50
90.00000000000000
  0
INSERT
  5
296
100
AcDbEntity
  8
MAIN0
  6
BYBLOCK
 62
0
100
AcDbBlockReference
  2
_OPEN
 10
159.0538189656428
 20
292.3355445859378
 30
0.0000000000000000
 41
3.000000000000000
 42
3.000000000000000
 43
3.000000000000000
 50
270.0000000000000
  0
LINE
  5
297
100
AcDbEntity
  8
MAIN0
  6
BYBLOCK
 62
0
100
AcDbLine
 10
189.8597072535735
 20
292.3355445859378
 30
0.0000000000000000
 11
156.0538189656428
 21
292.3355445859378
 31
0.0000000000000000
  0
MTEXT
  5
298
100
AcDbEntity
  8
MAIN0
  6
BYBLOCK
 62
0
100
AcDbMText
 10
156.2288190371683
 20
299.3355445859378
 30
0.0000000000000000
 40
4.649999856948853
 41
0.0000000000000000
 71
     5
 72
     1
  1
\A1;\U+220514
 11
6.123233995736766e-017
 21
1.000000000000000
 31
0.0000000000000000
  7
STANDARD
  0
ENDBLK
  5
299
100
AcDbEntity
  8
MAIN0
  6
CONTINUOUS
 62
3
100
AcDbBlockEnd
  0
BLOCK
  5
2A8
100
AcDbEntity
  8
MAIN0
  6
CONTINUOUS
 62
3
100
AcDbBlockBegin
  2
*D36
 70
    65
 10
0.0
 20
0.0
 30
0.0
  0
LINE
  5
2A9
100
AcDbEntity
  8
MAIN0
  6
BYBLOCK
 62
0
100
AcDbLine
 10
693.5249562938693
 20
252.6355445675730
 30
0.0000000000000000
 11
693.5249562938693
 21
188.9952188594349
 31
0.0000000000000000
  0
LINE
  5
2AA
100
AcDbEntity
  8
MAIN0
  6
BYBLOCK
 62
0
100
AcDbLine
 10
690.5249562938693
 20
191.9952188594349
 30
0.0000000000000000
 11
616.5249562938693
 21
191.9952188594349
 31
0.0000000000000000
  0
INSERT
  5
2AB
100
AcDbEntity
  8
MAIN0
  6
BYBLOCK
 62
0
100
AcDbBlockReference
  2
_OPEN
 10
693.5249562938693
 20
191.9952188594349
 30
0.0000000000000000
 41
3.000000000000000
 42
3.000000000000000
 43
3.000000000000000
 50
360.0000000000000
  0
INSERT
  5
2AC
100
AcDbEntity
  8
MAIN0
  6
BYBLOCK
 62
0
100
AcDbBlockReference
  2
_OPEN
 10
613.5249562938693
 20
191.9952188594349
 30
0.0000000000000000
 41
3.000000000000000
 42
3.000000000000000
 43
3.000000000000000
 50
180.0000000000000
  0
LINE
  5
2AD
100
AcDbEntity
  8
MAIN0
  6
BYBLOCK
 62
0
100
AcDbLine
 10
613.5249562938693
 20
252.6355445675730
 30
0.0000000000000000
 11
613.5249562938693
 21
188.9952188594349
 31
0.0000000000000000
  0
MTEXT
  5
2AE
100
AcDbEntity
  8
MAIN0
  6
BYBLOCK
 62
0
100
AcDbMText
 10
653.5249562938693
 20
194.8202187879093
 30
0.0000000000000000
 40
4.649999856948853
 41
0.0000000000000000
 71
     5
 72
     1
  1
\A1;80
 11
1.000000000000000
 21
0.0000000000000000
 31
0.0000000000000000
  7
STANDARD
  0
ENDBLK
  5
2AF
100
AcDbEntity
  8
MAIN0
  6
CONTINUOUS
 62
3
100
AcDbBlockEnd
  0
BLOCK
  5
2B1
100
AcDbEntity
  8
MAIN0
  6
CONTINUOUS
 62
3
100
AcDbBlockBegin
  2
*D37
 70
    65
 10
0.0
 20
0.0
 30
0.0
  0
LINE
  5
2B2
100
AcDbEntity
  8
MAIN0
  6
BYBLOCK
 62
0
100
AcDbLine
 10
526.3375580237303
 20
379.3355445859361
 30
0.0000000000000000
 11
496.0336327190757
 21
379.3355445859334
 31
0.0000000000000000
  0
LINE
  5
2B3
100
AcDbEntity
  8
MAIN0
  6
BYBLOCK
 62
0
100
AcDbLine
 10
499.0336327190757
 20
376.3355445859337
 30
0.0000000000000000
 11
499.0336327190757
 21
256.8355445854544
 31
0.0000000000000000
  0
INSERT
  5
2B4
100
AcDbEntity
  8
MAIN0
  6
BYBLOCK
 62
0
100
AcDbBlockReference
  2
_OPEN
 10
499.0336327190757
 20
379.3355445859337
 30
0.0000000000000000
 41
3.000000000000000
 42
3.000000000000000
 43
3.000000000000000
 50
90.00000000000000
  0
INSERT
  5
2B5
100
AcDbEntity
  8
MAIN0
  6
BYBLOCK
 62
0
100
AcDbBlockReference
  2
_OPEN
 10
499.0336327190757
 20
253.8355445854544
 30
0.0000000000000000
 41
3.000000000000000
 42
3.000000000000000
 43
3.000000000000000
 50
270.0000000000000
  0
LINE
  5
2B6
100
AcDbEntity
  8
MAIN0
  6
BYBLOCK
 62
0
100
AcDbLine
 10
612.3249562759879
 20
253.8355445854544
 30
0.0000000000000000
 11
496.0336327190757
 21
253.8355445854544
 31
0.0000000000000000
  0
MTEXT
  5
2B7
100
AcDbEntity
  8
MAIN0
  6
BYBLOCK
 62
0
100
AcDbMText
 10
496.2086327906013
 20
316.5855445856940
 30
0.0000000000000000
 40
4.649999856948853
 41
0.0000000000000000
 71
     5
 72
     1
  1
\A1;125.5
 11
6.123233995736766e-017
 21
1.000000000000000
 31
0.0000000000000000
  7
STANDARD
  0
ENDBLK
  5
2B8
100
AcDbEntity
  8
MAIN0
  6
CONTINUOUS
 62
3
100
AcDbBlockEnd
  0
BLOCK
  5
2C6
100
AcDbEntity
  8
MAIN0
  6
BYBLOCK
 62
3
100
AcDbBlockBegin
  2
M0
 70
    64
 10
0.0
 20
0.0
 30
0.0
  0
LINE
  5
2C7
100
AcDbEntity
  8
MAIN0
  6
BYBLOCK
 62
0
100
AcDbLine
 10
698.9194744695429
 20
104.6369890987860
 30
0.0000000000000000
 11
855.0555061037121
 21
104.6369890987860
 31
0.0000000000000000
  0
LINE
  5
2C8
100
AcDbEntity
  8
MAIN0
  6
BYBLOCK
 62
0
100
AcDbLine
 10
698.9194744695429
 20
97.13698909878593
 30
0.0000000000000000
 11
855.0555061037204
 21
97.13698909878593
 31
0.0000000000000000
  0
MTEXT
  5
2C9
100
AcDbEntity
  8
MAIN0
  6
BYBLOCK
 62
0
100
AcDbMText
 10
700.2077808902513
 20
125.1917668848221
 30
0.0000000000000000
 40
7.500000000000000
 41
0.0000000000000000
 71
     1
 72
     1
  1
{\H0.63x;NOTICE}
 11
1.000000000000000
 21
0.0000000000000000
 31
0.0000000000000000
  7
STANDARD
  0
LINE
  5
2CA
100
AcDbEntity
  8
MAIN0
  6
BYBLOCK
 62
0
100
AcDbLine
 10
728.9194744695426
 20
127.8869890987864
 30
0.0000000000000000
 11
728.9194744695426
 21
114.3869890987864
 31
0.0000000000000000
  0
LINE
  5
2CB
100
AcDbEntity
  8
MAIN0
  6
BYBLOCK
 62
0
100
AcDbLine
 10
698.9194744695429
 20
114.3869890987864
 30
0.0000000000000000
 11
728.9194744695426
 21
114.3869890987864
 31
0.0000000000000000
  0
LINE
  5
2CC
100
AcDbEntity
  8
MAIN0
  6
BYBLOCK
 62
0
100
AcDbLine
 10
698.9194744695429
 20
127.8869890987864
 30
0.0000000000000000
 11
698.9194744695429
 21
114.3869890987864
 31
0.0000000000000000
  0
LINE
  5
2CD
100
AcDbEntity
  8
MAIN0
  6
BYBLOCK
 62
0
100
AcDbLine
 10
698.9194744695429
 20
127.8869890987864
 30
0.0000000000000000
 11
728.9194744695426
 21
127.8869890987864
 31
0.0000000000000000
  0
ENDBLK
  5
2CE
100
AcDbEntity
  8
MAIN0
  6
BYBLOCK
 62
3
100
AcDbBlockEnd
  0
BLOCK
  5
2D0
100
AcDbEntity
  8
MAIN0
  6
BYBLOCK
 62
3
100
AcDbBlockBegin
  2
M1
 70
    64
 10
0.0
 20
0.0
 30
0.0
  0
LINE
  5
2D1
100
AcDbEntity
  8
MAIN0
  6
BYBLOCK
 62
0
100
AcDbLine
 10
698.9194744695346
 20
158.2593243385982
 30
0.0000000000000000
 11
848.6615154730538
 21
158.2593243385982
 31
0.0000000000000000
  0
LINE
  5
2D2
100
AcDbEntity
  8
MAIN0
  6
BYBLOCK
 62
0
100
AcDbLine
 10
698.9194744695346
 20
150.7593243385982
 30
0.0000000000000000
 11
848.6615154730538
 21
150.7593243385982
 31
0.0000000000000000
  0
MTEXT
  5
2D3
100
AcDbEntity
  8
MAIN0
  6
BYBLOCK
 62
0
100
AcDbMText
 10
701.1694744695346
 20
179.2593243385986
 30
0.0000000000000000
 40
9.000000000000000
 41
0.0000000000000000
 71
     1
 72
     1
  1
{\H0.80x;要注意}
 11
1.000000000000000
 21
0.0000000000000000
 31
0.0000000000000000
  7
KNJYOKO
  0
LINE
  5
2D4
100
AcDbEntity
  8
MAIN0
  6
BYBLOCK
 62
0
100
AcDbLine
 10
728.9194744695346
 20
181.5093243385986
 30
0.0000000000000000
 11
728.9194744695346
 21
168.0093243385986
 31
0.0000000000000000
  0
LINE
  5
2D5
100
AcDbEntity
  8
MAIN0
  6
BYBLOCK
 62
0
100
AcDbLine
 10
698.9194744695346
 20
168.0093243385986
 30
0.0000000000000000
 11
728.9194744695346
 21
168.0093243385986
 31
0.0000000000000000
  0
LINE
  5
2D6
100
AcDbEntity
  8
MAIN0
  6
BYBLOCK
 62
0
100
AcDbLine
 10
698.9194744695346
 20
181.5093243385986
 30
0.0000000000000000
 11
698.9194744695346
 21
168.0093243385986
 31
0.0000000000000000
  0
LINE
  5
2D7
100
AcDbEntity
  8
MAIN0
  6
BYBLOCK
 62
0
100
AcDbLine
 10
698.9194744695346
 20
181.5093243385986
 30
0.0000000000000000
 11
728.9194744695346
 21
181.5093243385986
 31
0.0000000000000000
  0
ENDBLK
  5
2D8
100
AcDbEntity
  8
MAIN0
  6
BYBLOCK
 62
3
100
AcDbBlockEnd
  0
BLOCK
  5
2DC
100
AcDbEntity
  8
MAIN0
  6
BYBLOCK
 62
3
100
AcDbBlockBegin
  2
*X0
 70
     1
 10
0.0
 20
0.0
 30
0.0
  0
LINE
  5
2DD
100
AcDbEntity
  8
MAIN0
  6
BYBLOCK
 62
0
100
AcDbLine
 10
259.4597072714541
 20
401.2748844141572
 30
0.0000000000000000
 11
260.5203674432328
 21
402.3355445859359
 31
0.0000000000000000
  0
LINE
  5
2DE
100
AcDbEntity
  8
MAIN0
  6
BYBLOCK
 62
0
100
AcDbLine
 10
259.4597072714546
 20
400.2142242423786
 30
0.0000000000000000
 11
261.5810276150128
 21
402.3355445859368
 31
0.0000000000000000
  0
LINE
  5
2DF
100
AcDbEntity
  8
MAIN0
  6
BYBLOCK
 62
0
100
AcDbLine
 10
259.6416877867919
 20
399.3355445859368
 30
0.0000000000000000
 11
262.6416877867910
 21
402.3355445859359
 31
0.0000000000000000
  0
LINE
  5
2E0
100
AcDbEntity
  8
MAIN0
  6
BYBLOCK
 62
0
100
AcDbLine
 10
260.7023479585719
 20
399.3355445859377
 30
0.0000000000000000
 11
263.6124125419836
 21
402.2456091699299
 31
0.0000000000000000
  0
LINE
  5
2E1
100
AcDbEntity
  8
MAIN0
  6
BYBLOCK
 62
0
100
AcDbLine
 10
261.7630081303500
 20
399.3355445859363
 30
0.0000000000000000
 11
263.7597072714561
 21
401.3322437270424
 31
0.0000000000000000
  0
LINE
  5
2E2
100
AcDbEntity
  8
MAIN0
  6
BYBLOCK
 62
0
100
AcDbLine
 10
262.8236683021296
 20
399.3355445859368
 30
0.0000000000000000
 11
264.3236683021323
 21
400.8355445859399
 31
0.0000000000000000
  0
LINE
  5
2E3
100
AcDbEntity
  8
MAIN0
  6
BYBLOCK
 62
0
100
AcDbLine
 10
263.8843284739078
 20
399.3355445859368
 30
0.0000000000000000
 11
265.3843284739101
 21
400.8355445859386
 31
0.0000000000000000
  0
LINE
  5
2E4
100
AcDbEntity
  8
MAIN0
  6
BYBLOCK
 62
0
100
AcDbLine
 10
264.9449886456864
 20
399.3355445859359
 30
0.0000000000000000
 11
265.7597072714534
 21
400.1502632117029
 31
0.0000000000000000
  0
ENDBLK
  5
2E5
100
AcDbEntity
  8
MAIN0
  6
BYBLOCK
 62
3
100
AcDbBlockEnd
  0
BLOCK
  5
2E7
100
AcDbEntity
  8
MAIN0
  6
BYBLOCK
 62
3
100
AcDbBlockBegin
  2
*X1
 70
     1
 10
0.0
 20
0.0
 30
0.0
  0
LINE
  5
2E8
100
AcDbEntity
  8
MAIN0
  6
BYBLOCK
 62
0
100
AcDbLine
 10
263.3597073186907
 20
356.3355445859369
 30
0.0000000000000000
 11
263.7597072714552
 21
356.7355445859382
 31
0.0000000000000000
  0
LINE
  5
2E9
100
AcDbEntity
  8
MAIN0
  6
BYBLOCK
 62
0
100
AcDbLine
 10
264.8597072714542
 20
357.8355445859368
 30
0.0000000000000000
 11
265.7597072714571
 21
358.7355445859396
 31
0.0000000000000000
  0
LINE
  5
2EA
100
AcDbEntity
  8
MAIN0
  6
BYBLOCK
 62
0
100
AcDbLine
 10
262.2990470996761
 20
356.3355445859377
 30
0.0000000000000000
 11
263.7597072714548
 21
357.7962047577169
 31
0.0000000000000000
  0
LINE
  5
2EB
100
AcDbEntity
  8
MAIN0
  6
BYBLOCK
 62
0
100
AcDbLine
 10
263.7990470996747
 20
357.8355445859368
 30
0.0000000000000000
 11
265.2990470996765
 21
359.3355445859386
 31
0.0000000000000000
  0
LINE
  5
2EC
100
AcDbEntity
  8
MAIN0
  6
BYBLOCK
 62
0
100
AcDbLine
 10
261.2383869278960
 20
356.3355445859368
 30
0.0000000000000000
 11
264.2383869278979
 21
359.3355445859390
 31
0.0000000000000000
  0
LINE
  5
2ED
100
AcDbEntity
  8
MAIN0
  6
BYBLOCK
 62
0
100
AcDbLine
 10
260.1777267561179
 20
356.3355445859377
 30
0.0000000000000000
 11
263.1777267561183
 21
359.3355445859381
 31
0.0000000000000000
  0
LINE
  5
2EE
100
AcDbEntity
  8
MAIN0
  6
BYBLOCK
 62
0
100
AcDbLine
 10
259.4597072714537
 20
356.6781852730530
 30
0.0000000000000000
 11
262.1170665843401
 21
359.3355445859390
 31
0.0000000000000000
  0
LINE
  5
2EF
100
AcDbEntity
  8
MAIN0
  6
BYBLOCK
 62
0
100
AcDbLine
 10
259.4597072714546
 20
357.7388454448321
 30
0.0000000000000000
 11
261.0564064125601
 21
359.3355445859381
 31
0.0000000000000000
  0
LINE
  5
2F0
100
AcDbEntity
  8
MAIN0
  6
BYBLOCK
 62
0
100
AcDbLine
 10
259.4597072714537
 20
358.7995056166103
 30
0.0000000000000000
 11
259.9957462407824
 21
359.3355445859390
 31
0.0000000000000000
  0
ENDBLK
  5
2F1
100
AcDbEntity
  8
MAIN0
  6
BYBLOCK
 62
3
100
AcDbBlockEnd
  0
BLOCK
  5
305
100
AcDbEntity
  8
MAIN10
  6
CONTINUOUS
 62
3
100
AcDbBlockBegin
  2
*D38
 70
    65
 10
0.0
 20
0.0
 30
0.0
  0
LINE
  5
306
100
AcDbEntity
  8
MAIN10
  6
BYBLOCK
 62
0
100
AcDbLine
 10
559.8262513812284
 20
440.6914953783640
 30
0.0000000000000000
 11
747.2236612064239
 21
317.9795937925450
 31
0.0000000000000000
  0
INSERT
  5
307
100
AcDbEntity
  8
MAIN10
  6
BYBLOCK
 62
0
100
AcDbBlockReference
  2
_OPEN
 10
557.3164646424981
 20
442.3349583460313
 30
0.0000000000000000
 41
3.000000000000000
 42
3.000000000000000
 43
3.000000000000000
 50
146.7823482224374
  0
INSERT
  5
308
100
AcDbEntity
  8
MAIN10
  6
BYBLOCK
 62
0
100
AcDbBlockReference
  2
_OPEN
 10
749.7334479451541
 20
316.3361308248777
 30
0.0000000000000000
 41
3.000000000000000
 42
3.000000000000000
 43
3.000000000000000
 50
326.7823482224374
  0
MTEXT
  5
309
100
AcDbEntity
  8
MAIN10
  6
BYBLOCK
 62
0
100
AcDbMText
 10
597.8959890496722
 20
419.4382137993662
 30
0.0000000000000000
 40
4.649999856948853
 41
0.0000000000000000
 71
     5
 72
     1
  1
\A1;\U+2205230\H0.903226x;\U+00B10.2
 11
0.8365955795767653
 21
-0.5478209892224066
 31
0.0000000000000000
  7
STANDARD
  0
ENDBLK
  5
30A
100
AcDbEntity
  8
MAIN10
  6
CONTINUOUS
 62
3
100
AcDbBlockEnd
  0
ENDSEC
  0
SECTION
  2
ENTITIES
  0
LINE
  5
46
100
AcDbEntity
  8
MAIN0
  6
PHANTOM
 62
3
100
AcDbLine
 10
206.0596927000376
 20
276.3355445859376
 30
0.0000000000000000
 11
206.0596927000377
 21
286.8355445859429
 31
0.0000000000000000
  0
LINE
  5
47
100
AcDbEntity
  8
MAIN0
  6
CENTER
 62
3
100
AcDbLine
 10
221.0596927000375
 20
242.0712565982643
 30
0.0000000000000000
 11
221.0596927000379
 21
273.0850774759050
 31
0.0000000000000000
  0
LINE
  5
48
100
AcDbEntity
  8
MAIN0
  6
CONTINUOUS
 62
3
100
AcDbLine
 10
236.0596927000377
 20
253.8355445859373
 30
0.0000000000000000
 11
236.0596927000379
 21
273.8355445859373
 31
0.0000000000000000
  0
LINE
  5
49
100
AcDbEntity
  8
MAIN0
  6
CONTINUOUS
 62
3
100
AcDbLine
 10
236.0596927000377
 20
253.8355445859373
 30
0.0000000000000000
 11
206.0596927000376
 21
253.8355445859376
 31
0.0000000000000000
  0
LINE
  5
4A
100
AcDbEntity
  8
MAIN0
  6
CONTINUOUS
 62
3
100
AcDbLine
 10
236.0596927000378
 20
273.8355445859373
 30
0.0000000000000000
 11
206.0596927000379
 21
273.8355445859376
 31
0.0000000000000000
  0
LINE
  5
4B
100
AcDbEntity
  8
MAIN0
  6
CENTER
 62
3
100
AcDbLine
 10
228.7795181482113
 20
266.3355445859374
 30
0.0000000000000000
 11
203.2774137334488
 21
266.3355445859376
 31
0.0000000000000000
  0
LINE
  5
4C
100
AcDbEntity
  8
MAIN0
  6
CENTER
 62
3
100
AcDbLine
 10
785.4840280461721
 20
379.3355445859337
 30
0.0000000000000000
 11
527.5375580416117
 21
379.3355445859363
 31
0.0000000000000000
  0
LINE
  5
4D
100
AcDbEntity
  8
MAIN0
  6
HIDDEN
 62
3
100
AcDbLine
 10
214.4811927000376
 20
253.8355445859376
 30
0.0000000000000000
 11
214.7749427000379
 21
263.2355445859377
 31
0.0000000000000000
  0
LINE
  5
4E
100
AcDbEntity
  8
MAIN0
  6
HIDDEN
 62
3
100
AcDbLine
 10
214.7749427000379
 20
263.2355445859377
 30
0.0000000000000000
 11
227.3444427000379
 21
263.2355445859373
 31
0.0000000000000000
  0
LINE
  5
4F
100
AcDbEntity
  8
MAIN0
  6
HIDDEN
 62
3
100
AcDbLine
 10
227.3444427000379
 20
263.2355445859373
 30
0.0000000000000000
 11
227.6381927000377
 21
253.8355445859372
 31
0.0000000000000000
  0
LINE
  5
50
100
AcDbEntity
  8
MAIN0
  6
HIDDEN
 62
3
100
AcDbLine
 10
215.3371927000377
 20
253.8355445859376
 30
0.0000000000000000
 11
215.6309427000379
 21
263.2355445859376
 31
0.0000000000000000
  0
LINE
  5
51
100
AcDbEntity
  8
MAIN0
  6
HIDDEN
 62
3
100
AcDbLine
 10
226.7821927000377
 20
253.8355445859373
 30
0.0000000000000000
 11
226.4884427000379
 21
263.2355445859373
 31
0.0000000000000000
  0
LINE
  5
52
100
AcDbEntity
  8
MAIN0
  6
HIDDEN
 62
3
100
AcDbLine
 10
215.6596927000379
 20
263.2355445859377
 30
0.0000000000000000
 11
215.6596927000381
 21
268.8355445859376
 31
0.0000000000000000
  0
LINE
  5
53
100
AcDbEntity
  8
MAIN0
  6
HIDDEN
 62
3
100
AcDbLine
 10
215.6596927000381
 20
268.8355445859376
 30
0.0000000000000000
 11
226.4596927000382
 21
268.8355445859373
 31
0.0000000000000000
  0
LINE
  5
54
100
AcDbEntity
  8
MAIN0
  6
HIDDEN
 62
3
100
AcDbLine
 10
226.4596927000382
 20
268.8355445859373
 30
0.0000000000000000
 11
226.4596927000379
 21
263.2355445859373
 31
0.0000000000000000
  0
LINE
  5
55
100
AcDbEntity
  8
MAIN0
  6
HIDDEN
 62
3
100
AcDbLine
 10
215.6596927000381
 20
268.8355445859376
 30
0.0000000000000000
 11
221.0596927000382
 21
271.9532360395613
 31
0.0000000000000000
  0
LINE
  5
56
100
AcDbEntity
  8
MAIN0
  6
HIDDEN
 62
3
100
AcDbLine
 10
221.0596927000382
 20
271.9532360395614
 30
0.0000000000000000
 11
226.4596927000382
 21
268.8355445859373
 31
0.0000000000000000
  0
LINE
  5
57
100
AcDbEntity
  8
MAIN0
  6
PHANTOM
 62
3
100
AcDbLine
 10
221.0596927000377
 20
258.8355445859374
 30
0.0000000000000000
 11
215.4934427000379
 21
258.8355445859374
 31
0.0000000000000000
  0
LINE
  5
58
100
AcDbEntity
  8
MAIN0
  6
PHANTOM
 62
3
100
AcDbLine
 10
221.0596927000377
 20
252.8355445859374
 30
0.0000000000000000
 11
213.0596927000376
 21
252.8355445859375
 31
0.0000000000000000
  0
LINE
  5
59
100
AcDbEntity
  8
MAIN0
  6
PHANTOM
 62
3
100
AcDbLine
 10
213.0596927000377
 20
253.8355445859375
 30
0.0000000000000000
 11
213.0596927000377
 21
252.8355445859375
 31
0.0000000000000000
  0
LINE
  5
5A
100
AcDbEntity
  8
MAIN0
  6
PHANTOM
 62
3
100
AcDbLine
 10
217.1604487792810
 20
258.1446903574865
 30
0.0000000000000000
 11
221.0596927000377
 21
258.1446903574865
 31
0.0000000000000000
  0
LINE
  5
5B
100
AcDbEntity
  8
MAIN0
  6
PHANTOM
 62
3
100
AcDbLine
 10
216.1604487792810
 20
257.1446903574865
 30
0.0000000000000000
 11
216.1604487792810
 21
252.8355445859375
 31
0.0000000000000000
  0
ARC
  5
5C
100
AcDbEntity
  8
MAIN0
  6
PHANTOM
 62
3
100
AcDbCircle
 10
217.1604487792810
 20
257.1446903574865
 30
0.0000000000000000
 40
1.000000000000000
100
AcDbArc
 50
89.99999999942553
 51
179.9999999999964
  0
LINE
  5
5D
100
AcDbEntity
  8
MAIN0
  6
PHANTOM
 62
3
100
AcDbLine
 10
221.0596927000377
 20
258.8355445859374
 30
0.0000000000000000
 11
226.6259427000376
 21
258.8355445859375
 31
0.0000000000000000
  0
LINE
  5
5E
100
AcDbEntity
  8
MAIN0
  6
PHANTOM
 62
3
100
AcDbLine
 10
224.9589366207944
 20
258.1446903574865
 30
0.0000000000000000
 11
221.0596927000377
 21
258.1446903574865
 31
0.0000000000000000
  0
ARC
  5
5F
100
AcDbEntity
  8
MAIN0
  6
PHANTOM
 62
3
100
AcDbCircle
 10
224.9589366207944
 20
257.1446903574865
 30
0.0000000000000000
 40
1.000000000000000
100
AcDbArc
 50
3.740332305401095e-012
 51
90.00000000057460
  0
LINE
  5
60
100
AcDbEntity
  8
MAIN0
  6
PHANTOM
 62
3
100
AcDbLine
 10
225.9589366207944
 20
257.1446903574865
 30
0.0000000000000000
 11
225.9589366207944
 21
252.8355445859376
 31
0.0000000000000000
  0
LINE
  5
61
100
AcDbEntity
  8
MAIN0
  6
PHANTOM
 62
3
100
AcDbLine
 10
229.0596927000377
 20
253.8355445859376
 30
0.0000000000000000
 11
229.0596927000377
 21
252.8355445859376
 31
0.0000000000000000
  0
LINE
  5
62
100
AcDbEntity
  8
MAIN0
  6
PHANTOM
 62
3
100
AcDbLine
 10
221.0596927000377
 20
252.8355445859374
 30
0.0000000000000000
 11
229.0596927000378
 21
252.8355445859376
 31
0.0000000000000000
  0
LEADER
  5
63
100
AcDbEntity
  8
MAIN0
  6
CONTINUOUS
 62
3
100
AcDbLeader
  3
MAIN001
 73
     0
 74
     0
 75
     1
 40
4.649999856948853
 41
21.39100061154375
 76
     3
 10
736.9591741355735
 20
465.7828121325779
 30
0.0000000000000000
 10
771.1918853221712
 20
511.0123459238381
 30
0.0000000000000000
 10
774.0798852384862
 20
511.0123459238381
 30
0.0000000000000000
340
64
213
-0.001000000000090040
223
-0.7500000000000000
233
0.0000000000000000
1001
ACAD
1000
DSTYLE
1002
{
1070
   147
1040
0.0
1070
    77
1070
     1
1070
   173
1070
     1
1070
     6
1000
_OPEN
1070
     7
1000
_OPEN
1002
}
  0
MTEXT
  5
64
102
{ACAD_REACTORS
330
63
102
}
100
AcDbEntity
  8
MAIN0
  6
CONTINUOUS
 62
3
100
AcDbMText
 10
774.0808852384863
 20
511.7623459238381
 30
0.0000000000000000
 40
4.649999856948853
 41
0.0000000000000000
 71
     7
 72
     1
  1
{\H0.92x;{4-\U+220511}}
 11
1.000000000000000
 21
0.0000000000000000
 31
0.0000000000000000
  7
STANDARD
  0
DIMENSION
  5
6D
100
AcDbEntity
  8
MAIN0
  6
CONTINUOUS
 62
3
100
AcDbDimension
  2
*D0
 10
630.0249562938259
 20
210.5844434593847
 30
0.0000000000000000
 11
653.5249562938259
 21
211.0844434593847
 31
0.0000000000000000
 70
32
  3
MAIN001
100
AcDbAlignedDimension
 13
677.0249562938259
 23
248.9822797013626
 33
0.0000000000000000
 14
630.0249562938259
 24
250.2242600232086
 34
0.0000000000000000
100
AcDbRotatedDimension
1001
ACAD
1000
DSTYLE
1002
{
1070
   173
1070
     1
1070
     6
1000
_OPEN
1070
     7
1000
_OPEN
1070
    41
1040
3.000000
1002
}
  0
LINE
  5
6E
100
AcDbEntity
  8
MAIN0
  6
PHANTOM
 62
3
100
AcDbLine
 10
204.6597072714548
 20
285.3855445859376
 30
0.0000000000000000
 11
204.6597072714548
 21
275.7855445859376
 31
0.0000000000000000
  0
LINE
  5
6F
100
AcDbEntity
  8
MAIN0
  6
PHANTOM
 62
3
100
AcDbLine
 10
204.8597072714549
 20
285.5855445859376
 30
0.0000000000000000
 11
206.0597072714548
 21
285.5855445859376
 31
0.0000000000000000
  0
ARC
  5
70
100
AcDbEntity
  8
MAIN0
  6
PHANTOM
 62
3
100
AcDbCircle
 10
204.8597072714549
 20
285.3855445859376
 30
0.0000000000000000
 40
0.2000000000000000
100
AcDbArc
 50
90.00000000000000
 51
180.0000000000000
  0
LINE
  5
71
100
AcDbEntity
  8
MAIN0
  6
PHANTOM
 62
3
100
AcDbLine
 10
204.8597072714549
 20
275.5855445859376
 30
0.0000000000000000
 11
206.0597072714548
 21
275.5855445859376
 31
0.0000000000000000
  0
ARC
  5
72
100
AcDbEntity
  8
MAIN0
  6
PHANTOM
 62
3
100
AcDbCircle
 10
204.8597072714549
 20
275.7855445859376
 30
0.0000000000000000
 40
0.2000000000000000
100
AcDbArc
 50
180.0000000000000
 51
270.0000000000000
  0
LINE
  5
73
100
AcDbEntity
  8
MAIN0
  6
PHANTOM
 62
3
100
AcDbLine
 10
204.6597072714548
 20
278.0855445859376
 30
0.0000000000000000
 11
201.6597072714549
 21
278.0855445859376
 31
0.0000000000000000
  0
LINE
  5
74
100
AcDbEntity
  8
MAIN0
  6
PHANTOM
 62
3
100
AcDbLine
 10
201.6597072714549
 20
283.0855445859376
 30
0.0000000000000000
 11
204.6597072714548
 21
283.0855445859376
 31
0.0000000000000000
  0
LINE
  5
75
100
AcDbEntity
  8
MAIN0
  6
PHANTOM
 62
3
100
AcDbLine
 10
201.6597072714549
 20
278.0855445859376
 30
0.0000000000000000
 11
200.5993803052111
 21
279.9220847641071
 31
0.0000000000000000
  0
LINE
  5
76
100
AcDbEntity
  8
MAIN0
  6
PHANTOM
 62
3
100
AcDbLine
 10
200.6342677512882
 20
281.3094312369198
 30
0.0000000000000000
 11
201.6597072714548
 21
283.0855445859376
 31
0.0000000000000000
  0
LINE
  5
77
100
AcDbEntity
  8
MAIN0
  6
CONTINUOUS
 62
3
100
AcDbLine
 10
283.0597072714552
 20
322.8355445859376
 30
0.0000000000000000
 11
283.0597072714552
 21
294.7355445859370
 31
0.0000000000000000
  0
DIMENSION
  5
80
100
AcDbEntity
  8
MAIN0
  6
CONTINUOUS
 62
3
100
AcDbDimension
  2
*D1
 10
142.0270551711660
 20
255.3355445859378
 30
0.0000000000000000
 11
141.2770551711660
 21
378.6233832926606
 31
0.0000000000000000
 70
160
  1
\A1;\U+2205248h7
  3
MAIN001
100
AcDbAlignedDimension
 13
191.6597072714549
 23
503.3355445859378
 33
0.0000000000000000
 14
191.6597072714549
 24
255.3355445859378
 34
0.0000000000000000
 50
90.00000000000000
100
AcDbRotatedDimension
1001
ACAD
1000
DSTYLE
1002
{
1070
   173
1070
     1
1070
     6
1000
_OPEN
1070
     7
1000
_OPEN
1070
    41
1040
3.000000
1002
}
  0
DIMENSION
  5
86
100
AcDbEntity
  8
MAIN0
  6
CONTINUOUS
 62
3
100
AcDbDimension
  2
*D2
 10
653.5249562938259
 20
379.3355445854544
 30
0.0000000000000000
 11
613.7095797843930
 21
329.0793357431766
 31
0.0000000000000000
 70
164
  3
MAIN001
100
AcDbRadialDimension
 15
604.5832150915271
 25
316.0527983738115
 35
0.0000000000000000
1001
ACAD
1000
DSTYLE
1002
{
1070
   173
1070
     1
1070
     6
1000
_OPEN
1070
     7
1000
_OPEN
1070
    41
1040
3.000000
1070
   340
1005
87
1002
}
  0
DIMENSION
  5
90
100
AcDbEntity
  8
MAIN0
  6
CONTINUOUS
 62
3
100
AcDbDimension
  2
*D3
 10
191.0597072714549
 20
229.3355445859377
 30
0.0000000000000000
 11
210.5530092407391
 21
230.0855445859377
 31
0.0000000000000000
 70
160
  3
MAIN001
100
AcDbAlignedDimension
 13
221.0596927000375
 23
242.0712565982643
 33
0.0000000000000000
 14
191.0597072714549
 24
255.9355445859378
 34
0.0000000000000000
100
AcDbRotatedDimension
1001
ACAD
1000
DSTYLE
1002
{
1070
   173
1070
     1
1070
     6
1000
_OPEN
1070
     7
1000
_OPEN
1070
    41
1040
3.000000
1002
}
  0
DIMENSION
  5
99
100
AcDbEntity
  8
MAIN0
  6
CONTINUOUS
 62
3
100
AcDbDimension
  2
*D4
 10
191.0597072714549
 20
214.3355445859377
 30
0.0000000000000000
 11
198.5597072714549
 21
214.8355445859377
 31
0.0000000000000000
 70
32
  3
MAIN001
100
AcDbAlignedDimension
 13
206.0597072714549
 23
253.8355445859376
 33
0.0000000000000000
 14
191.0597072714549
 24
255.9355445859378
 34
0.0000000000000000
100
AcDbRotatedDimension
1001
ACAD
1000
DSTYLE
1002
{
1070
   173
1070
     1
1070
     6
1000
_OPEN
1070
     7
1000
_OPEN
1070
    41
1040
3.000000
1002
}
  0
DIMENSION
  5
A2
100
AcDbEntity
  8
MAIN0
  6
CONTINUOUS
 62
3
100
AcDbDimension
  2
*D5
 10
206.0597072714549
 20
214.3355445859377
 30
0.0000000000000000
 11
221.0596999857463
 21
214.8355445859377
 31
0.0000000000000000
 70
32
  3
MAIN001
100
AcDbAlignedDimension
 13
236.0596927000377
 23
253.8355445859373
 33
0.0000000000000000
 14
206.0597072714549
 24
253.8355445859376
 34
0.0000000000000000
100
AcDbRotatedDimension
1001
ACAD
1000
DSTYLE
1002
{
1070
   173
1070
     1
1070
     6
1000
_OPEN
1070
     7
1000
_OPEN
1070
    41
1040
3.000000
1002
}
  0
DIMENSION
  5
AB
100
AcDbEntity
  8
MAIN0
  6
CONTINUOUS
 62
3
100
AcDbDimension
  2
*D6
 10
236.0596927000377
 20
214.3355445859377
 30
0.0000000000000000
 11
259.5596999857463
 21
214.8355445859377
 31
0.0000000000000000
 70
32
  3
MAIN001
100
AcDbAlignedDimension
 13
283.0597072714548
 23
294.7355445859370
 33
0.0000000000000000
 14
236.0596927000377
 24
253.8355445859373
 34
0.0000000000000000
100
AcDbRotatedDimension
1001
ACAD
1000
DSTYLE
1002
{
1070
   173
1070
     1
1070
     6
1000
_OPEN
1070
     7
1000
_OPEN
1070
    41
1040
3.000000
1002
}
  0
CIRCLE
  5
AC
100
AcDbEntity
  8
MAIN0
  6
CONTINUOUS
 62
3
100
AcDbCircle
 10
653.5249562938260
 20
379.3355445854543
 30
0.0000000000000000
 40
20.00000000000000
  0
LINE
  5
AD
100
AcDbEntity
  8
MAIN0
  6
CONTINUOUS
 62
3
100
AcDbLine
 10
282.6597072714549
 20
464.3355445859369
 30
0.0000000000000000
 11
277.5597072714548
 21
464.3355445859370
 31
0.0000000000000000
  0
LINE
  5
AE
100
AcDbEntity
  8
MAIN0
  6
CONTINUOUS
 62
3
100
AcDbLine
 10
277.5597072714548
 20
413.3489462244387
 30
0.0000000000000000
 11
277.5597072714548
 21
483.3355445859377
 31
0.0000000000000000
  0
LINE
  5
AF
100
AcDbEntity
  8
MAIN0
  6
CONTINUOUS
 62
3
100
AcDbLine
 10
282.6597072714548
 20
464.3355445859368
 30
0.0000000000000000
 11
283.0597072714548
 21
463.9355445859368
 31
0.0000000000000000
  0
LINE
  5
B0
100
AcDbEntity
  8
MAIN0
  6
CONTINUOUS
 62
3
100
AcDbLine
 10
282.6597072714532
 20
294.3355445859369
 30
0.0000000000000000
 11
277.5597072714531
 21
294.3355445859370
 31
0.0000000000000000
  0
LINE
  5
B1
100
AcDbEntity
  8
MAIN0
  6
CONTINUOUS
 62
3
100
AcDbLine
 10
277.5597072714542
 20
345.3221429474351
 30
0.0000000000000000
 11
277.5597072714528
 21
275.3355445859377
 31
0.0000000000000000
  0
LINE
  5
B2
100
AcDbEntity
  8
MAIN0
  6
CONTINUOUS
 62
3
100
AcDbLine
 10
282.6597072714532
 20
294.3355445859369
 30
0.0000000000000000
 11
283.0597072714532
 21
294.7355445859370
 31
0.0000000000000000
  0
DIMENSION
  5
BB
100
AcDbEntity
  8
MAIN0
  6
CONTINUOUS
 62
3
100
AcDbDimension
  2
*D7
 10
191.0597072714549
 20
529.3355445859377
 30
0.0000000000000000
 11
237.0597072714549
 21
529.8355445859377
 31
0.0000000000000000
 70
32
  3
MAIN001
100
AcDbAlignedDimension
 13
283.0597072714548
 23
463.9355445859369
 33
0.0000000000000000
 14
191.0597072714549
 24
502.7355445859378
 34
0.0000000000000000
100
AcDbRotatedDimension
1001
ACAD
1000
DSTYLE
1002
{
1070
   173
1070
     1
1070
     6
1000
_OPEN
1070
     7
1000
_OPEN
1070
    41
1040
3.000000
1002
}
  0
DIMENSION
  5
C6
100
AcDbEntity
  8
MAIN0
  6
CONTINUOUS
 62
3
100
AcDbDimension
  2
*D8
 10
277.5597072714548
 20
514.3355445859377
 30
0.0000000000000000
 11
268.6563055455523
 21
515.0855445859377
 31
0.0000000000000000
 70
160
  3
MAIN001
100
AcDbAlignedDimension
 13
283.0597072714548
 23
463.9355445859369
 33
0.0000000000000000
 14
277.5597072714548
 24
483.3355445859377
 34
0.0000000000000000
100
AcDbRotatedDimension
1001
ACAD
1000
DSTYLE
1002
{
1070
   173
1070
     1
1070
     6
1000
_OPEN
1070
     7
1000
_OPEN
1070
    41
1040
3.000000
1070
   287
1070
     0
1002
}
  0
DIMENSION
  5
CF
100
AcDbEntity
  8
MAIN0
  6
CONTINUOUS
 62
3
100
AcDbDimension
  2
*D9
 10
355.5596927000393
 20
294.3355445859369
 30
0.0000000000000000
 11
354.8096927000393
 21
379.2206121356361
 31
0.0000000000000000
 70
160
  1
\A1;\U+2205170h7
  3
MAIN001
100
AcDbAlignedDimension
 13
282.6597072714549
 23
464.3355445859369
 33
0.0000000000000000
 14
282.6597072714532
 24
294.3355445859369
 34
0.0000000000000000
 50
90.00000000000000
100
AcDbRotatedDimension
1001
ACAD
1000
DSTYLE
1002
{
1070
   173
1070
     1
1070
     6
1000
_OPEN
1070
     7
1000
_OPEN
1070
    41
1040
3.000000
1002
}
  0
MTEXT
  5
D0
100
AcDbEntity
  8
MAIN0
  6
CONTINUOUS
 62
3
100
AcDbMText
 10
668.2045938796321
 20
250.7642846042983
 30
0.0000000000000000
 40
6.000000000000000
 41
0.0000000000000000
 71
     1
 72
     1
  1
{\H0.84x;{押}}
 11
1.000000000000000
 21
0.0000000000000000
 31
0.0000000000000000
  7
KNJYOKO
  0
MTEXT
  5
D1
100
AcDbEntity
  8
MAIN0
  6
CONTINUOUS
 62
3
100
AcDbMText
 10
632.7502611622076
 20
250.7642846042983
 30
0.0000000000000000
 40
6.000000000000000
 41
0.0000000000000000
 71
     1
 72
     1
  1
{\H0.84x;{引}}
 11
1.000000000000000
 21
0.0000000000000000
 31
0.0000000000000000
  7
KNJYOKO
  0
ARC
  5
D2
100
AcDbEntity
  8
MAIN0
  6
CENTER
 62
3
100
AcDbCircle
 10
653.5249562938260
 20
379.3355445854543
 30
0.0000000000000000
 40
66.70000000000000
100
AcDbArc
 50
243.3779158371574
 51
293.2984502847982
  0
LINE
  5
D3
100
AcDbEntity
  8
MAIN0
  6
CENTER
 62
3
100
AcDbLine
 10
668.3998965282291
 20
323.8215118634470
 30
0.0000000000000000
 11
673.3690369507797
 21
305.2764273367080
 31
0.0000000000000000
  0
LINE
  5
D4
100
AcDbEntity
  8
MAIN0
  6
CENTER
 62
3
100
AcDbLine
 10
638.7248755486810
 20
324.1008912807845
 30
0.0000000000000000
 11
633.5383422250864
 21
304.7444854021513
 31
0.0000000000000000
  0
CIRCLE
  5
D5
100
AcDbEntity
  8
MAIN0
  6
CONTINUOUS
 62
3
100
AcDbCircle
 10
700.6889786003571
 20
426.4995668892091
 30
0.0000000000000000
 40
5.100000000000000
  0
CIRCLE
  5
D6
100
AcDbEntity
  8
MAIN0
  6
CONTINUOUS
 62
3
100
AcDbCircle
 10
700.6889786003571
 20
426.4995668892091
 30
0.0000000000000000
 40
6.000000000000000
  0
ARC
  5
D7
100
AcDbEntity
  8
MAIN0
  6
CENTER
 62
3
100
AcDbCircle
 10
653.5249562938261
 20
379.3355445854547
 30
0.0000000000000000
 40
66.70000000000000
100
AcDbArc
 50
7.559457777572139
 51
70.46764921551589
  0
LINE
  5
D8
100
AcDbEntity
  8
MAIN0
  6
CENTER
 62
3
100
AcDbLine
 10
694.1640487804035
 20
419.9746370692266
 30
0.0000000000000000
 11
727.3923584059303
 21
453.2029466949004
 31
0.0000000000000000
  0
CIRCLE
  5
D9
100
AcDbEntity
  8
MAIN0
  6
CONTINUOUS
 62
3
100
AcDbCircle
 10
717.9522089067989
 20
396.5987748956892
 30
0.0000000000000000
 40
5.100000000000000
  0
CIRCLE
  5
DA
100
AcDbEntity
  8
MAIN0
  6
CONTINUOUS
 62
3
100
AcDbCircle
 10
717.9522089067989
 20
396.5987748956892
 30
0.0000000000000000
 40
6.000000000000000
  0
LINE
  5
DB
100
AcDbEntity
  8
MAIN0
  6
CENTER
 62
3
100
AcDbLine
 10
708.7837577431261
 20
394.1420958105605
 30
0.0000000000000000
 11
728.1401636217823
 21
399.3286291340696
 31
0.0000000000000000
  0
CIRCLE
  5
DC
100
AcDbEntity
  8
MAIN0
  6
CONTINUOUS
 62
3
100
AcDbCircle
 10
589.0977036808531
 20
396.5987748956892
 30
0.0000000000000000
 40
5.100000000000000
  0
CIRCLE
  5
DD
100
AcDbEntity
  8
MAIN0
  6
CONTINUOUS
 62
3
100
AcDbCircle
 10
589.0977036808531
 20
396.5987748956892
 30
0.0000000000000000
 40
6.000000000000000
  0
LINE
  5
DE
100
AcDbEntity
  8
MAIN0
  6
CENTER
 62
3
100
AcDbLine
 10
598.0109235728453
 20
394.2104848236900
 30
0.0000000000000000
 11
579.4658390460843
 21
399.1796252461585
 31
0.0000000000000000
  0
CIRCLE
  5
DF
100
AcDbEntity
  8
MAIN0
  6
CONTINUOUS
 62
3
100
AcDbCircle
 10
606.3609339872949
 20
426.4995668892091
 30
0.0000000000000000
 40
5.100000000000000
  0
CIRCLE
  5
E0
100
AcDbEntity
  8
MAIN0
  6
CONTINUOUS
 62
3
100
AcDbCircle
 10
606.3609339872949
 20
426.4995668892091
 30
0.0000000000000000
 40
6.000000000000000
  0
LINE
  5
E1
100
AcDbEntity
  8
MAIN0
  6
CENTER
 62
3
100
AcDbLine
 10
613.0903837353282
 20
419.7701171411460
 30
0.0000000000000000
 11
598.9205111802667
 21
433.9399896962701
 31
0.0000000000000000
  0
DIMENSION
  5
E8
100
AcDbEntity
  8
MAIN0
  6
CONTINUOUS
 62
3
100
AcDbDimension
  2
*D10
 10
624.6026862722372
 20
319.2323641637969
 30
0.0000000000000000
 11
673.1294672709486
 21
421.8051868168387
 31
0.0000000000000000
 70
163
  3
MAIN001
100
AcDbDiametricDimension
 15
682.4472263154148
 25
439.4387250071118
 35
0.0000000000000000
1001
ACAD
1000
DSTYLE
1002
{
1070
   287
1070
     2
1070
   173
1070
     1
1070
     6
1000
_OPEN
1070
     7
1000
_OPEN
1070
    41
1040
3.000000
1070
   272
1070
     1
1070
    47
1040
0.200000
1070
    48
1040
0.200000
1070
    71
1070
     1
1002
}
  0
MTEXT
  5
E9
100
AcDbEntity
  8
MAIN0
  6
CONTINUOUS
 62
3
100
AcDbMText
 10
297.6875697855253
 20
528.7725392303915
 30
0.0000000000000000
 40
4.649999856948853
 41
0.0000000000000000
 71
     1
 72
     1
  1
{\H0.70x;{MIN -9}}
 11
1.000000000000000
 21
0.0000000000000000
 31
0.0000000000000000
  7
STANDARD
  0
LEADER
  5
EA
100
AcDbEntity
  8
MAIN0
  6
CONTINUOUS
 62
3
100
AcDbLeader
  3
MAIN001
 73
     0
 74
     0
 75
     1
 40
4.649999856948853
 41
11.98600037193296
 76
     3
 10
286.0216112674920
 20
388.3355445859366
 30
0.0000000000000000
 10
310.5596927000393
 20
424.3355445859377
 30
0.0000000000000000
 10
313.4476926163544
 20
424.3355445859377
 30
0.0000000000000000
340
EB
213
0.0000000000000000
223
-0.7500000000000000
233
0.0000000000000000
1001
ACAD
1000
DSTYLE
1002
{
1070
   147
1040
0.0
1070
    77
1070
     1
1070
   173
1070
     1
1070
     6
1000
_OPEN
1070
     7
1000
_OPEN
1002
}
  0
MTEXT
  5
EB
102
{ACAD_REACTORS
330
EA
102
}
100
AcDbEntity
  8
MAIN0
  6
CONTINUOUS
 62
3
100
AcDbMText
 10
313.4486926163543
 20
429.7355444428865
 30
0.0000000000000000
 40
4.649999856948853
 41
0.0000000000000000
 71
     1
 72
     1
  1
{\H0.90x;{M18}}
 11
1.000000000000000
 21
0.0000000000000000
 31
0.0000000000000000
  7
STANDARD
  0
ELLIPSE
  5
EC
100
AcDbEntity
  8
MAIN0
  6
PHANTOM
 62
3
100
AcDbEllipse
 10
205.3596999857463
 20
284.3355445859376
 30
0.0000000000000000
 11
0.0000000000000000
 21
1.250000000000000
 31
0.0000000000000000
210
0.0000000000000000
220
0.0000000000000000
230
1.000000000000000
 40
0.5599941714399999
 41
0.0000000000000000
 42
6.283185307179586
  0
ELLIPSE
  5
ED
100
AcDbEntity
  8
MAIN0
  6
PHANTOM
 62
3
100
AcDbEllipse
 10
205.3596999857462
 20
276.8355445859376
 30
0.0000000000000000
 11
0.0000000000000000
 21
1.250000000000000
 31
0.0000000000000000
210
0.0000000000000000
220
0.0000000000000000
230
1.000000000000000
 40
0.5599941714399999
 41
0.0000000000000000
 42
6.283185307179586
  0
ELLIPSE
  5
EE
100
AcDbEntity
  8
MAIN0
  6
PHANTOM
 62
3
100
AcDbEllipse
 10
205.3597072714549
 20
267.5855445859376
 30
0.0000000000000000
 11
0.0000000000000000
 21
1.250000000000000
 31
0.0000000000000000
210
0.0000000000000000
220
0.0000000000000000
230
1.000000000000000
 40
0.5599999999999999
 41
0.0000000000000000
 42
6.283185307179586
  0
ELLIPSE
  5
EF
100
AcDbEntity
  8
MAIN0
  6
PHANTOM
 62
3
100
AcDbEllipse
 10
205.3597072714549
 20
260.0855445859376
 30
0.0000000000000000
 11
0.0000000000000000
 21
1.250000000000000
 31
0.0000000000000000
210
0.0000000000000000
220
0.0000000000000000
230
1.000000000000000
 40
0.5599999999999999
 41
0.0000000000000000
 42
6.283185307179586
  0
LEADER
  5
F0
100
AcDbEntity
  8
MAIN0
  6
CONTINUOUS
 62
3
100
AcDbLeader
  3
MAIN001
 73
     0
 75
     1
 40
4.649999856948853
 41
58.01900170946124
 76
     3
 10
600.3756854719939
 20
426.9200430598618
 30
0.0000000000000000
 10
530.1156323395475
 20
471.6764066680448
 30
0.0000000000000000
 10
527.2256324232324
 20
471.6764066680448
 30
0.0000000000000000
340
F1
213
0.0000000000000000
223
-0.7500000000000000
233
0.0000000000000000
1001
ACAD
1000
DSTYLE
1002
{
1070
   147
1040
0.0
1070
    77
1070
     1
1070
   173
1070
     1
1070
     6
1000
_OPEN
1070
     7
1000
_OPEN
1002
}
  0
MTEXT
  5
F1
102
{ACAD_REACTORS
330
F0
102
}
100
AcDbEntity
  8
MAIN0
  6
CONTINUOUS
 62
3
100
AcDbMText
 10
469.2066307137711
 20
477.0764065249937
 30
0.0000000000000000
 40
4.649999856948853
 41
0.0000000000000000
 71
     1
 72
     1
  1
{\H0.93x;{6-M12 ネジ深24\P6-M12 DEPTH 24}}
 11
1.000000000000000
 21
0.0000000000000000
 31
0.0000000000000000
  7
KNJYOKO
  0
SPLINE
  5
F2
100
AcDbEntity
  8
MAIN0
  6
PHANTOM
 62
3
100
AcDbSpline
210
0.0000000000000000
220
0.0000000000000000
230
1.000000000000000
 70
     8
 71
     3
 72
    10
 73
     6
 74
     0
 42
1.000000000000000e-007
 43
1.000000000000000e-007
 12
0.9042570522764208
 22
0.5840282585239152
 32
0.0000000000000000
 13
0.9237779747953994
 23
0.5643151959799297
 33
0.0000000000000000
 40
0.0000000000000000
 40
0.0000000000000000
 40
0.0000000000000000
 40
0.0000000000000000
 40
2.299326288171686
 40
5.717396183213523
 40
8.676069441962159
 40
8.676069441962159
 40
8.676069441962159
 40
8.676069441962159
 10
194.6081438898438
 20
312.0572841170411
 30
0.0000000000000000
 10
195.3012045603651
 20
312.5049079596608
 30
0.0000000000000000
 10
197.0245365001414
 20
313.6179482717188
 30
0.0000000000000000
 10
199.8963931396738
 20
311.3545169792254
 30
0.0000000000000000
 10
201.8599580984735
 20
312.5540146667403
 30
0.0000000000000000
 10
202.7710104954896
 20
313.1105560933574
 30
0.0000000000000000
  0
LINE
  5
F3
100
AcDbEntity
  8
MAIN0
  6
PHANTOM
 62
3
100
AcDbLine
 10
199.1741282419608
 20
263.8355445856569
 30
0.0000000000000000
 11
207.4581199984585
 21
263.8355445856510
 31
0.0000000000000000
  0
LINE
  5
F4
100
AcDbEntity
  8
MAIN0
  6
CONTINUOUS
 62
3
100
AcDbLine
 10
216.5597072714549
 20
372.8355445859376
 30
0.0000000000000000
 11
216.5597072714549
 21
385.8355445859376
 31
0.0000000000000000
  0
LINE
  5
F5
100
AcDbEntity
  8
MAIN0
  6
CONTINUOUS
 62
3
100
AcDbLine
 10
216.5597072714549
 20
385.3355445859375
 30
0.0000000000000000
 11
199.0597072714549
 21
385.3355445859377
 31
0.0000000000000000
  0
LINE
  5
F6
100
AcDbEntity
  8
MAIN0
  6
CONTINUOUS
 62
3
100
AcDbLine
 10
199.0597072714549
 20
380.8355445859377
 30
0.0000000000000000
 11
199.0597072714549
 21
385.3355445859377
 31
0.0000000000000000
  0
LINE
  5
F7
100
AcDbEntity
  8
MAIN0
  6
CONTINUOUS
 62
3
100
AcDbLine
 10
195.4597072714549
 20
379.1001616786924
 30
0.0000000000000000
 11
199.0597072714533
 21
385.3355445859378
 31
0.0000000000000000
  0
LINE
  5
F8
100
AcDbEntity
  8
MAIN0
  6
CONTINUOUS
 62
3
100
AcDbLine
 10
200.3437481766235
 20
374.8159985676230
 30
0.0000000000000000
 11
201.6597072714549
 21
373.3355445859376
 31
0.0000000000000000
  0
LINE
  5
F9
100
AcDbEntity
  8
MAIN0
  6
CONTINUOUS
 62
3
100
AcDbLine
 10
216.5597072714549
 20
373.3355445859375
 30
0.0000000000000000
 11
201.6597072714549
 21
373.3355445859376
 31
0.0000000000000000
  0
CIRCLE
  5
FA
100
AcDbEntity
  8
MAIN0
  6
CONTINUOUS
 62
3
100
AcDbCircle
 10
653.5249562938259
 20
379.3355445854544
 30
0.0000000000000000
 40
6.500000000000000
  0
LINE
  5
FB
100
AcDbEntity
  8
MAIN0
  6
CONTINUOUS
 62
3
100
AcDbLine
 10
256.0597072714555
 20
401.9355445859357
 30
0.0000000000000000
 11
256.0597072714554
 21
399.3355445859370
 31
0.0000000000000000
  0
LINE
  5
FC
100
AcDbEntity
  8
MAIN0
  6
CONTINUOUS
 62
3
100
AcDbLine
 10
255.6597072714554
 20
402.3355445859357
 30
0.0000000000000000
 11
251.7597072714555
 21
402.3355445859357
 31
0.0000000000000000
  0
LINE
  5
FD
100
AcDbEntity
  8
MAIN0
  6
CONTINUOUS
 62
3
100
AcDbLine
 10
251.3597072714555
 20
401.9355445859358
 30
0.0000000000000000
 11
251.3597072714554
 21
399.3355445859370
 31
0.0000000000000000
  0
ELLIPSE
  5
FE
100
AcDbEntity
  8
MAIN0
  6
CONTINUOUS
 62
3
100
AcDbEllipse
 10
253.7097072714554
 20
400.8355445859358
 30
0.0000000000000000
 11
-2.350000000000000
 21
0.0000000000000000
 31
0.0000000000000000
210
0.0000000000000000
220
0.0000000000000000
230
1.000000000000000
 40
0.6382978723404255
 41
0.0000000000000000
 42
6.283185307179586
  0
LINE
  5
FF
100
AcDbEntity
  8
MAIN0
  6
HIDDEN
 62
3
100
AcDbLine
 10
649.6354562934237
 20
256.3355445854542
 30
0.0000000000000000
 11
649.7885812934237
 21
261.2355445854542
 31
0.0000000000000000
  0
LINE
  5
100
100
AcDbEntity
  8
MAIN0
  6
HIDDEN
 62
3
100
AcDbLine
 10
650.2724562934236
 20
256.3355445854542
 30
0.0000000000000000
 11
650.4255812934237
 21
261.2355445854542
 31
0.0000000000000000
  0
LINE
  5
101
100
AcDbEntity
  8
MAIN0
  6
HIDDEN
 62
3
100
AcDbLine
 10
649.7885812934237
 20
261.2355445854542
 30
0.0000000000000000
 11
657.2613312934236
 21
261.2355445854543
 31
0.0000000000000000
  0
LINE
  5
102
100
AcDbEntity
  8
MAIN0
  6
HIDDEN
 62
3
100
AcDbLine
 10
656.7774562934236
 20
256.3355445854542
 30
0.0000000000000000
 11
656.6243312934236
 21
261.2355445854541
 31
0.0000000000000000
  0
LINE
  5
103
100
AcDbEntity
  8
MAIN0
  6
HIDDEN
 62
3
100
AcDbLine
 10
657.2613312934236
 20
261.2355445854541
 30
0.0000000000000000
 11
657.4144562934237
 21
256.3355445854542
 31
0.0000000000000000
  0
LINE
  5
104
100
AcDbEntity
  8
MAIN0
  6
HIDDEN
 62
3
100
AcDbLine
 10
658.5249562934235
 20
256.3355445854536
 30
0.0000000000000000
 11
648.5249562934235
 21
256.3355445854547
 31
0.0000000000000000
  0
LINE
  5
105
100
AcDbEntity
  8
MAIN0
  6
HIDDEN
 62
3
100
AcDbLine
 10
658.5249562934235
 20
256.3355445854536
 30
0.0000000000000000
 11
658.5249562934234
 21
255.3355445854536
 31
0.0000000000000000
  0
LINE
  5
106
100
AcDbEntity
  8
MAIN0
  6
HIDDEN
 62
3
100
AcDbLine
 10
648.5249562934235
 20
256.3355445854547
 30
0.0000000000000000
 11
648.5249562934234
 21
255.3355445854547
 31
0.0000000000000000
  0
LINE
  5
107
100
AcDbEntity
  8
MAIN0
  6
PHANTOM
 62
3
100
AcDbLine
 10
656.6249562934236
 20
379.3355445854538
 30
0.0000000000000000
 11
650.4249562934235
 21
379.3355445854546
 31
0.0000000000000000
  0
LINE
  5
108
100
AcDbEntity
  8
MAIN0
  6
PHANTOM
 62
3
100
AcDbLine
 10
653.5249562930643
 20
381.1253304201549
 30
0.0000000000000000
 11
656.6249562934237
 21
379.3355445854538
 31
0.0000000000000000
  0
LINE
  5
109
100
AcDbEntity
  8
MAIN0
  6
PHANTOM
 62
3
100
AcDbLine
 10
650.4249562932414
 20
379.3355445857701
 30
0.0000000000000000
 11
653.5249562930642
 21
381.1253304201549
 31
0.0000000000000000
  0
CIRCLE
  5
10A
100
AcDbEntity
  8
MAIN0
  6
PHANTOM
 62
3
100
AcDbCircle
 10
653.5249562938259
 20
266.3355445854544
 30
0.0000000000000000
 40
2.500000000000000
  0
CIRCLE
  5
10B
100
AcDbEntity
  8
MAIN0
  6
PHANTOM
 62
3
100
AcDbCircle
 10
653.5249562938259
 20
266.3355445854544
 30
0.0000000000000000
 40
5.000000000000000
  0
ARC
  5
10C
100
AcDbEntity
  8
MAIN0
  6
CONTINUOUS
 62
3
100
AcDbCircle
 10
251.7597072714555
 20
401.9355445859358
 30
0.0000000000000000
 40
0.4000000000000000
100
AcDbArc
 50
90.00000000000000
 51
180.0000000000000
  0
ARC
  5
10D
100
AcDbEntity
  8
MAIN0
  6
CONTINUOUS
 62
3
100
AcDbCircle
 10
255.6597072714554
 20
401.9355445859357
 30
0.0000000000000000
 40
0.4000000000000000
100
AcDbArc
 50
0.0000000000000000
 51
90.00000000000000
  0
CIRCLE
  5
10E
100
AcDbEntity
  8
MAIN0
  6
CONTINUOUS
 62
3
100
AcDbCircle
 10
653.5249562938260
 20
379.3355445854543
 30
0.0000000000000000
 40
6.000000000000000
  0
LINE
  5
10F
100
AcDbEntity
  8
MAIN0
  6
HIDDEN
 62
3
100
AcDbLine
 10
656.6249562934236
 20
261.2355445854543
 30
0.0000000000000000
 11
656.6249562934236
 21
374.1984247695950
 31
0.0000000000000000
  0
LINE
  5
110
100
AcDbEntity
  8
MAIN0
  6
PHANTOM
 62
3
100
AcDbLine
 10
656.6249562934236
 20
374.1984247695950
 30
0.0000000000000000
 11
656.6249562934236
 21
379.3355445859350
 31
0.0000000000000000
  0
LINE
  5
111
100
AcDbEntity
  8
MAIN0
  6
HIDDEN
 62
3
100
AcDbLine
 10
650.4249562934235
 20
261.2355445854542
 30
0.0000000000000000
 11
650.4249562934235
 21
374.1984247700805
 31
0.0000000000000000
  0
LINE
  5
112
100
AcDbEntity
  8
MAIN0
  6
PHANTOM
 62
3
100
AcDbLine
 10
650.4249562934235
 20
374.1984247700805
 30
0.0000000000000000
 11
650.4249562934235
 21
379.3355445859350
 31
0.0000000000000000
  0
DIMENSION
  5
11B
100
AcDbEntity
  8
MAIN0
  6
CONTINUOUS
 62
3
100
AcDbDimension
  2
*D11
 10
673.3690369507797
 20
305.2764273367080
 30
0.0000000000000000
 11
673.6993119729582
 21
226.0960994572583
 31
0.0000000000000000
 70
162
  3
MAIN001
100
AcDb2LineAngularDimension
 13
653.5249562938260
 23
247.3288559157632
 33
0.0000000000000000
 14
653.5249562938260
 24
248.3288559157632
 34
0.0000000000000000
 15
673.1102179056750
 25
306.2423531629965
 35
0.0000000000000000
 16
673.7645750690689
 26
225.6003770265714
 36
0.0000000000000000
1001
ACAD
1000
DSTYLE
1002
{
1070
   173
1070
     1
1070
     6
1000
_OPEN
1070
     7
1000
_OPEN
1070
    41
1040
3.000000
1002
}
  0
DIMENSION
  5
124
100
AcDbEntity
  8
MAIN0
  6
CONTINUOUS
 62
3
100
AcDbDimension
  2
*D12
 10
714.6127962801733
 20
273.5283020043149
 30
0.0000000000000000
 11
712.6731743333901
 21
236.5391144030460
 31
0.0000000000000000
 70
162
  3
MAIN001
100
AcDb2LineAngularDimension
 13
673.3690369507797
 23
305.2764273367080
 33
0.0000000000000000
 14
673.1102179056750
 24
306.2423531629965
 34
0.0000000000000000
 15
714.1127962801450
 25
274.3943274080830
 35
0.0000000000000000
 16
712.8645160495807
 26
236.0771746367938
 36
0.0000000000000000
1001
ACAD
1000
DSTYLE
1002
{
1070
   173
1070
     1
1070
     6
1000
_OPEN
1070
     7
1000
_OPEN
1070
    41
1040
3.000000
1002
}
  0
DIMENSION
  5
12D
100
AcDbEntity
  8
MAIN0
  6
CONTINUOUS
 62
3
100
AcDbDimension
  2
*D13
 10
740.1667293653218
 20
292.6937715136771
 30
0.0000000000000000
 11
747.6161833816173
 21
256.7134700846540
 31
0.0000000000000000
 70
162
  3
MAIN001
100
AcDb2LineAngularDimension
 13
714.6127962801733
 23
273.5283020043149
 33
0.0000000000000000
 14
714.1127962801450
 24
274.3943274080830
 34
0.0000000000000000
 15
739.4596225841030
 25
293.4008782948315
 35
0.0000000000000000
 16
747.9205640961371
 26
256.3167934145203
 36
0.0000000000000000
1001
ACAD
1000
DSTYLE
1002
{
1070
   173
1070
     1
1070
     6
1000
_OPEN
1070
     7
1000
_OPEN
1070
    41
1040
3.000000
1002
}
  0
LINE
  5
12E
100
AcDbEntity
  8
MAIN0
  6
PHANTOM
 62
3
100
AcDbLine
 10
283.0597072714548
 20
429.3355445859368
 30
0.0000000000000000
 11
263.9179388579069
 21
429.3355445859371
 31
0.0000000000000000
  0
LINE
  5
12F
100
AcDbEntity
  8
MAIN0
  6
CONTINUOUS
 62
3
100
AcDbLine
 10
265.7597072714548
 20
399.3355445859368
 30
0.0000000000000000
 11
265.7597072714548
 21
406.3355445652749
 31
0.0000000000000000
  0
LINE
  5
130
100
AcDbEntity
  8
MAIN0
  6
CONTINUOUS
 62
3
100
AcDbLine
 10
214.5597072714605
 20
366.8355445859365
 30
0.0000000000000000
 11
249.5597072714547
 21
366.8355445859364
 31
0.0000000000000000
  0
LINE
  5
131
100
AcDbEntity
  8
MAIN0
  6
CONTINUOUS
 62
3
100
AcDbLine
 10
209.5597072714549
 20
367.3355445859369
 30
0.0000000000000000
 11
213.5992162079752
 21
367.3355445859369
 31
0.0000000000000000
  0
LINE
  5
132
100
AcDbEntity
  8
MAIN0
  6
CONTINUOUS
 62
3
100
AcDbLine
 10
213.5992162079752
 20
367.3355445859369
 30
0.0000000000000000
 11
214.5597072714605
 21
366.8355445859369
 31
0.0000000000000000
  0
ARC
  5
133
100
AcDbEntity
  8
MAIN0
  6
CONTINUOUS
 62
3
100
AcDbCircle
 10
209.5597072714549
 20
365.3355445859369
 30
0.0000000000000000
 40
2.000000000000000
100
AcDbArc
 50
89.99999999999994
 51
179.9999999999999
  0
LINE
  5
134
100
AcDbEntity
  8
MAIN0
  6
CONTINUOUS
 62
3
100
AcDbLine
 10
213.5992162079754
 20
391.3355445859380
 30
0.0000000000000000
 11
214.5597072714608
 21
391.8355445859379
 31
0.0000000000000000
  0
LINE
  5
135
100
AcDbEntity
  8
MAIN0
  6
CONTINUOUS
 62
3
100
AcDbLine
 10
209.5597072714551
 20
391.3355445859381
 30
0.0000000000000000
 11
213.5992162079754
 21
391.3355445859380
 31
0.0000000000000000
  0
ARC
  5
136
100
AcDbEntity
  8
MAIN0
  6
CONTINUOUS
 62
3
100
AcDbCircle
 10
209.5597072714552
 20
393.3355445859381
 30
0.0000000000000000
 40
2.000000000000000
100
AcDbArc
 50
179.9999999999989
 51
269.9999999999989
  0
LINE
  5
137
100
AcDbEntity
  8
MAIN0
  6
CONTINUOUS
 62
3
100
AcDbLine
 10
245.8276564638288
 20
385.8355445859363
 30
0.0000000000000000
 11
247.5597072714549
 21
386.8355445859692
 31
0.0000000000000000
  0
LINE
  5
138
100
AcDbEntity
  8
MAIN0
  6
CONTINUOUS
 62
3
100
AcDbLine
 10
245.8276564638287
 20
372.8355445859381
 30
0.0000000000000000
 11
247.5597072714547
 21
371.8355445859052
 31
0.0000000000000000
  0
LINE
  5
139
100
AcDbEntity
  8
MAIN0
  6
CENTER
 62
3
100
AcDbLine
 10
263.1627046121319
 20
379.3355445859370
 30
0.0000000000000000
 11
310.2918364324393
 21
379.3355445859365
 31
0.0000000000000000
  0
LINE
  5
13A
100
AcDbEntity
  8
MAIN0
  6
CONTINUOUS
 62
3
100
AcDbLine
 10
245.8276564638287
 20
374.6985021861876
 30
0.0000000000000000
 11
245.8276564638287
 21
372.8355445859372
 31
0.0000000000000000
  0
LINE
  5
13B
100
AcDbEntity
  8
MAIN0
  6
CONTINUOUS
 62
3
100
AcDbLine
 10
245.8276564638288
 20
385.8355445859363
 30
0.0000000000000000
 11
245.8276564638288
 21
383.8376135827586
 31
0.0000000000000000
  0
LINE
  5
13C
100
AcDbEntity
  8
MAIN0
  6
CONTINUOUS
 62
3
100
AcDbLine
 10
250.5201983350131
 20
392.3355445859376
 30
0.0000000000000000
 11
272.1597072714549
 21
392.3355445859375
 31
0.0000000000000000
  0
LINE
  5
13D
100
AcDbEntity
  8
MAIN0
  6
CONTINUOUS
 62
3
100
AcDbLine
 10
249.5597072714548
 20
391.8355445859010
 30
0.0000000000000000
 11
250.5201983350131
 21
392.3355445859376
 31
0.0000000000000000
  0
ARC
  5
13E
100
AcDbEntity
  8
MAIN0
  6
CONTINUOUS
 62
3
100
AcDbCircle
 10
272.1597072714549
 20
391.9355445859375
 30
0.0000000000000000
 40
0.4000000000000000
100
AcDbArc
 50
0.0000000000000000
 51
90.00000000000000
  0
LINE
  5
13F
100
AcDbEntity
  8
MAIN0
  6
CONTINUOUS
 62
3
100
AcDbLine
 10
250.5201983350121
 20
366.3355445859367
 30
0.0000000000000000
 11
272.1597072714546
 21
366.3355445859363
 31
0.0000000000000000
  0
LINE
  5
140
100
AcDbEntity
  8
MAIN0
  6
CONTINUOUS
 62
3
100
AcDbLine
 10
249.5597072714546
 20
366.8355445859729
 30
0.0000000000000000
 11
250.5201983350128
 21
366.3355445859364
 31
0.0000000000000000
  0
ARC
  5
141
100
AcDbEntity
  8
MAIN0
  6
CONTINUOUS
 62
3
100
AcDbCircle
 10
272.1597072714547
 20
366.7355445859363
 30
0.0000000000000000
 40
0.4000000000000000
100
AcDbArc
 50
269.9999999999989
 51
359.9999999999989
  0
LINE
  5
142
100
AcDbEntity
  8
MAIN0
  6
CONTINUOUS
 62
3
100
AcDbLine
 10
249.5597072714547
 20
366.8355445859364
 30
0.0000000000000000
 11
249.5597072714547
 21
370.5987473025462
 31
0.0000000000000000
  0
LINE
  5
143
100
AcDbEntity
  8
MAIN0
  6
CONTINUOUS
 62
3
100
AcDbLine
 10
249.5597072714549
 20
391.8355445859376
 30
0.0000000000000000
 11
249.5597072714549
 21
388.5773363161252
 31
0.0000000000000000
  0
LINE
  5
144
100
AcDbEntity
  8
MAIN0
  6
CONTINUOUS
 62
3
100
AcDbLine
 10
272.5597072714548
 20
366.7355445859363
 30
0.0000000000000000
 11
272.5597072714549
 21
391.9355445859375
 31
0.0000000000000000
  0
LINE
  5
145
100
AcDbEntity
  8
MAIN0
  6
CONTINUOUS
 62
3
100
AcDbLine
 10
286.7597072714548
 20
394.3355445859368
 30
0.0000000000000000
 11
286.7597072714548
 21
398.9313993977015
 31
0.0000000000000000
  0
LINE
  5
146
100
AcDbEntity
  8
MAIN0
  6
PHANTOM
 62
3
100
AcDbLine
 10
266.7597072714548
 20
395.8355445859368
 30
0.0000000000000000
 11
266.7597072714548
 21
398.9313993977015
 31
0.0000000000000000
  0
LINE
  5
147
100
AcDbEntity
  8
MAIN0
  6
CONTINUOUS
 62
3
100
AcDbLine
 10
285.7597072715171
 20
359.3355445859368
 30
0.0000000000000000
 11
286.7597072714545
 21
359.9128948550904
 31
0.0000000000000000
  0
LINE
  5
148
100
AcDbEntity
  8
MAIN0
  6
CONTINUOUS
 62
3
100
AcDbLine
 10
286.7597072714545
 20
364.3355445859368
 30
0.0000000000000000
 11
286.7597072714544
 21
359.9128948550903
 31
0.0000000000000000
  0
LINE
  5
149
100
AcDbEntity
  8
MAIN0
  6
CONTINUOUS
 62
3
100
AcDbLine
 10
274.1597072714549
 20
386.9825445859369
 30
0.0000000000000000
 11
292.4597072714548
 21
386.9825445859368
 31
0.0000000000000000
  0
LINE
  5
14A
100
AcDbEntity
  8
MAIN0
  6
CONTINUOUS
 62
3
100
AcDbLine
 10
274.1597072714549
 20
371.6885445859369
 30
0.0000000000000000
 11
292.4597072714549
 21
371.6885445859367
 31
0.0000000000000000
  0
LINE
  5
14B
100
AcDbEntity
  8
MAIN0
  6
CONTINUOUS
 62
3
100
AcDbLine
 10
292.4597072714548
 20
386.9825445859368
 30
0.0000000000000000
 11
294.0597072714548
 21
388.5825445859367
 31
0.0000000000000000
  0
LINE
  5
14C
100
AcDbEntity
  8
MAIN0
  6
CONTINUOUS
 62
3
100
AcDbLine
 10
292.4597072714549
 20
371.6885445859367
 30
0.0000000000000000
 11
294.0597072714548
 21
370.0885445859367
 31
0.0000000000000000
  0
LINE
  5
14D
100
AcDbEntity
  8
MAIN0
  6
CONTINUOUS
 62
3
100
AcDbLine
 10
272.8067072714553
 20
388.3355445859365
 30
0.0000000000000000
 11
293.8127072714547
 21
388.3355445859366
 31
0.0000000000000000
  0
LINE
  5
14E
100
AcDbEntity
  8
MAIN0
  6
CONTINUOUS
 62
3
100
AcDbLine
 10
293.8127072714550
 20
370.3355445859366
 30
0.0000000000000000
 11
272.8067072714545
 21
370.3355445859365
 31
0.0000000000000000
  0
LINE
  5
14F
100
AcDbEntity
  8
MAIN0
  6
CONTINUOUS
 62
3
100
AcDbLine
 10
292.4597072714191
 20
371.6885445859367
 30
0.0000000000000000
 11
292.4597072714191
 21
386.9825445859367
 31
0.0000000000000000
  0
LINE
  5
150
100
AcDbEntity
  8
MAIN0
  6
CONTINUOUS
 62
3
100
AcDbLine
 10
274.1597072714549
 20
386.9825445859369
 30
0.0000000000000000
 11
272.5597072714549
 21
388.5825445859369
 31
0.0000000000000000
  0
LINE
  5
151
100
AcDbEntity
  8
MAIN0
  6
CONTINUOUS
 62
3
100
AcDbLine
 10
274.1597072714549
 20
371.6885445859369
 30
0.0000000000000000
 11
272.5597072714548
 21
370.0885445859369
 31
0.0000000000000000
  0
LINE
  5
152
100
AcDbEntity
  8
MAIN0
  6
CONTINUOUS
 62
3
100
AcDbLine
 10
274.1597072714681
 20
371.6885445859369
 30
0.0000000000000000
 11
274.1597072714624
 21
386.9825445859369
 31
0.0000000000000000
  0
LINE
  5
153
100
AcDbEntity
  8
MAIN0
  6
CONTINUOUS
 62
3
100
AcDbLine
 10
286.7597072714548
 20
394.3355445859368
 30
0.0000000000000000
 11
293.4597072714548
 21
394.3355445859367
 31
0.0000000000000000
  0
LINE
  5
154
100
AcDbEntity
  8
MAIN0
  6
CONTINUOUS
 62
3
100
AcDbLine
 10
293.4597072714548
 20
394.3355445859367
 30
0.0000000000000000
 11
294.0597072714548
 21
393.7355445859367
 31
0.0000000000000000
  0
LINE
  5
155
100
AcDbEntity
  8
MAIN0
  6
CONTINUOUS
 62
3
100
AcDbLine
 10
286.0597072717972
 20
399.3355445859367
 30
0.0000000000000000
 11
286.7597072714547
 21
398.9313993977016
 31
0.0000000000000000
  0
LINE
  5
156
100
AcDbEntity
  8
MAIN0
  6
PHANTOM
 62
3
100
AcDbLine
 10
266.0597072717972
 20
399.3355445859367
 30
0.0000000000000000
 11
266.7597072714547
 21
398.9313993977016
 31
0.0000000000000000
  0
LINE
  5
157
100
AcDbEntity
  8
MAIN0
  6
CONTINUOUS
 62
3
100
AcDbLine
 10
286.0597072717969
 20
399.3355445859368
 30
0.0000000000000000
 11
248.0597072715127
 21
399.3355445859372
 31
0.0000000000000000
  0
LINE
  5
158
100
AcDbEntity
  8
MAIN0
  6
CONTINUOUS
 62
3
100
AcDbLine
 10
285.7597072715171
 20
359.3355445859368
 30
0.0000000000000000
 11
248.0597072715123
 21
359.3355445859372
 31
0.0000000000000000
  0
DIMENSION
  5
161
100
AcDbEntity
  8
MAIN0
  6
CONTINUOUS
 62
3
100
AcDbDimension
  2
*D14
 10
294.0597072714548
 20
550.4989228762044
 30
0.0000000000000000
 11
242.5597072714548
 21
550.9989228762044
 31
0.0000000000000000
 70
32
  3
MAIN001
100
AcDbAlignedDimension
 13
191.0597072714549
 23
502.7355445859378
 33
0.0000000000000000
 14
294.0597072714548
 24
388.5825445859367
 34
0.0000000000000000
100
AcDbRotatedDimension
1001
ACAD
1000
DSTYLE
1002
{
1070
   173
1070
     1
1070
     6
1000
_OPEN
1070
     7
1000
_OPEN
1070
    41
1040
3.000000
1002
}
  0
DIMENSION
  5
16C
100
AcDbEntity
  8
MAIN0
  6
CONTINUOUS
 62
3
100
AcDbDimension
  2
*D15
 10
283.0597072714548
 20
529.3355445859377
 30
0.0000000000000000
 11
307.0208390358265
 21
530.0855445859377
 31
0.0000000000000000
 70
160
  1
\A1;MAX 11
  3
MAIN001
100
AcDbAlignedDimension
 13
294.0597072714548
 23
393.7355445859367
 33
0.0000000000000000
 14
283.0597072714548
 24
463.9355445859369
 34
0.0000000000000000
100
AcDbRotatedDimension
1001
ACAD
1000
DSTYLE
1002
{
1070
   173
1070
     1
1070
     6
1000
_OPEN
1070
     7
1000
_OPEN
1070
    41
1040
3.000000
1070
   287
1070
     0
1002
}
  0
DIMENSION
  5
175
100
AcDbEntity
  8
MAIN0
  6
CONTINUOUS
 62
3
100
AcDbDimension
  2
*D16
 10
325.5596927000393
 20
394.3355445859367
 30
0.0000000000000000
 11
325.0596927000393
 21
379.3355445859367
 31
0.0000000000000000
 70
32
  1
\A1;\U+220530
  3
MAIN001
100
AcDbAlignedDimension
 13
293.4597072714548
 23
364.3355445859367
 33
0.0000000000000000
 14
293.4597072714548
 24
394.3355445859367
 34
0.0000000000000000
 50
90.00000000000000
100
AcDbRotatedDimension
1001
ACAD
1000
DSTYLE
1002
{
1070
   173
1070
     1
1070
     6
1000
_OPEN
1070
     7
1000
_OPEN
1070
    41
1040
3.000000
1002
}
  0
CIRCLE
  5
176
100
AcDbEntity
  8
MAIN0
  6
CONTINUOUS
 62
3
100
AcDbCircle
 10
653.5249562938260
 20
379.3355445859350
 30
0.0000000000000000
 40
15.00000000000000
  0
LINE
  5
177
100
AcDbEntity
  8
MAIN0
  6
CENTER
 62
3
100
AcDbLine
 10
621.5249562938259
 20
302.8649620062691
 30
0.0000000000000000
 11
685.5249562938260
 21
302.8649620062691
 31
0.0000000000000000
  0
LINE
  5
178
100
AcDbEntity
  8
MAIN0
  6
HIDDEN
 62
3
100
AcDbLine
 10
673.9249562938267
 20
345.0467212095657
 30
0.0000000000000000
 11
677.0249562938259
 21
346.8365070440545
 31
0.0000000000000000
  0
LINE
  5
179
100
AcDbEntity
  8
MAIN0
  6
HIDDEN
 62
3
100
AcDbLine
 10
680.1249562938262
 20
345.0467212095667
 30
0.0000000000000000
 11
673.9249562938262
 21
345.0467212095667
 31
0.0000000000000000
  0
LINE
  5
17A
100
AcDbEntity
  8
MAIN0
  6
HIDDEN
 62
3
100
AcDbLine
 10
677.0249562938257
 20
346.8365070440545
 30
0.0000000000000000
 11
680.1249562938262
 21
345.0467212095679
 31
0.0000000000000000
  0
LINE
  5
17B
100
AcDbEntity
  8
MAIN0
  6
CENTER
 62
3
100
AcDbLine
 10
683.5332869736669
 20
342.0255455882729
 30
0.0000000000000000
 11
670.5332869736669
 21
342.0255455882729
 31
0.0000000000000000
  0
LINE
  5
17C
100
AcDbEntity
  8
MAIN0
  6
HIDDEN
 62
3
100
AcDbLine
 10
673.9249562938387
 20
263.6743568009789
 30
0.0000000000000000
 11
673.9249562938155
 21
345.0467212095667
 31
0.0000000000000000
  0
LINE
  5
17D
100
AcDbEntity
  8
MAIN0
  6
HIDDEN
 62
3
100
AcDbLine
 10
680.1249562938156
 20
345.0467212095667
 30
0.0000000000000000
 11
680.1249562938388
 21
263.6743568009810
 31
0.0000000000000000
  0
CIRCLE
  5
17E
100
AcDbEntity
  8
MAIN0
  6
HIDDEN
 62
3
100
AcDbCircle
 10
677.0332869736669
 20
342.0255455882729
 30
0.0000000000000000
 40
2.500000000000000
  0
CIRCLE
  5
17F
100
AcDbEntity
  8
MAIN0
  6
HIDDEN
 62
3
100
AcDbCircle
 10
677.0249562938260
 20
302.8649620062691
 30
0.0000000000000000
 40
4.500000000000000
  0
CIRCLE
  5
180
100
AcDbEntity
  8
MAIN0
  6
HIDDEN
 62
3
100
AcDbCircle
 10
677.0249562938260
 20
302.8649620062691
 30
0.0000000000000000
 40
3.500000000000000
  0
LINE
  5
181
100
AcDbEntity
  8
MAIN0
  6
HIDDEN
 62
3
100
AcDbLine
 10
626.9249562938285
 20
308.5827212095668
 30
0.0000000000000000
 11
626.9249562938134
 21
263.6743568009810
 31
0.0000000000000000
  0
LINE
  5
182
100
AcDbEntity
  8
MAIN0
  6
HIDDEN
 62
3
100
AcDbLine
 10
633.1249562938133
 20
263.6743568009789
 30
0.0000000000000000
 11
633.1249562938285
 21
308.5827212095668
 31
0.0000000000000000
  0
CIRCLE
  5
183
100
AcDbEntity
  8
MAIN0
  6
HIDDEN
 62
3
100
AcDbCircle
 10
630.0249562938259
 20
302.8649620062691
 30
0.0000000000000000
 40
4.500000000000000
  0
CIRCLE
  5
184
100
AcDbEntity
  8
MAIN0
  6
HIDDEN
 62
3
100
AcDbCircle
 10
630.0249562938259
 20
302.8649620062691
 30
0.0000000000000000
 40
3.500000000000000
  0
LINE
  5
185
100
AcDbEntity
  8
MAIN0
  6
HIDDEN
 62
3
100
AcDbLine
 10
630.0249562938261
 20
310.3725070440548
 30
0.0000000000000000
 11
626.9249562938255
 21
308.5827212095680
 31
0.0000000000000000
  0
LINE
  5
186
100
AcDbEntity
  8
MAIN0
  6
HIDDEN
 62
3
100
AcDbLine
 10
626.9249562938259
 20
308.5827212095668
 30
0.0000000000000000
 11
633.1249562938259
 21
308.5827212095668
 31
0.0000000000000000
  0
LINE
  5
187
100
AcDbEntity
  8
MAIN0
  6
HIDDEN
 62
3
100
AcDbLine
 10
633.1249562938253
 20
308.5827212095658
 30
0.0000000000000000
 11
630.0249562938259
 21
310.3725070440547
 31
0.0000000000000000
  0
CIRCLE
  5
188
100
AcDbEntity
  8
MAIN0
  6
HIDDEN
 62
3
100
AcDbCircle
 10
630.0249562938259
 20
283.4224980271500
 30
0.0000000000000000
 40
5.000000000000000
  0
CIRCLE
  5
189
100
AcDbEntity
  8
MAIN0
  6
HIDDEN
 62
3
100
AcDbCircle
 10
630.0249562940227
 20
283.4224980280963
 30
0.0000000000000000
 40
2.500000000000000
  0
LINE
  5
18A
100
AcDbEntity
  8
MAIN0
  6
CENTER
 62
3
100
AcDbLine
 10
639.0249562938259
 20
283.4224980271500
 30
0.0000000000000000
 11
621.0249562938259
 21
283.4224980271500
 31
0.0000000000000000
  0
LINE
  5
18B
100
AcDbEntity
  8
MAIN0
  6
HIDDEN
 62
3
100
AcDbLine
 10
626.2266552018350
 20
263.6743568009812
 30
0.0000000000000000
 11
626.0735302018334
 21
258.7743568009813
 31
0.0000000000000000
  0
LINE
  5
18C
100
AcDbEntity
  8
MAIN0
  6
HIDDEN
 62
3
100
AcDbLine
 10
626.7105302018333
 20
258.7743568009810
 30
0.0000000000000000
 11
626.8636552018349
 21
263.6743568009810
 31
0.0000000000000000
  0
LINE
  5
18D
100
AcDbEntity
  8
MAIN0
  6
HIDDEN
 62
3
100
AcDbLine
 10
633.6994052018349
 20
263.6743568009787
 30
0.0000000000000000
 11
626.2266552018349
 21
263.6743568009812
 31
0.0000000000000000
  0
LINE
  5
18E
100
AcDbEntity
  8
MAIN0
  6
HIDDEN
 62
3
100
AcDbLine
 10
624.5249562937897
 20
258.7743568009935
 30
0.0000000000000000
 11
635.5249562938268
 21
258.7743568009660
 31
0.0000000000000000
  0
LINE
  5
18F
100
AcDbEntity
  8
MAIN0
  6
HIDDEN
 62
3
100
AcDbLine
 10
633.2155302018333
 20
258.7743568009788
 30
0.0000000000000000
 11
633.0624052018350
 21
263.6743568009789
 31
0.0000000000000000
  0
LINE
  5
190
100
AcDbEntity
  8
MAIN0
  6
HIDDEN
 62
3
100
AcDbLine
 10
633.8525302018335
 20
258.7743568009786
 30
0.0000000000000000
 11
633.6994052018351
 21
263.6743568009787
 31
0.0000000000000000
  0
LINE
  5
191
100
AcDbEntity
  8
MAIN0
  6
HIDDEN
 62
3
100
AcDbLine
 10
635.5249562938259
 20
256.6489520009341
 30
0.0000000000000000
 11
635.5249562938267
 21
258.7743568009660
 31
0.0000000000000000
  0
LINE
  5
192
100
AcDbEntity
  8
MAIN0
  6
HIDDEN
 62
3
100
AcDbLine
 10
673.1973823858187
 20
258.7743568009786
 30
0.0000000000000000
 11
673.3505073858171
 21
263.6743568009787
 31
0.0000000000000000
  0
LINE
  5
193
100
AcDbEntity
  8
MAIN0
  6
HIDDEN
 62
3
100
AcDbLine
 10
673.8343823858186
 20
258.7743568009788
 30
0.0000000000000000
 11
673.9875073858169
 21
263.6743568009789
 31
0.0000000000000000
  0
LINE
  5
194
100
AcDbEntity
  8
MAIN0
  6
HIDDEN
 62
3
100
AcDbLine
 10
673.3505073858172
 20
263.6743568009787
 30
0.0000000000000000
 11
680.8232573858172
 21
263.6743568009812
 31
0.0000000000000000
  0
LINE
  5
195
100
AcDbEntity
  8
MAIN0
  6
HIDDEN
 62
3
100
AcDbLine
 10
680.3393823858187
 20
258.7743568009810
 30
0.0000000000000000
 11
680.1862573858170
 21
263.6743568009810
 31
0.0000000000000000
  0
LINE
  5
196
100
AcDbEntity
  8
MAIN0
  6
HIDDEN
 62
3
100
AcDbLine
 10
680.8232573858171
 20
263.6743568009812
 30
0.0000000000000000
 11
680.9763823858189
 21
258.7743568009813
 31
0.0000000000000000
  0
LINE
  5
197
100
AcDbEntity
  8
MAIN0
  6
HIDDEN
 62
3
100
AcDbLine
 10
682.5249562938625
 20
258.7743568009935
 30
0.0000000000000000
 11
671.5249562938254
 21
258.7743568009660
 31
0.0000000000000000
  0
LINE
  5
198
100
AcDbEntity
  8
MAIN0
  6
HIDDEN
 62
3
100
AcDbLine
 10
671.5249562938263
 20
256.6489520009341
 30
0.0000000000000000
 11
671.5249562938254
 21
258.7743568009660
 31
0.0000000000000000
  0
DIMENSION
  5
1A0
100
AcDbEntity
  8
MAIN0
  6
CONTINUOUS
 62
3
100
AcDbDimension
  2
*D17
 10
514.5072897050095
 20
379.3355445854558
 30
0.0000000000000000
 11
513.7572897050095
 21
341.3291031962629
 31
0.0000000000000000
 70
160
  1
\A1;（76.47）
  3
MAIN001
100
AcDbAlignedDimension
 13
621.5249562938259
 23
302.8649620057885
 33
0.0000000000000000
 14
515.4498378599033
 24
379.3355445854558
 34
0.0000000000000000
 50
90.00000000000000
100
AcDbRotatedDimension
1001
ACAD
1000
DSTYLE
1002
{
1070
   173
1070
     1
1070
     6
1000
_OPEN
1070
     7
1000
_OPEN
1070
    41
1040
3.000000
1070
   340
1005
87
1002
}
  0
DIMENSION
  5
1A9
100
AcDbEntity
  8
MAIN0
  6
CONTINUOUS
 62
3
100
AcDbDimension
  2
*D18
 10
262.5657433038286
 20
391.8355445859376
 30
0.0000000000000000
 11
262.0657433038286
 21
379.3355445859370
 31
0.0000000000000000
 70
32
  1
\A1;\U+220525
  3
MAIN001
100
AcDbAlignedDimension
 13
249.5597072714547
 23
366.8355445859364
 33
0.0000000000000000
 14
249.5597072714549
 24
391.8355445859376
 34
0.0000000000000000
 50
90.00000000000000
100
AcDbRotatedDimension
1001
ACAD
1000
DSTYLE
1002
{
1070
   173
1070
     1
1070
     6
1000
_OPEN
1070
     7
1000
_OPEN
1070
    41
1040
3.000000
1002
}
  0
LINE
  5
1AA
100
AcDbEntity
  8
MAIN0
  6
CONTINUOUS
 62
3
100
AcDbLine
 10
235.5596823666645
 20
391.8355445859381
 30
0.0000000000000000
 11
235.5596823666645
 21
394.6355445859375
 31
0.0000000000000000
  0
LINE
  5
1AB
100
AcDbEntity
  8
MAIN0
  6
CONTINUOUS
 62
3
100
AcDbLine
 10
240.0596823666647
 20
394.8355445859374
 30
0.0000000000000000
 11
235.7596823666666
 21
394.8355445859375
 31
0.0000000000000000
  0
ARC
  5
1AC
100
AcDbEntity
  8
MAIN0
  6
CONTINUOUS
 62
3
100
AcDbCircle
 10
235.7596823666646
 20
394.6355445859375
 30
0.0000000000000000
 40
0.2000000000000000
100
AcDbArc
 50
89.99999999943105
 51
180.0000000000025
  0
ARC
  5
1AD
100
AcDbEntity
  8
MAIN0
  6
CONTINUOUS
 62
3
100
AcDbCircle
 10
240.0596823666647
 20
394.6355445859375
 30
0.0000000000000000
 40
0.2000000000000000
100
AcDbArc
 50
5.546887364472373e-012
 51
90.00000000000351
  0
LINE
  5
1AE
100
AcDbEntity
  8
MAIN0
  6
CONTINUOUS
 62
3
100
AcDbLine
 10
240.2596823666645
 20
391.8355445859382
 30
0.0000000000000000
 11
240.2596823666645
 21
394.6355445859375
 31
0.0000000000000000
  0
LINE
  5
1AF
100
AcDbEntity
  8
MAIN0
  6
CONTINUOUS
 62
3
100
AcDbLine
 10
235.5596823666642
 20
366.8355445859363
 30
0.0000000000000000
 11
235.5596823666642
 21
364.0355445859370
 31
0.0000000000000000
  0
LINE
  5
1B0
100
AcDbEntity
  8
MAIN0
  6
CONTINUOUS
 62
3
100
AcDbLine
 10
240.0596823666644
 20
363.8355445859369
 30
0.0000000000000000
 11
235.7596823666663
 21
363.8355445859370
 31
0.0000000000000000
  0
ARC
  5
1B1
100
AcDbEntity
  8
MAIN0
  6
CONTINUOUS
 62
3
100
AcDbCircle
 10
235.7596823666644
 20
364.0355445859370
 30
0.0000000000000000
 40
0.2000000000000000
100
AcDbArc
 50
179.9999999999964
 51
270.0000000005678
  0
ARC
  5
1B2
100
AcDbEntity
  8
MAIN0
  6
CONTINUOUS
 62
3
100
AcDbCircle
 10
240.0596823666644
 20
364.0355445859370
 30
0.0000000000000000
 40
0.2000000000000000
100
AcDbArc
 50
269.9999999999953
 51
359.9999999999934
  0
LINE
  5
1B3
100
AcDbEntity
  8
MAIN0
  6
CONTINUOUS
 62
3
100
AcDbLine
 10
240.2596823666643
 20
366.8355445859363
 30
0.0000000000000000
 11
240.2596823666642
 21
364.0355445859370
 31
0.0000000000000000
  0
DIMENSION
  5
1BC
100
AcDbEntity
  8
MAIN0
  6
CONTINUOUS
 62
3
100
AcDbDimension
  2
*D19
 10
226.1474762708852
 20
385.8355445859375
 30
0.0000000000000000
 11
225.6474762708852
 21
379.3355445859375
 31
0.0000000000000000
 70
32
  1
\A1;\U+220513
  3
MAIN001
100
AcDbAlignedDimension
 13
216.5597072714549
 23
372.8355445859375
 33
0.0000000000000000
 14
216.5597072714549
 24
385.8355445859375
 34
0.0000000000000000
 50
90.00000000000000
100
AcDbRotatedDimension
1001
ACAD
1000
DSTYLE
1002
{
1070
   173
1070
     1
1070
     6
1000
_OPEN
1070
     7
1000
_OPEN
1070
    41
1040
3.000000
1070
   287
1070
     0
1002
}
  0
LINE
  5
1BD
100
AcDbEntity
  8
MAIN0
  6
CENTER
 62
3
100
AcDbLine
 10
227.6474762708852
 20
379.3355445859374
 30
0.0000000000000000
 11
254.9544396548951
 21
379.3355445859371
 31
0.0000000000000000
  0
LINE
  5
1BE
100
AcDbEntity
  8
MAIN0
  6
CONTINUOUS
 62
3
100
AcDbLine
 10
294.0597072714548
 20
368.9355445859367
 30
0.0000000000000000
 11
294.0597072714548
 21
393.7355445859367
 31
0.0000000000000000
  0
LINE
  5
1BF
100
AcDbEntity
  8
MAIN0
  6
CONTINUOUS
 62
3
100
AcDbLine
 10
286.7597072714545
 20
364.3355445859368
 30
0.0000000000000000
 11
293.0597072714548
 21
364.3355445859367
 31
0.0000000000000000
  0
LINE
  5
1C0
100
AcDbEntity
  8
MAIN0
  6
CONTINUOUS
 62
3
100
AcDbLine
 10
228.5597072714559
 20
391.8355445859376
 30
0.0000000000000000
 11
228.5597072714561
 21
411.7763452018442
 31
0.0000000000000000
  0
LINE
  5
1C1
100
AcDbEntity
  8
MAIN0
  6
CONTINUOUS
 62
3
100
AcDbLine
 10
247.5597072715127
 20
399.8355445859372
 30
0.0000000000000000
 11
247.5597072715130
 21
418.5051301548858
 31
0.0000000000000000
  0
LINE
  5
1C2
100
AcDbEntity
  8
MAIN0
  6
CONTINUOUS
 62
3
100
AcDbLine
 10
228.5597072714559
 20
392.8355445859376
 30
0.0000000000000000
 11
229.5597072714559
 21
391.8355445859376
 31
0.0000000000000000
  0
LINE
  5
1C3
100
AcDbEntity
  8
MAIN0
  6
CONTINUOUS
 62
3
100
AcDbLine
 10
207.5597072714549
 20
341.1974028656475
 30
0.0000000000000000
 11
207.5597072714549
 21
365.3355445859369
 31
0.0000000000000000
  0
LINE
  5
1C4
100
AcDbEntity
  8
MAIN0
  6
CONTINUOUS
 62
3
100
AcDbLine
 10
207.5597072714549
 20
393.3355445859381
 30
0.0000000000000000
 11
207.5597072714549
 21
417.4736863062277
 31
0.0000000000000000
  0
LINE
  5
1C5
100
AcDbEntity
  8
MAIN0
  6
CONTINUOUS
 62
3
100
AcDbLine
 10
265.7597072714548
 20
345.3747116765277
 30
0.0000000000000000
 11
265.7597072714548
 21
359.3355445859368
 31
0.0000000000000000
  0
LINE
  5
1C6
100
AcDbEntity
  8
MAIN0
  6
CONTINUOUS
 62
3
100
AcDbLine
 10
244.5597072715128
 20
402.8355445859316
 30
0.0000000000000000
 11
244.5597072714919
 21
417.9523528892484
 31
0.0000000000000000
  0
LINE
  5
1C7
100
AcDbEntity
  8
MAIN0
  6
CONTINUOUS
 62
3
100
AcDbLine
 10
251.3597072714550
 20
356.7355445859385
 30
0.0000000000000000
 11
251.3597072714550
 21
359.3355445859372
 31
0.0000000000000000
  0
ELLIPSE
  5
1C8
100
AcDbEntity
  8
MAIN0
  6
CONTINUOUS
 62
3
100
AcDbEllipse
 10
253.7097072714550
 20
357.8355445859384
 30
0.0000000000000000
 11
2.350000000000000
 21
0.0000000000000000
 31
0.0000000000000000
210
0.0000000000000000
220
0.0000000000000000
230
1.000000000000000
 40
0.6382978723404255
 41
0.0000000000000000
 42
6.283185307179586
  0
ARC
  5
1C9
100
AcDbEntity
  8
MAIN0
  6
CONTINUOUS
 62
3
100
AcDbCircle
 10
251.7597072714551
 20
356.7355445859385
 30
0.0000000000000000
 40
0.4000000000000000
100
AcDbArc
 50
179.9999999999989
 51
269.9999999999989
  0
LINE
  5
1CA
100
AcDbEntity
  8
MAIN0
  6
CONTINUOUS
 62
3
100
AcDbLine
 10
255.6597072714550
 20
356.3355445859385
 30
0.0000000000000000
 11
251.7597072714550
 21
356.3355445859385
 31
0.0000000000000000
  0
ARC
  5
1CB
100
AcDbEntity
  8
MAIN0
  6
CONTINUOUS
 62
3
100
AcDbCircle
 10
255.6597072714550
 20
356.7355445859385
 30
0.0000000000000000
 40
0.4000000000000000
100
AcDbArc
 50
269.9999999999989
 51
359.9999999999989
  0
LINE
  5
1CC
100
AcDbEntity
  8
MAIN0
  6
CONTINUOUS
 62
3
100
AcDbLine
 10
256.0597072714550
 20
356.7355445859385
 30
0.0000000000000000
 11
256.0597072714550
 21
359.3355445859372
 31
0.0000000000000000
  0
LINE
  5
1CD
100
AcDbEntity
  8
MAIN0
  6
CONTINUOUS
 62
3
100
AcDbLine
 10
688.5249562938260
 20
478.3304939515710
 30
0.0000000000000000
 11
688.5249562938260
 21
415.0426867281686
 31
0.0000000000000000
  0
LINE
  5
1CE
100
AcDbEntity
  8
MAIN0
  6
CONTINUOUS
 62
3
100
AcDbLine
 10
618.5249562938260
 20
478.3304939515710
 30
0.0000000000000000
 11
618.5249562938260
 21
415.0426867281686
 31
0.0000000000000000
  0
LINE
  5
1CF
100
AcDbEntity
  8
MAIN0
  6
CONTINUOUS
 62
3
100
AcDbLine
 10
585.2928152964147
 20
299.5271807699407
 30
0.0000000000000000
 11
640.1016641016936
 21
331.1710843816419
 31
0.0000000000000000
  0
LINE
  5
1D0
100
AcDbEntity
  8
MAIN0
  6
CONTINUOUS
 62
3
100
AcDbLine
 10
550.2928152964147
 20
360.1489590348515
 30
0.0000000000000000
 11
605.1016641016937
 21
391.7928626465530
 31
0.0000000000000000
  0
LINE
  5
1D1
100
AcDbEntity
  8
MAIN0
  6
CONTINUOUS
 62
3
100
AcDbLine
 10
756.7570972912373
 20
360.1489590348513
 30
0.0000000000000000
 11
701.9482484859584
 21
391.7928626465526
 31
0.0000000000000000
  0
LINE
  5
1D2
100
AcDbEntity
  8
MAIN0
  6
CONTINUOUS
 62
3
100
AcDbLine
 10
721.7570972912374
 20
299.5271807699406
 30
0.0000000000000000
 11
666.9482484859585
 21
331.1710843816419
 31
0.0000000000000000
  0
DIMENSION
  5
1DB
100
AcDbEntity
  8
MAIN0
  6
CONTINUOUS
 62
3
100
AcDbDimension
  2
*D20
 10
653.5249562938260
 20
511.3422127859695
 30
0.0000000000000000
 11
693.7872978774177
 21
529.5966490072958
 31
0.0000000000000000
 70
162
  3
MAIN001
100
AcDb2LineAngularDimension
 13
717.3549099700027
 23
489.8922673975166
 33
0.0000000000000000
 14
716.8549099700033
 24
489.0262419937319
 34
0.0000000000000000
 15
653.5249562938260
 25
510.3422127859695
 35
0.0000000000000000
 16
693.6578883548666
 26
529.1136860941513
 36
0.0000000000000000
1001
ACAD
1000
DSTYLE
1002
{
1070
   173
1070
     1
1070
     6
1000
_OPEN
1070
     7
1000
_OPEN
1070
    41
1040
3.000000
1002
}
  0
ARC
  5
1DC
100
AcDbEntity
  8
MAIN0
  6
CONTINUOUS
 62
3
100
AcDbCircle
 10
653.5249562938260
 20
379.3355445854543
 30
0.0000000000000000
 40
85.00000000000000
100
AcDbArc
 50
234.3157391711764
 51
305.6842608288236
  0
ARC
  5
1DD
100
AcDbEntity
  8
MAIN0
  6
CONTINUOUS
 62
3
100
AcDbCircle
 10
653.5249562938260
 20
379.3355445854543
 30
0.0000000000000000
 40
85.00000000000000
100
AcDbArc
 50
354.3157391711766
 51
425.6842608288235
  0
ARC
  5
1DE
100
AcDbEntity
  8
MAIN0
  6
CONTINUOUS
 62
3
100
AcDbCircle
 10
653.5249562938260
 20
379.3355445854543
 30
0.0000000000000000
 40
85.00000000000000
100
AcDbArc
 50
114.3157391711765
 51
185.6842608288235
  0
DIMENSION
  5
1E5
100
AcDbEntity
  8
MAIN0
  6
CONTINUOUS
 62
3
100
AcDbDimension
  2
*D21
 10
618.5249562938260
 20
466.4958123241544
 30
0.0000000000000000
 11
653.5249562938260
 21
466.9958123241544
 31
0.0000000000000000
 70
32
  3
MAIN001
100
AcDbAlignedDimension
 13
688.5249562938260
 23
478.0652893440699
 33
0.0000000000000000
 14
618.5249562938260
 24
478.0652893440699
 34
0.0000000000000000
100
AcDbRotatedDimension
1001
ACAD
1000
DSTYLE
1002
{
1070
   173
1070
     1
1070
     6
1000
_OPEN
1070
     7
1000
_OPEN
1070
    41
1040
3.000000
1002
}
  0
LINE
  5
1E6
100
AcDbEntity
  8
MAIN0
  6
CENTER
 62
3
100
AcDbLine
 10
550.0025881244686
 20
319.5668774557285
 30
0.0000000000000000
 11
653.5249562946583
 21
379.3355445859351
 31
0.0000000000000000
  0
LINE
  5
1E7
100
AcDbEntity
  8
MAIN0
  6
CENTER
 62
3
100
AcDbLine
 10
757.4169615231875
 20
319.3534673996324
 30
0.0000000000000000
 11
653.5249562929935
 21
379.3355445859351
 31
0.0000000000000000
  0
DIMENSION
  5
1F0
100
AcDbEntity
  8
MAIN0
  6
CONTINUOUS
 62
3
100
AcDbDimension
  2
*D22
 10
340.5596927000393
 20
399.3355445859368
 30
0.0000000000000000
 11
340.0596927000393
 21
379.3355445859368
 31
0.0000000000000000
 70
32
  1
\A1;\U+220540
  3
MAIN001
100
AcDbAlignedDimension
 13
285.7597072715171
 23
359.3355445859368
 33
0.0000000000000000
 14
286.0597072717969
 24
399.3355445859368
 34
0.0000000000000000
 50
90.00000000000000
100
AcDbRotatedDimension
1001
ACAD
1000
DSTYLE
1002
{
1070
   173
1070
     1
1070
     6
1000
_OPEN
1070
     7
1000
_OPEN
1070
    41
1040
3.000000
1002
}
  0
DIMENSION
  5
1FA
100
AcDbEntity
  8
MAIN0
  6
CONTINUOUS
 62
3
100
AcDbDimension
  2
*D23
 10
294.0597072714548
 20
439.3355445859377
 30
0.0000000000000000
 11
303.0261021888747
 21
440.0855445859377
 31
0.0000000000000000
 70
160
  3
MAIN001
100
AcDbAlignedDimension
 13
272.5597072714549
 23
391.9355445859375
 33
0.0000000000000000
 14
294.0597072714548
 24
393.7355445859367
 34
0.0000000000000000
100
AcDbRotatedDimension
1001
ACAD
1000
DSTYLE
1002
{
1070
   173
1070
     1
1070
     6
1000
_OPEN
1070
     7
1000
_OPEN
1070
    41
1040
3.000000
1002
}
  0
ARC
  5
1FB
100
AcDbEntity
  8
MAIN0
  6
CONTINUOUS
 62
3
100
AcDbCircle
 10
641.9202158835307
 20
386.0355445852140
 30
0.0000000000000000
 40
3.000000000000000
100
AcDbArc
 50
240.0000000000000
 51
420.0000000000000
  0
LINE
  5
1FC
100
AcDbEntity
  8
MAIN0
  6
CONTINUOUS
 62
3
100
AcDbLine
 10
640.4202158835306
 20
383.4374683738607
 30
0.0000000000000000
 11
639.2970342328842
 21
384.0859376022102
 31
0.0000000000000000
  0
LINE
  5
1FD
100
AcDbEntity
  8
MAIN0
  6
CONTINUOUS
 62
3
100
AcDbLine
 10
643.4202158835306
 20
388.6336207965674
 30
0.0000000000000000
 11
642.2970342328842
 21
389.2820900249169
 31
0.0000000000000000
  0
CIRCLE
  5
1FE
100
AcDbEntity
  8
MAIN0
  6
CONTINUOUS
 62
3
100
AcDbCircle
 10
643.3058565295858
 20
385.2355445852140
 30
0.0000000000000000
 40
1.000000000000000
  0
LINE
  5
1FF
100
AcDbEntity
  8
MAIN0
  6
CENTER
 62
3
100
AcDbLine
 10
641.3058565295858
 20
381.7714429700764
 30
0.0000000000000000
 11
645.3058565295858
 21
388.6996462003518
 31
0.0000000000000000
  0
LINE
  5
200
100
AcDbEntity
  8
MAIN0
  6
CENTER
 62
3
100
AcDbLine
 10
653.5249562938261
 20
247.3288559157632
 30
0.0000000000000000
 11
653.5249562938260
 21
464.9958123241544
 31
0.0000000000000000
  0
LINE
  5
201
100
AcDbEntity
  8
MAIN0
  6
CENTER
 62
3
100
AcDbLine
 10
653.5249562938260
 20
474.1458121811032
 30
0.0000000000000000
 11
653.5249562938260
 21
511.3422127859695
 31
0.0000000000000000
  0
ARC
  5
202
100
AcDbEntity
  8
MAIN0
  6
CENTER
 62
3
100
AcDbCircle
 10
653.5249562938259
 20
379.3355445854546
 30
0.0000000000000000
 40
66.70000000000000
100
AcDbArc
 50
127.5594577775721
 51
142.1275128556792
  0
ARC
  5
203
100
AcDbEntity
  8
MAIN0
  6
CENTER
 62
3
100
AcDbCircle
 10
653.5249562938259
 20
379.3355445854546
 30
0.0000000000000000
 40
66.70000000000000
100
AcDbArc
 50
157.0841362649176
 51
173.2984502847982
  0
DIMENSION
  5
20C
100
AcDbEntity
  8
MAIN0
  6
CONTINUOUS
 62
3
100
AcDbDimension
  2
*D24
 10
728.1401636217823
 20
399.3286291340697
 30
0.0000000000000000
 11
806.7644014183240
 21
399.5099002667525
 31
0.0000000000000000
 70
162
  3
MAIN001
100
AcDb2LineAngularDimension
 13
785.4840280461721
 23
379.3355445859337
 33
0.0000000000000000
 14
784.4840280461721
 24
379.3355445858683
 34
0.0000000000000000
 15
727.1742377955262
 25
399.0698100888444
 35
0.0000000000000000
 16
807.2601238490069
 26
399.5751633628941
 36
0.0000000000000000
1001
ACAD
1000
DSTYLE
1002
{
1070
   173
1070
     1
1070
     6
1000
_OPEN
1070
     7
1000
_OPEN
1070
    41
1040
3.000000
1002
}
  0
DIMENSION
  5
215
100
AcDbEntity
  8
MAIN0
  6
CONTINUOUS
 62
3
100
AcDbDimension
  2
*D25
 10
740.1667293653222
 20
465.9773176572318
 30
0.0000000000000000
 11
787.3793515348604
 21
456.6164157176111
 31
0.0000000000000000
 70
162
  3
MAIN001
100
AcDb2LineAngularDimension
 13
728.1401636217823
 23
399.3286291340697
 33
0.0000000000000000
 14
727.1742377955262
 24
399.0698100888444
 34
0.0000000000000000
 15
739.4596225841701
 25
465.2702108760108
 35
0.0000000000000000
 16
787.8123642367308
 26
456.8664157176492
 36
0.0000000000000000
1001
ACAD
1000
DSTYLE
1002
{
1070
   173
1070
     1
1070
     6
1000
_OPEN
1070
     7
1000
_OPEN
1070
    41
1040
3.000000
1002
}
  0
DIMENSION
  5
21E
100
AcDbEntity
  8
MAIN0
  6
CONTINUOUS
 62
3
100
AcDbDimension
  2
*D26
 10
717.3549099700028
 20
489.8922673975166
 30
0.0000000000000000
 11
748.2249448043281
 21
502.7509724223360
 31
0.0000000000000000
 70
162
  3
MAIN001
100
AcDb2LineAngularDimension
 13
740.1667293653222
 23
465.9773176572318
 33
0.0000000000000000
 14
739.4596225841701
 24
465.2702108760108
 34
0.0000000000000000
 15
716.8549099700310
 25
489.0262419937159
 35
0.0000000000000000
 16
747.9205640898398
 26
502.3542957521781
 36
0.0000000000000000
1001
ACAD
1000
DSTYLE
1002
{
1070
   173
1070
     1
1070
     6
1000
_OPEN
1070
     7
1000
_OPEN
1070
    41
1040
3.000000
1002
}
  0
DIMENSION
  5
227
100
AcDbEntity
  8
MAIN0
  6
CONTINUOUS
 62
3
100
AcDbDimension
  2
*D27
 10
757.4169615231876
 20
319.3534673996324
 30
0.0000000000000000
 11
776.1470307946489
 21
285.2443174988479
 31
0.0000000000000000
 70
162
  3
MAIN001
100
AcDb2LineAngularDimension
 13
740.1667293653219
 23
292.6937715136771
 33
0.0000000000000000
 14
739.4596225841365
 24
293.4008782948648
 34
0.0000000000000000
 15
756.5509361194032
 25
319.8534673996324
 35
0.0000000000000000
 16
776.5437074647944
 26
284.9399367843432
 36
0.0000000000000000
1001
ACAD
1000
DSTYLE
1002
{
1070
   173
1070
     1
1070
     6
1000
_OPEN
1070
     7
1000
_OPEN
1070
    41
1040
3.000000
1002
}
  0
DIMENSION
  5
230
100
AcDbEntity
  8
MAIN0
  6
CONTINUOUS
 62
3
100
AcDbDimension
  2
*D28
 10
785.4840280461721
 20
379.3355445859337
 30
0.0000000000000000
 11
802.8201348961885
 21
339.3320220450904
 31
0.0000000000000000
 70
162
  3
MAIN001
100
AcDb2LineAngularDimension
 13
757.4169615231876
 23
319.3534673996324
 33
0.0000000000000000
 14
756.5509361194032
 24
319.8534673996324
 34
0.0000000000000000
 15
784.4840280461721
 25
379.3355445859301
 35
0.0000000000000000
 16
803.3030978093332
 26
339.2026125225392
 36
0.0000000000000000
1001
ACAD
1000
DSTYLE
1002
{
1070
   173
1070
     1
1070
     6
1000
_OPEN
1070
     7
1000
_OPEN
1070
    41
1040
3.000000
1002
}
  0
ARC
  5
231
100
AcDbEntity
  8
MAIN0
  6
CONTINUOUS
 62
3
100
AcDbCircle
 10
653.5249562938260
 20
379.3355445854543
 30
0.0000000000000000
 40
50.00000000000000
100
AcDbArc
 50
134.2812860246214
 51
165.7187139753785
  0
ARC
  5
232
100
AcDbEntity
  8
MAIN0
  6
CONTINUOUS
 62
3
100
AcDbCircle
 10
653.5249562938260
 20
379.3355445854543
 30
0.0000000000000000
 40
50.00000000000000
100
AcDbArc
 50
254.2812860246212
 51
285.7187139753788
  0
ARC
  5
233
100
AcDbEntity
  8
MAIN0
  6
CONTINUOUS
 62
3
100
AcDbCircle
 10
653.5249562938260
 20
379.3355445854543
 30
0.0000000000000000
 40
50.00000000000000
100
AcDbArc
 50
14.28128602462149
 51
45.71871397537870
  0
ELLIPSE
  5
234
100
AcDbEntity
  8
MAIN0
  6
CONTINUOUS
 62
3
100
AcDbEllipse
 10
237.9096823666645
 20
393.3355445859376
 30
0.0000000000000000
 11
2.350000000000000
 21
0.0000000000000000
 31
0.0000000000000000
210
0.0000000000000000
220
0.0000000000000000
230
1.000000000000000
 40
0.6382978723404255
 41
0.0000000000000000
 42
6.283185307179586
  0
ELLIPSE
  5
235
100
AcDbEntity
  8
MAIN0
  6
CONTINUOUS
 62
3
100
AcDbEllipse
 10
237.9096823666642
 20
365.3355445859367
 30
0.0000000000000000
 11
2.350000000000000
 21
0.0000000000000000
 31
0.0000000000000000
210
0.0000000000000000
220
0.0000000000000000
230
1.000000000000000
 40
0.6382978723404255
 41
0.0000000000000000
 42
6.283185307179586
  0
LINE
  5
236
100
AcDbEntity
  8
MAIN0
  6
CENTER
 62
3
100
AcDbLine
 10
180.4114726376251
 20
379.3355445859378
 30
0.0000000000000000
 11
218.4974764139363
 21
379.3355445859374
 31
0.0000000000000000
  0
ARC
  5
237
100
AcDbEntity
  8
MAIN0
  6
CONTINUOUS
 62
3
100
AcDbCircle
 10
248.5597072715134
 20
402.8355445859372
 30
0.0000000000000000
 40
4.000000000000000
100
AcDbArc
 50
180.0000000000000
 51
298.9550243718613
  0
ARC
  5
238
100
AcDbEntity
  8
MAIN0
  6
CONTINUOUS
 62
3
100
AcDbCircle
 10
248.5597072715130
 20
355.8355445859372
 30
0.0000000000000000
 40
4.000000000000000
100
AcDbArc
 50
61.04497562813759
 51
179.9999999999989
  0
LINE
  5
239
100
AcDbEntity
  8
MAIN0
  6
CONTINUOUS
 62
3
100
AcDbLine
 10
247.5597072715123
 20
358.8355445859372
 30
0.0000000000000000
 11
247.5597072715123
 21
340.1659590169886
 31
0.0000000000000000
  0
LINE
  5
23A
100
AcDbEntity
  8
MAIN0
  6
CONTINUOUS
 62
3
100
AcDbLine
 10
244.5597072715123
 20
355.8355445859428
 30
0.0000000000000000
 11
244.5597072714911
 21
340.7187362826260
 31
0.0000000000000000
  0
LINE
  5
23B
100
AcDbEntity
  8
MAIN0
  6
CONTINUOUS
 62
3
100
AcDbLine
 10
228.5597072714557
 20
366.8355445859371
 30
0.0000000000000000
 11
228.5597072714554
 21
346.8947439700306
 31
0.0000000000000000
  0
LINE
  5
23C
100
AcDbEntity
  8
MAIN0
  6
CONTINUOUS
 62
3
100
AcDbLine
 10
228.5597072714557
 20
365.8355445859371
 30
0.0000000000000000
 11
229.5597072714557
 21
366.8355445859371
 31
0.0000000000000000
  0
ELLIPSE
  5
23D
100
AcDbEntity
  8
MAIN0
  6
CONTINUOUS
 62
3
100
AcDbEllipse
 10
653.5249562938260
 20
416.3355445859377
 30
0.0000000000000000
 11
12.50000000000000
 21
0.0000000000000000
 31
0.0000000000000000
210
0.0000000000000000
220
0.0000000000000000
230
1.000000000000000
 40
0.8000000000000000
 41
3.592619465386056
 42
5.832158495383323
  0
ELLIPSE
  5
23E
100
AcDbEntity
  8
MAIN0
  6
CONTINUOUS
 62
3
100
AcDbEllipse
 10
631.0249562938260
 20
416.3355445859377
 30
0.0000000000000000
 11
12.50000000000000
 21
0.0000000000000000
 31
0.0000000000000000
210
0.0000000000000000
220
0.0000000000000000
230
1.000000000000000
 40
0.8000000000000000
 41
3.141592653589793
 42
5.832158495383323
  0
ELLIPSE
  5
23F
100
AcDbEntity
  8
MAIN0
  6
CONTINUOUS
 62
3
100
AcDbEllipse
 10
676.0249562938260
 20
416.3355445859377
 30
0.0000000000000000
 11
12.50000000000000
 21
0.0000000000000000
 31
0.0000000000000000
210
0.0000000000000000
220
0.0000000000000000
230
1.000000000000000
 40
0.8000000000000000
 41
3.592619465386056
 42
0.0000000000000000
  0
ELLIPSE
  5
240
100
AcDbEntity
  8
MAIN0
  6
CONTINUOUS
 62
3
100
AcDbEllipse
 10
632.7320163533833
 20
341.3499730000630
 30
0.0000000000000000
 11
-6.249999999999997
 21
10.82531754730549
 31
0.0000000000000000
210
0.0000000000000000
220
0.0000000000000000
230
1.000000000000000
 40
0.8000000000000000
 41
3.141592690090035
 42
5.832158495383326
  0
ELLIPSE
  5
241
100
AcDbEntity
  8
MAIN0
  6
CONTINUOUS
 62
3
100
AcDbEllipse
 10
621.4820163533833
 20
360.8355445852129
 30
0.0000000000000000
 11
-6.249999999999997
 21
10.82531754730549
 31
0.0000000000000000
210
0.0000000000000000
220
0.0000000000000000
230
1.000000000000000
 40
0.8000000000000000
 41
3.592619465386062
 42
5.832158495383326
  0
ELLIPSE
  5
242
100
AcDbEntity
  8
MAIN0
  6
CONTINUOUS
 62
3
100
AcDbEllipse
 10
610.2320163533833
 20
380.3211161703628
 30
0.0000000000000000
 11
-6.249999999999997
 21
10.82531754730549
 31
0.0000000000000000
210
0.0000000000000000
220
0.0000000000000000
230
1.000000000000000
 40
0.8000000000000000
 41
3.592619465386062
 42
0.0000000000000000
  0
ELLIPSE
  5
243
100
AcDbEntity
  8
MAIN0
  6
CONTINUOUS
 62
3
100
AcDbEllipse
 10
696.8178962342687
 20
380.3211161703627
 30
0.0000000000000000
 11
-6.250000000000005
 21
-10.82531754730548
 31
0.0000000000000000
210
0.0000000000000000
220
0.0000000000000000
230
1.000000000000000
 40
0.8000000000000000
 41
3.141592690090035
 42
5.832158495383318
  0
ELLIPSE
  5
244
100
AcDbEntity
  8
MAIN0
  6
CONTINUOUS
 62
3
100
AcDbEllipse
 10
685.5678962342687
 20
360.8355445852129
 30
0.0000000000000000
 11
-6.250000000000005
 21
-10.82531754730548
 31
0.0000000000000000
210
0.0000000000000000
220
0.0000000000000000
230
1.000000000000000
 40
0.8000000000000000
 41
3.592619465386054
 42
5.832158495383327
  0
ELLIPSE
  5
245
100
AcDbEntity
  8
MAIN0
  6
CONTINUOUS
 62
3
100
AcDbEllipse
 10
674.3178962342687
 20
341.3499730000630
 30
0.0000000000000000
 11
-6.250000000000005
 21
-10.82531754730548
 31
0.0000000000000000
210
0.0000000000000000
220
0.0000000000000000
230
1.000000000000000
 40
0.8000000000000000
 41
3.592619465386054
 42
0.0000000000000000
  0
LINE
  5
246
100
AcDbEntity
  8
MAIN0
  6
CONTINUOUS
 62
3
100
AcDbLine
 10
195.4597072714549
 20
379.1001616786924
 30
0.0000000000000000
 11
197.7650018079392
 21
377.0540584807725
 31
0.0000000000000000
  0
ARC
  5
247
100
AcDbEntity
  8
MAIN0
  6
CENTER
 62
3
100
AcDbCircle
 10
653.5249562938259
 20
379.3355445854544
 30
0.0000000000000000
 40
44.09849925476419
100
AcDbArc
 50
289.7373109497975
 51
313.5334002360041
  0
LINE
  5
248
100
AcDbEntity
  8
MAIN0
  6
CONTINUOUS
 62
3
100
AcDbLine
 10
276.5597072714548
 20
484.3355445859377
 30
0.0000000000000000
 11
277.5597072714548
 21
483.3355445859377
 31
0.0000000000000000
  0
LINE
  5
249
100
AcDbEntity
  8
MAIN0
  6
CONTINUOUS
 62
3
100
AcDbLine
 10
276.5597072714528
 20
274.3355445859377
 30
0.0000000000000000
 11
277.5597072714528
 21
275.3355445859377
 31
0.0000000000000000
  0
DIMENSION
  5
252
100
AcDbEntity
  8
MAIN0
  6
CONTINUOUS
 62
3
100
AcDbDimension
  2
*D29
 10
370.5596927000393
 20
484.3355445859377
 30
0.0000000000000000
 11
370.0596927000393
 21
379.3355445859377
 31
0.0000000000000000
 70
32
  1
\A1;\U+2205210
  3
MAIN001
100
AcDbAlignedDimension
 13
276.5597072714528
 23
274.3355445859377
 33
0.0000000000000000
 14
276.5597072714548
 24
484.3355445859377
 34
0.0000000000000000
 50
90.00000000000000
100
AcDbRotatedDimension
1001
ACAD
1000
DSTYLE
1002
{
1070
   173
1070
     1
1070
     6
1000
_OPEN
1070
     7
1000
_OPEN
1070
    41
1040
3.000000
1002
}
  0
SPLINE
  5
253
100
AcDbEntity
  8
MAIN0
  6
CONTINUOUS
 62
3
100
AcDbSpline
210
0.0000000000000000
220
0.0000000000000000
230
1.000000000000000
 70
     8
 71
     3
 72
    12
 73
     8
 74
     0
 42
1.000000000000000e-007
 43
1.000000000000000e-007
 12
-0.9655445665307312
 22
0.4720089590586269
 32
0.0000000000000000
 13
-0.9672088500919074
 23
0.4267786534248259
 33
0.0000000000000000
 40
0.0000000000000000
 40
0.0000000000000000
 40
0.0000000000000000
 40
0.0000000000000000
 40
13.33827721736459
 40
33.23500757454033
 40
57.63544804860663
 40
79.39457706747345
 40
96.45601920965348
 40
96.45601920965348
 40
96.45601920965348
 40
96.45601920965348
 10
283.0597072714548
 20
342.8252116527996
 30
0.0000000000000000
 10
278.7668069067525
 20
344.9238071011342
 30
0.0000000000000000
 10
268.0701799126841
 20
350.1528808776556
 30
0.0000000000000000
 10
250.5178777313152
 20
332.3304282401799
 30
0.0000000000000000
 10
229.4421982488168
 20
353.3878637335928
 30
0.0000000000000000
 10
209.0762332140664
 20
337.5884830682139
 30
0.0000000000000000
 10
196.5603665498707
 20
343.1110800966452
 30
0.0000000000000000
 10
191.0597072714549
 20
345.5382331976202
 30
0.0000000000000000
  0
SPLINE
  5
254
100
AcDbEntity
  8
MAIN0
  6
CONTINUOUS
 62
3
100
AcDbSpline
210
0.0000000000000000
220
0.0000000000000000
230
1.000000000000000
 70
     8
 71
     3
 72
    12
 73
     8
 74
     0
 42
1.000000000000000e-007
 43
1.000000000000000e-007
 12
-0.9655445665307454
 22
-0.4720089590585985
 32
0.0000000000000000
 13
-0.9672088500919145
 23
-0.4267786534248046
 33
0.0000000000000000
 40
0.0000000000000000
 40
0.0000000000000000
 40
0.0000000000000000
 40
0.0000000000000000
 40
13.33827721736459
 40
33.23500757454033
 40
57.63544804860663
 40
79.39457706747345
 40
96.45601920965348
 40
96.45601920965348
 40
96.45601920965348
 40
96.45601920965348
 10
283.0597072714555
 20
415.8458775190740
 30
0.0000000000000000
 10
278.7668069067531
 20
413.7472820707396
 30
0.0000000000000000
 10
268.0701799126846
 20
408.5182082942183
 30
0.0000000000000000
 10
250.5178777313161
 20
426.3406609316944
 30
0.0000000000000000
 10
229.4421982488173
 20
405.2832254382818
 30
0.0000000000000000
 10
209.0762332140673
 20
421.0826061036612
 30
0.0000000000000000
 10
196.5603665498715
 20
415.5600090752301
 30
0.0000000000000000
 10
191.0597072714556
 20
413.1328559742552
 30
0.0000000000000000
  0
LINE
  5
255
100
AcDbEntity
  8
MAIN0
  6
PHANTOM
 62
3
100
AcDbLine
 10
258.9574636805472
 20
484.0855445859376
 30
0.0000000000000000
 11
265.1263016123770
 21
413.5754043774421
 31
0.0000000000000000
  0
LINE
  5
256
100
AcDbEntity
  8
MAIN0
  6
CONTINUOUS
 62
3
100
AcDbLine
 10
265.1263016123770
 20
413.5754043774421
 30
0.0000000000000000
 11
265.7597072696607
 21
406.3355445857822
 31
0.0000000000000000
  0
DIMENSION
  5
25F
100
AcDbEntity
  8
MAIN0
  6
CONTINUOUS
 62
3
100
AcDbDimension
  2
*D30
 10
294.0597072714548
 20
319.3355445859377
 30
0.0000000000000000
 11
262.7830677740568
 21
320.0855445859377
 31
0.0000000000000000
 70
160
  3
MAIN001
100
AcDbAlignedDimension
 13
247.5597072714548
 23
367.5426513671242
 33
0.0000000000000000
 14
294.0597072714548
 24
368.9355445859367
 34
0.0000000000000000
100
AcDbRotatedDimension
1001
ACAD
1000
DSTYLE
1002
{
1070
   173
1070
     1
1070
     6
1000
_OPEN
1070
     7
1000
_OPEN
1070
    41
1040
3.000000
1002
}
  0
DIMENSION
  5
268
100
AcDbEntity
  8
MAIN0
  6
CONTINUOUS
 62
3
100
AcDbDimension
  2
*D31
 10
247.5597072714548
 20
319.3355445859377
 30
0.0000000000000000
 11
232.0597072714549
 21
319.8355445859377
 31
0.0000000000000000
 70
32
  3
MAIN001
100
AcDbAlignedDimension
 13
216.5597072714549
 23
372.8355445859376
 33
0.0000000000000000
 14
247.5597072714548
 24
367.5426513671242
 34
0.0000000000000000
100
AcDbRotatedDimension
1001
ACAD
1000
DSTYLE
1002
{
1070
   173
1070
     1
1070
     6
1000
_OPEN
1070
     7
1000
_OPEN
1070
    41
1040
3.000000
1002
}
  0
LINE
  5
269
100
AcDbEntity
  8
MAIN0
  6
CONTINUOUS
 62
3
100
AcDbLine
 10
247.5597072715123
 20
358.8355445859372
 30
0.0000000000000000
 11
248.0597072715123
 21
359.3355445859372
 31
0.0000000000000000
  0
LINE
  5
26A
100
AcDbEntity
  8
MAIN0
  6
CONTINUOUS
 62
3
100
AcDbLine
 10
247.5597072715127
 20
399.8355445859372
 30
0.0000000000000000
 11
248.0597072715127
 21
399.3355445859372
 31
0.0000000000000000
  0
LINE
  5
26B
100
AcDbEntity
  8
MAIN0
  6
PHANTOM
 62
3
100
AcDbLine
 10
191.5597072714538
 20
413.3533980365777
 30
0.0000000000000000
 11
191.5597072714548
 21
440.8750535226018
 31
0.0000000000000000
  0
LINE
  5
26C
100
AcDbEntity
  8
MAIN0
  6
PHANTOM
 62
3
100
AcDbLine
 10
191.5597072714548
 20
317.7960356492762
 30
0.0000000000000000
 11
191.5597072714538
 21
345.3176911352975
 31
0.0000000000000000
  0
LINE
  5
26D
100
AcDbEntity
  8
MAIN0
  6
CONTINUOUS
 62
3
100
AcDbLine
 10
191.5597072714538
 20
345.3176911352975
 30
0.0000000000000000
 11
191.5597072714538
 21
413.3533980365777
 31
0.0000000000000000
  0
DIMENSION
  5
278
100
AcDbEntity
  8
MAIN0
  6
CONTINUOUS
 62
3
100
AcDbDimension
  2
*D32
 10
294.0597072714548
 20
334.3355445859377
 30
0.0000000000000000
 11
300.7653856275574
 21
335.0855445859377
 31
0.0000000000000000
 70
160
  3
MAIN001
100
AcDbAlignedDimension
 13
286.7597072714544
 23
359.9128948550903
 33
0.0000000000000000
 14
294.0597072714548
 24
368.9355445859367
 34
0.0000000000000000
100
AcDbRotatedDimension
1001
ACAD
1000
DSTYLE
1002
{
1070
   173
1070
     1
1070
     6
1000
_OPEN
1070
     7
1000
_OPEN
1070
    41
1040
3.000000
1070
   287
1070
     0
1002
}
  0
MTEXT
  5
279
100
AcDbEntity
  8
MAIN0
  6
CONTINUOUS
 62
3
100
AcDbMText
 10
224.0879634149319
 20
549.5714277295444
 30
0.0000000000000000
 40
4.649999856948853
 41
0.0000000000000000
 71
     1
 72
     1
  1
{\H0.70x;{(ピストン前進端時)}}
 11
1.000000000000000
 21
0.0000000000000000
 31
0.0000000000000000
  7
KNJYOKO
  0
LINE
  5
27A
100
AcDbEntity
  8
MAIN0
  6
CENTER
 62
3
100
AcDbLine
 10
639.3221396721772
 20
387.5355445852140
 30
0.0000000000000000
 11
647.1163683062372
 21
383.0355445852141
 31
0.0000000000000000
  0
DIMENSION
  5
283
100
AcDbEntity
  8
MAIN0
  6
CONTINUOUS
 62
3
100
AcDbDimension
  2
*D33
 10
191.0597072714549
 20
389.9112331767136
 30
0.0000000000000000
 11
184.7469045921085
 21
390.6612331767136
 31
0.0000000000000000
 70
160
  1
\A1;0.2
  3
MAIN001
100
AcDbAlignedDimension
 13
191.5597072714538
 23
345.3176911352975
 33
0.0000000000000000
 14
191.0597072714549
 24
502.7355445859378
 34
0.0000000000000000
100
AcDbRotatedDimension
1001
ACAD
1000
DSTYLE
1002
{
1070
   173
1070
     1
1070
     6
1000
_OPEN
1070
     7
1000
_OPEN
1070
    41
1040
3.000000
1070
   287
1070
     0
1002
}
  0
LINE
  5
284
100
AcDbEntity
  8
MAIN0
  6
PHANTOM
 62
3
100
AcDbLine
 10
191.0597072714550
 20
316.8355445857911
 30
0.0000000000000000
 11
191.5597072714546
 21
317.7960356492762
 31
0.0000000000000000
  0
LINE
  5
285
100
AcDbEntity
  8
MAIN0
  6
PHANTOM
 62
3
100
AcDbLine
 10
191.0597072714549
 20
441.8355445860871
 30
0.0000000000000000
 11
191.5597072714546
 21
440.8750535226018
 31
0.0000000000000000
  0
DIMENSION
  5
28E
100
AcDbEntity
  8
MAIN0
  6
CONTINUOUS
 62
3
100
AcDbDimension
  2
*D34
 10
159.0538189656428
 20
441.8355445860871
 30
0.0000000000000000
 11
158.5538189656428
 21
379.3355445859391
 31
0.0000000000000000
 70
33
  1
\A1;\U+2205125
  3
MAIN001
100
AcDbAlignedDimension
 13
191.0597072714550
 23
316.8355445857911
 33
0.0000000000000000
 14
191.0597072714549
 24
441.8355445860871
 34
0.0000000000000000
 50
90.00000000000000
1001
ACAD
1000
DSTYLE
1002
{
1070
   173
1070
     1
1070
     6
1000
_OPEN
1070
     7
1000
_OPEN
1070
    41
1040
3.000000
1002
}
  0
LINE
  5
28F
100
AcDbEntity
  8
MAIN0
  6
PHANTOM
 62
3
100
AcDbLine
 10
191.0597072714549
 20
306.3355445859378
 30
0.0000000000000000
 11
192.0597072714549
 21
306.3355445859378
 31
0.0000000000000000
  0
LINE
  5
290
100
AcDbEntity
  8
MAIN0
  6
PHANTOM
 62
3
100
AcDbLine
 10
191.0597072714549
 20
292.3355445859378
 30
0.0000000000000000
 11
192.0597072714549
 21
292.3355445859378
 31
0.0000000000000000
  0
LINE
  5
291
100
AcDbEntity
  8
MAIN0
  6
PHANTOM
 62
3
100
AcDbLine
 10
192.0597072714549
 20
306.3355445859378
 30
0.0000000000000000
 11
192.0597072714549
 21
292.3355445859378
 31
0.0000000000000000
  0
DIMENSION
  5
29A
100
AcDbEntity
  8
MAIN0
  6
CONTINUOUS
 62
3
100
AcDbDimension
  2
*D35
 10
159.0538189656428
 20
306.3355445859378
 30
0.0000000000000000
 11
158.5538189656428
 21
299.3355445859378
 31
0.0000000000000000
 70
32
  1
\A1;\U+220514
  3
MAIN001
100
AcDbAlignedDimension
 13
191.0597072714549
 23
292.3355445859378
 33
0.0000000000000000
 14
191.0597072714549
 24
306.3355445859378
 34
0.0000000000000000
 50
90.00000000000000
100
AcDbRotatedDimension
1001
ACAD
1000
DSTYLE
1002
{
1070
   173
1070
     1
1070
     6
1000
_OPEN
1070
     7
1000
_OPEN
1070
    41
1040
3.000000
1002
}
  0
LEADER
  5
29B
100
AcDbEntity
  8
MAIN0
  6
CONTINUOUS
 62
3
100
AcDbLeader
  3
MAIN001
 73
     0
 75
     1
 40
4.649999856948853
 41
74.75900219583514
 76
     3
 10
591.5179929646729
 20
481.0934790805040
 30
0.0000000000000000
 10
567.9936808163130
 20
508.9095846511855
 30
0.0000000000000000
 10
565.1036808999979
 20
508.9095846511855
 30
0.0000000000000000
340
29C
213
0.0000000000000000
223
-0.7500000000000000
233
0.0000000000000000
1001
ACAD
1000
DSTYLE
1002
{
1070
   147
1040
0.0
1070
    77
1070
     1
1070
   173
1070
     1
1070
     6
1000
_OPEN
1070
     7
1000
_OPEN
1002
}
  0
MTEXT
  5
29C
102
{ACAD_REACTORS
330
29B
102
}
100
AcDbEntity
  8
MAIN0
  6
CONTINUOUS
 62
3
100
AcDbMText
 10
490.3446787041628
 20
514.3095845081343
 30
0.0000000000000000
 40
4.649999856948853
 41
0.0000000000000000
 71
     1
 72
     1
  1
{\H0.94x;{6-M10貫通\P6-M10 PASS THROUGH}}
 11
1.000000000000000
 21
0.0000000000000000
 31
0.0000000000000000
  7
KNJYOKO
  0
MTEXT
  5
29D
100
AcDbEntity
  8
MAIN0
  6
CONTINUOUS
 62
3
100
AcDbMText
 10
215.0935808666654
 20
538.4908065972469
 30
0.0000000000000000
 40
4.649999856948853
 41
0.0000000000000000
 71
     7
 72
     1
  1
{\H0.71x;{(PISTON ADVANCE END)}}
 11
1.000000000000000
 21
0.0000000000000000
 31
0.0000000000000000
  7
STANDARD
  0
MTEXT
  5
29E
100
AcDbEntity
  8
MAIN0
  6
CONTINUOUS
 62
3
100
AcDbMText
 10
337.6851660082648
 20
142.8697839662484
 30
0.0000000000000000
 40
4.649999856948853
 41
0.0000000000000000
 71
     1
 72
     1
  1
{\H0.90x;{185}}
 11
1.000000000000000
 21
0.0000000000000000
 31
0.0000000000000000
  7
STANDARD
  0
MTEXT
  5
29F
100
AcDbEntity
  8
MAIN0
  6
CONTINUOUS
 62
3
100
AcDbMText
 10
337.6851660082648
 20
132.3697839662484
 30
0.0000000000000000
 40
4.649999856948853
 41
0.0000000000000000
 71
     1
 72
     1
  1
{\H0.88x;{20}}
 11
1.000000000000000
 21
0.0000000000000000
 31
0.0000000000000000
  7
STANDARD
  0
MTEXT
  5
2A0
100
AcDbEntity
  8
MAIN0
  6
CONTINUOUS
 62
3
100
AcDbMText
 10
342.0213268306293
 20
106.8697839662484
 30
0.0000000000000000
 40
4.649999856948853
 41
0.0000000000000000
 71
     1
 72
     1
  1
{\H0.91x;{15.1}}
 11
1.000000000000000
 21
0.0000000000000000
 31
0.0000000000000000
  7
STANDARD
  0
MTEXT
  5
2A1
100
AcDbEntity
  8
MAIN0
  6
CONTINUOUS
 62
3
100
AcDbMText
 10
342.0213268306226
 20
94.86978396624841
 30
0.0000000000000000
 40
4.649999856948853
 41
0.0000000000000000
 71
     1
 72
     1
  1
{\H0.91x;{14.6}}
 11
1.000000000000000
 21
0.0000000000000000
 31
0.0000000000000000
  7
STANDARD
  0
MTEXT
  5
2A2
100
AcDbEntity
  8
MAIN0
  6
CONTINUOUS
 62
3
100
AcDbMText
 10
337.6851660083314
 20
82.86978396624841
 30
0.0000000000000000
 40
4.649999856948853
 41
0.0000000000000000
 71
     1
 72
     1
  1
{\H0.88x;{22}}
 11
1.000000000000000
 21
0.0000000000000000
 31
0.0000000000000000
  7
STANDARD
  0
MTEXT
  5
2A3
100
AcDbEntity
  8
MAIN0
  6
CONTINUOUS
 62
3
100
AcDbMText
 10
453.1851660084915
 20
114.2197841092996
 30
0.0000000000000000
 40
4.649999856948853
 41
0.0000000000000000
 71
     7
 72
     1
  1
{\H0.76x;{1.5}}
 11
1.000000000000000
 21
0.0000000000000000
 31
0.0000000000000000
  7
STANDARD
  0
MTEXT
  5
2A4
100
AcDbEntity
  8
MAIN0
  6
CONTINUOUS
 62
3
100
AcDbMText
 10
457.5213268308310
 20
106.8697839660479
 30
0.0000000000000000
 40
4.649999856948853
 41
0.0000000000000000
 71
     1
 72
     1
  1
{\H0.91x;{37.7}}
 11
1.000000000000000
 21
0.0000000000000000
 31
0.0000000000000000
  7
STANDARD
  0
MTEXT
  5
2A5
100
AcDbEntity
  8
MAIN0
  6
CONTINUOUS
 62
3
100
AcDbMText
 10
457.5213268308243
 20
94.86978396604786
 30
0.0000000000000000
 40
4.649999856948853
 41
0.0000000000000000
 71
     1
 72
     1
  1
{\H0.91x;{36.5}}
 11
1.000000000000000
 21
0.0000000000000000
 31
0.0000000000000000
  7
STANDARD
  0
MTEXT
  5
2A6
100
AcDbEntity
  8
MAIN0
  6
CONTINUOUS
 62
3
100
AcDbMText
 10
658.4440910427055
 20
239.2256929588605
 30
0.0000000000000000
 40
4.649999856948853
 41
0.0000000000000000
 71
     7
 72
     1
  1
{\H0.91x;{PUSH}}
 11
1.000000000000000
 21
0.0000000000000000
 31
0.0000000000000000
  7
STANDARD
  0
MTEXT
  5
2A7
100
AcDbEntity
  8
MAIN0
  6
CONTINUOUS
 62
3
100
AcDbMText
 10
631.5236246899337
 20
238.9330776242643
 30
0.0000000000000000
 40
4.649999856948853
 41
0.0000000000000000
 71
     7
 72
     1
  1
{\H0.91x;{PULL}}
 11
1.000000000000000
 21
0.0000000000000000
 31
0.0000000000000000
  7
STANDARD
  0
DIMENSION
  5
2B0
100
AcDbEntity
  8
MAIN0
  6
CONTINUOUS
 62
3
100
AcDbDimension
  2
*D36
 10
693.5249562938693
 20
191.9952188594349
 30
0.0000000000000000
 11
653.5249562938693
 21
192.4952188594349
 31
0.0000000000000000
 70
32
  3
MAIN001
100
AcDbAlignedDimension
 13
613.5249562938693
 23
253.8355445854544
 33
0.0000000000000000
 14
693.5249562938693
 24
253.8355445854544
 34
0.0000000000000000
100
AcDbRotatedDimension
1001
ACAD
1000
DSTYLE
1002
{
1070
   173
1070
     1
1070
     6
1000
_OPEN
1070
     7
1000
_OPEN
1070
    41
1040
3.000000
1002
}
  0
DIMENSION
  5
2B9
100
AcDbEntity
  8
MAIN0
  6
CONTINUOUS
 62
3
100
AcDbDimension
  2
*D37
 10
499.0336327190757
 20
379.3355445859337
 30
0.0000000000000000
 11
498.5336327190757
 21
316.5855445856940
 31
0.0000000000000000
 70
32
  3
MAIN001
100
AcDbAlignedDimension
 13
613.5249562938693
 23
253.8355445854544
 33
0.0000000000000000
 14
527.5375580416117
 24
379.3355445859363
 34
0.0000000000000000
 50
90.00000000000000
100
AcDbRotatedDimension
1001
ACAD
1000
DSTYLE
1002
{
1070
   173
1070
     1
1070
     6
1000
_OPEN
1070
     7
1000
_OPEN
1070
    41
1040
3.000000
1002
}
  0
LEADER
  5
2BA
100
AcDbEntity
  8
MAIN0
  6
CONTINUOUS
 62
3
100
AcDbLeader
  3
MAIN001
 73
     0
 75
     1
 40
4.649999856948853
 41
25.52900059723856
 76
     3
 10
653.5249562938261
 20
253.8355445854544
 30
0.0000000000000000
 10
635.7576771463785
 20
178.1118856070108
 30
0.0000000000000000
 10
632.8676772300634
 20
178.1118856070108
 30
0.0000000000000000
340
2BB
213
0.0000000000000000
223
-0.7500000000000000
233
0.0000000000000000
1001
ACAD
1000
DSTYLE
1002
{
1070
   147
1040
0.0
1070
    77
1070
     1
1070
   173
1070
     1
1070
     6
1000
_OPEN
1070
     7
1000
_OPEN
1002
}
  0
MTEXT
  5
2BB
102
{ACAD_REACTORS
330
2BA
102
}
100
AcDbEntity
  8
MAIN0
  6
CONTINUOUS
 62
3
100
AcDbMText
 10
607.3386766328248
 20
183.5118854639597
 30
0.0000000000000000
 40
4.649999856948853
 41
0.0000000000000000
 71
     1
 72
     1
  1
{\H0.93x;{Rc1/8\P着座確認用}}
 11
1.000000000000000
 21
0.0000000000000000
 31
0.0000000000000000
  7
KNJYOKO
  0
MTEXT
  5
2BC
100
AcDbEntity
  8
MAIN0
  6
CONTINUOUS
 62
3
100
AcDbMText
 10
607.3386766328247
 20
171.6824546988701
 30
0.0000000000000000
 40
4.199999928474426
 41
0.0000000000000000
 71
     1
 72
     1
  1
{\H0.67x;{FOR SEATING CONFIRMATION\P}
 11
1.000000000000000
 21
0.0000000000000000
 31
0.0000000000000000
  7
STANDARD
  0
LEADER
  5
2BD
100
AcDbEntity
  8
MAIN0
  6
CONTINUOUS
 62
3
100
AcDbLeader
  3
MAIN001
 73
     0
 75
     1
 40
4.649999856948853
 41
28.72400085830691
 76
     3
 10
623.5426055998250
 20
256.9123223774250
 30
0.0000000000000000
 10
578.0993580129634
 20
207.3260552357983
 30
0.0000000000000000
 10
575.2093580966483
 20
207.3260552357983
 30
0.0000000000000000
340
2BE
213
0.0000000000000000
223
-0.7500000000000000
233
0.0000000000000000
1001
ACAD
1000
DSTYLE
1002
{
1070
   147
1040
0.0
1070
    77
1070
     1
1070
   173
1070
     1
1070
     6
1000
_OPEN
1070
     7
1000
_OPEN
1002
}
  0
MTEXT
  5
2BE
102
{ACAD_REACTORS
330
2BD
102
}
100
AcDbEntity
  8
MAIN0
  6
CONTINUOUS
 62
3
100
AcDbMText
 10
546.4853572383414
 20
212.7260550927472
 30
0.0000000000000000
 40
4.649999856948853
 41
0.0000000000000000
 71
     1
 72
     1
  1
{\H0.92x;{2-Rc1/4}}
 11
1.000000000000000
 21
0.0000000000000000
 31
0.0000000000000000
  7
STANDARD
  0
LEADER
  5
2BF
100
AcDbEntity
  8
MAIN0
  6
CONTINUOUS
 62
3
100
AcDbLeader
  3
MAIN001
 73
     0
 75
     1
 40
4.649999856948853
 41
41.27900122308733
 76
     3
 10
626.9249562938255
 20
299.6030607202095
 30
0.0000000000000000
 10
576.9199775911885
 20
236.9669327681168
 30
0.0000000000000000
 10
574.0299776748734
 20
236.9669327681168
 30
0.0000000000000000
340
2C0
213
0.0000000000000000
223
-0.7500000000000000
233
0.0000000000000000
1001
ACAD
1000
DSTYLE
1002
{
1070
   147
1040
0.0
1070
    77
1070
     1
1070
   173
1070
     1
1070
     6
1000
_OPEN
1070
     7
1000
_OPEN
1002
}
  0
MTEXT
  5
2C0
102
{ACAD_REACTORS
330
2BF
102
}
100
AcDbEntity
  8
MAIN0
  6
CONTINUOUS
 62
3
100
AcDbMText
 10
532.7509764517861
 20
242.3669326250656
 30
0.0000000000000000
 40
4.649999856948853
 41
0.0000000000000000
 71
     1
 72
     1
  1
{\H0.93x;{2-Rc1/8\P（裏面より）\P(FROM THE \PBACK SIDE)}}
 11
1.000000000000000
 21
0.0000000000000000
 31
0.0000000000000000
  7
KNJYOKO
  0
MTEXT
  5
2C1
100
AcDbEntity
  8
MAIN0
  6
CONTINUOUS
 62
3
100
AcDbMText
 10
713.9194744695426
 20
109.8869890987860
 30
0.0000000000000000
 40
4.500000000000000
 41
0.0000000000000000
 71
     1
 72
     1
  1
{\H0.62x;{IN CASE OF USING SEATING CONFIRMATION, PLEASE REMOVE}}
 11
1.000000000000000
 21
0.0000000000000000
 31
0.0000000000000000
  7
STANDARD
  0
MTEXT
  5
2C2
100
AcDbEntity
  8
MAIN0
  6
CONTINUOUS
 62
3
100
AcDbMText
 10
713.9194744695426
 20
102.3869890987859
 30
0.0000000000000000
 40
4.500000000000000
 41
0.0000000000000000
 71
     1
 72
     1
  1
{\H0.61x;{※ MARKED ORIFICE PLUG.}}
 11
1.000000000000000
 21
0.0000000000000000
 31
0.0000000000000000
  7
KNJYOKO
  0
MTEXT
  5
2C3
100
AcDbEntity
  8
MAIN0
  6
CONTINUOUS
 62
3
100
AcDbMText
 10
700.4194744695346
 20
163.6593241955470
 30
0.0000000000000000
 40
4.649999856948853
 41
0.0000000000000000
 71
     1
 72
     1
  1
{\H0.67x;{1.}}
 11
1.000000000000000
 21
0.0000000000000000
 31
0.0000000000000000
  7
STANDARD
  0
MTEXT
  5
2C4
100
AcDbEntity
  8
MAIN0
  6
CONTINUOUS
 62
3
100
AcDbMText
 10
713.9194744695346
 20
163.6593241955470
 30
0.0000000000000000
 40
4.649999856948853
 41
0.0000000000000000
 71
     1
 72
     1
  1
{\H0.94x;{着座確認を行う際は、※印部のオリフィスプラグを}}
 11
1.000000000000000
 21
0.0000000000000000
 31
0.0000000000000000
  7
KNJYOKO
  0
MTEXT
  5
2C5
100
AcDbEntity
  8
MAIN0
  6
CONTINUOUS
 62
3
100
AcDbMText
 10
713.9194744695346
 20
156.1593241955470
 30
0.0000000000000000
 40
4.649999856948853
 41
0.0000000000000000
 71
     1
 72
     1
  1
{\H0.94x;{取外して使用してください。}}
 11
1.000000000000000
 21
0.0000000000000000
 31
0.0000000000000000
  7
KNJYOKO
  0
INSERT
  5
2CF
100
AcDbEntity
  8
MAIN0
  6
CONTINUOUS
 62
3
100
AcDbBlockReference
  2
M0
 10
0.0000000000000000
 20
0.0000000000000000
 30
0.0000000000000000
 50
0.0000000000000000
  0
INSERT
  5
2D9
100
AcDbEntity
  8
MAIN0
  6
CONTINUOUS
 62
3
100
AcDbBlockReference
  2
M1
 10
0.0000000000000000
 20
0.0000000000000000
 30
0.0000000000000000
 50
0.0000000000000000
  0
MTEXT
  5
2DA
100
AcDbEntity
  8
MAIN0
  6
CONTINUOUS
 62
3
100
AcDbMText
 10
700.4194744695429
 20
110.0369889557348
 30
0.0000000000000000
 40
4.649999856948853
 41
0.0000000000000000
 71
     1
 72
     1
  1
{\H0.67x;{1.}}
 11
1.000000000000000
 21
0.0000000000000000
 31
0.0000000000000000
  7
STANDARD
  0
MTEXT
  5
2DB
100
AcDbEntity
  8
MAIN0
  6
CONTINUOUS
 62
3
100
AcDbMText
 10
606.1176843378790
 20
191.2665636334158
 30
0.0000000000000000
 40
7.500000000000000
 41
0.0000000000000000
 71
     1
 72
     1
  1
{\H0.84x;{※}}
 11
1.000000000000000
 21
0.0000000000000000
 31
0.0000000000000000
  7
KNJYOKO
  0
INSERT
  5
2E6
100
AcDbEntity
  8
MAIN0
  6
CONTINUOUS
 62
3
100
AcDbBlockReference
  2
*X0
 10
0.0000000000000000
 20
0.0000000000000000
 30
0.0000000000000000
 50
0.0000000000000000
  0
INSERT
  5
2F2
100
AcDbEntity
  8
MAIN0
  6
CONTINUOUS
 62
3
100
AcDbBlockReference
  2
*X1
 10
0.0000000000000000
 20
0.0000000000000000
 30
0.0000000000000000
 50
0.0000000000000000
  0
LINE
  5
2F3
100
AcDbEntity
  8
MAIN0
  6
CENTER
 62
3
100
AcDbLine
 10
592.5549488320108
 20
484.9386952473208
 30
0.0000000000000000
 11
599.5231544889606
 21
472.8694090118779
 31
0.0000000000000000
  0
LINE
  5
2F4
100
AcDbEntity
  8
MAIN0
  6
CENTER
 62
3
100
AcDbLine
 10
706.9237562141532
 20
286.8461100601129
 30
0.0000000000000000
 11
714.6127962801730
 21
273.5283020043150
 31
0.0000000000000000
  0
LINE
  5
2F5
100
AcDbEntity
  8
MAIN0
  6
CENTER
 62
3
100
AcDbLine
 10
592.4064289010938
 20
273.4751498573031
 30
0.0000000000000000
 11
600.2389590856237
 21
287.0414900887448
 31
0.0000000000000000
  0
LINE
  5
2F6
100
AcDbEntity
  8
MAIN0
  6
CENTER
 62
3
100
AcDbLine
 10
707.3979902737095
 20
472.6463765966291
 30
0.0000000000000000
 11
717.3549099700028
 21
489.8922673975166
 31
0.0000000000000000
  0
CIRCLE
  5
2F7
100
AcDbEntity
  8
MAIN0
  6
CONTINUOUS
 62
3
100
AcDbCircle
 10
734.8422361301468
 20
460.6528244220395
 30
0.0000000000000000
 40
5.500000000000000
  0
LINE
  5
2F8
100
AcDbEntity
  8
MAIN0
  6
CENTER
 62
3
100
AcDbLine
 10
577.9468582834506
 20
454.9136425955891
 30
0.0000000000000000
 11
566.6409244279298
 21
466.2195764510739
 31
0.0000000000000000
  0
CIRCLE
  5
2F9
100
AcDbEntity
  8
MAIN0
  6
CONTINUOUS
 62
3
100
AcDbCircle
 10
572.2076764572435
 20
460.6528244217780
 30
0.0000000000000000
 40
5.500000000000000
  0
ARC
  5
2FA
100
AcDbEntity
  8
MAIN0
  6
CENTER
 62
3
100
AcDbCircle
 10
653.5249562938259
 20
379.3355445854544
 30
0.0000000000000000
 40
80.00000000000000
100
AcDbArc
 50
229.8950199700814
 51
292.2265245966340
  0
LINE
  5
2FB
100
AcDbEntity
  8
MAIN0
  6
CENTER
 62
3
100
AcDbLine
 10
578.3071810242000
 20
304.1177693160681
 30
0.0000000000000000
 11
566.6409244279297
 21
292.4515127198350
 31
0.0000000000000000
  0
CIRCLE
  5
2FC
100
AcDbEntity
  8
MAIN0
  6
CONTINUOUS
 62
3
100
AcDbCircle
 10
572.2076764572435
 20
298.0182647491309
 30
0.0000000000000000
 40
5.500000000000000
  0
LINE
  5
2FD
100
AcDbEntity
  8
MAIN0
  6
CENTER
 62
3
100
AcDbLine
 10
728.8008581451960
 20
304.0596427338399
 30
0.0000000000000000
 11
740.1667293653218
 21
292.6937715136771
 31
0.0000000000000000
  0
CIRCLE
  5
2FE
100
AcDbEntity
  8
MAIN0
  6
CONTINUOUS
 62
3
100
AcDbCircle
 10
734.8422361301468
 20
298.0182647488694
 30
0.0000000000000000
 40
5.500000000000000
  0
CIRCLE
  5
2FF
100
AcDbEntity
  8
MAIN0
  6
PHANTOM
 62
3
100
AcDbCircle
 10
630.0249562938259
 20
266.3355445854544
 30
0.0000000000000000
 40
2.500000000000000
  0
CIRCLE
  5
300
100
AcDbEntity
  8
MAIN0
  6
PHANTOM
 62
3
100
AcDbCircle
 10
630.0249562938259
 20
266.3355445854544
 30
0.0000000000000000
 40
5.000000000000000
  0
ARC
  5
301
100
AcDbEntity
  8
MAIN0
  6
CENTER
 62
3
100
AcDbCircle
 10
653.5249562938259
 20
379.3355445854544
 30
0.0000000000000000
 40
115.4000000000000
100
AcDbArc
 50
253.7837586058277
 51
285.8182719968224
  0
CIRCLE
  5
302
100
AcDbEntity
  8
MAIN0
  6
PHANTOM
 62
3
100
AcDbCircle
 10
677.0249562938259
 20
266.3355445854544
 30
0.0000000000000000
 40
2.500000000000000
  0
CIRCLE
  5
303
100
AcDbEntity
  8
MAIN0
  6
PHANTOM
 62
3
100
AcDbCircle
 10
677.0249562938259
 20
266.3355445854544
 30
0.0000000000000000
 40
5.000000000000000
  0
LINE
  5
304
100
AcDbEntity
  8
MAIN0
  6
CENTER
 62
3
100
AcDbLine
 10
729.0070992301362
 20
454.8176875220097
 30
0.0000000000000000
 11
740.1667293653220
 21
465.9773176572317
 31
0.0000000000000000
  0
DIMENSION
  5
30B
100
AcDbEntity
  8
MAIN10
  6
CONTINUOUS
 62
3
100
AcDbDimension
  2
*D38
 10
557.3164646424981
 20
442.3349583460313
 30
0.0000000000000000
 11
592.1046890357828
 21
420.4513625593046
 31
0.0000000000000000
 70
163
  3
MAIN001
100
AcDbDiametricDimension
 15
749.7334479451541
 25
316.3361308248777
 35
0.0000000000000000
1001
ACAD
1000
DSTYLE
1002
{
1070
   287
1070
     2
1070
   173
1070
     1
1070
     6
1000
_OPEN
1070
     7
1000
_OPEN
1070
    41
1040
3.000000
1070
   272
1070
     1
1070
    47
1040
0.200000
1070
    48
1040
0.200000
1070
    71
1070
     1
1002
}
  0
ARC
  5
30C
100
AcDbEntity
  8
MAIN0
  6
HIDDEN
 62
3
100
AcDbCircle
 10
653.5249562938259
 20
379.3355445854544
 30
0.0000000000000000
 40
124.0000000000003
100
AcDbArc
 50
251.1809366310121
 51
270.0000000000000
  0
ARC
  5
30D
100
AcDbEntity
  8
MAIN0
  6
HIDDEN
 62
3
100
AcDbCircle
 10
653.5249562938259
 20
379.3355445854544
 30
0.0000000000000000
 40
124.0000000000003
100
AcDbArc
 50
270.0000000000000
 51
288.8190633689879
  0
ARC
  5
30E
100
AcDbEntity
  8
MAIN0
  6
CONTINUOUS
 62
3
100
AcDbCircle
 10
653.5249562938259
 20
379.3355445854544
 30
0.0000000000000000
 40
124.0000000000003
100
AcDbArc
 50
288.8190633689879
 51
611.1809366310122
  0
ARC
  5
30F
100
AcDbEntity
  8
MAIN0
  6
CENTER
 62
3
100
AcDbCircle
 10
653.5249562938259
 20
379.3355445854544
 30
0.0000000000000000
 40
115.0000000000001
100
AcDbArc
 50
295.3687011313467
 51
604.6706284789310
  0
LINE
  5
310
100
AcDbEntity
  8
MAIN0
  6
CENTER
 62
3
100
AcDbLine
 10
677.0249562938259
 20
248.9822797013626
 30
0.0000000000000000
 11
677.0249562938260
 21
351.4981295009025
 31
0.0000000000000000
  0
LINE
  5
311
100
AcDbEntity
  8
MAIN0
  6
CENTER
 62
3
100
AcDbLine
 10
630.0249562938259
 20
250.2242600232086
 30
0.0000000000000000
 11
630.0249562938259
 21
313.5385971726240
 31
0.0000000000000000
  0
LINE
  5
312
100
AcDbEntity
  8
MAIN0
  6
PHANTOM
 62
3
100
AcDbLine
 10
204.6597072714549
 20
261.3355445859376
 30
0.0000000000000000
 11
201.6597072714549
 21
261.3355445859376
 31
0.0000000000000000
  0
LINE
  5
313
100
AcDbEntity
  8
MAIN0
  6
PHANTOM
 62
3
100
AcDbLine
 10
201.6597072714549
 20
266.3355445859376
 30
0.0000000000000000
 11
204.6597072714549
 21
266.3355445859376
 31
0.0000000000000000
  0
LINE
  5
314
100
AcDbEntity
  8
MAIN0
  6
PHANTOM
 62
3
100
AcDbLine
 10
201.6597072714549
 20
261.3355445859376
 30
0.0000000000000000
 11
200.5993803052112
 21
263.1720847641071
 31
0.0000000000000000
  0
LINE
  5
315
100
AcDbEntity
  8
MAIN0
  6
PHANTOM
 62
3
100
AcDbLine
 10
200.6342677512882
 20
264.5594312369198
 30
0.0000000000000000
 11
201.6597072714549
 21
266.3355445859376
 31
0.0000000000000000
  0
CIRCLE
  5
316
100
AcDbEntity
  8
MAIN0
  6
CONTINUOUS
 62
3
100
AcDbCircle
 10
636.2617259873844
 20
314.9082919714654
 30
0.0000000000000000
 40
6.000000000000000
  0
CIRCLE
  5
317
100
AcDbEntity
  8
MAIN0
  6
CONTINUOUS
 62
3
100
AcDbCircle
 10
636.2617259873844
 20
314.9082919714654
 30
0.0000000000000000
 40
5.100000000000000
  0
CIRCLE
  5
318
100
AcDbEntity
  8
MAIN0
  6
CONTINUOUS
 62
3
100
AcDbCircle
 10
670.7881866002676
 20
314.9082919714654
 30
0.0000000000000000
 40
6.000000000000000
  0
CIRCLE
  5
319
100
AcDbEntity
  8
MAIN0
  6
CONTINUOUS
 62
3
100
AcDbCircle
 10
670.7881866002676
 20
314.9082919714654
 30
0.0000000000000000
 40
5.100000000000000
  0
CIRCLE
  5
31A
100
AcDbEntity
  8
MAIN0
  6
CONTINUOUS
 62
3
100
AcDbCircle
 10
653.5249562938259
 20
379.3355445854544
 30
0.0000000000000000
 40
9.000000000000000
  0
CIRCLE
  5
31B
100
AcDbEntity
  8
MAIN0
  6
CONTINUOUS
 62
3
100
AcDbCircle
 10
653.5249562938259
 20
379.3355445854544
 30
0.0000000000000000
 40
7.750000000000000
  0
LINE
  5
31C
100
AcDbEntity
  8
MAIN0
  6
CENTER
 62
3
100
AcDbLine
 10
296.6514360106660
 20
367.5355445859360
 30
0.0000000000000000
 11
269.7647607553501
 21
367.5355445859363
 31
0.0000000000000000
  0
LINE
  5
31D
100
AcDbEntity
  8
MAIN0
  6
PHANTOM
 62
3
100
AcDbLine
 10
293.0597072714548
 20
368.5355445859361
 30
0.0000000000000000
 11
272.5597072714548
 21
368.5355445859362
 31
0.0000000000000000
  0
LINE
  5
31E
100
AcDbEntity
  8
MAIN0
  6
PHANTOM
 62
3
100
AcDbLine
 10
293.0597072714548
 20
366.5355445859360
 30
0.0000000000000000
 11
272.5597072714548
 21
366.5355445859362
 31
0.0000000000000000
  0
LINE
  5
31F
100
AcDbEntity
  8
MAIN0
  6
CONTINUOUS
 62
3
100
AcDbLine
 10
293.0597072714548
 20
364.3355445859368
 30
0.0000000000000000
 11
293.0597072714548
 21
368.9355445859367
 31
0.0000000000000000
  0
LINE
  5
320
100
AcDbEntity
  8
MAIN0
  6
CONTINUOUS
 62
3
100
AcDbLine
 10
294.0597072714548
 20
368.9355445859367
 30
0.0000000000000000
 11
293.0597072714548
 21
368.9355445859367
 31
0.0000000000000000
  0
LINE
  5
321
100
AcDbEntity
  8
MAIN0
  6
CONTINUOUS
 62
3
100
AcDbLine
 10
612.5181816697531
 20
492.0007319102399
 30
0.0000000000000000
 11
611.1144585215974
 21
495.8574295629634
 31
0.0000000000000000
  0
LINE
  5
322
100
AcDbEntity
  8
MAIN0
  6
CONTINUOUS
 62
3
100
AcDbLine
 10
694.5317309178986
 20
492.0007319102397
 30
0.0000000000000000
 11
695.9354540660544
 21
495.8574295629636
 31
0.0000000000000000
  0
ARC
  5
323
100
AcDbEntity
  8
MAIN0
  6
CONTINUOUS
 62
3
100
AcDbCircle
 10
653.5249562938259
 20
379.3355445854543
 30
0.0000000000000000
 40
115.0000000000003
100
AcDbArc
 50
72.38801546334732
 51
107.6119845366527
  0
ARC
  5
324
100
AcDbEntity
  8
MAIN0
  6
CONTINUOUS
 62
3
100
AcDbCircle
 10
689.8332678139691
 20
493.7108326268678
 30
0.0000000000000000
 40
5.000000000000000
100
AcDbArc
 50
252.3880154633475
 51
339.9999999999997
  0
ARC
  5
325
100
AcDbEntity
  8
MAIN0
  6
CONTINUOUS
 62
3
100
AcDbCircle
 10
617.2166447736828
 20
493.7108326268678
 30
0.0000000000000000
 40
5.000000000000000
100
AcDbArc
 50
200.0000000000000
 51
287.6119845366525
  0
MTEXT
  5
326
100
AcDbEntity
  8
MAIN0
  6
CONTINUOUS
 62
3
100
AcDbMText
 10
616.2918929002474
 20
495.7963264341354
 30
0.0000000000000000
 40
4.500000000000000
 41
0.0000000000000000
 71
     1
 72
     1
  1
{\H0.63x;{KITAGAWA}}
 11
0.9781476007338056
 21
0.2079116908177594
 31
0.0000000000000000
  7
STANDARD
  0
MTEXT
  5
327
100
AcDbEntity
  8
MAIN0
  6
CONTINUOUS
 62
3
100
AcDbMText
 10
642.9054809690439
 20
501.0048734053796
 30
0.0000000000000000
 40
4.500000000000000
 41
0.0000000000000000
 71
     1
 72
     1
  1
{\H0.63x;{YS1820K}}
 11
1.000000000000000
 21
0.0000000000000000
 31
0.0000000000000000
  7
STANDARD
  0
LEADER
  5
328
100
AcDbEntity
  8
MAIN0
  6
CONTINUOUS
 62
3
100
AcDbLeader
  3
MAIN001
 73
     3
 74
     0
 75
     0
 76
     5
 10
668.1514268050355
 20
495.5744165719010
 30
0.0000000000000000
 10
688.8031991015724
 20
490.8065792582625
 30
0.0000000000000000
 10
690.1529054276356
 20
496.6527996469735
 30
0.0000000000000000
 10
669.5011331310984
 20
501.4206369606121
 30
0.0000000000000000
 10
668.1514268050354
 20
495.5744165719007
 30
0.0000000000000000
1001
ACAD
1000
DSTYLE
1002
{
1070
   173
1070
     1
1070
     6
1000
_NONE
1070
     7
1000
_NONE
1002
}
  0
LINE
  5
329
100
AcDbEntity
  8
MAIN0
  6
CONTINUOUS
 62
3
100
AcDbLine
 10
259.0597072714546
 20
401.9355445859367
 30
0.0000000000000000
 11
259.0597072714546
 21
399.6355445859365
 31
0.0000000000000000
  0
ARC
  5
32A
100
AcDbEntity
  8
MAIN0
  6
CONTINUOUS
 62
3
100
AcDbCircle
 10
258.7597072714547
 20
399.6355445859365
 30
0.0000000000000000
 40
0.3000000000000000
100
AcDbArc
 50
270.0000000000000
 51
360.0000000000000
  0
LINE
  5
32B
100
AcDbEntity
  8
MAIN0
  6
CONTINUOUS
 62
3
100
AcDbLine
 10
263.7597072714545
 20
401.9355445859371
 30
0.0000000000000000
 11
263.7597072714545
 21
400.8355445859372
 31
0.0000000000000000
  0
LINE
  5
32C
100
AcDbEntity
  8
MAIN0
  6
CONTINUOUS
 62
3
100
AcDbLine
 10
263.7597072714546
 20
400.8355445859369
 30
0.0000000000000000
 11
265.7597072714546
 21
400.8355445859368
 31
0.0000000000000000
  0
LINE
  5
32D
100
AcDbEntity
  8
MAIN0
  6
CONTINUOUS
 62
3
100
AcDbLine
 10
263.3597072714546
 20
402.3355445859367
 30
0.0000000000000000
 11
259.4597072714547
 21
402.3355445859368
 31
0.0000000000000000
  0
LINE
  5
32E
100
AcDbEntity
  8
MAIN0
  6
CONTINUOUS
 62
3
100
AcDbLine
 10
259.4597072714546
 20
402.3355445859364
 30
0.0000000000000000
 11
259.4597072714546
 21
399.3355445859364
 31
0.0000000000000000
  0
LINE
  5
32F
100
AcDbEntity
  8
MAIN0
  6
CONTINUOUS
 62
3
100
AcDbLine
 10
259.0597072714542
 20
356.7355445859367
 30
0.0000000000000000
 11
259.0597072714542
 21
359.0355445859364
 31
0.0000000000000000
  0
ARC
  5
330
100
AcDbEntity
  8
MAIN0
  6
CONTINUOUS
 62
3
100
AcDbCircle
 10
258.7597072714542
 20
359.0355445859366
 30
0.0000000000000000
 40
0.3000000000000000
100
AcDbArc
 50
359.9999999999989
 51
449.9999999999989
  0
LINE
  5
331
100
AcDbEntity
  8
MAIN0
  6
CONTINUOUS
 62
3
100
AcDbLine
 10
263.7597072714542
 20
356.7355445859363
 30
0.0000000000000000
 11
263.7597072714542
 21
357.8355445859367
 31
0.0000000000000000
  0
LINE
  5
332
100
AcDbEntity
  8
MAIN0
  6
CONTINUOUS
 62
3
100
AcDbLine
 10
263.7597072714542
 20
357.8355445859365
 30
0.0000000000000000
 11
265.7597072714542
 21
357.8355445859366
 31
0.0000000000000000
  0
LINE
  5
333
100
AcDbEntity
  8
MAIN0
  6
CONTINUOUS
 62
3
100
AcDbLine
 10
263.3597072714542
 20
356.3355445859366
 30
0.0000000000000000
 11
259.4597072714542
 21
356.3355445859367
 31
0.0000000000000000
  0
LINE
  5
334
100
AcDbEntity
  8
MAIN0
  6
CONTINUOUS
 62
3
100
AcDbLine
 10
259.4597072714541
 20
356.3355445859367
 30
0.0000000000000000
 11
259.4597072714542
 21
359.3355445859367
 31
0.0000000000000000
  0
ARC
  5
335
100
AcDbEntity
  8
MAIN0
  6
CONTINUOUS
 62
3
100
AcDbCircle
 10
259.4597072714546
 20
401.9355445859367
 30
0.0000000000000000
 40
0.4000000000000000
100
AcDbArc
 50
90.00000000000000
 51
180.0000000000000
  0
ARC
  5
336
100
AcDbEntity
  8
MAIN0
  6
CONTINUOUS
 62
3
100
AcDbCircle
 10
263.3597072714547
 20
401.9355445859367
 30
0.0000000000000000
 40
0.4000000000000000
100
AcDbArc
 50
0.0000000000000000
 51
90.00000000000000
  0
ARC
  5
337
100
AcDbEntity
  8
MAIN0
  6
CONTINUOUS
 62
3
100
AcDbCircle
 10
259.4597072714541
 20
356.7355445859369
 30
0.0000000000000000
 40
0.4000000000000000
100
AcDbArc
 50
180.0000000000000
 51
270.0000000000000
  0
ARC
  5
338
100
AcDbEntity
  8
MAIN0
  6
CONTINUOUS
 62
3
100
AcDbCircle
 10
263.3597072714542
 20
356.7355445859369
 30
0.0000000000000000
 40
0.4000000000000000
100
AcDbArc
 50
270.0000000000000
 51
360.0000000000000
  0
LINE
  5
339
100
AcDbEntity
  8
MAIN0
  6
CONTINUOUS
 62
3
100
AcDbLine
 10
256.6851660083945
 20
74.46978410929955
 30
0.0000000000000000
 11
256.6851660083945
 21
161.4697841092996
 31
0.0000000000000000
  0
LINE
  5
33A
100
AcDbEntity
  8
MAIN0
  6
CONTINUOUS
 62
3
100
AcDbLine
 10
327.1851660083355
 20
74.46978410929978
 30
0.0000000000000000
 11
327.1851660082557
 21
146.4697841092996
 31
0.0000000000000000
  0
LINE
  5
33B
100
AcDbEntity
  8
MAIN0
  6
CONTINUOUS
 62
3
100
AcDbLine
 10
372.1851660084729
 20
161.4697841092996
 30
0.0000000000000000
 11
256.6851660083945
 21
161.4697841092996
 31
0.0000000000000000
  0
LINE
  5
33C
100
AcDbEntity
  8
MAIN0
  6
CONTINUOUS
 62
3
100
AcDbLine
 10
372.1851660084554
 20
146.4697841092996
 30
0.0000000000000000
 11
256.6851660083945
 21
146.4697841092996
 31
0.0000000000000000
  0
LINE
  5
33D
100
AcDbEntity
  8
MAIN0
  6
CONTINUOUS
 62
3
100
AcDbLine
 10
372.1851660084204
 20
122.4697841091030
 30
0.0000000000000000
 11
256.6851660083945
 21
122.4697841092998
 31
0.0000000000000000
  0
LINE
  5
33E
100
AcDbEntity
  8
MAIN0
  6
CONTINUOUS
 62
3
100
AcDbLine
 10
372.1851660083955
 20
110.4697841092996
 30
0.0000000000000000
 11
256.6851660083945
 21
110.4697841092996
 31
0.0000000000000000
  0
LINE
  5
33F
100
AcDbEntity
  8
MAIN0
  6
CONTINUOUS
 62
3
100
AcDbLine
 10
372.1851660083530
 20
86.46978410929955
 30
0.0000000000000000
 11
256.6851660083945
 21
86.46978410929955
 31
0.0000000000000000
  0
LINE
  5
340
100
AcDbEntity
  8
MAIN0
  6
CONTINUOUS
 62
3
100
AcDbLine
 10
372.1851660083355
 20
74.46978410929955
 30
0.0000000000000000
 11
256.6851660083945
 21
74.46978410929955
 31
0.0000000000000000
  0
LINE
  5
341
100
AcDbEntity
  8
MAIN0
  6
CONTINUOUS
 62
3
100
AcDbLine
 10
372.1851660084204
 20
122.4697841097535
 30
0.0000000000000000
 11
487.6851660085143
 21
122.4697841097535
 31
0.0000000000000000
  0
LINE
  5
342
100
AcDbEntity
  8
MAIN0
  6
CONTINUOUS
 62
3
100
AcDbLine
 10
487.6851660085256
 20
86.46978410929955
 30
0.0000000000000000
 11
372.1851660083530
 21
86.46978410929955
 31
0.0000000000000000
  0
LINE
  5
343
100
AcDbEntity
  8
MAIN0
  6
CONTINUOUS
 62
3
100
AcDbLine
 10
487.6851660085255
 20
86.46978410929967
 30
0.0000000000000000
 11
487.6851660085144
 21
122.4697841097536
 31
0.0000000000000000
  0
LINE
  5
344
100
AcDbEntity
  8
MAIN0
  6
CONTINUOUS
 62
3
100
AcDbLine
 10
442.6851660085256
 20
86.46978410929950
 30
0.0000000000000000
 11
442.6851660084807
 21
122.4697841097535
 31
0.0000000000000000
  0
LINE
  5
345
100
AcDbEntity
  8
MAIN0
  6
CONTINUOUS
 62
3
100
AcDbLine
 10
372.1851660083954
 20
110.4697841092996
 30
0.0000000000000000
 11
487.6851660085185
 21
110.4697841092996
 31
0.0000000000000000
  0
LINE
  5
346
100
AcDbEntity
  8
MAIN0
  6
CONTINUOUS
 62
3
100
AcDbLine
 10
372.1851660084378
 20
134.4697841092996
 30
0.0000000000000000
 11
256.6851660083945
 21
134.4697841092996
 31
0.0000000000000000
  0
MTEXT
  5
347
100
AcDbEntity
  8
MAIN0
  6
CONTINUOUS
 62
3
100
AcDbMText
 10
259.6851660082921
 20
81.21978410929955
 30
0.0000000000000000
 40
4.500000000000000
 41
0.0000000000000000
 71
     7
 72
     1
  1
{\H0.63x;{MASS}}
 11
1.000000000000000
 21
0.0000000000000000
 31
0.0000000000000000
  7
STANDARD
  0
MTEXT
  5
348
100
AcDbEntity
  8
MAIN0
  6
CONTINUOUS
 62
3
100
AcDbMText
 10
259.6851660083945
 20
75.21978410929955
 30
0.0000000000000000
 40
4.500000000000000
 41
0.0000000000000000
 71
     7
 72
     1
  1
{\H0.59x;{質量\P}
 11
1.000000000000000
 21
0.0000000000000000
 31
0.0000000000000000
  7
KNJYOKO
  0
MTEXT
  5
349
100
AcDbEntity
  8
MAIN0
  6
CONTINUOUS
 62
3
100
AcDbMText
 10
288.0508826272799
 20
154.7861631097635
 30
0.0000000000000000
 40
4.649999856948853
 41
0.0000000000000000
 71
     7
 72
     1
  1
{\H0.93x;{SPECIFICATIONS}}
 11
1.000000000000000
 21
0.0000000000000000
 31
0.0000000000000000
  7
STANDARD
  0
MTEXT
  5
34A
100
AcDbEntity
  8
MAIN0
  6
CONTINUOUS
 62
3
100
AcDbMText
 10
299.6421296849256
 20
147.9367943948965
 30
0.0000000000000000
 40
4.649999856948853
 41
0.0000000000000000
 71
     7
 72
     1
  1
{\H0.93x;{仕　　　　様}}
 11
1.000000000000000
 21
0.0000000000000000
 31
0.0000000000000000
  7
KNJYOKO
  0
MTEXT
  5
34B
100
AcDbEntity
  8
MAIN0
  6
CONTINUOUS
 62
3
100
AcDbMText
 10
259.6851660083945
 20
141.2197841092996
 30
0.0000000000000000
 40
3.750000000000000
 41
0.0000000000000000
 71
     7
 72
     1
  1
{\H0.63x;{PISTON DIA}}
 11
1.000000000000000
 21
0.0000000000000000
 31
0.0000000000000000
  7
STANDARD
  0
LINE
  5
34C
100
AcDbEntity
  8
MAIN0
  6
HIDDEN
 62
3
100
AcDbLine
 10
372.1851660083955
 20
98.46978410929955
 30
0.0000000000000000
 11
327.1851660083089
 21
98.46978410929955
 31
0.0000000000000000
  0
LINE
  5
34D
100
AcDbEntity
  8
MAIN0
  6
HIDDEN
 62
3
100
AcDbLine
 10
442.6851660085106
 20
98.46978410909924
 30
0.0000000000000000
 11
487.6851660086239
 21
98.46978410897111
 31
0.0000000000000000
  0
MTEXT
  5
34E
100
AcDbEntity
  8
MAIN0
  6
CONTINUOUS
 62
3
100
AcDbMText
 10
259.6851660083945
 20
135.2197841092996
 30
0.0000000000000000
 40
4.500000000000000
 41
0.0000000000000000
 71
     7
 72
     1
  1
{\H0.59x;{シリンダ内径}}
 11
1.000000000000000
 21
0.0000000000000000
 31
0.0000000000000000
  7
KNJYOKO
  0
MTEXT
  5
34F
100
AcDbEntity
  8
MAIN0
  6
CONTINUOUS
 62
3
100
AcDbMText
 10
259.6851660083945
 20
129.2197841092996
 30
0.0000000000000000
 40
3.750000000000000
 41
0.0000000000000000
 71
     7
 72
     1
  1
{\H0.63x;{PLUNGER STROKE}}
 11
1.000000000000000
 21
0.0000000000000000
 31
0.0000000000000000
  7
STANDARD
  0
MTEXT
  5
350
100
AcDbEntity
  8
MAIN0
  6
CONTINUOUS
 62
3
100
AcDbMText
 10
259.6851660083945
 20
123.2197841092996
 30
0.0000000000000000
 40
4.500000000000000
 41
0.0000000000000000
 71
     7
 72
     1
  1
{\H0.59x;{プランジャストロ－ク}}
 11
1.000000000000000
 21
0.0000000000000000
 31
0.0000000000000000
  7
KNJYOKO
  0
MTEXT
  5
351
100
AcDbEntity
  8
MAIN0
  6
CONTINUOUS
 62
3
100
AcDbMText
 10
375.1851660084204
 20
117.2197841097535
 30
0.0000000000000000
 40
3.750000000000000
 41
0.0000000000000000
 71
     7
 72
     1
  1
{\H0.63x;{MAX PERMISSIBLE OIL PRESS}}
 11
1.000000000000000
 21
0.0000000000000000
 31
0.0000000000000000
  7
STANDARD
  0
MTEXT
  5
352
100
AcDbEntity
  8
MAIN0
  6
CONTINUOUS
 62
3
100
AcDbMText
 10
375.1851660083954
 20
111.2197841092996
 30
0.0000000000000000
 40
4.500000000000000
 41
0.0000000000000000
 71
     7
 72
     1
  1
{\H0.59x;{許容最大油圧力}}
 11
1.000000000000000
 21
0.0000000000000000
 31
0.0000000000000000
  7
KNJYOKO
  0
MTEXT
  5
353
100
AcDbEntity
  8
MAIN0
  6
CONTINUOUS
 62
3
100
AcDbMText
 10
259.6851660083828
 20
117.2197841092996
 30
0.0000000000000000
 40
3.750000000000000
 41
0.0000000000000000
 71
     7
 72
     1
  1
{\H0.63x;{MAX PERMISSIBLE AIR PRESS}}
 11
1.000000000000000
 21
0.0000000000000000
 31
0.0000000000000000
  7
STANDARD
  0
MTEXT
  5
354
100
AcDbEntity
  8
MAIN0
  6
CONTINUOUS
 62
3
100
AcDbMText
 10
259.6851660083945
 20
111.2197841092996
 30
0.0000000000000000
 40
4.500000000000000
 41
0.0000000000000000
 71
     7
 72
     1
  1
{\H0.59x;{許容最大エア圧力}}
 11
1.000000000000000
 21
0.0000000000000000
 31
0.0000000000000000
  7
KNJYOKO
  0
MTEXT
  5
355
100
AcDbEntity
  8
MAIN0
  6
CONTINUOUS
 62
3
100
AcDbMText
 10
259.6851660083945
 20
105.2197841092996
 30
0.0000000000000000
 40
3.750000000000000
 41
0.0000000000000000
 71
     7
 72
     1
  1
{\H0.63x;{MAX PERMISSIBLE INPUT FORCE}}
 11
1.000000000000000
 21
0.0000000000000000
 31
0.0000000000000000
  7
STANDARD
  0
MTEXT
  5
356
100
AcDbEntity
  8
MAIN0
  6
CONTINUOUS
 62
3
100
AcDbMText
 10
259.6851660083945
 20
99.21978410929955
 30
0.0000000000000000
 40
4.500000000000000
 41
0.0000000000000000
 71
     7
 72
     1
  1
{\H0.59x;{許容最大入力　}}
 11
1.000000000000000
 21
0.0000000000000000
 31
0.0000000000000000
  7
KNJYOKO
  0
MTEXT
  5
357
100
AcDbEntity
  8
MAIN0
  6
CONTINUOUS
 62
3
100
AcDbMText
 10
375.1851660083735
 20
105.2197841092996
 30
0.0000000000000000
 40
3.750000000000000
 41
0.0000000000000000
 71
     7
 72
     1
  1
{\H0.63x;{MAX PERMISSIBLE INPUT FORCE}}
 11
1.000000000000000
 21
0.0000000000000000
 31
0.0000000000000000
  7
STANDARD
  0
MTEXT
  5
358
100
AcDbEntity
  8
MAIN0
  6
CONTINUOUS
 62
3
100
AcDbMText
 10
375.1851660083955
 20
99.21978410929955
 30
0.0000000000000000
 40
4.500000000000000
 41
0.0000000000000000
 71
     7
 72
     1
  1
{\H0.59x;{許容最大入力　}}
 11
1.000000000000000
 21
0.0000000000000000
 31
0.0000000000000000
  7
KNJYOKO
  0
MTEXT
  5
359
100
AcDbEntity
  8
MAIN0
  6
CONTINUOUS
 62
3
100
AcDbMText
 10
259.6851660083945
 20
93.21978410929955
 30
0.0000000000000000
 40
4.500000000000000
 41
0.0000000000000000
 71
     7
 72
     1
  1
{\H0.60x;{(AT 0.6Mpa) }}
 11
1.000000000000000
 21
0.0000000000000000
 31
0.0000000000000000
  7
STANDARD
  0
MTEXT
  5
35A
100
AcDbEntity
  8
MAIN0
  6
CONTINUOUS
 62
3
100
AcDbMText
 10
259.6851660083945
 20
87.21978410929955
 30
0.0000000000000000
 40
4.500000000000000
 41
0.0000000000000000
 71
     7
 72
     1
  1
{\H0.59x;{(エア圧　0.6MPa)}}
 11
1.000000000000000
 21
0.0000000000000000
 31
0.0000000000000000
  7
KNJYOKO
  0
MTEXT
  5
35B
100
AcDbEntity
  8
MAIN0
  6
CONTINUOUS
 62
3
100
AcDbMText
 10
375.1851660083343
 20
93.21978410929955
 30
0.0000000000000000
 40
4.500000000000000
 41
0.0000000000000000
 71
     7
 72
     1
  1
{\H0.60x;{(AT 1.5MPa)}}
 11
1.000000000000000
 21
0.0000000000000000
 31
0.0000000000000000
  7
STANDARD
  0
MTEXT
  5
35C
100
AcDbEntity
  8
MAIN0
  6
CONTINUOUS
 62
3
100
AcDbMText
 10
375.1851660083530
 20
87.21978410929955
 30
0.0000000000000000
 40
4.500000000000000
 41
0.0000000000000000
 71
     7
 72
     1
  1
{\H0.59x;{(油圧 1.5MPa)}}
 11
1.000000000000000
 21
0.0000000000000000
 31
0.0000000000000000
  7
KNJYOKO
  0
MTEXT
  5
35D
100
AcDbEntity
  8
MAIN0
  6
CONTINUOUS
 62
3
100
AcDbMText
 10
361.6851660084363
 20
138.2197841094964
 30
0.0000000000000000
 40
4.649999856948853
 41
0.0000000000000000
 71
     7
 72
     1
  1
{\H0.69x;{ｍｍ}}
 11
1.000000000000000
 21
0.0000000000000000
 31
0.0000000000000000
  7
KNJYOKO
  0
MTEXT
  5
35E
100
AcDbEntity
  8
MAIN0
  6
CONTINUOUS
 62
3
100
AcDbMText
 10
361.6851660084187
 20
126.2197841094964
 30
0.0000000000000000
 40
4.649999856948853
 41
0.0000000000000000
 71
     7
 72
     1
  1
{\H0.69x;{ｍｍ}}
 11
1.000000000000000
 21
0.0000000000000000
 31
0.0000000000000000
  7
KNJYOKO
  0
MTEXT
  5
35F
100
AcDbEntity
  8
MAIN0
  6
CONTINUOUS
 62
3
100
AcDbMText
 10
337.6851660082915
 20
114.2197841092996
 30
0.0000000000000000
 40
4.649999856948853
 41
0.0000000000000000
 71
     7
 72
     1
  1
{\H0.76x;{0.7}}
 11
1.000000000000000
 21
0.0000000000000000
 31
0.0000000000000000
  7
STANDARD
  0
MTEXT
  5
360
100
AcDbEntity
  8
MAIN0
  6
CONTINUOUS
 62
3
100
AcDbMText
 10
361.6851660084013
 20
114.2197841099503
 30
0.0000000000000000
 40
4.649999856948853
 41
0.0000000000000000
 71
     7
 72
     1
  1
{\H0.70x;{MPa}}
 11
1.000000000000000
 21
0.0000000000000000
 31
0.0000000000000000
  7
STANDARD
  0
MTEXT
  5
361
100
AcDbEntity
  8
MAIN0
  6
CONTINUOUS
 62
3
100
AcDbMText
 10
328.6851660083089
 20
99.21978410929955
 30
0.0000000000000000
 40
4.500000000000000
 41
0.0000000000000000
 71
     7
 72
     1
  1
{\H0.59x;{押}}
 11
1.000000000000000
 21
0.0000000000000000
 31
0.0000000000000000
  7
KNJYOKO
  0
MTEXT
  5
362
100
AcDbEntity
  8
MAIN0
  6
CONTINUOUS
 62
3
100
AcDbMText
 10
328.6851660083222
 20
87.21978410929955
 30
0.0000000000000000
 40
4.500000000000000
 41
0.0000000000000000
 71
     7
 72
     1
  1
{\H0.59x;{引}}
 11
1.000000000000000
 21
0.0000000000000000
 31
0.0000000000000000
  7
KNJYOKO
  0
MTEXT
  5
363
100
AcDbEntity
  8
MAIN0
  6
CONTINUOUS
 62
3
100
AcDbMText
 10
328.6851660083023
 20
105.2197841092996
 30
0.0000000000000000
 40
3.750000000000000
 41
0.0000000000000000
 71
     7
 72
     1
  1
{\H0.63x;{PUSH}}
 11
1.000000000000000
 21
0.0000000000000000
 31
0.0000000000000000
  7
STANDARD
  0
MTEXT
  5
364
100
AcDbEntity
  8
MAIN0
  6
CONTINUOUS
 62
3
100
AcDbMText
 10
328.6851660083156
 20
93.21978410929955
 30
0.0000000000000000
 40
3.750000000000000
 41
0.0000000000000000
 71
     7
 72
     1
  1
{\H0.63x;{PULL}}
 11
1.000000000000000
 21
0.0000000000000000
 31
0.0000000000000000
  7
STANDARD
  0
MTEXT
  5
365
100
AcDbEntity
  8
MAIN0
  6
CONTINUOUS
 62
3
100
AcDbMText
 10
361.6851660083414
 20
78.21978410929955
 30
0.0000000000000000
 40
4.649999856948853
 41
0.0000000000000000
 71
     7
 72
     1
  1
{\H0.69x;{ｋｇ}}
 11
1.000000000000000
 21
0.0000000000000000
 31
0.0000000000000000
  7
KNJYOKO
  0
MTEXT
  5
366
100
AcDbEntity
  8
MAIN0
  6
CONTINUOUS
 62
3
100
AcDbMText
 10
361.6851660084013
 20
102.2197841092996
 30
0.0000000000000000
 40
4.649999856948853
 41
0.0000000000000000
 71
     7
 72
     1
  1
{\H0.69x;{ｋＮ}}
 11
1.000000000000000
 21
0.0000000000000000
 31
0.0000000000000000
  7
KNJYOKO
  0
MTEXT
  5
367
100
AcDbEntity
  8
MAIN0
  6
CONTINUOUS
 62
3
100
AcDbMText
 10
361.6851660083589
 20
90.21978410929955
 30
0.0000000000000000
 40
4.649999856948853
 41
0.0000000000000000
 71
     7
 72
     1
  1
{\H0.69x;{ＫＮ}}
 11
1.000000000000000
 21
0.0000000000000000
 31
0.0000000000000000
  7
KNJYOKO
  0
MTEXT
  5
368
100
AcDbEntity
  8
MAIN0
  6
CONTINUOUS
 62
3
100
AcDbMText
 10
444.1851660085040
 20
105.2197841090992
 30
0.0000000000000000
 40
3.750000000000000
 41
0.0000000000000000
 71
     7
 72
     1
  1
{\H0.63x;{PUSH}}
 11
1.000000000000000
 21
0.0000000000000000
 31
0.0000000000000000
  7
STANDARD
  0
MTEXT
  5
369
100
AcDbEntity
  8
MAIN0
  6
CONTINUOUS
 62
3
100
AcDbMText
 10
444.1851660085107
 20
99.21978410909924
 30
0.0000000000000000
 40
4.500000000000000
 41
0.0000000000000000
 71
     7
 72
     1
  1
{\H0.59x;{押}}
 11
1.000000000000000
 21
0.0000000000000000
 31
0.0000000000000000
  7
KNJYOKO
  0
MTEXT
  5
36A
100
AcDbEntity
  8
MAIN0
  6
CONTINUOUS
 62
3
100
AcDbMText
 10
444.1851660085173
 20
93.21978410909924
 30
0.0000000000000000
 40
3.750000000000000
 41
0.0000000000000000
 71
     7
 72
     1
  1
{\H0.63x;{PULL}}
 11
1.000000000000000
 21
0.0000000000000000
 31
0.0000000000000000
  7
STANDARD
  0
MTEXT
  5
36B
100
AcDbEntity
  8
MAIN0
  6
CONTINUOUS
 62
3
100
AcDbMText
 10
444.1851660085240
 20
87.21978410909924
 30
0.0000000000000000
 40
4.500000000000000
 41
0.0000000000000000
 71
     7
 72
     1
  1
{\H0.59x;{引}}
 11
1.000000000000000
 21
0.0000000000000000
 31
0.0000000000000000
  7
KNJYOKO
  0
MTEXT
  5
36C
100
AcDbEntity
  8
MAIN0
  6
CONTINUOUS
 62
3
100
AcDbMText
 10
477.1851660086013
 20
114.2197841099503
 30
0.0000000000000000
 40
4.649999856948853
 41
0.0000000000000000
 71
     7
 72
     1
  1
{\H0.70x;{MPa}}
 11
1.000000000000000
 21
0.0000000000000000
 31
0.0000000000000000
  7
STANDARD
  0
MTEXT
  5
36D
100
AcDbEntity
  8
MAIN0
  6
CONTINUOUS
 62
3
100
AcDbMText
 10
477.1851660086031
 20
102.2197841090992
 30
0.0000000000000000
 40
4.649999856948853
 41
0.0000000000000000
 71
     7
 72
     1
  1
{\H0.69x;{ｋＮ}}
 11
1.000000000000000
 21
0.0000000000000000
 31
0.0000000000000000
  7
KNJYOKO
  0
MTEXT
  5
36E
100
AcDbEntity
  8
MAIN0
  6
CONTINUOUS
 62
3
100
AcDbMText
 10
477.1851660085607
 20
90.21978410909924
 30
0.0000000000000000
 40
4.649999856948853
 41
0.0000000000000000
 71
     7
 72
     1
  1
{\H0.69x;{ＫＮ}}
 11
1.000000000000000
 21
0.0000000000000000
 31
0.0000000000000000
  7
KNJYOKO
  0
LINE
  5
36F
100
AcDbEntity
  8
MAIN0
  6
CONTINUOUS
 62
3
100
AcDbLine
 10
372.1851660083355
 20
74.46978410929955
 30
0.0000000000000000
 11
372.1851660083545
 21
86.46978410929955
 31
0.0000000000000000
  0
LINE
  5
370
100
AcDbEntity
  8
MAIN0
  6
HIDDEN
 62
3
100
AcDbLine
 10
372.1851660083545
 20
86.46978410929944
 30
0.0000000000000000
 11
372.1851660084113
 21
122.4697841097534
 31
0.0000000000000000
  0
LINE
  5
371
100
AcDbEntity
  8
MAIN0
  6
CONTINUOUS
 62
3
100
AcDbLine
 10
372.1851660084112
 20
122.4697841097535
 30
0.0000000000000000
 11
372.1851660084729
 21
161.4697841092995
 31
0.0000000000000000
  0
LINE
  5
372
100
AcDbEntity
  8
MAIN0
  6
CENTER
 62
3
100
AcDbLine
 10
619.3290772921018
 20
266.3355445854544
 30
0.0000000000000000
 11
686.9997828174767
 21
266.3355445854544
 31
0.0000000000000000
  0
LINE
  5
373
100
AcDbEntity
  8
MAIN0
  6
CONTINUOUS
 62
3
100
AcDbLine
 10
613.5249562938625
 20
273.8355445854544
 30
0.0000000000000000
 11
693.5249562938625
 21
273.8355445854544
 31
0.0000000000000000
  0
LINE
  5
374
100
AcDbEntity
  8
MAIN0
  6
CONTINUOUS
 62
3
100
AcDbLine
 10
613.5249562938693
 20
253.8355445854544
 30
0.0000000000000000
 11
693.5249562938693
 21
253.8355445854544
 31
0.0000000000000000
  0
LINE
  5
375
100
AcDbEntity
  8
MAIN0
  6
CONTINUOUS
 62
3
100
AcDbLine
 10
693.5249562938693
 20
253.8355445854544
 30
0.0000000000000000
 11
693.5249562938625
 21
273.8355445854544
 31
0.0000000000000000
  0
CIRCLE
  5
376
100
AcDbEntity
  8
MAIN0
  6
CONTINUOUS
 62
3
100
AcDbCircle
 10
642.5249562938259
 20
266.3355445854544
 30
0.0000000000000000
 40
5.500000000000000
  0
LINE
  5
377
100
AcDbEntity
  8
MAIN0
  6
CENTER
 62
3
100
AcDbLine
 10
642.5249562938259
 20
273.8355445854544
 30
0.0000000000000000
 11
642.5249562938259
 21
258.8355445854544
 31
0.0000000000000000
  0
LINE
  5
378
100
AcDbEntity
  8
MAIN0
  6
PHANTOM
 62
3
100
AcDbLine
 10
623.4464562938259
 20
253.8355445854544
 30
0.0000000000000000
 11
623.7402062938259
 21
263.2355445854545
 31
0.0000000000000000
  0
LINE
  5
379
100
AcDbEntity
  8
MAIN0
  6
PHANTOM
 62
3
100
AcDbLine
 10
623.7402062938259
 20
263.2355445854545
 30
0.0000000000000000
 11
636.3097062938259
 21
263.2355445854545
 31
0.0000000000000000
  0
LINE
  5
37A
100
AcDbEntity
  8
MAIN0
  6
PHANTOM
 62
3
100
AcDbLine
 10
636.3097062938259
 20
263.2355445854544
 30
0.0000000000000000
 11
636.6034562938260
 21
253.8355445854544
 31
0.0000000000000000
  0
LINE
  5
37B
100
AcDbEntity
  8
MAIN0
  6
PHANTOM
 62
3
100
AcDbLine
 10
624.3024562938258
 20
253.8355445854545
 30
0.0000000000000000
 11
624.5962062938258
 21
263.2355445854545
 31
0.0000000000000000
  0
LINE
  5
37C
100
AcDbEntity
  8
MAIN0
  6
PHANTOM
 62
3
100
AcDbLine
 10
635.7474562938260
 20
253.8355445854544
 30
0.0000000000000000
 11
635.4537062938259
 21
263.2355445854544
 31
0.0000000000000000
  0
LINE
  5
37D
100
AcDbEntity
  8
MAIN0
  6
PHANTOM
 62
3
100
AcDbLine
 10
624.6249562938258
 20
263.2355445854545
 30
0.0000000000000000
 11
624.6249562938258
 21
268.8355445854544
 31
0.0000000000000000
  0
LINE
  5
37E
100
AcDbEntity
  8
MAIN0
  6
PHANTOM
 62
3
100
AcDbLine
 10
624.6249562938258
 20
268.8355445854544
 30
0.0000000000000000
 11
635.4249562938260
 21
268.8355445854544
 31
0.0000000000000000
  0
LINE
  5
37F
100
AcDbEntity
  8
MAIN0
  6
PHANTOM
 62
3
100
AcDbLine
 10
635.4249562938260
 20
268.8355445854544
 30
0.0000000000000000
 11
635.4249562938260
 21
263.2355445854545
 31
0.0000000000000000
  0
LINE
  5
380
100
AcDbEntity
  8
MAIN0
  6
PHANTOM
 62
3
100
AcDbLine
 10
624.6249562938260
 20
268.8355445854545
 30
0.0000000000000000
 11
630.0249562938261
 21
271.9532360390785
 31
0.0000000000000000
  0
LINE
  5
381
100
AcDbEntity
  8
MAIN0
  6
PHANTOM
 62
3
100
AcDbLine
 10
630.0249562938261
 20
271.9532360390784
 30
0.0000000000000000
 11
635.4249562938261
 21
268.8355445854544
 31
0.0000000000000000
  0
CIRCLE
  5
382
100
AcDbEntity
  8
MAIN0
  6
CONTINUOUS
 62
3
100
AcDbCircle
 10
664.5249562938259
 20
266.3355445854544
 30
0.0000000000000000
 40
5.500000000000000
  0
LINE
  5
383
100
AcDbEntity
  8
MAIN0
  6
CENTER
 62
3
100
AcDbLine
 10
664.5249562938259
 20
273.8355445854544
 30
0.0000000000000000
 11
664.5249562938259
 21
258.8355445854545
 31
0.0000000000000000
  0
LINE
  5
384
100
AcDbEntity
  8
MAIN0
  6
PHANTOM
 62
3
100
AcDbLine
 10
683.6034562938258
 20
253.8355445854544
 30
0.0000000000000000
 11
683.3097062938259
 21
263.2355445854544
 31
0.0000000000000000
  0
LINE
  5
385
100
AcDbEntity
  8
MAIN0
  6
PHANTOM
 62
3
100
AcDbLine
 10
683.3097062938259
 20
263.2355445854545
 30
0.0000000000000000
 11
670.7402062938259
 21
263.2355445854545
 31
0.0000000000000000
  0
LINE
  5
386
100
AcDbEntity
  8
MAIN0
  6
PHANTOM
 62
3
100
AcDbLine
 10
670.7402062938261
 20
263.2355445854544
 30
0.0000000000000000
 11
670.4464562938260
 21
253.8355445854544
 31
0.0000000000000000
  0
LINE
  5
387
100
AcDbEntity
  8
MAIN0
  6
PHANTOM
 62
3
100
AcDbLine
 10
682.7474562938260
 20
253.8355445854543
 30
0.0000000000000000
 11
682.4537062938259
 21
263.2355445854544
 31
0.0000000000000000
  0
LINE
  5
388
100
AcDbEntity
  8
MAIN0
  6
PHANTOM
 62
3
100
AcDbLine
 10
671.3024562938260
 20
253.8355445854544
 30
0.0000000000000000
 11
671.5962062938261
 21
263.2355445854544
 31
0.0000000000000000
  0
LINE
  5
389
100
AcDbEntity
  8
MAIN0
  6
PHANTOM
 62
3
100
AcDbLine
 10
682.4249562938260
 20
263.2355445854545
 30
0.0000000000000000
 11
682.4249562938260
 21
268.8355445854544
 31
0.0000000000000000
  0
LINE
  5
38A
100
AcDbEntity
  8
MAIN0
  6
PHANTOM
 62
3
100
AcDbLine
 10
682.4249562938260
 20
268.8355445854544
 30
0.0000000000000000
 11
671.6249562938260
 21
268.8355445854544
 31
0.0000000000000000
  0
LINE
  5
38B
100
AcDbEntity
  8
MAIN0
  6
PHANTOM
 62
3
100
AcDbLine
 10
671.6249562938260
 20
268.8355445854544
 30
0.0000000000000000
 11
671.6249562938260
 21
263.2355445854545
 31
0.0000000000000000
  0
LINE
  5
38C
100
AcDbEntity
  8
MAIN0
  6
PHANTOM
 62
3
100
AcDbLine
 10
682.4249562938262
 20
268.8355445854544
 30
0.0000000000000000
 11
677.0249562938261
 21
271.9532360390784
 31
0.0000000000000000
  0
LINE
  5
38D
100
AcDbEntity
  8
MAIN0
  6
PHANTOM
 62
3
100
AcDbLine
 10
677.0249562938260
 20
271.9532360390784
 30
0.0000000000000000
 11
671.6249562938260
 21
268.8355445854544
 31
0.0000000000000000
  0
LINE
  5
38E
100
AcDbEntity
  8
MAIN0
  6
PHANTOM
 62
3
100
AcDbLine
 10
648.6609562938259
 20
253.8355445854545
 30
0.0000000000000000
 11
648.8547062938258
 21
260.0355445854544
 31
0.0000000000000000
  0
LINE
  5
38F
100
AcDbEntity
  8
MAIN0
  6
PHANTOM
 62
3
100
AcDbLine
 10
658.1952062938259
 20
260.0355445854544
 30
0.0000000000000000
 11
658.3889562938259
 21
253.8355445854544
 31
0.0000000000000000
  0
LINE
  5
390
100
AcDbEntity
  8
MAIN0
  6
PHANTOM
 62
3
100
AcDbLine
 10
649.2419562938259
 20
253.8355445854544
 30
0.0000000000000000
 11
649.4357062938259
 21
260.0355445854544
 31
0.0000000000000000
  0
LINE
  5
391
100
AcDbEntity
  8
MAIN0
  6
PHANTOM
 62
3
100
AcDbLine
 10
657.8079562938259
 20
253.8355445854544
 30
0.0000000000000000
 11
657.6142062938259
 21
260.0355445854544
 31
0.0000000000000000
  0
LINE
  5
392
100
AcDbEntity
  8
MAIN0
  6
PHANTOM
 62
3
100
AcDbLine
 10
649.4249562938260
 20
260.0355445854544
 30
0.0000000000000000
 11
649.4249562938260
 21
268.8355445854544
 31
0.0000000000000000
  0
LINE
  5
393
100
AcDbEntity
  8
MAIN0
  6
PHANTOM
 62
3
100
AcDbLine
 10
649.4249562938260
 20
268.8355445854544
 30
0.0000000000000000
 11
657.6249562938258
 21
268.8355445854544
 31
0.0000000000000000
  0
LINE
  5
394
100
AcDbEntity
  8
MAIN0
  6
PHANTOM
 62
3
100
AcDbLine
 10
657.6249562938258
 20
268.8355445854544
 30
0.0000000000000000
 11
657.6249562938258
 21
260.0355445854544
 31
0.0000000000000000
  0
LINE
  5
395
100
AcDbEntity
  8
MAIN0
  6
PHANTOM
 62
3
100
AcDbLine
 10
649.4249562938260
 20
268.8355445854544
 30
0.0000000000000000
 11
653.5249562938259
 21
271.2026806891319
 31
0.0000000000000000
  0
LINE
  5
396
100
AcDbEntity
  8
MAIN0
  6
PHANTOM
 62
3
100
AcDbLine
 10
653.5249562938259
 20
271.2026806891319
 30
0.0000000000000000
 11
657.6249562938260
 21
268.8355445854544
 31
0.0000000000000000
  0
LINE
  5
397
100
AcDbEntity
  8
MAIN0
  6
CONTINUOUS
 62
3
100
AcDbLine
 10
613.5249562938693
 20
253.8355445854544
 30
0.0000000000000000
 11
613.5249562938627
 21
273.8355445854544
 31
0.0000000000000000
  0
CIRCLE
  5
398
100
AcDbEntity
  8
MAIN0
  6
CONTINUOUS
 62
3
100
AcDbCircle
 10
642.5249562938259
 20
266.3355445854544
 30
0.0000000000000000
 40
5.000000000000000
  0
LINE
  5
399
100
AcDbEntity
  8
MAIN0
  6
CONTINUOUS
 62
3
100
AcDbLine
 10
642.5249562938260
 20
269.2222959314025
 30
0.0000000000000000
 11
640.0249562938260
 21
267.7789202584285
 31
0.0000000000000000
  0
LINE
  5
39A
100
AcDbEntity
  8
MAIN0
  6
CONTINUOUS
 62
3
100
AcDbLine
 10
640.0249562938259
 20
267.7789202584285
 30
0.0000000000000000
 11
640.0249562938259
 21
264.8921689124804
 31
0.0000000000000000
  0
LINE
  5
39B
100
AcDbEntity
  8
MAIN0
  6
CONTINUOUS
 62
3
100
AcDbLine
 10
640.0249562938261
 20
264.8921689124803
 30
0.0000000000000000
 11
642.5249562938261
 21
263.4487932395062
 31
0.0000000000000000
  0
LINE
  5
39C
100
AcDbEntity
  8
MAIN0
  6
CONTINUOUS
 62
3
100
AcDbLine
 10
642.5249562938259
 20
263.4487932395062
 30
0.0000000000000000
 11
645.0249562938260
 21
264.8921689124803
 31
0.0000000000000000
  0
LINE
  5
39D
100
AcDbEntity
  8
MAIN0
  6
CONTINUOUS
 62
3
100
AcDbLine
 10
645.0249562938259
 20
264.8921689124804
 30
0.0000000000000000
 11
645.0249562938259
 21
267.7789202584285
 31
0.0000000000000000
  0
LINE
  5
39E
100
AcDbEntity
  8
MAIN0
  6
CONTINUOUS
 62
3
100
AcDbLine
 10
645.0249562938261
 20
267.7789202584285
 30
0.0000000000000000
 11
642.5249562938261
 21
269.2222959314025
 31
0.0000000000000000
  0
CIRCLE
  5
39F
100
AcDbEntity
  8
MAIN0
  6
CONTINUOUS
 62
3
100
AcDbCircle
 10
664.5249562938259
 20
266.3355445854544
 30
0.0000000000000000
 40
5.000000000000000
  0
LINE
  5
3A0
100
AcDbEntity
  8
MAIN0
  6
CONTINUOUS
 62
3
100
AcDbLine
 10
664.5249562938259
 20
269.2222959314025
 30
0.0000000000000000
 11
662.0249562938259
 21
267.7789202584285
 31
0.0000000000000000
  0
LINE
  5
3A1
100
AcDbEntity
  8
MAIN0
  6
CONTINUOUS
 62
3
100
AcDbLine
 10
662.0249562938259
 20
267.7789202584285
 30
0.0000000000000000
 11
662.0249562938259
 21
264.8921689124804
 31
0.0000000000000000
  0
LINE
  5
3A2
100
AcDbEntity
  8
MAIN0
  6
CONTINUOUS
 62
3
100
AcDbLine
 10
662.0249562938259
 20
264.8921689124804
 30
0.0000000000000000
 11
664.5249562938259
 21
263.4487932395063
 31
0.0000000000000000
  0
LINE
  5
3A3
100
AcDbEntity
  8
MAIN0
  6
CONTINUOUS
 62
3
100
AcDbLine
 10
664.5249562938259
 20
263.4487932395064
 30
0.0000000000000000
 11
667.0249562938260
 21
264.8921689124804
 31
0.0000000000000000
  0
LINE
  5
3A4
100
AcDbEntity
  8
MAIN0
  6
CONTINUOUS
 62
3
100
AcDbLine
 10
667.0249562938259
 20
264.8921689124804
 30
0.0000000000000000
 11
667.0249562938259
 21
267.7789202584285
 31
0.0000000000000000
  0
LINE
  5
3A5
100
AcDbEntity
  8
MAIN0
  6
CONTINUOUS
 62
3
100
AcDbLine
 10
667.0249562938260
 20
267.7789202584285
 30
0.0000000000000000
 11
664.5249562938260
 21
269.2222959314025
 31
0.0000000000000000
  0
LINE
  5
3A6
100
AcDbEntity
  8
MAIN0
  6
PHANTOM
 62
3
100
AcDbLine
 10
685.0249562938261
 20
253.8355445854548
 30
0.0000000000000000
 11
685.0249562938261
 21
252.8355445854548
 31
0.0000000000000000
  0
LINE
  5
3A7
100
AcDbEntity
  8
MAIN0
  6
PHANTOM
 62
3
100
AcDbLine
 10
681.9242002145829
 20
257.1446903570038
 30
0.0000000000000000
 11
681.9242002145829
 21
252.8355445854548
 31
0.0000000000000000
  0
ARC
  5
3A8
100
AcDbEntity
  8
MAIN0
  6
PHANTOM
 62
3
100
AcDbCircle
 10
680.9242002145827
 20
257.1446903570037
 30
0.0000000000000000
 40
1.000000000000000
100
AcDbArc
 50
3.663998993045972e-012
 51
90.00000000057453
  0
LINE
  5
3A9
100
AcDbEntity
  8
MAIN0
  6
PHANTOM
 62
3
100
AcDbLine
 10
680.9242002145829
 20
258.1446903570037
 30
0.0000000000000000
 11
677.0249562938261
 21
258.1446903570037
 31
0.0000000000000000
  0
LINE
  5
3AA
100
AcDbEntity
  8
MAIN0
  6
PHANTOM
 62
3
100
AcDbLine
 10
672.1257123730693
 20
257.1446903570038
 30
0.0000000000000000
 11
672.1257123730693
 21
252.8355445854548
 31
0.0000000000000000
  0
LINE
  5
3AB
100
AcDbEntity
  8
MAIN0
  6
PHANTOM
 62
3
100
AcDbLine
 10
669.0249562938261
 20
253.8355445854548
 30
0.0000000000000000
 11
669.0249562938261
 21
252.8355445854548
 31
0.0000000000000000
  0
LINE
  5
3AC
100
AcDbEntity
  8
MAIN0
  6
PHANTOM
 62
3
100
AcDbLine
 10
673.1257123730693
 20
258.1446903570037
 30
0.0000000000000000
 11
677.0249562938261
 21
258.1446903570037
 31
0.0000000000000000
  0
ARC
  5
3AD
100
AcDbEntity
  8
MAIN0
  6
PHANTOM
 62
3
100
AcDbCircle
 10
673.1257123730693
 20
257.1446903570037
 30
0.0000000000000000
 40
1.000000000000000
100
AcDbArc
 50
89.99999999942543
 51
179.9999999999963
  0
LINE
  5
3AE
100
AcDbEntity
  8
MAIN0
  6
PHANTOM
 62
3
100
AcDbLine
 10
677.0249562938260
 20
258.8355445854547
 30
0.0000000000000000
 11
671.4587062938261
 21
258.8355445854547
 31
0.0000000000000000
  0
LINE
  5
3AF
100
AcDbEntity
  8
MAIN0
  6
PHANTOM
 62
3
100
AcDbLine
 10
677.0249562938261
 20
258.8355445854547
 30
0.0000000000000000
 11
682.5912062938260
 21
258.8355445854547
 31
0.0000000000000000
  0
LINE
  5
3B0
100
AcDbEntity
  8
MAIN0
  6
PHANTOM
 62
3
100
AcDbLine
 10
638.0249562938260
 20
253.8355445854548
 30
0.0000000000000000
 11
638.0249562938260
 21
252.8355445854548
 31
0.0000000000000000
  0
LINE
  5
3B1
100
AcDbEntity
  8
MAIN0
  6
PHANTOM
 62
3
100
AcDbLine
 10
634.9242002145827
 20
257.1446903570037
 30
0.0000000000000000
 11
634.9242002145827
 21
252.8355445854548
 31
0.0000000000000000
  0
LINE
  5
3B2
100
AcDbEntity
  8
MAIN0
  6
PHANTOM
 62
3
100
AcDbLine
 10
633.9242002145827
 20
258.1446903570037
 30
0.0000000000000000
 11
630.0249562938260
 21
258.1446903570037
 31
0.0000000000000000
  0
ARC
  5
3B3
100
AcDbEntity
  8
MAIN0
  6
PHANTOM
 62
3
100
AcDbCircle
 10
633.9242002145827
 20
257.1446903570037
 30
0.0000000000000000
 40
1.000000000000000
100
AcDbArc
 50
3.740332305401095e-012
 51
90.00000000057460
  0
LINE
  5
3B4
100
AcDbEntity
  8
MAIN0
  6
PHANTOM
 62
3
100
AcDbLine
 10
626.1257123730693
 20
258.1446903570037
 30
0.0000000000000000
 11
630.0249562938259
 21
258.1446903570037
 31
0.0000000000000000
  0
ARC
  5
3B5
100
AcDbEntity
  8
MAIN0
  6
PHANTOM
 62
3
100
AcDbCircle
 10
626.1257123730693
 20
257.1446903570037
 30
0.0000000000000000
 40
1.000000000000000
100
AcDbArc
 50
89.99999999942553
 51
179.9999999999964
  0
LINE
  5
3B6
100
AcDbEntity
  8
MAIN0
  6
PHANTOM
 62
3
100
AcDbLine
 10
625.1257123730693
 20
257.1446903570037
 30
0.0000000000000000
 11
625.1257123730693
 21
252.8355445854548
 31
0.0000000000000000
  0
LINE
  5
3B7
100
AcDbEntity
  8
MAIN0
  6
PHANTOM
 62
3
100
AcDbLine
 10
622.0249562938259
 20
253.8355445854547
 30
0.0000000000000000
 11
622.0249562938259
 21
252.8355445854548
 31
0.0000000000000000
  0
LINE
  5
3B8
100
AcDbEntity
  8
MAIN0
  6
PHANTOM
 62
3
100
AcDbLine
 10
630.0249562938261
 20
258.8355445854547
 30
0.0000000000000000
 11
635.5912062938257
 21
258.8355445854547
 31
0.0000000000000000
  0
LINE
  5
3B9
100
AcDbEntity
  8
MAIN0
  6
PHANTOM
 62
3
100
AcDbLine
 10
630.0249562938260
 20
258.8355445854547
 30
0.0000000000000000
 11
624.4587062938261
 21
258.8355445854547
 31
0.0000000000000000
  0
LINE
  5
3BA
100
AcDbEntity
  8
MAIN0
  6
PHANTOM
 62
3
100
AcDbLine
 10
622.0249562938259
 20
252.8355445854547
 30
0.0000000000000000
 11
638.0249562938261
 21
252.8355445854548
 31
0.0000000000000000
  0
LINE
  5
3BB
100
AcDbEntity
  8
MAIN0
  6
PHANTOM
 62
3
100
AcDbLine
 10
669.0249562938261
 20
252.8355445854548
 30
0.0000000000000000
 11
685.0249562938261
 21
252.8355445854548
 31
0.0000000000000000
  0
LINE
  5
3BC
100
AcDbEntity
  8
MAIN0
  6
PHANTOM
 62
3
100
AcDbLine
 10
648.8547062938260
 20
260.0355445854544
 30
0.0000000000000000
 11
658.1952062938258
 21
260.0355445854544
 31
0.0000000000000000
  0
CIRCLE
  5
3BD
100
AcDbEntity
  8
MAIN0
  6
CONTINUOUS
 62
3
100
AcDbCircle
 10
653.5249562938260
 20
379.3355445854544
 30
0.0000000000000000
 40
105.0000000000000
  0
CIRCLE
  5
3BE
100
AcDbEntity
  8
MAIN0
  6
CONTINUOUS
 62
3
100
AcDbCircle
 10
538.5249562938259
 20
379.3355445854544
 30
0.0000000000000000
 40
5.000000000000000
  0
CIRCLE
  5
3BF
100
AcDbEntity
  8
MAIN0
  6
CONTINUOUS
 62
3
100
AcDbCircle
 10
538.5249562938259
 20
379.3355445854544
 30
0.0000000000000000
 40
4.250000000000000
  0
CIRCLE
  5
3C0
100
AcDbEntity
  8
MAIN0
  6
CONTINUOUS
 62
3
100
AcDbCircle
 10
596.0249562938238
 20
279.7426231502451
 30
0.0000000000000000
 40
5.000000000000000
  0
CIRCLE
  5
3C1
100
AcDbEntity
  8
MAIN0
  6
CONTINUOUS
 62
3
100
AcDbCircle
 10
596.0249562938238
 20
279.7426231502451
 30
0.0000000000000000
 40
4.250000000000000
  0
CIRCLE
  5
3C2
100
AcDbEntity
  8
MAIN0
  6
CONTINUOUS
 62
3
100
AcDbCircle
 10
711.0249562938218
 20
279.7426231502415
 30
0.0000000000000000
 40
5.000000000000000
  0
CIRCLE
  5
3C3
100
AcDbEntity
  8
MAIN0
  6
CONTINUOUS
 62
3
100
AcDbCircle
 10
711.0249562938218
 20
279.7426231502415
 30
0.0000000000000000
 40
4.250000000000000
  0
CIRCLE
  5
3C4
100
AcDbEntity
  8
MAIN0
  6
CONTINUOUS
 62
3
100
AcDbCircle
 10
768.5249562938261
 20
379.3355445854472
 30
0.0000000000000000
 40
5.000000000000000
  0
CIRCLE
  5
3C5
100
AcDbEntity
  8
MAIN0
  6
CONTINUOUS
 62
3
100
AcDbCircle
 10
768.5249562938261
 20
379.3355445854472
 30
0.0000000000000000
 40
4.250000000000000
  0
CIRCLE
  5
3C6
100
AcDbEntity
  8
MAIN0
  6
CONTINUOUS
 62
3
100
AcDbCircle
 10
711.0249562938343
 20
478.9284660206602
 30
0.0000000000000000
 40
5.000000000000000
  0
CIRCLE
  5
3C7
100
AcDbEntity
  8
MAIN0
  6
CONTINUOUS
 62
3
100
AcDbCircle
 10
711.0249562938343
 20
478.9284660206602
 30
0.0000000000000000
 40
4.250000000000000
  0
CIRCLE
  5
3C8
100
AcDbEntity
  8
MAIN0
  6
CONTINUOUS
 62
3
100
AcDbCircle
 10
596.0249562938363
 20
478.9284660206710
 30
0.0000000000000000
 40
5.000000000000000
  0
CIRCLE
  5
3C9
100
AcDbEntity
  8
MAIN0
  6
CONTINUOUS
 62
3
100
AcDbCircle
 10
596.0249562938363
 20
478.9284660206710
 30
0.0000000000000000
 40
4.250000000000000
  0
LINE
  5
3CA
100
AcDbEntity
  8
MAIN0
  6
CENTER
 62
3
100
AcDbLine
 10
196.8440620723956
 20
280.5855445859378
 30
0.0000000000000000
 11
214.6566458764643
 21
280.5855445859378
 31
0.0000000000000000
  0
LINE
  5
3CB
100
AcDbEntity
  8
MAIN0
  6
HIDDEN
 62
3
100
AcDbLine
 10
191.4597072714549
 20
499.8355445859378
 30
0.0000000000000000
 11
191.0597072714549
 21
500.2355445859378
 31
0.0000000000000000
  0
LINE
  5
3CC
100
AcDbEntity
  8
MAIN0
  6
HIDDEN
 62
3
100
AcDbLine
 10
205.6597072714549
 20
488.8355445859378
 30
0.0000000000000000
 11
206.0597072714549
 21
488.4355445859378
 31
0.0000000000000000
  0
LINE
  5
3CD
100
AcDbEntity
  8
MAIN0
  6
HIDDEN
 62
3
100
AcDbLine
 10
205.6597072714549
 20
499.8355445859378
 30
0.0000000000000000
 11
206.0597072714549
 21
500.2355445859378
 31
0.0000000000000000
  0
LINE
  5
3CE
100
AcDbEntity
  8
MAIN0
  6
HIDDEN
 62
3
100
AcDbLine
 10
191.4597072714549
 20
488.8355445859378
 30
0.0000000000000000
 11
191.0597072714549
 21
488.4355445859378
 31
0.0000000000000000
  0
LINE
  5
3CF
100
AcDbEntity
  8
MAIN0
  6
CENTER
 62
3
100
AcDbLine
 10
193.9911140064341
 20
335.3355445859378
 30
0.0000000000000000
 11
211.1839932959264
 21
335.3355445859378
 31
0.0000000000000000
  0
LINE
  5
3D0
100
AcDbEntity
  8
MAIN0
  6
PHANTOM
 62
3
100
AcDbLine
 10
193.5597072714549
 20
256.3355445859378
 30
0.0000000000000000
 11
203.5597072714549
 21
256.3355445859378
 31
0.0000000000000000
  0
LINE
  5
3D1
100
AcDbEntity
  8
MAIN0
  6
PHANTOM
 62
3
100
AcDbLine
 10
193.5597072714549
 20
256.3355445859378
 30
0.0000000000000000
 11
193.5597072714549
 21
255.3355445859378
 31
0.0000000000000000
  0
LINE
  5
3D2
100
AcDbEntity
  8
MAIN0
  6
PHANTOM
 62
3
100
AcDbLine
 10
203.5597072714549
 20
256.3355445859378
 30
0.0000000000000000
 11
203.5597072714549
 21
255.3355445859378
 31
0.0000000000000000
  0
LINE
  5
3D3
100
AcDbEntity
  8
MAIN0
  6
PHANTOM
 62
3
100
AcDbLine
 10
204.6597072714549
 20
268.6355445859376
 30
0.0000000000000000
 11
204.6597072714549
 21
259.0355445859376
 31
0.0000000000000000
  0
LINE
  5
3D4
100
AcDbEntity
  8
MAIN0
  6
PHANTOM
 62
3
100
AcDbLine
 10
204.8597072714549
 20
268.8355445859376
 30
0.0000000000000000
 11
206.0597072714549
 21
268.8355445859376
 31
0.0000000000000000
  0
LINE
  5
3D5
100
AcDbEntity
  8
MAIN0
  6
PHANTOM
 62
3
100
AcDbLine
 10
199.6141259737892
 20
298.7785953243629
 30
0.0000000000000000
 11
201.6597072713690
 21
295.2355445859378
 31
0.0000000000000000
  0
ARC
  5
3D6
100
AcDbEntity
  8
MAIN0
  6
PHANTOM
 62
3
100
AcDbCircle
 10
204.8597072714549
 20
268.6355445859376
 30
0.0000000000000000
 40
0.2000000000000000
100
AcDbArc
 50
90.00000000000000
 51
180.0000000000000
  0
LINE
  5
3D7
100
AcDbEntity
  8
MAIN0
  6
PHANTOM
 62
3
100
AcDbLine
 10
204.8597072714549
 20
258.8355445859376
 30
0.0000000000000000
 11
206.0597072714549
 21
258.8355445859376
 31
0.0000000000000000
  0
ARC
  5
3D8
100
AcDbEntity
  8
MAIN0
  6
PHANTOM
 62
3
100
AcDbCircle
 10
204.8597072714549
 20
259.0355445859376
 30
0.0000000000000000
 40
0.2000000000000000
100
AcDbArc
 50
180.0000000000000
 51
270.0000000000000
  0
LINE
  5
3D9
100
AcDbEntity
  8
MAIN0
  6
CONTINUOUS
 62
3
100
AcDbLine
 10
206.2597072714548
 20
484.3355445859376
 30
0.0000000000000000
 11
276.5597072714548
 21
484.3355445859377
 31
0.0000000000000000
  0
LINE
  5
3DA
100
AcDbEntity
  8
MAIN0
  6
CONTINUOUS
 62
3
100
AcDbLine
 10
206.2597072714548
 20
274.3355445859376
 30
0.0000000000000000
 11
276.5597072714528
 21
274.3355445859377
 31
0.0000000000000000
  0
LINE
  5
3DB
100
AcDbEntity
  8
MAIN0
  6
PHANTOM
 62
3
100
AcDbLine
 10
206.2597072714548
 20
274.3355445859376
 30
0.0000000000000000
 11
206.0597072714548
 21
274.5355445859376
 31
0.0000000000000000
  0
LINE
  5
3DC
100
AcDbEntity
  8
MAIN0
  6
CONTINUOUS
 62
3
100
AcDbLine
 10
206.2597072714548
 20
484.3355445859376
 30
0.0000000000000000
 11
206.0597072714548
 21
484.1355445859375
 31
0.0000000000000000
  0
LINE
  5
3DD
100
AcDbEntity
  8
MAIN0
  6
CONTINUOUS
 62
3
100
AcDbLine
 10
283.0597072714548
 20
294.7355445859370
 30
0.0000000000000000
 11
283.0597072714548
 21
359.3355445859369
 31
0.0000000000000000
  0
LINE
  5
3DE
100
AcDbEntity
  8
MAIN0
  6
CONTINUOUS
 62
3
100
AcDbLine
 10
283.0597072714548
 20
399.3355445859369
 30
0.0000000000000000
 11
283.0597072714548
 21
463.9355445859369
 31
0.0000000000000000
  0
LINE
  5
3DF
100
AcDbEntity
  8
MAIN0
  6
CENTER
 62
3
100
AcDbLine
 10
198.5597072714540
 20
381.2296228581907
 30
0.0000000000000000
 11
198.5597072714540
 21
344.3581418947583
 31
0.0000000000000000
  0
SPLINE
  5
3E0
100
AcDbEntity
  8
MAIN0
  6
CONTINUOUS
 62
3
100
AcDbSpline
210
0.0000000000000000
220
0.0000000000000000
230
1.000000000000000
 70
     8
 71
     3
 72
    10
 73
     6
 74
     0
 42
1.000000000000000e-007
 43
1.000000000000000e-007
 12
0.9250380565495391
 22
-0.8849789774764645
 32
0.0000000000000000
 13
0.9356052632269041
 23
-0.8460741007354500
 33
0.0000000000000000
 40
0.0000000000000000
 40
0.0000000000000000
 40
0.0000000000000000
 40
0.0000000000000000
 40
3.179045218976444
 40
5.724737306038803
 40
8.687996256352292
 40
8.687996256352292
 40
8.687996256352292
 40
8.687996256352292
 10
194.8486210211305
 20
347.1438679185241
 30
0.0000000000000000
 10
195.8288669581455
 20
346.2060718561104
 30
0.0000000000000000
 10
197.5940669154238
 20
344.5173144669706
 30
0.0000000000000000
 10
199.5504101532596
 20
348.3358485624033
 30
0.0000000000000000
 10
201.2684780150690
 20
346.7821882974221
 30
0.0000000000000000
 10
202.1926249051415
 20
345.9464760802111
 30
0.0000000000000000
  0
LINE
  5
3E1
100
AcDbEntity
  8
MAIN0
  6
CONTINUOUS
 62
3
100
AcDbLine
 10
191.0597072714549
 20
502.7355445859378
 30
0.0000000000000000
 11
191.0597072714549
 21
255.9355445859378
 31
0.0000000000000000
  0
LINE
  5
3E2
100
AcDbEntity
  8
MAIN0
  6
CONTINUOUS
 62
3
100
AcDbLine
 10
191.6597072714549
 20
503.3355445859378
 30
0.0000000000000000
 11
205.4597072714549
 21
503.3355445859378
 31
0.0000000000000000
  0
LINE
  5
3E3
100
AcDbEntity
  8
MAIN0
  6
CONTINUOUS
 62
3
100
AcDbLine
 10
191.6597072714549
 20
255.3355445859378
 30
0.0000000000000000
 11
205.4597072714549
 21
255.3355445859378
 31
0.0000000000000000
  0
LINE
  5
3E4
100
AcDbEntity
  8
MAIN0
  6
CENTER
 62
3
100
AcDbLine
 10
187.0826942412310
 20
494.3355445859378
 30
0.0000000000000000
 11
210.0725041266600
 21
494.3355445859378
 31
0.0000000000000000
  0
LINE
  5
3E5
100
AcDbEntity
  8
MAIN0
  6
CENTER
 62
3
100
AcDbLine
 10
198.5597072714549
 20
344.3581418947583
 30
0.0000000000000000
 11
198.5597072714549
 21
250.8852100755407
 31
0.0000000000000000
  0
LINE
  5
3E6
100
AcDbEntity
  8
MAIN0
  6
CENTER
 62
3
100
AcDbLine
 10
188.3315777986588
 20
299.3355445859378
 30
0.0000000000000000
 11
214.6566458764643
 21
299.3355445859378
 31
0.0000000000000000
  0
LINE
  5
3E7
100
AcDbEntity
  8
MAIN0
  6
CONTINUOUS
 62
3
100
AcDbLine
 10
206.0597072714549
 20
341.1280626361409
 30
0.0000000000000000
 11
206.0597072714549
 21
253.8355445859376
 31
0.0000000000000000
  0
LINE
  5
3E8
100
AcDbEntity
  8
MAIN0
  6
CONTINUOUS
 62
3
100
AcDbLine
 10
191.0597072714549
 20
502.7355445859378
 30
0.0000000000000000
 11
191.6597072714549
 21
503.3355445859378
 31
0.0000000000000000
  0
LINE
  5
3E9
100
AcDbEntity
  8
MAIN0
  6
CONTINUOUS
 62
3
100
AcDbLine
 10
205.4597072714549
 20
503.3355445859378
 30
0.0000000000000000
 11
206.0597072714549
 21
502.7355445859378
 31
0.0000000000000000
  0
LINE
  5
3EA
100
AcDbEntity
  8
MAIN0
  6
CONTINUOUS
 62
3
100
AcDbLine
 10
205.4597072714549
 20
255.3355445859378
 30
0.0000000000000000
 11
206.0597072714549
 21
255.9355445859378
 31
0.0000000000000000
  0
LINE
  5
3EB
100
AcDbEntity
  8
MAIN0
  6
CONTINUOUS
 62
3
100
AcDbLine
 10
191.6597072714549
 20
255.3355445859378
 30
0.0000000000000000
 11
191.0597072714549
 21
255.9355445859378
 31
0.0000000000000000
  0
LINE
  5
3EC
100
AcDbEntity
  8
MAIN0
  6
CONTINUOUS
 62
3
100
AcDbLine
 10
206.0597072714549
 20
502.7355445859378
 30
0.0000000000000000
 11
206.0597072714549
 21
417.5430265357343
 31
0.0000000000000000
  0
LINE
  5
3ED
100
AcDbEntity
  8
MAIN0
  6
PHANTOM
 62
3
100
AcDbLine
 10
192.0597072714549
 20
304.1682945859378
 30
0.0000000000000000
 11
197.2597072714549
 21
304.0057945859378
 31
0.0000000000000000
  0
LINE
  5
3EE
100
AcDbEntity
  8
MAIN0
  6
PHANTOM
 62
3
100
AcDbLine
 10
197.2597072714549
 20
304.0057945859378
 30
0.0000000000000000
 11
197.2597072714549
 21
294.6652945859378
 31
0.0000000000000000
  0
LINE
  5
3EF
100
AcDbEntity
  8
MAIN0
  6
PHANTOM
 62
3
100
AcDbLine
 10
197.2597072714549
 20
294.6652945859378
 30
0.0000000000000000
 11
192.0597072714549
 21
294.5027945859378
 31
0.0000000000000000
  0
LINE
  5
3F0
100
AcDbEntity
  8
MAIN0
  6
PHANTOM
 62
3
100
AcDbLine
 10
192.0597072714549
 20
303.5872945859378
 30
0.0000000000000000
 11
197.2597072714549
 21
303.4247945859378
 31
0.0000000000000000
  0
LINE
  5
3F1
100
AcDbEntity
  8
MAIN0
  6
PHANTOM
 62
3
100
AcDbLine
 10
192.0597072714549
 20
295.0837945859378
 30
0.0000000000000000
 11
197.2597072714549
 21
295.2462945859378
 31
0.0000000000000000
  0
LINE
  5
3F2
100
AcDbEntity
  8
MAIN0
  6
PHANTOM
 62
3
100
AcDbLine
 10
197.2597072714549
 20
303.4355445859378
 30
0.0000000000000000
 11
208.0597072714549
 21
303.4355445859378
 31
0.0000000000000000
  0
LINE
  5
3F3
100
AcDbEntity
  8
MAIN0
  6
PHANTOM
 62
3
100
AcDbLine
 10
208.0597072714549
 20
295.2355445859378
 30
0.0000000000000000
 11
201.6597072714549
 21
295.2355445859378
 31
0.0000000000000000
  0
LINE
  5
3F4
100
AcDbEntity
  8
MAIN0
  6
PHANTOM
 62
3
100
AcDbLine
 10
207.5597072714549
 20
332.8355445859378
 30
0.0000000000000000
 11
201.6597072714549
 21
332.8355445859378
 31
0.0000000000000000
  0
LINE
  5
3F5
100
AcDbEntity
  8
MAIN0
  6
PHANTOM
 62
3
100
AcDbLine
 10
201.6597072714549
 20
337.8355445859378
 30
0.0000000000000000
 11
207.5597072714549
 21
337.8355445859378
 31
0.0000000000000000
  0
LINE
  5
3F6
100
AcDbEntity
  8
MAIN0
  6
PHANTOM
 62
3
100
AcDbLine
 10
201.6597072714549
 20
332.8355445859378
 30
0.0000000000000000
 11
200.5545535981636
 21
334.7497268982497
 31
0.0000000000000000
  0
LINE
  5
3F7
100
AcDbEntity
  8
MAIN0
  6
PHANTOM
 62
3
100
AcDbLine
 10
200.4879759040626
 20
335.8060463247921
 30
0.0000000000000000
 11
201.6597072714549
 21
337.8355445859378
 31
0.0000000000000000
  0
LINE
  5
3F8
100
AcDbEntity
  8
MAIN0
  6
PHANTOM
 62
3
100
AcDbLine
 10
194.6702072714549
 20
256.3355445859378
 30
0.0000000000000000
 11
194.8233322714549
 21
261.2355445859378
 31
0.0000000000000000
  0
LINE
  5
3F9
100
AcDbEntity
  8
MAIN0
  6
PHANTOM
 62
3
100
AcDbLine
 10
194.8233322714549
 20
261.2355445859378
 30
0.0000000000000000
 11
202.2960822714549
 21
261.2355445859378
 31
0.0000000000000000
  0
LINE
  5
3FA
100
AcDbEntity
  8
MAIN0
  6
PHANTOM
 62
3
100
AcDbLine
 10
202.2960822714549
 20
261.2355445859378
 30
0.0000000000000000
 11
202.4492072714549
 21
256.3355445859378
 31
0.0000000000000000
  0
LINE
  5
3FB
100
AcDbEntity
  8
MAIN0
  6
PHANTOM
 62
3
100
AcDbLine
 10
195.3072072714549
 20
256.3355445859378
 30
0.0000000000000000
 11
195.4603322714549
 21
261.2355445859378
 31
0.0000000000000000
  0
LINE
  5
3FC
100
AcDbEntity
  8
MAIN0
  6
PHANTOM
 62
3
100
AcDbLine
 10
201.8122072714549
 20
256.3355445859378
 30
0.0000000000000000
 11
201.6590822714549
 21
261.2355445859378
 31
0.0000000000000000
  0
LINE
  5
3FD
100
AcDbEntity
  8
MAIN0
  6
PHANTOM
 62
3
100
AcDbLine
 10
195.4597072714549
 20
337.8355445859378
 30
0.0000000000000000
 11
201.6597072714549
 21
337.8355445859378
 31
0.0000000000000000
  0
LINE
  5
3FE
100
AcDbEntity
  8
MAIN0
  6
PHANTOM
 62
3
100
AcDbLine
 10
195.4597072714549
 20
337.8355445859378
 30
0.0000000000000000
 11
198.5597072714549
 21
339.6253304204256
 31
0.0000000000000000
  0
LINE
  5
3FF
100
AcDbEntity
  8
MAIN0
  6
PHANTOM
 62
3
100
AcDbLine
 10
198.5597072714549
 20
339.6253304204256
 30
0.0000000000000000
 11
201.6597072714549
 21
337.8355445859378
 31
0.0000000000000000
  0
LINE
  5
400
100
AcDbEntity
  8
MAIN0
  6
PHANTOM
 62
3
100
AcDbLine
 10
195.4597072714549
 20
261.2355445859378
 30
0.0000000000000000
 11
195.4597072714549
 21
294.5368685966053
 31
0.0000000000000000
  0
LINE
  5
401
100
AcDbEntity
  8
MAIN0
  6
PHANTOM
 62
3
100
AcDbLine
 10
201.6597072714549
 20
261.3355445859376
 30
0.0000000000000000
 11
201.6597072714549
 21
261.2355445859378
 31
0.0000000000000000
  0
LINE
  5
402
100
AcDbEntity
  8
MAIN0
  6
PHANTOM
 62
3
100
AcDbLine
 10
201.6597072714549
 20
278.0855445859376
 30
0.0000000000000000
 11
201.6597072714549
 21
266.3355445859376
 31
0.0000000000000000
  0
LINE
  5
403
100
AcDbEntity
  8
MAIN0
  6
PHANTOM
 62
3
100
AcDbLine
 10
201.6597072714549
 20
295.2355445859378
 30
0.0000000000000000
 11
201.6597072714549
 21
283.0855445859376
 31
0.0000000000000000
  0
LINE
  5
404
100
AcDbEntity
  8
MAIN0
  6
PHANTOM
 62
3
100
AcDbLine
 10
195.4597072714549
 20
312.5773217573395
 30
0.0000000000000000
 11
195.4597072714549
 21
337.8355445859378
 31
0.0000000000000000
  0
LINE
  5
405
100
AcDbEntity
  8
MAIN0
  6
CONTINUOUS
 62
3
100
AcDbLine
 10
195.4597072714549
 20
346.5696874795602
 30
0.0000000000000000
 11
195.4597072714549
 21
379.1001616786924
 31
0.0000000000000000
  0
LINE
  5
406
100
AcDbEntity
  8
MAIN0
  6
PHANTOM
 62
3
100
AcDbLine
 10
201.6597072714549
 20
332.8355445859378
 30
0.0000000000000000
 11
201.6597072714549
 21
312.4741750023353
 31
0.0000000000000000
  0
LINE
  5
407
100
AcDbEntity
  8
MAIN0
  6
CONTINUOUS
 62
3
100
AcDbLine
 10
201.6597072714549
 20
373.3355445859376
 30
0.0000000000000000
 11
201.6597072714549
 21
346.5231936070252
 31
0.0000000000000000
  0
LINE
  5
408
100
AcDbEntity
  8
MAIN0
  6
CONTINUOUS
 62
3
100
AcDbLine
 10
214.5597072714608
 20
391.8355445859376
 30
0.0000000000000000
 11
249.5597072714549
 21
391.8355445859376
 31
0.0000000000000000
  0
LINE
  5
409
100
AcDbEntity
  8
MAIN0
  6
CONTINUOUS
 62
3
100
AcDbLine
 10
247.5597072714548
 20
367.5426513671242
 30
0.0000000000000000
 11
247.5597072714550
 21
391.1284378047511
 31
0.0000000000000000
  0
LINE
  5
40A
100
AcDbEntity
  8
MAIN0
  6
CONTINUOUS
 62
3
100
AcDbLine
 10
246.3349624000633
 20
366.8355445859376
 30
0.0000000000000000
 11
247.5597072714548
 21
367.5426513671242
 31
0.0000000000000000
  0
LINE
  5
40B
100
AcDbEntity
  8
MAIN0
  6
CONTINUOUS
 62
3
100
AcDbLine
 10
247.5597072714550
 20
391.1284378047511
 30
0.0000000000000000
 11
246.3349624000634
 21
391.8355445859376
 31
0.0000000000000000
  0
LINE
  5
40C
100
AcDbEntity
  8
MAIN0
  6
CONTINUOUS
 62
3
100
AcDbLine
 10
245.8276564638288
 20
385.8355445859372
 30
0.0000000000000000
 11
216.5597072714549
 21
385.8355445859375
 31
0.0000000000000000
  0
LINE
  5
40D
100
AcDbEntity
  8
MAIN0
  6
CONTINUOUS
 62
3
100
AcDbLine
 10
245.8276564638287
 20
372.8355445859372
 30
0.0000000000000000
 11
216.5597072714549
 21
372.8355445859375
 31
0.0000000000000000
  0
LINE
  5
40E
100
AcDbEntity
  8
MAIN0
  6
HIDDEN
 62
3
100
AcDbLine
 10
191.4597072714549
 20
499.8355445859378
 30
0.0000000000000000
 11
205.6597072714549
 21
499.8355445859378
 31
0.0000000000000000
  0
LINE
  5
40F
100
AcDbEntity
  8
MAIN0
  6
HIDDEN
 62
3
100
AcDbLine
 10
191.4597072714549
 20
488.8355445859378
 30
0.0000000000000000
 11
205.6597072714549
 21
488.8355445859378
 31
0.0000000000000000
  0
LINE
  5
410
100
AcDbEntity
  8
WAKU0
  6
CONTINUOUS
 62
3
100
AcDbLine
 10
412.0000000000000
 20
51.00000000000000
 30
0.0000000000000000
 11
582.0000000000000
 21
51.00000000000000
 31
0.0000000000000000
  0
LINE
  5
411
100
AcDbEntity
  8
WAKU0
  6
CONTINUOUS
 62
3
100
AcDbLine
 10
412.0000000000000
 20
51.00000000000000
 30
0.0000000000000000
 11
412.0000000000000
 21
12.00000000000000
 31
0.0000000000000000
  0
LINE
  5
412
100
AcDbEntity
  8
WAKU0
  6
CONTINUOUS
 62
3
100
AcDbLine
 10
484.0000000000000
 20
51.00000000000000
 30
0.0000000000000000
 11
484.0000000000000
 21
12.00000000000000
 31
0.0000000000000000
  0
LINE
  5
413
100
AcDbEntity
  8
WAKU0
  6
CONTINUOUS
 62
3
100
AcDbLine
 10
504.0000000000000
 20
51.00000000000000
 30
0.0000000000000000
 11
504.0000000000000
 21
12.00000000000000
 31
0.0000000000000000
  0
LINE
  5
414
100
AcDbEntity
  8
WAKU0
  6
CONTINUOUS
 62
3
100
AcDbLine
 10
516.0000000000000
 20
51.00000000000000
 30
0.0000000000000000
 11
516.0000000000000
 21
12.00000000000000
 31
0.0000000000000000
  0
LINE
  5
415
100
AcDbEntity
  8
WAKU0
  6
CONTINUOUS
 62
3
100
AcDbLine
 10
516.0000000000000
 20
37.00000000000000
 30
0.0000000000000000
 11
582.0000000000000
 21
37.00000000000000
 31
0.0000000000000000
  0
LINE
  5
416
100
AcDbEntity
  8
WAKU0
  6
CONTINUOUS
 62
3
100
AcDbLine
 10
504.0000000000000
 20
23.00000000000000
 30
0.0000000000000000
 11
582.0000000000000
 21
23.00000000000000
 31
0.0000000000000000
  0
LINE
  5
417
100
AcDbEntity
  8
WAKU0
  6
CONTINUOUS
 62
3
100
AcDbLine
 10
547.0000000000000
 20
51.00000000000000
 30
0.0000000000000000
 11
547.0000000000000
 21
44.00000000000000
 31
0.0000000000000000
  0
LINE
  5
418
100
AcDbEntity
  8
WAKU0
  6
CONTINUOUS
 62
3
100
AcDbLine
 10
559.0000000000000
 20
51.00000000000000
 30
0.0000000000000000
 11
559.0000000000000
 21
44.00000000000000
 31
0.0000000000000000
  0
LINE
  5
419
100
AcDbEntity
  8
WAKU0
  6
CONTINUOUS
 62
3
100
AcDbLine
 10
484.0000000000000
 20
31.50000000000000
 30
0.0000000000000000
 11
504.0000000000000
 21
31.50000000000000
 31
0.0000000000000000
  0
LINE
  5
41A
100
AcDbEntity
  8
WAKU0
  6
CONTINUOUS
 62
3
100
AcDbLine
 10
504.0000000000000
 20
44.00000000000000
 30
0.0000000000000000
 11
582.0000000000000
 21
44.00000000000000
 31
0.0000000000000000
  0
LINE
  5
41B
100
AcDbEntity
  8
WAKU0
  6
CONTINUOUS
 62
3
100
AcDbLine
 10
412.0000000000000
 20
37.00000000000000
 30
0.0000000000000000
 11
484.0000000000000
 21
37.00000000000000
 31
0.0000000000000000
  0
LINE
  5
41C
100
AcDbEntity
  8
WAKU0
  6
CONTINUOUS
 62
3
100
AcDbLine
 10
412.0000000000000
 20
23.00000000000000
 30
0.0000000000000000
 11
484.0000000000000
 21
23.00000000000000
 31
0.0000000000000000
  0
LINE
  5
41D
100
AcDbEntity
  8
WAKU0
  6
CONTINUOUS
 62
3
100
AcDbLine
 10
460.0000000000000
 20
37.00000000000000
 30
0.0000000000000000
 11
460.0000000000000
 21
12.00000000000000
 31
0.0000000000000000
  0
LINE
  5
41E
100
AcDbEntity
  8
WAKU0
  6
CONTINUOUS
 62
3
100
AcDbLine
 10
436.0000000000000
 20
37.00000000000000
 30
0.0000000000000000
 11
436.0000000000000
 21
23.00000000000000
 31
0.0000000000000000
  0
LINE
  5
41F
100
AcDbEntity
  8
WAKU0
  6
CONTINUOUS
 62
3
100
AcDbLine
 10
472.0000000000000
 20
26.00000000000000
 30
0.0000000000000000
 11
472.0000000000000
 21
23.00000000000000
 31
0.0000000000000000
  0
LINE
  5
420
100
AcDbEntity
  8
WAKU0
  6
CONTINUOUS
 62
3
100
AcDbLine
 10
448.0000000000000
 20
26.00000000000000
 30
0.0000000000000000
 11
448.0000000000000
 21
23.00000000000000
 31
0.0000000000000000
  0
LINE
  5
421
100
AcDbEntity
  8
WAKU0
  6
CONTINUOUS
 62
3
100
AcDbLine
 10
424.0000000000000
 20
26.00000000000000
 30
0.0000000000000000
 11
424.0000000000000
 21
23.00000000000000
 31
0.0000000000000000
  0
LINE
  5
422
100
AcDbEntity
  8
WAKU0
  6
CONTINUOUS
 62
3
100
AcDbLine
 10
430.0000000000000
 20
51.00000000000000
 30
0.0000000000000000
 11
430.0000000000000
 21
37.00000000000000
 31
0.0000000000000000
  0
LINE
  5
423
100
AcDbEntity
  8
WAKU0
  6
CONTINUOUS
 62
3
100
AcDbLine
 10
412.0000000000000
 20
45.00000000000000
 30
0.0000000000000000
 11
484.0000000000000
 21
45.00000000000000
 31
0.0000000000000000
  0
LINE
  5
424
100
AcDbEntity
  8
WAKU0
  6
HIDDEN
 62
3
100
AcDbLine
 10
532.5000000000000
 20
23.00000000000000
 30
0.0000000000000000
 11
532.5000000000000
 21
12.00000000000000
 31
0.0000000000000000
  0
LINE
  5
425
100
AcDbEntity
  8
WAKU0
  6
HIDDEN
 62
3
100
AcDbLine
 10
544.9000000000000
 20
23.00000000000000
 30
0.0000000000000000
 11
544.9000000000000
 21
12.00000000000000
 31
0.0000000000000000
  0
MTEXT
  5
426
100
AcDbEntity
  8
WAKU0
  6
CONTINUOUS
 62
3
100
AcDbMText
 10
516.4820000243485
 20
49.04999995231628
 30
0.0000000000000000
 40
3.099999904632568
 41
0.0000000000000000
 71
     1
 72
     1
  1
{\H0.92x;{YS1820K}}
 11
1.000000000000000
 21
0.0000000000000000
 31
0.0000000000000000
  7
STANDARD
  0
MTEXT
  5
427
100
AcDbEntity
  8
WAKU0
  6
CONTINUOUS
 62
3
100
AcDbMText
 10
517.1700005233288
 20
43.50000000000000
 30
0.0000000000000000
 40
3.000000000000000
 41
0.0000000000000000
 71
     1
 72
     1
  1
{\H0.94x;{ステーショナリシリンダ\PＳＴＡＴＩＯＮＡＲＹ　ＣＹＬＩＮＤＥＲ}}
 11
1.000000000000000
 21
0.0000000000000000
 31
0.0000000000000000
  7
KNJYOKO
  0
MTEXT
  5
428
100
AcDbEntity
  8
WAKU0
  6
CONTINUOUS
 62
3
100
AcDbMText
 10
523.0499999858439
 20
34.23333326975504
 30
0.0000000000000000
 40
3.099999904632568
 41
0.0000000000000000
 71
     1
 72
     1
  1
{\H0.70x;{ＹＳ１８２０Ｋ　ガイケイ\PＹＳ１８２０Ｋ　ＯＵＴＳＩＤＥ　ＶＩＥＷ}}
 11
1.000000000000000
 21
0.0000000000000000
 31
0.0000000000000000
  7
KNJYOKO
  0
MTEXT
  5
429
100
AcDbEntity
  8
WAKU0
  6
CONTINUOUS
 62
3
100
AcDbMText
 10
490.0049998760223
 20
39.29999995231628
 30
0.0000000000000000
 40
3.099999904632568
 41
0.0000000000000000
 71
     1
 72
     1
  1
{\H0.90x;{2:3}}
 11
1.000000000000000
 21
0.0000000000000000
 31
0.0000000000000000
  7
STANDARD
  0
MTEXT
  5
42A
100
AcDbEntity
  8
WAKU0
  6
CONTINUOUS
 62
3
100
AcDbMText
 10
546.4000001549721
 20
20.15000009536743
 30
0.0000000000000000
 40
5.300000190734863
 41
0.0000000000000000
 71
     1
 72
     1
  1
{\H0.90x;{8913}}
 11
1.000000000000000
 21
0.0000000000000000
 31
0.0000000000000000
  7
STANDARD
  0
MTEXT
  5
42B
100
AcDbEntity
  8
WAKU0
  6
CONTINUOUS
 62
3
100
AcDbMText
 10
534.3000000834466
 20
20.15000009536743
 30
0.0000000000000000
 40
5.300000190734863
 41
0.0000000000000000
 71
     1
 72
     1
  1
{\H0.87x;{23}}
 11
1.000000000000000
 21
0.0000000000000000
 31
0.0000000000000000
  7
STANDARD
  0
MTEXT
  5
42C
100
AcDbEntity
  8
WAKU0
  6
CONTINUOUS
 62
3
100
AcDbMText
 10
517.5000001192093
 20
20.15000009536743
 30
0.0000000000000000
 40
5.300000190734863
 41
0.0000000000000000
 71
     1
 72
     1
  1
{\H0.89x;{61R}}
 11
1.000000000000000
 21
0.0000000000000000
 31
0.0000000000000000
  7
STANDARD
  0
MTEXT
  5
42D
100
AcDbEntity
  8
WAKU0
  6
CONTINUOUS
 62
3
100
AcDbMText
 10
572.0000000476837
 20
20.15000009536743
 30
0.0000000000000000
 40
5.300000190734863
 41
0.0000000000000000
 71
     1
 72
     1
  1
{\H0.81x;{4}}
 11
1.000000000000000
 21
0.0000000000000000
 31
0.0000000000000000
  7
STANDARD
  0
MTEXT
  5
42E
100
AcDbEntity
  8
WAKU0
  6
CONTINUOUS
 62
3
100
AcDbMText
 10
572.0000000819564
 20
44.84999990463257
 30
0.0000000000000000
 40
5.300000190734863
 41
0.0000000000000000
 71
     7
 72
     1
  1
{\H0.81x;{ }}
 11
1.000000000000000
 21
0.0000000000000000
 31
0.0000000000000000
  7
STANDARD
  0
MTEXT
  5
42F
100
AcDbEntity
  8
WAKU0
  6
CONTINUOUS
 62
3
100
AcDbMText
 10
461.3850002884865
 20
33.00000000000000
 30
0.0000000000000000
 40
3.000000000000000
 41
0.0000000000000000
 71
     7
 72
     1
  1
{\H0.93x;{DRAWN BY}}
 11
1.000000000000000
 21
0.0000000000000000
 31
0.0000000000000000
  7
STANDARD
  0
MTEXT
  5
430
100
AcDbEntity
  8
WAKU0
  6
CONTINUOUS
 62
3
100
AcDbMText
 10
441.2149997949600
 20
32.95000004768372
 30
0.0000000000000000
 40
3.099999904632568
 41
0.0000000000000000
 71
     7
 72
     1
  1
{\H0.92x;{CHIEF}}
 11
1.000000000000000
 21
0.0000000000000000
 31
0.0000000000000000
  7
STANDARD
  0
MTEXT
  5
431
100
AcDbEntity
  8
WAKU0
  6
CONTINUOUS
 62
3
100
AcDbMText
 10
414.4249997138977
 20
32.95000004768372
 30
0.0000000000000000
 40
3.099999904632568
 41
0.0000000000000000
 71
     7
 72
     1
  1
{\H0.92x;{MANAGER}}
 11
1.000000000000000
 21
0.0000000000000000
 31
0.0000000000000000
  7
STANDARD
  0
MTEXT
  5
432
100
AcDbEntity
  8
WAKU0
  6
CONTINUOUS
 62
3
100
AcDbMText
 10
416.6599994301796
 20
18.13333336512248
 30
0.0000000000000000
 40
3.099999904632568
 41
0.0000000000000000
 71
     7
 72
     1
  1
{\H0.93x;{KITAGAWA IRON\PWORKS CO.,LTD.}}
 11
1.000000000000000
 21
0.0000000000000000
 31
0.0000000000000000
  7
STANDARD
  0
MTEXT
  5
433
100
AcDbEntity
  8
WAKU0
  6
CONTINUOUS
 62
3
100
AcDbMText
 10
413.0850002169609
 20
46.50000000000000
 30
0.0000000000000000
 40
3.000000000000000
 41
0.0000000000000000
 71
     7
 72
     1
  1
{\H0.92x;{CAREER}}
 11
1.000000000000000
 21
0.0000000000000000
 31
0.0000000000000000
  7
STANDARD
  0
MTEXT
  5
434
100
AcDbEntity
  8
WAKU0
  6
CONTINUOUS
 62
3
100
AcDbMText
 10
466.6099998354912
 20
18.95000004768372
 30
0.0000000000000000
 40
3.099999904632568
 41
0.0000000000000000
 71
     7
 72
     1
  1
{\H0.91x;{DATE}}
 11
1.000000000000000
 21
0.0000000000000000
 31
0.0000000000000000
  7
STANDARD
  0
MTEXT
  5
435
100
AcDbEntity
  8
WAKU0
  6
CONTINUOUS
 62
3
100
AcDbMText
 10
485.9000002145767
 20
26.50000000000000
 30
0.0000000000000000
 40
3.000000000000000
 41
0.0000000000000000
 71
     7
 72
     1
  1
{\H0.63x;{3RD ANGLE}}
 11
1.000000000000000
 21
0.0000000000000000
 31
0.0000000000000000
  7
STANDARD
  0
MTEXT
  5
436
100
AcDbEntity
  8
WAKU0
  6
CONTINUOUS
 62
3
100
AcDbMText
 10
487.2149997949600
 20
45.95000004768372
 30
0.0000000000000000
 40
3.099999904632568
 41
0.0000000000000000
 71
     7
 72
     1
  1
{\H0.92x;{SCALE}}
 11
1.000000000000000
 21
0.0000000000000000
 31
0.0000000000000000
  7
STANDARD
  0
MTEXT
  5
437
100
AcDbEntity
  8
WAKU0
  6
CONTINUOUS
 62
3
100
AcDbMText
 10
577.7000000476837
 20
46.00000000000000
 30
0.0000000000000000
 40
3.000000000000000
 41
0.0000000000000000
 71
     7
 72
     1
  1
{\H0.63x;{kg}}
 11
1.000000000000000
 21
0.0000000000000000
 31
0.0000000000000000
  7
STANDARD
  0
MTEXT
  5
438
100
AcDbEntity
  8
WAKU0
  6
CONTINUOUS
 62
3
100
AcDbMText
 10
547.6000001430512
 20
46.00000000000000
 30
0.0000000000000000
 40
3.000000000000000
 41
0.0000000000000000
 71
     7
 72
     1
  1
{\H0.63x;{WEIGHT}}
 11
1.000000000000000
 21
0.0000000000000000
 31
0.0000000000000000
  7
STANDARD
  0
MTEXT
  5
439
100
AcDbEntity
  8
WAKU0
  6
CONTINUOUS
 62
3
100
AcDbMText
 10
506.0049998760223
 20
18.13333336512248
 30
0.0000000000000000
 40
3.099999904632568
 41
0.0000000000000000
 71
     7
 72
     1
  1
{\H0.90x;{DRW\PNO.}}
 11
1.000000000000000
 21
0.0000000000000000
 31
0.0000000000000000
  7
STANDARD
  0
MTEXT
  5
43A
100
AcDbEntity
  8
WAKU0
  6
CONTINUOUS
 62
3
100
AcDbMText
 10
504.6099998354912
 20
31.95000004768372
 30
0.0000000000000000
 40
3.099999904632568
 41
0.0000000000000000
 71
     7
 72
     1
  1
{\H0.91x;{NAME}}
 11
1.000000000000000
 21
0.0000000000000000
 31
0.0000000000000000
  7
STANDARD
  0
MTEXT
  5
43B
100
AcDbEntity
  8
WAKU0
  6
CONTINUOUS
 62
3
100
AcDbMText
 10
504.6099998354912
 20
45.95000004768372
 30
0.0000000000000000
 40
3.099999904632568
 41
0.0000000000000000
 71
     7
 72
     1
  1
{\H0.91x;{TYPE}}
 11
1.000000000000000
 21
0.0000000000000000
 31
0.0000000000000000
  7
STANDARD
  0
LINE
  5
43C
100
AcDbEntity
  8
WAKU0
  6
HIDDEN
 62
3
100
AcDbLine
 10
579.1599564743885
 20
13.84999990463257
 30
0.0000000000000000
 11
568.9400436209789
 21
13.84999990463257
 31
0.0000000000000000
  0
LINE
  5
43D
100
AcDbEntity
  8
WAKU0
  6
HIDDEN
 62
3
100
AcDbLine
 10
579.1599564743885
 20
13.84999990463250
 30
0.0000000000000000
 11
574.0500000476851
 21
22.70070406014901
 31
0.0000000000000000
  0
LINE
  5
43E
100
AcDbEntity
  8
WAKU0
  6
HIDDEN
 62
3
100
AcDbLine
 10
574.0500000476851
 20
22.70070406014902
 30
0.0000000000000000
 11
568.9400436209789
 21
13.84999990463248
 31
0.0000000000000000
  0
LINE
  5
43F
100
AcDbEntity
  8
WAKU0
  6
CONTINUOUS
 62
3
100
AcDbLine
 10
502.4713877753800
 20
15.78041421262812
 30
0.0000000000000000
 11
502.4713877753800
 21
21.78041421262815
 31
0.0000000000000000
  0
LINE
  5
440
100
AcDbEntity
  8
WAKU0
  6
CONTINUOUS
 62
3
100
AcDbLine
 10
495.9336941228225
 20
17.28041421262811
 30
0.0000000000000000
 11
495.9336941228225
 21
20.28041421262824
 31
0.0000000000000000
  0
LINE
  5
441
100
AcDbEntity
  8
WAKU0
  6
CENTER
 62
12
100
AcDbLine
 10
485.4321805514995
 20
18.78041421262813
 30
0.0000000000000000
 11
503.2765788964694
 21
18.78041421262813
 31
0.0000000000000000
  0
LINE
  5
442
100
AcDbEntity
  8
WAKU0
  6
CENTER
 62
12
100
AcDbLine
 10
489.4474565857986
 20
14.55921662918448
 30
0.0000000000000000
 11
489.4474565857986
 21
22.89865102149943
 31
0.0000000000000000
  0
LINE
  5
443
100
AcDbEntity
  8
WAKU0
  6
CONTINUOUS
 62
3
100
AcDbLine
 10
495.9336941228225
 20
20.28041421262797
 30
0.0000000000000000
 11
502.4713877753800
 21
21.78041421262795
 31
0.0000000000000000
  0
LINE
  5
444
100
AcDbEntity
  8
WAKU0
  6
CONTINUOUS
 62
3
100
AcDbLine
 10
495.9336941228225
 20
17.28041421262811
 30
0.0000000000000000
 11
502.4713877753799
 21
15.78041421262812
 31
0.0000000000000000
  0
CIRCLE
  5
445
100
AcDbEntity
  8
WAKU0
  6
CONTINUOUS
 62
3
100
AcDbCircle
 10
489.4474565857986
 20
18.78041421262813
 30
0.0000000000000000
 40
1.499999999999972
  0
CIRCLE
  5
446
100
AcDbEntity
  8
WAKU0
  6
CONTINUOUS
 62
3
100
AcDbCircle
 10
489.4474565857986
 20
18.78041421262813
 30
0.0000000000000000
 40
2.999999999999979
  0
ENDSEC
  0
SECTION
  2
OBJECTS
  0
DICTIONARY
  5
49B
100
AcDbDictionary
  3
ACAD_GROUP
350
49C
  3
ACAD_MLINESTYLE
350
49D
  3
DWGPROPS
350
49E
  0
DICTIONARY
  5
49C
102
{ACAD_REACTORS
330
49B
102
}
100
AcDbDictionary
  0
DICTIONARY
  5
49D
102
{ACAD_REACTORS
330
49B
102
}
100
AcDbDictionary
  3
STANDARD
350
49F
  0
MLINESTYLE
  5
49F
102
{ACAD_REACTORS
330
49D
102
}
100
AcDbMlineStyle
  2
STANDARD
 70
     0
  3

 62
   256
 51
90.00
 52
90.00
 71
     2
 49
0.50
 62
   256
  6
BYLAYER
 49
-0.50
 62
   256
  6
BYLAYER
  0
XRECORD
  5
49E
102
{ACAD_REACTORS
330
49B
102
}
100
AcDbXrecord
280
     1
  1
DWGPROPS COOKIE
  2
ＹＳ１８２０Ｋ　ガイケイ
  3

  4

  6
ステーショナリシリンダ
  7

  8

  9

300
=
301
=
302
=
303
=
304
=
305
=
306
=
307
=
308
=
309
=
 40
0.000000
 41
0.000000
 42
0.000000
  1

 90
        0
  0
ENDSEC
  0
EOF
