  0
SECTION
  2
HEADER
  9
$ACADVER
  1
AC1014
  9
$DWGCODEPAGE
  3
ANSI_932
  9
$LTSCALE
 40
20.0
  9
$FILLMODE
 70
     1
  9
$CLAYER
  8
0
  9
$PDMODE
 70
     0
  9
$SPLFRAME
 70
     0
  9
$SPLINETYPE
 70
     6
  9
$SPLINESEGS
 70
     8
  9
$DIMASZ
 40
2.000000
  9
$DIMEXE
 40
2.000000
  9
$DIMEXO
 40
0.800000
  9
$DIMTAD
 70
     1
  9
$DIMTIH
 70
     0
  9
$DIMTOH
 70
     0
  9
$DIMTVP
 40
0.500000
  9
$DIMTXT
 40
3.100000
  9
$EXTMIN
 10
0.000000
 20
0.000000
 30
0.000000
  9
$EXTMAX
 10
420.000000
 20
594.000000
 30
0.000000
  9
$MEASUREMENT
 70
  1
  9
$LIMMIN
 10
0.000000
 20
0.000000
  9
$LIMMAX
 10
420.000000
 20
594.000000
  9
$HANDLING
 70
     1
  9
$HANDSEED
  5
4A8
  9
$DIMBLK
  1
_OPEN
  9
$DIMDEC
 70
     3
  9
$DIMAUNIT
 70
     1
  9
$DIMZIN
 70
     8
  9
$DIMTOFL
 70
     1
  0
ENDSEC
  0
SECTION
  2
CLASSES
  0
ENDSEC
  0
SECTION
  2
TABLES
  0
TABLE
  2
VPORT
  5
44E
100
AcDbSymbolTable
 70
     1
  0
VPORT
  5
44F
100
AcDbSymbolTableRecord
100
AcDbViewportTableRecord
  2
*ACTIVE
 70
     0
 12
427.298017
 22
296.791652
 40
593.583303
 41
1.439724
  0
ENDTAB
  0
TABLE
  2
LTYPE
  5
450
100
AcDbSymbolTable
 70
     4
  0
LTYPE
  5
451
100
AcDbSymbolTableRecord
100
AcDbLinetypeTableRecord
  2
BYBLOCK
 70
     0
  3

 72
    65
 73
     0
 40
0.0
  0
LTYPE
  5
452
100
AcDbSymbolTableRecord
100
AcDbLinetypeTableRecord
  2
BYLAYER
 70
     0
  3

 72
    65
 73
     0
 40
0.0
  0
LTYPE
  5
453
100
AcDbSymbolTableRecord
100
AcDbLinetypeTableRecord
  2
CONTINUOUS
 70
     0
  3
Solid line (NEC CAE2D for Win R12.1 : 2015.02.18)
 72
    65
 73
     0
 40
0.0
  0
LTYPE
  5
454
100
AcDbSymbolTableRecord
100
AcDbLinetypeTableRecord
  2
HIDDEN
 70
     0
  3
__ __ __ __ __ __ __ __ __ __ __ __ __ __
 72
    65
 73
     2
 40
0.375
 49
0.25
 74
     0
 49
-0.125
 74
     0
  0
LTYPE
  5
455
100
AcDbSymbolTableRecord
100
AcDbLinetypeTableRecord
  2
CENTER
 70
     0
  3
____ _ ____ _ ____ _ ____ _ ____ _ ____
 72
    65
 73
     4
 40
2.0
 49
1.25
 74
     0
 49
-0.25
 74
     0
 49
0.25
 74
     0
 49
-0.25
 74
     0
  0
LTYPE
  5
456
100
AcDbSymbolTableRecord
100
AcDbLinetypeTableRecord
  2
PHANTOM
 70
     0
  3
______  __  __  ______  __  __  ______ 
 72
    65
 73
     6
 40
2.5
 49
1.25
 74
     0
 49
-0.25
 74
     0
 49
0.25
 74
     0
 49
-0.25
 74
     0
 49
0.25
 74
     0
 49
-0.25
 74
     0
  0
ENDTAB
  0
TABLE
  2
LAYER
  5
457
100
AcDbSymbolTable
 70
    12
  0
LAYER
  5
458
100
AcDbSymbolTableRecord
100
AcDbLayerTableRecord
  2
0
 70
     0
 62
     7
  6
CONTINUOUS
  0
LAYER
  5
459
100
AcDbSymbolTableRecord
100
AcDbLayerTableRecord
  2
MAIN0
 70
     0
 62
     7
  6
CONTINUOUS
  0
LAYER
  5
45A
100
AcDbSymbolTableRecord
100
AcDbLayerTableRecord
  2
MAIN1
 70
     0
 62
     7
  6
CONTINUOUS
  0
LAYER
  5
45B
100
AcDbSymbolTableRecord
100
AcDbLayerTableRecord
  2
MAIN2
 70
     0
 62
     7
  6
CONTINUOUS
  0
LAYER
  5
45C
100
AcDbSymbolTableRecord
100
AcDbLayerTableRecord
  2
MAIN3
 70
     0
 62
     7
  6
CONTINUOUS
  0
LAYER
  5
45D
100
AcDbSymbolTableRecord
100
AcDbLayerTableRecord
  2
MAIN4
 70
     0
 62
     7
  6
CONTINUOUS
  0
LAYER
  5
45E
100
AcDbSymbolTableRecord
100
AcDbLayerTableRecord
  2
MAIN5
 70
     0
 62
     7
  6
CONTINUOUS
  0
LAYER
  5
45F
100
AcDbSymbolTableRecord
100
AcDbLayerTableRecord
  2
MAIN6
 70
     0
 62
     7
  6
CONTINUOUS
  0
LAYER
  5
460
100
AcDbSymbolTableRecord
100
AcDbLayerTableRecord
  2
MAIN10
 70
     0
 62
     7
  6
CONTINUOUS
  0
LAYER
  5
461
100
AcDbSymbolTableRecord
100
AcDbLayerTableRecord
  2
MAIN1023
 70
     0
 62
    16
  6
CONTINUOUS
  0
LAYER
  5
462
100
AcDbSymbolTableRecord
100
AcDbLayerTableRecord
  2
WAKU0
 70
     0
 62
     7
  6
CONTINUOUS
  0
LAYER
  5
463
100
AcDbSymbolTableRecord
100
AcDbLayerTableRecord
  2
WAKU1023
 70
     0
 62
    16
  6
CONTINUOUS
  0
ENDTAB
  0
TABLE
  2
STYLE
  5
464
100
AcDbSymbolTable
 70
     4
  0
STYLE
  5
465
100
AcDbSymbolTableRecord
100
AcDbTextStyleTableRecord
  2
STANDARD
 70
    64
 40
0.0
 41
1.0
 50
0.0
 71
     0
 42
3.099999904632568
  3
TXT
  4

  0
STYLE
  5
466
100
AcDbSymbolTableRecord
100
AcDbTextStyleTableRecord
  2
ANKTATE
 70
    68
 40
0.0
 41
1.0
 50
0.0
 71
     0
 42
3.099999904632568
  3
TXT
  4

  0
STYLE
  5
C2
100
AcDbSymbolTableRecord
100
AcDbTextStyleTableRecord
  2
KNJYOKO
 70
    64
 40
0.0
 41
1.0
 50
0.0
 71
     0
 42
3.099999904632568
  3
TXT
  4
BIGFONT
  0
STYLE
  5
467
100
AcDbSymbolTableRecord
100
AcDbTextStyleTableRecord
  2
KNJTATE
 70
    68
 40
0.0
 41
1.0
 50
0.0
 71
     0
 42
3.099999904632568
  3
TXT
  4
BIGFONT
  0
ENDTAB
  0
TABLE
  2
VIEW
  5
468
100
AcDbSymbolTable
 70
     0
  0
ENDTAB
  0
TABLE
  2
UCS
  5
469
100
AcDbSymbolTable
 70
     0
  0
ENDTAB
  0
TABLE
  2
APPID
  5
46A
100
AcDbSymbolTable
 70
     1
  0
APPID
  5
46B
100
AcDbSymbolTableRecord
100
AcDbRegAppTableRecord
  2
ACAD
 70
     0
  0
ENDTAB
  0
TABLE
  2
DIMSTYLE
  5
46C
100
AcDbSymbolTable
 70
     1
  0
DIMSTYLE
105
46D
100
AcDbSymbolTableRecord
100
AcDbDimStyleTableRecord
  2
STANDARD
 70
     0
 41
2.000000
 44
2.000000
 42
0.800000
145
0.661290
140
3.100000
144
1.000000
146
0.903226
340
465
  0
DIMSTYLE
105
46E
100
AcDbSymbolTableRecord
100
AcDbDimStyleTableRecord
  2
MAIN001
 70
     0
 41
3.000000
 44
3.000000
 42
1.200000
145
0.607527
140
4.650000
144
1.000000
146
0.903226
 77
     1
 73
     0
 74
     0
271
     3
275
     1
 78
     8
172
     1
340
465
  0
DIMSTYLE
105
46F
100
AcDbSymbolTableRecord
100
AcDbDimStyleTableRecord
  2
WAKU002
 70
     0
 41
2.000000
 44
2.000000
 42
0.800000
145
0.661290
140
3.100000
144
1.000000
146
0.903226
 77
     1
 73
     0
 74
     0
271
     3
275
     1
 78
     8
172
     1
340
465
  0
ENDTAB
  0
TABLE
  2
BLOCK_RECORD
  5
470
100
AcDbSymbolTable
 70
    56
  0
BLOCK_RECORD
  5
471
100
AcDbSymbolTableRecord
100
AcDbBlockTableRecord
  2
*MODEL_SPACE
  0
BLOCK_RECORD
  5
472
100
AcDbSymbolTableRecord
100
AcDbBlockTableRecord
  2
*PAPER_SPACE
  0
BLOCK_RECORD
  5
1
100
AcDbSymbolTableRecord
100
AcDbBlockTableRecord
  2
_NONE
  0
BLOCK_RECORD
  5
4
100
AcDbSymbolTableRecord
100
AcDbBlockTableRecord
  2
_CLOSED
  0
BLOCK_RECORD
  5
B
100
AcDbSymbolTableRecord
100
AcDbBlockTableRecord
  2
_DOT
  0
BLOCK_RECORD
  5
13
100
AcDbSymbolTableRecord
100
AcDbBlockTableRecord
  2
_OPEN
  0
BLOCK_RECORD
  5
19
100
AcDbSymbolTableRecord
100
AcDbBlockTableRecord
  2
_ORIGIN
  0
BLOCK_RECORD
  5
1E
100
AcDbSymbolTableRecord
100
AcDbBlockTableRecord
  2
_OPEN30
  0
BLOCK_RECORD
  5
24
100
AcDbSymbolTableRecord
100
AcDbBlockTableRecord
  2
_BOXFILLED
  0
BLOCK_RECORD
  5
29
100
AcDbSymbolTableRecord
100
AcDbBlockTableRecord
  2
_BOXBLANK
  0
BLOCK_RECORD
  5
31
100
AcDbSymbolTableRecord
100
AcDbBlockTableRecord
  2
_OBLIQUE
  0
BLOCK_RECORD
  5
35
100
AcDbSymbolTableRecord
100
AcDbBlockTableRecord
  2
_OPEN90
  0
BLOCK_RECORD
  5
3B
100
AcDbSymbolTableRecord
100
AcDbBlockTableRecord
  2
_CLOSEDBLANK
  0
BLOCK_RECORD
  5
41
100
AcDbSymbolTableRecord
100
AcDbBlockTableRecord
  2
_DOTBLANK
  0
BLOCK_RECORD
  5
473
100
AcDbSymbolTableRecord
100
AcDbBlockTableRecord
  2
*D0
  0
BLOCK_RECORD
  5
474
100
AcDbSymbolTableRecord
100
AcDbBlockTableRecord
  2
*D1
  0
BLOCK_RECORD
  5
475
100
AcDbSymbolTableRecord
100
AcDbBlockTableRecord
  2
*D2
  0
BLOCK_RECORD
  5
476
100
AcDbSymbolTableRecord
100
AcDbBlockTableRecord
  2
*D3
  0
BLOCK_RECORD
  5
477
100
AcDbSymbolTableRecord
100
AcDbBlockTableRecord
  2
*D4
  0
BLOCK_RECORD
  5
478
100
AcDbSymbolTableRecord
100
AcDbBlockTableRecord
  2
*D5
  0
BLOCK_RECORD
  5
479
100
AcDbSymbolTableRecord
100
AcDbBlockTableRecord
  2
*D6
  0
BLOCK_RECORD
  5
47A
100
AcDbSymbolTableRecord
100
AcDbBlockTableRecord
  2
*D7
  0
BLOCK_RECORD
  5
47B
100
AcDbSymbolTableRecord
100
AcDbBlockTableRecord
  2
*D8
  0
BLOCK_RECORD
  5
47C
100
AcDbSymbolTableRecord
100
AcDbBlockTableRecord
  2
*D9
  0
BLOCK_RECORD
  5
47D
100
AcDbSymbolTableRecord
100
AcDbBlockTableRecord
  2
*D10
  0
BLOCK_RECORD
  5
47E
100
AcDbSymbolTableRecord
100
AcDbBlockTableRecord
  2
*D11
  0
BLOCK_RECORD
  5
47F
100
AcDbSymbolTableRecord
100
AcDbBlockTableRecord
  2
*D12
  0
BLOCK_RECORD
  5
480
100
AcDbSymbolTableRecord
100
AcDbBlockTableRecord
  2
*D13
  0
BLOCK_RECORD
  5
481
100
AcDbSymbolTableRecord
100
AcDbBlockTableRecord
  2
*D14
  0
BLOCK_RECORD
  5
482
100
AcDbSymbolTableRecord
100
AcDbBlockTableRecord
  2
*D15
  0
BLOCK_RECORD
  5
483
100
AcDbSymbolTableRecord
100
AcDbBlockTableRecord
  2
*D16
  0
BLOCK_RECORD
  5
484
100
AcDbSymbolTableRecord
100
AcDbBlockTableRecord
  2
*D17
  0
BLOCK_RECORD
  5
485
100
AcDbSymbolTableRecord
100
AcDbBlockTableRecord
  2
*D18
  0
BLOCK_RECORD
  5
486
100
AcDbSymbolTableRecord
100
AcDbBlockTableRecord
  2
*D19
  0
BLOCK_RECORD
  5
487
100
AcDbSymbolTableRecord
100
AcDbBlockTableRecord
  2
*D20
  0
BLOCK_RECORD
  5
488
100
AcDbSymbolTableRecord
100
AcDbBlockTableRecord
  2
*D21
  0
BLOCK_RECORD
  5
489
100
AcDbSymbolTableRecord
100
AcDbBlockTableRecord
  2
*D22
  0
BLOCK_RECORD
  5
48A
100
AcDbSymbolTableRecord
100
AcDbBlockTableRecord
  2
*D23
  0
BLOCK_RECORD
  5
48B
100
AcDbSymbolTableRecord
100
AcDbBlockTableRecord
  2
*D24
  0
BLOCK_RECORD
  5
48C
100
AcDbSymbolTableRecord
100
AcDbBlockTableRecord
  2
*D25
  0
BLOCK_RECORD
  5
48D
100
AcDbSymbolTableRecord
100
AcDbBlockTableRecord
  2
*D26
  0
BLOCK_RECORD
  5
48E
100
AcDbSymbolTableRecord
100
AcDbBlockTableRecord
  2
*D27
  0
BLOCK_RECORD
  5
48F
100
AcDbSymbolTableRecord
100
AcDbBlockTableRecord
  2
*D28
  0
BLOCK_RECORD
  5
490
100
AcDbSymbolTableRecord
100
AcDbBlockTableRecord
  2
*D29
  0
BLOCK_RECORD
  5
491
100
AcDbSymbolTableRecord
100
AcDbBlockTableRecord
  2
*D30
  0
BLOCK_RECORD
  5
492
100
AcDbSymbolTableRecord
100
AcDbBlockTableRecord
  2
*D31
  0
BLOCK_RECORD
  5
493
100
AcDbSymbolTableRecord
100
AcDbBlockTableRecord
  2
*D32
  0
BLOCK_RECORD
  5
494
100
AcDbSymbolTableRecord
100
AcDbBlockTableRecord
  2
*D33
  0
BLOCK_RECORD
  5
495
100
AcDbSymbolTableRecord
100
AcDbBlockTableRecord
  2
*D34
  0
BLOCK_RECORD
  5
496
100
AcDbSymbolTableRecord
100
AcDbBlockTableRecord
  2
*D35
  0
BLOCK_RECORD
  5
497
100
AcDbSymbolTableRecord
100
AcDbBlockTableRecord
  2
*D36
  0
BLOCK_RECORD
  5
498
100
AcDbSymbolTableRecord
100
AcDbBlockTableRecord
  2
*D37
  0
BLOCK_RECORD
  5
499
100
AcDbSymbolTableRecord
100
AcDbBlockTableRecord
  2
*D38
  0
BLOCK_RECORD
  5
49A
100
AcDbSymbolTableRecord
100
AcDbBlockTableRecord
  2
*D39
  0
BLOCK_RECORD
  5
49B
100
AcDbSymbolTableRecord
100
AcDbBlockTableRecord
  2
M0
  0
BLOCK_RECORD
  5
49C
100
AcDbSymbolTableRecord
100
AcDbBlockTableRecord
  2
M1
  0
BLOCK_RECORD
  5
49D
100
AcDbSymbolTableRecord
100
AcDbBlockTableRecord
  2
*X0
  0
BLOCK_RECORD
  5
49E
100
AcDbSymbolTableRecord
100
AcDbBlockTableRecord
  2
*X1
  0
ENDTAB
  0
ENDSEC
  0
SECTION
  2
BLOCKS
  0
BLOCK
  5
49F
100
AcDbEntity
  8
0
100
AcDbBlockBegin
  2
*MODEL_SPACE
 70
     0
 10
0.0
 20
0.0
 30
0.0
  3
*MODEL_SPACE
  1

  0
ENDBLK
  5
4A0
100
AcDbEntity
  8
0
100
AcDbBlockEnd
  0
BLOCK
  5
4A1
100
AcDbEntity
  8
0
100
AcDbBlockBegin
  2
*PAPER_SPACE
 70
     0
 10
0.0
 20
0.0
 30
0.0
  3
*PAPER_SPACE
  1

  0
ENDBLK
  5
4A2
100
AcDbEntity
  8
0
100
AcDbBlockEnd
  0
BLOCK
  5
2
100
AcDbEntity
  8
0
100
AcDbBlockBegin
  2
_NONE
 70
     0
 10
0.0
 20
0.0
 30
0.0
  3
_NONE
  1

  0
ENDBLK
  5
3
100
AcDbEntity
  8
0
100
AcDbBlockEnd
  0
BLOCK
  5
5
100
AcDbEntity
  8
0
100
AcDbBlockBegin
  2
_CLOSED
 70
     0
 10
0.0
 20
0.0
 30
0.0
  3
_CLOSED
  1

  0
LINE
  5
6
100
AcDbEntity
  8
0
  6
BYBLOCK
 62
     0
100
AcDbLine
 10
-1.0
 20
0.166667
 30
0.0
 11
0.0
 21
0.0
 31
0.0
  0
LINE
  5
7
100
AcDbEntity
  8
0
  6
BYBLOCK
 62
     0
100
AcDbLine
 10
0.0
 20
0.0
 30
0.0
 11
-1.0
 21
-0.166667
 31
0.0
  0
LINE
  5
8
100
AcDbEntity
  8
0
  6
BYBLOCK
 62
     0
100
AcDbLine
 10
-1.0
 20
0.166667
 30
0.0
 11
-1.0
 21
-0.166667
 31
0.0
  0
LINE
  5
9
100
AcDbEntity
  8
0
  6
BYBLOCK
 62
     0
100
AcDbLine
 10
0.0
 20
0.0
 30
0.0
 11
-1.0
 21
0.0
 31
0.0
  0
ENDBLK
  5
A
100
AcDbEntity
  8
0
100
AcDbBlockEnd
  0
BLOCK
  5
C
100
AcDbEntity
  8
0
100
AcDbBlockBegin
  2
_DOT
 70
     0
 10
0.0
 20
0.0
 30
0.0
  3
_DOT
  1

  0
POLYLINE
  5
D
100
AcDbEntity
  8
0
  6
BYBLOCK
 62
     0
100
AcDb2dPolyline
 66
     1
 10
0.0
 20
0.0
 30
0.0
 70
     1
 40
0.5
 41
0.5
  0
VERTEX
  5
E
100
AcDbEntity
  8
0
  6
BYBLOCK
 62
     0
100
AcDbVertex
100
AcDb2dVertex
 10
-0.25
 20
0.0
 30
0.0
 42
1.0
  0
VERTEX
  5
F
100
AcDbEntity
  8
0
  6
BYBLOCK
 62
     0
100
AcDbVertex
100
AcDb2dVertex
 10
0.25
 20
0.0
 30
0.0
 42
1.0
  0
SEQEND
  5
10
100
AcDbEntity
  8
0
  6
BYBLOCK
 62
     0
  0
LINE
  5
11
100
AcDbEntity
  8
0
  6
BYBLOCK
 62
     0
100
AcDbLine
 10
-0.5
 20
0.0
 30
0.0
 11
-1.0
 21
0.0
 31
0.0
  0
ENDBLK
  5
12
100
AcDbEntity
  8
0
100
AcDbBlockEnd
  0
BLOCK
  5
14
100
AcDbEntity
  8
0
100
AcDbBlockBegin
  2
_OPEN
 70
     0
 10
0.0
 20
0.0
 30
0.0
  3
_OPEN
  1

  0
LINE
  5
15
100
AcDbEntity
  8
0
  6
BYBLOCK
 62
     0
100
AcDbLine
 10
-1.0
 20
0.166667
 30
0.0
 11
0.0
 21
0.0
 31
0.0
  0
LINE
  5
16
100
AcDbEntity
  8
0
  6
BYBLOCK
 62
     0
100
AcDbLine
 10
0.0
 20
0.0
 30
0.0
 11
-1.0
 21
-0.166667
 31
0.0
  0
LINE
  5
17
100
AcDbEntity
  8
0
  6
BYBLOCK
 62
     0
100
AcDbLine
 10
0.0
 20
0.0
 30
0.0
 11
-1.0
 21
0.0
 31
0.0
  0
ENDBLK
  5
18
100
AcDbEntity
  8
0
100
AcDbBlockEnd
  0
BLOCK
  5
1A
100
AcDbEntity
  8
0
100
AcDbBlockBegin
  2
_ORIGIN
 70
     0
 10
0.0
 20
0.0
 30
0.0
  3
_ORIGIN
  1

  0
CIRCLE
  5
1B
100
AcDbEntity
  8
0
  6
BYBLOCK
 62
     0
100
AcDbCircle
 10
0.0
 20
0.0
 30
0.0
 40
0.5
  0
LINE
  5
1C
100
AcDbEntity
  8
0
  6
BYBLOCK
 62
     0
100
AcDbLine
 10
0.0
 20
0.0
 30
0.0
 11
-1.0
 21
0.0
 31
0.0
  0
ENDBLK
  5
1D
100
AcDbEntity
  8
0
100
AcDbBlockEnd
  0
BLOCK
  5
1F
100
AcDbEntity
  8
0
100
AcDbBlockBegin
  2
_OPEN30
 70
     0
 10
0.0
 20
0.0
 30
0.0
  3
_OPEN30
  1

  0
LINE
  5
20
100
AcDbEntity
  8
0
  6
BYBLOCK
 62
     0
100
AcDbLine
 10
-1.0
 20
0.267949
 30
0.0
 11
0.0
 21
0.0
 31
0.0
  0
LINE
  5
21
100
AcDbEntity
  8
0
  6
BYBLOCK
 62
     0
100
AcDbLine
 10
0.0
 20
0.0
 30
0.0
 11
-1.0
 21
-0.267949
 31
0.0
  0
LINE
  5
22
100
AcDbEntity
  8
0
  6
BYBLOCK
 62
     0
100
AcDbLine
 10
0.0
 20
0.0
 30
0.0
 11
-1.0
 21
0.0
 31
0.0
  0
ENDBLK
  5
23
100
AcDbEntity
  8
0
100
AcDbBlockEnd
  0
BLOCK
  5
25
100
AcDbEntity
  8
0
100
AcDbBlockBegin
  2
_BOXFILLED
 70
     0
 10
0.0
 20
0.0
 30
0.0
  3
_BOXFILLED
  1

  0
SOLID
  5
26
100
AcDbEntity
  8
0
  6
BYBLOCK
 62
     0
100
AcDbTrace
 10
-0.5
 20
0.5
 30
0.0
 11
0.5
 21
0.5
 31
0.0
 12
-0.5
 22
-0.5
 32
0.0
 13
0.5
 23
-0.5
 33
0.0
  0
LINE
  5
27
100
AcDbEntity
  8
0
  6
BYBLOCK
 62
     0
100
AcDbLine
 10
-0.5
 20
0.0
 30
0.0
 11
-1.0
 21
0.0
 31
0.0
  0
ENDBLK
  5
28
100
AcDbEntity
  8
0
100
AcDbBlockEnd
  0
BLOCK
  5
2A
100
AcDbEntity
  8
0
100
AcDbBlockBegin
  2
_BOXBLANK
 70
     0
 10
0.0
 20
0.0
 30
0.0
  3
_BOXBLANK
  1

  0
LINE
  5
2B
100
AcDbEntity
  8
0
  6
BYBLOCK
 62
     0
100
AcDbLine
 10
-0.5
 20
-0.5
 30
0.0
 11
0.5
 21
-0.5
 31
0.0
  0
LINE
  5
2C
100
AcDbEntity
  8
0
  6
BYBLOCK
 62
     0
100
AcDbLine
 10
0.5
 20
-0.5
 30
0.0
 11
0.5
 21
0.5
 31
0.0
  0
LINE
  5
2D
100
AcDbEntity
  8
0
  6
BYBLOCK
 62
     0
100
AcDbLine
 10
0.5
 20
0.5
 30
0.0
 11
-0.5
 21
0.5
 31
0.0
  0
LINE
  5
2E
100
AcDbEntity
  8
0
  6
BYBLOCK
 62
     0
100
AcDbLine
 10
-0.5
 20
0.5
 30
0.0
 11
-0.5
 21
-0.5
 31
0.0
  0
LINE
  5
2F
100
AcDbEntity
  8
0
  6
BYBLOCK
 62
     0
100
AcDbLine
 10
-0.5
 20
0.0
 30
0.0
 11
-1.0
 21
0.0
 31
0.0
  0
ENDBLK
  5
30
100
AcDbEntity
  8
0
100
AcDbBlockEnd
  0
BLOCK
  5
32
100
AcDbEntity
  8
0
100
AcDbBlockBegin
  2
_OBLIQUE
 70
     0
 10
0.0
 20
0.0
 30
0.0
  3
_OBLIQUE
  1

  0
LINE
  5
33
100
AcDbEntity
  8
0
  6
BYBLOCK
 62
     0
100
AcDbLine
 10
-0.5
 20
-0.5
 30
0.0
 11
0.5
 21
0.5
 31
0.0
  0
ENDBLK
  5
34
100
AcDbEntity
  8
0
100
AcDbBlockEnd
  0
BLOCK
  5
36
100
AcDbEntity
  8
0
100
AcDbBlockBegin
  2
_OPEN90
 70
     0
 10
0.0
 20
0.0
 30
0.0
  3
_OPEN90
  1

  0
LINE
  5
37
100
AcDbEntity
  8
0
  6
BYBLOCK
 62
     0
100
AcDbLine
 10
-0.5
 20
0.5
 30
0.0
 11
0.0
 21
0.0
 31
0.0
  0
LINE
  5
38
100
AcDbEntity
  8
0
  6
BYBLOCK
 62
     0
100
AcDbLine
 10
0.0
 20
0.0
 30
0.0
 11
-0.5
 21
-0.5
 31
0.0
  0
LINE
  5
39
100
AcDbEntity
  8
0
  6
BYBLOCK
 62
     0
100
AcDbLine
 10
0.0
 20
0.0
 30
0.0
 11
-1.0
 21
0.0
 31
0.0
  0
ENDBLK
  5
3A
100
AcDbEntity
  8
0
100
AcDbBlockEnd
  0
BLOCK
  5
3C
100
AcDbEntity
  8
0
100
AcDbBlockBegin
  2
_CLOSEDBLANK
 70
     0
 10
0.0
 20
0.0
 30
0.0
  3
_CLOSEDBLANK
  1

  0
LINE
  5
3D
100
AcDbEntity
  8
0
  6
BYBLOCK
 62
     0
100
AcDbLine
 10
-1.0
 20
0.1666666666666666
 30
0.0
 11
0.0
 21
0.0
 31
0.0
  0
LINE
  5
3E
100
AcDbEntity
  8
0
  6
BYBLOCK
 62
     0
100
AcDbLine
 10
0.0
 20
0.0
 30
0.0
 11
-1.0
 21
-0.1666666666666666
 31
0.0
  0
LINE
  5
3F
100
AcDbEntity
  8
0
  6
BYBLOCK
 62
     0
100
AcDbLine
 10
-1.0
 20
0.1666666666666666
 30
0.0
 11
-1.0
 21
-0.1666666666666666
 31
0.0
  0
ENDBLK
  5
40
100
AcDbEntity
  8
0
100
AcDbBlockEnd
  0
BLOCK
  5
42
100
AcDbEntity
  8
0
100
AcDbBlockBegin
  2
_DOTBLANK
 70
     0
 10
0.0
 20
0.0
 30
0.0
  3
_DOTBLANK
  1

  0
CIRCLE
  5
43
100
AcDbEntity
  8
0
  6
BYBLOCK
 62
     0
100
AcDbCircle
 10
0.0
 20
0.0
 30
0.0
 40
0.5
  0
LINE
  5
44
100
AcDbEntity
  8
0
  6
BYBLOCK
 62
     0
100
AcDbLine
 10
-0.5
 20
0.0
 30
0.0
 11
-1.0
 21
0.0
 31
0.0
  0
ENDBLK
  5
45
100
AcDbEntity
  8
0
100
AcDbBlockEnd
  0
BLOCK
  5
B3
100
AcDbEntity
  8
MAIN0
  6
CONTINUOUS
 62
3
100
AcDbBlockBegin
  2
*D0
 70
    65
 10
0.0
 20
0.0
 30
0.0
  0
LINE
  5
B4
100
AcDbEntity
  8
MAIN0
  6
BYBLOCK
 62
0
100
AcDbLine
 10
615.6891404984332
 20
231.1252566409378
 30
0.0000000000000000
 11
615.6891404984332
 21
189.9710864780727
 31
0.0000000000000000
  0
LINE
  5
B5
100
AcDbEntity
  8
MAIN0
  6
BYBLOCK
 62
0
100
AcDbLine
 10
618.6891404984332
 20
192.9710864780727
 30
0.0000000000000000
 11
659.6891404984331
 21
192.9710864780727
 31
0.0000000000000000
  0
INSERT
  5
B6
100
AcDbEntity
  8
MAIN0
  6
BYBLOCK
 62
0
100
AcDbBlockReference
  2
_OPEN
 10
615.6891404984332
 20
192.9710864780727
 30
0.0000000000000000
 41
3.000000000000000
 42
3.000000000000000
 43
3.000000000000000
 50
180.0000000000000
  0
INSERT
  5
B7
100
AcDbEntity
  8
MAIN0
  6
BYBLOCK
 62
0
100
AcDbBlockReference
  2
_OPEN
 10
662.6891404984331
 20
192.9710864780727
 30
0.0000000000000000
 41
3.000000000000000
 42
3.000000000000000
 43
3.000000000000000
 50
0.0000000000000000
  0
LINE
  5
B8
100
AcDbEntity
  8
MAIN0
  6
BYBLOCK
 62
0
100
AcDbLine
 10
662.6891404984331
 20
231.1252566409379
 30
0.0000000000000000
 11
662.6891404984331
 21
189.9710864780727
 31
0.0000000000000000
  0
MTEXT
  5
B9
100
AcDbEntity
  8
MAIN0
  6
BYBLOCK
 62
0
100
AcDbMText
 10
639.1891404984331
 20
195.7960864065471
 30
0.0000000000000000
 40
4.649999856948853
 41
0.0000000000000000
 71
     5
 72
     1
  1
\A1;47
 11
1.000000000000000
 21
0.0000000000000000
 31
0.0000000000000000
  7
STANDARD
  0
ENDBLK
  5
BA
100
AcDbEntity
  8
MAIN0
  6
CONTINUOUS
 62
3
100
AcDbBlockEnd
  0
BLOCK
  5
BC
100
AcDbEntity
  8
MAIN0
  6
CONTINUOUS
 62
3
100
AcDbBlockBegin
  2
*D1
 70
    65
 10
0.0
 20
0.0
 30
0.0
  0
LINE
  5
BD
100
AcDbEntity
  8
MAIN0
  6
BYBLOCK
 62
0
100
AcDbLine
 10
639.1891404984332
 20
385.0886233732518
 30
0.0000000000000000
 11
579.4365893004303
 21
315.1341194058156
 31
0.0000000000000000
  0
INSERT
  5
BE
100
AcDbEntity
  8
MAIN0
  6
BYBLOCK
 62
0
100
AcDbBlockReference
  2
_OPEN
 10
577.4881365439737
 20
312.8529942764427
 30
0.0000000000000000
 41
3.000000000000000
 42
3.000000000000000
 43
3.000000000000000
 50
229.4972720251085
  0
MTEXT
  5
BF
100
AcDbEntity
  8
MAIN0
  6
BYBLOCK
 62
0
100
AcDbMText
 10
599.4948763194312
 20
343.3516177128448
 30
0.0000000000000000
 40
4.649999856948853
 41
0.0000000000000000
 71
     5
 72
     1
  1
\A1;Ｒ95
 11
0.6494842521522051
 21
0.7603750431243065
 31
0.0000000000000000
  7
KNJYOKO
  0
ENDBLK
  5
C0
100
AcDbEntity
  8
MAIN0
  6
CONTINUOUS
 62
3
100
AcDbBlockEnd
  0
BLOCK
  5
C3
100
AcDbEntity
  8
MAIN0
  6
CONTINUOUS
 62
3
100
AcDbBlockBegin
  2
*D2
 70
    65
 10
0.0
 20
0.0
 30
0.0
  0
LINE
  5
C4
100
AcDbEntity
  8
MAIN0
  6
BYBLOCK
 62
0
100
AcDbLine
 10
524.8207253684972
 20
460.5131924516805
 30
0.0000000000000000
 11
753.5575556283693
 21
309.6640542948234
 31
0.0000000000000000
  0
INSERT
  5
C5
100
AcDbEntity
  8
MAIN0
  6
BYBLOCK
 62
0
100
AcDbBlockReference
  2
_OPEN
 10
522.3163075189366
 20
462.1648253512081
 30
0.0000000000000000
 41
3.000000000000000
 42
3.000000000000000
 43
3.000000000000000
 50
146.5956377713463
  0
INSERT
  5
C6
100
AcDbEntity
  8
MAIN0
  6
BYBLOCK
 62
0
100
AcDbBlockReference
  2
_OPEN
 10
756.0619734779300
 20
308.0124213952958
 30
0.0000000000000000
 41
3.000000000000000
 42
3.000000000000000
 43
3.000000000000000
 50
326.5956377713463
  0
MTEXT
  5
C7
100
AcDbEntity
  8
MAIN0
  6
BYBLOCK
 62
0
100
AcDbMText
 10
563.9026255721963
 20
438.4226485846625
 30
0.0000000000000000
 40
4.649999856948853
 41
0.0000000000000000
 71
     5
 72
     1
  1
\A1;\U+2205280\H0.903226x;\U+00B10.2
 11
0.8348059498535472
 21
-0.5505442998425438
 31
0.0000000000000000
  7
STANDARD
  0
ENDBLK
  5
C8
100
AcDbEntity
  8
MAIN0
  6
CONTINUOUS
 62
3
100
AcDbBlockEnd
  0
BLOCK
  5
CA
100
AcDbEntity
  8
MAIN0
  6
CONTINUOUS
 62
3
100
AcDbBlockBegin
  2
*D3
 70
    65
 10
0.0
 20
0.0
 30
0.0
  0
LINE
  5
CB
100
AcDbEntity
  8
MAIN0
  6
BYBLOCK
 62
0
100
AcDbLine
 10
606.6638110682773
 20
309.0531517467810
 30
0.0000000000000000
 11
671.7144699285889
 21
461.1240949997227
 31
0.0000000000000000
  0
INSERT
  5
CC
100
AcDbEntity
  8
MAIN0
  6
BYBLOCK
 62
0
100
AcDbBlockReference
  2
_OPEN
 10
605.4839321288521
 20
306.2949121472718
 30
0.0000000000000000
 41
3.000000000000000
 42
3.000000000000000
 43
3.000000000000000
 50
246.8404459663753
  0
INSERT
  5
CD
100
AcDbEntity
  8
MAIN0
  6
BYBLOCK
 62
0
100
AcDbBlockReference
  2
_OPEN
 10
672.8943488680141
 20
463.8823345992319
 30
0.0000000000000000
 41
3.000000000000000
 42
3.000000000000000
 43
3.000000000000000
 50
66.84044596637536
  0
MTEXT
  5
CE
100
AcDbEntity
  8
MAIN0
  6
BYBLOCK
 62
0
100
AcDbMText
 10
662.5918849815830
 20
447.6165437308965
 30
0.0000000000000000
 40
4.649999856948853
 41
0.0000000000000000
 71
     5
 72
     1
  1
\A1;\U+2205171.4\H0.903226x;\U+00B10.2
 11
0.3932929798084128
 21
0.9194131998364062
 31
0.0000000000000000
  7
STANDARD
  0
ENDBLK
  5
CF
100
AcDbEntity
  8
MAIN0
  6
CONTINUOUS
 62
3
100
AcDbBlockEnd
  0
BLOCK
  5
D1
100
AcDbEntity
  8
MAIN0
  6
CONTINUOUS
 62
3
100
AcDbBlockBegin
  2
*D4
 70
    65
 10
0.0
 20
0.0
 30
0.0
  0
LINE
  5
D2
100
AcDbEntity
  8
MAIN0
  6
BYBLOCK
 62
0
100
AcDbLine
 10
639.1891404984332
 20
229.0808959928385
 30
0.0000000000000000
 11
639.1891404984331
 21
202.6893760408012
 31
0.0000000000000000
  0
LINE
  5
D3
100
AcDbEntity
  8
MAIN0
  6
BYBLOCK
 62
0
100
AcDbLine
 10
664.6995911418138
 20
289.8823254542405
 30
0.0000000000000000
 11
686.3975395220600
 21
208.9044796793808
 31
0.0000000000000000
  0
ARC
  5
D4
100
AcDbEntity
  8
MAIN0
  6
BYBLOCK
 62
0
100
AcDbCircle
 10
639.1891404984332
 20
385.0886233790488
 30
0.0000000000000000
 40
179.3992473382477
100
AcDbArc
 50
270.9581274229939
 51
284.0418725770462
  0
INSERT
  5
D5
100
AcDbEntity
  8
MAIN0
  6
BYBLOCK
 62
0
100
AcDbBlockReference
  2
_OPEN
 10
639.1891404984332
 20
205.6893760408012
 30
0.0000000000000000
 41
3.000000000000000
 42
3.000000000000000
 43
3.000000000000000
 50
180.0000000000000
  0
INSERT
  5
D6
100
AcDbEntity
  8
MAIN0
  6
BYBLOCK
 62
0
100
AcDbBlockReference
  2
_OPEN
 10
685.6210823867505
 20
211.8022571582475
 30
0.0000000000000000
 41
3.000000000000000
 42
3.000000000000000
 43
3.000000000000000
 50
15.00000000004002
  0
MTEXT
  5
D7
100
AcDbEntity
  8
MAIN0
  6
BYBLOCK
 62
0
100
AcDbMText
 10
657.1384528450183
 20
209.4290462572404
 30
0.0000000000000000
 40
4.649999856948853
 41
0.0000000000000000
 71
     5
 72
     1
  1
\A1;15\U+00B0
 11
0.9948199111626838
 21
0.1016530587551105
 31
0.0000000000000000
  7
STANDARD
  0
ENDBLK
  5
D8
100
AcDbEntity
  8
MAIN0
  6
CONTINUOUS
 62
3
100
AcDbBlockEnd
  0
BLOCK
  5
DA
100
AcDbEntity
  8
MAIN0
  6
CONTINUOUS
 62
3
100
AcDbBlockBegin
  2
*D5
 70
    65
 10
0.0
 20
0.0
 30
0.0
  0
LINE
  5
DB
100
AcDbEntity
  8
MAIN0
  6
BYBLOCK
 62
0
100
AcDbLine
 10
664.6995911418138
 20
289.8823254542405
 30
0.0000000000000000
 11
686.3975395220600
 21
208.9044796793808
 31
0.0000000000000000
  0
LINE
  5
DC
100
AcDbEntity
  8
MAIN0
  6
BYBLOCK
 62
0
100
AcDbLine
 10
714.5584788163054
 20
254.5451000737996
 30
0.0000000000000000
 11
730.3887641644934
 21
227.1262415511965
 31
0.0000000000000000
  0
ARC
  5
DD
100
AcDbEntity
  8
MAIN0
  6
BYBLOCK
 62
0
100
AcDbCircle
 10
639.1891404984332
 20
385.0886233790488
 30
0.0000000000000000
 40
179.3992473382477
100
AcDbArc
 50
285.9581274230339
 51
299.0418725758949
  0
INSERT
  5
DE
100
AcDbEntity
  8
MAIN0
  6
BYBLOCK
 62
0
100
AcDbBlockReference
  2
_OPEN
 10
685.6210823867505
 20
211.8022571582475
 30
0.0000000000000000
 41
3.000000000000000
 42
3.000000000000000
 43
3.000000000000000
 50
195.0000000000400
  0
INSERT
  5
DF
100
AcDbEntity
  8
MAIN0
  6
BYBLOCK
 62
0
100
AcDbBlockReference
  2
_OPEN
 10
728.8887641645439
 20
229.7243177625789
 30
0.0000000000000000
 41
3.000000000000000
 42
3.000000000000000
 43
3.000000000000000
 50
29.99999999888877
  0
MTEXT
  5
E0
100
AcDbEntity
  8
MAIN0
  6
BYBLOCK
 62
0
100
AcDbMText
 10
706.7611795629629
 20
221.9552902279436
 30
0.0000000000000000
 40
4.649999856948853
 41
0.0000000000000000
 71
     5
 72
     1
  1
\A1;15\U+00B0
 11
0.9238795325148640
 21
0.3826834323564537
 31
0.0000000000000000
  7
STANDARD
  0
ENDBLK
  5
E1
100
AcDbEntity
  8
MAIN0
  6
CONTINUOUS
 62
3
100
AcDbBlockEnd
  0
BLOCK
  5
E3
100
AcDbEntity
  8
MAIN0
  6
CONTINUOUS
 62
3
100
AcDbBlockBegin
  2
*D6
 70
    65
 10
0.0
 20
0.0
 30
0.0
  0
LINE
  5
E4
100
AcDbEntity
  8
MAIN0
  6
BYBLOCK
 62
0
100
AcDbLine
 10
714.5584788163054
 20
254.5451000737996
 30
0.0000000000000000
 11
730.3887641644934
 21
227.1262415511965
 31
0.0000000000000000
  0
LINE
  5
E5
100
AcDbEntity
  8
MAIN0
  6
BYBLOCK
 62
0
100
AcDbLine
 10
745.4114750416776
 20
278.8662888298789
 30
0.0000000000000000
 11
768.1648851710329
 21
256.1128786992542
 31
0.0000000000000000
  0
ARC
  5
E6
100
AcDbEntity
  8
MAIN0
  6
BYBLOCK
 62
0
100
AcDbCircle
 10
639.1891404984332
 20
385.0886233790488
 30
0.0000000000000000
 40
179.3992473382477
100
AcDbArc
 50
300.9581274218828
 51
314.0418725754080
  0
INSERT
  5
E7
100
AcDbEntity
  8
MAIN0
  6
BYBLOCK
 62
0
100
AcDbBlockReference
  2
_OPEN
 10
728.8887641645439
 20
229.7243177625789
 30
0.0000000000000000
 41
3.000000000000000
 42
3.000000000000000
 43
3.000000000000000
 50
209.9999999988888
  0
INSERT
  5
E8
100
AcDbEntity
  8
MAIN0
  6
BYBLOCK
 62
0
100
AcDbBlockReference
  2
_OPEN
 10
766.0435648275325
 20
258.2341990428729
 30
0.0000000000000000
 41
3.000000000000000
 42
3.000000000000000
 43
3.000000000000000
 50
44.99999999840190
  0
MTEXT
  5
E9
100
AcDbEntity
  8
MAIN0
  6
BYBLOCK
 62
0
100
AcDbMText
 10
746.6807316744339
 20
245.0028543845529
 30
0.0000000000000000
 40
4.649999856948853
 41
0.0000000000000000
 71
     5
 72
     1
  1
\A1;15\U+00B0
 11
0.7933533403056282
 21
0.6087614289899632
 31
0.0000000000000000
  7
STANDARD
  0
ENDBLK
  5
EA
100
AcDbEntity
  8
MAIN0
  6
CONTINUOUS
 62
3
100
AcDbBlockEnd
  0
BLOCK
  5
EC
100
AcDbEntity
  8
MAIN0
  6
CONTINUOUS
 62
3
100
AcDbBlockBegin
  2
*D7
 70
    65
 10
0.0
 20
0.0
 30
0.0
  0
LINE
  5
ED
100
AcDbEntity
  8
MAIN0
  6
BYBLOCK
 62
0
100
AcDbLine
 10
474.1891404984332
 20
382.0886233732518
 30
0.0000000000000000
 11
474.1891404984332
 21
296.0410813094274
 31
0.0000000000000000
  0
INSERT
  5
EE
100
AcDbEntity
  8
MAIN0
  6
BYBLOCK
 62
0
100
AcDbBlockReference
  2
_OPEN
 10
474.1891404984332
 20
385.0886233732518
 30
0.0000000000000000
 41
3.000000000000000
 42
3.000000000000000
 43
3.000000000000000
 50
90.00000000000000
  0
INSERT
  5
EF
100
AcDbEntity
  8
MAIN0
  6
BYBLOCK
 62
0
100
AcDbBlockReference
  2
_OPEN
 10
474.1891404984332
 20
293.0410813094274
 30
0.0000000000000000
 41
3.000000000000000
 42
3.000000000000000
 43
3.000000000000000
 50
270.0000000000000
  0
LINE
  5
F0
100
AcDbEntity
  8
MAIN0
  6
BYBLOCK
 62
0
100
AcDbLine
 10
602.1251404802912
 20
293.0410813094274
 30
0.0000000000000000
 11
471.1891404984332
 21
293.0410813094274
 31
0.0000000000000000
  0
MTEXT
  5
F1
100
AcDbEntity
  8
MAIN0
  6
BYBLOCK
 62
0
100
AcDbMText
 10
471.1141405699588
 20
341.7140620281073
 30
0.0000000000000000
 40
4.649999856948853
 41
0.0000000000000000
 71
     5
 72
     1
  1
\A1;（92.05）
 11
6.123233995736766e-017
 21
1.000000000000000
 31
0.0000000000000000
  7
KNJYOKO
  0
ENDBLK
  5
F2
100
AcDbEntity
  8
MAIN0
  6
CONTINUOUS
 62
3
100
AcDbBlockEnd
  0
BLOCK
  5
F4
100
AcDbEntity
  8
MAIN0
  6
CONTINUOUS
 62
3
100
AcDbBlockBegin
  2
*D8
 70
    65
 10
0.0
 20
0.0
 30
0.0
  0
LINE
  5
F5
100
AcDbEntity
  8
MAIN0
  6
BYBLOCK
 62
0
100
AcDbLine
 10
734.3954384182796
 20
410.5990740135161
 30
0.0000000000000000
 11
815.3732841976504
 21
432.2970223885210
 31
0.0000000000000000
  0
ARC
  5
F6
100
AcDbEntity
  8
MAIN0
  6
BYBLOCK
 62
0
100
AcDbCircle
 10
639.1891404984332
 20
385.0886233790488
 30
0.0000000000000000
 40
179.3992473341486
100
AcDbArc
 50
0.9581274230158279
 51
14.04187257276604
  0
INSERT
  5
F7
100
AcDbEntity
  8
MAIN0
  6
BYBLOCK
 62
0
100
AcDbBlockReference
  2
_OPEN
 10
818.5883878325818
 20
385.0886233790488
 30
0.0000000000000000
 41
3.000000000000000
 42
3.000000000000000
 43
3.000000000000000
 50
270.0000000000000
  0
INSERT
  5
F8
100
AcDbEntity
  8
MAIN0
  6
BYBLOCK
 62
0
100
AcDbBlockReference
  2
_OPEN
 10
812.4755067187259
 20
431.5205652534268
 30
0.0000000000000000
 41
3.000000000000000
 42
3.000000000000000
 43
3.000000000000000
 50
104.9999999957819
  0
MTEXT
  5
F9
100
AcDbEntity
  8
MAIN0
  6
BYBLOCK
 62
0
100
AcDbMText
 10
814.2527707405852
 20
408.1361875305887
 30
0.0000000000000000
 40
4.649999856948853
 41
0.0000000000000000
 71
     5
 72
     1
  1
\A1;15\U+00B0
 11
-0.1305261921835562
 21
0.9914448613786151
 31
0.0000000000000000
  7
STANDARD
  0
ENDBLK
  5
FA
100
AcDbEntity
  8
MAIN0
  6
CONTINUOUS
 62
3
100
AcDbBlockEnd
  0
BLOCK
  5
FC
100
AcDbEntity
  8
MAIN0
  6
CONTINUOUS
 62
3
100
AcDbBlockBegin
  2
*D9
 70
    65
 10
0.0
 20
0.0
 30
0.0
  0
LINE
  5
FD
100
AcDbEntity
  8
MAIN0
  6
BYBLOCK
 62
0
100
AcDbLine
 10
734.3954384182796
 20
410.5990740135161
 30
0.0000000000000000
 11
815.3732841976504
 21
432.2970223885210
 31
0.0000000000000000
  0
LINE
  5
FE
100
AcDbEntity
  8
MAIN0
  6
BYBLOCK
 62
0
100
AcDbLine
 10
745.4114750418057
 20
491.3109579164960
 30
0.0000000000000000
 11
768.1648851753294
 21
514.0643680487503
 31
0.0000000000000000
  0
ARC
  5
FF
100
AcDbEntity
  8
MAIN0
  6
BYBLOCK
 62
0
100
AcDbCircle
 10
639.1891404984332
 20
385.0886233790488
 30
0.0000000000000000
 40
179.3992473341486
100
AcDbArc
 50
15.95812741879769
 51
44.04187257538611
  0
INSERT
  5
100
100
AcDbEntity
  8
MAIN0
  6
BYBLOCK
 62
0
100
AcDbBlockReference
  2
_OPEN
 10
812.4755067187259
 20
431.5205652534268
 30
0.0000000000000000
 41
3.000000000000000
 42
3.000000000000000
 43
3.000000000000000
 50
284.9999999957819
  0
INSERT
  5
101
100
AcDbEntity
  8
MAIN0
  6
BYBLOCK
 62
0
100
AcDbBlockReference
  2
_OPEN
 10
766.0435648317105
 20
511.9430477052499
 30
0.0000000000000000
 41
3.000000000000000
 42
3.000000000000000
 43
3.000000000000000
 50
134.9999999984019
  0
MTEXT
  5
102
100
AcDbEntity
  8
MAIN0
  6
BYBLOCK
 62
0
100
AcDbMText
 10
792.1069244103466
 20
473.3757470741244
 30
0.0000000000000000
 40
4.649999856948853
 41
0.0000000000000000
 71
     5
 72
     1
  1
\A1;30\U+00B0
 11
-0.4999999999560439
 21
0.8660254038098166
 31
0.0000000000000000
  7
STANDARD
  0
ENDBLK
  5
103
100
AcDbEntity
  8
MAIN0
  6
CONTINUOUS
 62
3
100
AcDbBlockEnd
  0
BLOCK
  5
105
100
AcDbEntity
  8
MAIN0
  6
CONTINUOUS
 62
3
100
AcDbBlockBegin
  2
*D10
 70
    65
 10
0.0
 20
0.0
 30
0.0
  0
LINE
  5
106
100
AcDbEntity
  8
MAIN0
  6
BYBLOCK
 62
0
100
AcDbLine
 10
745.4114750418057
 20
491.3109579164960
 30
0.0000000000000000
 11
768.1648851753294
 21
514.0643680487503
 31
0.0000000000000000
  0
LINE
  5
107
100
AcDbEntity
  8
MAIN0
  6
BYBLOCK
 62
0
100
AcDbLine
 10
714.0710521570741
 20
514.7878989338540
 30
0.0000000000000000
 11
730.3887641685900
 21
543.0510051998028
 31
0.0000000000000000
  0
ARC
  5
108
100
AcDbEntity
  8
MAIN0
  6
BYBLOCK
 62
0
100
AcDbCircle
 10
639.1891404984332
 20
385.0886233790488
 30
0.0000000000000000
 40
179.3992473341486
100
AcDbArc
 50
45.95812742141777
 51
59.04187257586608
  0
INSERT
  5
109
100
AcDbEntity
  8
MAIN0
  6
BYBLOCK
 62
0
100
AcDbBlockReference
  2
_OPEN
 10
766.0435648317105
 20
511.9430477052499
 30
0.0000000000000000
 41
3.000000000000000
 42
3.000000000000000
 43
3.000000000000000
 50
314.9999999984019
  0
INSERT
  5
10A
100
AcDbEntity
  8
MAIN0
  6
BYBLOCK
 62
0
100
AcDbBlockReference
  2
_OPEN
 10
728.8887641685394
 20
540.4529289884788
 30
0.0000000000000000
 41
3.000000000000000
 42
3.000000000000000
 43
3.000000000000000
 50
149.9999999988819
  0
MTEXT
  5
10B
100
AcDbEntity
  8
MAIN0
  6
BYBLOCK
 62
0
100
AcDbMText
 10
750.1202336654926
 20
529.6568386242774
 30
0.0000000000000000
 40
4.649999856948853
 41
0.0000000000000000
 71
     5
 72
     1
  1
\A1;15\U+00B0
 11
0.7933533402768056
 21
-0.6087614290275256
 31
0.0000000000000000
  7
STANDARD
  0
ENDBLK
  5
10C
100
AcDbEntity
  8
MAIN0
  6
CONTINUOUS
 62
3
100
AcDbBlockEnd
  0
BLOCK
  5
10E
100
AcDbEntity
  8
MAIN0
  6
CONTINUOUS
 62
3
100
AcDbBlockBegin
  2
*D11
 70
    65
 10
0.0
 20
0.0
 30
0.0
  0
LINE
  5
10F
100
AcDbEntity
  8
MAIN0
  6
BYBLOCK
 62
0
100
AcDbLine
 10
714.0710521570741
 20
514.7878989338540
 30
0.0000000000000000
 11
730.3887641685900
 21
543.0510051998028
 31
0.0000000000000000
  0
LINE
  5
110
100
AcDbEntity
  8
MAIN0
  6
BYBLOCK
 62
0
100
AcDbLine
 10
639.1891404984332
 20
558.6623357602090
 30
0.0000000000000000
 11
639.1891404984332
 21
567.4878707131975
 31
0.0000000000000000
  0
ARC
  5
111
100
AcDbEntity
  8
MAIN0
  6
BYBLOCK
 62
0
100
AcDbCircle
 10
639.1891404984332
 20
385.0886233790488
 30
0.0000000000000000
 40
179.3992473341486
100
AcDbArc
 50
60.95812742189773
 51
89.04187257698418
  0
INSERT
  5
112
100
AcDbEntity
  8
MAIN0
  6
BYBLOCK
 62
0
100
AcDbBlockReference
  2
_OPEN
 10
728.8887641685394
 20
540.4529289884788
 30
0.0000000000000000
 41
3.000000000000000
 42
3.000000000000000
 43
3.000000000000000
 50
329.9999999988819
  0
INSERT
  5
113
100
AcDbEntity
  8
MAIN0
  6
BYBLOCK
 62
0
100
AcDbBlockReference
  2
_OPEN
 10
639.1891404984332
 20
564.4878707131975
 30
0.0000000000000000
 41
3.000000000000000
 42
3.000000000000000
 43
3.000000000000000
 50
180.0000000000000
  0
MTEXT
  5
114
100
AcDbEntity
  8
MAIN0
  6
BYBLOCK
 62
0
100
AcDbMText
 10
686.3522461711883
 20
561.1037299856413
 30
0.0000000000000000
 40
4.649999856948853
 41
0.0000000000000000
 71
     5
 72
     1
  1
\A1;30\U+00B0
 11
0.9659258262865429
 21
-0.2588190451119458
 31
0.0000000000000000
  7
STANDARD
  0
ENDBLK
  5
115
100
AcDbEntity
  8
MAIN0
  6
CONTINUOUS
 62
3
100
AcDbBlockEnd
  0
BLOCK
  5
117
100
AcDbEntity
  8
MAIN0
  6
CONTINUOUS
 62
3
100
AcDbBlockBegin
  2
*D12
 70
    65
 10
0.0
 20
0.0
 30
0.0
  0
LINE
  5
118
100
AcDbEntity
  8
MAIN0
  6
BYBLOCK
 62
0
100
AcDbLine
 10
745.4114750417009
 20
278.8662888299023
 30
0.0000000000000000
 11
768.1648851716820
 21
256.1128786999033
 31
0.0000000000000000
  0
LINE
  5
119
100
AcDbEntity
  8
MAIN0
  6
BYBLOCK
 62
0
100
AcDbLine
 10
766.0398640165449
 20
311.8513240031713
 30
0.0000000000000000
 11
797.1515223209671
 21
293.8889997061777
 31
0.0000000000000000
  0
ARC
  5
11A
100
AcDbEntity
  8
MAIN0
  6
BYBLOCK
 62
0
100
AcDbCircle
 10
639.1891404984332
 20
385.0886233732520
 30
0.0000000000000000
 40
179.3992473341487
100
AcDbArc
 50
315.9581274229937
 51
329.0418725769842
  0
INSERT
  5
11B
100
AcDbEntity
  8
MAIN0
  6
BYBLOCK
 62
0
100
AcDbBlockReference
  2
_OPEN
 10
766.0435648281233
 20
258.2341990434637
 30
0.0000000000000000
 41
3.000000000000000
 42
3.000000000000000
 43
3.000000000000000
 50
224.9999999999778
  0
INSERT
  5
11C
100
AcDbEntity
  8
MAIN0
  6
BYBLOCK
 62
0
100
AcDbBlockReference
  2
_OPEN
 10
794.5534461096137
 20
295.3889997061777
 30
0.0000000000000000
 41
3.000000000000000
 42
3.000000000000000
 43
3.000000000000000
 50
60.00000000000000
  0
MTEXT
  5
11D
100
AcDbEntity
  8
MAIN0
  6
BYBLOCK
 62
0
100
AcDbMText
 10
779.2749094871149
 20
277.5970321964074
 30
0.0000000000000000
 40
4.649999856948853
 41
0.0000000000000000
 71
     5
 72
     1
  1
\A1;15\U+00B0
 11
0.6087614290088736
 21
0.7933533402911177
 31
0.0000000000000000
  7
STANDARD
  0
ENDBLK
  5
11E
100
AcDbEntity
  8
MAIN0
  6
CONTINUOUS
 62
3
100
AcDbBlockEnd
  0
BLOCK
  5
120
100
AcDbEntity
  8
MAIN0
  6
CONTINUOUS
 62
3
100
AcDbBlockBegin
  2
*D13
 70
    65
 10
0.0
 20
0.0
 30
0.0
  0
LINE
  5
121
100
AcDbEntity
  8
MAIN0
  6
BYBLOCK
 62
0
100
AcDbLine
 10
766.0398640165449
 20
311.8513240031713
 30
0.0000000000000000
 11
797.1515223209671
 21
293.8889997061777
 31
0.0000000000000000
  0
ARC
  5
122
100
AcDbEntity
  8
MAIN0
  6
BYBLOCK
 62
0
100
AcDbCircle
 10
639.1891404984332
 20
385.0886233732520
 30
0.0000000000000000
 40
179.3992473341487
100
AcDbArc
 50
330.9581274230159
 51
359.0418725769842
  0
INSERT
  5
123
100
AcDbEntity
  8
MAIN0
  6
BYBLOCK
 62
0
100
AcDbBlockReference
  2
_OPEN
 10
794.5534461096137
 20
295.3889997061777
 30
0.0000000000000000
 41
3.000000000000000
 42
3.000000000000000
 43
3.000000000000000
 50
240.0000000000000
  0
INSERT
  5
124
100
AcDbEntity
  8
MAIN0
  6
BYBLOCK
 62
0
100
AcDbBlockReference
  2
_OPEN
 10
818.5883878325818
 20
385.0886233732519
 30
0.0000000000000000
 41
3.000000000000000
 42
3.000000000000000
 43
3.000000000000000
 50
90.00000000000000
  0
MTEXT
  5
125
100
AcDbEntity
  8
MAIN0
  6
BYBLOCK
 62
0
100
AcDbMText
 10
809.7467663251294
 20
339.3878452700191
 30
0.0000000000000000
 40
4.649999856948853
 41
0.0000000000000000
 71
     5
 72
     1
  1
\A1;30\U+00B0
 11
0.2588190451025205
 21
0.9659258262890683
 31
0.0000000000000000
  7
STANDARD
  0
ENDBLK
  5
126
100
AcDbEntity
  8
MAIN0
  6
CONTINUOUS
 62
3
100
AcDbBlockEnd
  0
BLOCK
  5
12A
100
AcDbEntity
  8
MAIN0
  6
CONTINUOUS
 62
3
100
AcDbBlockBegin
  2
*D14
 70
    65
 10
0.0
 20
0.0
 30
0.0
  0
LINE
  5
12B
100
AcDbEntity
  8
MAIN0
  6
BYBLOCK
 62
0
100
AcDbLine
 10
607.1891404984332
 20
478.6061783318421
 30
0.0000000000000000
 11
671.1891404984332
 21
478.6061783318421
 31
0.0000000000000000
  0
INSERT
  5
12C
100
AcDbEntity
  8
MAIN0
  6
BYBLOCK
 62
0
100
AcDbBlockReference
  2
_OPEN
 10
604.1891404984332
 20
478.6061783318421
 30
0.0000000000000000
 41
3.000000000000000
 42
3.000000000000000
 43
3.000000000000000
 50
180.0000000000000
  0
INSERT
  5
12D
100
AcDbEntity
  8
MAIN0
  6
BYBLOCK
 62
0
100
AcDbBlockReference
  2
_OPEN
 10
674.1891404984332
 20
478.6061783318421
 30
0.0000000000000000
 41
3.000000000000000
 42
3.000000000000000
 43
3.000000000000000
 50
0.0000000000000000
  0
MTEXT
  5
12E
100
AcDbEntity
  8
MAIN0
  6
BYBLOCK
 62
0
100
AcDbMText
 10
639.1891404984332
 20
481.4311782603165
 30
0.0000000000000000
 40
4.649999856948853
 41
0.0000000000000000
 71
     5
 72
     1
  1
\A1;70
 11
1.000000000000000
 21
0.0000000000000000
 31
0.0000000000000000
  7
STANDARD
  0
ENDBLK
  5
12F
100
AcDbEntity
  8
MAIN0
  6
CONTINUOUS
 62
3
100
AcDbBlockEnd
  0
BLOCK
  5
227
100
AcDbEntity
  8
MAIN0
  6
CONTINUOUS
 62
3
100
AcDbBlockBegin
  2
*D15
 70
    65
 10
0.0
 20
0.0
 30
0.0
  0
LINE
  5
228
100
AcDbEntity
  8
MAIN0
  6
BYBLOCK
 62
0
100
AcDbLine
 10
173.5891404805518
 20
235.0886233732518
 30
0.0000000000000000
 11
127.2983995113598
 21
235.0886233732518
 31
0.0000000000000000
  0
LINE
  5
229
100
AcDbEntity
  8
MAIN0
  6
BYBLOCK
 62
0
100
AcDbLine
 10
130.2983995113598
 20
238.0886233732518
 30
0.0000000000000000
 11
130.2983995113598
 21
532.0886233732518
 31
0.0000000000000000
  0
INSERT
  5
22A
100
AcDbEntity
  8
MAIN0
  6
BYBLOCK
 62
0
100
AcDbBlockReference
  2
_OPEN
 10
130.2983995113598
 20
235.0886233732518
 30
0.0000000000000000
 41
3.000000000000000
 42
3.000000000000000
 43
3.000000000000000
 50
270.0000000000000
  0
INSERT
  5
22B
100
AcDbEntity
  8
MAIN0
  6
BYBLOCK
 62
0
100
AcDbBlockReference
  2
_OPEN
 10
130.2983995113598
 20
535.0886233732518
 30
0.0000000000000000
 41
3.000000000000000
 42
3.000000000000000
 43
3.000000000000000
 50
90.00000000000000
  0
LINE
  5
22C
100
AcDbEntity
  8
MAIN0
  6
BYBLOCK
 62
0
100
AcDbLine
 10
173.5891404805518
 20
535.0886233732518
 30
0.0000000000000000
 11
127.2983995113598
 21
535.0886233732518
 31
0.0000000000000000
  0
MTEXT
  5
22D
100
AcDbEntity
  8
MAIN0
  6
BYBLOCK
 62
0
100
AcDbMText
 10
127.2233995828853
 20
385.0886233732518
 30
0.0000000000000000
 40
4.649999856948853
 41
0.0000000000000000
 71
     5
 72
     1
  1
\A1;\U+2205300h7
 11
6.123233995736766e-017
 21
1.000000000000000
 31
0.0000000000000000
  7
STANDARD
  0
ENDBLK
  5
22E
100
AcDbEntity
  8
MAIN0
  6
CONTINUOUS
 62
3
100
AcDbBlockEnd
  0
BLOCK
  5
230
100
AcDbEntity
  8
MAIN0
  6
CONTINUOUS
 62
3
100
AcDbBlockBegin
  2
*D16
 70
    65
 10
0.0
 20
0.0
 30
0.0
  0
LINE
  5
231
100
AcDbEntity
  8
MAIN0
  6
BYBLOCK
 62
0
100
AcDbLine
 10
174.1891404984332
 20
234.4886233553705
 30
0.0000000000000000
 11
174.1891404984332
 21
210.6409032562580
 31
0.0000000000000000
  0
LINE
  5
232
100
AcDbEntity
  8
MAIN0
  6
BYBLOCK
 62
0
100
AcDbLine
 10
177.1891404984332
 20
213.6409032562580
 30
0.0000000000000000
 11
201.1891404984332
 21
213.6409032562580
 31
0.0000000000000000
  0
INSERT
  5
233
100
AcDbEntity
  8
MAIN0
  6
BYBLOCK
 62
0
100
AcDbBlockReference
  2
_OPEN
 10
174.1891404984332
 20
213.6409032562580
 30
0.0000000000000000
 41
3.000000000000000
 42
3.000000000000000
 43
3.000000000000000
 50
180.0000000000000
  0
INSERT
  5
234
100
AcDbEntity
  8
MAIN0
  6
BYBLOCK
 62
0
100
AcDbBlockReference
  2
_OPEN
 10
204.1891404984332
 20
213.6409032562580
 30
0.0000000000000000
 41
3.000000000000000
 42
3.000000000000000
 43
3.000000000000000
 50
0.0000000000000000
  0
LINE
  5
235
100
AcDbEntity
  8
MAIN0
  6
BYBLOCK
 62
0
100
AcDbLine
 10
204.1891404984332
 20
224.5146846153359
 30
0.0000000000000000
 11
204.1891404984332
 21
210.6409032562580
 31
0.0000000000000000
  0
MTEXT
  5
236
100
AcDbEntity
  8
MAIN0
  6
BYBLOCK
 62
0
100
AcDbMText
 10
195.7919302122741
 20
216.7159031847324
 30
0.0000000000000000
 40
4.649999856948853
 41
0.0000000000000000
 71
     5
 72
     1
  1
\A1;30
 11
1.000000000000000
 21
0.0000000000000000
 31
0.0000000000000000
  7
STANDARD
  0
ENDBLK
  5
237
100
AcDbEntity
  8
MAIN0
  6
CONTINUOUS
 62
3
100
AcDbBlockEnd
  0
BLOCK
  5
239
100
AcDbEntity
  8
MAIN0
  6
CONTINUOUS
 62
3
100
AcDbBlockBegin
  2
*D17
 70
    65
 10
0.0
 20
0.0
 30
0.0
  0
LINE
  5
23A
100
AcDbEntity
  8
MAIN0
  6
BYBLOCK
 62
0
100
AcDbLine
 10
174.1891404984332
 20
535.6886233911333
 30
0.0000000000000000
 11
174.1891404984332
 21
568.0886233732518
 31
0.0000000000000000
  0
LINE
  5
23B
100
AcDbEntity
  8
MAIN0
  6
BYBLOCK
 62
0
100
AcDbLine
 10
177.1891404984332
 20
565.0886233732518
 30
0.0000000000000000
 11
271.1891404984332
 21
565.0886233732518
 31
0.0000000000000000
  0
INSERT
  5
23C
100
AcDbEntity
  8
MAIN0
  6
BYBLOCK
 62
0
100
AcDbBlockReference
  2
_OPEN
 10
174.1891404984332
 20
565.0886233732518
 30
0.0000000000000000
 41
3.000000000000000
 42
3.000000000000000
 43
3.000000000000000
 50
180.0000000000000
  0
INSERT
  5
23D
100
AcDbEntity
  8
MAIN0
  6
BYBLOCK
 62
0
100
AcDbBlockReference
  2
_OPEN
 10
274.1891404984332
 20
565.0886233732518
 30
0.0000000000000000
 41
3.000000000000000
 42
3.000000000000000
 43
3.000000000000000
 50
0.0000000000000000
  0
LINE
  5
23E
100
AcDbEntity
  8
MAIN0
  6
BYBLOCK
 62
0
100
AcDbLine
 10
274.1891404984332
 20
495.8886233911333
 30
0.0000000000000000
 11
274.1891404984332
 21
568.0886233732518
 31
0.0000000000000000
  0
MTEXT
  5
23F
100
AcDbEntity
  8
MAIN0
  6
BYBLOCK
 62
0
100
AcDbMText
 10
224.1891404984332
 20
567.9136233017263
 30
0.0000000000000000
 40
4.649999856948853
 41
0.0000000000000000
 71
     5
 72
     1
  1
\A1;100
 11
1.000000000000000
 21
0.0000000000000000
 31
0.0000000000000000
  7
STANDARD
  0
ENDBLK
  5
240
100
AcDbEntity
  8
MAIN0
  6
CONTINUOUS
 62
3
100
AcDbBlockEnd
  0
BLOCK
  5
242
100
AcDbEntity
  8
MAIN0
  6
CONTINUOUS
 62
3
100
AcDbBlockBegin
  2
*D18
 70
    65
 10
0.0
 20
0.0
 30
0.0
  0
LINE
  5
243
100
AcDbEntity
  8
MAIN0
  6
BYBLOCK
 62
0
100
AcDbLine
 10
268.6891404984332
 20
512.2886233911332
 30
0.0000000000000000
 11
268.6891404984332
 21
553.0886233732518
 31
0.0000000000000000
  0
LINE
  5
244
100
AcDbEntity
  8
MAIN0
  6
BYBLOCK
 62
0
100
AcDbLine
 10
268.6891404984332
 20
550.0886233732518
 30
0.0000000000000000
 11
274.1891404984332
 21
550.0886233732518
 31
0.0000000000000000
  0
INSERT
  5
245
100
AcDbEntity
  8
MAIN0
  6
BYBLOCK
 62
0
100
AcDbBlockReference
  2
_OPEN
 10
268.6891404984332
 20
550.0886233732518
 30
0.0000000000000000
 41
3.000000000000000
 42
3.000000000000000
 43
3.000000000000000
 50
0.0000000000000000
  0
INSERT
  5
246
100
AcDbEntity
  8
MAIN0
  6
BYBLOCK
 62
0
100
AcDbBlockReference
  2
_OPEN
 10
274.1891404984332
 20
550.0886233732518
 30
0.0000000000000000
 41
3.000000000000000
 42
3.000000000000000
 43
3.000000000000000
 50
180.0000000000000
  0
LINE
  5
247
100
AcDbEntity
  8
MAIN0
  6
BYBLOCK
 62
0
100
AcDbLine
 10
265.6891404984332
 20
550.0886233732518
 30
0.0000000000000000
 11
257.7062718463046
 21
550.0886233732518
 31
0.0000000000000000
  0
LINE
  5
248
100
AcDbEntity
  8
MAIN0
  6
BYBLOCK
 62
0
100
AcDbLine
 10
277.1891404984332
 20
550.0886233732518
 30
0.0000000000000000
 11
278.6891404984332
 21
550.0886233732518
 31
0.0000000000000000
  0
LINE
  5
249
100
AcDbEntity
  8
MAIN0
  6
BYBLOCK
 62
0
100
AcDbLine
 10
274.1891404984332
 20
495.8886233911333
 30
0.0000000000000000
 11
274.1891404984332
 21
553.0886233732518
 31
0.0000000000000000
  0
MTEXT
  5
24A
100
AcDbEntity
  8
MAIN0
  6
BYBLOCK
 62
0
100
AcDbMText
 10
261.6062717032534
 20
553.1636233017263
 30
0.0000000000000000
 40
4.649999856948853
 41
0.0000000000000000
 71
     5
 72
     1
  1
\A1;5.5
 11
1.000000000000000
 21
0.0000000000000000
 31
0.0000000000000000
  7
STANDARD
  0
ENDBLK
  5
24B
100
AcDbEntity
  8
MAIN0
  6
CONTINUOUS
 62
3
100
AcDbBlockEnd
  0
BLOCK
  5
24D
100
AcDbEntity
  8
MAIN0
  6
CONTINUOUS
 62
3
100
AcDbBlockBegin
  2
*D19
 70
    65
 10
0.0
 20
0.0
 30
0.0
  0
LINE
  5
24E
100
AcDbEntity
  8
MAIN0
  6
BYBLOCK
 62
0
100
AcDbLine
 10
274.9891405163146
 20
275.0886233732518
 30
0.0000000000000000
 11
347.1891404984332
 21
275.0886233732518
 31
0.0000000000000000
  0
LINE
  5
24F
100
AcDbEntity
  8
MAIN0
  6
BYBLOCK
 62
0
100
AcDbLine
 10
344.1891404984332
 20
278.0886233732518
 30
0.0000000000000000
 11
344.1891404984332
 21
492.0886233732518
 31
0.0000000000000000
  0
INSERT
  5
250
100
AcDbEntity
  8
MAIN0
  6
BYBLOCK
 62
0
100
AcDbBlockReference
  2
_OPEN
 10
344.1891404984332
 20
275.0886233732518
 30
0.0000000000000000
 41
3.000000000000000
 42
3.000000000000000
 43
3.000000000000000
 50
270.0000000000000
  0
INSERT
  5
251
100
AcDbEntity
  8
MAIN0
  6
BYBLOCK
 62
0
100
AcDbBlockReference
  2
_OPEN
 10
344.1891404984332
 20
495.0886233732518
 30
0.0000000000000000
 41
3.000000000000000
 42
3.000000000000000
 43
3.000000000000000
 50
90.00000000000000
  0
LINE
  5
252
100
AcDbEntity
  8
MAIN0
  6
BYBLOCK
 62
0
100
AcDbLine
 10
274.9891405163146
 20
495.0886233732518
 30
0.0000000000000000
 11
347.1891404984332
 21
495.0886233732518
 31
0.0000000000000000
  0
MTEXT
  5
253
100
AcDbEntity
  8
MAIN0
  6
BYBLOCK
 62
0
100
AcDbMText
 10
341.1141405699588
 20
385.0886233732518
 30
0.0000000000000000
 40
4.649999856948853
 41
0.0000000000000000
 71
     5
 72
     1
  1
\A1;\U+2205220h7
 11
6.123233995736766e-017
 21
1.000000000000000
 31
0.0000000000000000
  7
STANDARD
  0
ENDBLK
  5
254
100
AcDbEntity
  8
MAIN0
  6
CONTINUOUS
 62
3
100
AcDbBlockEnd
  0
BLOCK
  5
256
100
AcDbEntity
  8
MAIN0
  6
CONTINUOUS
 62
3
100
AcDbBlockBegin
  2
*D20
 70
    65
 10
0.0
 20
0.0
 30
0.0
  0
LINE
  5
257
100
AcDbEntity
  8
MAIN0
  6
BYBLOCK
 62
0
100
AcDbLine
 10
174.1891404984332
 20
234.4886233553705
 30
0.0000000000000000
 11
174.1891404984332
 21
196.1523717449495
 31
0.0000000000000000
  0
LINE
  5
258
100
AcDbEntity
  8
MAIN0
  6
BYBLOCK
 62
0
100
AcDbLine
 10
177.1891404984332
 20
199.1523717449495
 30
0.0000000000000000
 11
186.1891404984332
 21
199.1523717449495
 31
0.0000000000000000
  0
INSERT
  5
259
100
AcDbEntity
  8
MAIN0
  6
BYBLOCK
 62
0
100
AcDbBlockReference
  2
_OPEN
 10
174.1891404984332
 20
199.1523717449495
 30
0.0000000000000000
 41
3.000000000000000
 42
3.000000000000000
 43
3.000000000000000
 50
180.0000000000000
  0
INSERT
  5
25A
100
AcDbEntity
  8
MAIN0
  6
BYBLOCK
 62
0
100
AcDbBlockReference
  2
_OPEN
 10
189.1891404984332
 20
199.1523717449495
 30
0.0000000000000000
 41
3.000000000000000
 42
3.000000000000000
 43
3.000000000000000
 50
0.0000000000000000
  0
LINE
  5
25B
100
AcDbEntity
  8
MAIN0
  6
BYBLOCK
 62
0
100
AcDbLine
 10
189.1891404984332
 20
234.4886233553705
 30
0.0000000000000000
 11
189.1891404984332
 21
196.1523717449495
 31
0.0000000000000000
  0
MTEXT
  5
25C
100
AcDbEntity
  8
MAIN0
  6
BYBLOCK
 62
0
100
AcDbMText
 10
181.6891404984332
 20
201.9773716734239
 30
0.0000000000000000
 40
4.649999856948853
 41
0.0000000000000000
 71
     5
 72
     1
  1
\A1;15
 11
1.000000000000000
 21
0.0000000000000000
 31
0.0000000000000000
  7
STANDARD
  0
ENDBLK
  5
25D
100
AcDbEntity
  8
MAIN0
  6
CONTINUOUS
 62
3
100
AcDbBlockEnd
  0
BLOCK
  5
25F
100
AcDbEntity
  8
MAIN0
  6
CONTINUOUS
 62
3
100
AcDbBlockBegin
  2
*D21
 70
    65
 10
0.0
 20
0.0
 30
0.0
  0
LINE
  5
260
100
AcDbEntity
  8
MAIN0
  6
BYBLOCK
 62
0
100
AcDbLine
 10
189.1891404984332
 20
234.4886233553705
 30
0.0000000000000000
 11
189.1891404984332
 21
196.1523717449495
 31
0.0000000000000000
  0
LINE
  5
261
100
AcDbEntity
  8
MAIN0
  6
BYBLOCK
 62
0
100
AcDbLine
 10
192.1891404984332
 20
199.1523717449495
 30
0.0000000000000000
 11
216.1891404984332
 21
199.1523717449495
 31
0.0000000000000000
  0
INSERT
  5
262
100
AcDbEntity
  8
MAIN0
  6
BYBLOCK
 62
0
100
AcDbBlockReference
  2
_OPEN
 10
189.1891404984332
 20
199.1523717449495
 30
0.0000000000000000
 41
3.000000000000000
 42
3.000000000000000
 43
3.000000000000000
 50
180.0000000000000
  0
INSERT
  5
263
100
AcDbEntity
  8
MAIN0
  6
BYBLOCK
 62
0
100
AcDbBlockReference
  2
_OPEN
 10
219.1891404984332
 20
199.1523717449495
 30
0.0000000000000000
 41
3.000000000000000
 42
3.000000000000000
 43
3.000000000000000
 50
0.0000000000000000
  0
LINE
  5
264
100
AcDbEntity
  8
MAIN0
  6
BYBLOCK
 62
0
100
AcDbLine
 10
219.1891404984332
 20
236.3886233553703
 30
0.0000000000000000
 11
219.1891404984332
 21
196.1523717449495
 31
0.0000000000000000
  0
MTEXT
  5
265
100
AcDbEntity
  8
MAIN0
  6
BYBLOCK
 62
0
100
AcDbMText
 10
204.1891404984332
 20
201.9773716734239
 30
0.0000000000000000
 40
4.649999856948853
 41
0.0000000000000000
 71
     5
 72
     1
  1
\A1;30
 11
1.000000000000000
 21
0.0000000000000000
 31
0.0000000000000000
  7
STANDARD
  0
ENDBLK
  5
266
100
AcDbEntity
  8
MAIN0
  6
CONTINUOUS
 62
3
100
AcDbBlockEnd
  0
BLOCK
  5
268
100
AcDbEntity
  8
MAIN0
  6
CONTINUOUS
 62
3
100
AcDbBlockBegin
  2
*D22
 70
    65
 10
0.0
 20
0.0
 30
0.0
  0
LINE
  5
269
100
AcDbEntity
  8
MAIN0
  6
BYBLOCK
 62
0
100
AcDbLine
 10
270.8891405164772
 20
362.5886233732518
 30
0.0000000000000000
 11
332.1891404984332
 21
362.5886233732518
 31
0.0000000000000000
  0
LINE
  5
26A
100
AcDbEntity
  8
MAIN0
  6
BYBLOCK
 62
0
100
AcDbLine
 10
329.1891404984332
 20
365.5886233732518
 30
0.0000000000000000
 11
329.1891404984332
 21
404.5886233732518
 31
0.0000000000000000
  0
INSERT
  5
26B
100
AcDbEntity
  8
MAIN0
  6
BYBLOCK
 62
0
100
AcDbBlockReference
  2
_OPEN
 10
329.1891404984332
 20
362.5886233732518
 30
0.0000000000000000
 41
3.000000000000000
 42
3.000000000000000
 43
3.000000000000000
 50
270.0000000000000
  0
INSERT
  5
26C
100
AcDbEntity
  8
MAIN0
  6
BYBLOCK
 62
0
100
AcDbBlockReference
  2
_OPEN
 10
329.1891404984332
 20
407.5886233732518
 30
0.0000000000000000
 41
3.000000000000000
 42
3.000000000000000
 43
3.000000000000000
 50
90.00000000000000
  0
LINE
  5
26D
100
AcDbEntity
  8
MAIN0
  6
BYBLOCK
 62
0
100
AcDbLine
 10
270.8891405164771
 20
407.5886233732518
 30
0.0000000000000000
 11
332.1891404984332
 21
407.5886233732518
 31
0.0000000000000000
  0
MTEXT
  5
26E
100
AcDbEntity
  8
MAIN0
  6
BYBLOCK
 62
0
100
AcDbMText
 10
326.3641405699588
 20
385.0886233732518
 30
0.0000000000000000
 40
4.649999856948853
 41
0.0000000000000000
 71
     5
 72
     1
  1
\A1;\U+220545
 11
6.123233995736766e-017
 21
1.000000000000000
 31
0.0000000000000000
  7
STANDARD
  0
ENDBLK
  5
26F
100
AcDbEntity
  8
MAIN0
  6
CONTINUOUS
 62
3
100
AcDbBlockEnd
  0
BLOCK
  5
271
100
AcDbEntity
  8
MAIN0
  6
CONTINUOUS
 62
3
100
AcDbBlockBegin
  2
*D23
 70
    65
 10
0.0
 20
0.0
 30
0.0
  0
LINE
  5
272
100
AcDbEntity
  8
MAIN0
  6
BYBLOCK
 62
0
100
AcDbLine
 10
174.1891404984332
 20
535.6886233911333
 30
0.0000000000000000
 11
174.1891404984332
 21
568.0886233732518
 31
0.0000000000000000
  0
LINE
  5
273
100
AcDbEntity
  8
MAIN0
  6
BYBLOCK
 62
0
100
AcDbLine
 10
177.1891404984332
 20
565.0886233732518
 30
0.0000000000000000
 11
271.1891404984332
 21
565.0886233732518
 31
0.0000000000000000
  0
INSERT
  5
274
100
AcDbEntity
  8
MAIN0
  6
BYBLOCK
 62
0
100
AcDbBlockReference
  2
_OPEN
 10
174.1891404984332
 20
565.0886233732518
 30
0.0000000000000000
 41
3.000000000000000
 42
3.000000000000000
 43
3.000000000000000
 50
180.0000000000000
  0
INSERT
  5
275
100
AcDbEntity
  8
MAIN0
  6
BYBLOCK
 62
0
100
AcDbBlockReference
  2
_OPEN
 10
274.1891404984332
 20
565.0886233732518
 30
0.0000000000000000
 41
3.000000000000000
 42
3.000000000000000
 43
3.000000000000000
 50
0.0000000000000000
  0
LINE
  5
276
100
AcDbEntity
  8
MAIN0
  6
BYBLOCK
 62
0
100
AcDbLine
 10
274.1891404984332
 20
495.8886233911333
 30
0.0000000000000000
 11
274.1891404984332
 21
568.0886233732518
 31
0.0000000000000000
  0
MTEXT
  5
277
100
AcDbEntity
  8
MAIN0
  6
BYBLOCK
 62
0
100
AcDbMText
 10
224.1891404984332
 20
567.9136233017263
 30
0.0000000000000000
 40
4.649999856948853
 41
0.0000000000000000
 71
     5
 72
     1
  1
\A1;100
 11
1.000000000000000
 21
0.0000000000000000
 31
0.0000000000000000
  7
STANDARD
  0
ENDBLK
  5
278
100
AcDbEntity
  8
MAIN0
  6
CONTINUOUS
 62
3
100
AcDbBlockEnd
  0
BLOCK
  5
27A
100
AcDbEntity
  8
MAIN0
  6
CONTINUOUS
 62
3
100
AcDbBlockBegin
  2
*D24
 70
    65
 10
0.0
 20
0.0
 30
0.0
  0
LINE
  5
27B
100
AcDbEntity
  8
MAIN0
  6
BYBLOCK
 62
0
100
AcDbLine
 10
274.1891404984332
 20
495.8886233911333
 30
0.0000000000000000
 11
274.1891404984332
 21
568.0886233732518
 31
0.0000000000000000
  0
LINE
  5
27C
100
AcDbEntity
  8
MAIN0
  6
BYBLOCK
 62
0
100
AcDbLine
 10
274.1891404984332
 20
565.0886233732518
 30
0.0000000000000000
 11
284.1891404984332
 21
565.0886233732518
 31
0.0000000000000000
  0
INSERT
  5
27D
100
AcDbEntity
  8
MAIN0
  6
BYBLOCK
 62
0
100
AcDbBlockReference
  2
_OPEN
 10
274.1891404984332
 20
565.0886233732518
 30
0.0000000000000000
 41
3.000000000000000
 42
3.000000000000000
 43
3.000000000000000
 50
0.0000000000000000
  0
INSERT
  5
27E
100
AcDbEntity
  8
MAIN0
  6
BYBLOCK
 62
0
100
AcDbBlockReference
  2
_OPEN
 10
284.1891404984332
 20
565.0886233732518
 30
0.0000000000000000
 41
3.000000000000000
 42
3.000000000000000
 43
3.000000000000000
 50
180.0000000000000
  0
LINE
  5
27F
100
AcDbEntity
  8
MAIN0
  6
BYBLOCK
 62
0
100
AcDbLine
 10
271.1891404984332
 20
565.0886233732518
 30
0.0000000000000000
 11
269.6891404984332
 21
565.0886233732518
 31
0.0000000000000000
  0
LINE
  5
280
100
AcDbEntity
  8
MAIN0
  6
BYBLOCK
 62
0
100
AcDbLine
 10
287.1891404984332
 20
565.0886233732518
 30
0.0000000000000000
 11
310.5616540479082
 21
565.0886233732518
 31
0.0000000000000000
  0
LINE
  5
281
100
AcDbEntity
  8
MAIN0
  6
BYBLOCK
 62
0
100
AcDbLine
 10
284.1891404984332
 20
403.1339228528481
 30
0.0000000000000000
 11
284.1891404984332
 21
568.0886233732518
 31
0.0000000000000000
  0
MTEXT
  5
282
100
AcDbEntity
  8
MAIN0
  6
BYBLOCK
 62
0
100
AcDbMText
 10
299.6116537618059
 20
568.1636233017263
 30
0.0000000000000000
 40
4.649999856948853
 41
0.0000000000000000
 71
     5
 72
     1
  1
\A1;MAX  10
 11
1.000000000000000
 21
0.0000000000000000
 31
0.0000000000000000
  7
STANDARD
  0
ENDBLK
  5
283
100
AcDbEntity
  8
MAIN0
  6
CONTINUOUS
 62
3
100
AcDbBlockEnd
  0
BLOCK
  5
285
100
AcDbEntity
  8
MAIN0
  6
CONTINUOUS
 62
3
100
AcDbBlockBegin
  2
*D25
 70
    65
 10
0.0
 20
0.0
 30
0.0
  0
LINE
  5
286
100
AcDbEntity
  8
MAIN0
  6
BYBLOCK
 62
0
100
AcDbLine
 10
174.1891404984332
 20
535.6886233911333
 30
0.0000000000000000
 11
174.1891404984332
 21
591.1833032951001
 31
0.0000000000000000
  0
LINE
  5
287
100
AcDbEntity
  8
MAIN0
  6
BYBLOCK
 62
0
100
AcDbLine
 10
177.1891404984332
 20
588.1833032951001
 30
0.0000000000000000
 11
281.1891404984332
 21
588.1833032951001
 31
0.0000000000000000
  0
INSERT
  5
288
100
AcDbEntity
  8
MAIN0
  6
BYBLOCK
 62
0
100
AcDbBlockReference
  2
_OPEN
 10
174.1891404984332
 20
588.1833032951001
 30
0.0000000000000000
 41
3.000000000000000
 42
3.000000000000000
 43
3.000000000000000
 50
180.0000000000000
  0
INSERT
  5
289
100
AcDbEntity
  8
MAIN0
  6
BYBLOCK
 62
0
100
AcDbBlockReference
  2
_OPEN
 10
284.1891404984332
 20
588.1833032951001
 30
0.0000000000000000
 41
3.000000000000000
 42
3.000000000000000
 43
3.000000000000000
 50
0.0000000000000000
  0
LINE
  5
28A
100
AcDbEntity
  8
MAIN0
  6
BYBLOCK
 62
0
100
AcDbLine
 10
284.1891404984332
 20
403.1339228528481
 30
0.0000000000000000
 11
284.1891404984332
 21
591.1833032951001
 31
0.0000000000000000
  0
MTEXT
  5
28B
100
AcDbEntity
  8
MAIN0
  6
BYBLOCK
 62
0
100
AcDbMText
 10
229.1891404984332
 20
591.0083032235746
 30
0.0000000000000000
 40
4.649999856948853
 41
0.0000000000000000
 71
     5
 72
     1
  1
\A1;110
 11
1.000000000000000
 21
0.0000000000000000
 31
0.0000000000000000
  7
STANDARD
  0
ENDBLK
  5
28C
100
AcDbEntity
  8
MAIN0
  6
CONTINUOUS
 62
3
100
AcDbBlockEnd
  0
BLOCK
  5
28E
100
AcDbEntity
  8
MAIN0
  6
CONTINUOUS
 62
3
100
AcDbBlockBegin
  2
*D26
 70
    65
 10
0.0
 20
0.0
 30
0.0
  0
LINE
  5
28F
100
AcDbEntity
  8
MAIN0
  6
BYBLOCK
 62
0
100
AcDbLine
 10
213.7601698932264
 20
378.5886233732514
 30
0.0000000000000000
 11
213.7601698932264
 21
391.5886233732514
 31
0.0000000000000000
  0
INSERT
  5
290
100
AcDbEntity
  8
MAIN0
  6
BYBLOCK
 62
0
100
AcDbBlockReference
  2
_OPEN
 10
213.7601698932264
 20
378.5886233732514
 30
0.0000000000000000
 41
3.000000000000000
 42
3.000000000000000
 43
3.000000000000000
 50
90.00000000000000
  0
INSERT
  5
291
100
AcDbEntity
  8
MAIN0
  6
BYBLOCK
 62
0
100
AcDbBlockReference
  2
_OPEN
 10
213.7601698932264
 20
391.5886233732514
 30
0.0000000000000000
 41
3.000000000000000
 42
3.000000000000000
 43
3.000000000000000
 50
270.0000000000000
  0
LINE
  5
292
100
AcDbEntity
  8
MAIN0
  6
BYBLOCK
 62
0
100
AcDbLine
 10
213.7601698932264
 20
375.5886233732514
 30
0.0000000000000000
 11
213.7601698932264
 21
374.0886233732514
 31
0.0000000000000000
  0
LINE
  5
293
100
AcDbEntity
  8
MAIN0
  6
BYBLOCK
 62
0
100
AcDbLine
 10
213.7601698932264
 20
394.5886233732514
 30
0.0000000000000000
 11
213.7601698932264
 21
396.0886233732514
 31
0.0000000000000000
  0
MTEXT
  5
294
100
AcDbEntity
  8
MAIN0
  6
BYBLOCK
 62
0
100
AcDbMText
 10
210.6851699647520
 20
384.7680368668925
 30
0.0000000000000000
 40
4.649999856948853
 41
0.0000000000000000
 71
     5
 72
     1
  1
\A1;\U+220513
 11
6.123233995736766e-017
 21
1.000000000000000
 31
0.0000000000000000
  7
STANDARD
  0
ENDBLK
  5
295
100
AcDbEntity
  8
MAIN0
  6
CONTINUOUS
 62
3
100
AcDbBlockEnd
  0
BLOCK
  5
297
100
AcDbEntity
  8
MAIN0
  6
CONTINUOUS
 62
3
100
AcDbBlockBegin
  2
*D27
 70
    65
 10
0.0
 20
0.0
 30
0.0
  0
LINE
  5
298
100
AcDbEntity
  8
MAIN0
  6
BYBLOCK
 62
0
100
AcDbLine
 10
233.8891405163147
 20
397.5886233732517
 30
0.0000000000000000
 11
248.9059801285279
 21
397.5886233732517
 31
0.0000000000000000
  0
LINE
  5
299
100
AcDbEntity
  8
MAIN0
  6
BYBLOCK
 62
0
100
AcDbLine
 10
245.9059801285279
 20
394.5886233732517
 30
0.0000000000000000
 11
245.9059801285279
 21
375.5886233732517
 31
0.0000000000000000
  0
INSERT
  5
29A
100
AcDbEntity
  8
MAIN0
  6
BYBLOCK
 62
0
100
AcDbBlockReference
  2
_OPEN
 10
245.9059801285279
 20
397.5886233732517
 30
0.0000000000000000
 41
3.000000000000000
 42
3.000000000000000
 43
3.000000000000000
 50
90.00000000000000
  0
INSERT
  5
29B
100
AcDbEntity
  8
MAIN0
  6
BYBLOCK
 62
0
100
AcDbBlockReference
  2
_OPEN
 10
245.9059801285279
 20
372.5886233732517
 30
0.0000000000000000
 41
3.000000000000000
 42
3.000000000000000
 43
3.000000000000000
 50
270.0000000000000
  0
LINE
  5
29C
100
AcDbEntity
  8
MAIN0
  6
BYBLOCK
 62
0
100
AcDbLine
 10
233.8891405163147
 20
372.5886233732517
 30
0.0000000000000000
 11
248.9059801285279
 21
372.5886233732517
 31
0.0000000000000000
  0
MTEXT
  5
29D
100
AcDbEntity
  8
MAIN0
  6
BYBLOCK
 62
0
100
AcDbMText
 10
243.0809802000535
 20
385.0886233732517
 30
0.0000000000000000
 40
4.649999856948853
 41
0.0000000000000000
 71
     5
 72
     1
  1
\A1;\U+220525
 11
6.123233995736766e-017
 21
1.000000000000000
 31
0.0000000000000000
  7
STANDARD
  0
ENDBLK
  5
29E
100
AcDbEntity
  8
MAIN0
  6
CONTINUOUS
 62
3
100
AcDbBlockEnd
  0
BLOCK
  5
2AB
100
AcDbEntity
  8
MAIN0
  6
CONTINUOUS
 62
3
100
AcDbBlockBegin
  2
*D28
 70
    65
 10
0.0
 20
0.0
 30
0.0
  0
LINE
  5
2AC
100
AcDbEntity
  8
MAIN0
  6
BYBLOCK
 62
0
100
AcDbLine
 10
268.8891405163146
 20
512.0886233732518
 30
0.0000000000000000
 11
362.1891404984332
 21
512.0886233732518
 31
0.0000000000000000
  0
LINE
  5
2AD
100
AcDbEntity
  8
MAIN0
  6
BYBLOCK
 62
0
100
AcDbLine
 10
359.1891404984332
 20
509.0886233732518
 30
0.0000000000000000
 11
359.1891404984332
 21
261.0886233732518
 31
0.0000000000000000
  0
INSERT
  5
2AE
100
AcDbEntity
  8
MAIN0
  6
BYBLOCK
 62
0
100
AcDbBlockReference
  2
_OPEN
 10
359.1891404984332
 20
512.0886233732518
 30
0.0000000000000000
 41
3.000000000000000
 42
3.000000000000000
 43
3.000000000000000
 50
90.00000000000000
  0
INSERT
  5
2AF
100
AcDbEntity
  8
MAIN0
  6
BYBLOCK
 62
0
100
AcDbBlockReference
  2
_OPEN
 10
359.1891404984332
 20
258.0886233732518
 30
0.0000000000000000
 41
3.000000000000000
 42
3.000000000000000
 43
3.000000000000000
 50
270.0000000000000
  0
LINE
  5
2B0
100
AcDbEntity
  8
MAIN0
  6
BYBLOCK
 62
0
100
AcDbLine
 10
268.8891405163146
 20
258.0886233732518
 30
0.0000000000000000
 11
362.1891404984332
 21
258.0886233732518
 31
0.0000000000000000
  0
MTEXT
  5
2B1
100
AcDbEntity
  8
MAIN0
  6
BYBLOCK
 62
0
100
AcDbMText
 10
356.3641405699588
 20
385.0886233732518
 30
0.0000000000000000
 40
4.649999856948853
 41
0.0000000000000000
 71
     5
 72
     1
  1
\A1;\U+2205254
 11
6.123233995736766e-017
 21
1.000000000000000
 31
0.0000000000000000
  7
STANDARD
  0
ENDBLK
  5
2B2
100
AcDbEntity
  8
MAIN0
  6
CONTINUOUS
 62
3
100
AcDbBlockEnd
  0
BLOCK
  5
2B7
100
AcDbEntity
  8
MAIN0
  6
CONTINUOUS
 62
3
100
AcDbBlockBegin
  2
*D29
 70
    65
 10
0.0
 20
0.0
 30
0.0
  0
LINE
  5
2B8
100
AcDbEntity
  8
MAIN0
  6
BYBLOCK
 62
0
100
AcDbLine
 10
271.6891404984332
 20
362.5433238936556
 30
0.0000000000000000
 11
271.6891404984332
 21
332.0886233732518
 31
0.0000000000000000
  0
LINE
  5
2B9
100
AcDbEntity
  8
MAIN0
  6
BYBLOCK
 62
0
100
AcDbLine
 10
271.6891404984332
 20
335.0886233732518
 30
0.0000000000000000
 11
284.1891404984332
 21
335.0886233732518
 31
0.0000000000000000
  0
INSERT
  5
2BA
100
AcDbEntity
  8
MAIN0
  6
BYBLOCK
 62
0
100
AcDbBlockReference
  2
_OPEN
 10
271.6891404984332
 20
335.0886233732518
 30
0.0000000000000000
 41
3.000000000000000
 42
3.000000000000000
 43
3.000000000000000
 50
0.0000000000000000
  0
INSERT
  5
2BB
100
AcDbEntity
  8
MAIN0
  6
BYBLOCK
 62
0
100
AcDbBlockReference
  2
_OPEN
 10
284.1891404984332
 20
335.0886233732518
 30
0.0000000000000000
 41
3.000000000000000
 42
3.000000000000000
 43
3.000000000000000
 50
180.0000000000000
  0
LINE
  5
2BC
100
AcDbEntity
  8
MAIN0
  6
BYBLOCK
 62
0
100
AcDbLine
 10
268.6891404984332
 20
335.0886233732518
 30
0.0000000000000000
 11
267.1891404984332
 21
335.0886233732518
 31
0.0000000000000000
  0
LINE
  5
2BD
100
AcDbEntity
  8
MAIN0
  6
BYBLOCK
 62
0
100
AcDbLine
 10
287.1891404984332
 20
335.0886233732518
 30
0.0000000000000000
 11
298.5531757072530
 21
335.0886233732518
 31
0.0000000000000000
  0
LINE
  5
2BE
100
AcDbEntity
  8
MAIN0
  6
BYBLOCK
 62
0
100
AcDbLine
 10
284.1891404984332
 20
367.0433238936554
 30
0.0000000000000000
 11
284.1891404984332
 21
332.0886233732518
 31
0.0000000000000000
  0
MTEXT
  5
2BF
100
AcDbEntity
  8
MAIN0
  6
BYBLOCK
 62
0
100
AcDbMText
 10
293.0781755642018
 20
338.1636233017263
 30
0.0000000000000000
 40
4.649999856948853
 41
0.0000000000000000
 71
     5
 72
     1
  1
\A1;12.5
 11
1.000000000000000
 21
0.0000000000000000
 31
0.0000000000000000
  7
STANDARD
  0
ENDBLK
  5
2C0
100
AcDbEntity
  8
MAIN0
  6
CONTINUOUS
 62
3
100
AcDbBlockEnd
  0
BLOCK
  5
2C2
100
AcDbEntity
  8
MAIN0
  6
CONTINUOUS
 62
3
100
AcDbBlockBegin
  2
*D30
 70
    65
 10
0.0
 20
0.0
 30
0.0
  0
LINE
  5
2C3
100
AcDbEntity
  8
MAIN0
  6
BYBLOCK
 62
0
100
AcDbLine
 10
271.1891404984332
 20
320.0886233732518
 30
0.0000000000000000
 11
233.1891404984332
 21
320.0886233732518
 31
0.0000000000000000
  0
INSERT
  5
2C4
100
AcDbEntity
  8
MAIN0
  6
BYBLOCK
 62
0
100
AcDbBlockReference
  2
_OPEN
 10
274.1891404984332
 20
320.0886233732518
 30
0.0000000000000000
 41
3.000000000000000
 42
3.000000000000000
 43
3.000000000000000
 50
360.0000000000000
  0
INSERT
  5
2C5
100
AcDbEntity
  8
MAIN0
  6
BYBLOCK
 62
0
100
AcDbBlockReference
  2
_OPEN
 10
230.1891404984332
 20
320.0886233732518
 30
0.0000000000000000
 41
3.000000000000000
 42
3.000000000000000
 43
3.000000000000000
 50
180.0000000000000
  0
LINE
  5
2C6
100
AcDbEntity
  8
MAIN0
  6
BYBLOCK
 62
0
100
AcDbLine
 10
230.1891404984332
 20
372.3886233553703
 30
0.0000000000000000
 11
230.1891404984332
 21
317.0886233732518
 31
0.0000000000000000
  0
MTEXT
  5
2C7
100
AcDbEntity
  8
MAIN0
  6
BYBLOCK
 62
0
100
AcDbMText
 10
252.1891404984332
 20
322.9136233017263
 30
0.0000000000000000
 40
4.649999856948853
 41
0.0000000000000000
 71
     5
 72
     1
  1
\A1;44
 11
1.000000000000000
 21
0.0000000000000000
 31
0.0000000000000000
  7
STANDARD
  0
ENDBLK
  5
2C8
100
AcDbEntity
  8
MAIN0
  6
CONTINUOUS
 62
3
100
AcDbBlockEnd
  0
BLOCK
  5
2CA
100
AcDbEntity
  8
MAIN0
  6
CONTINUOUS
 62
3
100
AcDbBlockBegin
  2
*D31
 70
    65
 10
0.0
 20
0.0
 30
0.0
  0
LINE
  5
2CB
100
AcDbEntity
  8
MAIN0
  6
BYBLOCK
 62
0
100
AcDbLine
 10
230.1891404984332
 20
372.3886233553703
 30
0.0000000000000000
 11
230.1891404984332
 21
317.0886233732518
 31
0.0000000000000000
  0
LINE
  5
2CC
100
AcDbEntity
  8
MAIN0
  6
BYBLOCK
 62
0
100
AcDbLine
 10
227.1891404984332
 20
320.0886233732518
 30
0.0000000000000000
 11
202.1891404984332
 21
320.0886233732518
 31
0.0000000000000000
  0
INSERT
  5
2CD
100
AcDbEntity
  8
MAIN0
  6
BYBLOCK
 62
0
100
AcDbBlockReference
  2
_OPEN
 10
230.1891404984332
 20
320.0886233732518
 30
0.0000000000000000
 41
3.000000000000000
 42
3.000000000000000
 43
3.000000000000000
 50
360.0000000000000
  0
INSERT
  5
2CE
100
AcDbEntity
  8
MAIN0
  6
BYBLOCK
 62
0
100
AcDbBlockReference
  2
_OPEN
 10
199.1891404984332
 20
320.0886233732518
 30
0.0000000000000000
 41
3.000000000000000
 42
3.000000000000000
 43
3.000000000000000
 50
180.0000000000000
  0
LINE
  5
2CF
100
AcDbEntity
  8
MAIN0
  6
BYBLOCK
 62
0
100
AcDbLine
 10
199.1891404984332
 20
377.3886233553703
 30
0.0000000000000000
 11
199.1891404984332
 21
317.0886233732518
 31
0.0000000000000000
  0
MTEXT
  5
2D0
100
AcDbEntity
  8
MAIN0
  6
BYBLOCK
 62
0
100
AcDbMText
 10
214.6891404984332
 20
322.9136233017263
 30
0.0000000000000000
 40
4.649999856948853
 41
0.0000000000000000
 71
     5
 72
     1
  1
\A1;31
 11
1.000000000000000
 21
0.0000000000000000
 31
0.0000000000000000
  7
STANDARD
  0
ENDBLK
  5
2D1
100
AcDbEntity
  8
MAIN0
  6
CONTINUOUS
 62
3
100
AcDbBlockEnd
  0
BLOCK
  5
2D3
100
AcDbEntity
  8
MAIN0
  6
CONTINUOUS
 62
3
100
AcDbBlockBegin
  2
*D32
 70
    65
 10
0.0
 20
0.0
 30
0.0
  0
LINE
  5
2D4
100
AcDbEntity
  8
MAIN0
  6
BYBLOCK
 62
0
100
AcDbLine
 10
255.6891404984334
 20
399.7886233911330
 30
0.0000000000000000
 11
255.6891404984332
 21
448.0886233732518
 31
0.0000000000000000
  0
LINE
  5
2D5
100
AcDbEntity
  8
MAIN0
  6
BYBLOCK
 62
0
100
AcDbLine
 10
258.6891404984332
 20
445.0886233732518
 30
0.0000000000000000
 11
281.1891404984332
 21
445.0886233732518
 31
0.0000000000000000
  0
INSERT
  5
2D6
100
AcDbEntity
  8
MAIN0
  6
BYBLOCK
 62
0
100
AcDbBlockReference
  2
_OPEN
 10
255.6891404984333
 20
445.0886233732518
 30
0.0000000000000000
 41
3.000000000000000
 42
3.000000000000000
 43
3.000000000000000
 50
180.0000000000000
  0
INSERT
  5
2D7
100
AcDbEntity
  8
MAIN0
  6
BYBLOCK
 62
0
100
AcDbBlockReference
  2
_OPEN
 10
284.1891404984332
 20
445.0886233732518
 30
0.0000000000000000
 41
3.000000000000000
 42
3.000000000000000
 43
3.000000000000000
 50
0.0000000000000000
  0
LINE
  5
2D8
100
AcDbEntity
  8
MAIN0
  6
BYBLOCK
 62
0
100
AcDbLine
 10
284.1891404984332
 20
403.1339228528481
 30
0.0000000000000000
 11
284.1891404984332
 21
448.0886233732518
 31
0.0000000000000000
  0
MTEXT
  5
2D9
100
AcDbEntity
  8
MAIN0
  6
BYBLOCK
 62
0
100
AcDbMText
 10
266.4378422010090
 20
448.1636233017263
 30
0.0000000000000000
 40
4.649999856948853
 41
0.0000000000000000
 71
     5
 72
     1
  1
\A1;28.5
 11
1.000000000000000
 21
0.0000000000000000
 31
0.0000000000000000
  7
STANDARD
  0
ENDBLK
  5
2DA
100
AcDbEntity
  8
MAIN0
  6
CONTINUOUS
 62
3
100
AcDbBlockEnd
  0
BLOCK
  5
2DE
100
AcDbEntity
  8
MAIN0
  6
CONTINUOUS
 62
3
100
AcDbBlockBegin
  2
*D33
 70
    65
 10
0.0
 20
0.0
 30
0.0
  0
LINE
  5
2DF
100
AcDbEntity
  8
MAIN0
  6
BYBLOCK
 62
0
100
AcDbLine
 10
283.3891405164772
 20
403.0886233732518
 30
0.0000000000000000
 11
317.1891404984332
 21
403.0886233732518
 31
0.0000000000000000
  0
LINE
  5
2E0
100
AcDbEntity
  8
MAIN0
  6
BYBLOCK
 62
0
100
AcDbLine
 10
314.1891404984332
 20
400.0886233732518
 30
0.0000000000000000
 11
314.1891404984332
 21
370.0886233732518
 31
0.0000000000000000
  0
INSERT
  5
2E1
100
AcDbEntity
  8
MAIN0
  6
BYBLOCK
 62
0
100
AcDbBlockReference
  2
_OPEN
 10
314.1891404984332
 20
403.0886233732518
 30
0.0000000000000000
 41
3.000000000000000
 42
3.000000000000000
 43
3.000000000000000
 50
90.00000000000000
  0
INSERT
  5
2E2
100
AcDbEntity
  8
MAIN0
  6
BYBLOCK
 62
0
100
AcDbBlockReference
  2
_OPEN
 10
314.1891404984332
 20
367.0886233732518
 30
0.0000000000000000
 41
3.000000000000000
 42
3.000000000000000
 43
3.000000000000000
 50
270.0000000000000
  0
LINE
  5
2E3
100
AcDbEntity
  8
MAIN0
  6
BYBLOCK
 62
0
100
AcDbLine
 10
283.3891405164772
 20
367.0886233732518
 30
0.0000000000000000
 11
317.1891404984332
 21
367.0886233732518
 31
0.0000000000000000
  0
MTEXT
  5
2E4
100
AcDbEntity
  8
MAIN0
  6
BYBLOCK
 62
0
100
AcDbMText
 10
311.3641405699588
 20
385.0886233732518
 30
0.0000000000000000
 40
4.649999856948853
 41
0.0000000000000000
 71
     5
 72
     1
  1
\A1;\U+220536
 11
6.123233995736766e-017
 21
1.000000000000000
 31
0.0000000000000000
  7
STANDARD
  0
ENDBLK
  5
2E5
100
AcDbEntity
  8
MAIN0
  6
CONTINUOUS
 62
3
100
AcDbBlockEnd
  0
BLOCK
  5
2E9
100
AcDbEntity
  8
MAIN0
  6
CONTINUOUS
 62
3
100
AcDbBlockBegin
  2
*D34
 70
    65
 10
0.0
 20
0.0
 30
0.0
  0
LINE
  5
2EA
100
AcDbEntity
  8
MAIN0
  6
BYBLOCK
 62
0
100
AcDbLine
 10
219.1891404984332
 20
236.3886233553703
 30
0.0000000000000000
 11
219.1891404984332
 21
196.1523717449495
 31
0.0000000000000000
  0
LINE
  5
2EB
100
AcDbEntity
  8
MAIN0
  6
BYBLOCK
 62
0
100
AcDbLine
 10
222.1891404984332
 20
199.1523717449495
 30
0.0000000000000000
 11
271.1891404984332
 21
199.1523717449495
 31
0.0000000000000000
  0
INSERT
  5
2EC
100
AcDbEntity
  8
MAIN0
  6
BYBLOCK
 62
0
100
AcDbBlockReference
  2
_OPEN
 10
219.1891404984332
 20
199.1523717449495
 30
0.0000000000000000
 41
3.000000000000000
 42
3.000000000000000
 43
3.000000000000000
 50
180.0000000000000
  0
INSERT
  5
2ED
100
AcDbEntity
  8
MAIN0
  6
BYBLOCK
 62
0
100
AcDbBlockReference
  2
_OPEN
 10
274.1891404984332
 20
199.1523717449495
 30
0.0000000000000000
 41
3.000000000000000
 42
3.000000000000000
 43
3.000000000000000
 50
0.0000000000000000
  0
LINE
  5
2EE
100
AcDbEntity
  8
MAIN0
  6
BYBLOCK
 62
0
100
AcDbLine
 10
274.1891404984332
 20
274.2886233553704
 30
0.0000000000000000
 11
274.1891404984332
 21
196.1523717449495
 31
0.0000000000000000
  0
MTEXT
  5
2EF
100
AcDbEntity
  8
MAIN0
  6
BYBLOCK
 62
0
100
AcDbMText
 10
246.6891404984332
 20
201.9773716734239
 30
0.0000000000000000
 40
4.649999856948853
 41
0.0000000000000000
 71
     5
 72
     1
  1
\A1;55
 11
1.000000000000000
 21
0.0000000000000000
 31
0.0000000000000000
  7
STANDARD
  0
ENDBLK
  5
2F0
100
AcDbEntity
  8
MAIN0
  6
CONTINUOUS
 62
3
100
AcDbBlockEnd
  0
BLOCK
  5
303
100
AcDbEntity
  8
MAIN0
  6
CONTINUOUS
 62
3
100
AcDbBlockBegin
  2
*D35
 70
    65
 10
0.0
 20
0.0
 30
0.0
  0
LINE
  5
304
100
AcDbEntity
  8
MAIN0
  6
BYBLOCK
 62
0
100
AcDbLine
 10
174.6891403948867
 20
403.1996202798813
 30
0.0000000000000000
 11
174.1891404984332
 21
403.1996202798813
 31
0.0000000000000000
  0
INSERT
  5
305
100
AcDbEntity
  8
MAIN0
  6
BYBLOCK
 62
0
100
AcDbBlockReference
  2
_OPEN
 10
174.6891403948867
 20
403.1996202798813
 30
0.0000000000000000
 41
3.000000000000000
 42
3.000000000000000
 43
3.000000000000000
 50
180.0000000000000
  0
INSERT
  5
306
100
AcDbEntity
  8
MAIN0
  6
BYBLOCK
 62
0
100
AcDbBlockReference
  2
_OPEN
 10
174.1891404984332
 20
403.1996202798813
 30
0.0000000000000000
 41
3.000000000000000
 42
3.000000000000000
 43
3.000000000000000
 50
360.0000000000000
  0
LINE
  5
307
100
AcDbEntity
  8
MAIN0
  6
BYBLOCK
 62
0
100
AcDbLine
 10
177.6891403948867
 20
403.1996202798813
 30
0.0000000000000000
 11
179.1891403948867
 21
403.1996202798813
 31
0.0000000000000000
  0
LINE
  5
308
100
AcDbEntity
  8
MAIN0
  6
BYBLOCK
 62
0
100
AcDbLine
 10
171.1891404984332
 20
403.1996202798813
 30
0.0000000000000000
 11
163.8752279823458
 21
403.1996202798813
 31
0.0000000000000000
  0
MTEXT
  5
309
100
AcDbEntity
  8
MAIN0
  6
BYBLOCK
 62
0
100
AcDbMText
 10
167.7752278392946
 20
406.2746202083558
 30
0.0000000000000000
 40
4.649999856948853
 41
0.0000000000000000
 71
     5
 72
     1
  1
\A1;0.2
 11
1.000000000000000
 21
0.0000000000000000
 31
0.0000000000000000
  7
STANDARD
  0
ENDBLK
  5
30A
100
AcDbEntity
  8
MAIN0
  6
CONTINUOUS
 62
3
100
AcDbBlockEnd
  0
BLOCK
  5
30C
100
AcDbEntity
  8
MAIN0
  6
CONTINUOUS
 62
3
100
AcDbBlockBegin
  2
*D36
 70
    65
 10
0.0
 20
0.0
 30
0.0
  0
LINE
  5
30D
100
AcDbEntity
  8
MAIN0
  6
BYBLOCK
 62
0
100
AcDbLine
 10
172.9891404805518
 20
465.0886233735793
 30
0.0000000000000000
 11
147.3976489000174
 21
465.0886233735793
 31
0.0000000000000000
  0
LINE
  5
30E
100
AcDbEntity
  8
MAIN0
  6
BYBLOCK
 62
0
100
AcDbLine
 10
150.3976489000174
 20
462.0886233735793
 30
0.0000000000000000
 11
150.3976489000174
 21
308.0886233729246
 31
0.0000000000000000
  0
INSERT
  5
30F
100
AcDbEntity
  8
MAIN0
  6
BYBLOCK
 62
0
100
AcDbBlockReference
  2
_OPEN
 10
150.3976489000174
 20
465.0886233735793
 30
0.0000000000000000
 41
3.000000000000000
 42
3.000000000000000
 43
3.000000000000000
 50
90.00000000000000
  0
INSERT
  5
310
100
AcDbEntity
  8
MAIN0
  6
BYBLOCK
 62
0
100
AcDbBlockReference
  2
_OPEN
 10
150.3976489000174
 20
305.0886233729246
 30
0.0000000000000000
 41
3.000000000000000
 42
3.000000000000000
 43
3.000000000000000
 50
270.0000000000000
  0
LINE
  5
311
100
AcDbEntity
  8
MAIN0
  6
BYBLOCK
 62
0
100
AcDbLine
 10
172.9891404805518
 20
305.0886233729246
 30
0.0000000000000000
 11
147.3976489000174
 21
305.0886233729246
 31
0.0000000000000000
  0
MTEXT
  5
312
100
AcDbEntity
  8
MAIN0
  6
BYBLOCK
 62
0
100
AcDbMText
 10
147.5726489715430
 20
385.0886233732520
 30
0.0000000000000000
 40
4.649999856948853
 41
0.0000000000000000
 71
     5
 72
     1
  1
\A1;\U+2205160
 11
6.123233995736766e-017
 21
1.000000000000000
 31
0.0000000000000000
  7
STANDARD
  0
ENDBLK
  5
313
100
AcDbEntity
  8
MAIN0
  6
CONTINUOUS
 62
3
100
AcDbBlockEnd
  0
BLOCK
  5
315
100
AcDbEntity
  8
MAIN0
  6
CONTINUOUS
 62
3
100
AcDbBlockBegin
  2
*D37
 70
    65
 10
0.0
 20
0.0
 30
0.0
  0
LINE
  5
316
100
AcDbEntity
  8
MAIN0
  6
BYBLOCK
 62
0
100
AcDbLine
 10
172.9891404805518
 20
297.0886233732518
 30
0.0000000000000000
 11
147.3976489000174
 21
297.0886233732518
 31
0.0000000000000000
  0
LINE
  5
317
100
AcDbEntity
  8
MAIN0
  6
BYBLOCK
 62
0
100
AcDbLine
 10
150.3976489000174
 20
294.0886233732518
 30
0.0000000000000000
 11
150.3976489000174
 21
286.0886233732518
 31
0.0000000000000000
  0
INSERT
  5
318
100
AcDbEntity
  8
MAIN0
  6
BYBLOCK
 62
0
100
AcDbBlockReference
  2
_OPEN
 10
150.3976489000174
 20
297.0886233732518
 30
0.0000000000000000
 41
3.000000000000000
 42
3.000000000000000
 43
3.000000000000000
 50
90.00000000000000
  0
INSERT
  5
319
100
AcDbEntity
  8
MAIN0
  6
BYBLOCK
 62
0
100
AcDbBlockReference
  2
_OPEN
 10
150.3976489000174
 20
283.0886233732518
 30
0.0000000000000000
 41
3.000000000000000
 42
3.000000000000000
 43
3.000000000000000
 50
270.0000000000000
  0
LINE
  5
31A
100
AcDbEntity
  8
MAIN0
  6
BYBLOCK
 62
0
100
AcDbLine
 10
172.9891404805518
 20
283.0886233732518
 30
0.0000000000000000
 11
147.3976489000174
 21
283.0886233732518
 31
0.0000000000000000
  0
MTEXT
  5
31B
100
AcDbEntity
  8
MAIN0
  6
BYBLOCK
 62
0
100
AcDbMText
 10
147.5726489715430
 20
290.0886233732518
 30
0.0000000000000000
 40
4.649999856948853
 41
0.0000000000000000
 71
     5
 72
     1
  1
\A1;\U+220514
 11
6.123233995736766e-017
 21
1.000000000000000
 31
0.0000000000000000
  7
STANDARD
  0
ENDBLK
  5
31C
100
AcDbEntity
  8
MAIN0
  6
CONTINUOUS
 62
3
100
AcDbBlockEnd
  0
BLOCK
  5
334
100
AcDbEntity
  8
MAIN0
  6
CONTINUOUS
 62
3
100
AcDbBlockBegin
  2
*D38
 70
    65
 10
0.0
 20
0.0
 30
0.0
  0
LINE
  5
335
100
AcDbEntity
  8
MAIN0
  6
BYBLOCK
 62
0
100
AcDbLine
 10
679.1891404984331
 20
236.3886233553704
 30
0.0000000000000000
 11
679.1891404984331
 21
174.4832858320254
 31
0.0000000000000000
  0
LINE
  5
336
100
AcDbEntity
  8
MAIN0
  6
BYBLOCK
 62
0
100
AcDbLine
 10
676.1891404984331
 20
177.4832858320254
 30
0.0000000000000000
 11
602.1891404984333
 21
177.4832858320254
 31
0.0000000000000000
  0
INSERT
  5
337
100
AcDbEntity
  8
MAIN0
  6
BYBLOCK
 62
0
100
AcDbBlockReference
  2
_OPEN
 10
679.1891404984331
 20
177.4832858320254
 30
0.0000000000000000
 41
3.000000000000000
 42
3.000000000000000
 43
3.000000000000000
 50
360.0000000000000
  0
INSERT
  5
338
100
AcDbEntity
  8
MAIN0
  6
BYBLOCK
 62
0
100
AcDbBlockReference
  2
_OPEN
 10
599.1891404984333
 20
177.4832858320254
 30
0.0000000000000000
 41
3.000000000000000
 42
3.000000000000000
 43
3.000000000000000
 50
180.0000000000000
  0
LINE
  5
339
100
AcDbEntity
  8
MAIN0
  6
BYBLOCK
 62
0
100
AcDbLine
 10
599.1891404984333
 20
236.3886233553704
 30
0.0000000000000000
 11
599.1891404984333
 21
174.4832858320254
 31
0.0000000000000000
  0
MTEXT
  5
33A
100
AcDbEntity
  8
MAIN0
  6
BYBLOCK
 62
0
100
AcDbMText
 10
639.1891404984332
 20
180.3082857604999
 30
0.0000000000000000
 40
4.649999856948853
 41
0.0000000000000000
 71
     5
 72
     1
  1
\A1;80
 11
1.000000000000000
 21
0.0000000000000000
 31
0.0000000000000000
  7
STANDARD
  0
ENDBLK
  5
33B
100
AcDbEntity
  8
MAIN0
  6
CONTINUOUS
 62
3
100
AcDbBlockEnd
  0
BLOCK
  5
33D
100
AcDbEntity
  8
MAIN0
  6
CONTINUOUS
 62
3
100
AcDbBlockBegin
  2
*D39
 70
    65
 10
0.0
 20
0.0
 30
0.0
  0
LINE
  5
33E
100
AcDbEntity
  8
MAIN0
  6
BYBLOCK
 62
0
100
AcDbLine
 10
454.1891404984332
 20
382.0886233732518
 30
0.0000000000000000
 11
454.1891404984332
 21
240.5886233732518
 31
0.0000000000000000
  0
INSERT
  5
33F
100
AcDbEntity
  8
MAIN0
  6
BYBLOCK
 62
0
100
AcDbBlockReference
  2
_OPEN
 10
454.1891404984332
 20
385.0886233732518
 30
0.0000000000000000
 41
3.000000000000000
 42
3.000000000000000
 43
3.000000000000000
 50
90.00000000000000
  0
INSERT
  5
340
100
AcDbEntity
  8
MAIN0
  6
BYBLOCK
 62
0
100
AcDbBlockReference
  2
_OPEN
 10
454.1891404984332
 20
237.5886233732518
 30
0.0000000000000000
 41
3.000000000000000
 42
3.000000000000000
 43
3.000000000000000
 50
270.0000000000000
  0
LINE
  5
341
100
AcDbEntity
  8
MAIN0
  6
BYBLOCK
 62
0
100
AcDbLine
 10
597.9891404805518
 20
237.5886233732518
 30
0.0000000000000000
 11
451.1891404984332
 21
237.5886233732518
 31
0.0000000000000000
  0
MTEXT
  5
342
100
AcDbEntity
  8
MAIN0
  6
BYBLOCK
 62
0
100
AcDbMText
 10
451.3641405699588
 20
311.3386233732518
 30
0.0000000000000000
 40
4.649999856948853
 41
0.0000000000000000
 71
     5
 72
     1
  1
\A1;147.5
 11
6.123233995736766e-017
 21
1.000000000000000
 31
0.0000000000000000
  7
STANDARD
  0
ENDBLK
  5
343
100
AcDbEntity
  8
MAIN0
  6
CONTINUOUS
 62
3
100
AcDbBlockEnd
  0
BLOCK
  5
34F
100
AcDbEntity
  8
MAIN0
  6
BYBLOCK
 62
3
100
AcDbBlockBegin
  2
M0
 70
    64
 10
0.0
 20
0.0
 30
0.0
  0
LINE
  5
350
100
AcDbEntity
  8
MAIN0
  6
BYBLOCK
 62
0
100
AcDbLine
 10
698.4600023802564
 20
108.0638586273977
 30
0.0000000000000000
 11
854.5960340144255
 21
108.0638586273977
 31
0.0000000000000000
  0
LINE
  5
351
100
AcDbEntity
  8
MAIN0
  6
BYBLOCK
 62
0
100
AcDbLine
 10
698.4600023802564
 20
100.5638586273977
 30
0.0000000000000000
 11
854.5960340144338
 21
100.5638586273977
 31
0.0000000000000000
  0
MTEXT
  5
352
100
AcDbEntity
  8
MAIN0
  6
BYBLOCK
 62
0
100
AcDbMText
 10
699.7483088009648
 20
128.6186364134339
 30
0.0000000000000000
 40
7.500000000000000
 41
0.0000000000000000
 71
     1
 72
     1
  1
{\H0.63x;NOTICE}
 11
1.000000000000000
 21
0.0000000000000000
 31
0.0000000000000000
  7
STANDARD
  0
LINE
  5
353
100
AcDbEntity
  8
MAIN0
  6
BYBLOCK
 62
0
100
AcDbLine
 10
728.4600023802560
 20
131.3138586273982
 30
0.0000000000000000
 11
728.4600023802560
 21
117.8138586273982
 31
0.0000000000000000
  0
LINE
  5
354
100
AcDbEntity
  8
MAIN0
  6
BYBLOCK
 62
0
100
AcDbLine
 10
698.4600023802564
 20
117.8138586273982
 30
0.0000000000000000
 11
728.4600023802560
 21
117.8138586273982
 31
0.0000000000000000
  0
LINE
  5
355
100
AcDbEntity
  8
MAIN0
  6
BYBLOCK
 62
0
100
AcDbLine
 10
698.4600023802564
 20
131.3138586273982
 30
0.0000000000000000
 11
698.4600023802564
 21
117.8138586273982
 31
0.0000000000000000
  0
LINE
  5
356
100
AcDbEntity
  8
MAIN0
  6
BYBLOCK
 62
0
100
AcDbLine
 10
698.4600023802564
 20
131.3138586273982
 30
0.0000000000000000
 11
728.4600023802560
 21
131.3138586273982
 31
0.0000000000000000
  0
ENDBLK
  5
357
100
AcDbEntity
  8
MAIN0
  6
BYBLOCK
 62
3
100
AcDbBlockEnd
  0
BLOCK
  5
359
100
AcDbEntity
  8
MAIN0
  6
BYBLOCK
 62
3
100
AcDbBlockBegin
  2
M1
 70
    64
 10
0.0
 20
0.0
 30
0.0
  0
LINE
  5
35A
100
AcDbEntity
  8
MAIN0
  6
BYBLOCK
 62
0
100
AcDbLine
 10
698.4600023802566
 20
157.7620714307627
 30
0.0000000000000000
 11
848.2020433837757
 21
157.7620714307627
 31
0.0000000000000000
  0
LINE
  5
35B
100
AcDbEntity
  8
MAIN0
  6
BYBLOCK
 62
0
100
AcDbLine
 10
698.4600023802566
 20
150.2620714307628
 30
0.0000000000000000
 11
848.2020433837757
 21
150.2620714307628
 31
0.0000000000000000
  0
MTEXT
  5
35C
100
AcDbEntity
  8
MAIN0
  6
BYBLOCK
 62
0
100
AcDbMText
 10
700.7100023802566
 20
178.7620714307632
 30
0.0000000000000000
 40
9.000000000000000
 41
0.0000000000000000
 71
     1
 72
     1
  1
{\H0.80x;要注意}
 11
1.000000000000000
 21
0.0000000000000000
 31
0.0000000000000000
  7
KNJYOKO
  0
LINE
  5
35D
100
AcDbEntity
  8
MAIN0
  6
BYBLOCK
 62
0
100
AcDbLine
 10
728.4600023802566
 20
181.0120714307632
 30
0.0000000000000000
 11
728.4600023802566
 21
167.5120714307632
 31
0.0000000000000000
  0
LINE
  5
35E
100
AcDbEntity
  8
MAIN0
  6
BYBLOCK
 62
0
100
AcDbLine
 10
698.4600023802566
 20
167.5120714307632
 30
0.0000000000000000
 11
728.4600023802566
 21
167.5120714307632
 31
0.0000000000000000
  0
LINE
  5
35F
100
AcDbEntity
  8
MAIN0
  6
BYBLOCK
 62
0
100
AcDbLine
 10
698.4600023802566
 20
181.0120714307632
 30
0.0000000000000000
 11
698.4600023802566
 21
167.5120714307632
 31
0.0000000000000000
  0
LINE
  5
360
100
AcDbEntity
  8
MAIN0
  6
BYBLOCK
 62
0
100
AcDbLine
 10
698.4600023802566
 20
181.0120714307632
 30
0.0000000000000000
 11
728.4600023802566
 21
181.0120714307632
 31
0.0000000000000000
  0
ENDBLK
  5
361
100
AcDbEntity
  8
MAIN0
  6
BYBLOCK
 62
3
100
AcDbBlockEnd
  0
BLOCK
  5
364
100
AcDbEntity
  8
MAIN0
  6
BYBLOCK
 62
3
100
AcDbBlockBegin
  2
*X0
 70
     1
 10
0.0
 20
0.0
 30
0.0
  0
LINE
  5
365
100
AcDbEntity
  8
MAIN0
  6
BYBLOCK
 62
0
100
AcDbLine
 10
249.6284803266545
 20
407.5886233732524
 30
0.0000000000000000
 11
250.6891404984350
 21
408.6492835450333
 31
0.0000000000000000
  0
LINE
  5
366
100
AcDbEntity
  8
MAIN0
  6
BYBLOCK
 62
0
100
AcDbLine
 10
248.5678201548755
 20
407.5886233732522
 30
0.0000000000000000
 11
250.0678201548755
 21
409.0886233732523
 31
0.0000000000000000
  0
LINE
  5
367
100
AcDbEntity
  8
MAIN0
  6
BYBLOCK
 62
0
100
AcDbLine
 10
247.5071599830954
 20
407.5886233732514
 30
0.0000000000000000
 11
249.0071599830936
 21
409.0886233732500
 31
0.0000000000000000
  0
LINE
  5
368
100
AcDbEntity
  8
MAIN0
  6
BYBLOCK
 62
0
100
AcDbLine
 10
246.4464998113172
 20
407.5886233732523
 30
0.0000000000000000
 11
248.4891404984319
 21
409.6312640603675
 31
0.0000000000000000
  0
LINE
  5
369
100
AcDbEntity
  8
MAIN0
  6
BYBLOCK
 62
0
100
AcDbLine
 10
245.3858396395377
 20
407.5886233732514
 30
0.0000000000000000
 11
248.3155768064378
 21
410.5183605389115
 31
0.0000000000000000
  0
LINE
  5
36A
100
AcDbEntity
  8
MAIN0
  6
BYBLOCK
 62
0
100
AcDbLine
 10
244.3251794677591
 20
407.5886233732523
 30
0.0000000000000000
 11
247.3251794677582
 21
410.5886233732510
 31
0.0000000000000000
  0
LINE
  5
36B
100
AcDbEntity
  8
MAIN0
  6
BYBLOCK
 62
0
100
AcDbLine
 10
244.1891404984327
 20
408.5132445757055
 30
0.0000000000000000
 11
246.2645192959795
 21
410.5886233732518
 31
0.0000000000000000
  0
LINE
  5
36C
100
AcDbEntity
  8
MAIN0
  6
BYBLOCK
 62
0
100
AcDbLine
 10
244.1891404984336
 20
409.5739047474850
 30
0.0000000000000000
 11
245.2038591242000
 21
410.5886233732514
 31
0.0000000000000000
  0
ENDBLK
  5
36D
100
AcDbEntity
  8
MAIN0
  6
BYBLOCK
 62
3
100
AcDbBlockEnd
  0
BLOCK
  5
36F
100
AcDbEntity
  8
MAIN0
  6
BYBLOCK
 62
3
100
AcDbBlockBegin
  2
*X1
 70
     1
 10
0.0
 20
0.0
 30
0.0
  0
LINE
  5
370
100
AcDbEntity
  8
MAIN0
  6
BYBLOCK
 62
0
100
AcDbLine
 10
249.6284803266545
 20
362.5886233732513
 30
0.0000000000000000
 11
250.6891404984350
 21
361.5279632014704
 31
0.0000000000000000
  0
LINE
  5
371
100
AcDbEntity
  8
MAIN0
  6
BYBLOCK
 62
0
100
AcDbLine
 10
248.5678201548755
 20
362.5886233732514
 30
0.0000000000000000
 11
250.0678201548755
 21
361.0886233732514
 31
0.0000000000000000
  0
LINE
  5
372
100
AcDbEntity
  8
MAIN0
  6
BYBLOCK
 62
0
100
AcDbLine
 10
247.5071599830954
 20
362.5886233732523
 30
0.0000000000000000
 11
249.0071599830936
 21
361.0886233732537
 31
0.0000000000000000
  0
LINE
  5
373
100
AcDbEntity
  8
MAIN0
  6
BYBLOCK
 62
0
100
AcDbLine
 10
246.4464998113172
 20
362.5886233732514
 30
0.0000000000000000
 11
248.4891404984319
 21
360.5459826861361
 31
0.0000000000000000
  0
LINE
  5
374
100
AcDbEntity
  8
MAIN0
  6
BYBLOCK
 62
0
100
AcDbLine
 10
245.3858396395377
 20
362.5886233732522
 30
0.0000000000000000
 11
248.3155768064378
 21
359.6588862075922
 31
0.0000000000000000
  0
LINE
  5
375
100
AcDbEntity
  8
MAIN0
  6
BYBLOCK
 62
0
100
AcDbLine
 10
244.3251794677591
 20
362.5886233732514
 30
0.0000000000000000
 11
247.3251794677582
 21
359.5886233732527
 31
0.0000000000000000
  0
LINE
  5
376
100
AcDbEntity
  8
MAIN0
  6
BYBLOCK
 62
0
100
AcDbLine
 10
244.1891404984327
 20
361.6640021707982
 30
0.0000000000000000
 11
246.2645192959795
 21
359.5886233732518
 31
0.0000000000000000
  0
LINE
  5
377
100
AcDbEntity
  8
MAIN0
  6
BYBLOCK
 62
0
100
AcDbLine
 10
244.1891404984336
 20
360.6033419990187
 30
0.0000000000000000
 11
245.2038591242000
 21
359.5886233732523
 31
0.0000000000000000
  0
ENDBLK
  5
378
100
AcDbEntity
  8
MAIN0
  6
BYBLOCK
 62
3
100
AcDbBlockEnd
  0
ENDSEC
  0
SECTION
  2
ENTITIES
  0
CIRCLE
  5
46
100
AcDbEntity
  8
MAIN0
  6
CENTER
 62
3
100
AcDbCircle
 10
639.1891404984331
 20
385.0886233732518
 30
0.0000000000000000
 40
140.0000000000000
  0
CIRCLE
  5
47
100
AcDbEntity
  8
MAIN0
  6
CONTINUOUS
 62
3
100
AcDbCircle
 10
779.1891404984331
 20
385.0886233732518
 30
0.0000000000000000
 40
6.000000000000000
  0
CIRCLE
  5
48
100
AcDbEntity
  8
MAIN0
  6
CONTINUOUS
 62
3
100
AcDbCircle
 10
779.1891404984331
 20
385.0886233732518
 30
0.0000000000000000
 40
5.100000000000000
  0
CIRCLE
  5
49
100
AcDbEntity
  8
MAIN0
  6
CONTINUOUS
 62
3
100
AcDbCircle
 10
499.1891404984332
 20
385.0886233732518
 30
0.0000000000000000
 40
6.000000000000000
  0
CIRCLE
  5
4A
100
AcDbEntity
  8
MAIN0
  6
CONTINUOUS
 62
3
100
AcDbCircle
 10
499.1891404984332
 20
385.0886233732518
 30
0.0000000000000000
 40
5.100000000000000
  0
LINE
  5
4B
100
AcDbEntity
  8
MAIN0
  6
CENTER
 62
3
100
AcDbLine
 10
731.1651082336589
 20
477.0645911084068
 30
0.0000000000000000
 11
744.5629468917142
 21
490.4624297664518
 31
0.0000000000000000
  0
LINE
  5
4C
100
AcDbEntity
  8
MAIN0
  6
CENTER
 62
3
100
AcDbLine
 10
703.7663370609979
 20
496.9396088299751
 30
0.0000000000000000
 11
713.4710521481131
 21
513.7486684338387
 31
0.0000000000000000
  0
CIRCLE
  5
4D
100
AcDbEntity
  8
MAIN0
  6
CONTINUOUS
 62
3
100
AcDbCircle
 10
738.1840898645878
 20
484.0835727393304
 30
0.0000000000000000
 40
6.500000000000000
  0
CIRCLE
  5
4E
100
AcDbEntity
  8
MAIN0
  6
CONTINUOUS
 62
3
100
AcDbCircle
 10
709.1891404984337
 20
506.3321799030729
 30
0.0000000000000000
 40
6.000000000000000
  0
CIRCLE
  5
4F
100
AcDbEntity
  8
MAIN0
  6
CONTINUOUS
 62
3
100
AcDbCircle
 10
709.1891404984337
 20
506.3321799030729
 30
0.0000000000000000
 40
5.100000000000000
  0
LINE
  5
50
100
AcDbEntity
  8
MAIN0
  6
CENTER
 62
3
100
AcDbLine
 10
574.2418409198027
 20
497.5806460578375
 30
0.0000000000000000
 11
564.9072288487542
 21
513.7486684338394
 31
0.0000000000000000
  0
CIRCLE
  5
51
100
AcDbEntity
  8
MAIN0
  6
CONTINUOUS
 62
3
100
AcDbCircle
 10
569.1891404984337
 20
506.3321799030736
 30
0.0000000000000000
 40
6.000000000000000
  0
CIRCLE
  5
52
100
AcDbEntity
  8
MAIN0
  6
CONTINUOUS
 62
3
100
AcDbCircle
 10
569.1891404984337
 20
506.3321799030736
 30
0.0000000000000000
 40
5.100000000000000
  0
LINE
  5
53
100
AcDbEntity
  8
MAIN0
  6
CENTER
 62
3
100
AcDbLine
 10
573.9019208449242
 20
272.3653617013962
 30
0.0000000000000000
 11
564.5673087738755
 21
256.1973393253945
 31
0.0000000000000000
  0
CIRCLE
  5
54
100
AcDbEntity
  8
MAIN0
  6
CONTINUOUS
 62
3
100
AcDbCircle
 10
568.8492204235549
 20
263.6138278561602
 30
0.0000000000000000
 40
6.000000000000000
  0
CIRCLE
  5
55
100
AcDbEntity
  8
MAIN0
  6
CONTINUOUS
 62
3
100
AcDbCircle
 10
568.8492204235549
 20
263.6138278561602
 30
0.0000000000000000
 40
5.100000000000000
  0
LINE
  5
56
100
AcDbEntity
  8
MAIN0
  6
CENTER
 62
3
100
AcDbLine
 10
704.7330297728347
 20
271.5632770243169
 30
0.0000000000000000
 11
713.9584788073848
 21
255.5843305738383
 31
0.0000000000000000
  0
LINE
  5
57
100
AcDbEntity
  8
MAIN0
  6
CENTER
 62
3
100
AcDbLine
 10
547.2131727632781
 20
477.0645911084775
 30
0.0000000000000000
 11
533.8153341052330
 21
490.4624297665330
 31
0.0000000000000000
  0
CIRCLE
  5
58
100
AcDbEntity
  8
MAIN0
  6
CONTINUOUS
 62
3
100
AcDbCircle
 10
540.1941911323545
 20
484.0835727394066
 30
0.0000000000000000
 40
6.500000000000000
  0
LINE
  5
59
100
AcDbEntity
  8
MAIN0
  6
CENTER
 62
3
100
AcDbLine
 10
547.2131727632074
 20
293.1126556380968
 30
0.0000000000000000
 11
533.8153341051519
 21
279.7148169800518
 31
0.0000000000000000
  0
CIRCLE
  5
5A
100
AcDbEntity
  8
MAIN0
  6
CONTINUOUS
 62
3
100
AcDbCircle
 10
540.1941911322783
 20
286.0936740071733
 30
0.0000000000000000
 40
6.500000000000000
  0
LINE
  5
5B
100
AcDbEntity
  8
MAIN0
  6
CENTER
 62
3
100
AcDbLine
 10
731.6378951852086
 20
292.6398686864052
 30
0.0000000000000000
 11
744.5629468916333
 21
279.7148169799705
 31
0.0000000000000000
  0
CIRCLE
  5
5C
100
AcDbEntity
  8
MAIN0
  6
CONTINUOUS
 62
3
100
AcDbCircle
 10
738.1840898645116
 20
286.0936740070971
 30
0.0000000000000000
 40
6.500000000000000
  0
ARC
  5
5D
100
AcDbEntity
  8
MAIN0
  6
CENTER
 62
3
100
AcDbCircle
 10
639.1891404984333
 20
385.0886233732518
 30
0.0000000000000000
 40
95.00000000000000
100
AcDbArc
 50
227.6249489434929
 51
289.5104870117814
  0
LINE
  5
5E
100
AcDbEntity
  8
MAIN0
  6
CENTER
 62
3
100
AcDbLine
 10
447.4595907708901
 20
385.0886233732518
 30
0.0000000000000000
 11
823.7502085295640
 21
385.0886233732518
 31
0.0000000000000000
  0
CIRCLE
  5
5F
100
AcDbEntity
  8
MAIN0
  6
CONTINUOUS
 62
3
100
AcDbCircle
 10
639.1891404984331
 20
385.0886233732518
 30
0.0000000000000000
 40
127.0000000000000
  0
CIRCLE
  5
60
100
AcDbEntity
  8
MAIN0
  6
CONTINUOUS
 62
3
100
AcDbCircle
 10
639.1891404984331
 20
385.0886233732518
 30
0.0000000000000000
 40
22.50000000000000
  0
MTEXT
  5
61
100
AcDbEntity
  8
MAIN0
  6
CONTINUOUS
 62
3
100
AcDbMText
 10
652.9347592538553
 20
231.9337806274227
 30
0.0000000000000000
 40
6.000000000000000
 41
0.0000000000000000
 71
     1
 72
     1
  1
{\H0.84x;{押}}
 11
1.000000000000000
 21
0.0000000000000000
 31
0.0000000000000000
  7
KNJYOKO
  0
MTEXT
  5
62
100
AcDbEntity
  8
MAIN0
  6
CONTINUOUS
 62
3
100
AcDbMText
 10
620.6314685487246
 20
232.6476614801843
 30
0.0000000000000000
 40
6.000000000000000
 41
0.0000000000000000
 71
     1
 72
     1
  1
{\H0.84x;{引}}
 11
1.000000000000000
 21
0.0000000000000000
 31
0.0000000000000000
  7
KNJYOKO
  0
ARC
  5
63
100
AcDbEntity
  8
MAIN0
  6
CENTER
 62
3
100
AcDbCircle
 10
639.1891404984331
 20
385.0886233732518
 30
0.0000000000000000
 40
85.70000000000000
100
AcDbArc
 50
244.4646256567017
 51
293.6060297720466
  0
LINE
  5
64
100
AcDbEntity
  8
MAIN0
  6
CENTER
 62
3
100
AcDbLine
 10
658.5539747361844
 20
312.8180781238140
 30
0.0000000000000000
 11
664.3890082830619
 21
291.0414364630593
 31
0.0000000000000000
  0
LINE
  5
65
100
AcDbEntity
  8
MAIN0
  6
CENTER
 62
3
100
AcDbLine
 10
619.8243062606819
 20
312.8180781238140
 30
0.0000000000000000
 11
613.9892727138044
 21
291.0414364630593
 31
0.0000000000000000
  0
CIRCLE
  5
66
100
AcDbEntity
  8
MAIN0
  6
CONTINUOUS
 62
3
100
AcDbCircle
 10
661.3699326652263
 20
302.3087800606826
 30
0.0000000000000000
 40
8.000000000000000
  0
CIRCLE
  5
67
100
AcDbEntity
  8
MAIN0
  6
CONTINUOUS
 62
3
100
AcDbCircle
 10
661.3699326652263
 20
302.3087800606826
 30
0.0000000000000000
 40
7.000000000000000
  0
CIRCLE
  5
68
100
AcDbEntity
  8
MAIN0
  6
CONTINUOUS
 62
3
100
AcDbCircle
 10
617.0083483316399
 20
302.3087800606825
 30
0.0000000000000000
 40
8.000000000000000
  0
CIRCLE
  5
69
100
AcDbEntity
  8
MAIN0
  6
CONTINUOUS
 62
3
100
AcDbCircle
 10
617.0083483316399
 20
302.3087800606825
 30
0.0000000000000000
 40
7.000000000000000
  0
LINE
  5
6A
100
AcDbEntity
  8
MAIN0
  6
CENTER
 62
3
100
AcDbLine
 10
692.0948515109236
 20
437.9943343879380
 30
0.0000000000000000
 11
729.6491914530445
 21
475.5486743301113
 31
0.0000000000000000
  0
CIRCLE
  5
6B
100
AcDbEntity
  8
MAIN0
  6
CONTINUOUS
 62
3
100
AcDbCircle
 10
699.7881916450170
 20
445.6876745220422
 30
0.0000000000000000
 40
7.000000000000000
  0
CIRCLE
  5
6C
100
AcDbEntity
  8
MAIN0
  6
CONTINUOUS
 62
3
100
AcDbCircle
 10
699.7881916450170
 20
445.6876745220422
 30
0.0000000000000000
 40
8.000000000000000
  0
ARC
  5
6D
100
AcDbEntity
  8
MAIN0
  6
CENTER
 62
3
100
AcDbCircle
 10
639.1891404984333
 20
385.0886233732517
 30
0.0000000000000000
 40
85.70000000000000
100
AcDbArc
 50
6.206626911045424
 51
69.29843040201602
  0
LINE
  5
6E
100
AcDbEntity
  8
MAIN0
  6
CENTER
 62
3
100
AcDbLine
 10
711.4596857486748
 20
404.4534576080034
 30
0.0000000000000000
 11
733.2363274094378
 21
410.2884911548504
 31
0.0000000000000000
  0
CIRCLE
  5
6F
100
AcDbEntity
  8
MAIN0
  6
CONTINUOUS
 62
3
100
AcDbCircle
 10
721.9689838118103
 20
407.2694155370307
 30
0.0000000000000000
 40
7.000000000000000
  0
CIRCLE
  5
70
100
AcDbEntity
  8
MAIN0
  6
CONTINUOUS
 62
3
100
AcDbCircle
 10
721.9689838118103
 20
407.2694155370307
 30
0.0000000000000000
 40
8.000000000000000
  0
LINE
  5
71
100
AcDbEntity
  8
MAIN0
  6
CENTER
 62
3
100
AcDbLine
 10
566.9185952481917
 20
404.4534576080037
 30
0.0000000000000000
 11
545.1419535874288
 21
410.2884911548507
 31
0.0000000000000000
  0
CIRCLE
  5
72
100
AcDbEntity
  8
MAIN0
  6
CONTINUOUS
 62
3
100
AcDbCircle
 10
556.4092971850563
 20
407.2694155370308
 30
0.0000000000000000
 40
7.000000000000000
  0
CIRCLE
  5
73
100
AcDbEntity
  8
MAIN0
  6
CONTINUOUS
 62
3
100
AcDbCircle
 10
556.4092971850563
 20
407.2694155370308
 30
0.0000000000000000
 40
8.000000000000000
  0
LINE
  5
74
100
AcDbEntity
  8
MAIN0
  6
CENTER
 62
3
100
AcDbLine
 10
586.2834294859429
 20
437.9943343879381
 30
0.0000000000000000
 11
570.3418213720576
 21
453.9359425018457
 31
0.0000000000000000
  0
CIRCLE
  5
75
100
AcDbEntity
  8
MAIN0
  6
CONTINUOUS
 62
3
100
AcDbCircle
 10
578.5900893518494
 20
445.6876745220424
 30
0.0000000000000000
 40
7.000000000000000
  0
CIRCLE
  5
76
100
AcDbEntity
  8
MAIN0
  6
CONTINUOUS
 62
3
100
AcDbCircle
 10
578.5900893518494
 20
445.6876745220424
 30
0.0000000000000000
 40
8.000000000000000
  0
CIRCLE
  5
77
100
AcDbEntity
  8
MAIN0
  6
CONTINUOUS
 62
3
100
AcDbCircle
 10
709.5290605733114
 20
263.6138278561602
 30
0.0000000000000000
 40
6.000000000000000
  0
CIRCLE
  5
78
100
AcDbEntity
  8
MAIN0
  6
CONTINUOUS
 62
3
100
AcDbCircle
 10
709.5290605733114
 20
263.6138278561602
 30
0.0000000000000000
 40
5.100000000000000
  0
CIRCLE
  5
79
100
AcDbEntity
  8
MAIN0
  6
CONTINUOUS
 62
3
100
AcDbCircle
 10
639.1891404984332
 20
385.0886233732518
 30
0.0000000000000000
 40
11.00000000000000
  0
CIRCLE
  5
7A
100
AcDbEntity
  8
MAIN0
  6
CONTINUOUS
 62
3
100
AcDbCircle
 10
639.1891404984332
 20
385.0886233732518
 30
0.0000000000000000
 40
9.750000000000000
  0
ARC
  5
7B
100
AcDbEntity
  8
MAIN0
  6
CONTINUOUS
 62
3
100
AcDbCircle
 10
639.1891404984331
 20
385.0886233732518
 30
0.0000000000000000
 40
150.0000000000000
100
AcDbArc
 50
285.4660099534206
 51
614.5339900465795
  0
ARC
  5
7C
100
AcDbEntity
  8
MAIN0
  6
CONTINUOUS
 62
3
100
AcDbCircle
 10
639.1891404984331
 20
385.0886233732518
 30
0.0000000000000000
 40
150.0000000000000
100
AcDbArc
 50
259.5246861567706
 51
280.4753138432294
  0
CIRCLE
  5
7D
100
AcDbEntity
  8
MAIN0
  6
CONTINUOUS
 62
3
100
AcDbCircle
 10
639.1891404984332
 20
385.0886233732518
 30
0.0000000000000000
 40
6.499999999995416
  0
CIRCLE
  5
7E
100
AcDbEntity
  8
MAIN0
  6
CONTINUOUS
 62
3
100
AcDbCircle
 10
639.1891404984332
 20
385.0886233732518
 30
0.0000000000000000
 40
6.000000000000000
  0
LINE
  5
7F
100
AcDbEntity
  8
MAIN0
  6
PHANTOM
 62
3
100
AcDbLine
 10
636.0891404984332
 20
385.0886233732518
 30
0.0000000000000000
 11
642.2891404984332
 21
385.0886233732518
 31
0.0000000000000000
  0
LINE
  5
80
100
AcDbEntity
  8
MAIN0
  6
PHANTOM
 62
3
100
AcDbLine
 10
636.0891404984332
 20
385.0886233732518
 30
0.0000000000000000
 11
639.1891404984331
 21
386.8784092077398
 31
0.0000000000000000
  0
LINE
  5
81
100
AcDbEntity
  8
MAIN0
  6
PHANTOM
 62
3
100
AcDbLine
 10
639.1891404984332
 20
386.8784092077397
 30
0.0000000000000000
 11
642.2891404984332
 21
385.0886233732518
 31
0.0000000000000000
  0
LINE
  5
82
100
AcDbEntity
  8
MAIN0
  6
PHANTOM
 62
3
100
AcDbLine
 10
642.2891404984332
 20
379.9515035576353
 30
0.0000000000000000
 11
642.2891404984332
 21
385.0886233732518
 31
0.0000000000000000
  0
LINE
  5
83
100
AcDbEntity
  8
MAIN0
  6
PHANTOM
 62
3
100
AcDbLine
 10
636.0891404984332
 20
379.9515035576352
 30
0.0000000000000000
 11
636.0891404984332
 21
385.0886233732518
 31
0.0000000000000000
  0
CIRCLE
  5
84
100
AcDbEntity
  8
MAIN0
  6
CONTINUOUS
 62
3
100
AcDbCircle
 10
639.1891404984331
 20
385.0886233732518
 30
0.0000000000000000
 40
18.00000000000000
  0
LINE
  5
85
100
AcDbEntity
  8
MAIN0
  6
CENTER
 62
3
100
AcDbLine
 10
603.3251404981726
 20
293.0410813094274
 30
0.0000000000000000
 11
675.0531404986937
 21
293.0410813094273
 31
0.0000000000000000
  0
LINE
  5
86
100
AcDbEntity
  8
MAIN0
  6
HIDDEN
 62
3
100
AcDbLine
 10
659.5891404984496
 20
242.8186536103825
 30
0.0000000000000000
 11
659.5891404984242
 21
335.7908930497636
 31
0.0000000000000000
  0
LINE
  5
87
100
AcDbEntity
  8
MAIN0
  6
HIDDEN
 62
3
100
AcDbLine
 10
665.7891404984243
 20
335.7908930497712
 30
0.0000000000000000
 11
665.7891404984496
 21
242.8186536103847
 31
0.0000000000000000
  0
CIRCLE
  5
88
100
AcDbEntity
  8
MAIN0
  6
HIDDEN
 62
3
100
AcDbCircle
 10
662.6891404986936
 20
293.0410813094273
 30
0.0000000000000000
 40
4.283000000000000
  0
CIRCLE
  5
89
100
AcDbEntity
  8
MAIN0
  6
HIDDEN
 62
3
100
AcDbCircle
 10
662.6891404986936
 20
293.0410813094273
 30
0.0000000000000000
 40
4.864000000000000
  0
CIRCLE
  5
8A
100
AcDbEntity
  8
MAIN0
  6
HIDDEN
 62
3
100
AcDbCircle
 10
615.6891404984332
 20
268.9421641073751
 30
0.0000000000000000
 40
2.500000000000000
  0
LINE
  5
8B
100
AcDbEntity
  8
MAIN0
  6
CENTER
 62
3
100
AcDbLine
 10
623.6891404984332
 20
268.9421641073751
 30
0.0000000000000000
 11
607.6891404984332
 21
268.9421641073751
 31
0.0000000000000000
  0
ARC
  5
8C
100
AcDbEntity
  8
MAIN0
  6
CENTER
 62
3
100
AcDbCircle
 10
639.1891404984331
 20
385.0886233732518
 30
0.0000000000000000
 40
118.5000000000000
100
AcDbArc
 50
254.7126443038199
 51
263.0907021609201
  0
LINE
  5
8D
100
AcDbEntity
  8
MAIN0
  6
HIDDEN
 62
3
100
AcDbLine
 10
618.7891404984155
 20
242.8186536103826
 30
0.0000000000000000
 11
618.7891404984343
 21
298.9186536103809
 31
0.0000000000000000
  0
LINE
  5
8E
100
AcDbEntity
  8
MAIN0
  6
HIDDEN
 62
3
100
AcDbLine
 10
612.5891404984343
 20
298.9186536103830
 30
0.0000000000000000
 11
612.5891404984154
 21
242.8186536103847
 31
0.0000000000000000
  0
LINE
  5
8F
100
AcDbEntity
  8
MAIN0
  6
HIDDEN
 62
3
100
AcDbLine
 10
618.7891404984329
 20
298.9408930497660
 30
0.0000000000000000
 11
612.5891404984329
 21
298.9408930497681
 31
0.0000000000000000
  0
LINE
  5
90
100
AcDbEntity
  8
MAIN0
  6
HIDDEN
 62
3
100
AcDbLine
 10
615.6891404984335
 20
300.7306788842550
 30
0.0000000000000000
 11
612.5891404984329
 21
298.9408930497683
 31
0.0000000000000000
  0
LINE
  5
91
100
AcDbEntity
  8
MAIN0
  6
HIDDEN
 62
3
100
AcDbLine
 10
618.7891404984327
 20
298.9408930497661
 30
0.0000000000000000
 11
615.6891404984334
 21
300.7306788842550
 31
0.0000000000000000
  0
CIRCLE
  5
92
100
AcDbEntity
  8
MAIN0
  6
HIDDEN
 62
3
100
AcDbCircle
 10
615.6891404981725
 20
293.0410813094273
 30
0.0000000000000000
 40
4.864000000000000
  0
CIRCLE
  5
93
100
AcDbEntity
  8
MAIN0
  6
HIDDEN
 62
3
100
AcDbCircle
 10
615.6891404981725
 20
293.0410813094273
 30
0.0000000000000000
 40
4.283000000000000
  0
CIRCLE
  5
94
100
AcDbEntity
  8
MAIN0
  6
HIDDEN
 62
3
100
AcDbCircle
 10
662.6891404981834
 20
331.9404890708245
 30
0.0000000000000000
 40
2.500000000000000
  0
LINE
  5
95
100
AcDbEntity
  8
MAIN0
  6
CENTER
 62
3
100
AcDbLine
 10
668.1891404981834
 20
331.9404890708245
 30
0.0000000000000000
 11
657.1891404981834
 21
331.9404890708245
 31
0.0000000000000000
  0
LINE
  5
96
100
AcDbEntity
  8
MAIN0
  6
HIDDEN
 62
3
100
AcDbLine
 10
662.6891404984333
 20
337.5806788842553
 30
0.0000000000000000
 11
659.5891404984327
 21
335.7908930497686
 31
0.0000000000000000
  0
LINE
  5
97
100
AcDbEntity
  8
MAIN0
  6
HIDDEN
 62
3
100
AcDbLine
 10
665.7891404984330
 20
335.7908930497664
 30
0.0000000000000000
 11
662.6891404984336
 21
337.5806788842554
 31
0.0000000000000000
  0
LINE
  5
98
100
AcDbEntity
  8
MAIN0
  6
HIDDEN
 62
3
100
AcDbLine
 10
665.7891404984327
 20
335.7908930497663
 30
0.0000000000000000
 11
659.5891404984327
 21
335.7908930497684
 31
0.0000000000000000
  0
LINE
  5
99
100
AcDbEntity
  8
MAIN0
  6
CENTER
 62
3
100
AcDbLine
 10
662.6891404984331
 20
232.3252566588192
 30
0.0000000000000000
 11
662.6891404984331
 21
341.6901813148465
 31
0.0000000000000000
  0
LINE
  5
9A
100
AcDbEntity
  8
MAIN0
  6
CENTER
 62
3
100
AcDbLine
 10
615.6891404984332
 20
232.3252566588192
 30
0.0000000000000000
 11
615.6891404984332
 21
305.3219095151284
 31
0.0000000000000000
  0
LINE
  5
9B
100
AcDbEntity
  8
MAIN0
  6
CONTINUOUS
 62
3
100
AcDbLine
 10
600.3662837330547
 20
529.9774973166124
 30
0.0000000000000000
 11
601.4237255793199
 21
526.0310706203013
 31
0.0000000000000000
  0
LINE
  5
9C
100
AcDbEntity
  8
MAIN0
  6
CONTINUOUS
 62
3
100
AcDbLine
 10
678.0119972638114
 20
529.9774973166120
 30
0.0000000000000000
 11
676.9545554175462
 21
526.0310706203009
 31
0.0000000000000000
  0
ARC
  5
9D
100
AcDbEntity
  8
MAIN0
  6
CONTINUOUS
 62
3
100
AcDbCircle
 10
639.1891404984331
 20
385.0886233732518
 30
0.0000000000000000
 40
141.0000000000000
100
AcDbArc
 50
76.96256798321143
 51
103.0374320167885
  0
ARC
  5
9E
100
AcDbEntity
  8
MAIN0
  6
CONTINUOUS
 62
3
100
AcDbCircle
 10
606.2533547107656
 20
527.3251658458136
 30
0.0000000000000000
 40
5.000000000000000
100
AcDbArc
 50
194.9999999999999
 51
283.0374320167884
  0
ARC
  5
9F
100
AcDbEntity
  8
MAIN0
  6
CONTINUOUS
 62
3
100
AcDbCircle
 10
672.1249262861007
 20
527.3251658458136
 30
0.0000000000000000
 40
5.000000000000000
100
AcDbArc
 50
256.9625679832115
 51
344.9999999999999
  0
MTEXT
  5
A0
100
AcDbEntity
  8
MAIN0
  6
CONTINUOUS
 62
3
100
AcDbMText
 10
605.9411706520496
 20
528.2492209596098
 30
0.0000000000000000
 40
4.500000000000000
 41
0.0000000000000000
 71
     1
 72
     1
  1
{\H0.63x;{KITAGAWA}}
 11
0.9848077530122080
 21
0.1736481776669303
 31
0.0000000000000000
  7
STANDARD
  0
MTEXT
  5
A1
100
AcDbEntity
  8
MAIN0
  6
CONTINUOUS
 62
3
100
AcDbMText
 10
630.9876891025683
 20
532.4284640902238
 30
0.0000000000000000
 40
4.500000000000000
 41
0.0000000000000000
 71
     1
 72
     1
  1
{\H0.63x;{YS2220K}}
 11
1.000000000000000
 21
0.0000000000000000
 31
0.0000000000000000
  7
STANDARD
  0
ARC
  5
A2
100
AcDbEntity
  8
MAIN0
  6
CONTINUOUS
 62
3
100
AcDbCircle
 10
639.1891404984331
 20
385.0886233732517
 30
0.0000000000000000
 40
110.0000000000000
100
AcDbArc
 50
108.5530045350206
 51
191.4469954649792
  0
ARC
  5
A3
100
AcDbEntity
  8
MAIN0
  6
CONTINUOUS
 62
3
100
AcDbCircle
 10
639.1891404984331
 20
385.0886233732517
 30
0.0000000000000000
 40
110.0000000000000
100
AcDbArc
 50
228.5530045350205
 51
311.4469954649791
  0
ARC
  5
A4
100
AcDbEntity
  8
MAIN0
  6
CONTINUOUS
 62
3
100
AcDbCircle
 10
639.1891404984331
 20
385.0886233732517
 30
0.0000000000000000
 40
110.0000000000000
100
AcDbArc
 50
348.5530045350204
 51
431.4469954649793
  0
LINE
  5
A5
100
AcDbEntity
  8
MAIN0
  6
CENTER
 62
3
100
AcDbLine
 10
639.1891404984333
 20
385.0886233732518
 30
0.0000000000000000
 11
765.0006335165178
 21
312.4513240121120
 31
0.0000000000000000
  0
LINE
  5
A6
100
AcDbEntity
  8
MAIN0
  6
CENTER
 62
3
100
AcDbLine
 10
639.1891404984333
 20
385.0886233732518
 30
0.0000000000000000
 11
513.8404168605428
 21
312.7185040383397
 31
0.0000000000000000
  0
ARC
  5
A7
100
AcDbEntity
  8
MAIN0
  6
CENTER
 62
3
100
AcDbCircle
 10
639.1891404984333
 20
385.0886233732521
 30
0.0000000000000000
 40
85.70000000000000
100
AcDbArc
 50
126.5915144436528
 51
141.5739239995361
  0
ARC
  5
A8
100
AcDbEntity
  8
MAIN0
  6
CENTER
 62
3
100
AcDbCircle
 10
639.1891404984333
 20
385.0886233732521
 30
0.0000000000000000
 40
85.70000000000000
100
AcDbArc
 50
156.6692458263481
 51
173.6060297720466
  0
LINE
  5
A9
100
AcDbEntity
  8
MAIN0
  6
CENTER
 62
3
100
AcDbLine
 10
639.1891404984332
 20
230.2808960107199
 30
0.0000000000000000
 11
639.1891404984332
 21
476.3561783318434
 31
0.0000000000000000
  0
LINE
  5
AA
100
AcDbEntity
  8
MAIN0
  6
CENTER
 62
3
100
AcDbLine
 10
639.1891404984332
 20
486.2561781887910
 30
0.0000000000000000
 11
639.1891404984332
 21
557.4623357423276
 31
0.0000000000000000
  0
ARC
  5
AB
100
AcDbEntity
  8
MAIN0
  6
CONTINUOUS
 62
3
100
AcDbCircle
 10
639.1891404984331
 20
385.0886233732517
 30
0.0000000000000000
 40
50.00000000000000
100
AcDbArc
 50
254.4270040008053
 51
285.5729959991941
  0
ARC
  5
AC
100
AcDbEntity
  8
MAIN0
  6
CONTINUOUS
 62
3
100
AcDbCircle
 10
639.1891404984331
 20
385.0886233732517
 30
0.0000000000000000
 40
50.00000000000000
100
AcDbArc
 50
14.42700400080545
 51
45.57299599919423
  0
ARC
  5
AD
100
AcDbEntity
  8
MAIN0
  6
CONTINUOUS
 62
3
100
AcDbCircle
 10
639.1891404984331
 20
385.0886233732517
 30
0.0000000000000000
 40
50.00000000000000
100
AcDbArc
 50
134.2812860208420
 51
165.5729959991939
  0
LEADER
  5
AE
100
AcDbEntity
  8
MAIN0
  6
CONTINUOUS
 62
3
100
AcDbLeader
  3
MAIN001
 73
     0
 75
     1
 40
4.649999856948853
 41
28.72400085830680
 76
     3
 10
615.3492342473435
 20
237.5581604617055
 30
0.0000000000000000
 10
581.3826127079567
 20
179.0377807762004
 30
0.0000000000000000
 10
578.4926127916416
 20
179.0377807762004
 30
0.0000000000000000
340
AF
213
0.0000000000000000
223
-0.7500000000000000
233
0.0000000000000000
1001
ACAD
1000
DSTYLE
1002
{
1070
   147
1040
0.0
1070
    77
1070
     1
1070
   173
1070
     1
1070
     6
1000
_OPEN
1070
     7
1000
_OPEN
1002
}
  0
MTEXT
  5
AF
102
{ACAD_REACTORS
330
AE
102
}
100
AcDbEntity
  8
MAIN0
  6
CONTINUOUS
 62
3
100
AcDbMText
 10
549.7686119333348
 20
179.7877807762004
 30
0.0000000000000000
 40
4.649999856948853
 41
0.0000000000000000
 71
     7
 72
     1
  1
{\H0.92x;{2-Rc1/4}}
 11
1.000000000000000
 21
0.0000000000000000
 31
0.0000000000000000
  7
STANDARD
  0
LEADER
  5
B0
100
AcDbEntity
  8
MAIN0
  6
CONTINUOUS
 62
3
100
AcDbLeader
  3
MAIN001
 73
     0
 74
     0
 75
     1
 40
4.649999856948853
 41
25.51450366353993
 76
     3
 10
739.2856077007983
 20
490.4895588817218
 30
0.0000000000000000
 10
779.0840028248183
 20
549.1197784702823
 30
0.0000000000000000
 10
781.9720027411333
 20
549.1197784702822
 30
0.0000000000000000
340
B1
213
0.01549988412853054
223
-0.7500000000000000
233
0.0000000000000000
1001
ACAD
1000
DSTYLE
1002
{
1070
   147
1040
0.0
1070
    77
1070
     1
1070
   173
1070
     1
1070
     6
1000
_OPEN
1070
     7
1000
_OPEN
1002
}
  0
MTEXT
  5
B1
102
{ACAD_REACTORS
330
B0
102
}
100
AcDbEntity
  8
MAIN0
  6
CONTINUOUS
 62
3
100
AcDbMText
 10
781.9565028570048
 20
549.8697784702822
 30
0.0000000000000000
 40
4.649999856948853
 41
0.0000000000000000
 71
     7
 72
     1
  1
{\H0.93x;{４ー\U+2205１３}}
 11
1.000000000000000
 21
0.0000000000000000
 31
0.0000000000000000
  7
KNJYOKO
  0
LEADER
  5
B2
100
AcDbEntity
  8
MAIN0
  6
CONTINUOUS
 62
3
100
AcDbLeader
  3
MAIN001
 73
     3
 74
     0
 75
     0
 76
     5
 10
653.8107553264583
 20
527.3342151000317
 30
0.0000000000000000
 10
670.1076118159583
 20
524.7530466058931
 30
0.0000000000000000
 10
670.8584972481516
 20
529.4939506407494
 30
0.0000000000000000
 10
654.5616407586516
 20
532.0751191348886
 30
0.0000000000000000
 10
653.8107553264583
 20
527.3342151000317
 30
0.0000000000000000
1001
ACAD
1000
DSTYLE
1002
{
1070
   173
1070
     1
1070
     6
1000
_NONE
1070
     7
1000
_NONE
1002
}
  0
DIMENSION
  5
BB
100
AcDbEntity
  8
MAIN0
  6
CONTINUOUS
 62
3
100
AcDbDimension
  2
*D0
 10
615.6891404984332
 20
192.9710864780727
 30
0.0000000000000000
 11
639.1891404984331
 21
193.4710864780727
 31
0.0000000000000000
 70
32
  3
MAIN001
100
AcDbAlignedDimension
 13
662.6891404984331
 23
232.3252566588193
 33
0.0000000000000000
 14
615.6891404984332
 24
232.3252566588192
 34
0.0000000000000000
100
AcDbRotatedDimension
1001
ACAD
1000
DSTYLE
1002
{
1070
   173
1070
     1
1070
     6
1000
_OPEN
1070
     7
1000
_OPEN
1070
    41
1040
3.000000
1002
}
  0
DIMENSION
  5
C1
100
AcDbEntity
  8
MAIN0
  6
CONTINUOUS
 62
3
100
AcDbDimension
  2
*D1
 10
639.1891404984332
 20
385.0886233732518
 30
0.0000000000000000
 11
601.2627482403090
 21
341.8415668730457
 31
0.0000000000000000
 70
164
  3
MAIN001
100
AcDbRadialDimension
 15
577.4881365439737
 25
312.8529942764427
 35
0.0000000000000000
1001
ACAD
1000
DSTYLE
1002
{
1070
   173
1070
     1
1070
     6
1000
_OPEN
1070
     7
1000
_OPEN
1070
    41
1040
3.000000
1070
   340
1005
C2
1002
}
  0
DIMENSION
  5
C9
100
AcDbEntity
  8
MAIN0
  6
CONTINUOUS
 62
3
100
AcDbDimension
  2
*D2
 10
522.3163075189366
 20
462.1648253512081
 30
0.0000000000000000
 11
558.6468467819948
 21
439.1036920365020
 31
0.0000000000000000
 70
163
  3
MAIN001
100
AcDbDiametricDimension
 15
756.0619734779300
 25
308.0124213952958
 35
0.0000000000000000
1001
ACAD
1000
DSTYLE
1002
{
1070
   287
1070
     2
1070
   173
1070
     1
1070
     6
1000
_OPEN
1070
     7
1000
_OPEN
1070
    41
1040
3.000000
1070
   272
1070
     1
1070
    47
1040
0.200000
1070
    48
1040
0.200000
1070
    71
1070
     1
1002
}
  0
DIMENSION
  5
D0
100
AcDbEntity
  8
MAIN0
  6
CONTINUOUS
 62
3
100
AcDbDimension
  2
*D3
 10
605.4839321288521
 20
306.2949121472718
 30
0.0000000000000000
 11
662.8564627622917
 21
442.3234321540725
 31
0.0000000000000000
 70
163
  3
MAIN001
100
AcDbDiametricDimension
 15
672.8943488680141
 25
463.8823345992319
 35
0.0000000000000000
1001
ACAD
1000
DSTYLE
1002
{
1070
   287
1070
     2
1070
   173
1070
     1
1070
     6
1000
_OPEN
1070
     7
1000
_OPEN
1070
    41
1040
3.000000
1070
   272
1070
     1
1070
    47
1040
0.200000
1070
    48
1040
0.200000
1070
    71
1070
     1
1002
}
  0
DIMENSION
  5
D9
100
AcDbEntity
  8
MAIN0
  6
CONTINUOUS
 62
3
100
AcDbDimension
  2
*D4
 10
664.3890082830619
 20
291.0414364630593
 30
0.0000000000000000
 11
657.3747961993531
 21
207.1160900349423
 31
0.0000000000000000
 70
162
  3
MAIN001
100
AcDb2LineAngularDimension
 13
639.1891404984332
 23
230.2808960107199
 33
0.0000000000000000
 14
639.1891404984332
 24
231.2808960107199
 34
0.0000000000000000
 15
664.1301892379587
 25
292.0073622893482
 35
0.0000000000000000
 16
662.6054411406999
 26
207.2241614712222
 36
0.0000000000000000
1001
ACAD
1000
DSTYLE
1002
{
1070
   173
1070
     1
1070
     6
1000
_OPEN
1070
     7
1000
_OPEN
1070
    41
1040
3.000000
1002
}
  0
DIMENSION
  5
E2
100
AcDbEntity
  8
MAIN0
  6
CONTINUOUS
 62
3
100
AcDbDimension
  2
*D5
 10
713.9584788073850
 20
255.5843305738383
 30
0.0000000000000000
 11
707.6509185158200
 21
219.8072703809276
 31
0.0000000000000000
 70
162
  3
MAIN001
100
AcDb2LineAngularDimension
 13
664.3890082830619
 23
291.0414364630593
 33
0.0000000000000000
 14
664.1301892379587
 24
292.0073622893482
 34
0.0000000000000000
 15
713.4584788074018
 25
256.4503559776325
 35
0.0000000000000000
 16
707.8422602319981
 26
219.3453306146701
 36
0.0000000000000000
1001
ACAD
1000
DSTYLE
1002
{
1070
   173
1070
     1
1070
     6
1000
_OPEN
1070
     7
1000
_OPEN
1070
    41
1040
3.000000
1002
}
  0
DIMENSION
  5
EB
100
AcDbEntity
  8
MAIN0
  6
CONTINUOUS
 62
3
100
AcDbDimension
  2
*D6
 10
744.5629468916334
 20
279.7148169799705
 30
0.0000000000000000
 11
748.0961019532936
 21
243.1583079250873
 31
0.0000000000000000
 70
162
  3
MAIN001
100
AcDb2LineAngularDimension
 13
713.9584788073850
 23
255.5843305738383
 33
0.0000000000000000
 14
713.4584788074018
 24
256.4503559776325
 34
0.0000000000000000
 15
743.8558401104665
 25
280.4219237611767
 35
0.0000000000000000
 16
748.4004826677887
 26
242.7616312549345
 36
0.0000000000000000
1001
ACAD
1000
DSTYLE
1002
{
1070
   173
1070
     1
1070
     6
1000
_OPEN
1070
     7
1000
_OPEN
1070
    41
1040
3.000000
1002
}
  0
DIMENSION
  5
F3
100
AcDbEntity
  8
MAIN0
  6
CONTINUOUS
 62
3
100
AcDbDimension
  2
*D7
 10
474.1891404984332
 20
385.0886233732518
 30
0.0000000000000000
 11
473.4391404984332
 21
341.7140620281073
 31
0.0000000000000000
 70
160
  1
\A1;（92.05）
  3
MAIN001
100
AcDbAlignedDimension
 13
603.3251404981726
 23
293.0410813094274
 33
0.0000000000000000
 14
464.7564545367250
 24
385.0886233732518
 34
0.0000000000000000
 50
90.00000000000000
100
AcDbRotatedDimension
1001
ACAD
1000
DSTYLE
1002
{
1070
   173
1070
     1
1070
     6
1000
_OPEN
1070
     7
1000
_OPEN
1070
    41
1040
3.000000
1070
   340
1005
C2
1002
}
  0
DIMENSION
  5
FB
100
AcDbEntity
  8
MAIN0
  6
CONTINUOUS
 62
3
100
AcDbDimension
  2
*D8
 10
733.2363274094378
 20
410.2884911548504
 30
0.0000000000000000
 11
816.5578799723768
 21
408.4396609180795
 31
0.0000000000000000
 70
162
  3
MAIN001
100
AcDb2LineAngularDimension
 13
818.5883878325818
 23
385.0886233790488
 33
0.0000000000000000
 14
639.1891404984332
 24
385.0886233790488
 34
0.0000000000000000
 15
732.2704015831296
 25
410.0296721098190
 35
0.0000000000000000
 16
817.0536024030661
 26
408.5049240141713
 36
0.0000000000000000
1001
ACAD
1000
DSTYLE
1002
{
1070
   173
1070
     1
1070
     6
1000
_OPEN
1070
     7
1000
_OPEN
1070
    41
1040
3.000000
1002
}
  0
DIMENSION
  5
104
100
AcDbEntity
  8
MAIN0
  6
CONTINUOUS
 62
3
100
AcDbDimension
  2
*D9
 10
744.5629468917142
 20
490.4624297664518
 30
0.0000000000000000
 11
794.1204334122615
 21
474.5382470382594
 31
0.0000000000000000
 70
162
  3
MAIN001
100
AcDb2LineAngularDimension
 13
733.2363274094378
 23
410.2884911548504
 33
0.0000000000000000
 14
732.2704015831296
 24
410.0296721098190
 34
0.0000000000000000
 15
743.8558401105079
 25
489.7553229852850
 35
0.0000000000000000
 16
794.5534461141665
 26
474.7882470382375
 36
0.0000000000000000
1001
ACAD
1000
DSTYLE
1002
{
1070
   173
1070
     1
1070
     6
1000
_OPEN
1070
     7
1000
_OPEN
1070
    41
1040
3.000000
1002
}
  0
DIMENSION
  5
10D
100
AcDbEntity
  8
MAIN0
  6
CONTINUOUS
 62
3
100
AcDbDimension
  2
*D10
 10
713.4710521481130
 20
513.7486684338387
 30
0.0000000000000000
 11
748.7048633865456
 21
527.8122921648788
 31
0.0000000000000000
 70
162
  3
MAIN001
100
AcDb2LineAngularDimension
 13
744.5629468917142
 23
490.4624297664518
 33
0.0000000000000000
 14
743.8558401105079
 24
489.7553229852850
 34
0.0000000000000000
 15
712.9710521480961
 25
512.8826430300640
 35
0.0000000000000000
 16
748.4004826720320
 26
527.4156154947405
 36
0.0000000000000000
1001
ACAD
1000
DSTYLE
1002
{
1070
   173
1070
     1
1070
     6
1000
_OPEN
1070
     7
1000
_OPEN
1070
    41
1040
3.000000
1002
}
  0
DIMENSION
  5
116
100
AcDbEntity
  8
MAIN0
  6
CONTINUOUS
 62
3
100
AcDbDimension
  2
*D11
 10
639.1891404984332
 20
557.4623357423276
 30
0.0000000000000000
 11
685.7504919098152
 21
558.8579525086135
 31
0.0000000000000000
 70
162
  3
MAIN001
100
AcDb2LineAngularDimension
 13
713.4710521481130
 23
513.7486684338387
 33
0.0000000000000000
 14
712.9710521480961
 24
512.8826430300640
 34
0.0000000000000000
 15
639.1891404984332
 25
556.4623357423276
 35
0.0000000000000000
 16
685.6210823872593
 26
558.3749895954702
 36
0.0000000000000000
1001
ACAD
1000
DSTYLE
1002
{
1070
   173
1070
     1
1070
     6
1000
_OPEN
1070
     7
1000
_OPEN
1070
    41
1040
3.000000
1002
}
  0
DIMENSION
  5
11F
100
AcDbEntity
  8
MAIN0
  6
CONTINUOUS
 62
3
100
AcDbDimension
  2
*D12
 10
765.0006335165180
 20
312.4513240121120
 30
0.0000000000000000
 11
781.1194559465466
 21
276.1816619175038
 31
0.0000000000000000
 70
162
  3
MAIN001
100
AcDb2LineAngularDimension
 13
744.5629468916333
 23
279.7148169799706
 33
0.0000000000000000
 14
743.8558401104469
 24
280.4219237611574
 34
0.0000000000000000
 15
764.1346081127335
 25
312.9513240121120
 35
0.0000000000000000
 16
781.5161326166924
 26
275.8772812029992
 36
0.0000000000000000
1001
ACAD
1000
DSTYLE
1002
{
1070
   173
1070
     1
1070
     6
1000
_OPEN
1070
     7
1000
_OPEN
1070
    41
1040
3.000000
1002
}
  0
DIMENSION
  5
127
100
AcDbEntity
  8
MAIN0
  6
CONTINUOUS
 62
3
100
AcDbDimension
  2
*D13
 10
818.5883878325818
 20
385.0886233732519
 30
0.0000000000000000
 11
811.9925438021631
 21
338.7860910086679
 31
0.0000000000000000
 70
162
  3
MAIN001
100
AcDb2LineAngularDimension
 13
765.0006335165180
 23
312.4513240121120
 33
0.0000000000000000
 14
764.1346081127335
 24
312.9513240121120
 34
0.0000000000000000
 15
639.1891404984332
 25
385.0886233732520
 35
0.0000000000000000
 16
812.4755067153077
 26
338.6566814861167
 36
0.0000000000000000
1001
ACAD
1000
DSTYLE
1002
{
1070
   173
1070
     1
1070
     6
1000
_OPEN
1070
     7
1000
_OPEN
1070
    41
1040
3.000000
1002
}
  0
LINE
  5
128
100
AcDbEntity
  8
MAIN0
  6
CONTINUOUS
 62
3
100
AcDbLine
 10
604.1891404984332
 20
420.7957655159660
 30
0.0000000000000000
 11
604.1891404984332
 21
506.8794276238192
 31
0.0000000000000000
  0
LINE
  5
129
100
AcDbEntity
  8
MAIN0
  6
CONTINUOUS
 62
3
100
AcDbLine
 10
674.1891404984332
 20
420.7957655159659
 30
0.0000000000000000
 11
674.1891404984332
 21
506.8794276238191
 31
0.0000000000000000
  0
DIMENSION
  5
130
100
AcDbEntity
  8
MAIN0
  6
CONTINUOUS
 62
3
100
AcDbDimension
  2
*D14
 10
604.1891404984332
 20
478.6061783318421
 30
0.0000000000000000
 11
639.1891404984332
 21
479.1061783318421
 31
0.0000000000000000
 70
32
  3
MAIN001
100
AcDbAlignedDimension
 13
674.1891404984332
 23
506.8794276238191
 33
0.0000000000000000
 14
604.1891404984332
 24
506.8794276238192
 34
0.0000000000000000
100
AcDbRotatedDimension
1001
ACAD
1000
DSTYLE
1002
{
1070
   173
1070
     1
1070
     6
1000
_OPEN
1070
     7
1000
_OPEN
1070
    41
1040
3.000000
1002
}
  0
LINE
  5
131
100
AcDbEntity
  8
MAIN0
  6
CENTER
 62
3
100
AcDbLine
 10
167.6623981354406
 20
525.0886233732518
 30
0.0000000000000000
 11
193.7679548051865
 21
525.0886233732518
 31
0.0000000000000000
  0
LINE
  5
132
100
AcDbEntity
  8
MAIN0
  6
CENTER
 62
3
100
AcDbLine
 10
204.1891404984332
 20
256.8886403747459
 30
0.0000000000000000
 11
204.1891404984332
 21
225.7146846332173
 31
0.0000000000000000
  0
LINE
  5
133
100
AcDbEntity
  8
MAIN0
  6
CENTER
 62
3
100
AcDbLine
 10
178.3632005235569
 20
250.0886233732518
 30
0.0000000000000000
 11
219.3808896869676
 21
250.0886233732518
 31
0.0000000000000000
  0
LINE
  5
134
100
AcDbEntity
  8
MAIN0
  6
CONTINUOUS
 62
3
100
AcDbLine
 10
274.1891404984332
 20
494.6886233732519
 30
0.0000000000000000
 11
274.1891404984332
 21
406.4038818680547
 31
0.0000000000000000
  0
LINE
  5
135
100
AcDbEntity
  8
MAIN0
  6
CENTER
 62
3
100
AcDbLine
 10
176.7298943043590
 20
333.0886233732518
 30
0.0000000000000000
 11
193.9544017670201
 21
333.0886233732518
 31
0.0000000000000000
  0
LINE
  5
136
100
AcDbEntity
  8
MAIN0
  6
CONTINUOUS
 62
3
100
AcDbLine
 10
189.1891404984332
 20
237.5886233732517
 30
0.0000000000000000
 11
219.1891404984332
 21
237.5886233732517
 31
0.0000000000000000
  0
LINE
  5
137
100
AcDbEntity
  8
MAIN0
  6
CONTINUOUS
 62
3
100
AcDbLine
 10
219.1891404984332
 20
237.5886233732517
 30
0.0000000000000000
 11
219.1891404984332
 21
257.5886233732518
 31
0.0000000000000000
  0
LINE
  5
138
100
AcDbEntity
  8
MAIN0
  6
CONTINUOUS
 62
3
100
AcDbLine
 10
174.1891404984332
 20
534.4886233732519
 30
0.0000000000000000
 11
174.1891404984332
 21
235.6886233732519
 31
0.0000000000000000
  0
LINE
  5
139
100
AcDbEntity
  8
MAIN0
  6
CONTINUOUS
 62
3
100
AcDbLine
 10
174.7891404984332
 20
535.0886233732518
 30
0.0000000000000000
 11
188.5891404984332
 21
535.0886233732518
 31
0.0000000000000000
  0
LINE
  5
13A
100
AcDbEntity
  8
MAIN0
  6
CONTINUOUS
 62
3
100
AcDbLine
 10
174.7891404984332
 20
235.0886233732518
 30
0.0000000000000000
 11
188.5891404984332
 21
235.0886233732518
 31
0.0000000000000000
  0
LINE
  5
13B
100
AcDbEntity
  8
MAIN0
  6
HIDDEN
 62
3
100
AcDbLine
 10
174.5891404984332
 20
531.5886233732518
 30
0.0000000000000000
 11
188.7891404984332
 21
531.5886233732518
 31
0.0000000000000000
  0
LINE
  5
13C
100
AcDbEntity
  8
MAIN0
  6
HIDDEN
 62
3
100
AcDbLine
 10
174.5891404984332
 20
518.5886233732518
 30
0.0000000000000000
 11
188.7891404984332
 21
518.5886233732518
 31
0.0000000000000000
  0
LINE
  5
13D
100
AcDbEntity
  8
MAIN0
  6
CENTER
 62
3
100
AcDbLine
 10
181.6891404984332
 20
338.8989585326258
 30
0.0000000000000000
 11
181.6891404984332
 21
231.7789491620072
 31
0.0000000000000000
  0
LINE
  5
13E
100
AcDbEntity
  8
MAIN0
  6
CONTINUOUS
 62
3
100
AcDbLine
 10
189.1891404984332
 20
235.6886233732519
 30
0.0000000000000000
 11
189.1891404984332
 21
342.4943288284148
 31
0.0000000000000000
  0
LINE
  5
13F
100
AcDbEntity
  8
MAIN0
  6
CONTINUOUS
 62
3
100
AcDbLine
 10
174.7891404984333
 20
235.0886233732519
 30
0.0000000000000000
 11
174.1891404984332
 21
235.6886233732519
 31
0.0000000000000000
  0
LINE
  5
140
100
AcDbEntity
  8
MAIN0
  6
CONTINUOUS
 62
3
100
AcDbLine
 10
189.1891404984332
 20
235.6886233732519
 30
0.0000000000000000
 11
188.5891404984331
 21
235.0886233732519
 31
0.0000000000000000
  0
LINE
  5
141
100
AcDbEntity
  8
MAIN0
  6
CONTINUOUS
 62
3
100
AcDbLine
 10
174.7891404984333
 20
535.0886233732517
 30
0.0000000000000000
 11
174.1891404984332
 21
534.4886233732518
 31
0.0000000000000000
  0
LINE
  5
142
100
AcDbEntity
  8
MAIN0
  6
CONTINUOUS
 62
3
100
AcDbLine
 10
188.5891404984332
 20
535.0886233732520
 30
0.0000000000000000
 11
189.1891404984332
 21
534.4886233732519
 31
0.0000000000000000
  0
LINE
  5
143
100
AcDbEntity
  8
MAIN0
  6
HIDDEN
 62
3
100
AcDbLine
 10
174.5891404984332
 20
531.5886233732518
 30
0.0000000000000000
 11
174.1891404984331
 21
531.9886233732519
 31
0.0000000000000000
  0
LINE
  5
144
100
AcDbEntity
  8
MAIN0
  6
HIDDEN
 62
3
100
AcDbLine
 10
174.5891404984332
 20
518.5886233732520
 30
0.0000000000000000
 11
174.1891404984332
 21
518.1886233732519
 31
0.0000000000000000
  0
LINE
  5
145
100
AcDbEntity
  8
MAIN0
  6
HIDDEN
 62
3
100
AcDbLine
 10
188.7891404984333
 20
518.5886233732518
 30
0.0000000000000000
 11
189.1891404984332
 21
518.1886233732519
 31
0.0000000000000000
  0
LINE
  5
146
100
AcDbEntity
  8
MAIN0
  6
HIDDEN
 62
3
100
AcDbLine
 10
188.7891404984332
 20
531.5886233732520
 30
0.0000000000000000
 11
189.1891404984331
 21
531.9886233732518
 31
0.0000000000000000
  0
LINE
  5
147
100
AcDbEntity
  8
MAIN0
  6
CENTER
 62
3
100
AcDbLine
 10
179.2752257295892
 20
248.0886233732518
 30
0.0000000000000000
 11
194.9611333761941
 21
248.0886233732518
 31
0.0000000000000000
  0
LINE
  5
148
100
AcDbEntity
  8
MAIN0
  6
PHANTOM
 62
3
100
AcDbLine
 10
176.3891404984332
 20
294.3341233732085
 30
0.0000000000000000
 11
175.1891404984332
 21
295.5341233732086
 31
0.0000000000000000
  0
LINE
  5
149
100
AcDbEntity
  8
MAIN0
  6
PHANTOM
 62
3
100
AcDbLine
 10
176.3891404984332
 20
285.8431233732952
 30
0.0000000000000000
 11
175.1891404984332
 21
284.6431233732951
 31
0.0000000000000000
  0
LINE
  5
14A
100
AcDbEntity
  8
MAIN0
  6
PHANTOM
 62
3
100
AcDbLine
 10
187.7891404984332
 20
243.2886233732519
 30
0.0000000000000000
 11
187.7891404984332
 21
252.8886233732519
 31
0.0000000000000000
  0
LINE
  5
14B
100
AcDbEntity
  8
MAIN0
  6
PHANTOM
 62
3
100
AcDbLine
 10
187.9891404984332
 20
253.0886233732518
 30
0.0000000000000000
 11
189.1891404984332
 21
253.0886233732518
 31
0.0000000000000000
  0
LINE
  5
14C
100
AcDbEntity
  8
MAIN0
  6
PHANTOM
 62
3
100
AcDbLine
 10
187.9891404984332
 20
243.0886233732518
 30
0.0000000000000000
 11
189.1891404984332
 21
243.0886233732518
 31
0.0000000000000000
  0
ARC
  5
14D
100
AcDbEntity
  8
MAIN0
  6
PHANTOM
 62
3
100
AcDbCircle
 10
187.9891404984332
 20
252.8886233732519
 30
0.0000000000000000
 40
0.2000000000000000
100
AcDbArc
 50
90.00000000000000
 51
180.0000000000000
  0
ARC
  5
14E
100
AcDbEntity
  8
MAIN0
  6
PHANTOM
 62
3
100
AcDbCircle
 10
187.9891404984332
 20
243.2886233732519
 30
0.0000000000000000
 40
0.2000000000000000
100
AcDbArc
 50
180.0000000000000
 51
270.0000000000000
  0
LINE
  5
14F
100
AcDbEntity
  8
MAIN0
  6
PHANTOM
 62
3
100
AcDbLine
 10
182.8345852471842
 20
289.3740123745971
 30
0.0000000000000000
 11
184.7891404984219
 21
285.9886233732519
 31
0.0000000000000000
  0
LINE
  5
150
100
AcDbEntity
  8
MAIN0
  6
PHANTOM
 62
3
100
AcDbLine
 10
177.7058904984331
 20
235.0886233732518
 30
0.0000000000000000
 11
177.9527654984331
 21
242.9886233732519
 31
0.0000000000000000
  0
LINE
  5
151
100
AcDbEntity
  8
MAIN0
  6
PHANTOM
 62
3
100
AcDbLine
 10
177.9527654984332
 20
242.9886233732519
 30
0.0000000000000000
 11
185.4255154984332
 21
242.9886233732519
 31
0.0000000000000000
  0
LINE
  5
152
100
AcDbEntity
  8
MAIN0
  6
PHANTOM
 62
3
100
AcDbLine
 10
185.4255154984332
 20
242.9886233732518
 30
0.0000000000000000
 11
185.6723904984332
 21
235.0886233732519
 31
0.0000000000000000
  0
LINE
  5
153
100
AcDbEntity
  8
MAIN0
  6
PHANTOM
 62
3
100
AcDbLine
 10
178.3594529984332
 20
235.6186233732518
 30
0.0000000000000000
 11
178.5897654984332
 21
242.9886233732518
 31
0.0000000000000000
  0
LINE
  5
154
100
AcDbEntity
  8
MAIN0
  6
PHANTOM
 62
3
100
AcDbLine
 10
185.0188279984331
 20
235.6186233732518
 30
0.0000000000000000
 11
184.7885154984331
 21
242.9886233732519
 31
0.0000000000000000
  0
LINE
  5
155
100
AcDbEntity
  8
MAIN0
  6
PHANTOM
 62
3
100
AcDbLine
 10
178.5891404984332
 20
335.5886233732518
 30
0.0000000000000000
 11
184.7891404984332
 21
335.5886233732518
 31
0.0000000000000000
  0
LINE
  5
156
100
AcDbEntity
  8
MAIN0
  6
PHANTOM
 62
3
100
AcDbLine
 10
178.5891404984332
 20
335.5886233732518
 30
0.0000000000000000
 11
181.6891404984332
 21
337.3784092077397
 31
0.0000000000000000
  0
LINE
  5
157
100
AcDbEntity
  8
MAIN0
  6
PHANTOM
 62
3
100
AcDbLine
 10
181.6891404984332
 20
337.3784092077397
 30
0.0000000000000000
 11
184.7891404984332
 21
335.5886233732518
 31
0.0000000000000000
  0
LINE
  5
158
100
AcDbEntity
  8
MAIN0
  6
PHANTOM
 62
3
100
AcDbLine
 10
178.5891404984332
 20
242.9886233732519
 30
0.0000000000000000
 11
178.5891404984332
 21
285.3008512348191
 31
0.0000000000000000
  0
LINE
  5
159
100
AcDbEntity
  8
MAIN0
  6
PHANTOM
 62
3
100
AcDbLine
 10
184.7891404984332
 20
245.5886233732518
 30
0.0000000000000000
 11
184.7891404984332
 21
242.9886233732519
 31
0.0000000000000000
  0
LINE
  5
15A
100
AcDbEntity
  8
MAIN0
  6
PHANTOM
 62
3
100
AcDbLine
 10
174.6891404984332
 20
294.9682483732519
 30
0.0000000000000000
 11
181.3891404984332
 21
294.7588733732519
 31
0.0000000000000000
  0
LINE
  5
15B
100
AcDbEntity
  8
MAIN0
  6
PHANTOM
 62
3
100
AcDbLine
 10
181.3891404984332
 20
294.7588733732518
 30
0.0000000000000000
 11
181.3891404984332
 21
285.4183733732518
 31
0.0000000000000000
  0
LINE
  5
15C
100
AcDbEntity
  8
MAIN0
  6
PHANTOM
 62
3
100
AcDbLine
 10
181.3891404984332
 20
285.4183733732519
 30
0.0000000000000000
 11
174.6891404984332
 21
285.2089983732519
 31
0.0000000000000000
  0
LINE
  5
15D
100
AcDbEntity
  8
MAIN0
  6
PHANTOM
 62
3
100
AcDbLine
 10
174.6891404984332
 20
294.3872483732519
 30
0.0000000000000000
 11
181.3891404984332
 21
294.1778733732519
 31
0.0000000000000000
  0
LINE
  5
15E
100
AcDbEntity
  8
MAIN0
  6
PHANTOM
 62
3
100
AcDbLine
 10
174.6891404984332
 20
285.7899983732518
 30
0.0000000000000000
 11
181.3891404984332
 21
285.9993733732518
 31
0.0000000000000000
  0
LINE
  5
15F
100
AcDbEntity
  8
MAIN0
  6
PHANTOM
 62
3
100
AcDbLine
 10
180.3891404984332
 20
294.1886233732519
 30
0.0000000000000000
 11
191.3811038114168
 21
294.1886233732519
 31
0.0000000000000000
  0
LINE
  5
160
100
AcDbEntity
  8
MAIN0
  6
PHANTOM
 62
3
100
AcDbLine
 10
191.3811038114168
 20
285.9886233732518
 30
0.0000000000000000
 11
184.9924625216881
 21
285.9886233732518
 31
0.0000000000000000
  0
LINE
  5
161
100
AcDbEntity
  8
MAIN0
  6
PHANTOM
 62
3
100
AcDbLine
 10
191.3811038114168
 20
330.5886233732518
 30
0.0000000000000000
 11
184.7891404984332
 21
330.5886233732518
 31
0.0000000000000000
  0
LINE
  5
162
100
AcDbEntity
  8
MAIN0
  6
PHANTOM
 62
3
100
AcDbLine
 10
184.7891404984331
 20
335.5886233732518
 30
0.0000000000000000
 11
191.3811038114168
 21
335.5886233732518
 31
0.0000000000000000
  0
LINE
  5
163
100
AcDbEntity
  8
MAIN0
  6
PHANTOM
 62
3
100
AcDbLine
 10
184.7891404984332
 20
330.5886233732517
 30
0.0000000000000000
 11
183.5505125728133
 21
332.7339898720990
 31
0.0000000000000000
  0
LINE
  5
164
100
AcDbEntity
  8
MAIN0
  6
PHANTOM
 62
3
100
AcDbLine
 10
183.5931302213942
 20
333.5170728070458
 30
0.0000000000000000
 11
184.7891404984332
 21
335.5886233732518
 31
0.0000000000000000
  0
LINE
  5
165
100
AcDbEntity
  8
MAIN0
  6
PHANTOM
 62
3
100
AcDbLine
 10
187.7891404984332
 20
245.1886233732519
 30
0.0000000000000000
 11
187.3891404984332
 21
245.5886233732519
 31
0.0000000000000000
  0
LINE
  5
166
100
AcDbEntity
  8
MAIN0
  6
PHANTOM
 62
3
100
AcDbLine
 10
187.3891404984332
 20
245.5886233732518
 30
0.0000000000000000
 11
184.9924625216881
 21
245.5886233732518
 31
0.0000000000000000
  0
LINE
  5
167
100
AcDbEntity
  8
MAIN0
  6
PHANTOM
 62
3
100
AcDbLine
 10
184.9924625216881
 20
250.5886233732518
 30
0.0000000000000000
 11
187.3891404984332
 21
250.5886233732518
 31
0.0000000000000000
  0
LINE
  5
168
100
AcDbEntity
  8
MAIN0
  6
PHANTOM
 62
3
100
AcDbLine
 10
187.3891404984332
 20
250.5886233732519
 30
0.0000000000000000
 11
187.7891404984331
 21
250.9886233732519
 31
0.0000000000000000
  0
LINE
  5
169
100
AcDbEntity
  8
MAIN0
  6
PHANTOM
 62
3
100
AcDbLine
 10
184.7891404984332
 20
245.5886233732518
 30
0.0000000000000000
 11
183.6196369615292
 21
247.6142629188009
 31
0.0000000000000000
  0
LINE
  5
16A
100
AcDbEntity
  8
MAIN0
  6
PHANTOM
 62
3
100
AcDbLine
 10
183.6035344445946
 20
248.5350934502423
 30
0.0000000000000000
 11
184.7891404984332
 21
250.5886233732518
 31
0.0000000000000000
  0
LINE
  5
16B
100
AcDbEntity
  8
MAIN0
  6
CONTINUOUS
 62
3
100
AcDbLine
 10
189.5891404984333
 20
512.0886233732518
 30
0.0000000000000000
 11
267.6891404984332
 21
512.0886233732518
 31
0.0000000000000000
  0
LINE
  5
16C
100
AcDbEntity
  8
MAIN0
  6
CONTINUOUS
 62
3
100
AcDbLine
 10
189.5891404984332
 20
258.0886233732518
 30
0.0000000000000000
 11
267.6891404984332
 21
258.0886233732518
 31
0.0000000000000000
  0
LINE
  5
16D
100
AcDbEntity
  8
MAIN0
  6
CONTINUOUS
 62
3
100
AcDbLine
 10
189.5891404984332
 20
258.0886233732518
 30
0.0000000000000000
 11
189.1891404984332
 21
258.4886233732519
 31
0.0000000000000000
  0
LINE
  5
16E
100
AcDbEntity
  8
MAIN0
  6
CONTINUOUS
 62
3
100
AcDbLine
 10
189.1891404984333
 20
511.6886233732519
 30
0.0000000000000000
 11
189.5891404984332
 21
512.0886233732518
 31
0.0000000000000000
  0
LINE
  5
16F
100
AcDbEntity
  8
MAIN0
  6
CONTINUOUS
 62
3
100
AcDbLine
 10
274.1891404984332
 20
275.4886233732518
 30
0.0000000000000000
 11
274.1891404984332
 21
363.7151106788691
 31
0.0000000000000000
  0
LINE
  5
170
100
AcDbEntity
  8
MAIN0
  6
CONTINUOUS
 62
3
100
AcDbLine
 10
232.1891404984332
 20
362.5886233732518
 30
0.0000000000000000
 11
269.6891404985958
 21
362.5886233732518
 31
0.0000000000000000
  0
LINE
  5
171
100
AcDbEntity
  8
MAIN0
  6
CONTINUOUS
 62
3
100
AcDbLine
 10
189.1891404984332
 20
534.4886233732518
 30
0.0000000000000000
 11
189.1891404984332
 21
427.6829179180889
 31
0.0000000000000000
  0
LINE
  5
172
100
AcDbEntity
  8
MAIN0
  6
CONTINUOUS
 62
3
100
AcDbLine
 10
232.1891404984332
 20
407.5886233732518
 30
0.0000000000000000
 11
269.6891404985958
 21
407.5886233732518
 31
0.0000000000000000
  0
LINE
  5
173
100
AcDbEntity
  8
MAIN0
  6
CONTINUOUS
 62
3
100
AcDbLine
 10
189.1891404984332
 20
257.5886233732518
 30
0.0000000000000000
 11
219.1891404984332
 21
257.5886233732518
 31
0.0000000000000000
  0
LINE
  5
174
100
AcDbEntity
  8
MAIN0
  6
PHANTOM
 62
3
100
AcDbLine
 10
187.7891404984333
 20
261.7886233729491
 30
0.0000000000000000
 11
187.7891404984333
 21
271.3886233729492
 31
0.0000000000000000
  0
LINE
  5
175
100
AcDbEntity
  8
MAIN0
  6
PHANTOM
 62
3
100
AcDbLine
 10
187.9891404984332
 20
271.5886233729491
 30
0.0000000000000000
 11
189.1891404984332
 21
271.5886233729491
 31
0.0000000000000000
  0
LINE
  5
176
100
AcDbEntity
  8
MAIN0
  6
PHANTOM
 62
3
100
AcDbLine
 10
187.9891404984332
 20
261.5886233729491
 30
0.0000000000000000
 11
189.1891404984332
 21
261.5886233729491
 31
0.0000000000000000
  0
ARC
  5
177
100
AcDbEntity
  8
MAIN0
  6
PHANTOM
 62
3
100
AcDbCircle
 10
187.9891404984332
 20
271.3886233729492
 30
0.0000000000000000
 40
0.2000000000000000
100
AcDbArc
 50
90.00000000000000
 51
180.0000000000000
  0
ARC
  5
178
100
AcDbEntity
  8
MAIN0
  6
PHANTOM
 62
3
100
AcDbCircle
 10
187.9891404984332
 20
261.7886233729491
 30
0.0000000000000000
 40
0.2000000000000000
100
AcDbArc
 50
180.0000000000000
 51
270.0000000000000
  0
LINE
  5
179
100
AcDbEntity
  8
MAIN0
  6
PHANTOM
 62
3
100
AcDbLine
 10
187.7891404984333
 20
263.6886233729491
 30
0.0000000000000000
 11
187.3891404984333
 21
264.0886233729491
 31
0.0000000000000000
  0
LINE
  5
17A
100
AcDbEntity
  8
MAIN0
  6
PHANTOM
 62
3
100
AcDbLine
 10
187.3891404984333
 20
264.0886233729491
 30
0.0000000000000000
 11
184.9924625216881
 21
264.0886233729491
 31
0.0000000000000000
  0
LINE
  5
17B
100
AcDbEntity
  8
MAIN0
  6
PHANTOM
 62
3
100
AcDbLine
 10
184.9924625216881
 20
269.0886233729491
 30
0.0000000000000000
 11
187.3891404984333
 21
269.0886233729491
 31
0.0000000000000000
  0
LINE
  5
17C
100
AcDbEntity
  8
MAIN0
  6
PHANTOM
 62
3
100
AcDbLine
 10
187.3891404984333
 20
269.0886233729491
 30
0.0000000000000000
 11
187.7891404984332
 21
269.4886233729491
 31
0.0000000000000000
  0
LINE
  5
17D
100
AcDbEntity
  8
MAIN0
  6
PHANTOM
 62
3
100
AcDbLine
 10
184.7891404984333
 20
264.0886233729491
 30
0.0000000000000000
 11
183.6196369615293
 21
266.1142629184982
 31
0.0000000000000000
  0
LINE
  5
17E
100
AcDbEntity
  8
MAIN0
  6
PHANTOM
 62
3
100
AcDbLine
 10
183.6035344445947
 20
267.0350934499395
 30
0.0000000000000000
 11
184.7891404984332
 21
269.0886233729490
 31
0.0000000000000000
  0
LINE
  5
17F
100
AcDbEntity
  8
MAIN0
  6
PHANTOM
 62
3
100
AcDbLine
 10
184.7891404984332
 20
250.5886233732518
 30
0.0000000000000000
 11
184.7891404984332
 21
264.0886233729491
 31
0.0000000000000000
  0
LINE
  5
180
100
AcDbEntity
  8
MAIN0
  6
PHANTOM
 62
3
100
AcDbLine
 10
184.7891404984332
 20
269.0886233729491
 30
0.0000000000000000
 11
184.7891404984332
 21
285.9886233732518
 31
0.0000000000000000
  0
LINE
  5
181
100
AcDbEntity
  8
MAIN0
  6
PHANTOM
 62
3
100
AcDbLine
 10
197.6106404984333
 20
237.5886233732519
 30
0.0000000000000000
 11
197.9043904984336
 21
246.9886233732519
 31
0.0000000000000000
  0
LINE
  5
182
100
AcDbEntity
  8
MAIN0
  6
PHANTOM
 62
3
100
AcDbLine
 10
197.9043904984335
 20
246.9886233732519
 30
0.0000000000000000
 11
210.4738904984334
 21
246.9886233732515
 31
0.0000000000000000
  0
LINE
  5
183
100
AcDbEntity
  8
MAIN0
  6
PHANTOM
 62
3
100
AcDbLine
 10
210.4738904984336
 20
246.9886233732515
 30
0.0000000000000000
 11
210.7676404984333
 21
237.5886233732515
 31
0.0000000000000000
  0
LINE
  5
184
100
AcDbEntity
  8
MAIN0
  6
PHANTOM
 62
3
100
AcDbLine
 10
198.4666404984333
 20
237.5886233732518
 30
0.0000000000000000
 11
198.7603904984336
 21
246.9886233732519
 31
0.0000000000000000
  0
LINE
  5
185
100
AcDbEntity
  8
MAIN0
  6
PHANTOM
 62
3
100
AcDbLine
 10
209.9116404984333
 20
237.5886233732514
 30
0.0000000000000000
 11
209.6178904984336
 21
246.9886233732515
 31
0.0000000000000000
  0
LINE
  5
186
100
AcDbEntity
  8
MAIN0
  6
PHANTOM
 62
3
100
AcDbLine
 10
198.7891404984335
 20
246.9886233732518
 30
0.0000000000000000
 11
198.7891404984337
 21
252.5886233732518
 31
0.0000000000000000
  0
LINE
  5
187
100
AcDbEntity
  8
MAIN0
  6
PHANTOM
 62
3
100
AcDbLine
 10
198.7891404984337
 20
252.5886233732518
 30
0.0000000000000000
 11
209.5891404984336
 21
252.5886233732515
 31
0.0000000000000000
  0
LINE
  5
188
100
AcDbEntity
  8
MAIN0
  6
PHANTOM
 62
3
100
AcDbLine
 10
209.5891404984336
 20
252.5886233732515
 30
0.0000000000000000
 11
209.5891404984334
 21
246.9886233732515
 31
0.0000000000000000
  0
LINE
  5
189
100
AcDbEntity
  8
MAIN0
  6
PHANTOM
 62
3
100
AcDbLine
 10
198.7891404984336
 20
252.5886233732519
 30
0.0000000000000000
 11
204.1891404984337
 21
255.7063148268757
 31
0.0000000000000000
  0
LINE
  5
18A
100
AcDbEntity
  8
MAIN0
  6
PHANTOM
 62
3
100
AcDbLine
 10
204.1891404984337
 20
255.7063148268757
 30
0.0000000000000000
 11
209.5891404984336
 21
252.5886233732516
 31
0.0000000000000000
  0
LINE
  5
18B
100
AcDbEntity
  8
MAIN0
  6
CONTINUOUS
 62
3
100
AcDbLine
 10
268.6891404984332
 20
495.0886233732518
 30
0.0000000000000000
 11
273.7891404984332
 21
495.0886233732518
 31
0.0000000000000000
  0
LINE
  5
18C
100
AcDbEntity
  8
MAIN0
  6
CONTINUOUS
 62
3
100
AcDbLine
 10
273.7891404984331
 20
495.0886233732518
 30
0.0000000000000000
 11
274.1891404984332
 21
494.6886233732518
 31
0.0000000000000000
  0
LINE
  5
18D
100
AcDbEntity
  8
MAIN0
  6
CONTINUOUS
 62
3
100
AcDbLine
 10
268.6891404984332
 20
275.0886233732518
 30
0.0000000000000000
 11
273.7891404984332
 21
275.0886233732518
 31
0.0000000000000000
  0
LINE
  5
18E
100
AcDbEntity
  8
MAIN0
  6
CONTINUOUS
 62
3
100
AcDbLine
 10
268.6891404984332
 20
259.0886233732518
 30
0.0000000000000000
 11
268.6891404984332
 21
348.9078763013669
 31
0.0000000000000000
  0
LINE
  5
18F
100
AcDbEntity
  8
MAIN0
  6
CONTINUOUS
 62
3
100
AcDbLine
 10
273.7891404984332
 20
275.0886233732518
 30
0.0000000000000000
 11
274.1891404984332
 21
275.4886233732519
 31
0.0000000000000000
  0
LINE
  5
190
100
AcDbEntity
  8
MAIN0
  6
CENTER
 62
3
100
AcDbLine
 10
181.6891404984324
 20
386.1623413316146
 30
0.0000000000000000
 11
181.6891404984324
 21
346.4310304744359
 31
0.0000000000000000
  0
SPLINE
  5
191
100
AcDbEntity
  8
MAIN0
  6
CONTINUOUS
 62
3
100
AcDbSpline
210
0.0000000000000000
220
0.0000000000000000
230
1.000000000000000
 70
     8
 71
     3
 72
    10
 73
     6
 74
     0
 42
1.000000000000000e-007
 43
1.000000000000000e-007
 12
0.9250380565495107
 22
-0.8849789774763508
 32
0.0000000000000000
 13
0.9356052632269041
 23
-0.8460741007355068
 33
0.0000000000000000
 40
0.0000000000000000
 40
0.0000000000000000
 40
0.0000000000000000
 40
0.0000000000000000
 40
3.179045218976444
 40
5.724737306038803
 40
8.687996256352292
 40
8.687996256352292
 40
8.687996256352292
 40
8.687996256352292
 10
177.9780542481088
 20
352.8969467058382
 30
0.0000000000000000
 10
178.9583001851238
 20
351.9591506434246
 30
0.0000000000000000
 10
180.7235001424021
 20
350.2703932542847
 30
0.0000000000000000
 10
182.6798433802379
 20
354.0889273497174
 30
0.0000000000000000
 10
184.3979112420473
 20
352.5352670847362
 30
0.0000000000000000
 10
185.3220581321198
 20
351.6995548675253
 30
0.0000000000000000
  0
LINE
  5
192
100
AcDbEntity
  8
MAIN0
  6
CONTINUOUS
 62
3
100
AcDbLine
 10
195.6891404985750
 20
397.5886233732518
 30
0.0000000000000000
 11
232.6891404984334
 21
397.5886233732517
 31
0.0000000000000000
  0
LINE
  5
193
100
AcDbEntity
  8
MAIN0
  6
CONTINUOUS
 62
3
100
AcDbLine
 10
230.1891404984332
 20
373.5886233732517
 30
0.0000000000000000
 11
230.1891404984333
 21
396.5886233732518
 31
0.0000000000000000
  0
LINE
  5
194
100
AcDbEntity
  8
MAIN0
  6
CONTINUOUS
 62
3
100
AcDbLine
 10
229.1891404984332
 20
372.5886233732517
 30
0.0000000000000000
 11
230.1891404984332
 21
373.5886233732517
 31
0.0000000000000000
  0
LINE
  5
195
100
AcDbEntity
  8
MAIN0
  6
CONTINUOUS
 62
3
100
AcDbLine
 10
230.1891404984333
 20
396.5886233732517
 30
0.0000000000000000
 11
229.1891404984333
 21
397.5886233732517
 31
0.0000000000000000
  0
LINE
  5
196
100
AcDbEntity
  8
MAIN0
  6
CONTINUOUS
 62
3
100
AcDbLine
 10
229.1891404985044
 20
391.5886233732514
 30
0.0000000000000000
 11
199.1891404984332
 21
391.5886233732517
 31
0.0000000000000000
  0
LINE
  5
197
100
AcDbEntity
  8
MAIN0
  6
CONTINUOUS
 62
3
100
AcDbLine
 10
229.1891404985044
 20
378.5886233732514
 30
0.0000000000000000
 11
199.1891404984332
 21
378.5886233732517
 31
0.0000000000000000
  0
LINE
  5
198
100
AcDbEntity
  8
MAIN0
  6
CONTINUOUS
 62
3
100
AcDbLine
 10
195.6891404985751
 20
372.5886233732517
 30
0.0000000000000000
 11
232.6891404984334
 21
372.5886233732517
 31
0.0000000000000000
  0
LINE
  5
199
100
AcDbEntity
  8
MAIN0
  6
CONTINUOUS
 62
3
100
AcDbLine
 10
198.6891404984332
 20
344.5274990949858
 30
0.0000000000000000
 11
198.6891404984332
 21
372.5886233732517
 31
0.0000000000000000
  0
LINE
  5
19A
100
AcDbEntity
  8
MAIN0
  6
CONTINUOUS
 62
3
100
AcDbLine
 10
198.6891404984332
 20
397.5886233732517
 30
0.0000000000000000
 11
198.6891404984332
 21
425.6497476515178
 31
0.0000000000000000
  0
MTEXT
  5
19B
100
AcDbEntity
  8
MAIN0
  6
CONTINUOUS
 62
3
100
AcDbMText
 10
288.8096161673594
 20
564.3866942002326
 30
0.0000000000000000
 40
4.649999856948853
 41
0.0000000000000000
 71
     1
 72
     1
  1
{\H0.70x;{MIN -10}}
 11
1.000000000000000
 21
0.0000000000000000
 31
0.0000000000000000
  7
STANDARD
  0
ELLIPSE
  5
19C
100
AcDbEntity
  8
MAIN0
  6
PHANTOM
 62
3
100
AcDbEllipse
 10
188.4891404984332
 20
251.8386233732518
 30
0.0000000000000000
 11
0.0000000000000000
 21
1.250000000000000
 31
0.0000000000000000
210
0.0000000000000000
220
0.0000000000000000
230
1.000000000000000
 40
0.5599999999999999
 41
0.0000000000000000
 42
6.283185307179586
  0
ELLIPSE
  5
19D
100
AcDbEntity
  8
MAIN0
  6
PHANTOM
 62
3
100
AcDbEllipse
 10
188.4891404984332
 20
244.3386233732518
 30
0.0000000000000000
 11
0.0000000000000000
 21
1.250000000000000
 31
0.0000000000000000
210
0.0000000000000000
220
0.0000000000000000
230
1.000000000000000
 40
0.5599999999999999
 41
0.0000000000000000
 42
6.283185307179586
  0
ELLIPSE
  5
19E
100
AcDbEntity
  8
MAIN0
  6
PHANTOM
 62
3
100
AcDbEllipse
 10
188.4891404984332
 20
262.8386233729491
 30
0.0000000000000000
 11
0.0000000000000000
 21
1.250000000000000
 31
0.0000000000000000
210
0.0000000000000000
220
0.0000000000000000
230
1.000000000000000
 40
0.5599999999999999
 41
0.0000000000000000
 42
6.283185307179586
  0
ELLIPSE
  5
19F
100
AcDbEntity
  8
MAIN0
  6
PHANTOM
 62
3
100
AcDbEllipse
 10
188.4891404984332
 20
270.3386233729491
 30
0.0000000000000000
 11
0.0000000000000000
 21
1.250000000000000
 31
0.0000000000000000
210
0.0000000000000000
220
0.0000000000000000
230
1.000000000000000
 40
0.5599999999999999
 41
0.0000000000000000
 42
6.283185307179586
  0
SPLINE
  5
1A0
100
AcDbEntity
  8
MAIN0
  6
CONTINUOUS
 62
3
100
AcDbSpline
210
0.0000000000000000
220
0.0000000000000000
230
1.000000000000000
 70
     8
 71
     3
 72
    10
 73
     6
 74
     0
 42
1.000000000000000e-007
 43
1.000000000000000e-007
 12
0.8938598040186889
 22
0.7530485300198393
 32
0.0000000000000000
 13
0.9021910953438237
 23
0.7700472508499843
 33
0.0000000000000000
 40
0.0000000000000000
 40
0.0000000000000000
 40
0.0000000000000000
 40
0.0000000000000000
 40
2.915421729487902
 40
7.016280433109994
 40
10.42250517524707
 40
10.42250517524707
 40
10.42250517524707
 40
10.42250517524707
 10
177.4548337932829
 20
305.2326192216790
 30
0.0000000000000000
 10
178.3234932252002
 20
305.9644372376052
 30
0.0000000000000000
 10
180.4140169094935
 20
307.7256371263921
 30
0.0000000000000000
 10
183.2668057919022
 20
303.1891928286376
 30
0.0000000000000000
 10
185.5244137374911
 20
305.1161291517402
 30
0.0000000000000000
 10
186.5487689478563
 20
305.9904471512268
 30
0.0000000000000000
  0
LINE
  5
1A1
100
AcDbEntity
  8
MAIN0
  6
CONTINUOUS
 62
3
100
AcDbLine
 10
199.1891404984332
 20
378.5886233732517
 30
0.0000000000000000
 11
199.1891404984332
 21
391.5886233732517
 31
0.0000000000000000
  0
LINE
  5
1A2
100
AcDbEntity
  8
MAIN0
  6
CONTINUOUS
 62
3
100
AcDbLine
 10
183.5732658707420
 20
380.3044980009430
 30
0.0000000000000000
 11
184.7891404984331
 21
379.0886233732518
 31
0.0000000000000000
  0
LINE
  5
1A3
100
AcDbEntity
  8
MAIN0
  6
CONTINUOUS
 62
3
100
AcDbLine
 10
190.6891404984332
 20
373.0886233732518
 30
0.0000000000000000
 11
194.7286494350901
 21
373.0886233732518
 31
0.0000000000000000
  0
LINE
  5
1A4
100
AcDbEntity
  8
MAIN0
  6
CONTINUOUS
 62
3
100
AcDbLine
 10
194.7286494350905
 20
373.0886233732515
 30
0.0000000000000000
 11
195.6891404985751
 21
372.5886233732518
 31
0.0000000000000000
  0
ARC
  5
1A5
100
AcDbEntity
  8
MAIN0
  6
CONTINUOUS
 62
3
100
AcDbCircle
 10
190.6891404984332
 20
371.0886233732517
 30
0.0000000000000000
 40
2.000000000000000
100
AcDbArc
 50
90.00000000000000
 51
180.0000000000000
  0
LINE
  5
1A6
100
AcDbEntity
  8
MAIN0
  6
CONTINUOUS
 62
3
100
AcDbLine
 10
184.7891404984332
 20
379.0886233732518
 30
0.0000000000000000
 11
199.1891404984332
 21
379.0886233732518
 31
0.0000000000000000
  0
LINE
  5
1A7
100
AcDbEntity
  8
MAIN0
  6
CONTINUOUS
 62
3
100
AcDbLine
 10
229.1891404985045
 20
378.5886233732512
 30
0.0000000000000000
 11
230.1891404984332
 21
378.0112731041027
 31
0.0000000000000000
  0
LINE
  5
1A8
100
AcDbEntity
  8
MAIN0
  6
CONTINUOUS
 62
3
100
AcDbLine
 10
182.1891404984332
 20
385.2849567891828
 30
0.0000000000000000
 11
182.1891404984333
 21
391.0886233732519
 31
0.0000000000000000
  0
LINE
  5
1A9
100
AcDbEntity
  8
MAIN0
  6
PHANTOM
 62
3
100
AcDbLine
 10
184.7891404984332
 20
330.5886233732518
 30
0.0000000000000000
 11
184.7891404984332
 21
304.6852672357304
 31
0.0000000000000000
  0
LINE
  5
1AA
100
AcDbEntity
  8
MAIN0
  6
CONTINUOUS
 62
3
100
AcDbLine
 10
184.7891404984332
 20
379.0886233732518
 30
0.0000000000000000
 11
184.7891404984332
 21
352.3200942467454
 31
0.0000000000000000
  0
LINE
  5
1AB
100
AcDbEntity
  8
MAIN0
  6
PHANTOM
 62
3
100
AcDbLine
 10
178.5891404984332
 20
306.1212870471424
 30
0.0000000000000000
 11
178.5891404984332
 21
335.5886233732518
 31
0.0000000000000000
  0
LINE
  5
1AC
100
AcDbEntity
  8
MAIN0
  6
CONTINUOUS
 62
3
100
AcDbLine
 10
178.5891404984332
 20
352.3200942467454
 30
0.0000000000000000
 11
178.5891404984332
 21
384.8532404658445
 31
0.0000000000000000
  0
LINE
  5
1AD
100
AcDbEntity
  8
MAIN0
  6
CONTINUOUS
 62
3
100
AcDbLine
 10
178.5891404984332
 20
384.8532404658445
 30
0.0000000000000000
 11
182.1891404985301
 21
391.0886233732519
 31
0.0000000000000000
  0
LINE
  5
1AE
100
AcDbEntity
  8
MAIN0
  6
CONTINUOUS
 62
3
100
AcDbLine
 10
182.1891404984333
 20
391.0886233732518
 30
0.0000000000000000
 11
199.1891404984332
 21
391.0886233732518
 31
0.0000000000000000
  0
LINE
  5
1AF
100
AcDbEntity
  8
MAIN0
  6
CONTINUOUS
 62
3
100
AcDbLine
 10
229.1891404985045
 20
391.5886233732525
 30
0.0000000000000000
 11
230.1891404984332
 21
392.1659736424010
 31
0.0000000000000000
  0
LINE
  5
1B0
100
AcDbEntity
  8
MAIN0
  6
CONTINUOUS
 62
3
100
AcDbLine
 10
194.7286494350905
 20
397.0886233732522
 30
0.0000000000000000
 11
195.6891404985751
 21
397.5886233732518
 31
0.0000000000000000
  0
LINE
  5
1B1
100
AcDbEntity
  8
MAIN0
  6
CONTINUOUS
 62
3
100
AcDbLine
 10
190.6891404984332
 20
397.0886233732519
 30
0.0000000000000000
 11
194.7286494350901
 21
397.0886233732519
 31
0.0000000000000000
  0
ARC
  5
1B2
100
AcDbEntity
  8
MAIN0
  6
CONTINUOUS
 62
3
100
AcDbCircle
 10
190.6891404984332
 20
399.0886233732520
 30
0.0000000000000000
 40
2.000000000000000
100
AcDbArc
 50
180.0000000000000
 51
270.0000000000000
  0
LINE
  5
1B3
100
AcDbEntity
  8
MAIN0
  6
PHANTOM
 62
3
100
AcDbLine
 10
174.1891404984332
 20
283.0886233732518
 30
0.0000000000000000
 11
175.1891404984332
 21
283.0886233732518
 31
0.0000000000000000
  0
LINE
  5
1B4
100
AcDbEntity
  8
MAIN0
  6
PHANTOM
 62
3
100
AcDbLine
 10
174.1891404984332
 20
297.0886233732518
 30
0.0000000000000000
 11
175.1891404984332
 21
297.0886233732518
 31
0.0000000000000000
  0
LINE
  5
1B5
100
AcDbEntity
  8
MAIN0
  6
CONTINUOUS
 62
3
100
AcDbLine
 10
232.6891404984333
 20
398.5886233732518
 30
0.0000000000000000
 11
250.6891404984334
 21
398.5886233732518
 31
0.0000000000000000
  0
LINE
  5
1B6
100
AcDbEntity
  8
MAIN0
  6
CONTINUOUS
 62
3
100
AcDbLine
 10
232.6891404984333
 20
371.5886233732518
 30
0.0000000000000000
 11
250.6891404984333
 21
371.5886233732518
 31
0.0000000000000000
  0
LINE
  5
1B7
100
AcDbEntity
  8
MAIN0
  6
CONTINUOUS
 62
3
100
AcDbLine
 10
236.0891404984333
 20
410.3886233732518
 30
0.0000000000000000
 11
236.0891404984333
 21
407.7886233732518
 31
0.0000000000000000
  0
ARC
  5
1B8
100
AcDbEntity
  8
MAIN0
  6
CONTINUOUS
 62
3
100
AcDbCircle
 10
235.8891404984334
 20
407.7886233732518
 30
0.0000000000000000
 40
0.2000000000000000
100
AcDbArc
 50
270.0000000000000
 51
360.0000000000000
  0
LINE
  5
1B9
100
AcDbEntity
  8
MAIN0
  6
CONTINUOUS
 62
3
100
AcDbLine
 10
240.7891404984333
 20
410.3886233732518
 30
0.0000000000000000
 11
240.7891404984333
 21
407.7886233732518
 31
0.0000000000000000
  0
LINE
  5
1BA
100
AcDbEntity
  8
MAIN0
  6
CONTINUOUS
 62
3
100
AcDbLine
 10
236.2891404984333
 20
410.5886233732518
 30
0.0000000000000000
 11
240.5891404984333
 21
410.5886233732518
 31
0.0000000000000000
  0
ARC
  5
1BB
100
AcDbEntity
  8
MAIN0
  6
CONTINUOUS
 62
3
100
AcDbCircle
 10
236.2891404984333
 20
410.3886233732518
 30
0.0000000000000000
 40
0.2000000000000000
100
AcDbArc
 50
90.00000000000000
 51
180.0000000000000
  0
ARC
  5
1BC
100
AcDbEntity
  8
MAIN0
  6
CONTINUOUS
 62
3
100
AcDbCircle
 10
240.5891404984333
 20
410.3886233732518
 30
0.0000000000000000
 40
0.2000000000000000
100
AcDbArc
 50
0.0000000000000000
 51
90.00000000000000
  0
ARC
  5
1BD
100
AcDbEntity
  8
MAIN0
  6
CONTINUOUS
 62
3
100
AcDbCircle
 10
240.9891404984333
 20
407.7886233732518
 30
0.0000000000000000
 40
0.2000000000000000
100
AcDbArc
 50
180.0000000000000
 51
270.0000000000000
  0
ELLIPSE
  5
1BE
100
AcDbEntity
  8
MAIN0
  6
CONTINUOUS
 62
3
100
AcDbEllipse
 10
238.4391404984334
 20
409.0886233732518
 30
0.0000000000000000
 11
-2.350000000000000
 21
0.0000000000000000
 31
0.0000000000000000
210
0.0000000000000000
220
0.0000000000000000
230
1.000000000000000
 40
0.6382978723404255
 41
0.0000000000000000
 42
6.283185307179586
  0
LINE
  5
1BF
100
AcDbEntity
  8
MAIN0
  6
PHANTOM
 62
3
100
AcDbLine
 10
249.4409849137272
 20
435.0886233732518
 30
0.0000000000000000
 11
274.1891404984332
 21
435.0886233732518
 31
0.0000000000000000
  0
LINE
  5
1C0
100
AcDbEntity
  8
MAIN0
  6
PHANTOM
 62
3
100
AcDbLine
 10
250.5551659023803
 20
407.5886233732518
 30
0.0000000000000000
 11
251.6891404984332
 21
406.9339228349667
 31
0.0000000000000000
  0
LINE
  5
1C1
100
AcDbEntity
  8
MAIN0
  6
PHANTOM
 62
3
100
AcDbLine
 10
251.6891404984332
 20
403.0886233732518
 30
0.0000000000000000
 11
262.1891404985958
 21
403.0886233732518
 31
0.0000000000000000
  0
LINE
  5
1C2
100
AcDbEntity
  8
MAIN0
  6
PHANTOM
 62
3
100
AcDbLine
 10
251.6891404984332
 20
406.9339228349667
 30
0.0000000000000000
 11
251.6891404984332
 21
403.0886233732518
 31
0.0000000000000000
  0
LINE
  5
1C3
100
AcDbEntity
  8
MAIN0
  6
CONTINUOUS
 62
3
100
AcDbLine
 10
269.6891404985958
 20
407.5886233732518
 30
0.0000000000000000
 11
271.6891404984332
 21
406.4339228349667
 31
0.0000000000000000
  0
LINE
  5
1C4
100
AcDbEntity
  8
MAIN0
  6
CONTINUOUS
 62
3
100
AcDbLine
 10
271.6891404984332
 20
406.4339228349667
 30
0.0000000000000000
 11
271.6891404984332
 21
403.0886233732518
 31
0.0000000000000000
  0
LINE
  5
1C5
100
AcDbEntity
  8
MAIN0
  6
CONTINUOUS
 62
3
100
AcDbLine
 10
271.6891404984332
 20
403.0886233732518
 30
0.0000000000000000
 11
282.1891404985958
 21
403.0886233732518
 31
0.0000000000000000
  0
LINE
  5
1C6
100
AcDbEntity
  8
MAIN0
  6
CONTINUOUS
 62
3
100
AcDbLine
 10
282.1891404985958
 20
403.0886233732518
 30
0.0000000000000000
 11
284.1891404984332
 21
401.9339228349667
 31
0.0000000000000000
  0
LINE
  5
1C7
100
AcDbEntity
  8
MAIN0
  6
CONTINUOUS
 62
3
100
AcDbLine
 10
282.1891404985956
 20
367.0886233732517
 30
0.0000000000000000
 11
284.1891404984332
 21
368.2433239115368
 31
0.0000000000000000
  0
LINE
  5
1C8
100
AcDbEntity
  8
MAIN0
  6
CONTINUOUS
 62
3
100
AcDbLine
 10
271.6891404984332
 20
367.0886233732518
 30
0.0000000000000000
 11
282.1891404985958
 21
367.0886233732518
 31
0.0000000000000000
  0
LINE
  5
1C9
100
AcDbEntity
  8
MAIN0
  6
CONTINUOUS
 62
3
100
AcDbLine
 10
271.6891404984332
 20
367.0886233732518
 30
0.0000000000000000
 11
271.6891404984332
 21
363.7433239115370
 31
0.0000000000000000
  0
LINE
  5
1CA
100
AcDbEntity
  8
MAIN0
  6
CONTINUOUS
 62
3
100
AcDbLine
 10
269.6891404985958
 20
362.5886233732517
 30
0.0000000000000000
 11
271.6891404984333
 21
363.7433239115368
 31
0.0000000000000000
  0
LINE
  5
1CB
100
AcDbEntity
  8
MAIN0
  6
PHANTOM
 62
3
100
AcDbLine
 10
264.1891404984332
 20
401.9339228349667
 30
0.0000000000000000
 11
264.1891404984332
 21
399.3233319786447
 31
0.0000000000000000
  0
LINE
  5
1CC
100
AcDbEntity
  8
MAIN0
  6
PHANTOM
 62
3
100
AcDbLine
 10
262.1891404985959
 20
403.0886233732519
 30
0.0000000000000000
 11
264.1891404984334
 21
401.9339228349668
 31
0.0000000000000000
  0
LINE
  5
1CD
100
AcDbEntity
  8
MAIN0
  6
CONTINUOUS
 62
3
100
AcDbLine
 10
284.1891404984332
 20
401.9339228349667
 30
0.0000000000000000
 11
284.1891404984332
 21
396.0886233732518
 31
0.0000000000000000
  0
LINE
  5
1CE
100
AcDbEntity
  8
MAIN0
  6
CONTINUOUS
 62
3
100
AcDbLine
 10
255.6891404984332
 20
369.0886233732518
 30
0.0000000000000000
 11
255.6891404984334
 21
401.0886233732518
 31
0.0000000000000000
  0
LINE
  5
1CF
100
AcDbEntity
  8
MAIN0
  6
CONTINUOUS
 62
3
100
AcDbLine
 10
284.1891404984333
 20
373.6386233732517
 30
0.0000000000000000
 11
282.4891404984334
 21
375.3386233732517
 31
0.0000000000000000
  0
LINE
  5
1D0
100
AcDbEntity
  8
MAIN0
  6
CONTINUOUS
 62
3
100
AcDbLine
 10
283.5310935530761
 20
396.0886233732518
 30
0.0000000000000000
 11
255.6891404984333
 21
396.0886233732518
 31
0.0000000000000000
  0
LINE
  5
1D1
100
AcDbEntity
  8
MAIN0
  6
CONTINUOUS
 62
3
100
AcDbLine
 10
282.4891404984334
 20
375.3386233732518
 30
0.0000000000000000
 11
255.6891404984332
 21
375.3386233732518
 31
0.0000000000000000
  0
LINE
  5
1D2
100
AcDbEntity
  8
MAIN0
  6
CONTINUOUS
 62
3
100
AcDbLine
 10
255.6891404984334
 20
394.8386233732518
 30
0.0000000000000000
 11
282.4891404984333
 21
394.8386233732518
 31
0.0000000000000000
  0
LINE
  5
1D3
100
AcDbEntity
  8
MAIN0
  6
CONTINUOUS
 62
3
100
AcDbLine
 10
284.1891404984332
 20
401.9339228349667
 30
0.0000000000000000
 11
284.1891404984332
 21
397.0886233732518
 31
0.0000000000000000
  0
LINE
  5
1D4
100
AcDbEntity
  8
MAIN0
  6
CONTINUOUS
 62
3
100
AcDbLine
 10
284.1891404984334
 20
396.5386233732519
 30
0.0000000000000000
 11
282.4891404984334
 21
394.8386233732518
 31
0.0000000000000000
  0
LINE
  5
1D5
100
AcDbEntity
  8
MAIN0
  6
CONTINUOUS
 62
3
100
AcDbLine
 10
284.1891404984332
 20
401.9339228349667
 30
0.0000000000000000
 11
284.1891404984332
 21
368.2433239115368
 31
0.0000000000000000
  0
LINE
  5
1D6
100
AcDbEntity
  8
MAIN0
  6
CONTINUOUS
 62
3
100
AcDbLine
 10
283.5310935530761
 20
374.0886233732518
 30
0.0000000000000000
 11
255.6891404984333
 21
374.0886233732518
 31
0.0000000000000000
  0
LINE
  5
1D7
100
AcDbEntity
  8
MAIN0
  6
CONTINUOUS
 62
3
100
AcDbLine
 10
255.6891404984334
 20
375.3386233732518
 30
0.0000000000000000
 11
282.4891404984333
 21
375.3386233732518
 31
0.0000000000000000
  0
LINE
  5
1D8
100
AcDbEntity
  8
MAIN0
  6
CONTINUOUS
 62
3
100
AcDbLine
 10
282.4891404984334
 20
375.3386233732517
 30
0.0000000000000000
 11
282.4891404984334
 21
377.9386233732517
 31
0.0000000000000000
  0
LINE
  5
1D9
100
AcDbEntity
  8
MAIN0
  6
CONTINUOUS
 62
3
100
AcDbLine
 10
282.4891404984334
 20
394.8386233732520
 30
0.0000000000000000
 11
282.4891404984334
 21
392.2386233732519
 31
0.0000000000000000
  0
LINE
  5
1DA
100
AcDbEntity
  8
MAIN0
  6
CONTINUOUS
 62
3
100
AcDbLine
 10
232.6891404984334
 20
371.5886233732518
 30
0.0000000000000000
 11
232.6891404984334
 21
376.8967801023596
 31
0.0000000000000000
  0
LINE
  5
1DB
100
AcDbEntity
  8
MAIN0
  6
CONTINUOUS
 62
3
100
AcDbLine
 10
232.6891404984334
 20
394.5658971704689
 30
0.0000000000000000
 11
232.6891404984334
 21
398.5886233732518
 31
0.0000000000000000
  0
LINE
  5
1DC
100
AcDbEntity
  8
MAIN0
  6
CONTINUOUS
 62
3
100
AcDbLine
 10
234.6256321715369
 20
362.5886233732518
 30
0.0000000000000000
 11
269.6891404985958
 21
362.5886233732518
 31
0.0000000000000000
  0
LINE
  5
1DD
100
AcDbEntity
  8
MAIN0
  6
CONTINUOUS
 62
3
100
AcDbLine
 10
234.6891404984332
 20
407.5886233732518
 30
0.0000000000000000
 11
269.6891404985958
 21
407.5886233732518
 31
0.0000000000000000
  0
LINE
  5
1DE
100
AcDbEntity
  8
MAIN0
  6
CENTER
 62
3
100
AcDbLine
 10
179.5141154896434
 20
266.5886233732518
 30
0.0000000000000000
 11
196.3081455899762
 21
266.5886233732518
 31
0.0000000000000000
  0
LINE
  5
1DF
100
AcDbEntity
  8
MAIN0
  6
PHANTOM
 62
3
100
AcDbLine
 10
179.6891404984332
 20
294.8119983732519
 30
0.0000000000000000
 11
179.6891404984332
 21
285.3652483732519
 31
0.0000000000000000
  0
LINE
  5
1E0
100
AcDbEntity
  8
MAIN0
  6
PHANTOM
 62
3
100
AcDbLine
 10
177.7224529984331
 20
235.6186233732518
 30
0.0000000000000000
 11
185.6558279984332
 21
235.6186233732518
 31
0.0000000000000000
  0
LINE
  5
1E1
100
AcDbEntity
  8
MAIN0
  6
PHANTOM
 62
3
100
AcDbLine
 10
177.9208904984332
 20
241.9686233732518
 30
0.0000000000000000
 11
185.4573904984333
 21
241.9686233732518
 31
0.0000000000000000
  0
LINE
  5
1E2
100
AcDbEntity
  8
MAIN0
  6
PHANTOM
 62
3
100
AcDbLine
 10
178.3741252508108
 20
236.0881354493390
 30
0.0000000000000000
 11
177.3428904984332
 21
235.0886233732519
 31
0.0000000000000000
  0
LINE
  5
1E3
100
AcDbEntity
  8
MAIN0
  6
PHANTOM
 62
3
100
AcDbLine
 10
185.0041557460555
 20
236.0881354493390
 30
0.0000000000000000
 11
186.0353904984332
 21
235.0886233732519
 31
0.0000000000000000
  0
LINE
  5
1E4
100
AcDbEntity
  8
MAIN0
  6
PHANTOM
 62
3
100
AcDbLine
 10
174.6891404984332
 20
294.9682483732519
 30
0.0000000000000000
 11
174.6891404984332
 21
285.2089983732518
 31
0.0000000000000000
  0
LINE
  5
1E5
100
AcDbEntity
  8
MAIN0
  6
PHANTOM
 62
3
100
AcDbLine
 10
175.1891404984332
 20
285.2006784801348
 30
0.0000000000000000
 11
175.1891404984332
 21
283.0886233732518
 31
0.0000000000000000
  0
LINE
  5
1E6
100
AcDbEntity
  8
MAIN0
  6
PHANTOM
 62
3
100
AcDbLine
 10
175.1891404984332
 20
297.0886233732518
 30
0.0000000000000000
 11
175.1891404984332
 21
295.0717732057440
 31
0.0000000000000000
  0
ARC
  5
1E7
100
AcDbEntity
  8
MAIN0
  6
CONTINUOUS
 62
3
100
AcDbCircle
 10
216.8891155936419
 20
400.3886233732516
 30
0.0000000000000000
 40
0.2000000000000000
100
AcDbArc
 50
89.99999999943105
 51
180.0000000000025
  0
LINE
  5
1E8
100
AcDbEntity
  8
MAIN0
  6
CONTINUOUS
 62
3
100
AcDbLine
 10
216.6891155936417
 20
397.5886233732523
 30
0.0000000000000000
 11
216.6891155936417
 21
400.3886233732517
 31
0.0000000000000000
  0
LINE
  5
1E9
100
AcDbEntity
  8
MAIN0
  6
CONTINUOUS
 62
3
100
AcDbLine
 10
221.1891155936419
 20
400.5886233732516
 30
0.0000000000000000
 11
216.8891155936439
 21
400.5886233732516
 31
0.0000000000000000
  0
ARC
  5
1EA
100
AcDbEntity
  8
MAIN0
  6
CONTINUOUS
 62
3
100
AcDbCircle
 10
221.1891155936419
 20
400.3886233732516
 30
0.0000000000000000
 40
0.2000000000000000
100
AcDbArc
 50
5.546887364472373e-012
 51
90.00000000000351
  0
LINE
  5
1EB
100
AcDbEntity
  8
MAIN0
  6
CONTINUOUS
 62
3
100
AcDbLine
 10
221.3891155936418
 20
397.5886233732523
 30
0.0000000000000000
 11
221.3891155936418
 21
400.3886233732516
 31
0.0000000000000000
  0
LINE
  5
1EC
100
AcDbEntity
  8
MAIN0
  6
CENTER
 62
3
100
AcDbLine
 10
247.4059801285279
 20
385.0886233732518
 30
0.0000000000000000
 11
296.1349183286256
 21
385.0886233732518
 31
0.0000000000000000
  0
ARC
  5
1ED
100
AcDbEntity
  8
MAIN0
  6
CONTINUOUS
 62
3
100
AcDbCircle
 10
216.8891155936419
 20
369.7886233732521
 30
0.0000000000000000
 40
0.2000000000000000
100
AcDbArc
 50
179.9999999999975
 51
270.0000000005690
  0
LINE
  5
1EE
100
AcDbEntity
  8
MAIN0
  6
CONTINUOUS
 62
3
100
AcDbLine
 10
216.6891155936417
 20
372.5886233732514
 30
0.0000000000000000
 11
216.6891155936417
 21
369.7886233732520
 31
0.0000000000000000
  0
LINE
  5
1EF
100
AcDbEntity
  8
MAIN0
  6
CONTINUOUS
 62
3
100
AcDbLine
 10
221.1891155936419
 20
369.5886233732521
 30
0.0000000000000000
 11
216.8891155936439
 21
369.5886233732521
 31
0.0000000000000000
  0
ARC
  5
1F0
100
AcDbEntity
  8
MAIN0
  6
CONTINUOUS
 62
3
100
AcDbCircle
 10
221.1891155936419
 20
369.7886233732521
 30
0.0000000000000000
 40
0.2000000000000000
100
AcDbArc
 50
269.9999999999965
 51
359.9999999999944
  0
LINE
  5
1F1
100
AcDbEntity
  8
MAIN0
  6
CONTINUOUS
 62
3
100
AcDbLine
 10
221.3891155936418
 20
372.5886233732514
 30
0.0000000000000000
 11
221.3891155936418
 21
369.7886233732521
 31
0.0000000000000000
  0
ARC
  5
1F2
100
AcDbEntity
  8
MAIN0
  6
CONTINUOUS
 62
3
100
AcDbCircle
 10
232.6891404984332
 20
411.0886233732518
 30
0.0000000000000000
 40
4.000000000000000
100
AcDbArc
 50
180.0000000000000
 51
298.9550243718599
  0
LINE
  5
1F3
100
AcDbEntity
  8
MAIN0
  6
CONTINUOUS
 62
3
100
AcDbLine
 10
228.6891404984332
 20
425.7740007263490
 30
0.0000000000000000
 11
228.6891404984332
 21
411.0886233732518
 31
0.0000000000000000
  0
LINE
  5
1F4
100
AcDbEntity
  8
MAIN0
  6
CONTINUOUS
 62
3
100
AcDbLine
 10
232.1891404984332
 20
407.5886233732518
 30
0.0000000000000000
 11
230.1891404984332
 21
409.5886233732518
 31
0.0000000000000000
  0
LINE
  5
1F5
100
AcDbEntity
  8
MAIN0
  6
CONTINUOUS
 62
3
100
AcDbLine
 10
243.7891404984333
 20
410.1886233732519
 30
0.0000000000000000
 11
243.7891404984333
 21
407.8886233732518
 31
0.0000000000000000
  0
LINE
  5
1F6
100
AcDbEntity
  8
MAIN0
  6
CONTINUOUS
 62
3
100
AcDbLine
 10
248.4891404984332
 20
410.1886233732519
 30
0.0000000000000000
 11
248.4891404984332
 21
409.3886233732518
 31
0.0000000000000000
  0
LINE
  5
1F7
100
AcDbEntity
  8
MAIN0
  6
CONTINUOUS
 62
3
100
AcDbLine
 10
244.1891404984332
 20
410.5886233732518
 30
0.0000000000000000
 11
248.0891404984333
 21
410.5886233732518
 31
0.0000000000000000
  0
ARC
  5
1F8
100
AcDbEntity
  8
MAIN0
  6
CONTINUOUS
 62
3
100
AcDbCircle
 10
244.1891404984332
 20
410.1886233732519
 30
0.0000000000000000
 40
0.4000000000000000
100
AcDbArc
 50
90.00000000000000
 51
180.0000000000000
  0
ARC
  5
1F9
100
AcDbEntity
  8
MAIN0
  6
CONTINUOUS
 62
3
100
AcDbCircle
 10
248.0891404984333
 20
410.1886233732519
 30
0.0000000000000000
 40
0.4000000000000000
100
AcDbArc
 50
0.0000000000000000
 51
90.00000000000000
  0
LINE
  5
1FA
100
AcDbEntity
  8
MAIN0
  6
CONTINUOUS
 62
3
100
AcDbLine
 10
250.4891404984332
 20
412.0886233915020
 30
0.0000000000000000
 11
250.4891404984332
 21
409.3886233732518
 31
0.0000000000000000
  0
LINE
  5
1FB
100
AcDbEntity
  8
MAIN0
  6
CONTINUOUS
 62
3
100
AcDbLine
 10
248.7891404984333
 20
409.0886233732518
 30
0.0000000000000000
 11
250.6891404984333
 21
409.0886233732518
 31
0.0000000000000000
  0
ARC
  5
1FC
100
AcDbEntity
  8
MAIN0
  6
CONTINUOUS
 62
3
100
AcDbCircle
 10
248.7891404984333
 20
409.3886233732518
 30
0.0000000000000000
 40
0.3000000000000000
100
AcDbArc
 50
180.0000000000000
 51
270.0000000000000
  0
ARC
  5
1FD
100
AcDbEntity
  8
MAIN0
  6
CONTINUOUS
 62
3
100
AcDbCircle
 10
250.1891404984333
 20
409.3886233732518
 30
0.0000000000000000
 40
0.3000000000000000
100
AcDbArc
 50
270.0000000000000
 51
360.0000000000000
  0
ARC
  5
1FE
100
AcDbEntity
  8
MAIN0
  6
CONTINUOUS
 62
3
100
AcDbCircle
 10
243.4891404984332
 20
407.8886233732518
 30
0.0000000000000000
 40
0.3000000000000000
100
AcDbArc
 50
270.0000000000000
 51
360.0000000000000
  0
LINE
  5
1FF
100
AcDbEntity
  8
MAIN0
  6
CONTINUOUS
 62
3
100
AcDbLine
 10
250.6891404984333
 20
409.0886233732518
 30
0.0000000000000000
 11
250.6891404984333
 21
407.5886233732518
 31
0.0000000000000000
  0
LINE
  5
200
100
AcDbEntity
  8
MAIN0
  6
CONTINUOUS
 62
3
100
AcDbLine
 10
244.1891404984332
 20
410.5886233732518
 30
0.0000000000000000
 11
244.1891404984332
 21
407.5886233732518
 31
0.0000000000000000
  0
LINE
  5
201
100
AcDbEntity
  8
MAIN0
  6
CONTINUOUS
 62
3
100
AcDbLine
 10
209.6891404984332
 20
397.5886233732517
 30
0.0000000000000000
 11
209.6891404984332
 21
419.7096398734561
 31
0.0000000000000000
  0
LINE
  5
202
100
AcDbEntity
  8
MAIN0
  6
CONTINUOUS
 62
3
100
AcDbLine
 10
188.6891404984332
 20
399.0886233732520
 30
0.0000000000000000
 11
188.6891404984332
 21
427.6125816988672
 31
0.0000000000000000
  0
LINE
  5
203
100
AcDbEntity
  8
MAIN0
  6
CONTINUOUS
 62
3
100
AcDbLine
 10
188.6891404984332
 20
371.0886233732517
 30
0.0000000000000000
 11
188.6891404984332
 21
342.5646650476365
 31
0.0000000000000000
  0
LINE
  5
204
100
AcDbEntity
  8
MAIN0
  6
CONTINUOUS
 62
3
100
AcDbLine
 10
228.6891404984332
 20
344.4032460201547
 30
0.0000000000000000
 11
228.6891404984332
 21
359.0886233732518
 31
0.0000000000000000
  0
ARC
  5
205
100
AcDbEntity
  8
MAIN0
  6
CONTINUOUS
 62
3
100
AcDbCircle
 10
232.6891404984332
 20
359.0886233732518
 30
0.0000000000000000
 40
4.000000000000000
100
AcDbArc
 50
61.04497562814014
 51
180.0000000000000
  0
LINE
  5
206
100
AcDbEntity
  8
MAIN0
  6
CONTINUOUS
 62
3
100
AcDbLine
 10
236.0891404984333
 20
359.7886233732519
 30
0.0000000000000000
 11
236.0891404984333
 21
362.3886233732519
 31
0.0000000000000000
  0
ARC
  5
207
100
AcDbEntity
  8
MAIN0
  6
CONTINUOUS
 62
3
100
AcDbCircle
 10
235.8891404984334
 20
362.3886233732519
 30
0.0000000000000000
 40
0.2000000000000000
100
AcDbArc
 50
0.0000000000000000
 51
90.00000000000000
  0
LINE
  5
208
100
AcDbEntity
  8
MAIN0
  6
CONTINUOUS
 62
3
100
AcDbLine
 10
236.2891404984333
 20
359.5886233732518
 30
0.0000000000000000
 11
240.5891404984333
 21
359.5886233732518
 31
0.0000000000000000
  0
ARC
  5
209
100
AcDbEntity
  8
MAIN0
  6
CONTINUOUS
 62
3
100
AcDbCircle
 10
236.2891404984333
 20
359.7886233732519
 30
0.0000000000000000
 40
0.2000000000000000
100
AcDbArc
 50
180.0000000000000
 51
270.0000000000000
  0
LINE
  5
20A
100
AcDbEntity
  8
MAIN0
  6
CONTINUOUS
 62
3
100
AcDbLine
 10
240.7891404984333
 20
359.7886233732519
 30
0.0000000000000000
 11
240.7891404984333
 21
362.3886233732519
 31
0.0000000000000000
  0
ARC
  5
20B
100
AcDbEntity
  8
MAIN0
  6
CONTINUOUS
 62
3
100
AcDbCircle
 10
240.5891404984333
 20
359.7886233732519
 30
0.0000000000000000
 40
0.2000000000000000
100
AcDbArc
 50
270.0000000000000
 51
360.0000000000000
  0
ARC
  5
20C
100
AcDbEntity
  8
MAIN0
  6
CONTINUOUS
 62
3
100
AcDbCircle
 10
240.9891404984333
 20
362.3886233732519
 30
0.0000000000000000
 40
0.2000000000000000
100
AcDbArc
 50
90.00000000000000
 51
180.0000000000000
  0
ELLIPSE
  5
20D
100
AcDbEntity
  8
MAIN0
  6
CONTINUOUS
 62
3
100
AcDbEllipse
 10
238.4391404984334
 20
361.0886233732518
 30
0.0000000000000000
 11
2.350000000000000
 21
0.0000000000000000
 31
0.0000000000000000
210
0.0000000000000000
220
0.0000000000000000
230
1.000000000000000
 40
0.6382978723404255
 41
0.0000000000000000
 42
6.283185307179586
  0
ARC
  5
20E
100
AcDbEntity
  8
MAIN0
  6
CONTINUOUS
 62
3
100
AcDbCircle
 10
243.4891404984332
 20
362.2886233732519
 30
0.0000000000000000
 40
0.3000000000000000
100
AcDbArc
 50
0.0000000000000000
 51
90.00000000000000
  0
LINE
  5
20F
100
AcDbEntity
  8
MAIN0
  6
CONTINUOUS
 62
3
100
AcDbLine
 10
243.7891404984333
 20
359.9886233732518
 30
0.0000000000000000
 11
243.7891404984333
 21
362.2886233732519
 31
0.0000000000000000
  0
ARC
  5
210
100
AcDbEntity
  8
MAIN0
  6
CONTINUOUS
 62
3
100
AcDbCircle
 10
244.1891404984332
 20
359.9886233732518
 30
0.0000000000000000
 40
0.4000000000000000
100
AcDbArc
 50
180.0000000000000
 51
270.0000000000000
  0
LINE
  5
211
100
AcDbEntity
  8
MAIN0
  6
CONTINUOUS
 62
3
100
AcDbLine
 10
244.1891404984332
 20
359.5886233732518
 30
0.0000000000000000
 11
244.1891404984332
 21
362.5886233732518
 31
0.0000000000000000
  0
LINE
  5
212
100
AcDbEntity
  8
MAIN0
  6
CONTINUOUS
 62
3
100
AcDbLine
 10
244.1891404984332
 20
359.5886233732518
 30
0.0000000000000000
 11
248.0891404984333
 21
359.5886233732518
 31
0.0000000000000000
  0
LINE
  5
213
100
AcDbEntity
  8
MAIN0
  6
CONTINUOUS
 62
3
100
AcDbLine
 10
248.4891404984332
 20
359.9886233732518
 30
0.0000000000000000
 11
248.4891404984332
 21
360.7886233732519
 31
0.0000000000000000
  0
ARC
  5
214
100
AcDbEntity
  8
MAIN0
  6
CONTINUOUS
 62
3
100
AcDbCircle
 10
248.0891404984333
 20
359.9886233732518
 30
0.0000000000000000
 40
0.4000000000000000
100
AcDbArc
 50
270.0000000000000
 51
360.0000000000000
  0
LINE
  5
215
100
AcDbEntity
  8
MAIN0
  6
CONTINUOUS
 62
3
100
AcDbLine
 10
248.7891404984333
 20
361.0886233732518
 30
0.0000000000000000
 11
250.6891404984333
 21
361.0886233732518
 31
0.0000000000000000
  0
ARC
  5
216
100
AcDbEntity
  8
MAIN0
  6
CONTINUOUS
 62
3
100
AcDbCircle
 10
248.7891404984333
 20
360.7886233732519
 30
0.0000000000000000
 40
0.3000000000000000
100
AcDbArc
 50
90.00000000000000
 51
180.0000000000000
  0
LINE
  5
217
100
AcDbEntity
  8
MAIN0
  6
CONTINUOUS
 62
3
100
AcDbLine
 10
250.6891404984333
 20
361.0886233732518
 30
0.0000000000000000
 11
250.6891404984333
 21
362.5886233732518
 31
0.0000000000000000
  0
LINE
  5
218
100
AcDbEntity
  8
MAIN0
  6
CONTINUOUS
 62
3
100
AcDbLine
 10
209.6891404984332
 20
372.5886233732520
 30
0.0000000000000000
 11
209.6891404984332
 21
350.4676068730476
 31
0.0000000000000000
  0
LINE
  5
219
100
AcDbEntity
  8
MAIN0
  6
CONTINUOUS
 62
3
100
AcDbLine
 10
250.4891404984332
 20
347.1829331345952
 30
0.0000000000000000
 11
250.4891404984332
 21
360.7886233732519
 31
0.0000000000000000
  0
ELLIPSE
  5
21A
100
AcDbEntity
  8
MAIN0
  6
CONTINUOUS
 62
3
100
AcDbEllipse
 10
219.0391155936418
 20
399.0886233732516
 30
0.0000000000000000
 11
2.350000000000000
 21
0.0000000000000000
 31
0.0000000000000000
210
0.0000000000000000
220
0.0000000000000000
230
1.000000000000000
 40
0.6382978723404255
 41
0.0000000000000000
 42
6.283185307179586
  0
ELLIPSE
  5
21B
100
AcDbEntity
  8
MAIN0
  6
CONTINUOUS
 62
3
100
AcDbEllipse
 10
219.0391155936417
 20
371.0886233732520
 30
0.0000000000000000
 11
2.350000000000000
 21
0.0000000000000000
 31
0.0000000000000000
210
0.0000000000000000
220
0.0000000000000000
230
1.000000000000000
 40
0.6382978723404255
 41
0.0000000000000000
 42
6.283185307179586
  0
LINE
  5
21C
100
AcDbEntity
  8
MAIN0
  6
CONTINUOUS
 62
3
100
AcDbLine
 10
230.1891404984332
 20
426.5319698030071
 30
0.0000000000000000
 11
230.1891404984332
 21
409.5886233732518
 31
0.0000000000000000
  0
LINE
  5
21D
100
AcDbEntity
  8
MAIN0
  6
CENTER
 62
3
100
AcDbLine
 10
171.4359500982871
 20
385.0886233732518
 30
0.0000000000000000
 11
205.8980696467641
 21
385.0886233732518
 31
0.0000000000000000
  0
LINE
  5
21E
100
AcDbEntity
  8
MAIN0
  6
CENTER
 62
3
100
AcDbLine
 10
215.0480695037130
 20
385.0886233732518
 30
0.0000000000000000
 11
238.2559802715790
 21
385.0886233732518
 31
0.0000000000000000
  0
LINE
  5
21F
100
AcDbEntity
  8
MAIN0
  6
CONTINUOUS
 62
3
100
AcDbLine
 10
230.1891404984332
 20
343.6452769434966
 30
0.0000000000000000
 11
230.1891404984332
 21
360.5886233732518
 31
0.0000000000000000
  0
LINE
  5
220
100
AcDbEntity
  8
MAIN0
  6
CONTINUOUS
 62
3
100
AcDbLine
 10
232.1891404984332
 20
362.5886233732518
 30
0.0000000000000000
 11
230.1891404984332
 21
360.5886233732518
 31
0.0000000000000000
  0
LINE
  5
221
100
AcDbEntity
  8
MAIN0
  6
CONTINUOUS
 62
3
100
AcDbLine
 10
209.6891404984332
 20
398.5886233732518
 30
0.0000000000000000
 11
210.6891404984332
 21
397.5886233732518
 31
0.0000000000000000
  0
LINE
  5
222
100
AcDbEntity
  8
MAIN0
  6
CONTINUOUS
 62
3
100
AcDbLine
 10
209.6891404984332
 20
371.5886233732517
 30
0.0000000000000000
 11
210.6891404984332
 21
372.5886233732518
 31
0.0000000000000000
  0
LEADER
  5
223
100
AcDbEntity
  8
MAIN0
  6
CONTINUOUS
 62
3
100
AcDbLeader
  3
MAIN001
 73
     0
 75
     1
 40
4.649999856948853
 41
58.01900170946124
 76
     3
 10
570.9917975700959
 20
448.1908648862251
 30
0.0000000000000000
 10
498.5121069933314
 20
496.6769410229976
 30
0.0000000000000000
 10
495.6221070770163
 20
496.6769410229976
 30
0.0000000000000000
340
224
213
0.0000000000000000
223
-0.7500000000000000
233
0.0000000000000000
1001
ACAD
1000
DSTYLE
1002
{
1070
   147
1040
0.0
1070
    77
1070
     1
1070
   173
1070
     1
1070
     6
1000
_OPEN
1070
     7
1000
_OPEN
1002
}
  0
MTEXT
  5
224
102
{ACAD_REACTORS
330
223
102
}
100
AcDbEntity
  8
MAIN0
  6
CONTINUOUS
 62
3
100
AcDbMText
 10
437.6031053675550
 20
502.0769408799465
 30
0.0000000000000000
 40
4.649999856948853
 41
0.0000000000000000
 71
     1
 72
     1
  1
{\H0.93x;{6-M16 ネジ深24\P6-M16 DEPTH 24\P}
 11
1.000000000000000
 21
0.0000000000000000
 31
0.0000000000000000
  7
KNJYOKO
  0
LEADER
  5
225
100
AcDbEntity
  8
MAIN0
  6
CONTINUOUS
 62
3
100
AcDbLeader
  3
MAIN001
 73
     0
 74
     0
 75
     1
 40
4.649999856948853
 41
11.98600037193296
 76
     3
 10
275.8331332581112
 20
396.0886233732518
 30
0.0000000000000000
 10
299.1891404984332
 20
430.0886233732518
 30
0.0000000000000000
 10
302.0771404147483
 20
430.0886233732518
 30
0.0000000000000000
340
226
213
0.0000000000000000
223
-0.7500000000000000
233
0.0000000000000000
1001
ACAD
1000
DSTYLE
1002
{
1070
   147
1040
0.0
1070
    77
1070
     1
1070
   173
1070
     1
1070
     6
1000
_OPEN
1070
     7
1000
_OPEN
1002
}
  0
MTEXT
  5
226
102
{ACAD_REACTORS
330
225
102
}
100
AcDbEntity
  8
MAIN0
  6
CONTINUOUS
 62
3
100
AcDbMText
 10
302.0781404147483
 20
435.4886232302007
 30
0.0000000000000000
 40
4.649999856948853
 41
0.0000000000000000
 71
     1
 72
     1
  1
{\H0.90x;{M22}}
 11
1.000000000000000
 21
0.0000000000000000
 31
0.0000000000000000
  7
STANDARD
  0
DIMENSION
  5
22F
100
AcDbEntity
  8
MAIN0
  6
CONTINUOUS
 62
3
100
AcDbDimension
  2
*D15
 10
130.2983995113598
 20
235.0886233732518
 30
0.0000000000000000
 11
129.5483995113598
 21
385.0886233732518
 31
0.0000000000000000
 70
160
  1
\A1;\U+2205300h7
  3
MAIN001
100
AcDbAlignedDimension
 13
174.7891404984332
 23
535.0886233732518
 33
0.0000000000000000
 14
174.7891404984332
 24
235.0886233732518
 34
0.0000000000000000
 50
90.00000000000000
100
AcDbRotatedDimension
1001
ACAD
1000
DSTYLE
1002
{
1070
   173
1070
     1
1070
     6
1000
_OPEN
1070
     7
1000
_OPEN
1070
    41
1040
3.000000
1002
}
  0
DIMENSION
  5
238
100
AcDbEntity
  8
MAIN0
  6
CONTINUOUS
 62
3
100
AcDbDimension
  2
*D16
 10
174.1891404984332
 20
213.6409032562580
 30
0.0000000000000000
 11
195.7919302122741
 21
214.3909032562580
 31
0.0000000000000000
 70
160
  3
MAIN001
100
AcDbAlignedDimension
 13
204.1891404984332
 23
225.7146846332173
 33
0.0000000000000000
 14
174.1891404984332
 24
235.6886233732519
 34
0.0000000000000000
100
AcDbRotatedDimension
1001
ACAD
1000
DSTYLE
1002
{
1070
   173
1070
     1
1070
     6
1000
_OPEN
1070
     7
1000
_OPEN
1070
    41
1040
3.000000
1002
}
  0
DIMENSION
  5
241
100
AcDbEntity
  8
MAIN0
  6
CONTINUOUS
 62
3
100
AcDbDimension
  2
*D17
 10
174.1891404984332
 20
565.0886233732518
 30
0.0000000000000000
 11
224.1891404984332
 21
565.5886233732518
 31
0.0000000000000000
 70
32
  3
MAIN001
100
AcDbAlignedDimension
 13
274.1891404984332
 23
494.6886233732519
 33
0.0000000000000000
 14
174.1891404984332
 24
534.4886233732519
 34
0.0000000000000000
100
AcDbRotatedDimension
1001
ACAD
1000
DSTYLE
1002
{
1070
   173
1070
     1
1070
     6
1000
_OPEN
1070
     7
1000
_OPEN
1070
    41
1040
3.000000
1002
}
  0
DIMENSION
  5
24C
100
AcDbEntity
  8
MAIN0
  6
CONTINUOUS
 62
3
100
AcDbDimension
  2
*D18
 10
268.6891404984332
 20
550.0886233732518
 30
0.0000000000000000
 11
261.6062717032534
 21
550.8386233732518
 31
0.0000000000000000
 70
160
  3
MAIN001
100
AcDbAlignedDimension
 13
274.1891404984332
 23
494.6886233732519
 33
0.0000000000000000
 14
268.6891404984332
 24
511.0886233732518
 34
0.0000000000000000
100
AcDbRotatedDimension
1001
ACAD
1000
DSTYLE
1002
{
1070
   173
1070
     1
1070
     6
1000
_OPEN
1070
     7
1000
_OPEN
1070
    41
1040
3.000000
1070
   287
1070
     0
1002
}
  0
DIMENSION
  5
255
100
AcDbEntity
  8
MAIN0
  6
CONTINUOUS
 62
3
100
AcDbDimension
  2
*D19
 10
344.1891404984332
 20
275.0886233732518
 30
0.0000000000000000
 11
343.4391404984332
 21
385.0886233732518
 31
0.0000000000000000
 70
160
  1
\A1;\U+2205220h7
  3
MAIN001
100
AcDbAlignedDimension
 13
273.7891404984332
 23
495.0886233732518
 33
0.0000000000000000
 14
273.7891404984332
 24
275.0886233732518
 34
0.0000000000000000
 50
90.00000000000000
100
AcDbRotatedDimension
1001
ACAD
1000
DSTYLE
1002
{
1070
   173
1070
     1
1070
     6
1000
_OPEN
1070
     7
1000
_OPEN
1070
    41
1040
3.000000
1002
}
  0
DIMENSION
  5
25E
100
AcDbEntity
  8
MAIN0
  6
CONTINUOUS
 62
3
100
AcDbDimension
  2
*D20
 10
174.1891404984332
 20
199.1523717449495
 30
0.0000000000000000
 11
181.6891404984332
 21
199.6523717449495
 31
0.0000000000000000
 70
32
  3
MAIN001
100
AcDbAlignedDimension
 13
189.1891404984332
 23
235.6886233732519
 33
0.0000000000000000
 14
174.1891404984332
 24
235.6886233732519
 34
0.0000000000000000
100
AcDbRotatedDimension
1001
ACAD
1000
DSTYLE
1002
{
1070
   173
1070
     1
1070
     6
1000
_OPEN
1070
     7
1000
_OPEN
1070
    41
1040
3.000000
1002
}
  0
DIMENSION
  5
267
100
AcDbEntity
  8
MAIN0
  6
CONTINUOUS
 62
3
100
AcDbDimension
  2
*D21
 10
189.1891404984332
 20
199.1523717449495
 30
0.0000000000000000
 11
204.1891404984332
 21
199.6523717449495
 31
0.0000000000000000
 70
32
  3
MAIN001
100
AcDbAlignedDimension
 13
219.1891404984332
 23
237.5886233732517
 33
0.0000000000000000
 14
189.1891404984332
 24
235.6886233732519
 34
0.0000000000000000
100
AcDbRotatedDimension
1001
ACAD
1000
DSTYLE
1002
{
1070
   173
1070
     1
1070
     6
1000
_OPEN
1070
     7
1000
_OPEN
1070
    41
1040
3.000000
1002
}
  0
DIMENSION
  5
270
100
AcDbEntity
  8
MAIN0
  6
CONTINUOUS
 62
3
100
AcDbDimension
  2
*D22
 10
329.1891404984332
 20
362.5886233732518
 30
0.0000000000000000
 11
328.6891404984332
 21
385.0886233732518
 31
0.0000000000000000
 70
32
  1
\A1;\U+220545
  3
MAIN001
100
AcDbAlignedDimension
 13
269.6891404985958
 23
407.5886233732518
 33
0.0000000000000000
 14
269.6891404985958
 24
362.5886233732518
 34
0.0000000000000000
 50
90.00000000000000
100
AcDbRotatedDimension
1001
ACAD
1000
DSTYLE
1002
{
1070
   173
1070
     1
1070
     6
1000
_OPEN
1070
     7
1000
_OPEN
1070
    41
1040
3.000000
1002
}
  0
DIMENSION
  5
279
100
AcDbEntity
  8
MAIN0
  6
CONTINUOUS
 62
3
100
AcDbDimension
  2
*D23
 10
174.1891404984332
 20
565.0886233732518
 30
0.0000000000000000
 11
224.1891404984332
 21
565.5886233732518
 31
0.0000000000000000
 70
32
  3
MAIN001
100
AcDbAlignedDimension
 13
274.1891404984332
 23
494.6886233732519
 33
0.0000000000000000
 14
174.1891404984332
 24
534.4886233732519
 34
0.0000000000000000
100
AcDbRotatedDimension
1001
ACAD
1000
DSTYLE
1002
{
1070
   173
1070
     1
1070
     6
1000
_OPEN
1070
     7
1000
_OPEN
1070
    41
1040
3.000000
1002
}
  0
DIMENSION
  5
284
100
AcDbEntity
  8
MAIN0
  6
CONTINUOUS
 62
3
100
AcDbDimension
  2
*D24
 10
274.1891404984332
 20
565.0886233732518
 30
0.0000000000000000
 11
299.6116537618059
 21
565.8386233732518
 31
0.0000000000000000
 70
160
  1
\A1;MAX  10
  3
MAIN001
100
AcDbAlignedDimension
 13
284.1891404984332
 23
401.9339228349667
 33
0.0000000000000000
 14
274.1891404984332
 24
494.6886233732519
 34
0.0000000000000000
100
AcDbRotatedDimension
1001
ACAD
1000
DSTYLE
1002
{
1070
   173
1070
     1
1070
     6
1000
_OPEN
1070
     7
1000
_OPEN
1070
    41
1040
3.000000
1070
   287
1070
     0
1002
}
  0
DIMENSION
  5
28D
100
AcDbEntity
  8
MAIN0
  6
CONTINUOUS
 62
3
100
AcDbDimension
  2
*D25
 10
174.1891404984332
 20
588.1833032951001
 30
0.0000000000000000
 11
229.1891404984332
 21
588.6833032951001
 31
0.0000000000000000
 70
32
  3
MAIN001
100
AcDbAlignedDimension
 13
284.1891404984332
 23
401.9339228349667
 33
0.0000000000000000
 14
174.1891404984332
 24
534.4886233732519
 34
0.0000000000000000
100
AcDbRotatedDimension
1001
ACAD
1000
DSTYLE
1002
{
1070
   173
1070
     1
1070
     6
1000
_OPEN
1070
     7
1000
_OPEN
1070
    41
1040
3.000000
1002
}
  0
DIMENSION
  5
296
100
AcDbEntity
  8
MAIN0
  6
CONTINUOUS
 62
3
100
AcDbDimension
  2
*D26
 10
213.7601698932264
 20
378.5886233732514
 30
0.0000000000000000
 11
213.0101698932264
 21
384.7680368668925
 31
0.0000000000000000
 70
160
  1
\A1;\U+220513
  3
MAIN001
100
AcDbAlignedDimension
 13
229.1891404985044
 23
391.5886233732514
 33
0.0000000000000000
 14
229.1891404985044
 24
378.5886233732514
 34
0.0000000000000000
 50
90.00000000000000
100
AcDbRotatedDimension
1001
ACAD
1000
DSTYLE
1002
{
1070
   173
1070
     1
1070
     6
1000
_OPEN
1070
     7
1000
_OPEN
1070
    41
1040
3.000000
1070
   287
1070
     0
1002
}
  0
DIMENSION
  5
29F
100
AcDbEntity
  8
MAIN0
  6
CONTINUOUS
 62
3
100
AcDbDimension
  2
*D27
 10
245.9059801285279
 20
397.5886233732517
 30
0.0000000000000000
 11
245.4059801285279
 21
385.0886233732517
 31
0.0000000000000000
 70
32
  1
\A1;\U+220525
  3
MAIN001
100
AcDbAlignedDimension
 13
232.6891404984334
 23
372.5886233732517
 33
0.0000000000000000
 14
232.6891404984334
 24
397.5886233732517
 34
0.0000000000000000
 50
90.00000000000000
100
AcDbRotatedDimension
1001
ACAD
1000
DSTYLE
1002
{
1070
   173
1070
     1
1070
     6
1000
_OPEN
1070
     7
1000
_OPEN
1070
    41
1040
3.000000
1002
}
  0
ELLIPSE
  5
2A0
100
AcDbEntity
  8
MAIN0
  6
CONTINUOUS
 62
3
100
AcDbEllipse
 10
639.1891404984332
 20
422.0886233916126
 30
0.0000000000000000
 11
-12.50000000000000
 21
0.0000000000000000
 31
0.0000000000000000
210
0.0000000000000000
220
0.0000000000000000
230
1.000000000000000
 40
0.8000000000000000
 41
0.4510268117962626
 42
2.690565841793531
  0
ELLIPSE
  5
2A1
100
AcDbEntity
  8
MAIN0
  6
CONTINUOUS
 62
3
100
AcDbEllipse
 10
616.6891404984332
 20
422.0886233916126
 30
0.0000000000000000
 11
-12.50000000000000
 21
0.0000000000000000
 31
0.0000000000000000
210
0.0000000000000000
220
0.0000000000000000
230
1.000000000000000
 40
0.8000000000000000
 41
0.0000000000000000
 42
2.690565841793531
  0
ELLIPSE
  5
2A2
100
AcDbEntity
  8
MAIN0
  6
CONTINUOUS
 62
3
100
AcDbEllipse
 10
661.6891404984332
 20
422.0886233916126
 30
0.0000000000000000
 11
-12.50000000000000
 21
0.0000000000000000
 31
0.0000000000000000
210
0.0000000000000000
220
0.0000000000000000
230
1.000000000000000
 40
0.8000000000000000
 41
0.4510268117962626
 42
3.141592653589793
  0
LINE
  5
2A3
100
AcDbEntity
  8
MAIN0
  6
CONTINUOUS
 62
3
100
AcDbLine
 10
178.5891404984333
 20
384.8532404658445
 30
0.0000000000000000
 11
180.6368330683905
 21
383.1350223856290
 31
0.0000000000000000
  0
SPLINE
  5
2A4
100
AcDbEntity
  8
MAIN0
  6
CONTINUOUS
 62
3
100
AcDbSpline
210
0.0000000000000000
220
0.0000000000000000
230
1.000000000000000
 70
     8
 71
     3
 72
    12
 73
     8
 74
     0
 42
1.000000000000000e-007
 43
1.000000000000000e-007
 12
-0.9322527706347472
 22
0.5267972078666645
 32
0.0000000000000000
 13
-0.9627496762823924
 23
0.5547576621988526
 33
0.0000000000000000
 40
0.0000000000000000
 40
0.0000000000000000
 40
0.0000000000000000
 40
0.0000000000000000
 40
13.55330143784027
 40
40.99910554552635
 40
64.88626243751902
 40
86.23069717422101
 40
106.8749646465221
 40
106.8749646465221
 40
106.8749646465221
 40
106.8749646465221
 10
274.1891404984332
 20
345.9956868027130
 30
0.0000000000000000
 10
269.9774395595417
 20
348.3756339209895
 30
0.0000000000000000
 10
257.2369296467538
 20
355.5750386964609
 30
0.0000000000000000
 10
236.4267340044370
 20
332.8949694671949
 30
0.0000000000000000
 10
214.1453697864103
 20
358.9508250583903
 30
0.0000000000000000
 10
194.2890975935267
 20
337.3274968925567
 30
0.0000000000000000
 10
180.8142277737815
 20
345.0920149846334
 30
0.0000000000000000
 10
174.1891404984332
 20
348.9095368382139
 30
0.0000000000000000
  0
LINE
  5
2A5
100
AcDbEntity
  8
MAIN0
  6
CENTER
 62
3
100
AcDbLine
 10
169.4717791080614
 20
290.0886233732518
 30
0.0000000000000000
 11
195.4198822713881
 21
290.0886233732518
 31
0.0000000000000000
  0
LINE
  5
2A6
100
AcDbEntity
  8
MAIN0
  6
CONTINUOUS
 62
3
100
AcDbLine
 10
267.6891404984332
 20
258.0886233732518
 30
0.0000000000000000
 11
268.6891404984332
 21
259.0886233732518
 31
0.0000000000000000
  0
SPLINE
  5
2A7
100
AcDbEntity
  8
MAIN0
  6
CONTINUOUS
 62
3
100
AcDbSpline
210
0.0000000000000000
220
0.0000000000000000
230
1.000000000000000
 70
     8
 71
     3
 72
    12
 73
     8
 74
     0
 42
1.000000000000000e-007
 43
1.000000000000000e-007
 12
-0.9322527706347472
 22
-0.5267972078666645
 32
0.0000000000000000
 13
-0.9627496762823924
 23
-0.5547576621988526
 33
0.0000000000000000
 40
0.0000000000000000
 40
0.0000000000000000
 40
0.0000000000000000
 40
0.0000000000000000
 40
13.55330143784027
 40
40.99910554552635
 40
64.88626243751902
 40
86.23069717422101
 40
106.8749646465221
 40
106.8749646465221
 40
106.8749646465221
 40
106.8749646465221
 10
274.1891404984332
 20
424.1815599437907
 30
0.0000000000000000
 10
269.9774395595417
 20
421.8016128255142
 30
0.0000000000000000
 10
257.2369296467538
 20
414.6022080500428
 30
0.0000000000000000
 10
236.4267340044370
 20
437.2822772793088
 30
0.0000000000000000
 10
214.1453697864103
 20
411.2264216881133
 30
0.0000000000000000
 10
194.2890975935267
 20
432.8497498539470
 30
0.0000000000000000
 10
180.8142277737815
 20
425.0852317618703
 30
0.0000000000000000
 10
174.1891404984332
 20
421.2677099082898
 30
0.0000000000000000
  0
LINE
  5
2A8
100
AcDbEntity
  8
MAIN0
  6
CONTINUOUS
 62
3
100
AcDbLine
 10
267.6891404984332
 20
512.0886233732518
 30
0.0000000000000000
 11
268.6891404984332
 21
511.0886233732518
 31
0.0000000000000000
  0
LINE
  5
2A9
100
AcDbEntity
  8
MAIN0
  6
PHANTOM
 62
3
100
AcDbLine
 10
245.2483625710772
 20
512.0886233732518
 30
0.0000000000000000
 11
249.9015141484214
 21
423.3012020973747
 31
0.0000000000000000
  0
LINE
  5
2AA
100
AcDbEntity
  8
MAIN0
  6
CONTINUOUS
 62
3
100
AcDbLine
 10
249.9015141484214
 20
423.3012020973746
 30
0.0000000000000000
 11
250.4891404984523
 21
412.0886233911380
 31
0.0000000000000000
  0
DIMENSION
  5
2B3
100
AcDbEntity
  8
MAIN0
  6
CONTINUOUS
 62
3
100
AcDbDimension
  2
*D28
 10
359.1891404984332
 20
512.0886233732518
 30
0.0000000000000000
 11
358.6891404984332
 21
385.0886233732518
 31
0.0000000000000000
 70
32
  1
\A1;\U+2205254
  3
MAIN001
100
AcDbAlignedDimension
 13
267.6891404984332
 23
258.0886233732518
 33
0.0000000000000000
 14
267.6891404984332
 24
512.0886233732518
 34
0.0000000000000000
 50
90.00000000000000
100
AcDbRotatedDimension
1001
ACAD
1000
DSTYLE
1002
{
1070
   173
1070
     1
1070
     6
1000
_OPEN
1070
     7
1000
_OPEN
1070
    41
1040
3.000000
1002
}
  0
LINE
  5
2B4
100
AcDbEntity
  8
MAIN0
  6
PHANTOM
 62
3
100
AcDbLine
 10
174.6891404230597
 20
421.5557398138052
 30
0.0000000000000000
 11
174.6891404967702
 21
464.1281323132874
 31
0.0000000000000000
  0
LINE
  5
2B5
100
AcDbEntity
  8
MAIN0
  6
PHANTOM
 62
3
100
AcDbLine
 10
174.6891404961486
 20
306.0491144320223
 30
0.0000000000000000
 11
174.6891403948867
 21
348.6215069489187
 31
0.0000000000000000
  0
LINE
  5
2B6
100
AcDbEntity
  8
MAIN0
  6
CONTINUOUS
 62
3
100
AcDbLine
 10
174.6891403948867
 20
348.6215069489187
 30
0.0000000000000000
 11
174.6891404230597
 21
421.5557398138052
 31
0.0000000000000000
  0
DIMENSION
  5
2C1
100
AcDbEntity
  8
MAIN0
  6
CONTINUOUS
 62
3
100
AcDbDimension
  2
*D29
 10
271.6891404984332
 20
335.0886233732518
 30
0.0000000000000000
 11
293.0781755642018
 21
335.8386233732518
 31
0.0000000000000000
 70
160
  3
MAIN001
100
AcDbAlignedDimension
 13
284.1891404984332
 23
368.2433239115368
 33
0.0000000000000000
 14
271.6891404984332
 24
363.7433239115370
 34
0.0000000000000000
100
AcDbRotatedDimension
1001
ACAD
1000
DSTYLE
1002
{
1070
   173
1070
     1
1070
     6
1000
_OPEN
1070
     7
1000
_OPEN
1070
    41
1040
3.000000
1070
   287
1070
     0
1002
}
  0
DIMENSION
  5
2C9
100
AcDbEntity
  8
MAIN0
  6
CONTINUOUS
 62
3
100
AcDbDimension
  2
*D30
 10
274.1891404984332
 20
320.0886233732518
 30
0.0000000000000000
 11
252.1891404984332
 21
320.5886233732518
 31
0.0000000000000000
 70
32
  3
MAIN001
100
AcDbAlignedDimension
 13
230.1891404984332
 23
373.5886233732517
 33
0.0000000000000000
 14
274.1891404984332
 24
275.4886233732518
 34
0.0000000000000000
100
AcDbRotatedDimension
1001
ACAD
1000
DSTYLE
1002
{
1070
   173
1070
     1
1070
     6
1000
_OPEN
1070
     7
1000
_OPEN
1070
    41
1040
3.000000
1002
}
  0
DIMENSION
  5
2D2
100
AcDbEntity
  8
MAIN0
  6
CONTINUOUS
 62
3
100
AcDbDimension
  2
*D31
 10
230.1891404984332
 20
320.0886233732518
 30
0.0000000000000000
 11
214.6891404984332
 21
320.5886233732518
 31
0.0000000000000000
 70
32
  3
MAIN001
100
AcDbAlignedDimension
 13
199.1891404984332
 23
378.5886233732517
 33
0.0000000000000000
 14
230.1891404984332
 24
373.5886233732517
 34
0.0000000000000000
100
AcDbRotatedDimension
1001
ACAD
1000
DSTYLE
1002
{
1070
   173
1070
     1
1070
     6
1000
_OPEN
1070
     7
1000
_OPEN
1070
    41
1040
3.000000
1002
}
  0
DIMENSION
  5
2DB
100
AcDbEntity
  8
MAIN0
  6
CONTINUOUS
 62
3
100
AcDbDimension
  2
*D32
 10
255.6891404984333
 20
445.0886233732518
 30
0.0000000000000000
 11
266.4378422010090
 21
445.8386233732518
 31
0.0000000000000000
 70
160
  3
MAIN001
100
AcDbAlignedDimension
 13
284.1891404984332
 23
401.9339228349667
 33
0.0000000000000000
 14
255.6891404984334
 24
398.5886233732516
 34
0.0000000000000000
100
AcDbRotatedDimension
1001
ACAD
1000
DSTYLE
1002
{
1070
   173
1070
     1
1070
     6
1000
_OPEN
1070
     7
1000
_OPEN
1070
    41
1040
3.000000
1002
}
  0
LINE
  5
2DC
100
AcDbEntity
  8
MAIN0
  6
CONTINUOUS
 62
3
100
AcDbLine
 10
268.6891404984332
 20
421.2693704451368
 30
0.0000000000000000
 11
268.6891404984332
 21
443.5886233732518
 31
0.0000000000000000
  0
LINE
  5
2DD
100
AcDbEntity
  8
MAIN0
  6
CONTINUOUS
 62
3
100
AcDbLine
 10
268.6891404984332
 20
452.7386232302007
 30
0.0000000000000000
 11
268.6891404984332
 21
511.0886233732518
 31
0.0000000000000000
  0
DIMENSION
  5
2E6
100
AcDbEntity
  8
MAIN0
  6
CONTINUOUS
 62
3
100
AcDbDimension
  2
*D33
 10
314.1891404984332
 20
403.0886233732518
 30
0.0000000000000000
 11
313.6891404984332
 21
385.0886233732518
 31
0.0000000000000000
 70
32
  1
\A1;\U+220536
  3
MAIN001
100
AcDbAlignedDimension
 13
282.1891404985958
 23
367.0886233732518
 33
0.0000000000000000
 14
282.1891404985958
 24
403.0886233732518
 34
0.0000000000000000
 50
90.00000000000000
100
AcDbRotatedDimension
1001
ACAD
1000
DSTYLE
1002
{
1070
   173
1070
     1
1070
     6
1000
_OPEN
1070
     7
1000
_OPEN
1070
    41
1040
3.000000
1002
}
  0
LINE
  5
2E7
100
AcDbEntity
  8
MAIN0
  6
HIDDEN
 62
3
100
AcDbLine
 10
636.0891404984332
 20
240.9886233732518
 30
0.0000000000000000
 11
636.0891404984332
 21
379.9515035576352
 31
0.0000000000000000
  0
LINE
  5
2E8
100
AcDbEntity
  8
MAIN0
  6
HIDDEN
 62
3
100
AcDbLine
 10
642.2891404984332
 20
240.9886233732518
 30
0.0000000000000000
 11
642.2891404984332
 21
379.9515035576353
 31
0.0000000000000000
  0
DIMENSION
  5
2F1
100
AcDbEntity
  8
MAIN0
  6
CONTINUOUS
 62
3
100
AcDbDimension
  2
*D34
 10
219.1891404984332
 20
199.1523717449495
 30
0.0000000000000000
 11
246.6891404984332
 21
199.6523717449495
 31
0.0000000000000000
 70
32
  3
MAIN001
100
AcDbAlignedDimension
 13
274.1891404984332
 23
275.4886233732518
 33
0.0000000000000000
 14
219.1891404984332
 24
237.5886233732517
 34
0.0000000000000000
100
AcDbRotatedDimension
1001
ACAD
1000
DSTYLE
1002
{
1070
   173
1070
     1
1070
     6
1000
_OPEN
1070
     7
1000
_OPEN
1070
    41
1040
3.000000
1002
}
  0
MTEXT
  5
2F2
100
AcDbEntity
  8
MAIN0
  6
CONTINUOUS
 62
3
100
AcDbMText
 10
210.4556665904419
 20
587.3445498327772
 30
0.0000000000000000
 40
4.649999856948853
 41
0.0000000000000000
 71
     1
 72
     1
  1
{\H0.70x;{(ピストン前進端時)}}
 11
1.000000000000000
 21
0.0000000000000000
 31
0.0000000000000000
  7
KNJYOKO
  0
ELLIPSE
  5
2F3
100
AcDbEntity
  8
MAIN0
  6
CONTINUOUS
 62
3
100
AcDbEllipse
 10
618.3962005425079
 20
347.1030517789216
 30
0.0000000000000000
 11
6.249999999999973
 21
-10.82531754730550
 31
0.0000000000000000
210
0.0000000000000000
220
0.0000000000000000
230
1.000000000000000
 40
0.8000000000000000
 41
0.0000000000000000
 42
2.690565841793535
  0
ELLIPSE
  5
2F4
100
AcDbEntity
  8
MAIN0
  6
CONTINUOUS
 62
3
100
AcDbEllipse
 10
607.1462005425079
 20
366.5886233640715
 30
0.0000000000000000
 11
6.249999999999973
 21
-10.82531754730550
 31
0.0000000000000000
210
0.0000000000000000
220
0.0000000000000000
230
1.000000000000000
 40
0.8000000000000000
 41
0.4510268117962619
 42
2.690565841793535
  0
ELLIPSE
  5
2F5
100
AcDbEntity
  8
MAIN0
  6
CONTINUOUS
 62
3
100
AcDbEllipse
 10
595.8962005425080
 20
386.0741949492214
 30
0.0000000000000000
 11
6.249999999999973
 21
-10.82531754730550
 31
0.0000000000000000
210
0.0000000000000000
220
0.0000000000000000
230
1.000000000000000
 40
0.8000000000000000
 41
0.4510268117962723
 42
3.141592686909803
  0
LINE
  5
2F6
100
AcDbEntity
  8
MAIN0
  6
CONTINUOUS
 62
3
100
AcDbLine
 10
590.7658483063008
 20
397.5459414343503
 30
0.0000000000000000
 11
516.2152100701039
 21
354.5041103804238
 31
0.0000000000000000
  0
LINE
  5
2F7
100
AcDbEntity
  8
MAIN0
  6
CONTINUOUS
 62
3
100
AcDbLine
 10
625.7658483063005
 20
336.9241631694395
 30
0.0000000000000000
 11
551.2152100701038
 21
293.8823321155130
 31
0.0000000000000000
  0
ELLIPSE
  5
2F8
100
AcDbEntity
  8
MAIN0
  6
CONTINUOUS
 62
3
100
AcDbEllipse
 10
682.4820804543583
 20
386.0741949492211
 30
0.0000000000000000
 11
6.250000000000044
 21
10.82531754730546
 31
0.0000000000000000
210
0.0000000000000000
220
0.0000000000000000
230
1.000000000000000
 40
0.8000000000000000
 41
0.0000000000000000
 42
2.690565841793537
  0
ELLIPSE
  5
2F9
100
AcDbEntity
  8
MAIN0
  6
CONTINUOUS
 62
3
100
AcDbEllipse
 10
671.2320804543582
 20
366.5886233640712
 30
0.0000000000000000
 11
6.250000000000044
 21
10.82531754730546
 31
0.0000000000000000
210
0.0000000000000000
220
0.0000000000000000
230
1.000000000000000
 40
0.8000000000000000
 41
0.4510268117962629
 42
2.690565841793527
  0
ELLIPSE
  5
2FA
100
AcDbEntity
  8
MAIN0
  6
CONTINUOUS
 62
3
100
AcDbEllipse
 10
659.9820804543581
 20
347.1030517789215
 30
0.0000000000000000
 11
6.250000000000044
 21
10.82531754730546
 31
0.0000000000000000
210
0.0000000000000000
220
0.0000000000000000
230
1.000000000000000
 40
0.8000000000000000
 41
0.4510268117962629
 42
3.141592686909803
  0
LINE
  5
2FB
100
AcDbEntity
  8
MAIN0
  6
CONTINUOUS
 62
3
100
AcDbLine
 10
652.6124326905651
 20
336.9241631694393
 30
0.0000000000000000
 11
727.1630709267616
 21
293.8823321155124
 31
0.0000000000000000
  0
LINE
  5
2FC
100
AcDbEntity
  8
MAIN0
  6
CONTINUOUS
 62
3
100
AcDbLine
 10
687.6124326905655
 20
397.5459414343499
 30
0.0000000000000000
 11
762.1630709267620
 21
354.5041103804230
 31
0.0000000000000000
  0
LINE
  5
2FD
100
AcDbEntity
  8
MAIN0
  6
CENTER
 62
3
100
AcDbLine
 10
621.5010083913232
 20
395.3008712067533
 30
0.0000000000000000
 11
629.6628610568046
 21
390.5886233732516
 31
0.0000000000000000
  0
LINE
  5
2FE
100
AcDbEntity
  8
MAIN0
  6
CONTINUOUS
 62
3
100
AcDbLine
 10
250.6891404984332
 20
369.0886233732518
 30
0.0000000000000000
 11
250.6891404984334
 21
401.0886233732518
 31
0.0000000000000000
  0
LINE
  5
2FF
100
AcDbEntity
  8
MAIN0
  6
CONTINUOUS
 62
3
100
AcDbLine
 10
250.6891404984334
 20
401.0886233732518
 30
0.0000000000000000
 11
255.6891404984334
 21
401.0886233732518
 31
0.0000000000000000
  0
LINE
  5
300
100
AcDbEntity
  8
MAIN0
  6
CONTINUOUS
 62
3
100
AcDbLine
 10
250.6891404984332
 20
369.0886233732518
 30
0.0000000000000000
 11
255.6891404984332
 21
369.0886233732518
 31
0.0000000000000000
  0
LINE
  5
301
100
AcDbEntity
  8
MAIN0
  6
PHANTOM
 62
3
100
AcDbLine
 10
174.1891404984332
 20
305.0886233729246
 30
0.0000000000000000
 11
174.6891404961484
 21
306.0491144320223
 31
0.0000000000000000
  0
LINE
  5
302
100
AcDbEntity
  8
MAIN0
  6
PHANTOM
 62
3
100
AcDbLine
 10
174.1891404984332
 20
465.0886233735793
 30
0.0000000000000000
 11
174.6891404967701
 21
464.1281323132874
 31
0.0000000000000000
  0
DIMENSION
  5
30B
100
AcDbEntity
  8
MAIN0
  6
CONTINUOUS
 62
3
100
AcDbDimension
  2
*D35
 10
174.6891403948867
 20
403.1996202798813
 30
0.0000000000000000
 11
167.7752278392946
 21
403.9496202798813
 31
0.0000000000000000
 70
160
  1
\A1;0.2
  3
MAIN001
100
AcDbAlignedDimension
 13
174.1891404984332
 23
534.4886233732519
 33
0.0000000000000000
 14
174.6891403948867
 24
348.6215069489187
 34
0.0000000000000000
100
AcDbRotatedDimension
1001
ACAD
1000
DSTYLE
1002
{
1070
   173
1070
     1
1070
     6
1000
_OPEN
1070
     7
1000
_OPEN
1070
    41
1040
3.000000
1070
   287
1070
     0
1002
}
  0
DIMENSION
  5
314
100
AcDbEntity
  8
MAIN0
  6
CONTINUOUS
 62
3
100
AcDbDimension
  2
*D36
 10
150.3976489000174
 20
465.0886233735793
 30
0.0000000000000000
 11
149.8976489000174
 21
385.0886233732520
 31
0.0000000000000000
 70
33
  1
\A1;\U+2205160
  3
MAIN001
100
AcDbAlignedDimension
 13
174.1891404984332
 23
305.0886233729246
 33
0.0000000000000000
 14
174.1891404984332
 24
465.0886233735793
 34
0.0000000000000000
 50
90.00000000000000
1001
ACAD
1000
DSTYLE
1002
{
1070
   173
1070
     1
1070
     6
1000
_OPEN
1070
     7
1000
_OPEN
1070
    41
1040
3.000000
1002
}
  0
DIMENSION
  5
31D
100
AcDbEntity
  8
MAIN0
  6
CONTINUOUS
 62
3
100
AcDbDimension
  2
*D37
 10
150.3976489000174
 20
297.0886233732518
 30
0.0000000000000000
 11
149.8976489000174
 21
290.0886233732518
 31
0.0000000000000000
 70
32
  1
\A1;\U+220514
  3
MAIN001
100
AcDbAlignedDimension
 13
174.1891404984332
 23
283.0886233732518
 33
0.0000000000000000
 14
174.1891404984332
 24
297.0886233732518
 34
0.0000000000000000
 50
90.00000000000000
100
AcDbRotatedDimension
1001
ACAD
1000
DSTYLE
1002
{
1070
   173
1070
     1
1070
     6
1000
_OPEN
1070
     7
1000
_OPEN
1070
    41
1040
3.000000
1002
}
  0
LEADER
  5
31E
100
AcDbEntity
  8
MAIN0
  6
CONTINUOUS
 62
3
100
AcDbLeader
  3
MAIN001
 73
     0
 75
     1
 40
4.649999856948853
 41
74.75900219583514
 76
     3
 10
563.3046189948761
 20
507.5036775232878
 30
0.0000000000000000
 10
531.8682397276619
 20
535.1348620414043
 30
0.0000000000000000
 10
528.9782398113468
 20
535.1348620414043
 30
0.0000000000000000
340
31F
213
0.0000000000000000
223
-0.7500000000000000
233
0.0000000000000000
1001
ACAD
1000
DSTYLE
1002
{
1070
   147
1040
0.0
1070
    77
1070
     1
1070
   173
1070
     1
1070
     6
1000
_OPEN
1070
     7
1000
_OPEN
1002
}
  0
MTEXT
  5
31F
102
{ACAD_REACTORS
330
31E
102
}
100
AcDbEntity
  8
MAIN0
  6
CONTINUOUS
 62
3
100
AcDbMText
 10
454.2192376155117
 20
540.5348618983531
 30
0.0000000000000000
 40
4.649999856948853
 41
0.0000000000000000
 71
     1
 72
     1
  1
{\H0.94x;{6-M12貫通\P6-M12 PASS THROUGH}}
 11
1.000000000000000
 21
0.0000000000000000
 31
0.0000000000000000
  7
KNJYOKO
  0
MTEXT
  5
320
100
AcDbEntity
  8
MAIN0
  6
CONTINUOUS
 62
3
100
AcDbMText
 10
199.6237865282418
 20
575.9634308656946
 30
0.0000000000000000
 40
4.649999856948853
 41
0.0000000000000000
 71
     7
 72
     1
  1
{\H0.71x;{(PISTON ADVANCE END)}}
 11
1.000000000000000
 21
0.0000000000000000
 31
0.0000000000000000
  7
STANDARD
  0
LEADER
  5
321
100
AcDbEntity
  8
MAIN0
  6
CONTINUOUS
 62
3
100
AcDbLeader
  3
MAIN001
 73
     0
 75
     1
 40
4.649999856948853
 41
41.27900122308733
 76
     3
 10
611.1146485538160
 20
291.3880479005039
 30
0.0000000000000000
 10
570.2698189772121
 20
218.0173985672647
 30
0.0000000000000000
 10
567.3798190608970
 20
218.0173985672647
 30
0.0000000000000000
340
322
213
0.0000000000000000
223
-0.7500000000000000
233
0.0000000000000000
1001
ACAD
1000
DSTYLE
1002
{
1070
   147
1040
0.0
1070
    77
1070
     1
1070
   173
1070
     1
1070
     6
1000
_OPEN
1070
     7
1000
_OPEN
1002
}
  0
MTEXT
  5
322
102
{ACAD_REACTORS
330
321
102
}
100
AcDbEntity
  8
MAIN0
  6
CONTINUOUS
 62
3
100
AcDbMText
 10
526.1008178378097
 20
223.4173984242136
 30
0.0000000000000000
 40
4.649999856948853
 41
0.0000000000000000
 71
     1
 72
     1
  1
{\H0.93x;{2-Rc1/8\P（裏面より）\P(FROM THE \PBACK SIDE)}}
 11
1.000000000000000
 21
0.0000000000000000
 31
0.0000000000000000
  7
KNJYOKO
  0
MTEXT
  5
323
100
AcDbEntity
  8
MAIN0
  6
CONTINUOUS
 62
3
100
AcDbMText
 10
351.2665613746800
 20
128.4020026486609
 30
0.0000000000000000
 40
4.649999856948853
 41
0.0000000000000000
 71
     1
 72
     1
  1
{\H0.90x;{220}}
 11
1.000000000000000
 21
0.0000000000000000
 31
0.0000000000000000
  7
STANDARD
  0
MTEXT
  5
324
100
AcDbEntity
  8
MAIN0
  6
CONTINUOUS
 62
3
100
AcDbMText
 10
351.2665613746800
 20
117.9020026486609
 30
0.0000000000000000
 40
4.649999856948853
 41
0.0000000000000000
 71
     1
 72
     1
  1
{\H0.88x;{20}}
 11
1.000000000000000
 21
0.0000000000000000
 31
0.0000000000000000
  7
STANDARD
  0
MTEXT
  5
325
100
AcDbEntity
  8
MAIN0
  6
CONTINUOUS
 62
3
100
AcDbMText
 10
355.6027221970311
 20
93.90200264878109
 30
0.0000000000000000
 40
4.649999856948853
 41
0.0000000000000000
 71
     1
 72
     1
  1
{\H0.91x;{21.4}}
 11
1.000000000000000
 21
0.0000000000000000
 31
0.0000000000000000
  7
STANDARD
  0
MTEXT
  5
326
100
AcDbEntity
  8
MAIN0
  6
CONTINUOUS
 62
3
100
AcDbMText
 10
355.6027221970244
 20
81.90200264878109
 30
0.0000000000000000
 40
4.649999856948853
 41
0.0000000000000000
 71
     1
 72
     1
  1
{\H0.91x;{20.8}}
 11
1.000000000000000
 21
0.0000000000000000
 31
0.0000000000000000
  7
STANDARD
  0
MTEXT
  5
327
100
AcDbEntity
  8
MAIN0
  6
CONTINUOUS
 62
3
100
AcDbMText
 10
351.2665613747332
 20
69.90200264878104
 30
0.0000000000000000
 40
4.649999856948853
 41
0.0000000000000000
 71
     1
 72
     1
  1
{\H0.88x;{39}}
 11
1.000000000000000
 21
0.0000000000000000
 31
0.0000000000000000
  7
STANDARD
  0
MTEXT
  5
328
100
AcDbEntity
  8
MAIN0
  6
CONTINUOUS
 62
3
100
AcDbMText
 10
471.1027221972328
 20
93.90200264858055
 30
0.0000000000000000
 40
4.649999856948853
 41
0.0000000000000000
 71
     1
 72
     1
  1
{\H0.91x;{53.6}}
 11
1.000000000000000
 21
0.0000000000000000
 31
0.0000000000000000
  7
STANDARD
  0
MTEXT
  5
329
100
AcDbEntity
  8
MAIN0
  6
CONTINUOUS
 62
3
100
AcDbMText
 10
471.2565122969346
 20
80.78198715702541
 30
0.0000000000000000
 40
4.649999856948853
 41
0.0000000000000000
 71
     1
 72
     1
  1
{\H0.91x;{51.9}}
 11
1.000000000000000
 21
0.0000000000000000
 31
0.0000000000000000
  7
STANDARD
  0
MTEXT
  5
32A
100
AcDbEntity
  8
MAIN0
  6
CONTINUOUS
 62
3
100
AcDbMText
 10
618.0099454833384
 20
219.7882408389863
 30
0.0000000000000000
 40
4.649999856948853
 41
0.0000000000000000
 71
     7
 72
     1
  1
{\H0.91x;{PULL}}
 11
1.000000000000000
 21
0.0000000000000000
 31
0.0000000000000000
  7
STANDARD
  0
MTEXT
  5
32B
100
AcDbEntity
  8
MAIN0
  6
CONTINUOUS
 62
3
100
AcDbMText
 10
645.6931953622013
 20
219.5114068686829
 30
0.0000000000000000
 40
4.649999856948853
 41
0.0000000000000000
 71
     7
 72
     1
  1
{\H0.91x;{PUSH}}
 11
1.000000000000000
 21
0.0000000000000000
 31
0.0000000000000000
  7
STANDARD
  0
LINE
  5
32C
100
AcDbEntity
  8
MAIN0
  6
HIDDEN
 62
3
100
AcDbLine
 10
633.6891404984333
 20
236.0886233732518
 30
0.0000000000000000
 11
633.6891404984333
 21
235.1894906205905
 31
0.0000000000000000
  0
LINE
  5
32D
100
AcDbEntity
  8
MAIN0
  6
HIDDEN
 62
3
100
AcDbLine
 10
633.6891404984333
 20
236.0886233732518
 30
0.0000000000000000
 11
644.6891404984333
 21
236.0886233732518
 31
0.0000000000000000
  0
LINE
  5
32E
100
AcDbEntity
  8
MAIN0
  6
HIDDEN
 62
3
100
AcDbLine
 10
644.6891404984333
 20
236.0886233732518
 30
0.0000000000000000
 11
644.6891404984333
 21
235.1894906205905
 31
0.0000000000000000
  0
LINE
  5
32F
100
AcDbEntity
  8
MAIN0
  6
HIDDEN
 62
3
100
AcDbLine
 10
635.4527654984330
 20
240.9886233732517
 30
0.0000000000000000
 11
635.2996404984332
 21
236.0886233732518
 31
0.0000000000000000
  0
LINE
  5
330
100
AcDbEntity
  8
MAIN0
  6
HIDDEN
 62
3
100
AcDbLine
 10
635.9366404984330
 20
236.0886233732518
 30
0.0000000000000000
 11
636.0897654984331
 21
240.9886233732518
 31
0.0000000000000000
  0
LINE
  5
331
100
AcDbEntity
  8
MAIN0
  6
HIDDEN
 62
3
100
AcDbLine
 10
642.9255154984330
 20
240.9886233732518
 30
0.0000000000000000
 11
635.4527654984331
 21
240.9886233732518
 31
0.0000000000000000
  0
LINE
  5
332
100
AcDbEntity
  8
MAIN0
  6
HIDDEN
 62
3
100
AcDbLine
 10
642.4416404984329
 20
236.0886233732519
 30
0.0000000000000000
 11
642.2885154984328
 21
240.9886233732519
 31
0.0000000000000000
  0
LINE
  5
333
100
AcDbEntity
  8
MAIN0
  6
HIDDEN
 62
3
100
AcDbLine
 10
643.0786404984331
 20
236.0886233732519
 30
0.0000000000000000
 11
642.9255154984330
 21
240.9886233732519
 31
0.0000000000000000
  0
DIMENSION
  5
33C
100
AcDbEntity
  8
MAIN0
  6
CONTINUOUS
 62
3
100
AcDbDimension
  2
*D38
 10
679.1891404984331
 20
177.4832858320254
 30
0.0000000000000000
 11
639.1891404984332
 21
177.9832858320254
 31
0.0000000000000000
 70
32
  3
MAIN001
100
AcDbAlignedDimension
 13
599.1891404984333
 23
237.5886233732518
 33
0.0000000000000000
 14
679.1891404984331
 24
237.5886233732518
 34
0.0000000000000000
100
AcDbRotatedDimension
1001
ACAD
1000
DSTYLE
1002
{
1070
   173
1070
     1
1070
     6
1000
_OPEN
1070
     7
1000
_OPEN
1070
    41
1040
3.000000
1002
}
  0
DIMENSION
  5
344
100
AcDbEntity
  8
MAIN0
  6
CONTINUOUS
 62
3
100
AcDbDimension
  2
*D39
 10
454.1891404984332
 20
385.0886233732518
 30
0.0000000000000000
 11
453.6891404984332
 21
311.3386233732518
 31
0.0000000000000000
 70
32
  3
MAIN001
100
AcDbAlignedDimension
 13
599.1891404984332
 23
237.5886233732518
 33
0.0000000000000000
 14
447.4595907708901
 24
385.0886233732518
 34
0.0000000000000000
 50
90.00000000000000
100
AcDbRotatedDimension
1001
ACAD
1000
DSTYLE
1002
{
1070
   173
1070
     1
1070
     6
1000
_OPEN
1070
     7
1000
_OPEN
1070
    41
1040
3.000000
1002
}
  0
LEADER
  5
345
100
AcDbEntity
  8
MAIN0
  6
CONTINUOUS
 62
3
100
AcDbLeader
  3
MAIN001
 73
     0
 75
     1
 40
4.649999856948853
 41
25.52900059723856
 76
     3
 10
634.2812931241708
 20
214.5260577386142
 30
0.0000000000000000
 10
601.1488040859955
 20
161.5465660630459
 30
0.0000000000000000
 10
598.2588041696804
 20
161.5465660630459
 30
0.0000000000000000
340
346
213
0.0000000000000000
223
-0.7500000000000000
233
0.0000000000000000
1001
ACAD
1000
DSTYLE
1002
{
1070
   147
1040
0.0
1070
    77
1070
     1
1070
   173
1070
     1
1070
     6
1000
_NONE
1070
     7
1000
_NONE
1002
}
  0
MTEXT
  5
346
102
{ACAD_REACTORS
330
345
102
}
100
AcDbEntity
  8
MAIN0
  6
CONTINUOUS
 62
3
100
AcDbMText
 10
572.7298035724418
 20
166.9465659199948
 30
0.0000000000000000
 40
4.649999856948853
 41
0.0000000000000000
 71
     1
 72
     1
  1
{\H0.93x;{Rc1/8\P着座確認用}}
 11
1.000000000000000
 21
0.0000000000000000
 31
0.0000000000000000
  7
KNJYOKO
  0
MTEXT
  5
347
100
AcDbEntity
  8
MAIN0
  6
CONTINUOUS
 62
3
100
AcDbMText
 10
572.7788682247160
 20
155.3938820529677
 30
0.0000000000000000
 40
4.199999928474426
 41
0.0000000000000000
 71
     1
 72
     1
  1
{\H0.67x;{FOR SEATING CONFIRMATION\P}
 11
1.000000000000000
 21
0.0000000000000000
 31
0.0000000000000000
  7
STANDARD
  0
LEADER
  5
348
100
AcDbEntity
  8
MAIN0
  6
CONTINUOUS
 62
3
100
AcDbLeader
  3
MAIN001
 73
     3
 74
     0
 75
     0
 76
     2
 10
639.1891404984332
 20
237.5886233732518
 30
0.0000000000000000
 10
634.2812931241708
 20
214.5260577386142
 30
0.0000000000000000
1001
ACAD
1000
DSTYLE
1002
{
1070
   173
1070
     1
1070
     6
1000
_OPEN
1070
     7
1000
_OPEN
1002
}
  0
MTEXT
  5
349
100
AcDbEntity
  8
MAIN0
  6
CONTINUOUS
 62
3
100
AcDbMText
 10
713.4600023802560
 20
105.8138586273977
 30
0.0000000000000000
 40
4.500000000000000
 41
0.0000000000000000
 71
     1
 72
     1
  1
{\H0.61x;{※ MARKED ORIFICE PLUG.}}
 11
1.000000000000000
 21
0.0000000000000000
 31
0.0000000000000000
  7
KNJYOKO
  0
MTEXT
  5
34A
100
AcDbEntity
  8
MAIN0
  6
CONTINUOUS
 62
3
100
AcDbMText
 10
713.4600023802560
 20
113.3138586273977
 30
0.0000000000000000
 40
4.500000000000000
 41
0.0000000000000000
 71
     1
 72
     1
  1
{\H0.62x;{IN CASE OF USING SEATING CONFIRMATION, PLEASE REMOVE}}
 11
1.000000000000000
 21
0.0000000000000000
 31
0.0000000000000000
  7
STANDARD
  0
MTEXT
  5
34B
100
AcDbEntity
  8
MAIN0
  6
CONTINUOUS
 62
3
100
AcDbMText
 10
699.9600023802564
 20
113.4638584843465
 30
0.0000000000000000
 40
4.649999856948853
 41
0.0000000000000000
 71
     1
 72
     1
  1
{\H0.67x;{1.}}
 11
1.000000000000000
 21
0.0000000000000000
 31
0.0000000000000000
  7
STANDARD
  0
MTEXT
  5
34C
100
AcDbEntity
  8
MAIN0
  6
CONTINUOUS
 62
3
100
AcDbMText
 10
713.4600023802566
 20
155.6620712877116
 30
0.0000000000000000
 40
4.649999856948853
 41
0.0000000000000000
 71
     1
 72
     1
  1
{\H0.94x;{取外して使用してください。}}
 11
1.000000000000000
 21
0.0000000000000000
 31
0.0000000000000000
  7
KNJYOKO
  0
MTEXT
  5
34D
100
AcDbEntity
  8
MAIN0
  6
CONTINUOUS
 62
3
100
AcDbMText
 10
699.9600023802566
 20
163.1620712877116
 30
0.0000000000000000
 40
4.649999856948853
 41
0.0000000000000000
 71
     1
 72
     1
  1
{\H0.67x;{1.}}
 11
1.000000000000000
 21
0.0000000000000000
 31
0.0000000000000000
  7
STANDARD
  0
MTEXT
  5
34E
100
AcDbEntity
  8
MAIN0
  6
CONTINUOUS
 62
3
100
AcDbMText
 10
713.4600023802566
 20
163.1620712877116
 30
0.0000000000000000
 40
4.649999856948853
 41
0.0000000000000000
 71
     1
 72
     1
  1
{\H0.94x;{着座確認を行う際は、※印部のオリフィスプラグを}}
 11
1.000000000000000
 21
0.0000000000000000
 31
0.0000000000000000
  7
KNJYOKO
  0
INSERT
  5
358
100
AcDbEntity
  8
MAIN0
  6
CONTINUOUS
 62
3
100
AcDbBlockReference
  2
M0
 10
0.0000000000000000
 20
0.0000000000000000
 30
0.0000000000000000
 50
0.0000000000000000
  0
INSERT
  5
362
100
AcDbEntity
  8
MAIN0
  6
CONTINUOUS
 62
3
100
AcDbBlockReference
  2
M1
 10
0.0000000000000000
 20
0.0000000000000000
 30
0.0000000000000000
 50
0.0000000000000000
  0
MTEXT
  5
363
100
AcDbEntity
  8
MAIN0
  6
CONTINUOUS
 62
3
100
AcDbMText
 10
571.3676785793731
 20
174.6317308118056
 30
0.0000000000000000
 40
7.500000000000000
 41
0.0000000000000000
 71
     1
 72
     1
  1
{\H0.84x;{※}}
 11
1.000000000000000
 21
0.0000000000000000
 31
0.0000000000000000
  7
KNJYOKO
  0
INSERT
  5
36E
100
AcDbEntity
  8
MAIN0
  6
CONTINUOUS
 62
3
100
AcDbBlockReference
  2
*X0
 10
0.0000000000000000
 20
0.0000000000000000
 30
0.0000000000000000
 50
0.0000000000000000
  0
INSERT
  5
379
100
AcDbEntity
  8
MAIN0
  6
CONTINUOUS
 62
3
100
AcDbBlockReference
  2
*X1
 10
0.0000000000000000
 20
0.0000000000000000
 30
0.0000000000000000
 50
0.0000000000000000
  0
LINE
  5
37A
100
AcDbEntity
  8
MAIN0
  6
CONTINUOUS
 62
3
100
AcDbLine
 10
270.2665613747964
 20
61.50200279183218
 30
0.0000000000000000
 11
270.2665613747964
 21
148.5020027918322
 31
0.0000000000000000
  0
LINE
  5
37B
100
AcDbEntity
  8
MAIN0
  6
CONTINUOUS
 62
3
100
AcDbLine
 10
340.7665613747373
 20
61.50200279183224
 30
0.0000000000000000
 11
340.7665613746575
 21
133.5020027918321
 31
0.0000000000000000
  0
LINE
  5
37C
100
AcDbEntity
  8
MAIN0
  6
CONTINUOUS
 62
3
100
AcDbLine
 10
385.7665613748747
 20
148.5020027918322
 30
0.0000000000000000
 11
270.2665613747963
 21
148.5020027918322
 31
0.0000000000000000
  0
LINE
  5
37D
100
AcDbEntity
  8
MAIN0
  6
CONTINUOUS
 62
3
100
AcDbLine
 10
385.7665613748573
 20
133.5020027918322
 30
0.0000000000000000
 11
270.2665613747964
 21
133.5020027918322
 31
0.0000000000000000
  0
LINE
  5
37E
100
AcDbEntity
  8
MAIN0
  6
CONTINUOUS
 62
3
100
AcDbLine
 10
385.7665613748222
 20
109.5020027916355
 30
0.0000000000000000
 11
270.2665613747964
 21
109.5020027918322
 31
0.0000000000000000
  0
LINE
  5
37F
100
AcDbEntity
  8
MAIN0
  6
CONTINUOUS
 62
3
100
AcDbLine
 10
385.7665613747973
 20
97.50200279183224
 30
0.0000000000000000
 11
270.2665613747964
 21
97.50200279183224
 31
0.0000000000000000
  0
LINE
  5
380
100
AcDbEntity
  8
MAIN0
  6
CONTINUOUS
 62
3
100
AcDbLine
 10
385.7665613747548
 20
73.50200279183224
 30
0.0000000000000000
 11
270.2665613747964
 21
73.50200279183224
 31
0.0000000000000000
  0
LINE
  5
381
100
AcDbEntity
  8
MAIN0
  6
CONTINUOUS
 62
3
100
AcDbLine
 10
385.7665613747373
 20
61.50200279183218
 30
0.0000000000000000
 11
270.2665613747964
 21
61.50200279183218
 31
0.0000000000000000
  0
LINE
  5
382
100
AcDbEntity
  8
MAIN0
  6
CONTINUOUS
 62
3
100
AcDbLine
 10
385.7665613748222
 20
109.5020027922862
 30
0.0000000000000000
 11
501.2665613749161
 21
109.5020027922862
 31
0.0000000000000000
  0
LINE
  5
383
100
AcDbEntity
  8
MAIN0
  6
CONTINUOUS
 62
3
100
AcDbLine
 10
501.2665613749274
 20
73.50200279183224
 30
0.0000000000000000
 11
385.7665613747548
 21
73.50200279183224
 31
0.0000000000000000
  0
LINE
  5
384
100
AcDbEntity
  8
MAIN0
  6
CONTINUOUS
 62
3
100
AcDbLine
 10
501.2665613749274
 20
73.50200279183224
 30
0.0000000000000000
 11
501.2665613749162
 21
109.5020027922860
 31
0.0000000000000000
  0
LINE
  5
385
100
AcDbEntity
  8
MAIN0
  6
CONTINUOUS
 62
3
100
AcDbLine
 10
456.2665613749274
 20
73.50200279183224
 30
0.0000000000000000
 11
456.2665613748825
 21
109.5020027922862
 31
0.0000000000000000
  0
LINE
  5
386
100
AcDbEntity
  8
MAIN0
  6
CONTINUOUS
 62
3
100
AcDbLine
 10
385.7665613747972
 20
97.50200279183224
 30
0.0000000000000000
 11
501.2665613749203
 21
97.50200279183224
 31
0.0000000000000000
  0
LINE
  5
387
100
AcDbEntity
  8
MAIN0
  6
CONTINUOUS
 62
3
100
AcDbLine
 10
385.7665613748396
 20
121.5020027918322
 30
0.0000000000000000
 11
270.2665613747964
 21
121.5020027918322
 31
0.0000000000000000
  0
MTEXT
  5
388
100
AcDbEntity
  8
MAIN0
  6
CONTINUOUS
 62
3
100
AcDbMText
 10
273.2665613746939
 20
68.25200279183218
 30
0.0000000000000000
 40
4.500000000000000
 41
0.0000000000000000
 71
     7
 72
     1
  1
{\H0.63x;{MASS}}
 11
1.000000000000000
 21
0.0000000000000000
 31
0.0000000000000000
  7
STANDARD
  0
MTEXT
  5
389
100
AcDbEntity
  8
MAIN0
  6
CONTINUOUS
 62
3
100
AcDbMText
 10
273.2665613747964
 20
62.25200279183218
 30
0.0000000000000000
 40
4.500000000000000
 41
0.0000000000000000
 71
     7
 72
     1
  1
{\H0.59x;{質量\P}
 11
1.000000000000000
 21
0.0000000000000000
 31
0.0000000000000000
  7
KNJYOKO
  0
MTEXT
  5
38A
100
AcDbEntity
  8
MAIN0
  6
CONTINUOUS
 62
3
100
AcDbMText
 10
301.6322779936817
 20
141.8183817922961
 30
0.0000000000000000
 40
4.649999856948853
 41
0.0000000000000000
 71
     7
 72
     1
  1
{\H0.93x;{SPECIFICATIONS}}
 11
1.000000000000000
 21
0.0000000000000000
 31
0.0000000000000000
  7
STANDARD
  0
MTEXT
  5
38B
100
AcDbEntity
  8
MAIN0
  6
CONTINUOUS
 62
3
100
AcDbMText
 10
313.2235250513274
 20
134.9690130774292
 30
0.0000000000000000
 40
4.649999856948853
 41
0.0000000000000000
 71
     7
 72
     1
  1
{\H0.93x;{仕　　　　様}}
 11
1.000000000000000
 21
0.0000000000000000
 31
0.0000000000000000
  7
KNJYOKO
  0
MTEXT
  5
38C
100
AcDbEntity
  8
MAIN0
  6
CONTINUOUS
 62
3
100
AcDbMText
 10
273.2665613747964
 20
128.2520027918322
 30
0.0000000000000000
 40
3.750000000000000
 41
0.0000000000000000
 71
     7
 72
     1
  1
{\H0.63x;{PISTON DIA}}
 11
1.000000000000000
 21
0.0000000000000000
 31
0.0000000000000000
  7
STANDARD
  0
LINE
  5
38D
100
AcDbEntity
  8
MAIN0
  6
HIDDEN
 62
3
100
AcDbLine
 10
385.7665613747973
 20
85.50200279183224
 30
0.0000000000000000
 11
340.7665613747107
 21
85.50200279183224
 31
0.0000000000000000
  0
LINE
  5
38E
100
AcDbEntity
  8
MAIN0
  6
HIDDEN
 62
3
100
AcDbLine
 10
456.2665613749124
 20
85.50200279163164
 30
0.0000000000000000
 11
501.2665613750257
 21
85.50200279150374
 31
0.0000000000000000
  0
MTEXT
  5
38F
100
AcDbEntity
  8
MAIN0
  6
CONTINUOUS
 62
3
100
AcDbMText
 10
273.2665613747964
 20
122.2520027918322
 30
0.0000000000000000
 40
4.500000000000000
 41
0.0000000000000000
 71
     7
 72
     1
  1
{\H0.59x;{シリンダ内径}}
 11
1.000000000000000
 21
0.0000000000000000
 31
0.0000000000000000
  7
KNJYOKO
  0
MTEXT
  5
390
100
AcDbEntity
  8
MAIN0
  6
CONTINUOUS
 62
3
100
AcDbMText
 10
273.2665613747964
 20
116.2520027918322
 30
0.0000000000000000
 40
3.750000000000000
 41
0.0000000000000000
 71
     7
 72
     1
  1
{\H0.63x;{PLUNGER STROKE}}
 11
1.000000000000000
 21
0.0000000000000000
 31
0.0000000000000000
  7
STANDARD
  0
MTEXT
  5
391
100
AcDbEntity
  8
MAIN0
  6
CONTINUOUS
 62
3
100
AcDbMText
 10
273.2665613747964
 20
110.2520027918322
 30
0.0000000000000000
 40
4.500000000000000
 41
0.0000000000000000
 71
     7
 72
     1
  1
{\H0.59x;{プランジャストロ－ク}}
 11
1.000000000000000
 21
0.0000000000000000
 31
0.0000000000000000
  7
KNJYOKO
  0
MTEXT
  5
392
100
AcDbEntity
  8
MAIN0
  6
CONTINUOUS
 62
3
100
AcDbMText
 10
388.7665613748222
 20
104.2520027922862
 30
0.0000000000000000
 40
3.750000000000000
 41
0.0000000000000000
 71
     7
 72
     1
  1
{\H0.63x;{MAX PERMISSIBLE OIL PRESS}}
 11
1.000000000000000
 21
0.0000000000000000
 31
0.0000000000000000
  7
STANDARD
  0
MTEXT
  5
393
100
AcDbEntity
  8
MAIN0
  6
CONTINUOUS
 62
3
100
AcDbMText
 10
388.7665613747972
 20
98.25200279183224
 30
0.0000000000000000
 40
4.500000000000000
 41
0.0000000000000000
 71
     7
 72
     1
  1
{\H0.59x;{許容最大油圧力}}
 11
1.000000000000000
 21
0.0000000000000000
 31
0.0000000000000000
  7
KNJYOKO
  0
MTEXT
  5
394
100
AcDbEntity
  8
MAIN0
  6
CONTINUOUS
 62
3
100
AcDbMText
 10
273.2665613747846
 20
104.2520027918322
 30
0.0000000000000000
 40
3.750000000000000
 41
0.0000000000000000
 71
     7
 72
     1
  1
{\H0.63x;{MAX PERMISSIBLE AIR PRESS}}
 11
1.000000000000000
 21
0.0000000000000000
 31
0.0000000000000000
  7
STANDARD
  0
MTEXT
  5
395
100
AcDbEntity
  8
MAIN0
  6
CONTINUOUS
 62
3
100
AcDbMText
 10
273.2665613747964
 20
98.25200279183224
 30
0.0000000000000000
 40
4.500000000000000
 41
0.0000000000000000
 71
     7
 72
     1
  1
{\H0.59x;{許容最大エア圧力}}
 11
1.000000000000000
 21
0.0000000000000000
 31
0.0000000000000000
  7
KNJYOKO
  0
MTEXT
  5
396
100
AcDbEntity
  8
MAIN0
  6
CONTINUOUS
 62
3
100
AcDbMText
 10
273.2665613747964
 20
92.25200279183224
 30
0.0000000000000000
 40
3.750000000000000
 41
0.0000000000000000
 71
     7
 72
     1
  1
{\H0.63x;{MAX PERMISSIBLE INPUT FORCE}}
 11
1.000000000000000
 21
0.0000000000000000
 31
0.0000000000000000
  7
STANDARD
  0
MTEXT
  5
397
100
AcDbEntity
  8
MAIN0
  6
CONTINUOUS
 62
3
100
AcDbMText
 10
273.2665613747964
 20
86.25200279183224
 30
0.0000000000000000
 40
4.500000000000000
 41
0.0000000000000000
 71
     7
 72
     1
  1
{\H0.59x;{許容最大入力　}}
 11
1.000000000000000
 21
0.0000000000000000
 31
0.0000000000000000
  7
KNJYOKO
  0
MTEXT
  5
398
100
AcDbEntity
  8
MAIN0
  6
CONTINUOUS
 62
3
100
AcDbMText
 10
388.7665613747753
 20
92.25200279183224
 30
0.0000000000000000
 40
3.750000000000000
 41
0.0000000000000000
 71
     7
 72
     1
  1
{\H0.63x;{MAX PERMISSIBLE INPUT FORCE}}
 11
1.000000000000000
 21
0.0000000000000000
 31
0.0000000000000000
  7
STANDARD
  0
MTEXT
  5
399
100
AcDbEntity
  8
MAIN0
  6
CONTINUOUS
 62
3
100
AcDbMText
 10
388.7665613747973
 20
86.25200279183224
 30
0.0000000000000000
 40
4.500000000000000
 41
0.0000000000000000
 71
     7
 72
     1
  1
{\H0.59x;{許容最大入力　}}
 11
1.000000000000000
 21
0.0000000000000000
 31
0.0000000000000000
  7
KNJYOKO
  0
MTEXT
  5
39A
100
AcDbEntity
  8
MAIN0
  6
CONTINUOUS
 62
3
100
AcDbMText
 10
273.2665613747964
 20
80.25200279183224
 30
0.0000000000000000
 40
4.500000000000000
 41
0.0000000000000000
 71
     7
 72
     1
  1
{\H0.60x;{(AT 0.6Mpa) }}
 11
1.000000000000000
 21
0.0000000000000000
 31
0.0000000000000000
  7
STANDARD
  0
MTEXT
  5
39B
100
AcDbEntity
  8
MAIN0
  6
CONTINUOUS
 62
3
100
AcDbMText
 10
273.2665613747964
 20
74.25200279183224
 30
0.0000000000000000
 40
4.500000000000000
 41
0.0000000000000000
 71
     7
 72
     1
  1
{\H0.59x;{(エア圧　0.6MPa)}}
 11
1.000000000000000
 21
0.0000000000000000
 31
0.0000000000000000
  7
KNJYOKO
  0
MTEXT
  5
39C
100
AcDbEntity
  8
MAIN0
  6
CONTINUOUS
 62
3
100
AcDbMText
 10
388.7665613747361
 20
80.25200279183224
 30
0.0000000000000000
 40
4.500000000000000
 41
0.0000000000000000
 71
     7
 72
     1
  1
{\H0.60x;{(AT 1.5MPa)}}
 11
1.000000000000000
 21
0.0000000000000000
 31
0.0000000000000000
  7
STANDARD
  0
MTEXT
  5
39D
100
AcDbEntity
  8
MAIN0
  6
CONTINUOUS
 62
3
100
AcDbMText
 10
388.7665613747548
 20
74.25200279183224
 30
0.0000000000000000
 40
4.500000000000000
 41
0.0000000000000000
 71
     7
 72
     1
  1
{\H0.59x;{(油圧 1.5MPa)}}
 11
1.000000000000000
 21
0.0000000000000000
 31
0.0000000000000000
  7
KNJYOKO
  0
MTEXT
  5
39E
100
AcDbEntity
  8
MAIN0
  6
CONTINUOUS
 62
3
100
AcDbMText
 10
375.2665613748382
 20
125.2520027920290
 30
0.0000000000000000
 40
4.649999856948853
 41
0.0000000000000000
 71
     7
 72
     1
  1
{\H0.69x;{ｍｍ}}
 11
1.000000000000000
 21
0.0000000000000000
 31
0.0000000000000000
  7
KNJYOKO
  0
MTEXT
  5
39F
100
AcDbEntity
  8
MAIN0
  6
CONTINUOUS
 62
3
100
AcDbMText
 10
375.2665613748206
 20
113.2520027920290
 30
0.0000000000000000
 40
4.649999856948853
 41
0.0000000000000000
 71
     7
 72
     1
  1
{\H0.69x;{ｍｍ}}
 11
1.000000000000000
 21
0.0000000000000000
 31
0.0000000000000000
  7
KNJYOKO
  0
MTEXT
  5
3A0
100
AcDbEntity
  8
MAIN0
  6
CONTINUOUS
 62
3
100
AcDbMText
 10
351.2665613746933
 20
101.2520027918322
 30
0.0000000000000000
 40
4.649999856948853
 41
0.0000000000000000
 71
     7
 72
     1
  1
{\H0.76x;{0.7}}
 11
1.000000000000000
 21
0.0000000000000000
 31
0.0000000000000000
  7
STANDARD
  0
MTEXT
  5
3A1
100
AcDbEntity
  8
MAIN0
  6
CONTINUOUS
 62
3
100
AcDbMText
 10
375.2665613748031
 20
101.2520027924830
 30
0.0000000000000000
 40
4.649999856948853
 41
0.0000000000000000
 71
     7
 72
     1
  1
{\H0.70x;{MPa}}
 11
1.000000000000000
 21
0.0000000000000000
 31
0.0000000000000000
  7
STANDARD
  0
MTEXT
  5
3A2
100
AcDbEntity
  8
MAIN0
  6
CONTINUOUS
 62
3
100
AcDbMText
 10
342.2665613747107
 20
86.25200279183224
 30
0.0000000000000000
 40
4.500000000000000
 41
0.0000000000000000
 71
     7
 72
     1
  1
{\H0.59x;{押}}
 11
1.000000000000000
 21
0.0000000000000000
 31
0.0000000000000000
  7
KNJYOKO
  0
MTEXT
  5
3A3
100
AcDbEntity
  8
MAIN0
  6
CONTINUOUS
 62
3
100
AcDbMText
 10
342.2665613747240
 20
74.25200279183224
 30
0.0000000000000000
 40
4.500000000000000
 41
0.0000000000000000
 71
     7
 72
     1
  1
{\H0.59x;{引}}
 11
1.000000000000000
 21
0.0000000000000000
 31
0.0000000000000000
  7
KNJYOKO
  0
MTEXT
  5
3A4
100
AcDbEntity
  8
MAIN0
  6
CONTINUOUS
 62
3
100
AcDbMText
 10
342.2665613747041
 20
92.25200279183224
 30
0.0000000000000000
 40
3.750000000000000
 41
0.0000000000000000
 71
     7
 72
     1
  1
{\H0.63x;{PUSH}}
 11
1.000000000000000
 21
0.0000000000000000
 31
0.0000000000000000
  7
STANDARD
  0
MTEXT
  5
3A5
100
AcDbEntity
  8
MAIN0
  6
CONTINUOUS
 62
3
100
AcDbMText
 10
342.2665613747174
 20
80.25200279183224
 30
0.0000000000000000
 40
3.750000000000000
 41
0.0000000000000000
 71
     7
 72
     1
  1
{\H0.63x;{PULL}}
 11
1.000000000000000
 21
0.0000000000000000
 31
0.0000000000000000
  7
STANDARD
  0
MTEXT
  5
3A6
100
AcDbEntity
  8
MAIN0
  6
CONTINUOUS
 62
3
100
AcDbMText
 10
375.2665613747433
 20
65.25200279183218
 30
0.0000000000000000
 40
4.649999856948853
 41
0.0000000000000000
 71
     7
 72
     1
  1
{\H0.69x;{ｋｇ}}
 11
1.000000000000000
 21
0.0000000000000000
 31
0.0000000000000000
  7
KNJYOKO
  0
MTEXT
  5
3A7
100
AcDbEntity
  8
MAIN0
  6
CONTINUOUS
 62
3
100
AcDbMText
 10
375.2665613748033
 20
89.25200279183224
 30
0.0000000000000000
 40
4.649999856948853
 41
0.0000000000000000
 71
     7
 72
     1
  1
{\H0.69x;{ｋＮ}}
 11
1.000000000000000
 21
0.0000000000000000
 31
0.0000000000000000
  7
KNJYOKO
  0
MTEXT
  5
3A8
100
AcDbEntity
  8
MAIN0
  6
CONTINUOUS
 62
3
100
AcDbMText
 10
375.2665613747607
 20
77.25200279183224
 30
0.0000000000000000
 40
4.649999856948853
 41
0.0000000000000000
 71
     7
 72
     1
  1
{\H0.69x;{ＫＮ}}
 11
1.000000000000000
 21
0.0000000000000000
 31
0.0000000000000000
  7
KNJYOKO
  0
MTEXT
  5
3A9
100
AcDbEntity
  8
MAIN0
  6
CONTINUOUS
 62
3
100
AcDbMText
 10
466.7665613748933
 20
101.2520027918322
 30
0.0000000000000000
 40
4.649999856948853
 41
0.0000000000000000
 71
     7
 72
     1
  1
{\H0.76x;{1.5}}
 11
1.000000000000000
 21
0.0000000000000000
 31
0.0000000000000000
  7
STANDARD
  0
MTEXT
  5
3AA
100
AcDbEntity
  8
MAIN0
  6
CONTINUOUS
 62
3
100
AcDbMText
 10
457.7665613749058
 20
92.25200279163187
 30
0.0000000000000000
 40
3.750000000000000
 41
0.0000000000000000
 71
     7
 72
     1
  1
{\H0.63x;{PUSH}}
 11
1.000000000000000
 21
0.0000000000000000
 31
0.0000000000000000
  7
STANDARD
  0
MTEXT
  5
3AB
100
AcDbEntity
  8
MAIN0
  6
CONTINUOUS
 62
3
100
AcDbMText
 10
457.7665613749125
 20
86.25200279163187
 30
0.0000000000000000
 40
4.500000000000000
 41
0.0000000000000000
 71
     7
 72
     1
  1
{\H0.59x;{押}}
 11
1.000000000000000
 21
0.0000000000000000
 31
0.0000000000000000
  7
KNJYOKO
  0
MTEXT
  5
3AC
100
AcDbEntity
  8
MAIN0
  6
CONTINUOUS
 62
3
100
AcDbMText
 10
457.7665613749191
 20
80.25200279163187
 30
0.0000000000000000
 40
3.750000000000000
 41
0.0000000000000000
 71
     7
 72
     1
  1
{\H0.63x;{PULL}}
 11
1.000000000000000
 21
0.0000000000000000
 31
0.0000000000000000
  7
STANDARD
  0
MTEXT
  5
3AD
100
AcDbEntity
  8
MAIN0
  6
CONTINUOUS
 62
3
100
AcDbMText
 10
457.7665613749258
 20
74.25200279163187
 30
0.0000000000000000
 40
4.500000000000000
 41
0.0000000000000000
 71
     7
 72
     1
  1
{\H0.59x;{引}}
 11
1.000000000000000
 21
0.0000000000000000
 31
0.0000000000000000
  7
KNJYOKO
  0
MTEXT
  5
3AE
100
AcDbEntity
  8
MAIN0
  6
CONTINUOUS
 62
3
100
AcDbMText
 10
490.7665613750032
 20
101.2520027924830
 30
0.0000000000000000
 40
4.649999856948853
 41
0.0000000000000000
 71
     7
 72
     1
  1
{\H0.70x;{MPa}}
 11
1.000000000000000
 21
0.0000000000000000
 31
0.0000000000000000
  7
STANDARD
  0
MTEXT
  5
3AF
100
AcDbEntity
  8
MAIN0
  6
CONTINUOUS
 62
3
100
AcDbMText
 10
490.7665613750049
 20
89.25200279163187
 30
0.0000000000000000
 40
4.649999856948853
 41
0.0000000000000000
 71
     7
 72
     1
  1
{\H0.69x;{ｋＮ}}
 11
1.000000000000000
 21
0.0000000000000000
 31
0.0000000000000000
  7
KNJYOKO
  0
MTEXT
  5
3B0
100
AcDbEntity
  8
MAIN0
  6
CONTINUOUS
 62
3
100
AcDbMText
 10
490.7665613749625
 20
77.25200279163187
 30
0.0000000000000000
 40
4.649999856948853
 41
0.0000000000000000
 71
     7
 72
     1
  1
{\H0.69x;{ＫＮ}}
 11
1.000000000000000
 21
0.0000000000000000
 31
0.0000000000000000
  7
KNJYOKO
  0
LINE
  5
3B1
100
AcDbEntity
  8
MAIN0
  6
CONTINUOUS
 62
3
100
AcDbLine
 10
385.7665613747373
 20
61.50200279183213
 30
0.0000000000000000
 11
385.7665613747563
 21
73.50200279183224
 31
0.0000000000000000
  0
LINE
  5
3B2
100
AcDbEntity
  8
MAIN0
  6
HIDDEN
 62
3
100
AcDbLine
 10
385.7665613747562
 20
73.50200279183201
 30
0.0000000000000000
 11
385.7665613748131
 21
109.5020027922860
 31
0.0000000000000000
  0
LINE
  5
3B3
100
AcDbEntity
  8
MAIN0
  6
CONTINUOUS
 62
3
100
AcDbLine
 10
385.7665613748131
 20
109.5020027922862
 30
0.0000000000000000
 11
385.7665613748747
 21
148.5020027918322
 31
0.0000000000000000
  0
LINE
  5
3B4
100
AcDbEntity
  8
MAIN0
  6
HIDDEN
 62
3
100
AcDbLine
 10
666.4874415904242
 20
242.8186536103849
 30
0.0000000000000000
 11
666.6405665904258
 21
237.9186536103850
 31
0.0000000000000000
  0
LINE
  5
3B5
100
AcDbEntity
  8
MAIN0
  6
HIDDEN
 62
3
100
AcDbLine
 10
666.0035665904256
 20
237.9186536103847
 30
0.0000000000000000
 11
665.8504415904240
 21
242.8186536103847
 31
0.0000000000000000
  0
LINE
  5
3B6
100
AcDbEntity
  8
MAIN0
  6
HIDDEN
 62
3
100
AcDbLine
 10
659.0146915904243
 20
242.8186536103824
 30
0.0000000000000000
 11
666.4874415904244
 21
242.8186536103849
 31
0.0000000000000000
  0
LINE
  5
3B7
100
AcDbEntity
  8
MAIN0
  6
HIDDEN
 62
3
100
AcDbLine
 10
658.8615665904258
 20
237.9186536103823
 30
0.0000000000000000
 11
659.0146915904240
 21
242.8186536103824
 31
0.0000000000000000
  0
LINE
  5
3B8
100
AcDbEntity
  8
MAIN0
  6
HIDDEN
 62
3
100
AcDbLine
 10
659.4985665904259
 20
237.9186536103825
 30
0.0000000000000000
 11
659.6516915904242
 21
242.8186536103826
 31
0.0000000000000000
  0
LINE
  5
3B9
100
AcDbEntity
  8
MAIN0
  6
HIDDEN
 62
3
100
AcDbLine
 10
668.1891404984694
 20
237.9186536103972
 30
0.0000000000000000
 11
657.1891404984324
 21
237.9186536103697
 31
0.0000000000000000
  0
LINE
  5
3BA
100
AcDbEntity
  8
MAIN0
  6
HIDDEN
 62
3
100
AcDbLine
 10
657.1891404984333
 20
236.1725396213615
 30
0.0000000000000000
 11
657.1891404984326
 21
237.9186536103697
 31
0.0000000000000000
  0
LINE
  5
3BB
100
AcDbEntity
  8
MAIN0
  6
HIDDEN
 62
3
100
AcDbLine
 10
621.1891404984335
 20
236.1725396213615
 30
0.0000000000000000
 11
621.1891404984342
 21
237.9186536103697
 31
0.0000000000000000
  0
LINE
  5
3BC
100
AcDbEntity
  8
MAIN0
  6
HIDDEN
 62
3
100
AcDbLine
 10
619.5167144064410
 20
237.9186536103824
 30
0.0000000000000000
 11
619.3635894064427
 21
242.8186536103824
 31
0.0000000000000000
  0
LINE
  5
3BD
100
AcDbEntity
  8
MAIN0
  6
HIDDEN
 62
3
100
AcDbLine
 10
610.1891404983974
 20
237.9186536103973
 30
0.0000000000000000
 11
621.1891404984344
 21
237.9186536103698
 31
0.0000000000000000
  0
LINE
  5
3BE
100
AcDbEntity
  8
MAIN0
  6
HIDDEN
 62
3
100
AcDbLine
 10
618.8797144064409
 20
237.9186536103826
 30
0.0000000000000000
 11
618.7265894064426
 21
242.8186536103826
 31
0.0000000000000000
  0
LINE
  5
3BF
100
AcDbEntity
  8
MAIN0
  6
HIDDEN
 62
3
100
AcDbLine
 10
619.3635894064425
 20
242.8186536103824
 30
0.0000000000000000
 11
611.8908394064424
 21
242.8186536103850
 31
0.0000000000000000
  0
LINE
  5
3C0
100
AcDbEntity
  8
MAIN0
  6
HIDDEN
 62
3
100
AcDbLine
 10
611.8908394064424
 20
242.8186536103849
 30
0.0000000000000000
 11
611.7377144064408
 21
237.9186536103850
 31
0.0000000000000000
  0
LINE
  5
3C1
100
AcDbEntity
  8
MAIN0
  6
HIDDEN
 62
3
100
AcDbLine
 10
612.3747144064407
 20
237.9186536103848
 30
0.0000000000000000
 11
612.5278394064425
 21
242.8186536103847
 31
0.0000000000000000
  0
LINE
  5
3C2
100
AcDbEntity
  8
MAIN0
  6
CENTER
 62
3
100
AcDbLine
 10
604.9932614966657
 20
250.0886233732518
 30
0.0000000000000000
 11
672.6639670220405
 21
250.0886233732518
 31
0.0000000000000000
  0
LINE
  5
3C3
100
AcDbEntity
  8
MAIN0
  6
CONTINUOUS
 62
3
100
AcDbLine
 10
599.1891404984265
 20
257.5886233732518
 30
0.0000000000000000
 11
679.1891404984265
 21
257.5886233732518
 31
0.0000000000000000
  0
LINE
  5
3C4
100
AcDbEntity
  8
MAIN0
  6
CONTINUOUS
 62
3
100
AcDbLine
 10
599.1891404984332
 20
237.5886233732518
 30
0.0000000000000000
 11
679.1891404984332
 21
237.5886233732518
 31
0.0000000000000000
  0
LINE
  5
3C5
100
AcDbEntity
  8
MAIN0
  6
CONTINUOUS
 62
3
100
AcDbLine
 10
679.1891404984331
 20
237.5886233732518
 30
0.0000000000000000
 11
679.1891404984264
 21
257.5886233732518
 31
0.0000000000000000
  0
CIRCLE
  5
3C6
100
AcDbEntity
  8
MAIN0
  6
CONTINUOUS
 62
3
100
AcDbCircle
 10
628.1891404983899
 20
250.0886233732518
 30
0.0000000000000000
 40
5.500000000000000
  0
LINE
  5
3C7
100
AcDbEntity
  8
MAIN0
  6
CENTER
 62
3
100
AcDbLine
 10
628.1891404983899
 20
257.5886233732518
 30
0.0000000000000000
 11
628.1891404983899
 21
242.5886233732518
 31
0.0000000000000000
  0
LINE
  5
3C8
100
AcDbEntity
  8
MAIN0
  6
PHANTOM
 62
3
100
AcDbLine
 10
609.1106404983898
 20
237.5886233732518
 30
0.0000000000000000
 11
609.4043904983898
 21
246.9886233732519
 31
0.0000000000000000
  0
LINE
  5
3C9
100
AcDbEntity
  8
MAIN0
  6
PHANTOM
 62
3
100
AcDbLine
 10
609.4043904983898
 20
246.9886233732519
 30
0.0000000000000000
 11
621.9738904983898
 21
246.9886233732519
 31
0.0000000000000000
  0
LINE
  5
3CA
100
AcDbEntity
  8
MAIN0
  6
PHANTOM
 62
3
100
AcDbLine
 10
621.9738904983898
 20
246.9886233732518
 30
0.0000000000000000
 11
622.2676404983897
 21
237.5886233732518
 31
0.0000000000000000
  0
LINE
  5
3CB
100
AcDbEntity
  8
MAIN0
  6
PHANTOM
 62
3
100
AcDbLine
 10
609.9666404983898
 20
237.5886233732519
 30
0.0000000000000000
 11
610.2603904983898
 21
246.9886233732519
 31
0.0000000000000000
  0
LINE
  5
3CC
100
AcDbEntity
  8
MAIN0
  6
PHANTOM
 62
3
100
AcDbLine
 10
621.4116404983899
 20
237.5886233732518
 30
0.0000000000000000
 11
621.1178904983899
 21
246.9886233732518
 31
0.0000000000000000
  0
LINE
  5
3CD
100
AcDbEntity
  8
MAIN0
  6
PHANTOM
 62
3
100
AcDbLine
 10
610.2891404983898
 20
246.9886233732519
 30
0.0000000000000000
 11
610.2891404983898
 21
252.5886233732518
 31
0.0000000000000000
  0
LINE
  5
3CE
100
AcDbEntity
  8
MAIN0
  6
PHANTOM
 62
3
100
AcDbLine
 10
610.2891404983898
 20
252.5886233732518
 30
0.0000000000000000
 11
621.0891404983898
 21
252.5886233732518
 31
0.0000000000000000
  0
LINE
  5
3CF
100
AcDbEntity
  8
MAIN0
  6
PHANTOM
 62
3
100
AcDbLine
 10
621.0891404983898
 20
252.5886233732518
 30
0.0000000000000000
 11
621.0891404983898
 21
246.9886233732519
 31
0.0000000000000000
  0
LINE
  5
3D0
100
AcDbEntity
  8
MAIN0
  6
PHANTOM
 62
3
100
AcDbLine
 10
610.2891404983899
 20
252.5886233732518
 30
0.0000000000000000
 11
615.6891404983899
 21
255.7063148268758
 31
0.0000000000000000
  0
LINE
  5
3D1
100
AcDbEntity
  8
MAIN0
  6
PHANTOM
 62
3
100
AcDbLine
 10
615.6891404983899
 20
255.7063148268758
 30
0.0000000000000000
 11
621.0891404983898
 21
252.5886233732518
 31
0.0000000000000000
  0
CIRCLE
  5
3D2
100
AcDbEntity
  8
MAIN0
  6
CONTINUOUS
 62
3
100
AcDbCircle
 10
650.1891404983899
 20
250.0886233732518
 30
0.0000000000000000
 40
5.500000000000000
  0
LINE
  5
3D3
100
AcDbEntity
  8
MAIN0
  6
CENTER
 62
3
100
AcDbLine
 10
650.1891404983899
 20
257.5886233732518
 30
0.0000000000000000
 11
650.1891404983899
 21
242.5886233732518
 31
0.0000000000000000
  0
LINE
  5
3D4
100
AcDbEntity
  8
MAIN0
  6
PHANTOM
 62
3
100
AcDbLine
 10
669.2676404983897
 20
237.5886233732518
 30
0.0000000000000000
 11
668.9738904983897
 21
246.9886233732518
 31
0.0000000000000000
  0
LINE
  5
3D5
100
AcDbEntity
  8
MAIN0
  6
PHANTOM
 62
3
100
AcDbLine
 10
668.9738904983897
 20
246.9886233732519
 30
0.0000000000000000
 11
656.4043904983898
 21
246.9886233732519
 31
0.0000000000000000
  0
LINE
  5
3D6
100
AcDbEntity
  8
MAIN0
  6
PHANTOM
 62
3
100
AcDbLine
 10
656.4043904983898
 20
246.9886233732518
 30
0.0000000000000000
 11
656.1106404983898
 21
237.5886233732518
 31
0.0000000000000000
  0
LINE
  5
3D7
100
AcDbEntity
  8
MAIN0
  6
PHANTOM
 62
3
100
AcDbLine
 10
668.4116404983897
 20
237.5886233732517
 30
0.0000000000000000
 11
668.1178904983898
 21
246.9886233732518
 31
0.0000000000000000
  0
LINE
  5
3D8
100
AcDbEntity
  8
MAIN0
  6
PHANTOM
 62
3
100
AcDbLine
 10
656.9666404983898
 20
237.5886233732518
 30
0.0000000000000000
 11
657.2603904983898
 21
246.9886233732518
 31
0.0000000000000000
  0
LINE
  5
3D9
100
AcDbEntity
  8
MAIN0
  6
PHANTOM
 62
3
100
AcDbLine
 10
668.0891404983897
 20
246.9886233732519
 30
0.0000000000000000
 11
668.0891404983897
 21
252.5886233732518
 31
0.0000000000000000
  0
LINE
  5
3DA
100
AcDbEntity
  8
MAIN0
  6
PHANTOM
 62
3
100
AcDbLine
 10
668.0891404983897
 20
252.5886233732518
 30
0.0000000000000000
 11
657.2891404983898
 21
252.5886233732518
 31
0.0000000000000000
  0
LINE
  5
3DB
100
AcDbEntity
  8
MAIN0
  6
PHANTOM
 62
3
100
AcDbLine
 10
657.2891404983898
 20
252.5886233732518
 30
0.0000000000000000
 11
657.2891404983898
 21
246.9886233732519
 31
0.0000000000000000
  0
LINE
  5
3DC
100
AcDbEntity
  8
MAIN0
  6
PHANTOM
 62
3
100
AcDbLine
 10
668.0891404983900
 20
252.5886233732518
 30
0.0000000000000000
 11
662.6891404983899
 21
255.7063148268759
 31
0.0000000000000000
  0
LINE
  5
3DD
100
AcDbEntity
  8
MAIN0
  6
PHANTOM
 62
3
100
AcDbLine
 10
662.6891404983899
 20
255.7063148268758
 30
0.0000000000000000
 11
657.2891404983899
 21
252.5886233732518
 31
0.0000000000000000
  0
LINE
  5
3DE
100
AcDbEntity
  8
MAIN0
  6
PHANTOM
 62
3
100
AcDbLine
 10
634.3251404983898
 20
237.5886233732519
 30
0.0000000000000000
 11
634.5188904983897
 21
243.7886233732518
 31
0.0000000000000000
  0
LINE
  5
3DF
100
AcDbEntity
  8
MAIN0
  6
PHANTOM
 62
3
100
AcDbLine
 10
643.8593904983898
 20
243.7886233732518
 30
0.0000000000000000
 11
644.0531404983897
 21
237.5886233732519
 31
0.0000000000000000
  0
LINE
  5
3E0
100
AcDbEntity
  8
MAIN0
  6
PHANTOM
 62
3
100
AcDbLine
 10
634.9061404983897
 20
237.5886233732518
 30
0.0000000000000000
 11
635.0998904983896
 21
243.7886233732518
 31
0.0000000000000000
  0
LINE
  5
3E1
100
AcDbEntity
  8
MAIN0
  6
PHANTOM
 62
3
100
AcDbLine
 10
643.4721404983898
 20
237.5886233732518
 30
0.0000000000000000
 11
643.2783904983899
 21
243.7886233732518
 31
0.0000000000000000
  0
LINE
  5
3E2
100
AcDbEntity
  8
MAIN0
  6
PHANTOM
 62
3
100
AcDbLine
 10
635.0891404983898
 20
243.7886233732518
 30
0.0000000000000000
 11
635.0891404983898
 21
252.5886233732518
 31
0.0000000000000000
  0
LINE
  5
3E3
100
AcDbEntity
  8
MAIN0
  6
PHANTOM
 62
3
100
AcDbLine
 10
635.0891404983898
 20
252.5886233732518
 30
0.0000000000000000
 11
643.2891404983898
 21
252.5886233732518
 31
0.0000000000000000
  0
LINE
  5
3E4
100
AcDbEntity
  8
MAIN0
  6
PHANTOM
 62
3
100
AcDbLine
 10
643.2891404983898
 20
252.5886233732518
 30
0.0000000000000000
 11
643.2891404983898
 21
243.7886233732518
 31
0.0000000000000000
  0
LINE
  5
3E5
100
AcDbEntity
  8
MAIN0
  6
PHANTOM
 62
3
100
AcDbLine
 10
635.0891404983897
 20
252.5886233732518
 30
0.0000000000000000
 11
639.1891404983898
 21
254.9557594769293
 31
0.0000000000000000
  0
LINE
  5
3E6
100
AcDbEntity
  8
MAIN0
  6
PHANTOM
 62
3
100
AcDbLine
 10
639.1891404983899
 20
254.9557594769293
 30
0.0000000000000000
 11
643.2891404983898
 21
252.5886233732518
 31
0.0000000000000000
  0
LINE
  5
3E7
100
AcDbEntity
  8
MAIN0
  6
CONTINUOUS
 62
3
100
AcDbLine
 10
599.1891404984333
 20
237.5886233732518
 30
0.0000000000000000
 11
599.1891404984265
 21
257.5886233732518
 31
0.0000000000000000
  0
CIRCLE
  5
3E8
100
AcDbEntity
  8
MAIN0
  6
CONTINUOUS
 62
3
100
AcDbCircle
 10
628.1891404983899
 20
250.0886233732518
 30
0.0000000000000000
 40
5.000000000000000
  0
LINE
  5
3E9
100
AcDbEntity
  8
MAIN0
  6
CONTINUOUS
 62
3
100
AcDbLine
 10
628.1891404983899
 20
252.9753747191999
 30
0.0000000000000000
 11
625.6891404983899
 21
251.5319990462259
 31
0.0000000000000000
  0
LINE
  5
3EA
100
AcDbEntity
  8
MAIN0
  6
CONTINUOUS
 62
3
100
AcDbLine
 10
625.6891404983899
 20
251.5319990462259
 30
0.0000000000000000
 11
625.6891404983899
 21
248.6452477002778
 31
0.0000000000000000
  0
LINE
  5
3EB
100
AcDbEntity
  8
MAIN0
  6
CONTINUOUS
 62
3
100
AcDbLine
 10
625.6891404983899
 20
248.6452477002778
 30
0.0000000000000000
 11
628.1891404983899
 21
247.2018720273038
 31
0.0000000000000000
  0
LINE
  5
3EC
100
AcDbEntity
  8
MAIN0
  6
CONTINUOUS
 62
3
100
AcDbLine
 10
628.1891404983899
 20
247.2018720273037
 30
0.0000000000000000
 11
630.6891404983899
 21
248.6452477002777
 31
0.0000000000000000
  0
LINE
  5
3ED
100
AcDbEntity
  8
MAIN0
  6
CONTINUOUS
 62
3
100
AcDbLine
 10
630.6891404983899
 20
248.6452477002778
 30
0.0000000000000000
 11
630.6891404983899
 21
251.5319990462259
 31
0.0000000000000000
  0
LINE
  5
3EE
100
AcDbEntity
  8
MAIN0
  6
CONTINUOUS
 62
3
100
AcDbLine
 10
630.6891404983900
 20
251.5319990462259
 30
0.0000000000000000
 11
628.1891404983899
 21
252.9753747192000
 31
0.0000000000000000
  0
CIRCLE
  5
3EF
100
AcDbEntity
  8
MAIN0
  6
CONTINUOUS
 62
3
100
AcDbCircle
 10
650.1891404983898
 20
250.0886233732518
 30
0.0000000000000000
 40
5.000000000000000
  0
LINE
  5
3F0
100
AcDbEntity
  8
MAIN0
  6
CONTINUOUS
 62
3
100
AcDbLine
 10
650.1891404983898
 20
252.9753747191999
 30
0.0000000000000000
 11
647.6891404983898
 21
251.5319990462258
 31
0.0000000000000000
  0
LINE
  5
3F1
100
AcDbEntity
  8
MAIN0
  6
CONTINUOUS
 62
3
100
AcDbLine
 10
647.6891404983898
 20
251.5319990462259
 30
0.0000000000000000
 11
647.6891404983898
 21
248.6452477002778
 31
0.0000000000000000
  0
LINE
  5
3F2
100
AcDbEntity
  8
MAIN0
  6
CONTINUOUS
 62
3
100
AcDbLine
 10
647.6891404983898
 20
248.6452477002778
 30
0.0000000000000000
 11
650.1891404983898
 21
247.2018720273038
 31
0.0000000000000000
  0
LINE
  5
3F3
100
AcDbEntity
  8
MAIN0
  6
CONTINUOUS
 62
3
100
AcDbLine
 10
650.1891404983898
 20
247.2018720273037
 30
0.0000000000000000
 11
652.6891404983899
 21
248.6452477002777
 31
0.0000000000000000
  0
LINE
  5
3F4
100
AcDbEntity
  8
MAIN0
  6
CONTINUOUS
 62
3
100
AcDbLine
 10
652.6891404983898
 20
248.6452477002778
 30
0.0000000000000000
 11
652.6891404983898
 21
251.5319990462259
 31
0.0000000000000000
  0
LINE
  5
3F5
100
AcDbEntity
  8
MAIN0
  6
CONTINUOUS
 62
3
100
AcDbLine
 10
652.6891404983899
 20
251.5319990462259
 30
0.0000000000000000
 11
650.1891404983899
 21
252.9753747192000
 31
0.0000000000000000
  0
LINE
  5
3F6
100
AcDbEntity
  8
MAIN0
  6
PHANTOM
 62
3
100
AcDbLine
 10
670.6891404983900
 20
237.5886233732522
 30
0.0000000000000000
 11
670.6891404983900
 21
236.5886233732522
 31
0.0000000000000000
  0
LINE
  5
3F7
100
AcDbEntity
  8
MAIN0
  6
PHANTOM
 62
3
100
AcDbLine
 10
667.5883844191467
 20
240.8977691448012
 30
0.0000000000000000
 11
667.5883844191467
 21
236.5886233732522
 31
0.0000000000000000
  0
ARC
  5
3F8
100
AcDbEntity
  8
MAIN0
  6
PHANTOM
 62
3
100
AcDbCircle
 10
666.5883844191467
 20
240.8977691448011
 30
0.0000000000000000
 40
1.000000000000000
100
AcDbArc
 50
3.663998993045972e-012
 51
90.00000000057453
  0
LINE
  5
3F9
100
AcDbEntity
  8
MAIN0
  6
PHANTOM
 62
3
100
AcDbLine
 10
666.5883844191467
 20
241.8977691448011
 30
0.0000000000000000
 11
662.6891404983900
 21
241.8977691448011
 31
0.0000000000000000
  0
LINE
  5
3FA
100
AcDbEntity
  8
MAIN0
  6
PHANTOM
 62
3
100
AcDbLine
 10
657.7898965776333
 20
240.8977691448012
 30
0.0000000000000000
 11
657.7898965776333
 21
236.5886233732522
 31
0.0000000000000000
  0
LINE
  5
3FB
100
AcDbEntity
  8
MAIN0
  6
PHANTOM
 62
3
100
AcDbLine
 10
654.6891404983899
 20
237.5886233732522
 30
0.0000000000000000
 11
654.6891404983899
 21
236.5886233732522
 31
0.0000000000000000
  0
LINE
  5
3FC
100
AcDbEntity
  8
MAIN0
  6
PHANTOM
 62
3
100
AcDbLine
 10
658.7898965776333
 20
241.8977691448012
 30
0.0000000000000000
 11
662.6891404983899
 21
241.8977691448012
 31
0.0000000000000000
  0
ARC
  5
3FD
100
AcDbEntity
  8
MAIN0
  6
PHANTOM
 62
3
100
AcDbCircle
 10
658.7898965776333
 20
240.8977691448011
 30
0.0000000000000000
 40
1.000000000000000
100
AcDbArc
 50
89.99999999942543
 51
179.9999999999963
  0
LINE
  5
3FE
100
AcDbEntity
  8
MAIN0
  6
PHANTOM
 62
3
100
AcDbLine
 10
662.6891404983899
 20
242.5886233732521
 30
0.0000000000000000
 11
657.1228904983900
 21
242.5886233732521
 31
0.0000000000000000
  0
LINE
  5
3FF
100
AcDbEntity
  8
MAIN0
  6
PHANTOM
 62
3
100
AcDbLine
 10
662.6891404983901
 20
242.5886233732521
 30
0.0000000000000000
 11
668.2553904983897
 21
242.5886233732521
 31
0.0000000000000000
  0
LINE
  5
400
100
AcDbEntity
  8
MAIN0
  6
PHANTOM
 62
3
100
AcDbLine
 10
623.6891404983899
 20
237.5886233732522
 30
0.0000000000000000
 11
623.6891404983899
 21
236.5886233732522
 31
0.0000000000000000
  0
LINE
  5
401
100
AcDbEntity
  8
MAIN0
  6
PHANTOM
 62
3
100
AcDbLine
 10
620.5883844191466
 20
240.8977691448011
 30
0.0000000000000000
 11
620.5883844191467
 21
236.5886233732522
 31
0.0000000000000000
  0
LINE
  5
402
100
AcDbEntity
  8
MAIN0
  6
PHANTOM
 62
3
100
AcDbLine
 10
619.5883844191466
 20
241.8977691448011
 30
0.0000000000000000
 11
615.6891404983899
 21
241.8977691448011
 31
0.0000000000000000
  0
ARC
  5
403
100
AcDbEntity
  8
MAIN0
  6
PHANTOM
 62
3
100
AcDbCircle
 10
619.5883844191467
 20
240.8977691448011
 30
0.0000000000000000
 40
1.000000000000000
100
AcDbArc
 50
3.740332305401095e-012
 51
90.00000000057460
  0
LINE
  5
404
100
AcDbEntity
  8
MAIN0
  6
PHANTOM
 62
3
100
AcDbLine
 10
611.7898965776332
 20
241.8977691448011
 30
0.0000000000000000
 11
615.6891404983899
 21
241.8977691448011
 31
0.0000000000000000
  0
ARC
  5
405
100
AcDbEntity
  8
MAIN0
  6
PHANTOM
 62
3
100
AcDbCircle
 10
611.7898965776332
 20
240.8977691448011
 30
0.0000000000000000
 40
1.000000000000000
100
AcDbArc
 50
89.99999999942553
 51
179.9999999999964
  0
LINE
  5
406
100
AcDbEntity
  8
MAIN0
  6
PHANTOM
 62
3
100
AcDbLine
 10
610.7898965776332
 20
240.8977691448011
 30
0.0000000000000000
 11
610.7898965776332
 21
236.5886233732522
 31
0.0000000000000000
  0
LINE
  5
407
100
AcDbEntity
  8
MAIN0
  6
PHANTOM
 62
3
100
AcDbLine
 10
607.6891404983899
 20
237.5886233732521
 30
0.0000000000000000
 11
607.6891404983899
 21
236.5886233732522
 31
0.0000000000000000
  0
LINE
  5
408
100
AcDbEntity
  8
MAIN0
  6
PHANTOM
 62
3
100
AcDbLine
 10
615.6891404983900
 20
242.5886233732521
 30
0.0000000000000000
 11
621.2553904983897
 21
242.5886233732521
 31
0.0000000000000000
  0
LINE
  5
409
100
AcDbEntity
  8
MAIN0
  6
PHANTOM
 62
3
100
AcDbLine
 10
615.6891404983899
 20
242.5886233732520
 30
0.0000000000000000
 11
610.1228904983900
 21
242.5886233732521
 31
0.0000000000000000
  0
LINE
  5
40A
100
AcDbEntity
  8
MAIN0
  6
PHANTOM
 62
3
100
AcDbLine
 10
607.6891404983899
 20
236.5886233732521
 30
0.0000000000000000
 11
623.6891404983901
 21
236.5886233732522
 31
0.0000000000000000
  0
LINE
  5
40B
100
AcDbEntity
  8
MAIN0
  6
PHANTOM
 62
3
100
AcDbLine
 10
654.6891404983899
 20
236.5886233732522
 30
0.0000000000000000
 11
670.6891404983901
 21
236.5886233732522
 31
0.0000000000000000
  0
LINE
  5
40C
100
AcDbEntity
  8
MAIN0
  6
PHANTOM
 62
3
100
AcDbLine
 10
634.5188904983899
 20
243.7886233732518
 30
0.0000000000000000
 11
643.8593904983898
 21
243.7886233732518
 31
0.0000000000000000
  0
LINE
  5
40D
100
AcDbEntity
  8
MAIN0
  6
CONTINUOUS
 62
3
100
AcDbLine
 10
624.2657467397744
 20
390.2405471618986
 30
0.0000000000000000
 11
622.3187143494938
 21
391.3646668365481
 31
0.0000000000000000
  0
LINE
  5
40E
100
AcDbEntity
  8
MAIN0
  6
CENTER
 62
3
100
AcDbLine
 10
252.5941804450199
 20
370.5886233732518
 30
0.0000000000000000
 11
287.5135175734168
 21
370.5886233732518
 31
0.0000000000000000
  0
LINE
  5
40F
100
AcDbEntity
  8
MAIN0
  6
PHANTOM
 62
3
100
AcDbLine
 10
255.6891404984334
 20
371.5886233732518
 30
0.0000000000000000
 11
283.1891404984332
 21
371.5886233732518
 31
0.0000000000000000
  0
LINE
  5
410
100
AcDbEntity
  8
MAIN0
  6
PHANTOM
 62
3
100
AcDbLine
 10
255.6891404984334
 20
369.5886233732518
 30
0.0000000000000000
 11
283.1891404984332
 21
369.5886233732518
 31
0.0000000000000000
  0
LINE
  5
411
100
AcDbEntity
  8
MAIN0
  6
PHANTOM
 62
3
100
AcDbLine
 10
283.1891404984332
 20
367.6659736423474
 30
0.0000000000000000
 11
283.1891404984332
 21
372.5886233732518
 31
0.0000000000000000
  0
LINE
  5
412
100
AcDbEntity
  8
MAIN0
  6
PHANTOM
 62
3
100
AcDbLine
 10
283.1891404984332
 20
372.5886233732518
 30
0.0000000000000000
 11
284.1891404984332
 21
372.5886233732518
 31
0.0000000000000000
  0
LINE
  5
413
100
AcDbEntity
  8
MAIN0
  6
CONTINUOUS
 62
3
100
AcDbLine
 10
627.2657467397743
 20
395.4366995846050
 30
0.0000000000000000
 11
625.3187143494936
 21
396.5608192592544
 31
0.0000000000000000
  0
LINE
  5
414
100
AcDbEntity
  8
MAIN0
  6
CENTER
 62
3
100
AcDbLine
 10
628.5520018990895
 20
395.6645588720368
 30
0.0000000000000000
 11
624.7455633390878
 21
389.0716138902243
 31
0.0000000000000000
  0
CIRCLE
  5
415
100
AcDbEntity
  8
MAIN0
  6
CONTINUOUS
 62
3
100
AcDbCircle
 10
626.6317721435587
 20
392.3386233732517
 30
0.0000000000000000
 40
1.000000000000000
  0
ARC
  5
416
100
AcDbEntity
  8
MAIN0
  6
CONTINUOUS
 62
3
100
AcDbCircle
 10
625.7657467397743
 20
392.8386233732517
 30
0.0000000000000000
 40
3.000000000000028
100
AcDbArc
 50
240.0000000000001
 51
420.0000000000002
  0
LINE
  5
417
100
AcDbEntity
  8
WAKU0
  6
CONTINUOUS
 62
3
100
AcDbLine
 10
412.0000000000000
 20
51.00000000000000
 30
0.0000000000000000
 11
582.0000000000000
 21
51.00000000000000
 31
0.0000000000000000
  0
LINE
  5
418
100
AcDbEntity
  8
WAKU0
  6
CONTINUOUS
 62
3
100
AcDbLine
 10
412.0000000000000
 20
51.00000000000000
 30
0.0000000000000000
 11
412.0000000000000
 21
12.00000000000000
 31
0.0000000000000000
  0
LINE
  5
419
100
AcDbEntity
  8
WAKU0
  6
CONTINUOUS
 62
3
100
AcDbLine
 10
484.0000000000000
 20
51.00000000000000
 30
0.0000000000000000
 11
484.0000000000000
 21
12.00000000000000
 31
0.0000000000000000
  0
LINE
  5
41A
100
AcDbEntity
  8
WAKU0
  6
CONTINUOUS
 62
3
100
AcDbLine
 10
504.0000000000000
 20
51.00000000000000
 30
0.0000000000000000
 11
504.0000000000000
 21
12.00000000000000
 31
0.0000000000000000
  0
LINE
  5
41B
100
AcDbEntity
  8
WAKU0
  6
CONTINUOUS
 62
3
100
AcDbLine
 10
516.0000000000000
 20
51.00000000000000
 30
0.0000000000000000
 11
516.0000000000000
 21
12.00000000000000
 31
0.0000000000000000
  0
LINE
  5
41C
100
AcDbEntity
  8
WAKU0
  6
CONTINUOUS
 62
3
100
AcDbLine
 10
516.0000000000000
 20
37.00000000000000
 30
0.0000000000000000
 11
582.0000000000000
 21
37.00000000000000
 31
0.0000000000000000
  0
LINE
  5
41D
100
AcDbEntity
  8
WAKU0
  6
CONTINUOUS
 62
3
100
AcDbLine
 10
504.0000000000000
 20
23.00000000000000
 30
0.0000000000000000
 11
582.0000000000000
 21
23.00000000000000
 31
0.0000000000000000
  0
LINE
  5
41E
100
AcDbEntity
  8
WAKU0
  6
CONTINUOUS
 62
3
100
AcDbLine
 10
547.0000000000000
 20
51.00000000000000
 30
0.0000000000000000
 11
547.0000000000000
 21
44.00000000000000
 31
0.0000000000000000
  0
LINE
  5
41F
100
AcDbEntity
  8
WAKU0
  6
CONTINUOUS
 62
3
100
AcDbLine
 10
559.0000000000000
 20
51.00000000000000
 30
0.0000000000000000
 11
559.0000000000000
 21
44.00000000000000
 31
0.0000000000000000
  0
LINE
  5
420
100
AcDbEntity
  8
WAKU0
  6
CONTINUOUS
 62
3
100
AcDbLine
 10
484.0000000000000
 20
31.50000000000000
 30
0.0000000000000000
 11
504.0000000000000
 21
31.50000000000000
 31
0.0000000000000000
  0
LINE
  5
421
100
AcDbEntity
  8
WAKU0
  6
CONTINUOUS
 62
3
100
AcDbLine
 10
504.0000000000000
 20
44.00000000000000
 30
0.0000000000000000
 11
582.0000000000000
 21
44.00000000000000
 31
0.0000000000000000
  0
LINE
  5
422
100
AcDbEntity
  8
WAKU0
  6
CONTINUOUS
 62
3
100
AcDbLine
 10
412.0000000000000
 20
37.00000000000000
 30
0.0000000000000000
 11
484.0000000000000
 21
37.00000000000000
 31
0.0000000000000000
  0
LINE
  5
423
100
AcDbEntity
  8
WAKU0
  6
CONTINUOUS
 62
3
100
AcDbLine
 10
412.0000000000000
 20
23.00000000000000
 30
0.0000000000000000
 11
484.0000000000000
 21
23.00000000000000
 31
0.0000000000000000
  0
LINE
  5
424
100
AcDbEntity
  8
WAKU0
  6
CONTINUOUS
 62
3
100
AcDbLine
 10
460.0000000000000
 20
37.00000000000000
 30
0.0000000000000000
 11
460.0000000000000
 21
12.00000000000000
 31
0.0000000000000000
  0
LINE
  5
425
100
AcDbEntity
  8
WAKU0
  6
CONTINUOUS
 62
3
100
AcDbLine
 10
436.0000000000000
 20
37.00000000000000
 30
0.0000000000000000
 11
436.0000000000000
 21
23.00000000000000
 31
0.0000000000000000
  0
LINE
  5
426
100
AcDbEntity
  8
WAKU0
  6
CONTINUOUS
 62
3
100
AcDbLine
 10
472.0000000000000
 20
26.00000000000000
 30
0.0000000000000000
 11
472.0000000000000
 21
23.00000000000000
 31
0.0000000000000000
  0
LINE
  5
427
100
AcDbEntity
  8
WAKU0
  6
CONTINUOUS
 62
3
100
AcDbLine
 10
448.0000000000000
 20
26.00000000000000
 30
0.0000000000000000
 11
448.0000000000000
 21
23.00000000000000
 31
0.0000000000000000
  0
LINE
  5
428
100
AcDbEntity
  8
WAKU0
  6
CONTINUOUS
 62
3
100
AcDbLine
 10
424.0000000000000
 20
26.00000000000000
 30
0.0000000000000000
 11
424.0000000000000
 21
23.00000000000000
 31
0.0000000000000000
  0
LINE
  5
429
100
AcDbEntity
  8
WAKU0
  6
CONTINUOUS
 62
3
100
AcDbLine
 10
430.0000000000000
 20
51.00000000000000
 30
0.0000000000000000
 11
430.0000000000000
 21
37.00000000000000
 31
0.0000000000000000
  0
LINE
  5
42A
100
AcDbEntity
  8
WAKU0
  6
CONTINUOUS
 62
3
100
AcDbLine
 10
412.0000000000000
 20
45.00000000000000
 30
0.0000000000000000
 11
484.0000000000000
 21
45.00000000000000
 31
0.0000000000000000
  0
LINE
  5
42B
100
AcDbEntity
  8
WAKU0
  6
HIDDEN
 62
3
100
AcDbLine
 10
532.5000000000000
 20
23.00000000000000
 30
0.0000000000000000
 11
532.5000000000000
 21
12.00000000000000
 31
0.0000000000000000
  0
LINE
  5
42C
100
AcDbEntity
  8
WAKU0
  6
HIDDEN
 62
3
100
AcDbLine
 10
544.9000000000000
 20
23.00000000000000
 30
0.0000000000000000
 11
544.9000000000000
 21
12.00000000000000
 31
0.0000000000000000
  0
MTEXT
  5
42D
100
AcDbEntity
  8
WAKU0
  6
CONTINUOUS
 62
3
100
AcDbMText
 10
516.4820000243485
 20
49.04999995231628
 30
0.0000000000000000
 40
3.099999904632568
 41
0.0000000000000000
 71
     1
 72
     1
  1
{\H0.92x;{YS2220K}}
 11
1.000000000000000
 21
0.0000000000000000
 31
0.0000000000000000
  7
STANDARD
  0
MTEXT
  5
42E
100
AcDbEntity
  8
WAKU0
  6
CONTINUOUS
 62
3
100
AcDbMText
 10
517.1700005233288
 20
43.50000000000000
 30
0.0000000000000000
 40
3.000000000000000
 41
0.0000000000000000
 71
     1
 72
     1
  1
{\H0.94x;{ステーショナリシリンダ\PＳＴＡＴＩＯＮＡＲＹ　ＣＹＬＩＮＤＥＲ}}
 11
1.000000000000000
 21
0.0000000000000000
 31
0.0000000000000000
  7
KNJYOKO
  0
MTEXT
  5
42F
100
AcDbEntity
  8
WAKU0
  6
CONTINUOUS
 62
3
100
AcDbMText
 10
516.4000000059605
 20
34.23333326975504
 30
0.0000000000000000
 40
3.099999904632568
 41
0.0000000000000000
 71
     1
 72
     1
  1
{\H0.70x;{ＹＳ２２２０Ｋ　ガイケイ\PＹＳ２２２０Ｋ　ＯＵＴＳＩＤＥ　ＶＩＥＷ}}
 11
1.000000000000000
 21
0.0000000000000000
 31
0.0000000000000000
  7
KNJYOKO
  0
MTEXT
  5
430
100
AcDbEntity
  8
WAKU0
  6
CONTINUOUS
 62
3
100
AcDbMText
 10
490.0049998760223
 20
39.29999995231628
 30
0.0000000000000000
 40
3.099999904632568
 41
0.0000000000000000
 71
     1
 72
     1
  1
{\H0.90x;{2:3}}
 11
1.000000000000000
 21
0.0000000000000000
 31
0.0000000000000000
  7
STANDARD
  0
MTEXT
  5
431
100
AcDbEntity
  8
WAKU0
  6
CONTINUOUS
 62
3
100
AcDbMText
 10
546.4000001549721
 20
20.15000009536743
 30
0.0000000000000000
 40
5.300000190734863
 41
0.0000000000000000
 71
     1
 72
     1
  1
{\H0.90x;{8914}}
 11
1.000000000000000
 21
0.0000000000000000
 31
0.0000000000000000
  7
STANDARD
  0
MTEXT
  5
432
100
AcDbEntity
  8
WAKU0
  6
CONTINUOUS
 62
3
100
AcDbMText
 10
534.3000000834466
 20
20.15000009536743
 30
0.0000000000000000
 40
5.300000190734863
 41
0.0000000000000000
 71
     1
 72
     1
  1
{\H0.87x;{23}}
 11
1.000000000000000
 21
0.0000000000000000
 31
0.0000000000000000
  7
STANDARD
  0
MTEXT
  5
433
100
AcDbEntity
  8
WAKU0
  6
CONTINUOUS
 62
3
100
AcDbMText
 10
517.5000001192093
 20
20.15000009536743
 30
0.0000000000000000
 40
5.300000190734863
 41
0.0000000000000000
 71
     1
 72
     1
  1
{\H0.89x;{61R}}
 11
1.000000000000000
 21
0.0000000000000000
 31
0.0000000000000000
  7
STANDARD
  0
MTEXT
  5
434
100
AcDbEntity
  8
WAKU0
  6
CONTINUOUS
 62
3
100
AcDbMText
 10
572.0000000476837
 20
20.15000009536743
 30
0.0000000000000000
 40
5.300000190734863
 41
0.0000000000000000
 71
     1
 72
     1
  1
{\H0.81x;{4}}
 11
1.000000000000000
 21
0.0000000000000000
 31
0.0000000000000000
  7
STANDARD
  0
MTEXT
  5
435
100
AcDbEntity
  8
WAKU0
  6
CONTINUOUS
 62
3
100
AcDbMText
 10
572.0000000819564
 20
44.84999990463257
 30
0.0000000000000000
 40
5.300000190734863
 41
0.0000000000000000
 71
     7
 72
     1
  1
{\H0.81x;{ }}
 11
1.000000000000000
 21
0.0000000000000000
 31
0.0000000000000000
  7
STANDARD
  0
MTEXT
  5
436
100
AcDbEntity
  8
WAKU0
  6
CONTINUOUS
 62
3
100
AcDbMText
 10
461.3850002884865
 20
33.00000000000000
 30
0.0000000000000000
 40
3.000000000000000
 41
0.0000000000000000
 71
     7
 72
     1
  1
{\H0.93x;{DRAWN BY}}
 11
1.000000000000000
 21
0.0000000000000000
 31
0.0000000000000000
  7
STANDARD
  0
MTEXT
  5
437
100
AcDbEntity
  8
WAKU0
  6
CONTINUOUS
 62
3
100
AcDbMText
 10
441.2149997949600
 20
32.95000004768372
 30
0.0000000000000000
 40
3.099999904632568
 41
0.0000000000000000
 71
     7
 72
     1
  1
{\H0.92x;{CHIEF}}
 11
1.000000000000000
 21
0.0000000000000000
 31
0.0000000000000000
  7
STANDARD
  0
MTEXT
  5
438
100
AcDbEntity
  8
WAKU0
  6
CONTINUOUS
 62
3
100
AcDbMText
 10
414.4249997138977
 20
32.95000004768372
 30
0.0000000000000000
 40
3.099999904632568
 41
0.0000000000000000
 71
     7
 72
     1
  1
{\H0.92x;{MANAGER}}
 11
1.000000000000000
 21
0.0000000000000000
 31
0.0000000000000000
  7
STANDARD
  0
MTEXT
  5
439
100
AcDbEntity
  8
WAKU0
  6
CONTINUOUS
 62
3
100
AcDbMText
 10
416.6599994301796
 20
18.13333336512248
 30
0.0000000000000000
 40
3.099999904632568
 41
0.0000000000000000
 71
     7
 72
     1
  1
{\H0.93x;{KITAGAWA IRON\PWORKS CO.,LTD.}}
 11
1.000000000000000
 21
0.0000000000000000
 31
0.0000000000000000
  7
STANDARD
  0
MTEXT
  5
43A
100
AcDbEntity
  8
WAKU0
  6
CONTINUOUS
 62
3
100
AcDbMText
 10
413.0850002169609
 20
46.50000000000000
 30
0.0000000000000000
 40
3.000000000000000
 41
0.0000000000000000
 71
     7
 72
     1
  1
{\H0.92x;{CAREER}}
 11
1.000000000000000
 21
0.0000000000000000
 31
0.0000000000000000
  7
STANDARD
  0
MTEXT
  5
43B
100
AcDbEntity
  8
WAKU0
  6
CONTINUOUS
 62
3
100
AcDbMText
 10
466.6099998354912
 20
18.95000004768372
 30
0.0000000000000000
 40
3.099999904632568
 41
0.0000000000000000
 71
     7
 72
     1
  1
{\H0.91x;{DATE}}
 11
1.000000000000000
 21
0.0000000000000000
 31
0.0000000000000000
  7
STANDARD
  0
MTEXT
  5
43C
100
AcDbEntity
  8
WAKU0
  6
CONTINUOUS
 62
3
100
AcDbMText
 10
485.9000002145767
 20
26.50000000000000
 30
0.0000000000000000
 40
3.000000000000000
 41
0.0000000000000000
 71
     7
 72
     1
  1
{\H0.63x;{3RD ANGLE}}
 11
1.000000000000000
 21
0.0000000000000000
 31
0.0000000000000000
  7
STANDARD
  0
MTEXT
  5
43D
100
AcDbEntity
  8
WAKU0
  6
CONTINUOUS
 62
3
100
AcDbMText
 10
487.2149997949600
 20
45.95000004768372
 30
0.0000000000000000
 40
3.099999904632568
 41
0.0000000000000000
 71
     7
 72
     1
  1
{\H0.92x;{SCALE}}
 11
1.000000000000000
 21
0.0000000000000000
 31
0.0000000000000000
  7
STANDARD
  0
MTEXT
  5
43E
100
AcDbEntity
  8
WAKU0
  6
CONTINUOUS
 62
3
100
AcDbMText
 10
577.7000000476837
 20
46.00000000000000
 30
0.0000000000000000
 40
3.000000000000000
 41
0.0000000000000000
 71
     7
 72
     1
  1
{\H0.63x;{kg}}
 11
1.000000000000000
 21
0.0000000000000000
 31
0.0000000000000000
  7
STANDARD
  0
MTEXT
  5
43F
100
AcDbEntity
  8
WAKU0
  6
CONTINUOUS
 62
3
100
AcDbMText
 10
547.6000001430512
 20
46.00000000000000
 30
0.0000000000000000
 40
3.000000000000000
 41
0.0000000000000000
 71
     7
 72
     1
  1
{\H0.63x;{WEIGHT}}
 11
1.000000000000000
 21
0.0000000000000000
 31
0.0000000000000000
  7
STANDARD
  0
MTEXT
  5
440
100
AcDbEntity
  8
WAKU0
  6
CONTINUOUS
 62
3
100
AcDbMText
 10
506.0049998760223
 20
18.13333336512248
 30
0.0000000000000000
 40
3.099999904632568
 41
0.0000000000000000
 71
     7
 72
     1
  1
{\H0.90x;{DRW\PNO.}}
 11
1.000000000000000
 21
0.0000000000000000
 31
0.0000000000000000
  7
STANDARD
  0
MTEXT
  5
441
100
AcDbEntity
  8
WAKU0
  6
CONTINUOUS
 62
3
100
AcDbMText
 10
504.6099998354912
 20
31.95000004768372
 30
0.0000000000000000
 40
3.099999904632568
 41
0.0000000000000000
 71
     7
 72
     1
  1
{\H0.91x;{NAME}}
 11
1.000000000000000
 21
0.0000000000000000
 31
0.0000000000000000
  7
STANDARD
  0
MTEXT
  5
442
100
AcDbEntity
  8
WAKU0
  6
CONTINUOUS
 62
3
100
AcDbMText
 10
504.6099998354912
 20
45.95000004768372
 30
0.0000000000000000
 40
3.099999904632568
 41
0.0000000000000000
 71
     7
 72
     1
  1
{\H0.91x;{TYPE}}
 11
1.000000000000000
 21
0.0000000000000000
 31
0.0000000000000000
  7
STANDARD
  0
LINE
  5
443
100
AcDbEntity
  8
WAKU0
  6
HIDDEN
 62
3
100
AcDbLine
 10
579.1599564743885
 20
13.84999990463257
 30
0.0000000000000000
 11
568.9400436209789
 21
13.84999990463257
 31
0.0000000000000000
  0
LINE
  5
444
100
AcDbEntity
  8
WAKU0
  6
HIDDEN
 62
3
100
AcDbLine
 10
579.1599564743885
 20
13.84999990463250
 30
0.0000000000000000
 11
574.0500000476851
 21
22.70070406014901
 31
0.0000000000000000
  0
LINE
  5
445
100
AcDbEntity
  8
WAKU0
  6
HIDDEN
 62
3
100
AcDbLine
 10
574.0500000476851
 20
22.70070406014902
 30
0.0000000000000000
 11
568.9400436209789
 21
13.84999990463248
 31
0.0000000000000000
  0
LINE
  5
446
100
AcDbEntity
  8
WAKU0
  6
CONTINUOUS
 62
3
100
AcDbLine
 10
502.4713877753800
 20
15.78041421262812
 30
0.0000000000000000
 11
502.4713877753800
 21
21.78041421262815
 31
0.0000000000000000
  0
LINE
  5
447
100
AcDbEntity
  8
WAKU0
  6
CONTINUOUS
 62
3
100
AcDbLine
 10
495.9336941228225
 20
17.28041421262811
 30
0.0000000000000000
 11
495.9336941228225
 21
20.28041421262824
 31
0.0000000000000000
  0
LINE
  5
448
100
AcDbEntity
  8
WAKU0
  6
CENTER
 62
12
100
AcDbLine
 10
485.4321805514995
 20
18.78041421262813
 30
0.0000000000000000
 11
503.2765788964694
 21
18.78041421262813
 31
0.0000000000000000
  0
LINE
  5
449
100
AcDbEntity
  8
WAKU0
  6
CENTER
 62
12
100
AcDbLine
 10
489.4474565857986
 20
14.55921662918448
 30
0.0000000000000000
 11
489.4474565857986
 21
22.89865102149943
 31
0.0000000000000000
  0
LINE
  5
44A
100
AcDbEntity
  8
WAKU0
  6
CONTINUOUS
 62
3
100
AcDbLine
 10
495.9336941228225
 20
20.28041421262797
 30
0.0000000000000000
 11
502.4713877753800
 21
21.78041421262795
 31
0.0000000000000000
  0
LINE
  5
44B
100
AcDbEntity
  8
WAKU0
  6
CONTINUOUS
 62
3
100
AcDbLine
 10
495.9336941228225
 20
17.28041421262811
 30
0.0000000000000000
 11
502.4713877753799
 21
15.78041421262812
 31
0.0000000000000000
  0
CIRCLE
  5
44C
100
AcDbEntity
  8
WAKU0
  6
CONTINUOUS
 62
3
100
AcDbCircle
 10
489.4474565857986
 20
18.78041421262813
 30
0.0000000000000000
 40
1.499999999999972
  0
CIRCLE
  5
44D
100
AcDbEntity
  8
WAKU0
  6
CONTINUOUS
 62
3
100
AcDbCircle
 10
489.4474565857986
 20
18.78041421262813
 30
0.0000000000000000
 40
2.999999999999979
  0
ENDSEC
  0
SECTION
  2
OBJECTS
  0
DICTIONARY
  5
4A3
100
AcDbDictionary
  3
ACAD_GROUP
350
4A4
  3
ACAD_MLINESTYLE
350
4A5
  3
DWGPROPS
350
4A6
  0
DICTIONARY
  5
4A4
102
{ACAD_REACTORS
330
4A3
102
}
100
AcDbDictionary
  0
DICTIONARY
  5
4A5
102
{ACAD_REACTORS
330
4A3
102
}
100
AcDbDictionary
  3
STANDARD
350
4A7
  0
MLINESTYLE
  5
4A7
102
{ACAD_REACTORS
330
4A5
102
}
100
AcDbMlineStyle
  2
STANDARD
 70
     0
  3

 62
   256
 51
90.00
 52
90.00
 71
     2
 49
0.50
 62
   256
  6
BYLAYER
 49
-0.50
 62
   256
  6
BYLAYER
  0
XRECORD
  5
4A6
102
{ACAD_REACTORS
330
4A3
102
}
100
AcDbXrecord
280
     1
  1
DWGPROPS COOKIE
  2
ＹＳ２２２０Ｋ　ガイケイ
  3

  4

  6
ステーショナリシリンダ
  7

  8

  9

300
=
301
=
302
=
303
=
304
=
305
=
306
=
307
=
308
=
309
=
 40
0.000000
 41
0.000000
 42
0.000000
  1

 90
        0
  0
ENDSEC
  0
EOF
