  0
SECTION
  2
HEADER
  9
$ACADVER
  1
AC1014
  9
$DWGCODEPAGE
  3
ANSI_932
  9
$LTSCALE
 40
20.0
  9
$FILLMODE
 70
     1
  9
$CLAYER
  8
0
  9
$PDMODE
 70
     0
  9
$SPLFRAME
 70
     0
  9
$SPLINETYPE
 70
     6
  9
$SPLINESEGS
 70
     8
  9
$DIMASZ
 40
2.000000
  9
$DIMEXE
 40
2.000000
  9
$DIMEXO
 40
0.800000
  9
$DIMTAD
 70
     1
  9
$DIMTIH
 70
     0
  9
$DIMTOH
 70
     0
  9
$DIMTVP
 40
0.500000
  9
$DIMTXT
 40
3.100000
  9
$EXTMIN
 10
0.000000
 20
0.000000
 30
0.000000
  9
$EXTMAX
 10
420.000000
 20
594.000000
 30
0.000000
  9
$MEASUREMENT
 70
  1
  9
$LIMMIN
 10
0.000000
 20
0.000000
  9
$LIMMAX
 10
420.000000
 20
594.000000
  9
$HANDLING
 70
     1
  9
$HANDSEED
  5
438
  9
$DIMBLK
  1
_OPEN
  9
$DIMDEC
 70
     3
  9
$DIMAUNIT
 70
     1
  9
$DIMZIN
 70
     8
  9
$DIMTOFL
 70
     1
  0
ENDSEC
  0
SECTION
  2
CLASSES
  0
ENDSEC
  0
SECTION
  2
TABLES
  0
TABLE
  2
VPORT
  5
3EE
100
AcDbSymbolTable
 70
     1
  0
VPORT
  5
3EF
100
AcDbSymbolTableRecord
100
AcDbViewportTableRecord
  2
*ACTIVE
 70
     0
 12
317.351241
 22
211.000000
 40
398.000000
 41
1.329893
  0
ENDTAB
  0
TABLE
  2
LTYPE
  5
3F0
100
AcDbSymbolTable
 70
     4
  0
LTYPE
  5
3F1
100
AcDbSymbolTableRecord
100
AcDbLinetypeTableRecord
  2
BYBLOCK
 70
     0
  3

 72
    65
 73
     0
 40
0.0
  0
LTYPE
  5
3F2
100
AcDbSymbolTableRecord
100
AcDbLinetypeTableRecord
  2
BYLAYER
 70
     0
  3

 72
    65
 73
     0
 40
0.0
  0
LTYPE
  5
3F3
100
AcDbSymbolTableRecord
100
AcDbLinetypeTableRecord
  2
CONTINUOUS
 70
     0
  3
Solid line (NEC CAE2D for Win R14.2 : 2021.06.16)
 72
    65
 73
     0
 40
0.0
  0
LTYPE
  5
3F4
100
AcDbSymbolTableRecord
100
AcDbLinetypeTableRecord
  2
HIDDEN
 70
     0
  3
__ __ __ __ __ __ __ __ __ __ __ __ __ __
 72
    65
 73
     2
 40
0.375
 49
0.25
 74
     0
 49
-0.125
 74
     0
  0
LTYPE
  5
3F5
100
AcDbSymbolTableRecord
100
AcDbLinetypeTableRecord
  2
CENTER
 70
     0
  3
____ _ ____ _ ____ _ ____ _ ____ _ ____
 72
    65
 73
     4
 40
2.0
 49
1.25
 74
     0
 49
-0.25
 74
     0
 49
0.25
 74
     0
 49
-0.25
 74
     0
  0
LTYPE
  5
3F6
100
AcDbSymbolTableRecord
100
AcDbLinetypeTableRecord
  2
PHANTOM
 70
     0
  3
______  __  __  ______  __  __  ______ 
 72
    65
 73
     6
 40
2.5
 49
1.25
 74
     0
 49
-0.25
 74
     0
 49
0.25
 74
     0
 49
-0.25
 74
     0
 49
0.25
 74
     0
 49
-0.25
 74
     0
  0
ENDTAB
  0
TABLE
  2
LAYER
  5
3F7
100
AcDbSymbolTable
 70
     8
  0
LAYER
  5
3F8
100
AcDbSymbolTableRecord
100
AcDbLayerTableRecord
  2
0
 70
     0
 62
     7
  6
CONTINUOUS
  0
LAYER
  5
3F9
100
AcDbSymbolTableRecord
100
AcDbLayerTableRecord
  2
MAIN0
 70
     0
 62
     7
  6
CONTINUOUS
  0
LAYER
  5
3FA
100
AcDbSymbolTableRecord
100
AcDbLayerTableRecord
  2
MAIN1
 70
     0
 62
     7
  6
CONTINUOUS
  0
LAYER
  5
3FB
100
AcDbSymbolTableRecord
100
AcDbLayerTableRecord
  2
MAIN3
 70
     0
 62
     7
  6
CONTINUOUS
  0
LAYER
  5
3FC
100
AcDbSymbolTableRecord
100
AcDbLayerTableRecord
  2
MAIN10
 70
     0
 62
     7
  6
CONTINUOUS
  0
LAYER
  5
3FD
100
AcDbSymbolTableRecord
100
AcDbLayerTableRecord
  2
MAIN1023
 70
     0
 62
    16
  6
CONTINUOUS
  0
LAYER
  5
3FE
100
AcDbSymbolTableRecord
100
AcDbLayerTableRecord
  2
WAKU0
 70
     0
 62
     7
  6
CONTINUOUS
  0
LAYER
  5
3FF
100
AcDbSymbolTableRecord
100
AcDbLayerTableRecord
  2
WAKU1023
 70
     0
 62
    16
  6
CONTINUOUS
  0
ENDTAB
  0
TABLE
  2
STYLE
  5
400
100
AcDbSymbolTable
 70
     4
  0
STYLE
  5
401
100
AcDbSymbolTableRecord
100
AcDbTextStyleTableRecord
  2
STANDARD
 70
    64
 40
0.0
 41
1.0
 50
0.0
 71
     0
 42
3.140094041824341
  3
TXT
  4

  0
STYLE
  5
402
100
AcDbSymbolTableRecord
100
AcDbTextStyleTableRecord
  2
ANKTATE
 70
    68
 40
0.0
 41
1.0
 50
0.0
 71
     0
 42
3.140094041824341
  3
TXT
  4

  0
STYLE
  5
403
100
AcDbSymbolTableRecord
100
AcDbTextStyleTableRecord
  2
KNJYOKO
 70
    64
 40
0.0
 41
1.0
 50
0.0
 71
     0
 42
3.140094041824341
  3
TXT
  4
BIGFONT
  0
STYLE
  5
404
100
AcDbSymbolTableRecord
100
AcDbTextStyleTableRecord
  2
KNJTATE
 70
    68
 40
0.0
 41
1.0
 50
0.0
 71
     0
 42
3.140094041824341
  3
TXT
  4
BIGFONT
  0
ENDTAB
  0
TABLE
  2
VIEW
  5
405
100
AcDbSymbolTable
 70
     0
  0
ENDTAB
  0
TABLE
  2
UCS
  5
406
100
AcDbSymbolTable
 70
     0
  0
ENDTAB
  0
TABLE
  2
APPID
  5
407
100
AcDbSymbolTable
 70
     1
  0
APPID
  5
408
100
AcDbSymbolTableRecord
100
AcDbRegAppTableRecord
  2
ACAD
 70
     0
  0
ENDTAB
  0
TABLE
  2
DIMSTYLE
  5
409
100
AcDbSymbolTable
 70
     1
  0
DIMSTYLE
105
40A
100
AcDbSymbolTableRecord
100
AcDbDimStyleTableRecord
  2
STANDARD
 70
     0
 41
2.000000
 44
2.000000
 42
0.800000
145
0.661290
140
3.100000
144
1.000000
146
0.903226
340
401
  0
DIMSTYLE
105
40B
100
AcDbSymbolTableRecord
100
AcDbDimStyleTableRecord
  2
MAIN001
 70
     0
 41
2.000000
 44
2.000000
 42
0.800000
145
0.661290
140
3.100000
144
1.000000
146
0.903226
 77
     1
 73
     0
 74
     0
271
     3
275
     1
 78
     8
172
     1
340
401
  0
DIMSTYLE
105
40C
100
AcDbSymbolTableRecord
100
AcDbDimStyleTableRecord
  2
WAKU002
 70
     0
 41
2.000000
 44
2.000000
 42
0.800000
145
0.661290
140
3.100000
144
1.000000
146
0.903226
 77
     1
 73
     0
 74
     0
271
     3
275
     1
 78
     8
172
     1
340
401
  0
ENDTAB
  0
TABLE
  2
BLOCK_RECORD
  5
40D
100
AcDbSymbolTable
 70
    43
  0
BLOCK_RECORD
  5
40E
100
AcDbSymbolTableRecord
100
AcDbBlockTableRecord
  2
*MODEL_SPACE
  0
BLOCK_RECORD
  5
40F
100
AcDbSymbolTableRecord
100
AcDbBlockTableRecord
  2
*PAPER_SPACE
  0
BLOCK_RECORD
  5
1
100
AcDbSymbolTableRecord
100
AcDbBlockTableRecord
  2
_NONE
  0
BLOCK_RECORD
  5
4
100
AcDbSymbolTableRecord
100
AcDbBlockTableRecord
  2
_CLOSED
  0
BLOCK_RECORD
  5
B
100
AcDbSymbolTableRecord
100
AcDbBlockTableRecord
  2
_DOT
  0
BLOCK_RECORD
  5
13
100
AcDbSymbolTableRecord
100
AcDbBlockTableRecord
  2
_OPEN
  0
BLOCK_RECORD
  5
19
100
AcDbSymbolTableRecord
100
AcDbBlockTableRecord
  2
_ORIGIN
  0
BLOCK_RECORD
  5
1E
100
AcDbSymbolTableRecord
100
AcDbBlockTableRecord
  2
_OPEN30
  0
BLOCK_RECORD
  5
24
100
AcDbSymbolTableRecord
100
AcDbBlockTableRecord
  2
_BOXFILLED
  0
BLOCK_RECORD
  5
29
100
AcDbSymbolTableRecord
100
AcDbBlockTableRecord
  2
_BOXBLANK
  0
BLOCK_RECORD
  5
31
100
AcDbSymbolTableRecord
100
AcDbBlockTableRecord
  2
_OBLIQUE
  0
BLOCK_RECORD
  5
35
100
AcDbSymbolTableRecord
100
AcDbBlockTableRecord
  2
_OPEN90
  0
BLOCK_RECORD
  5
3B
100
AcDbSymbolTableRecord
100
AcDbBlockTableRecord
  2
_CLOSEDBLANK
  0
BLOCK_RECORD
  5
41
100
AcDbSymbolTableRecord
100
AcDbBlockTableRecord
  2
_DOTBLANK
  0
BLOCK_RECORD
  5
410
100
AcDbSymbolTableRecord
100
AcDbBlockTableRecord
  2
*D0
  0
BLOCK_RECORD
  5
411
100
AcDbSymbolTableRecord
100
AcDbBlockTableRecord
  2
*D1
  0
BLOCK_RECORD
  5
412
100
AcDbSymbolTableRecord
100
AcDbBlockTableRecord
  2
*D2
  0
BLOCK_RECORD
  5
413
100
AcDbSymbolTableRecord
100
AcDbBlockTableRecord
  2
*D3
  0
BLOCK_RECORD
  5
414
100
AcDbSymbolTableRecord
100
AcDbBlockTableRecord
  2
*D4
  0
BLOCK_RECORD
  5
415
100
AcDbSymbolTableRecord
100
AcDbBlockTableRecord
  2
*D5
  0
BLOCK_RECORD
  5
416
100
AcDbSymbolTableRecord
100
AcDbBlockTableRecord
  2
*D6
  0
BLOCK_RECORD
  5
417
100
AcDbSymbolTableRecord
100
AcDbBlockTableRecord
  2
*D7
  0
BLOCK_RECORD
  5
418
100
AcDbSymbolTableRecord
100
AcDbBlockTableRecord
  2
*D8
  0
BLOCK_RECORD
  5
419
100
AcDbSymbolTableRecord
100
AcDbBlockTableRecord
  2
*D9
  0
BLOCK_RECORD
  5
41A
100
AcDbSymbolTableRecord
100
AcDbBlockTableRecord
  2
*D10
  0
BLOCK_RECORD
  5
41B
100
AcDbSymbolTableRecord
100
AcDbBlockTableRecord
  2
*D11
  0
BLOCK_RECORD
  5
41C
100
AcDbSymbolTableRecord
100
AcDbBlockTableRecord
  2
*D12
  0
BLOCK_RECORD
  5
41D
100
AcDbSymbolTableRecord
100
AcDbBlockTableRecord
  2
*D13
  0
BLOCK_RECORD
  5
41E
100
AcDbSymbolTableRecord
100
AcDbBlockTableRecord
  2
*D14
  0
BLOCK_RECORD
  5
41F
100
AcDbSymbolTableRecord
100
AcDbBlockTableRecord
  2
*D15
  0
BLOCK_RECORD
  5
420
100
AcDbSymbolTableRecord
100
AcDbBlockTableRecord
  2
*D16
  0
BLOCK_RECORD
  5
421
100
AcDbSymbolTableRecord
100
AcDbBlockTableRecord
  2
*D17
  0
BLOCK_RECORD
  5
422
100
AcDbSymbolTableRecord
100
AcDbBlockTableRecord
  2
*D18
  0
BLOCK_RECORD
  5
423
100
AcDbSymbolTableRecord
100
AcDbBlockTableRecord
  2
D19
  0
BLOCK_RECORD
  5
424
100
AcDbSymbolTableRecord
100
AcDbBlockTableRecord
  2
M0
  0
BLOCK_RECORD
  5
425
100
AcDbSymbolTableRecord
100
AcDbBlockTableRecord
  2
*D20
  0
BLOCK_RECORD
  5
426
100
AcDbSymbolTableRecord
100
AcDbBlockTableRecord
  2
*D21
  0
BLOCK_RECORD
  5
427
100
AcDbSymbolTableRecord
100
AcDbBlockTableRecord
  2
*D22
  0
BLOCK_RECORD
  5
428
100
AcDbSymbolTableRecord
100
AcDbBlockTableRecord
  2
*D23
  0
BLOCK_RECORD
  5
429
100
AcDbSymbolTableRecord
100
AcDbBlockTableRecord
  2
*D24
  0
BLOCK_RECORD
  5
42A
100
AcDbSymbolTableRecord
100
AcDbBlockTableRecord
  2
*D25
  0
BLOCK_RECORD
  5
42B
100
AcDbSymbolTableRecord
100
AcDbBlockTableRecord
  2
*D26
  0
BLOCK_RECORD
  5
42C
100
AcDbSymbolTableRecord
100
AcDbBlockTableRecord
  2
*D27
  0
BLOCK_RECORD
  5
42D
100
AcDbSymbolTableRecord
100
AcDbBlockTableRecord
  2
*D28
  0
BLOCK_RECORD
  5
42E
100
AcDbSymbolTableRecord
100
AcDbBlockTableRecord
  2
*D29
  0
ENDTAB
  0
ENDSEC
  0
SECTION
  2
BLOCKS
  0
BLOCK
  5
42F
100
AcDbEntity
  8
0
100
AcDbBlockBegin
  2
*MODEL_SPACE
 70
     0
 10
0.0
 20
0.0
 30
0.0
  3
*MODEL_SPACE
  1

  0
ENDBLK
  5
430
100
AcDbEntity
  8
0
100
AcDbBlockEnd
  0
BLOCK
  5
431
100
AcDbEntity
  8
0
100
AcDbBlockBegin
  2
*PAPER_SPACE
 70
     0
 10
0.0
 20
0.0
 30
0.0
  3
*PAPER_SPACE
  1

  0
ENDBLK
  5
432
100
AcDbEntity
  8
0
100
AcDbBlockEnd
  0
BLOCK
  5
2
100
AcDbEntity
  8
0
100
AcDbBlockBegin
  2
_NONE
 70
     0
 10
0.0
 20
0.0
 30
0.0
  3
_NONE
  1

  0
ENDBLK
  5
3
100
AcDbEntity
  8
0
100
AcDbBlockEnd
  0
BLOCK
  5
5
100
AcDbEntity
  8
0
100
AcDbBlockBegin
  2
_CLOSED
 70
     0
 10
0.0
 20
0.0
 30
0.0
  3
_CLOSED
  1

  0
LINE
  5
6
100
AcDbEntity
  8
0
  6
BYBLOCK
 62
     0
100
AcDbLine
 10
-1.0
 20
0.166667
 30
0.0
 11
0.0
 21
0.0
 31
0.0
  0
LINE
  5
7
100
AcDbEntity
  8
0
  6
BYBLOCK
 62
     0
100
AcDbLine
 10
0.0
 20
0.0
 30
0.0
 11
-1.0
 21
-0.166667
 31
0.0
  0
LINE
  5
8
100
AcDbEntity
  8
0
  6
BYBLOCK
 62
     0
100
AcDbLine
 10
-1.0
 20
0.166667
 30
0.0
 11
-1.0
 21
-0.166667
 31
0.0
  0
LINE
  5
9
100
AcDbEntity
  8
0
  6
BYBLOCK
 62
     0
100
AcDbLine
 10
0.0
 20
0.0
 30
0.0
 11
-1.0
 21
0.0
 31
0.0
  0
ENDBLK
  5
A
100
AcDbEntity
  8
0
100
AcDbBlockEnd
  0
BLOCK
  5
C
100
AcDbEntity
  8
0
100
AcDbBlockBegin
  2
_DOT
 70
     0
 10
0.0
 20
0.0
 30
0.0
  3
_DOT
  1

  0
POLYLINE
  5
D
100
AcDbEntity
  8
0
  6
BYBLOCK
 62
     0
100
AcDb2dPolyline
 66
     1
 10
0.0
 20
0.0
 30
0.0
 70
     1
 40
0.5
 41
0.5
  0
VERTEX
  5
E
100
AcDbEntity
  8
0
  6
BYBLOCK
 62
     0
100
AcDbVertex
100
AcDb2dVertex
 10
-0.25
 20
0.0
 30
0.0
 42
1.0
  0
VERTEX
  5
F
100
AcDbEntity
  8
0
  6
BYBLOCK
 62
     0
100
AcDbVertex
100
AcDb2dVertex
 10
0.25
 20
0.0
 30
0.0
 42
1.0
  0
SEQEND
  5
10
100
AcDbEntity
  8
0
  6
BYBLOCK
 62
     0
  0
LINE
  5
11
100
AcDbEntity
  8
0
  6
BYBLOCK
 62
     0
100
AcDbLine
 10
-0.5
 20
0.0
 30
0.0
 11
-1.0
 21
0.0
 31
0.0
  0
ENDBLK
  5
12
100
AcDbEntity
  8
0
100
AcDbBlockEnd
  0
BLOCK
  5
14
100
AcDbEntity
  8
0
100
AcDbBlockBegin
  2
_OPEN
 70
     0
 10
0.0
 20
0.0
 30
0.0
  3
_OPEN
  1

  0
LINE
  5
15
100
AcDbEntity
  8
0
  6
BYBLOCK
 62
     0
100
AcDbLine
 10
-1.0
 20
0.166667
 30
0.0
 11
0.0
 21
0.0
 31
0.0
  0
LINE
  5
16
100
AcDbEntity
  8
0
  6
BYBLOCK
 62
     0
100
AcDbLine
 10
0.0
 20
0.0
 30
0.0
 11
-1.0
 21
-0.166667
 31
0.0
  0
LINE
  5
17
100
AcDbEntity
  8
0
  6
BYBLOCK
 62
     0
100
AcDbLine
 10
0.0
 20
0.0
 30
0.0
 11
-1.0
 21
0.0
 31
0.0
  0
ENDBLK
  5
18
100
AcDbEntity
  8
0
100
AcDbBlockEnd
  0
BLOCK
  5
1A
100
AcDbEntity
  8
0
100
AcDbBlockBegin
  2
_ORIGIN
 70
     0
 10
0.0
 20
0.0
 30
0.0
  3
_ORIGIN
  1

  0
CIRCLE
  5
1B
100
AcDbEntity
  8
0
  6
BYBLOCK
 62
     0
100
AcDbCircle
 10
0.0
 20
0.0
 30
0.0
 40
0.5
  0
LINE
  5
1C
100
AcDbEntity
  8
0
  6
BYBLOCK
 62
     0
100
AcDbLine
 10
0.0
 20
0.0
 30
0.0
 11
-1.0
 21
0.0
 31
0.0
  0
ENDBLK
  5
1D
100
AcDbEntity
  8
0
100
AcDbBlockEnd
  0
BLOCK
  5
1F
100
AcDbEntity
  8
0
100
AcDbBlockBegin
  2
_OPEN30
 70
     0
 10
0.0
 20
0.0
 30
0.0
  3
_OPEN30
  1

  0
LINE
  5
20
100
AcDbEntity
  8
0
  6
BYBLOCK
 62
     0
100
AcDbLine
 10
-1.0
 20
0.267949
 30
0.0
 11
0.0
 21
0.0
 31
0.0
  0
LINE
  5
21
100
AcDbEntity
  8
0
  6
BYBLOCK
 62
     0
100
AcDbLine
 10
0.0
 20
0.0
 30
0.0
 11
-1.0
 21
-0.267949
 31
0.0
  0
LINE
  5
22
100
AcDbEntity
  8
0
  6
BYBLOCK
 62
     0
100
AcDbLine
 10
0.0
 20
0.0
 30
0.0
 11
-1.0
 21
0.0
 31
0.0
  0
ENDBLK
  5
23
100
AcDbEntity
  8
0
100
AcDbBlockEnd
  0
BLOCK
  5
25
100
AcDbEntity
  8
0
100
AcDbBlockBegin
  2
_BOXFILLED
 70
     0
 10
0.0
 20
0.0
 30
0.0
  3
_BOXFILLED
  1

  0
SOLID
  5
26
100
AcDbEntity
  8
0
  6
BYBLOCK
 62
     0
100
AcDbTrace
 10
-0.5
 20
0.5
 30
0.0
 11
0.5
 21
0.5
 31
0.0
 12
-0.5
 22
-0.5
 32
0.0
 13
0.5
 23
-0.5
 33
0.0
  0
LINE
  5
27
100
AcDbEntity
  8
0
  6
BYBLOCK
 62
     0
100
AcDbLine
 10
-0.5
 20
0.0
 30
0.0
 11
-1.0
 21
0.0
 31
0.0
  0
ENDBLK
  5
28
100
AcDbEntity
  8
0
100
AcDbBlockEnd
  0
BLOCK
  5
2A
100
AcDbEntity
  8
0
100
AcDbBlockBegin
  2
_BOXBLANK
 70
     0
 10
0.0
 20
0.0
 30
0.0
  3
_BOXBLANK
  1

  0
LINE
  5
2B
100
AcDbEntity
  8
0
  6
BYBLOCK
 62
     0
100
AcDbLine
 10
-0.5
 20
-0.5
 30
0.0
 11
0.5
 21
-0.5
 31
0.0
  0
LINE
  5
2C
100
AcDbEntity
  8
0
  6
BYBLOCK
 62
     0
100
AcDbLine
 10
0.5
 20
-0.5
 30
0.0
 11
0.5
 21
0.5
 31
0.0
  0
LINE
  5
2D
100
AcDbEntity
  8
0
  6
BYBLOCK
 62
     0
100
AcDbLine
 10
0.5
 20
0.5
 30
0.0
 11
-0.5
 21
0.5
 31
0.0
  0
LINE
  5
2E
100
AcDbEntity
  8
0
  6
BYBLOCK
 62
     0
100
AcDbLine
 10
-0.5
 20
0.5
 30
0.0
 11
-0.5
 21
-0.5
 31
0.0
  0
LINE
  5
2F
100
AcDbEntity
  8
0
  6
BYBLOCK
 62
     0
100
AcDbLine
 10
-0.5
 20
0.0
 30
0.0
 11
-1.0
 21
0.0
 31
0.0
  0
ENDBLK
  5
30
100
AcDbEntity
  8
0
100
AcDbBlockEnd
  0
BLOCK
  5
32
100
AcDbEntity
  8
0
100
AcDbBlockBegin
  2
_OBLIQUE
 70
     0
 10
0.0
 20
0.0
 30
0.0
  3
_OBLIQUE
  1

  0
LINE
  5
33
100
AcDbEntity
  8
0
  6
BYBLOCK
 62
     0
100
AcDbLine
 10
-0.5
 20
-0.5
 30
0.0
 11
0.5
 21
0.5
 31
0.0
  0
ENDBLK
  5
34
100
AcDbEntity
  8
0
100
AcDbBlockEnd
  0
BLOCK
  5
36
100
AcDbEntity
  8
0
100
AcDbBlockBegin
  2
_OPEN90
 70
     0
 10
0.0
 20
0.0
 30
0.0
  3
_OPEN90
  1

  0
LINE
  5
37
100
AcDbEntity
  8
0
  6
BYBLOCK
 62
     0
100
AcDbLine
 10
-0.5
 20
0.5
 30
0.0
 11
0.0
 21
0.0
 31
0.0
  0
LINE
  5
38
100
AcDbEntity
  8
0
  6
BYBLOCK
 62
     0
100
AcDbLine
 10
0.0
 20
0.0
 30
0.0
 11
-0.5
 21
-0.5
 31
0.0
  0
LINE
  5
39
100
AcDbEntity
  8
0
  6
BYBLOCK
 62
     0
100
AcDbLine
 10
0.0
 20
0.0
 30
0.0
 11
-1.0
 21
0.0
 31
0.0
  0
ENDBLK
  5
3A
100
AcDbEntity
  8
0
100
AcDbBlockEnd
  0
BLOCK
  5
3C
100
AcDbEntity
  8
0
100
AcDbBlockBegin
  2
_CLOSEDBLANK
 70
     0
 10
0.0
 20
0.0
 30
0.0
  3
_CLOSEDBLANK
  1

  0
LINE
  5
3D
100
AcDbEntity
  8
0
  6
BYBLOCK
 62
     0
100
AcDbLine
 10
-1.0
 20
0.1666666666666666
 30
0.0
 11
0.0
 21
0.0
 31
0.0
  0
LINE
  5
3E
100
AcDbEntity
  8
0
  6
BYBLOCK
 62
     0
100
AcDbLine
 10
0.0
 20
0.0
 30
0.0
 11
-1.0
 21
-0.1666666666666666
 31
0.0
  0
LINE
  5
3F
100
AcDbEntity
  8
0
  6
BYBLOCK
 62
     0
100
AcDbLine
 10
-1.0
 20
0.1666666666666666
 30
0.0
 11
-1.0
 21
-0.1666666666666666
 31
0.0
  0
ENDBLK
  5
40
100
AcDbEntity
  8
0
100
AcDbBlockEnd
  0
BLOCK
  5
42
100
AcDbEntity
  8
0
100
AcDbBlockBegin
  2
_DOTBLANK
 70
     0
 10
0.0
 20
0.0
 30
0.0
  3
_DOTBLANK
  1

  0
CIRCLE
  5
43
100
AcDbEntity
  8
0
  6
BYBLOCK
 62
     0
100
AcDbCircle
 10
0.0
 20
0.0
 30
0.0
 40
0.5
  0
LINE
  5
44
100
AcDbEntity
  8
0
  6
BYBLOCK
 62
     0
100
AcDbLine
 10
-0.5
 20
0.0
 30
0.0
 11
-1.0
 21
0.0
 31
0.0
  0
ENDBLK
  5
45
100
AcDbEntity
  8
0
100
AcDbBlockEnd
  0
BLOCK
  5
47
100
AcDbEntity
  8
MAIN10
  6
CONTINUOUS
 62
3
100
AcDbBlockBegin
  2
*D0
 70
    65
 10
0.0
 20
0.0
 30
0.0
  0
LINE
  5
48
100
AcDbEntity
  8
MAIN10
  6
BYBLOCK
 62
0
100
AcDbLine
 10
501.5855973349812
 20
234.3930283711150
 30
0.0000000000000000
 11
518.6516227264851
 21
234.3930283711150
 31
0.0000000000000000
  0
LINE
  5
49
100
AcDbEntity
  8
MAIN10
  6
BYBLOCK
 62
0
100
AcDbLine
 10
516.6516227264851
 20
232.3930283711150
 30
0.0000000000000000
 11
516.6516227264851
 21
215.3930283711150
 31
0.0000000000000000
  0
INSERT
  5
4A
100
AcDbEntity
  8
MAIN10
  6
BYBLOCK
 62
0
100
AcDbBlockReference
  2
_OPEN
 10
516.6516227264851
 20
234.3930283711150
 30
0.0000000000000000
 41
2.000000000000000
 42
2.000000000000000
 43
2.000000000000000
 50
90.00000000000000
  0
INSERT
  5
4B
100
AcDbEntity
  8
MAIN10
  6
BYBLOCK
 62
0
100
AcDbBlockReference
  2
_OPEN
 10
516.6516227264851
 20
213.3930283711150
 30
0.0000000000000000
 41
2.000000000000000
 42
2.000000000000000
 43
2.000000000000000
 50
270.0000000000000
  0
LINE
  5
4C
100
AcDbEntity
  8
MAIN10
  6
BYBLOCK
 62
0
100
AcDbLine
 10
501.5855973349812
 20
213.3930283711150
 30
0.0000000000000000
 11
518.6516227264851
 21
213.3930283711150
 31
0.0000000000000000
  0
MTEXT
  5
4D
100
AcDbEntity
  8
MAIN10
  6
BYBLOCK
 62
0
100
AcDbMText
 10
514.6016227741689
 20
223.8930283711150
 30
0.0000000000000000
 40
3.099999904632568
 41
0.0000000000000000
 71
     5
 72
     1
  1
\A1;\U+220521H8
 11
6.123233995736766e-017
 21
1.000000000000000
 31
0.0000000000000000
  7
STANDARD
  0
ENDBLK
  5
4E
100
AcDbEntity
  8
MAIN10
  6
CONTINUOUS
 62
3
100
AcDbBlockEnd
  0
BLOCK
  5
50
100
AcDbEntity
  8
MAIN10
  6
CONTINUOUS
 62
3
100
AcDbBlockBegin
  2
*D1
 70
    65
 10
0.0
 20
0.0
 30
0.0
  0
LINE
  5
51
100
AcDbEntity
  8
MAIN10
  6
BYBLOCK
 62
0
100
AcDbLine
 10
483.5855973343786
 20
238.8930283711150
 30
0.0000000000000000
 11
528.6516227264851
 21
238.8930283711150
 31
0.0000000000000000
  0
LINE
  5
52
100
AcDbEntity
  8
MAIN10
  6
BYBLOCK
 62
0
100
AcDbLine
 10
526.6516227264851
 20
236.8930283711150
 30
0.0000000000000000
 11
526.6516227264851
 21
210.8930283711150
 31
0.0000000000000000
  0
INSERT
  5
53
100
AcDbEntity
  8
MAIN10
  6
BYBLOCK
 62
0
100
AcDbBlockReference
  2
_OPEN
 10
526.6516227264851
 20
238.8930283711150
 30
0.0000000000000000
 41
2.000000000000000
 42
2.000000000000000
 43
2.000000000000000
 50
90.00000000000000
  0
INSERT
  5
54
100
AcDbEntity
  8
MAIN10
  6
BYBLOCK
 62
0
100
AcDbBlockReference
  2
_OPEN
 10
526.6516227264851
 20
208.8930283711150
 30
0.0000000000000000
 41
2.000000000000000
 42
2.000000000000000
 43
2.000000000000000
 50
270.0000000000000
  0
LINE
  5
55
100
AcDbEntity
  8
MAIN10
  6
BYBLOCK
 62
0
100
AcDbLine
 10
483.5855973343787
 20
208.8930283711150
 30
0.0000000000000000
 11
528.6516227264851
 21
208.8930283711150
 31
0.0000000000000000
  0
MTEXT
  5
56
100
AcDbEntity
  8
MAIN10
  6
BYBLOCK
 62
0
100
AcDbMText
 10
524.6016227741689
 20
223.8930283711150
 30
0.0000000000000000
 40
3.099999904632568
 41
0.0000000000000000
 71
     5
 72
     1
  1
\A1;\U+220530
 11
6.123233995736766e-017
 21
1.000000000000000
 31
0.0000000000000000
  7
STANDARD
  0
ENDBLK
  5
57
100
AcDbEntity
  8
MAIN10
  6
CONTINUOUS
 62
3
100
AcDbBlockEnd
  0
BLOCK
  5
59
100
AcDbEntity
  8
MAIN10
  6
CONTINUOUS
 62
3
100
AcDbBlockBegin
  2
*D2
 70
    65
 10
0.0
 20
0.0
 30
0.0
  0
LINE
  5
5A
100
AcDbEntity
  8
MAIN10
  6
BYBLOCK
 62
0
100
AcDbLine
 10
460.9516227384059
 20
191.3930283711150
 30
0.0000000000000000
 11
538.6516227264851
 21
191.3930283711150
 31
0.0000000000000000
  0
LINE
  5
5B
100
AcDbEntity
  8
MAIN10
  6
BYBLOCK
 62
0
100
AcDbLine
 10
536.6516227264851
 20
193.3930283711150
 30
0.0000000000000000
 11
536.6516227264851
 21
254.3930283711149
 31
0.0000000000000000
  0
INSERT
  5
5C
100
AcDbEntity
  8
MAIN10
  6
BYBLOCK
 62
0
100
AcDbBlockReference
  2
_OPEN
 10
536.6516227264851
 20
191.3930283711150
 30
0.0000000000000000
 41
2.000000000000000
 42
2.000000000000000
 43
2.000000000000000
 50
270.0000000000000
  0
INSERT
  5
5D
100
AcDbEntity
  8
MAIN10
  6
BYBLOCK
 62
0
100
AcDbBlockReference
  2
_OPEN
 10
536.6516227264851
 20
256.3930283711149
 30
0.0000000000000000
 41
2.000000000000000
 42
2.000000000000000
 43
2.000000000000000
 50
90.00000000000000
  0
LINE
  5
5E
100
AcDbEntity
  8
MAIN10
  6
BYBLOCK
 62
0
100
AcDbLine
 10
460.9516227384059
 20
256.3930283711149
 30
0.0000000000000000
 11
538.6516227264851
 21
256.3930283711149
 31
0.0000000000000000
  0
MTEXT
  5
5F
100
AcDbEntity
  8
MAIN10
  6
BYBLOCK
 62
0
100
AcDbMText
 10
534.6016227741689
 20
223.8930283711150
 30
0.0000000000000000
 40
3.099999904632568
 41
0.0000000000000000
 71
     5
 72
     1
  1
\A1;\U+220565h7
 11
6.123233995736766e-017
 21
1.000000000000000
 31
0.0000000000000000
  7
STANDARD
  0
ENDBLK
  5
60
100
AcDbEntity
  8
MAIN10
  6
CONTINUOUS
 62
3
100
AcDbBlockEnd
  0
BLOCK
  5
62
100
AcDbEntity
  8
MAIN10
  6
CONTINUOUS
 62
3
100
AcDbBlockBegin
  2
*D3
 70
    65
 10
0.0
 20
0.0
 30
0.0
  0
LINE
  5
63
100
AcDbEntity
  8
MAIN10
  6
BYBLOCK
 62
0
100
AcDbLine
 10
454.4516227384059
 20
171.8930283711151
 30
0.0000000000000000
 11
558.6516227264851
 21
171.8930283711151
 31
0.0000000000000000
  0
LINE
  5
64
100
AcDbEntity
  8
MAIN10
  6
BYBLOCK
 62
0
100
AcDbLine
 10
556.6516227264851
 20
173.8930283711151
 30
0.0000000000000000
 11
556.6516227264851
 21
273.8930283711150
 31
0.0000000000000000
  0
INSERT
  5
65
100
AcDbEntity
  8
MAIN10
  6
BYBLOCK
 62
0
100
AcDbBlockReference
  2
_OPEN
 10
556.6516227264851
 20
171.8930283711151
 30
0.0000000000000000
 41
2.000000000000000
 42
2.000000000000000
 43
2.000000000000000
 50
270.0000000000000
  0
INSERT
  5
66
100
AcDbEntity
  8
MAIN10
  6
BYBLOCK
 62
0
100
AcDbBlockReference
  2
_OPEN
 10
556.6516227264851
 20
275.8930283711150
 30
0.0000000000000000
 41
2.000000000000000
 42
2.000000000000000
 43
2.000000000000000
 50
90.00000000000000
  0
LINE
  5
67
100
AcDbEntity
  8
MAIN10
  6
BYBLOCK
 62
0
100
AcDbLine
 10
454.4516227384059
 20
275.8930283711150
 30
0.0000000000000000
 11
558.6516227264851
 21
275.8930283711150
 31
0.0000000000000000
  0
MTEXT
  5
68
100
AcDbEntity
  8
MAIN10
  6
BYBLOCK
 62
0
100
AcDbMText
 10
554.6016227741689
 20
223.8930283711150
 30
0.0000000000000000
 40
3.099999904632568
 41
0.0000000000000000
 71
     5
 72
     1
  1
\A1;\U+2205104
 11
6.123233995736766e-017
 21
1.000000000000000
 31
0.0000000000000000
  7
STANDARD
  0
ENDBLK
  5
69
100
AcDbEntity
  8
MAIN10
  6
CONTINUOUS
 62
3
100
AcDbBlockEnd
  0
BLOCK
  5
6B
100
AcDbEntity
  8
MAIN10
  6
CONTINUOUS
 62
3
100
AcDbBlockBegin
  2
*D4
 70
    65
 10
0.0
 20
0.0
 30
0.0
  0
LINE
  5
6C
100
AcDbEntity
  8
MAIN10
  6
BYBLOCK
 62
0
100
AcDbLine
 10
496.6516227264850
 20
235.1930283830359
 30
0.0000000000000000
 11
496.6516227264851
 21
249.1775439492618
 31
0.0000000000000000
  0
LINE
  5
6D
100
AcDbEntity
  8
MAIN10
  6
BYBLOCK
 62
0
100
AcDbLine
 10
496.6516227264851
 20
247.1775439492618
 30
0.0000000000000000
 11
501.6516227264851
 21
247.1775439492618
 31
0.0000000000000000
  0
INSERT
  5
6E
100
AcDbEntity
  8
MAIN10
  6
BYBLOCK
 62
0
100
AcDbBlockReference
  2
_OPEN
 10
496.6516227264851
 20
247.1775439492618
 30
0.0000000000000000
 41
2.000000000000000
 42
2.000000000000000
 43
2.000000000000000
 50
0.0000000000000000
  0
INSERT
  5
6F
100
AcDbEntity
  8
MAIN10
  6
BYBLOCK
 62
0
100
AcDbBlockReference
  2
_OPEN
 10
501.6516227264851
 20
247.1775439492618
 30
0.0000000000000000
 41
2.000000000000000
 42
2.000000000000000
 43
2.000000000000000
 50
180.0000000000000
  0
LINE
  5
70
100
AcDbEntity
  8
MAIN10
  6
BYBLOCK
 62
0
100
AcDbLine
 10
494.6516227264851
 20
247.1775439492618
 30
0.0000000000000000
 11
493.6516227264851
 21
247.1775439492618
 31
0.0000000000000000
  0
LINE
  5
71
100
AcDbEntity
  8
MAIN10
  6
BYBLOCK
 62
0
100
AcDbLine
 10
503.6516227264851
 20
247.1775439492618
 30
0.0000000000000000
 11
504.6516227264851
 21
247.1775439492618
 31
0.0000000000000000
  0
LINE
  5
72
100
AcDbEntity
  8
MAIN10
  6
BYBLOCK
 62
0
100
AcDbLine
 10
501.6516227264850
 20
238.1930283830359
 30
0.0000000000000000
 11
501.6516227264851
 21
249.1775439492618
 31
0.0000000000000000
  0
MTEXT
  5
73
100
AcDbEntity
  8
MAIN10
  6
BYBLOCK
 62
0
100
AcDbMText
 10
499.1516227264851
 20
249.2275439015781
 30
0.0000000000000000
 40
3.099999904632568
 41
0.0000000000000000
 71
     5
 72
     1
  1
\A1;5
 11
1.000000000000000
 21
0.0000000000000000
 31
0.0000000000000000
  7
STANDARD
  0
ENDBLK
  5
74
100
AcDbEntity
  8
MAIN10
  6
CONTINUOUS
 62
3
100
AcDbBlockEnd
  0
BLOCK
  5
76
100
AcDbEntity
  8
MAIN10
  6
CONTINUOUS
 62
3
100
AcDbBlockBegin
  2
*D5
 70
    65
 10
0.0
 20
0.0
 30
0.0
  0
LINE
  5
77
100
AcDbEntity
  8
MAIN10
  6
BYBLOCK
 62
0
100
AcDbLine
 10
469.6516227264851
 20
234.6930283830359
 30
0.0000000000000000
 11
469.6516227264851
 21
267.2340159201951
 31
0.0000000000000000
  0
LINE
  5
78
100
AcDbEntity
  8
MAIN10
  6
BYBLOCK
 62
0
100
AcDbLine
 10
471.6516227264851
 20
265.2340159201951
 30
0.0000000000000000
 11
499.6516227264850
 21
265.2340159201951
 31
0.0000000000000000
  0
INSERT
  5
79
100
AcDbEntity
  8
MAIN10
  6
BYBLOCK
 62
0
100
AcDbBlockReference
  2
_OPEN
 10
469.6516227264851
 20
265.2340159201951
 30
0.0000000000000000
 41
2.000000000000000
 42
2.000000000000000
 43
2.000000000000000
 50
180.0000000000000
  0
INSERT
  5
7A
100
AcDbEntity
  8
MAIN10
  6
BYBLOCK
 62
0
100
AcDbBlockReference
  2
_OPEN
 10
501.6516227264850
 20
265.2340159201951
 30
0.0000000000000000
 41
2.000000000000000
 42
2.000000000000000
 43
2.000000000000000
 50
0.0000000000000000
  0
LINE
  5
7B
100
AcDbEntity
  8
MAIN10
  6
BYBLOCK
 62
0
100
AcDbLine
 10
501.6516227264850
 20
238.1930283830359
 30
0.0000000000000000
 11
501.6516227264850
 21
267.2340159201951
 31
0.0000000000000000
  0
MTEXT
  5
7C
100
AcDbEntity
  8
MAIN10
  6
BYBLOCK
 62
0
100
AcDbMText
 10
485.6516227264851
 20
267.2840158725114
 30
0.0000000000000000
 40
3.099999904632568
 41
0.0000000000000000
 71
     5
 72
     1
  1
\A1;32
 11
1.000000000000000
 21
0.0000000000000000
 31
0.0000000000000000
  7
STANDARD
  0
ENDBLK
  5
7D
100
AcDbEntity
  8
MAIN10
  6
CONTINUOUS
 62
3
100
AcDbBlockEnd
  0
BLOCK
  5
81
100
AcDbEntity
  8
MAIN10
  6
CONTINUOUS
 62
3
100
AcDbBlockBegin
  2
*D6
 70
    65
 10
0.0
 20
0.0
 30
0.0
  0
LINE
  5
82
100
AcDbEntity
  8
MAIN10
  6
BYBLOCK
 62
0
100
AcDbLine
 10
322.6516227264854
 20
169.9584140598311
 30
0.0000000000000000
 11
322.6516227264854
 21
151.8930283711150
 31
0.0000000000000000
  0
LINE
  5
83
100
AcDbEntity
  8
MAIN10
  6
BYBLOCK
 62
0
100
AcDbLine
 10
324.6516227264854
 20
153.8930283711150
 30
0.0000000000000000
 11
453.6516227264850
 21
153.8930283711150
 31
0.0000000000000000
  0
INSERT
  5
84
100
AcDbEntity
  8
MAIN10
  6
BYBLOCK
 62
0
100
AcDbBlockReference
  2
_OPEN
 10
322.6516227264854
 20
153.8930283711150
 30
0.0000000000000000
 41
2.000000000000000
 42
2.000000000000000
 43
2.000000000000000
 50
180.0000000000000
  0
INSERT
  5
85
100
AcDbEntity
  8
MAIN10
  6
BYBLOCK
 62
0
100
AcDbBlockReference
  2
_OPEN
 10
455.6516227264850
 20
153.8930283711150
 30
0.0000000000000000
 41
2.000000000000000
 42
2.000000000000000
 43
2.000000000000000
 50
0.0000000000000000
  0
LINE
  5
86
100
AcDbEntity
  8
MAIN10
  6
BYBLOCK
 62
0
100
AcDbLine
 10
455.6516227264850
 20
173.0930283591942
 30
0.0000000000000000
 11
455.6516227264850
 21
151.8930283711150
 31
0.0000000000000000
  0
MTEXT
  5
87
100
AcDbEntity
  8
MAIN10
  6
BYBLOCK
 62
0
100
AcDbMText
 10
389.1516227264852
 20
155.9430283234313
 30
0.0000000000000000
 40
3.099999904632568
 41
0.0000000000000000
 71
     5
 72
     1
  1
\A1;133
 11
1.000000000000000
 21
0.0000000000000000
 31
0.0000000000000000
  7
STANDARD
  0
ENDBLK
  5
88
100
AcDbEntity
  8
MAIN10
  6
CONTINUOUS
 62
3
100
AcDbBlockEnd
  0
BLOCK
  5
91
100
AcDbEntity
  8
MAIN10
  6
CONTINUOUS
 62
1
100
AcDbBlockBegin
  2
*D7
 70
    65
 10
0.0
 20
0.0
 30
0.0
  0
LINE
  5
92
100
AcDbEntity
  8
MAIN10
  6
BYBLOCK
 62
0
100
AcDbLine
 10
455.6516227264850
 20
274.6930283830359
 30
0.0000000000000000
 11
455.6516227264850
 21
315.8930283711150
 31
0.0000000000000000
  0
LINE
  5
93
100
AcDbEntity
  8
MAIN10
  6
BYBLOCK
 62
0
100
AcDbLine
 10
453.6516227264850
 20
313.8930283711150
 30
0.0000000000000000
 11
391.6516227264855
 21
313.8930283711150
 31
0.0000000000000000
  0
INSERT
  5
94
100
AcDbEntity
  8
MAIN10
  6
BYBLOCK
 62
0
100
AcDbBlockReference
  2
_OPEN
 10
455.6516227264850
 20
313.8930283711150
 30
0.0000000000000000
 41
2.000000000000000
 42
2.000000000000000
 43
2.000000000000000
 50
360.0000000000000
  0
INSERT
  5
95
100
AcDbEntity
  8
MAIN10
  6
BYBLOCK
 62
0
100
AcDbBlockReference
  2
_OPEN
 10
389.6516227264855
 20
313.8930283711150
 30
0.0000000000000000
 41
2.000000000000000
 42
2.000000000000000
 43
2.000000000000000
 50
180.0000000000000
  0
LINE
  5
96
100
AcDbEntity
  8
MAIN10
  6
BYBLOCK
 62
0
100
AcDbLine
 10
389.6516227264855
 20
275.6930282212780
 30
0.0000000000000000
 11
389.6516227264855
 21
315.8930283711150
 31
0.0000000000000000
  0
MTEXT
  5
97
100
AcDbEntity
  8
MAIN10
  6
BYBLOCK
 62
0
100
AcDbMText
 10
422.6516227264852
 20
315.9430283234313
 30
0.0000000000000000
 40
3.099999904632568
 41
0.0000000000000000
 71
     5
 72
     1
  1
\A1;66
 11
1.000000000000000
 21
0.0000000000000000
 31
0.0000000000000000
  7
STANDARD
  0
ENDBLK
  5
98
100
AcDbEntity
  8
MAIN10
  6
CONTINUOUS
 62
1
100
AcDbBlockEnd
  0
BLOCK
  5
9A
100
AcDbEntity
  8
MAIN10
  6
CONTINUOUS
 62
1
100
AcDbBlockBegin
  2
*D8
 70
    65
 10
0.0
 20
0.0
 30
0.0
  0
LINE
  5
9B
100
AcDbEntity
  8
MAIN10
  6
BYBLOCK
 62
0
100
AcDbLine
 10
389.6516227264855
 20
275.6930282212780
 30
0.0000000000000000
 11
389.6516227264855
 21
315.8930283711150
 31
0.0000000000000000
  0
LINE
  5
9C
100
AcDbEntity
  8
MAIN10
  6
BYBLOCK
 62
0
100
AcDbLine
 10
387.6516227264855
 20
313.8930283711150
 30
0.0000000000000000
 11
230.6516227264858
 21
313.8930283711150
 31
0.0000000000000000
  0
INSERT
  5
9D
100
AcDbEntity
  8
MAIN10
  6
BYBLOCK
 62
0
100
AcDbBlockReference
  2
_OPEN
 10
389.6516227264855
 20
313.8930283711150
 30
0.0000000000000000
 41
2.000000000000000
 42
2.000000000000000
 43
2.000000000000000
 50
360.0000000000000
  0
INSERT
  5
9E
100
AcDbEntity
  8
MAIN10
  6
BYBLOCK
 62
0
100
AcDbBlockReference
  2
_OPEN
 10
228.6516227264858
 20
313.8930283711150
 30
0.0000000000000000
 41
2.000000000000000
 42
2.000000000000000
 43
2.000000000000000
 50
180.0000000000000
  0
LINE
  5
9F
100
AcDbEntity
  8
MAIN10
  6
BYBLOCK
 62
0
100
AcDbLine
 10
228.6516227264858
 20
267.6930283830358
 30
0.0000000000000000
 11
228.6516227264858
 21
315.8930283711150
 31
0.0000000000000000
  0
MTEXT
  5
A0
100
AcDbEntity
  8
MAIN10
  6
BYBLOCK
 62
0
100
AcDbMText
 10
323.1516227264854
 20
315.9430283234313
 30
0.0000000000000000
 40
3.099999904632568
 41
0.0000000000000000
 71
     5
 72
     1
  1
\A1;161
 11
1.000000000000000
 21
0.0000000000000000
 31
0.0000000000000000
  7
STANDARD
  0
ENDBLK
  5
A1
100
AcDbEntity
  8
MAIN10
  6
CONTINUOUS
 62
1
100
AcDbBlockEnd
  0
BLOCK
  5
A3
100
AcDbEntity
  8
MAIN10
  6
CONTINUOUS
 62
3
100
AcDbBlockBegin
  2
*D9
 70
    65
 10
0.0
 20
0.0
 30
0.0
  0
LINE
  5
A4
100
AcDbEntity
  8
MAIN10
  6
BYBLOCK
 62
0
100
AcDbLine
 10
455.6516227264850
 20
274.6930283830359
 30
0.0000000000000000
 11
455.6516227264850
 21
325.8930283711150
 31
0.0000000000000000
  0
LINE
  5
A5
100
AcDbEntity
  8
MAIN10
  6
BYBLOCK
 62
0
100
AcDbLine
 10
453.6516227264850
 20
323.8930283711150
 30
0.0000000000000000
 11
230.6516227264858
 21
323.8930283711150
 31
0.0000000000000000
  0
INSERT
  5
A6
100
AcDbEntity
  8
MAIN10
  6
BYBLOCK
 62
0
100
AcDbBlockReference
  2
_OPEN
 10
455.6516227264850
 20
323.8930283711150
 30
0.0000000000000000
 41
2.000000000000000
 42
2.000000000000000
 43
2.000000000000000
 50
360.0000000000000
  0
INSERT
  5
A7
100
AcDbEntity
  8
MAIN10
  6
BYBLOCK
 62
0
100
AcDbBlockReference
  2
_OPEN
 10
228.6516227264858
 20
323.8930283711150
 30
0.0000000000000000
 41
2.000000000000000
 42
2.000000000000000
 43
2.000000000000000
 50
180.0000000000000
  0
LINE
  5
A8
100
AcDbEntity
  8
MAIN10
  6
BYBLOCK
 62
0
100
AcDbLine
 10
228.6516227264858
 20
267.6930283830358
 30
0.0000000000000000
 11
228.6516227264858
 21
325.8930283711150
 31
0.0000000000000000
  0
MTEXT
  5
A9
100
AcDbEntity
  8
MAIN10
  6
BYBLOCK
 62
0
100
AcDbMText
 10
323.1516227264854
 20
325.9430283234313
 30
0.0000000000000000
 40
3.099999904632568
 41
0.0000000000000000
 71
     5
 72
     1
  1
\A1;227
 11
1.000000000000000
 21
0.0000000000000000
 31
0.0000000000000000
  7
STANDARD
  0
ENDBLK
  5
AA
100
AcDbEntity
  8
MAIN10
  6
CONTINUOUS
 62
3
100
AcDbBlockEnd
  0
BLOCK
  5
AC
100
AcDbEntity
  8
MAIN10
  6
CONTINUOUS
 62
3
100
AcDbBlockBegin
  2
*D10
 70
    65
 10
0.0
 20
0.0
 30
0.0
  0
LINE
  5
AD
100
AcDbEntity
  8
MAIN10
  6
BYBLOCK
 62
0
100
AcDbLine
 10
455.6516227264850
 20
274.6930283830359
 30
0.0000000000000000
 11
455.6516227264850
 21
315.8930283711150
 31
0.0000000000000000
  0
LINE
  5
AE
100
AcDbEntity
  8
MAIN10
  6
BYBLOCK
 62
0
100
AcDbLine
 10
455.6516227264850
 20
313.8930283711150
 30
0.0000000000000000
 11
460.6516227264850
 21
313.8930283711150
 31
0.0000000000000000
  0
INSERT
  5
AF
100
AcDbEntity
  8
MAIN10
  6
BYBLOCK
 62
0
100
AcDbBlockReference
  2
_OPEN
 10
455.6516227264850
 20
313.8930283711150
 30
0.0000000000000000
 41
2.000000000000000
 42
2.000000000000000
 43
2.000000000000000
 50
0.0000000000000000
  0
INSERT
  5
B0
100
AcDbEntity
  8
MAIN10
  6
BYBLOCK
 62
0
100
AcDbBlockReference
  2
_OPEN
 10
460.6516227264850
 20
313.8930283711150
 30
0.0000000000000000
 41
2.000000000000000
 42
2.000000000000000
 43
2.000000000000000
 50
180.0000000000000
  0
LINE
  5
B1
100
AcDbEntity
  8
MAIN10
  6
BYBLOCK
 62
0
100
AcDbLine
 10
453.6516227264850
 20
313.8930283711150
 30
0.0000000000000000
 11
452.6516227264850
 21
313.8930283711150
 31
0.0000000000000000
  0
LINE
  5
B2
100
AcDbEntity
  8
MAIN10
  6
BYBLOCK
 62
0
100
AcDbLine
 10
462.6516227264850
 20
313.8930283711150
 30
0.0000000000000000
 11
463.6516227264850
 21
313.8930283711150
 31
0.0000000000000000
  0
LINE
  5
B3
100
AcDbEntity
  8
MAIN10
  6
BYBLOCK
 62
0
100
AcDbLine
 10
460.6516227264850
 20
256.6930283830358
 30
0.0000000000000000
 11
460.6516227264850
 21
315.8930283711150
 31
0.0000000000000000
  0
MTEXT
  5
B4
100
AcDbEntity
  8
MAIN10
  6
BYBLOCK
 62
0
100
AcDbMText
 10
458.1516227264850
 20
315.9430283234313
 30
0.0000000000000000
 40
3.099999904632568
 41
0.0000000000000000
 71
     5
 72
     1
  1
\A1;5
 11
1.000000000000000
 21
0.0000000000000000
 31
0.0000000000000000
  7
STANDARD
  0
ENDBLK
  5
B5
100
AcDbEntity
  8
MAIN10
  6
CONTINUOUS
 62
3
100
AcDbBlockEnd
  0
BLOCK
  5
B7
100
AcDbEntity
  8
MAIN10
  6
CONTINUOUS
 62
3
100
AcDbBlockBegin
  2
*D11
 70
    65
 10
0.0
 20
0.0
 30
0.0
  0
LINE
  5
B8
100
AcDbEntity
  8
MAIN10
  6
BYBLOCK
 62
0
100
AcDbLine
 10
455.6516227264850
 20
274.6930283830359
 30
0.0000000000000000
 11
455.6516227264850
 21
325.8930283711150
 31
0.0000000000000000
  0
LINE
  5
B9
100
AcDbEntity
  8
MAIN10
  6
BYBLOCK
 62
0
100
AcDbLine
 10
457.6516227264850
 20
323.8930283711150
 30
0.0000000000000000
 11
499.6516227264850
 21
323.8930283711150
 31
0.0000000000000000
  0
INSERT
  5
BA
100
AcDbEntity
  8
MAIN10
  6
BYBLOCK
 62
0
100
AcDbBlockReference
  2
_OPEN
 10
455.6516227264850
 20
323.8930283711150
 30
0.0000000000000000
 41
2.000000000000000
 42
2.000000000000000
 43
2.000000000000000
 50
180.0000000000000
  0
INSERT
  5
BB
100
AcDbEntity
  8
MAIN10
  6
BYBLOCK
 62
0
100
AcDbBlockReference
  2
_OPEN
 10
501.6516227264850
 20
323.8930283711150
 30
0.0000000000000000
 41
2.000000000000000
 42
2.000000000000000
 43
2.000000000000000
 50
0.0000000000000000
  0
LINE
  5
BC
100
AcDbEntity
  8
MAIN10
  6
BYBLOCK
 62
0
100
AcDbLine
 10
501.6516227264850
 20
238.1930283830359
 30
0.0000000000000000
 11
501.6516227264850
 21
325.8930283711150
 31
0.0000000000000000
  0
MTEXT
  5
BD
100
AcDbEntity
  8
MAIN10
  6
BYBLOCK
 62
0
100
AcDbMText
 10
478.6516227264850
 20
325.9430283234313
 30
0.0000000000000000
 40
3.099999904632568
 41
0.0000000000000000
 71
     5
 72
     1
  1
\A1;MAX 46
 11
1.000000000000000
 21
0.0000000000000000
 31
0.0000000000000000
  7
STANDARD
  0
ENDBLK
  5
BE
100
AcDbEntity
  8
MAIN10
  6
CONTINUOUS
 62
3
100
AcDbBlockEnd
  0
BLOCK
  5
DE
100
AcDbEntity
  8
MAIN10
  6
CONTINUOUS
 62
3
100
AcDbBlockBegin
  2
*D12
 70
    65
 10
0.0
 20
0.0
 30
0.0
  0
LINE
  5
DF
100
AcDbEntity
  8
MAIN10
  6
BYBLOCK
 62
0
100
AcDbLine
 10
455.6516227264850
 20
274.6930283830359
 30
0.0000000000000000
 11
455.6516227264850
 21
305.8930283711150
 31
0.0000000000000000
  0
LINE
  5
E0
100
AcDbEntity
  8
MAIN10
  6
BYBLOCK
 62
0
100
AcDbLine
 10
453.6516227264850
 20
303.8930283711150
 30
0.0000000000000000
 11
330.6516227264853
 21
303.8930283711150
 31
0.0000000000000000
  0
INSERT
  5
E1
100
AcDbEntity
  8
MAIN10
  6
BYBLOCK
 62
0
100
AcDbBlockReference
  2
_OPEN
 10
455.6516227264850
 20
303.8930283711150
 30
0.0000000000000000
 41
2.000000000000000
 42
2.000000000000000
 43
2.000000000000000
 50
360.0000000000000
  0
INSERT
  5
E2
100
AcDbEntity
  8
MAIN10
  6
BYBLOCK
 62
0
100
AcDbBlockReference
  2
_OPEN
 10
328.6516227264853
 20
303.8930283711150
 30
0.0000000000000000
 41
2.000000000000000
 42
2.000000000000000
 43
2.000000000000000
 50
180.0000000000000
  0
LINE
  5
E3
100
AcDbEntity
  8
MAIN10
  6
BYBLOCK
 62
0
100
AcDbLine
 10
328.6516227264853
 20
252.0240283830359
 30
0.0000000000000000
 11
328.6516227264853
 21
305.8930283711150
 31
0.0000000000000000
  0
MTEXT
  5
E4
100
AcDbEntity
  8
MAIN10
  6
BYBLOCK
 62
0
100
AcDbMText
 10
395.2331843950417
 20
305.9430283234313
 30
0.0000000000000000
 40
3.099999904632568
 41
0.0000000000000000
 71
     5
 72
     1
  1
\A1;127
 11
1.000000000000000
 21
0.0000000000000000
 31
0.0000000000000000
  7
STANDARD
  0
ENDBLK
  5
E5
100
AcDbEntity
  8
MAIN10
  6
CONTINUOUS
 62
3
100
AcDbBlockEnd
  0
BLOCK
  5
E7
100
AcDbEntity
  8
MAIN10
  6
CONTINUOUS
 62
3
100
AcDbBlockBegin
  2
*D13
 70
    65
 10
0.0
 20
0.0
 30
0.0
  0
LINE
  5
E8
100
AcDbEntity
  8
MAIN10
  6
BYBLOCK
 62
0
100
AcDbLine
 10
328.6516227264853
 20
252.0240283830359
 30
0.0000000000000000
 11
328.6516227264853
 21
305.8930283711150
 31
0.0000000000000000
  0
LINE
  5
E9
100
AcDbEntity
  8
MAIN10
  6
BYBLOCK
 62
0
100
AcDbLine
 10
326.6516227264853
 20
303.8930283711150
 30
0.0000000000000000
 11
319.6516227264852
 21
303.8930283711150
 31
0.0000000000000000
  0
INSERT
  5
EA
100
AcDbEntity
  8
MAIN10
  6
BYBLOCK
 62
0
100
AcDbBlockReference
  2
_OPEN
 10
328.6516227264853
 20
303.8930283711150
 30
0.0000000000000000
 41
2.000000000000000
 42
2.000000000000000
 43
2.000000000000000
 50
360.0000000000000
  0
INSERT
  5
EB
100
AcDbEntity
  8
MAIN10
  6
BYBLOCK
 62
0
100
AcDbBlockReference
  2
_OPEN
 10
317.6516227264852
 20
303.8930283711150
 30
0.0000000000000000
 41
2.000000000000000
 42
2.000000000000000
 43
2.000000000000000
 50
180.0000000000000
  0
LINE
  5
EC
100
AcDbEntity
  8
MAIN10
  6
BYBLOCK
 62
0
100
AcDbLine
 10
317.6516227264852
 20
224.0240283830359
 30
0.0000000000000000
 11
317.6516227264852
 21
305.8930283711150
 31
0.0000000000000000
  0
MTEXT
  5
ED
100
AcDbEntity
  8
MAIN10
  6
BYBLOCK
 62
0
100
AcDbMText
 10
323.1516227264853
 20
305.9430283234313
 30
0.0000000000000000
 40
3.099999904632568
 41
0.0000000000000000
 71
     5
 72
     1
  1
\A1;11
 11
1.000000000000000
 21
0.0000000000000000
 31
0.0000000000000000
  7
STANDARD
  0
ENDBLK
  5
EE
100
AcDbEntity
  8
MAIN10
  6
CONTINUOUS
 62
3
100
AcDbBlockEnd
  0
BLOCK
  5
F6
100
AcDbEntity
  8
MAIN10
  6
CONTINUOUS
 62
3
100
AcDbBlockBegin
  2
*D14
 70
    65
 10
0.0
 20
0.0
 30
0.0
  0
LINE
  5
F7
100
AcDbEntity
  8
MAIN10
  6
BYBLOCK
 62
0
100
AcDbLine
 10
317.6516227264852
 20
224.0240283830359
 30
0.0000000000000000
 11
317.6516227264852
 21
305.8930283711150
 31
0.0000000000000000
  0
LINE
  5
F8
100
AcDbEntity
  8
MAIN10
  6
BYBLOCK
 62
0
100
AcDbLine
 10
315.6516227264852
 20
303.8930283711150
 30
0.0000000000000000
 11
304.6516227264857
 21
303.8930283711150
 31
0.0000000000000000
  0
INSERT
  5
F9
100
AcDbEntity
  8
MAIN10
  6
BYBLOCK
 62
0
100
AcDbBlockReference
  2
_OPEN
 10
317.6516227264852
 20
303.8930283711150
 30
0.0000000000000000
 41
2.000000000000000
 42
2.000000000000000
 43
2.000000000000000
 50
360.0000000000000
  0
INSERT
  5
FA
100
AcDbEntity
  8
MAIN10
  6
BYBLOCK
 62
0
100
AcDbBlockReference
  2
_OPEN
 10
302.6516227264857
 20
303.8930283711150
 30
0.0000000000000000
 41
2.000000000000000
 42
2.000000000000000
 43
2.000000000000000
 50
180.0000000000000
  0
LINE
  5
FB
100
AcDbEntity
  8
MAIN10
  6
BYBLOCK
 62
0
100
AcDbLine
 10
302.6516227264857
 20
269.1930283830358
 30
0.0000000000000000
 11
302.6516227264857
 21
305.8930283711150
 31
0.0000000000000000
  0
MTEXT
  5
FC
100
AcDbEntity
  8
MAIN10
  6
BYBLOCK
 62
0
100
AcDbMText
 10
310.1516227264855
 20
305.9430283234313
 30
0.0000000000000000
 40
3.099999904632568
 41
0.0000000000000000
 71
     5
 72
     1
  1
\A1;MIN 15
 11
1.000000000000000
 21
0.0000000000000000
 31
0.0000000000000000
  7
STANDARD
  0
ENDBLK
  5
FD
100
AcDbEntity
  8
MAIN10
  6
CONTINUOUS
 62
3
100
AcDbBlockEnd
  0
BLOCK
  5
101
100
AcDbEntity
  8
MAIN10
  6
CONTINUOUS
 62
3
100
AcDbBlockBegin
  2
*D15
 70
    65
 10
0.0
 20
0.0
 30
0.0
  0
LINE
  5
102
100
AcDbEntity
  8
MAIN10
  6
BYBLOCK
 62
0
100
AcDbLine
 10
340.7020742255706
 20
235.8930283711150
 30
0.0000000000000000
 11
340.7020742255706
 21
211.8930283711150
 31
0.0000000000000000
  0
INSERT
  5
103
100
AcDbEntity
  8
MAIN10
  6
BYBLOCK
 62
0
100
AcDbBlockReference
  2
_OPEN
 10
340.7020742255706
 20
237.8930283711150
 30
0.0000000000000000
 41
2.000000000000000
 42
2.000000000000000
 43
2.000000000000000
 50
90.00000000000000
  0
INSERT
  5
104
100
AcDbEntity
  8
MAIN10
  6
BYBLOCK
 62
0
100
AcDbBlockReference
  2
_OPEN
 10
340.7020742255706
 20
209.8930283711150
 30
0.0000000000000000
 41
2.000000000000000
 42
2.000000000000000
 43
2.000000000000000
 50
270.0000000000000
  0
LINE
  5
105
100
AcDbEntity
  8
MAIN10
  6
BYBLOCK
 62
0
100
AcDbLine
 10
331.7826227384063
 20
209.8930283711150
 30
0.0000000000000000
 11
342.7020742255706
 21
209.8930283711150
 31
0.0000000000000000
  0
MTEXT
  5
106
100
AcDbEntity
  8
MAIN10
  6
BYBLOCK
 62
0
100
AcDbMText
 10
338.6520742732543
 20
223.8930283711150
 30
0.0000000000000000
 40
3.099999904632568
 41
0.0000000000000000
 71
     5
 72
     1
  1
\A1;28
 11
6.123233995736766e-017
 21
1.000000000000000
 31
0.0000000000000000
  7
STANDARD
  0
ENDBLK
  5
107
100
AcDbEntity
  8
MAIN10
  6
CONTINUOUS
 62
3
100
AcDbBlockEnd
  0
BLOCK
  5
10B
100
AcDbEntity
  8
MAIN10
  6
CONTINUOUS
 62
3
100
AcDbBlockBegin
  2
*D16
 70
    65
 10
0.0
 20
0.0
 30
0.0
  0
LINE
  5
10C
100
AcDbEntity
  8
MAIN10
  6
BYBLOCK
 62
0
100
AcDbLine
 10
272.6516227264847
 20
254.6930283830353
 30
0.0000000000000000
 11
272.6516227264847
 21
258.8930283711150
 31
0.0000000000000000
  0
LINE
  5
10D
100
AcDbEntity
  8
MAIN10
  6
BYBLOCK
 62
0
100
AcDbLine
 10
272.6516227264847
 20
256.8930283711150
 30
0.0000000000000000
 11
276.6516227264847
 21
256.8930283711150
 31
0.0000000000000000
  0
INSERT
  5
10E
100
AcDbEntity
  8
MAIN10
  6
BYBLOCK
 62
0
100
AcDbBlockReference
  2
_OPEN
 10
272.6516227264847
 20
256.8930283711150
 30
0.0000000000000000
 41
2.000000000000000
 42
2.000000000000000
 43
2.000000000000000
 50
0.0000000000000000
  0
INSERT
  5
10F
100
AcDbEntity
  8
MAIN10
  6
BYBLOCK
 62
0
100
AcDbBlockReference
  2
_DOT
 10
277.6516227264847
 20
256.8930283711150
 30
0.0000000000000000
 41
1.000000000000000
 42
1.000000000000000
 43
1.000000000000000
 50
0.0000000000000000
  0
LINE
  5
110
100
AcDbEntity
  8
MAIN10
  6
BYBLOCK
 62
0
100
AcDbLine
 10
270.6516227264847
 20
256.8930283711150
 30
0.0000000000000000
 11
268.2797250290360
 21
256.8930283711150
 31
0.0000000000000000
  0
LINE
  5
111
100
AcDbEntity
  8
MAIN10
  6
BYBLOCK
 62
0
100
AcDbLine
 10
277.6516227264847
 20
254.6930283830353
 30
0.0000000000000000
 11
277.6516227264847
 21
258.8930283711150
 31
0.0000000000000000
  0
MTEXT
  5
112
100
AcDbEntity
  8
MAIN10
  6
BYBLOCK
 62
0
100
AcDbMText
 10
269.3297250771875
 20
258.9430283234313
 30
0.0000000000000000
 40
3.099999904632568
 41
0.0000000000000000
 71
     5
 72
     1
  1
\A1;5
 11
1.000000000000000
 21
0.0000000000000000
 31
0.0000000000000000
  7
STANDARD
  0
ENDBLK
  5
113
100
AcDbEntity
  8
MAIN10
  6
CONTINUOUS
 62
3
100
AcDbBlockEnd
  0
BLOCK
  5
115
100
AcDbEntity
  8
MAIN10
  6
CONTINUOUS
 62
3
100
AcDbBlockBegin
  2
*D17
 70
    65
 10
0.0
 20
0.0
 30
0.0
  0
LINE
  5
116
100
AcDbEntity
  8
MAIN10
  6
BYBLOCK
 62
0
100
AcDbLine
 10
277.6516227264847
 20
254.6930283830353
 30
0.0000000000000000
 11
277.6516227264847
 21
258.8930283711150
 31
0.0000000000000000
  0
LINE
  5
117
100
AcDbEntity
  8
MAIN10
  6
BYBLOCK
 62
0
100
AcDbLine
 10
278.6516227264847
 20
256.8930283711150
 30
0.0000000000000000
 11
280.6516227264847
 21
256.8930283711150
 31
0.0000000000000000
  0
INSERT
  5
118
100
AcDbEntity
  8
MAIN10
  6
BYBLOCK
 62
0
100
AcDbBlockReference
  2
_DOT
 10
277.6516227264847
 20
256.8930283711150
 30
0.0000000000000000
 41
1.000000000000000
 42
1.000000000000000
 43
1.000000000000000
 50
180.0000000000000
  0
INSERT
  5
119
100
AcDbEntity
  8
MAIN10
  6
BYBLOCK
 62
0
100
AcDbBlockReference
  2
_OPEN
 10
280.6516227264847
 20
256.8930283711150
 30
0.0000000000000000
 41
2.000000000000000
 42
2.000000000000000
 43
2.000000000000000
 50
180.0000000000000
  0
LINE
  5
11A
100
AcDbEntity
  8
MAIN10
  6
BYBLOCK
 62
0
100
AcDbLine
 10
282.6516227264847
 20
256.8930283711150
 30
0.0000000000000000
 11
285.4707746048417
 21
256.8930283711150
 31
0.0000000000000000
  0
LINE
  5
11B
100
AcDbEntity
  8
MAIN10
  6
BYBLOCK
 62
0
100
AcDbLine
 10
280.6516227264847
 20
265.3815559075071
 30
0.0000000000000000
 11
280.6516227264847
 21
254.8930283711150
 31
0.0000000000000000
  0
MTEXT
  5
11C
100
AcDbEntity
  8
MAIN10
  6
BYBLOCK
 62
0
100
AcDbMText
 10
284.4207745901667
 20
258.9430283234313
 30
0.0000000000000000
 40
3.099999904632568
 41
0.0000000000000000
 71
     5
 72
     1
  1
\A1;3
 11
1.000000000000000
 21
0.0000000000000000
 31
0.0000000000000000
  7
STANDARD
  0
ENDBLK
  5
11D
100
AcDbEntity
  8
MAIN10
  6
CONTINUOUS
 62
3
100
AcDbBlockEnd
  0
BLOCK
  5
126
100
AcDbEntity
  8
MAIN10
  6
CONTINUOUS
 62
3
100
AcDbBlockBegin
  2
*D18
 70
    65
 10
0.0
 20
0.0
 30
0.0
  0
LINE
  5
127
100
AcDbEntity
  8
MAIN10
  6
BYBLOCK
 62
0
100
AcDbLine
 10
84.65162272648581
 20
184.0930283591942
 30
0.0000000000000000
 11
84.65162272648581
 21
140.8003123669743
 31
0.0000000000000000
  0
LINE
  5
128
100
AcDbEntity
  8
MAIN10
  6
BYBLOCK
 62
0
100
AcDbLine
 10
86.65162272648581
 20
142.8003123669743
 30
0.0000000000000000
 11
126.6516227264858
 21
142.8003123669743
 31
0.0000000000000000
  0
INSERT
  5
129
100
AcDbEntity
  8
MAIN10
  6
BYBLOCK
 62
0
100
AcDbBlockReference
  2
_OPEN
 10
84.65162272648581
 20
142.8003123669743
 30
0.0000000000000000
 41
2.000000000000000
 42
2.000000000000000
 43
2.000000000000000
 50
180.0000000000000
  0
INSERT
  5
12A
100
AcDbEntity
  8
MAIN10
  6
BYBLOCK
 62
0
100
AcDbBlockReference
  2
_OPEN
 10
128.6516227264858
 20
142.8003123669743
 30
0.0000000000000000
 41
2.000000000000000
 42
2.000000000000000
 43
2.000000000000000
 50
0.0000000000000000
  0
LINE
  5
12B
100
AcDbEntity
  8
MAIN10
  6
BYBLOCK
 62
0
100
AcDbLine
 10
128.6516227264858
 20
169.1492369014339
 30
0.0000000000000000
 11
128.6516227264858
 21
140.8003123669743
 31
0.0000000000000000
  0
MTEXT
  5
12C
100
AcDbEntity
  8
MAIN10
  6
BYBLOCK
 62
0
100
AcDbMText
 10
106.6516227264858
 20
144.8503123192906
 30
0.0000000000000000
 40
3.099999904632568
 41
0.0000000000000000
 71
     5
 72
     1
  1
\A1;44
 11
1.000000000000000
 21
0.0000000000000000
 31
0.0000000000000000
  7
STANDARD
  0
ENDBLK
  5
12D
100
AcDbEntity
  8
MAIN10
  6
CONTINUOUS
 62
3
100
AcDbBlockEnd
  0
BLOCK
  5
139
100
AcDbEntity
  8
MAIN10
  6
CONTINUOUS
 62
3
100
AcDbBlockBegin
  2
D19
 70
    64
 10
0.0
 20
0.0
 30
0.0
  0
LINE
  5
13A
100
AcDbEntity
  8
MAIN10
  6
BYBLOCK
 62
0
100
AcDbLine
 10
40.00000000000003
 20
6.575001455346016
 30
0.0000000000000000
 11
40.00000000000003
 21
-44.99999999999993
 31
0.0000000000000000
  0
LINE
  5
13B
100
AcDbEntity
  8
MAIN10
  6
BYBLOCK
 62
0
100
AcDbLine
 10
40.60000002384189
 20
-42.99999999999993
 30
0.0000000000000000
 11
40.00000000000003
 21
-44.99999999999993
 31
0.0000000000000000
  0
LINE
  5
13C
100
AcDbEntity
  8
MAIN10
  6
BYBLOCK
 62
0
100
AcDbLine
 10
40.00000000000003
 20
-44.99999999999993
 30
0.0000000000000000
 11
39.39999997615817
 21
-42.99999999999993
 31
0.0000000000000000
  0
LINE
  5
13D
100
AcDbEntity
  8
MAIN10
  6
BYBLOCK
 62
0
100
AcDbLine
 10
-46.13473251041242
 20
-44.99999999999993
 30
0.0000000000000000
 11
42.00000000000003
 21
-44.99999999999993
 31
0.0000000000000000
  0
MTEXT
  5
13E
100
AcDbEntity
  8
MAIN10
  6
BYBLOCK
 62
0
100
AcDbMText
 10
37.95000004768374
 20
5.587932848560415e-009
 30
0.0000000000000000
 40
3.099999904632568
 41
0.0000000000000000
 71
     5
 72
     1
  1
\A1;\U+220590\H0.903226x;\U+00B10.2
 11
6.123233995736766e-017
 21
1.000000000000000
 31
0.0000000000000000
  7
STANDARD
  0
ENDBLK
  5
13F
100
AcDbEntity
  8
MAIN10
  6
CONTINUOUS
 62
3
100
AcDbBlockEnd
  0
BLOCK
  5
141
100
AcDbEntity
  8
MAIN0
  6
BYBLOCK
 62
3
100
AcDbBlockBegin
  2
M0
 70
    64
 10
0.0
 20
0.0
 30
0.0
  0
LINE
  5
142
100
AcDbEntity
  8
MAIN0
  6
BYBLOCK
 62
0
100
AcDbLine
 10
145.6465348784497
 20
116.4273734905228
 30
0.0000000000000000
 11
222.6465348784497
 21
116.4273734905228
 31
0.0000000000000000
  0
LINE
  5
143
100
AcDbEntity
  8
MAIN0
  6
BYBLOCK
 62
0
100
AcDbLine
 10
145.6465348784497
 20
109.4273734905228
 30
0.0000000000000000
 11
222.6465348784497
 21
109.4273734905228
 31
0.0000000000000000
  0
LINE
  5
144
100
AcDbEntity
  8
MAIN0
  6
BYBLOCK
 62
0
100
AcDbLine
 10
145.6465348784497
 20
23.92737349052277
 30
0.0000000000000000
 11
145.6465348784497
 21
116.4273734905228
 31
0.0000000000000000
  0
LINE
  5
145
100
AcDbEntity
  8
MAIN0
  6
BYBLOCK
 62
0
100
AcDbLine
 10
145.6465348784498
 20
102.4273734905228
 30
0.0000000000000000
 11
222.6465348784497
 21
102.4273734905228
 31
0.0000000000000000
  0
LINE
  5
146
100
AcDbEntity
  8
MAIN0
  6
BYBLOCK
 62
0
100
AcDbLine
 10
145.6465348784498
 20
95.42737349052277
 30
0.0000000000000000
 11
222.6465348784497
 21
95.42737349052277
 31
0.0000000000000000
  0
LINE
  5
147
100
AcDbEntity
  8
MAIN0
  6
BYBLOCK
 62
0
100
AcDbLine
 10
188.6297232467231
 20
85.42737349052277
 30
0.0000000000000000
 11
222.6465348784497
 21
85.42737349052277
 31
0.0000000000000000
  0
LINE
  5
148
100
AcDbEntity
  8
MAIN0
  6
BYBLOCK
 62
0
100
AcDbLine
 10
145.6465348784497
 20
75.42737349052277
 30
0.0000000000000000
 11
222.6465348784497
 21
75.42737349052277
 31
0.0000000000000000
  0
LINE
  5
149
100
AcDbEntity
  8
MAIN0
  6
BYBLOCK
 62
0
100
AcDbLine
 10
145.6465348784497
 20
65.42737349052277
 30
0.0000000000000000
 11
222.6465348784497
 21
65.42737349052277
 31
0.0000000000000000
  0
LINE
  5
14A
100
AcDbEntity
  8
MAIN0
  6
BYBLOCK
 62
0
100
AcDbLine
 10
145.6465348784497
 20
58.42737349052277
 30
0.0000000000000000
 11
222.6465348784497
 21
58.42737349052277
 31
0.0000000000000000
  0
LINE
  5
14B
100
AcDbEntity
  8
MAIN0
  6
BYBLOCK
 62
0
100
AcDbLine
 10
145.6465348784497
 20
51.42737349052277
 30
0.0000000000000000
 11
222.6465348784497
 21
51.42737349052277
 31
0.0000000000000000
  0
LINE
  5
14C
100
AcDbEntity
  8
MAIN0
  6
BYBLOCK
 62
0
100
AcDbLine
 10
145.6465348784497
 20
41.42737349052277
 30
0.0000000000000000
 11
222.6465348784497
 21
41.42737349052277
 31
0.0000000000000000
  0
LINE
  5
14D
100
AcDbEntity
  8
MAIN0
  6
BYBLOCK
 62
0
100
AcDbLine
 10
145.6465348784497
 20
23.92737349052274
 30
0.0000000000000000
 11
222.6465348784496
 21
23.92737349052251
 31
0.0000000000000000
  0
LINE
  5
14E
100
AcDbEntity
  8
MAIN0
  6
BYBLOCK
 62
0
100
AcDbLine
 10
192.6465348784496
 20
23.92737349052266
 30
0.0000000000000000
 11
192.6465348784496
 21
109.4273734905228
 31
0.0000000000000000
  0
LINE
  5
14F
100
AcDbEntity
  8
MAIN0
  6
BYBLOCK
 62
0
100
AcDbLine
 10
222.6465348784497
 20
23.92737349052254
 30
0.0000000000000000
 11
222.6465348784497
 21
116.4273734905228
 31
0.0000000000000000
  0
LINE
  5
150
100
AcDbEntity
  8
MAIN0
  6
BYBLOCK
 62
0
100
AcDbLine
 10
145.6465348784497
 20
34.42737349052277
 30
0.0000000000000000
 11
222.6465348784497
 21
34.42737349052277
 31
0.0000000000000000
  0
MTEXT
  5
151
100
AcDbEntity
  8
MAIN0
  6
BYBLOCK
 62
0
100
AcDbMText
 10
147.6465348784497
 20
63.42737349052288
 30
0.0000000000000000
 40
3.000000000000000
 41
0.0000000000000000
 71
     1
 72
     1
  1
{\H0.93x;MAX. SPEED}
 11
1.000000000000000
 21
0.0000000000000000
 31
0.0000000000000000
  7
STANDARD
  0
MTEXT
  5
152
100
AcDbEntity
  8
MAIN0
  6
BYBLOCK
 62
0
100
AcDbMText
 10
147.6465348784497
 20
56.42737349052288
 30
0.0000000000000000
 40
3.000000000000000
 41
0.0000000000000000
 71
     1
 72
     1
  1
{\H0.91x;MASS}
 11
1.000000000000000
 21
0.0000000000000000
 31
0.0000000000000000
  7
STANDARD
  0
MTEXT
  5
153
100
AcDbEntity
  8
MAIN0
  6
BYBLOCK
 62
0
100
AcDbMText
 10
147.6465348784497
 20
47.92737349052283
 30
0.0000000000000000
 40
3.000000000000000
 41
0.0000000000000000
 71
     1
 72
     1
  1
{\H0.59x;ＭＯＭＥＮＴ　ＯＦ　ＩＮＥＲＴＩＡ}
 11
1.000000000000000
 21
0.0000000000000000
 31
0.0000000000000000
  7
KNJYOKO
  0
MTEXT
  5
154
100
AcDbEntity
  8
MAIN0
  6
BYBLOCK
 62
0
100
AcDbMText
 10
207.6465348784496
 20
106.2273727275832
 30
0.0000000000000000
 40
2.799999237060547
 41
0.0000000000000000
 71
     1
 72
     1
  1
{\H0.62x;　　　　mm}
 11
1.000000000000000
 21
0.0000000000000000
 31
0.0000000000000000
  7
KNJYOKO
  0
MTEXT
  5
155
100
AcDbEntity
  8
MAIN0
  6
BYBLOCK
 62
0
100
AcDbMText
 10
207.6465348784496
 20
48.72737272758320
 30
0.0000000000000000
 40
2.799999237060547
 41
0.0000000000000000
 71
     1
 72
     1
  1
{\H0.64x;　　kg・m}
 11
1.000000000000000
 21
0.0000000000000000
 31
0.0000000000000000
  7
KNJYOKO
  0
MTEXT
  5
156
100
AcDbEntity
  8
MAIN0
  6
BYBLOCK
 62
0
100
AcDbMText
 10
207.6465348784496
 20
55.22737272758320
 30
0.0000000000000000
 40
2.799999237060547
 41
0.0000000000000000
 71
     1
 72
     1
  1
{\H0.62x;　　　　kg}
 11
1.000000000000000
 21
0.0000000000000000
 31
0.0000000000000000
  7
KNJYOKO
  0
MTEXT
  5
157
100
AcDbEntity
  8
MAIN0
  6
BYBLOCK
 62
0
100
AcDbMText
 10
150.8965348784497
 20
115.5773735858902
 30
0.0000000000000000
 40
5.300000190734863
 41
0.0000000000000000
 71
     1
 72
     1
  1
{\H0.94x;SPECIFICATIONS}
 11
1.000000000000000
 21
0.0000000000000000
 31
0.0000000000000000
  7
STANDARD
  0
MTEXT
  5
158
100
AcDbEntity
  8
MAIN0
  6
BYBLOCK
 62
0
100
AcDbMText
 10
147.6465348784497
 20
107.4273734905228
 30
0.0000000000000000
 40
3.000000000000000
 41
0.0000000000000000
 71
     1
 72
     1
  1
{\H0.93x;PISTON DIA}
 11
1.000000000000000
 21
0.0000000000000000
 31
0.0000000000000000
  7
STANDARD
  0
MTEXT
  5
159
100
AcDbEntity
  8
MAIN0
  6
BYBLOCK
 62
0
100
AcDbMText
 10
147.6465348784497
 20
100.4273734905230
 30
0.0000000000000000
 40
3.000000000000000
 41
0.0000000000000000
 71
     1
 72
     1
  1
{\H0.93x;PISTON STROKE}
 11
1.000000000000000
 21
0.0000000000000000
 31
0.0000000000000000
  7
STANDARD
  0
MTEXT
  5
15A
100
AcDbEntity
  8
MAIN0
  6
BYBLOCK
 62
0
100
AcDbMText
 10
147.6465348784497
 20
91.42737349052300
 30
0.0000000000000000
 40
3.000000000000000
 41
0.0000000000000000
 71
     1
 72
     1
  1
{\H0.93x;PISTON THRUST}
 11
1.000000000000000
 21
0.0000000000000000
 31
0.0000000000000000
  7
STANDARD
  0
MTEXT
  5
15B
100
AcDbEntity
  8
MAIN0
  6
BYBLOCK
 62
0
100
AcDbMText
 10
145.6465348784497
 20
85.42737349052288
 30
0.0000000000000000
 40
3.000000000000000
 41
0.0000000000000000
 71
     1
 72
     1
  1
{\H0.94x;(AT  　 　　　　　)}
 11
1.000000000000000
 21
0.0000000000000000
 31
0.0000000000000000
  7
KNJYOKO
  0
MTEXT
  5
15C
100
AcDbEntity
  8
MAIN0
  6
BYBLOCK
 62
0
100
AcDbMText
 10
147.6465348784497
 20
32.42737349052283
 30
0.0000000000000000
 40
3.000000000000000
 41
0.0000000000000000
 71
     1
 72
     1
  1
{\H0.93x;OIL LEAKAGE}
 11
1.000000000000000
 21
0.0000000000000000
 31
0.0000000000000000
  7
STANDARD
  0
MTEXT
  5
15D
100
AcDbEntity
  8
MAIN0
  6
BYBLOCK
 62
0
100
AcDbMText
 10
184.9296456202653
 20
91.66366367123305
 30
0.0000000000000000
 40
3.000000000000000
 41
0.0000000000000000
 71
     1
 72
     1
  1
{\H0.63x;PUSH}
 11
1.000000000000000
 21
0.0000000000000000
 31
0.0000000000000000
  7
STANDARD
  0
MTEXT
  5
15E
100
AcDbEntity
  8
MAIN0
  6
BYBLOCK
 62
0
100
AcDbMText
 10
184.9296456202653
 20
81.66366367123294
 30
0.0000000000000000
 40
3.000000000000000
 41
0.0000000000000000
 71
     1
 72
     1
  1
{\H0.63x;PULL}
 11
1.000000000000000
 21
0.0000000000000000
 31
0.0000000000000000
  7
STANDARD
  0
MTEXT
  5
15F
100
AcDbEntity
  8
MAIN0
  6
BYBLOCK
 62
0
100
AcDbMText
 10
147.6465348784497
 20
27.92737349052283
 30
0.0000000000000000
 40
2.000000000000000
 41
0.0000000000000000
 71
     1
 72
     1
  1
{\H0.94x;ISO,VG 32,50℃,3.0MPa}
 11
1.000000000000000
 21
0.0000000000000000
 31
0.0000000000000000
  7
KNJYOKO
  0
MTEXT
  5
160
100
AcDbEntity
  8
MAIN0
  6
BYBLOCK
 62
0
100
AcDbMText
 10
207.6465348784496
 20
27.72737272758320
 30
0.0000000000000000
 40
2.799999237060547
 41
0.0000000000000000
 71
     1
 72
     1
  1
{\H0.69x;　l/min}
 11
1.000000000000000
 21
0.0000000000000000
 31
0.0000000000000000
  7
KNJYOKO
  0
MTEXT
  5
161
100
AcDbEntity
  8
MAIN0
  6
BYBLOCK
 62
0
100
AcDbMText
 10
147.6465348784497
 20
71.92737349052288
 30
0.0000000000000000
 40
3.000000000000000
 41
0.0000000000000000
 71
     1
 72
     1
  1
{\H0.63x;MAX. OPERATING PRESSURE}
 11
1.000000000000000
 21
0.0000000000000000
 31
0.0000000000000000
  7
STANDARD
  0
MTEXT
  5
162
100
AcDbEntity
  8
MAIN0
  6
BYBLOCK
 62
0
100
AcDbMText
 10
219.5570808530731
 20
48.98294331871500
 30
0.0000000000000000
 40
2.000000000000000
 41
0.0000000000000000
 71
     1
 72
     1
  1
{\H0.81x;2}
 11
1.000000000000000
 21
0.0000000000000000
 31
0.0000000000000000
  7
STANDARD
  0
MTEXT
  5
163
100
AcDbEntity
  8
MAIN0
  6
BYBLOCK
 62
0
100
AcDbMText
 10
207.6465348784496
 20
72.72737272758320
 30
0.0000000000000000
 40
2.799999237060547
 41
0.0000000000000000
 71
     1
 72
     1
  1
{\H0.64x;　　　MPa}
 11
1.000000000000000
 21
0.0000000000000000
 31
0.0000000000000000
  7
KNJYOKO
  0
MTEXT
  5
164
100
AcDbEntity
  8
MAIN0
  6
BYBLOCK
 62
0
100
AcDbMText
 10
168.5642278338182
 20
85.22737272758344
 30
0.0000000000000000
 40
2.799999237060547
 41
0.0000000000000000
 71
     1
 72
     1
  1
{\H0.64x;　　　MPa}
 11
1.000000000000000
 21
0.0000000000000000
 31
0.0000000000000000
  7
KNJYOKO
  0
MTEXT
  5
165
100
AcDbEntity
  8
MAIN0
  6
BYBLOCK
 62
0
100
AcDbMText
 10
207.6465348784496
 20
92.72737272758332
 30
0.0000000000000000
 40
2.799999237060547
 41
0.0000000000000000
 71
     1
 72
     1
  1
{\H0.62x;　　　　kN}
 11
1.000000000000000
 21
0.0000000000000000
 31
0.0000000000000000
  7
KNJYOKO
  0
MTEXT
  5
166
100
AcDbEntity
  8
MAIN0
  6
BYBLOCK
 62
0
100
AcDbMText
 10
207.6465348784496
 20
62.22737272758320
 30
0.0000000000000000
 40
2.799999237060547
 41
0.0000000000000000
 71
     1
 72
     1
  1
{\H0.65x;　　min}
 11
1.000000000000000
 21
0.0000000000000000
 31
0.0000000000000000
  7
KNJYOKO
  0
MTEXT
  5
167
100
AcDbEntity
  8
MAIN0
  6
BYBLOCK
 62
0
100
AcDbMText
 10
217.8012031267695
 20
62.89691728047797
 30
0.0000000000000000
 40
2.000000000000000
 41
0.0000000000000000
 71
     1
 72
     1
  1
{\H0.88x;-1}
 11
1.000000000000000
 21
0.0000000000000000
 31
0.0000000000000000
  7
STANDARD
  0
MTEXT
  5
168
100
AcDbEntity
  8
MAIN0
  6
BYBLOCK
 62
0
100
AcDbMText
 10
207.6465348784496
 20
99.22737272758332
 30
0.0000000000000000
 40
2.799999237060547
 41
0.0000000000000000
 71
     1
 72
     1
  1
{\H0.62x;　　　　mm}
 11
1.000000000000000
 21
0.0000000000000000
 31
0.0000000000000000
  7
KNJYOKO
  0
MTEXT
  5
169
100
AcDbEntity
  8
MAIN0
  6
BYBLOCK
 62
0
100
AcDbMText
 10
207.6465348784496
 20
82.72737272758320
 30
0.0000000000000000
 40
2.799999237060547
 41
0.0000000000000000
 71
     1
 72
     1
  1
{\H0.62x;　　　　kN}
 11
1.000000000000000
 21
0.0000000000000000
 31
0.0000000000000000
  7
KNJYOKO
  0
ENDBLK
  5
16A
100
AcDbEntity
  8
MAIN0
  6
BYBLOCK
 62
3
100
AcDbBlockEnd
  0
BLOCK
  5
1C1
100
AcDbEntity
  8
MAIN10
  6
CONTINUOUS
 62
3
100
AcDbBlockBegin
  2
*D20
 70
    65
 10
0.0
 20
0.0
 30
0.0
  0
LINE
  5
1C2
100
AcDbEntity
  8
MAIN10
  6
BYBLOCK
 62
0
100
AcDbLine
 10
186.7440877686717
 20
221.8930283711150
 30
0.0000000000000000
 11
186.7440877686717
 21
180.8930283711152
 31
0.0000000000000000
  0
INSERT
  5
1C3
100
AcDbEntity
  8
MAIN10
  6
BYBLOCK
 62
0
100
AcDbBlockReference
  2
_OPEN
 10
186.7440877686717
 20
223.8930283711150
 30
0.0000000000000000
 41
2.000000000000000
 42
2.000000000000000
 43
2.000000000000000
 50
90.00000000000000
  0
INSERT
  5
1C4
100
AcDbEntity
  8
MAIN10
  6
BYBLOCK
 62
0
100
AcDbBlockReference
  2
_OPEN
 10
186.7440877686717
 20
178.8930283711152
 30
0.0000000000000000
 41
2.000000000000000
 42
2.000000000000000
 43
2.000000000000000
 50
270.0000000000000
  0
LINE
  5
1C5
100
AcDbEntity
  8
MAIN10
  6
BYBLOCK
 62
0
100
AcDbLine
 10
142.4516227384068
 20
178.8930283711152
 30
0.0000000000000000
 11
188.7440877686717
 21
178.8930283711152
 31
0.0000000000000000
  0
MTEXT
  5
1C6
100
AcDbEntity
  8
MAIN10
  6
BYBLOCK
 62
0
100
AcDbMText
 10
184.6940878163554
 20
201.3930283711151
 30
0.0000000000000000
 40
3.099999904632568
 41
0.0000000000000000
 71
     5
 72
     1
  1
\A1;45
 11
6.123233995736766e-017
 21
1.000000000000000
 31
0.0000000000000000
  7
STANDARD
  0
ENDBLK
  5
1C7
100
AcDbEntity
  8
MAIN10
  6
CONTINUOUS
 62
3
100
AcDbBlockEnd
  0
BLOCK
  5
1C9
100
AcDbEntity
  8
MAIN10
  6
CONTINUOUS
 62
3
100
AcDbBlockBegin
  2
*D21
 70
    65
 10
0.0
 20
0.0
 30
0.0
  0
LINE
  5
1CA
100
AcDbEntity
  8
MAIN10
  6
BYBLOCK
 62
0
100
AcDbLine
 10
113.6516227264859
 20
180.0930279006167
 30
0.0000000000000000
 11
113.6516227264859
 21
160.8003123669743
 31
0.0000000000000000
  0
LINE
  5
1CB
100
AcDbEntity
  8
MAIN10
  6
BYBLOCK
 62
0
100
AcDbLine
 10
115.6516227264859
 20
162.8003123669743
 30
0.0000000000000000
 11
141.6516227264859
 21
162.8003123669743
 31
0.0000000000000000
  0
INSERT
  5
1CC
100
AcDbEntity
  8
MAIN10
  6
BYBLOCK
 62
0
100
AcDbBlockReference
  2
_OPEN
 10
113.6516227264859
 20
162.8003123669743
 30
0.0000000000000000
 41
2.000000000000000
 42
2.000000000000000
 43
2.000000000000000
 50
180.0000000000000
  0
INSERT
  5
1CD
100
AcDbEntity
  8
MAIN10
  6
BYBLOCK
 62
0
100
AcDbBlockReference
  2
_OPEN
 10
143.6516227264859
 20
162.8003123669743
 30
0.0000000000000000
 41
2.000000000000000
 42
2.000000000000000
 43
2.000000000000000
 50
0.0000000000000000
  0
LINE
  5
1CE
100
AcDbEntity
  8
MAIN10
  6
BYBLOCK
 62
0
100
AcDbLine
 10
143.6516227264859
 20
180.0930282415716
 30
0.0000000000000000
 11
143.6516227264859
 21
160.8003123669743
 31
0.0000000000000000
  0
MTEXT
  5
1CF
100
AcDbEntity
  8
MAIN10
  6
BYBLOCK
 62
0
100
AcDbMText
 10
134.6823481084249
 20
164.8503123192906
 30
0.0000000000000000
 40
3.099999904632568
 41
0.0000000000000000
 71
     5
 72
     1
  1
\A1;\U+220530
 11
1.000000000000000
 21
0.0000000000000000
 31
0.0000000000000000
  7
STANDARD
  0
ENDBLK
  5
1D0
100
AcDbEntity
  8
MAIN10
  6
CONTINUOUS
 62
3
100
AcDbBlockEnd
  0
BLOCK
  5
1D2
100
AcDbEntity
  8
MAIN10
  6
CONTINUOUS
 62
3
100
AcDbBlockBegin
  2
*D22
 70
    65
 10
0.0
 20
0.0
 30
0.0
  0
LINE
  5
1D3
100
AcDbEntity
  8
MAIN10
  6
BYBLOCK
 62
0
100
AcDbLine
 10
88.65162272648581
 20
197.0387126005167
 30
0.0000000000000000
 11
88.65162272648581
 21
150.8003123669743
 31
0.0000000000000000
  0
LINE
  5
1D4
100
AcDbEntity
  8
MAIN10
  6
BYBLOCK
 62
0
100
AcDbLine
 10
90.65162272648581
 20
152.8003123669743
 30
0.0000000000000000
 11
126.6516227264858
 21
152.8003123669743
 31
0.0000000000000000
  0
INSERT
  5
1D5
100
AcDbEntity
  8
MAIN10
  6
BYBLOCK
 62
0
100
AcDbBlockReference
  2
_OPEN
 10
88.65162272648581
 20
152.8003123669743
 30
0.0000000000000000
 41
2.000000000000000
 42
2.000000000000000
 43
2.000000000000000
 50
180.0000000000000
  0
INSERT
  5
1D6
100
AcDbEntity
  8
MAIN10
  6
BYBLOCK
 62
0
100
AcDbBlockReference
  2
_OPEN
 10
128.6516227264858
 20
152.8003123669743
 30
0.0000000000000000
 41
2.000000000000000
 42
2.000000000000000
 43
2.000000000000000
 50
0.0000000000000000
  0
LINE
  5
1D7
100
AcDbEntity
  8
MAIN10
  6
BYBLOCK
 62
0
100
AcDbLine
 10
128.6516227264858
 20
169.1492369014339
 30
0.0000000000000000
 11
128.6516227264858
 21
150.8003123669743
 31
0.0000000000000000
  0
MTEXT
  5
1D8
100
AcDbEntity
  8
MAIN10
  6
BYBLOCK
 62
0
100
AcDbMText
 10
108.6516227264858
 20
154.8503123192906
 30
0.0000000000000000
 40
3.099999904632568
 41
0.0000000000000000
 71
     5
 72
     1
  1
\A1;40
 11
1.000000000000000
 21
0.0000000000000000
 31
0.0000000000000000
  7
STANDARD
  0
ENDBLK
  5
1D9
100
AcDbEntity
  8
MAIN10
  6
CONTINUOUS
 62
3
100
AcDbBlockEnd
  0
BLOCK
  5
1DB
100
AcDbEntity
  8
MAIN10
  6
CONTINUOUS
 62
3
100
AcDbBlockBegin
  2
*D23
 70
    65
 10
0.0
 20
0.0
 30
0.0
  0
LINE
  5
1DC
100
AcDbEntity
  8
MAIN10
  6
BYBLOCK
 62
0
100
AcDbLine
 10
128.6516227264858
 20
169.1492369014339
 30
0.0000000000000000
 11
128.6516227264858
 21
150.8003123669743
 31
0.0000000000000000
  0
LINE
  5
1DD
100
AcDbEntity
  8
MAIN10
  6
BYBLOCK
 62
0
100
AcDbLine
 10
130.6516227264858
 20
152.8003123669743
 30
0.0000000000000000
 11
166.6516227264858
 21
152.8003123669743
 31
0.0000000000000000
  0
INSERT
  5
1DE
100
AcDbEntity
  8
MAIN10
  6
BYBLOCK
 62
0
100
AcDbBlockReference
  2
_OPEN
 10
128.6516227264858
 20
152.8003123669743
 30
0.0000000000000000
 41
2.000000000000000
 42
2.000000000000000
 43
2.000000000000000
 50
180.0000000000000
  0
INSERT
  5
1DF
100
AcDbEntity
  8
MAIN10
  6
BYBLOCK
 62
0
100
AcDbBlockReference
  2
_OPEN
 10
168.6516227264858
 20
152.8003123669743
 30
0.0000000000000000
 41
2.000000000000000
 42
2.000000000000000
 43
2.000000000000000
 50
0.0000000000000000
  0
LINE
  5
1E0
100
AcDbEntity
  8
MAIN10
  6
BYBLOCK
 62
0
100
AcDbLine
 10
168.6516227264858
 20
197.0387126005166
 30
0.0000000000000000
 11
168.6516227264858
 21
150.8003123669743
 31
0.0000000000000000
  0
MTEXT
  5
1E1
100
AcDbEntity
  8
MAIN10
  6
BYBLOCK
 62
0
100
AcDbMText
 10
148.6516227264858
 20
154.8503123192906
 30
0.0000000000000000
 40
3.099999904632568
 41
0.0000000000000000
 71
     5
 72
     1
  1
\A1;40
 11
1.000000000000000
 21
0.0000000000000000
 31
0.0000000000000000
  7
STANDARD
  0
ENDBLK
  5
1E2
100
AcDbEntity
  8
MAIN10
  6
CONTINUOUS
 62
3
100
AcDbBlockEnd
  0
BLOCK
  5
2CC
100
AcDbEntity
  8
MAIN10
  6
CONTINUOUS
 62
3
100
AcDbBlockBegin
  2
*D24
 70
    65
 10
0.0
 20
0.0
 30
0.0
  0
LINE
  5
2CD
100
AcDbEntity
  8
MAIN10
  6
BYBLOCK
 62
0
100
AcDbLine
 10
79.85906513036034
 20
378.3939458731368
 30
0.0000000000000000
 11
54.30248136170215
 21
378.3939458731368
 31
0.0000000000000000
  0
LINE
  5
2CE
100
AcDbEntity
  8
MAIN10
  6
BYBLOCK
 62
0
100
AcDbLine
 10
56.30248136170215
 20
376.3939458731368
 30
0.0000000000000000
 11
56.30248136170215
 21
339.3939458731368
 31
0.0000000000000000
  0
INSERT
  5
2CF
100
AcDbEntity
  8
MAIN10
  6
BYBLOCK
 62
0
100
AcDbBlockReference
  2
_OPEN
 10
56.30248136170215
 20
378.3939458731368
 30
0.0000000000000000
 41
2.000000000000000
 42
2.000000000000000
 43
2.000000000000000
 50
90.00000000000000
  0
INSERT
  5
2D0
100
AcDbEntity
  8
MAIN10
  6
BYBLOCK
 62
0
100
AcDbBlockReference
  2
_OPEN
 10
56.30248136170215
 20
337.3939458731368
 30
0.0000000000000000
 41
2.000000000000000
 42
2.000000000000000
 43
2.000000000000000
 50
270.0000000000000
  0
LINE
  5
2D1
100
AcDbEntity
  8
MAIN10
  6
BYBLOCK
 62
0
100
AcDbLine
 10
78.57241429019098
 20
337.3939458731368
 30
0.0000000000000000
 11
54.30248136170215
 21
337.3939458731368
 31
0.0000000000000000
  0
MTEXT
  5
2D2
100
AcDbEntity
  8
MAIN10
  6
BYBLOCK
 62
0
100
AcDbMText
 10
54.25248140938587
 20
357.8939458731368
 30
0.0000000000000000
 40
3.099999904632568
 41
0.0000000000000000
 71
     5
 72
     1
  1
\A1;41
 11
6.123233995736766e-017
 21
1.000000000000000
 31
0.0000000000000000
  7
STANDARD
  0
ENDBLK
  5
2D3
100
AcDbEntity
  8
MAIN10
  6
CONTINUOUS
 62
3
100
AcDbBlockEnd
  0
BLOCK
  5
2D5
100
AcDbEntity
  8
MAIN10
  6
CONTINUOUS
 62
3
100
AcDbBlockBegin
  2
*D25
 70
    65
 10
0.0
 20
0.0
 30
0.0
  0
LINE
  5
2D6
100
AcDbEntity
  8
MAIN10
  6
BYBLOCK
 62
0
100
AcDbLine
 10
78.57241429019098
 20
337.3939458731368
 30
0.0000000000000000
 11
54.30248136170215
 21
337.3939458731368
 31
0.0000000000000000
  0
LINE
  5
2D7
100
AcDbEntity
  8
MAIN10
  6
BYBLOCK
 62
0
100
AcDbLine
 10
56.30248136170215
 20
335.3939458731368
 30
0.0000000000000000
 11
56.30248136170215
 21
328.3939458731368
 31
0.0000000000000000
  0
INSERT
  5
2D8
100
AcDbEntity
  8
MAIN10
  6
BYBLOCK
 62
0
100
AcDbBlockReference
  2
_OPEN
 10
56.30248136170215
 20
337.3939458731368
 30
0.0000000000000000
 41
2.000000000000000
 42
2.000000000000000
 43
2.000000000000000
 50
90.00000000000000
  0
INSERT
  5
2D9
100
AcDbEntity
  8
MAIN10
  6
BYBLOCK
 62
0
100
AcDbBlockReference
  2
_OPEN
 10
56.30248136170215
 20
326.3939458731368
 30
0.0000000000000000
 41
2.000000000000000
 42
2.000000000000000
 43
2.000000000000000
 50
270.0000000000000
  0
LINE
  5
2DA
100
AcDbEntity
  8
MAIN10
  6
BYBLOCK
 62
0
100
AcDbLine
 10
60.93519107281315
 20
326.3939458731368
 30
0.0000000000000000
 11
54.30248136170215
 21
326.3939458731368
 31
0.0000000000000000
  0
MTEXT
  5
2DB
100
AcDbEntity
  8
MAIN10
  6
BYBLOCK
 62
0
100
AcDbMText
 10
54.25248140938587
 20
331.8939458731368
 30
0.0000000000000000
 40
3.099999904632568
 41
0.0000000000000000
 71
     5
 72
     1
  1
\A1;11
 11
6.123233995736766e-017
 21
1.000000000000000
 31
0.0000000000000000
  7
STANDARD
  0
ENDBLK
  5
2DC
100
AcDbEntity
  8
MAIN10
  6
CONTINUOUS
 62
3
100
AcDbBlockEnd
  0
BLOCK
  5
2DE
100
AcDbEntity
  8
MAIN10
  6
CONTINUOUS
 62
3
100
AcDbBlockBegin
  2
*D26
 70
    65
 10
0.0
 20
0.0
 30
0.0
  0
LINE
  5
2DF
100
AcDbEntity
  8
MAIN10
  6
BYBLOCK
 62
0
100
AcDbLine
 10
60.93519107281315
 20
326.3939458731368
 30
0.0000000000000000
 11
54.30248136170215
 21
326.3939458731368
 31
0.0000000000000000
  0
LINE
  5
2E0
100
AcDbEntity
  8
MAIN10
  6
BYBLOCK
 62
0
100
AcDbLine
 10
56.30248136170215
 20
324.3939458731368
 30
0.0000000000000000
 11
56.30248136170215
 21
305.3939458731368
 31
0.0000000000000000
  0
INSERT
  5
2E1
100
AcDbEntity
  8
MAIN10
  6
BYBLOCK
 62
0
100
AcDbBlockReference
  2
_OPEN
 10
56.30248136170215
 20
326.3939458731368
 30
0.0000000000000000
 41
2.000000000000000
 42
2.000000000000000
 43
2.000000000000000
 50
90.00000000000000
  0
INSERT
  5
2E2
100
AcDbEntity
  8
MAIN10
  6
BYBLOCK
 62
0
100
AcDbBlockReference
  2
_OPEN
 10
56.30248136170215
 20
303.3939458731368
 30
0.0000000000000000
 41
2.000000000000000
 42
2.000000000000000
 43
2.000000000000000
 50
270.0000000000000
  0
LINE
  5
2E3
100
AcDbEntity
  8
MAIN10
  6
BYBLOCK
 62
0
100
AcDbLine
 10
67.85906513036053
 20
303.3939458731368
 30
0.0000000000000000
 11
54.30248136170215
 21
303.3939458731368
 31
0.0000000000000000
  0
MTEXT
  5
2E4
100
AcDbEntity
  8
MAIN10
  6
BYBLOCK
 62
0
100
AcDbMText
 10
54.25248140938587
 20
314.8939458731368
 30
0.0000000000000000
 40
3.099999904632568
 41
0.0000000000000000
 71
     5
 72
     1
  1
\A1;MAX 23
 11
6.123233995736766e-017
 21
1.000000000000000
 31
0.0000000000000000
  7
STANDARD
  0
ENDBLK
  5
2E5
100
AcDbEntity
  8
MAIN10
  6
CONTINUOUS
 62
3
100
AcDbBlockEnd
  0
BLOCK
  5
2E7
100
AcDbEntity
  8
MAIN10
  6
CONTINUOUS
 62
3
100
AcDbBlockBegin
  2
*D27
 70
    65
 10
0.0
 20
0.0
 30
0.0
  0
LINE
  5
2E8
100
AcDbEntity
  8
MAIN10
  6
BYBLOCK
 62
0
100
AcDbLine
 10
207.9726386250333
 20
369.7692718014548
 30
0.0000000000000000
 11
195.4136735422297
 21
391.5220374153544
 31
0.0000000000000000
  0
LINE
  5
2E9
100
AcDbEntity
  8
MAIN10
  6
BYBLOCK
 62
0
100
AcDbLine
 10
194.6816227346608
 20
388.7899866077854
 30
0.0000000000000000
 11
162.6386827946366
 21
370.2899866077856
 31
0.0000000000000000
  0
INSERT
  5
2EA
100
AcDbEntity
  8
MAIN10
  6
BYBLOCK
 62
0
100
AcDbBlockReference
  2
_OPEN
 10
196.4136735422297
 20
389.7899866077854
 30
0.0000000000000000
 41
2.000000000000000
 42
2.000000000000000
 43
2.000000000000000
 50
29.99999999999966
  0
INSERT
  5
2EB
100
AcDbEntity
  8
MAIN10
  6
BYBLOCK
 62
0
100
AcDbBlockReference
  2
_OPEN
 10
160.9066319870677
 20
369.2899866077856
 30
0.0000000000000000
 41
2.000000000000000
 42
2.000000000000000
 43
2.000000000000000
 50
209.9999999999997
  0
LINE
  5
2EC
100
AcDbEntity
  8
MAIN10
  6
BYBLOCK
 62
0
100
AcDbLine
 10
173.3160766772550
 20
347.7961979106653
 30
0.0000000000000000
 11
159.9066319870677
 21
371.0220374153545
 31
0.0000000000000000
  0
MTEXT
  5
2ED
100
AcDbEntity
  8
MAIN10
  6
BYBLOCK
 62
0
100
AcDbMText
 10
177.6351527884905
 20
381.3153386442483
 30
0.0000000000000000
 40
3.099999904632568
 41
0.0000000000000000
 71
     5
 72
     1
  1
\A1;41
 11
0.8660254037844407
 21
0.4999999999999964
 31
0.0000000000000000
  7
STANDARD
  0
ENDBLK
  5
2EE
100
AcDbEntity
  8
MAIN10
  6
CONTINUOUS
 62
3
100
AcDbBlockEnd
  0
BLOCK
  5
2F0
100
AcDbEntity
  8
MAIN10
  6
CONTINUOUS
 62
3
100
AcDbBlockBegin
  2
*D28
 70
    65
 10
0.0
 20
0.0
 30
0.0
  0
LINE
  5
2F1
100
AcDbEntity
  8
MAIN10
  6
BYBLOCK
 62
0
100
AcDbLine
 10
173.3160766772550
 20
347.7961979106653
 30
0.0000000000000000
 11
159.9066319870677
 21
371.0220374153545
 31
0.0000000000000000
  0
LINE
  5
2F2
100
AcDbEntity
  8
MAIN10
  6
BYBLOCK
 62
0
100
AcDbLine
 10
159.1745811794988
 20
368.2899866077856
 30
0.0000000000000000
 11
153.1124033530076
 21
364.7899866077856
 31
0.0000000000000000
  0
INSERT
  5
2F3
100
AcDbEntity
  8
MAIN10
  6
BYBLOCK
 62
0
100
AcDbBlockReference
  2
_OPEN
 10
160.9066319870677
 20
369.2899866077856
 30
0.0000000000000000
 41
2.000000000000000
 42
2.000000000000000
 43
2.000000000000000
 50
29.99999999999943
  0
INSERT
  5
2F4
100
AcDbEntity
  8
MAIN10
  6
BYBLOCK
 62
0
100
AcDbBlockReference
  2
_OPEN
 10
151.3803525454387
 20
363.7899866077856
 30
0.0000000000000000
 41
2.000000000000000
 42
2.000000000000000
 43
2.000000000000000
 50
209.9999999999995
  0
LINE
  5
2F5
100
AcDbEntity
  8
MAIN10
  6
BYBLOCK
 62
0
100
AcDbLine
 10
155.1281309774969
 20
357.2986439479500
 30
0.0000000000000000
 11
150.3803525454387
 21
365.5220374153546
 31
0.0000000000000000
  0
MTEXT
  5
2F6
100
AcDbEntity
  8
MAIN10
  6
BYBLOCK
 62
0
100
AcDbMText
 10
155.1184922900951
 20
368.3153386442485
 30
0.0000000000000000
 40
3.099999904632568
 41
0.0000000000000000
 71
     5
 72
     1
  1
\A1;11
 11
0.8660254037844412
 21
0.4999999999999956
 31
0.0000000000000000
  7
STANDARD
  0
ENDBLK
  5
2F7
100
AcDbEntity
  8
MAIN10
  6
CONTINUOUS
 62
3
100
AcDbBlockEnd
  0
BLOCK
  5
2F9
100
AcDbEntity
  8
MAIN10
  6
CONTINUOUS
 62
3
100
AcDbBlockBegin
  2
*D29
 70
    65
 10
0.0
 20
0.0
 30
0.0
  0
LINE
  5
2FA
100
AcDbEntity
  8
MAIN10
  6
BYBLOCK
 62
0
100
AcDbLine
 10
155.1281309774969
 20
357.2986439479500
 30
0.0000000000000000
 11
150.3803525454387
 21
365.5220374153546
 31
0.0000000000000000
  0
LINE
  5
2FB
100
AcDbEntity
  8
MAIN10
  6
BYBLOCK
 62
0
100
AcDbLine
 10
149.6483017378698
 20
362.7899866077858
 30
0.0000000000000000
 11
133.1938190659654
 21
353.2899866077858
 31
0.0000000000000000
  0
INSERT
  5
2FC
100
AcDbEntity
  8
MAIN10
  6
BYBLOCK
 62
0
100
AcDbBlockReference
  2
_OPEN
 10
151.3803525454387
 20
363.7899866077858
 30
0.0000000000000000
 41
2.000000000000000
 42
2.000000000000000
 43
2.000000000000000
 50
29.99999999999977
  0
INSERT
  5
2FD
100
AcDbEntity
  8
MAIN10
  6
BYBLOCK
 62
0
100
AcDbBlockReference
  2
_OPEN
 10
131.4617682583965
 20
352.2899866077858
 30
0.0000000000000000
 41
2.000000000000000
 42
2.000000000000000
 43
2.000000000000000
 50
209.9999999999997
  0
LINE
  5
2FE
100
AcDbEntity
  8
MAIN10
  6
BYBLOCK
 62
0
100
AcDbLine
 10
137.8712129485839
 20
341.1885027560786
 30
0.0000000000000000
 11
130.4617682583966
 21
354.0220374153547
 31
0.0000000000000000
  0
MTEXT
  5
2FF
100
AcDbEntity
  8
MAIN10
  6
BYBLOCK
 62
0
100
AcDbMText
 10
140.3960604257594
 20
359.8153386442485
 30
0.0000000000000000
 40
3.099999904632568
 41
0.0000000000000000
 71
     5
 72
     1
  1
\A1;MAX 23
 11
0.8660254037844409
 21
0.4999999999999960
 31
0.0000000000000000
  7
STANDARD
  0
ENDBLK
  5
300
100
AcDbEntity
  8
MAIN10
  6
CONTINUOUS
 62
3
100
AcDbBlockEnd
  0
ENDSEC
  0
SECTION
  2
ENTITIES
  0
MTEXT
  5
46
100
AcDbEntity
  8
MAIN0
  6
CONTINUOUS
 62
3
100
AcDbMText
 10
472.4035239842229
 20
323.0374702957006
 30
0.0000000000000000
 40
3.099999904632568
 41
0.0000000000000000
 71
     1
 72
     1
  1
{\H0.70x;{MIN 31}}
 11
1.000000000000000
 21
0.0000000000000000
 31
0.0000000000000000
  7
STANDARD
  0
DIMENSION
  5
4F
100
AcDbEntity
  8
MAIN10
  6
CONTINUOUS
 62
3
100
AcDbDimension
  2
*D0
 10
516.6516227264851
 20
234.3930283711150
 30
0.0000000000000000
 11
516.1516227264851
 21
223.8930283711150
 31
0.0000000000000000
 70
32
  1
\A1;\U+220521H8
  3
MAIN001
100
AcDbAlignedDimension
 13
500.7855973230602
 23
213.3930283711150
 33
0.0000000000000000
 14
500.7855973230602
 24
234.3930283711150
 34
0.0000000000000000
 50
90.00000000000000
100
AcDbRotatedDimension
1001
ACAD
1000
DSTYLE
1002
{
1070
   173
1070
     1
1070
     6
1000
_OPEN
1070
     7
1000
_OPEN
1070
    41
1040
2.000000
1002
}
  0
DIMENSION
  5
58
100
AcDbEntity
  8
MAIN10
  6
CONTINUOUS
 62
3
100
AcDbDimension
  2
*D1
 10
526.6516227264851
 20
238.8930283711150
 30
0.0000000000000000
 11
526.1516227264851
 21
223.8930283711150
 31
0.0000000000000000
 70
32
  1
\A1;\U+220530
  3
MAIN001
100
AcDbAlignedDimension
 13
482.7855973224578
 23
208.8930283711150
 33
0.0000000000000000
 14
482.7855973224577
 24
238.8930283711150
 34
0.0000000000000000
 50
90.00000000000000
100
AcDbRotatedDimension
1001
ACAD
1000
DSTYLE
1002
{
1070
   173
1070
     1
1070
     6
1000
_OPEN
1070
     7
1000
_OPEN
1070
    41
1040
2.000000
1002
}
  0
DIMENSION
  5
61
100
AcDbEntity
  8
MAIN10
  6
CONTINUOUS
 62
3
100
AcDbDimension
  2
*D2
 10
536.6516227264851
 20
191.3930283711150
 30
0.0000000000000000
 11
536.1516227264851
 21
223.8930283711150
 31
0.0000000000000000
 70
32
  1
\A1;\U+220565h7
  3
MAIN001
100
AcDbAlignedDimension
 13
460.1516227264850
 23
256.3930283711149
 33
0.0000000000000000
 14
460.1516227264850
 24
191.3930283711150
 34
0.0000000000000000
 50
90.00000000000000
100
AcDbRotatedDimension
1001
ACAD
1000
DSTYLE
1002
{
1070
   173
1070
     1
1070
     6
1000
_OPEN
1070
     7
1000
_OPEN
1070
    41
1040
2.000000
1002
}
  0
DIMENSION
  5
6A
100
AcDbEntity
  8
MAIN10
  6
CONTINUOUS
 62
3
100
AcDbDimension
  2
*D3
 10
556.6516227264851
 20
171.8930283711151
 30
0.0000000000000000
 11
556.1516227264851
 21
223.8930283711150
 31
0.0000000000000000
 70
32
  1
\A1;\U+2205104
  3
MAIN001
100
AcDbAlignedDimension
 13
453.6516227264850
 23
275.8930283711150
 33
0.0000000000000000
 14
453.6516227264850
 24
171.8930283711151
 34
0.0000000000000000
 50
90.00000000000000
100
AcDbRotatedDimension
1001
ACAD
1000
DSTYLE
1002
{
1070
   173
1070
     1
1070
     6
1000
_OPEN
1070
     7
1000
_OPEN
1070
    41
1040
2.000000
1002
}
  0
DIMENSION
  5
75
100
AcDbEntity
  8
MAIN10
  6
CONTINUOUS
 62
3
100
AcDbDimension
  2
*D4
 10
496.6516227264851
 20
247.1775439492618
 30
0.0000000000000000
 11
499.1516227264851
 21
247.6775439492618
 31
0.0000000000000000
 70
32
  3
MAIN001
100
AcDbAlignedDimension
 13
501.6516227264850
 23
237.3930283711150
 33
0.0000000000000000
 14
496.6516227264850
 24
234.3930283711150
 34
0.0000000000000000
100
AcDbRotatedDimension
1001
ACAD
1000
DSTYLE
1002
{
1070
   173
1070
     1
1070
     6
1000
_OPEN
1070
     7
1000
_OPEN
1070
    41
1040
2.000000
1070
   287
1070
     0
1002
}
  0
DIMENSION
  5
7E
100
AcDbEntity
  8
MAIN10
  6
CONTINUOUS
 62
3
100
AcDbDimension
  2
*D5
 10
469.6516227264851
 20
265.2340159201951
 30
0.0000000000000000
 11
485.6516227264851
 21
265.7340159201951
 31
0.0000000000000000
 70
32
  3
MAIN001
100
AcDbAlignedDimension
 13
501.6516227264850
 23
237.3930283711150
 33
0.0000000000000000
 14
469.6516227264851
 24
233.8930283711150
 34
0.0000000000000000
100
AcDbRotatedDimension
1001
ACAD
1000
DSTYLE
1002
{
1070
   173
1070
     1
1070
     6
1000
_OPEN
1070
     7
1000
_OPEN
1070
    41
1040
2.000000
1002
}
  0
LEADER
  5
7F
100
AcDbEntity
  8
MAIN0
  6
CONTINUOUS
 62
3
100
AcDbLeader
  3
MAIN001
 73
     0
 74
     0
 75
     1
 40
3.099999904632568
 41
7.991000247955299
 76
     3
 10
478.0093799991976
 20
213.8930283711150
 30
0.0000000000000000
 10
486.5563783963707
 20
196.6229672789452
 30
0.0000000000000000
 10
488.4813783405808
 20
196.6229672789452
 30
0.0000000000000000
340
80
213
0.0000000000000000
223
-0.5000000000000000
233
0.0000000000000000
1001
ACAD
1000
DSTYLE
1002
{
1070
   147
1040
0.0
1070
    77
1070
     1
1070
   173
1070
     1
1070
     6
1000
_OPEN
1070
     7
1000
_OPEN
1002
}
  0
MTEXT
  5
80
102
{ACAD_REACTORS
330
7F
102
}
100
AcDbEntity
  8
MAIN0
  6
CONTINUOUS
 62
3
100
AcDbMText
 10
488.4823783405807
 20
200.2229671835778
 30
0.0000000000000000
 40
3.099999904632568
 41
0.0000000000000000
 71
     1
 72
     1
  1
{\H0.90x;{M20}}
 11
1.000000000000000
 21
0.0000000000000000
 31
0.0000000000000000
  7
STANDARD
  0
DIMENSION
  5
89
100
AcDbEntity
  8
MAIN10
  6
CONTINUOUS
 62
3
100
AcDbDimension
  2
*D6
 10
322.6516227264854
 20
153.8930283711150
 30
0.0000000000000000
 11
389.1516227264852
 21
154.3930283711150
 31
0.0000000000000000
 70
32
  3
MAIN001
100
AcDbAlignedDimension
 13
455.6516227264850
 23
173.8930283711151
 33
0.0000000000000000
 14
322.6516227264854
 24
170.7584140717520
 34
0.0000000000000000
100
AcDbRotatedDimension
1001
ACAD
1000
DSTYLE
1002
{
1070
   173
1070
     1
1070
     6
1000
_OPEN
1070
     7
1000
_OPEN
1070
    41
1040
2.000000
1002
}
  0
LEADER
  5
8A
100
AcDbEntity
  8
MAIN0
  6
CONTINUOUS
 62
3
100
AcDbLeader
  3
MAIN001
 73
     0
 74
     0
 75
     1
 40
3.099999904632568
 41
19.84100056982038
 76
     3
 10
455.6516227264850
 20
178.8930283711151
 30
0.0000000000000000
 10
470.4369647966262
 20
156.1261405066003
 30
0.0000000000000000
 10
472.3619647408362
 20
156.1261405066003
 30
0.0000000000000000
340
8B
213
0.0000000000000000
223
-0.5000000000000000
233
0.0000000000000000
1001
ACAD
1000
DSTYLE
1002
{
1070
   147
1040
0.0
1070
    77
1070
     1
1070
   173
1070
     1
1070
     6
1000
_OPEN
1070
     7
1000
_OPEN
1002
}
  0
MTEXT
  5
8B
102
{ACAD_REACTORS
330
8A
102
}
100
AcDbEntity
  8
MAIN0
  6
CONTINUOUS
 62
3
100
AcDbMText
 10
472.3629647408362
 20
159.7261404112329
 30
0.0000000000000000
 40
3.099999904632568
 41
0.0000000000000000
 71
     1
 72
     1
  1
{\H0.93x;{6-M6×20}}
 11
1.000000000000000
 21
0.0000000000000000
 31
0.0000000000000000
  7
KNJYOKO
  0
LEADER
  5
8C
100
AcDbEntity
  8
MAIN0
  6
CONTINUOUS
 62
3
100
AcDbLeader
  3
MAIN001
 73
     0
 75
     1
 40
3.099999904632568
 41
13.56900041008004
 76
     3
 10
316.1688484223300
 20
181.9562506381394
 30
0.0000000000000000
 10
298.6516227264852
 20
153.8930283711150
 30
0.0000000000000000
 10
296.7246227822752
 20
153.8930283711150
 30
0.0000000000000000
340
8D
213
0.0000000000000000
223
-0.5000000000000000
233
0.0000000000000000
1001
ACAD
1000
DSTYLE
1002
{
1070
   147
1040
0.0
1070
    77
1070
     1
1070
   173
1070
     1
1070
     6
1000
_OPEN
1070
     7
1000
_OPEN
1002
}
  0
MTEXT
  5
8D
102
{ACAD_REACTORS
330
8C
102
}
100
AcDbEntity
  8
MAIN0
  6
CONTINUOUS
 62
3
100
AcDbMText
 10
283.1556223721951
 20
157.4930282757476
 30
0.0000000000000000
 40
3.099999904632568
 41
0.0000000000000000
 71
     1
 72
     1
  1
{\H0.92x;{Rc1/4}}
 11
1.000000000000000
 21
0.0000000000000000
 31
0.0000000000000000
  7
STANDARD
  0
LEADER
  5
8E
100
AcDbEntity
  8
MAIN0
  6
CONTINUOUS
 62
3
100
AcDbLeader
  3
MAIN001
 73
     0
 74
     0
 75
     1
 40
3.099999904632568
 41
19.15100057220462
 76
     3
 10
332.3185725015043
 20
245.3736059121534
 30
0.0000000000000000
 10
353.6516227264852
 20
288.8930283711150
 30
0.0000000000000000
 10
355.5766226706953
 20
288.8930283711150
 30
0.0000000000000000
340
8F
213
0.0000000000000000
223
-0.5000000000000000
233
0.0000000000000000
1001
ACAD
1000
DSTYLE
1002
{
1070
   147
1040
0.0
1070
    77
1070
     1
1070
   173
1070
     1
1070
     6
1000
_OPEN
1070
     7
1000
_OPEN
1002
}
  0
MTEXT
  5
8F
102
{ACAD_REACTORS
330
8E
102
}
100
AcDbEntity
  8
MAIN0
  6
CONTINUOUS
 62
3
100
AcDbMText
 10
355.5776226706952
 20
292.4930282757476
 30
0.0000000000000000
 40
3.099999904632568
 41
0.0000000000000000
 71
     1
 72
     1
  1
{\H0.92x;{2-Rc3/8}}
 11
1.000000000000000
 21
0.0000000000000000
 31
0.0000000000000000
  7
STANDARD
  0
LINE
  5
90
100
AcDbEntity
  8
MAIN0
  6
CENTER
 62
3
100
AcDbLine
 10
267.1516227264850
 20
227.7562573841302
 30
0.0000000000000000
 11
267.1516227264850
 21
246.4059538027253
 31
0.0000000000000000
  0
DIMENSION
  5
99
100
AcDbEntity
  8
MAIN10
  6
CONTINUOUS
 62
1
100
AcDbDimension
  2
*D7
 10
455.6516227264850
 20
313.8930283711150
 30
0.0000000000000000
 11
422.6516227264852
 21
314.3930283711150
 31
0.0000000000000000
 70
32
  3
MAIN001
100
AcDbAlignedDimension
 13
389.6516227264855
 23
274.8930282093571
 33
0.0000000000000000
 14
455.6516227264850
 24
273.8930283711150
 34
0.0000000000000000
100
AcDbRotatedDimension
1001
ACAD
1000
DSTYLE
1002
{
1070
   173
1070
     1
1070
     6
1000
_OPEN
1070
     7
1000
_OPEN
1070
    41
1040
2.000000
1002
}
  0
DIMENSION
  5
A2
100
AcDbEntity
  8
MAIN10
  6
CONTINUOUS
 62
1
100
AcDbDimension
  2
*D8
 10
389.6516227264855
 20
313.8930283711150
 30
0.0000000000000000
 11
323.1516227264854
 21
314.3930283711150
 31
0.0000000000000000
 70
160
  3
MAIN001
100
AcDbAlignedDimension
 13
228.6516227264858
 23
266.8930283711149
 33
0.0000000000000000
 14
389.6516227264855
 24
274.8930282093571
 34
0.0000000000000000
100
AcDbRotatedDimension
1001
ACAD
1000
DSTYLE
1002
{
1070
   173
1070
     1
1070
     6
1000
_OPEN
1070
     7
1000
_OPEN
1070
    41
1040
2.000000
1002
}
  0
DIMENSION
  5
AB
100
AcDbEntity
  8
MAIN10
  6
CONTINUOUS
 62
3
100
AcDbDimension
  2
*D9
 10
455.6516227264850
 20
323.8930283711150
 30
0.0000000000000000
 11
323.1516227264854
 21
324.3930283711150
 31
0.0000000000000000
 70
160
  3
MAIN001
100
AcDbAlignedDimension
 13
228.6516227264858
 23
266.8930283711149
 33
0.0000000000000000
 14
455.6516227264850
 24
273.8930283711150
 34
0.0000000000000000
100
AcDbRotatedDimension
1001
ACAD
1000
DSTYLE
1002
{
1070
   173
1070
     1
1070
     6
1000
_OPEN
1070
     7
1000
_OPEN
1070
    41
1040
2.000000
1002
}
  0
DIMENSION
  5
B6
100
AcDbEntity
  8
MAIN10
  6
CONTINUOUS
 62
3
100
AcDbDimension
  2
*D10
 10
455.6516227264850
 20
313.8930283711150
 30
0.0000000000000000
 11
458.1516227264850
 21
314.3930283711150
 31
0.0000000000000000
 70
32
  3
MAIN001
100
AcDbAlignedDimension
 13
460.6516227264850
 23
255.8930283711149
 33
0.0000000000000000
 14
455.6516227264850
 24
273.8930283711150
 34
0.0000000000000000
100
AcDbRotatedDimension
1001
ACAD
1000
DSTYLE
1002
{
1070
   173
1070
     1
1070
     6
1000
_OPEN
1070
     7
1000
_OPEN
1070
    41
1040
2.000000
1070
   287
1070
     0
1002
}
  0
DIMENSION
  5
BF
100
AcDbEntity
  8
MAIN10
  6
CONTINUOUS
 62
3
100
AcDbDimension
  2
*D11
 10
455.6516227264850
 20
323.8930283711150
 30
0.0000000000000000
 11
478.6516227264850
 21
324.3930283711150
 31
0.0000000000000000
 70
32
  1
\A1;MAX 46
  3
MAIN001
100
AcDbAlignedDimension
 13
501.6516227264850
 23
237.3930283711150
 33
0.0000000000000000
 14
455.6516227264850
 24
273.8930283711150
 34
0.0000000000000000
100
AcDbRotatedDimension
1001
ACAD
1000
DSTYLE
1002
{
1070
   173
1070
     1
1070
     6
1000
_OPEN
1070
     7
1000
_OPEN
1070
    41
1040
2.000000
1002
}
  0
SPLINE
  5
C0
100
AcDbEntity
  8
MAIN0
  6
CONTINUOUS
 62
3
100
AcDbSpline
210
0.0000000000000000
220
0.0000000000000000
230
1.000000000000000
 70
     8
 71
     3
 72
    13
 73
     9
 74
     0
 42
1.000000000000000e-007
 43
1.000000000000000e-007
 12
-0.2654860024633194
 22
-0.9646839537668370
 32
0.0000000000000000
 13
0.3177900448703781
 23
-0.9467543361996320
 33
0.0000000000000000
 40
0.0000000000000000
 40
0.0000000000000000
 40
0.0000000000000000
 40
0.0000000000000000
 40
3.478126901140342
 40
12.29703663821418
 40
22.83738834246636
 40
30.51085621949750
 40
38.41897280604561
 40
42.94576359147035
 40
42.94576359147035
 40
42.94576359147035
 40
42.94576359147035
 10
460.6516227264850
 20
244.2308752335171
 30
0.0000000000000000
 10
460.3438247241371
 20
243.1124441632854
 30
0.0000000000000000
 10
459.2555943577288
 20
239.1581928553627
 30
0.0000000000000000
 10
454.4302568633881
 20
232.6876639527755
 30
0.0000000000000000
 10
456.1569320973393
 20
223.2540436728837
 30
0.0000000000000000
 10
456.7741815645279
 20
214.6503240669888
 30
0.0000000000000000
 10
458.8548697869792
 20
208.2101925722965
 30
0.0000000000000000
 10
460.1720997108787
 20
204.2859250807444
 30
0.0000000000000000
 10
460.6516227264850
 20
202.8573388123546
 30
0.0000000000000000
  0
SPLINE
  5
C1
100
AcDbEntity
  8
MAIN0
  6
CONTINUOUS
 62
3
100
AcDbSpline
210
0.0000000000000000
220
0.0000000000000000
230
1.000000000000000
 70
     8
 71
     3
 72
    29
 73
    25
 74
     0
 42
1.000000000000000e-007
 43
1.000000000000000e-007
 12
-0.2456726535104394
 22
-0.9738671338823792
 32
0.0000000000000000
 13
0.1372642928719472
 23
-0.9970276883438274
 33
0.0000000000000000
 40
0.0000000000000000
 40
0.0000000000000000
 40
0.0000000000000000
 40
0.0000000000000000
 40
4.831381144179904
 40
10.88442877897408
 40
14.20784677035206
 40
17.57680854704798
 40
20.62527225280230
 40
22.19868736932243
 40
25.95263269368429
 40
29.31026043632180
 40
32.45708143535332
 40
35.44242766824682
 40
39.75362171907185
 40
43.28808522961889
 40
47.81474411040603
 40
54.06285610094707
 40
59.33574130778827
 40
63.64692811299596
 40
67.55496763913205
 40
73.17402675359504
 40
77.87405944240611
 40
82.99672798012091
 40
90.50461185579756
 40
100.6802913394233
 40
100.6802913394233
 40
100.6802913394233
 40
100.6802913394233
 10
291.7713851371610
 20
267.8930283711149
 30
0.0000000000000000
 10
291.3757390618907
 20
266.3246539352563
 30
0.0000000000000000
 10
290.4844035618655
 20
262.7913247822809
 30
0.0000000000000000
 10
290.7197788063429
 20
258.0023032519936
 30
0.0000000000000000
 10
290.3941663360147
 20
253.8010748472081
 30
0.0000000000000000
 10
290.2040404628370
 20
250.4576864434865
 30
0.0000000000000000
 10
288.3402926328561
 20
248.2944142957234
 30
0.0000000000000000
 10
285.8533922036738
 20
247.0222974767971
 30
0.0000000000000000
 10
283.2988807965485
 20
245.7018729945871
 30
0.0000000000000000
 10
280.2925266960588
 20
243.9111275393746
 30
0.0000000000000000
 10
278.7239913354683
 20
241.0010882276931
 30
0.0000000000000000
 10
278.2501638567101
 20
237.5504305811790
 30
0.0000000000000000
 10
277.7157602486692
 20
233.9478086428960
 30
0.0000000000000000
 10
278.3468147849785
 20
229.8475480051758
 30
0.0000000000000000
 10
279.1621987489501
 20
225.1341613738664
 30
0.0000000000000000
 10
278.6154453405758
 20
219.7607994216845
 30
0.0000000000000000
 10
278.6066621334654
 20
214.5134473104364
 30
0.0000000000000000
 10
278.1085183884094
 20
209.9570607627398
 30
0.0000000000000000
 10
277.6996586849973
 20
205.6638877946983
 30
0.0000000000000000
 10
278.7431562498811
 20
199.3433606415510
 30
0.0000000000000000
 10
285.2059802096313
 20
201.4438483438777
 30
0.0000000000000000
 10
288.7714326757129
 20
195.5858404600232
 30
0.0000000000000000
 10
288.9354280673652
 20
188.1518405346797
 30
0.0000000000000000
 10
289.7445353406888
 20
182.2748397687441
 30
0.0000000000000000
 10
290.2101211569593
 20
178.8930283711151
 30
0.0000000000000000
  0
SPLINE
  5
C2
100
AcDbEntity
  8
MAIN0
  6
CONTINUOUS
 62
3
100
AcDbSpline
210
0.0000000000000000
220
0.0000000000000000
230
1.000000000000000
 70
     8
 71
     3
 72
    15
 73
    11
 74
     0
 42
1.000000000000000e-007
 43
1.000000000000000e-007
 12
-0.9330699145826884
 22
-0.3662618375115017
 32
0.0000000000000000
 13
-0.3775329790305477
 23
-0.9304767934414713
 33
0.0000000000000000
 40
0.0000000000000000
 40
0.0000000000000000
 40
0.0000000000000000
 40
0.0000000000000000
 40
2.305634486532294
 40
9.168700836463932
 40
16.14473754251372
 40
22.16403377958810
 40
29.11155140085235
 40
34.59811409053546
 40
39.33457583695747
 40
40.25938068605024
 40
40.25938068605024
 40
40.25938068605024
 40
40.25938068605024
 10
455.6516227264850
 20
188.8308096271817
 30
0.0000000000000000
 10
454.9345166686824
 20
188.5493209859592
 30
0.0000000000000000
 10
452.0828370332444
 20
187.4299392473070
 30
0.0000000000000000
 10
446.6270238374076
 20
187.0406201498261
 30
0.0000000000000000
 10
440.1823469307848
 20
185.9612370937882
 30
0.0000000000000000
 10
433.2177932362330
 20
186.1741553294990
 30
0.0000000000000000
 10
428.4324009244503
 20
182.1338552831261
 30
0.0000000000000000
 10
423.5856436054544
 20
178.0553867597632
 30
0.0000000000000000
 10
424.6974324763523
 20
173.9357572508332
 30
0.0000000000000000
 10
423.9849941953884
 20
172.1798648546294
 30
0.0000000000000000
 10
423.8686127521550
 20
171.8930283711151
 30
0.0000000000000000
  0
ARC
  5
C3
100
AcDbEntity
  8
MAIN0
  6
CONTINUOUS
 62
3
100
AcDbCircle
 10
299.3218144091044
 20
269.8622253045193
 30
0.0000000000000000
 40
50.00000000000000
100
AcDbArc
 50
336.5282022431862
 51
354.2963039588780
  0
LINE
  5
C4
100
AcDbEntity
  8
MAIN0
  6
CONTINUOUS
 62
3
100
AcDbLine
 10
349.6516227264856
 20
183.8930283711153
 30
0.0000000000000000
 11
349.6516227264856
 21
263.8930283711145
 31
0.0000000000000000
  0
ARC
  5
C5
100
AcDbEntity
  8
MAIN0
  6
CONTINUOUS
 62
3
100
AcDbCircle
 10
271.4355968818393
 20
223.8930283711149
 30
0.0000000000000000
 40
78.21602584464620
100
AcDbArc
 50
340.5425255662330
 51
379.4574744337668
  0
ARC
  5
C6
100
AcDbEntity
  8
MAIN0
  6
CONTINUOUS
 62
3
100
AcDbCircle
 10
299.3218144091043
 20
177.9238314377109
 30
0.0000000000000000
 40
50.00000000000000
100
AcDbArc
 50
5.703696041121529
 51
23.47179775681351
  0
LINE
  5
C7
100
AcDbEntity
  8
MAIN0
  6
CONTINUOUS
 62
3
100
AcDbLine
 10
304.1186192264852
 20
197.8387126124376
 30
0.0000000000000000
 11
345.1846262264854
 21
197.8387126124376
 31
0.0000000000000000
  0
LINE
  5
C8
100
AcDbEntity
  8
MAIN0
  6
CONTINUOUS
 62
3
100
AcDbLine
 10
312.5014948264852
 20
249.9473441297923
 30
0.0000000000000000
 11
345.1846262264854
 21
249.9473441297923
 31
0.0000000000000000
  0
LINE
  5
C9
100
AcDbEntity
  8
MAIN0
  6
CENTER
 62
12
100
AcDbLine
 10
328.6516227264853
 20
251.2240283711150
 30
0.0000000000000000
 11
328.6516227264852
 21
224.5620283711150
 31
0.0000000000000000
  0
LINE
  5
CA
100
AcDbEntity
  8
MAIN0
  6
CENTER
 62
12
100
AcDbLine
 10
315.3206227264854
 20
237.8930283711150
 30
0.0000000000000000
 11
341.9826227264854
 21
237.8930283711150
 31
0.0000000000000000
  0
CIRCLE
  5
CB
100
AcDbEntity
  8
MAIN0
  6
CONTINUOUS
 62
3
100
AcDbCircle
 10
328.6516227264854
 20
237.8930283711150
 30
0.0000000000000000
 40
7.474999999999998
  0
CIRCLE
  5
CC
100
AcDbEntity
  8
MAIN0
  6
CONTINUOUS
 62
12
100
AcDbCircle
 10
328.6516227264854
 20
237.8930283711150
 30
0.0000000000000000
 40
8.330999999999998
  0
LINE
  5
CD
100
AcDbEntity
  8
MAIN0
  6
CENTER
 62
12
100
AcDbLine
 10
304.3206227264854
 20
209.8930283711150
 30
0.0000000000000000
 11
330.9826227264854
 21
209.8930283711150
 31
0.0000000000000000
  0
LINE
  5
CE
100
AcDbEntity
  8
MAIN0
  6
CENTER
 62
12
100
AcDbLine
 10
317.6516227264852
 20
223.2240283711150
 30
0.0000000000000000
 11
317.6516227264852
 21
196.5620283711150
 31
0.0000000000000000
  0
CIRCLE
  5
CF
100
AcDbEntity
  8
MAIN0
  6
CONTINUOUS
 62
3
100
AcDbCircle
 10
317.6516227264854
 20
209.8930283711150
 30
0.0000000000000000
 40
7.474999999999998
  0
CIRCLE
  5
D0
100
AcDbEntity
  8
MAIN0
  6
CONTINUOUS
 62
12
100
AcDbCircle
 10
317.6516227264854
 20
209.8930283711150
 30
0.0000000000000000
 40
8.330999999999998
  0
ARC
  5
D1
100
AcDbEntity
  8
MAIN0
  6
CONTINUOUS
 62
3
100
AcDbCircle
 10
239.5560445375543
 20
221.7213997143250
 30
0.0000000000000000
 40
78.21599999999995
100
AcDbArc
 50
21.15374252409700
 51
27.94541854805983
  0
LINE
  5
D2
100
AcDbEntity
  8
MAIN0
  6
CONTINUOUS
 62
3
100
AcDbLine
 10
308.6516227264854
 20
236.6109960683596
 30
0.0000000000000000
 11
312.5014948264854
 21
249.9473441297925
 31
0.0000000000000000
  0
LINE
  5
D3
100
AcDbEntity
  8
MAIN0
  6
CONTINUOUS
 62
3
100
AcDbLine
 10
308.6516227264854
 20
258.3757818634936
 30
0.0000000000000000
 11
308.6516227264854
 21
236.6109960683597
 31
0.0000000000000000
  0
LINE
  5
D4
100
AcDbEntity
  8
MAIN0
  6
CONTINUOUS
 62
3
100
AcDbLine
 10
301.3186976940417
 20
258.3757818634936
 30
0.0000000000000000
 11
308.6516227264854
 21
258.3757818634936
 31
0.0000000000000000
  0
ARC
  5
D5
100
AcDbEntity
  8
MAIN0
  6
CONTINUOUS
 62
3
100
AcDbCircle
 10
349.9814310438662
 20
269.8622253045201
 30
0.0000000000000000
 40
50.00000000000000
100
AcDbArc
 50
185.7036960411226
 51
193.2811096523984
  0
ARC
  5
D6
100
AcDbEntity
  8
MAIN0
  6
CONTINUOUS
 62
3
100
AcDbCircle
 10
384.2729655588596
 20
245.0977805015766
 30
0.0000000000000000
 40
84.01021293363669
100
AcDbArc
 50
170.9061413644370
 51
185.7979594798232
  0
ARC
  5
D7
100
AcDbEntity
  8
MAIN0
  6
CONTINUOUS
 62
3
100
AcDbCircle
 10
377.8676485711317
 20
223.8930283711150
 30
0.0000000000000000
 40
78.21602584464625
100
AcDbArc
 50
170.6421270324403
 51
199.4574744337666
  0
LINE
  5
D8
100
AcDbEntity
  8
MAIN0
  6
CONTINUOUS
 62
3
100
AcDbLine
 10
300.6925241457645
 20
236.6109960683597
 30
0.0000000000000000
 11
308.6516227264854
 21
236.6109960683597
 31
0.0000000000000000
  0
ARC
  5
D9
100
AcDbEntity
  8
MAIN0
  6
CONTINUOUS
 62
3
100
AcDbCircle
 10
349.9814310438662
 20
177.9238314377099
 30
0.0000000000000000
 40
50.00000000000000
100
AcDbArc
 50
156.5282022431852
 51
174.2963039588770
  0
ARC
  5
DA
100
AcDbEntity
  8
MAIN0
  6
CONTINUOUS
 62
3
100
AcDbCircle
 10
322.6516227264854
 20
123.7660463747409
 30
0.0000000000000000
 40
60.99999999999625
100
AcDbArc
 50
76.34136644349999
 51
103.6817072922514
  0
LINE
  5
DB
100
AcDbEntity
  8
MAIN0
  6
CONTINUOUS
 62
3
100
AcDbLine
 10
299.6516227264854
 20
183.8930283710312
 30
0.0000000000000000
 11
299.6516227264854
 21
263.8930283711147
 31
0.0000000000000000
  0
LINE
  5
DC
100
AcDbEntity
  8
MAIN0
  6
CENTER
 62
12
100
AcDbLine
 10
239.6516227264858
 20
263.8930283711149
 30
0.0000000000000000
 11
239.6516227264858
 21
277.0930283711149
 31
0.0000000000000000
  0
LINE
  5
DD
100
AcDbEntity
  8
MAIN0
  6
CENTER
 62
12
100
AcDbLine
 10
280.6516227264847
 20
263.8930283711149
 30
0.0000000000000000
 11
280.6516227264847
 21
277.0930283711149
 31
0.0000000000000000
  0
DIMENSION
  5
E6
100
AcDbEntity
  8
MAIN10
  6
CONTINUOUS
 62
3
100
AcDbDimension
  2
*D12
 10
455.6516227264850
 20
303.8930283711150
 30
0.0000000000000000
 11
395.2331843950417
 21
304.3930283711150
 31
0.0000000000000000
 70
160
  3
MAIN001
100
AcDbAlignedDimension
 13
328.6516227264853
 23
251.2240283711150
 33
0.0000000000000000
 14
455.6516227264850
 24
273.8930283711150
 34
0.0000000000000000
100
AcDbRotatedDimension
1001
ACAD
1000
DSTYLE
1002
{
1070
   173
1070
     1
1070
     6
1000
_OPEN
1070
     7
1000
_OPEN
1070
    41
1040
2.000000
1002
}
  0
DIMENSION
  5
EF
100
AcDbEntity
  8
MAIN10
  6
CONTINUOUS
 62
3
100
AcDbDimension
  2
*D13
 10
328.6516227264853
 20
303.8930283711150
 30
0.0000000000000000
 11
323.1516227264853
 21
304.3930283711150
 31
0.0000000000000000
 70
32
  3
MAIN001
100
AcDbAlignedDimension
 13
317.6516227264852
 23
223.2240283711150
 33
0.0000000000000000
 14
328.6516227264853
 24
251.2240283711150
 34
0.0000000000000000
100
AcDbRotatedDimension
1001
ACAD
1000
DSTYLE
1002
{
1070
   173
1070
     1
1070
     6
1000
_OPEN
1070
     7
1000
_OPEN
1070
    41
1040
2.000000
1002
}
  0
LINE
  5
F0
100
AcDbEntity
  8
MAIN0
  6
CENTER
 62
12
100
AcDbLine
 10
302.6516227264857
 20
267.8930283711149
 30
0.0000000000000000
 11
302.6516227264857
 21
268.3930283711149
 31
0.0000000000000000
  0
LINE
  5
F1
100
AcDbEntity
  8
MAIN0
  6
CENTER
 62
12
100
AcDbLine
 10
293.2212613774610
 20
268.3930283711149
 30
0.0000000000000000
 11
302.6516227264857
 21
268.3930283711149
 31
0.0000000000000000
  0
LINE
  5
F2
100
AcDbEntity
  8
MAIN0
  6
CENTER
 62
12
100
AcDbLine
 10
294.1798259567610
 20
267.8930283711149
 30
0.0000000000000000
 11
302.6516227264857
 21
267.8930283711149
 31
0.0000000000000000
  0
LINE
  5
F3
100
AcDbEntity
  8
MAIN0
  6
CENTER
 62
12
100
AcDbLine
 10
301.6516227264859
 20
268.3930283711149
 30
0.0000000000000000
 11
301.6516227264859
 21
272.0930283711149
 31
0.0000000000000000
  0
LINE
  5
F4
100
AcDbEntity
  8
MAIN0
  6
CENTER
 62
12
100
AcDbLine
 10
293.2212613774610
 20
272.0930283711149
 30
0.0000000000000000
 11
301.6516227264859
 21
272.0930283711149
 31
0.0000000000000000
  0
LINE
  5
F5
100
AcDbEntity
  8
MAIN0
  6
CENTER
 62
12
100
AcDbLine
 10
293.2212613774610
 20
268.8930283711149
 30
0.0000000000000000
 11
301.6516227264859
 21
268.8930283711149
 31
0.0000000000000000
  0
DIMENSION
  5
FE
100
AcDbEntity
  8
MAIN10
  6
CONTINUOUS
 62
3
100
AcDbDimension
  2
*D14
 10
317.6516227264852
 20
303.8930283711150
 30
0.0000000000000000
 11
310.1516227264855
 21
304.3930283711150
 31
0.0000000000000000
 70
32
  1
\A1;MIN 15
  3
MAIN001
100
AcDbAlignedDimension
 13
302.6516227264857
 23
268.3930283711149
 33
0.0000000000000000
 14
317.6516227264852
 24
223.2240283711150
 34
0.0000000000000000
100
AcDbRotatedDimension
1001
ACAD
1000
DSTYLE
1002
{
1070
   173
1070
     1
1070
     6
1000
_OPEN
1070
     7
1000
_OPEN
1070
    41
1040
2.000000
1002
}
  0
MTEXT
  5
FF
100
AcDbEntity
  8
MAIN0
  6
CONTINUOUS
 62
3
100
AcDbMText
 10
303.4726751669338
 20
216.8902475256360
 30
0.0000000000000000
 40
3.099999904632568
 41
0.0000000000000000
 71
     1
 72
     1
  1
{\H0.84x;{Ａ}}
 11
1.000000000000000
 21
0.0000000000000000
 31
0.0000000000000000
  7
KNJYOKO
  0
MTEXT
  5
100
100
AcDbEntity
  8
MAIN0
  6
CONTINUOUS
 62
3
100
AcDbMText
 10
339.4193873016223
 20
244.9102509610938
 30
0.0000000000000000
 40
3.099999904632568
 41
0.0000000000000000
 71
     1
 72
     1
  1
{\H0.84x;{Ｂ}}
 11
1.000000000000000
 21
0.0000000000000000
 31
0.0000000000000000
  7
KNJYOKO
  0
DIMENSION
  5
108
100
AcDbEntity
  8
MAIN10
  6
CONTINUOUS
 62
3
100
AcDbDimension
  2
*D15
 10
340.7020742255706
 20
237.8930283711150
 30
0.0000000000000000
 11
340.2020742255706
 21
223.8930283711150
 31
0.0000000000000000
 70
32
  3
MAIN001
100
AcDbAlignedDimension
 13
330.9826227264854
 23
209.8930283711150
 33
0.0000000000000000
 14
341.9826227264854
 24
237.8930283711150
 34
0.0000000000000000
 50
90.00000000000000
100
AcDbRotatedDimension
1001
ACAD
1000
DSTYLE
1002
{
1070
   173
1070
     1
1070
     6
1000
_OPEN
1070
     7
1000
_OPEN
1070
    41
1040
2.000000
1002
}
  0
LINE
  5
109
100
AcDbEntity
  8
MAIN0
  6
CENTER
 62
12
100
AcDbLine
 10
216.9097158266421
 20
223.8930283711150
 30
0.0000000000000000
 11
335.6020743209380
 21
223.8930283711150
 31
0.0000000000000000
  0
LINE
  5
10A
100
AcDbEntity
  8
MAIN0
  6
CENTER
 62
12
100
AcDbLine
 10
341.7020742255706
 20
223.8930283711150
 30
0.0000000000000000
 11
506.6516227264850
 21
223.8930283711150
 31
0.0000000000000000
  0
DIMENSION
  5
114
100
AcDbEntity
  8
MAIN10
  6
CONTINUOUS
 62
3
100
AcDbDimension
  2
*D16
 10
272.6516227264847
 20
256.8930283711150
 30
0.0000000000000000
 11
269.3297250771875
 21
257.3930283711150
 31
0.0000000000000000
 70
160
  3
MAIN001
100
AcDbAlignedDimension
 13
277.6516227264847
 23
253.8930283711143
 33
0.0000000000000000
 14
272.6516227264847
 24
253.8930283711143
 34
0.0000000000000000
100
AcDbRotatedDimension
1001
ACAD
1000
DSTYLE
1002
{
1070
   173
1070
     1
1070
     6
1000
_DOT
1070
     7
1000
_OPEN
1070
    41
1040
2.000000
1070
   287
1070
     0
1002
}
  0
DIMENSION
  5
11E
100
AcDbEntity
  8
MAIN10
  6
CONTINUOUS
 62
3
100
AcDbDimension
  2
*D17
 10
277.6516227264847
 20
256.8930283711150
 30
0.0000000000000000
 11
284.4207745901667
 21
257.3930283711150
 31
0.0000000000000000
 70
160
  3
MAIN001
100
AcDbAlignedDimension
 13
280.6516227264847
 23
263.8930283711149
 33
0.0000000000000000
 14
277.6516227264847
 24
253.8930283711143
 34
0.0000000000000000
100
AcDbRotatedDimension
1001
ACAD
1000
DSTYLE
1002
{
1070
   173
1070
     1
1070
     6
1000
_OPEN
1070
     7
1000
_DOT
1070
    41
1040
2.000000
1070
   287
1070
     0
1002
}
  0
LINE
  5
11F
100
AcDbEntity
  8
MAIN0
  6
CENTER
 62
3
100
AcDbLine
 10
80.37771659835408
 20
258.8930283711150
 30
0.0000000000000000
 11
88.40961844844168
 21
258.8930283711150
 31
0.0000000000000000
  0
LINE
  5
120
100
AcDbEntity
  8
MAIN0
  6
CENTER
 62
3
100
AcDbLine
 10
80.37771659835408
 20
188.8930283711150
 30
0.0000000000000000
 11
88.40961844844168
 21
188.8930283711150
 31
0.0000000000000000
  0
LINE
  5
121
100
AcDbEntity
  8
MAIN0
  6
CONTINUOUS
 62
3
100
AcDbLine
 10
84.65162272648584
 20
186.1430283711150
 30
0.0000000000000000
 11
83.65162272648584
 21
186.1430283711150
 31
0.0000000000000000
  0
LINE
  5
122
100
AcDbEntity
  8
MAIN0
  6
CONTINUOUS
 62
3
100
AcDbLine
 10
82.65162272648584
 20
187.1430283711150
 30
0.0000000000000000
 11
82.65162272648584
 21
190.6430283711150
 31
0.0000000000000000
  0
LINE
  5
123
100
AcDbEntity
  8
MAIN0
  6
CONTINUOUS
 62
3
100
AcDbLine
 10
83.65162272648584
 20
191.6430283711150
 30
0.0000000000000000
 11
84.65162272648584
 21
191.6430283711150
 31
0.0000000000000000
  0
ARC
  5
124
100
AcDbEntity
  8
MAIN0
  6
CONTINUOUS
 62
3
100
AcDbCircle
 10
83.65162272648584
 20
187.1430283711150
 30
0.0000000000000000
 40
1.000000000000000
100
AcDbArc
 50
180.0000000000000
 51
270.0000000000000
  0
ARC
  5
125
100
AcDbEntity
  8
MAIN0
  6
CONTINUOUS
 62
3
100
AcDbCircle
 10
83.65162272648584
 20
190.6430283711150
 30
0.0000000000000000
 40
1.000000000000000
100
AcDbArc
 50
90.00000000000000
 51
180.0000000000000
  0
DIMENSION
  5
12E
100
AcDbEntity
  8
MAIN10
  6
CONTINUOUS
 62
3
100
AcDbDimension
  2
*D18
 10
84.65162272648581
 20
142.8003123669743
 30
0.0000000000000000
 11
106.6516227264858
 21
143.3003123669743
 31
0.0000000000000000
 70
32
  3
MAIN001
100
AcDbAlignedDimension
 13
128.6516227264858
 23
169.9492369133548
 33
0.0000000000000000
 14
84.65162272648581
 24
184.8930283711151
 34
0.0000000000000000
100
AcDbRotatedDimension
1001
ACAD
1000
DSTYLE
1002
{
1070
   173
1070
     1
1070
     6
1000
_OPEN
1070
     7
1000
_OPEN
1070
    41
1040
2.000000
1002
}
  0
LINE
  5
12F
100
AcDbEntity
  8
MAIN0
  6
CONTINUOUS
 62
3
100
AcDbLine
 10
233.6516227264858
 20
268.8930283711149
 30
0.0000000000000000
 11
233.6516227264858
 21
272.0930283711149
 31
0.0000000000000000
  0
LINE
  5
130
100
AcDbEntity
  8
MAIN0
  6
CONTINUOUS
 62
3
100
AcDbLine
 10
234.1926227264858
 20
268.8930283711149
 30
0.0000000000000000
 11
234.1926227264858
 21
272.0930283711149
 31
0.0000000000000000
  0
LINE
  5
131
100
AcDbEntity
  8
MAIN0
  6
CONTINUOUS
 62
3
100
AcDbLine
 10
245.6516227264858
 20
268.8930283711149
 30
0.0000000000000000
 11
245.6516227264858
 21
272.0930283711149
 31
0.0000000000000000
  0
LINE
  5
132
100
AcDbEntity
  8
MAIN0
  6
CONTINUOUS
 62
3
100
AcDbLine
 10
245.1106227264858
 20
268.8930283711149
 30
0.0000000000000000
 11
245.1106227264858
 21
272.0930283711149
 31
0.0000000000000000
  0
LINE
  5
133
100
AcDbEntity
  8
MAIN0
  6
CONTINUOUS
 62
3
100
AcDbLine
 10
152.6516227264859
 20
268.8930283711148
 30
0.0000000000000000
 11
152.6516227264859
 21
272.0930283711148
 31
0.0000000000000000
  0
LINE
  5
134
100
AcDbEntity
  8
MAIN0
  6
CONTINUOUS
 62
3
100
AcDbLine
 10
104.6516227264859
 20
268.8930283711148
 30
0.0000000000000000
 11
104.6516227264859
 21
272.0930283711148
 31
0.0000000000000000
  0
LINE
  5
135
100
AcDbEntity
  8
MAIN0
  6
CONTINUOUS
 62
3
100
AcDbLine
 10
155.6227658967854
 20
267.1776380619414
 30
0.0000000000000000
 11
158.3940471888956
 21
268.7776380619414
 31
0.0000000000000000
  0
LINE
  5
136
100
AcDbEntity
  8
MAIN0
  6
CONTINUOUS
 62
3
100
AcDbLine
 10
179.6227658967854
 20
225.6084186802883
 30
0.0000000000000000
 11
182.3940471888956
 21
227.2084186802883
 31
0.0000000000000000
  0
LEADER
  5
137
100
AcDbEntity
  8
MAIN0
  6
CONTINUOUS
 62
3
100
AcDbLeader
  3
MAIN001
 73
     0
 74
     0
 75
     1
 40
3.099999904632568
 41
14.26100040769575
 76
     3
 10
245.6516227264858
 20
270.4930283711149
 30
0.0000000000000000
 10
256.6516227264851
 20
283.8930283711150
 30
0.0000000000000000
 10
258.5766226706951
 20
283.8930283711150
 30
0.0000000000000000
340
138
213
0.0000000000000000
223
-0.5000000000000000
233
0.0000000000000000
1001
ACAD
1000
DSTYLE
1002
{
1070
   147
1040
0.0
1070
    77
1070
     1
1070
   173
1070
     1
1070
     6
1000
_OPEN
1070
     7
1000
_OPEN
1002
}
  0
MTEXT
  5
138
102
{ACAD_REACTORS
330
137
102
}
100
AcDbEntity
  8
MAIN0
  6
CONTINUOUS
 62
3
100
AcDbMText
 10
258.5776226706951
 20
287.4930282757476
 30
0.0000000000000000
 40
3.099999904632568
 41
0.0000000000000000
 71
     1
 72
     1
  1
{\H0.92x;{M12×1}}
 11
1.000000000000000
 21
0.0000000000000000
 31
0.0000000000000000
  7
KNJYOKO
  0
INSERT
  5
140
100
AcDbEntity
  8
MAIN10
  6
CONTINUOUS
 62
3
100
AcDbBlockReference
  2
D19
 10
506.6516227264850
 20
223.8930283711150
 30
0.0000000000000000
 50
0.0000000000000000
  0
INSERT
  5
16B
100
AcDbEntity
  8
MAIN0
  6
CONTINUOUS
 62
3
100
AcDbBlockReference
  2
M0
 10
0.0000000000000000
 20
0.0000000000000000
 30
0.0000000000000000
 50
0.0000000000000000
  0
LEADER
  5
16C
100
AcDbEntity
  8
MAIN0
  6
CONTINUOUS
 62
3
100
AcDbLeader
  3
MAIN001
 73
     0
 74
     0
 75
     1
 40
3.099999904632568
 41
55.42100162601469
 76
     3
 10
226.6516227264851
 20
353.8930283711150
 30
0.0000000000000000
 10
256.6516227264851
 20
373.8930283711150
 30
0.0000000000000000
 10
258.5766226706951
 20
373.8930283711150
 30
0.0000000000000000
340
16D
213
0.0000000000000000
223
-0.5000000000000000
233
0.0000000000000000
1001
ACAD
1000
DSTYLE
1002
{
1070
   147
1040
0.0
1070
    77
1070
     1
1070
   173
1070
     1
1070
     6
1000
_DOT
1070
     7
1000
_DOT
1002
}
  0
MTEXT
  5
16D
102
{ACAD_REACTORS
330
16C
102
}
100
AcDbEntity
  8
MAIN0
  6
CONTINUOUS
 62
3
100
AcDbMText
 10
258.5776226706951
 20
377.4930282757476
 30
0.0000000000000000
 40
3.099999904632568
 41
0.0000000000000000
 71
     1
 72
     1
  1
{\H0.94x;{近接スイッチ取付プレート\PTHE MOUNTING PLATE \PFOR PROXIMITY SWITCH}}
 11
1.000000000000000
 21
0.0000000000000000
 31
0.0000000000000000
  7
KNJYOKO
  0
MTEXT
  5
16E
100
AcDbEntity
  8
MAIN0
  6
CONTINUOUS
 62
4
100
AcDbMText
 10
328.6010663011024
 20
175.9927348467249
 30
0.0000000000000000
 40
5.000000000000000
 41
0.0000000000000000
 71
     1
 72
     1
  1
{\H0.72x;{ｒ}}
 11
1.000000000000000
 21
0.0000000000000000
 31
0.0000000000000000
  7
KNJYOKO
  0
MTEXT
  5
16F
100
AcDbEntity
  8
MAIN0
  6
CONTINUOUS
 62
4
100
AcDbMText
 10
326.2464105775813
 20
176.5747957148374
 30
0.0000000000000000
 40
5.000000000000000
 41
0.0000000000000000
 71
     1
 72
     1
  1
{\H0.67x;{D}}
 11
1.000000000000000
 21
0.0000000000000000
 31
0.0000000000000000
  7
STANDARD
  0
LINE
  5
170
100
AcDbEntity
  8
MAIN0
  6
CONTINUOUS
 62
3
100
AcDbLine
 10
458.6750130939639
 20
238.8930283711150
 30
0.0000000000000000
 11
482.7855973224577
 21
238.8930283711150
 31
0.0000000000000000
  0
LINE
  5
171
100
AcDbEntity
  8
MAIN0
  6
CONTINUOUS
 62
3
100
AcDbLine
 10
458.6474328227801
 20
208.8930283711150
 30
0.0000000000000000
 11
482.7855973224578
 21
208.8930283711150
 31
0.0000000000000000
  0
LINE
  5
172
100
AcDbEntity
  8
MAIN0
  6
CONTINUOUS
 62
3
100
AcDbLine
 10
501.6516227264851
 20
210.3930283711150
 30
0.0000000000000000
 11
501.6516227264850
 21
237.3930283711150
 31
0.0000000000000000
  0
LINE
  5
173
100
AcDbEntity
  8
MAIN0
  6
CONTINUOUS
 62
3
100
AcDbLine
 10
483.6516227262378
 20
238.3930283711150
 30
0.0000000000000000
 11
500.6516227264851
 21
238.3930283711150
 31
0.0000000000000000
  0
LINE
  5
174
100
AcDbEntity
  8
MAIN0
  6
CONTINUOUS
 62
3
100
AcDbLine
 10
483.6516227262378
 20
209.3930283711150
 30
0.0000000000000000
 11
500.6516227264851
 21
209.3930283711150
 31
0.0000000000000000
  0
LINE
  5
175
100
AcDbEntity
  8
MAIN0
  6
CONTINUOUS
 62
3
100
AcDbLine
 10
501.6516227264850
 20
210.3930283711150
 30
0.0000000000000000
 11
500.6516227264850
 21
209.3930283711150
 31
0.0000000000000000
  0
LINE
  5
176
100
AcDbEntity
  8
MAIN0
  6
CONTINUOUS
 62
3
100
AcDbLine
 10
501.6516227264850
 20
237.3930283711150
 30
0.0000000000000000
 11
500.6516227264850
 21
238.3930283711150
 31
0.0000000000000000
  0
LINE
  5
177
100
AcDbEntity
  8
MAIN0
  6
CONTINUOUS
 62
3
100
AcDbLine
 10
482.7855973224577
 20
208.8930283711151
 30
0.0000000000000000
 11
483.6516227262378
 21
209.3930283711148
 31
0.0000000000000000
  0
LINE
  5
178
100
AcDbEntity
  8
MAIN0
  6
CONTINUOUS
 62
3
100
AcDbLine
 10
482.7855973224577
 20
238.8930283711149
 30
0.0000000000000000
 11
483.6516227262378
 21
238.3930283711152
 31
0.0000000000000000
  0
LINE
  5
179
100
AcDbEntity
  8
MAIN0
  6
CONTINUOUS
 62
3
100
AcDbLine
 10
496.6516227264851
 20
213.3930283711150
 30
0.0000000000000000
 11
496.6516227264850
 21
234.3930283711150
 31
0.0000000000000000
  0
LINE
  5
17A
100
AcDbEntity
  8
MAIN0
  6
CONTINUOUS
 62
3
100
AcDbLine
 10
496.6516227264851
 20
234.3930283711150
 30
0.0000000000000000
 11
500.7855973230602
 21
234.3930283711150
 31
0.0000000000000000
  0
LINE
  5
17B
100
AcDbEntity
  8
MAIN0
  6
CONTINUOUS
 62
3
100
AcDbLine
 10
500.7855973230604
 20
234.3930283711840
 30
0.0000000000000000
 11
501.6516227264851
 21
234.8930283709782
 31
0.0000000000000000
  0
LINE
  5
17C
100
AcDbEntity
  8
MAIN0
  6
CONTINUOUS
 62
3
100
AcDbLine
 10
500.7855973230836
 20
213.3930283711150
 30
0.0000000000000000
 11
500.7855973230603
 21
234.3930283711150
 31
0.0000000000000000
  0
LINE
  5
17D
100
AcDbEntity
  8
MAIN0
  6
CONTINUOUS
 62
3
100
AcDbLine
 10
495.6412597553220
 20
232.6430283711147
 30
0.0000000000000000
 11
496.6516227264017
 21
234.3930283711150
 31
0.0000000000000000
  0
LINE
  5
17E
100
AcDbEntity
  8
MAIN0
  6
CONTINUOUS
 62
3
100
AcDbLine
 10
495.6412597555809
 20
215.1430283711150
 30
0.0000000000000000
 11
495.6412597555615
 21
232.6430283711150
 31
0.0000000000000000
  0
LINE
  5
17F
100
AcDbEntity
  8
MAIN0
  6
CONTINUOUS
 62
3
100
AcDbLine
 10
496.6516227264851
 20
213.3930283711150
 30
0.0000000000000000
 11
500.7855973230602
 21
213.3930283711150
 31
0.0000000000000000
  0
LINE
  5
180
100
AcDbEntity
  8
MAIN0
  6
CONTINUOUS
 62
3
100
AcDbLine
 10
500.7855973230604
 20
213.3930283710460
 30
0.0000000000000000
 11
501.6516227264851
 21
212.8930283712518
 31
0.0000000000000000
  0
LINE
  5
181
100
AcDbEntity
  8
MAIN0
  6
CONTINUOUS
 62
3
100
AcDbLine
 10
495.6412597553220
 20
215.1430283711154
 30
0.0000000000000000
 11
496.6516227264017
 21
213.3930283711150
 31
0.0000000000000000
  0
LINE
  5
182
100
AcDbEntity
  8
MAIN0
  6
CONTINUOUS
 62
3
100
AcDbLine
 10
300.2289729956750
 20
264.8930283711149
 30
0.0000000000000000
 11
349.0742724572958
 21
264.8930283711149
 31
0.0000000000000000
  0
LINE
  5
183
100
AcDbEntity
  8
MAIN0
  6
CONTINUOUS
 62
3
100
AcDbLine
 10
349.0742724572958
 20
264.8930283711150
 30
0.0000000000000000
 11
349.6516227264855
 21
263.8930283711149
 31
0.0000000000000000
  0
LINE
  5
184
100
AcDbEntity
  8
MAIN0
  6
CONTINUOUS
 62
3
100
AcDbLine
 10
349.6516227264855
 20
263.8930283711149
 30
0.0000000000000000
 11
363.6516227264855
 21
263.8930283711149
 31
0.0000000000000000
  0
LINE
  5
185
100
AcDbEntity
  8
MAIN0
  6
CONTINUOUS
 62
3
100
AcDbLine
 10
299.6516227264854
 20
263.8930283711148
 30
0.0000000000000000
 11
300.2289729956751
 21
264.8930283711150
 31
0.0000000000000000
  0
LINE
  5
186
100
AcDbEntity
  8
MAIN0
  6
CONTINUOUS
 62
3
100
AcDbLine
 10
297.2516227264855
 20
263.8930283711149
 30
0.0000000000000000
 11
299.6516227264854
 21
263.8930283711149
 31
0.0000000000000000
  0
LINE
  5
187
100
AcDbEntity
  8
MAIN0
  6
CONTINUOUS
 62
3
100
AcDbLine
 10
339.6516227264853
 20
182.8930283711150
 30
0.0000000000000000
 11
349.0742724572958
 21
182.8930283711150
 31
0.0000000000000000
  0
LINE
  5
188
100
AcDbEntity
  8
MAIN0
  6
CONTINUOUS
 62
3
100
AcDbLine
 10
349.0742724572959
 20
182.8930283711150
 30
0.0000000000000000
 11
349.6516227264855
 21
183.8930283711150
 31
0.0000000000000000
  0
LINE
  5
189
100
AcDbEntity
  8
MAIN0
  6
CONTINUOUS
 62
3
100
AcDbLine
 10
349.6516227264855
 20
183.8930283711150
 30
0.0000000000000000
 11
363.6516227264855
 21
183.8930283711150
 31
0.0000000000000000
  0
LINE
  5
18A
100
AcDbEntity
  8
MAIN0
  6
CONTINUOUS
 62
3
100
AcDbLine
 10
299.6516227264854
 20
183.8930283711151
 30
0.0000000000000000
 11
300.2289729956751
 21
182.8930283711151
 31
0.0000000000000000
  0
LINE
  5
18B
100
AcDbEntity
  8
MAIN0
  6
CONTINUOUS
 62
3
100
AcDbLine
 10
297.2516227264855
 20
183.8930283711151
 30
0.0000000000000000
 11
299.6516227264854
 21
183.8930283711151
 31
0.0000000000000000
  0
LINE
  5
18C
100
AcDbEntity
  8
MAIN0
  6
CENTER
 62
12
100
AcDbLine
 10
322.6516227264854
 20
170.7584140717520
 30
0.0000000000000000
 11
322.6516227264854
 21
193.8930283711150
 31
0.0000000000000000
  0
LINE
  5
18D
100
AcDbEntity
  8
MAIN0
  6
CONTINUOUS
 62
3
100
AcDbLine
 10
335.6516227264854
 20
178.8930283711150
 30
0.0000000000000000
 11
309.6516227264853
 21
178.8930283711151
 31
0.0000000000000000
  0
LINE
  5
18E
100
AcDbEntity
  8
MAIN0
  6
CONTINUOUS
 62
3
100
AcDbLine
 10
300.2289729956749
 20
182.8930283711150
 30
0.0000000000000000
 11
305.6516227264854
 21
182.8930283711150
 31
0.0000000000000000
  0
ARC
  5
18F
100
AcDbEntity
  8
MAIN0
  6
CONTINUOUS
 62
3
100
AcDbCircle
 10
339.6516227264854
 20
180.8930283711150
 30
0.0000000000000000
 40
2.000000000000000
100
AcDbArc
 50
89.99999999999970
 51
179.9999999999998
  0
ARC
  5
190
100
AcDbEntity
  8
MAIN0
  6
CONTINUOUS
 62
3
100
AcDbCircle
 10
335.6516227264854
 20
180.8930283711150
 30
0.0000000000000000
 40
2.000000000000000
100
AcDbArc
 50
269.9999999999999
 51
359.9999999999998
  0
ARC
  5
191
100
AcDbEntity
  8
MAIN0
  6
CONTINUOUS
 62
3
100
AcDbCircle
 10
309.6516227264854
 20
180.8930283711150
 30
0.0000000000000000
 40
2.000000000000000
100
AcDbArc
 50
179.9999999999998
 51
269.9999999999999
  0
ARC
  5
192
100
AcDbEntity
  8
MAIN0
  6
CONTINUOUS
 62
3
100
AcDbCircle
 10
305.6516227264854
 20
180.8930283711150
 30
0.0000000000000000
 40
2.000000000000000
100
AcDbArc
 50
0.0000000000000000
 51
89.99999999999970
  0
LINE
  5
193
100
AcDbEntity
  8
MAIN0
  6
CONTINUOUS
 62
3
100
AcDbLine
 10
363.6516227264855
 20
183.8930283711151
 30
0.0000000000000000
 11
363.6516227264856
 21
263.8930283711148
 31
0.0000000000000000
  0
LINE
  5
194
100
AcDbEntity
  8
MAIN0
  6
CONTINUOUS
 62
3
100
AcDbLine
 10
297.2516227264855
 20
183.8930283711151
 30
0.0000000000000000
 11
297.2516227264855
 21
263.8930283711148
 31
0.0000000000000000
  0
LINE
  5
195
100
AcDbEntity
  8
MAIN0
  6
CONTINUOUS
 62
3
100
AcDbLine
 10
390.6516227264855
 20
275.8930283711150
 30
0.0000000000000000
 11
402.6516227264855
 21
275.8930283711150
 31
0.0000000000000000
  0
LINE
  5
196
100
AcDbEntity
  8
MAIN0
  6
CONTINUOUS
 62
3
100
AcDbLine
 10
390.6516227264855
 20
171.8930283711151
 30
0.0000000000000000
 11
402.6516227264855
 21
171.8930283711151
 31
0.0000000000000000
  0
ARC
  5
197
100
AcDbEntity
  8
MAIN0
  6
CONTINUOUS
 62
3
100
AcDbCircle
 10
390.6516227264855
 20
274.8930283711149
 30
0.0000000000000000
 40
1.000000000000000
100
AcDbArc
 50
89.99999999999970
 51
179.9999999999998
  0
ARC
  5
198
100
AcDbEntity
  8
MAIN0
  6
CONTINUOUS
 62
3
100
AcDbCircle
 10
390.6516227264855
 20
172.8930283711150
 30
0.0000000000000000
 40
1.000000000000000
100
AcDbArc
 50
179.9999999999998
 51
269.9999999999999
  0
ARC
  5
199
100
AcDbEntity
  8
MAIN0
  6
CONTINUOUS
 62
3
100
AcDbCircle
 10
361.6516227264855
 20
245.3930283711148
 30
0.0000000000000000
 40
3.000000000000000
100
AcDbArc
 50
311.8103148957798
 51
359.9999999999998
  0
ARC
  5
19A
100
AcDbEntity
  8
MAIN0
  6
CONTINUOUS
 62
3
100
AcDbCircle
 10
361.6516227264855
 20
202.3930283711152
 30
0.0000000000000000
 40
3.000000000000000
100
AcDbArc
 50
359.9999999999998
 51
408.1896851042212
  0
LINE
  5
19B
100
AcDbEntity
  8
MAIN0
  6
CONTINUOUS
 62
3
100
AcDbLine
 10
365.6516227264852
 20
256.3930283711151
 30
0.0000000000000000
 11
386.6516227264855
 21
256.3930283711151
 31
0.0000000000000000
  0
LINE
  5
19C
100
AcDbEntity
  8
MAIN0
  6
CONTINUOUS
 62
3
100
AcDbLine
 10
364.6516227264852
 20
255.3930283711151
 30
0.0000000000000000
 11
365.6516227264852
 21
256.3930283711151
 31
0.0000000000000000
  0
ARC
  5
19D
100
AcDbEntity
  8
MAIN0
  6
CONTINUOUS
 62
3
100
AcDbCircle
 10
386.6516227264855
 20
259.3930283711151
 30
0.0000000000000000
 40
3.000000000000000
100
AcDbArc
 50
270.0000000000000
 51
360.0000000000000
  0
LINE
  5
19E
100
AcDbEntity
  8
MAIN0
  6
CONTINUOUS
 62
3
100
AcDbLine
 10
364.6516227264851
 20
192.3930283711149
 30
0.0000000000000000
 11
365.6516227264851
 21
191.3930283711149
 31
0.0000000000000000
  0
LINE
  5
19F
100
AcDbEntity
  8
MAIN0
  6
CONTINUOUS
 62
3
100
AcDbLine
 10
365.6516227264852
 20
191.3930283711149
 30
0.0000000000000000
 11
386.6516227264855
 21
191.3930283711149
 31
0.0000000000000000
  0
ARC
  5
1A0
100
AcDbEntity
  8
MAIN0
  6
CONTINUOUS
 62
3
100
AcDbCircle
 10
386.6516227264855
 20
188.3930283711149
 30
0.0000000000000000
 40
3.000000000000000
100
AcDbArc
 50
0.0000000000000000
 51
90.00000000000000
  0
LINE
  5
1A1
100
AcDbEntity
  8
MAIN0
  6
CONTINUOUS
 62
3
100
AcDbLine
 10
389.6516227264855
 20
172.8930281423145
 30
0.0000000000000000
 11
389.6516227264855
 21
274.8930282093571
 31
0.0000000000000000
  0
LINE
  5
1A2
100
AcDbEntity
  8
MAIN0
  6
CONTINUOUS
 62
3
100
AcDbLine
 10
364.6516227264852
 20
192.3930283711150
 30
0.0000000000000000
 11
364.6516227264852
 21
255.3930283711151
 31
0.0000000000000000
  0
LINE
  5
1A3
100
AcDbEntity
  8
MAIN0
  6
CONTINUOUS
 62
3
100
AcDbLine
 10
402.6516227264855
 20
171.8930283711151
 30
0.0000000000000000
 11
402.6516227264855
 21
275.8930283711149
 31
0.0000000000000000
  0
LINE
  5
1A4
100
AcDbEntity
  8
MAIN0
  6
CONTINUOUS
 62
3
100
AcDbLine
 10
455.6516227264850
 20
256.3930283711149
 30
0.0000000000000000
 11
460.1516227264850
 21
256.3930283711149
 31
0.0000000000000000
  0
LINE
  5
1A5
100
AcDbEntity
  8
MAIN0
  6
CONTINUOUS
 62
3
100
AcDbLine
 10
455.6516227264850
 20
191.3930283711150
 30
0.0000000000000000
 11
460.1516227264850
 21
191.3930283711150
 31
0.0000000000000000
  0
LINE
  5
1A6
100
AcDbEntity
  8
MAIN0
  6
CONTINUOUS
 62
3
100
AcDbLine
 10
455.6516227264850
 20
173.8930283711151
 30
0.0000000000000000
 11
455.6516227264851
 21
225.9619134361832
 31
0.0000000000000000
  0
LINE
  5
1A7
100
AcDbEntity
  8
MAIN0
  6
CONTINUOUS
 62
3
100
AcDbLine
 10
455.6516227264850
 20
231.7872110484591
 30
0.0000000000000000
 11
455.6516227264850
 21
273.8930283711150
 31
0.0000000000000000
  0
LINE
  5
1A8
100
AcDbEntity
  8
MAIN0
  6
CONTINUOUS
 62
3
100
AcDbLine
 10
460.6516227264850
 20
191.8930283711152
 30
0.0000000000000000
 11
460.6516227264850
 21
208.8930283711150
 31
0.0000000000000000
  0
LINE
  5
1A9
100
AcDbEntity
  8
MAIN0
  6
CONTINUOUS
 62
3
100
AcDbLine
 10
460.6516227264850
 20
238.8930283711150
 30
0.0000000000000000
 11
460.6516227264850
 21
255.8930283711149
 31
0.0000000000000000
  0
LINE
  5
1AA
100
AcDbEntity
  8
MAIN0
  6
CENTER
 62
12
100
AcDbLine
 10
427.7803173763544
 20
178.8930283711151
 30
0.0000000000000000
 11
459.7168902041517
 21
178.8930283711151
 31
0.0000000000000000
  0
LINE
  5
1AB
100
AcDbEntity
  8
MAIN0
  6
CONTINUOUS
 62
3
100
AcDbLine
 10
402.6516227264855
 20
275.8930283711150
 30
0.0000000000000000
 11
453.6516227264850
 21
275.8930283711150
 31
0.0000000000000000
  0
LINE
  5
1AC
100
AcDbEntity
  8
MAIN0
  6
CONTINUOUS
 62
3
100
AcDbLine
 10
402.6516227264855
 20
171.8930283711151
 30
0.0000000000000000
 11
453.6516227264850
 21
171.8930283711151
 31
0.0000000000000000
  0
ARC
  5
1AD
100
AcDbEntity
  8
MAIN0
  6
CONTINUOUS
 62
3
100
AcDbCircle
 10
453.6516227264850
 20
273.8930283711149
 30
0.0000000000000000
 40
2.000000000000000
100
AcDbArc
 50
0.0000000000000000
 51
89.99999999999970
  0
ARC
  5
1AE
100
AcDbEntity
  8
MAIN0
  6
CONTINUOUS
 62
3
100
AcDbCircle
 10
453.6516227264850
 20
173.8930283711151
 30
0.0000000000000000
 40
2.000000000000000
100
AcDbArc
 50
269.9999999999999
 51
359.9999999999998
  0
ARC
  5
1AF
100
AcDbEntity
  8
MAIN0
  6
CONTINUOUS
 62
3
100
AcDbCircle
 10
460.1516227264850
 20
255.8930283711148
 30
0.0000000000000000
 40
0.5000000000000000
100
AcDbArc
 50
0.0000000000000000
 51
89.99999999999970
  0
ARC
  5
1B0
100
AcDbEntity
  8
MAIN0
  6
CONTINUOUS
 62
3
100
AcDbCircle
 10
460.1516227264850
 20
191.8930283711150
 30
0.0000000000000000
 40
0.5000000000000000
100
AcDbArc
 50
269.9999999999999
 51
359.9999999999998
  0
LINE
  5
1B1
100
AcDbEntity
  8
MAIN0
  6
CONTINUOUS
 62
3
100
AcDbLine
 10
268.6516227264850
 20
229.3930283711150
 30
0.0000000000000000
 11
270.1516227264850
 21
230.8930283711150
 31
0.0000000000000000
  0
LINE
  5
1B2
100
AcDbEntity
  8
MAIN0
  6
CONTINUOUS
 62
3
100
AcDbLine
 10
270.1516227264850
 20
230.8930283711150
 30
0.0000000000000000
 11
270.1516227264850
 21
236.8930283711150
 31
0.0000000000000000
  0
LINE
  5
1B3
100
AcDbEntity
  8
MAIN0
  6
CONTINUOUS
 62
3
100
AcDbLine
 10
270.1516227264850
 20
236.8930283711150
 30
0.0000000000000000
 11
269.2855973227005
 21
237.3930283711150
 31
0.0000000000000000
  0
LINE
  5
1B4
100
AcDbEntity
  8
MAIN0
  6
CONTINUOUS
 62
3
100
AcDbLine
 10
269.2855973227005
 20
237.3930283711150
 30
0.0000000000000000
 11
265.0176481302694
 21
237.3930283711150
 31
0.0000000000000000
  0
LINE
  5
1B5
100
AcDbEntity
  8
MAIN0
  6
CONTINUOUS
 62
3
100
AcDbLine
 10
265.0176481302694
 20
237.3930283711150
 30
0.0000000000000000
 11
264.1516227264850
 21
236.8930283711150
 31
0.0000000000000000
  0
LINE
  5
1B6
100
AcDbEntity
  8
MAIN0
  6
CONTINUOUS
 62
3
100
AcDbLine
 10
264.1516227264850
 20
236.8930283711150
 30
0.0000000000000000
 11
264.1516227264850
 21
230.8930283711150
 31
0.0000000000000000
  0
LINE
  5
1B7
100
AcDbEntity
  8
MAIN0
  6
CONTINUOUS
 62
3
100
AcDbLine
 10
264.1516227264850
 20
230.8930283711150
 30
0.0000000000000000
 11
265.6516227264850
 21
229.3930283711150
 31
0.0000000000000000
  0
LINE
  5
1B8
100
AcDbEntity
  8
MAIN0
  6
CONTINUOUS
 62
3
100
AcDbLine
 10
265.6516227264850
 20
229.3930283711150
 30
0.0000000000000000
 11
268.6516227264850
 21
229.3930283711150
 31
0.0000000000000000
  0
LINE
  5
1B9
100
AcDbEntity
  8
MAIN0
  6
CONTINUOUS
 62
3
100
AcDbLine
 10
270.1516227264850
 20
230.8930283711150
 30
0.0000000000000000
 11
264.1516227264850
 21
230.8930283711150
 31
0.0000000000000000
  0
LINE
  5
1BA
100
AcDbEntity
  8
MAIN0
  6
CONTINUOUS
 62
3
100
AcDbLine
 10
270.1516227264850
 20
236.8930283711150
 30
0.0000000000000000
 11
264.1516227264850
 21
236.8930283711150
 31
0.0000000000000000
  0
LINE
  5
1BB
100
AcDbEntity
  8
MAIN0
  6
CONTINUOUS
 62
3
100
AcDbLine
 10
269.6103567264850
 20
230.3517623711150
 30
0.0000000000000000
 11
269.6103567264850
 21
237.2055284419182
 31
0.0000000000000000
  0
LINE
  5
1BC
100
AcDbEntity
  8
MAIN0
  6
CONTINUOUS
 62
3
100
AcDbLine
 10
264.6928887264850
 20
230.3517623711150
 30
0.0000000000000000
 11
264.6928887264850
 21
237.2055284419182
 31
0.0000000000000000
  0
LINE
  5
1BD
100
AcDbEntity
  8
MAIN0
  6
HIDDEN
 62
3
100
AcDbLine
 10
268.6516227264850
 20
229.3930283711150
 30
0.0000000000000000
 11
267.1516227264850
 21
230.8930283711150
 31
0.0000000000000000
  0
LINE
  5
1BE
100
AcDbEntity
  8
MAIN0
  6
HIDDEN
 62
3
100
AcDbLine
 10
267.1516227264850
 20
230.8930283711150
 30
0.0000000000000000
 11
265.6516227264850
 21
229.3930283711150
 31
0.0000000000000000
  0
LINE
  5
1BF
100
AcDbEntity
  8
MAIN0
  6
CENTER
 62
12
100
AcDbLine
 10
128.6516227264858
 20
169.9492369133548
 30
0.0000000000000000
 11
128.6516227264858
 21
298.3689011464591
 31
0.0000000000000000
  0
LINE
  5
1C0
100
AcDbEntity
  8
MAIN0
  6
CENTER
 62
12
100
AcDbLine
 10
74.65162272648581
 20
223.8930283711150
 30
0.0000000000000000
 11
191.5197973981425
 21
223.8930283711150
 31
0.0000000000000000
  0
DIMENSION
  5
1C8
100
AcDbEntity
  8
MAIN10
  6
CONTINUOUS
 62
3
100
AcDbDimension
  2
*D20
 10
186.7440877686717
 20
223.8930283711150
 30
0.0000000000000000
 11
186.2440877686717
 21
201.3930283711151
 31
0.0000000000000000
 70
32
  3
MAIN001
100
AcDbAlignedDimension
 13
141.6516227264859
 23
178.8930283711152
 33
0.0000000000000000
 14
191.5197973981425
 24
223.8930283711150
 34
0.0000000000000000
 50
90.00000000000000
100
AcDbRotatedDimension
1001
ACAD
1000
DSTYLE
1002
{
1070
   173
1070
     1
1070
     6
1000
_OPEN
1070
     7
1000
_OPEN
1070
    41
1040
2.000000
1002
}
  0
DIMENSION
  5
1D1
100
AcDbEntity
  8
MAIN10
  6
CONTINUOUS
 62
3
100
AcDbDimension
  2
*D21
 10
113.6516227264859
 20
162.8003123669743
 30
0.0000000000000000
 11
134.6823481084249
 21
163.3003123669743
 31
0.0000000000000000
 70
160
  1
\A1;\U+220530
  3
MAIN001
100
AcDbAlignedDimension
 13
143.6516227264859
 23
180.8930282534926
 33
0.0000000000000000
 14
113.6516227264859
 24
180.8930279125377
 34
0.0000000000000000
100
AcDbRotatedDimension
1001
ACAD
1000
DSTYLE
1002
{
1070
   173
1070
     1
1070
     6
1000
_OPEN
1070
     7
1000
_OPEN
1070
    41
1040
2.000000
1002
}
  0
DIMENSION
  5
1DA
100
AcDbEntity
  8
MAIN10
  6
CONTINUOUS
 62
3
100
AcDbDimension
  2
*D22
 10
88.65162272648581
 20
152.8003123669743
 30
0.0000000000000000
 11
108.6516227264858
 21
153.3003123669743
 31
0.0000000000000000
 70
32
  3
MAIN001
100
AcDbAlignedDimension
 13
128.6516227264858
 23
169.9492369133548
 33
0.0000000000000000
 14
88.65162272648581
 24
197.8387126124376
 34
0.0000000000000000
100
AcDbRotatedDimension
1001
ACAD
1000
DSTYLE
1002
{
1070
   173
1070
     1
1070
     6
1000
_OPEN
1070
     7
1000
_OPEN
1070
    41
1040
2.000000
1002
}
  0
DIMENSION
  5
1E3
100
AcDbEntity
  8
MAIN10
  6
CONTINUOUS
 62
3
100
AcDbDimension
  2
*D23
 10
128.6516227264858
 20
152.8003123669743
 30
0.0000000000000000
 11
148.6516227264858
 21
153.3003123669743
 31
0.0000000000000000
 70
32
  3
MAIN001
100
AcDbAlignedDimension
 13
168.6516227264858
 23
197.8387126124375
 33
0.0000000000000000
 14
128.6516227264858
 24
169.9492369133548
 34
0.0000000000000000
100
AcDbRotatedDimension
1001
ACAD
1000
DSTYLE
1002
{
1070
   173
1070
     1
1070
     6
1000
_OPEN
1070
     7
1000
_OPEN
1070
    41
1040
2.000000
1002
}
  0
LINE
  5
1E4
100
AcDbEntity
  8
MAIN0
  6
CONTINUOUS
 62
3
100
AcDbLine
 10
269.1516227264850
 20
237.3930283711150
 30
0.0000000000000000
 11
270.1516227264850
 21
238.3930283711150
 31
0.0000000000000000
  0
LINE
  5
1E5
100
AcDbEntity
  8
MAIN0
  6
CONTINUOUS
 62
3
100
AcDbLine
 10
270.1516227264850
 20
238.3930283711150
 30
0.0000000000000000
 11
270.1516227264850
 21
242.8930283711150
 31
0.0000000000000000
  0
LINE
  5
1E6
100
AcDbEntity
  8
MAIN0
  6
CONTINUOUS
 62
3
100
AcDbLine
 10
270.1516227264850
 20
242.8930283711150
 30
0.0000000000000000
 11
269.2855973227005
 21
243.3930283711150
 31
0.0000000000000000
  0
LINE
  5
1E7
100
AcDbEntity
  8
MAIN0
  6
CONTINUOUS
 62
3
100
AcDbLine
 10
269.2855973227005
 20
243.3930283711150
 30
0.0000000000000000
 11
265.0176481302694
 21
243.3930283711150
 31
0.0000000000000000
  0
LINE
  5
1E8
100
AcDbEntity
  8
MAIN0
  6
CONTINUOUS
 62
3
100
AcDbLine
 10
265.0176481302694
 20
243.3930283711150
 30
0.0000000000000000
 11
264.1516227264850
 21
242.8930283711150
 31
0.0000000000000000
  0
LINE
  5
1E9
100
AcDbEntity
  8
MAIN0
  6
CONTINUOUS
 62
3
100
AcDbLine
 10
264.1516227264850
 20
242.8930283711150
 30
0.0000000000000000
 11
264.1516227264850
 21
238.3930283711150
 31
0.0000000000000000
  0
LINE
  5
1EA
100
AcDbEntity
  8
MAIN0
  6
CONTINUOUS
 62
3
100
AcDbLine
 10
264.1516227264850
 20
238.3930283711150
 30
0.0000000000000000
 11
265.1516227264850
 21
237.3930283711150
 31
0.0000000000000000
  0
LINE
  5
1EB
100
AcDbEntity
  8
MAIN0
  6
CONTINUOUS
 62
3
100
AcDbLine
 10
265.1516227264850
 20
237.3930283711150
 30
0.0000000000000000
 11
269.1516227264850
 21
237.3930283711150
 31
0.0000000000000000
  0
LINE
  5
1EC
100
AcDbEntity
  8
MAIN0
  6
CONTINUOUS
 62
3
100
AcDbLine
 10
270.1516227264850
 20
238.3930283711150
 30
0.0000000000000000
 11
264.1516227264850
 21
238.3930283711150
 31
0.0000000000000000
  0
LINE
  5
1ED
100
AcDbEntity
  8
MAIN0
  6
CONTINUOUS
 62
3
100
AcDbLine
 10
270.1516227264850
 20
242.8930283711150
 30
0.0000000000000000
 11
264.1516227264850
 21
242.8930283711150
 31
0.0000000000000000
  0
LINE
  5
1EE
100
AcDbEntity
  8
MAIN0
  6
CONTINUOUS
 62
3
100
AcDbLine
 10
269.6103567264850
 20
237.8517623711150
 30
0.0000000000000000
 11
269.6103567264850
 21
243.2055284419182
 31
0.0000000000000000
  0
LINE
  5
1EF
100
AcDbEntity
  8
MAIN0
  6
CONTINUOUS
 62
3
100
AcDbLine
 10
264.6928887264850
 20
237.8517623711150
 30
0.0000000000000000
 11
264.6928887264850
 21
243.2055284419182
 31
0.0000000000000000
  0
LINE
  5
1F0
100
AcDbEntity
  8
MAIN0
  6
CONTINUOUS
 62
3
100
AcDbLine
 10
84.65162272648584
 20
261.6430283711150
 30
0.0000000000000000
 11
83.65162272648584
 21
261.6430283711150
 31
0.0000000000000000
  0
LINE
  5
1F1
100
AcDbEntity
  8
MAIN0
  6
CONTINUOUS
 62
3
100
AcDbLine
 10
82.65162272648584
 20
260.6430283711150
 30
0.0000000000000000
 11
82.65162272648584
 21
257.1430283711150
 31
0.0000000000000000
  0
LINE
  5
1F2
100
AcDbEntity
  8
MAIN0
  6
CONTINUOUS
 62
3
100
AcDbLine
 10
83.65162272648584
 20
256.1430283711150
 30
0.0000000000000000
 11
84.65162272648584
 21
256.1430283711150
 31
0.0000000000000000
  0
ARC
  5
1F3
100
AcDbEntity
  8
MAIN0
  6
CONTINUOUS
 62
3
100
AcDbCircle
 10
83.65162272648584
 20
260.6430283711150
 30
0.0000000000000000
 40
1.000000000000000
100
AcDbArc
 50
90.00000000000000
 51
180.0000000000000
  0
ARC
  5
1F4
100
AcDbEntity
  8
MAIN0
  6
CONTINUOUS
 62
3
100
AcDbCircle
 10
83.65162272648584
 20
257.1430283711150
 30
0.0000000000000000
 40
1.000000000000000
100
AcDbArc
 50
180.0000000000000
 51
270.0000000000000
  0
LINE
  5
1F5
100
AcDbEntity
  8
MAIN0
  6
CONTINUOUS
 62
3
100
AcDbLine
 10
120.6516227264858
 20
273.0930283711148
 30
0.0000000000000000
 11
136.6516227264859
 21
273.0930283711148
 31
0.0000000000000000
  0
LINE
  5
1F6
100
AcDbEntity
  8
MAIN0
  6
CONTINUOUS
 62
3
100
AcDbLine
 10
120.6516227264858
 20
272.0930283711149
 30
0.0000000000000000
 11
120.6516227264858
 21
273.0930283711149
 31
0.0000000000000000
  0
LINE
  5
1F7
100
AcDbEntity
  8
MAIN0
  6
CONTINUOUS
 62
3
100
AcDbLine
 10
136.6516227264858
 20
272.0930283711148
 30
0.0000000000000000
 11
136.6516227264858
 21
273.0930283711148
 31
0.0000000000000000
  0
LINE
  5
1F8
100
AcDbEntity
  8
MAIN0
  6
CONTINUOUS
 62
3
100
AcDbLine
 10
231.6516227264858
 20
272.0930283711151
 30
0.0000000000000000
 11
234.1929797456907
 21
272.0930283710233
 31
0.0000000000000000
  0
LINE
  5
1F9
100
AcDbEntity
  8
MAIN0
  6
CONTINUOUS
 62
3
100
AcDbLine
 10
245.1102657072809
 20
272.0930283710233
 30
0.0000000000000000
 11
247.6516227264858
 21
272.0930283711149
 31
0.0000000000000000
  0
LINE
  5
1FA
100
AcDbEntity
  8
MAIN0
  6
CONTINUOUS
 62
3
100
AcDbLine
 10
120.6516227264858
 20
272.0930283711148
 30
0.0000000000000000
 11
136.6516227264858
 21
272.0930283711147
 31
0.0000000000000000
  0
LINE
  5
1FB
100
AcDbEntity
  8
MAIN0
  6
CONTINUOUS
 62
3
100
AcDbLine
 10
167.2600725926800
 20
255.4212316013904
 30
0.0000000000000000
 11
175.2600725926800
 21
241.5648251408393
 31
0.0000000000000000
  0
LINE
  5
1FC
100
AcDbEntity
  8
MAIN0
  6
CONTINUOUS
 62
3
100
AcDbLine
 10
166.3940471888956
 20
254.9212316013904
 30
0.0000000000000000
 11
167.2600725926800
 21
255.4212316013904
 31
0.0000000000000000
  0
LINE
  5
1FD
100
AcDbEntity
  8
MAIN0
  6
CONTINUOUS
 62
3
100
AcDbLine
 10
174.3940471888955
 20
241.0648251408393
 30
0.0000000000000000
 11
175.2600725926800
 21
241.5648251408393
 31
0.0000000000000000
  0
LINE
  5
1FE
100
AcDbEntity
  8
MAIN0
  6
CONTINUOUS
 62
3
100
AcDbLine
 10
166.3940471888956
 20
254.9212316013904
 30
0.0000000000000000
 11
174.3940471888955
 21
241.0648251408393
 31
0.0000000000000000
  0
CIRCLE
  5
1FF
100
AcDbEntity
  8
MAIN0
  6
PHANTOM
 62
3
100
AcDbCircle
 10
178.7160766832155
 20
338.4431235394694
 30
0.0000000000000000
 40
6.000000000000000
  0
CIRCLE
  5
200
100
AcDbEntity
  8
MAIN0
  6
PHANTOM
 62
3
100
AcDbCircle
 10
178.7160766832155
 20
338.4431235394694
 30
0.0000000000000000
 40
5.100000000000001
  0
CIRCLE
  5
201
100
AcDbEntity
  8
MAIN0
  6
CONTINUOUS
 62
3
100
AcDbCircle
 10
214.2231182383774
 20
358.9431235394694
 30
0.0000000000000000
 40
6.000000000000000
  0
CIRCLE
  5
202
100
AcDbEntity
  8
MAIN0
  6
CONTINUOUS
 62
3
100
AcDbCircle
 10
214.2231182383774
 20
358.9431235394694
 30
0.0000000000000000
 40
5.100000000000001
  0
CIRCLE
  5
203
100
AcDbEntity
  8
MAIN0
  6
CONTINUOUS
 62
3
100
AcDbCircle
 10
90.65906514228126
 20
337.3939458731368
 30
0.0000000000000000
 40
6.000000000000000
  0
CIRCLE
  5
204
100
AcDbEntity
  8
MAIN0
  6
CONTINUOUS
 62
3
100
AcDbCircle
 10
90.65906514228126
 20
337.3939458731368
 30
0.0000000000000000
 40
5.100000000000001
  0
CIRCLE
  5
205
100
AcDbEntity
  8
MAIN0
  6
PHANTOM
 62
3
100
AcDbCircle
 10
90.65906514228126
 20
378.3939458731368
 30
0.0000000000000000
 40
6.000000000000000
  0
CIRCLE
  5
206
100
AcDbEntity
  8
MAIN0
  6
PHANTOM
 62
3
100
AcDbCircle
 10
90.65906514228126
 20
378.3939458731368
 30
0.0000000000000000
 40
5.100000000000001
  0
LINE
  5
207
100
AcDbEntity
  8
MAIN0
  6
CONTINUOUS
 62
3
100
AcDbLine
 10
469.6516227264851
 20
213.8930283711150
 30
0.0000000000000000
 11
469.6516227264851
 21
233.8930283711150
 31
0.0000000000000000
  0
LINE
  5
208
100
AcDbEntity
  8
MAIN0
  6
CONTINUOUS
 62
3
100
AcDbLine
 10
495.6412597555809
 20
215.1430283711150
 30
0.0000000000000000
 11
456.9988748577116
 21
215.1430283711150
 31
0.0000000000000000
  0
LINE
  5
209
100
AcDbEntity
  8
MAIN0
  6
CONTINUOUS
 62
3
100
AcDbLine
 10
455.8293538424631
 20
232.6430283711150
 30
0.0000000000000000
 11
495.6412597555615
 21
232.6430283711150
 31
0.0000000000000000
  0
LINE
  5
20A
100
AcDbEntity
  8
MAIN0
  6
CONTINUOUS
 62
3
100
AcDbLine
 10
469.6516227264851
 20
233.8930283711150
 30
0.0000000000000000
 11
496.3629475918076
 21
233.8930283711150
 31
0.0000000000000000
  0
LINE
  5
20B
100
AcDbEntity
  8
MAIN0
  6
CONTINUOUS
 62
3
100
AcDbLine
 10
469.6516227264851
 20
213.8930283711150
 30
0.0000000000000000
 11
496.3629475918076
 21
213.8930283711150
 31
0.0000000000000000
  0
LINE
  5
20C
100
AcDbEntity
  8
MAIN0
  6
HIDDEN
 62
12
100
AcDbLine
 10
316.0731227264855
 20
178.8930283711150
 30
0.0000000000000000
 11
316.3856227264855
 21
188.8930283711151
 31
0.0000000000000000
  0
LINE
  5
20D
100
AcDbEntity
  8
MAIN0
  6
HIDDEN
 62
12
100
AcDbLine
 10
316.9291227264855
 20
178.8930283711150
 30
0.0000000000000000
 11
317.2416227264855
 21
188.8930283711150
 31
0.0000000000000000
  0
LINE
  5
20E
100
AcDbEntity
  8
MAIN0
  6
HIDDEN
 62
12
100
AcDbLine
 10
328.9176227264854
 20
188.8930283711150
 30
0.0000000000000000
 11
329.2301227264854
 21
178.8930283711150
 31
0.0000000000000000
  0
LINE
  5
20F
100
AcDbEntity
  8
MAIN0
  6
HIDDEN
 62
12
100
AcDbLine
 10
328.0616227264854
 20
188.8930283711150
 30
0.0000000000000000
 11
328.3741227264855
 21
178.8930283711150
 31
0.0000000000000000
  0
LINE
  5
210
100
AcDbEntity
  8
MAIN0
  6
CONTINUOUS
 62
3
100
AcDbLine
 10
455.6516227264850
 20
175.5930283711151
 30
0.0000000000000000
 11
454.8516227264850
 21
176.3930283711151
 31
0.0000000000000000
  0
LINE
  5
211
100
AcDbEntity
  8
MAIN0
  6
CONTINUOUS
 62
3
100
AcDbLine
 10
454.8516227264850
 20
176.3930283711151
 30
0.0000000000000000
 11
454.8516227264850
 21
181.3930283711151
 31
0.0000000000000000
  0
LINE
  5
212
100
AcDbEntity
  8
MAIN0
  6
CONTINUOUS
 62
3
100
AcDbLine
 10
454.8516227264850
 20
181.3930283711151
 30
0.0000000000000000
 11
455.6516227264850
 21
182.1930283711151
 31
0.0000000000000000
  0
LINE
  5
213
100
AcDbEntity
  8
MAIN0
  6
CONTINUOUS
 62
3
100
AcDbLine
 10
455.3516227264850
 20
175.8930283711151
 30
0.0000000000000000
 11
435.6516227264850
 21
175.8930283711151
 31
0.0000000000000000
  0
LINE
  5
214
100
AcDbEntity
  8
MAIN0
  6
CONTINUOUS
 62
3
100
AcDbLine
 10
435.6516227264850
 20
175.8930283711151
 30
0.0000000000000000
 11
435.6516227264850
 21
181.8930283711151
 31
0.0000000000000000
  0
LINE
  5
215
100
AcDbEntity
  8
MAIN0
  6
CONTINUOUS
 62
3
100
AcDbLine
 10
435.6516227264850
 20
181.8930283711151
 30
0.0000000000000000
 11
455.3516227264850
 21
181.8930283711151
 31
0.0000000000000000
  0
LINE
  5
216
100
AcDbEntity
  8
MAIN0
  6
CONTINUOUS
 62
3
100
AcDbLine
 10
454.8516227264850
 20
176.3930283711151
 30
0.0000000000000000
 11
431.6516227264850
 21
176.3930283711151
 31
0.0000000000000000
  0
LINE
  5
217
100
AcDbEntity
  8
MAIN0
  6
CONTINUOUS
 62
3
100
AcDbLine
 10
431.6516227264850
 20
176.3930283711151
 30
0.0000000000000000
 11
431.6516227264850
 21
181.3930283711151
 31
0.0000000000000000
  0
LINE
  5
218
100
AcDbEntity
  8
MAIN0
  6
CONTINUOUS
 62
3
100
AcDbLine
 10
431.6516227264850
 20
181.3930283711151
 30
0.0000000000000000
 11
454.8516227264850
 21
181.3930283711151
 31
0.0000000000000000
  0
LINE
  5
219
100
AcDbEntity
  8
MAIN0
  6
CONTINUOUS
 62
3
100
AcDbLine
 10
431.6516227264850
 20
176.3930283711151
 30
0.0000000000000000
 11
430.2082470535109
 21
178.8930283711151
 31
0.0000000000000000
  0
LINE
  5
21A
100
AcDbEntity
  8
MAIN0
  6
CONTINUOUS
 62
3
100
AcDbLine
 10
430.2082470535109
 20
178.8930283711151
 30
0.0000000000000000
 11
431.6516227264849
 21
181.3930283711151
 31
0.0000000000000000
  0
LINE
  5
21B
100
AcDbEntity
  8
MAIN0
  6
CONTINUOUS
 62
3
100
AcDbLine
 10
295.2516227264856
 20
263.8930283711149
 30
0.0000000000000000
 11
297.1516227264856
 21
263.8930283711150
 31
0.0000000000000000
  0
LINE
  5
21C
100
AcDbEntity
  8
MAIN0
  6
CONTINUOUS
 62
3
100
AcDbLine
 10
230.6516227264832
 20
178.8930283711152
 30
0.0000000000000000
 11
293.9118767643299
 21
178.8930283711151
 31
0.0000000000000000
  0
LINE
  5
21D
100
AcDbEntity
  8
MAIN0
  6
CONTINUOUS
 62
3
100
AcDbLine
 10
294.1798259567610
 20
267.8930283711149
 30
0.0000000000000000
 11
295.2516227264856
 21
263.8930283711148
 31
0.0000000000000000
  0
LINE
  5
21E
100
AcDbEntity
  8
MAIN0
  6
CONTINUOUS
 62
3
100
AcDbLine
 10
295.2516227264856
 20
183.8930283711152
 30
0.0000000000000000
 11
297.1516227264856
 21
183.8930283711152
 31
0.0000000000000000
  0
LINE
  5
21F
100
AcDbEntity
  8
MAIN0
  6
CONTINUOUS
 62
3
100
AcDbLine
 10
293.9118767643299
 20
178.8930283711151
 30
0.0000000000000000
 11
295.2516227264855
 21
183.8930283711152
 31
0.0000000000000000
  0
LINE
  5
220
100
AcDbEntity
  8
MAIN0
  6
CONTINUOUS
 62
3
100
AcDbLine
 10
256.6516227264835
 20
184.8930283711153
 30
0.0000000000000000
 11
284.6516227264856
 21
184.8930283711152
 31
0.0000000000000000
  0
LINE
  5
221
100
AcDbEntity
  8
MAIN0
  6
CONTINUOUS
 62
3
100
AcDbLine
 10
278.6516227264856
 20
240.0358085191493
 30
0.0000000000000000
 11
278.6516227264856
 21
243.8930283711148
 31
0.0000000000000000
  0
LINE
  5
222
100
AcDbEntity
  8
MAIN0
  6
CONTINUOUS
 62
3
100
AcDbLine
 10
276.6516227264856
 20
233.8930283711150
 30
0.0000000000000000
 11
276.6516227264856
 21
246.8930283711148
 31
0.0000000000000000
  0
LINE
  5
223
100
AcDbEntity
  8
MAIN0
  6
CONTINUOUS
 62
3
100
AcDbLine
 10
276.6516227264856
 20
241.3930283711148
 30
0.0000000000000000
 11
278.6516227264856
 21
241.3930283711148
 31
0.0000000000000000
  0
LINE
  5
224
100
AcDbEntity
  8
MAIN0
  6
CONTINUOUS
 62
3
100
AcDbLine
 10
278.6516227264856
 20
243.8930283711148
 30
0.0000000000000000
 11
280.6976344302149
 21
243.8930283711148
 31
0.0000000000000000
  0
LINE
  5
225
100
AcDbEntity
  8
MAIN0
  6
CONTINUOUS
 62
3
100
AcDbLine
 10
278.6516227264856
 20
248.8930283711150
 30
0.0000000000000000
 11
280.8231956017394
 21
248.8930283711150
 31
0.0000000000000000
  0
LINE
  5
226
100
AcDbEntity
  8
MAIN0
  6
CONTINUOUS
 62
3
100
AcDbLine
 10
282.2374091641124
 20
249.4788148087417
 30
0.0000000000000000
 11
286.3587295076723
 21
253.6001351523015
 31
0.0000000000000000
  0
LINE
  5
227
100
AcDbEntity
  8
MAIN0
  6
CONTINUOUS
 62
3
100
AcDbLine
 10
276.6516227264856
 20
200.8930283223634
 30
0.0000000000000000
 11
276.6516227264856
 21
213.8930283711150
 31
0.0000000000000000
  0
LINE
  5
228
100
AcDbEntity
  8
MAIN0
  6
CONTINUOUS
 62
3
100
AcDbLine
 10
278.6516227264856
 20
198.8930283711153
 30
0.0000000000000000
 11
280.8231956017394
 21
198.8930283711153
 31
0.0000000000000000
  0
LINE
  5
229
100
AcDbEntity
  8
MAIN0
  6
CONTINUOUS
 62
3
100
AcDbLine
 10
282.2374091641124
 20
198.3072419334883
 30
0.0000000000000000
 11
285.4016267583004
 21
195.1430243393003
 31
0.0000000000000000
  0
LINE
  5
22A
100
AcDbEntity
  8
MAIN0
  6
CONTINUOUS
 62
3
100
AcDbLine
 10
276.6516227264856
 20
206.3930283711152
 30
0.0000000000000000
 11
277.9052255128464
 21
206.3930283711152
 31
0.0000000000000000
  0
LINE
  5
22B
100
AcDbEntity
  8
MAIN0
  6
CONTINUOUS
 62
3
100
AcDbLine
 10
254.6516227264835
 20
186.8930283711154
 30
0.0000000000000000
 11
254.6516227264835
 21
187.8930283711151
 31
0.0000000000000000
  0
LINE
  5
22C
100
AcDbEntity
  8
MAIN0
  6
CONTINUOUS
 62
3
100
AcDbLine
 10
230.6516227264836
 20
189.8930283711151
 30
0.0000000000000000
 11
252.6516227264836
 21
189.8930283711151
 31
0.0000000000000000
  0
LINE
  5
22D
100
AcDbEntity
  8
MAIN0
  6
CENTER
 62
12
100
AcDbLine
 10
224.1458607173022
 20
184.8930283711151
 30
0.0000000000000000
 11
238.9439088792687
 21
184.8930283711151
 31
0.0000000000000000
  0
LINE
  5
22E
100
AcDbEntity
  8
MAIN0
  6
CONTINUOUS
 62
3
100
AcDbLine
 10
286.5056723482596
 20
186.1430283711151
 30
0.0000000000000000
 11
289.2929718882168
 21
186.1430283711151
 31
0.0000000000000000
  0
LINE
  5
22F
100
AcDbEntity
  8
MAIN0
  6
CONTINUOUS
 62
3
100
AcDbLine
 10
284.9016227264856
 20
195.6430283711152
 30
0.0000000000000000
 11
288.1324883353829
 21
195.6430283711152
 31
0.0000000000000000
  0
LINE
  5
230
100
AcDbEntity
  8
MAIN0
  6
CENTER
 62
12
100
AcDbLine
 10
281.6112876691423
 20
190.8930283711151
 30
0.0000000000000000
 11
291.0101727616473
 21
190.8930283711151
 31
0.0000000000000000
  0
LINE
  5
231
100
AcDbEntity
  8
MAIN0
  6
CONTINUOUS
 62
3
100
AcDbLine
 10
286.6516227264856
 20
260.8930283711149
 30
0.0000000000000000
 11
286.6516227264856
 21
254.3072419334881
 31
0.0000000000000000
  0
LINE
  5
232
100
AcDbEntity
  8
MAIN0
  6
CONTINUOUS
 62
3
100
AcDbLine
 10
282.6516227264855
 20
249.8930283711148
 30
0.0000000000000000
 11
287.7516227264852
 21
249.8930283711148
 31
0.0000000000000000
  0
LINE
  5
233
100
AcDbEntity
  8
MAIN0
  6
CONTINUOUS
 62
3
100
AcDbLine
 10
287.7516227264852
 20
249.8930283711149
 30
0.0000000000000000
 11
287.7516227264857
 21
267.8930283711149
 31
0.0000000000000000
  0
LINE
  5
234
100
AcDbEntity
  8
MAIN0
  6
CONTINUOUS
 62
3
100
AcDbLine
 10
232.6516227264858
 20
262.8930283711149
 30
0.0000000000000000
 11
232.6516227264858
 21
267.8930283711149
 31
0.0000000000000000
  0
LINE
  5
235
100
AcDbEntity
  8
MAIN0
  6
CONTINUOUS
 62
3
100
AcDbLine
 10
228.6516227264858
 20
266.8930283711149
 30
0.0000000000000000
 11
230.6516227264858
 21
266.8930283711149
 31
0.0000000000000000
  0
LINE
  5
236
100
AcDbEntity
  8
MAIN0
  6
CONTINUOUS
 62
3
100
AcDbLine
 10
228.6516227264858
 20
180.8930283711152
 30
0.0000000000000000
 11
228.6516227264858
 21
266.8930283711149
 31
0.0000000000000000
  0
LINE
  5
237
100
AcDbEntity
  8
MAIN0
  6
CONTINUOUS
 62
3
100
AcDbLine
 10
228.6516227264858
 20
180.8930283711151
 30
0.0000000000000000
 11
230.6516227264833
 21
180.8930283711151
 31
0.0000000000000000
  0
LINE
  5
238
100
AcDbEntity
  8
MAIN0
  6
CONTINUOUS
 62
3
100
AcDbLine
 10
205.6516227264859
 20
268.8930283711149
 30
0.0000000000000000
 11
205.6516227264859
 21
272.0930283711149
 31
0.0000000000000000
  0
LINE
  5
239
100
AcDbEntity
  8
MAIN0
  6
CONTINUOUS
 62
3
100
AcDbLine
 10
260.6516227264859
 20
268.8930283711149
 30
0.0000000000000000
 11
260.6516227264859
 21
272.0930283711149
 31
0.0000000000000000
  0
LINE
  5
23A
100
AcDbEntity
  8
MAIN0
  6
CONTINUOUS
 62
3
100
AcDbLine
 10
289.6516227264857
 20
267.8930283711149
 30
0.0000000000000000
 11
289.6516227264857
 21
268.3930283711149
 31
0.0000000000000000
  0
LINE
  5
23B
100
AcDbEntity
  8
MAIN0
  6
CONTINUOUS
 62
3
100
AcDbLine
 10
218.6516227264858
 20
267.8930283711149
 30
0.0000000000000000
 11
218.6516227264858
 21
268.3930283711149
 31
0.0000000000000000
  0
LINE
  5
23C
100
AcDbEntity
  8
MAIN0
  6
CONTINUOUS
 62
3
100
AcDbLine
 10
220.6516227264856
 20
268.3930283711149
 30
0.0000000000000000
 11
220.6516227264856
 21
268.8930283711149
 31
0.0000000000000000
  0
LINE
  5
23D
100
AcDbEntity
  8
MAIN0
  6
CONTINUOUS
 62
3
100
AcDbLine
 10
275.6516227264856
 20
268.3930283711150
 30
0.0000000000000000
 11
275.6516227264856
 21
268.8930283711149
 31
0.0000000000000000
  0
LINE
  5
23E
100
AcDbEntity
  8
MAIN0
  6
CENTER
 62
12
100
AcDbLine
 10
257.6516227264849
 20
253.8930283711148
 30
0.0000000000000000
 11
262.6516227264849
 21
253.8930283711148
 31
0.0000000000000000
  0
LINE
  5
23F
100
AcDbEntity
  8
MAIN0
  6
CENTER
 62
12
100
AcDbLine
 10
262.6516227264850
 20
250.4129914316619
 30
0.0000000000000000
 11
262.6516227264850
 21
253.8930283711143
 31
0.0000000000000000
  0
LINE
  5
240
100
AcDbEntity
  8
MAIN0
  6
CENTER
 62
12
100
AcDbLine
 10
257.6516227264850
 20
243.8930283711148
 30
0.0000000000000000
 11
257.6516227264850
 21
253.8930283711143
 31
0.0000000000000000
  0
LINE
  5
241
100
AcDbEntity
  8
MAIN0
  6
CENTER
 62
12
100
AcDbLine
 10
247.6516227264848
 20
243.8930283711148
 30
0.0000000000000000
 11
257.6516227264850
 21
243.8930283711148
 31
0.0000000000000000
  0
LINE
  5
242
100
AcDbEntity
  8
MAIN0
  6
CENTER
 62
12
100
AcDbLine
 10
257.6516227264849
 20
193.8930283711153
 30
0.0000000000000000
 11
262.6516227264849
 21
193.8930283711152
 31
0.0000000000000000
  0
LINE
  5
243
100
AcDbEntity
  8
MAIN0
  6
CENTER
 62
12
100
AcDbLine
 10
262.6516227264850
 20
193.8930283711157
 30
0.0000000000000000
 11
262.6516227264850
 21
197.2636469250497
 31
0.0000000000000000
  0
LINE
  5
244
100
AcDbEntity
  8
MAIN0
  6
CENTER
 62
12
100
AcDbLine
 10
257.6516227264850
 20
203.8930283711152
 30
0.0000000000000000
 11
257.6516227264850
 21
193.8930283711157
 31
0.0000000000000000
  0
LINE
  5
245
100
AcDbEntity
  8
MAIN0
  6
CENTER
 62
12
100
AcDbLine
 10
247.6516227264848
 20
203.8930283711153
 30
0.0000000000000000
 11
257.6516227264849
 21
203.8930283711153
 31
0.0000000000000000
  0
LINE
  5
246
100
AcDbEntity
  8
MAIN0
  6
CENTER
 62
12
100
AcDbLine
 10
246.6516227264849
 20
204.8930283711152
 30
0.0000000000000000
 11
246.6516227264849
 21
242.8930283711148
 31
0.0000000000000000
  0
LINE
  5
247
100
AcDbEntity
  8
MAIN0
  6
CONTINUOUS
 62
3
100
AcDbLine
 10
230.6516227264831
 20
178.8930283711152
 30
0.0000000000000000
 11
230.6516227264833
 21
183.3930283711152
 31
0.0000000000000000
  0
LINE
  5
248
100
AcDbEntity
  8
MAIN0
  6
CONTINUOUS
 62
3
100
AcDbLine
 10
230.6516227264834
 20
186.3930283711152
 30
0.0000000000000000
 11
230.6516227264858
 21
267.8930283711150
 31
0.0000000000000000
  0
LINE
  5
249
100
AcDbEntity
  8
MAIN0
  6
CENTER
 62
12
100
AcDbLine
 10
247.6516227264848
 20
203.8930283711151
 30
0.0000000000000000
 11
246.6516227264848
 21
204.8930283711151
 31
0.0000000000000000
  0
LINE
  5
24A
100
AcDbEntity
  8
MAIN0
  6
CENTER
 62
12
100
AcDbLine
 10
247.6516227264848
 20
243.8930283711149
 30
0.0000000000000000
 11
246.6516227264848
 21
242.8930283711149
 31
0.0000000000000000
  0
ARC
  5
24B
100
AcDbEntity
  8
MAIN0
  6
CONTINUOUS
 62
3
100
AcDbCircle
 10
284.6516227264856
 20
260.8930283711149
 30
0.0000000000000000
 40
2.000000000000000
100
AcDbArc
 50
7.180798978638723
 51
89.99999999999970
  0
ARC
  5
24C
100
AcDbEntity
  8
MAIN0
  6
CONTINUOUS
 62
3
100
AcDbCircle
 10
284.6516227264856
 20
186.8930283711151
 30
0.0000000000000000
 40
2.000000000000000
100
AcDbArc
 50
269.9999999999999
 51
352.8192010213611
  0
ARC
  5
24D
100
AcDbEntity
  8
MAIN0
  6
CONTINUOUS
 62
3
100
AcDbCircle
 10
280.8231956017394
 20
250.8930283711150
 30
0.0000000000000000
 40
2.000000000000000
100
AcDbArc
 50
269.9999999999999
 51
314.9999999999998
  0
ARC
  5
24E
100
AcDbEntity
  8
MAIN0
  6
CONTINUOUS
 62
3
100
AcDbCircle
 10
278.6516227264856
 20
246.8930283711150
 30
0.0000000000000000
 40
2.000000000000000
100
AcDbArc
 50
89.99999999999970
 51
179.9999999999998
  0
ARC
  5
24F
100
AcDbEntity
  8
MAIN0
  6
CONTINUOUS
 62
3
100
AcDbCircle
 10
280.8231956017394
 20
196.8930283711152
 30
0.0000000000000000
 40
2.000000000000000
100
AcDbArc
 50
45.00000000000004
 51
89.99999999999970
  0
ARC
  5
250
100
AcDbEntity
  8
MAIN0
  6
CONTINUOUS
 62
3
100
AcDbCircle
 10
278.6516227264856
 20
200.8930283711152
 30
0.0000000000000000
 40
2.000000000000000
100
AcDbArc
 50
179.9999999999998
 51
269.9999999999999
  0
ARC
  5
251
100
AcDbEntity
  8
MAIN0
  6
CONTINUOUS
 62
3
100
AcDbCircle
 10
256.6516227264836
 20
186.8930283711152
 30
0.0000000000000000
 40
2.000000000000000
100
AcDbArc
 50
179.9999999999998
 51
269.9999999999999
  0
ARC
  5
252
100
AcDbEntity
  8
MAIN0
  6
CONTINUOUS
 62
3
100
AcDbCircle
 10
252.6516227264836
 20
187.8930283711151
 30
0.0000000000000000
 40
2.000000000000000
100
AcDbArc
 50
0.0000000000000000
 51
89.99999999999970
  0
ARC
  5
253
100
AcDbEntity
  8
MAIN0
  6
CONTINUOUS
 62
3
100
AcDbCircle
 10
285.6516227264856
 20
254.3072419334881
 30
0.0000000000000000
 40
1.000000000000000
100
AcDbArc
 50
314.9999999999993
 51
359.9999999999998
  0
LINE
  5
254
100
AcDbEntity
  8
MAIN0
  6
CONTINUOUS
 62
3
100
AcDbLine
 10
289.6516227264857
 20
267.8930283711149
 30
0.0000000000000000
 11
294.1798259567610
 21
267.8930283711149
 31
0.0000000000000000
  0
LINE
  5
255
100
AcDbEntity
  8
MAIN0
  6
CONTINUOUS
 62
3
100
AcDbLine
 10
275.6516227264856
 20
268.3930283711149
 30
0.0000000000000000
 11
289.6516227264857
 21
268.3930283711149
 31
0.0000000000000000
  0
LINE
  5
256
100
AcDbEntity
  8
MAIN0
  6
CONTINUOUS
 62
3
100
AcDbLine
 10
260.6516227264859
 20
268.8930283711149
 30
0.0000000000000000
 11
275.6516227264856
 21
268.8930283711149
 31
0.0000000000000000
  0
LINE
  5
257
100
AcDbEntity
  8
MAIN0
  6
CONTINUOUS
 62
4
100
AcDbLine
 10
220.6516227264856
 20
268.8930283711149
 30
0.0000000000000000
 11
233.6516227264859
 21
268.8930283711149
 31
0.0000000000000000
  0
LINE
  5
258
100
AcDbEntity
  8
MAIN0
  6
CONTINUOUS
 62
3
100
AcDbLine
 10
218.6516227264858
 20
268.3930283711149
 30
0.0000000000000000
 11
220.6516227264856
 21
268.3930283711149
 31
0.0000000000000000
  0
LINE
  5
259
100
AcDbEntity
  8
MAIN0
  6
CONTINUOUS
 62
3
100
AcDbLine
 10
218.6516227264858
 20
267.8930283711149
 30
0.0000000000000000
 11
230.6516227264858
 21
267.8930283711149
 31
0.0000000000000000
  0
LINE
  5
25A
100
AcDbEntity
  8
MAIN0
  6
CONTINUOUS
 62
3
100
AcDbLine
 10
205.6516227264859
 20
272.0930283711149
 30
0.0000000000000000
 11
260.6516227264859
 21
272.0930283711149
 31
0.0000000000000000
  0
LINE
  5
25B
100
AcDbEntity
  8
MAIN0
  6
CONTINUOUS
 62
3
100
AcDbLine
 10
205.6516227264859
 20
268.8930283711149
 30
0.0000000000000000
 11
260.6516227264859
 21
268.8930283711149
 31
0.0000000000000000
  0
LINE
  5
25C
100
AcDbEntity
  8
MAIN0
  6
CONTINUOUS
 62
3
100
AcDbLine
 10
230.6516227264857
 20
262.8930283711150
 30
0.0000000000000000
 11
284.6516227264856
 21
262.8930283711149
 31
0.0000000000000000
  0
LINE
  5
25D
100
AcDbEntity
  8
MAIN0
  6
CONTINUOUS
 62
4
100
AcDbLine
 10
230.6516227264858
 20
267.8930283711149
 30
0.0000000000000000
 11
289.6516227264857
 21
267.8930283711149
 31
0.0000000000000000
  0
LINE
  5
25E
100
AcDbEntity
  8
MAIN0
  6
CONTINUOUS
 62
4
100
AcDbLine
 10
220.6516227264856
 20
268.3930283711149
 30
0.0000000000000000
 11
275.6516227264856
 21
268.3930283711149
 31
0.0000000000000000
  0
LINE
  5
25F
100
AcDbEntity
  8
MAIN0
  6
CONTINUOUS
 62
3
100
AcDbLine
 10
261.6516227264850
 20
217.8930283711151
 30
0.0000000000000000
 11
261.6516227264850
 21
229.8930283711150
 31
0.0000000000000000
  0
LINE
  5
260
100
AcDbEntity
  8
MAIN0
  6
CONTINUOUS
 62
3
100
AcDbLine
 10
276.6516227264850
 20
231.3930283711150
 30
0.0000000000000000
 11
278.1183103866079
 21
231.3930283711150
 31
0.0000000000000000
  0
LINE
  5
261
100
AcDbEntity
  8
MAIN0
  6
CONTINUOUS
 62
3
100
AcDbLine
 10
276.6516227264849
 20
216.3930283711150
 30
0.0000000000000000
 11
278.5952006050448
 21
216.3930283711150
 31
0.0000000000000000
  0
LINE
  5
262
100
AcDbEntity
  8
MAIN0
  6
CONTINUOUS
 62
3
100
AcDbLine
 10
276.6516227264849
 20
216.3930283711151
 30
0.0000000000000000
 11
276.6516227264849
 21
231.3930283711150
 31
0.0000000000000000
  0
LINE
  5
263
100
AcDbEntity
  8
MAIN0
  6
CONTINUOUS
 62
3
100
AcDbLine
 10
273.6516227264849
 20
230.5891807938216
 30
0.0000000000000000
 11
276.6516227264850
 21
231.3930283711150
 31
0.0000000000000000
  0
LINE
  5
264
100
AcDbEntity
  8
MAIN0
  6
CONTINUOUS
 62
3
100
AcDbLine
 10
264.6516227264850
 20
217.8930283711151
 30
0.0000000000000000
 11
264.6516227264850
 21
229.8930283711150
 31
0.0000000000000000
  0
LINE
  5
265
100
AcDbEntity
  8
MAIN0
  6
CONTINUOUS
 62
3
100
AcDbLine
 10
269.6516227264849
 20
217.8930283711151
 30
0.0000000000000000
 11
269.6516227264849
 21
229.8930283711150
 31
0.0000000000000000
  0
LINE
  5
266
100
AcDbEntity
  8
MAIN0
  6
CONTINUOUS
 62
3
100
AcDbLine
 10
261.6516227264850
 20
229.8930283711150
 30
0.0000000000000000
 11
264.6516227264850
 21
229.8930283711150
 31
0.0000000000000000
  0
LINE
  5
267
100
AcDbEntity
  8
MAIN0
  6
CONTINUOUS
 62
3
100
AcDbLine
 10
269.6516227264849
 20
229.8930283711150
 30
0.0000000000000000
 11
273.6516227264849
 21
229.8930283711150
 31
0.0000000000000000
  0
LINE
  5
268
100
AcDbEntity
  8
MAIN0
  6
CONTINUOUS
 62
3
100
AcDbLine
 10
273.6516227264849
 20
217.1968759484084
 30
0.0000000000000000
 11
276.6516227264850
 21
216.3930283711150
 31
0.0000000000000000
  0
LINE
  5
269
100
AcDbEntity
  8
MAIN0
  6
CONTINUOUS
 62
3
100
AcDbLine
 10
264.6516227264850
 20
218.3930283711151
 30
0.0000000000000000
 11
269.6516227264849
 21
218.3930283711151
 31
0.0000000000000000
  0
LINE
  5
26A
100
AcDbEntity
  8
MAIN0
  6
CONTINUOUS
 62
3
100
AcDbLine
 10
261.6516227264850
 20
217.8930283711151
 30
0.0000000000000000
 11
264.6516227264850
 21
217.8930283711151
 31
0.0000000000000000
  0
LINE
  5
26B
100
AcDbEntity
  8
MAIN0
  6
CONTINUOUS
 62
3
100
AcDbLine
 10
269.6516227264849
 20
217.8930283711151
 30
0.0000000000000000
 11
273.6516227264849
 21
217.8930283711151
 31
0.0000000000000000
  0
LINE
  5
26C
100
AcDbEntity
  8
MAIN0
  6
CONTINUOUS
 62
3
100
AcDbLine
 10
264.6516227264850
 20
229.3930283711150
 30
0.0000000000000000
 11
269.6516227264849
 21
229.3930283711150
 31
0.0000000000000000
  0
LINE
  5
26D
100
AcDbEntity
  8
MAIN0
  6
CONTINUOUS
 62
3
100
AcDbLine
 10
273.6516227264849
 20
217.1968759484084
 30
0.0000000000000000
 11
273.6516227264849
 21
230.5891807938216
 31
0.0000000000000000
  0
LINE
  5
26E
100
AcDbEntity
  8
MAIN0
  6
CENTER
 62
12
100
AcDbLine
 10
145.9356423056125
 20
319.5173309274074
 30
0.0000000000000000
 11
241.1646958381911
 21
374.4978506191151
 31
0.0000000000000000
  0
LINE
  5
26F
100
AcDbEntity
  8
MAIN0
  6
CENTER
 62
12
100
AcDbLine
 10
90.65906514228126
 20
298.3689011464591
 30
0.0000000000000000
 11
90.65906514228126
 21
403.3289110156481
 31
0.0000000000000000
  0
LINE
  5
270
100
AcDbEntity
  8
MAIN0
  6
CENTER
 62
12
100
AcDbLine
 10
145.9356423056125
 20
319.5173309274074
 30
0.0000000000000000
 11
183.0211750272900
 21
255.2833040277038
 31
0.0000000000000000
  0
LINE
  5
271
100
AcDbEntity
  8
MAIN0
  6
CENTER
 62
12
100
AcDbLine
 10
128.6516227264858
 20
298.3689011464591
 30
0.0000000000000000
 11
90.65906514228126
 21
298.3689011464591
 31
0.0000000000000000
  0
LINE
  5
272
100
AcDbEntity
  8
MAIN0
  6
CONTINUOUS
 62
3
100
AcDbLine
 10
68.65906514228132
 20
303.3939458731368
 30
0.0000000000000000
 11
90.65906514228129
 21
303.3939458731368
 31
0.0000000000000000
  0
LINE
  5
273
100
AcDbEntity
  8
MAIN0
  6
CENTER
 62
12
100
AcDbLine
 10
68.65906514228323
 20
399.3939458731368
 30
0.0000000000000000
 11
90.65906514228126
 21
399.3939458731368
 31
0.0000000000000000
  0
LINE
  5
274
100
AcDbEntity
  8
MAIN0
  6
CENTER
 62
12
100
AcDbLine
 10
138.2712129545445
 20
340.4956824227270
 30
0.0000000000000000
 11
149.2712129545445
 21
321.4431235394693
 31
0.0000000000000000
  0
LINE
  5
275
100
AcDbEntity
  8
MAIN0
  6
CONTINUOUS
 62
3
100
AcDbLine
 10
221.4096517178506
 20
388.4956824227270
 30
0.0000000000000000
 11
242.6596517178506
 21
351.6896027618884
 31
0.0000000000000000
  0
LINE
  5
276
100
AcDbEntity
  8
MAIN0
  6
CONTINUOUS
 62
3
100
AcDbLine
 10
68.65906514228124
 20
358.3939458731368
 30
0.0000000000000000
 11
90.65906514228126
 21
358.3939458731368
 31
0.0000000000000000
  0
LINE
  5
277
100
AcDbEntity
  8
MAIN0
  6
CONTINUOUS
 62
3
100
AcDbLine
 10
173.7782545097065
 20
360.9956824227271
 30
0.0000000000000000
 11
195.0282545097065
 21
324.1896027618884
 31
0.0000000000000000
  0
LINE
  5
278
100
AcDbEntity
  8
MAIN0
  6
CENTER
 62
12
100
AcDbLine
 10
79.37241430211191
 20
337.3939458731368
 30
0.0000000000000000
 11
95.18230628317471
 21
337.3939458731368
 31
0.0000000000000000
  0
LINE
  5
279
100
AcDbEntity
  8
MAIN0
  6
CENTER
 62
12
100
AcDbLine
 10
68.15906514228124
 20
351.3939458731368
 30
0.0000000000000000
 11
81.99413116481625
 21
351.3939458731368
 31
0.0000000000000000
  0
LINE
  5
27A
100
AcDbEntity
  8
MAIN0
  6
CENTER
 62
12
100
AcDbLine
 10
68.15906514228124
 20
310.3939458731368
 30
0.0000000000000000
 11
82.07358034900389
 21
310.3939458731368
 31
0.0000000000000000
  0
LINE
  5
27B
100
AcDbEntity
  8
MAIN0
  6
CENTER
 62
12
100
AcDbLine
 10
74.65906514228126
 20
301.6545636597125
 30
0.0000000000000000
 11
74.65906514228126
 21
360.2068775530301
 31
0.0000000000000000
  0
LINE
  5
27C
100
AcDbEntity
  8
MAIN0
  6
CENTER
 62
12
100
AcDbLine
 10
80.65906514228126
 20
378.3939458731368
 30
0.0000000000000000
 11
100.6590651422813
 21
378.3939458731368
 31
0.0000000000000000
  0
LINE
  5
27D
100
AcDbEntity
  8
MAIN0
  6
CONTINUOUS
 62
3
100
AcDbLine
 10
77.40906514228126
 20
310.3939458731367
 30
0.0000000000000000
 11
77.40906514228126
 21
347.2181226010142
 31
0.0000000000000000
  0
LINE
  5
27E
100
AcDbEntity
  8
MAIN0
  6
CONTINUOUS
 62
3
100
AcDbLine
 10
71.90906514228126
 20
310.3939458731367
 30
0.0000000000000000
 11
71.90906514228126
 21
347.2181226010142
 31
0.0000000000000000
  0
LINE
  5
27F
100
AcDbEntity
  8
MAIN0
  6
CONTINUOUS
 62
3
100
AcDbLine
 10
113.1590651422813
 20
317.3939458731368
 30
0.0000000000000000
 11
113.1590651422813
 21
384.3939458731368
 31
0.0000000000000000
  0
LINE
  5
280
100
AcDbEntity
  8
MAIN0
  6
CONTINUOUS
 62
3
100
AcDbLine
 10
61.73519108473437
 20
328.3939458731368
 30
0.0000000000000000
 11
66.65906514228129
 21
328.3939458731368
 31
0.0000000000000000
  0
LINE
  5
281
100
AcDbEntity
  8
MAIN0
  6
HIDDEN
 62
12
100
AcDbLine
 10
66.65906514228124
 20
328.3939458731368
 30
0.0000000000000000
 11
113.1590651422813
 21
328.3939458731368
 31
0.0000000000000000
  0
LINE
  5
282
100
AcDbEntity
  8
MAIN0
  6
CONTINUOUS
 62
3
100
AcDbLine
 10
113.1590651422813
 20
328.3939458731368
 30
0.0000000000000000
 11
119.0163534362126
 21
328.3939458731368
 31
0.0000000000000000
  0
LINE
  5
283
100
AcDbEntity
  8
MAIN0
  6
CONTINUOUS
 62
3
100
AcDbLine
 10
61.73519108473437
 20
326.3939458731367
 30
0.0000000000000000
 11
66.65906514228129
 21
326.3939458731367
 31
0.0000000000000000
  0
LINE
  5
284
100
AcDbEntity
  8
MAIN0
  6
HIDDEN
 62
12
100
AcDbLine
 10
66.65906514228124
 20
326.3939458731367
 30
0.0000000000000000
 11
113.1590651422813
 21
326.3939458731367
 31
0.0000000000000000
  0
LINE
  5
285
100
AcDbEntity
  8
MAIN0
  6
CONTINUOUS
 62
3
100
AcDbLine
 10
113.1590651422813
 20
326.3939458731367
 30
0.0000000000000000
 11
119.0163534362126
 21
326.3939458731367
 31
0.0000000000000000
  0
LINE
  5
286
100
AcDbEntity
  8
MAIN0
  6
CENTER
 62
12
100
AcDbLine
 10
113.1590651422813
 20
351.3939458731368
 30
0.0000000000000000
 11
99.32399911974630
 21
351.3939458731368
 31
0.0000000000000000
  0
LINE
  5
287
100
AcDbEntity
  8
MAIN0
  6
CENTER
 62
12
100
AcDbLine
 10
106.6590651422813
 20
318.0206353352507
 30
0.0000000000000000
 11
106.6590651422813
 21
360.2068775530301
 31
0.0000000000000000
  0
LINE
  5
288
100
AcDbEntity
  8
MAIN0
  6
CONTINUOUS
 62
3
100
AcDbLine
 10
90.65906514228132
 20
371.3939458731368
 30
0.0000000000000000
 11
111.1590651422813
 21
371.3939458731368
 31
0.0000000000000000
  0
LINE
  5
289
100
AcDbEntity
  8
MAIN0
  6
CONTINUOUS
 62
3
100
AcDbLine
 10
90.65906514228132
 20
386.3939458731368
 30
0.0000000000000000
 11
111.1590651422813
 21
386.3939458731368
 31
0.0000000000000000
  0
LINE
  5
28A
100
AcDbEntity
  8
MAIN0
  6
CONTINUOUS
 62
3
100
AcDbLine
 10
90.65906514228135
 20
316.3939458731368
 30
0.0000000000000000
 11
111.1590651422813
 21
316.3939458731368
 31
0.0000000000000000
  0
LINE
  5
28B
100
AcDbEntity
  8
MAIN0
  6
CONTINUOUS
 62
3
100
AcDbLine
 10
90.65906514228135
 20
315.3939458731368
 30
0.0000000000000000
 11
111.1590651422813
 21
315.3939458731368
 31
0.0000000000000000
  0
LINE
  5
28C
100
AcDbEntity
  8
MAIN0
  6
CENTER
 62
12
100
AcDbLine
 10
113.1590651422813
 20
337.3939458731368
 30
0.0000000000000000
 11
99.32399911974630
 21
337.3939458731368
 31
0.0000000000000000
  0
LINE
  5
28D
100
AcDbEntity
  8
MAIN0
  6
CENTER
 62
12
100
AcDbLine
 10
113.1590651422813
 20
323.3939458731368
 30
0.0000000000000000
 11
99.32399911974630
 21
323.3939458731368
 31
0.0000000000000000
  0
LINE
  5
28E
100
AcDbEntity
  8
MAIN0
  6
CONTINUOUS
 62
3
100
AcDbLine
 10
109.4090651422813
 20
323.3939458731367
 30
0.0000000000000000
 11
109.4090651422813
 21
351.3939458731367
 31
0.0000000000000000
  0
LINE
  5
28F
100
AcDbEntity
  8
MAIN0
  6
CONTINUOUS
 62
3
100
AcDbLine
 10
103.9090651422813
 20
323.3939458731367
 30
0.0000000000000000
 11
103.9090651422813
 21
351.3939458731367
 31
0.0000000000000000
  0
LINE
  5
290
100
AcDbEntity
  8
MAIN0
  6
CONTINUOUS
 62
3
100
AcDbLine
 10
97.65906514228126
 20
338.3939458731367
 30
0.0000000000000000
 11
97.65906514228129
 21
349.3939456648867
 31
0.0000000000000000
  0
LINE
  5
291
100
AcDbEntity
  8
MAIN0
  6
HIDDEN
 62
12
100
AcDbLine
 10
97.65906514228126
 20
349.3939456648867
 30
0.0000000000000000
 11
97.65906514228126
 21
363.3939458731368
 31
0.0000000000000000
  0
LINE
  5
292
100
AcDbEntity
  8
MAIN0
  6
CONTINUOUS
 62
3
100
AcDbLine
 10
66.65906514228126
 20
305.3939458731368
 30
0.0000000000000000
 11
66.65906514228126
 21
356.3939458731368
 31
0.0000000000000000
  0
LINE
  5
293
100
AcDbEntity
  8
MAIN0
  6
CENTER
 62
12
100
AcDbLine
 10
66.65906514228126
 20
358.3939458731368
 30
0.0000000000000000
 11
66.65906514228126
 21
397.3939458731368
 31
0.0000000000000000
  0
LINE
  5
294
100
AcDbEntity
  8
MAIN0
  6
CENTER
 62
12
100
AcDbLine
 10
139.0032637621134
 20
343.2277332302958
 30
0.0000000000000000
 11
172.7782545097066
 21
362.7277332302959
 31
0.0000000000000000
  0
LINE
  5
295
100
AcDbEntity
  8
MAIN0
  6
CONTINUOUS
 62
3
100
AcDbLine
 10
174.5103053172754
 20
363.7277332302959
 30
0.0000000000000000
 11
218.6776009102816
 21
389.2277332302958
 31
0.0000000000000000
  0
LINE
  5
296
100
AcDbEntity
  8
MAIN0
  6
CENTER
 62
12
100
AcDbLine
 10
176.7782545097065
 20
355.7995300000204
 30
0.0000000000000000
 11
224.4096517178505
 21
383.2995300000204
 31
0.0000000000000000
  0
LINE
  5
297
100
AcDbEntity
  8
MAIN0
  6
CENTER
 62
12
100
AcDbLine
 10
215.0974738913594
 20
385.4286951246193
 30
0.0000000000000000
 11
221.4852419333595
 21
374.3647563289103
 31
0.0000000000000000
  0
LINE
  5
298
100
AcDbEntity
  8
MAIN0
  6
CENTER
 62
12
100
AcDbLine
 10
179.5904323361976
 20
364.9286951246194
 30
0.0000000000000000
 11
186.5509213115123
 21
352.8727745738513
 31
0.0000000000000000
  0
LINE
  5
299
100
AcDbEntity
  8
MAIN0
  6
CONTINUOUS
 62
3
100
AcDbLine
 10
185.0818013715701
 20
363.7690114964889
 30
0.0000000000000000
 11
216.9724738913594
 21
382.1810998604275
 31
0.0000000000000000
  0
LINE
  5
29A
100
AcDbEntity
  8
MAIN0
  6
CONTINUOUS
 62
3
100
AcDbLine
 10
187.8318013715699
 20
359.0058717756745
 30
0.0000000000000000
 11
219.7224738913594
 21
377.4179601396131
 31
0.0000000000000000
  0
LINE
  5
29B
100
AcDbEntity
  8
MAIN0
  6
CENTER
 62
12
100
AcDbLine
 10
208.3726386309937
 20
369.0764514681035
 30
0.0000000000000000
 11
217.1586061812100
 21
353.8587092774775
 31
0.0000000000000000
  0
LINE
  5
29C
100
AcDbEntity
  8
MAIN0
  6
CENTER
 62
12
100
AcDbLine
 10
173.7160766832155
 20
347.1033775773138
 30
0.0000000000000000
 11
183.7160766832155
 21
329.7828695016250
 31
0.0000000000000000
  0
LINE
  5
29D
100
AcDbEntity
  8
MAIN0
  6
CONTINUOUS
 62
3
100
AcDbLine
 10
197.7603053172755
 20
323.4575519543195
 30
0.0000000000000000
 11
242.7936263140662
 21
349.4575519543193
 31
0.0000000000000000
  0
LINE
  5
29E
100
AcDbEntity
  8
MAIN0
  6
CENTER
 62
12
100
AcDbLine
 10
192.7782545097066
 20
328.0867170789184
 30
0.0000000000000000
 11
229.9413655292303
 21
349.5428492299644
 31
0.0000000000000000
  0
LINE
  5
29F
100
AcDbEntity
  8
MAIN0
  6
CENTER
 62
12
100
AcDbLine
 10
202.0904323361978
 20
325.9575519543195
 30
0.0000000000000000
 11
195.1299433608830
 21
338.0134725050876
 31
0.0000000000000000
  0
LINE
  5
2A0
100
AcDbEntity
  8
MAIN0
  6
CENTER
 62
12
100
AcDbLine
 10
214.2147879891798
 20
332.9575519543195
 30
0.0000000000000000
 11
207.2542990138650
 21
345.0134725050875
 31
0.0000000000000000
  0
LINE
  5
2A1
100
AcDbEntity
  8
MAIN0
  6
CENTER
 62
12
100
AcDbLine
 10
226.3391436421619
 20
339.9575519543195
 30
0.0000000000000000
 11
219.3786546668471
 21
352.0134725050876
 31
0.0000000000000000
  0
LINE
  5
2A2
100
AcDbEntity
  8
MAIN0
  6
CONTINUOUS
 62
3
100
AcDbLine
 10
197.4654323361976
 20
333.9682869393256
 30
0.0000000000000000
 11
221.7141436421619
 21
347.9682869393256
 31
0.0000000000000000
  0
LINE
  5
2A3
100
AcDbEntity
  8
MAIN0
  6
CONTINUOUS
 62
3
100
AcDbLine
 10
200.2154323361976
 20
329.2051472185112
 30
0.0000000000000000
 11
224.4641436421619
 21
343.2051472185112
 31
0.0000000000000000
  0
LINE
  5
2A4
100
AcDbEntity
  8
MAIN0
  6
HIDDEN
 62
12
100
AcDbLine
 10
195.2064577399820
 20
339.8809457129782
 30
0.0000000000000000
 11
207.3308133929641
 21
346.8809457129782
 31
0.0000000000000000
  0
LINE
  5
2A5
100
AcDbEntity
  8
MAIN0
  6
CONTINUOUS
 62
3
100
AcDbLine
 10
207.3308133929641
 20
346.8809457129782
 30
0.0000000000000000
 11
216.8570928345930
 21
352.3809457129783
 31
0.0000000000000000
  0
LINE
  5
2A6
100
AcDbEntity
  8
MAIN0
  6
CONTINUOUS
 62
3
100
AcDbLine
 10
233.2756771216348
 20
369.9431235394693
 30
0.0000000000000000
 11
243.5256771216349
 21
352.1896027618882
 31
0.0000000000000000
  0
LINE
  5
2A7
100
AcDbEntity
  8
MAIN0
  6
CONTINUOUS
 62
3
100
AcDbLine
 10
171.7878734529399
 20
334.4431235394693
 30
0.0000000000000000
 11
182.0378734529398
 21
316.6896027618883
 31
0.0000000000000000
  0
LINE
  5
2A8
100
AcDbEntity
  8
MAIN0
  6
CENTER
 62
12
100
AcDbLine
 10
159.6635177999578
 20
327.4431235394693
 30
0.0000000000000000
 11
169.9135177999578
 21
309.6896027618883
 31
0.0000000000000000
  0
LINE
  5
2A9
100
AcDbEntity
  8
MAIN0
  6
CENTER
 62
12
100
AcDbLine
 10
172.6455686075267
 20
308.9575519543194
 30
0.0000000000000000
 11
183.0378734529399
 21
314.9575519543195
 31
0.0000000000000000
  0
LINE
  5
2AA
100
AcDbEntity
  8
MAIN0
  6
CONTINUOUS
 62
3
100
AcDbLine
 10
184.7699242605089
 20
315.9575519543195
 30
0.0000000000000000
 11
197.7603053172755
 21
323.4575519543195
 31
0.0000000000000000
  0
LINE
  5
2AB
100
AcDbEntity
  8
MAIN0
  6
CONTINUOUS
 62
3
100
AcDbLine
 10
68.65906514228135
 20
358.3939458731368
 30
0.0000000000000000
 11
66.65906514228141
 21
356.3939458731368
 31
0.0000000000000000
  0
LINE
  5
2AC
100
AcDbEntity
  8
MAIN0
  6
CONTINUOUS
 62
3
100
AcDbLine
 10
68.65906514228135
 20
303.3939458731368
 30
0.0000000000000000
 11
66.65906514228132
 21
305.3939458731368
 31
0.0000000000000000
  0
LINE
  5
2AD
100
AcDbEntity
  8
MAIN0
  6
CENTER
 62
12
100
AcDbLine
 10
68.65906514228226
 20
399.3939458731359
 30
0.0000000000000000
 11
66.65906514228226
 21
397.3939458731359
 31
0.0000000000000000
  0
LINE
  5
2AE
100
AcDbEntity
  8
MAIN0
  6
CONTINUOUS
 62
3
100
AcDbLine
 10
111.1590651422813
 20
386.3939458731368
 30
0.0000000000000000
 11
113.1590651422813
 21
384.3939458731368
 31
0.0000000000000000
  0
LINE
  5
2AF
100
AcDbEntity
  8
MAIN0
  6
CONTINUOUS
 62
3
100
AcDbLine
 10
111.1590651422813
 20
371.3939458731368
 30
0.0000000000000000
 11
113.1590651422813
 21
369.3939458731368
 31
0.0000000000000000
  0
LINE
  5
2B0
100
AcDbEntity
  8
MAIN0
  6
CONTINUOUS
 62
3
100
AcDbLine
 10
111.1590651422813
 20
316.3939458731368
 30
0.0000000000000000
 11
113.1590651422813
 21
318.3939458731368
 31
0.0000000000000000
  0
LINE
  5
2B1
100
AcDbEntity
  8
MAIN0
  6
CONTINUOUS
 62
3
100
AcDbLine
 10
111.1590651422813
 20
315.3939458731368
 30
0.0000000000000000
 11
113.1590651422813
 21
317.3939458731368
 31
0.0000000000000000
  0
LINE
  5
2B2
100
AcDbEntity
  8
MAIN0
  6
CONTINUOUS
 62
3
100
AcDbLine
 10
221.4096517178505
 20
388.4956824227270
 30
0.0000000000000000
 11
218.6776009102816
 21
389.2277332302959
 31
0.0000000000000000
  0
LINE
  5
2B3
100
AcDbEntity
  8
MAIN0
  6
CONTINUOUS
 62
3
100
AcDbLine
 10
173.7782545097065
 20
360.9956824227270
 30
0.0000000000000000
 11
174.5103053172754
 21
363.7277332302958
 31
0.0000000000000000
  0
LINE
  5
2B4
100
AcDbEntity
  8
MAIN0
  6
CENTER
 62
12
100
AcDbLine
 10
138.2712129545445
 20
340.4956824227270
 30
0.0000000000000000
 11
139.0032637621134
 21
343.2277332302958
 31
0.0000000000000000
  0
LINE
  5
2B5
100
AcDbEntity
  8
MAIN0
  6
CENTER
 62
12
100
AcDbLine
 10
169.9135177999578
 20
309.6896027618882
 30
0.0000000000000000
 11
172.6455686075266
 21
308.9575519543193
 31
0.0000000000000000
  0
LINE
  5
2B6
100
AcDbEntity
  8
MAIN0
  6
CONTINUOUS
 62
3
100
AcDbLine
 10
182.0378734529399
 20
316.6896027618882
 30
0.0000000000000000
 11
184.7699242605087
 21
315.9575519543193
 31
0.0000000000000000
  0
LINE
  5
2B7
100
AcDbEntity
  8
MAIN0
  6
CONTINUOUS
 62
3
100
AcDbLine
 10
195.0282545097064
 20
324.1896027618883
 30
0.0000000000000000
 11
197.7603053172753
 21
323.4575519543194
 31
0.0000000000000000
  0
LINE
  5
2B8
100
AcDbEntity
  8
MAIN0
  6
CONTINUOUS
 62
3
100
AcDbLine
 10
243.5256771216350
 20
352.1896027618884
 30
0.0000000000000000
 11
242.7936263140661
 21
349.4575519543195
 31
0.0000000000000000
  0
LINE
  5
2B9
100
AcDbEntity
  8
MAIN0
  6
CONTINUOUS
 62
3
100
AcDbLine
 10
242.6596517178506
 20
351.6896027618883
 30
0.0000000000000000
 11
241.9276009102817
 21
348.9575519543195
 31
0.0000000000000000
  0
CIRCLE
  5
2BA
100
AcDbEntity
  8
MAIN0
  6
CONTINUOUS
 62
3
100
AcDbCircle
 10
74.65906514228126
 20
351.3939458731368
 30
0.0000000000000000
 40
5.000000000000000
  0
ARC
  5
2BB
100
AcDbEntity
  8
MAIN0
  6
CONTINUOUS
 62
3
100
AcDbCircle
 10
74.65906514228126
 20
310.3939458731368
 30
0.0000000000000000
 40
2.750000000000000
100
AcDbArc
 50
179.9999999999998
 51
359.9999999999998
  0
ARC
  5
2BC
100
AcDbEntity
  8
MAIN0
  6
CONTINUOUS
 62
3
100
AcDbCircle
 10
106.6590651422813
 20
351.3939458731368
 30
0.0000000000000000
 40
2.750000000000000
100
AcDbArc
 50
0.0000000000000000
 51
179.9999999999998
  0
ARC
  5
2BD
100
AcDbEntity
  8
MAIN0
  6
CONTINUOUS
 62
3
100
AcDbCircle
 10
106.6590651422813
 20
337.3939458731368
 30
0.0000000000000000
 40
2.750000000000000
100
AcDbArc
 50
179.9999999999998
 51
359.9999999999998
  0
ARC
  5
2BE
100
AcDbEntity
  8
MAIN0
  6
CONTINUOUS
 62
3
100
AcDbCircle
 10
106.6590651422813
 20
323.3939458731368
 30
0.0000000000000000
 40
2.750000000000000
100
AcDbArc
 50
179.9999999999998
 51
359.9999999999998
  0
ARC
  5
2BF
100
AcDbEntity
  8
MAIN0
  6
HIDDEN
 62
12
100
AcDbCircle
 10
90.65906514228126
 20
363.3939458731368
 30
0.0000000000000000
 40
7.000000000000000
100
AcDbArc
 50
0.0000000000000000
 51
89.99999999999970
  0
ARC
  5
2C0
100
AcDbEntity
  8
MAIN0
  6
CONTINUOUS
 62
3
100
AcDbCircle
 10
90.65906514228126
 20
349.3939458731368
 30
0.0000000000000000
 40
7.000000000000000
100
AcDbArc
 50
0.0000000000000000
 51
89.99999999999970
  0
ARC
  5
2C1
100
AcDbEntity
  8
MAIN0
  6
CONTINUOUS
 62
3
100
AcDbCircle
 10
90.65906514228126
 20
338.3939458731368
 30
0.0000000000000000
 40
7.000000000000000
100
AcDbArc
 50
269.9999999999999
 51
359.9999999999998
  0
ARC
  5
2C2
100
AcDbEntity
  8
MAIN0
  6
CONTINUOUS
 62
3
100
AcDbCircle
 10
223.0891436421619
 20
345.5867170789184
 30
0.0000000000000000
 40
2.750000000000000
100
AcDbArc
 50
299.9999946766659
 51
480.0000086929682
  0
ARC
  5
2C3
100
AcDbEntity
  8
MAIN0
  6
CONTINUOUS
 62
3
100
AcDbCircle
 10
210.9647879891797
 20
338.5867170789184
 30
0.0000000000000000
 40
2.750000000000000
100
AcDbArc
 50
299.9999942501418
 51
480.0000048595168
  0
ARC
  5
2C4
100
AcDbEntity
  8
MAIN0
  6
CONTINUOUS
 62
3
100
AcDbCircle
 10
198.8404323361976
 20
331.5867170789184
 30
0.0000000000000000
 40
2.750000000000000
100
AcDbArc
 50
120.0000058495738
 51
299.9999955874897
  0
ARC
  5
2C5
100
AcDbEntity
  8
MAIN0
  6
CONTINUOUS
 62
3
100
AcDbCircle
 10
218.3474738913595
 20
379.7995300000205
 30
0.0000000000000000
 40
2.750000000000000
100
AcDbArc
 50
299.9999999999998
 51
480.0000123247905
  0
CIRCLE
  5
2C6
100
AcDbEntity
  8
MAIN0
  6
CONTINUOUS
 62
3
100
AcDbCircle
 10
182.8404323361976
 20
359.2995300000204
 30
0.0000000000000000
 40
5.000000000000000
  0
ARC
  5
2C7
100
AcDbEntity
  8
MAIN0
  6
CONTINUOUS
 62
3
100
AcDbCircle
 10
213.3570928345930
 20
358.4431235394694
 30
0.0000000000000000
 40
7.000000000000000
100
AcDbArc
 50
299.9999999999998
 51
390.0000000000008
  0
ARC
  5
2C8
100
AcDbEntity
  8
MAIN0
  6
HIDDEN
 62
12
100
AcDbCircle
 10
191.7064577399820
 20
345.9431235394694
 30
0.0000000000000000
 40
7.000000000000000
100
AcDbArc
 50
209.9999999999996
 51
299.9999999999997
  0
ARC
  5
2C9
100
AcDbEntity
  8
MAIN0
  6
CONTINUOUS
 62
3
100
AcDbCircle
 10
203.8308133929641
 20
352.9431235394694
 30
0.0000000000000000
 40
7.000000000000000
100
AcDbArc
 50
209.9999999999996
 51
299.9999999999997
  0
LINE
  5
2CA
100
AcDbEntity
  8
MAIN0
  6
CONTINUOUS
 62
3
100
AcDbLine
 10
157.2601817910263
 20
357.6058236145986
 30
0.0000000000000000
 11
184.5835143072848
 21
310.2804234643402
 31
0.0000000000000000
  0
LINE
  5
2CB
100
AcDbEntity
  8
MAIN0
  6
CONTINUOUS
 62
3
100
AcDbLine
 10
155.5281309834574
 20
356.6058236145985
 30
0.0000000000000000
 11
182.8514634997160
 21
309.2804234643401
 31
0.0000000000000000
  0
DIMENSION
  5
2D4
100
AcDbEntity
  8
MAIN10
  6
CONTINUOUS
 62
3
100
AcDbDimension
  2
*D24
 10
56.30248136170215
 20
378.3939458731368
 30
0.0000000000000000
 11
55.80248136170215
 21
357.8939458731368
 31
0.0000000000000000
 70
32
  3
MAIN001
100
AcDbAlignedDimension
 13
79.37241430211191
 23
337.3939458731368
 33
0.0000000000000000
 14
80.65906514228126
 24
378.3939458731368
 34
0.0000000000000000
 50
90.00000000000000
100
AcDbRotatedDimension
1001
ACAD
1000
DSTYLE
1002
{
1070
   173
1070
     1
1070
     6
1000
_OPEN
1070
     7
1000
_OPEN
1070
    41
1040
2.000000
1002
}
  0
DIMENSION
  5
2DD
100
AcDbEntity
  8
MAIN10
  6
CONTINUOUS
 62
3
100
AcDbDimension
  2
*D25
 10
56.30248136170215
 20
337.3939458731368
 30
0.0000000000000000
 11
55.80248136170215
 21
331.8939458731368
 31
0.0000000000000000
 70
32
  3
MAIN001
100
AcDbAlignedDimension
 13
61.73519108473408
 23
326.3939458731368
 33
0.0000000000000000
 14
79.37241430211191
 24
337.3939458731368
 34
0.0000000000000000
 50
90.00000000000000
100
AcDbRotatedDimension
1001
ACAD
1000
DSTYLE
1002
{
1070
   173
1070
     1
1070
     6
1000
_OPEN
1070
     7
1000
_OPEN
1070
    41
1040
2.000000
1002
}
  0
DIMENSION
  5
2E6
100
AcDbEntity
  8
MAIN10
  6
CONTINUOUS
 62
3
100
AcDbDimension
  2
*D26
 10
56.30248136170215
 20
326.3939458731368
 30
0.0000000000000000
 11
55.80248136170215
 21
314.8939458731368
 31
0.0000000000000000
 70
32
  1
\A1;MAX 23
  3
MAIN001
100
AcDbAlignedDimension
 13
68.65906514228146
 23
303.3939458731368
 33
0.0000000000000000
 14
61.73519108473408
 24
326.3939458731368
 34
0.0000000000000000
 50
90.00000000000000
100
AcDbRotatedDimension
1001
ACAD
1000
DSTYLE
1002
{
1070
   173
1070
     1
1070
     6
1000
_OPEN
1070
     7
1000
_OPEN
1070
    41
1040
2.000000
1002
}
  0
DIMENSION
  5
2EF
100
AcDbEntity
  8
MAIN10
  6
CONTINUOUS
 62
3
100
AcDbDimension
  2
*D27
 10
196.4136735422297
 20
389.7899866077854
 30
0.0000000000000000
 11
178.4101527646487
 21
379.9729993096777
 31
0.0000000000000000
 70
32
  3
MAIN001
100
AcDbAlignedDimension
 13
173.7160766832154
 23
347.1033775773140
 33
0.0000000000000000
 14
208.3726386309937
 24
369.0764514681034
 34
0.0000000000000000
 50
29.99999999999971
100
AcDbRotatedDimension
1001
ACAD
1000
DSTYLE
1002
{
1070
   173
1070
     1
1070
     6
1000
_OPEN
1070
     7
1000
_OPEN
1070
    41
1040
2.000000
1002
}
  0
DIMENSION
  5
2F8
100
AcDbEntity
  8
MAIN10
  6
CONTINUOUS
 62
3
100
AcDbDimension
  2
*D28
 10
160.9066319870677
 20
369.2899866077856
 30
0.0000000000000000
 11
155.8934922662532
 21
366.9729993096779
 31
0.0000000000000000
 70
32
  3
MAIN001
100
AcDbAlignedDimension
 13
155.5281309834574
 23
356.6058236145987
 33
0.0000000000000000
 14
173.7160766832154
 24
347.1033775773140
 34
0.0000000000000000
 50
29.99999999999971
100
AcDbRotatedDimension
1001
ACAD
1000
DSTYLE
1002
{
1070
   173
1070
     1
1070
     6
1000
_OPEN
1070
     7
1000
_OPEN
1070
    41
1040
2.000000
1002
}
  0
DIMENSION
  5
301
100
AcDbEntity
  8
MAIN10
  6
CONTINUOUS
 62
3
100
AcDbDimension
  2
*D29
 10
151.3803525454387
 20
363.7899866077858
 30
0.0000000000000000
 11
141.1710604019176
 21
358.4729993096780
 31
0.0000000000000000
 70
32
  1
\A1;MAX 23
  3
MAIN001
100
AcDbAlignedDimension
 13
138.2712129545444
 23
340.4956824227272
 33
0.0000000000000000
 14
155.5281309834574
 24
356.6058236145987
 34
0.0000000000000000
 50
29.99999999999979
100
AcDbRotatedDimension
1001
ACAD
1000
DSTYLE
1002
{
1070
   173
1070
     1
1070
     6
1000
_OPEN
1070
     7
1000
_OPEN
1070
    41
1040
2.000000
1002
}
  0
MTEXT
  5
302
100
AcDbEntity
  8
MAIN0
  6
CONTINUOUS
 62
3
100
AcDbMText
 10
194.6465348784496
 20
107.5273733951552
 30
0.0000000000000000
 40
3.099999904632568
 41
0.0000000000000000
 71
     1
 72
     1
  1
{\H0.92x;{   75}}
 11
1.000000000000000
 21
0.0000000000000000
 31
0.0000000000000000
  7
STANDARD
  0
MTEXT
  5
303
100
AcDbEntity
  8
MAIN0
  6
CONTINUOUS
 62
3
100
AcDbMText
 10
194.6465348784496
 20
100.5273733951553
 30
0.0000000000000000
 40
3.099999904632568
 41
0.0000000000000000
 71
     1
 72
     1
  1
{\H0.92x;{   15}}
 11
1.000000000000000
 21
0.0000000000000000
 31
0.0000000000000000
  7
STANDARD
  0
MTEXT
  5
304
100
AcDbEntity
  8
MAIN0
  6
CONTINUOUS
 62
3
100
AcDbMText
 10
194.6465348784496
 20
94.02737339515534
 30
0.0000000000000000
 40
3.099999904632568
 41
0.0000000000000000
 71
     1
 72
     1
  1
{\H0.92x;{ 15.9}}
 11
1.000000000000000
 21
0.0000000000000000
 31
0.0000000000000000
  7
STANDARD
  0
MTEXT
  5
305
100
AcDbEntity
  8
MAIN0
  6
CONTINUOUS
 62
3
100
AcDbMText
 10
194.6465348784496
 20
84.02737339515522
 30
0.0000000000000000
 40
3.099999904632568
 41
0.0000000000000000
 71
     1
 72
     1
  1
{\H0.92x;{ 13.9}}
 11
1.000000000000000
 21
0.0000000000000000
 31
0.0000000000000000
  7
STANDARD
  0
MTEXT
  5
306
100
AcDbEntity
  8
MAIN0
  6
CONTINUOUS
 62
3
100
AcDbMText
 10
157.5642278338182
 20
85.52737339515545
 30
0.0000000000000000
 40
3.099999904632568
 41
0.0000000000000000
 71
     1
 72
     1
  1
{\H0.84x;{  4.0}}
 11
1.000000000000000
 21
0.0000000000000000
 31
0.0000000000000000
  7
STANDARD
  0
MTEXT
  5
307
100
AcDbEntity
  8
MAIN0
  6
CONTINUOUS
 62
3
100
AcDbMText
 10
194.6465348784496
 20
74.02737339515522
 30
0.0000000000000000
 40
3.099999904632568
 41
0.0000000000000000
 71
     1
 72
     1
  1
{\H0.92x;{  4.0}}
 11
1.000000000000000
 21
0.0000000000000000
 31
0.0000000000000000
  7
STANDARD
  0
MTEXT
  5
308
100
AcDbEntity
  8
MAIN0
  6
CONTINUOUS
 62
3
100
AcDbMText
 10
194.6465348784496
 20
63.52737339515522
 30
0.0000000000000000
 40
3.099999904632568
 41
0.0000000000000000
 71
     1
 72
     1
  1
{\H0.92x;{ 6000}}
 11
1.000000000000000
 21
0.0000000000000000
 31
0.0000000000000000
  7
STANDARD
  0
MTEXT
  5
309
100
AcDbEntity
  8
MAIN0
  6
CONTINUOUS
 62
3
100
AcDbMText
 10
194.6465348784496
 20
56.52737339515522
 30
0.0000000000000000
 40
3.099999904632568
 41
0.0000000000000000
 71
     1
 72
     1
  1
{\H0.92x;{  4.5}}
 11
1.000000000000000
 21
0.0000000000000000
 31
0.0000000000000000
  7
STANDARD
  0
MTEXT
  5
30A
100
AcDbEntity
  8
MAIN0
  6
CONTINUOUS
 62
3
100
AcDbMText
 10
194.6465348784496
 20
50.02737339515522
 30
0.0000000000000000
 40
3.099999904632568
 41
0.0000000000000000
 71
     1
 72
     1
  1
{\H0.92x;{0.003}}
 11
1.000000000000000
 21
0.0000000000000000
 31
0.0000000000000000
  7
STANDARD
  0
MTEXT
  5
30B
100
AcDbEntity
  8
MAIN0
  6
CONTINUOUS
 62
3
100
AcDbMText
 10
194.6465348784495
 20
29.02737339515528
 30
0.0000000000000000
 40
3.099999904632568
 41
0.0000000000000000
 71
     1
 72
     1
  1
{\H0.92x;{  0.8}}
 11
1.000000000000000
 21
0.0000000000000000
 31
0.0000000000000000
  7
STANDARD
  0
LINE
  5
30C
100
AcDbEntity
  8
MAIN0
  6
CONTINUOUS
 62
3
100
AcDbLine
 10
273.6516227264847
 20
229.8930283711151
 30
0.0000000000000000
 11
273.6516227264847
 21
238.8930283711150
 31
0.0000000000000000
  0
LINE
  5
30D
100
AcDbEntity
  8
MAIN0
  6
CONTINUOUS
 62
3
100
AcDbLine
 10
273.6516227264847
 20
238.8930283711150
 30
0.0000000000000000
 11
274.6516227264848
 21
238.8930283711150
 31
0.0000000000000000
  0
LINE
  5
30E
100
AcDbEntity
  8
MAIN0
  6
CONTINUOUS
 62
3
100
AcDbLine
 10
274.6516227264850
 20
251.8930283711148
 30
0.0000000000000000
 11
277.6516227264847
 21
251.8930283711148
 31
0.0000000000000000
  0
LINE
  5
30F
100
AcDbEntity
  8
MAIN0
  6
CONTINUOUS
 62
3
100
AcDbLine
 10
272.6516227264847
 20
253.8930283711148
 30
0.0000000000000000
 11
277.6516227264847
 21
253.8930283711148
 31
0.0000000000000000
  0
LINE
  5
310
100
AcDbEntity
  8
MAIN0
  6
CONTINUOUS
 62
3
100
AcDbLine
 10
274.6516227264850
 20
234.9542832553929
 30
0.0000000000000000
 11
274.6516227264850
 21
251.8930283711148
 31
0.0000000000000000
  0
LINE
  5
311
100
AcDbEntity
  8
MAIN0
  6
CONTINUOUS
 62
3
100
AcDbLine
 10
277.6516227264847
 20
250.4129914316619
 30
0.0000000000000000
 11
277.6516227264847
 21
253.8930283711143
 31
0.0000000000000000
  0
LINE
  5
312
100
AcDbEntity
  8
MAIN0
  6
CONTINUOUS
 62
3
100
AcDbLine
 10
261.6516227264850
 20
229.8930283711150
 30
0.0000000000000000
 11
261.6516227264850
 21
242.8930283711148
 31
0.0000000000000000
  0
LINE
  5
313
100
AcDbEntity
  8
MAIN0
  6
CONTINUOUS
 62
3
100
AcDbLine
 10
272.6516227264847
 20
243.8930283711148
 30
0.0000000000000000
 11
272.6516227264847
 21
253.8930283711143
 31
0.0000000000000000
  0
LINE
  5
314
100
AcDbEntity
  8
MAIN0
  6
CONTINUOUS
 62
3
100
AcDbLine
 10
273.6516227264847
 20
217.8930283711150
 30
0.0000000000000000
 11
273.6516227264847
 21
208.8930283711151
 31
0.0000000000000000
  0
LINE
  5
315
100
AcDbEntity
  8
MAIN0
  6
CONTINUOUS
 62
3
100
AcDbLine
 10
273.6516227264847
 20
208.8930283711151
 30
0.0000000000000000
 11
274.6516227264848
 21
208.8930283711151
 31
0.0000000000000000
  0
LINE
  5
316
100
AcDbEntity
  8
MAIN0
  6
CONTINUOUS
 62
3
100
AcDbLine
 10
274.6516227264850
 20
195.8930283711152
 30
0.0000000000000000
 11
277.6516227264847
 21
195.8930283711152
 31
0.0000000000000000
  0
LINE
  5
317
100
AcDbEntity
  8
MAIN0
  6
CONTINUOUS
 62
3
100
AcDbLine
 10
272.6516227264847
 20
193.8930283711152
 30
0.0000000000000000
 11
277.6516227264847
 21
193.8930283711152
 31
0.0000000000000000
  0
LINE
  5
318
100
AcDbEntity
  8
MAIN0
  6
CONTINUOUS
 62
3
100
AcDbLine
 10
274.6516227264850
 20
212.8317734868371
 30
0.0000000000000000
 11
274.6516227264850
 21
195.8930283711152
 31
0.0000000000000000
  0
LINE
  5
319
100
AcDbEntity
  8
MAIN0
  6
CONTINUOUS
 62
3
100
AcDbLine
 10
277.6516227264847
 20
193.8930283711157
 30
0.0000000000000000
 11
277.6516227264847
 21
197.2636469250497
 31
0.0000000000000000
  0
LINE
  5
31A
100
AcDbEntity
  8
MAIN0
  6
CONTINUOUS
 62
3
100
AcDbLine
 10
261.6516227264850
 20
217.8930283711150
 30
0.0000000000000000
 11
261.6516227264850
 21
204.8930283711152
 31
0.0000000000000000
  0
LINE
  5
31B
100
AcDbEntity
  8
MAIN0
  6
CONTINUOUS
 62
3
100
AcDbLine
 10
272.6516227264847
 20
203.8930283711152
 30
0.0000000000000000
 11
272.6516227264847
 21
193.8930283711157
 31
0.0000000000000000
  0
LINE
  5
31C
100
AcDbEntity
  8
MAIN0
  6
CONTINUOUS
 62
3
100
AcDbLine
 10
262.6516227264849
 20
203.8930283711152
 30
0.0000000000000000
 11
272.6516227264847
 21
203.8930283711152
 31
0.0000000000000000
  0
LINE
  5
31D
100
AcDbEntity
  8
MAIN0
  6
CONTINUOUS
 62
3
100
AcDbLine
 10
262.6516227264849
 20
243.8930283711148
 30
0.0000000000000000
 11
261.6516227264849
 21
242.8930283711149
 31
0.0000000000000000
  0
LINE
  5
31E
100
AcDbEntity
  8
MAIN0
  6
CONTINUOUS
 62
3
100
AcDbLine
 10
262.6516227264849
 20
203.8930283711152
 30
0.0000000000000000
 11
261.6516227264849
 21
204.8930283711152
 31
0.0000000000000000
  0
LINE
  5
31F
100
AcDbEntity
  8
MAIN0
  6
CONTINUOUS
 62
3
100
AcDbLine
 10
262.6516227264850
 20
243.8930283711148
 30
0.0000000000000000
 11
272.6516227264847
 21
243.8930283711148
 31
0.0000000000000000
  0
LINE
  5
320
100
AcDbEntity
  8
MAIN0
  6
CONTINUOUS
 62
3
100
AcDbLine
 10
288.2765446981580
 20
195.1430261742961
 30
0.0000000000000000
 11
285.4514717264856
 21
195.1430243711152
 31
0.0000000000000000
  0
LINE
  5
321
100
AcDbEntity
  8
MAIN0
  6
CONTINUOUS
 62
3
100
AcDbLine
 10
285.4516297264856
 20
186.6430263711151
 30
0.0000000000000000
 11
289.2421529591302
 21
186.6430279841054
 31
0.0000000000000000
  0
LINE
  5
322
100
AcDbEntity
  8
MAIN0
  6
CONTINUOUS
 62
3
100
AcDbLine
 10
285.4516237264856
 20
195.1430243711152
 30
0.0000000000000000
 11
285.4516297264856
 21
186.6430263711151
 31
0.0000000000000000
  0
LINE
  5
323
100
AcDbEntity
  8
MAIN0
  6
CONTINUOUS
 62
3
100
AcDbLine
 10
285.1516517264856
 20
194.6235253711151
 30
0.0000000000000000
 11
285.4516237264856
 21
195.1430243711151
 31
0.0000000000000000
  0
LINE
  5
324
100
AcDbEntity
  8
MAIN0
  6
CONTINUOUS
 62
3
100
AcDbLine
 10
285.1516557264857
 20
187.1625583711152
 30
0.0000000000000000
 11
285.4516297264857
 21
186.6430263711152
 31
0.0000000000000000
  0
LINE
  5
325
100
AcDbEntity
  8
MAIN0
  6
CONTINUOUS
 62
3
100
AcDbLine
 10
285.1516227264856
 20
187.1626155245884
 30
0.0000000000000000
 11
285.1516227264856
 21
194.6234751481910
 31
0.0000000000000000
  0
LINE
  5
326
100
AcDbEntity
  8
MAIN0
  6
CONTINUOUS
 62
3
100
AcDbLine
 10
226.0516207264858
 20
187.0930263711152
 30
0.0000000000000000
 11
226.0516247264858
 21
182.6930273711152
 31
0.0000000000000000
  0
LINE
  5
327
100
AcDbEntity
  8
MAIN0
  6
CONTINUOUS
 62
3
100
AcDbLine
 10
227.3516247264857
 20
181.3930273711152
 30
0.0000000000000000
 11
228.6516227264858
 21
181.3930283711152
 31
0.0000000000000000
  0
LINE
  5
328
100
AcDbEntity
  8
MAIN0
  6
CONTINUOUS
 62
3
100
AcDbLine
 10
228.6516227264857
 20
188.3930283711151
 30
0.0000000000000000
 11
227.3516237264858
 21
188.3930273711151
 31
0.0000000000000000
  0
LINE
  5
329
100
AcDbEntity
  8
MAIN0
  6
CONTINUOUS
 62
3
100
AcDbLine
 10
228.6516227264858
 20
186.8930283711151
 30
0.0000000000000000
 11
236.6516227264858
 21
186.8930283711151
 31
0.0000000000000000
  0
LINE
  5
32A
100
AcDbEntity
  8
MAIN0
  6
CONTINUOUS
 62
3
100
AcDbLine
 10
236.6516227264858
 20
186.8930283711151
 30
0.0000000000000000
 11
236.6516227264858
 21
182.8930283711151
 31
0.0000000000000000
  0
LINE
  5
32B
100
AcDbEntity
  8
MAIN0
  6
CONTINUOUS
 62
3
100
AcDbLine
 10
236.6516227264858
 20
182.8930283711151
 30
0.0000000000000000
 11
228.6516227264858
 21
182.8930283711151
 31
0.0000000000000000
  0
LINE
  5
32C
100
AcDbEntity
  8
MAIN0
  6
CONTINUOUS
 62
12
100
AcDbLine
 10
228.6516227264858
 20
186.3930283711151
 30
0.0000000000000000
 11
236.6516227264858
 21
186.3930283711151
 31
0.0000000000000000
  0
LINE
  5
32D
100
AcDbEntity
  8
MAIN0
  6
CONTINUOUS
 62
12
100
AcDbLine
 10
228.6516227264858
 20
183.3930283711151
 30
0.0000000000000000
 11
236.6516227264858
 21
183.3930283711151
 31
0.0000000000000000
  0
ARC
  5
32E
100
AcDbEntity
  8
MAIN0
  6
CONTINUOUS
 62
3
100
AcDbCircle
 10
227.3516197264858
 20
187.0930243711152
 30
0.0000000000000000
 40
1.299999999999997
100
AcDbArc
 50
89.99982499999918
 51
179.9999079999998
  0
ARC
  5
32F
100
AcDbEntity
  8
MAIN0
  6
CONTINUOUS
 62
3
100
AcDbCircle
 10
227.3516247264858
 20
182.6930273711152
 30
0.0000000000000000
 40
1.299999999999997
100
AcDbArc
 50
179.9999999999998
 51
269.9999999999999
  0
LINE
  5
330
100
AcDbEntity
  8
MAIN0
  6
HIDDEN
 62
12
100
AcDbLine
 10
168.6516227264857
 20
236.6109960683599
 30
0.0000000000000000
 11
156.0857177888107
 21
258.3757818634934
 31
0.0000000000000000
  0
LINE
  5
331
100
AcDbEntity
  8
MAIN0
  6
CONTINUOUS
 62
3
100
AcDbLine
 10
141.6516227264859
 20
178.8930283711152
 30
0.0000000000000000
 11
115.6516227264858
 21
178.8930283711153
 31
0.0000000000000000
  0
LINE
  5
332
100
AcDbEntity
  8
MAIN0
  6
HIDDEN
 62
12
100
AcDbLine
 10
143.6516227264859
 20
180.8930282534926
 30
0.0000000000000000
 11
143.6516227264859
 21
183.2300248187028
 31
0.0000000000000000
  0
LINE
  5
333
100
AcDbEntity
  8
MAIN0
  6
HIDDEN
 62
12
100
AcDbLine
 10
113.6516227264859
 20
180.8930279125377
 30
0.0000000000000000
 11
113.6516227264859
 21
183.2300248187028
 31
0.0000000000000000
  0
LINE
  5
334
100
AcDbEntity
  8
MAIN0
  6
HIDDEN
 62
12
100
AcDbLine
 10
122.0731227264858
 20
178.8930283711152
 30
0.0000000000000000
 11
122.2184637294367
 21
183.5439404655426
 31
0.0000000000000000
  0
LINE
  5
335
100
AcDbEntity
  8
MAIN0
  6
HIDDEN
 62
12
100
AcDbLine
 10
122.9291227264858
 20
178.8930283711153
 30
0.0000000000000000
 11
123.0736286074855
 21
183.5172165631036
 31
0.0000000000000000
  0
LINE
  5
336
100
AcDbEntity
  8
MAIN0
  6
HIDDEN
 62
12
100
AcDbLine
 10
135.0841666063349
 20
183.5636242159467
 30
0.0000000000000000
 11
135.2301227264858
 21
178.8930283711152
 31
0.0000000000000000
  0
LINE
  5
337
100
AcDbEntity
  8
MAIN0
  6
HIDDEN
 62
12
100
AcDbLine
 10
134.2290017282861
 20
183.5369003135077
 30
0.0000000000000000
 11
134.3741227264858
 21
178.8930283711152
 31
0.0000000000000000
  0
LINE
  5
338
100
AcDbEntity
  8
MAIN0
  6
CENTER
 62
12
100
AcDbLine
 10
157.2764525730830
 20
237.8930283711150
 30
0.0000000000000000
 11
172.7963369017169
 21
237.8930283711150
 31
0.0000000000000000
  0
LINE
  5
339
100
AcDbEntity
  8
MAIN0
  6
CENTER
 62
12
100
AcDbLine
 10
157.1472945410347
 20
209.8930283711150
 30
0.0000000000000000
 11
172.7963369017169
 21
209.8930283711150
 31
0.0000000000000000
  0
LINE
  5
33A
100
AcDbEntity
  8
MAIN0
  6
HIDDEN
 62
12
100
AcDbLine
 10
157.6516227264858
 20
201.9057783711152
 30
0.0000000000000000
 11
168.6516227264858
 21
201.5620283711151
 31
0.0000000000000000
  0
LINE
  5
33B
100
AcDbEntity
  8
MAIN0
  6
HIDDEN
 62
12
100
AcDbLine
 10
157.6516227264858
 20
202.7617783711152
 30
0.0000000000000000
 11
168.6516227264858
 21
202.4180283711152
 31
0.0000000000000000
  0
LINE
  5
33C
100
AcDbEntity
  8
MAIN0
  6
HIDDEN
 62
12
100
AcDbLine
 10
168.6516227264858
 20
218.2240283711151
 30
0.0000000000000000
 11
157.6516227264858
 21
217.8802783711150
 31
0.0000000000000000
  0
LINE
  5
33D
100
AcDbEntity
  8
MAIN0
  6
HIDDEN
 62
12
100
AcDbLine
 10
168.6516227264858
 20
217.3680283711150
 30
0.0000000000000000
 11
157.6516227264858
 21
217.0242783711150
 31
0.0000000000000000
  0
LINE
  5
33E
100
AcDbEntity
  8
MAIN0
  6
HIDDEN
 62
12
100
AcDbLine
 10
157.6516227264858
 20
229.9057783711151
 30
0.0000000000000000
 11
168.6516227264858
 21
229.5620283711151
 31
0.0000000000000000
  0
LINE
  5
33F
100
AcDbEntity
  8
MAIN0
  6
HIDDEN
 62
12
100
AcDbLine
 10
157.6516227264858
 20
230.7617783711152
 30
0.0000000000000000
 11
168.6516227264858
 21
230.4180283711151
 31
0.0000000000000000
  0
LINE
  5
340
100
AcDbEntity
  8
MAIN0
  6
HIDDEN
 62
12
100
AcDbLine
 10
168.6516227264858
 20
246.2240283711150
 30
0.0000000000000000
 11
157.6516227264858
 21
245.8802783711150
 31
0.0000000000000000
  0
LINE
  5
341
100
AcDbEntity
  8
MAIN0
  6
HIDDEN
 62
12
100
AcDbLine
 10
168.6516227264859
 20
245.3680283711150
 30
0.0000000000000000
 11
157.6516227264858
 21
245.0242783711150
 31
0.0000000000000000
  0
LINE
  5
342
100
AcDbEntity
  8
MAIN0
  6
HIDDEN
 62
12
100
AcDbLine
 10
88.65162272648581
 20
197.8387126124376
 30
0.0000000000000000
 11
88.65162272648581
 21
249.9473441297924
 31
0.0000000000000000
  0
LINE
  5
343
100
AcDbEntity
  8
MAIN0
  6
CONTINUOUS
 62
3
100
AcDbLine
 10
168.6516227264858
 20
197.8387126124375
 30
0.0000000000000000
 11
168.6516227264858
 21
208.1132945330556
 31
0.0000000000000000
  0
LINE
  5
344
100
AcDbEntity
  8
MAIN0
  6
HIDDEN
 62
12
100
AcDbLine
 10
168.6516227264858
 20
208.1132945330556
 30
0.0000000000000000
 11
168.6516227264858
 21
249.9473441297924
 31
0.0000000000000000
  0
ARC
  5
345
100
AcDbEntity
  8
MAIN0
  6
HIDDEN
 62
12
100
AcDbCircle
 10
128.6516227264858
 20
203.8930283711152
 30
0.0000000000000000
 40
60.99999999999966
100
AcDbArc
 50
49.02438965740429
 51
130.9756103425957
  0
ARC
  5
346
100
AcDbEntity
  8
MAIN0
  6
HIDDEN
 62
12
100
AcDbCircle
 10
145.6516227264859
 20
183.2300248187028
 30
0.0000000000000000
 40
2.000000000000000
100
AcDbArc
 50
105.6548217036081
 51
179.9999999999998
  0
ARC
  5
347
100
AcDbEntity
  8
MAIN0
  6
HIDDEN
 62
12
100
AcDbCircle
 10
111.6516227264859
 20
183.2300248187028
 30
0.0000000000000000
 40
2.000000000000000
100
AcDbArc
 50
0.0000000000000000
 51
74.34517829639128
  0
ARC
  5
348
100
AcDbEntity
  8
MAIN0
  6
HIDDEN
 62
12
100
AcDbCircle
 10
128.6516227264858
 20
243.8930283711148
 30
0.0000000000000000
 40
60.99999999999966
100
AcDbArc
 50
229.0243896574039
 51
292.6565551289872
  0
ARC
  5
349
100
AcDbEntity
  8
MAIN0
  6
CONTINUOUS
 62
3
100
AcDbCircle
 10
128.6516227264858
 20
243.8930283711148
 30
0.0000000000000000
 40
60.99999999999966
100
AcDbArc
 50
292.6565551289872
 51
310.9756103425955
  0
ARC
  5
34A
100
AcDbEntity
  8
MAIN0
  6
HIDDEN
 62
12
100
AcDbCircle
 10
115.6516227264858
 20
180.8930283711152
 30
0.0000000000000000
 40
2.000000000000000
100
AcDbArc
 50
179.9999999999998
 51
209.9999999999996
  0
ARC
  5
34B
100
AcDbEntity
  8
MAIN0
  6
CONTINUOUS
 62
3
100
AcDbCircle
 10
115.6516227264858
 20
180.8930283711152
 30
0.0000000000000000
 40
2.000000000000000
100
AcDbArc
 50
209.9999999999996
 51
269.9999999999999
  0
ARC
  5
34C
100
AcDbEntity
  8
MAIN0
  6
CONTINUOUS
 62
3
100
AcDbCircle
 10
141.6516227264859
 20
180.8930283711152
 30
0.0000000000000000
 40
2.000000000000000
100
AcDbArc
 50
269.9999999999999
 51
330.0000000000015
  0
ARC
  5
34D
100
AcDbEntity
  8
MAIN0
  6
HIDDEN
 62
12
100
AcDbCircle
 10
141.6516227264859
 20
180.8930283711152
 30
0.0000000000000000
 40
2.000000000000000
100
AcDbArc
 50
330.0000000000015
 51
359.9999999999998
  0
LINE
  5
34E
100
AcDbEntity
  8
MAIN0
  6
CENTER
 62
12
100
AcDbLine
 10
159.7960491395087
 20
241.8742713444304
 30
0.0000000000000000
 11
183.0211750272900
 21
255.2833040277038
 31
0.0000000000000000
  0
LINE
  5
34F
100
AcDbEntity
  8
MAIN0
  6
CONTINUOUS
 62
3
100
AcDbLine
 10
173.0149761767958
 20
222.9481100450832
 30
0.0000000000000000
 11
178.2567404930010
 21
225.9744440840728
 31
0.0000000000000000
  0
LINE
  5
350
100
AcDbEntity
  8
MAIN0
  6
CONTINUOUS
 62
3
100
AcDbLine
 10
85.65162272648581
 20
184.8930283711151
 30
0.0000000000000000
 11
85.65162272648581
 21
262.8930283711149
 31
0.0000000000000000
  0
LINE
  5
351
100
AcDbEntity
  8
MAIN0
  6
CONTINUOUS
 62
3
100
AcDbLine
 10
84.65162272648578
 20
262.8930283711148
 30
0.0000000000000000
 11
102.6516227264859
 21
262.8930283711148
 31
0.0000000000000000
  0
LINE
  5
352
100
AcDbEntity
  8
MAIN0
  6
CONTINUOUS
 62
3
100
AcDbLine
 10
105.6516227264859
 20
265.8930283711149
 30
0.0000000000000000
 11
105.6516227264859
 21
266.8930283711148
 31
0.0000000000000000
  0
LINE
  5
353
100
AcDbEntity
  8
MAIN0
  6
CONTINUOUS
 62
3
100
AcDbLine
 10
84.65162272648581
 20
184.8930283711151
 30
0.0000000000000000
 11
102.6516227264859
 21
184.8930283711151
 31
0.0000000000000000
  0
LINE
  5
354
100
AcDbEntity
  8
MAIN0
  6
CONTINUOUS
 62
3
100
AcDbLine
 10
105.6516227264859
 20
181.8930283711151
 30
0.0000000000000000
 11
105.6516227264859
 21
180.8930283711152
 31
0.0000000000000000
  0
LINE
  5
355
100
AcDbEntity
  8
MAIN0
  6
CONTINUOUS
 62
3
100
AcDbLine
 10
106.6516225194141
 20
179.8930283711152
 30
0.0000000000000000
 11
150.6516227264858
 21
179.8930283711152
 31
0.0000000000000000
  0
LINE
  5
356
100
AcDbEntity
  8
MAIN0
  6
CONTINUOUS
 62
3
100
AcDbLine
 10
151.6516227264858
 20
180.8930283711153
 30
0.0000000000000000
 11
151.6516227264858
 21
185.9456964490946
 31
0.0000000000000000
  0
LINE
  5
357
100
AcDbEntity
  8
MAIN0
  6
CENTER
 62
12
100
AcDbLine
 10
145.0024027616308
 20
252.2134101353690
 30
0.0000000000000000
 11
151.1648606304174
 21
262.8871002636100
 31
0.0000000000000000
  0
LINE
  5
358
100
AcDbEntity
  8
MAIN0
  6
CENTER
 62
12
100
AcDbLine
 10
145.0024027616308
 20
195.5726466068609
 30
0.0000000000000000
 11
151.1648606304174
 21
184.8989564786199
 31
0.0000000000000000
  0
LINE
  5
359
100
AcDbEntity
  8
MAIN0
  6
CONTINUOUS
 62
4
100
AcDbLine
 10
106.1516227264859
 20
268.3930283711148
 30
0.0000000000000000
 11
151.1516227264860
 21
268.3930283711148
 31
0.0000000000000000
  0
LINE
  5
35A
100
AcDbEntity
  8
MAIN0
  6
CONTINUOUS
 62
4
100
AcDbLine
 10
104.6516227264859
 20
268.8930283711148
 30
0.0000000000000000
 11
152.6516227264859
 21
268.8930283711148
 31
0.0000000000000000
  0
LINE
  5
35B
100
AcDbEntity
  8
MAIN0
  6
CONTINUOUS
 62
3
100
AcDbLine
 10
104.6516227264859
 20
272.0930283711148
 30
0.0000000000000000
 11
152.6516227264859
 21
272.0930283711148
 31
0.0000000000000000
  0
LINE
  5
35C
100
AcDbEntity
  8
MAIN0
  6
CONTINUOUS
 62
3
100
AcDbLine
 10
151.1516227264859
 20
267.8930283711148
 30
0.0000000000000000
 11
151.1516227264859
 21
268.8930283711148
 31
0.0000000000000000
  0
LINE
  5
35D
100
AcDbEntity
  8
MAIN0
  6
CONTINUOUS
 62
3
100
AcDbLine
 10
106.1516227264859
 20
267.8930283711148
 30
0.0000000000000000
 11
106.1516227264859
 21
268.8930283711148
 31
0.0000000000000000
  0
LINE
  5
35E
100
AcDbEntity
  8
MAIN0
  6
CENTER
 62
12
100
AcDbLine
 10
144.6516227264858
 20
265.8731866247472
 30
0.0000000000000000
 11
144.6516227264858
 21
280.4635123854327
 31
0.0000000000000000
  0
LINE
  5
35F
100
AcDbEntity
  8
MAIN0
  6
CENTER
 62
12
100
AcDbLine
 10
112.6516227264858
 20
265.8731866247472
 30
0.0000000000000000
 11
112.6516227264858
 21
280.4635123854327
 31
0.0000000000000000
  0
LINE
  5
360
100
AcDbEntity
  8
MAIN0
  6
CONTINUOUS
 62
3
100
AcDbLine
 10
107.6516227264858
 20
273.0930263711147
 30
0.0000000000000000
 11
117.6516227264858
 21
273.0930263711147
 31
0.0000000000000000
  0
LINE
  5
361
100
AcDbEntity
  8
MAIN0
  6
CONTINUOUS
 62
3
100
AcDbLine
 10
117.6516227264858
 20
272.0930283711147
 30
0.0000000000000000
 11
117.6516227264858
 21
273.0930263711147
 31
0.0000000000000000
  0
LINE
  5
362
100
AcDbEntity
  8
MAIN0
  6
CONTINUOUS
 62
3
100
AcDbLine
 10
107.6516227264858
 20
272.0930283711147
 30
0.0000000000000000
 11
107.6516227264858
 21
273.0930263711147
 31
0.0000000000000000
  0
LINE
  5
363
100
AcDbEntity
  8
MAIN0
  6
CONTINUOUS
 62
3
100
AcDbLine
 10
140.4016237264858
 20
273.0930303711148
 30
0.0000000000000000
 11
140.4016267264858
 21
277.7931793711147
 31
0.0000000000000000
  0
LINE
  5
364
100
AcDbEntity
  8
MAIN0
  6
CONTINUOUS
 62
3
100
AcDbLine
 10
148.9016247264858
 20
277.7930213711147
 30
0.0000000000000000
 11
148.9016227264858
 21
273.0930263711147
 31
0.0000000000000000
  0
LINE
  5
365
100
AcDbEntity
  8
MAIN0
  6
CONTINUOUS
 62
4
100
AcDbLine
 10
140.4016267264859
 20
277.7930273711148
 30
0.0000000000000000
 11
148.9016247264858
 21
277.7930213711148
 31
0.0000000000000000
  0
LINE
  5
366
100
AcDbEntity
  8
MAIN0
  6
CONTINUOUS
 62
3
100
AcDbLine
 10
148.3820355730125
 20
278.0930283711148
 30
0.0000000000000000
 11
140.9211759494100
 21
278.0930283711148
 31
0.0000000000000000
  0
LINE
  5
367
100
AcDbEntity
  8
MAIN0
  6
CONTINUOUS
 62
3
100
AcDbLine
 10
139.6516227264858
 20
273.0930263711147
 30
0.0000000000000000
 11
149.6516227264858
 21
273.0930263711147
 31
0.0000000000000000
  0
LINE
  5
368
100
AcDbEntity
  8
MAIN0
  6
CONTINUOUS
 62
3
100
AcDbLine
 10
149.6516227264858
 20
272.0930283711147
 30
0.0000000000000000
 11
149.6516227264858
 21
273.0930263711147
 31
0.0000000000000000
  0
LINE
  5
369
100
AcDbEntity
  8
MAIN0
  6
CONTINUOUS
 62
3
100
AcDbLine
 10
139.6516227264858
 20
272.0930283711147
 30
0.0000000000000000
 11
139.6516227264858
 21
273.0930263711147
 31
0.0000000000000000
  0
LINE
  5
36A
100
AcDbEntity
  8
MAIN0
  6
CONTINUOUS
 62
3
100
AcDbLine
 10
140.9211257264859
 20
278.0929993711148
 30
0.0000000000000000
 11
140.4016267264859
 21
277.7930273711148
 31
0.0000000000000000
  0
LINE
  5
36B
100
AcDbEntity
  8
MAIN0
  6
CONTINUOUS
 62
3
100
AcDbLine
 10
148.3820927264859
 20
278.0929953711149
 30
0.0000000000000000
 11
148.9016247264859
 21
277.7930213711149
 31
0.0000000000000000
  0
LINE
  5
36C
100
AcDbEntity
  8
MAIN0
  6
CONTINUOUS
 62
4
100
AcDbLine
 10
155.9397531948933
 20
265.6285999562647
 30
0.0000000000000000
 11
178.4397531948934
 21
226.6574567859648
 31
0.0000000000000000
  0
LINE
  5
36D
100
AcDbEntity
  8
MAIN0
  6
CONTINUOUS
 62
3
100
AcDbLine
 10
158.3940471888956
 20
268.7776380619414
 30
0.0000000000000000
 11
182.3940471888957
 21
227.2084186802883
 31
0.0000000000000000
  0
LINE
  5
36E
100
AcDbEntity
  8
MAIN0
  6
CONTINUOUS
 62
4
100
AcDbLine
 10
155.6227658967855
 20
267.1776380619414
 30
0.0000000000000000
 11
179.6227658967855
 21
225.6084186802883
 31
0.0000000000000000
  0
LINE
  5
36F
100
AcDbEntity
  8
MAIN0
  6
CONTINUOUS
 62
3
100
AcDbLine
 10
178.0067404930010
 20
226.4074567859650
 30
0.0000000000000000
 11
178.8727658967854
 21
226.9074567859649
 31
0.0000000000000000
  0
LINE
  5
370
100
AcDbEntity
  8
MAIN0
  6
CONTINUOUS
 62
3
100
AcDbLine
 10
155.5067404930009
 20
265.3785999562647
 30
0.0000000000000000
 11
156.3727658967854
 21
265.8785999562647
 31
0.0000000000000000
  0
LINE
  5
371
100
AcDbEntity
  8
MAIN0
  6
CENTER
 62
12
100
AcDbLine
 10
173.0075062290223
 20
231.0267010373800
 30
0.0000000000000000
 11
185.9872444123359
 21
238.5205563715269
 31
0.0000000000000000
  0
LINE
  5
372
100
AcDbEntity
  8
MAIN0
  6
CENTER
 62
12
100
AcDbLine
 10
157.0075062290223
 20
258.7395139584821
 30
0.0000000000000000
 11
169.9872444123359
 21
266.2333692926289
 31
0.0000000000000000
  0
LINE
  5
373
100
AcDbEntity
  8
MAIN0
  6
CONTINUOUS
 62
3
100
AcDbLine
 10
161.1350748247309
 20
266.0300429317243
 30
0.0000000000000000
 11
165.2055247603029
 21
268.3801148336481
 31
0.0000000000000000
  0
LINE
  5
374
100
AcDbEntity
  8
MAIN0
  6
CONTINUOUS
 62
3
100
AcDbLine
 10
169.4553869282891
 20
261.0188216335312
 30
0.0000000000000000
 11
165.3850708606292
 21
258.6688258655819
 31
0.0000000000000000
  0
LINE
  5
375
100
AcDbEntity
  8
MAIN0
  6
CONTINUOUS
 62
4
100
AcDbLine
 10
165.2053931244415
 20
268.3800388336481
 30
0.0000000000000000
 11
169.4553869282891
 21
261.0188216335312
 31
0.0000000000000000
  0
LINE
  5
376
100
AcDbEntity
  8
MAIN0
  6
CONTINUOUS
 62
3
100
AcDbLine
 10
165.7249259968656
 20
268.0801255024076
 30
0.0000000000000000
 11
165.2053931244416
 21
268.3800388336482
 31
0.0000000000000000
  0
LINE
  5
377
100
AcDbEntity
  8
MAIN0
  6
CONTINUOUS
 62
3
100
AcDbLine
 10
169.4554060327639
 20
261.6187365436101
 30
0.0000000000000000
 11
169.4553869282891
 21
261.0188216335312
 31
0.0000000000000000
  0
LINE
  5
378
100
AcDbEntity
  8
MAIN0
  6
CONTINUOUS
 62
3
100
AcDbLine
 10
169.4554060348656
 20
261.6188025399699
 30
0.0000000000000000
 11
165.7249762230643
 21
268.0800965080793
 31
0.0000000000000000
  0
LINE
  5
379
100
AcDbEntity
  8
MAIN0
  6
CONTINUOUS
 62
3
100
AcDbLine
 10
160.7600708606291
 20
266.6795608505880
 30
0.0000000000000000
 11
165.7600708606292
 21
258.0193068127436
 31
0.0000000000000000
  0
LINE
  5
37A
100
AcDbEntity
  8
MAIN0
  6
CONTINUOUS
 62
3
100
AcDbLine
 10
164.8940471888955
 20
257.5193078127437
 30
0.0000000000000000
 11
165.7600708606291
 21
258.0193068127436
 31
0.0000000000000000
  0
LINE
  5
37B
100
AcDbEntity
  8
MAIN0
  6
CONTINUOUS
 62
3
100
AcDbLine
 10
159.8940471888956
 20
266.1795618505880
 30
0.0000000000000000
 11
160.7600708606291
 21
266.6795608505880
 31
0.0000000000000000
  0
LINE
  5
37C
100
AcDbEntity
  8
MAIN0
  6
CONTINUOUS
 62
3
100
AcDbLine
 10
177.1350748247309
 20
238.3172300106223
 30
0.0000000000000000
 11
181.2055247603030
 21
240.6673019125461
 31
0.0000000000000000
  0
LINE
  5
37D
100
AcDbEntity
  8
MAIN0
  6
CONTINUOUS
 62
3
100
AcDbLine
 10
185.4553869282891
 20
233.3060087124291
 30
0.0000000000000000
 11
181.3850708606292
 21
230.9560129444800
 31
0.0000000000000000
  0
LINE
  5
37E
100
AcDbEntity
  8
MAIN0
  6
CONTINUOUS
 62
4
100
AcDbLine
 10
181.2053931244415
 20
240.6672259125461
 30
0.0000000000000000
 11
185.4553869282892
 21
233.3060087124291
 31
0.0000000000000000
  0
LINE
  5
37F
100
AcDbEntity
  8
MAIN0
  6
CONTINUOUS
 62
3
100
AcDbLine
 10
185.4554060348656
 20
233.9059896188679
 30
0.0000000000000000
 11
181.7249762230644
 21
240.3672835869773
 31
0.0000000000000000
  0
LINE
  5
380
100
AcDbEntity
  8
MAIN0
  6
CONTINUOUS
 62
3
100
AcDbLine
 10
176.7600708606292
 20
238.9667479294860
 30
0.0000000000000000
 11
181.7600708606292
 21
230.3064938916416
 31
0.0000000000000000
  0
LINE
  5
381
100
AcDbEntity
  8
MAIN0
  6
CONTINUOUS
 62
3
100
AcDbLine
 10
180.8940471888956
 20
229.8064948916416
 30
0.0000000000000000
 11
181.7600708606292
 21
230.3064938916415
 31
0.0000000000000000
  0
LINE
  5
382
100
AcDbEntity
  8
MAIN0
  6
CONTINUOUS
 62
3
100
AcDbLine
 10
175.8940471888956
 20
238.4667489294860
 30
0.0000000000000000
 11
176.7600708606292
 21
238.9667479294860
 31
0.0000000000000000
  0
LINE
  5
383
100
AcDbEntity
  8
MAIN0
  6
CONTINUOUS
 62
3
100
AcDbLine
 10
181.7249259968656
 20
240.3673125813054
 30
0.0000000000000000
 11
181.2053931244416
 21
240.6672259125461
 31
0.0000000000000000
  0
LINE
  5
384
100
AcDbEntity
  8
MAIN0
  6
CONTINUOUS
 62
3
100
AcDbLine
 10
185.4554060327639
 20
233.9059236225081
 30
0.0000000000000000
 11
185.4553869282891
 21
233.3060087124291
 31
0.0000000000000000
  0
LINE
  5
385
100
AcDbEntity
  8
MAIN0
  6
CONTINUOUS
 62
3
100
AcDbLine
 10
84.65162272648581
 20
184.8930283711151
 30
0.0000000000000000
 11
84.65162272648581
 21
262.8930283711149
 31
0.0000000000000000
  0
CIRCLE
  5
386
100
AcDbEntity
  8
MAIN0
  6
CONTINUOUS
 62
3
100
AcDbCircle
 10
128.6516227264858
 20
223.8930283711150
 30
0.0000000000000000
 40
43.00000000000000
  0
ARC
  5
387
100
AcDbEntity
  8
MAIN0
  6
CONTINUOUS
 62
3
100
AcDbCircle
 10
102.6516227264859
 20
265.8930283711149
 30
0.0000000000000000
 40
3.000000000000000
100
AcDbArc
 50
269.9999999999999
 51
359.9999999999998
  0
ARC
  5
388
100
AcDbEntity
  8
MAIN0
  6
CONTINUOUS
 62
3
100
AcDbCircle
 10
106.6516227264859
 20
266.8930283711148
 30
0.0000000000000000
 40
1.000000000000000
100
AcDbArc
 50
89.99999999999970
 51
179.9999999999998
  0
ARC
  5
389
100
AcDbEntity
  8
MAIN0
  6
CONTINUOUS
 62
3
100
AcDbCircle
 10
102.6516227264859
 20
181.8930283711151
 30
0.0000000000000000
 40
3.000000000000000
100
AcDbArc
 50
359.9999999999998
 51
449.9999999999999
  0
ARC
  5
38A
100
AcDbEntity
  8
MAIN0
  6
CONTINUOUS
 62
3
100
AcDbCircle
 10
106.6516227264859
 20
180.8930283711152
 30
0.0000000000000000
 40
1.000000000000000
100
AcDbArc
 50
179.9999999999998
 51
269.9999999999999
  0
ARC
  5
38B
100
AcDbEntity
  8
MAIN0
  6
CONTINUOUS
 62
3
100
AcDbCircle
 10
150.6516227264858
 20
180.8930283711152
 30
0.0000000000000000
 40
1.000000000000000
100
AcDbArc
 50
269.9999999999999
 51
360.0000000000000
  0
ARC
  5
38C
100
AcDbEntity
  8
MAIN0
  6
CONTINUOUS
 62
3
100
AcDbCircle
 10
154.6516227264858
 20
185.9456964490946
 30
0.0000000000000000
 40
3.000000000000000
100
AcDbArc
 50
124.4173887104413
 51
179.9999999999998
  0
ARC
  5
38D
100
AcDbEntity
  8
MAIN0
  6
CONTINUOUS
 62
3
100
AcDbCircle
 10
174.5149761767958
 20
220.3500338337299
 30
0.0000000000000000
 40
3.000000000000000
100
AcDbArc
 50
119.9999999999995
 51
175.5826112895583
  0
ARC
  5
38E
100
AcDbEntity
  8
MAIN0
  6
CENTER
 62
12
100
AcDbCircle
 10
128.6516227264858
 20
223.8930283711150
 30
0.0000000000000000
 40
39.00000000000000
100
AcDbArc
 50
49.39868058096894
 51
69.26354707624148
  0
ARC
  5
38F
100
AcDbEntity
  8
MAIN0
  6
CENTER
 62
12
100
AcDbCircle
 10
128.6516227264858
 20
223.8930283711150
 30
0.0000000000000000
 40
39.00000000000000
100
AcDbArc
 50
169.3986805809687
 51
189.2635470762414
  0
ARC
  5
390
100
AcDbEntity
  8
MAIN0
  6
CENTER
 62
12
100
AcDbCircle
 10
128.6516227264858
 20
223.8930283711150
 30
0.0000000000000000
 40
39.00000000000000
100
AcDbArc
 50
289.3986805809687
 51
309.2635470762416
  0
LINE
  5
391
100
AcDbEntity
  8
MAIN0
  6
CONTINUOUS
 62
4
100
AcDbLine
 10
106.6516227264859
 20
267.8930283711148
 30
0.0000000000000000
 11
151.1516227264859
 21
267.8930283711148
 31
0.0000000000000000
  0
LINE
  5
392
100
AcDbEntity
  8
MAIN0
  6
CONTINUOUS
 62
3
100
AcDbLine
 10
151.1516227264859
 20
267.8930283711148
 30
0.0000000000000000
 11
154.0550345708292
 21
267.8930283711148
 31
0.0000000000000000
  0
LINE
  5
393
100
AcDbEntity
  8
MAIN0
  6
CONTINUOUS
 62
3
100
AcDbLine
 10
154.0550345708292
 20
267.8930283711148
 30
0.0000000000000000
 11
155.5067404930010
 21
265.3785999562647
 31
0.0000000000000000
  0
LINE
  5
394
100
AcDbEntity
  8
MAIN0
  6
CONTINUOUS
 62
4
100
AcDbLine
 10
155.5067404930010
 20
265.3785999562647
 30
0.0000000000000000
 11
178.0067404930011
 21
226.4074567859650
 31
0.0000000000000000
  0
LINE
  5
395
100
AcDbEntity
  8
MAIN0
  6
CONTINUOUS
 62
3
100
AcDbLine
 10
178.0067404930011
 20
226.4074567859650
 30
0.0000000000000000
 11
178.2567404930010
 21
225.9744440840730
 31
0.0000000000000000
  0
LINE
  5
396
100
AcDbEntity
  8
MAIN0
  6
CONTINUOUS
 62
3
100
AcDbLine
 10
76.65906514228124
 20
352.5486468731368
 30
0.0000000000000000
 11
74.65906514228124
 21
353.7033478731368
 31
0.0000000000000000
  0
LINE
  5
397
100
AcDbEntity
  8
MAIN0
  6
CONTINUOUS
 62
3
100
AcDbLine
 10
74.65906514228129
 20
353.7033478731368
 30
0.0000000000000000
 11
72.65906514228129
 21
352.5486468731368
 31
0.0000000000000000
  0
LINE
  5
398
100
AcDbEntity
  8
MAIN0
  6
CONTINUOUS
 62
3
100
AcDbLine
 10
72.65906514228126
 20
352.5486468731368
 30
0.0000000000000000
 11
72.65906514228126
 21
350.2392448731368
 31
0.0000000000000000
  0
LINE
  5
399
100
AcDbEntity
  8
MAIN0
  6
CONTINUOUS
 62
3
100
AcDbLine
 10
72.65906514228126
 20
350.2392448731367
 30
0.0000000000000000
 11
74.65906514228126
 21
349.0845448731367
 31
0.0000000000000000
  0
LINE
  5
39A
100
AcDbEntity
  8
MAIN0
  6
CONTINUOUS
 62
3
100
AcDbLine
 10
74.65906514228132
 20
349.0845448731368
 30
0.0000000000000000
 11
76.65906514228129
 21
350.2392478731368
 31
0.0000000000000000
  0
LINE
  5
39B
100
AcDbEntity
  8
MAIN0
  6
CONTINUOUS
 62
3
100
AcDbLine
 10
76.65906514228126
 20
350.2392478731368
 30
0.0000000000000000
 11
76.65906514228126
 21
352.5486468731368
 31
0.0000000000000000
  0
CIRCLE
  5
39C
100
AcDbEntity
  8
MAIN0
  6
CONTINUOUS
 62
3
100
AcDbCircle
 10
74.65906514228126
 20
351.3939458731368
 30
0.0000000000000000
 40
4.249999999999996
  0
LINE
  5
39D
100
AcDbEntity
  8
MAIN0
  6
CONTINUOUS
 62
3
100
AcDbLine
 10
184.8404323361976
 20
360.4542310000204
 30
0.0000000000000000
 11
182.8404323361976
 21
361.6089320000203
 31
0.0000000000000000
  0
LINE
  5
39E
100
AcDbEntity
  8
MAIN0
  6
CONTINUOUS
 62
3
100
AcDbLine
 10
182.8404323361976
 20
361.6089320000205
 30
0.0000000000000000
 11
180.8404323361977
 21
360.4542310000205
 31
0.0000000000000000
  0
LINE
  5
39F
100
AcDbEntity
  8
MAIN0
  6
CONTINUOUS
 62
3
100
AcDbLine
 10
180.8404323361976
 20
360.4542310000204
 30
0.0000000000000000
 11
180.8404323361976
 21
358.1448290000204
 31
0.0000000000000000
  0
LINE
  5
3A0
100
AcDbEntity
  8
MAIN0
  6
CONTINUOUS
 62
3
100
AcDbLine
 10
180.8404323361975
 20
358.1448290000203
 30
0.0000000000000000
 11
182.8404323361975
 21
356.9901290000204
 31
0.0000000000000000
  0
LINE
  5
3A1
100
AcDbEntity
  8
MAIN0
  6
CONTINUOUS
 62
3
100
AcDbLine
 10
182.8404323361976
 20
356.9901290000204
 30
0.0000000000000000
 11
184.8404323361978
 21
358.1448320000205
 31
0.0000000000000000
  0
LINE
  5
3A2
100
AcDbEntity
  8
MAIN0
  6
CONTINUOUS
 62
3
100
AcDbLine
 10
184.8404323361976
 20
358.1448320000204
 30
0.0000000000000000
 11
184.8404323361976
 21
360.4542310000204
 31
0.0000000000000000
  0
CIRCLE
  5
3A3
100
AcDbEntity
  8
MAIN0
  6
CONTINUOUS
 62
3
100
AcDbCircle
 10
182.8404323361976
 20
359.2995300000204
 30
0.0000000000000000
 40
4.249999999999996
  0
CIRCLE
  5
3A4
100
AcDbEntity
  8
MAIN0
  6
CONTINUOUS
 62
12
100
AcDbCircle
 10
106.6590651422813
 20
351.3939458731368
 30
0.0000000000000000
 40
2.500000000000000
  0
CIRCLE
  5
3A5
100
AcDbEntity
  8
MAIN0
  6
CONTINUOUS
 62
4
100
AcDbCircle
 10
106.6590651422813
 20
351.3939458731368
 30
0.0000000000000000
 40
2.099999999999994
  0
CIRCLE
  5
3A6
100
AcDbEntity
  8
MAIN0
  6
CONTINUOUS
 62
12
100
AcDbCircle
 10
198.8404323361976
 20
331.5867170789184
 30
0.0000000000000000
 40
2.500000000000000
  0
CIRCLE
  5
3A7
100
AcDbEntity
  8
MAIN0
  6
CONTINUOUS
 62
4
100
AcDbCircle
 10
198.8404323361976
 20
331.5867170789184
 30
0.0000000000000000
 40
2.099999999999994
  0
LINE
  5
3A8
100
AcDbEntity
  8
MAIN0
  6
CONTINUOUS
 62
3
100
AcDbLine
 10
146.1714747825932
 20
257.1374400762479
 30
0.0000000000000000
 11
150.1317706703783
 21
258.1985981611682
 31
0.0000000000000000
  0
LINE
  5
3A9
100
AcDbEntity
  8
MAIN0
  6
CONTINUOUS
 62
3
100
AcDbLine
 10
147.6210436840256
 20
259.6481670626006
 30
0.0000000000000000
 11
148.6822017689459
 21
255.6878711748154
 31
0.0000000000000000
  0
CIRCLE
  5
3AA
100
AcDbEntity
  8
MAIN0
  6
CONTINUOUS
 62
3
100
AcDbCircle
 10
148.1516227264857
 20
257.6680191187080
 30
0.0000000000000000
 40
3.499999999999993
  0
LINE
  5
3AB
100
AcDbEntity
  8
MAIN0
  6
CONTINUOUS
 62
3
100
AcDbLine
 10
91.10119162791830
 20
222.4434594696826
 30
0.0000000000000000
 11
88.20205382505344
 21
225.3425972725474
 31
0.0000000000000000
  0
LINE
  5
3AC
100
AcDbEntity
  8
MAIN0
  6
CONTINUOUS
 62
3
100
AcDbLine
 10
88.20205382505344
 20
222.4434594696825
 30
0.0000000000000000
 11
91.10119162791830
 21
225.3425972725473
 31
0.0000000000000000
  0
CIRCLE
  5
3AD
100
AcDbEntity
  8
MAIN0
  6
CONTINUOUS
 62
3
100
AcDbCircle
 10
89.65162272648587
 20
223.8930283711150
 30
0.0000000000000000
 40
3.499999999999993
  0
LINE
  5
3AE
100
AcDbEntity
  8
MAIN0
  6
CONTINUOUS
 62
3
100
AcDbLine
 10
148.6822017689458
 20
192.0981855674145
 30
0.0000000000000000
 11
147.6210436840255
 21
188.1378896796293
 31
0.0000000000000000
  0
LINE
  5
3AF
100
AcDbEntity
  8
MAIN0
  6
CONTINUOUS
 62
3
100
AcDbLine
 10
150.1317706703782
 20
189.5874585810618
 30
0.0000000000000000
 11
146.1714747825931
 21
190.6486166659821
 31
0.0000000000000000
  0
CIRCLE
  5
3B0
100
AcDbEntity
  8
MAIN0
  6
CONTINUOUS
 62
3
100
AcDbCircle
 10
148.1516227264857
 20
190.1180376235220
 30
0.0000000000000000
 40
3.499999999999993
  0
LINE
  5
3B1
100
AcDbEntity
  8
MAIN0
  6
CONTINUOUS
 62
3
100
AcDbLine
 10
108.4016237264859
 20
273.0930303711148
 30
0.0000000000000000
 11
108.4016267264859
 21
277.7931793711148
 31
0.0000000000000000
  0
LINE
  5
3B2
100
AcDbEntity
  8
MAIN0
  6
CONTINUOUS
 62
3
100
AcDbLine
 10
116.9016247264858
 20
277.7930213711148
 30
0.0000000000000000
 11
116.9016227264858
 21
273.0930263711148
 31
0.0000000000000000
  0
LINE
  5
3B3
100
AcDbEntity
  8
MAIN0
  6
CONTINUOUS
 62
4
100
AcDbLine
 10
108.4016267264859
 20
277.7930273711148
 30
0.0000000000000000
 11
116.9016247264859
 21
277.7930213711148
 31
0.0000000000000000
  0
LINE
  5
3B4
100
AcDbEntity
  8
MAIN0
  6
CONTINUOUS
 62
3
100
AcDbLine
 10
108.9211257264859
 20
278.0929993711149
 30
0.0000000000000000
 11
108.4016267264859
 21
277.7930273711149
 31
0.0000000000000000
  0
LINE
  5
3B5
100
AcDbEntity
  8
MAIN0
  6
CONTINUOUS
 62
3
100
AcDbLine
 10
116.3820927264859
 20
278.0929953711149
 30
0.0000000000000000
 11
116.9016247264859
 21
277.7930213711149
 31
0.0000000000000000
  0
LINE
  5
3B6
100
AcDbEntity
  8
MAIN0
  6
CONTINUOUS
 62
3
100
AcDbLine
 10
116.3820355730125
 20
278.0930283711148
 30
0.0000000000000000
 11
108.9211759494100
 21
278.0930283711148
 31
0.0000000000000000
  0
LINE
  5
3B7
100
AcDbEntity
  8
WAKU0
  6
CONTINUOUS
 62
3
100
AcDbLine
 10
412.0000000000000
 20
51.00000000000000
 30
0.0000000000000000
 11
582.0000000000000
 21
51.00000000000000
 31
0.0000000000000000
  0
LINE
  5
3B8
100
AcDbEntity
  8
WAKU0
  6
CONTINUOUS
 62
3
100
AcDbLine
 10
412.0000000000000
 20
51.00000000000000
 30
0.0000000000000000
 11
412.0000000000000
 21
12.00000000000000
 31
0.0000000000000000
  0
LINE
  5
3B9
100
AcDbEntity
  8
WAKU0
  6
CONTINUOUS
 62
3
100
AcDbLine
 10
484.0000000000000
 20
51.00000000000000
 30
0.0000000000000000
 11
484.0000000000000
 21
12.00000000000000
 31
0.0000000000000000
  0
LINE
  5
3BA
100
AcDbEntity
  8
WAKU0
  6
CONTINUOUS
 62
3
100
AcDbLine
 10
504.0000000000000
 20
51.00000000000000
 30
0.0000000000000000
 11
504.0000000000000
 21
12.00000000000000
 31
0.0000000000000000
  0
LINE
  5
3BB
100
AcDbEntity
  8
WAKU0
  6
CONTINUOUS
 62
3
100
AcDbLine
 10
516.0000000000000
 20
51.00000000000000
 30
0.0000000000000000
 11
516.0000000000000
 21
12.00000000000000
 31
0.0000000000000000
  0
LINE
  5
3BC
100
AcDbEntity
  8
WAKU0
  6
CONTINUOUS
 62
3
100
AcDbLine
 10
516.0000000000000
 20
37.00000000000000
 30
0.0000000000000000
 11
582.0000000000000
 21
37.00000000000000
 31
0.0000000000000000
  0
LINE
  5
3BD
100
AcDbEntity
  8
WAKU0
  6
CONTINUOUS
 62
3
100
AcDbLine
 10
504.0000000000000
 20
23.00000000000000
 30
0.0000000000000000
 11
582.0000000000000
 21
23.00000000000000
 31
0.0000000000000000
  0
LINE
  5
3BE
100
AcDbEntity
  8
WAKU0
  6
CONTINUOUS
 62
3
100
AcDbLine
 10
547.0000000000000
 20
51.00000000000000
 30
0.0000000000000000
 11
547.0000000000000
 21
44.00000000000000
 31
0.0000000000000000
  0
LINE
  5
3BF
100
AcDbEntity
  8
WAKU0
  6
CONTINUOUS
 62
3
100
AcDbLine
 10
559.0000000000000
 20
51.00000000000000
 30
0.0000000000000000
 11
559.0000000000000
 21
44.00000000000000
 31
0.0000000000000000
  0
LINE
  5
3C0
100
AcDbEntity
  8
WAKU0
  6
CONTINUOUS
 62
3
100
AcDbLine
 10
484.0000000000000
 20
31.50000000000000
 30
0.0000000000000000
 11
504.0000000000000
 21
31.50000000000000
 31
0.0000000000000000
  0
LINE
  5
3C1
100
AcDbEntity
  8
WAKU0
  6
CONTINUOUS
 62
3
100
AcDbLine
 10
504.0000000000000
 20
44.00000000000000
 30
0.0000000000000000
 11
582.0000000000000
 21
44.00000000000000
 31
0.0000000000000000
  0
LINE
  5
3C2
100
AcDbEntity
  8
WAKU0
  6
CONTINUOUS
 62
3
100
AcDbLine
 10
412.0000000000000
 20
37.00000000000000
 30
0.0000000000000000
 11
484.0000000000000
 21
37.00000000000000
 31
0.0000000000000000
  0
LINE
  5
3C3
100
AcDbEntity
  8
WAKU0
  6
CONTINUOUS
 62
3
100
AcDbLine
 10
412.0000000000000
 20
23.00000000000000
 30
0.0000000000000000
 11
484.0000000000000
 21
23.00000000000000
 31
0.0000000000000000
  0
LINE
  5
3C4
100
AcDbEntity
  8
WAKU0
  6
CONTINUOUS
 62
3
100
AcDbLine
 10
460.0000000000000
 20
37.00000000000000
 30
0.0000000000000000
 11
460.0000000000000
 21
12.00000000000000
 31
0.0000000000000000
  0
LINE
  5
3C5
100
AcDbEntity
  8
WAKU0
  6
CONTINUOUS
 62
3
100
AcDbLine
 10
436.0000000000000
 20
37.00000000000000
 30
0.0000000000000000
 11
436.0000000000000
 21
23.00000000000000
 31
0.0000000000000000
  0
LINE
  5
3C6
100
AcDbEntity
  8
WAKU0
  6
CONTINUOUS
 62
3
100
AcDbLine
 10
472.0000000000000
 20
26.00000000000000
 30
0.0000000000000000
 11
472.0000000000000
 21
23.00000000000000
 31
0.0000000000000000
  0
LINE
  5
3C7
100
AcDbEntity
  8
WAKU0
  6
CONTINUOUS
 62
3
100
AcDbLine
 10
448.0000000000000
 20
26.00000000000000
 30
0.0000000000000000
 11
448.0000000000000
 21
23.00000000000000
 31
0.0000000000000000
  0
LINE
  5
3C8
100
AcDbEntity
  8
WAKU0
  6
CONTINUOUS
 62
3
100
AcDbLine
 10
424.0000000000000
 20
26.00000000000000
 30
0.0000000000000000
 11
424.0000000000000
 21
23.00000000000000
 31
0.0000000000000000
  0
LINE
  5
3C9
100
AcDbEntity
  8
WAKU0
  6
CONTINUOUS
 62
3
100
AcDbLine
 10
430.0000000000000
 20
51.00000000000000
 30
0.0000000000000000
 11
430.0000000000000
 21
37.00000000000000
 31
0.0000000000000000
  0
LINE
  5
3CA
100
AcDbEntity
  8
WAKU0
  6
CONTINUOUS
 62
3
100
AcDbLine
 10
412.0000000000000
 20
45.00000000000000
 30
0.0000000000000000
 11
484.0000000000000
 21
45.00000000000000
 31
0.0000000000000000
  0
LINE
  5
3CB
100
AcDbEntity
  8
WAKU0
  6
HIDDEN
 62
3
100
AcDbLine
 10
532.5000000000000
 20
23.00000000000000
 30
0.0000000000000000
 11
532.5000000000000
 21
12.00000000000000
 31
0.0000000000000000
  0
LINE
  5
3CC
100
AcDbEntity
  8
WAKU0
  6
HIDDEN
 62
3
100
AcDbLine
 10
544.9000000000000
 20
23.00000000000000
 30
0.0000000000000000
 11
544.9000000000000
 21
12.00000000000000
 31
0.0000000000000000
  0
MTEXT
  5
3CD
100
AcDbEntity
  8
WAKU0
  6
CONTINUOUS
 62
3
100
AcDbMText
 10
516.4820000231266
 20
49.04999995231628
 30
0.0000000000000000
 40
3.099999904632568
 41
0.0000000000000000
 71
     1
 72
     1
  1
{\H0.93x;{Y0715RE01C}}
 11
1.000000000000000
 21
0.0000000000000000
 31
0.0000000000000000
  7
STANDARD
  0
MTEXT
  5
3CE
100
AcDbEntity
  8
WAKU0
  6
CONTINUOUS
 62
3
100
AcDbMText
 10
522.7500004470348
 20
43.50000000000000
 30
0.0000000000000000
 40
3.000000000000000
 41
0.0000000000000000
 71
     1
 72
     1
  1
{\H0.59x;{回転油圧シリンダ\PＲＯＴＡＲＹ　ＨＹＤＲＡＵＬＩＣ　ＣＹＬＩＮＤＥＲ}}
 11
1.000000000000000
 21
0.0000000000000000
 31
0.0000000000000000
  7
KNJYOKO
  0
MTEXT
  5
3CF
100
AcDbEntity
  8
WAKU0
  6
CONTINUOUS
 62
3
100
AcDbMText
 10
519.1500010974705
 20
34.23333326975504
 30
0.0000000000000000
 40
3.099999904632568
 41
0.0000000000000000
 71
     1
 72
     1
  1
{\H0.71x;{Ｙ０７１５ＲＥ０１Ｃ　ガイケイ\PＹ０７１５ＲＥ０１Ｃ　ＯＵＴＳＩＤＥ　ＶＩＥＷ}}
 11
1.000000000000000
 21
0.0000000000000000
 31
0.0000000000000000
  7
KNJYOKO
  0
MTEXT
  5
3D0
100
AcDbEntity
  8
WAKU0
  6
CONTINUOUS
 62
3
100
AcDbMText
 10
490.0049998760223
 20
39.29999995231628
 30
0.0000000000000000
 40
3.099999904632568
 41
0.0000000000000000
 71
     1
 72
     1
  1
{\H0.90x;{1:1}}
 11
1.000000000000000
 21
0.0000000000000000
 31
0.0000000000000000
  7
STANDARD
  0
MTEXT
  5
3D1
100
AcDbEntity
  8
WAKU0
  6
CONTINUOUS
 62
3
100
AcDbMText
 10
546.4000001549721
 20
20.15000009536743
 30
0.0000000000000000
 40
5.300000190734863
 41
0.0000000000000000
 71
     1
 72
     1
  1
{\H0.90x;{1009}}
 11
1.000000000000000
 21
0.0000000000000000
 31
0.0000000000000000
  7
STANDARD
  0
MTEXT
  5
3D2
100
AcDbEntity
  8
WAKU0
  6
CONTINUOUS
 62
3
100
AcDbMText
 10
534.3000000834466
 20
20.15000009536743
 30
0.0000000000000000
 40
5.300000190734863
 41
0.0000000000000000
 71
     1
 72
     1
  1
{\H0.87x;{24}}
 11
1.000000000000000
 21
0.0000000000000000
 31
0.0000000000000000
  7
STANDARD
  0
MTEXT
  5
3D3
100
AcDbEntity
  8
WAKU0
  6
CONTINUOUS
 62
3
100
AcDbMText
 10
517.5000001192093
 20
20.15000009536743
 30
0.0000000000000000
 40
5.300000190734863
 41
0.0000000000000000
 71
     1
 72
     1
  1
{\H0.89x;{61R}}
 11
1.000000000000000
 21
0.0000000000000000
 31
0.0000000000000000
  7
STANDARD
  0
MTEXT
  5
3D4
100
AcDbEntity
  8
WAKU0
  6
CONTINUOUS
 62
3
100
AcDbMText
 10
572.0000000476837
 20
20.15000009536743
 30
0.0000000000000000
 40
5.300000190734863
 41
0.0000000000000000
 71
     1
 72
     1
  1
{\H0.81x;{3}}
 11
1.000000000000000
 21
0.0000000000000000
 31
0.0000000000000000
  7
STANDARD
  0
MTEXT
  5
3D5
100
AcDbEntity
  8
WAKU0
  6
CONTINUOUS
 62
3
100
AcDbMText
 10
572.0000000819564
 20
44.84999990463257
 30
0.0000000000000000
 40
5.300000190734863
 41
0.0000000000000000
 71
     7
 72
     1
  1
{\H0.81x;{ }}
 11
1.000000000000000
 21
0.0000000000000000
 31
0.0000000000000000
  7
STANDARD
  0
MTEXT
  5
3D6
100
AcDbEntity
  8
WAKU0
  6
CONTINUOUS
 62
3
100
AcDbMText
 10
461.3850002884865
 20
33.00000000000000
 30
0.0000000000000000
 40
3.000000000000000
 41
0.0000000000000000
 71
     7
 72
     1
  1
{\H0.93x;{DRAWN BY}}
 11
1.000000000000000
 21
0.0000000000000000
 31
0.0000000000000000
  7
STANDARD
  0
MTEXT
  5
3D7
100
AcDbEntity
  8
WAKU0
  6
CONTINUOUS
 62
3
100
AcDbMText
 10
441.2149997949600
 20
32.95000004768372
 30
0.0000000000000000
 40
3.099999904632568
 41
0.0000000000000000
 71
     7
 72
     1
  1
{\H0.92x;{CHIEF}}
 11
1.000000000000000
 21
0.0000000000000000
 31
0.0000000000000000
  7
STANDARD
  0
MTEXT
  5
3D8
100
AcDbEntity
  8
WAKU0
  6
CONTINUOUS
 62
3
100
AcDbMText
 10
414.4249997138977
 20
32.95000004768372
 30
0.0000000000000000
 40
3.099999904632568
 41
0.0000000000000000
 71
     7
 72
     1
  1
{\H0.92x;{MANAGER}}
 11
1.000000000000000
 21
0.0000000000000000
 31
0.0000000000000000
  7
STANDARD
  0
MTEXT
  5
3D9
100
AcDbEntity
  8
WAKU0
  6
CONTINUOUS
 62
3
100
AcDbMText
 10
413.0850002169609
 20
46.50000000000000
 30
0.0000000000000000
 40
3.000000000000000
 41
0.0000000000000000
 71
     7
 72
     1
  1
{\H0.92x;{CAREER}}
 11
1.000000000000000
 21
0.0000000000000000
 31
0.0000000000000000
  7
STANDARD
  0
MTEXT
  5
3DA
100
AcDbEntity
  8
WAKU0
  6
CONTINUOUS
 62
3
100
AcDbMText
 10
466.6099998354912
 20
18.95000004768372
 30
0.0000000000000000
 40
3.099999904632568
 41
0.0000000000000000
 71
     7
 72
     1
  1
{\H0.91x;{DATE}}
 11
1.000000000000000
 21
0.0000000000000000
 31
0.0000000000000000
  7
STANDARD
  0
MTEXT
  5
3DB
100
AcDbEntity
  8
WAKU0
  6
CONTINUOUS
 62
3
100
AcDbMText
 10
485.9000002145767
 20
26.50000000000000
 30
0.0000000000000000
 40
3.000000000000000
 41
0.0000000000000000
 71
     7
 72
     1
  1
{\H0.63x;{3RD ANGLE}}
 11
1.000000000000000
 21
0.0000000000000000
 31
0.0000000000000000
  7
STANDARD
  0
MTEXT
  5
3DC
100
AcDbEntity
  8
WAKU0
  6
CONTINUOUS
 62
3
100
AcDbMText
 10
487.2149997949600
 20
45.95000004768372
 30
0.0000000000000000
 40
3.099999904632568
 41
0.0000000000000000
 71
     7
 72
     1
  1
{\H0.92x;{SCALE}}
 11
1.000000000000000
 21
0.0000000000000000
 31
0.0000000000000000
  7
STANDARD
  0
MTEXT
  5
3DD
100
AcDbEntity
  8
WAKU0
  6
CONTINUOUS
 62
3
100
AcDbMText
 10
577.7000000476837
 20
46.00000000000000
 30
0.0000000000000000
 40
3.000000000000000
 41
0.0000000000000000
 71
     7
 72
     1
  1
{\H0.63x;{kg}}
 11
1.000000000000000
 21
0.0000000000000000
 31
0.0000000000000000
  7
STANDARD
  0
MTEXT
  5
3DE
100
AcDbEntity
  8
WAKU0
  6
CONTINUOUS
 62
3
100
AcDbMText
 10
547.6000001430512
 20
46.00000000000000
 30
0.0000000000000000
 40
3.000000000000000
 41
0.0000000000000000
 71
     7
 72
     1
  1
{\H0.63x;{WEIGHT}}
 11
1.000000000000000
 21
0.0000000000000000
 31
0.0000000000000000
  7
STANDARD
  0
MTEXT
  5
3DF
100
AcDbEntity
  8
WAKU0
  6
CONTINUOUS
 62
3
100
AcDbMText
 10
506.0049998760223
 20
18.13333336512248
 30
0.0000000000000000
 40
3.099999904632568
 41
0.0000000000000000
 71
     7
 72
     1
  1
{\H0.90x;{DRW\PNO.}}
 11
1.000000000000000
 21
0.0000000000000000
 31
0.0000000000000000
  7
STANDARD
  0
MTEXT
  5
3E0
100
AcDbEntity
  8
WAKU0
  6
CONTINUOUS
 62
3
100
AcDbMText
 10
504.6099998354912
 20
31.95000004768372
 30
0.0000000000000000
 40
3.099999904632568
 41
0.0000000000000000
 71
     7
 72
     1
  1
{\H0.91x;{NAME}}
 11
1.000000000000000
 21
0.0000000000000000
 31
0.0000000000000000
  7
STANDARD
  0
MTEXT
  5
3E1
100
AcDbEntity
  8
WAKU0
  6
CONTINUOUS
 62
3
100
AcDbMText
 10
504.6099998354912
 20
45.95000004768372
 30
0.0000000000000000
 40
3.099999904632568
 41
0.0000000000000000
 71
     7
 72
     1
  1
{\H0.91x;{TYPE}}
 11
1.000000000000000
 21
0.0000000000000000
 31
0.0000000000000000
  7
STANDARD
  0
LINE
  5
3E2
100
AcDbEntity
  8
WAKU0
  6
HIDDEN
 62
3
100
AcDbLine
 10
579.1599564743885
 20
13.84999990463257
 30
0.0000000000000000
 11
568.9400436209789
 21
13.84999990463257
 31
0.0000000000000000
  0
LINE
  5
3E3
100
AcDbEntity
  8
WAKU0
  6
HIDDEN
 62
3
100
AcDbLine
 10
579.1599564743885
 20
13.84999990463250
 30
0.0000000000000000
 11
574.0500000476851
 21
22.70070406014901
 31
0.0000000000000000
  0
LINE
  5
3E4
100
AcDbEntity
  8
WAKU0
  6
HIDDEN
 62
3
100
AcDbLine
 10
574.0500000476851
 20
22.70070406014902
 30
0.0000000000000000
 11
568.9400436209789
 21
13.84999990463248
 31
0.0000000000000000
  0
MTEXT
  5
3E5
100
AcDbEntity
  8
WAKU0
  6
CONTINUOUS
 62
3
100
AcDbMText
 10
419.0000009614873
 20
20.63471521698214
 30
0.0000000000000000
 40
3.140094041824341
 41
0.0000000000000000
 71
     1
 72
     1
  1
{\H0.83x;{Ｋｉｔａｇａｗａ\PＣｏｒｐｏｒａｔｉｏｎ}}
 11
1.000000000000000
 21
0.0000000000000000
 31
0.0000000000000000
  7
KNJYOKO
  0
LINE
  5
3E6
100
AcDbEntity
  8
WAKU0
  6
CONTINUOUS
 62
3
100
AcDbLine
 10
502.4713877753800
 20
15.78041421262812
 30
0.0000000000000000
 11
502.4713877753800
 21
21.78041421262815
 31
0.0000000000000000
  0
LINE
  5
3E7
100
AcDbEntity
  8
WAKU0
  6
CONTINUOUS
 62
3
100
AcDbLine
 10
495.9336941228225
 20
17.28041421262811
 30
0.0000000000000000
 11
495.9336941228225
 21
20.28041421262824
 31
0.0000000000000000
  0
LINE
  5
3E8
100
AcDbEntity
  8
WAKU0
  6
CENTER
 62
12
100
AcDbLine
 10
485.4321805514995
 20
18.78041421262813
 30
0.0000000000000000
 11
503.2765788964694
 21
18.78041421262813
 31
0.0000000000000000
  0
LINE
  5
3E9
100
AcDbEntity
  8
WAKU0
  6
CENTER
 62
12
100
AcDbLine
 10
489.4474565857986
 20
14.55921662918448
 30
0.0000000000000000
 11
489.4474565857986
 21
22.89865102149943
 31
0.0000000000000000
  0
LINE
  5
3EA
100
AcDbEntity
  8
WAKU0
  6
CONTINUOUS
 62
3
100
AcDbLine
 10
495.9336941228225
 20
20.28041421262797
 30
0.0000000000000000
 11
502.4713877753800
 21
21.78041421262795
 31
0.0000000000000000
  0
LINE
  5
3EB
100
AcDbEntity
  8
WAKU0
  6
CONTINUOUS
 62
3
100
AcDbLine
 10
495.9336941228225
 20
17.28041421262811
 30
0.0000000000000000
 11
502.4713877753799
 21
15.78041421262812
 31
0.0000000000000000
  0
CIRCLE
  5
3EC
100
AcDbEntity
  8
WAKU0
  6
CONTINUOUS
 62
3
100
AcDbCircle
 10
489.4474565857986
 20
18.78041421262813
 30
0.0000000000000000
 40
1.499999999999972
  0
CIRCLE
  5
3ED
100
AcDbEntity
  8
WAKU0
  6
CONTINUOUS
 62
3
100
AcDbCircle
 10
489.4474565857986
 20
18.78041421262813
 30
0.0000000000000000
 40
2.999999999999979
  0
ENDSEC
  0
SECTION
  2
OBJECTS
  0
DICTIONARY
  5
433
100
AcDbDictionary
  3
ACAD_GROUP
350
434
  3
ACAD_MLINESTYLE
350
435
  3
DWGPROPS
350
436
  0
DICTIONARY
  5
434
102
{ACAD_REACTORS
330
433
102
}
100
AcDbDictionary
  0
DICTIONARY
  5
435
102
{ACAD_REACTORS
330
433
102
}
100
AcDbDictionary
  3
STANDARD
350
437
  0
MLINESTYLE
  5
437
102
{ACAD_REACTORS
330
435
102
}
100
AcDbMlineStyle
  2
STANDARD
 70
     0
  3

 62
   256
 51
90.00
 52
90.00
 71
     2
 49
0.50
 62
   256
  6
BYLAYER
 49
-0.50
 62
   256
  6
BYLAYER
  0
XRECORD
  5
436
102
{ACAD_REACTORS
330
433
102
}
100
AcDbXrecord
280
     1
  1
DWGPROPS COOKIE
  2
Ｙ０７１５ＲＥ０１Ｃ　ガイケイ
  3

  4

  6
回転油圧シリンダ
  7

  8

  9

300
=
301
=
302
=
303
=
304
=
305
=
306
=
307
=
308
=
309
=
 40
0.000000
 41
0.000000
 42
0.000000
  1

 90
        0
  0
ENDSEC
  0
EOF
