  0
SECTION
  2
HEADER
  9
$ACADVER
  1
AC1014
  9
$DWGCODEPAGE
  3
ANSI_932
  9
$LTSCALE
 40
20.0
  9
$FILLMODE
 70
     1
  9
$CLAYER
  8
0
  9
$PDMODE
 70
     0
  9
$SPLFRAME
 70
     0
  9
$SPLINETYPE
 70
     6
  9
$SPLINESEGS
 70
     8
  9
$DIMASZ
 40
2.000000
  9
$DIMEXE
 40
2.000000
  9
$DIMEXO
 40
0.800000
  9
$DIMTAD
 70
     1
  9
$DIMTIH
 70
     0
  9
$DIMTOH
 70
     0
  9
$DIMTVP
 40
0.500000
  9
$DIMTXT
 40
3.100000
  9
$EXTMIN
 10
0.000000
 20
0.000000
 30
0.000000
  9
$EXTMAX
 10
420.000000
 20
594.000000
 30
0.000000
  9
$MEASUREMENT
 70
  1
  9
$LIMMIN
 10
0.000000
 20
0.000000
  9
$LIMMAX
 10
420.000000
 20
594.000000
  9
$HANDLING
 70
     1
  9
$HANDSEED
  5
519
  9
$DIMBLK
  1
_OPEN
  9
$DIMDEC
 70
     3
  9
$DIMAUNIT
 70
     1
  9
$DIMZIN
 70
     8
  9
$DIMTOFL
 70
     1
  0
ENDSEC
  0
SECTION
  2
CLASSES
  0
ENDSEC
  0
SECTION
  2
TABLES
  0
TABLE
  2
VPORT
  5
4BE
100
AcDbSymbolTable
 70
     1
  0
VPORT
  5
4BF
100
AcDbSymbolTableRecord
100
AcDbViewportTableRecord
  2
*ACTIVE
 70
     0
 12
316.584163
 22
210.000000
 40
420.000000
 41
1.507544
  0
ENDTAB
  0
TABLE
  2
LTYPE
  5
4C0
100
AcDbSymbolTable
 70
     4
  0
LTYPE
  5
4C1
100
AcDbSymbolTableRecord
100
AcDbLinetypeTableRecord
  2
BYBLOCK
 70
     0
  3

 72
    65
 73
     0
 40
0.0
  0
LTYPE
  5
4C2
100
AcDbSymbolTableRecord
100
AcDbLinetypeTableRecord
  2
BYLAYER
 70
     0
  3

 72
    65
 73
     0
 40
0.0
  0
LTYPE
  5
4C3
100
AcDbSymbolTableRecord
100
AcDbLinetypeTableRecord
  2
CONTINUOUS
 70
     0
  3
Solid line (NEC CAE2D for Win R12.1 : 2019.02.26)
 72
    65
 73
     0
 40
0.0
  0
LTYPE
  5
4C4
100
AcDbSymbolTableRecord
100
AcDbLinetypeTableRecord
  2
HIDDEN
 70
     0
  3
__ __ __ __ __ __ __ __ __ __ __ __ __ __
 72
    65
 73
     2
 40
0.375
 49
0.25
 74
     0
 49
-0.125
 74
     0
  0
LTYPE
  5
4C5
100
AcDbSymbolTableRecord
100
AcDbLinetypeTableRecord
  2
CENTER
 70
     0
  3
____ _ ____ _ ____ _ ____ _ ____ _ ____
 72
    65
 73
     4
 40
2.0
 49
1.25
 74
     0
 49
-0.25
 74
     0
 49
0.25
 74
     0
 49
-0.25
 74
     0
  0
LTYPE
  5
4C6
100
AcDbSymbolTableRecord
100
AcDbLinetypeTableRecord
  2
PHANTOM
 70
     0
  3
______  __  __  ______  __  __  ______ 
 72
    65
 73
     6
 40
2.5
 49
1.25
 74
     0
 49
-0.25
 74
     0
 49
0.25
 74
     0
 49
-0.25
 74
     0
 49
0.25
 74
     0
 49
-0.25
 74
     0
  0
ENDTAB
  0
TABLE
  2
LAYER
  5
4C7
100
AcDbSymbolTable
 70
    12
  0
LAYER
  5
4C8
100
AcDbSymbolTableRecord
100
AcDbLayerTableRecord
  2
0
 70
     0
 62
     7
  6
CONTINUOUS
  0
LAYER
  5
4C9
100
AcDbSymbolTableRecord
100
AcDbLayerTableRecord
  2
MAIN0
 70
     0
 62
     7
  6
CONTINUOUS
  0
LAYER
  5
4CA
100
AcDbSymbolTableRecord
100
AcDbLayerTableRecord
  2
MAIN1
 70
     0
 62
     7
  6
CONTINUOUS
  0
LAYER
  5
4CB
100
AcDbSymbolTableRecord
100
AcDbLayerTableRecord
  2
MAIN2
 70
     0
 62
     7
  6
CONTINUOUS
  0
LAYER
  5
4CC
100
AcDbSymbolTableRecord
100
AcDbLayerTableRecord
  2
MAIN3
 70
     0
 62
     7
  6
CONTINUOUS
  0
LAYER
  5
4CD
100
AcDbSymbolTableRecord
100
AcDbLayerTableRecord
  2
MAIN4
 70
     0
 62
     7
  6
CONTINUOUS
  0
LAYER
  5
4CE
100
AcDbSymbolTableRecord
100
AcDbLayerTableRecord
  2
MAIN1023
 70
     0
 62
    16
  6
CONTINUOUS
  0
LAYER
  5
4CF
100
AcDbSymbolTableRecord
100
AcDbLayerTableRecord
  2
A0
 70
     0
 62
     7
  6
CONTINUOUS
  0
LAYER
  5
4D0
100
AcDbSymbolTableRecord
100
AcDbLayerTableRecord
  2
A4
 70
     0
 62
     7
  6
CONTINUOUS
  0
LAYER
  5
4D1
100
AcDbSymbolTableRecord
100
AcDbLayerTableRecord
  2
A1023
 70
     0
 62
    16
  6
CONTINUOUS
  0
LAYER
  5
4D2
100
AcDbSymbolTableRecord
100
AcDbLayerTableRecord
  2
WAKU0
 70
     0
 62
     7
  6
CONTINUOUS
  0
LAYER
  5
4D3
100
AcDbSymbolTableRecord
100
AcDbLayerTableRecord
  2
WAKU1023
 70
     0
 62
    16
  6
CONTINUOUS
  0
ENDTAB
  0
TABLE
  2
STYLE
  5
4D4
100
AcDbSymbolTable
 70
     4
  0
STYLE
  5
4D5
100
AcDbSymbolTableRecord
100
AcDbTextStyleTableRecord
  2
STANDARD
 70
    64
 40
0.0
 41
1.0
 50
0.0
 71
     0
 42
3.140094041824341
  3
TXT
  4

  0
STYLE
  5
4D6
100
AcDbSymbolTableRecord
100
AcDbTextStyleTableRecord
  2
ANKTATE
 70
    68
 40
0.0
 41
1.0
 50
0.0
 71
     0
 42
3.140094041824341
  3
TXT
  4

  0
STYLE
  5
2F3
100
AcDbSymbolTableRecord
100
AcDbTextStyleTableRecord
  2
KNJYOKO
 70
    64
 40
0.0
 41
1.0
 50
0.0
 71
     0
 42
3.140094041824341
  3
TXT
  4
BIGFONT
  0
STYLE
  5
4D7
100
AcDbSymbolTableRecord
100
AcDbTextStyleTableRecord
  2
KNJTATE
 70
    68
 40
0.0
 41
1.0
 50
0.0
 71
     0
 42
3.140094041824341
  3
TXT
  4
BIGFONT
  0
ENDTAB
  0
TABLE
  2
VIEW
  5
4D8
100
AcDbSymbolTable
 70
     0
  0
ENDTAB
  0
TABLE
  2
UCS
  5
4D9
100
AcDbSymbolTable
 70
     0
  0
ENDTAB
  0
TABLE
  2
APPID
  5
4DA
100
AcDbSymbolTable
 70
     1
  0
APPID
  5
4DB
100
AcDbSymbolTableRecord
100
AcDbRegAppTableRecord
  2
ACAD
 70
     0
  0
ENDTAB
  0
TABLE
  2
DIMSTYLE
  5
4DC
100
AcDbSymbolTable
 70
     1
  0
DIMSTYLE
105
4DD
100
AcDbSymbolTableRecord
100
AcDbDimStyleTableRecord
  2
STANDARD
 70
     0
 41
2.000000
 44
2.000000
 42
0.800000
145
0.661290
140
3.100000
144
1.000000
146
0.903226
340
4D5
  0
DIMSTYLE
105
4DE
100
AcDbSymbolTableRecord
100
AcDbDimStyleTableRecord
  2
MAIN001
 70
     0
 41
2.000000
 44
2.000000
 42
0.800000
145
0.661290
140
3.100000
144
1.000000
146
0.903226
 77
     1
 73
     0
 74
     0
271
     3
275
     1
 78
     8
172
     1
340
4D5
  0
DIMSTYLE
105
4DF
100
AcDbSymbolTableRecord
100
AcDbDimStyleTableRecord
  2
A002
 70
     0
 41
3.000000
 44
3.000000
 42
1.200000
145
0.607527
140
4.650000
144
1.000000
146
0.903226
 77
     1
 73
     0
 74
     0
271
     3
275
     1
 78
     8
172
     1
340
4D5
  0
DIMSTYLE
105
4E0
100
AcDbSymbolTableRecord
100
AcDbDimStyleTableRecord
  2
WAKU003
 70
     0
 41
2.000000
 44
2.000000
 42
0.800000
145
0.661290
140
3.100000
144
1.000000
146
0.903226
 77
     1
 73
     0
 74
     0
271
     3
275
     1
 78
     8
172
     1
340
4D5
  0
ENDTAB
  0
TABLE
  2
BLOCK_RECORD
  5
4E1
100
AcDbSymbolTable
 70
    56
  0
BLOCK_RECORD
  5
4E2
100
AcDbSymbolTableRecord
100
AcDbBlockTableRecord
  2
*MODEL_SPACE
  0
BLOCK_RECORD
  5
4E3
100
AcDbSymbolTableRecord
100
AcDbBlockTableRecord
  2
*PAPER_SPACE
  0
BLOCK_RECORD
  5
1
100
AcDbSymbolTableRecord
100
AcDbBlockTableRecord
  2
_NONE
  0
BLOCK_RECORD
  5
4
100
AcDbSymbolTableRecord
100
AcDbBlockTableRecord
  2
_CLOSED
  0
BLOCK_RECORD
  5
B
100
AcDbSymbolTableRecord
100
AcDbBlockTableRecord
  2
_DOT
  0
BLOCK_RECORD
  5
13
100
AcDbSymbolTableRecord
100
AcDbBlockTableRecord
  2
_OPEN
  0
BLOCK_RECORD
  5
19
100
AcDbSymbolTableRecord
100
AcDbBlockTableRecord
  2
_ORIGIN
  0
BLOCK_RECORD
  5
1E
100
AcDbSymbolTableRecord
100
AcDbBlockTableRecord
  2
_OPEN30
  0
BLOCK_RECORD
  5
24
100
AcDbSymbolTableRecord
100
AcDbBlockTableRecord
  2
_BOXFILLED
  0
BLOCK_RECORD
  5
29
100
AcDbSymbolTableRecord
100
AcDbBlockTableRecord
  2
_BOXBLANK
  0
BLOCK_RECORD
  5
31
100
AcDbSymbolTableRecord
100
AcDbBlockTableRecord
  2
_OBLIQUE
  0
BLOCK_RECORD
  5
35
100
AcDbSymbolTableRecord
100
AcDbBlockTableRecord
  2
_OPEN90
  0
BLOCK_RECORD
  5
3B
100
AcDbSymbolTableRecord
100
AcDbBlockTableRecord
  2
_CLOSEDBLANK
  0
BLOCK_RECORD
  5
41
100
AcDbSymbolTableRecord
100
AcDbBlockTableRecord
  2
_DOTBLANK
  0
BLOCK_RECORD
  5
4E4
100
AcDbSymbolTableRecord
100
AcDbBlockTableRecord
  2
*D0
  0
BLOCK_RECORD
  5
4E5
100
AcDbSymbolTableRecord
100
AcDbBlockTableRecord
  2
*D1
  0
BLOCK_RECORD
  5
4E6
100
AcDbSymbolTableRecord
100
AcDbBlockTableRecord
  2
*D2
  0
BLOCK_RECORD
  5
4E7
100
AcDbSymbolTableRecord
100
AcDbBlockTableRecord
  2
*D3
  0
BLOCK_RECORD
  5
4E8
100
AcDbSymbolTableRecord
100
AcDbBlockTableRecord
  2
*D4
  0
BLOCK_RECORD
  5
4E9
100
AcDbSymbolTableRecord
100
AcDbBlockTableRecord
  2
*D5
  0
BLOCK_RECORD
  5
4EA
100
AcDbSymbolTableRecord
100
AcDbBlockTableRecord
  2
*D6
  0
BLOCK_RECORD
  5
4EB
100
AcDbSymbolTableRecord
100
AcDbBlockTableRecord
  2
*D7
  0
BLOCK_RECORD
  5
4EC
100
AcDbSymbolTableRecord
100
AcDbBlockTableRecord
  2
*D8
  0
BLOCK_RECORD
  5
4ED
100
AcDbSymbolTableRecord
100
AcDbBlockTableRecord
  2
*D9
  0
BLOCK_RECORD
  5
4EE
100
AcDbSymbolTableRecord
100
AcDbBlockTableRecord
  2
*D10
  0
BLOCK_RECORD
  5
4EF
100
AcDbSymbolTableRecord
100
AcDbBlockTableRecord
  2
*D11
  0
BLOCK_RECORD
  5
4F0
100
AcDbSymbolTableRecord
100
AcDbBlockTableRecord
  2
*D12
  0
BLOCK_RECORD
  5
4F1
100
AcDbSymbolTableRecord
100
AcDbBlockTableRecord
  2
*D13
  0
BLOCK_RECORD
  5
4F2
100
AcDbSymbolTableRecord
100
AcDbBlockTableRecord
  2
*D14
  0
BLOCK_RECORD
  5
4F3
100
AcDbSymbolTableRecord
100
AcDbBlockTableRecord
  2
*D15
  0
BLOCK_RECORD
  5
4F4
100
AcDbSymbolTableRecord
100
AcDbBlockTableRecord
  2
*D16
  0
BLOCK_RECORD
  5
4F5
100
AcDbSymbolTableRecord
100
AcDbBlockTableRecord
  2
*D17
  0
BLOCK_RECORD
  5
4F6
100
AcDbSymbolTableRecord
100
AcDbBlockTableRecord
  2
*D18
  0
BLOCK_RECORD
  5
4F7
100
AcDbSymbolTableRecord
100
AcDbBlockTableRecord
  2
*D19
  0
BLOCK_RECORD
  5
4F8
100
AcDbSymbolTableRecord
100
AcDbBlockTableRecord
  2
*D20
  0
BLOCK_RECORD
  5
4F9
100
AcDbSymbolTableRecord
100
AcDbBlockTableRecord
  2
*D21
  0
BLOCK_RECORD
  5
4FA
100
AcDbSymbolTableRecord
100
AcDbBlockTableRecord
  2
*D22
  0
BLOCK_RECORD
  5
4FB
100
AcDbSymbolTableRecord
100
AcDbBlockTableRecord
  2
*D23
  0
BLOCK_RECORD
  5
4FC
100
AcDbSymbolTableRecord
100
AcDbBlockTableRecord
  2
*D24
  0
BLOCK_RECORD
  5
4FD
100
AcDbSymbolTableRecord
100
AcDbBlockTableRecord
  2
*D25
  0
BLOCK_RECORD
  5
4FE
100
AcDbSymbolTableRecord
100
AcDbBlockTableRecord
  2
*D26
  0
BLOCK_RECORD
  5
4FF
100
AcDbSymbolTableRecord
100
AcDbBlockTableRecord
  2
*D27
  0
BLOCK_RECORD
  5
500
100
AcDbSymbolTableRecord
100
AcDbBlockTableRecord
  2
*D28
  0
BLOCK_RECORD
  5
501
100
AcDbSymbolTableRecord
100
AcDbBlockTableRecord
  2
*D29
  0
BLOCK_RECORD
  5
502
100
AcDbSymbolTableRecord
100
AcDbBlockTableRecord
  2
*D30
  0
BLOCK_RECORD
  5
503
100
AcDbSymbolTableRecord
100
AcDbBlockTableRecord
  2
*D31
  0
BLOCK_RECORD
  5
504
100
AcDbSymbolTableRecord
100
AcDbBlockTableRecord
  2
*D32
  0
BLOCK_RECORD
  5
505
100
AcDbSymbolTableRecord
100
AcDbBlockTableRecord
  2
*D33
  0
BLOCK_RECORD
  5
506
100
AcDbSymbolTableRecord
100
AcDbBlockTableRecord
  2
*D34
  0
BLOCK_RECORD
  5
507
100
AcDbSymbolTableRecord
100
AcDbBlockTableRecord
  2
*D35
  0
BLOCK_RECORD
  5
508
100
AcDbSymbolTableRecord
100
AcDbBlockTableRecord
  2
*D36
  0
BLOCK_RECORD
  5
509
100
AcDbSymbolTableRecord
100
AcDbBlockTableRecord
  2
*D37
  0
BLOCK_RECORD
  5
50A
100
AcDbSymbolTableRecord
100
AcDbBlockTableRecord
  2
*D38
  0
BLOCK_RECORD
  5
50B
100
AcDbSymbolTableRecord
100
AcDbBlockTableRecord
  2
*D39
  0
BLOCK_RECORD
  5
50C
100
AcDbSymbolTableRecord
100
AcDbBlockTableRecord
  2
*D40
  0
BLOCK_RECORD
  5
50D
100
AcDbSymbolTableRecord
100
AcDbBlockTableRecord
  2
*D41
  0
BLOCK_RECORD
  5
50E
100
AcDbSymbolTableRecord
100
AcDbBlockTableRecord
  2
*D42
  0
BLOCK_RECORD
  5
50F
100
AcDbSymbolTableRecord
100
AcDbBlockTableRecord
  2
*X0
  0
ENDTAB
  0
ENDSEC
  0
SECTION
  2
BLOCKS
  0
BLOCK
  5
510
100
AcDbEntity
  8
0
100
AcDbBlockBegin
  2
*MODEL_SPACE
 70
     0
 10
0.0
 20
0.0
 30
0.0
  3
*MODEL_SPACE
  1

  0
ENDBLK
  5
511
100
AcDbEntity
  8
0
100
AcDbBlockEnd
  0
BLOCK
  5
512
100
AcDbEntity
  8
0
100
AcDbBlockBegin
  2
*PAPER_SPACE
 70
     0
 10
0.0
 20
0.0
 30
0.0
  3
*PAPER_SPACE
  1

  0
ENDBLK
  5
513
100
AcDbEntity
  8
0
100
AcDbBlockEnd
  0
BLOCK
  5
2
100
AcDbEntity
  8
0
100
AcDbBlockBegin
  2
_NONE
 70
     0
 10
0.0
 20
0.0
 30
0.0
  3
_NONE
  1

  0
ENDBLK
  5
3
100
AcDbEntity
  8
0
100
AcDbBlockEnd
  0
BLOCK
  5
5
100
AcDbEntity
  8
0
100
AcDbBlockBegin
  2
_CLOSED
 70
     0
 10
0.0
 20
0.0
 30
0.0
  3
_CLOSED
  1

  0
LINE
  5
6
100
AcDbEntity
  8
0
  6
BYBLOCK
 62
     0
100
AcDbLine
 10
-1.0
 20
0.166667
 30
0.0
 11
0.0
 21
0.0
 31
0.0
  0
LINE
  5
7
100
AcDbEntity
  8
0
  6
BYBLOCK
 62
     0
100
AcDbLine
 10
0.0
 20
0.0
 30
0.0
 11
-1.0
 21
-0.166667
 31
0.0
  0
LINE
  5
8
100
AcDbEntity
  8
0
  6
BYBLOCK
 62
     0
100
AcDbLine
 10
-1.0
 20
0.166667
 30
0.0
 11
-1.0
 21
-0.166667
 31
0.0
  0
LINE
  5
9
100
AcDbEntity
  8
0
  6
BYBLOCK
 62
     0
100
AcDbLine
 10
0.0
 20
0.0
 30
0.0
 11
-1.0
 21
0.0
 31
0.0
  0
ENDBLK
  5
A
100
AcDbEntity
  8
0
100
AcDbBlockEnd
  0
BLOCK
  5
C
100
AcDbEntity
  8
0
100
AcDbBlockBegin
  2
_DOT
 70
     0
 10
0.0
 20
0.0
 30
0.0
  3
_DOT
  1

  0
POLYLINE
  5
D
100
AcDbEntity
  8
0
  6
BYBLOCK
 62
     0
100
AcDb2dPolyline
 66
     1
 10
0.0
 20
0.0
 30
0.0
 70
     1
 40
0.5
 41
0.5
  0
VERTEX
  5
E
100
AcDbEntity
  8
0
  6
BYBLOCK
 62
     0
100
AcDbVertex
100
AcDb2dVertex
 10
-0.25
 20
0.0
 30
0.0
 42
1.0
  0
VERTEX
  5
F
100
AcDbEntity
  8
0
  6
BYBLOCK
 62
     0
100
AcDbVertex
100
AcDb2dVertex
 10
0.25
 20
0.0
 30
0.0
 42
1.0
  0
SEQEND
  5
10
100
AcDbEntity
  8
0
  6
BYBLOCK
 62
     0
  0
LINE
  5
11
100
AcDbEntity
  8
0
  6
BYBLOCK
 62
     0
100
AcDbLine
 10
-0.5
 20
0.0
 30
0.0
 11
-1.0
 21
0.0
 31
0.0
  0
ENDBLK
  5
12
100
AcDbEntity
  8
0
100
AcDbBlockEnd
  0
BLOCK
  5
14
100
AcDbEntity
  8
0
100
AcDbBlockBegin
  2
_OPEN
 70
     0
 10
0.0
 20
0.0
 30
0.0
  3
_OPEN
  1

  0
LINE
  5
15
100
AcDbEntity
  8
0
  6
BYBLOCK
 62
     0
100
AcDbLine
 10
-1.0
 20
0.166667
 30
0.0
 11
0.0
 21
0.0
 31
0.0
  0
LINE
  5
16
100
AcDbEntity
  8
0
  6
BYBLOCK
 62
     0
100
AcDbLine
 10
0.0
 20
0.0
 30
0.0
 11
-1.0
 21
-0.166667
 31
0.0
  0
LINE
  5
17
100
AcDbEntity
  8
0
  6
BYBLOCK
 62
     0
100
AcDbLine
 10
0.0
 20
0.0
 30
0.0
 11
-1.0
 21
0.0
 31
0.0
  0
ENDBLK
  5
18
100
AcDbEntity
  8
0
100
AcDbBlockEnd
  0
BLOCK
  5
1A
100
AcDbEntity
  8
0
100
AcDbBlockBegin
  2
_ORIGIN
 70
     0
 10
0.0
 20
0.0
 30
0.0
  3
_ORIGIN
  1

  0
CIRCLE
  5
1B
100
AcDbEntity
  8
0
  6
BYBLOCK
 62
     0
100
AcDbCircle
 10
0.0
 20
0.0
 30
0.0
 40
0.5
  0
LINE
  5
1C
100
AcDbEntity
  8
0
  6
BYBLOCK
 62
     0
100
AcDbLine
 10
0.0
 20
0.0
 30
0.0
 11
-1.0
 21
0.0
 31
0.0
  0
ENDBLK
  5
1D
100
AcDbEntity
  8
0
100
AcDbBlockEnd
  0
BLOCK
  5
1F
100
AcDbEntity
  8
0
100
AcDbBlockBegin
  2
_OPEN30
 70
     0
 10
0.0
 20
0.0
 30
0.0
  3
_OPEN30
  1

  0
LINE
  5
20
100
AcDbEntity
  8
0
  6
BYBLOCK
 62
     0
100
AcDbLine
 10
-1.0
 20
0.267949
 30
0.0
 11
0.0
 21
0.0
 31
0.0
  0
LINE
  5
21
100
AcDbEntity
  8
0
  6
BYBLOCK
 62
     0
100
AcDbLine
 10
0.0
 20
0.0
 30
0.0
 11
-1.0
 21
-0.267949
 31
0.0
  0
LINE
  5
22
100
AcDbEntity
  8
0
  6
BYBLOCK
 62
     0
100
AcDbLine
 10
0.0
 20
0.0
 30
0.0
 11
-1.0
 21
0.0
 31
0.0
  0
ENDBLK
  5
23
100
AcDbEntity
  8
0
100
AcDbBlockEnd
  0
BLOCK
  5
25
100
AcDbEntity
  8
0
100
AcDbBlockBegin
  2
_BOXFILLED
 70
     0
 10
0.0
 20
0.0
 30
0.0
  3
_BOXFILLED
  1

  0
SOLID
  5
26
100
AcDbEntity
  8
0
  6
BYBLOCK
 62
     0
100
AcDbTrace
 10
-0.5
 20
0.5
 30
0.0
 11
0.5
 21
0.5
 31
0.0
 12
-0.5
 22
-0.5
 32
0.0
 13
0.5
 23
-0.5
 33
0.0
  0
LINE
  5
27
100
AcDbEntity
  8
0
  6
BYBLOCK
 62
     0
100
AcDbLine
 10
-0.5
 20
0.0
 30
0.0
 11
-1.0
 21
0.0
 31
0.0
  0
ENDBLK
  5
28
100
AcDbEntity
  8
0
100
AcDbBlockEnd
  0
BLOCK
  5
2A
100
AcDbEntity
  8
0
100
AcDbBlockBegin
  2
_BOXBLANK
 70
     0
 10
0.0
 20
0.0
 30
0.0
  3
_BOXBLANK
  1

  0
LINE
  5
2B
100
AcDbEntity
  8
0
  6
BYBLOCK
 62
     0
100
AcDbLine
 10
-0.5
 20
-0.5
 30
0.0
 11
0.5
 21
-0.5
 31
0.0
  0
LINE
  5
2C
100
AcDbEntity
  8
0
  6
BYBLOCK
 62
     0
100
AcDbLine
 10
0.5
 20
-0.5
 30
0.0
 11
0.5
 21
0.5
 31
0.0
  0
LINE
  5
2D
100
AcDbEntity
  8
0
  6
BYBLOCK
 62
     0
100
AcDbLine
 10
0.5
 20
0.5
 30
0.0
 11
-0.5
 21
0.5
 31
0.0
  0
LINE
  5
2E
100
AcDbEntity
  8
0
  6
BYBLOCK
 62
     0
100
AcDbLine
 10
-0.5
 20
0.5
 30
0.0
 11
-0.5
 21
-0.5
 31
0.0
  0
LINE
  5
2F
100
AcDbEntity
  8
0
  6
BYBLOCK
 62
     0
100
AcDbLine
 10
-0.5
 20
0.0
 30
0.0
 11
-1.0
 21
0.0
 31
0.0
  0
ENDBLK
  5
30
100
AcDbEntity
  8
0
100
AcDbBlockEnd
  0
BLOCK
  5
32
100
AcDbEntity
  8
0
100
AcDbBlockBegin
  2
_OBLIQUE
 70
     0
 10
0.0
 20
0.0
 30
0.0
  3
_OBLIQUE
  1

  0
LINE
  5
33
100
AcDbEntity
  8
0
  6
BYBLOCK
 62
     0
100
AcDbLine
 10
-0.5
 20
-0.5
 30
0.0
 11
0.5
 21
0.5
 31
0.0
  0
ENDBLK
  5
34
100
AcDbEntity
  8
0
100
AcDbBlockEnd
  0
BLOCK
  5
36
100
AcDbEntity
  8
0
100
AcDbBlockBegin
  2
_OPEN90
 70
     0
 10
0.0
 20
0.0
 30
0.0
  3
_OPEN90
  1

  0
LINE
  5
37
100
AcDbEntity
  8
0
  6
BYBLOCK
 62
     0
100
AcDbLine
 10
-0.5
 20
0.5
 30
0.0
 11
0.0
 21
0.0
 31
0.0
  0
LINE
  5
38
100
AcDbEntity
  8
0
  6
BYBLOCK
 62
     0
100
AcDbLine
 10
0.0
 20
0.0
 30
0.0
 11
-0.5
 21
-0.5
 31
0.0
  0
LINE
  5
39
100
AcDbEntity
  8
0
  6
BYBLOCK
 62
     0
100
AcDbLine
 10
0.0
 20
0.0
 30
0.0
 11
-1.0
 21
0.0
 31
0.0
  0
ENDBLK
  5
3A
100
AcDbEntity
  8
0
100
AcDbBlockEnd
  0
BLOCK
  5
3C
100
AcDbEntity
  8
0
100
AcDbBlockBegin
  2
_CLOSEDBLANK
 70
     0
 10
0.0
 20
0.0
 30
0.0
  3
_CLOSEDBLANK
  1

  0
LINE
  5
3D
100
AcDbEntity
  8
0
  6
BYBLOCK
 62
     0
100
AcDbLine
 10
-1.0
 20
0.1666666666666666
 30
0.0
 11
0.0
 21
0.0
 31
0.0
  0
LINE
  5
3E
100
AcDbEntity
  8
0
  6
BYBLOCK
 62
     0
100
AcDbLine
 10
0.0
 20
0.0
 30
0.0
 11
-1.0
 21
-0.1666666666666666
 31
0.0
  0
LINE
  5
3F
100
AcDbEntity
  8
0
  6
BYBLOCK
 62
     0
100
AcDbLine
 10
-1.0
 20
0.1666666666666666
 30
0.0
 11
-1.0
 21
-0.1666666666666666
 31
0.0
  0
ENDBLK
  5
40
100
AcDbEntity
  8
0
100
AcDbBlockEnd
  0
BLOCK
  5
42
100
AcDbEntity
  8
0
100
AcDbBlockBegin
  2
_DOTBLANK
 70
     0
 10
0.0
 20
0.0
 30
0.0
  3
_DOTBLANK
  1

  0
CIRCLE
  5
43
100
AcDbEntity
  8
0
  6
BYBLOCK
 62
     0
100
AcDbCircle
 10
0.0
 20
0.0
 30
0.0
 40
0.5
  0
LINE
  5
44
100
AcDbEntity
  8
0
  6
BYBLOCK
 62
     0
100
AcDbLine
 10
-0.5
 20
0.0
 30
0.0
 11
-1.0
 21
0.0
 31
0.0
  0
ENDBLK
  5
45
100
AcDbEntity
  8
0
100
AcDbBlockEnd
  0
BLOCK
  5
1C9
100
AcDbEntity
  8
MAIN0
  6
CONTINUOUS
 62
3
100
AcDbBlockBegin
  2
*D0
 70
    65
 10
0.0
 20
0.0
 30
0.0
  0
LINE
  5
1CA
100
AcDbEntity
  8
MAIN0
  6
BYBLOCK
 62
0
100
AcDbLine
 10
267.6233165902555
 20
170.0272898775303
 30
0.0000000000000000
 11
276.9647245604862
 21
170.0272898775303
 31
0.0000000000000000
  0
LINE
  5
1CB
100
AcDbEntity
  8
MAIN0
  6
BYBLOCK
 62
0
100
AcDbLine
 10
274.9647245604862
 20
168.0272898775303
 30
0.0000000000000000
 11
274.9647245604862
 21
132.0272939581126
 31
0.0000000000000000
  0
INSERT
  5
1CC
100
AcDbEntity
  8
MAIN0
  6
BYBLOCK
 62
0
100
AcDbBlockReference
  2
_OPEN
 10
274.9647245604862
 20
170.0272898775303
 30
0.0000000000000000
 41
2.000000000000000
 42
2.000000000000000
 43
2.000000000000000
 50
90.00000000000000
  0
INSERT
  5
1CD
100
AcDbEntity
  8
MAIN0
  6
BYBLOCK
 62
0
100
AcDbBlockReference
  2
_OPEN
 10
274.9647245604862
 20
130.0272939581126
 30
0.0000000000000000
 41
2.000000000000000
 42
2.000000000000000
 43
2.000000000000000
 50
270.0000000000000
  0
LINE
  5
1CE
100
AcDbEntity
  8
MAIN0
  6
BYBLOCK
 62
0
100
AcDbLine
 10
264.0233165902556
 20
130.0272939581126
 30
0.0000000000000000
 11
276.9647245604862
 21
130.0272939581126
 31
0.0000000000000000
  0
MTEXT
  5
1CF
100
AcDbEntity
  8
MAIN0
  6
BYBLOCK
 62
0
100
AcDbMText
 10
272.9147246081699
 20
150.0272919178215
 30
0.0000000000000000
 40
3.099999904632568
 41
0.0000000000000000
 71
     5
 72
     1
  1
\A1;40
 11
6.123233995736766e-017
 21
1.000000000000000
 31
0.0000000000000000
  7
STANDARD
  0
ENDBLK
  5
1D0
100
AcDbEntity
  8
MAIN0
  6
CONTINUOUS
 62
3
100
AcDbBlockEnd
  0
BLOCK
  5
1D2
100
AcDbEntity
  8
MAIN0
  6
CONTINUOUS
 62
3
100
AcDbBlockBegin
  2
*D1
 70
    65
 10
0.0
 20
0.0
 30
0.0
  0
LINE
  5
1D3
100
AcDbEntity
  8
MAIN0
  6
BYBLOCK
 62
0
100
AcDbLine
 10
267.4233165783346
 20
170.2272898894513
 30
0.0000000000000000
 11
267.4233165783346
 21
177.5929690060483
 31
0.0000000000000000
  0
LINE
  5
1D4
100
AcDbEntity
  8
MAIN0
  6
BYBLOCK
 62
0
100
AcDbLine
 10
265.4233165783346
 20
175.5929690060483
 30
0.0000000000000000
 11
219.4233165783346
 21
175.5929690060483
 31
0.0000000000000000
  0
INSERT
  5
1D5
100
AcDbEntity
  8
MAIN0
  6
BYBLOCK
 62
0
100
AcDbBlockReference
  2
_OPEN
 10
267.4233165783346
 20
175.5929690060483
 30
0.0000000000000000
 41
2.000000000000000
 42
2.000000000000000
 43
2.000000000000000
 50
360.0000000000000
  0
INSERT
  5
1D6
100
AcDbEntity
  8
MAIN0
  6
BYBLOCK
 62
0
100
AcDbBlockReference
  2
_OPEN
 10
217.4233165783346
 20
175.5929690060483
 30
0.0000000000000000
 41
2.000000000000000
 42
2.000000000000000
 43
2.000000000000000
 50
180.0000000000000
  0
LINE
  5
1D7
100
AcDbEntity
  8
MAIN0
  6
BYBLOCK
 62
0
100
AcDbLine
 10
217.4233165783346
 20
170.2272898894513
 30
0.0000000000000000
 11
217.4233165783346
 21
177.5929690060483
 31
0.0000000000000000
  0
MTEXT
  5
1D8
100
AcDbEntity
  8
MAIN0
  6
BYBLOCK
 62
0
100
AcDbMText
 10
242.4233165783346
 20
177.6429689583646
 30
0.0000000000000000
 40
3.099999904632568
 41
0.0000000000000000
 71
     5
 72
     1
  1
\A1;50
 11
1.000000000000000
 21
0.0000000000000000
 31
0.0000000000000000
  7
STANDARD
  0
ENDBLK
  5
1D9
100
AcDbEntity
  8
MAIN0
  6
CONTINUOUS
 62
3
100
AcDbBlockEnd
  0
BLOCK
  5
1DB
100
AcDbEntity
  8
MAIN0
  6
CONTINUOUS
 62
3
100
AcDbBlockBegin
  2
*D2
 70
    65
 10
0.0
 20
0.0
 30
0.0
  0
LINE
  5
1DC
100
AcDbEntity
  8
MAIN0
  6
BYBLOCK
 62
0
100
AcDbLine
 10
217.2233165664137
 20
170.0272898775303
 30
0.0000000000000000
 11
209.2576374498167
 21
170.0272898775303
 31
0.0000000000000000
  0
LINE
  5
1DD
100
AcDbEntity
  8
MAIN0
  6
BYBLOCK
 62
0
100
AcDbLine
 10
211.2576374498167
 20
168.0272898775303
 30
0.0000000000000000
 11
211.2576374498167
 21
156.0272898775303
 31
0.0000000000000000
  0
INSERT
  5
1DE
100
AcDbEntity
  8
MAIN0
  6
BYBLOCK
 62
0
100
AcDbBlockReference
  2
_OPEN
 10
211.2576374498167
 20
170.0272898775303
 30
0.0000000000000000
 41
2.000000000000000
 42
2.000000000000000
 43
2.000000000000000
 50
90.00000000000000
  0
INSERT
  5
1DF
100
AcDbEntity
  8
MAIN0
  6
BYBLOCK
 62
0
100
AcDbBlockReference
  2
_OPEN
 10
211.2576374498167
 20
154.0272898775303
 30
0.0000000000000000
 41
2.000000000000000
 42
2.000000000000000
 43
2.000000000000000
 50
270.0000000000000
  0
LINE
  5
1E0
100
AcDbEntity
  8
MAIN0
  6
BYBLOCK
 62
0
100
AcDbLine
 10
216.6233165664137
 20
154.0272898775303
 30
0.0000000000000000
 11
209.2576374498167
 21
154.0272898775303
 31
0.0000000000000000
  0
MTEXT
  5
1E1
100
AcDbEntity
  8
MAIN0
  6
BYBLOCK
 62
0
100
AcDbMText
 10
209.2076374975004
 20
162.0272898775303
 30
0.0000000000000000
 40
3.099999904632568
 41
0.0000000000000000
 71
     5
 72
     1
  1
\A1;16
 11
6.123233995736766e-017
 21
1.000000000000000
 31
0.0000000000000000
  7
STANDARD
  0
ENDBLK
  5
1E2
100
AcDbEntity
  8
MAIN0
  6
CONTINUOUS
 62
3
100
AcDbBlockEnd
  0
BLOCK
  5
1E4
100
AcDbEntity
  8
MAIN0
  6
CONTINUOUS
 62
3
100
AcDbBlockBegin
  2
*D3
 70
    65
 10
0.0
 20
0.0
 30
0.0
  0
LINE
  5
1E5
100
AcDbEntity
  8
MAIN0
  6
BYBLOCK
 62
0
100
AcDbLine
 10
217.2233165664137
 20
170.0272898775303
 30
0.0000000000000000
 11
204.6184601186092
 21
170.0272898775303
 31
0.0000000000000000
  0
LINE
  5
1E6
100
AcDbEntity
  8
MAIN0
  6
BYBLOCK
 62
0
100
AcDbLine
 10
206.6184601186092
 20
168.0272898775303
 30
0.0000000000000000
 11
206.6184601186092
 21
152.0272898775303
 31
0.0000000000000000
  0
INSERT
  5
1E7
100
AcDbEntity
  8
MAIN0
  6
BYBLOCK
 62
0
100
AcDbBlockReference
  2
_OPEN
 10
206.6184601186092
 20
170.0272898775303
 30
0.0000000000000000
 41
2.000000000000000
 42
2.000000000000000
 43
2.000000000000000
 50
90.00000000000000
  0
INSERT
  5
1E8
100
AcDbEntity
  8
MAIN0
  6
BYBLOCK
 62
0
100
AcDbBlockReference
  2
_OPEN
 10
206.6184601186092
 20
150.0272898775303
 30
0.0000000000000000
 41
2.000000000000000
 42
2.000000000000000
 43
2.000000000000000
 50
270.0000000000000
  0
LINE
  5
1E9
100
AcDbEntity
  8
MAIN0
  6
BYBLOCK
 62
0
100
AcDbLine
 10
211.9841392352062
 20
150.0272898775303
 30
0.0000000000000000
 11
192.4474348424251
 21
150.0272898775303
 31
0.0000000000000000
  0
MTEXT
  5
1EA
100
AcDbEntity
  8
MAIN0
  6
BYBLOCK
 62
0
100
AcDbMText
 10
204.5684601662929
 20
160.0272898775303
 30
0.0000000000000000
 40
3.099999904632568
 41
0.0000000000000000
 71
     5
 72
     1
  1
\A1;20
 11
6.123233995736766e-017
 21
1.000000000000000
 31
0.0000000000000000
  7
STANDARD
  0
ENDBLK
  5
1EB
100
AcDbEntity
  8
MAIN0
  6
CONTINUOUS
 62
3
100
AcDbBlockEnd
  0
BLOCK
  5
1ED
100
AcDbEntity
  8
MAIN0
  6
CONTINUOUS
 62
3
100
AcDbBlockBegin
  2
*D4
 70
    65
 10
0.0
 20
0.0
 30
0.0
  0
LINE
  5
1EE
100
AcDbEntity
  8
MAIN0
  6
BYBLOCK
 62
0
100
AcDbLine
 10
217.2233165664137
 20
208.0272898775303
 30
0.0000000000000000
 11
209.2576374498167
 21
208.0272898775303
 31
0.0000000000000000
  0
LINE
  5
1EF
100
AcDbEntity
  8
MAIN0
  6
BYBLOCK
 62
0
100
AcDbLine
 10
211.2576374498167
 20
206.0272898775303
 30
0.0000000000000000
 11
211.2576374498167
 21
194.0272898775303
 31
0.0000000000000000
  0
INSERT
  5
1F0
100
AcDbEntity
  8
MAIN0
  6
BYBLOCK
 62
0
100
AcDbBlockReference
  2
_OPEN
 10
211.2576374498167
 20
208.0272898775303
 30
0.0000000000000000
 41
2.000000000000000
 42
2.000000000000000
 43
2.000000000000000
 50
90.00000000000000
  0
INSERT
  5
1F1
100
AcDbEntity
  8
MAIN0
  6
BYBLOCK
 62
0
100
AcDbBlockReference
  2
_OPEN
 10
211.2576374498167
 20
192.0272898775303
 30
0.0000000000000000
 41
2.000000000000000
 42
2.000000000000000
 43
2.000000000000000
 50
270.0000000000000
  0
LINE
  5
1F2
100
AcDbEntity
  8
MAIN0
  6
BYBLOCK
 62
0
100
AcDbLine
 10
217.2233165664137
 20
192.0272898775303
 30
0.0000000000000000
 11
209.2576374498167
 21
192.0272898775303
 31
0.0000000000000000
  0
MTEXT
  5
1F3
100
AcDbEntity
  8
MAIN0
  6
BYBLOCK
 62
0
100
AcDbMText
 10
209.2076374975004
 20
200.0272898775303
 30
0.0000000000000000
 40
3.099999904632568
 41
0.0000000000000000
 71
     5
 72
     1
  1
\A1;16
 11
6.123233995736766e-017
 21
1.000000000000000
 31
0.0000000000000000
  7
STANDARD
  0
ENDBLK
  5
1F4
100
AcDbEntity
  8
MAIN0
  6
CONTINUOUS
 62
3
100
AcDbBlockEnd
  0
BLOCK
  5
1FA
100
AcDbEntity
  8
MAIN0
  6
CONTINUOUS
 62
3
100
AcDbBlockBegin
  2
*D5
 70
    65
 10
0.0
 20
0.0
 30
0.0
  0
LINE
  5
1FB
100
AcDbEntity
  8
MAIN0
  6
BYBLOCK
 62
0
100
AcDbLine
 10
444.2022267764082
 20
378.7770194661711
 30
0.0000000000000000
 11
444.2022267764082
 21
401.5358111061467
 31
0.0000000000000000
  0
LINE
  5
1FC
100
AcDbEntity
  8
MAIN0
  6
BYBLOCK
 62
0
100
AcDbLine
 10
446.2022267764082
 20
399.5358111061467
 30
0.0000000000000000
 11
542.2022267764082
 21
399.5358111061467
 31
0.0000000000000000
  0
INSERT
  5
1FD
100
AcDbEntity
  8
MAIN0
  6
BYBLOCK
 62
0
100
AcDbBlockReference
  2
_OPEN
 10
444.2022267764082
 20
399.5358111061467
 30
0.0000000000000000
 41
2.000000000000000
 42
2.000000000000000
 43
2.000000000000000
 50
180.0000000000000
  0
INSERT
  5
1FE
100
AcDbEntity
  8
MAIN0
  6
BYBLOCK
 62
0
100
AcDbBlockReference
  2
_OPEN
 10
544.2022267764082
 20
399.5358111061467
 30
0.0000000000000000
 41
2.000000000000000
 42
2.000000000000000
 43
2.000000000000000
 50
0.0000000000000000
  0
LINE
  5
1FF
100
AcDbEntity
  8
MAIN0
  6
BYBLOCK
 62
0
100
AcDbLine
 10
544.2022267764082
 20
378.7770194661842
 30
0.0000000000000000
 11
544.2022267764082
 21
401.5358111061467
 31
0.0000000000000000
  0
MTEXT
  5
200
100
AcDbEntity
  8
MAIN0
  6
BYBLOCK
 62
0
100
AcDbMText
 10
494.2022267764082
 20
401.5858110584630
 30
0.0000000000000000
 40
3.099999904632568
 41
0.0000000000000000
 71
     5
 72
     1
  1
\A1;170
 11
1.000000000000000
 21
0.0000000000000000
 31
0.0000000000000000
  7
STANDARD
  0
ENDBLK
  5
201
100
AcDbEntity
  8
MAIN0
  6
CONTINUOUS
 62
3
100
AcDbBlockEnd
  0
BLOCK
  5
203
100
AcDbEntity
  8
MAIN0
  6
CONTINUOUS
 62
3
100
AcDbBlockBegin
  2
*D6
 70
    65
 10
0.0
 20
0.0
 30
0.0
  0
LINE
  5
204
100
AcDbEntity
  8
MAIN0
  6
BYBLOCK
 62
0
100
AcDbLine
 10
474.7545252695473
 20
379.9770194542488
 30
0.0000000000000000
 11
474.7545252695473
 21
390.9770194542567
 31
0.0000000000000000
  0
INSERT
  5
205
100
AcDbEntity
  8
MAIN0
  6
BYBLOCK
 62
0
100
AcDbBlockReference
  2
_OPEN
 10
474.7545252695473
 20
377.9770194542488
 30
0.0000000000000000
 41
2.000000000000000
 42
2.000000000000000
 43
2.000000000000000
 50
270.0000000000000
  0
INSERT
  5
206
100
AcDbEntity
  8
MAIN0
  6
BYBLOCK
 62
0
100
AcDbBlockReference
  2
_OPEN
 10
474.7545252695473
 20
392.9770194542567
 30
0.0000000000000000
 41
2.000000000000000
 42
2.000000000000000
 43
2.000000000000000
 50
90.00000000000000
  0
LINE
  5
207
100
AcDbEntity
  8
MAIN0
  6
BYBLOCK
 62
0
100
AcDbLine
 10
493.4022267645370
 20
392.9770194542567
 30
0.0000000000000000
 11
472.7545252695473
 21
392.9770194542567
 31
0.0000000000000000
  0
MTEXT
  5
208
100
AcDbEntity
  8
MAIN0
  6
BYBLOCK
 62
0
100
AcDbMText
 10
472.8711919838977
 20
388.3146159969941
 30
0.0000000000000000
 40
3.099999904632568
 41
0.0000000000000000
 71
     5
 72
     1
  1
\A1;15
 11
6.123233995736766e-017
 21
1.000000000000000
 31
0.0000000000000000
  7
STANDARD
  0
ENDBLK
  5
209
100
AcDbEntity
  8
MAIN0
  6
CONTINUOUS
 62
3
100
AcDbBlockEnd
  0
BLOCK
  5
20B
100
AcDbEntity
  8
MAIN0
  6
CONTINUOUS
 62
3
100
AcDbBlockBegin
  2
*D7
 70
    65
 10
0.0
 20
0.0
 30
0.0
  0
LINE
  5
20C
100
AcDbEntity
  8
MAIN0
  6
BYBLOCK
 62
0
100
AcDbLine
 10
499.7022267881296
 20
317.9770194542574
 30
0.0000000000000000
 11
519.8582030982817
 21
317.9770194542574
 31
0.0000000000000000
  0
LINE
  5
20D
100
AcDbEntity
  8
MAIN0
  6
BYBLOCK
 62
0
100
AcDbLine
 10
517.8582030982817
 20
319.9770194542574
 30
0.0000000000000000
 11
517.8582030982817
 21
390.9770194542567
 31
0.0000000000000000
  0
INSERT
  5
20E
100
AcDbEntity
  8
MAIN0
  6
BYBLOCK
 62
0
100
AcDbBlockReference
  2
_OPEN
 10
517.8582030982817
 20
317.9770194542574
 30
0.0000000000000000
 41
2.000000000000000
 42
2.000000000000000
 43
2.000000000000000
 50
270.0000000000000
  0
INSERT
  5
20F
100
AcDbEntity
  8
MAIN0
  6
BYBLOCK
 62
0
100
AcDbBlockReference
  2
_OPEN
 10
517.8582030982817
 20
392.9770194542567
 30
0.0000000000000000
 41
2.000000000000000
 42
2.000000000000000
 43
2.000000000000000
 50
90.00000000000000
  0
LINE
  5
210
100
AcDbEntity
  8
MAIN0
  6
BYBLOCK
 62
0
100
AcDbLine
 10
495.0022267883788
 20
392.9770194542567
 30
0.0000000000000000
 11
519.8582030982817
 21
392.9770194542567
 31
0.0000000000000000
  0
MTEXT
  5
211
100
AcDbEntity
  8
MAIN0
  6
BYBLOCK
 62
0
100
AcDbMText
 10
515.8082031459654
 20
355.4770194542571
 30
0.0000000000000000
 40
3.099999904632568
 41
0.0000000000000000
 71
     5
 72
     1
  1
\A1;75
 11
6.123233995736766e-017
 21
1.000000000000000
 31
0.0000000000000000
  7
STANDARD
  0
ENDBLK
  5
212
100
AcDbEntity
  8
MAIN0
  6
CONTINUOUS
 62
3
100
AcDbBlockEnd
  0
BLOCK
  5
214
100
AcDbEntity
  8
MAIN0
  6
CONTINUOUS
 62
3
100
AcDbBlockBegin
  2
*D8
 70
    65
 10
0.0
 20
0.0
 30
0.0
  0
LINE
  5
215
100
AcDbEntity
  8
MAIN0
  6
BYBLOCK
 62
0
100
AcDbLine
 10
499.7022267881296
 20
317.9770194542573
 30
0.0000000000000000
 11
512.0211695304167
 21
317.9770194542558
 31
0.0000000000000000
  0
LINE
  5
216
100
AcDbEntity
  8
MAIN0
  6
BYBLOCK
 62
0
100
AcDbLine
 10
510.0211695304167
 20
319.9770194542560
 30
0.0000000000000000
 11
510.0211695304167
 21
326.9770194542567
 31
0.0000000000000000
  0
INSERT
  5
217
100
AcDbEntity
  8
MAIN0
  6
BYBLOCK
 62
0
100
AcDbBlockReference
  2
_OPEN
 10
510.0211695304167
 20
317.9770194542560
 30
0.0000000000000000
 41
2.000000000000000
 42
2.000000000000000
 43
2.000000000000000
 50
270.0000000000000
  0
INSERT
  5
218
100
AcDbEntity
  8
MAIN0
  6
BYBLOCK
 62
0
100
AcDbBlockReference
  2
_OPEN
 10
510.0211695304167
 20
328.9770194542567
 30
0.0000000000000000
 41
2.000000000000000
 42
2.000000000000000
 43
2.000000000000000
 50
90.00000000000000
  0
LINE
  5
219
100
AcDbEntity
  8
MAIN0
  6
BYBLOCK
 62
0
100
AcDbLine
 10
500.4022267881661
 20
328.9770194542575
 30
0.0000000000000000
 11
512.0211695304167
 21
328.9770194542566
 31
0.0000000000000000
  0
MTEXT
  5
21A
100
AcDbEntity
  8
MAIN0
  6
BYBLOCK
 62
0
100
AcDbMText
 10
507.9711695781004
 20
323.4770194542564
 30
0.0000000000000000
 40
3.099999904632568
 41
0.0000000000000000
 71
     5
 72
     1
  1
\A1;11
 11
6.123233995736766e-017
 21
1.000000000000000
 31
0.0000000000000000
  7
STANDARD
  0
ENDBLK
  5
21B
100
AcDbEntity
  8
MAIN0
  6
CONTINUOUS
 62
3
100
AcDbBlockEnd
  0
BLOCK
  5
21D
100
AcDbEntity
  8
MAIN0
  6
CONTINUOUS
 62
3
100
AcDbBlockBegin
  2
*D9
 70
    65
 10
0.0
 20
0.0
 30
0.0
  0
LINE
  5
21E
100
AcDbEntity
  8
MAIN0
  6
BYBLOCK
 62
0
100
AcDbLine
 10
486.2022267763051
 20
355.7196867986437
 30
0.0000000000000000
 11
502.2022267763051
 21
355.7196867986437
 31
0.0000000000000000
  0
INSERT
  5
21F
100
AcDbEntity
  8
MAIN0
  6
BYBLOCK
 62
0
100
AcDbBlockReference
  2
_OPEN
 10
484.2022267763051
 20
355.7196867986437
 30
0.0000000000000000
 41
2.000000000000000
 42
2.000000000000000
 43
2.000000000000000
 50
180.0000000000000
  0
INSERT
  5
220
100
AcDbEntity
  8
MAIN0
  6
BYBLOCK
 62
0
100
AcDbBlockReference
  2
_OPEN
 10
504.2022267763051
 20
355.7196867986437
 30
0.0000000000000000
 41
2.000000000000000
 42
2.000000000000000
 43
2.000000000000000
 50
0.0000000000000000
  0
MTEXT
  5
221
100
AcDbEntity
  8
MAIN0
  6
BYBLOCK
 62
0
100
AcDbMText
 10
494.2022267763051
 20
357.7696867509600
 30
0.0000000000000000
 40
3.099999904632568
 41
0.0000000000000000
 71
     5
 72
     1
  1
\A1;\U+220520
 11
1.000000000000000
 21
0.0000000000000000
 31
0.0000000000000000
  7
STANDARD
  0
ENDBLK
  5
222
100
AcDbEntity
  8
MAIN0
  6
CONTINUOUS
 62
3
100
AcDbBlockEnd
  0
BLOCK
  5
224
100
AcDbEntity
  8
MAIN0
  6
CONTINUOUS
 62
3
100
AcDbBlockBegin
  2
*D10
 70
    65
 10
0.0
 20
0.0
 30
0.0
  0
LINE
  5
225
100
AcDbEntity
  8
MAIN0
  6
BYBLOCK
 62
0
100
AcDbLine
 10
457.4774399675425
 20
380.9770194542501
 30
0.0000000000000000
 11
457.4774399675425
 21
374.9770194542522
 31
0.0000000000000000
  0
INSERT
  5
226
100
AcDbEntity
  8
MAIN0
  6
BYBLOCK
 62
0
100
AcDbBlockReference
  2
_OPEN
 10
457.4774399675425
 20
382.9770194542501
 30
0.0000000000000000
 41
2.000000000000000
 42
2.000000000000000
 43
2.000000000000000
 50
90.00000000000000
  0
INSERT
  5
227
100
AcDbEntity
  8
MAIN0
  6
BYBLOCK
 62
0
100
AcDbBlockReference
  2
_OPEN
 10
457.4774399675425
 20
372.9770194542522
 30
0.0000000000000000
 41
2.000000000000000
 42
2.000000000000000
 43
2.000000000000000
 50
270.0000000000000
  0
MTEXT
  5
228
100
AcDbEntity
  8
MAIN0
  6
BYBLOCK
 62
0
100
AcDbMText
 10
455.4274400152262
 20
377.9770194542512
 30
0.0000000000000000
 40
3.099999904632568
 41
0.0000000000000000
 71
     5
 72
     1
  1
\A1;\U+220510
 11
6.123233995736766e-017
 21
1.000000000000000
 31
0.0000000000000000
  7
STANDARD
  0
ENDBLK
  5
229
100
AcDbEntity
  8
MAIN0
  6
CONTINUOUS
 62
3
100
AcDbBlockEnd
  0
BLOCK
  5
22B
100
AcDbEntity
  8
MAIN0
  6
CONTINUOUS
 62
3
100
AcDbBlockBegin
  2
*D11
 70
    65
 10
0.0
 20
0.0
 30
0.0
  0
LINE
  5
22C
100
AcDbEntity
  8
MAIN0
  6
BYBLOCK
 62
0
100
AcDbLine
 10
500.1614904019561
 20
302.6587045647188
 30
0.0000000000000000
 11
509.9873189600228
 21
292.8328760066727
 31
0.0000000000000000
  0
LINE
  5
22D
100
AcDbEntity
  8
MAIN0
  6
BYBLOCK
 62
0
100
AcDbLine
 10
507.1588918352755
 20
292.8328760066707
 30
0.0000000000000000
 11
504.3304647105234
 21
290.0044488819170
 31
0.0000000000000000
  0
INSERT
  5
22E
100
AcDbEntity
  8
MAIN0
  6
BYBLOCK
 62
0
100
AcDbBlockReference
  2
_OPEN
 10
508.5731053976482
 20
294.2470895690442
 30
0.0000000000000000
 41
2.000000000000000
 42
2.000000000000000
 43
2.000000000000000
 50
45.00000000001614
  0
INSERT
  5
22F
100
AcDbEntity
  8
MAIN0
  6
BYBLOCK
 62
0
100
AcDbBlockReference
  2
_OPEN
 10
502.9162511481508
 20
288.5902353195435
 30
0.0000000000000000
 41
2.000000000000000
 42
2.000000000000000
 43
2.000000000000000
 50
225.0000000000161
  0
LINE
  5
230
100
AcDbEntity
  8
MAIN0
  6
BYBLOCK
 62
0
100
AcDbLine
 10
494.5046361525501
 20
297.0018503151389
 30
0.0000000000000000
 11
504.3304647105241
 21
287.1760217571708
 31
0.0000000000000000
  0
MTEXT
  5
231
100
AcDbEntity
  8
MAIN0
  6
BYBLOCK
 62
0
100
AcDbMText
 10
504.2951094051841
 20
292.8682313120084
 30
0.0000000000000000
 40
3.099999904632568
 41
0.0000000000000000
 71
     5
 72
     1
  1
\A1;8
 11
0.7071067811863400
 21
0.7071067811867551
 31
0.0000000000000000
  7
STANDARD
  0
ENDBLK
  5
232
100
AcDbEntity
  8
MAIN0
  6
CONTINUOUS
 62
3
100
AcDbBlockEnd
  0
BLOCK
  5
234
100
AcDbEntity
  8
MAIN0
  6
CONTINUOUS
 62
3
100
AcDbBlockBegin
  2
*D12
 70
    65
 10
0.0
 20
0.0
 30
0.0
  0
LINE
  5
235
100
AcDbEntity
  8
MAIN0
  6
BYBLOCK
 62
0
100
AcDbLine
 10
397.5188151208999
 20
323.0475900492958
 30
0.0000000000000000
 11
337.8336215896958
 21
317.2633516264392
 31
0.0000000000000000
  0
INSERT
  5
236
100
AcDbEntity
  8
MAIN0
  6
BYBLOCK
 62
0
100
AcDbBlockReference
  2
_OPEN
 10
399.5094887416465
 20
323.2405111100019
 30
0.0000000000000000
 41
2.000000000000000
 42
2.000000000000000
 43
2.000000000000000
 50
5.535388144854096
  0
MTEXT
  5
237
100
AcDbEntity
  8
MAIN0
  6
BYBLOCK
 62
0
100
AcDbMText
 10
377.4369801950963
 20
322.9935669676661
 30
0.0000000000000000
 40
3.099999904632568
 41
0.0000000000000000
 71
     5
 72
     1
  1
\A1;\U+2205115\H0.903226x;\U+00B10.2
 11
0.9953368103732563
 21
0.09646053035305389
 31
0.0000000000000000
  7
STANDARD
  0
ENDBLK
  5
238
100
AcDbEntity
  8
MAIN0
  6
CONTINUOUS
 62
3
100
AcDbBlockEnd
  0
BLOCK
  5
23A
100
AcDbEntity
  8
MAIN0
  6
CONTINUOUS
 62
3
100
AcDbBlockBegin
  2
*D13
 70
    65
 10
0.0
 20
0.0
 30
0.0
  0
LINE
  5
23B
100
AcDbEntity
  8
MAIN0
  6
BYBLOCK
 62
0
100
AcDbLine
 10
370.7284013819295
 20
364.1784706002039
 30
0.0000000000000000
 11
340.3092481708835
 21
314.4779935025221
 31
0.0000000000000000
  0
INSERT
  5
23C
100
AcDbEntity
  8
MAIN0
  6
BYBLOCK
 62
0
100
AcDbBlockReference
  2
_OPEN
 10
371.7724666750211
 20
365.8843216088683
 30
0.0000000000000000
 41
2.000000000000000
 42
2.000000000000000
 43
2.000000000000000
 50
58.53130356640600
  0
MTEXT
  5
23D
100
AcDbEntity
  8
MAIN0
  6
BYBLOCK
 62
0
100
AcDbMText
 10
360.2994591288294
 20
350.7467866018496
 30
0.0000000000000000
 40
3.099999904632568
 41
0.0000000000000000
 71
     5
 72
     1
  1
\A1;\U+2205113\H0.903226x;\U+00B10.2
 11
0.5220326465457850
 21
0.8529255043322386
 31
0.0000000000000000
  7
STANDARD
  0
ENDBLK
  5
23E
100
AcDbEntity
  8
MAIN0
  6
CONTINUOUS
 62
3
100
AcDbBlockEnd
  0
BLOCK
  5
240
100
AcDbEntity
  8
MAIN0
  6
CONTINUOUS
 62
3
100
AcDbBlockBegin
  2
*D14
 70
    65
 10
0.0
 20
0.0
 30
0.0
  0
LINE
  5
241
100
AcDbEntity
  8
MAIN0
  6
BYBLOCK
 62
0
100
AcDbLine
 10
182.2776221451842
 20
382.4940306263812
 30
0.0000000000000000
 11
182.2776221451842
 21
395.8351948939043
 31
0.0000000000000000
  0
LINE
  5
242
100
AcDbEntity
  8
MAIN0
  6
BYBLOCK
 62
0
100
AcDbLine
 10
184.2776221451842
 20
393.8351948939043
 30
0.0000000000000000
 11
200.2776221451694
 21
393.8351948939043
 31
0.0000000000000000
  0
INSERT
  5
243
100
AcDbEntity
  8
MAIN0
  6
BYBLOCK
 62
0
100
AcDbBlockReference
  2
_OPEN
 10
182.2776221451842
 20
393.8351948939043
 30
0.0000000000000000
 41
2.000000000000000
 42
2.000000000000000
 43
2.000000000000000
 50
180.0000000000000
  0
INSERT
  5
244
100
AcDbEntity
  8
MAIN0
  6
BYBLOCK
 62
0
100
AcDbBlockReference
  2
_OPEN
 10
202.2776221451694
 20
393.8351948939043
 30
0.0000000000000000
 41
2.000000000000000
 42
2.000000000000000
 43
2.000000000000000
 50
0.0000000000000000
  0
LINE
  5
245
100
AcDbEntity
  8
MAIN0
  6
BYBLOCK
 62
0
100
AcDbLine
 10
202.2776221451694
 20
347.9940306263929
 30
0.0000000000000000
 11
202.2776221451694
 21
395.8351948939043
 31
0.0000000000000000
  0
MTEXT
  5
246
100
AcDbEntity
  8
MAIN0
  6
BYBLOCK
 62
0
100
AcDbMText
 10
192.2776221451767
 20
395.8851948462205
 30
0.0000000000000000
 40
3.099999904632568
 41
0.0000000000000000
 71
     5
 72
     1
  1
\A1;20
 11
1.000000000000000
 21
0.0000000000000000
 31
0.0000000000000000
  7
STANDARD
  0
ENDBLK
  5
247
100
AcDbEntity
  8
MAIN0
  6
CONTINUOUS
 62
3
100
AcDbBlockEnd
  0
BLOCK
  5
249
100
AcDbEntity
  8
MAIN0
  6
CONTINUOUS
 62
3
100
AcDbBlockBegin
  2
*D15
 70
    65
 10
0.0
 20
0.0
 30
0.0
  0
LINE
  5
24A
100
AcDbEntity
  8
MAIN0
  6
BYBLOCK
 62
0
100
AcDbLine
 10
194.2776221451735
 20
358.4940306263882
 30
0.0000000000000000
 11
194.2776221451697
 21
374.2601101663059
 31
0.0000000000000000
  0
LINE
  5
24B
100
AcDbEntity
  8
MAIN0
  6
BYBLOCK
 62
0
100
AcDbLine
 10
192.2776221451701
 20
372.2601101663059
 30
0.0000000000000000
 11
188.2776221451808
 21
372.2601101663059
 31
0.0000000000000000
  0
INSERT
  5
24C
100
AcDbEntity
  8
MAIN0
  6
BYBLOCK
 62
0
100
AcDbBlockReference
  2
_OPEN
 10
194.2776221451701
 20
372.2601101663059
 30
0.0000000000000000
 41
2.000000000000000
 42
2.000000000000000
 43
2.000000000000000
 50
360.0000000000000
  0
INSERT
  5
24D
100
AcDbEntity
  8
MAIN0
  6
BYBLOCK
 62
0
100
AcDbBlockReference
  2
_OPEN
 10
186.2776221451808
 20
372.2601101663059
 30
0.0000000000000000
 41
2.000000000000000
 42
2.000000000000000
 43
2.000000000000000
 50
180.0000000000000
  0
MTEXT
  5
24E
100
AcDbEntity
  8
MAIN0
  6
BYBLOCK
 62
0
100
AcDbMText
 10
190.2776221451755
 20
374.3101101186222
 30
0.0000000000000000
 40
3.099999904632568
 41
0.0000000000000000
 71
     5
 72
     1
  1
\A1;8
 11
1.000000000000000
 21
0.0000000000000000
 31
0.0000000000000000
  7
STANDARD
  0
ENDBLK
  5
24F
100
AcDbEntity
  8
MAIN0
  6
CONTINUOUS
 62
3
100
AcDbBlockEnd
  0
BLOCK
  5
251
100
AcDbEntity
  8
MAIN0
  6
CONTINUOUS
 62
3
100
AcDbBlockBegin
  2
*D16
 70
    65
 10
0.0
 20
0.0
 30
0.0
  0
LINE
  5
252
100
AcDbEntity
  8
MAIN0
  6
BYBLOCK
 62
0
100
AcDbLine
 10
196.2776221451737
 20
355.0000458495922
 30
0.0000000000000000
 11
200.2776221451694
 21
355.0000458495922
 31
0.0000000000000000
  0
INSERT
  5
253
100
AcDbEntity
  8
MAIN0
  6
BYBLOCK
 62
0
100
AcDbBlockReference
  2
_OPEN
 10
194.2776221451737
 20
355.0000458495922
 30
0.0000000000000000
 41
2.000000000000000
 42
2.000000000000000
 43
2.000000000000000
 50
180.0000000000000
  0
INSERT
  5
254
100
AcDbEntity
  8
MAIN0
  6
BYBLOCK
 62
0
100
AcDbBlockReference
  2
_OPEN
 10
202.2776221451694
 20
355.0000458495922
 30
0.0000000000000000
 41
2.000000000000000
 42
2.000000000000000
 43
2.000000000000000
 50
0.0000000000000000
  0
LINE
  5
255
100
AcDbEntity
  8
MAIN0
  6
BYBLOCK
 62
0
100
AcDbLine
 10
202.2776221451694
 20
347.9940306263929
 30
0.0000000000000000
 11
202.2776221451694
 21
357.0000458495922
 31
0.0000000000000000
  0
MTEXT
  5
256
100
AcDbEntity
  8
MAIN0
  6
BYBLOCK
 62
0
100
AcDbMText
 10
198.2776221451715
 20
357.0500458019085
 30
0.0000000000000000
 40
3.099999904632568
 41
0.0000000000000000
 71
     5
 72
     1
  1
\A1;8
 11
1.000000000000000
 21
0.0000000000000000
 31
0.0000000000000000
  7
STANDARD
  0
ENDBLK
  5
257
100
AcDbEntity
  8
MAIN0
  6
CONTINUOUS
 62
3
100
AcDbBlockEnd
  0
BLOCK
  5
259
100
AcDbEntity
  8
MAIN0
  6
CONTINUOUS
 62
3
100
AcDbBlockBegin
  2
*D17
 70
    65
 10
0.0
 20
0.0
 30
0.0
  0
LINE
  5
25A
100
AcDbEntity
  8
MAIN0
  6
BYBLOCK
 62
0
100
AcDbLine
 10
202.5776221570842
 20
332.6940306144717
 30
0.0000000000000000
 11
210.5324912609808
 21
332.6940306144717
 31
0.0000000000000000
  0
LINE
  5
25B
100
AcDbEntity
  8
MAIN0
  6
BYBLOCK
 62
0
100
AcDbLine
 10
208.5324912609808
 20
334.6940306144717
 30
0.0000000000000000
 11
208.5324912609808
 21
345.6940306144705
 31
0.0000000000000000
  0
INSERT
  5
25C
100
AcDbEntity
  8
MAIN0
  6
BYBLOCK
 62
0
100
AcDbBlockReference
  2
_OPEN
 10
208.5324912609808
 20
332.6940306144717
 30
0.0000000000000000
 41
2.000000000000000
 42
2.000000000000000
 43
2.000000000000000
 50
270.0000000000000
  0
INSERT
  5
25D
100
AcDbEntity
  8
MAIN0
  6
BYBLOCK
 62
0
100
AcDbBlockReference
  2
_OPEN
 10
208.5324912609808
 20
347.6940306144705
 30
0.0000000000000000
 41
2.000000000000000
 42
2.000000000000000
 43
2.000000000000000
 50
90.00000000000000
  0
LINE
  5
25E
100
AcDbEntity
  8
MAIN0
  6
BYBLOCK
 62
0
100
AcDbLine
 10
202.5776221570754
 20
347.6940306144716
 30
0.0000000000000000
 11
210.5324912609808
 21
347.6940306144702
 31
0.0000000000000000
  0
MTEXT
  5
25F
100
AcDbEntity
  8
MAIN0
  6
BYBLOCK
 62
0
100
AcDbMText
 10
206.4824913086645
 20
340.1940306144712
 30
0.0000000000000000
 40
3.099999904632568
 41
0.0000000000000000
 71
     5
 72
     1
  1
\A1;15
 11
6.123233995736766e-017
 21
1.000000000000000
 31
0.0000000000000000
  7
STANDARD
  0
ENDBLK
  5
260
100
AcDbEntity
  8
MAIN0
  6
CONTINUOUS
 62
3
100
AcDbBlockEnd
  0
BLOCK
  5
262
100
AcDbEntity
  8
MAIN0
  6
CONTINUOUS
 62
3
100
AcDbBlockBegin
  2
*D18
 70
    65
 10
0.0
 20
0.0
 30
0.0
  0
LINE
  5
263
100
AcDbEntity
  8
MAIN0
  6
BYBLOCK
 62
0
100
AcDbLine
 10
202.5776221570754
 20
347.6940306144716
 30
0.0000000000000000
 11
210.5324912609808
 21
347.6940306144702
 31
0.0000000000000000
  0
LINE
  5
264
100
AcDbEntity
  8
MAIN0
  6
BYBLOCK
 62
0
100
AcDbLine
 10
208.5324912609808
 20
349.6940306144705
 30
0.0000000000000000
 11
208.5324912609808
 21
360.6940306144667
 31
0.0000000000000000
  0
INSERT
  5
265
100
AcDbEntity
  8
MAIN0
  6
BYBLOCK
 62
0
100
AcDbBlockReference
  2
_OPEN
 10
208.5324912609808
 20
347.6940306144705
 30
0.0000000000000000
 41
2.000000000000000
 42
2.000000000000000
 43
2.000000000000000
 50
270.0000000000000
  0
INSERT
  5
266
100
AcDbEntity
  8
MAIN0
  6
BYBLOCK
 62
0
100
AcDbBlockReference
  2
_OPEN
 10
208.5324912609808
 20
362.6940306144667
 30
0.0000000000000000
 41
2.000000000000000
 42
2.000000000000000
 43
2.000000000000000
 50
90.00000000000000
  0
LINE
  5
267
100
AcDbEntity
  8
MAIN0
  6
BYBLOCK
 62
0
100
AcDbLine
 10
194.0776221570967
 20
362.6940306144667
 30
0.0000000000000000
 11
210.5324912609808
 21
362.6940306144667
 31
0.0000000000000000
  0
MTEXT
  5
268
100
AcDbEntity
  8
MAIN0
  6
BYBLOCK
 62
0
100
AcDbMText
 10
206.4824913086645
 20
355.1940306144687
 30
0.0000000000000000
 40
3.099999904632568
 41
0.0000000000000000
 71
     5
 72
     1
  1
\A1;15
 11
6.123233995736766e-017
 21
1.000000000000000
 31
0.0000000000000000
  7
STANDARD
  0
ENDBLK
  5
269
100
AcDbEntity
  8
MAIN0
  6
CONTINUOUS
 62
3
100
AcDbBlockEnd
  0
BLOCK
  5
26B
100
AcDbEntity
  8
MAIN0
  6
CONTINUOUS
 62
3
100
AcDbBlockBegin
  2
*D19
 70
    65
 10
0.0
 20
0.0
 30
0.0
  0
LINE
  5
26C
100
AcDbEntity
  8
MAIN0
  6
BYBLOCK
 62
0
100
AcDbLine
 10
194.0776221570967
 20
362.6940306144667
 30
0.0000000000000000
 11
210.5324912609808
 21
362.6940306144667
 31
0.0000000000000000
  0
LINE
  5
26D
100
AcDbEntity
  8
MAIN0
  6
BYBLOCK
 62
0
100
AcDbLine
 10
208.5324912609808
 20
364.6940306144667
 30
0.0000000000000000
 11
208.5324912609808
 21
380.6940306144620
 31
0.0000000000000000
  0
INSERT
  5
26E
100
AcDbEntity
  8
MAIN0
  6
BYBLOCK
 62
0
100
AcDbBlockReference
  2
_OPEN
 10
208.5324912609808
 20
362.6940306144667
 30
0.0000000000000000
 41
2.000000000000000
 42
2.000000000000000
 43
2.000000000000000
 50
270.0000000000000
  0
INSERT
  5
26F
100
AcDbEntity
  8
MAIN0
  6
BYBLOCK
 62
0
100
AcDbBlockReference
  2
_OPEN
 10
208.5324912609808
 20
382.6940306144620
 30
0.0000000000000000
 41
2.000000000000000
 42
2.000000000000000
 43
2.000000000000000
 50
90.00000000000000
  0
LINE
  5
270
100
AcDbEntity
  8
MAIN0
  6
BYBLOCK
 62
0
100
AcDbLine
 10
186.0776221571051
 20
382.6940306144620
 30
0.0000000000000000
 11
210.5324912609808
 21
382.6940306144620
 31
0.0000000000000000
  0
MTEXT
  5
271
100
AcDbEntity
  8
MAIN0
  6
BYBLOCK
 62
0
100
AcDbMText
 10
206.4824913086645
 20
372.6940306144644
 30
0.0000000000000000
 40
3.099999904632568
 41
0.0000000000000000
 71
     5
 72
     1
  1
\A1;20
 11
6.123233995736766e-017
 21
1.000000000000000
 31
0.0000000000000000
  7
STANDARD
  0
ENDBLK
  5
272
100
AcDbEntity
  8
MAIN0
  6
CONTINUOUS
 62
3
100
AcDbBlockEnd
  0
BLOCK
  5
274
100
AcDbEntity
  8
MAIN0
  6
CONTINUOUS
 62
3
100
AcDbBlockBegin
  2
*D20
 70
    65
 10
0.0
 20
0.0
 30
0.0
  0
LINE
  5
275
100
AcDbEntity
  8
MAIN0
  6
BYBLOCK
 62
0
100
AcDbLine
 10
202.5776221570842
 20
332.6940306144716
 30
0.0000000000000000
 11
218.4812066869381
 21
332.6940306144692
 31
0.0000000000000000
  0
LINE
  5
276
100
AcDbEntity
  8
MAIN0
  6
BYBLOCK
 62
0
100
AcDbLine
 10
216.4812066869381
 20
334.6940306144695
 30
0.0000000000000000
 11
216.4812066869381
 21
380.6940306144597
 31
0.0000000000000000
  0
INSERT
  5
277
100
AcDbEntity
  8
MAIN0
  6
BYBLOCK
 62
0
100
AcDbBlockReference
  2
_OPEN
 10
216.4812066869381
 20
332.6940306144695
 30
0.0000000000000000
 41
2.000000000000000
 42
2.000000000000000
 43
2.000000000000000
 50
270.0000000000000
  0
INSERT
  5
278
100
AcDbEntity
  8
MAIN0
  6
BYBLOCK
 62
0
100
AcDbBlockReference
  2
_OPEN
 10
216.4812066869381
 20
382.6940306144597
 30
0.0000000000000000
 41
2.000000000000000
 42
2.000000000000000
 43
2.000000000000000
 50
90.00000000000000
  0
LINE
  5
279
100
AcDbEntity
  8
MAIN0
  6
BYBLOCK
 62
0
100
AcDbLine
 10
182.0776221571051
 20
382.6940306144597
 30
0.0000000000000000
 11
218.4812066869381
 21
382.6940306144597
 31
0.0000000000000000
  0
MTEXT
  5
27A
100
AcDbEntity
  8
MAIN0
  6
BYBLOCK
 62
0
100
AcDbMText
 10
214.4312067346218
 20
357.6940306144646
 30
0.0000000000000000
 40
3.099999904632568
 41
0.0000000000000000
 71
     5
 72
     1
  1
\A1;50
 11
6.123233995736766e-017
 21
1.000000000000000
 31
0.0000000000000000
  7
STANDARD
  0
ENDBLK
  5
27B
100
AcDbEntity
  8
MAIN0
  6
CONTINUOUS
 62
3
100
AcDbBlockEnd
  0
BLOCK
  5
27D
100
AcDbEntity
  8
MAIN0
  6
CONTINUOUS
 62
3
100
AcDbBlockBegin
  2
*D21
 70
    65
 10
0.0
 20
0.0
 30
0.0
  0
LINE
  5
27E
100
AcDbEntity
  8
MAIN0
  6
BYBLOCK
 62
0
100
AcDbLine
 10
202.5776221570747
 20
309.6940306144530
 30
0.0000000000000000
 11
218.4812066869381
 21
309.6940306144530
 31
0.0000000000000000
  0
LINE
  5
27F
100
AcDbEntity
  8
MAIN0
  6
BYBLOCK
 62
0
100
AcDbLine
 10
216.4812066869381
 20
311.6940306144530
 30
0.0000000000000000
 11
216.4812066869381
 21
323.6940306144530
 31
0.0000000000000000
  0
INSERT
  5
280
100
AcDbEntity
  8
MAIN0
  6
BYBLOCK
 62
0
100
AcDbBlockReference
  2
_OPEN
 10
216.4812066869381
 20
309.6940306144530
 30
0.0000000000000000
 41
2.000000000000000
 42
2.000000000000000
 43
2.000000000000000
 50
270.0000000000000
  0
INSERT
  5
281
100
AcDbEntity
  8
MAIN0
  6
BYBLOCK
 62
0
100
AcDbBlockReference
  2
_OPEN
 10
216.4812066869381
 20
325.6940306144530
 30
0.0000000000000000
 41
2.000000000000000
 42
2.000000000000000
 43
2.000000000000000
 50
90.00000000000000
  0
LINE
  5
282
100
AcDbEntity
  8
MAIN0
  6
BYBLOCK
 62
0
100
AcDbLine
 10
202.5776221570813
 20
325.6940306144530
 30
0.0000000000000000
 11
218.4812066869381
 21
325.6940306144530
 31
0.0000000000000000
  0
MTEXT
  5
283
100
AcDbEntity
  8
MAIN0
  6
BYBLOCK
 62
0
100
AcDbMText
 10
214.4312067346218
 20
317.6940306144530
 30
0.0000000000000000
 40
3.099999904632568
 41
0.0000000000000000
 71
     5
 72
     1
  1
\A1;16
 11
6.123233995736766e-017
 21
1.000000000000000
 31
0.0000000000000000
  7
STANDARD
  0
ENDBLK
  5
284
100
AcDbEntity
  8
MAIN0
  6
CONTINUOUS
 62
3
100
AcDbBlockEnd
  0
BLOCK
  5
286
100
AcDbEntity
  8
MAIN0
  6
CONTINUOUS
 62
3
100
AcDbBlockBegin
  2
*D22
 70
    65
 10
0.0
 20
0.0
 30
0.0
  0
LINE
  5
287
100
AcDbEntity
  8
MAIN0
  6
BYBLOCK
 62
0
100
AcDbLine
 10
186.0776131798426
 20
302.6940143382575
 30
0.0000000000000000
 11
210.5324912609808
 21
302.6940143382575
 31
0.0000000000000000
  0
LINE
  5
288
100
AcDbEntity
  8
MAIN0
  6
BYBLOCK
 62
0
100
AcDbLine
 10
208.5324912609808
 20
300.6940143382575
 30
0.0000000000000000
 11
208.5324912609808
 21
283.6940143382836
 31
0.0000000000000000
  0
INSERT
  5
289
100
AcDbEntity
  8
MAIN0
  6
BYBLOCK
 62
0
100
AcDbBlockReference
  2
_OPEN
 10
208.5324912609808
 20
302.6940143382575
 30
0.0000000000000000
 41
2.000000000000000
 42
2.000000000000000
 43
2.000000000000000
 50
90.00000000000000
  0
INSERT
  5
28A
100
AcDbEntity
  8
MAIN0
  6
BYBLOCK
 62
0
100
AcDbBlockReference
  2
_OPEN
 10
208.5324912609808
 20
281.6940143382836
 30
0.0000000000000000
 41
2.000000000000000
 42
2.000000000000000
 43
2.000000000000000
 50
270.0000000000000
  0
LINE
  5
28B
100
AcDbEntity
  8
MAIN0
  6
BYBLOCK
 62
0
100
AcDbLine
 10
194.0776131798745
 20
281.6940143382836
 30
0.0000000000000000
 11
210.5324912609808
 21
281.6940143382836
 31
0.0000000000000000
  0
MTEXT
  5
28C
100
AcDbEntity
  8
MAIN0
  6
BYBLOCK
 62
0
100
AcDbMText
 10
206.6491579753312
 20
289.3831287446759
 30
0.0000000000000000
 40
3.099999904632568
 41
0.0000000000000000
 71
     5
 72
     1
  1
\A1;21
 11
6.123233995736766e-017
 21
1.000000000000000
 31
0.0000000000000000
  7
STANDARD
  0
ENDBLK
  5
28D
100
AcDbEntity
  8
MAIN0
  6
CONTINUOUS
 62
3
100
AcDbBlockEnd
  0
BLOCK
  5
28F
100
AcDbEntity
  8
MAIN0
  6
CONTINUOUS
 62
3
100
AcDbBlockBegin
  2
*D23
 70
    65
 10
0.0
 20
0.0
 30
0.0
  0
LINE
  5
290
100
AcDbEntity
  8
MAIN0
  6
BYBLOCK
 62
0
100
AcDbLine
 10
194.0776131798745
 20
281.6940143382836
 30
0.0000000000000000
 11
210.5324912609808
 21
281.6940143382836
 31
0.0000000000000000
  0
LINE
  5
291
100
AcDbEntity
  8
MAIN0
  6
BYBLOCK
 62
0
100
AcDbLine
 10
208.5324912609808
 20
279.6940143382836
 30
0.0000000000000000
 11
208.5324912609808
 21
268.6940143382967
 31
0.0000000000000000
  0
INSERT
  5
292
100
AcDbEntity
  8
MAIN0
  6
BYBLOCK
 62
0
100
AcDbBlockReference
  2
_OPEN
 10
208.5324912609808
 20
281.6940143382836
 30
0.0000000000000000
 41
2.000000000000000
 42
2.000000000000000
 43
2.000000000000000
 50
90.00000000000000
  0
INSERT
  5
293
100
AcDbEntity
  8
MAIN0
  6
BYBLOCK
 62
0
100
AcDbBlockReference
  2
_OPEN
 10
208.5324912609808
 20
266.6940143382967
 30
0.0000000000000000
 41
2.000000000000000
 42
2.000000000000000
 43
2.000000000000000
 50
270.0000000000000
  0
LINE
  5
294
100
AcDbEntity
  8
MAIN0
  6
BYBLOCK
 62
0
100
AcDbLine
 10
202.5776131798972
 20
266.6940143382967
 30
0.0000000000000000
 11
210.5324912609808
 21
266.6940143382967
 31
0.0000000000000000
  0
MTEXT
  5
295
100
AcDbEntity
  8
MAIN0
  6
BYBLOCK
 62
0
100
AcDbMText
 10
206.4824913086645
 20
274.1940143382902
 30
0.0000000000000000
 40
3.099999904632568
 41
0.0000000000000000
 71
     5
 72
     1
  1
\A1;15
 11
6.123233995736766e-017
 21
1.000000000000000
 31
0.0000000000000000
  7
STANDARD
  0
ENDBLK
  5
296
100
AcDbEntity
  8
MAIN0
  6
CONTINUOUS
 62
3
100
AcDbBlockEnd
  0
BLOCK
  5
298
100
AcDbEntity
  8
MAIN0
  6
CONTINUOUS
 62
3
100
AcDbBlockBegin
  2
*D24
 70
    65
 10
0.0
 20
0.0
 30
0.0
  0
LINE
  5
299
100
AcDbEntity
  8
MAIN0
  6
BYBLOCK
 62
0
100
AcDbLine
 10
202.5776131798972
 20
266.6940143382967
 30
0.0000000000000000
 11
210.5324912609808
 21
266.6940143382967
 31
0.0000000000000000
  0
LINE
  5
29A
100
AcDbEntity
  8
MAIN0
  6
BYBLOCK
 62
0
100
AcDbLine
 10
208.5324912609808
 20
264.6940143382967
 30
0.0000000000000000
 11
208.5324912609808
 21
254.6940143382967
 31
0.0000000000000000
  0
INSERT
  5
29B
100
AcDbEntity
  8
MAIN0
  6
BYBLOCK
 62
0
100
AcDbBlockReference
  2
_OPEN
 10
208.5324912609808
 20
266.6940143382967
 30
0.0000000000000000
 41
2.000000000000000
 42
2.000000000000000
 43
2.000000000000000
 50
90.00000000000000
  0
INSERT
  5
29C
100
AcDbEntity
  8
MAIN0
  6
BYBLOCK
 62
0
100
AcDbBlockReference
  2
_OPEN
 10
208.5324912609808
 20
252.6940143382967
 30
0.0000000000000000
 41
2.000000000000000
 42
2.000000000000000
 43
2.000000000000000
 50
270.0000000000000
  0
LINE
  5
29D
100
AcDbEntity
  8
MAIN0
  6
BYBLOCK
 62
0
100
AcDbLine
 10
202.5776131799184
 20
252.6940143382967
 30
0.0000000000000000
 11
210.5324912609808
 21
252.6940143382967
 31
0.0000000000000000
  0
MTEXT
  5
29E
100
AcDbEntity
  8
MAIN0
  6
BYBLOCK
 62
0
100
AcDbMText
 10
206.4824913086645
 20
259.6940143382967
 30
0.0000000000000000
 40
3.099999904632568
 41
0.0000000000000000
 71
     5
 72
     1
  1
\A1;14
 11
6.123233995736766e-017
 21
1.000000000000000
 31
0.0000000000000000
  7
STANDARD
  0
ENDBLK
  5
29F
100
AcDbEntity
  8
MAIN0
  6
CONTINUOUS
 62
3
100
AcDbBlockEnd
  0
BLOCK
  5
2A1
100
AcDbEntity
  8
MAIN0
  6
CONTINUOUS
 62
3
100
AcDbBlockBegin
  2
*D25
 70
    65
 10
0.0
 20
0.0
 30
0.0
  0
LINE
  5
2A2
100
AcDbEntity
  8
MAIN0
  6
BYBLOCK
 62
0
100
AcDbLine
 10
196.2776131679612
 20
274.4861798013469
 30
0.0000000000000000
 11
200.2776131679771
 21
274.4861798013469
 31
0.0000000000000000
  0
INSERT
  5
2A3
100
AcDbEntity
  8
MAIN0
  6
BYBLOCK
 62
0
100
AcDbBlockReference
  2
_OPEN
 10
194.2776131679612
 20
274.4861798013469
 30
0.0000000000000000
 41
2.000000000000000
 42
2.000000000000000
 43
2.000000000000000
 50
180.0000000000000
  0
INSERT
  5
2A4
100
AcDbEntity
  8
MAIN0
  6
BYBLOCK
 62
0
100
AcDbBlockReference
  2
_OPEN
 10
202.2776131679771
 20
274.4861798013469
 30
0.0000000000000000
 41
2.000000000000000
 42
2.000000000000000
 43
2.000000000000000
 50
0.0000000000000000
  0
LINE
  5
2A5
100
AcDbEntity
  8
MAIN0
  6
BYBLOCK
 62
0
100
AcDbLine
 10
202.2776131679771
 20
266.9940143502183
 30
0.0000000000000000
 11
202.2776131679771
 21
276.4861798013469
 31
0.0000000000000000
  0
MTEXT
  5
2A6
100
AcDbEntity
  8
MAIN0
  6
BYBLOCK
 62
0
100
AcDbMText
 10
198.2776131679692
 20
276.5361797536632
 30
0.0000000000000000
 40
3.099999904632568
 41
0.0000000000000000
 71
     5
 72
     1
  1
\A1;8
 11
1.000000000000000
 21
0.0000000000000000
 31
0.0000000000000000
  7
STANDARD
  0
ENDBLK
  5
2A7
100
AcDbEntity
  8
MAIN0
  6
CONTINUOUS
 62
3
100
AcDbBlockEnd
  0
BLOCK
  5
2A9
100
AcDbEntity
  8
MAIN0
  6
CONTINUOUS
 62
3
100
AcDbBlockBegin
  2
*D26
 70
    65
 10
0.0
 20
0.0
 30
0.0
  0
LINE
  5
2AA
100
AcDbEntity
  8
MAIN0
  6
BYBLOCK
 62
0
100
AcDbLine
 10
194.2776131679612
 20
283.4440143382852
 30
0.0000000000000000
 11
194.2776131679612
 21
292.2399571425233
 31
0.0000000000000000
  0
LINE
  5
2AB
100
AcDbEntity
  8
MAIN0
  6
BYBLOCK
 62
0
100
AcDbLine
 10
192.2776131679612
 20
290.2399571425233
 30
0.0000000000000000
 11
188.2776131679369
 21
290.2399571425233
 31
0.0000000000000000
  0
INSERT
  5
2AC
100
AcDbEntity
  8
MAIN0
  6
BYBLOCK
 62
0
100
AcDbBlockReference
  2
_OPEN
 10
194.2776131679612
 20
290.2399571425233
 30
0.0000000000000000
 41
2.000000000000000
 42
2.000000000000000
 43
2.000000000000000
 50
360.0000000000000
  0
INSERT
  5
2AD
100
AcDbEntity
  8
MAIN0
  6
BYBLOCK
 62
0
100
AcDbBlockReference
  2
_OPEN
 10
186.2776131679369
 20
290.2399571425233
 30
0.0000000000000000
 41
2.000000000000000
 42
2.000000000000000
 43
2.000000000000000
 50
180.0000000000000
  0
MTEXT
  5
2AE
100
AcDbEntity
  8
MAIN0
  6
BYBLOCK
 62
0
100
AcDbMText
 10
190.2776131679490
 20
292.2899570948396
 30
0.0000000000000000
 40
3.099999904632568
 41
0.0000000000000000
 71
     5
 72
     1
  1
\A1;8
 11
1.000000000000000
 21
0.0000000000000000
 31
0.0000000000000000
  7
STANDARD
  0
ENDBLK
  5
2AF
100
AcDbEntity
  8
MAIN0
  6
CONTINUOUS
 62
3
100
AcDbBlockEnd
  0
BLOCK
  5
2B1
100
AcDbEntity
  8
MAIN0
  6
CONTINUOUS
 62
3
100
AcDbBlockBegin
  2
*D27
 70
    65
 10
0.0
 20
0.0
 30
0.0
  0
LINE
  5
2B2
100
AcDbEntity
  8
MAIN0
  6
BYBLOCK
 62
0
100
AcDbLine
 10
122.2776221451842
 20
252.8940306025320
 30
0.0000000000000000
 11
122.2776221451842
 21
243.0245386330032
 31
0.0000000000000000
  0
LINE
  5
2B3
100
AcDbEntity
  8
MAIN0
  6
BYBLOCK
 62
0
100
AcDbLine
 10
124.2776221451842
 20
245.0245386330032
 30
0.0000000000000000
 11
142.7776367154053
 21
245.0245386330032
 31
0.0000000000000000
  0
INSERT
  5
2B4
100
AcDbEntity
  8
MAIN0
  6
BYBLOCK
 62
0
100
AcDbBlockReference
  2
_OPEN
 10
122.2776221451842
 20
245.0245386330032
 30
0.0000000000000000
 41
2.000000000000000
 42
2.000000000000000
 43
2.000000000000000
 50
180.0000000000000
  0
INSERT
  5
2B5
100
AcDbEntity
  8
MAIN0
  6
BYBLOCK
 62
0
100
AcDbBlockReference
  2
_OPEN
 10
144.7776367154053
 20
245.0245386330032
 30
0.0000000000000000
 41
2.000000000000000
 42
2.000000000000000
 43
2.000000000000000
 50
0.0000000000000000
  0
LINE
  5
2B6
100
AcDbEntity
  8
MAIN0
  6
BYBLOCK
 62
0
100
AcDbLine
 10
144.7776367154053
 20
248.3717140570562
 30
0.0000000000000000
 11
144.7776367154053
 21
243.0245386330032
 31
0.0000000000000000
  0
MTEXT
  5
2B7
100
AcDbEntity
  8
MAIN0
  6
BYBLOCK
 62
0
100
AcDbMText
 10
133.5276294302947
 20
247.0745385853195
 30
0.0000000000000000
 40
3.099999904632568
 41
0.0000000000000000
 71
     5
 72
     1
  1
\A1;22.5
 11
1.000000000000000
 21
0.0000000000000000
 31
0.0000000000000000
  7
STANDARD
  0
ENDBLK
  5
2B8
100
AcDbEntity
  8
MAIN0
  6
CONTINUOUS
 62
3
100
AcDbBlockEnd
  0
BLOCK
  5
2BA
100
AcDbEntity
  8
MAIN0
  6
CONTINUOUS
 62
3
100
AcDbBlockBegin
  2
*D28
 70
    65
 10
0.0
 20
0.0
 30
0.0
  0
LINE
  5
2BB
100
AcDbEntity
  8
MAIN0
  6
BYBLOCK
 62
0
100
AcDbLine
 10
144.7776367154053
 20
248.3717140570562
 30
0.0000000000000000
 11
144.7776367154053
 21
243.0245386330032
 31
0.0000000000000000
  0
LINE
  5
2BC
100
AcDbEntity
  8
MAIN0
  6
BYBLOCK
 62
0
100
AcDbLine
 10
146.7776367154052
 20
245.0245386330032
 30
0.0000000000000000
 11
180.2776221451842
 21
245.0245386330032
 31
0.0000000000000000
  0
INSERT
  5
2BD
100
AcDbEntity
  8
MAIN0
  6
BYBLOCK
 62
0
100
AcDbBlockReference
  2
_OPEN
 10
144.7776367154052
 20
245.0245386330032
 30
0.0000000000000000
 41
2.000000000000000
 42
2.000000000000000
 43
2.000000000000000
 50
180.0000000000000
  0
INSERT
  5
2BE
100
AcDbEntity
  8
MAIN0
  6
BYBLOCK
 62
0
100
AcDbBlockReference
  2
_OPEN
 10
182.2776221451842
 20
245.0245386330032
 30
0.0000000000000000
 41
2.000000000000000
 42
2.000000000000000
 43
2.000000000000000
 50
0.0000000000000000
  0
LINE
  5
2BF
100
AcDbEntity
  8
MAIN0
  6
BYBLOCK
 62
0
100
AcDbLine
 10
182.2776221451842
 20
252.8940306025321
 30
0.0000000000000000
 11
182.2776221451841
 21
243.0245386330032
 31
0.0000000000000000
  0
MTEXT
  5
2C0
100
AcDbEntity
  8
MAIN0
  6
BYBLOCK
 62
0
100
AcDbMText
 10
163.5276294302947
 20
247.0745385853195
 30
0.0000000000000000
 40
3.099999904632568
 41
0.0000000000000000
 71
     5
 72
     1
  1
\A1;37.5
 11
1.000000000000000
 21
0.0000000000000000
 31
0.0000000000000000
  7
STANDARD
  0
ENDBLK
  5
2C1
100
AcDbEntity
  8
MAIN0
  6
CONTINUOUS
 62
3
100
AcDbBlockEnd
  0
BLOCK
  5
2C3
100
AcDbEntity
  8
MAIN0
  6
CONTINUOUS
 62
3
100
AcDbBlockBegin
  2
*D29
 70
    65
 10
0.0
 20
0.0
 30
0.0
  0
LINE
  5
2C4
100
AcDbEntity
  8
MAIN0
  6
BYBLOCK
 62
0
100
AcDbLine
 10
182.2776221451842
 20
252.8940306025321
 30
0.0000000000000000
 11
182.2776221451842
 21
236.8233900152728
 31
0.0000000000000000
  0
LINE
  5
2C5
100
AcDbEntity
  8
MAIN0
  6
BYBLOCK
 62
0
100
AcDbLine
 10
180.2776221451842
 20
238.8233900152728
 30
0.0000000000000000
 11
124.2776221451842
 21
238.8233900152728
 31
0.0000000000000000
  0
INSERT
  5
2C6
100
AcDbEntity
  8
MAIN0
  6
BYBLOCK
 62
0
100
AcDbBlockReference
  2
_OPEN
 10
182.2776221451842
 20
238.8233900152728
 30
0.0000000000000000
 41
2.000000000000000
 42
2.000000000000000
 43
2.000000000000000
 50
360.0000000000000
  0
INSERT
  5
2C7
100
AcDbEntity
  8
MAIN0
  6
BYBLOCK
 62
0
100
AcDbBlockReference
  2
_OPEN
 10
122.2776221451842
 20
238.8233900152728
 30
0.0000000000000000
 41
2.000000000000000
 42
2.000000000000000
 43
2.000000000000000
 50
180.0000000000000
  0
LINE
  5
2C8
100
AcDbEntity
  8
MAIN0
  6
BYBLOCK
 62
0
100
AcDbLine
 10
122.2776221451842
 20
252.8940306025320
 30
0.0000000000000000
 11
122.2776221451842
 21
236.8233900152728
 31
0.0000000000000000
  0
MTEXT
  5
2C9
100
AcDbEntity
  8
MAIN0
  6
BYBLOCK
 62
0
100
AcDbMText
 10
152.2776221451842
 20
240.8733899675891
 30
0.0000000000000000
 40
3.099999904632568
 41
0.0000000000000000
 71
     5
 72
     1
  1
\A1;60
 11
1.000000000000000
 21
0.0000000000000000
 31
0.0000000000000000
  7
STANDARD
  0
ENDBLK
  5
2CA
100
AcDbEntity
  8
MAIN0
  6
CONTINUOUS
 62
3
100
AcDbBlockEnd
  0
BLOCK
  5
2CF
100
AcDbEntity
  8
MAIN0
  6
CONTINUOUS
 62
3
100
AcDbBlockBegin
  2
*D30
 70
    65
 10
0.0
 20
0.0
 30
0.0
  0
LINE
  5
2D0
100
AcDbEntity
  8
MAIN0
  6
BYBLOCK
 62
0
100
AcDbLine
 10
122.2776221451842
 20
382.4940306263740
 30
0.0000000000000000
 11
122.2776221451842
 21
395.8351948939043
 31
0.0000000000000000
  0
LINE
  5
2D1
100
AcDbEntity
  8
MAIN0
  6
BYBLOCK
 62
0
100
AcDbLine
 10
124.2776221451842
 20
393.8351948939043
 30
0.0000000000000000
 11
136.2776221451842
 21
393.8351948939043
 31
0.0000000000000000
  0
INSERT
  5
2D2
100
AcDbEntity
  8
MAIN0
  6
BYBLOCK
 62
0
100
AcDbBlockReference
  2
_OPEN
 10
122.2776221451842
 20
393.8351948939043
 30
0.0000000000000000
 41
2.000000000000000
 42
2.000000000000000
 43
2.000000000000000
 50
180.0000000000000
  0
INSERT
  5
2D3
100
AcDbEntity
  8
MAIN0
  6
BYBLOCK
 62
0
100
AcDbBlockReference
  2
_OPEN
 10
138.2776221451842
 20
393.8351948939043
 30
0.0000000000000000
 41
2.000000000000000
 42
2.000000000000000
 43
2.000000000000000
 50
0.0000000000000000
  0
LINE
  5
2D4
100
AcDbEntity
  8
MAIN0
  6
BYBLOCK
 62
0
100
AcDbLine
 10
138.2776221451842
 20
379.9940306263740
 30
0.0000000000000000
 11
138.2776221451842
 21
395.8351948939043
 31
0.0000000000000000
  0
MTEXT
  5
2D5
100
AcDbEntity
  8
MAIN0
  6
BYBLOCK
 62
0
100
AcDbMText
 10
130.2776221451842
 20
395.8851948462205
 30
0.0000000000000000
 40
3.099999904632568
 41
0.0000000000000000
 71
     5
 72
     1
  1
\A1;16
 11
1.000000000000000
 21
0.0000000000000000
 31
0.0000000000000000
  7
STANDARD
  0
ENDBLK
  5
2D6
100
AcDbEntity
  8
MAIN0
  6
CONTINUOUS
 62
3
100
AcDbBlockEnd
  0
BLOCK
  5
2D8
100
AcDbEntity
  8
MAIN0
  6
CONTINUOUS
 62
3
100
AcDbBlockBegin
  2
*D31
 70
    65
 10
0.0
 20
0.0
 30
0.0
  0
LINE
  5
2D9
100
AcDbEntity
  8
MAIN0
  6
BYBLOCK
 62
0
100
AcDbLine
 10
122.4776221332632
 20
382.6940306144530
 30
0.0000000000000000
 11
99.69367683056463
 21
382.6940306144530
 31
0.0000000000000000
  0
LINE
  5
2DA
100
AcDbEntity
  8
MAIN0
  6
BYBLOCK
 62
0
100
AcDbLine
 10
101.6936768305646
 20
380.6940306144530
 30
0.0000000000000000
 11
101.6936768305646
 21
254.6940306144530
 31
0.0000000000000000
  0
INSERT
  5
2DB
100
AcDbEntity
  8
MAIN0
  6
BYBLOCK
 62
0
100
AcDbBlockReference
  2
_OPEN
 10
101.6936768305646
 20
382.6940306144530
 30
0.0000000000000000
 41
2.000000000000000
 42
2.000000000000000
 43
2.000000000000000
 50
90.00000000000000
  0
INSERT
  5
2DC
100
AcDbEntity
  8
MAIN0
  6
BYBLOCK
 62
0
100
AcDbBlockReference
  2
_OPEN
 10
101.6936768305646
 20
252.6940306144530
 30
0.0000000000000000
 41
2.000000000000000
 42
2.000000000000000
 43
2.000000000000000
 50
270.0000000000000
  0
LINE
  5
2DD
100
AcDbEntity
  8
MAIN0
  6
BYBLOCK
 62
0
100
AcDbLine
 10
122.4776221332632
 20
252.6940306144530
 30
0.0000000000000000
 11
99.69367683056463
 21
252.6940306144530
 31
0.0000000000000000
  0
MTEXT
  5
2DE
100
AcDbEntity
  8
MAIN0
  6
BYBLOCK
 62
0
100
AcDbMText
 10
99.64367687824834
 20
317.6940306144530
 30
0.0000000000000000
 40
3.099999904632568
 41
0.0000000000000000
 71
     5
 72
     1
  1
\A1;\U+2205130
 11
6.123233995736766e-017
 21
1.000000000000000
 31
0.0000000000000000
  7
STANDARD
  0
ENDBLK
  5
2DF
100
AcDbEntity
  8
MAIN0
  6
CONTINUOUS
 62
3
100
AcDbBlockEnd
  0
BLOCK
  5
2E1
100
AcDbEntity
  8
MAIN0
  6
CONTINUOUS
 62
3
100
AcDbBlockBegin
  2
*D32
 70
    65
 10
0.0
 20
0.0
 30
0.0
  0
LINE
  5
2E2
100
AcDbEntity
  8
MAIN0
  6
BYBLOCK
 62
0
100
AcDbLine
 10
126.9776221332633
 20
333.6940306144530
 30
0.0000000000000000
 11
114.2720679454440
 21
333.6940306144530
 31
0.0000000000000000
  0
LINE
  5
2E3
100
AcDbEntity
  8
MAIN0
  6
BYBLOCK
 62
0
100
AcDbLine
 10
116.2720679454440
 20
331.6940306144530
 30
0.0000000000000000
 11
116.2720679454440
 21
303.6940306144530
 31
0.0000000000000000
  0
INSERT
  5
2E4
100
AcDbEntity
  8
MAIN0
  6
BYBLOCK
 62
0
100
AcDbBlockReference
  2
_OPEN
 10
116.2720679454440
 20
333.6940306144530
 30
0.0000000000000000
 41
2.000000000000000
 42
2.000000000000000
 43
2.000000000000000
 50
90.00000000000000
  0
INSERT
  5
2E5
100
AcDbEntity
  8
MAIN0
  6
BYBLOCK
 62
0
100
AcDbBlockReference
  2
_OPEN
 10
116.2720679454440
 20
301.6940306144530
 30
0.0000000000000000
 41
2.000000000000000
 42
2.000000000000000
 43
2.000000000000000
 50
270.0000000000000
  0
LINE
  5
2E6
100
AcDbEntity
  8
MAIN0
  6
BYBLOCK
 62
0
100
AcDbLine
 10
126.9776221332633
 20
301.6940306144530
 30
0.0000000000000000
 11
114.2720679454440
 21
301.6940306144530
 31
0.0000000000000000
  0
MTEXT
  5
2E7
100
AcDbEntity
  8
MAIN0
  6
BYBLOCK
 62
0
100
AcDbMText
 10
114.2220679931277
 20
317.6940306144530
 30
0.0000000000000000
 40
3.099999904632568
 41
0.0000000000000000
 71
     5
 72
     1
  1
\A1;\U+220532
 11
6.123233995736766e-017
 21
1.000000000000000
 31
0.0000000000000000
  7
STANDARD
  0
ENDBLK
  5
2E8
100
AcDbEntity
  8
MAIN0
  6
CONTINUOUS
 62
3
100
AcDbBlockEnd
  0
BLOCK
  5
2EA
100
AcDbEntity
  8
MAIN0
  6
CONTINUOUS
 62
3
100
AcDbBlockBegin
  2
*D33
 70
    65
 10
0.0
 20
0.0
 30
0.0
  0
LINE
  5
2EB
100
AcDbEntity
  8
MAIN0
  6
BYBLOCK
 62
0
100
AcDbLine
 10
121.4776221332633
 20
267.6940306144530
 30
0.0000000000000000
 11
107.2824294655712
 21
267.6940306144530
 31
0.0000000000000000
  0
LINE
  5
2EC
100
AcDbEntity
  8
MAIN0
  6
BYBLOCK
 62
0
100
AcDbLine
 10
109.2824294655712
 20
269.6940306144530
 30
0.0000000000000000
 11
109.2824294655712
 21
365.6940306144530
 31
0.0000000000000000
  0
INSERT
  5
2ED
100
AcDbEntity
  8
MAIN0
  6
BYBLOCK
 62
0
100
AcDbBlockReference
  2
_OPEN
 10
109.2824294655712
 20
267.6940306144530
 30
0.0000000000000000
 41
2.000000000000000
 42
2.000000000000000
 43
2.000000000000000
 50
270.0000000000000
  0
INSERT
  5
2EE
100
AcDbEntity
  8
MAIN0
  6
BYBLOCK
 62
0
100
AcDbBlockReference
  2
_OPEN
 10
109.2824294655712
 20
367.6940306144530
 30
0.0000000000000000
 41
2.000000000000000
 42
2.000000000000000
 43
2.000000000000000
 50
90.00000000000000
  0
LINE
  5
2EF
100
AcDbEntity
  8
MAIN0
  6
BYBLOCK
 62
0
100
AcDbLine
 10
122.2776221451841
 20
367.6940306144530
 30
0.0000000000000000
 11
107.2824294655712
 21
367.6940306144530
 31
0.0000000000000000
  0
MTEXT
  5
2F0
100
AcDbEntity
  8
MAIN0
  6
BYBLOCK
 62
0
100
AcDbMText
 10
107.2324295132549
 20
317.6940305958266
 30
0.0000000000000000
 40
3.099999904632568
 41
0.0000000000000000
 71
     5
 72
     1
  1
\A1;\U+2205100H6\H0.903226x;\S＋0.022^ 　0;
 11
6.123233995736766e-017
 21
1.000000000000000
 31
0.0000000000000000
  7
KNJYOKO
  0
ENDBLK
  5
2F1
100
AcDbEntity
  8
MAIN0
  6
CONTINUOUS
 62
3
100
AcDbBlockEnd
  0
BLOCK
  5
2F4
100
AcDbEntity
  8
MAIN0
  6
CONTINUOUS
 62
3
100
AcDbBlockBegin
  2
*D34
 70
    65
 10
0.0
 20
0.0
 30
0.0
  0
LINE
  5
2F5
100
AcDbEntity
  8
MAIN0
  6
BYBLOCK
 62
0
100
AcDbLine
 10
150.5212172984097
 20
219.6698950239634
 30
0.0000000000000000
 11
158.9992075772775
 21
211.1919047451005
 31
0.0000000000000000
  0
LINE
  5
2F6
100
AcDbEntity
  8
MAIN0
  6
BYBLOCK
 62
0
100
AcDbLine
 10
156.1707804525312
 20
211.1919047450997
 30
0.0000000000000000
 11
153.3423533277858
 21
208.3634776203526
 31
0.0000000000000000
  0
INSERT
  5
2F7
100
AcDbEntity
  8
MAIN0
  6
BYBLOCK
 62
0
100
AcDbBlockReference
  2
_OPEN
 10
157.5849940149039
 20
212.6061183074732
 30
0.0000000000000000
 41
2.000000000000000
 42
2.000000000000000
 43
2.000000000000000
 50
45.00000000001694
  0
INSERT
  5
2F8
100
AcDbEntity
  8
MAIN0
  6
BYBLOCK
 62
0
100
AcDbBlockReference
  2
_OPEN
 10
151.9281397654132
 20
206.9492640579791
 30
0.0000000000000000
 41
2.000000000000000
 42
2.000000000000000
 43
2.000000000000000
 50
225.0000000000170
  0
LINE
  5
2F9
100
AcDbEntity
  8
MAIN0
  6
BYBLOCK
 62
0
100
AcDbLine
 10
144.8643630490126
 20
214.0130407743755
 30
0.0000000000000000
 11
153.3423533277867
 21
205.5350504956064
 31
0.0000000000000000
  0
MTEXT
  5
2FA
100
AcDbEntity
  8
MAIN0
  6
BYBLOCK
 62
0
100
AcDbMText
 10
153.3069980224432
 20
211.2272600504407
 30
0.0000000000000000
 40
3.099999904632568
 41
0.0000000000000000
 71
     5
 72
     1
  1
\A1;8
 11
0.7071067811863422
 21
0.7071067811867529
 31
0.0000000000000000
  7
STANDARD
  0
ENDBLK
  5
2FB
100
AcDbEntity
  8
MAIN0
  6
CONTINUOUS
 62
3
100
AcDbBlockEnd
  0
BLOCK
  5
2FD
100
AcDbEntity
  8
MAIN0
  6
CONTINUOUS
 62
3
100
AcDbBlockBegin
  2
*D35
 70
    65
 10
0.0
 20
0.0
 30
0.0
  0
LINE
  5
2FE
100
AcDbEntity
  8
MAIN0
  6
BYBLOCK
 62
0
100
AcDbLine
 10
108.6776221451842
 20
378.9940306263740
 30
0.0000000000000000
 11
108.6776221451842
 21
395.8351948939043
 31
0.0000000000000000
  0
LINE
  5
2FF
100
AcDbEntity
  8
MAIN0
  6
BYBLOCK
 62
0
100
AcDbLine
 10
110.6776221451842
 20
393.8351948939043
 30
0.0000000000000000
 11
120.2776221451842
 21
393.8351948939043
 31
0.0000000000000000
  0
INSERT
  5
300
100
AcDbEntity
  8
MAIN0
  6
BYBLOCK
 62
0
100
AcDbBlockReference
  2
_OPEN
 10
108.6776221451842
 20
393.8351948939043
 30
0.0000000000000000
 41
2.000000000000000
 42
2.000000000000000
 43
2.000000000000000
 50
180.0000000000000
  0
INSERT
  5
301
100
AcDbEntity
  8
MAIN0
  6
BYBLOCK
 62
0
100
AcDbBlockReference
  2
_OPEN
 10
122.2776221451842
 20
393.8351948939043
 30
0.0000000000000000
 41
2.000000000000000
 42
2.000000000000000
 43
2.000000000000000
 50
0.0000000000000000
  0
LINE
  5
302
100
AcDbEntity
  8
MAIN0
  6
BYBLOCK
 62
0
100
AcDbLine
 10
122.2776221451842
 20
382.4940306263740
 30
0.0000000000000000
 11
122.2776221451842
 21
395.8351948939043
 31
0.0000000000000000
  0
MTEXT
  5
303
100
AcDbEntity
  8
MAIN0
  6
BYBLOCK
 62
0
100
AcDbMText
 10
115.4776221451842
 20
395.8851948462205
 30
0.0000000000000000
 40
3.099999904632568
 41
0.0000000000000000
 71
     5
 72
     1
  1
\A1;13.6
 11
1.000000000000000
 21
0.0000000000000000
 31
0.0000000000000000
  7
STANDARD
  0
ENDBLK
  5
304
100
AcDbEntity
  8
MAIN0
  6
CONTINUOUS
 62
3
100
AcDbBlockEnd
  0
BLOCK
  5
30E
100
AcDbEntity
  8
MAIN0
  6
CONTINUOUS
 62
3
100
AcDbBlockBegin
  2
*D36
 70
    65
 10
0.0
 20
0.0
 30
0.0
  0
LINE
  5
30F
100
AcDbEntity
  8
MAIN0
  6
BYBLOCK
 62
0
100
AcDbLine
 10
122.2776221451842
 20
305.9440875738547
 30
0.0000000000000000
 11
126.7776221451842
 21
305.9440875738547
 31
0.0000000000000000
  0
INSERT
  5
310
100
AcDbEntity
  8
MAIN0
  6
BYBLOCK
 62
0
100
AcDbBlockReference
  2
_OPEN
 10
122.2776221451842
 20
305.9440875738547
 30
0.0000000000000000
 41
2.000000000000000
 42
2.000000000000000
 43
2.000000000000000
 50
0.0000000000000000
  0
INSERT
  5
311
100
AcDbEntity
  8
MAIN0
  6
BYBLOCK
 62
0
100
AcDbBlockReference
  2
_OPEN
 10
126.7776221451842
 20
305.9440875738547
 30
0.0000000000000000
 41
2.000000000000000
 42
2.000000000000000
 43
2.000000000000000
 50
180.0000000000000
  0
LINE
  5
312
100
AcDbEntity
  8
MAIN0
  6
BYBLOCK
 62
0
100
AcDbLine
 10
120.2776221451842
 20
305.9440875738547
 30
0.0000000000000000
 11
117.0735625443541
 21
305.9440875738547
 31
0.0000000000000000
  0
LINE
  5
313
100
AcDbEntity
  8
MAIN0
  6
BYBLOCK
 62
0
100
AcDbLine
 10
128.7776221451842
 20
305.9440875738547
 30
0.0000000000000000
 11
129.7776221451842
 21
305.9440875738547
 31
0.0000000000000000
  0
MTEXT
  5
314
100
AcDbEntity
  8
MAIN0
  6
BYBLOCK
 62
0
100
AcDbMText
 10
119.7235625200296
 20
307.8274208595043
 30
0.0000000000000000
 40
3.099999904632568
 41
0.0000000000000000
 71
     5
 72
     1
  1
\A1;4.5
 11
1.000000000000000
 21
0.0000000000000000
 31
0.0000000000000000
  7
STANDARD
  0
ENDBLK
  5
315
100
AcDbEntity
  8
MAIN0
  6
CONTINUOUS
 62
3
100
AcDbBlockEnd
  0
BLOCK
  5
319
100
AcDbEntity
  8
MAIN0
  6
CONTINUOUS
 62
3
100
AcDbBlockBegin
  2
*D37
 70
    65
 10
0.0
 20
0.0
 30
0.0
  0
LINE
  5
31A
100
AcDbEntity
  8
MAIN0
  6
BYBLOCK
 62
0
100
AcDbLine
 10
403.2655424949517
 20
282.4826383828297
 30
0.0000000000000000
 11
408.6332143242634
 21
279.3836116072538
 31
0.0000000000000000
  0
LINE
  5
31B
100
AcDbEntity
  8
MAIN0
  6
BYBLOCK
 62
0
100
AcDbLine
 10
415.3332936851462
 20
317.6940306144530
 30
0.0000000000000000
 11
418.8984601589438
 21
317.6940306144530
 31
0.0000000000000000
  0
ARC
  5
31C
100
AcDbEntity
  8
MAIN0
  6
BYBLOCK
 62
0
100
AcDbCircle
 10
342.2776221445673
 20
317.6940306144530
 30
0.0000000000000000
 40
74.62083801437650
100
AcDbArc
 50
331.5356509263991
 51
358.4643490735914
  0
INSERT
  5
31D
100
AcDbEntity
  8
MAIN0
  6
BYBLOCK
 62
0
100
AcDbBlockReference
  2
_OPEN
 10
406.9011635166947
 20
280.3836116072541
 30
0.0000000000000000
 41
2.000000000000000
 42
2.000000000000000
 43
2.000000000000000
 50
239.9999999999905
  0
INSERT
  5
31E
100
AcDbEntity
  8
MAIN0
  6
BYBLOCK
 62
0
100
AcDbBlockReference
  2
_OPEN
 10
416.8984601589438
 20
317.6940306144530
 30
0.0000000000000000
 41
2.000000000000000
 42
2.000000000000000
 43
2.000000000000000
 50
90.00000000000000
  0
MTEXT
  5
31F
100
AcDbEntity
  8
MAIN0
  6
BYBLOCK
 62
0
100
AcDbMText
 10
412.3756688641513
 20
298.9113156049351
 30
0.0000000000000000
 40
3.099999904632568
 41
0.0000000000000000
 71
     5
 72
     1
  1
\A1;30\U+00B0
 11
0.2588190451026012
 21
0.9659258262890468
 31
0.0000000000000000
  7
STANDARD
  0
ENDBLK
  5
320
100
AcDbEntity
  8
MAIN0
  6
CONTINUOUS
 62
3
100
AcDbBlockEnd
  0
BLOCK
  5
322
100
AcDbEntity
  8
MAIN0
  6
CONTINUOUS
 62
3
100
AcDbBlockBegin
  2
*D38
 70
    65
 10
0.0
 20
0.0
 30
0.0
  0
LINE
  5
323
100
AcDbEntity
  8
MAIN0
  6
BYBLOCK
 62
0
100
AcDbLine
 10
415.3332936851462
 20
317.6940306144530
 30
0.0000000000000000
 11
418.8984601589438
 21
317.6940306144530
 31
0.0000000000000000
  0
LINE
  5
324
100
AcDbEntity
  8
MAIN0
  6
BYBLOCK
 62
0
100
AcDbLine
 10
402.5043866821238
 20
352.4659693326655
 30
0.0000000000000000
 11
408.6332143242536
 21
356.0044496216693
 31
0.0000000000000000
  0
ARC
  5
325
100
AcDbEntity
  8
MAIN0
  6
BYBLOCK
 62
0
100
AcDbCircle
 10
342.2776221445673
 20
317.6940306144530
 30
0.0000000000000000
 40
74.62083801437650
100
AcDbArc
 50
1.535650926408617
 51
28.46434907361559
  0
INSERT
  5
326
100
AcDbEntity
  8
MAIN0
  6
BYBLOCK
 62
0
100
AcDbBlockReference
  2
_OPEN
 10
416.8984601589438
 20
317.6940306144530
 30
0.0000000000000000
 41
2.000000000000000
 42
2.000000000000000
 43
2.000000000000000
 50
270.0000000000000
  0
INSERT
  5
327
100
AcDbEntity
  8
MAIN0
  6
BYBLOCK
 62
0
100
AcDbBlockReference
  2
_OPEN
 10
406.9011635166851
 20
355.0044496216686
 30
0.0000000000000000
 41
2.000000000000000
 42
2.000000000000000
 43
2.000000000000000
 50
120.0000000000242
  0
MTEXT
  5
328
100
AcDbEntity
  8
MAIN0
  6
BYBLOCK
 62
0
100
AcDbMText
 10
412.3756688641489
 20
336.4767456239799
 30
0.0000000000000000
 40
3.099999904632568
 41
0.0000000000000000
 71
     5
 72
     1
  1
\A1;30\U+00B0
 11
-0.2588190451027248
 21
0.9659258262890136
 31
0.0000000000000000
  7
STANDARD
  0
ENDBLK
  5
329
100
AcDbEntity
  8
MAIN0
  6
CONTINUOUS
 62
3
100
AcDbBlockEnd
  0
BLOCK
  5
32B
100
AcDbEntity
  8
MAIN0
  6
CONTINUOUS
 62
3
100
AcDbBlockBegin
  2
*D39
 70
    65
 10
0.0
 20
0.0
 30
0.0
  0
LINE
  5
32C
100
AcDbEntity
  8
MAIN0
  6
BYBLOCK
 62
0
100
AcDbLine
 10
402.5043866821238
 20
352.4659693326655
 30
0.0000000000000000
 11
408.6332143242536
 21
356.0044496216693
 31
0.0000000000000000
  0
LINE
  5
32D
100
AcDbEntity
  8
MAIN0
  6
BYBLOCK
 62
0
100
AcDbLine
 10
367.3503063190684
 20
379.7511015928114
 30
0.0000000000000000
 11
370.9802932585242
 21
388.7356345444696
 31
0.0000000000000000
  0
ARC
  5
32E
100
AcDbEntity
  8
MAIN0
  6
BYBLOCK
 62
0
100
AcDbCircle
 10
342.2776221445673
 20
317.6940306144530
 30
0.0000000000000000
 40
74.62083801437650
100
AcDbArc
 50
31.53565092643282
 51
66.46434907301148
  0
INSERT
  5
32F
100
AcDbEntity
  8
MAIN0
  6
BYBLOCK
 62
0
100
AcDbBlockReference
  2
_OPEN
 10
406.9011635166851
 20
355.0044496216686
 30
0.0000000000000000
 41
2.000000000000000
 42
2.000000000000000
 43
2.000000000000000
 50
300.0000000000242
  0
INSERT
  5
330
100
AcDbEntity
  8
MAIN0
  6
BYBLOCK
 62
0
100
AcDbBlockReference
  2
_OPEN
 10
370.2310800716737
 20
386.8812668353436
 30
0.0000000000000000
 41
2.000000000000000
 42
2.000000000000000
 43
2.000000000000000
 50
157.9999999994201
  0
MTEXT
  5
331
100
AcDbEntity
  8
MAIN0
  6
BYBLOCK
 62
0
100
AcDbMText
 10
392.5782176531649
 20
375.5582465513800
 30
0.0000000000000000
 40
3.099999904632568
 41
0.0000000000000000
 71
     5
 72
     1
  1
\A1;38\U+00B0
 11
0.7547095802195905
 21
-0.6560590289941674
 31
0.0000000000000000
  7
STANDARD
  0
ENDBLK
  5
332
100
AcDbEntity
  8
MAIN0
  6
CONTINUOUS
 62
3
100
AcDbBlockEnd
  0
BLOCK
  5
334
100
AcDbEntity
  8
MAIN0
  6
CONTINUOUS
 62
3
100
AcDbBlockBegin
  2
*D40
 70
    65
 10
0.0
 20
0.0
 30
0.0
  0
LINE
  5
335
100
AcDbEntity
  8
MAIN0
  6
BYBLOCK
 62
0
100
AcDbLine
 10
367.3503063190684
 20
379.7511015928114
 30
0.0000000000000000
 11
370.9802932585242
 21
388.7356345444696
 31
0.0000000000000000
  0
ARC
  5
336
100
AcDbEntity
  8
MAIN0
  6
BYBLOCK
 62
0
100
AcDbCircle
 10
342.2776221445673
 20
317.6940306144530
 30
0.0000000000000000
 40
74.62083801437650
100
AcDbArc
 50
69.53565092582871
 51
88.46434907313697
  0
INSERT
  5
337
100
AcDbEntity
  8
MAIN0
  6
BYBLOCK
 62
0
100
AcDbBlockReference
  2
_OPEN
 10
370.2310800716737
 20
386.8812668353436
 30
0.0000000000000000
 41
2.000000000000000
 42
2.000000000000000
 43
2.000000000000000
 50
337.9999999994201
  0
INSERT
  5
338
100
AcDbEntity
  8
MAIN0
  6
BYBLOCK
 62
0
100
AcDbBlockReference
  2
_OPEN
 10
342.2776221451591
 20
392.3148686288295
 30
0.0000000000000000
 41
2.000000000000000
 42
2.000000000000000
 43
2.000000000000000
 50
179.9999999995456
  0
MTEXT
  5
339
100
AcDbEntity
  8
MAIN0
  6
BYBLOCK
 62
0
100
AcDbMText
 10
356.9071077123491
 20
392.9562093401379
 30
0.0000000000000000
 40
3.099999904632568
 41
0.0000000000000000
 71
     5
 72
     1
  1
\A1;22\U+00B0
 11
0.9816271834459417
 21
-0.1908089953854054
 31
0.0000000000000000
  7
STANDARD
  0
ENDBLK
  5
33A
100
AcDbEntity
  8
MAIN0
  6
CONTINUOUS
 62
3
100
AcDbBlockEnd
  0
BLOCK
  5
359
100
AcDbEntity
  8
MAIN0
  6
CONTINUOUS
 62
3
100
AcDbBlockBegin
  2
*D41
 70
    65
 10
0.0
 20
0.0
 30
0.0
  0
LINE
  5
35A
100
AcDbEntity
  8
MAIN0
  6
BYBLOCK
 62
0
100
AcDbLine
 10
280.5841864422520
 20
353.3127523244312
 30
0.0000000000000000
 11
275.9220299651795
 21
356.0044496214741
 31
0.0000000000000000
  0
ARC
  5
35B
100
AcDbEntity
  8
MAIN0
  6
BYBLOCK
 62
0
100
AcDbCircle
 10
342.2776221451842
 20
317.6940306140969
 30
0.0000000000000000
 40
74.62083801473268
100
AcDbArc
 50
91.53565092640129
 51
148.4643490735892
  0
INSERT
  5
35C
100
AcDbEntity
  8
MAIN0
  6
BYBLOCK
 62
0
100
AcDbBlockReference
  2
_OPEN
 10
342.2776221451842
 20
392.3148686288295
 30
0.0000000000000000
 41
2.000000000000000
 42
2.000000000000000
 43
2.000000000000000
 50
360.0000000000000
  0
INSERT
  5
35D
100
AcDbEntity
  8
MAIN0
  6
BYBLOCK
 62
0
100
AcDbBlockReference
  2
_OPEN
 10
277.6540807727483
 20
355.0044496214738
 30
0.0000000000000000
 41
2.000000000000000
 42
2.000000000000000
 43
2.000000000000000
 50
239.9999999999906
  0
MTEXT
  5
35E
100
AcDbEntity
  8
MAIN0
  6
BYBLOCK
 62
0
100
AcDbMText
 10
303.9422031616651
 20
384.0929240230049
 30
0.0000000000000000
 40
3.099999904632568
 41
0.0000000000000000
 71
     5
 72
     1
  1
\A1;60\U+00B0
 11
0.8660254037844798
 21
0.4999999999999287
 31
0.0000000000000000
  7
STANDARD
  0
ENDBLK
  5
35F
100
AcDbEntity
  8
MAIN0
  6
CONTINUOUS
 62
3
100
AcDbBlockEnd
  0
BLOCK
  5
36D
100
AcDbEntity
  8
MAIN0
  6
CONTINUOUS
 62
3
100
AcDbBlockBegin
  2
*D42
 70
    65
 10
0.0
 20
0.0
 30
0.0
  0
LINE
  5
36E
100
AcDbEntity
  8
MAIN0
  6
BYBLOCK
 62
0
100
AcDbLine
 10
496.4412007190197
 20
305.2473763237839
 30
0.0000000000000000
 11
491.9632528332978
 21
300.6748515581037
 31
0.0000000000000000
  0
INSERT
  5
36F
100
AcDbEntity
  8
MAIN0
  6
BYBLOCK
 62
0
100
AcDbBlockReference
  2
_OPEN
 10
497.8405594333077
 20
306.6762903130589
 30
0.0000000000000000
 41
2.000000000000000
 42
2.000000000000000
 43
2.000000000000000
 50
45.59871556262533
  0
INSERT
  5
370
100
AcDbEntity
  8
MAIN0
  6
BYBLOCK
 62
0
100
AcDbBlockReference
  2
_OPEN
 10
490.5638941190098
 20
299.2459375688286
 30
0.0000000000000000
 41
2.000000000000000
 42
2.000000000000000
 43
2.000000000000000
 50
225.5987155626253
  0
LINE
  5
371
100
AcDbEntity
  8
MAIN0
  6
BYBLOCK
 62
0
100
AcDbLine
 10
490.5638941190098
 20
299.2459375688286
 30
0.0000000000000000
 11
482.3485015866352
 21
290.8570311383083
 31
0.0000000000000000
  0
MTEXT
  5
372
100
AcDbEntity
  8
MAIN0
  6
BYBLOCK
 62
0
100
AcDbMText
 10
484.3822617864743
 20
295.8636589839625
 30
0.0000000000000000
 40
3.099999904632568
 41
0.0000000000000000
 71
     5
 72
     1
  1
\A1;\U+220510.4
 11
0.6996793571440434
 21
0.7144569946375347
 31
0.0000000000000000
  7
STANDARD
  0
ENDBLK
  5
373
100
AcDbEntity
  8
MAIN0
  6
CONTINUOUS
 62
3
100
AcDbBlockEnd
  0
BLOCK
  5
378
100
AcDbEntity
  8
MAIN0
  6
BYBLOCK
 62
3
100
AcDbBlockBegin
  2
*X0
 70
     1
 10
0.0
 20
0.0
 30
0.0
  0
LINE
  5
379
100
AcDbEntity
  8
MAIN0
  6
BYBLOCK
 62
0
100
AcDbLine
 10
265.5376984389774
 20
154.0272898775328
 30
0.0000000000000000
 11
267.4233165783350
 21
155.9129080168904
 31
0.0000000000000000
  0
LINE
  5
37A
100
AcDbEntity
  8
MAIN0
  6
BYBLOCK
 62
0
100
AcDbLine
 10
263.6520802996147
 20
154.0272898775315
 30
0.0000000000000000
 11
267.4233165783353
 21
157.7985261562517
 31
0.0000000000000000
  0
LINE
  5
37B
100
AcDbEntity
  8
MAIN0
  6
BYBLOCK
 62
0
100
AcDbLine
 10
261.7664621602544
 20
154.0272898775310
 30
0.0000000000000000
 11
263.7664621602526
 21
156.0272898775296
 31
0.0000000000000000
  0
LINE
  5
37C
100
AcDbEntity
  8
MAIN0
  6
BYBLOCK
 62
0
100
AcDbLine
 10
265.4233165783336
 20
157.6841442956105
 30
0.0000000000000000
 11
267.4233165783354
 21
159.6841442956123
 31
0.0000000000000000
  0
LINE
  5
37D
100
AcDbEntity
  8
MAIN0
  6
BYBLOCK
 62
0
100
AcDbLine
 10
259.8808440208942
 20
154.0272898775310
 30
0.0000000000000000
 11
261.8808440208937
 21
156.0272898775305
 31
0.0000000000000000
  0
LINE
  5
37E
100
AcDbEntity
  8
MAIN0
  6
BYBLOCK
 62
0
100
AcDbLine
 10
265.4233165783344
 20
159.5697624349714
 30
0.0000000000000000
 11
267.4233165783353
 21
161.5697624349718
 31
0.0000000000000000
  0
LINE
  5
37F
100
AcDbEntity
  8
MAIN0
  6
BYBLOCK
 62
0
100
AcDbLine
 10
257.9952258815339
 20
154.0272898775305
 30
0.0000000000000000
 11
259.9952258815330
 21
156.0272898775305
 31
0.0000000000000000
  0
LINE
  5
380
100
AcDbEntity
  8
MAIN0
  6
BYBLOCK
 62
0
100
AcDbLine
 10
265.4233165783344
 20
161.4553805743316
 30
0.0000000000000000
 11
267.4233165783335
 21
163.4553805743312
 31
0.0000000000000000
  0
LINE
  5
381
100
AcDbEntity
  8
MAIN0
  6
BYBLOCK
 62
0
100
AcDbLine
 10
256.1096077421744
 20
154.0272898775319
 30
0.0000000000000000
 11
258.1096077421731
 21
156.0272898775301
 31
0.0000000000000000
  0
LINE
  5
382
100
AcDbEntity
  8
MAIN0
  6
BYBLOCK
 62
0
100
AcDbLine
 10
265.4233165783344
 20
163.3409987136924
 30
0.0000000000000000
 11
267.4233165783349
 21
165.3409987136929
 31
0.0000000000000000
  0
LINE
  5
383
100
AcDbEntity
  8
MAIN0
  6
BYBLOCK
 62
0
100
AcDbLine
 10
254.2239896028142
 20
154.0272898775319
 30
0.0000000000000000
 11
256.2239896028123
 21
156.0272898775305
 31
0.0000000000000000
  0
LINE
  5
384
100
AcDbEntity
  8
MAIN0
  6
BYBLOCK
 62
0
100
AcDbLine
 10
265.4233165783344
 20
165.2266168530518
 30
0.0000000000000000
 11
267.4233165783354
 21
167.2266168530531
 31
0.0000000000000000
  0
LINE
  5
385
100
AcDbEntity
  8
MAIN0
  6
BYBLOCK
 62
0
100
AcDbLine
 10
252.3383714634534
 20
154.0272898775319
 30
0.0000000000000000
 11
254.3383714634520
 21
156.0272898775301
 31
0.0000000000000000
  0
LINE
  5
386
100
AcDbEntity
  8
MAIN0
  6
BYBLOCK
 62
0
100
AcDbLine
 10
265.4233165783344
 20
167.1122349924126
 30
0.0000000000000000
 11
267.4233165783344
 21
169.1122349924126
 31
0.0000000000000000
  0
LINE
  5
387
100
AcDbEntity
  8
MAIN0
  6
BYBLOCK
 62
0
100
AcDbLine
 10
250.4527533240931
 20
154.0272898775314
 30
0.0000000000000000
 11
252.4527533240913
 21
156.0272898775296
 31
0.0000000000000000
  0
LINE
  5
388
100
AcDbEntity
  8
MAIN0
  6
BYBLOCK
 62
0
100
AcDbLine
 10
264.4527533240936
 20
168.0272898775319
 30
0.0000000000000000
 11
266.4527533240931
 21
170.0272898775310
 31
0.0000000000000000
  0
LINE
  5
389
100
AcDbEntity
  8
MAIN0
  6
BYBLOCK
 62
0
100
AcDbLine
 10
248.5671351847328
 20
154.0272898775314
 30
0.0000000000000000
 11
250.5671351847310
 21
156.0272898775296
 31
0.0000000000000000
  0
LINE
  5
38A
100
AcDbEntity
  8
MAIN0
  6
BYBLOCK
 62
0
100
AcDbLine
 10
262.5671351847328
 20
168.0272898775310
 30
0.0000000000000000
 11
264.5671351847309
 21
170.0272898775296
 31
0.0000000000000000
  0
LINE
  5
38B
100
AcDbEntity
  8
MAIN0
  6
BYBLOCK
 62
0
100
AcDbLine
 10
246.6815170453738
 20
154.0272898775328
 30
0.0000000000000000
 11
248.6815170453720
 21
156.0272898775310
 31
0.0000000000000000
  0
LINE
  5
38C
100
AcDbEntity
  8
MAIN0
  6
BYBLOCK
 62
0
100
AcDbLine
 10
260.6815170453725
 20
168.0272898775314
 30
0.0000000000000000
 11
262.6815170453707
 21
170.0272898775296
 31
0.0000000000000000
  0
LINE
  5
38D
100
AcDbEntity
  8
MAIN0
  6
BYBLOCK
 62
0
100
AcDbLine
 10
244.7958989060131
 20
154.0272898775328
 30
0.0000000000000000
 11
246.7958989060117
 21
156.0272898775306
 31
0.0000000000000000
  0
LINE
  5
38E
100
AcDbEntity
  8
MAIN0
  6
BYBLOCK
 62
0
100
AcDbLine
 10
258.7958989060135
 20
168.0272898775329
 30
0.0000000000000000
 11
260.7958989060112
 21
170.0272898775306
 31
0.0000000000000000
  0
LINE
  5
38F
100
AcDbEntity
  8
MAIN0
  6
BYBLOCK
 62
0
100
AcDbLine
 10
242.9102807666509
 20
154.0272898775306
 30
0.0000000000000000
 11
244.9102807666509
 21
156.0272898775306
 31
0.0000000000000000
  0
LINE
  5
390
100
AcDbEntity
  8
MAIN0
  6
BYBLOCK
 62
0
100
AcDbLine
 10
256.9102807666514
 20
168.0272898775314
 30
0.0000000000000000
 11
258.9102807666496
 21
170.0272898775292
 31
0.0000000000000000
  0
LINE
  5
391
100
AcDbEntity
  8
MAIN0
  6
BYBLOCK
 62
0
100
AcDbLine
 10
241.0246626272925
 20
154.0272898775323
 30
0.0000000000000000
 11
243.0246626272907
 21
156.0272898775305
 31
0.0000000000000000
  0
LINE
  5
392
100
AcDbEntity
  8
MAIN0
  6
BYBLOCK
 62
0
100
AcDbLine
 10
255.0246626272920
 20
168.0272898775319
 30
0.0000000000000000
 11
257.0246626272907
 21
170.0272898775301
 31
0.0000000000000000
  0
LINE
  5
393
100
AcDbEntity
  8
MAIN0
  6
BYBLOCK
 62
0
100
AcDbLine
 10
239.1390444879318
 20
154.0272898775323
 30
0.0000000000000000
 11
241.1390444879299
 21
156.0272898775305
 31
0.0000000000000000
  0
LINE
  5
394
100
AcDbEntity
  8
MAIN0
  6
BYBLOCK
 62
0
100
AcDbLine
 10
253.1390444879317
 20
168.0272898775324
 30
0.0000000000000000
 11
255.1390444879299
 21
170.0272898775301
 31
0.0000000000000000
  0
LINE
  5
395
100
AcDbEntity
  8
MAIN0
  6
BYBLOCK
 62
0
100
AcDbLine
 10
237.2534263485700
 20
154.0272898775306
 30
0.0000000000000000
 11
239.2534263485709
 21
156.0272898775320
 31
0.0000000000000000
  0
LINE
  5
396
100
AcDbEntity
  8
MAIN0
  6
BYBLOCK
 62
0
100
AcDbLine
 10
251.2534263485714
 20
168.0272898775319
 30
0.0000000000000000
 11
253.2534263485705
 21
170.0272898775310
 31
0.0000000000000000
  0
LINE
  5
397
100
AcDbEntity
  8
MAIN0
  6
BYBLOCK
 62
0
100
AcDbLine
 10
235.3678082092112
 20
154.0272898775319
 30
0.0000000000000000
 11
237.3678082092107
 21
156.0272898775314
 31
0.0000000000000000
  0
LINE
  5
398
100
AcDbEntity
  8
MAIN0
  6
BYBLOCK
 62
0
100
AcDbLine
 10
249.3678082092111
 20
168.0272898775314
 30
0.0000000000000000
 11
251.3678082092093
 21
170.0272898775296
 31
0.0000000000000000
  0
LINE
  5
399
100
AcDbEntity
  8
MAIN0
  6
BYBLOCK
 62
0
100
AcDbLine
 10
233.4821900698503
 20
154.0272898775315
 30
0.0000000000000000
 11
235.4821900698499
 21
156.0272898775315
 31
0.0000000000000000
  0
LINE
  5
39A
100
AcDbEntity
  8
MAIN0
  6
BYBLOCK
 62
0
100
AcDbLine
 10
247.4821900698499
 20
168.0272898775314
 30
0.0000000000000000
 11
249.4821900698485
 21
170.0272898775296
 31
0.0000000000000000
  0
LINE
  5
39B
100
AcDbEntity
  8
MAIN0
  6
BYBLOCK
 62
0
100
AcDbLine
 10
231.5965719304915
 20
154.0272898775332
 30
0.0000000000000000
 11
233.5965719304883
 21
156.0272898775296
 31
0.0000000000000000
  0
LINE
  5
39C
100
AcDbEntity
  8
MAIN0
  6
BYBLOCK
 62
0
100
AcDbLine
 10
245.5965719304896
 20
168.0272898775310
 30
0.0000000000000000
 11
247.5965719304878
 21
170.0272898775291
 31
0.0000000000000000
  0
LINE
  5
39D
100
AcDbEntity
  8
MAIN0
  6
BYBLOCK
 62
0
100
AcDbLine
 10
229.7109537911293
 20
154.0272898775310
 30
0.0000000000000000
 11
231.7109537911288
 21
156.0272898775310
 31
0.0000000000000000
  0
LINE
  5
39E
100
AcDbEntity
  8
MAIN0
  6
BYBLOCK
 62
0
100
AcDbLine
 10
243.7109537911307
 20
168.0272898775328
 30
0.0000000000000000
 11
245.7109537911275
 21
170.0272898775292
 31
0.0000000000000000
  0
LINE
  5
39F
100
AcDbEntity
  8
MAIN0
  6
BYBLOCK
 62
0
100
AcDbLine
 10
227.8253356517708
 20
154.0272898775328
 30
0.0000000000000000
 11
229.8253356517690
 21
156.0272898775310
 31
0.0000000000000000
  0
LINE
  5
3A0
100
AcDbEntity
  8
MAIN0
  6
BYBLOCK
 62
0
100
AcDbLine
 10
241.8253356517704
 20
168.0272898775323
 30
0.0000000000000000
 11
243.8253356517685
 21
170.0272898775305
 31
0.0000000000000000
  0
LINE
  5
3A1
100
AcDbEntity
  8
MAIN0
  6
BYBLOCK
 62
0
100
AcDbLine
 10
225.9397175124101
 20
154.0272898775323
 30
0.0000000000000000
 11
227.9397175124064
 21
156.0272898775287
 31
0.0000000000000000
  0
LINE
  5
3A2
100
AcDbEntity
  8
MAIN0
  6
BYBLOCK
 62
0
100
AcDbLine
 10
239.9397175124101
 20
168.0272898775324
 30
0.0000000000000000
 11
241.9397175124082
 21
170.0272898775305
 31
0.0000000000000000
  0
LINE
  5
3A3
100
AcDbEntity
  8
MAIN0
  6
BYBLOCK
 62
0
100
AcDbLine
 10
224.0540993730479
 20
154.0272898775306
 30
0.0000000000000000
 11
226.0540993730479
 21
156.0272898775306
 31
0.0000000000000000
  0
LINE
  5
3A4
100
AcDbEntity
  8
MAIN0
  6
BYBLOCK
 62
0
100
AcDbLine
 10
238.0540993730493
 20
168.0272898775323
 30
0.0000000000000000
 11
240.0540993730475
 21
170.0272898775305
 31
0.0000000000000000
  0
LINE
  5
3A5
100
AcDbEntity
  8
MAIN0
  6
BYBLOCK
 62
0
100
AcDbLine
 10
222.1684812336890
 20
154.0272898775319
 30
0.0000000000000000
 11
224.1684812336872
 21
156.0272898775301
 31
0.0000000000000000
  0
LINE
  5
3A6
100
AcDbEntity
  8
MAIN0
  6
BYBLOCK
 62
0
100
AcDbLine
 10
236.1684812336890
 20
168.0272898775319
 30
0.0000000000000000
 11
238.1684812336872
 21
170.0272898775301
 31
0.0000000000000000
  0
LINE
  5
3A7
100
AcDbEntity
  8
MAIN0
  6
BYBLOCK
 62
0
100
AcDbLine
 10
220.2828630943282
 20
154.0272898775319
 30
0.0000000000000000
 11
222.2828630943269
 21
156.0272898775301
 31
0.0000000000000000
  0
LINE
  5
3A8
100
AcDbEntity
  8
MAIN0
  6
BYBLOCK
 62
0
100
AcDbLine
 10
234.2828630943283
 20
168.0272898775314
 30
0.0000000000000000
 11
236.2828630943264
 21
170.0272898775296
 31
0.0000000000000000
  0
LINE
  5
3A9
100
AcDbEntity
  8
MAIN0
  6
BYBLOCK
 62
0
100
AcDbLine
 10
218.3972449549679
 20
154.0272898775315
 30
0.0000000000000000
 11
220.3972449549661
 21
156.0272898775301
 31
0.0000000000000000
  0
LINE
  5
3AA
100
AcDbEntity
  8
MAIN0
  6
BYBLOCK
 62
0
100
AcDbLine
 10
232.3972449549679
 20
168.0272898775315
 30
0.0000000000000000
 11
234.3972449549679
 21
170.0272898775315
 31
0.0000000000000000
  0
LINE
  5
3AB
100
AcDbEntity
  8
MAIN0
  6
BYBLOCK
 62
0
100
AcDbLine
 10
217.4233165783345
 20
154.9389796402583
 30
0.0000000000000000
 11
219.4233165783345
 21
156.9389796402578
 31
0.0000000000000000
  0
LINE
  5
3AC
100
AcDbEntity
  8
MAIN0
  6
BYBLOCK
 62
0
100
AcDbLine
 10
230.5116268156090
 20
168.0272898775328
 30
0.0000000000000000
 11
232.5116268156058
 21
170.0272898775292
 31
0.0000000000000000
  0
LINE
  5
3AD
100
AcDbEntity
  8
MAIN0
  6
BYBLOCK
 62
0
100
AcDbLine
 10
217.4233165783349
 20
156.8245977796186
 30
0.0000000000000000
 11
219.4233165783358
 21
158.8245977796200
 31
0.0000000000000000
  0
LINE
  5
3AE
100
AcDbEntity
  8
MAIN0
  6
BYBLOCK
 62
0
100
AcDbLine
 10
228.6260086762469
 20
168.0272898775310
 30
0.0000000000000000
 11
230.6260086762469
 21
170.0272898775305
 31
0.0000000000000000
  0
LINE
  5
3AF
100
AcDbEntity
  8
MAIN0
  6
BYBLOCK
 62
0
100
AcDbLine
 10
217.4233165783331
 20
158.7102159189775
 30
0.0000000000000000
 11
219.4233165783345
 21
160.7102159189789
 31
0.0000000000000000
  0
LINE
  5
3B0
100
AcDbEntity
  8
MAIN0
  6
BYBLOCK
 62
0
100
AcDbLine
 10
226.7403905368880
 20
168.0272898775324
 30
0.0000000000000000
 11
228.7403905368866
 21
170.0272898775310
 31
0.0000000000000000
  0
LINE
  5
3B1
100
AcDbEntity
  8
MAIN0
  6
BYBLOCK
 62
0
100
AcDbLine
 10
217.4233165783336
 20
160.5958340583378
 30
0.0000000000000000
 11
219.4233165783349
 21
162.5958340583392
 31
0.0000000000000000
  0
LINE
  5
3B2
100
AcDbEntity
  8
MAIN0
  6
BYBLOCK
 62
0
100
AcDbLine
 10
224.8547723975262
 20
168.0272898775305
 30
0.0000000000000000
 11
226.8547723975258
 21
170.0272898775305
 31
0.0000000000000000
  0
LINE
  5
3B3
100
AcDbEntity
  8
MAIN0
  6
BYBLOCK
 62
0
100
AcDbLine
 10
217.4233165783336
 20
162.4814521976986
 30
0.0000000000000000
 11
219.4233165783349
 21
164.4814521977000
 31
0.0000000000000000
  0
LINE
  5
3B4
100
AcDbEntity
  8
MAIN0
  6
BYBLOCK
 62
0
100
AcDbLine
 10
222.9691542581673
 20
168.0272898775324
 30
0.0000000000000000
 11
224.9691542581650
 21
170.0272898775306
 31
0.0000000000000000
  0
LINE
  5
3B5
100
AcDbEntity
  8
MAIN0
  6
BYBLOCK
 62
0
100
AcDbLine
 10
217.4233165783340
 20
164.3670703370594
 30
0.0000000000000000
 11
219.4233165783336
 21
166.3670703370589
 31
0.0000000000000000
  0
LINE
  5
3B6
100
AcDbEntity
  8
MAIN0
  6
BYBLOCK
 62
0
100
AcDbLine
 10
221.0835361188065
 20
168.0272898775319
 30
0.0000000000000000
 11
223.0835361188047
 21
170.0272898775306
 31
0.0000000000000000
  0
LINE
  5
3B7
100
AcDbEntity
  8
MAIN0
  6
BYBLOCK
 62
0
100
AcDbLine
 10
217.4233165783354
 20
166.2526884764215
 30
0.0000000000000000
 11
219.1979179794463
 21
168.0272898775319
 31
0.0000000000000000
  0
LINE
  5
3B8
100
AcDbEntity
  8
MAIN0
  6
BYBLOCK
 62
0
100
AcDbLine
 10
219.4233165783354
 20
168.2526884764210
 30
0.0000000000000000
 11
221.1979179794444
 21
170.0272898775297
 31
0.0000000000000000
  0
LINE
  5
3B9
100
AcDbEntity
  8
MAIN0
  6
BYBLOCK
 62
0
100
AcDbLine
 10
217.4233165783358
 20
168.1383066157813
 30
0.0000000000000000
 11
219.3122998400841
 21
170.0272898775296
 31
0.0000000000000000
  0
ENDBLK
  5
3BA
100
AcDbEntity
  8
MAIN0
  6
BYBLOCK
 62
3
100
AcDbBlockEnd
  0
ENDSEC
  0
SECTION
  2
ENTITIES
  0
LINE
  5
46
100
AcDbEntity
  8
MAIN0
  6
CONTINUOUS
 62
3
100
AcDbLine
 10
122.2776221451842
 20
253.6940306144530
 30
0.0000000000000000
 11
122.2776221451842
 21
381.6940306144531
 31
0.0000000000000000
  0
LINE
  5
47
100
AcDbEntity
  8
MAIN0
  6
CONTINUOUS
 62
3
100
AcDbLine
 10
123.2776221451842
 20
382.6940306144530
 30
0.0000000000000000
 11
166.2776221451841
 21
382.6940306144530
 31
0.0000000000000000
  0
LINE
  5
48
100
AcDbEntity
  8
MAIN0
  6
CONTINUOUS
 62
3
100
AcDbLine
 10
127.7776221451842
 20
333.6940306144530
 30
0.0000000000000000
 11
172.9792696607850
 21
333.6940306144530
 31
0.0000000000000000
  0
LINE
  5
49
100
AcDbEntity
  8
MAIN0
  6
CONTINUOUS
 62
3
100
AcDbLine
 10
122.2776221451842
 20
381.6940306144531
 30
0.0000000000000000
 11
123.2776221451842
 21
382.6940306144531
 31
0.0000000000000000
  0
LINE
  5
4A
100
AcDbEntity
  8
MAIN0
  6
CONTINUOUS
 62
3
100
AcDbLine
 10
126.7776221451842
 20
267.6940306144530
 30
0.0000000000000000
 11
126.7776221451842
 21
367.6940306144530
 31
0.0000000000000000
  0
LINE
  5
4B
100
AcDbEntity
  8
MAIN0
  6
CONTINUOUS
 62
3
100
AcDbLine
 10
126.7776221451842
 20
345.1940306144428
 30
0.0000000000000000
 11
127.7776221451841
 21
344.1940306144425
 31
0.0000000000000000
  0
LINE
  5
4C
100
AcDbEntity
  8
MAIN0
  6
CONTINUOUS
 62
3
100
AcDbLine
 10
169.9776221451655
 20
337.9750987514466
 30
0.0000000000000000
 11
169.9776221451841
 21
382.6940306144530
 31
0.0000000000000000
  0
LINE
  5
4D
100
AcDbEntity
  8
MAIN0
  6
CONTINUOUS
 62
3
100
AcDbLine
 10
178.1776221451640
 20
334.3207171482425
 30
0.0000000000000000
 11
178.1776221451841
 21
382.6940306144579
 31
0.0000000000000000
  0
LINE
  5
4E
100
AcDbEntity
  8
MAIN0
  6
CONTINUOUS
 62
3
100
AcDbLine
 10
202.2776221451635
 20
333.1940306144720
 30
0.0000000000000000
 11
202.2776221451694
 21
347.1940306144720
 31
0.0000000000000000
  0
LINE
  5
4F
100
AcDbEntity
  8
MAIN0
  6
CONTINUOUS
 62
3
100
AcDbLine
 10
186.2776221451764
 20
364.1940306144639
 30
0.0000000000000000
 11
186.2776221451808
 21
374.6940306144626
 31
0.0000000000000000
  0
LINE
  5
50
100
AcDbEntity
  8
MAIN0
  6
CONTINUOUS
 62
3
100
AcDbLine
 10
194.2776221451701
 20
349.1940306144685
 30
0.0000000000000000
 11
194.2776221451755
 21
362.1940306144673
 31
0.0000000000000000
  0
LINE
  5
51
100
AcDbEntity
  8
MAIN0
  6
CONTINUOUS
 62
3
100
AcDbLine
 10
201.7776221451633
 20
332.6940306144717
 30
0.0000000000000000
 11
202.2776221451635
 21
333.1940306144721
 31
0.0000000000000000
  0
LINE
  5
52
100
AcDbEntity
  8
MAIN0
  6
CONTINUOUS
 62
3
100
AcDbLine
 10
166.2776221451841
 20
382.6940306144509
 30
0.0000000000000000
 11
185.2776221451841
 21
382.6940306144620
 31
0.0000000000000000
  0
LINE
  5
53
100
AcDbEntity
  8
MAIN0
  6
CONTINUOUS
 62
3
100
AcDbLine
 10
201.7776221451695
 20
347.6940306144717
 30
0.0000000000000000
 11
202.2776221451694
 21
347.1940306144720
 31
0.0000000000000000
  0
LINE
  5
54
100
AcDbEntity
  8
MAIN0
  6
CENTER
 62
3
100
AcDbLine
 10
198.7776221451683
 20
344.7485582285385
 30
0.0000000000000000
 11
198.7776221451703
 21
349.5534083098411
 31
0.0000000000000000
  0
LINE
  5
55
100
AcDbEntity
  8
MAIN0
  6
CONTINUOUS
 62
3
100
AcDbLine
 10
198.9508272260400
 20
346.2619798064436
 30
0.0000000000000000
 11
199.7776221455463
 21
347.6940306144705
 31
0.0000000000000000
  0
LINE
  5
56
100
AcDbEntity
  8
MAIN0
  6
CONTINUOUS
 62
3
100
AcDbLine
 10
197.7776221450212
 20
347.6940306144694
 30
0.0000000000000000
 11
198.6044170645261
 21
346.2619798064436
 31
0.0000000000000000
  0
ARC
  5
57
100
AcDbEntity
  8
MAIN0
  6
CONTINUOUS
 62
3
100
AcDbCircle
 10
198.7776221452830
 20
346.3619798064434
 30
0.0000000000000000
 40
0.2000000000000000
100
AcDbArc
 50
209.9999999999421
 51
330.0000000000478
  0
LINE
  5
58
100
AcDbEntity
  8
MAIN0
  6
CONTINUOUS
 62
3
100
AcDbLine
 10
195.7776221451712
 20
347.6940306144682
 30
0.0000000000000000
 11
197.7776221450212
 21
347.6940306144693
 31
0.0000000000000000
  0
LINE
  5
59
100
AcDbEntity
  8
MAIN0
  6
CONTINUOUS
 62
3
100
AcDbLine
 10
199.7776221455463
 20
347.6940306144705
 30
0.0000000000000000
 11
201.7776221451545
 21
347.6940306144717
 31
0.0000000000000000
  0
LINE
  5
5A
100
AcDbEntity
  8
MAIN0
  6
CENTER
 62
3
100
AcDbLine
 10
190.4776221451683
 20
359.7485582285385
 30
0.0000000000000000
 11
190.4776221451704
 21
364.5534083098411
 31
0.0000000000000000
  0
LINE
  5
5B
100
AcDbEntity
  8
MAIN0
  6
CONTINUOUS
 62
3
100
AcDbLine
 10
190.6508272260400
 20
361.2619798064436
 30
0.0000000000000000
 11
191.4776221455463
 21
362.6940306144705
 31
0.0000000000000000
  0
LINE
  5
5C
100
AcDbEntity
  8
MAIN0
  6
CONTINUOUS
 62
3
100
AcDbLine
 10
189.4776221450212
 20
362.6940306144694
 30
0.0000000000000000
 11
190.3044170645260
 21
361.2619798064436
 31
0.0000000000000000
  0
ARC
  5
5D
100
AcDbEntity
  8
MAIN0
  6
CONTINUOUS
 62
3
100
AcDbCircle
 10
190.4776221452830
 20
361.3619798064434
 30
0.0000000000000000
 40
0.2000000000000000
100
AcDbArc
 50
209.9999999999421
 51
330.0000000000478
  0
LINE
  5
5E
100
AcDbEntity
  8
MAIN0
  6
CONTINUOUS
 62
3
100
AcDbLine
 10
187.7776221451774
 20
362.6940306144635
 30
0.0000000000000000
 11
189.4776221450212
 21
362.6940306144645
 31
0.0000000000000000
  0
LINE
  5
5F
100
AcDbEntity
  8
MAIN0
  6
CONTINUOUS
 62
3
100
AcDbLine
 10
191.4776221455463
 20
362.6940306144657
 30
0.0000000000000000
 11
193.7776221451757
 21
362.6940306144670
 31
0.0000000000000000
  0
LINE
  5
60
100
AcDbEntity
  8
MAIN0
  6
CONTINUOUS
 62
3
100
AcDbLine
 10
185.7776221451808
 20
374.6940306144624
 30
0.0000000000000000
 11
185.7776221451839
 21
382.1940306144628
 31
0.0000000000000000
  0
LINE
  5
61
100
AcDbEntity
  8
MAIN0
  6
CONTINUOUS
 62
3
100
AcDbLine
 10
185.7776221451808
 20
374.6940306144624
 30
0.0000000000000000
 11
186.2776221451808
 21
374.6940306144626
 31
0.0000000000000000
  0
LINE
  5
62
100
AcDbEntity
  8
MAIN0
  6
CONTINUOUS
 62
3
100
AcDbLine
 10
185.2776221451841
 20
382.6940306144620
 30
0.0000000000000000
 11
185.7776221451839
 21
382.1940306144624
 31
0.0000000000000000
  0
LINE
  5
63
100
AcDbEntity
  8
MAIN0
  6
CONTINUOUS
 62
3
100
AcDbLine
 10
197.4508272260927
 20
333.6930687197908
 30
0.0000000000000000
 11
198.0276221451315
 21
332.6940306144696
 31
0.0000000000000000
  0
LINE
  5
64
100
AcDbEntity
  8
MAIN0
  6
CONTINUOUS
 62
3
100
AcDbLine
 10
196.5276221455416
 20
332.6940306144687
 30
0.0000000000000000
 11
197.1044170645790
 21
333.6930687197905
 31
0.0000000000000000
  0
ARC
  5
65
100
AcDbEntity
  8
MAIN0
  6
CONTINUOUS
 62
3
100
AcDbCircle
 10
197.2776221453360
 20
333.5930687197906
 30
0.0000000000000000
 40
0.2000000000000000
100
AcDbArc
 50
30.00000000003955
 51
150.0000000000291
  0
LINE
  5
66
100
AcDbEntity
  8
MAIN0
  6
CONTINUOUS
 62
3
100
AcDbLine
 10
198.0276221451315
 20
332.6940306144695
 30
0.0000000000000000
 11
201.7776221451633
 21
332.6940306144717
 31
0.0000000000000000
  0
LINE
  5
67
100
AcDbEntity
  8
MAIN0
  6
CENTER
 62
3
100
AcDbLine
 10
192.2776221451625
 20
330.9000434838088
 30
0.0000000000000000
 11
192.2776221451643
 21
335.1378389258613
 31
0.0000000000000000
  0
LINE
  5
68
100
AcDbEntity
  8
MAIN0
  6
CONTINUOUS
 62
3
100
AcDbLine
 10
192.4508272260927
 20
333.6930687197908
 30
0.0000000000000000
 11
193.0276221451315
 21
332.6940306144696
 31
0.0000000000000000
  0
LINE
  5
69
100
AcDbEntity
  8
MAIN0
  6
CONTINUOUS
 62
3
100
AcDbLine
 10
191.5276221455416
 20
332.6940306144687
 30
0.0000000000000000
 11
192.1044170645790
 21
333.6930687197905
 31
0.0000000000000000
  0
ARC
  5
6A
100
AcDbEntity
  8
MAIN0
  6
CONTINUOUS
 62
3
100
AcDbCircle
 10
192.2776221453360
 20
333.5930687197906
 30
0.0000000000000000
 40
0.2000000000000000
100
AcDbArc
 50
30.00000000003955
 51
150.0000000000291
  0
LINE
  5
6B
100
AcDbEntity
  8
MAIN0
  6
CENTER
 62
3
100
AcDbLine
 10
187.2776221451625
 20
330.9000434838088
 30
0.0000000000000000
 11
187.2776221451643
 21
335.1378389258613
 31
0.0000000000000000
  0
LINE
  5
6C
100
AcDbEntity
  8
MAIN0
  6
CONTINUOUS
 62
3
100
AcDbLine
 10
187.4508272260928
 20
333.6930687197908
 30
0.0000000000000000
 11
188.0276221451315
 21
332.6940306144696
 31
0.0000000000000000
  0
LINE
  5
6D
100
AcDbEntity
  8
MAIN0
  6
CONTINUOUS
 62
3
100
AcDbLine
 10
186.5276221455416
 20
332.6940306144687
 30
0.0000000000000000
 11
187.1044170645790
 21
333.6930687197905
 31
0.0000000000000000
  0
ARC
  5
6E
100
AcDbEntity
  8
MAIN0
  6
CONTINUOUS
 62
3
100
AcDbCircle
 10
187.2776221453360
 20
333.5930687197906
 30
0.0000000000000000
 40
0.2000000000000000
100
AcDbArc
 50
30.00000000003955
 51
150.0000000000291
  0
LINE
  5
6F
100
AcDbEntity
  8
MAIN0
  6
CENTER
 62
3
100
AcDbLine
 10
182.2776221451625
 20
330.9000434838088
 30
0.0000000000000000
 11
182.2776221451643
 21
335.1378389258613
 31
0.0000000000000000
  0
LINE
  5
70
100
AcDbEntity
  8
MAIN0
  6
CONTINUOUS
 62
3
100
AcDbLine
 10
182.4508272260928
 20
333.6930687197907
 30
0.0000000000000000
 11
183.0276221451316
 21
332.6940306144695
 31
0.0000000000000000
  0
LINE
  5
71
100
AcDbEntity
  8
MAIN0
  6
CONTINUOUS
 62
3
100
AcDbLine
 10
181.5276221455416
 20
332.6940306144687
 30
0.0000000000000000
 11
182.1044170645790
 21
333.6930687197905
 31
0.0000000000000000
  0
ARC
  5
72
100
AcDbEntity
  8
MAIN0
  6
CONTINUOUS
 62
3
100
AcDbCircle
 10
182.2776221453360
 20
333.5930687197906
 30
0.0000000000000000
 40
0.2000000000000000
100
AcDbArc
 50
30.00000000003955
 51
150.0000000000291
  0
LINE
  5
73
100
AcDbEntity
  8
MAIN0
  6
CENTER
 62
3
100
AcDbLine
 10
177.2776221451625
 20
330.9000434838088
 30
0.0000000000000000
 11
177.2776221451643
 21
335.1378389258613
 31
0.0000000000000000
  0
LINE
  5
74
100
AcDbEntity
  8
MAIN0
  6
CONTINUOUS
 62
3
100
AcDbLine
 10
177.4508272260928
 20
333.6930687197907
 30
0.0000000000000000
 11
178.0276221451316
 21
332.6940306144695
 31
0.0000000000000000
  0
LINE
  5
75
100
AcDbEntity
  8
MAIN0
  6
CONTINUOUS
 62
3
100
AcDbLine
 10
176.5276221455416
 20
332.6940306144687
 30
0.0000000000000000
 11
177.1044170645790
 21
333.6930687197905
 31
0.0000000000000000
  0
ARC
  5
76
100
AcDbEntity
  8
MAIN0
  6
CONTINUOUS
 62
3
100
AcDbCircle
 10
177.2776221453360
 20
333.5930687197906
 30
0.0000000000000000
 40
0.2000000000000000
100
AcDbArc
 50
30.00000000003955
 51
150.0000000000291
  0
LINE
  5
77
100
AcDbEntity
  8
MAIN0
  6
CONTINUOUS
 62
3
100
AcDbLine
 10
193.0276221451316
 20
332.6940306144666
 30
0.0000000000000000
 11
196.5276221455417
 21
332.6940306144687
 31
0.0000000000000000
  0
LINE
  5
78
100
AcDbEntity
  8
MAIN0
  6
CONTINUOUS
 62
3
100
AcDbLine
 10
188.0276221451316
 20
332.6940306144637
 30
0.0000000000000000
 11
191.5276221455417
 21
332.6940306144657
 31
0.0000000000000000
  0
LINE
  5
79
100
AcDbEntity
  8
MAIN0
  6
CONTINUOUS
 62
3
100
AcDbLine
 10
183.0276221451316
 20
332.6940306144607
 30
0.0000000000000000
 11
186.5276221455417
 21
332.6940306144628
 31
0.0000000000000000
  0
LINE
  5
7A
100
AcDbEntity
  8
MAIN0
  6
CONTINUOUS
 62
3
100
AcDbLine
 10
178.0276221451316
 20
332.6940306144577
 30
0.0000000000000000
 11
181.5276221455416
 21
332.6940306144598
 31
0.0000000000000000
  0
LINE
  5
7B
100
AcDbEntity
  8
MAIN0
  6
CONTINUOUS
 62
3
100
AcDbLine
 10
173.0276221451316
 20
332.6940306144549
 30
0.0000000000000000
 11
176.5276221455416
 21
332.6940306144569
 31
0.0000000000000000
  0
LINE
  5
7C
100
AcDbEntity
  8
MAIN0
  6
CONTINUOUS
 62
3
100
AcDbLine
 10
172.4491652374919
 20
334.3207171482425
 30
0.0000000000000000
 11
178.1776221451640
 21
334.3207171482425
 31
0.0000000000000000
  0
LINE
  5
7D
100
AcDbEntity
  8
MAIN0
  6
CONTINUOUS
 62
3
100
AcDbLine
 10
178.1776221451651
 20
336.8610583327170
 30
0.0000000000000000
 11
202.2776221451651
 21
336.8610583327170
 31
0.0000000000000000
  0
LINE
  5
7E
100
AcDbEntity
  8
MAIN0
  6
PHANTOM
 62
3
100
AcDbLine
 10
178.1776221451842
 20
321.6940306144530
 30
0.0000000000000000
 11
178.1776221451842
 21
325.6940306144530
 31
0.0000000000000000
  0
LINE
  5
7F
100
AcDbEntity
  8
MAIN0
  6
PHANTOM
 62
3
100
AcDbLine
 10
169.9776221451842
 20
321.6940306144530
 30
0.0000000000000000
 11
169.9776221451842
 21
325.6940306144530
 31
0.0000000000000000
  0
LINE
  5
80
100
AcDbEntity
  8
MAIN0
  6
PHANTOM
 62
3
100
AcDbLine
 10
161.9776221451842
 20
309.6940306144530
 30
0.0000000000000000
 11
161.9776221451842
 21
325.6940306144530
 31
0.0000000000000000
  0
LINE
  5
81
100
AcDbEntity
  8
MAIN0
  6
PHANTOM
 62
3
100
AcDbLine
 10
169.9776221451842
 20
321.6940306144530
 30
0.0000000000000000
 11
178.1776221451842
 21
321.6940306144530
 31
0.0000000000000000
  0
LINE
  5
82
100
AcDbEntity
  8
MAIN0
  6
PHANTOM
 62
3
100
AcDbLine
 10
161.9776221451842
 20
325.6940306144530
 30
0.0000000000000000
 11
169.9776221451842
 21
325.6940306144530
 31
0.0000000000000000
  0
LINE
  5
83
100
AcDbEntity
  8
MAIN0
  6
PHANTOM
 62
3
100
AcDbLine
 10
178.1776221451842
 20
325.6940306144530
 30
0.0000000000000000
 11
201.7776221451604
 21
325.6940306144530
 31
0.0000000000000000
  0
LINE
  5
84
100
AcDbEntity
  8
MAIN0
  6
CONTINUOUS
 62
3
100
AcDbLine
 10
122.2776221451842
 20
267.6940306144530
 30
0.0000000000000000
 11
131.7776221452630
 21
267.6940306144530
 31
0.0000000000000000
  0
LINE
  5
85
100
AcDbEntity
  8
MAIN0
  6
CONTINUOUS
 62
3
100
AcDbLine
 10
127.7776221451842
 20
301.6940306144530
 30
0.0000000000000000
 11
180.7776221451842
 21
301.6940306144530
 31
0.0000000000000000
  0
LINE
  5
86
100
AcDbEntity
  8
MAIN0
  6
CONTINUOUS
 62
3
100
AcDbLine
 10
122.2776221451842
 20
253.6940306144530
 30
0.0000000000000000
 11
123.2776221451842
 21
252.6940306144530
 31
0.0000000000000000
  0
LINE
  5
87
100
AcDbEntity
  8
MAIN0
  6
CONTINUOUS
 62
3
100
AcDbLine
 10
126.7776221451842
 20
290.1940306144633
 30
0.0000000000000000
 11
127.7776221451841
 21
291.1940306144636
 31
0.0000000000000000
  0
LINE
  5
88
100
AcDbEntity
  8
MAIN0
  6
PHANTOM
 62
3
100
AcDbLine
 10
178.1776221451842
 20
313.6940306144530
 30
0.0000000000000000
 11
178.1776221451842
 21
309.6940306144530
 31
0.0000000000000000
  0
LINE
  5
89
100
AcDbEntity
  8
MAIN0
  6
PHANTOM
 62
3
100
AcDbLine
 10
169.9776221451842
 20
313.6940306144530
 30
0.0000000000000000
 11
169.9776221451842
 21
309.6940306144530
 31
0.0000000000000000
  0
LINE
  5
8A
100
AcDbEntity
  8
MAIN0
  6
PHANTOM
 62
3
100
AcDbLine
 10
169.9776221451842
 20
313.6940306144530
 30
0.0000000000000000
 11
178.1776221451842
 21
313.6940306144530
 31
0.0000000000000000
  0
LINE
  5
8B
100
AcDbEntity
  8
MAIN0
  6
PHANTOM
 62
3
100
AcDbLine
 10
161.9776221451842
 20
309.6940306144530
 30
0.0000000000000000
 11
169.9776221451842
 21
309.6940306144530
 31
0.0000000000000000
  0
LINE
  5
8C
100
AcDbEntity
  8
MAIN0
  6
PHANTOM
 62
3
100
AcDbLine
 10
178.1776221451842
 20
309.6940306144530
 30
0.0000000000000000
 11
201.7776221451537
 21
309.6940306144530
 31
0.0000000000000000
  0
LINE
  5
8D
100
AcDbEntity
  8
MAIN0
  6
HIDDEN
 62
3
100
AcDbLine
 10
153.7952365745844
 20
253.8640306144478
 30
0.0000000000000000
 11
135.6619442545088
 21
253.8640306144584
 31
0.0000000000000000
  0
LINE
  5
8E
100
AcDbEntity
  8
MAIN0
  6
HIDDEN
 62
3
100
AcDbLine
 10
139.5776367154055
 20
254.6145859646715
 30
0.0000000000000000
 11
138.2776367149444
 21
253.8640306144569
 31
0.0000000000000000
  0
LINE
  5
8F
100
AcDbEntity
  8
MAIN0
  6
HIDDEN
 62
3
100
AcDbLine
 10
139.5776367154053
 20
265.8640306144562
 30
0.0000000000000000
 11
139.5776367154053
 21
254.6145859646715
 31
0.0000000000000000
  0
LINE
  5
90
100
AcDbEntity
  8
MAIN0
  6
HIDDEN
 62
3
100
AcDbLine
 10
149.9776367154053
 20
254.6145859646753
 30
0.0000000000000000
 11
139.5776367154053
 21
254.6145859646746
 31
0.0000000000000000
  0
LINE
  5
91
100
AcDbEntity
  8
MAIN0
  6
HIDDEN
 62
3
100
AcDbLine
 10
144.2986367154053
 20
265.8640306144531
 30
0.0000000000000000
 11
144.2986367154053
 21
254.6145859646749
 31
0.0000000000000000
  0
ARC
  5
92
100
AcDbEntity
  8
MAIN0
  6
HIDDEN
 62
3
100
AcDbCircle
 10
141.9381367154159
 20
239.8014823145261
 30
0.0000000000000000
 40
15.00000000000000
100
AcDbArc
 50
80.94591895309927
 51
99.05408104698309
  0
LINE
  5
93
100
AcDbEntity
  8
MAIN0
  6
HIDDEN
 62
3
100
AcDbLine
 10
144.2986367154053
 20
254.6145859646749
 30
0.0000000000000000
 11
139.5776367154053
 21
265.8640306144562
 31
0.0000000000000000
  0
LINE
  5
94
100
AcDbEntity
  8
MAIN0
  6
HIDDEN
 62
3
100
AcDbLine
 10
144.2986367154052
 20
265.8640306144531
 30
0.0000000000000000
 11
139.5776367154053
 21
254.6145859646715
 31
0.0000000000000000
  0
LINE
  5
95
100
AcDbEntity
  8
MAIN0
  6
HIDDEN
 62
3
100
AcDbLine
 10
149.9776367154051
 20
254.6145859646715
 30
0.0000000000000000
 11
151.2776367158661
 21
253.8640306144569
 31
0.0000000000000000
  0
LINE
  5
96
100
AcDbEntity
  8
MAIN0
  6
HIDDEN
 62
3
100
AcDbLine
 10
149.9776367154053
 20
265.8640306144562
 30
0.0000000000000000
 11
149.9776367154053
 21
254.6145859646715
 31
0.0000000000000000
  0
LINE
  5
97
100
AcDbEntity
  8
MAIN0
  6
HIDDEN
 62
3
100
AcDbLine
 10
145.2566367154053
 20
265.8640306144533
 30
0.0000000000000000
 11
145.2566367154053
 21
254.6145859646749
 31
0.0000000000000000
  0
ARC
  5
98
100
AcDbEntity
  8
MAIN0
  6
HIDDEN
 62
3
100
AcDbCircle
 10
147.6171367153946
 20
239.8014823145261
 30
0.0000000000000000
 40
15.00000000000000
100
AcDbArc
 50
80.94591895301691
 51
99.05408104690075
  0
LINE
  5
99
100
AcDbEntity
  8
MAIN0
  6
HIDDEN
 62
3
100
AcDbLine
 10
145.2566367154053
 20
254.6145859646749
 30
0.0000000000000000
 11
149.9776367154053
 21
265.8640306144562
 31
0.0000000000000000
  0
LINE
  5
9A
100
AcDbEntity
  8
MAIN0
  6
HIDDEN
 62
3
100
AcDbLine
 10
145.2566367154053
 20
265.8640306144533
 30
0.0000000000000000
 11
149.9776367154053
 21
254.6145859646715
 31
0.0000000000000000
  0
LINE
  5
9B
100
AcDbEntity
  8
MAIN0
  6
CONTINUOUS
 62
3
100
AcDbLine
 10
123.2776221451842
 20
252.6940306144530
 30
0.0000000000000000
 11
131.7776367154053
 21
252.6940306144530
 31
0.0000000000000000
  0
LINE
  5
9C
100
AcDbEntity
  8
MAIN0
  6
CONTINUOUS
 62
3
100
AcDbLine
 10
157.7776367154052
 20
252.6940306144530
 30
0.0000000000000000
 11
181.2776221451842
 21
252.6940306144530
 31
0.0000000000000000
  0
LINE
  5
9D
100
AcDbEntity
  8
MAIN0
  6
HIDDEN
 62
3
100
AcDbLine
 10
180.7776131679261
 20
299.7485419523209
 30
0.0000000000000000
 11
180.7776131679188
 21
304.5533920336235
 31
0.0000000000000000
  0
LINE
  5
9E
100
AcDbEntity
  8
MAIN0
  6
PHANTOM
 62
3
100
AcDbLine
 10
180.6044080870527
 20
301.2619635302259
 30
0.0000000000000000
 11
179.7776131675449
 21
302.6940143382519
 31
0.0000000000000000
  0
LINE
  5
9F
100
AcDbEntity
  8
MAIN0
  6
PHANTOM
 62
3
100
AcDbLine
 10
181.7776131680700
 20
302.6940143382529
 30
0.0000000000000000
 11
180.9508182485668
 21
301.2619635302262
 31
0.0000000000000000
  0
ARC
  5
A0
100
AcDbEntity
  8
MAIN0
  6
PHANTOM
 62
3
100
AcDbCircle
 10
180.7776131678097
 20
301.3619635302259
 30
0.0000000000000000
 40
0.2000000000000000
100
AcDbArc
 50
210.0000000000153
 51
330.0000000001211
  0
LINE
  5
A1
100
AcDbEntity
  8
MAIN0
  6
CENTER
 62
3
100
AcDbLine
 10
198.7776131679737
 20
268.4880014689545
 30
0.0000000000000000
 11
198.7776131679801
 21
264.2502060269019
 31
0.0000000000000000
  0
LINE
  5
A2
100
AcDbEntity
  8
MAIN0
  6
PHANTOM
 62
3
100
AcDbLine
 10
198.9508182489071
 20
265.6949762329726
 30
0.0000000000000000
 11
199.5276131679447
 21
266.6940143382944
 31
0.0000000000000000
  0
LINE
  5
A3
100
AcDbEntity
  8
MAIN0
  6
PHANTOM
 62
3
100
AcDbLine
 10
198.0276131683548
 20
266.6940143382938
 30
0.0000000000000000
 11
198.6044080873933
 21
265.6949762329726
 31
0.0000000000000000
  0
ARC
  5
A4
100
AcDbEntity
  8
MAIN0
  6
PHANTOM
 62
3
100
AcDbCircle
 10
198.7776131681501
 20
265.7949762329727
 30
0.0000000000000000
 40
0.2000000000000000
100
AcDbArc
 50
210.0000000000342
 51
330.0000000000237
  0
LINE
  5
A5
100
AcDbEntity
  8
MAIN0
  6
PHANTOM
 62
3
100
AcDbLine
 10
166.2776131679216
 20
302.6940143382366
 30
0.0000000000000000
 11
166.2776131679232
 21
301.6940306144530
 31
0.0000000000000000
  0
LINE
  5
A6
100
AcDbEntity
  8
MAIN0
  6
PHANTOM
 62
3
100
AcDbLine
 10
166.2776131679975
 20
252.6940143382406
 30
0.0000000000000000
 11
201.7776131679975
 21
252.6940143382967
 31
0.0000000000000000
  0
LINE
  5
A7
100
AcDbEntity
  8
MAIN0
  6
PHANTOM
 62
3
100
AcDbLine
 10
202.2776131679771
 20
266.1940143382974
 30
0.0000000000000000
 11
202.2776131679968
 21
253.1940143382974
 31
0.0000000000000000
  0
LINE
  5
A8
100
AcDbEntity
  8
MAIN0
  6
PHANTOM
 62
3
100
AcDbLine
 10
185.7776131679369
 20
292.6940143382722
 30
0.0000000000000000
 11
186.2776131679370
 21
292.6940143382730
 31
0.0000000000000000
  0
LINE
  5
A9
100
AcDbEntity
  8
MAIN0
  6
PHANTOM
 62
3
100
AcDbLine
 10
186.2776131679369
 20
292.6940143382730
 30
0.0000000000000000
 11
186.2776131679513
 21
283.1940143382715
 31
0.0000000000000000
  0
LINE
  5
AA
100
AcDbEntity
  8
MAIN0
  6
PHANTOM
 62
3
100
AcDbLine
 10
194.2776131679544
 20
281.1940143382852
 30
0.0000000000000000
 11
194.2776131679741
 21
268.1940143382839
 31
0.0000000000000000
  0
LINE
  5
AB
100
AcDbEntity
  8
MAIN0
  6
PHANTOM
 62
3
100
AcDbLine
 10
201.7776131679763
 20
266.6940143382967
 30
0.0000000000000000
 11
202.2776131679771
 21
266.1940143382974
 31
0.0000000000000000
  0
LINE
  5
AC
100
AcDbEntity
  8
MAIN0
  6
PHANTOM
 62
3
100
AcDbLine
 10
185.7776131679224
 20
302.1940143382581
 30
0.0000000000000000
 11
185.7776131679369
 21
292.6940143382722
 31
0.0000000000000000
  0
LINE
  5
AD
100
AcDbEntity
  8
MAIN0
  6
PHANTOM
 62
3
100
AcDbLine
 10
185.7776131679225
 20
302.1940143382580
 30
0.0000000000000000
 11
185.2776131679217
 21
302.6940143382574
 31
0.0000000000000000
  0
LINE
  5
AE
100
AcDbEntity
  8
MAIN0
  6
PHANTOM
 62
3
100
AcDbLine
 10
195.8176131679776
 20
266.6940143382875
 30
0.0000000000000000
 11
198.0276131683548
 21
266.6940143382909
 31
0.0000000000000000
  0
LINE
  5
AF
100
AcDbEntity
  8
MAIN0
  6
PHANTOM
 62
3
100
AcDbLine
 10
199.5276131679447
 20
266.6940143382932
 30
0.0000000000000000
 11
201.7776131679763
 21
266.6940143382967
 31
0.0000000000000000
  0
LINE
  5
B0
100
AcDbEntity
  8
MAIN0
  6
CENTER
 62
3
100
AcDbLine
 10
190.4776131679571
 20
283.4880014689453
 30
0.0000000000000000
 11
190.4776131679636
 21
279.2502060268928
 31
0.0000000000000000
  0
LINE
  5
B1
100
AcDbEntity
  8
MAIN0
  6
PHANTOM
 62
3
100
AcDbLine
 10
190.6508182488905
 20
280.6949762329635
 30
0.0000000000000000
 11
191.2276131679281
 21
281.6940143382853
 31
0.0000000000000000
  0
LINE
  5
B2
100
AcDbEntity
  8
MAIN0
  6
PHANTOM
 62
3
100
AcDbLine
 10
189.7276131683383
 20
281.6940143382847
 30
0.0000000000000000
 11
190.3044080873768
 21
280.6949762329635
 31
0.0000000000000000
  0
ARC
  5
B3
100
AcDbEntity
  8
MAIN0
  6
PHANTOM
 62
3
100
AcDbCircle
 10
190.4776131681336
 20
280.7949762329635
 30
0.0000000000000000
 40
0.2000000000000000
100
AcDbArc
 50
210.0000000000342
 51
330.0000000000237
  0
LINE
  5
B4
100
AcDbEntity
  8
MAIN0
  6
HIDDEN
 62
3
100
AcDbLine
 10
175.7776131679261
 20
299.7485419523198
 30
0.0000000000000000
 11
175.7776131679188
 21
304.5533920336224
 31
0.0000000000000000
  0
LINE
  5
B5
100
AcDbEntity
  8
MAIN0
  6
PHANTOM
 62
3
100
AcDbLine
 10
175.6044080870527
 20
301.2619635302248
 30
0.0000000000000000
 11
174.7776131675448
 21
302.6940143382507
 31
0.0000000000000000
  0
LINE
  5
B6
100
AcDbEntity
  8
MAIN0
  6
PHANTOM
 62
3
100
AcDbLine
 10
176.7776131680700
 20
302.6940143382519
 30
0.0000000000000000
 11
175.9508182485668
 21
301.2619635302251
 31
0.0000000000000000
  0
ARC
  5
B7
100
AcDbEntity
  8
MAIN0
  6
PHANTOM
 62
3
100
AcDbCircle
 10
175.7776131678097
 20
301.3619635302248
 30
0.0000000000000000
 40
0.2000000000000000
100
AcDbArc
 50
210.0000000000153
 51
330.0000000001211
  0
LINE
  5
B8
100
AcDbEntity
  8
MAIN0
  6
HIDDEN
 62
3
100
AcDbLine
 10
170.7776131679261
 20
299.7485419523143
 30
0.0000000000000000
 11
170.7776131679188
 21
304.5533920336169
 31
0.0000000000000000
  0
LINE
  5
B9
100
AcDbEntity
  8
MAIN0
  6
PHANTOM
 62
3
100
AcDbLine
 10
170.6044080870526
 20
301.2619635302193
 30
0.0000000000000000
 11
169.7776131675448
 21
302.6940143382452
 31
0.0000000000000000
  0
LINE
  5
BA
100
AcDbEntity
  8
MAIN0
  6
PHANTOM
 62
3
100
AcDbLine
 10
171.7776131680700
 20
302.6940143382464
 30
0.0000000000000000
 11
170.9508182485668
 21
301.2619635302197
 31
0.0000000000000000
  0
ARC
  5
BB
100
AcDbEntity
  8
MAIN0
  6
PHANTOM
 62
3
100
AcDbCircle
 10
170.7776131678097
 20
301.3619635302192
 30
0.0000000000000000
 40
0.2000000000000000
100
AcDbArc
 50
210.0000000000153
 51
330.0000000001211
  0
LINE
  5
BC
100
AcDbEntity
  8
MAIN0
  6
PHANTOM
 62
3
100
AcDbLine
 10
182.2776221451842
 20
298.5270028962027
 30
0.0000000000000000
 11
185.7776131679280
 21
298.5270028962065
 31
0.0000000000000000
  0
LINE
  5
BD
100
AcDbEntity
  8
MAIN0
  6
PHANTOM
 62
3
100
AcDbLine
 10
201.7776131679976
 20
252.6940143382966
 30
0.0000000000000000
 11
202.2776131679968
 21
253.1940143382974
 31
0.0000000000000000
  0
LINE
  5
BE
100
AcDbEntity
  8
MAIN0
  6
PHANTOM
 62
3
100
AcDbLine
 10
166.2776131679217
 20
302.6940143382366
 30
0.0000000000000000
 11
169.7776131675448
 21
302.6940143382404
 31
0.0000000000000000
  0
LINE
  5
BF
100
AcDbEntity
  8
MAIN0
  6
PHANTOM
 62
3
100
AcDbLine
 10
171.7776131680704
 20
302.6940143382470
 30
0.0000000000000000
 11
174.7776131675451
 21
302.6940143382503
 31
0.0000000000000000
  0
LINE
  5
C0
100
AcDbEntity
  8
MAIN0
  6
PHANTOM
 62
3
100
AcDbLine
 10
179.7776131679217
 20
302.6940143382515
 30
0.0000000000000000
 11
176.7776131680700
 21
302.6940143382482
 31
0.0000000000000000
  0
LINE
  5
C1
100
AcDbEntity
  8
MAIN0
  6
PHANTOM
 62
3
100
AcDbLine
 10
181.7776131680705
 20
302.6940143382537
 30
0.0000000000000000
 11
185.2776131679217
 21
302.6940143382575
 31
0.0000000000000000
  0
LINE
  5
C2
100
AcDbEntity
  8
MAIN0
  6
PHANTOM
 62
3
100
AcDbLine
 10
187.7776131679548
 20
281.6940143382752
 30
0.0000000000000000
 11
189.7276131683383
 21
281.6940143382782
 31
0.0000000000000000
  0
LINE
  5
C3
100
AcDbEntity
  8
MAIN0
  6
PHANTOM
 62
3
100
AcDbLine
 10
191.2276131679282
 20
281.6940143382805
 30
0.0000000000000000
 11
193.7776131679536
 21
281.6940143382844
 31
0.0000000000000000
  0
LINE
  5
C4
100
AcDbEntity
  8
MAIN0
  6
CONTINUOUS
 62
3
100
AcDbLine
 10
181.2776221451841
 20
252.6940306144530
 30
0.0000000000000000
 11
182.2776221451841
 21
253.6940306144530
 31
0.0000000000000000
  0
ARC
  5
C5
100
AcDbEntity
  8
MAIN0
  6
CONTINUOUS
 62
3
100
AcDbCircle
 10
180.7776221451842
 20
300.1940306144530
 30
0.0000000000000000
 40
1.500000000000000
100
AcDbArc
 50
0.0000000000000000
 51
90.00000000000000
  0
LINE
  5
C6
100
AcDbEntity
  8
MAIN0
  6
HIDDEN
 62
3
100
AcDbLine
 10
180.2776221451842
 20
297.9440306144530
 30
0.0000000000000000
 11
181.2776221451842
 21
297.9440306144530
 31
0.0000000000000000
  0
LINE
  5
C7
100
AcDbEntity
  8
MAIN0
  6
HIDDEN
 62
3
100
AcDbLine
 10
181.2776221451841
 20
297.9440306144530
 30
0.0000000000000000
 11
182.2776221451841
 21
298.9440306144530
 31
0.0000000000000000
  0
LINE
  5
C8
100
AcDbEntity
  8
MAIN0
  6
HIDDEN
 62
3
100
AcDbLine
 10
180.2776221451842
 20
288.9440306144530
 30
0.0000000000000000
 11
180.2776221451842
 21
297.9440306144530
 31
0.0000000000000000
  0
LINE
  5
C9
100
AcDbEntity
  8
MAIN0
  6
HIDDEN
 62
3
100
AcDbLine
 10
181.2776221451842
 20
288.9440306144530
 30
0.0000000000000000
 11
181.2776221451842
 21
297.9440306144530
 31
0.0000000000000000
  0
LINE
  5
CA
100
AcDbEntity
  8
MAIN0
  6
HIDDEN
 62
3
100
AcDbLine
 10
171.2776221451842
 20
289.4440306144530
 30
0.0000000000000000
 11
171.2776221451842
 21
297.4440306144530
 31
0.0000000000000000
  0
LINE
  5
CB
100
AcDbEntity
  8
MAIN0
  6
HIDDEN
 62
3
100
AcDbLine
 10
171.2776221451842
 20
297.4440306144530
 30
0.0000000000000000
 11
180.2776221451842
 21
297.4440306144530
 31
0.0000000000000000
  0
LINE
  5
CC
100
AcDbEntity
  8
MAIN0
  6
HIDDEN
 62
3
100
AcDbLine
 10
163.2776221451842
 20
296.4440306144530
 30
0.0000000000000000
 11
170.2776221452201
 21
296.4440306144530
 31
0.0000000000000000
  0
LINE
  5
CD
100
AcDbEntity
  8
MAIN0
  6
HIDDEN
 62
3
100
AcDbLine
 10
163.2776221451842
 20
290.4440306144530
 30
0.0000000000000000
 11
163.2776221451842
 21
296.4440306144530
 31
0.0000000000000000
  0
LINE
  5
CE
100
AcDbEntity
  8
MAIN0
  6
HIDDEN
 62
3
100
AcDbLine
 10
170.2776221452201
 20
296.4440306144531
 30
0.0000000000000000
 11
171.2776221452199
 21
297.4440306144530
 31
0.0000000000000000
  0
LINE
  5
CF
100
AcDbEntity
  8
MAIN0
  6
HIDDEN
 62
3
100
AcDbLine
 10
161.5455713375367
 20
293.4440306144530
 30
0.0000000000000000
 11
163.2776221451068
 21
296.4440306144530
 31
0.0000000000000000
  0
LINE
  5
D0
100
AcDbEntity
  8
MAIN0
  6
HIDDEN
 62
3
100
AcDbLine
 10
163.2776221451842
 20
290.4440306144530
 30
0.0000000000000000
 11
170.2776221452201
 21
290.4440306144530
 31
0.0000000000000000
  0
LINE
  5
D1
100
AcDbEntity
  8
MAIN0
  6
HIDDEN
 62
3
100
AcDbLine
 10
161.5455713375367
 20
293.4440306144530
 30
0.0000000000000000
 11
163.2776221451068
 21
290.4440306144531
 31
0.0000000000000000
  0
LINE
  5
D2
100
AcDbEntity
  8
MAIN0
  6
HIDDEN
 62
3
100
AcDbLine
 10
171.2776221451842
 20
289.4440306144530
 30
0.0000000000000000
 11
180.2776221451842
 21
289.4440306144530
 31
0.0000000000000000
  0
LINE
  5
D3
100
AcDbEntity
  8
MAIN0
  6
HIDDEN
 62
3
100
AcDbLine
 10
170.2776221452201
 20
290.4440306144530
 30
0.0000000000000000
 11
171.2776221452199
 21
289.4440306144530
 31
0.0000000000000000
  0
LINE
  5
D4
100
AcDbEntity
  8
MAIN0
  6
HIDDEN
 62
3
100
AcDbLine
 10
180.2776221451842
 20
288.9440306144530
 30
0.0000000000000000
 11
181.2776221451842
 21
288.9440306144530
 31
0.0000000000000000
  0
LINE
  5
D5
100
AcDbEntity
  8
MAIN0
  6
HIDDEN
 62
3
100
AcDbLine
 10
181.2776221451841
 20
288.9440306144530
 30
0.0000000000000000
 11
182.2776221451841
 21
287.9440306144530
 31
0.0000000000000000
  0
LINE
  5
D6
100
AcDbEntity
  8
MAIN0
  6
HIDDEN
 62
3
100
AcDbLine
 10
170.2776221452201
 20
290.4440306144530
 30
0.0000000000000000
 11
170.2776221452201
 21
296.4440306144531
 31
0.0000000000000000
  0
LINE
  5
D7
100
AcDbEntity
  8
MAIN0
  6
PHANTOM
 62
3
100
AcDbLine
 10
202.2776221451602
 20
325.1940306144530
 30
0.0000000000000000
 11
202.2776221451539
 21
310.1940306144530
 31
0.0000000000000000
  0
LINE
  5
D8
100
AcDbEntity
  8
MAIN0
  6
PHANTOM
 62
3
100
AcDbLine
 10
201.7776221451604
 20
325.6940306144530
 30
0.0000000000000000
 11
202.2776221451602
 21
325.1940306144530
 31
0.0000000000000000
  0
LINE
  5
D9
100
AcDbEntity
  8
MAIN0
  6
PHANTOM
 62
3
100
AcDbLine
 10
202.2776221451539
 20
310.1940306144530
 30
0.0000000000000000
 11
201.7776221451537
 21
309.6940306144530
 31
0.0000000000000000
  0
LINE
  5
DA
100
AcDbEntity
  8
MAIN0
  6
PHANTOM
 62
3
100
AcDbLine
 10
166.2776221451537
 20
309.6940306144530
 30
0.0000000000000000
 11
166.2776221451604
 21
325.6940306144530
 31
0.0000000000000000
  0
LINE
  5
DB
100
AcDbEntity
  8
MAIN0
  6
CENTER
 62
3
100
AcDbLine
 10
197.2776221451557
 20
314.5300673203183
 30
0.0000000000000000
 11
197.2776221451584
 21
320.9855993496470
 31
0.0000000000000000
  0
LINE
  5
DC
100
AcDbEntity
  8
MAIN0
  6
CENTER
 62
3
100
AcDbLine
 10
197.2776221451625
 20
330.9000434838067
 30
0.0000000000000000
 11
197.2776221451643
 21
335.1378389258613
 31
0.0000000000000000
  0
LINE
  5
DD
100
AcDbEntity
  8
MAIN0
  6
PHANTOM
 62
3
100
AcDbLine
 10
198.0276221451567
 20
316.9440306144530
 30
0.0000000000000000
 11
198.0276221451574
 21
318.4440306144530
 31
0.0000000000000000
  0
LINE
  5
DE
100
AcDbEntity
  8
MAIN0
  6
PHANTOM
 62
3
100
AcDbLine
 10
196.5276221451567
 20
316.9440306144530
 30
0.0000000000000000
 11
196.5276221451574
 21
318.4440306144530
 31
0.0000000000000000
  0
LINE
  5
DF
100
AcDbEntity
  8
MAIN0
  6
PHANTOM
 62
3
100
AcDbLine
 10
196.5276221451574
 20
318.4440306144530
 30
0.0000000000000000
 11
197.2776221451580
 21
319.9440306144530
 31
0.0000000000000000
  0
LINE
  5
E0
100
AcDbEntity
  8
MAIN0
  6
PHANTOM
 62
3
100
AcDbLine
 10
197.2776221451580
 20
319.9440306144530
 30
0.0000000000000000
 11
198.0276221451574
 21
318.4440306144530
 31
0.0000000000000000
  0
LINE
  5
E1
100
AcDbEntity
  8
MAIN0
  6
PHANTOM
 62
3
100
AcDbLine
 10
198.0276221451567
 20
316.9440306144530
 30
0.0000000000000000
 11
197.2776221451560
 21
315.1946045595552
 31
0.0000000000000000
  0
LINE
  5
E2
100
AcDbEntity
  8
MAIN0
  6
PHANTOM
 62
3
100
AcDbLine
 10
197.2776221451560
 20
315.1946045595552
 30
0.0000000000000000
 11
196.5276221451567
 21
316.9440306144530
 31
0.0000000000000000
  0
LINE
  5
E3
100
AcDbEntity
  8
MAIN0
  6
PHANTOM
 62
3
100
AcDbLine
 10
198.0276221451567
 20
316.9440306144530
 30
0.0000000000000000
 11
202.2776221451568
 21
316.9440306144530
 31
0.0000000000000000
  0
LINE
  5
E4
100
AcDbEntity
  8
MAIN0
  6
PHANTOM
 62
3
100
AcDbLine
 10
198.0276221451574
 20
318.4440306144530
 30
0.0000000000000000
 11
202.2776221451574
 21
318.4440306144530
 31
0.0000000000000000
  0
LINE
  5
E5
100
AcDbEntity
  8
MAIN0
  6
CENTER
 62
3
100
AcDbLine
 10
192.2776221451557
 20
314.5300673203183
 30
0.0000000000000000
 11
192.2776221451584
 21
320.9855993496470
 31
0.0000000000000000
  0
LINE
  5
E6
100
AcDbEntity
  8
MAIN0
  6
PHANTOM
 62
3
100
AcDbLine
 10
193.0276221451567
 20
316.9440306144530
 30
0.0000000000000000
 11
193.0276221451574
 21
318.4440306144530
 31
0.0000000000000000
  0
LINE
  5
E7
100
AcDbEntity
  8
MAIN0
  6
PHANTOM
 62
3
100
AcDbLine
 10
191.5276221451567
 20
316.9440306144530
 30
0.0000000000000000
 11
191.5276221451574
 21
318.4440306144530
 31
0.0000000000000000
  0
LINE
  5
E8
100
AcDbEntity
  8
MAIN0
  6
PHANTOM
 62
3
100
AcDbLine
 10
191.5276221451574
 20
318.4440306144530
 30
0.0000000000000000
 11
192.2776221451580
 21
319.9440306144530
 31
0.0000000000000000
  0
LINE
  5
E9
100
AcDbEntity
  8
MAIN0
  6
PHANTOM
 62
3
100
AcDbLine
 10
192.2776221451580
 20
319.9440306144530
 30
0.0000000000000000
 11
193.0276221451574
 21
318.4440306144530
 31
0.0000000000000000
  0
LINE
  5
EA
100
AcDbEntity
  8
MAIN0
  6
PHANTOM
 62
3
100
AcDbLine
 10
193.0276221451567
 20
316.9440306144530
 30
0.0000000000000000
 11
192.2776221451560
 21
315.1946045595552
 31
0.0000000000000000
  0
LINE
  5
EB
100
AcDbEntity
  8
MAIN0
  6
PHANTOM
 62
3
100
AcDbLine
 10
192.2776221451560
 20
315.1946045595552
 30
0.0000000000000000
 11
191.5276221451567
 21
316.9440306144530
 31
0.0000000000000000
  0
LINE
  5
EC
100
AcDbEntity
  8
MAIN0
  6
PHANTOM
 62
3
100
AcDbLine
 10
187.2776221451557
 20
314.5300673203183
 30
0.0000000000000000
 11
187.2776221451584
 21
320.9855993496470
 31
0.0000000000000000
  0
LINE
  5
ED
100
AcDbEntity
  8
MAIN0
  6
PHANTOM
 62
3
100
AcDbLine
 10
188.0276221451567
 20
316.9440306144530
 30
0.0000000000000000
 11
188.0276221451574
 21
318.4440306144530
 31
0.0000000000000000
  0
LINE
  5
EE
100
AcDbEntity
  8
MAIN0
  6
PHANTOM
 62
3
100
AcDbLine
 10
186.5276221451567
 20
316.9440306144530
 30
0.0000000000000000
 11
186.5276221451574
 21
318.4440306144530
 31
0.0000000000000000
  0
LINE
  5
EF
100
AcDbEntity
  8
MAIN0
  6
PHANTOM
 62
3
100
AcDbLine
 10
186.5276221451574
 20
318.4440306144530
 30
0.0000000000000000
 11
187.2776221451580
 21
319.9440306144530
 31
0.0000000000000000
  0
LINE
  5
F0
100
AcDbEntity
  8
MAIN0
  6
PHANTOM
 62
3
100
AcDbLine
 10
187.2776221451580
 20
319.9440306144530
 30
0.0000000000000000
 11
188.0276221451574
 21
318.4440306144530
 31
0.0000000000000000
  0
LINE
  5
F1
100
AcDbEntity
  8
MAIN0
  6
CENTER
 62
3
100
AcDbLine
 10
188.0276221451567
 20
316.9440306144530
 30
0.0000000000000000
 11
187.2776221451560
 21
315.1946045595552
 31
0.0000000000000000
  0
LINE
  5
F2
100
AcDbEntity
  8
MAIN0
  6
PHANTOM
 62
3
100
AcDbLine
 10
187.2776221451560
 20
315.1946045595552
 30
0.0000000000000000
 11
186.5276221451567
 21
316.9440306144530
 31
0.0000000000000000
  0
LINE
  5
F3
100
AcDbEntity
  8
MAIN0
  6
PHANTOM
 62
3
100
AcDbLine
 10
182.2776221451557
 20
314.5300673203183
 30
0.0000000000000000
 11
182.2776221451584
 21
320.9855993496470
 31
0.0000000000000000
  0
LINE
  5
F4
100
AcDbEntity
  8
MAIN0
  6
PHANTOM
 62
3
100
AcDbLine
 10
183.0276221451567
 20
316.9440306144530
 30
0.0000000000000000
 11
183.0276221451574
 21
318.4440306144530
 31
0.0000000000000000
  0
LINE
  5
F5
100
AcDbEntity
  8
MAIN0
  6
PHANTOM
 62
3
100
AcDbLine
 10
181.5276221451567
 20
316.9440306144530
 30
0.0000000000000000
 11
181.5276221451574
 21
318.4440306144530
 31
0.0000000000000000
  0
LINE
  5
F6
100
AcDbEntity
  8
MAIN0
  6
PHANTOM
 62
3
100
AcDbLine
 10
181.5276221451574
 20
318.4440306144530
 30
0.0000000000000000
 11
182.2776221451580
 21
319.9440306144530
 31
0.0000000000000000
  0
LINE
  5
F7
100
AcDbEntity
  8
MAIN0
  6
PHANTOM
 62
3
100
AcDbLine
 10
182.2776221451580
 20
319.9440306144530
 30
0.0000000000000000
 11
183.0276221451574
 21
318.4440306144530
 31
0.0000000000000000
  0
LINE
  5
F8
100
AcDbEntity
  8
MAIN0
  6
PHANTOM
 62
3
100
AcDbLine
 10
183.0276221451567
 20
316.9440306144530
 30
0.0000000000000000
 11
182.2776221451560
 21
315.1946045595552
 31
0.0000000000000000
  0
LINE
  5
F9
100
AcDbEntity
  8
MAIN0
  6
PHANTOM
 62
3
100
AcDbLine
 10
182.2776221451560
 20
315.1946045595552
 30
0.0000000000000000
 11
181.5276221451567
 21
316.9440306144530
 31
0.0000000000000000
  0
LINE
  5
FA
100
AcDbEntity
  8
MAIN0
  6
PHANTOM
 62
3
100
AcDbLine
 10
177.2776221451557
 20
314.5300673203183
 30
0.0000000000000000
 11
177.2776221451584
 21
320.9855993496470
 31
0.0000000000000000
  0
LINE
  5
FB
100
AcDbEntity
  8
MAIN0
  6
PHANTOM
 62
3
100
AcDbLine
 10
178.0276221451567
 20
316.9440306144530
 30
0.0000000000000000
 11
178.0276221451574
 21
318.4440306144530
 31
0.0000000000000000
  0
LINE
  5
FC
100
AcDbEntity
  8
MAIN0
  6
PHANTOM
 62
3
100
AcDbLine
 10
176.5276221451567
 20
316.9440306144530
 30
0.0000000000000000
 11
176.5276221451574
 21
318.4440306144530
 31
0.0000000000000000
  0
LINE
  5
FD
100
AcDbEntity
  8
MAIN0
  6
PHANTOM
 62
3
100
AcDbLine
 10
176.5276221451574
 20
318.4440306144530
 30
0.0000000000000000
 11
177.2776221451580
 21
319.9440306144530
 31
0.0000000000000000
  0
LINE
  5
FE
100
AcDbEntity
  8
MAIN0
  6
PHANTOM
 62
3
100
AcDbLine
 10
177.2776221451580
 20
319.9440306144530
 30
0.0000000000000000
 11
178.0276221451574
 21
318.4440306144530
 31
0.0000000000000000
  0
LINE
  5
FF
100
AcDbEntity
  8
MAIN0
  6
CENTER
 62
3
100
AcDbLine
 10
178.0276221451567
 20
316.9440306144530
 30
0.0000000000000000
 11
177.2776221451560
 21
315.1946045595552
 31
0.0000000000000000
  0
LINE
  5
100
100
AcDbEntity
  8
MAIN0
  6
PHANTOM
 62
3
100
AcDbLine
 10
177.2776221451560
 20
315.1946045595552
 30
0.0000000000000000
 11
176.5276221451567
 21
316.9440306144530
 31
0.0000000000000000
  0
LINE
  5
101
100
AcDbEntity
  8
MAIN0
  6
CENTER
 62
3
100
AcDbLine
 10
172.2776221451557
 20
314.5300673203183
 30
0.0000000000000000
 11
172.2776221451584
 21
320.9855993496470
 31
0.0000000000000000
  0
LINE
  5
102
100
AcDbEntity
  8
MAIN0
  6
PHANTOM
 62
3
100
AcDbLine
 10
173.0276221451567
 20
316.9440306144530
 30
0.0000000000000000
 11
173.0276221451574
 21
318.4440306144530
 31
0.0000000000000000
  0
LINE
  5
103
100
AcDbEntity
  8
MAIN0
  6
PHANTOM
 62
3
100
AcDbLine
 10
171.5276221451567
 20
316.9440306144530
 30
0.0000000000000000
 11
171.5276221451574
 21
318.4440306144530
 31
0.0000000000000000
  0
LINE
  5
104
100
AcDbEntity
  8
MAIN0
  6
PHANTOM
 62
3
100
AcDbLine
 10
171.5276221451574
 20
318.4440306144530
 30
0.0000000000000000
 11
172.2776221451580
 21
319.9440306144530
 31
0.0000000000000000
  0
LINE
  5
105
100
AcDbEntity
  8
MAIN0
  6
PHANTOM
 62
3
100
AcDbLine
 10
172.2776221451580
 20
319.9440306144530
 30
0.0000000000000000
 11
173.0276221451574
 21
318.4440306144530
 31
0.0000000000000000
  0
LINE
  5
106
100
AcDbEntity
  8
MAIN0
  6
PHANTOM
 62
3
100
AcDbLine
 10
173.0276221451567
 20
316.9440306144530
 30
0.0000000000000000
 11
172.2776221451560
 21
315.1946045595552
 31
0.0000000000000000
  0
LINE
  5
107
100
AcDbEntity
  8
MAIN0
  6
PHANTOM
 62
3
100
AcDbLine
 10
172.2776221451560
 20
315.1946045595552
 30
0.0000000000000000
 11
171.5276221451567
 21
316.9440306144530
 31
0.0000000000000000
  0
LINE
  5
108
100
AcDbEntity
  8
MAIN0
  6
PHANTOM
 62
3
100
AcDbLine
 10
193.0276221451574
 20
318.4440306144530
 30
0.0000000000000000
 11
196.5276221451574
 21
318.4440306144530
 31
0.0000000000000000
  0
LINE
  5
109
100
AcDbEntity
  8
MAIN0
  6
PHANTOM
 62
3
100
AcDbLine
 10
188.0276221451574
 20
318.4440306144530
 30
0.0000000000000000
 11
191.5276221451574
 21
318.4440306144530
 31
0.0000000000000000
  0
LINE
  5
10A
100
AcDbEntity
  8
MAIN0
  6
PHANTOM
 62
3
100
AcDbLine
 10
188.0276221451567
 20
316.9440306144530
 30
0.0000000000000000
 11
191.5276221451567
 21
316.9440306144530
 31
0.0000000000000000
  0
LINE
  5
10B
100
AcDbEntity
  8
MAIN0
  6
PHANTOM
 62
3
100
AcDbLine
 10
193.0276221451567
 20
316.9440306144530
 30
0.0000000000000000
 11
196.5276221451567
 21
316.9440306144530
 31
0.0000000000000000
  0
LINE
  5
10C
100
AcDbEntity
  8
MAIN0
  6
PHANTOM
 62
3
100
AcDbLine
 10
183.0276221451567
 20
316.9440306144530
 30
0.0000000000000000
 11
186.5276221451567
 21
316.9440306144530
 31
0.0000000000000000
  0
LINE
  5
10D
100
AcDbEntity
  8
MAIN0
  6
PHANTOM
 62
3
100
AcDbLine
 10
183.0276221451574
 20
318.4440306144530
 30
0.0000000000000000
 11
186.5276221451574
 21
318.4440306144530
 31
0.0000000000000000
  0
LINE
  5
10E
100
AcDbEntity
  8
MAIN0
  6
PHANTOM
 62
3
100
AcDbLine
 10
178.0276221451574
 20
318.4440306144530
 30
0.0000000000000000
 11
181.5276221451574
 21
318.4440306144530
 31
0.0000000000000000
  0
LINE
  5
10F
100
AcDbEntity
  8
MAIN0
  6
PHANTOM
 62
3
100
AcDbLine
 10
178.0276221451567
 20
316.9440306144530
 30
0.0000000000000000
 11
181.5276221451567
 21
316.9440306144530
 31
0.0000000000000000
  0
LINE
  5
110
100
AcDbEntity
  8
MAIN0
  6
PHANTOM
 62
3
100
AcDbLine
 10
166.2776221451568
 20
316.9440306144530
 30
0.0000000000000000
 11
171.5276221451567
 21
316.9440306144530
 31
0.0000000000000000
  0
LINE
  5
111
100
AcDbEntity
  8
MAIN0
  6
PHANTOM
 62
3
100
AcDbLine
 10
173.0276221451567
 20
316.9440306144530
 30
0.0000000000000000
 11
176.5276221451567
 21
316.9440306144530
 31
0.0000000000000000
  0
LINE
  5
112
100
AcDbEntity
  8
MAIN0
  6
PHANTOM
 62
3
100
AcDbLine
 10
166.2776221451574
 20
318.4440306144530
 30
0.0000000000000000
 11
171.5276221451574
 21
318.4440306144530
 31
0.0000000000000000
  0
LINE
  5
113
100
AcDbEntity
  8
MAIN0
  6
PHANTOM
 62
3
100
AcDbLine
 10
173.0276221451574
 20
318.4440306144530
 30
0.0000000000000000
 11
176.5276221451574
 21
318.4440306144530
 31
0.0000000000000000
  0
LINE
  5
114
100
AcDbEntity
  8
MAIN0
  6
CONTINUOUS
 62
3
100
AcDbLine
 10
127.7776221451842
 20
291.1940306144636
 30
0.0000000000000000
 11
127.7776221451842
 21
344.1940306144425
 31
0.0000000000000000
  0
LINE
  5
115
100
AcDbEntity
  8
MAIN0
  6
CENTER
 62
3
100
AcDbLine
 10
118.0076129461394
 20
375.1940306144530
 30
0.0000000000000000
 11
147.8805683161670
 21
375.1940306144530
 31
0.0000000000000000
  0
LINE
  5
116
100
AcDbEntity
  8
MAIN0
  6
CENTER
 62
3
100
AcDbLine
 10
107.3368824587821
 20
374.1940306144530
 30
0.0000000000000000
 11
184.9297918034053
 21
374.1940306144530
 31
0.0000000000000000
  0
LINE
  5
117
100
AcDbEntity
  8
MAIN0
  6
HIDDEN
 62
3
100
AcDbLine
 10
182.2776221451842
 20
381.6940306144603
 30
0.0000000000000000
 11
181.2776221451842
 21
382.6940306144597
 31
0.0000000000000000
  0
LINE
  5
118
100
AcDbEntity
  8
MAIN0
  6
CONTINUOUS
 62
3
100
AcDbLine
 10
182.2776221451842
 20
253.6940306144530
 30
0.0000000000000000
 11
182.2776221451842
 21
333.6930687197905
 31
0.0000000000000000
  0
LINE
  5
119
100
AcDbEntity
  8
MAIN0
  6
HIDDEN
 62
3
100
AcDbLine
 10
182.2776221451842
 20
333.6930687197905
 30
0.0000000000000000
 11
182.2776221451842
 21
381.6940306144603
 31
0.0000000000000000
  0
LINE
  5
11A
100
AcDbEntity
  8
MAIN0
  6
CENTER
 62
3
100
AcDbLine
 10
342.2776221451842
 20
245.7021578145440
 30
0.0000000000000000
 11
342.2776221451842
 21
395.4788801710619
 31
0.0000000000000000
  0
CIRCLE
  5
11B
100
AcDbEntity
  8
MAIN0
  6
HIDDEN
 62
3
100
AcDbCircle
 10
342.2776221451842
 20
317.6940306144530
 30
0.0000000000000000
 40
50.00000000000000
  0
CIRCLE
  5
11C
100
AcDbEntity
  8
MAIN0
  6
HIDDEN
 62
3
100
AcDbCircle
 10
342.2776221451842
 20
317.6940306144530
 30
0.0000000000000000
 40
51.00000000000000
  0
CIRCLE
  5
11D
100
AcDbEntity
  8
MAIN0
  6
HIDDEN
 62
3
100
AcDbCircle
 10
342.2776221451842
 20
317.6940306144530
 30
0.0000000000000000
 40
25.75000000000000
  0
LINE
  5
11E
100
AcDbEntity
  8
MAIN0
  6
CONTINUOUS
 62
3
100
AcDbLine
 10
350.2776221451842
 20
331.5504370750040
 30
0.0000000000000000
 11
350.2776221451842
 21
382.1998443059336
 31
0.0000000000000000
  0
LINE
  5
11F
100
AcDbEntity
  8
MAIN0
  6
CONTINUOUS
 62
3
100
AcDbLine
 10
334.2776221451842
 20
331.5504370750040
 30
0.0000000000000000
 11
334.2776221451842
 21
382.1998443059336
 31
0.0000000000000000
  0
LINE
  5
120
100
AcDbEntity
  8
MAIN0
  6
CONTINUOUS
 62
3
100
AcDbLine
 10
334.2776221452223
 20
336.8610583327676
 30
0.0000000000000000
 11
334.2776221451846
 21
382.1940306144483
 31
0.0000000000000000
  0
LINE
  5
121
100
AcDbEntity
  8
MAIN0
  6
CONTINUOUS
 62
3
100
AcDbLine
 10
350.2776221452223
 20
336.8610583322959
 30
0.0000000000000000
 11
350.2776221451845
 21
382.1940306144577
 31
0.0000000000000000
  0
LINE
  5
122
100
AcDbEntity
  8
MAIN0
  6
CONTINUOUS
 62
3
100
AcDbLine
 10
349.7776221451842
 20
382.6940306144575
 30
0.0000000000000000
 11
334.7776221451842
 21
382.6940306144486
 31
0.0000000000000000
  0
LINE
  5
123
100
AcDbEntity
  8
MAIN0
  6
CONTINUOUS
 62
3
100
AcDbLine
 10
334.2776221451846
 20
382.1940306144483
 30
0.0000000000000000
 11
334.7776221451842
 21
382.6940306144486
 31
0.0000000000000000
  0
LINE
  5
124
100
AcDbEntity
  8
MAIN0
  6
CONTINUOUS
 62
3
100
AcDbLine
 10
349.7776221451842
 20
382.6940306144575
 30
0.0000000000000000
 11
350.2776221451846
 21
382.1940306144577
 31
0.0000000000000000
  0
ARC
  5
125
100
AcDbEntity
  8
MAIN0
  6
CONTINUOUS
 62
3
100
AcDbCircle
 10
342.2776221451842
 20
317.6940306144530
 30
0.0000000000000000
 40
15.00000000000000
100
AcDbArc
 50
87.13401601724210
 51
92.86598398243984
  0
LINE
  5
126
100
AcDbEntity
  8
MAIN0
  6
CONTINUOUS
 62
3
100
AcDbLine
 10
343.0276221452257
 20
332.6752688806812
 30
0.0000000000000000
 11
350.2776221452224
 21
336.8610583322959
 31
0.0000000000000000
  0
LINE
  5
127
100
AcDbEntity
  8
MAIN0
  6
CONTINUOUS
 62
3
100
AcDbLine
 10
334.2776221452224
 20
336.8610583327676
 30
0.0000000000000000
 11
341.5276221452259
 21
332.6752688811350
 31
0.0000000000000000
  0
ARC
  5
128
100
AcDbEntity
  8
MAIN0
  6
CONTINUOUS
 62
3
100
AcDbCircle
 10
342.2776221451842
 20
317.6940306144530
 30
0.0000000000000000
 40
30.00000000000000
100
AcDbArc
 50
74.53399004652003
 51
105.4660099533611
  0
ARC
  5
129
100
AcDbEntity
  8
MAIN0
  6
CONTINUOUS
 62
3
100
AcDbCircle
 10
342.2776221451842
 20
317.6940306144530
 30
0.0000000000000000
 40
31.50000000000000
100
AcDbArc
 50
75.28754203904617
 51
104.7124579608459
  0
ARC
  5
12A
100
AcDbEntity
  8
MAIN0
  6
CONTINUOUS
 62
3
100
AcDbCircle
 10
342.2776221451842
 20
317.6940306144530
 30
0.0000000000000000
 40
45.00000000000000
100
AcDbArc
 50
79.75965167879153
 51
100.2403483211640
  0
ARC
  5
12B
100
AcDbEntity
  8
MAIN0
  6
CONTINUOUS
 62
3
100
AcDbCircle
 10
342.2776221451842
 20
317.6940306144530
 30
0.0000000000000000
 40
46.50000000000000
100
AcDbArc
 50
80.09337468940734
 51
99.90662531055278
  0
ARC
  5
12C
100
AcDbEntity
  8
MAIN0
  6
CONTINUOUS
 62
3
100
AcDbCircle
 10
342.2776221451842
 20
317.6940306144530
 30
0.0000000000000000
 40
57.00000000000000
100
AcDbArc
 50
81.93184949994044
 51
98.06815050004512
  0
LINE
  5
12D
100
AcDbEntity
  8
MAIN0
  6
CONTINUOUS
 62
3
100
AcDbLine
 10
326.2776221451842
 20
317.6940306144530
 30
0.0000000000000000
 11
282.4139487965759
 21
292.3693269989882
 31
0.0000000000000000
  0
LINE
  5
12E
100
AcDbEntity
  8
MAIN0
  6
CONTINUOUS
 62
3
100
AcDbLine
 10
334.2776221451842
 20
303.8376241539020
 30
0.0000000000000000
 11
290.4139487965759
 21
278.5129205384372
 31
0.0000000000000000
  0
LINE
  5
12F
100
AcDbEntity
  8
MAIN0
  6
CONTINUOUS
 62
3
100
AcDbLine
 10
329.6784892260642
 20
301.1823135250533
 30
0.0000000000000000
 11
290.4189836010917
 21
278.5158273841802
 31
0.0000000000000000
  0
LINE
  5
130
100
AcDbEntity
  8
MAIN0
  6
CONTINUOUS
 62
3
100
AcDbLine
 10
321.6784892264727
 20
315.0387199858401
 30
0.0000000000000000
 11
282.4189836010836
 21
292.3722338447266
 31
0.0000000000000000
  0
LINE
  5
131
100
AcDbEntity
  8
MAIN0
  6
CONTINUOUS
 62
3
100
AcDbLine
 10
282.2359708991919
 20
291.6892211428342
 30
0.0000000000000000
 11
289.7359708991995
 21
278.6988400860720
 31
0.0000000000000000
  0
LINE
  5
132
100
AcDbEntity
  8
MAIN0
  6
CONTINUOUS
 62
3
100
AcDbLine
 10
290.4189836010918
 20
278.5158273841803
 30
0.0000000000000000
 11
289.7359708991995
 21
278.6988400860720
 31
0.0000000000000000
  0
LINE
  5
133
100
AcDbEntity
  8
MAIN0
  6
CONTINUOUS
 62
3
100
AcDbLine
 10
282.2359708991918
 20
291.6892211428342
 30
0.0000000000000000
 11
282.4189836010836
 21
292.3722338447267
 31
0.0000000000000000
  0
ARC
  5
134
100
AcDbEntity
  8
MAIN0
  6
CONTINUOUS
 62
3
100
AcDbCircle
 10
342.2776221451842
 20
317.6940306144531
 30
0.0000000000000000
 40
15.00000000000000
100
AcDbArc
 50
207.1340160172421
 51
212.8659839824398
  0
LINE
  5
135
100
AcDbEntity
  8
MAIN0
  6
CONTINUOUS
 62
3
100
AcDbLine
 10
328.9284892264624
 20
310.8529305342132
 30
0.0000000000000000
 11
321.6784892264727
 21
315.0387199858402
 31
0.0000000000000000
  0
LINE
  5
136
100
AcDbEntity
  8
MAIN0
  6
CONTINUOUS
 62
3
100
AcDbLine
 10
329.6784892260641
 20
301.1823135250533
 30
0.0000000000000000
 11
329.6784892260691
 21
309.5538924283099
 31
0.0000000000000000
  0
ARC
  5
137
100
AcDbEntity
  8
MAIN0
  6
CONTINUOUS
 62
3
100
AcDbCircle
 10
342.2776221451842
 20
317.6940306144531
 30
0.0000000000000000
 40
30.00000000000000
100
AcDbArc
 50
194.5339900465200
 51
225.4660099533611
  0
ARC
  5
138
100
AcDbEntity
  8
MAIN0
  6
CONTINUOUS
 62
3
100
AcDbCircle
 10
342.2776221451842
 20
317.6940306144531
 30
0.0000000000000000
 40
31.50000000000000
100
AcDbArc
 50
195.2875420390462
 51
224.7124579608459
  0
ARC
  5
139
100
AcDbEntity
  8
MAIN0
  6
CONTINUOUS
 62
3
100
AcDbCircle
 10
342.2776221451842
 20
317.6940306144531
 30
0.0000000000000000
 40
45.00000000000000
100
AcDbArc
 50
199.7596516787915
 51
220.2403483211639
  0
ARC
  5
13A
100
AcDbEntity
  8
MAIN0
  6
CONTINUOUS
 62
3
100
AcDbCircle
 10
342.2776221451842
 20
317.6940306144531
 30
0.0000000000000000
 40
46.50000000000000
100
AcDbArc
 50
200.0933746894073
 51
219.9066253105528
  0
ARC
  5
13B
100
AcDbEntity
  8
MAIN0
  6
CONTINUOUS
 62
3
100
AcDbCircle
 10
342.2776221451842
 20
317.6940306144531
 30
0.0000000000000000
 40
57.00000000000000
100
AcDbArc
 50
201.9318494999404
 51
218.0681505000451
  0
LINE
  5
13C
100
AcDbEntity
  8
MAIN0
  6
CONTINUOUS
 62
3
100
AcDbLine
 10
350.2776221451841
 20
303.8376241539020
 30
0.0000000000000000
 11
394.1412954937924
 21
278.5129205384372
 31
0.0000000000000000
  0
LINE
  5
13D
100
AcDbEntity
  8
MAIN0
  6
CONTINUOUS
 62
3
100
AcDbLine
 10
358.2776221451841
 20
317.6940306144530
 30
0.0000000000000000
 11
402.1412954937924
 21
292.3693269989882
 31
0.0000000000000000
  0
LINE
  5
13E
100
AcDbEntity
  8
MAIN0
  6
CONTINUOUS
 62
3
100
AcDbLine
 10
362.8767550642660
 20
315.0387199855382
 30
0.0000000000000000
 11
402.1362606892761
 21
292.3722338447305
 31
0.0000000000000000
  0
LINE
  5
13F
100
AcDbEntity
  8
MAIN0
  6
CONTINUOUS
 62
3
100
AcDbLine
 10
354.8767550638576
 20
301.1823135252231
 30
0.0000000000000000
 11
394.1362606892843
 21
278.5158273841748
 31
0.0000000000000000
  0
LINE
  5
140
100
AcDbEntity
  8
MAIN0
  6
CONTINUOUS
 62
3
100
AcDbLine
 10
394.8192733911765
 20
278.6988400860675
 30
0.0000000000000000
 11
402.3192733911689
 21
291.6892211428385
 31
0.0000000000000000
  0
LINE
  5
141
100
AcDbEntity
  8
MAIN0
  6
CONTINUOUS
 62
3
100
AcDbLine
 10
402.1362606892761
 20
292.3722338447305
 30
0.0000000000000000
 11
402.3192733911689
 21
291.6892211428385
 31
0.0000000000000000
  0
LINE
  5
142
100
AcDbEntity
  8
MAIN0
  6
CONTINUOUS
 62
3
100
AcDbLine
 10
394.8192733911765
 20
278.6988400860675
 30
0.0000000000000000
 11
394.1362606892842
 21
278.5158273841747
 31
0.0000000000000000
  0
ARC
  5
143
100
AcDbEntity
  8
MAIN0
  6
CONTINUOUS
 62
3
100
AcDbCircle
 10
342.2776221451841
 20
317.6940306144530
 30
0.0000000000000000
 40
15.00000000000000
100
AcDbArc
 50
327.1340160172422
 51
332.8659839824397
  0
LINE
  5
144
100
AcDbEntity
  8
MAIN0
  6
CONTINUOUS
 62
3
100
AcDbLine
 10
354.8767550638645
 20
309.5538924284648
 30
0.0000000000000000
 11
354.8767550638574
 21
301.1823135252230
 31
0.0000000000000000
  0
LINE
  5
145
100
AcDbEntity
  8
MAIN0
  6
CONTINUOUS
 62
3
100
AcDbLine
 10
362.8767550642660
 20
315.0387199855381
 30
0.0000000000000000
 11
355.6267550642574
 21
310.8529305339142
 31
0.0000000000000000
  0
ARC
  5
146
100
AcDbEntity
  8
MAIN0
  6
CONTINUOUS
 62
3
100
AcDbCircle
 10
342.2776221451841
 20
317.6940306144530
 30
0.0000000000000000
 40
30.00000000000000
100
AcDbArc
 50
314.5339900465201
 51
345.4660099533610
  0
ARC
  5
147
100
AcDbEntity
  8
MAIN0
  6
CONTINUOUS
 62
3
100
AcDbCircle
 10
342.2776221451841
 20
317.6940306144530
 30
0.0000000000000000
 40
31.50000000000000
100
AcDbArc
 50
315.2875420390462
 51
344.7124579608458
  0
ARC
  5
148
100
AcDbEntity
  8
MAIN0
  6
CONTINUOUS
 62
3
100
AcDbCircle
 10
342.2776221451841
 20
317.6940306144530
 30
0.0000000000000000
 40
45.00000000000000
100
AcDbArc
 50
319.7596516787915
 51
340.2403483211639
  0
ARC
  5
149
100
AcDbEntity
  8
MAIN0
  6
CONTINUOUS
 62
3
100
AcDbCircle
 10
342.2776221451841
 20
317.6940306144530
 30
0.0000000000000000
 40
46.50000000000000
100
AcDbArc
 50
320.0933746894073
 51
339.9066253105528
  0
ARC
  5
14A
100
AcDbEntity
  8
MAIN0
  6
CONTINUOUS
 62
3
100
AcDbCircle
 10
342.2776221451841
 20
317.6940306144530
 30
0.0000000000000000
 40
57.00000000000000
100
AcDbArc
 50
321.9318494999404
 51
338.0681505000451
  0
ARC
  5
14B
100
AcDbEntity
  8
MAIN0
  6
CONTINUOUS
 62
3
100
AcDbCircle
 10
342.2776221451842
 20
317.6940306144530
 30
0.0000000000000000
 40
16.00000000000000
100
AcDbArc
 50
98.05254518926789
 51
201.9474548081921
  0
ARC
  5
14C
100
AcDbEntity
  8
MAIN0
  6
CONTINUOUS
 62
3
100
AcDbCircle
 10
342.2776221451842
 20
317.6940306144530
 30
0.0000000000000000
 40
16.00000000000000
100
AcDbArc
 50
218.0525451892679
 51
321.9474548081922
  0
ARC
  5
14D
100
AcDbEntity
  8
MAIN0
  6
CONTINUOUS
 62
3
100
AcDbCircle
 10
342.2776221451842
 20
317.6940306144530
 30
0.0000000000000000
 40
16.00000000000000
100
AcDbArc
 50
338.0525451892680
 51
441.9474548081925
  0
ARC
  5
14E
100
AcDbEntity
  8
MAIN0
  6
CONTINUOUS
 62
3
100
AcDbCircle
 10
342.2776221451842
 20
317.6940306144530
 30
0.0000000000000000
 40
65.00000000000000
100
AcDbArc
 50
337.0697140423030
 51
442.9302859576962
  0
ARC
  5
14F
100
AcDbEntity
  8
MAIN0
  6
CONTINUOUS
 62
3
100
AcDbCircle
 10
342.2776221451842
 20
317.6940306144530
 30
0.0000000000000000
 40
65.00000000000000
100
AcDbArc
 50
97.06971404230301
 51
202.9302859576963
  0
ARC
  5
150
100
AcDbEntity
  8
MAIN0
  6
CONTINUOUS
 62
3
100
AcDbCircle
 10
342.2776221451842
 20
317.6940306144530
 30
0.0000000000000000
 40
65.00000000000000
100
AcDbArc
 50
217.0697140423030
 51
322.9302859576966
  0
LINE
  5
151
100
AcDbEntity
  8
MAIN0
  6
CENTER
 62
3
100
AcDbLine
 10
281.2770067756033
 20
352.9127523184707
 30
0.0000000000000000
 11
402.5727221616003
 21
282.8826383887903
 31
0.0000000000000000
  0
LINE
  5
152
100
AcDbEntity
  8
MAIN0
  6
CENTER
 62
3
100
AcDbLine
 10
281.6102884889958
 20
282.6677291971400
 30
0.0000000000000000
 11
401.8115663487727
 21
352.0659693267047
 31
0.0000000000000000
  0
LINE
  5
153
100
AcDbEntity
  8
MAIN0
  6
HIDDEN
 62
3
100
AcDbLine
 10
357.0155984652171
 20
329.6671068263405
 30
0.0000000000000000
 11
362.5396828838181
 21
332.8564384524460
 31
0.0000000000000000
  0
LINE
  5
154
100
AcDbEntity
  8
MAIN0
  6
HIDDEN
 62
3
100
AcDbLine
 10
362.5396828838181
 20
332.8564384524460
 30
0.0000000000000000
 11
362.6860930453319
 21
333.4028486139598
 31
0.0000000000000000
  0
LINE
  5
155
100
AcDbEntity
  8
MAIN0
  6
HIDDEN
 62
3
100
AcDbLine
 10
360.0155984652171
 20
324.4709544036339
 30
0.0000000000000000
 11
357.0155984652171
 21
329.6671068263405
 31
0.0000000000000000
  0
LINE
  5
156
100
AcDbEntity
  8
MAIN0
  6
HIDDEN
 62
3
100
AcDbLine
 10
357.0155984652171
 20
326.2030052112028
 30
0.0000000000000000
 11
357.0155984652171
 21
329.6671068263406
 31
0.0000000000000000
  0
LINE
  5
157
100
AcDbEntity
  8
MAIN0
  6
HIDDEN
 62
3
100
AcDbLine
 10
360.0155984652171
 20
324.4709544036339
 30
0.0000000000000000
 11
357.0155984652171
 21
326.2030052112028
 31
0.0000000000000000
  0
LINE
  5
158
100
AcDbEntity
  8
MAIN0
  6
HIDDEN
 62
3
100
AcDbLine
 10
365.5396828838179
 20
327.6602860297393
 30
0.0000000000000000
 11
360.0155984652171
 21
324.4709544036339
 31
0.0000000000000000
  0
LINE
  5
159
100
AcDbEntity
  8
MAIN0
  6
HIDDEN
 62
3
100
AcDbLine
 10
366.0860930453318
 20
327.5138758682256
 30
0.0000000000000000
 11
365.5396828838181
 21
327.6602860297393
 31
0.0000000000000000
  0
LINE
  5
15A
100
AcDbEntity
  8
MAIN0
  6
HIDDEN
 62
3
100
AcDbLine
 10
324.5396458233006
 20
324.4709544025656
 30
0.0000000000000000
 11
319.0155614046997
 21
327.6602860286710
 31
0.0000000000000000
  0
LINE
  5
15B
100
AcDbEntity
  8
MAIN0
  6
HIDDEN
 62
3
100
AcDbLine
 10
319.0155614046998
 20
327.6602860286710
 30
0.0000000000000000
 11
318.4691512431861
 21
327.5138758671573
 31
0.0000000000000000
  0
LINE
  5
15C
100
AcDbEntity
  8
MAIN0
  6
HIDDEN
 62
3
100
AcDbLine
 10
327.5396458233007
 20
329.6671068252722
 30
0.0000000000000000
 11
324.5396458233006
 21
324.4709544025656
 31
0.0000000000000000
  0
LINE
  5
15D
100
AcDbEntity
  8
MAIN0
  6
HIDDEN
 62
3
100
AcDbLine
 10
327.5396458233006
 20
326.2030052101344
 30
0.0000000000000000
 11
324.5396458233006
 21
324.4709544025655
 31
0.0000000000000000
  0
LINE
  5
15E
100
AcDbEntity
  8
MAIN0
  6
HIDDEN
 62
3
100
AcDbLine
 10
327.5396458233007
 20
329.6671068252721
 30
0.0000000000000000
 11
327.5396458233007
 21
326.2030052101343
 31
0.0000000000000000
  0
LINE
  5
15F
100
AcDbEntity
  8
MAIN0
  6
HIDDEN
 62
3
100
AcDbLine
 10
322.0155614046998
 20
332.8564384513776
 30
0.0000000000000000
 11
327.5396458233007
 21
329.6671068252722
 31
0.0000000000000000
  0
LINE
  5
160
100
AcDbEntity
  8
MAIN0
  6
HIDDEN
 62
3
100
AcDbLine
 10
321.8691512431860
 20
333.4028486128914
 30
0.0000000000000000
 11
322.0155614046997
 21
332.8564384513776
 31
0.0000000000000000
  0
ARC
  5
161
100
AcDbEntity
  8
MAIN0
  6
CENTER
 62
3
100
AcDbCircle
 10
342.2776221451842
 20
317.6940306147013
 30
0.0000000000000000
 40
24.25000000000000
100
AcDbArc
 50
248.0120645986683
 51
291.4937746325557
  0
CIRCLE
  5
162
100
AcDbEntity
  8
MAIN0
  6
CONTINUOUS
 62
3
100
AcDbCircle
 10
342.2776221451842
 20
293.4440306147013
 30
0.0000000000000000
 40
1.732050000000000
  0
CIRCLE
  5
163
100
AcDbEntity
  8
MAIN0
  6
CONTINUOUS
 62
3
100
AcDbCircle
 10
342.2776221451842
 20
293.4440306147013
 30
0.0000000000000000
 40
4.500000000000000
  0
ARC
  5
164
100
AcDbEntity
  8
MAIN0
  6
CENTER
 62
3
100
AcDbCircle
 10
342.2776221450297
 20
317.6940306141862
 30
0.0000000000000000
 40
21.50000000000000
100
AcDbArc
 50
226.3088864707835
 51
252.0803649183020
  0
ARC
  5
165
100
AcDbEntity
  8
MAIN0
  6
CENTER
 62
3
100
AcDbCircle
 10
342.2776221450297
 20
317.6940306141862
 30
0.0000000000000000
 40
21.50000000000000
100
AcDbArc
 50
346.5668322608034
 51
375.3668102123107
  0
ARC
  5
166
100
AcDbEntity
  8
MAIN0
  6
CENTER
 62
3
100
AcDbCircle
 10
342.2776221450297
 20
317.6940306141862
 30
0.0000000000000000
 40
21.50000000000000
100
AcDbArc
 50
107.0024927350516
 51
135.7980733061514
  0
LINE
  5
167
100
AcDbEntity
  8
MAIN0
  6
CENTER
 62
3
100
AcDbLine
 10
278.3061838675717
 20
342.5036020711548
 30
0.0000000000000000
 11
297.3431992084880
 21
331.5125761395055
 31
0.0000000000000000
  0
LINE
  5
168
100
AcDbEntity
  8
MAIN0
  6
HIDDEN
 62
3
100
AcDbLine
 10
280.9535767398533
 20
339.2430782761227
 30
0.0000000000000000
 11
293.3503580813344
 21
332.0857932315308
 31
0.0000000000000000
  0
LINE
  5
169
100
AcDbEntity
  8
MAIN0
  6
HIDDEN
 62
3
100
AcDbLine
 10
292.9535767397563
 20
360.0276879670052
 30
0.0000000000000000
 11
305.3503580812085
 21
352.8704029224301
 31
0.0000000000000000
  0
LINE
  5
16A
100
AcDbEntity
  8
MAIN0
  6
HIDDEN
 62
3
100
AcDbLine
 10
285.0743429357401
 20
339.5197640419314
 30
0.0000000000000000
 11
291.8625680351303
 21
335.6005804534772
 31
0.0000000000000000
  0
LINE
  5
16B
100
AcDbEntity
  8
MAIN0
  6
HIDDEN
 62
3
100
AcDbLine
 10
284.2743429357400
 20
338.1341233958765
 30
0.0000000000000000
 11
291.0625680351302
 21
334.2149398074223
 31
0.0000000000000000
  0
LINE
  5
16C
100
AcDbEntity
  8
MAIN0
  6
HIDDEN
 62
3
100
AcDbLine
 10
330.2776221456971
 20
253.8113256000318
 30
0.0000000000000000
 11
330.2776221456994
 21
268.1258956891779
 31
0.0000000000000000
  0
CIRCLE
  5
16D
100
AcDbEntity
  8
MAIN0
  6
HIDDEN
 62
3
100
AcDbCircle
 10
352.7776221456983
 20
261.1608545143865
 30
0.0000000000000000
 40
4.000000000000000
  0
CIRCLE
  5
16E
100
AcDbEntity
  8
MAIN0
  6
HIDDEN
 62
3
100
AcDbCircle
 10
352.7776221456983
 20
261.1608545143865
 30
0.0000000000000000
 40
3.400000000000000
  0
LINE
  5
16F
100
AcDbEntity
  8
MAIN0
  6
HIDDEN
 62
3
100
AcDbLine
 10
351.9776221456976
 20
257.2416709259336
 30
0.0000000000000000
 11
351.9776221456989
 21
265.0800381028398
 31
0.0000000000000000
  0
LINE
  5
170
100
AcDbEntity
  8
MAIN0
  6
CENTER
 62
3
100
AcDbLine
 10
352.7776221456965
 20
249.8883542214340
 30
0.0000000000000000
 11
352.7776221457001
 21
271.8704060847263
 31
0.0000000000000000
  0
LINE
  5
171
100
AcDbEntity
  8
MAIN0
  6
HIDDEN
 62
3
100
AcDbLine
 10
353.5776221456977
 20
257.2416709259333
 30
0.0000000000000000
 11
353.5776221456989
 21
265.0800381028395
 31
0.0000000000000000
  0
LINE
  5
172
100
AcDbEntity
  8
MAIN0
  6
HIDDEN
 62
3
100
AcDbLine
 10
354.2776221456971
 20
253.8113256001437
 30
0.0000000000000000
 11
354.2776221456994
 21
268.1258956893232
 31
0.0000000000000000
  0
LINE
  5
173
100
AcDbEntity
  8
MAIN0
  6
HIDDEN
 62
3
100
AcDbLine
 10
403.6016675490522
 20
339.2430782770670
 30
0.0000000000000000
 11
391.2048862075976
 21
332.0857932324960
 31
0.0000000000000000
  0
CIRCLE
  5
174
100
AcDbEntity
  8
MAIN0
  6
HIDDEN
 62
3
100
AcDbCircle
 10
385.9867888033721
 20
355.0538854050406
 30
0.0000000000000000
 40
4.000000000000000
  0
CIRCLE
  5
175
100
AcDbEntity
  8
MAIN0
  6
HIDDEN
 62
3
100
AcDbCircle
 10
385.9867888033721
 20
355.0538854050406
 30
0.0000000000000000
 40
3.400000000000000
  0
LINE
  5
176
100
AcDbEntity
  8
MAIN0
  6
HIDDEN
 62
3
100
AcDbLine
 10
389.7809013530676
 20
356.3206568762390
 30
0.0000000000000000
 11
382.9926762536761
 21
352.4014732877870
 31
0.0000000000000000
  0
LINE
  5
177
100
AcDbEntity
  8
MAIN0
  6
CENTER
 62
3
100
AcDbLine
 10
395.7490604212374
 20
360.6901355515152
 30
0.0000000000000000
 11
376.7120450803174
 21
349.6991096198722
 31
0.0000000000000000
  0
LINE
  5
178
100
AcDbEntity
  8
MAIN0
  6
HIDDEN
 62
3
100
AcDbLine
 10
388.9809013530679
 20
357.7062975222942
 30
0.0000000000000000
 11
382.1926762536764
 21
353.7871139338422
 31
0.0000000000000000
  0
LINE
  5
179
100
AcDbEntity
  8
MAIN0
  6
HIDDEN
 62
3
100
AcDbLine
 10
391.6016675489552
 20
360.0276879678376
 30
0.0000000000000000
 11
379.2048862074717
 21
352.8704029232499
 31
0.0000000000000000
  0
LINE
  5
17A
100
AcDbEntity
  8
MAIN0
  6
CENTER
 62
3
100
AcDbLine
 10
310.7096227849744
 20
372.3714093993777
 30
0.0000000000000000
 11
316.4482302127340
 21
362.4318497697562
 31
0.0000000000000000
  0
LINE
  5
17B
100
AcDbEntity
  8
MAIN0
  6
CENTER
 62
3
100
AcDbLine
 10
329.2587260643645
 20
340.2434200844706
 30
0.0000000000000000
 11
334.5680397763385
 21
331.0474189819632
 31
0.0000000000000000
  0
LINE
  5
17C
100
AcDbEntity
  8
MAIN0
  6
CENTER
 62
3
100
AcDbLine
 10
358.5945585225146
 20
317.6940306144530
 30
0.0000000000000000
 11
368.4322842628167
 21
317.6940306144530
 31
0.0000000000000000
  0
LINE
  5
17D
100
AcDbEntity
  8
MAIN0
  6
CENTER
 62
3
100
AcDbLine
 10
394.2289744412019
 20
317.6940306144530
 30
0.0000000000000000
 11
406.3482236194697
 21
317.6940306144530
 31
0.0000000000000000
  0
LINE
  5
17E
100
AcDbEntity
  8
MAIN0
  6
CENTER
 62
3
100
AcDbLine
 10
310.8230713149394
 20
263.2131504486333
 30
0.0000000000000000
 11
316.1961581967447
 21
272.5196099213518
 31
0.0000000000000000
  0
LINE
  5
17F
100
AcDbEntity
  8
MAIN0
  6
CENTER
 62
3
100
AcDbLine
 10
328.9834617336592
 20
294.6678693389735
 30
0.0000000000000000
 11
334.5937725942887
 21
304.3852127957869
 31
0.0000000000000000
  0
ARC
  5
180
100
AcDbEntity
  8
MAIN0
  6
CENTER
 62
3
100
AcDbCircle
 10
342.2776221451842
 20
317.6940306147013
 30
0.0000000000000000
 40
57.50000000000000
100
AcDbArc
 50
33.97855373355379
 51
49.12872978785147
  0
ARC
  5
181
100
AcDbEntity
  8
MAIN0
  6
CENTER
 62
3
100
AcDbCircle
 10
342.2776221451842
 20
317.6940306147013
 30
0.0000000000000000
 40
57.50000000000000
100
AcDbArc
 50
353.7168131888178
 51
366.7106239504746
  0
ARC
  5
182
100
AcDbEntity
  8
MAIN0
  6
CENTER
 62
3
100
AcDbCircle
 10
342.2776221451842
 20
317.6940306147013
 30
0.0000000000000000
 40
57.50000000000000
100
AcDbArc
 50
274.3686149054850
 51
287.0532130089084
  0
ARC
  5
183
100
AcDbEntity
  8
MAIN0
  6
CENTER
 62
3
100
AcDbCircle
 10
342.2776221451842
 20
317.6940306147013
 30
0.0000000000000000
 40
57.50000000000000
100
AcDbArc
 50
234.7649183668820
 51
245.8058268609918
  0
ARC
  5
184
100
AcDbEntity
  8
MAIN0
  6
CENTER
 62
3
100
AcDbCircle
 10
342.2776221451842
 20
317.6940306147013
 30
0.0000000000000000
 40
57.50000000000000
100
AcDbArc
 50
112.9835186135952
 51
126.3119599933189
  0
ARC
  5
185
100
AcDbEntity
  8
MAIN0
  6
CENTER
 62
3
100
AcDbCircle
 10
342.2776221451842
 20
317.6940306147013
 30
0.0000000000000000
 40
57.50000000000000
100
AcDbArc
 50
154.2851981709782
 51
167.9501659853160
  0
LINE
  5
186
100
AcDbEntity
  8
MAIN0
  6
CENTER
 62
3
100
AcDbLine
 10
359.6827336597941
 20
360.7731933063177
 30
0.0000000000000000
 11
367.0506210398626
 21
379.0093544981082
 31
0.0000000000000000
  0
ARC
  5
187
100
AcDbEntity
  8
MAIN0
  6
CENTER
 62
3
100
AcDbCircle
 10
342.2776221451842
 20
317.6940306140969
 30
0.0000000000000000
 40
56.50000000000000
100
AcDbArc
 50
58.00093714523191
 51
76.88466808037504
  0
LINE
  5
188
100
AcDbEntity
  8
MAIN0
  6
CENTER
 62
3
100
AcDbLine
 10
296.2674171231768
 20
311.2277179962464
 30
0.0000000000000000
 11
276.7904945735440
 21
308.4904150437133
 31
0.0000000000000000
  0
ARC
  5
189
100
AcDbEntity
  8
MAIN0
  6
CENTER
 62
3
100
AcDbCircle
 10
342.2776221457077
 20
317.6940306150036
 30
0.0000000000000000
 40
56.50000000000000
100
AcDbArc
 50
178.0009371452319
 51
196.8846680803750
  0
LINE
  5
18A
100
AcDbEntity
  8
MAIN0
  6
CENTER
 62
3
100
AcDbLine
 10
370.8827156515348
 20
281.0811805415400
 30
0.0000000000000000
 11
382.9917508210990
 21
265.5823223022827
 31
0.0000000000000000
  0
ARC
  5
18B
100
AcDbEntity
  8
MAIN0
  6
CENTER
 62
3
100
AcDbCircle
 10
342.2776221436137
 20
317.6940306150036
 30
0.0000000000000000
 40
56.50000000000000
100
AcDbArc
 50
298.0009371452319
 51
316.8846680803750
  0
LINE
  5
18C
100
AcDbEntity
  8
MAIN0
  6
CENTER
 62
3
100
AcDbLine
 10
136.9197772741713
 20
219.7566213574024
 30
0.0000000000000000
 11
152.8047854260986
 21
219.7566213574024
 31
0.0000000000000000
  0
LINE
  5
18D
100
AcDbEntity
  8
MAIN0
  6
CONTINUOUS
 62
3
100
AcDbLine
 10
139.5997415657639
 20
220.2355804573145
 30
0.0000000000000000
 11
144.2986776154835
 21
224.9345165070369
 31
0.0000000000000000
  0
LINE
  5
18E
100
AcDbEntity
  8
MAIN0
  6
CONTINUOUS
 62
3
100
AcDbLine
 10
145.2565958151907
 20
214.5787262077566
 30
0.0000000000000000
 11
149.9555318650448
 21
219.2776622576133
 31
0.0000000000000000
  0
LINE
  5
18F
100
AcDbEntity
  8
MAIN0
  6
CONTINUOUS
 62
3
100
AcDbLine
 10
145.2565958153485
 20
224.9345165070337
 30
0.0000000000000000
 11
149.9555318650309
 21
220.2355804573418
 31
0.0000000000000000
  0
LINE
  5
190
100
AcDbEntity
  8
MAIN0
  6
CONTINUOUS
 62
3
100
AcDbLine
 10
139.5997415657492
 20
219.2776622576481
 30
0.0000000000000000
 11
144.2986776156338
 21
214.5787262077540
 31
0.0000000000000000
  0
ARC
  5
191
100
AcDbEntity
  8
MAIN0
  6
CONTINUOUS
 62
3
100
AcDbCircle
 10
144.7776367153986
 20
219.7566213574024
 30
0.0000000000000000
 40
5.200000000000000
100
AcDbArc
 50
84.71513723074357
 51
95.28486276887108
  0
ARC
  5
192
100
AcDbEntity
  8
MAIN0
  6
CONTINUOUS
 62
3
100
AcDbCircle
 10
144.7776367153986
 20
219.7566213574024
 30
0.0000000000000000
 40
5.200000000000000
100
AcDbArc
 50
354.7151372325229
 51
365.2848627691405
  0
ARC
  5
193
100
AcDbEntity
  8
MAIN0
  6
CONTINUOUS
 62
3
100
AcDbCircle
 10
144.7776367153986
 20
219.7566213574024
 30
0.0000000000000000
 40
5.200000000000000
100
AcDbArc
 50
174.7151372311623
 51
185.2848627670920
  0
ARC
  5
194
100
AcDbEntity
  8
MAIN0
  6
CONTINUOUS
 62
3
100
AcDbCircle
 10
144.7776367153986
 20
219.7566213574024
 30
0.0000000000000000
 40
5.200000000000000
100
AcDbArc
 50
264.7151372327921
 51
275.2848627675103
  0
LINE
  5
195
100
AcDbEntity
  8
MAIN0
  6
CENTER
 62
3
100
AcDbLine
 10
118.6685093297764
 20
317.6940306144530
 30
0.0000000000000000
 11
207.6785469558868
 21
317.6940306144530
 31
0.0000000000000000
  0
LINE
  5
196
100
AcDbEntity
  8
MAIN0
  6
CENTER
 62
3
100
AcDbLine
 10
271.0023287550846
 20
317.6940306144530
 30
0.0000000000000000
 11
414.5332936732252
 21
317.6940306144530
 31
0.0000000000000000
  0
ARC
  5
197
100
AcDbEntity
  8
MAIN0
  6
CONTINUOUS
 62
3
100
AcDbCircle
 10
518.3443624001392
 20
377.9770194542111
 30
0.0000000000000000
 40
15.00000000000000
100
AcDbArc
 50
160.5287793653150
 51
199.4712206343037
  0
LINE
  5
198
100
AcDbEntity
  8
MAIN0
  6
CONTINUOUS
 62
3
100
AcDbLine
 10
504.2022267763051
 20
346.9770194542582
 30
0.0000000000000000
 11
504.2022267763915
 21
372.9770194542582
 31
0.0000000000000000
  0
LINE
  5
199
100
AcDbEntity
  8
MAIN0
  6
CONTINUOUS
 62
3
100
AcDbLine
 10
504.2022267764248
 20
382.9770194542582
 30
0.0000000000000000
 11
504.2022267764547
 21
391.9770194542358
 31
0.0000000000000000
  0
ARC
  5
19A
100
AcDbEntity
  8
MAIN0
  6
CONTINUOUS
 62
3
100
AcDbCircle
 10
470.0600911526772
 20
377.9770194543718
 30
0.0000000000000000
 40
15.00000000000000
100
AcDbArc
 50
340.5287793653151
 51
379.4712206343039
  0
LINE
  5
19B
100
AcDbEntity
  8
MAIN0
  6
CONTINUOUS
 62
3
100
AcDbLine
 10
484.2022267763051
 20
346.9770194542552
 30
0.0000000000000000
 11
484.2022267763915
 21
372.9770194542552
 31
0.0000000000000000
  0
LINE
  5
19C
100
AcDbEntity
  8
MAIN0
  6
CONTINUOUS
 62
3
100
AcDbLine
 10
484.2022267764248
 20
382.9770194542552
 30
0.0000000000000000
 11
484.2022267764547
 21
391.9770194542358
 31
0.0000000000000000
  0
LINE
  5
19D
100
AcDbEntity
  8
MAIN0
  6
CONTINUOUS
 62
3
100
AcDbLine
 10
484.2022267763051
 20
346.9770194542552
 30
0.0000000000000000
 11
504.2022267763051
 21
346.9770194542582
 31
0.0000000000000000
  0
LINE
  5
19E
100
AcDbEntity
  8
MAIN0
  6
HIDDEN
 62
3
100
AcDbLine
 10
484.2022267763916
 20
372.9770194542552
 30
0.0000000000000000
 11
504.2022267763916
 21
372.9770194542582
 31
0.0000000000000000
  0
LINE
  5
19F
100
AcDbEntity
  8
MAIN0
  6
HIDDEN
 62
3
100
AcDbLine
 10
484.2022267764249
 20
382.9770194542552
 30
0.0000000000000000
 11
504.2022267764249
 21
382.9770194542582
 31
0.0000000000000000
  0
LINE
  5
1A0
100
AcDbEntity
  8
MAIN0
  6
CONTINUOUS
 62
3
100
AcDbLine
 10
489.7022267762087
 20
317.9770194542560
 30
0.0000000000000000
 11
498.7022267762087
 21
317.9770194542574
 31
0.0000000000000000
  0
LINE
  5
1A1
100
AcDbEntity
  8
MAIN0
  6
CENTER
 62
3
100
AcDbLine
 10
486.3443673349314
 20
302.9611139409439
 30
0.0000000000000000
 11
502.2293754868587
 21
302.9611139409439
 31
0.0000000000000000
  0
LINE
  5
1A2
100
AcDbEntity
  8
MAIN0
  6
CONTINUOUS
 62
3
100
AcDbLine
 10
489.0243316265239
 20
303.4400730408557
 30
0.0000000000000000
 11
493.7232676762789
 21
308.1390090906134
 31
0.0000000000000000
  0
LINE
  5
1A3
100
AcDbEntity
  8
MAIN0
  6
CONTINUOUS
 62
3
100
AcDbLine
 10
494.6811858759827
 20
297.7832187913299
 30
0.0000000000000000
 11
499.3801219257697
 21
302.4821548411197
 31
0.0000000000000000
  0
LINE
  5
1A4
100
AcDbEntity
  8
MAIN0
  6
CONTINUOUS
 62
3
100
AcDbLine
 10
494.6811858760503
 20
308.1390090906333
 30
0.0000000000000000
 11
499.3801219257910
 21
303.4400730408830
 31
0.0000000000000000
  0
LINE
  5
1A5
100
AcDbEntity
  8
MAIN0
  6
CONTINUOUS
 62
3
100
AcDbLine
 10
489.0243316265675
 20
302.4821548411314
 30
0.0000000000000000
 11
493.7232676763510
 21
297.7832187913384
 31
0.0000000000000000
  0
LINE
  5
1A6
100
AcDbEntity
  8
MAIN0
  6
CONTINUOUS
 62
3
100
AcDbLine
 10
489.0022267762099
 20
318.6770194542559
 30
0.0000000000000000
 11
493.9389507189495
 21
318.6770194542567
 31
0.0000000000000000
  0
LINE
  5
1A7
100
AcDbEntity
  8
MAIN0
  6
CONTINUOUS
 62
3
100
AcDbLine
 10
494.4655028332371
 20
318.6770194542567
 30
0.0000000000000000
 11
499.4022267762098
 21
318.6770194542575
 31
0.0000000000000000
  0
LINE
  5
1A8
100
AcDbEntity
  8
MAIN0
  6
CONTINUOUS
 62
3
100
AcDbLine
 10
489.0022267762270
 20
328.9770194542559
 30
0.0000000000000000
 11
493.7232676762251
 21
328.9770194542567
 31
0.0000000000000000
  0
LINE
  5
1A9
100
AcDbEntity
  8
MAIN0
  6
CONTINUOUS
 62
3
100
AcDbLine
 10
494.6811858761242
 20
328.9770194542568
 30
0.0000000000000000
 11
499.4022267762269
 21
328.9770194542575
 31
0.0000000000000000
  0
ARC
  5
1AA
100
AcDbEntity
  8
MAIN0
  6
CONTINUOUS
 62
3
100
AcDbCircle
 10
449.2022267764082
 20
377.9770194542501
 30
0.0000000000000000
 40
5.000000000000000
100
AcDbArc
 50
90.00000000000000
 51
270.0000000000000
  0
ARC
  5
1AB
100
AcDbEntity
  8
MAIN0
  6
CONTINUOUS
 62
3
100
AcDbCircle
 10
539.2022267764082
 20
377.9770194542633
 30
0.0000000000000000
 40
5.000000000000000
100
AcDbArc
 50
270.0000000000000
 51
450.0000000000000
  0
SPLINE
  5
1AC
100
AcDbEntity
  8
MAIN0
  6
CONTINUOUS
 62
3
100
AcDbSpline
210
0.0000000000000000
220
0.0000000000000000
230
1.000000000000000
 70
     8
 71
     3
 72
    11
 73
     7
 74
     0
 42
1.000000000000000e-007
 43
1.000000000000000e-007
 12
-0.5570860145339793
 22
-0.9284766908835991
 32
0.0000000000000000
 13
-0.5570860145340930
 23
-0.9284766908837128
 33
0.0000000000000000
 40
0.0000000000000000
 40
0.0000000000000000
 40
0.0000000000000000
 40
0.0000000000000000
 40
2.692582403570480
 40
5.385164807134496
 40
8.077747210698533
 40
10.77032961426899
 40
10.77032961426899
 40
10.77032961426899
 40
10.77032961426899
 10
463.7448893653043
 20
382.9770194542522
 30
0.0000000000000000
 10
463.2448893653012
 20
382.1436861209194
 30
0.0000000000000000
 10
462.2448893652960
 20
380.4770194542555
 30
0.0000000000000000
 10
463.7448893652876
 20
377.9770194542522
 30
0.0000000000000000
 10
465.2448893652794
 20
375.4770194542490
 30
0.0000000000000000
 10
464.2448893652743
 20
373.8103527875852
 30
0.0000000000000000
 10
463.7448893652711
 20
372.9770194542522
 30
0.0000000000000000
  0
SPLINE
  5
1AD
100
AcDbEntity
  8
MAIN0
  6
CONTINUOUS
 62
3
100
AcDbSpline
210
0.0000000000000000
220
0.0000000000000000
230
1.000000000000000
 70
     8
 71
     3
 72
     9
 73
     5
 74
     0
 42
1.000000000000000e-007
 43
1.000000000000000e-007
 12
0.5570860145340930
 22
0.9284766908837128
 32
0.0000000000000000
 13
-0.5570860145284087
 23
0.9284766908868960
 33
0.0000000000000000
 40
0.0000000000000000
 40
0.0000000000000000
 40
0.0000000000000000
 40
0.0000000000000000
 40
2.692582403570445
 40
5.385164807134462
 40
5.385164807134462
 40
5.385164807134462
 40
5.385164807134462
 10
463.7448893652877
 20
377.9770194542522
 30
0.0000000000000000
 10
464.2448893652909
 20
378.8103527875852
 30
0.0000000000000000
 10
465.2448893652959
 20
380.4770194542490
 30
0.0000000000000000
 10
464.2448893653012
 20
382.1436861209185
 30
0.0000000000000000
 10
463.7448893653043
 20
382.9770194542522
 30
0.0000000000000000
  0
SPLINE
  5
1AE
100
AcDbEntity
  8
MAIN0
  6
CONTINUOUS
 62
3
100
AcDbSpline
210
0.0000000000000000
220
0.0000000000000000
230
1.000000000000000
 70
     8
 71
     3
 72
     9
 73
     5
 74
     0
 42
1.000000000000000e-007
 43
1.000000000000000e-007
 12
-0.5570860145339793
 22
-0.9284766908837696
 32
0.0000000000000000
 13
0.5570860145282950
 23
-0.9284766908867823
 33
0.0000000000000000
 40
0.0000000000000000
 40
0.0000000000000000
 40
0.0000000000000000
 40
0.0000000000000000
 40
2.692582403570445
 40
5.385164807134462
 40
5.385164807134462
 40
5.385164807134462
 40
5.385164807134462
 10
466.5610350839992
 20
377.9770194542526
 30
0.0000000000000000
 10
466.0610350839960
 20
377.1436861209197
 30
0.0000000000000000
 10
465.0610350839910
 20
375.4770194542559
 30
0.0000000000000000
 10
466.0610350839858
 20
373.8103527875864
 30
0.0000000000000000
 10
466.5610350839826
 20
372.9770194542526
 30
0.0000000000000000
  0
SPLINE
  5
1AF
100
AcDbEntity
  8
MAIN0
  6
CONTINUOUS
 62
3
100
AcDbSpline
210
0.0000000000000000
220
0.0000000000000000
230
1.000000000000000
 70
     8
 71
     3
 72
    11
 73
     7
 74
     0
 42
1.000000000000000e-007
 43
1.000000000000000e-007
 12
0.5570860145339793
 22
0.9284766908835991
 32
0.0000000000000000
 13
0.5570860145339793
 23
0.9284766908837128
 33
0.0000000000000000
 40
0.0000000000000000
 40
0.0000000000000000
 40
0.0000000000000000
 40
0.0000000000000000
 40
2.692582403570480
 40
5.385164807134496
 40
8.077747210698533
 40
10.77032961426899
 40
10.77032961426899
 40
10.77032961426899
 40
10.77032961426899
 10
466.5610350839826
 20
372.9770194542526
 30
0.0000000000000000
 10
467.0610350839858
 20
373.8103527875855
 30
0.0000000000000000
 10
468.0610350839909
 20
375.4770194542494
 30
0.0000000000000000
 10
466.5610350839994
 20
377.9770194542527
 30
0.0000000000000000
 10
465.0610350840076
 20
380.4770194542559
 30
0.0000000000000000
 10
466.0610350840127
 20
382.1436861209197
 30
0.0000000000000000
 10
466.5610350840159
 20
382.9770194542526
 30
0.0000000000000000
  0
LINE
  5
1B0
100
AcDbEntity
  8
MAIN0
  6
CONTINUOUS
 62
3
100
AcDbLine
 10
449.2022267764083
 20
382.9770194542501
 30
0.0000000000000000
 11
463.7448893653044
 21
382.9770194542522
 31
0.0000000000000000
  0
LINE
  5
1B1
100
AcDbEntity
  8
MAIN0
  6
CONTINUOUS
 62
3
100
AcDbLine
 10
466.5610350840159
 20
382.9770194542527
 30
0.0000000000000000
 11
484.2022267764249
 21
382.9770194542552
 31
0.0000000000000000
  0
LINE
  5
1B2
100
AcDbEntity
  8
MAIN0
  6
CONTINUOUS
 62
3
100
AcDbLine
 10
449.2022267764082
 20
372.9770194542501
 30
0.0000000000000000
 11
463.7448893652710
 21
372.9770194542522
 31
0.0000000000000000
  0
LINE
  5
1B3
100
AcDbEntity
  8
MAIN0
  6
CONTINUOUS
 62
3
100
AcDbLine
 10
466.5610350839826
 20
372.9770194542527
 30
0.0000000000000000
 11
484.2022267763915
 21
372.9770194542552
 31
0.0000000000000000
  0
SPLINE
  5
1B4
100
AcDbEntity
  8
MAIN0
  6
CONTINUOUS
 62
3
100
AcDbSpline
210
0.0000000000000000
220
0.0000000000000000
230
1.000000000000000
 70
     8
 71
     3
 72
    11
 73
     7
 74
     0
 42
1.000000000000000e-007
 43
1.000000000000000e-007
 12
-0.5570860145338656
 22
-0.9284766908836559
 32
0.0000000000000000
 13
-0.5570860145340930
 23
-0.9284766908836559
 33
0.0000000000000000
 40
0.0000000000000000
 40
0.0000000000000000
 40
0.0000000000000000
 40
0.0000000000000000
 40
2.692582403570480
 40
5.385164807134496
 40
8.077747210698533
 40
10.77032961426899
 40
10.77032961426899
 40
10.77032961426899
 40
10.77032961426899
 10
521.2978251917039
 20
382.9770194542607
 30
0.0000000000000000
 10
520.7978251917008
 20
382.1436861209278
 30
0.0000000000000000
 10
519.7978251916956
 20
380.4770194542640
 30
0.0000000000000000
 10
521.2978251916871
 20
377.9770194542607
 30
0.0000000000000000
 10
522.7978251916790
 20
375.4770194542574
 30
0.0000000000000000
 10
521.7978251916738
 20
373.8103527875936
 30
0.0000000000000000
 10
521.2978251916707
 20
372.9770194542607
 30
0.0000000000000000
  0
SPLINE
  5
1B5
100
AcDbEntity
  8
MAIN0
  6
CONTINUOUS
 62
3
100
AcDbSpline
210
0.0000000000000000
220
0.0000000000000000
230
1.000000000000000
 70
     8
 71
     3
 72
     9
 73
     5
 74
     0
 42
1.000000000000000e-007
 43
1.000000000000000e-007
 12
0.5570860145339793
 22
0.9284766908836559
 32
0.0000000000000000
 13
-0.5570860145284087
 23
0.9284766908867823
 33
0.0000000000000000
 40
0.0000000000000000
 40
0.0000000000000000
 40
0.0000000000000000
 40
0.0000000000000000
 40
2.692582403570445
 40
5.385164807134462
 40
5.385164807134462
 40
5.385164807134462
 40
5.385164807134462
 10
521.2978251916873
 20
377.9770194542607
 30
0.0000000000000000
 10
521.7978251916904
 20
378.8103527875936
 30
0.0000000000000000
 10
522.7978251916954
 20
380.4770194542574
 30
0.0000000000000000
 10
521.7978251917008
 20
382.1436861209270
 30
0.0000000000000000
 10
521.2978251917039
 20
382.9770194542607
 30
0.0000000000000000
  0
SPLINE
  5
1B6
100
AcDbEntity
  8
MAIN0
  6
CONTINUOUS
 62
3
100
AcDbSpline
210
0.0000000000000000
220
0.0000000000000000
230
1.000000000000000
 70
     8
 71
     3
 72
    11
 73
     7
 74
     0
 42
1.000000000000000e-007
 43
1.000000000000000e-007
 12
0.5570860145340930
 22
0.9284766908837128
 32
0.0000000000000000
 13
0.5570860145339793
 23
0.9284766908835422
 33
0.0000000000000000
 40
0.0000000000000000
 40
0.0000000000000000
 40
0.0000000000000000
 40
0.0000000000000000
 40
2.692582403570480
 40
5.385164807134496
 40
8.077747210698533
 40
10.77032961426899
 40
10.77032961426899
 40
10.77032961426899
 40
10.77032961426899
 10
524.1139709103821
 20
372.9770194542611
 30
0.0000000000000000
 10
524.6139709103853
 20
373.8103527875940
 30
0.0000000000000000
 10
525.6139709103904
 20
375.4770194542579
 30
0.0000000000000000
 10
524.1139709103990
 20
377.9770194542612
 30
0.0000000000000000
 10
522.6139709104072
 20
380.4770194542644
 30
0.0000000000000000
 10
523.6139709104123
 20
382.1436861209282
 30
0.0000000000000000
 10
524.1139709104155
 20
382.9770194542611
 30
0.0000000000000000
  0
SPLINE
  5
1B7
100
AcDbEntity
  8
MAIN0
  6
CONTINUOUS
 62
3
100
AcDbSpline
210
0.0000000000000000
220
0.0000000000000000
230
1.000000000000000
 70
     8
 71
     3
 72
     9
 73
     5
 74
     0
 42
1.000000000000000e-007
 43
1.000000000000000e-007
 12
-0.5570860145340930
 22
-0.9284766908835991
 32
0.0000000000000000
 13
0.5570860145281813
 23
-0.9284766908868392
 33
0.0000000000000000
 40
0.0000000000000000
 40
0.0000000000000000
 40
0.0000000000000000
 40
0.0000000000000000
 40
2.692582403570445
 40
5.385164807134462
 40
5.385164807134462
 40
5.385164807134462
 40
5.385164807134462
 10
524.1139709103987
 20
377.9770194542611
 30
0.0000000000000000
 10
523.6139709103956
 20
377.1436861209282
 30
0.0000000000000000
 10
522.6139709103906
 20
375.4770194542644
 30
0.0000000000000000
 10
523.6139709103853
 20
373.8103527875949
 30
0.0000000000000000
 10
524.1139709103821
 20
372.9770194542611
 30
0.0000000000000000
  0
LINE
  5
1B8
100
AcDbEntity
  8
MAIN0
  6
CONTINUOUS
 62
3
100
AcDbLine
 10
504.2022267764249
 20
382.9770194542582
 30
0.0000000000000000
 11
521.2978251917040
 21
382.9770194542607
 31
0.0000000000000000
  0
LINE
  5
1B9
100
AcDbEntity
  8
MAIN0
  6
CONTINUOUS
 62
3
100
AcDbLine
 10
524.1139709104155
 20
382.9770194542612
 30
0.0000000000000000
 11
539.2022267764082
 21
382.9770194542633
 31
0.0000000000000000
  0
LINE
  5
1BA
100
AcDbEntity
  8
MAIN0
  6
CONTINUOUS
 62
3
100
AcDbLine
 10
504.2022267763916
 20
372.9770194542582
 30
0.0000000000000000
 11
521.2978251916707
 21
372.9770194542607
 31
0.0000000000000000
  0
LINE
  5
1BB
100
AcDbEntity
  8
MAIN0
  6
CONTINUOUS
 62
3
100
AcDbLine
 10
524.1139709103823
 20
372.9770194542611
 30
0.0000000000000000
 11
539.2022267764082
 21
372.9770194542633
 31
0.0000000000000000
  0
LINE
  5
1BC
100
AcDbEntity
  8
MAIN0
  6
CONTINUOUS
 62
3
100
AcDbLine
 10
267.4233165783346
 20
200.7772898775337
 30
0.0000000000000000
 11
267.4233165783346
 21
200.0272898775303
 31
0.0000000000000000
  0
LINE
  5
1BD
100
AcDbEntity
  8
MAIN0
  6
CONTINUOUS
 62
3
100
AcDbLine
 10
217.4233165783346
 20
207.4272898775303
 30
0.0000000000000000
 11
217.4233165783346
 21
200.0272898775303
 31
0.0000000000000000
  0
LINE
  5
1BE
100
AcDbEntity
  8
MAIN0
  6
CONTINUOUS
 62
3
100
AcDbLine
 10
218.0233165783346
 20
208.0272898775303
 30
0.0000000000000000
 11
263.2375271267108
 21
208.0272898775303
 31
0.0000000000000000
  0
LINE
  5
1BF
100
AcDbEntity
  8
MAIN0
  6
CONTINUOUS
 62
3
100
AcDbLine
 10
263.2375271267108
 20
208.0272898775303
 30
0.0000000000000000
 11
267.4233165783345
 21
200.7772898775337
 31
0.0000000000000000
  0
LINE
  5
1C0
100
AcDbEntity
  8
MAIN0
  6
CONTINUOUS
 62
3
100
AcDbLine
 10
217.4233165783346
 20
207.4272898775303
 30
0.0000000000000000
 11
218.0233165783346
 21
208.0272898775303
 31
0.0000000000000000
  0
LINE
  5
1C1
100
AcDbEntity
  8
MAIN0
  6
CONTINUOUS
 62
3
100
AcDbLine
 10
267.4233165783346
 20
199.2772898775270
 30
0.0000000000000000
 11
267.4233165783346
 21
200.0272898775303
 31
0.0000000000000000
  0
LINE
  5
1C2
100
AcDbEntity
  8
MAIN0
  6
CONTINUOUS
 62
3
100
AcDbLine
 10
217.4233165783346
 20
192.6272898775303
 30
0.0000000000000000
 11
217.4233165783346
 21
200.0272898775304
 31
0.0000000000000000
  0
LINE
  5
1C3
100
AcDbEntity
  8
MAIN0
  6
CONTINUOUS
 62
3
100
AcDbLine
 10
218.0233165783346
 20
192.0272898775303
 30
0.0000000000000000
 11
263.2375271267108
 21
192.0272898775303
 31
0.0000000000000000
  0
LINE
  5
1C4
100
AcDbEntity
  8
MAIN0
  6
CONTINUOUS
 62
3
100
AcDbLine
 10
263.2375271267108
 20
192.0272898775304
 30
0.0000000000000000
 11
267.4233165783345
 21
199.2772898775270
 31
0.0000000000000000
  0
LINE
  5
1C5
100
AcDbEntity
  8
MAIN0
  6
CONTINUOUS
 62
3
100
AcDbLine
 10
217.4233165783346
 20
192.6272898775304
 30
0.0000000000000000
 11
218.0233165783346
 21
192.0272898775303
 31
0.0000000000000000
  0
LINE
  5
1C6
100
AcDbEntity
  8
MAIN0
  6
CENTER
 62
3
100
AcDbLine
 10
215.4994486946890
 20
200.0272898775319
 30
0.0000000000000000
 11
268.9910417042333
 21
200.0272898775319
 31
0.0000000000000000
  0
LINE
  5
1C7
100
AcDbEntity
  8
MAIN0
  6
PHANTOM
 62
3
100
AcDbLine
 10
212.7841392471271
 20
150.0272898775303
 30
0.0000000000000000
 11
270.2129330272529
 21
150.0272898775303
 31
0.0000000000000000
  0
LINE
  5
1C8
100
AcDbEntity
  8
MAIN0
  6
CENTER
 62
3
100
AcDbLine
 10
217.4233165783346
 20
154.0272898775303
 30
0.0000000000000000
 11
267.4233165783346
 21
154.0272898775303
 31
0.0000000000000000
  0
DIMENSION
  5
1D1
100
AcDbEntity
  8
MAIN0
  6
CONTINUOUS
 62
3
100
AcDbDimension
  2
*D0
 10
274.9647245604862
 20
170.0272898775303
 30
0.0000000000000000
 11
274.4647245604862
 21
150.0272919178215
 31
0.0000000000000000
 70
32
  3
MAIN001
100
AcDbAlignedDimension
 13
263.2233165783346
 23
130.0272939581126
 33
0.0000000000000000
 14
266.8233165783346
 24
170.0272898775303
 34
0.0000000000000000
 50
90.00000000000000
100
AcDbRotatedDimension
1001
ACAD
1000
DSTYLE
1002
{
1070
   173
1070
     1
1070
     6
1000
_OPEN
1070
     7
1000
_OPEN
1070
    41
1040
2.000000
1002
}
  0
DIMENSION
  5
1DA
100
AcDbEntity
  8
MAIN0
  6
CONTINUOUS
 62
3
100
AcDbDimension
  2
*D1
 10
267.4233165783346
 20
175.5929690060483
 30
0.0000000000000000
 11
242.4233165783346
 21
176.0929690060483
 31
0.0000000000000000
 70
32
  3
MAIN001
100
AcDbAlignedDimension
 13
217.4233165783346
 23
169.4272898775303
 33
0.0000000000000000
 14
267.4233165783346
 24
169.4272898775303
 34
0.0000000000000000
100
AcDbRotatedDimension
1001
ACAD
1000
DSTYLE
1002
{
1070
   173
1070
     1
1070
     6
1000
_OPEN
1070
     7
1000
_OPEN
1070
    41
1040
2.000000
1002
}
  0
DIMENSION
  5
1E3
100
AcDbEntity
  8
MAIN0
  6
CONTINUOUS
 62
3
100
AcDbDimension
  2
*D2
 10
211.2576374498167
 20
170.0272898775303
 30
0.0000000000000000
 11
210.7576374498167
 21
162.0272898775303
 31
0.0000000000000000
 70
32
  3
MAIN001
100
AcDbAlignedDimension
 13
217.4233165783346
 23
154.0272898775303
 33
0.0000000000000000
 14
218.0233165783346
 24
170.0272898775303
 34
0.0000000000000000
 50
90.00000000000000
100
AcDbRotatedDimension
1001
ACAD
1000
DSTYLE
1002
{
1070
   173
1070
     1
1070
     6
1000
_OPEN
1070
     7
1000
_OPEN
1070
    41
1040
2.000000
1002
}
  0
DIMENSION
  5
1EC
100
AcDbEntity
  8
MAIN0
  6
CONTINUOUS
 62
3
100
AcDbDimension
  2
*D3
 10
206.6184601186092
 20
170.0272898775303
 30
0.0000000000000000
 11
206.1184601186092
 21
160.0272898775303
 31
0.0000000000000000
 70
32
  3
MAIN001
100
AcDbAlignedDimension
 13
212.7841392471271
 23
150.0272898775303
 33
0.0000000000000000
 14
218.0233165783346
 24
170.0272898775303
 34
0.0000000000000000
 50
90.00000000000000
100
AcDbRotatedDimension
1001
ACAD
1000
DSTYLE
1002
{
1070
   173
1070
     1
1070
     6
1000
_OPEN
1070
     7
1000
_OPEN
1070
    41
1040
2.000000
1002
}
  0
DIMENSION
  5
1F5
100
AcDbEntity
  8
MAIN0
  6
CONTINUOUS
 62
3
100
AcDbDimension
  2
*D4
 10
211.2576374498167
 20
208.0272898775303
 30
0.0000000000000000
 11
210.7576374498167
 21
200.0272898775303
 31
0.0000000000000000
 70
32
  3
MAIN001
100
AcDbAlignedDimension
 13
218.0233165783346
 23
192.0272898775303
 33
0.0000000000000000
 14
218.0233165783346
 24
208.0272898775303
 34
0.0000000000000000
 50
90.00000000000000
100
AcDbRotatedDimension
1001
ACAD
1000
DSTYLE
1002
{
1070
   173
1070
     1
1070
     6
1000
_OPEN
1070
     7
1000
_OPEN
1070
    41
1040
2.000000
1002
}
  0
LEADER
  5
1F6
100
AcDbEntity
  8
MAIN0
  6
CONTINUOUS
 62
3
100
AcDbLeader
  3
MAIN001
 73
     0
 75
     1
 40
3.099999904632568
 41
20.49900047683715
 76
     3
 10
201.5156034860327
 20
150.0272898775303
 30
0.0000000000000000
 10
195.8134551998653
 20
167.1963917718994
 30
0.0000000000000000
 10
193.8864552556552
 20
167.1963917718994
 30
0.0000000000000000
340
1F7
213
0.0000000000000000
223
-0.5000000000000000
233
0.0000000000000000
1001
ACAD
1000
DSTYLE
1002
{
1070
   147
1040
0.0
1070
    77
1070
     1
1070
   173
1070
     1
1070
     6
1000
_OPEN
1070
     7
1000
_OPEN
1002
}
  0
MTEXT
  5
1F7
102
{ACAD_REACTORS
330
1F6
102
}
100
AcDbEntity
  8
MAIN0
  6
CONTINUOUS
 62
3
100
AcDbMText
 10
173.3874547788181
 20
170.7963916765319
 30
0.0000000000000000
 40
3.099999904632568
 41
0.0000000000000000
 71
     1
 72
     1
  1
{\H0.93x;{チャック表面}}
 11
1.000000000000000
 21
0.0000000000000000
 31
0.0000000000000000
  7
KNJYOKO
  0
LEADER
  5
1F8
100
AcDbEntity
  8
MAIN0
  6
CONTINUOUS
 62
3
100
AcDbLeader
  3
MAIN001
 73
     0
 75
     1
 40
3.099999904632568
 41
20.49900047683715
 76
     3
 10
224.7314997805911
 20
163.2383079122166
 30
0.0000000000000000
 10
197.2776221451842
 20
192.6940306144530
 30
0.0000000000000000
 10
195.3506222009741
 20
192.6940306144530
 30
0.0000000000000000
340
1F9
213
0.0000000000000000
223
-0.5000000000000000
233
0.0000000000000000
1001
ACAD
1000
DSTYLE
1002
{
1070
   147
1040
0.0
1070
    77
1070
     1
1070
   173
1070
     1
1070
     6
1000
_OPEN
1070
     7
1000
_OPEN
1002
}
  0
MTEXT
  5
1F9
102
{ACAD_REACTORS
330
1F8
102
}
100
AcDbEntity
  8
MAIN0
  6
CONTINUOUS
 62
3
100
AcDbMText
 10
174.8516217241370
 20
196.2940305190856
 30
0.0000000000000000
 40
3.099999904632568
 41
0.0000000000000000
 71
     1
 72
     1
  1
{\H0.93x;{斜線部内成形\P可能範囲}}
 11
1.000000000000000
 21
0.0000000000000000
 31
0.0000000000000000
  7
KNJYOKO
  0
DIMENSION
  5
202
100
AcDbEntity
  8
MAIN0
  6
CONTINUOUS
 62
3
100
AcDbDimension
  2
*D5
 10
444.2022267764082
 20
399.5358111061467
 30
0.0000000000000000
 11
494.2022267764082
 21
400.0358111061467
 31
0.0000000000000000
 70
32
  1
\A1;170
  3
MAIN001
100
AcDbAlignedDimension
 13
544.2022267764082
 23
377.9770194542633
 33
0.0000000000000000
 14
444.2022267764082
 24
377.9770194542501
 34
0.0000000000000000
100
AcDbRotatedDimension
1001
ACAD
1000
DSTYLE
1002
{
1070
   173
1070
     1
1070
     6
1000
_OPEN
1070
     7
1000
_OPEN
1070
    41
1040
2.000000
1002
}
  0
DIMENSION
  5
20A
100
AcDbEntity
  8
MAIN0
  6
CONTINUOUS
 62
3
100
AcDbDimension
  2
*D6
 10
474.7545252695473
 20
377.9770194542488
 30
0.0000000000000000
 11
474.4211919362140
 21
388.3146159969941
 31
0.0000000000000000
 70
160
  3
MAIN001
100
AcDbAlignedDimension
 13
494.2022267764579
 23
392.9770194542567
 33
0.0000000000000000
 14
439.9886036004411
 24
377.9770194542488
 34
0.0000000000000000
 50
90.00000000000000
100
AcDbRotatedDimension
1001
ACAD
1000
DSTYLE
1002
{
1070
   173
1070
     1
1070
     6
1000
_OPEN
1070
     7
1000
_OPEN
1070
    41
1040
2.000000
1002
}
  0
DIMENSION
  5
213
100
AcDbEntity
  8
MAIN0
  6
CONTINUOUS
 62
3
100
AcDbDimension
  2
*D7
 10
517.8582030982817
 20
317.9770194542574
 30
0.0000000000000000
 11
517.3582030982817
 21
355.4770194542571
 31
0.0000000000000000
 70
32
  3
MAIN001
100
AcDbAlignedDimension
 13
494.2022267764579
 23
392.9770194542567
 33
0.0000000000000000
 14
498.9022267762086
 24
317.9770194542574
 34
0.0000000000000000
 50
90.00000000000000
100
AcDbRotatedDimension
1001
ACAD
1000
DSTYLE
1002
{
1070
   173
1070
     1
1070
     6
1000
_OPEN
1070
     7
1000
_OPEN
1070
    41
1040
2.000000
1002
}
  0
DIMENSION
  5
21C
100
AcDbEntity
  8
MAIN0
  6
CONTINUOUS
 62
3
100
AcDbDimension
  2
*D8
 10
510.0211695304167
 20
317.9770194542560
 30
0.0000000000000000
 11
509.5211695304167
 21
323.4770194542564
 31
0.0000000000000000
 70
32
  3
MAIN001
100
AcDbAlignedDimension
 13
499.6022267762452
 23
328.9770194542575
 33
0.0000000000000000
 14
498.9022267762086
 24
317.9770194542574
 34
0.0000000000000000
 50
90.00000000000000
100
AcDbRotatedDimension
1001
ACAD
1000
DSTYLE
1002
{
1070
   173
1070
     1
1070
     6
1000
_OPEN
1070
     7
1000
_OPEN
1070
    41
1040
2.000000
1002
}
  0
DIMENSION
  5
223
100
AcDbEntity
  8
MAIN0
  6
CONTINUOUS
 62
3
100
AcDbDimension
  2
*D9
 10
484.2022267763051
 20
355.7196867986437
 30
0.0000000000000000
 11
494.2022267763051
 21
356.2196867986437
 31
0.0000000000000000
 70
32
  1
\A1;\U+220520
  3
MAIN001
100
AcDbAlignedDimension
 13
504.2022267763051
 23
346.9770194542582
 33
0.0000000000000000
 14
484.2022267763051
 24
346.9770194542552
 34
0.0000000000000000
100
AcDbRotatedDimension
1001
ACAD
1000
DSTYLE
1002
{
1070
   173
1070
     1
1070
     6
1000
_OPEN
1070
     7
1000
_OPEN
1070
    41
1040
2.000000
1002
}
  0
DIMENSION
  5
22A
100
AcDbEntity
  8
MAIN0
  6
CONTINUOUS
 62
3
100
AcDbDimension
  2
*D10
 10
457.4774399675425
 20
382.9770194542501
 30
0.0000000000000000
 11
456.9774399675425
 21
377.9770194542512
 31
0.0000000000000000
 70
32
  1
\A1;\U+220510
  3
MAIN001
100
AcDbAlignedDimension
 13
463.7448893652710
 23
372.9770194542522
 33
0.0000000000000000
 14
449.2022267764082
 24
382.9770194542501
 34
0.0000000000000000
 50
90.00000000000000
100
AcDbRotatedDimension
1001
ACAD
1000
DSTYLE
1002
{
1070
   173
1070
     1
1070
     6
1000
_OPEN
1070
     7
1000
_OPEN
1070
    41
1040
2.000000
1002
}
  0
DIMENSION
  5
233
100
AcDbEntity
  8
MAIN0
  6
CONTINUOUS
 62
3
100
AcDbDimension
  2
*D11
 10
508.5731053976482
 20
294.2470895690442
 30
0.0000000000000000
 11
505.3911248823061
 21
291.7722158348871
 31
0.0000000000000000
 70
33
  3
MAIN001
100
AcDbAlignedDimension
 13
493.9389507191713
 23
297.5675357485174
 33
0.0000000000000000
 14
499.5958049685770
 24
303.2243899980968
 34
0.0000000000000000
 50
45.00000000001669
1001
ACAD
1000
DSTYLE
1002
{
1070
   173
1070
     1
1070
     6
1000
_OPEN
1070
     7
1000
_OPEN
1070
    41
1040
2.000000
1002
}
  0
DIMENSION
  5
239
100
AcDbEntity
  8
MAIN0
  6
CONTINUOUS
 62
3
100
AcDbDimension
  2
*D12
 10
399.5094887416465
 20
323.2405111100019
 30
0.0000000000000000
 11
374.4262996425752
 21
321.1445327754654
 31
0.0000000000000000
 70
163
  3
MAIN001
100
AcDbDiametricDimension
 15
285.0457555487219
 25
312.1475501194007
 35
0.0000000000000000
1001
ACAD
1000
DSTYLE
1002
{
1070
   287
1070
     2
1070
   173
1070
     1
1070
     6
1000
_OPEN
1070
     7
1000
_NONE
1070
    41
1040
2.000000
1070
   272
1070
     1
1070
    47
1040
0.200000
1070
    48
1040
0.200000
1070
    71
1070
     1
1002
}
  0
DIMENSION
  5
23F
100
AcDbEntity
  8
MAIN0
  6
CONTINUOUS
 62
3
100
AcDbDimension
  2
*D13
 10
371.7724666750211
 20
365.8843216088683
 30
0.0000000000000000
 11
359.9640399686467
 21
347.2295975508832
 31
0.0000000000000000
 70
163
  3
MAIN001
100
AcDbDiametricDimension
 15
312.7827776153473
 25
269.5037396193254
 35
0.0000000000000000
1001
ACAD
1000
DSTYLE
1002
{
1070
   287
1070
     2
1070
   173
1070
     1
1070
     6
1000
_OPEN
1070
     7
1000
_NONE
1070
    41
1040
2.000000
1070
   272
1070
     1
1070
    47
1040
0.200000
1070
    48
1040
0.200000
1070
    71
1070
     1
1002
}
  0
DIMENSION
  5
248
100
AcDbEntity
  8
MAIN0
  6
CONTINUOUS
 62
3
100
AcDbDimension
  2
*D14
 10
182.2776221451842
 20
393.8351948939043
 30
0.0000000000000000
 11
192.2776221451767
 21
394.3351948939043
 31
0.0000000000000000
 70
32
  3
MAIN001
100
AcDbAlignedDimension
 13
202.2776221451694
 23
347.1940306144720
 33
0.0000000000000000
 14
182.2776221451842
 24
381.6940306144603
 34
0.0000000000000000
100
AcDbRotatedDimension
1001
ACAD
1000
DSTYLE
1002
{
1070
   173
1070
     1
1070
     6
1000
_OPEN
1070
     7
1000
_OPEN
1070
    41
1040
2.000000
1002
}
  0
DIMENSION
  5
250
100
AcDbEntity
  8
MAIN0
  6
CONTINUOUS
 62
3
100
AcDbDimension
  2
*D15
 10
194.2776221451701
 20
372.2601101663059
 30
0.0000000000000000
 11
190.2776221451755
 21
372.7601101663059
 31
0.0000000000000000
 70
32
  3
MAIN001
100
AcDbAlignedDimension
 13
186.2776221451808
 23
374.6940306144626
 33
0.0000000000000000
 14
194.2776221451737
 24
357.6940306144673
 34
0.0000000000000000
100
AcDbRotatedDimension
1001
ACAD
1000
DSTYLE
1002
{
1070
   173
1070
     1
1070
     6
1000
_OPEN
1070
     7
1000
_OPEN
1070
    41
1040
2.000000
1002
}
  0
DIMENSION
  5
258
100
AcDbEntity
  8
MAIN0
  6
CONTINUOUS
 62
3
100
AcDbDimension
  2
*D16
 10
194.2776221451737
 20
355.0000458495922
 30
0.0000000000000000
 11
198.2776221451715
 21
355.5000458495922
 31
0.0000000000000000
 70
32
  3
MAIN001
100
AcDbAlignedDimension
 13
202.2776221451694
 23
347.1940306144720
 33
0.0000000000000000
 14
194.2776221451737
 24
357.6940306144673
 34
0.0000000000000000
100
AcDbRotatedDimension
1001
ACAD
1000
DSTYLE
1002
{
1070
   173
1070
     1
1070
     6
1000
_OPEN
1070
     7
1000
_OPEN
1070
    41
1040
2.000000
1002
}
  0
DIMENSION
  5
261
100
AcDbEntity
  8
MAIN0
  6
CONTINUOUS
 62
3
100
AcDbDimension
  2
*D17
 10
208.5324912609808
 20
332.6940306144717
 30
0.0000000000000000
 11
208.0324912609808
 21
340.1940306144712
 31
0.0000000000000000
 70
32
  3
MAIN001
100
AcDbAlignedDimension
 13
201.7776221451545
 23
347.6940306144717
 33
0.0000000000000000
 14
201.7776221451633
 24
332.6940306144717
 34
0.0000000000000000
 50
90.00000000000000
100
AcDbRotatedDimension
1001
ACAD
1000
DSTYLE
1002
{
1070
   173
1070
     1
1070
     6
1000
_OPEN
1070
     7
1000
_OPEN
1070
    41
1040
2.000000
1002
}
  0
DIMENSION
  5
26A
100
AcDbEntity
  8
MAIN0
  6
CONTINUOUS
 62
3
100
AcDbDimension
  2
*D18
 10
208.5324912609808
 20
347.6940306144705
 30
0.0000000000000000
 11
208.0324912609808
 21
355.1940306144687
 31
0.0000000000000000
 70
32
  3
MAIN001
100
AcDbAlignedDimension
 13
193.2776221451758
 23
362.6940306144667
 33
0.0000000000000000
 14
201.7776221451545
 24
347.6940306144717
 34
0.0000000000000000
 50
90.00000000000000
100
AcDbRotatedDimension
1001
ACAD
1000
DSTYLE
1002
{
1070
   173
1070
     1
1070
     6
1000
_OPEN
1070
     7
1000
_OPEN
1070
    41
1040
2.000000
1002
}
  0
DIMENSION
  5
273
100
AcDbEntity
  8
MAIN0
  6
CONTINUOUS
 62
3
100
AcDbDimension
  2
*D19
 10
208.5324912609808
 20
362.6940306144667
 30
0.0000000000000000
 11
208.0324912609808
 21
372.6940306144644
 31
0.0000000000000000
 70
32
  3
MAIN001
100
AcDbAlignedDimension
 13
185.2776221451841
 23
382.6940306144620
 33
0.0000000000000000
 14
193.2776221451758
 24
362.6940306144667
 34
0.0000000000000000
 50
90.00000000000000
100
AcDbRotatedDimension
1001
ACAD
1000
DSTYLE
1002
{
1070
   173
1070
     1
1070
     6
1000
_OPEN
1070
     7
1000
_OPEN
1070
    41
1040
2.000000
1002
}
  0
DIMENSION
  5
27C
100
AcDbEntity
  8
MAIN0
  6
CONTINUOUS
 62
3
100
AcDbDimension
  2
*D20
 10
216.4812066869381
 20
332.6940306144695
 30
0.0000000000000000
 11
215.9812066869381
 21
357.6940306144646
 31
0.0000000000000000
 70
32
  3
MAIN001
100
AcDbAlignedDimension
 13
181.2776221451842
 23
382.6940306144597
 33
0.0000000000000000
 14
201.7776221451633
 24
332.6940306144717
 34
0.0000000000000000
 50
90.00000000000000
100
AcDbRotatedDimension
1001
ACAD
1000
DSTYLE
1002
{
1070
   173
1070
     1
1070
     6
1000
_OPEN
1070
     7
1000
_OPEN
1070
    41
1040
2.000000
1002
}
  0
DIMENSION
  5
285
100
AcDbEntity
  8
MAIN0
  6
CONTINUOUS
 62
3
100
AcDbDimension
  2
*D21
 10
216.4812066869381
 20
309.6940306144530
 30
0.0000000000000000
 11
215.9812066869381
 21
317.6940306144530
 31
0.0000000000000000
 70
32
  3
MAIN001
100
AcDbAlignedDimension
 13
201.7776221451604
 23
325.6940306144530
 33
0.0000000000000000
 14
201.7776221451537
 24
309.6940306144530
 34
0.0000000000000000
 50
90.00000000000000
100
AcDbRotatedDimension
1001
ACAD
1000
DSTYLE
1002
{
1070
   173
1070
     1
1070
     6
1000
_OPEN
1070
     7
1000
_OPEN
1070
    41
1040
2.000000
1002
}
  0
DIMENSION
  5
28E
100
AcDbEntity
  8
MAIN0
  6
CONTINUOUS
 62
3
100
AcDbDimension
  2
*D22
 10
208.5324912609808
 20
302.6940143382575
 30
0.0000000000000000
 11
208.1991579276474
 21
289.3831287446759
 31
0.0000000000000000
 70
160
  3
MAIN001
100
AcDbAlignedDimension
 13
193.2776131679536
 23
281.6940143382836
 33
0.0000000000000000
 14
185.2776131679217
 24
302.6940143382575
 34
0.0000000000000000
 50
90.00000000000000
100
AcDbRotatedDimension
1001
ACAD
1000
DSTYLE
1002
{
1070
   173
1070
     1
1070
     6
1000
_OPEN
1070
     7
1000
_OPEN
1070
    41
1040
2.000000
1002
}
  0
DIMENSION
  5
297
100
AcDbEntity
  8
MAIN0
  6
CONTINUOUS
 62
3
100
AcDbDimension
  2
*D23
 10
208.5324912609808
 20
281.6940143382836
 30
0.0000000000000000
 11
208.0324912609808
 21
274.1940143382902
 31
0.0000000000000000
 70
32
  3
MAIN001
100
AcDbAlignedDimension
 13
201.7776131679763
 23
266.6940143382967
 33
0.0000000000000000
 14
193.2776131679536
 24
281.6940143382836
 34
0.0000000000000000
 50
90.00000000000000
100
AcDbRotatedDimension
1001
ACAD
1000
DSTYLE
1002
{
1070
   173
1070
     1
1070
     6
1000
_OPEN
1070
     7
1000
_OPEN
1070
    41
1040
2.000000
1002
}
  0
DIMENSION
  5
2A0
100
AcDbEntity
  8
MAIN0
  6
CONTINUOUS
 62
3
100
AcDbDimension
  2
*D24
 10
208.5324912609808
 20
266.6940143382967
 30
0.0000000000000000
 11
208.0324912609808
 21
259.6940143382967
 31
0.0000000000000000
 70
32
  3
MAIN001
100
AcDbAlignedDimension
 13
201.7776131679975
 23
252.6940143382967
 33
0.0000000000000000
 14
201.7776131679763
 24
266.6940143382967
 34
0.0000000000000000
 50
90.00000000000000
100
AcDbRotatedDimension
1001
ACAD
1000
DSTYLE
1002
{
1070
   173
1070
     1
1070
     6
1000
_OPEN
1070
     7
1000
_OPEN
1070
    41
1040
2.000000
1002
}
  0
DIMENSION
  5
2A8
100
AcDbEntity
  8
MAIN0
  6
CONTINUOUS
 62
3
100
AcDbDimension
  2
*D25
 10
194.2776131679612
 20
274.4861798013469
 30
0.0000000000000000
 11
198.2776131679692
 21
274.9861798013469
 31
0.0000000000000000
 70
32
  3
MAIN001
100
AcDbAlignedDimension
 13
202.2776131679771
 23
266.1940143382974
 33
0.0000000000000000
 14
194.2776131679612
 24
276.6940143382852
 34
0.0000000000000000
100
AcDbRotatedDimension
1001
ACAD
1000
DSTYLE
1002
{
1070
   173
1070
     1
1070
     6
1000
_OPEN
1070
     7
1000
_OPEN
1070
    41
1040
2.000000
1002
}
  0
DIMENSION
  5
2B0
100
AcDbEntity
  8
MAIN0
  6
CONTINUOUS
 62
3
100
AcDbDimension
  2
*D26
 10
194.2776131679612
 20
290.2399571425233
 30
0.0000000000000000
 11
190.2776131679490
 21
290.7399571425233
 31
0.0000000000000000
 70
32
  3
MAIN001
100
AcDbAlignedDimension
 13
186.2776131679369
 23
292.6940143382730
 33
0.0000000000000000
 14
194.2776131679612
 24
276.6940143382852
 34
0.0000000000000000
100
AcDbRotatedDimension
1001
ACAD
1000
DSTYLE
1002
{
1070
   173
1070
     1
1070
     6
1000
_OPEN
1070
     7
1000
_OPEN
1070
    41
1040
2.000000
1002
}
  0
DIMENSION
  5
2B9
100
AcDbEntity
  8
MAIN0
  6
CONTINUOUS
 62
3
100
AcDbDimension
  2
*D27
 10
122.2776221451842
 20
245.0245386330032
 30
0.0000000000000000
 11
133.5276294302947
 21
245.5245386330032
 31
0.0000000000000000
 70
32
  3
MAIN001
100
AcDbAlignedDimension
 13
144.7776367154053
 23
249.1717140689771
 33
0.0000000000000000
 14
122.2776221451842
 24
253.6940306144530
 34
0.0000000000000000
100
AcDbRotatedDimension
1001
ACAD
1000
DSTYLE
1002
{
1070
   173
1070
     1
1070
     6
1000
_OPEN
1070
     7
1000
_OPEN
1070
    41
1040
2.000000
1002
}
  0
DIMENSION
  5
2C2
100
AcDbEntity
  8
MAIN0
  6
CONTINUOUS
 62
3
100
AcDbDimension
  2
*D28
 10
144.7776367154052
 20
245.0245386330032
 30
0.0000000000000000
 11
163.5276294302947
 21
245.5245386330032
 31
0.0000000000000000
 70
32
  3
MAIN001
100
AcDbAlignedDimension
 13
182.2776221451842
 23
253.6940306144530
 33
0.0000000000000000
 14
144.7776367154053
 24
249.1717140689771
 34
0.0000000000000000
100
AcDbRotatedDimension
1001
ACAD
1000
DSTYLE
1002
{
1070
   173
1070
     1
1070
     6
1000
_OPEN
1070
     7
1000
_OPEN
1070
    41
1040
2.000000
1002
}
  0
DIMENSION
  5
2CB
100
AcDbEntity
  8
MAIN0
  6
CONTINUOUS
 62
3
100
AcDbDimension
  2
*D29
 10
182.2776221451842
 20
238.8233900152728
 30
0.0000000000000000
 11
152.2776221451842
 21
239.3233900152728
 31
0.0000000000000000
 70
32
  3
MAIN001
100
AcDbAlignedDimension
 13
122.2776221451842
 23
253.6940306144530
 33
0.0000000000000000
 14
182.2776221451842
 24
253.6940306144530
 34
0.0000000000000000
100
AcDbRotatedDimension
1001
ACAD
1000
DSTYLE
1002
{
1070
   173
1070
     1
1070
     6
1000
_OPEN
1070
     7
1000
_OPEN
1070
    41
1040
2.000000
1002
}
  0
LINE
  5
2CC
100
AcDbEntity
  8
MAIN0
  6
CENTER
 62
3
100
AcDbLine
 10
494.2022267763487
 20
360.0806205720218
 30
0.0000000000000000
 11
494.2022267764697
 21
396.4909052965014
 31
0.0000000000000000
  0
LINE
  5
2CD
100
AcDbEntity
  8
MAIN0
  6
CENTER
 62
3
100
AcDbLine
 10
439.9886036004411
 20
377.9770194542488
 30
0.0000000000000000
 11
454.4107733644541
 21
377.9770194542509
 31
0.0000000000000000
  0
LINE
  5
2CE
100
AcDbEntity
  8
MAIN0
  6
CENTER
 62
3
100
AcDbLine
 10
457.8107733008758
 20
377.9770194542514
 30
0.0000000000000000
 11
546.6662340246814
 21
377.9770194542645
 31
0.0000000000000000
  0
DIMENSION
  5
2D7
100
AcDbEntity
  8
MAIN0
  6
CONTINUOUS
 62
3
100
AcDbDimension
  2
*D30
 10
122.2776221451842
 20
393.8351948939043
 30
0.0000000000000000
 11
130.2776221451842
 21
394.3351948939043
 31
0.0000000000000000
 70
32
  3
MAIN001
100
AcDbAlignedDimension
 13
138.2776221451842
 23
379.1940306144530
 33
0.0000000000000000
 14
122.2776221451842
 24
381.6940306144531
 34
0.0000000000000000
100
AcDbRotatedDimension
1001
ACAD
1000
DSTYLE
1002
{
1070
   173
1070
     1
1070
     6
1000
_OPEN
1070
     7
1000
_OPEN
1070
    41
1040
2.000000
1002
}
  0
DIMENSION
  5
2E0
100
AcDbEntity
  8
MAIN0
  6
CONTINUOUS
 62
3
100
AcDbDimension
  2
*D31
 10
101.6936768305646
 20
382.6940306144530
 30
0.0000000000000000
 11
101.1936768305646
 21
317.6940306144530
 31
0.0000000000000000
 70
32
  1
\A1;\U+2205130
  3
MAIN001
100
AcDbAlignedDimension
 13
123.2776221451842
 23
252.6940306144530
 33
0.0000000000000000
 14
123.2776221451842
 24
382.6940306144530
 34
0.0000000000000000
 50
90.00000000000000
100
AcDbRotatedDimension
1001
ACAD
1000
DSTYLE
1002
{
1070
   173
1070
     1
1070
     6
1000
_OPEN
1070
     7
1000
_OPEN
1070
    41
1040
2.000000
1002
}
  0
DIMENSION
  5
2E9
100
AcDbEntity
  8
MAIN0
  6
CONTINUOUS
 62
3
100
AcDbDimension
  2
*D32
 10
116.2720679454440
 20
333.6940306144530
 30
0.0000000000000000
 11
115.7720679454440
 21
317.6940306144530
 31
0.0000000000000000
 70
32
  1
\A1;\U+220532
  3
MAIN001
100
AcDbAlignedDimension
 13
127.7776221451842
 23
301.6940306144530
 33
0.0000000000000000
 14
127.7776221451842
 24
333.6940306144530
 34
0.0000000000000000
 50
90.00000000000000
100
AcDbRotatedDimension
1001
ACAD
1000
DSTYLE
1002
{
1070
   173
1070
     1
1070
     6
1000
_OPEN
1070
     7
1000
_OPEN
1070
    41
1040
2.000000
1002
}
  0
DIMENSION
  5
2F2
100
AcDbEntity
  8
MAIN0
  6
CONTINUOUS
 62
3
100
AcDbDimension
  2
*D33
 10
109.2824294655712
 20
267.6940306144530
 30
0.0000000000000000
 11
108.7824294655712
 21
310.6190304773623
 31
0.0000000000000000
 70
32
  1
\A1;\U+2205100H6\H0.903226x;\S＋0.022^ 　0;
  3
MAIN001
100
AcDbAlignedDimension
 13
122.2776221451842
 23
367.6940306144530
 33
0.0000000000000000
 14
122.2776221451842
 24
267.6940306144530
 34
0.0000000000000000
 50
90.00000000000000
100
AcDbRotatedDimension
1001
ACAD
1000
DSTYLE
1002
{
1070
   173
1070
     1
1070
     6
1000
_OPEN
1070
     7
1000
_OPEN
1070
    41
1040
2.000000
1070
   272
1070
     3
1070
    47
1040
0.022000
1070
    48
1040
0.000000
1070
    71
1070
     1
1070
   340
1005
2F3
1002
}
  0
DIMENSION
  5
2FC
100
AcDbEntity
  8
MAIN0
  6
CONTINUOUS
 62
3
100
AcDbDimension
  2
*D34
 10
157.5849940149039
 20
212.6061183074732
 30
0.0000000000000000
 11
154.4030134995652
 21
210.1312445733194
 31
0.0000000000000000
 70
33
  3
MAIN001
100
AcDbAlignedDimension
 13
144.2986776156338
 23
214.5787262077540
 33
0.0000000000000000
 14
149.9555318650309
 24
220.2355804573418
 34
0.0000000000000000
 50
45.00000000001669
1001
ACAD
1000
DSTYLE
1002
{
1070
   173
1070
     1
1070
     6
1000
_OPEN
1070
     7
1000
_OPEN
1070
    41
1040
2.000000
1002
}
  0
DIMENSION
  5
305
100
AcDbEntity
  8
MAIN0
  6
CONTINUOUS
 62
3
100
AcDbDimension
  2
*D35
 10
108.6776221451842
 20
393.8351948939043
 30
0.0000000000000000
 11
115.4776221451842
 21
394.3351948939043
 31
0.0000000000000000
 70
32
  3
MAIN001
100
AcDbAlignedDimension
 13
122.2776221451842
 23
381.6940306144531
 33
0.0000000000000000
 14
108.6776221451842
 24
378.1940306144530
 34
0.0000000000000000
100
AcDbRotatedDimension
1001
ACAD
1000
DSTYLE
1002
{
1070
   173
1070
     1
1070
     6
1000
_OPEN
1070
     7
1000
_OPEN
1070
    41
1040
2.000000
1002
}
  0
LEADER
  5
306
100
AcDbEntity
  8
MAIN0
  6
CONTINUOUS
 62
3
100
AcDbLeader
  3
MAIN001
 73
     0
 74
     0
 75
     1
 40
3.099999904632568
 41
10.78100032901764
 76
     3
 10
133.5898589142447
 20
379.1940306144530
 30
0.0000000000000000
 10
146.1550181992564
 20
393.3910694798376
 30
0.0000000000000000
 10
148.0800181434664
 20
393.3910694798376
 30
0.0000000000000000
340
307
213
-0.001000000000004775
223
-0.5000000000000000
233
0.0000000000000000
1001
ACAD
1000
DSTYLE
1002
{
1070
   147
1040
0.0
1070
    77
1070
     1
1070
   173
1070
     1
1070
     6
1000
_OPEN
1070
     7
1000
_OPEN
1002
}
  0
MTEXT
  5
307
102
{ACAD_REACTORS
330
306
102
}
100
AcDbEntity
  8
MAIN0
  6
CONTINUOUS
 62
3
100
AcDbMText
 10
148.0810181434664
 20
396.9910693844702
 30
0.0000000000000000
 40
3.099999904632568
 41
0.0000000000000000
 71
     1
 72
     1
  1
{\H0.91x;{3-M8}}
 11
1.000000000000000
 21
0.0000000000000000
 31
0.0000000000000000
  7
STANDARD
  0
LEADER
  5
308
100
AcDbEntity
  8
MAIN0
  6
CONTINUOUS
 62
3
100
AcDbLeader
  3
MAIN001
 73
     0
 75
     1
 40
3.099999904632568
 41
10.77900032901763
 76
     3
 10
114.6773545885578
 20
378.1940306144530
 30
0.0000000000000000
 10
103.1484985011807
 20
393.8910694798376
 30
0.0000000000000000
 10
101.2214985569707
 20
393.8910694798376
 30
0.0000000000000000
340
309
213
0.0000000000000000
223
-0.5000000000000000
233
0.0000000000000000
1001
ACAD
1000
DSTYLE
1002
{
1070
   147
1040
0.0
1070
    77
1070
     1
1070
   173
1070
     1
1070
     6
1000
_OPEN
1070
     7
1000
_OPEN
1002
}
  0
MTEXT
  5
309
102
{ACAD_REACTORS
330
308
102
}
100
AcDbEntity
  8
MAIN0
  6
CONTINUOUS
 62
3
100
AcDbMText
 10
90.44249822795305
 20
397.4910693844702
 30
0.0000000000000000
 40
3.099999904632568
 41
0.0000000000000000
 71
     1
 72
     1
  1
{\H0.91x;{3-M8}}
 11
1.000000000000000
 21
0.0000000000000000
 31
0.0000000000000000
  7
STANDARD
  0
LINE
  5
30A
100
AcDbEntity
  8
MAIN0
  6
CENTER
 62
3
100
AcDbLine
 10
494.2022267761331
 20
295.2380124464893
 30
0.0000000000000000
 11
494.2022267761845
 21
310.6939712605995
 31
0.0000000000000000
  0
LINE
  5
30B
100
AcDbEntity
  8
MAIN0
  6
CENTER
 62
3
100
AcDbLine
 10
494.2022267761979
 20
314.7606378636879
 30
0.0000000000000000
 11
494.2022267763324
 21
355.1750582004723
 31
0.0000000000000000
  0
LINE
  5
30C
100
AcDbEntity
  8
MAIN0
  6
CENTER
 62
3
100
AcDbLine
 10
159.5528566802896
 20
293.4440306144530
 30
0.0000000000000000
 11
184.0441259428310
 21
293.4440306144530
 31
0.0000000000000000
  0
LINE
  5
30D
100
AcDbEntity
  8
MAIN0
  6
CONTINUOUS
 62
3
100
AcDbLine
 10
122.2776221451842
 20
367.6940306144530
 30
0.0000000000000000
 11
130.1332636294973
 21
367.6940306144530
 31
0.0000000000000000
  0
DIMENSION
  5
316
100
AcDbEntity
  8
MAIN0
  6
CONTINUOUS
 62
3
100
AcDbDimension
  2
*D36
 10
122.2776221451842
 20
305.9440875738547
 30
0.0000000000000000
 11
119.7235625200296
 21
306.2774209071881
 31
0.0000000000000000
 70
160
  3
MAIN001
100
AcDbAlignedDimension
 13
126.7776221451842
 23
267.6940306144530
 33
0.0000000000000000
 14
122.2776221451842
 24
253.6940306144530
 34
0.0000000000000000
100
AcDbRotatedDimension
1001
ACAD
1000
DSTYLE
1002
{
1070
   173
1070
     1
1070
     6
1000
_OPEN
1070
     7
1000
_OPEN
1070
    41
1040
2.000000
1070
   287
1070
     0
1002
}
  0
LINE
  5
317
100
AcDbEntity
  8
MAIN0
  6
CENTER
 62
3
100
AcDbLine
 10
144.7776367153979
 20
227.1538124946164
 30
0.0000000000000000
 11
144.7776367153994
 21
212.1448761702349
 31
0.0000000000000000
  0
LINE
  5
318
100
AcDbEntity
  8
MAIN0
  6
CENTER
 62
3
100
AcDbLine
 10
144.7776367153936
 20
267.5778825217386
 30
0.0000000000000000
 11
144.7776367153957
 21
248.0662653000427
 31
0.0000000000000000
  0
DIMENSION
  5
321
100
AcDbEntity
  8
MAIN0
  6
CONTINUOUS
 62
3
100
AcDbDimension
  2
*D37
 10
414.5332936732252
 20
317.6940306144530
 30
0.0000000000000000
 11
413.8728538488405
 21
298.5101460973675
 31
0.0000000000000000
 70
162
  3
MAIN001
100
AcDb2LineAngularDimension
 13
402.5727221616003
 23
282.8826383887903
 33
0.0000000000000000
 14
401.7066967578160
 24
283.3826383887905
 34
0.0000000000000000
 15
413.5332936732252
 25
317.6940306144530
 35
0.0000000000000000
 16
414.3558167619850
 26
298.3807365748162
 36
0.0000000000000000
1001
ACAD
1000
DSTYLE
1002
{
1070
   173
1070
     1
1070
     6
1000
_OPEN
1070
     7
1000
_OPEN
1070
    41
1040
2.000000
1002
}
  0
DIMENSION
  5
32A
100
AcDbEntity
  8
MAIN0
  6
CONTINUOUS
 62
3
100
AcDbDimension
  2
*D38
 10
401.8115663487727
 20
352.0659693267047
 30
0.0000000000000000
 11
413.8728538488380
 21
336.8779151315477
 31
0.0000000000000000
 70
162
  3
MAIN001
100
AcDb2LineAngularDimension
 13
414.5332936732252
 23
317.6940306144530
 33
0.0000000000000000
 14
413.5332936732252
 24
317.6940306144530
 34
0.0000000000000000
 15
400.9455409449884
 25
351.5659693267044
 35
0.0000000000000000
 16
414.3558167619825
 26
337.0073246540991
 36
0.0000000000000000
1001
ACAD
1000
DSTYLE
1002
{
1070
   173
1070
     1
1070
     6
1000
_OPEN
1070
     7
1000
_OPEN
1070
    41
1040
2.000000
1002
}
  0
DIMENSION
  5
333
100
AcDbEntity
  8
MAIN0
  6
CONTINUOUS
 62
3
100
AcDbDimension
  2
*D39
 10
367.0506210398625
 20
379.0093544981081
 30
0.0000000000000000
 11
391.5613261895072
 21
374.3884467380270
 31
0.0000000000000000
 70
162
  3
MAIN001
100
AcDb2LineAngularDimension
 13
401.8115663487727
 23
352.0659693267047
 33
0.0000000000000000
 14
400.9455409449884
 24
351.5659693267044
 34
0.0000000000000000
 15
366.6760144464372
 25
378.0821706435452
 35
0.0000000000000000
 16
391.2332966750101
 26
374.0110919479172
 36
0.0000000000000000
1001
ACAD
1000
DSTYLE
1002
{
1070
   173
1070
     1
1070
     6
1000
_OPEN
1070
     7
1000
_OPEN
1070
    41
1040
2.000000
1002
}
  0
DIMENSION
  5
33B
100
AcDbEntity
  8
MAIN0
  6
CONTINUOUS
 62
3
100
AcDbDimension
  2
*D40
 10
342.2776221451591
 20
392.3148686288296
 30
0.0000000000000000
 11
356.6113537786002
 21
391.4346872526043
 31
0.0000000000000000
 70
162
  3
MAIN001
100
AcDb2LineAngularDimension
 13
367.0506210398625
 23
379.0093544981081
 33
0.0000000000000000
 14
366.6760144464372
 24
378.0821706435452
 34
0.0000000000000000
 15
342.2776221445673
 25
317.6940306144530
 35
0.0000000000000000
 16
356.5159492809075
 26
390.9438736608813
 36
0.0000000000000000
1001
ACAD
1000
DSTYLE
1002
{
1070
   173
1070
     1
1070
     6
1000
_OPEN
1070
     7
1000
_OPEN
1070
    41
1040
2.000000
1002
}
  0
SPLINE
  5
33C
100
AcDbEntity
  8
MAIN0
  6
CONTINUOUS
 62
3
100
AcDbSpline
210
0.0000000000000000
220
0.0000000000000000
230
1.000000000000000
 70
     8
 71
     3
 72
    13
 73
     9
 74
     0
 42
1.000000000000000e-007
 43
1.000000000000000e-007
 12
0.3528868151714022
 22
-0.9590684682391100
 32
0.0000000000000000
 13
0.6573076794502129
 23
-0.7648310650756116
 33
0.0000000000000000
 40
0.0000000000000000
 40
0.0000000000000000
 40
0.0000000000000000
 40
0.0000000000000000
 40
6.251292738027498
 40
16.06918412379719
 40
27.53247537766738
 40
37.37517163756979
 40
45.95936380345226
 40
50.57801449544472
 40
50.57801449544472
 40
50.57801449544472
 40
50.57801449544472
 10
166.2776221451841
 20
382.6940306144530
 30
0.0000000000000000
 10
167.0129550735263
 20
380.6955580308617
 30
0.0000000000000000
 10
168.9031561428095
 20
375.5584087630411
 30
0.0000000000000000
 10
165.4891322938283
 20
366.2725462048872
 30
0.0000000000000000
 10
170.1863416502717
 20
356.1691062983826
 30
0.0000000000000000
 10
167.6054872595373
 20
346.2698325724319
 30
0.0000000000000000
 10
169.2161808058684
 20
338.3228480351679
 30
0.0000000000000000
 10
171.9673114712701
 20
334.8715295046516
 30
0.0000000000000000
 10
172.9792696607850
 20
333.6940336619953
 30
0.0000000000000000
  0
LINE
  5
33D
100
AcDbEntity
  8
MAIN0
  6
CENTER
 62
3
100
AcDbLine
 10
172.2776221451625
 20
330.9000434838088
 30
0.0000000000000000
 11
172.2776221451643
 21
335.1378389258613
 31
0.0000000000000000
  0
LINE
  5
33E
100
AcDbEntity
  8
MAIN0
  6
CONTINUOUS
 62
3
100
AcDbLine
 10
171.5276221455416
 20
332.6940306144687
 30
0.0000000000000000
 11
172.1044170645790
 21
333.6930687197905
 31
0.0000000000000000
  0
LINE
  5
33F
100
AcDbEntity
  8
MAIN0
  6
CONTINUOUS
 62
3
100
AcDbLine
 10
172.4508272260928
 20
333.6930687197907
 30
0.0000000000000000
 11
173.0276221451316
 21
332.6940306144695
 31
0.0000000000000000
  0
LINE
  5
340
100
AcDbEntity
  8
MAIN0
  6
CONTINUOUS
 62
3
100
AcDbLine
 10
166.2776221451621
 20
332.6940306144685
 30
0.0000000000000000
 11
166.2776221451623
 21
333.6940306144530
 31
0.0000000000000000
  0
LINE
  5
341
100
AcDbEntity
  8
MAIN0
  6
CONTINUOUS
 62
3
100
AcDbLine
 10
171.5276221455416
 20
332.6940306144687
 30
0.0000000000000000
 11
166.2776221451623
 21
332.6940306144685
 31
0.0000000000000000
  0
LINE
  5
342
100
AcDbEntity
  8
MAIN0
  6
HIDDEN
 62
3
100
AcDbLine
 10
139.5776367154053
 20
265.8640306144562
 30
0.0000000000000000
 11
149.9776367154053
 21
265.8640306144562
 31
0.0000000000000000
  0
LINE
  5
343
100
AcDbEntity
  8
MAIN0
  6
CONTINUOUS
 62
3
100
AcDbLine
 10
193.7776221451758
 20
362.6940306144670
 30
0.0000000000000000
 11
194.2776221451755
 21
362.1940306144673
 31
0.0000000000000000
  0
LINE
  5
344
100
AcDbEntity
  8
MAIN0
  6
CONTINUOUS
 62
3
100
AcDbLine
 10
193.7214043627403
 20
348.2306331550997
 30
0.0000000000000000
 11
194.2776221451704
 21
349.1940306143418
 31
0.0000000000000000
  0
LINE
  5
345
100
AcDbEntity
  8
MAIN0
  6
CONTINUOUS
 62
3
100
AcDbLine
 10
194.8142246857678
 20
347.1378128320722
 30
0.0000000000000000
 11
195.7776221449506
 21
347.6940306144680
 31
0.0000000000000000
  0
ARC
  5
346
100
AcDbEntity
  8
MAIN0
  6
CONTINUOUS
 62
3
100
AcDbCircle
 10
194.4142246857678
 20
347.8306331550996
 30
0.0000000000000000
 40
0.8000000000000000
100
AcDbArc
 50
149.9999999999962
 51
300.0000000000085
  0
LINE
  5
347
100
AcDbEntity
  8
MAIN0
  6
CONTINUOUS
 62
3
100
AcDbLine
 10
185.7214043627466
 20
363.2306331550950
 30
0.0000000000000000
 11
186.2776221451766
 21
364.1940306143371
 31
0.0000000000000000
  0
LINE
  5
348
100
AcDbEntity
  8
MAIN0
  6
CONTINUOUS
 62
3
100
AcDbLine
 10
186.8142246857740
 20
362.1378128320675
 30
0.0000000000000000
 11
187.7776221449568
 21
362.6940306144634
 31
0.0000000000000000
  0
ARC
  5
349
100
AcDbEntity
  8
MAIN0
  6
CONTINUOUS
 62
3
100
AcDbCircle
 10
186.4142246857741
 20
362.8306331550949
 30
0.0000000000000000
 40
0.8000000000000000
100
AcDbArc
 50
149.9999999999962
 51
300.0000000000085
  0
LINE
  5
34A
100
AcDbEntity
  8
MAIN0
  6
PHANTOM
 62
3
100
AcDbLine
 10
193.7776131679536
 20
281.6940143382844
 30
0.0000000000000000
 11
194.2776131679544
 21
281.1940143382852
 31
0.0000000000000000
  0
LINE
  5
34B
100
AcDbEntity
  8
MAIN0
  6
PHANTOM
 62
3
100
AcDbLine
 10
194.7942157085118
 20
266.1031555395697
 30
0.0000000000000000
 11
195.8176131679902
 21
266.6940143382875
 31
0.0000000000000000
  0
LINE
  5
34C
100
AcDbEntity
  8
MAIN0
  6
PHANTOM
 62
3
100
AcDbLine
 10
193.7013953854847
 20
267.1959758625982
 30
0.0000000000000000
 11
194.2776131679740
 21
268.1940143380915
 31
0.0000000000000000
  0
ARC
  5
34D
100
AcDbEntity
  8
MAIN0
  6
PHANTOM
 62
3
100
AcDbCircle
 10
194.3942157085118
 20
266.7959758625973
 30
0.0000000000000000
 40
0.8000000000000000
100
AcDbArc
 50
149.9999999999316
 51
299.9999999999997
  0
LINE
  5
34E
100
AcDbEntity
  8
MAIN0
  6
PHANTOM
 62
3
100
AcDbLine
 10
185.7013953854620
 20
282.1959758625859
 30
0.0000000000000000
 11
186.2776131679512
 21
283.1940143380793
 31
0.0000000000000000
  0
ARC
  5
34F
100
AcDbEntity
  8
MAIN0
  6
PHANTOM
 62
3
100
AcDbCircle
 10
186.3942157084890
 20
281.7959758625851
 30
0.0000000000000000
 40
0.8000000000000000
100
AcDbArc
 50
149.9999999999316
 51
299.9999999999997
  0
LINE
  5
350
100
AcDbEntity
  8
MAIN0
  6
PHANTOM
 62
3
100
AcDbLine
 10
186.7942157084891
 20
281.1031555395575
 30
0.0000000000000000
 11
187.8176131679674
 21
281.6940143382752
 31
0.0000000000000000
  0
CIRCLE
  5
351
100
AcDbEntity
  8
MAIN0
  6
CONTINUOUS
 62
3
100
AcDbCircle
 10
342.2776221451842
 20
293.4440306147013
 30
0.0000000000000000
 40
5.500000000000000
  0
ARC
  5
352
100
AcDbEntity
  8
MAIN0
  6
CONTINUOUS
 62
3
100
AcDbCircle
 10
144.7776367154053
 20
181.0568083922317
 30
0.0000000000000000
 40
72.80722222222138
100
AcDbArc
 50
79.71447088423140
 51
100.2855291157686
  0
LINE
  5
353
100
AcDbEntity
  8
MAIN0
  6
CONTINUOUS
 62
3
100
AcDbLine
 10
353.6940300101829
 20
306.4839623069005
 30
0.0000000000000000
 11
354.8767550638614
 21
305.8011156787819
 31
0.0000000000000000
  0
LINE
  5
354
100
AcDbEntity
  8
MAIN0
  6
CONTINUOUS
 62
3
100
AcDbLine
 10
357.6940300101829
 20
313.4121655371760
 30
0.0000000000000000
 11
358.8767550643014
 21
312.7293189088033
 31
0.0000000000000000
  0
LINE
  5
355
100
AcDbEntity
  8
MAIN0
  6
CONTINUOUS
 62
3
100
AcDbLine
 10
338.2776221453992
 20
333.1859639996551
 30
0.0000000000000000
 11
338.2776221453992
 21
334.5516572564004
 31
0.0000000000000000
  0
LINE
  5
356
100
AcDbEntity
  8
MAIN0
  6
CONTINUOUS
 62
3
100
AcDbLine
 10
346.2776221453992
 20
333.1859639996551
 30
0.0000000000000000
 11
346.2776221453992
 21
334.5516572558923
 31
0.0000000000000000
  0
LINE
  5
357
100
AcDbEntity
  8
MAIN0
  6
CONTINUOUS
 62
3
100
AcDbLine
 10
330.8612142759133
 20
306.4839623091189
 30
0.0000000000000000
 11
329.6784892217947
 21
305.8011156807462
 31
0.0000000000000000
  0
LINE
  5
358
100
AcDbEntity
  8
MAIN0
  6
CONTINUOUS
 62
3
100
AcDbLine
 10
326.8612142759133
 20
313.4121655393943
 30
0.0000000000000000
 11
325.6784892222348
 21
312.7293189112758
 31
0.0000000000000000
  0
DIMENSION
  5
360
100
AcDbEntity
  8
MAIN0
  6
CONTINUOUS
 62
3
100
AcDbDimension
  2
*D41
 10
281.2770067756032
 20
352.9127523184706
 30
0.0000000000000000
 11
304.7172031378232
 21
382.7505846884342
 31
0.0000000000000000
 70
162
  3
MAIN001
100
AcDb2LineAngularDimension
 13
342.2776221451842
 23
392.3148686288296
 33
0.0000000000000000
 14
342.2776221451842
 24
317.6940306140969
 34
0.0000000000000000
 15
282.1430321793877
 25
352.4127523184705
 35
0.0000000000000000
 16
304.9672031378232
 26
382.3175719865420
 36
0.0000000000000000
1001
ACAD
1000
DSTYLE
1002
{
1070
   173
1070
     1
1070
     6
1000
_OPEN
1070
     7
1000
_OPEN
1070
    41
1040
2.000000
1002
}
  0
MTEXT
  5
361
100
AcDbEntity
  8
MAIN0
  6
CONTINUOUS
 62
3
100
AcDbMText
 10
327.9045340196892
 20
346.8378887479271
 30
0.0000000000000000
 40
5.000000000000000
 41
0.0000000000000000
 71
     1
 72
     1
  1
{\H0.93x;{KITAGAWA}}
 11
-0.4999999999997758
 21
-0.8660254037845681
 31
0.0000000000000000
  7
STANDARD
  0
LINE
  5
362
100
AcDbEntity
  8
MAIN0
  6
CONTINUOUS
 62
3
100
AcDbLine
 10
323.3240028972275
 20
349.8653990884132
 30
0.0000000000000000
 11
305.3184968985811
 21
318.6789478828395
 31
0.0000000000000000
  0
MTEXT
  5
363
100
AcDbEntity
  8
MAIN0
  6
CONTINUOUS
 62
3
100
AcDbMText
 10
323.7609046987850
 20
352.2212164432170
 30
0.0000000000000000
 40
4.000000000000000
 41
0.0000000000000000
 71
     1
 72
     1
  1
{\H0.90x;{MAX.2500/min}}
 11
-0.4999999999997758
 21
-0.8660254037845681
 31
0.0000000000000000
  7
STANDARD
  0
MTEXT
  5
364
100
AcDbEntity
  8
MAIN0
  6
CONTINUOUS
 62
3
100
AcDbMText
 10
312.8453558315872
 20
343.0546834482298
 30
0.0000000000000000
 40
3.000000000000000
 41
0.0000000000000000
 71
     1
 72
     1
  1
{\H0.92x;{JAPAN}}
 11
-0.4999999999997758
 21
-0.8660254037845681
 31
0.0000000000000000
  7
STANDARD
  0
LINE
  5
365
100
AcDbEntity
  8
MAIN0
  6
PHANTOM
 62
3
100
AcDbLine
 10
307.0742709275686
 20
347.0317760043338
 30
0.0000000000000000
 11
299.5742709275720
 21
334.0413949475653
 31
0.0000000000000000
  0
LINE
  5
366
100
AcDbEntity
  8
MAIN0
  6
PHANTOM
 62
3
100
AcDbLine
 10
309.6723471389231
 20
345.5317760043358
 30
0.0000000000000000
 11
302.1723471389265
 21
332.5413949475675
 31
0.0000000000000000
  0
LINE
  5
367
100
AcDbEntity
  8
MAIN0
  6
PHANTOM
 62
3
100
AcDbLine
 10
309.6723471389230
 20
345.5317760043359
 30
0.0000000000000000
 11
307.0742709275686
 21
347.0317760043338
 31
0.0000000000000000
  0
LINE
  5
368
100
AcDbEntity
  8
MAIN0
  6
PHANTOM
 62
3
100
AcDbLine
 10
302.1723471389266
 20
332.5413949475675
 30
0.0000000000000000
 11
299.5742709275721
 21
334.0413949475654
 31
0.0000000000000000
  0
LINE
  5
369
100
AcDbEntity
  8
MAIN0
  6
CONTINUOUS
 62
3
100
AcDbLine
 10
485.2022267764581
 20
392.9770194542358
 30
0.0000000000000000
 11
503.2022267764581
 21
392.9770194542358
 31
0.0000000000000000
  0
LINE
  5
36A
100
AcDbEntity
  8
MAIN0
  6
CONTINUOUS
 62
3
100
AcDbLine
 10
485.2022267764581
 20
392.9770194542358
 30
0.0000000000000000
 11
484.2022267764547
 21
391.9770194542358
 31
0.0000000000000000
  0
LINE
  5
36B
100
AcDbEntity
  8
MAIN0
  6
CONTINUOUS
 62
3
100
AcDbLine
 10
503.2022267764581
 20
392.9770194542358
 30
0.0000000000000000
 11
504.2022267764548
 21
391.9770194542358
 31
0.0000000000000000
  0
LINE
  5
36C
100
AcDbEntity
  8
MAIN0
  6
CONTINUOUS
 62
3
100
AcDbLine
 10
484.2022267764547
 20
391.9770194542358
 30
0.0000000000000000
 11
504.2022267764547
 21
391.9770194542358
 31
0.0000000000000000
  0
DIMENSION
  5
374
100
AcDbEntity
  8
MAIN0
  6
CONTINUOUS
 62
3
100
AcDbDimension
  2
*D42
 10
497.8405594333077
 20
306.6762903130589
 30
0.0000000000000000
 11
485.4896700940946
 21
294.7791560137526
 31
0.0000000000000000
 70
163
  3
MAIN001
100
AcDbDiametricDimension
 15
490.5638941190098
 25
299.2459375688286
 35
0.0000000000000000
1001
ACAD
1000
DSTYLE
1002
{
1070
   287
1070
     2
1070
   173
1070
     1
1070
     6
1000
_OPEN
1070
     7
1000
_OPEN
1070
    41
1040
2.000000
1002
}
  0
MTEXT
  5
375
100
AcDbEntity
  8
MAIN0
  6
CONTINUOUS
 62
3
100
AcDbMText
 10
331.5262287669744
 20
343.2770640059197
 30
0.0000000000000000
 40
4.000000000000000
 41
0.0000000000000000
 71
     1
 72
     1
  1
{\H0.93x;{SC-5F-113}}
 11
-0.4999999999997758
 21
-0.8660254037845681
 31
0.0000000000000000
  7
STANDARD
  0
MTEXT
  5
376
100
AcDbEntity
  8
MAIN0
  6
CONTINUOUS
 62
3
100
AcDbMText
 10
173.3874547788181
 20
166.2963916765319
 30
0.0000000000000000
 40
3.099999904632568
 41
0.0000000000000000
 71
     1
 72
     1
  1
{\H0.71x;{CHUCK FACE}}
 11
1.000000000000000
 21
0.0000000000000000
 31
0.0000000000000000
  7
STANDARD
  0
MTEXT
  5
377
100
AcDbEntity
  8
MAIN0
  6
CONTINUOUS
 62
3
100
AcDbMText
 10
162.2776221451842
 20
188.2940305190856
 30
0.0000000000000000
 40
3.099999904632568
 41
0.0000000000000000
 71
     1
 72
     1
  1
{\H0.71x;{HATCHED AREA:IT IS\PPOSSIBLE TO MACHINE}}
 11
1.000000000000000
 21
0.0000000000000000
 31
0.0000000000000000
  7
STANDARD
  0
INSERT
  5
3BB
100
AcDbEntity
  8
MAIN0
  6
CONTINUOUS
 62
3
100
AcDbBlockReference
  2
*X0
 10
0.0000000000000000
 20
0.0000000000000000
 30
0.0000000000000000
 50
0.0000000000000000
  0
LINE
  5
3BC
100
AcDbEntity
  8
MAIN1
  6
HIDDEN
 62
7
100
AcDbLine
 10
172.2776221451842
 20
289.4440306144530
 30
0.0000000000000000
 11
172.2776221451842
 21
297.4440306144530
 31
0.0000000000000000
  0
ARC
  5
3BD
100
AcDbEntity
  8
MAIN1
  6
HIDDEN
 62
7
100
AcDbCircle
 10
180.2776221451842
 20
293.4440306144530
 30
0.0000000000000000
 40
2.000000000000000
100
AcDbArc
 50
299.9999999999999
 51
419.9999990000000
  0
LINE
  5
3BE
100
AcDbEntity
  8
MAIN0
  6
HIDDEN
 62
3
100
AcDbLine
 10
122.2776221451842
 20
379.5940306144530
 30
0.0000000000000000
 11
123.2776221451842
 21
378.5940306144530
 31
0.0000000000000000
  0
LINE
  5
3BF
100
AcDbEntity
  8
MAIN0
  6
HIDDEN
 62
3
100
AcDbLine
 10
123.2776221451842
 20
378.5940306144530
 30
0.0000000000000000
 11
123.2776221451842
 21
371.7940306144531
 31
0.0000000000000000
  0
LINE
  5
3C0
100
AcDbEntity
  8
MAIN0
  6
HIDDEN
 62
3
100
AcDbLine
 10
123.2776221451842
 20
371.7940306144531
 30
0.0000000000000000
 11
122.2776221451842
 21
370.7940306144531
 31
0.0000000000000000
  0
LINE
  5
3C1
100
AcDbEntity
  8
MAIN0
  6
HIDDEN
 62
3
100
AcDbLine
 10
122.6776221451842
 20
379.1940306144530
 30
0.0000000000000000
 11
138.2776221451842
 21
379.1940306144530
 31
0.0000000000000000
  0
LINE
  5
3C2
100
AcDbEntity
  8
MAIN0
  6
HIDDEN
 62
3
100
AcDbLine
 10
138.2776221451842
 20
379.1940306144530
 30
0.0000000000000000
 11
138.2776221451842
 21
371.1940306144530
 31
0.0000000000000000
  0
LINE
  5
3C3
100
AcDbEntity
  8
MAIN0
  6
HIDDEN
 62
3
100
AcDbLine
 10
138.2776221451842
 20
371.1940306144530
 30
0.0000000000000000
 11
122.6776221451842
 21
371.1940306144530
 31
0.0000000000000000
  0
LINE
  5
3C4
100
AcDbEntity
  8
MAIN0
  6
HIDDEN
 62
3
100
AcDbLine
 10
123.2776221451842
 20
378.5940306144530
 30
0.0000000000000000
 11
142.2776221451842
 21
378.5940306144530
 31
0.0000000000000000
  0
LINE
  5
3C5
100
AcDbEntity
  8
MAIN0
  6
HIDDEN
 62
3
100
AcDbLine
 10
142.2776221451842
 20
378.5940306144530
 30
0.0000000000000000
 11
142.2776221451842
 21
371.7940306144531
 31
0.0000000000000000
  0
LINE
  5
3C6
100
AcDbEntity
  8
MAIN0
  6
HIDDEN
 62
3
100
AcDbLine
 10
142.2776221451842
 20
371.7940306144531
 30
0.0000000000000000
 11
123.2776221451842
 21
371.7940306144531
 31
0.0000000000000000
  0
LINE
  5
3C7
100
AcDbEntity
  8
MAIN0
  6
HIDDEN
 62
3
100
AcDbLine
 10
142.2776221451842
 20
378.5940306144530
 30
0.0000000000000000
 11
144.2406130604289
 21
375.1940306144530
 31
0.0000000000000000
  0
LINE
  5
3C8
100
AcDbEntity
  8
MAIN0
  6
HIDDEN
 62
3
100
AcDbLine
 10
144.2406130604289
 20
375.1940306144530
 30
0.0000000000000000
 11
142.2776221451842
 21
371.7940306144531
 31
0.0000000000000000
  0
LINE
  5
3C9
100
AcDbEntity
  8
MAIN0
  6
HIDDEN
 62
3
100
AcDbLine
 10
182.2776221451842
 20
366.7940306144531
 30
0.0000000000000000
 11
181.8776221451842
 21
367.1940306144530
 31
0.0000000000000000
  0
LINE
  5
3CA
100
AcDbEntity
  8
MAIN0
  6
HIDDEN
 62
3
100
AcDbLine
 10
181.8776221451842
 20
367.1940306144530
 30
0.0000000000000000
 11
173.6776221451842
 21
367.1940306144530
 31
0.0000000000000000
  0
LINE
  5
3CB
100
AcDbEntity
  8
MAIN0
  6
HIDDEN
 62
3
100
AcDbLine
 10
173.6776221451842
 20
367.1940306144530
 30
0.0000000000000000
 11
173.6776221451842
 21
381.1940306144530
 31
0.0000000000000000
  0
LINE
  5
3CC
100
AcDbEntity
  8
MAIN0
  6
HIDDEN
 62
3
100
AcDbLine
 10
173.6776221451842
 20
381.1940306144530
 30
0.0000000000000000
 11
181.8776221451842
 21
381.1940306144530
 31
0.0000000000000000
  0
LINE
  5
3CD
100
AcDbEntity
  8
MAIN0
  6
HIDDEN
 62
3
100
AcDbLine
 10
181.8776221451842
 20
381.1940306144530
 30
0.0000000000000000
 11
182.2776221451842
 21
381.5940306144530
 31
0.0000000000000000
  0
LINE
  5
3CE
100
AcDbEntity
  8
MAIN0
  6
HIDDEN
 62
3
100
AcDbLine
 10
173.6776221451842
 20
369.6940306144530
 30
0.0000000000000000
 11
122.6776221451842
 21
369.6940306144530
 31
0.0000000000000000
  0
LINE
  5
3CF
100
AcDbEntity
  8
MAIN0
  6
HIDDEN
 62
3
100
AcDbLine
 10
122.6776221451842
 20
369.6940306144530
 30
0.0000000000000000
 11
122.2776221451842
 21
369.2940306144531
 31
0.0000000000000000
  0
LINE
  5
3D0
100
AcDbEntity
  8
MAIN0
  6
HIDDEN
 62
3
100
AcDbLine
 10
173.6776221451842
 20
378.6940306144530
 30
0.0000000000000000
 11
122.6776221451842
 21
378.6940306144530
 31
0.0000000000000000
  0
LINE
  5
3D1
100
AcDbEntity
  8
MAIN0
  6
HIDDEN
 62
3
100
AcDbLine
 10
122.6776221451842
 20
378.6940306144530
 30
0.0000000000000000
 11
122.2776221451842
 21
379.0940306144530
 31
0.0000000000000000
  0
LINE
  5
3D2
100
AcDbEntity
  8
MAIN0
  6
HIDDEN
 62
3
100
AcDbLine
 10
338.8776221451842
 20
292.1653673622421
 30
0.0000000000000000
 11
339.2776221451842
 21
292.5653673622422
 31
0.0000000000000000
  0
LINE
  5
3D3
100
AcDbEntity
  8
MAIN0
  6
HIDDEN
 62
3
100
AcDbLine
 10
339.2776221451842
 20
292.5653673622422
 30
0.0000000000000000
 11
339.2776221451842
 21
298.9440306144530
 31
0.0000000000000000
  0
LINE
  5
3D4
100
AcDbEntity
  8
MAIN0
  6
HIDDEN
 62
3
100
AcDbLine
 10
339.2776221451842
 20
298.9440306144530
 30
0.0000000000000000
 11
345.2776221451842
 21
298.9440306144530
 31
0.0000000000000000
  0
LINE
  5
3D5
100
AcDbEntity
  8
MAIN0
  6
HIDDEN
 62
3
100
AcDbLine
 10
345.2776221451842
 20
298.9440306144530
 30
0.0000000000000000
 11
345.2776221451842
 21
292.5653673622421
 31
0.0000000000000000
  0
LINE
  5
3D6
100
AcDbEntity
  8
MAIN0
  6
HIDDEN
 62
3
100
AcDbLine
 10
345.2776221451842
 20
292.5653673622421
 30
0.0000000000000000
 11
345.6776221451842
 21
292.1653673622421
 31
0.0000000000000000
  0
LINE
  5
3D7
100
AcDbEntity
  8
MAIN0
  6
HIDDEN
 62
3
100
AcDbLine
 10
339.2776221451842
 20
298.9440306144530
 30
0.0000000000000000
 11
342.2776221451842
 21
300.6760814220219
 31
0.0000000000000000
  0
LINE
  5
3D8
100
AcDbEntity
  8
MAIN0
  6
HIDDEN
 62
3
100
AcDbLine
 10
342.2776221451842
 20
300.6760814220219
 30
0.0000000000000000
 11
345.2776221451842
 21
298.9440306144530
 31
0.0000000000000000
  0
CIRCLE
  5
3D9
100
AcDbEntity
  8
MAIN0
  6
HIDDEN
 62
3
100
AcDbCircle
 10
331.5276221450700
 20
336.3135767955749
 30
0.0000000000000000
 40
3.000000000000000
  0
CIRCLE
  5
3DA
100
AcDbEntity
  8
MAIN0
  6
HIDDEN
 62
3
100
AcDbCircle
 10
331.5276221450700
 20
336.3135767955749
 30
0.0000000000000000
 40
2.500000000000000
  0
CIRCLE
  5
3DB
100
AcDbEntity
  8
MAIN0
  6
HIDDEN
 62
3
100
AcDbCircle
 10
363.7776221450297
 20
317.6940306144530
 30
0.0000000000000000
 40
3.000000000000000
  0
CIRCLE
  5
3DC
100
AcDbEntity
  8
MAIN0
  6
HIDDEN
 62
3
100
AcDbCircle
 10
363.7776221450297
 20
317.6940306144530
 30
0.0000000000000000
 40
2.500000000000000
  0
CIRCLE
  5
3DD
100
AcDbEntity
  8
MAIN0
  6
HIDDEN
 62
3
100
AcDbCircle
 10
331.5276221444979
 20
299.0744844331277
 30
0.0000000000000000
 40
3.000000000000000
  0
CIRCLE
  5
3DE
100
AcDbEntity
  8
MAIN0
  6
HIDDEN
 62
3
100
AcDbCircle
 10
331.5276221444979
 20
299.0744844331277
 30
0.0000000000000000
 40
2.500000000000000
  0
CIRCLE
  5
3DF
100
AcDbEntity
  8
MAIN0
  6
HIDDEN
 62
3
100
AcDbCircle
 10
288.0684554854352
 20
336.8673519246769
 30
0.0000000000000000
 40
4.000000000000000
  0
CIRCLE
  5
3E0
100
AcDbEntity
  8
MAIN0
  6
HIDDEN
 62
3
100
AcDbCircle
 10
288.0684554854352
 20
336.8673519246769
 30
0.0000000000000000
 40
3.400000000000000
  0
CIRCLE
  5
3E1
100
AcDbEntity
  8
MAIN0
  6
HIDDEN
 62
3
100
AcDbCircle
 10
399.7776221451842
 20
317.6940306144530
 30
0.0000000000000000
 40
4.000000000000000
  0
CIRCLE
  5
3E2
100
AcDbEntity
  8
MAIN0
  6
HIDDEN
 62
3
100
AcDbCircle
 10
399.7776221451842
 20
317.6940306144530
 30
0.0000000000000000
 40
3.400000000000000
  0
CIRCLE
  5
3E3
100
AcDbEntity
  8
MAIN0
  6
HIDDEN
 62
3
100
AcDbCircle
 10
313.5276221446869
 20
267.8975698973832
 30
0.0000000000000000
 40
4.000000000000000
  0
CIRCLE
  5
3E4
100
AcDbEntity
  8
MAIN0
  6
HIDDEN
 62
3
100
AcDbCircle
 10
313.5276221446869
 20
267.8975698973832
 30
0.0000000000000000
 40
3.400000000000000
  0
CIRCLE
  5
3E5
100
AcDbEntity
  8
MAIN0
  6
HIDDEN
 62
3
100
AcDbCircle
 10
313.5276221449533
 20
367.4904913321733
 30
0.0000000000000000
 40
4.000000000000000
  0
CIRCLE
  5
3E6
100
AcDbEntity
  8
MAIN0
  6
HIDDEN
 62
3
100
AcDbCircle
 10
313.5276221449533
 20
367.4904913321733
 30
0.0000000000000000
 40
3.400000000000000
  0
LINE
  5
3E7
100
AcDbEntity
  8
MAIN0
  6
HIDDEN
 62
3
100
AcDbLine
 10
173.6776221451842
 20
367.6940306144530
 30
0.0000000000000000
 11
180.8776221451842
 21
367.6940306144530
 31
0.0000000000000000
  0
LINE
  5
3E8
100
AcDbEntity
  8
MAIN0
  6
HIDDEN
 62
3
100
AcDbLine
 10
180.8776221451842
 20
367.6940306144530
 30
0.0000000000000000
 11
181.6776221451842
 21
369.0796712605081
 31
0.0000000000000000
  0
LINE
  5
3E9
100
AcDbEntity
  8
MAIN0
  6
HIDDEN
 62
3
100
AcDbLine
 10
181.6776221451842
 20
369.0796712605081
 30
0.0000000000000000
 11
181.6776221451842
 21
379.3083899683979
 31
0.0000000000000000
  0
LINE
  5
3EA
100
AcDbEntity
  8
MAIN0
  6
HIDDEN
 62
3
100
AcDbLine
 10
181.6776221451841
 20
379.3083899683979
 30
0.0000000000000000
 11
180.8776221451842
 21
380.6940306144530
 31
0.0000000000000000
  0
LINE
  5
3EB
100
AcDbEntity
  8
MAIN0
  6
HIDDEN
 62
3
100
AcDbLine
 10
180.8776221451842
 20
380.6940306144530
 30
0.0000000000000000
 11
173.6776221451842
 21
380.6940306144530
 31
0.0000000000000000
  0
LINE
  5
3EC
100
AcDbEntity
  8
MAIN0
  6
HIDDEN
 62
3
100
AcDbLine
 10
180.8776221451842
 20
367.6940306144530
 30
0.0000000000000000
 11
180.8776221451842
 21
380.6940306144530
 31
0.0000000000000000
  0
LINE
  5
3ED
100
AcDbEntity
  8
MAIN0
  6
HIDDEN
 62
3
100
AcDbLine
 10
108.6776221451842
 20
370.1940306144530
 30
0.0000000000000000
 11
108.6776221451842
 21
378.1940306144530
 31
0.0000000000000000
  0
LINE
  5
3EE
100
AcDbEntity
  8
MAIN0
  6
HIDDEN
 62
3
100
AcDbLine
 10
136.6776221451842
 20
370.8706131144530
 30
0.0000000000000000
 11
108.6776221451842
 21
370.8706131144530
 31
0.0000000000000000
  0
LINE
  5
3EF
100
AcDbEntity
  8
MAIN0
  6
HIDDEN
 62
3
100
AcDbLine
 10
136.6776221451842
 20
377.5174481144530
 30
0.0000000000000000
 11
108.6776221451842
 21
377.5174481144530
 31
0.0000000000000000
  0
LINE
  5
3F0
100
AcDbEntity
  8
MAIN0
  6
HIDDEN
 62
3
100
AcDbLine
 10
136.6776221451842
 20
370.1940306144530
 30
0.0000000000000000
 11
136.6776221451842
 21
378.1940306144530
 31
0.0000000000000000
  0
LINE
  5
3F1
100
AcDbEntity
  8
MAIN0
  6
HIDDEN
 62
3
100
AcDbLine
 10
151.7015313387289
 20
370.1940306144530
 30
0.0000000000000000
 11
108.6776221451842
 21
370.1940306144530
 31
0.0000000000000000
  0
LINE
  5
3F2
100
AcDbEntity
  8
MAIN0
  6
HIDDEN
 62
3
100
AcDbLine
 10
173.6776221451842
 20
370.1940306144530
 30
0.0000000000000000
 11
151.7015313387289
 21
370.1940306144530
 31
0.0000000000000000
  0
LINE
  5
3F3
100
AcDbEntity
  8
MAIN0
  6
HIDDEN
 62
3
100
AcDbLine
 10
108.6776221451842
 20
378.1940306144530
 30
0.0000000000000000
 11
173.6776221451842
 21
378.1940306144530
 31
0.0000000000000000
  0
LINE
  5
3F4
100
AcDbEntity
  8
MAIN0
  6
CONTINUOUS
 62
3
100
AcDbLine
 10
267.4233165783346
 20
169.4272898775303
 30
0.0000000000000000
 11
267.4233165783346
 21
134.6272898775303
 31
0.0000000000000000
  0
LINE
  5
3F5
100
AcDbEntity
  8
MAIN0
  6
CONTINUOUS
 62
3
100
AcDbLine
 10
217.4233165783346
 20
169.4272898775303
 30
0.0000000000000000
 11
217.4233165783346
 21
134.6272898775303
 31
0.0000000000000000
  0
LINE
  5
3F6
100
AcDbEntity
  8
MAIN0
  6
CONTINUOUS
 62
3
100
AcDbLine
 10
218.0233165783346
 20
170.0272898775303
 30
0.0000000000000000
 11
266.8233165783346
 21
170.0272898775303
 31
0.0000000000000000
  0
LINE
  5
3F7
100
AcDbEntity
  8
MAIN0
  6
CONTINUOUS
 62
3
100
AcDbLine
 10
263.4233165783346
 20
133.8272898775304
 30
0.0000000000000000
 11
263.4233165783346
 21
130.2272939581125
 31
0.0000000000000000
  0
LINE
  5
3F8
100
AcDbEntity
  8
MAIN0
  6
CONTINUOUS
 62
3
100
AcDbLine
 10
260.2483165783346
 20
133.8272898775304
 30
0.0000000000000000
 11
260.2483165783346
 21
130.2272939581125
 31
0.0000000000000000
  0
LINE
  5
3F9
100
AcDbEntity
  8
MAIN0
  6
CONTINUOUS
 62
3
100
AcDbLine
 10
257.0733165783346
 20
133.8272898775304
 30
0.0000000000000000
 11
257.0733165783346
 21
130.2272939581125
 31
0.0000000000000000
  0
LINE
  5
3FA
100
AcDbEntity
  8
MAIN0
  6
CONTINUOUS
 62
3
100
AcDbLine
 10
253.8983165783346
 20
133.8272898775304
 30
0.0000000000000000
 11
253.8983165783346
 21
130.2272939581125
 31
0.0000000000000000
  0
LINE
  5
3FB
100
AcDbEntity
  8
MAIN0
  6
CONTINUOUS
 62
3
100
AcDbLine
 10
250.7233165783346
 20
133.8272898775304
 30
0.0000000000000000
 11
250.7233165783346
 21
130.2272939581125
 31
0.0000000000000000
  0
LINE
  5
3FC
100
AcDbEntity
  8
MAIN0
  6
CONTINUOUS
 62
3
100
AcDbLine
 10
247.5483165783346
 20
133.8272898775304
 30
0.0000000000000000
 11
247.5483165783346
 21
130.2272939581125
 31
0.0000000000000000
  0
LINE
  5
3FD
100
AcDbEntity
  8
MAIN0
  6
CONTINUOUS
 62
3
100
AcDbLine
 10
244.3733165783346
 20
133.8272898775304
 30
0.0000000000000000
 11
244.3733165783346
 21
130.2272939581125
 31
0.0000000000000000
  0
LINE
  5
3FE
100
AcDbEntity
  8
MAIN0
  6
CONTINUOUS
 62
3
100
AcDbLine
 10
241.1983165783346
 20
133.8272898775304
 30
0.0000000000000000
 11
241.1983165783346
 21
130.2272939581125
 31
0.0000000000000000
  0
LINE
  5
3FF
100
AcDbEntity
  8
MAIN0
  6
CONTINUOUS
 62
3
100
AcDbLine
 10
238.0233165783346
 20
133.8272898775304
 30
0.0000000000000000
 11
238.0233165783346
 21
130.2272939581125
 31
0.0000000000000000
  0
LINE
  5
400
100
AcDbEntity
  8
MAIN0
  6
CONTINUOUS
 62
3
100
AcDbLine
 10
234.8483165783346
 20
133.8272898775304
 30
0.0000000000000000
 11
234.8483165783346
 21
130.2272939581125
 31
0.0000000000000000
  0
LINE
  5
401
100
AcDbEntity
  8
MAIN0
  6
CONTINUOUS
 62
3
100
AcDbLine
 10
231.6733165783346
 20
133.8272898775304
 30
0.0000000000000000
 11
231.6733165783346
 21
130.2272939581125
 31
0.0000000000000000
  0
LINE
  5
402
100
AcDbEntity
  8
MAIN0
  6
CONTINUOUS
 62
3
100
AcDbLine
 10
228.4983165783346
 20
133.8272898775304
 30
0.0000000000000000
 11
228.4983165783346
 21
130.2272939581125
 31
0.0000000000000000
  0
LINE
  5
403
100
AcDbEntity
  8
MAIN0
  6
CONTINUOUS
 62
3
100
AcDbLine
 10
225.3233165783346
 20
133.8272898775304
 30
0.0000000000000000
 11
225.3233165783346
 21
130.2272939581125
 31
0.0000000000000000
  0
LINE
  5
404
100
AcDbEntity
  8
MAIN0
  6
CONTINUOUS
 62
3
100
AcDbLine
 10
222.1483165783346
 20
133.8272898775304
 30
0.0000000000000000
 11
222.1483165783346
 21
130.2272939581125
 31
0.0000000000000000
  0
LINE
  5
405
100
AcDbEntity
  8
MAIN0
  6
CONTINUOUS
 62
3
100
AcDbLine
 10
263.6233165783346
 20
134.0272898775303
 30
0.0000000000000000
 11
266.8233165783346
 21
134.0272898775303
 31
0.0000000000000000
  0
LINE
  5
406
100
AcDbEntity
  8
MAIN0
  6
CONTINUOUS
 62
3
100
AcDbLine
 10
257.2733165783346
 20
134.0272898775303
 30
0.0000000000000000
 11
260.0483165783346
 21
134.0272898775303
 31
0.0000000000000000
  0
LINE
  5
407
100
AcDbEntity
  8
MAIN0
  6
CONTINUOUS
 62
3
100
AcDbLine
 10
250.9233165783346
 20
134.0272898775303
 30
0.0000000000000000
 11
253.6983165783346
 21
134.0272898775303
 31
0.0000000000000000
  0
LINE
  5
408
100
AcDbEntity
  8
MAIN0
  6
CONTINUOUS
 62
3
100
AcDbLine
 10
244.5733165783346
 20
134.0272898775303
 30
0.0000000000000000
 11
247.3483165783346
 21
134.0272898775303
 31
0.0000000000000000
  0
LINE
  5
409
100
AcDbEntity
  8
MAIN0
  6
CONTINUOUS
 62
3
100
AcDbLine
 10
238.2233165783346
 20
134.0272898775303
 30
0.0000000000000000
 11
240.9983165783346
 21
134.0272898775303
 31
0.0000000000000000
  0
LINE
  5
40A
100
AcDbEntity
  8
MAIN0
  6
CONTINUOUS
 62
3
100
AcDbLine
 10
231.8733165783346
 20
134.0272898775303
 30
0.0000000000000000
 11
234.6483165783346
 21
134.0272898775303
 31
0.0000000000000000
  0
LINE
  5
40B
100
AcDbEntity
  8
MAIN0
  6
CONTINUOUS
 62
3
100
AcDbLine
 10
218.0233165783346
 20
134.0272898775303
 30
0.0000000000000000
 11
221.9483165783346
 21
134.0272898775303
 31
0.0000000000000000
  0
LINE
  5
40C
100
AcDbEntity
  8
MAIN0
  6
CONTINUOUS
 62
3
100
AcDbLine
 10
225.5233165783346
 20
134.0272898775303
 30
0.0000000000000000
 11
228.2983165783346
 21
134.0272898775303
 31
0.0000000000000000
  0
ARC
  5
40D
100
AcDbEntity
  8
MAIN0
  6
CONTINUOUS
 62
3
100
AcDbCircle
 10
221.9483165783346
 20
133.8272898775304
 30
0.0000000000000000
 40
0.2000000000000000
100
AcDbArc
 50
0.0000000000000000
 51
90.00000000000000
  0
ARC
  5
40E
100
AcDbEntity
  8
MAIN0
  6
CONTINUOUS
 62
3
100
AcDbCircle
 10
225.5233165783346
 20
133.8272898775304
 30
0.0000000000000000
 40
0.2000000000000000
100
AcDbArc
 50
90.00000000000000
 51
180.0000000000000
  0
ARC
  5
40F
100
AcDbEntity
  8
MAIN0
  6
CONTINUOUS
 62
3
100
AcDbCircle
 10
228.2983165783346
 20
133.8272898775304
 30
0.0000000000000000
 40
0.2000000000000000
100
AcDbArc
 50
0.0000000000000000
 51
90.00000000000000
  0
ARC
  5
410
100
AcDbEntity
  8
MAIN0
  6
CONTINUOUS
 62
3
100
AcDbCircle
 10
231.8733165783346
 20
133.8272898775304
 30
0.0000000000000000
 40
0.2000000000000000
100
AcDbArc
 50
90.00000000000000
 51
180.0000000000000
  0
ARC
  5
411
100
AcDbEntity
  8
MAIN0
  6
CONTINUOUS
 62
3
100
AcDbCircle
 10
234.6483165783346
 20
133.8272898775304
 30
0.0000000000000000
 40
0.2000000000000000
100
AcDbArc
 50
0.0000000000000000
 51
90.00000000000000
  0
ARC
  5
412
100
AcDbEntity
  8
MAIN0
  6
CONTINUOUS
 62
3
100
AcDbCircle
 10
238.2233165783346
 20
133.8272898775304
 30
0.0000000000000000
 40
0.2000000000000000
100
AcDbArc
 50
90.00000000000000
 51
180.0000000000000
  0
ARC
  5
413
100
AcDbEntity
  8
MAIN0
  6
CONTINUOUS
 62
3
100
AcDbCircle
 10
240.9983165783346
 20
133.8272898775304
 30
0.0000000000000000
 40
0.2000000000000000
100
AcDbArc
 50
0.0000000000000000
 51
90.00000000000000
  0
ARC
  5
414
100
AcDbEntity
  8
MAIN0
  6
CONTINUOUS
 62
3
100
AcDbCircle
 10
244.5733165783346
 20
133.8272898775304
 30
0.0000000000000000
 40
0.2000000000000000
100
AcDbArc
 50
90.00000000000000
 51
180.0000000000000
  0
ARC
  5
415
100
AcDbEntity
  8
MAIN0
  6
CONTINUOUS
 62
3
100
AcDbCircle
 10
247.3483165783346
 20
133.8272898775304
 30
0.0000000000000000
 40
0.2000000000000000
100
AcDbArc
 50
0.0000000000000000
 51
90.00000000000000
  0
ARC
  5
416
100
AcDbEntity
  8
MAIN0
  6
CONTINUOUS
 62
3
100
AcDbCircle
 10
250.9233165783346
 20
133.8272898775304
 30
0.0000000000000000
 40
0.2000000000000000
100
AcDbArc
 50
90.00000000000000
 51
180.0000000000000
  0
ARC
  5
417
100
AcDbEntity
  8
MAIN0
  6
CONTINUOUS
 62
3
100
AcDbCircle
 10
253.6983165783346
 20
133.8272898775304
 30
0.0000000000000000
 40
0.2000000000000000
100
AcDbArc
 50
0.0000000000000000
 51
90.00000000000000
  0
ARC
  5
418
100
AcDbEntity
  8
MAIN0
  6
CONTINUOUS
 62
3
100
AcDbCircle
 10
257.2733165783346
 20
133.8272898775304
 30
0.0000000000000000
 40
0.2000000000000000
100
AcDbArc
 50
90.00000000000000
 51
180.0000000000000
  0
ARC
  5
419
100
AcDbEntity
  8
MAIN0
  6
CONTINUOUS
 62
3
100
AcDbCircle
 10
260.0483165783346
 20
133.8272898775304
 30
0.0000000000000000
 40
0.2000000000000000
100
AcDbArc
 50
0.0000000000000000
 51
90.00000000000000
  0
ARC
  5
41A
100
AcDbEntity
  8
MAIN0
  6
CONTINUOUS
 62
3
100
AcDbCircle
 10
263.6233165783346
 20
133.8272898775304
 30
0.0000000000000000
 40
0.2000000000000000
100
AcDbArc
 50
90.00000000000000
 51
180.0000000000000
  0
LINE
  5
41B
100
AcDbEntity
  8
MAIN0
  6
CONTINUOUS
 62
3
100
AcDbLine
 10
265.7778683111467
 20
145.9272898775278
 30
0.0000000000000000
 11
265.7778683111467
 21
137.7272898775291
 31
0.0000000000000000
  0
LINE
  5
41C
100
AcDbEntity
  8
MAIN0
  6
CONTINUOUS
 62
3
100
AcDbLine
 10
217.4233165783346
 20
145.9272898775253
 30
0.0000000000000000
 11
265.7778683111467
 21
145.9272898775278
 31
0.0000000000000000
  0
LINE
  5
41D
100
AcDbEntity
  8
MAIN0
  6
CONTINUOUS
 62
3
100
AcDbLine
 10
217.4233165783346
 20
137.7272898775278
 30
0.0000000000000000
 11
265.7778683111467
 21
137.7272898775291
 31
0.0000000000000000
  0
LINE
  5
41E
100
AcDbEntity
  8
MAIN0
  6
CONTINUOUS
 62
3
100
AcDbLine
 10
263.2375271267075
 20
137.7272898775290
 30
0.0000000000000000
 11
263.2375271267075
 21
134.0272898775303
 31
0.0000000000000000
  0
LINE
  5
41F
100
AcDbEntity
  8
MAIN0
  6
CONTINUOUS
 62
3
100
AcDbLine
 10
263.2375271267081
 20
170.0272898775296
 30
0.0000000000000000
 11
263.2375271267076
 21
145.9272898775277
 31
0.0000000000000000
  0
LINE
  5
420
100
AcDbEntity
  8
MAIN0
  6
CONTINUOUS
 62
3
100
AcDbLine
 10
217.4233165783346
 20
169.4272898775303
 30
0.0000000000000000
 11
218.0233165783346
 21
170.0272898775303
 31
0.0000000000000000
  0
LINE
  5
421
100
AcDbEntity
  8
MAIN0
  6
CONTINUOUS
 62
3
100
AcDbLine
 10
266.8233165783346
 20
170.0272898775303
 30
0.0000000000000000
 11
267.4233165783346
 21
169.4272898775303
 31
0.0000000000000000
  0
LINE
  5
422
100
AcDbEntity
  8
MAIN0
  6
CONTINUOUS
 62
3
100
AcDbLine
 10
267.4233165783346
 20
134.6272898775303
 30
0.0000000000000000
 11
266.8233165783346
 21
134.0272898775303
 31
0.0000000000000000
  0
LINE
  5
423
100
AcDbEntity
  8
MAIN0
  6
CONTINUOUS
 62
3
100
AcDbLine
 10
217.4233165783346
 20
134.6272898775304
 30
0.0000000000000000
 11
218.0233165783346
 21
134.0272898775303
 31
0.0000000000000000
  0
LINE
  5
424
100
AcDbEntity
  8
MAIN0
  6
CONTINUOUS
 62
3
100
AcDbLine
 10
260.4483165783346
 20
130.0272939581126
 30
0.0000000000000000
 11
263.2233165783346
 21
130.0272939581126
 31
0.0000000000000000
  0
LINE
  5
425
100
AcDbEntity
  8
MAIN0
  6
CONTINUOUS
 62
3
100
AcDbLine
 10
254.0983165783346
 20
130.0272939581126
 30
0.0000000000000000
 11
256.8733165783346
 21
130.0272939581126
 31
0.0000000000000000
  0
LINE
  5
426
100
AcDbEntity
  8
MAIN0
  6
CONTINUOUS
 62
3
100
AcDbLine
 10
247.7483165783346
 20
130.0272939581126
 30
0.0000000000000000
 11
250.5233165783346
 21
130.0272939581126
 31
0.0000000000000000
  0
LINE
  5
427
100
AcDbEntity
  8
MAIN0
  6
CONTINUOUS
 62
3
100
AcDbLine
 10
241.3983165783346
 20
130.0272939581125
 30
0.0000000000000000
 11
244.1733165783346
 21
130.0272939581126
 31
0.0000000000000000
  0
LINE
  5
428
100
AcDbEntity
  8
MAIN0
  6
CONTINUOUS
 62
3
100
AcDbLine
 10
235.0483165783346
 20
130.0272939581126
 30
0.0000000000000000
 11
237.8233165783346
 21
130.0272939581126
 31
0.0000000000000000
  0
LINE
  5
429
100
AcDbEntity
  8
MAIN0
  6
CONTINUOUS
 62
3
100
AcDbLine
 10
228.6983165783346
 20
130.0272939581126
 30
0.0000000000000000
 11
231.4733165783346
 21
130.0272939581126
 31
0.0000000000000000
  0
LINE
  5
42A
100
AcDbEntity
  8
MAIN0
  6
CONTINUOUS
 62
3
100
AcDbLine
 10
222.3483165783346
 20
130.0272939581126
 30
0.0000000000000000
 11
225.1233165783346
 21
130.0272939581126
 31
0.0000000000000000
  0
LINE
  5
42B
100
AcDbEntity
  8
MAIN0
  6
CONTINUOUS
 62
3
100
AcDbLine
 10
260.2483165783345
 20
130.2272939581126
 30
0.0000000000000000
 11
260.4483165783346
 21
130.0272939581126
 31
0.0000000000000000
  0
LINE
  5
42C
100
AcDbEntity
  8
MAIN0
  6
CONTINUOUS
 62
3
100
AcDbLine
 10
263.2233165783346
 20
130.0272939581126
 30
0.0000000000000000
 11
263.4233165783346
 21
130.2272939581126
 31
0.0000000000000000
  0
LINE
  5
42D
100
AcDbEntity
  8
MAIN0
  6
CONTINUOUS
 62
3
100
AcDbLine
 10
257.0733165783346
 20
130.2272939581126
 30
0.0000000000000000
 11
256.8733165783345
 21
130.0272939581126
 31
0.0000000000000000
  0
LINE
  5
42E
100
AcDbEntity
  8
MAIN0
  6
CONTINUOUS
 62
3
100
AcDbLine
 10
253.8983165783345
 20
130.2272939581126
 30
0.0000000000000000
 11
254.0983165783346
 21
130.0272939581126
 31
0.0000000000000000
  0
LINE
  5
42F
100
AcDbEntity
  8
MAIN0
  6
CONTINUOUS
 62
3
100
AcDbLine
 10
250.7233165783346
 20
130.2272939581126
 30
0.0000000000000000
 11
250.5233165783346
 21
130.0272939581126
 31
0.0000000000000000
  0
LINE
  5
430
100
AcDbEntity
  8
MAIN0
  6
CONTINUOUS
 62
3
100
AcDbLine
 10
247.5483165783346
 20
130.2272939581126
 30
0.0000000000000000
 11
247.7483165783346
 21
130.0272939581126
 31
0.0000000000000000
  0
LINE
  5
431
100
AcDbEntity
  8
MAIN0
  6
CONTINUOUS
 62
3
100
AcDbLine
 10
244.3733165783346
 20
130.2272939581126
 30
0.0000000000000000
 11
244.1733165783346
 21
130.0272939581126
 31
0.0000000000000000
  0
LINE
  5
432
100
AcDbEntity
  8
MAIN0
  6
CONTINUOUS
 62
3
100
AcDbLine
 10
241.1983165783346
 20
130.2272939581126
 30
0.0000000000000000
 11
241.3983165783346
 21
130.0272939581126
 31
0.0000000000000000
  0
LINE
  5
433
100
AcDbEntity
  8
MAIN0
  6
CONTINUOUS
 62
3
100
AcDbLine
 10
238.0233165783346
 20
130.2272939581125
 30
0.0000000000000000
 11
237.8233165783346
 21
130.0272939581125
 31
0.0000000000000000
  0
LINE
  5
434
100
AcDbEntity
  8
MAIN0
  6
CONTINUOUS
 62
3
100
AcDbLine
 10
234.8483165783346
 20
130.2272939581126
 30
0.0000000000000000
 11
235.0483165783346
 21
130.0272939581126
 31
0.0000000000000000
  0
LINE
  5
435
100
AcDbEntity
  8
MAIN0
  6
CONTINUOUS
 62
3
100
AcDbLine
 10
231.6733165783346
 20
130.2272939581126
 30
0.0000000000000000
 11
231.4733165783346
 21
130.0272939581126
 31
0.0000000000000000
  0
LINE
  5
436
100
AcDbEntity
  8
MAIN0
  6
CONTINUOUS
 62
3
100
AcDbLine
 10
228.4983165783346
 20
130.2272939581126
 30
0.0000000000000000
 11
228.6983165783346
 21
130.0272939581126
 31
0.0000000000000000
  0
LINE
  5
437
100
AcDbEntity
  8
MAIN0
  6
CONTINUOUS
 62
3
100
AcDbLine
 10
225.3233165783346
 20
130.2272939581126
 30
0.0000000000000000
 11
225.1233165783346
 21
130.0272939581126
 31
0.0000000000000000
  0
LINE
  5
438
100
AcDbEntity
  8
MAIN0
  6
CONTINUOUS
 62
3
100
AcDbLine
 10
222.1483165783346
 20
130.2272939581126
 30
0.0000000000000000
 11
222.3483165783346
 21
130.0272939581126
 31
0.0000000000000000
  0
CIRCLE
  5
439
100
AcDbEntity
  8
MAIN0
  6
CONTINUOUS
 62
3
100
AcDbCircle
 10
363.4428946731380
 20
370.0799183971386
 30
0.0000000000000000
 40
7.000000000000000
  0
CIRCLE
  5
43A
100
AcDbEntity
  8
MAIN0
  6
CONTINUOUS
 62
3
100
AcDbCircle
 10
363.4428946731380
 20
370.0799183971386
 30
0.0000000000000000
 40
4.500000000000000
  0
CIRCLE
  5
43B
100
AcDbEntity
  8
MAIN0
  6
CONTINUOUS
 62
3
100
AcDbCircle
 10
286.3274762618157
 20
309.8307504107116
 30
0.0000000000000000
 40
7.000000000000000
  0
CIRCLE
  5
43C
100
AcDbEntity
  8
MAIN0
  6
CONTINUOUS
 62
3
100
AcDbCircle
 10
286.3274762618157
 20
309.8307504107116
 30
0.0000000000000000
 40
4.500000000000000
  0
CIRCLE
  5
43D
100
AcDbEntity
  8
MAIN0
  6
CONTINUOUS
 62
3
100
AcDbCircle
 10
377.0624954995518
 20
273.1714230362538
 30
0.0000000000000000
 40
7.000000000000000
  0
CIRCLE
  5
43E
100
AcDbEntity
  8
MAIN0
  6
CONTINUOUS
 62
3
100
AcDbCircle
 10
377.0624954995518
 20
273.1714230362538
 30
0.0000000000000000
 40
4.500000000000000
  0
ARC
  5
43F
100
AcDbEntity
  8
MAIN0
  6
CONTINUOUS
 62
3
100
AcDbCircle
 10
494.2022267761587
 20
302.9611139409438
 30
0.0000000000000000
 40
5.200000000000000
100
AcDbArc
 50
84.71513723192193
 51
95.28486276815923
  0
ARC
  5
440
100
AcDbEntity
  8
MAIN0
  6
CONTINUOUS
 62
3
100
AcDbCircle
 10
494.2022267761587
 20
302.9611139409438
 30
0.0000000000000000
 40
5.200000000000000
100
AcDbArc
 50
29.74294931471956
 51
84.71513723192193
  0
ARC
  5
441
100
AcDbEntity
  8
MAIN0
  6
CONTINUOUS
 62
3
100
AcDbCircle
 10
494.2022267761587
 20
302.9611139409438
 30
0.0000000000000000
 40
5.200000000000000
100
AcDbArc
 50
264.7151372319225
 51
275.2848627681573
  0
ARC
  5
442
100
AcDbEntity
  8
MAIN0
  6
CONTINUOUS
 62
3
100
AcDbCircle
 10
494.2022267761587
 20
302.9611139409438
 30
0.0000000000000000
 40
5.200000000000000
100
AcDbArc
 50
214.9566143570489
 51
264.7151372319225
  0
ARC
  5
443
100
AcDbEntity
  8
MAIN0
  6
CONTINUOUS
 62
3
100
AcDbCircle
 10
494.2022267761587
 20
302.9611139409438
 30
0.0000000000000000
 40
5.200000000000000
100
AcDbArc
 50
354.7151372318133
 51
365.2848627682694
  0
ARC
  5
444
100
AcDbEntity
  8
MAIN0
  6
CONTINUOUS
 62
3
100
AcDbCircle
 10
494.2022267761587
 20
302.9611139409438
 30
0.0000000000000000
 40
5.200000000000000
100
AcDbArc
 50
174.7151372318110
 51
185.2848627682691
  0
LINE
  5
445
100
AcDbEntity
  8
MAIN0
  6
CONTINUOUS
 62
3
100
AcDbLine
 10
493.7232676762421
 20
318.6770194542567
 30
0.0000000000000000
 11
493.7232676762251
 21
328.9770194542567
 31
0.0000000000000000
  0
LINE
  5
446
100
AcDbEntity
  8
MAIN0
  6
CONTINUOUS
 62
3
100
AcDbLine
 10
494.6811858761072
 20
318.6770194542568
 30
0.0000000000000000
 11
494.6811858761242
 21
328.9770194542568
 31
0.0000000000000000
  0
LINE
  5
447
100
AcDbEntity
  8
MAIN0
  6
CONTINUOUS
 62
3
100
AcDbLine
 10
499.4022267762099
 20
318.6770194542575
 30
0.0000000000000000
 11
499.4022267762302
 21
330.9770194542575
 31
0.0000000000000000
  0
LINE
  5
448
100
AcDbEntity
  8
MAIN0
  6
CONTINUOUS
 62
3
100
AcDbLine
 10
489.0022267762099
 20
318.6770194542560
 30
0.0000000000000000
 11
489.0022267762303
 21
330.9770194542559
 31
0.0000000000000000
  0
LINE
  5
449
100
AcDbEntity
  8
MAIN0
  6
CONTINUOUS
 62
3
100
AcDbLine
 10
499.4022267762099
 20
318.6770194542575
 30
0.0000000000000000
 11
498.7022267762087
 21
317.9770194542574
 31
0.0000000000000000
  0
LINE
  5
44A
100
AcDbEntity
  8
MAIN0
  6
CONTINUOUS
 62
3
100
AcDbLine
 10
489.0022267762098
 20
318.6770194542560
 30
0.0000000000000000
 11
489.7022267762087
 21
317.9770194542560
 31
0.0000000000000000
  0
LINE
  5
44B
100
AcDbEntity
  8
MAIN0
  6
CONTINUOUS
 62
3
100
AcDbLine
 10
494.6811858761242
 20
328.9770194542568
 30
0.0000000000000000
 11
499.4022267762099
 21
318.6770194542575
 31
0.0000000000000000
  0
LINE
  5
44C
100
AcDbEntity
  8
MAIN0
  6
CONTINUOUS
 62
3
100
AcDbLine
 10
499.4022267762269
 20
328.9770194542575
 30
0.0000000000000000
 11
494.6811858761071
 21
318.6770194542568
 31
0.0000000000000000
  0
LINE
  5
44D
100
AcDbEntity
  8
MAIN0
  6
CONTINUOUS
 62
3
100
AcDbLine
 10
493.7232676762420
 20
318.6770194542567
 30
0.0000000000000000
 11
489.0022267762269
 21
328.9770194542559
 31
0.0000000000000000
  0
LINE
  5
44E
100
AcDbEntity
  8
MAIN0
  6
CONTINUOUS
 62
3
100
AcDbLine
 10
489.0022267762099
 20
318.6770194542559
 30
0.0000000000000000
 11
493.7232676762251
 21
328.9770194542566
 31
0.0000000000000000
  0
ARC
  5
44F
100
AcDbEntity
  8
MAIN0
  6
CONTINUOUS
 62
3
100
AcDbCircle
 10
539.2707456721769
 20
327.7364637853104
 30
0.0000000000000000
 40
40.00000000000000
100
AcDbArc
 50
151.2483581635191
 51
175.3531533680033
  0
ARC
  5
450
100
AcDbEntity
  8
MAIN0
  6
CONTINUOUS
 62
3
100
AcDbCircle
 10
449.1337078803053
 20
327.7364637856101
 30
0.0000000000000000
 40
40.00000000000000
100
AcDbArc
 50
4.646846631615579
 51
28.75164183609978
  0
MTEXT
  5
451
100
AcDbEntity
  8
A0
  6
CONTINUOUS
 62
3
100
AcDbMText
 10
510.3183241359645
 20
89.61424631285337
 30
0.0000000000000000
 40
4.650000572204590
 41
0.0000000000000000
 71
     1
 72
     1
  1
{\H0.95x;{○上記仕様は許容最大ハンドルトルク締込時の場合}}
 11
1.000000000000000
 21
0.0000000000000000
 31
0.0000000000000000
  7
KNJYOKO
  0
MTEXT
  5
452
100
AcDbEntity
  8
A0
  6
CONTINUOUS
 62
3
100
AcDbMText
 10
592.7504102445046
 20
181.1438686655673
 30
0.0000000000000000
 40
4.649999856948853
 41
0.0000000000000000
 71
     1
 72
     1
  1
{\H0.91x;{63.7}}
 11
1.000000000000000
 21
0.0000000000000000
 31
0.0000000000000000
  7
STANDARD
  0
MTEXT
  5
453
100
AcDbEntity
  8
A0
  6
CONTINUOUS
 62
3
100
AcDbMText
 10
592.7504102445046
 20
174.3938686655673
 30
0.0000000000000000
 40
4.649999856948853
 41
0.0000000000000000
 71
     1
 72
     1
  1
{\H0.90x;{6.5}}
 11
1.000000000000000
 21
0.0000000000000000
 31
0.0000000000000000
  7
STANDARD
  0
MTEXT
  5
454
100
AcDbEntity
  8
A0
  6
CONTINUOUS
 62
3
100
AcDbMText
 10
592.7504102445046
 20
166.1438686655672
 30
0.0000000000000000
 40
4.649999856948853
 41
0.0000000000000000
 71
     1
 72
     1
  1
{\H0.88x;{15}}
 11
1.000000000000000
 21
0.0000000000000000
 31
0.0000000000000000
  7
STANDARD
  0
MTEXT
  5
455
100
AcDbEntity
  8
A0
  6
CONTINUOUS
 62
3
100
AcDbMText
 10
592.7504102445046
 20
159.3938686655672
 30
0.0000000000000000
 40
4.649999856948853
 41
0.0000000000000000
 71
     1
 72
     1
  1
{\H0.91x;{1530}}
 11
1.000000000000000
 21
0.0000000000000000
 31
0.0000000000000000
  7
STANDARD
  0
MTEXT
  5
456
100
AcDbEntity
  8
A0
  6
CONTINUOUS
 62
3
100
AcDbMText
 10
592.7504102445046
 20
134.8938686655671
 30
0.0000000000000000
 40
4.649999856948853
 41
0.0000000000000000
 71
     1
 72
     1
  1
{\H0.90x;{4.4}}
 11
1.000000000000000
 21
0.0000000000000000
 31
0.0000000000000000
  7
STANDARD
  0
MTEXT
  5
457
100
AcDbEntity
  8
A0
  6
CONTINUOUS
 62
3
100
AcDbMText
 10
592.7504102445046
 20
122.2861588239600
 30
0.0000000000000000
 40
4.500000000000000
 41
0.0000000000000000
 71
     1
 72
     1
  1
{\H0.63x;{0.009}}
 11
1.000000000000000
 21
0.0000000000000000
 31
0.0000000000000000
  7
STANDARD
  0
MTEXT
  5
458
100
AcDbEntity
  8
A0
  6
CONTINUOUS
 62
3
100
AcDbMText
 10
588.2504102444613
 20
109.3938686655623
 30
0.0000000000000000
 40
4.649999856948853
 41
0.0000000000000000
 71
     1
 72
     1
  1
{\H0.93x;{\U+22053～\U+2205110}}
 11
1.000000000000000
 21
0.0000000000000000
 31
0.0000000000000000
  7
KNJYOKO
  0
MTEXT
  5
459
100
AcDbEntity
  8
A0
  6
CONTINUOUS
 62
3
100
AcDbMText
 10
588.2504102444613
 20
98.89386866556225
 30
0.0000000000000000
 40
4.649999856948853
 41
0.0000000000000000
 71
     1
 72
     1
  1
{\H0.93x;{\U+220533～\U+2205100}}
 11
1.000000000000000
 21
0.0000000000000000
 31
0.0000000000000000
  7
KNJYOKO
  0
MTEXT
  5
45A
100
AcDbEntity
  8
A0
  6
CONTINUOUS
 62
3
100
AcDbMText
 10
510.3183241359645
 20
83.46424574064878
 30
0.0000000000000000
 40
4.500000000000000
 41
0.0000000000000000
 71
     1
 72
     1
  1
{\H0.62x;{ABOVE SPECS :AT MAX PERMISSIBLE HANDLE TORQUE.}}
 11
1.000000000000000
 21
0.0000000000000000
 31
0.0000000000000000
  7
STANDARD
  0
MTEXT
  5
45B
100
AcDbEntity
  8
A0
  6
CONTINUOUS
 62
3
100
AcDbMText
 10
592.7504102445046
 20
147.3938686655672
 30
0.0000000000000000
 40
4.649999856948853
 41
0.0000000000000000
 71
     1
 72
     1
  1
{\H0.91x;{2500}}
 11
1.000000000000000
 21
0.0000000000000000
 31
0.0000000000000000
  7
STANDARD
  0
MTEXT
  5
45C
100
AcDbEntity
  8
A0
  6
CONTINUOUS
 62
3
100
AcDbMText
 10
540.7140803605096
 20
111.7204789333973
 30
0.0000000000000000
 40
3.750000000000000
 41
0.0000000000000000
 71
     1
 72
     1
  1
{\H0.63x;{EXTERNAL\PGRIPPING}}
 11
1.000000000000000
 21
0.0000000000000000
 31
0.0000000000000000
  7
STANDARD
  0
MTEXT
  5
45D
100
AcDbEntity
  8
A0
  6
CONTINUOUS
 62
3
100
AcDbMText
 10
540.6364662177333
 20
101.0874003100595
 30
0.0000000000000000
 40
3.750000000000000
 41
0.0000000000000000
 71
     1
 72
     1
  1
{\H0.63x;{INTERNALLY\PGRIPPING}}
 11
1.000000000000000
 21
0.0000000000000000
 31
0.0000000000000000
  7
STANDARD
  0
LINE
  5
45E
100
AcDbEntity
  8
A0
  6
CONTINUOUS
 62
3
100
AcDbLine
 10
510.2504102445047
 20
91.24386880861340
 30
0.0000000000000000
 11
630.2504102445046
 21
91.24386880861349
 31
0.0000000000000000
  0
LINE
  5
45F
100
AcDbEntity
  8
A0
  6
CONTINUOUS
 62
3
100
AcDbLine
 10
539.5004102445046
 20
91.24386880861351
 30
0.0000000000000000
 11
539.5004102445046
 21
112.2438688086134
 31
0.0000000000000000
  0
MTEXT
  5
460
100
AcDbEntity
  8
A0
  6
CONTINUOUS
 62
3
100
AcDbMText
 10
564.0758106215926
 20
109.4383166176224
 30
0.0000000000000000
 40
4.649999856948853
 41
0.0000000000000000
 71
     1
 72
     1
  1
{\H0.92x;{外径把握}}
 11
1.000000000000000
 21
0.0000000000000000
 31
0.0000000000000000
  7
KNJYOKO
  0
MTEXT
  5
461
100
AcDbEntity
  8
A0
  6
CONTINUOUS
 62
3
100
AcDbMText
 10
564.0758106215926
 20
98.72762385150844
 30
0.0000000000000000
 40
4.649999856948853
 41
0.0000000000000000
 71
     1
 72
     1
  1
{\H0.92x;{内径把握}}
 11
1.000000000000000
 21
0.0000000000000000
 31
0.0000000000000000
  7
KNJYOKO
  0
MTEXT
  5
462
100
AcDbEntity
  8
A0
  6
CONTINUOUS
 62
3
100
AcDbMText
 10
522.9405374373871
 20
96.79250755125707
 30
0.0000000000000000
 40
4.500000000000000
 41
0.0000000000000000
 71
     1
 72
     1
  1
{\H0.63x;{(mm)}}
 11
1.000000000000000
 21
0.0000000000000000
 31
0.0000000000000000
  7
STANDARD
  0
MTEXT
  5
463
100
AcDbEntity
  8
A0
  6
CONTINUOUS
 62
3
100
AcDbMText
 10
514.0004102445062
 20
151.0188686656095
 30
0.0000000000000000
 40
4.649999856948853
 41
0.0000000000000000
 71
     1
 72
     1
  1
{\H0.94x;{許容最高回転速度　}}
 11
1.000000000000000
 21
0.0000000000000000
 31
0.0000000000000000
  7
KNJYOKO
  0
LINE
  5
464
100
AcDbEntity
  8
A0
  6
CONTINUOUS
 62
3
100
AcDbLine
 10
539.5004102445046
 20
101.7438688086134
 30
0.0000000000000000
 11
630.2504102445046
 21
101.7438688086135
 31
0.0000000000000000
  0
LINE
  5
465
100
AcDbEntity
  8
A0
  6
CONTINUOUS
 62
3
100
AcDbLine
 10
510.2504102445045
 20
193.7438688086710
 30
0.0000000000000000
 11
630.2504102445046
 21
193.7438688087074
 31
0.0000000000000000
  0
LINE
  5
466
100
AcDbEntity
  8
A0
  6
CONTINUOUS
 62
3
100
AcDbLine
 10
510.2504102445045
 20
183.2438688086681
 30
0.0000000000000000
 11
630.2504102445047
 21
183.2438688087023
 31
0.0000000000000000
  0
LINE
  5
467
100
AcDbEntity
  8
A0
  6
CONTINUOUS
 62
3
100
AcDbLine
 10
510.2504102445046
 20
168.2438688086581
 30
0.0000000000000000
 11
630.2504102445046
 21
168.2438688086854
 31
0.0000000000000000
  0
LINE
  5
468
100
AcDbEntity
  8
A0
  6
CONTINUOUS
 62
3
100
AcDbLine
 10
510.2504102445045
 20
153.2438688086538
 30
0.0000000000000000
 11
630.2504102445045
 21
153.2438688086780
 31
0.0000000000000000
  0
LINE
  5
469
100
AcDbEntity
  8
A0
  6
CONTINUOUS
 62
3
100
AcDbLine
 10
510.2504102445044
 20
137.7438688086507
 30
0.0000000000000000
 11
630.2504102445046
 21
137.7438688086729
 31
0.0000000000000000
  0
LINE
  5
46A
100
AcDbEntity
  8
A0
  6
CONTINUOUS
 62
3
100
AcDbLine
 10
510.2504102445045
 20
127.2438688086477
 30
0.0000000000000000
 11
630.2504102445046
 21
127.2438688086679
 31
0.0000000000000000
  0
LINE
  5
46B
100
AcDbEntity
  8
A0
  6
CONTINUOUS
 62
3
100
AcDbLine
 10
510.2504102445046
 20
112.2438688086134
 30
0.0000000000000000
 11
630.2504102445046
 21
112.2438688086134
 31
0.0000000000000000
  0
LINE
  5
46C
100
AcDbEntity
  8
A0
  6
CONTINUOUS
 62
3
100
AcDbLine
 10
510.2504102445046
 20
91.24386880861340
 30
0.0000000000000000
 11
510.2504102445046
 21
193.7438688086185
 31
0.0000000000000000
  0
LINE
  5
46D
100
AcDbEntity
  8
A0
  6
CONTINUOUS
 62
3
100
AcDbLine
 10
585.2504102445046
 20
91.24386880861351
 30
0.0000000000000000
 11
585.2504102445046
 21
183.2438688086891
 31
0.0000000000000000
  0
LINE
  5
46E
100
AcDbEntity
  8
A0
  6
CONTINUOUS
 62
3
100
AcDbLine
 10
630.2504102445046
 20
91.24386880861351
 30
0.0000000000000000
 11
630.2504102445046
 21
193.7438688086185
 31
0.0000000000000000
  0
MTEXT
  5
46F
100
AcDbEntity
  8
A0
  6
CONTINUOUS
 62
3
100
AcDbMText
 10
514.0004102445063
 20
181.5188693808727
 30
0.0000000000000000
 40
4.650000572204590
 41
0.0000000000000000
 71
     1
 72
     1
  1
{\H0.94x;{許容最大ハンドルトルク}}
 11
1.000000000000000
 21
0.0000000000000000
 31
0.0000000000000000
  7
KNJYOKO
  0
MTEXT
  5
470
100
AcDbEntity
  8
A0
  6
CONTINUOUS
 62
3
100
AcDbMText
 10
514.0004102445062
 20
166.5188693808682
 30
0.0000000000000000
 40
4.650000572204590
 41
0.0000000000000000
 71
     1
 72
     1
  1
{\H0.94x;{最大静的把握力}}
 11
1.000000000000000
 21
0.0000000000000000
 31
0.0000000000000000
  7
KNJYOKO
  0
MTEXT
  5
471
100
AcDbEntity
  8
A0
  6
CONTINUOUS
 62
3
100
AcDbMText
 10
513.2504102445047
 20
134.8938693808523
 30
0.0000000000000000
 40
4.650000572204590
 41
0.0000000000000000
 71
     1
 72
     1
  1
{\H0.90x;{質量}}
 11
1.000000000000000
 21
0.0000000000000000
 31
0.0000000000000000
  7
KNJYOKO
  0
MTEXT
  5
472
100
AcDbEntity
  8
A0
  6
CONTINUOUS
 62
3
100
AcDbMText
 10
515.1023772095522
 20
110.4771826720661
 30
0.0000000000000000
 40
4.650000572204590
 41
0.0000000000000000
 71
     1
 72
     1
  1
{\H0.96x;{把握径}}
 11
1.000000000000000
 21
0.0000000000000000
 31
0.0000000000000000
  7
KNJYOKO
  0
MTEXT
  5
473
100
AcDbEntity
  8
A0
  6
CONTINUOUS
 62
3
100
AcDbMText
 10
518.7494112559049
 20
192.0422860008736
 30
0.0000000000000000
 40
7.500000000000000
 41
0.0000000000000000
 71
     1
 72
     1
  1
{\H0.91x;{仕　様}}
 11
1.000000000000000
 21
0.0000000000000000
 31
0.0000000000000000
  7
KNJYOKO
  0
MTEXT
  5
474
100
AcDbEntity
  8
A0
  6
CONTINUOUS
 62
3
100
AcDbMText
 10
607.7504102445046
 20
180.6938676642093
 30
0.0000000000000000
 40
4.199998855590820
 41
0.0000000000000000
 71
     1
 72
     1
  1
{\H0.58x;{　　　Ｎ・ｍ}}
 11
1.000000000000000
 21
0.0000000000000000
 31
0.0000000000000000
  7
KNJYOKO
  0
MTEXT
  5
475
100
AcDbEntity
  8
A0
  6
CONTINUOUS
 62
3
100
AcDbMText
 10
588.2504102445046
 20
173.9438676642093
 30
0.0000000000000000
 40
4.199998855590820
 41
0.0000000000000000
 71
     1
 72
     1
  1
{\H0.48x;{（}}
 11
1.000000000000000
 21
0.0000000000000000
 31
0.0000000000000000
  7
KNJYOKO
  0
MTEXT
  5
476
100
AcDbEntity
  8
A0
  6
CONTINUOUS
 62
3
100
AcDbMText
 10
606.2504102445046
 20
173.9438676642093
 30
0.0000000000000000
 40
4.199998855590820
 41
0.0000000000000000
 71
     1
 72
     1
  1
{\H0.58x;{　ｋｇｆ・ｍ）}}
 11
1.000000000000000
 21
0.0000000000000000
 31
0.0000000000000000
  7
KNJYOKO
  0
MTEXT
  5
477
100
AcDbEntity
  8
A0
  6
CONTINUOUS
 62
3
100
AcDbMText
 10
607.7504102445046
 20
134.4438676642091
 30
0.0000000000000000
 40
4.199998855590820
 41
0.0000000000000000
 71
     1
 72
     1
  1
{\H0.58x;{　　　　ｋｇ}}
 11
1.000000000000000
 21
0.0000000000000000
 31
0.0000000000000000
  7
KNJYOKO
  0
MTEXT
  5
478
100
AcDbEntity
  8
A0
  6
CONTINUOUS
 62
3
100
AcDbMText
 10
607.7504102445046
 20
165.6938676642092
 30
0.0000000000000000
 40
4.199998855590820
 41
0.0000000000000000
 71
     1
 72
     1
  1
{\H0.58x;{　　　　ｋＮ}}
 11
1.000000000000000
 21
0.0000000000000000
 31
0.0000000000000000
  7
KNJYOKO
  0
MTEXT
  5
479
100
AcDbEntity
  8
A0
  6
CONTINUOUS
 62
3
100
AcDbMText
 10
588.2504102445046
 20
158.9438676642092
 30
0.0000000000000000
 40
4.199998855590820
 41
0.0000000000000000
 71
     1
 72
     1
  1
{\H0.48x;{（}}
 11
1.000000000000000
 21
0.0000000000000000
 31
0.0000000000000000
  7
KNJYOKO
  0
MTEXT
  5
47A
100
AcDbEntity
  8
A0
  6
CONTINUOUS
 62
3
100
AcDbMText
 10
606.2504102445046
 20
158.9438676642092
 30
0.0000000000000000
 40
4.199998855590820
 41
0.0000000000000000
 71
     1
 72
     1
  1
{\H0.58x;{　　　ｋｇｆ）}}
 11
1.000000000000000
 21
0.0000000000000000
 31
0.0000000000000000
  7
KNJYOKO
  0
MTEXT
  5
47B
100
AcDbEntity
  8
A0
  6
CONTINUOUS
 62
3
100
AcDbMText
 10
557.4991213138713
 20
190.7118790499148
 30
0.0000000000000000
 40
4.649999856948853
 41
0.0000000000000000
 71
     1
 72
     1
  1
{\H0.93x;{SPECIFICATIONS}}
 11
1.000000000000000
 21
0.0000000000000000
 31
0.0000000000000000
  7
STANDARD
  0
MTEXT
  5
47C
100
AcDbEntity
  8
A0
  6
CONTINUOUS
 62
3
100
AcDbMText
 10
514.0004102445041
 20
173.8688688086581
 30
0.0000000000000000
 40
3.750000000000000
 41
0.0000000000000000
 71
     1
 72
     1
  1
{\H0.62x;{MAX.PERMISSIBLE HANDLE TORQUE}}
 11
1.000000000000000
 21
0.0000000000000000
 31
0.0000000000000000
  7
STANDARD
  0
MTEXT
  5
47D
100
AcDbEntity
  8
A0
  6
CONTINUOUS
 62
3
100
AcDbMText
 10
514.0004102445040
 20
158.8688688086538
 30
0.0000000000000000
 40
3.750000000000000
 41
0.0000000000000000
 71
     1
 72
     1
  1
{\H0.63x;{MAX STATIC GRIPPING FORCE}}
 11
1.000000000000000
 21
0.0000000000000000
 31
0.0000000000000000
  7
STANDARD
  0
MTEXT
  5
47E
100
AcDbEntity
  8
A0
  6
CONTINUOUS
 62
3
100
AcDbMText
 10
514.0004102445040
 20
143.3688688086507
 30
0.0000000000000000
 40
3.750000000000000
 41
0.0000000000000000
 71
     1
 72
     1
  1
{\H0.63x;{MAX PREMISSIBLE SPEED}}
 11
1.000000000000000
 21
0.0000000000000000
 31
0.0000000000000000
  7
STANDARD
  0
MTEXT
  5
47F
100
AcDbEntity
  8
A0
  6
CONTINUOUS
 62
3
100
AcDbMText
 10
511.3033855748787
 20
102.8909558996957
 30
0.0000000000000000
 40
3.750000000000000
 41
0.0000000000000000
 71
     1
 72
     1
  1
{\H0.54x;{GRIPPING RANGE}}
 11
1.000000000000000
 21
0.0000000000000000
 31
0.0000000000000000
  7
STANDARD
  0
MTEXT
  5
480
100
AcDbEntity
  8
A0
  6
CONTINUOUS
 62
3
100
AcDbMText
 10
538.6038971275532
 20
134.9670511449157
 30
0.0000000000000000
 40
4.650000572204590
 41
0.0000000000000000
 71
     1
 72
     1
  1
{\H0.91x;{MASS}}
 11
1.000000000000000
 21
0.0000000000000000
 31
0.0000000000000000
  7
STANDARD
  0
MTEXT
  5
481
100
AcDbEntity
  8
A0
  6
CONTINUOUS
 62
3
100
AcDbMText
 10
610.7504102445046
 20
146.9438676642092
 30
0.0000000000000000
 40
4.199998855590820
 41
0.0000000000000000
 71
     1
 72
     1
  1
{\H0.57x;{　ｍｉｎ}}
 11
1.000000000000000
 21
0.0000000000000000
 31
0.0000000000000000
  7
KNJYOKO
  0
MTEXT
  5
482
100
AcDbEntity
  8
A0
  6
CONTINUOUS
 62
3
100
AcDbMText
 10
622.9824126169845
 20
147.9481844935513
 30
0.0000000000000000
 40
3.000000000000000
 41
0.0000000000000000
 71
     1
 72
     1
  1
{\H0.88x;{-1}}
 11
1.000000000000000
 21
0.0000000000000000
 31
0.0000000000000000
  7
STANDARD
  0
MTEXT
  5
483
100
AcDbEntity
  8
A0
  6
CONTINUOUS
 62
3
100
AcDbMText
 10
607.8803218393987
 20
121.6768520108316
 30
0.0000000000000000
 40
4.199998855590820
 41
0.0000000000000000
 71
     1
 72
     1
  1
{\H0.64x;{　　kg・m}}
 11
1.000000000000000
 21
0.0000000000000000
 31
0.0000000000000000
  7
KNJYOKO
  0
MTEXT
  5
484
100
AcDbEntity
  8
A0
  6
CONTINUOUS
 62
3
100
AcDbMText
 10
625.7461408013339
 20
122.0602078975293
 30
0.0000000000000000
 40
3.000000000000000
 41
0.0000000000000000
 71
     1
 72
     1
  1
{\H0.81x;{2}}
 11
1.000000000000000
 21
0.0000000000000000
 31
0.0000000000000000
  7
STANDARD
  0
MTEXT
  5
485
100
AcDbEntity
  8
A0
  6
CONTINUOUS
 62
3
100
AcDbMText
 10
513.3570679719850
 20
125.5188593961646
 30
0.0000000000000000
 40
4.650000572204590
 41
0.0000000000000000
 71
     1
 72
     1
  1
{\H0.94x;{慣性モーメント}}
 11
1.000000000000000
 21
0.0000000000000000
 31
0.0000000000000000
  7
KNJYOKO
  0
MTEXT
  5
486
100
AcDbEntity
  8
A0
  6
CONTINUOUS
 62
3
100
AcDbMText
 10
513.3570679719850
 20
117.8688688086434
 30
0.0000000000000000
 40
3.750000000000000
 41
0.0000000000000000
 71
     1
 72
     1
  1
{\H0.63x;{MOMENT OF INERTIA}}
 11
1.000000000000000
 21
0.0000000000000000
 31
0.0000000000000000
  7
STANDARD
  0
LINE
  5
487
100
AcDbEntity
  8
WAKU0
  6
CONTINUOUS
 62
3
100
AcDbLine
 10
412.0000000000000
 20
51.00000000000000
 30
0.0000000000000000
 11
582.0000000000000
 21
51.00000000000000
 31
0.0000000000000000
  0
LINE
  5
488
100
AcDbEntity
  8
WAKU0
  6
CONTINUOUS
 62
3
100
AcDbLine
 10
412.0000000000000
 20
51.00000000000000
 30
0.0000000000000000
 11
412.0000000000000
 21
12.00000000000000
 31
0.0000000000000000
  0
LINE
  5
489
100
AcDbEntity
  8
WAKU0
  6
CONTINUOUS
 62
3
100
AcDbLine
 10
484.0000000000000
 20
51.00000000000000
 30
0.0000000000000000
 11
484.0000000000000
 21
12.00000000000000
 31
0.0000000000000000
  0
LINE
  5
48A
100
AcDbEntity
  8
WAKU0
  6
CONTINUOUS
 62
3
100
AcDbLine
 10
504.0000000000000
 20
51.00000000000000
 30
0.0000000000000000
 11
504.0000000000000
 21
12.00000000000000
 31
0.0000000000000000
  0
LINE
  5
48B
100
AcDbEntity
  8
WAKU0
  6
CONTINUOUS
 62
3
100
AcDbLine
 10
516.0000000000000
 20
51.00000000000000
 30
0.0000000000000000
 11
516.0000000000000
 21
12.00000000000000
 31
0.0000000000000000
  0
LINE
  5
48C
100
AcDbEntity
  8
WAKU0
  6
CONTINUOUS
 62
3
100
AcDbLine
 10
516.0000000000000
 20
37.00000000000000
 30
0.0000000000000000
 11
582.0000000000000
 21
37.00000000000000
 31
0.0000000000000000
  0
LINE
  5
48D
100
AcDbEntity
  8
WAKU0
  6
CONTINUOUS
 62
3
100
AcDbLine
 10
504.0000000000000
 20
23.00000000000000
 30
0.0000000000000000
 11
582.0000000000000
 21
23.00000000000000
 31
0.0000000000000000
  0
LINE
  5
48E
100
AcDbEntity
  8
WAKU0
  6
CONTINUOUS
 62
3
100
AcDbLine
 10
547.0000000000000
 20
51.00000000000000
 30
0.0000000000000000
 11
547.0000000000000
 21
44.00000000000000
 31
0.0000000000000000
  0
LINE
  5
48F
100
AcDbEntity
  8
WAKU0
  6
CONTINUOUS
 62
3
100
AcDbLine
 10
559.0000000000000
 20
51.00000000000000
 30
0.0000000000000000
 11
559.0000000000000
 21
44.00000000000000
 31
0.0000000000000000
  0
LINE
  5
490
100
AcDbEntity
  8
WAKU0
  6
CONTINUOUS
 62
3
100
AcDbLine
 10
484.0000000000000
 20
31.50000000000000
 30
0.0000000000000000
 11
504.0000000000000
 21
31.50000000000000
 31
0.0000000000000000
  0
LINE
  5
491
100
AcDbEntity
  8
WAKU0
  6
CONTINUOUS
 62
3
100
AcDbLine
 10
504.0000000000000
 20
44.00000000000000
 30
0.0000000000000000
 11
582.0000000000000
 21
44.00000000000000
 31
0.0000000000000000
  0
LINE
  5
492
100
AcDbEntity
  8
WAKU0
  6
CONTINUOUS
 62
3
100
AcDbLine
 10
412.0000000000000
 20
37.00000000000000
 30
0.0000000000000000
 11
484.0000000000000
 21
37.00000000000000
 31
0.0000000000000000
  0
LINE
  5
493
100
AcDbEntity
  8
WAKU0
  6
CONTINUOUS
 62
3
100
AcDbLine
 10
412.0000000000000
 20
23.00000000000000
 30
0.0000000000000000
 11
484.0000000000000
 21
23.00000000000000
 31
0.0000000000000000
  0
LINE
  5
494
100
AcDbEntity
  8
WAKU0
  6
CONTINUOUS
 62
3
100
AcDbLine
 10
460.0000000000000
 20
37.00000000000000
 30
0.0000000000000000
 11
460.0000000000000
 21
12.00000000000000
 31
0.0000000000000000
  0
LINE
  5
495
100
AcDbEntity
  8
WAKU0
  6
CONTINUOUS
 62
3
100
AcDbLine
 10
436.0000000000000
 20
37.00000000000000
 30
0.0000000000000000
 11
436.0000000000000
 21
23.00000000000000
 31
0.0000000000000000
  0
LINE
  5
496
100
AcDbEntity
  8
WAKU0
  6
CONTINUOUS
 62
3
100
AcDbLine
 10
472.0000000000000
 20
26.00000000000000
 30
0.0000000000000000
 11
472.0000000000000
 21
23.00000000000000
 31
0.0000000000000000
  0
LINE
  5
497
100
AcDbEntity
  8
WAKU0
  6
CONTINUOUS
 62
3
100
AcDbLine
 10
448.0000000000000
 20
26.00000000000000
 30
0.0000000000000000
 11
448.0000000000000
 21
23.00000000000000
 31
0.0000000000000000
  0
LINE
  5
498
100
AcDbEntity
  8
WAKU0
  6
CONTINUOUS
 62
3
100
AcDbLine
 10
424.0000000000000
 20
26.00000000000000
 30
0.0000000000000000
 11
424.0000000000000
 21
23.00000000000000
 31
0.0000000000000000
  0
LINE
  5
499
100
AcDbEntity
  8
WAKU0
  6
CONTINUOUS
 62
3
100
AcDbLine
 10
430.0000000000000
 20
51.00000000000000
 30
0.0000000000000000
 11
430.0000000000000
 21
37.00000000000000
 31
0.0000000000000000
  0
LINE
  5
49A
100
AcDbEntity
  8
WAKU0
  6
CONTINUOUS
 62
3
100
AcDbLine
 10
412.0000000000000
 20
45.00000000000000
 30
0.0000000000000000
 11
484.0000000000000
 21
45.00000000000000
 31
0.0000000000000000
  0
LINE
  5
49B
100
AcDbEntity
  8
WAKU0
  6
HIDDEN
 62
3
100
AcDbLine
 10
532.5000000000000
 20
23.00000000000000
 30
0.0000000000000000
 11
532.5000000000000
 21
12.00000000000000
 31
0.0000000000000000
  0
LINE
  5
49C
100
AcDbEntity
  8
WAKU0
  6
HIDDEN
 62
3
100
AcDbLine
 10
544.9000000000000
 20
23.00000000000000
 30
0.0000000000000000
 11
544.9000000000000
 21
12.00000000000000
 31
0.0000000000000000
  0
MTEXT
  5
49D
100
AcDbEntity
  8
WAKU0
  6
CONTINUOUS
 62
3
100
AcDbMText
 10
516.4820000243485
 20
49.04999995231628
 30
0.0000000000000000
 40
3.099999904632568
 41
0.0000000000000000
 71
     1
 72
     1
  1
{\H0.93x;{SC-5F-113}}
 11
1.000000000000000
 21
0.0000000000000000
 31
0.0000000000000000
  7
STANDARD
  0
MTEXT
  5
49E
100
AcDbEntity
  8
WAKU0
  6
CONTINUOUS
 62
3
100
AcDbMText
 10
516.4659999916852
 20
43.50000000000000
 30
0.0000000000000000
 40
3.000000000000000
 41
0.0000000000000000
 71
     1
 72
     1
  1
{\H0.94x;{スクロールチャック　５\PＳＣＲＯＬＬ　ＣＨＵＣＫ　５}}
 11
1.000000000000000
 21
0.0000000000000000
 31
0.0000000000000000
  7
KNJYOKO
  0
MTEXT
  5
49F
100
AcDbEntity
  8
WAKU0
  6
CONTINUOUS
 62
3
100
AcDbMText
 10
516.4000000059605
 20
34.23333326975504
 30
0.0000000000000000
 40
3.099999904632568
 41
0.0000000000000000
 71
     1
 72
     1
  1
{\H0.71x;{ＳＣ－５Ｆ－１１３　ガイケイ\PＳＣ－５Ｆ－１１３　ＯＵＴＳＩＤＥ　ＶＩＥＷ}}
 11
1.000000000000000
 21
0.0000000000000000
 31
0.0000000000000000
  7
KNJYOKO
  0
MTEXT
  5
4A0
100
AcDbEntity
  8
WAKU0
  6
CONTINUOUS
 62
3
100
AcDbMText
 10
490.0049998760223
 20
39.29999995231628
 30
0.0000000000000000
 40
3.099999904632568
 41
0.0000000000000000
 71
     1
 72
     1
  1
{\H0.90x;{1:1}}
 11
1.000000000000000
 21
0.0000000000000000
 31
0.0000000000000000
  7
STANDARD
  0
MTEXT
  5
4A1
100
AcDbEntity
  8
WAKU0
  6
CONTINUOUS
 62
3
100
AcDbMText
 10
546.4000001549721
 20
20.15000009536743
 30
0.0000000000000000
 40
5.300000190734863
 41
0.0000000000000000
 71
     1
 72
     1
  1
{\H0.90x;{5140}}
 11
1.000000000000000
 21
0.0000000000000000
 31
0.0000000000000000
  7
STANDARD
  0
MTEXT
  5
4A2
100
AcDbEntity
  8
WAKU0
  6
CONTINUOUS
 62
3
100
AcDbMText
 10
534.3000000834466
 20
20.15000009536743
 30
0.0000000000000000
 40
5.300000190734863
 41
0.0000000000000000
 71
     1
 72
     1
  1
{\H0.87x;{23}}
 11
1.000000000000000
 21
0.0000000000000000
 31
0.0000000000000000
  7
STANDARD
  0
MTEXT
  5
4A3
100
AcDbEntity
  8
WAKU0
  6
CONTINUOUS
 62
3
100
AcDbMText
 10
517.5000001192093
 20
20.15000009536743
 30
0.0000000000000000
 40
5.300000190734863
 41
0.0000000000000000
 71
     1
 72
     1
  1
{\H0.89x;{61S}}
 11
1.000000000000000
 21
0.0000000000000000
 31
0.0000000000000000
  7
STANDARD
  0
MTEXT
  5
4A4
100
AcDbEntity
  8
WAKU0
  6
CONTINUOUS
 62
3
100
AcDbMText
 10
572.0000000476837
 20
20.15000009536743
 30
0.0000000000000000
 40
5.300000190734863
 41
0.0000000000000000
 71
     1
 72
     1
  1
{\H0.81x;{5}}
 11
1.000000000000000
 21
0.0000000000000000
 31
0.0000000000000000
  7
STANDARD
  0
MTEXT
  5
4A5
100
AcDbEntity
  8
WAKU0
  6
CONTINUOUS
 62
3
100
AcDbMText
 10
572.0000000819564
 20
44.84999990463257
 30
0.0000000000000000
 40
5.300000190734863
 41
0.0000000000000000
 71
     7
 72
     1
  1
{\H0.81x;{ }}
 11
1.000000000000000
 21
0.0000000000000000
 31
0.0000000000000000
  7
STANDARD
  0
MTEXT
  5
4A6
100
AcDbEntity
  8
WAKU0
  6
CONTINUOUS
 62
3
100
AcDbMText
 10
461.3850002884865
 20
33.00000000000000
 30
0.0000000000000000
 40
3.000000000000000
 41
0.0000000000000000
 71
     7
 72
     1
  1
{\H0.93x;{DRAWN BY}}
 11
1.000000000000000
 21
0.0000000000000000
 31
0.0000000000000000
  7
STANDARD
  0
MTEXT
  5
4A7
100
AcDbEntity
  8
WAKU0
  6
CONTINUOUS
 62
3
100
AcDbMText
 10
441.2149997949600
 20
32.95000004768372
 30
0.0000000000000000
 40
3.099999904632568
 41
0.0000000000000000
 71
     7
 72
     1
  1
{\H0.92x;{CHIEF}}
 11
1.000000000000000
 21
0.0000000000000000
 31
0.0000000000000000
  7
STANDARD
  0
MTEXT
  5
4A8
100
AcDbEntity
  8
WAKU0
  6
CONTINUOUS
 62
3
100
AcDbMText
 10
414.4249997138977
 20
32.95000004768372
 30
0.0000000000000000
 40
3.099999904632568
 41
0.0000000000000000
 71
     7
 72
     1
  1
{\H0.92x;{MANAGER}}
 11
1.000000000000000
 21
0.0000000000000000
 31
0.0000000000000000
  7
STANDARD
  0
MTEXT
  5
4A9
100
AcDbEntity
  8
WAKU0
  6
CONTINUOUS
 62
3
100
AcDbMText
 10
413.0850002169609
 20
46.50000000000000
 30
0.0000000000000000
 40
3.000000000000000
 41
0.0000000000000000
 71
     7
 72
     1
  1
{\H0.92x;{CAREER}}
 11
1.000000000000000
 21
0.0000000000000000
 31
0.0000000000000000
  7
STANDARD
  0
MTEXT
  5
4AA
100
AcDbEntity
  8
WAKU0
  6
CONTINUOUS
 62
3
100
AcDbMText
 10
466.6099998354912
 20
18.95000004768372
 30
0.0000000000000000
 40
3.099999904632568
 41
0.0000000000000000
 71
     7
 72
     1
  1
{\H0.91x;{DATE}}
 11
1.000000000000000
 21
0.0000000000000000
 31
0.0000000000000000
  7
STANDARD
  0
MTEXT
  5
4AB
100
AcDbEntity
  8
WAKU0
  6
CONTINUOUS
 62
3
100
AcDbMText
 10
485.9000002145767
 20
26.50000000000000
 30
0.0000000000000000
 40
3.000000000000000
 41
0.0000000000000000
 71
     7
 72
     1
  1
{\H0.63x;{3RD ANGLE}}
 11
1.000000000000000
 21
0.0000000000000000
 31
0.0000000000000000
  7
STANDARD
  0
MTEXT
  5
4AC
100
AcDbEntity
  8
WAKU0
  6
CONTINUOUS
 62
3
100
AcDbMText
 10
487.2149997949600
 20
45.95000004768372
 30
0.0000000000000000
 40
3.099999904632568
 41
0.0000000000000000
 71
     7
 72
     1
  1
{\H0.92x;{SCALE}}
 11
1.000000000000000
 21
0.0000000000000000
 31
0.0000000000000000
  7
STANDARD
  0
MTEXT
  5
4AD
100
AcDbEntity
  8
WAKU0
  6
CONTINUOUS
 62
3
100
AcDbMText
 10
577.7000000476837
 20
46.00000000000000
 30
0.0000000000000000
 40
3.000000000000000
 41
0.0000000000000000
 71
     7
 72
     1
  1
{\H0.63x;{kg}}
 11
1.000000000000000
 21
0.0000000000000000
 31
0.0000000000000000
  7
STANDARD
  0
MTEXT
  5
4AE
100
AcDbEntity
  8
WAKU0
  6
CONTINUOUS
 62
3
100
AcDbMText
 10
547.6000001430512
 20
46.00000000000000
 30
0.0000000000000000
 40
3.000000000000000
 41
0.0000000000000000
 71
     7
 72
     1
  1
{\H0.63x;{WEIGHT}}
 11
1.000000000000000
 21
0.0000000000000000
 31
0.0000000000000000
  7
STANDARD
  0
MTEXT
  5
4AF
100
AcDbEntity
  8
WAKU0
  6
CONTINUOUS
 62
3
100
AcDbMText
 10
506.0049998760223
 20
18.13333336512248
 30
0.0000000000000000
 40
3.099999904632568
 41
0.0000000000000000
 71
     7
 72
     1
  1
{\H0.90x;{DRW\PNO.}}
 11
1.000000000000000
 21
0.0000000000000000
 31
0.0000000000000000
  7
STANDARD
  0
MTEXT
  5
4B0
100
AcDbEntity
  8
WAKU0
  6
CONTINUOUS
 62
3
100
AcDbMText
 10
504.6099998354912
 20
31.95000004768372
 30
0.0000000000000000
 40
3.099999904632568
 41
0.0000000000000000
 71
     7
 72
     1
  1
{\H0.91x;{NAME}}
 11
1.000000000000000
 21
0.0000000000000000
 31
0.0000000000000000
  7
STANDARD
  0
MTEXT
  5
4B1
100
AcDbEntity
  8
WAKU0
  6
CONTINUOUS
 62
3
100
AcDbMText
 10
504.6099998354912
 20
45.95000004768372
 30
0.0000000000000000
 40
3.099999904632568
 41
0.0000000000000000
 71
     7
 72
     1
  1
{\H0.91x;{TYPE}}
 11
1.000000000000000
 21
0.0000000000000000
 31
0.0000000000000000
  7
STANDARD
  0
LINE
  5
4B2
100
AcDbEntity
  8
WAKU0
  6
HIDDEN
 62
3
100
AcDbLine
 10
579.1599564743885
 20
13.84999990463257
 30
0.0000000000000000
 11
568.9400436209789
 21
13.84999990463257
 31
0.0000000000000000
  0
LINE
  5
4B3
100
AcDbEntity
  8
WAKU0
  6
HIDDEN
 62
3
100
AcDbLine
 10
579.1599564743885
 20
13.84999990463250
 30
0.0000000000000000
 11
574.0500000476851
 21
22.70070406014901
 31
0.0000000000000000
  0
LINE
  5
4B4
100
AcDbEntity
  8
WAKU0
  6
HIDDEN
 62
3
100
AcDbLine
 10
574.0500000476851
 20
22.70070406014902
 30
0.0000000000000000
 11
568.9400436209789
 21
13.84999990463248
 31
0.0000000000000000
  0
MTEXT
  5
4B5
100
AcDbEntity
  8
WAKU0
  6
CONTINUOUS
 62
3
100
AcDbMText
 10
419.0000009614873
 20
20.63471521698214
 30
0.0000000000000000
 40
3.140094041824341
 41
0.0000000000000000
 71
     1
 72
     1
  1
{\H0.83x;{Ｋｉｔａｇａｗａ\PＣｏｒｐｏｒａｔｉｏｎ}}
 11
1.000000000000000
 21
0.0000000000000000
 31
0.0000000000000000
  7
KNJYOKO
  0
LINE
  5
4B6
100
AcDbEntity
  8
WAKU0
  6
CONTINUOUS
 62
3
100
AcDbLine
 10
502.4713877753800
 20
15.78041421262812
 30
0.0000000000000000
 11
502.4713877753800
 21
21.78041421262815
 31
0.0000000000000000
  0
LINE
  5
4B7
100
AcDbEntity
  8
WAKU0
  6
CONTINUOUS
 62
3
100
AcDbLine
 10
495.9336941228225
 20
17.28041421262811
 30
0.0000000000000000
 11
495.9336941228225
 21
20.28041421262824
 31
0.0000000000000000
  0
LINE
  5
4B8
100
AcDbEntity
  8
WAKU0
  6
CENTER
 62
12
100
AcDbLine
 10
485.4321805514995
 20
18.78041421262813
 30
0.0000000000000000
 11
503.2765788964694
 21
18.78041421262813
 31
0.0000000000000000
  0
LINE
  5
4B9
100
AcDbEntity
  8
WAKU0
  6
CENTER
 62
12
100
AcDbLine
 10
489.4474565857986
 20
14.55921662918448
 30
0.0000000000000000
 11
489.4474565857986
 21
22.89865102149943
 31
0.0000000000000000
  0
LINE
  5
4BA
100
AcDbEntity
  8
WAKU0
  6
CONTINUOUS
 62
3
100
AcDbLine
 10
495.9336941228225
 20
20.28041421262797
 30
0.0000000000000000
 11
502.4713877753800
 21
21.78041421262795
 31
0.0000000000000000
  0
LINE
  5
4BB
100
AcDbEntity
  8
WAKU0
  6
CONTINUOUS
 62
3
100
AcDbLine
 10
495.9336941228225
 20
17.28041421262811
 30
0.0000000000000000
 11
502.4713877753799
 21
15.78041421262812
 31
0.0000000000000000
  0
CIRCLE
  5
4BC
100
AcDbEntity
  8
WAKU0
  6
CONTINUOUS
 62
3
100
AcDbCircle
 10
489.4474565857986
 20
18.78041421262813
 30
0.0000000000000000
 40
1.499999999999972
  0
CIRCLE
  5
4BD
100
AcDbEntity
  8
WAKU0
  6
CONTINUOUS
 62
3
100
AcDbCircle
 10
489.4474565857986
 20
18.78041421262813
 30
0.0000000000000000
 40
2.999999999999979
  0
ENDSEC
  0
SECTION
  2
OBJECTS
  0
DICTIONARY
  5
514
100
AcDbDictionary
  3
ACAD_GROUP
350
515
  3
ACAD_MLINESTYLE
350
516
  3
DWGPROPS
350
517
  0
DICTIONARY
  5
515
102
{ACAD_REACTORS
330
514
102
}
100
AcDbDictionary
  0
DICTIONARY
  5
516
102
{ACAD_REACTORS
330
514
102
}
100
AcDbDictionary
  3
STANDARD
350
518
  0
MLINESTYLE
  5
518
102
{ACAD_REACTORS
330
516
102
}
100
AcDbMlineStyle
  2
STANDARD
 70
     0
  3

 62
   256
 51
90.00
 52
90.00
 71
     2
 49
0.50
 62
   256
  6
BYLAYER
 49
-0.50
 62
   256
  6
BYLAYER
  0
XRECORD
  5
517
102
{ACAD_REACTORS
330
514
102
}
100
AcDbXrecord
280
     1
  1
DWGPROPS COOKIE
  2
ＳＣ－５Ｆ－１１３　ガイケイ
  3

  4

  6
スクロールチャック　５
  7

  8

  9

300
=
301
=
302
=
303
=
304
=
305
=
306
=
307
=
308
=
309
=
 40
0.000000
 41
0.000000
 42
0.000000
  1

 90
        0
  0
ENDSEC
  0
EOF
