  0
SECTION
  2
HEADER
  9
$ACADVER
  1
AC1014
  9
$DWGCODEPAGE
  3
ANSI_932
  9
$LTSCALE
 40
20.0
  9
$FILLMODE
 70
     1
  9
$CLAYER
  8
0
  9
$PDMODE
 70
     0
  9
$SPLFRAME
 70
     0
  9
$SPLINETYPE
 70
     6
  9
$SPLINESEGS
 70
     8
  9
$DIMASZ
 40
2.000000
  9
$DIMEXE
 40
2.000000
  9
$DIMEXO
 40
0.800000
  9
$DIMTAD
 70
     1
  9
$DIMTIH
 70
     0
  9
$DIMTOH
 70
     0
  9
$DIMTVP
 40
0.500000
  9
$DIMTXT
 40
3.100000
  9
$EXTMIN
 10
0.000000
 20
0.000000
 30
0.000000
  9
$EXTMAX
 10
420.000000
 20
594.000000
 30
0.000000
  9
$MEASUREMENT
 70
  1
  9
$LIMMIN
 10
0.000000
 20
0.000000
  9
$LIMMAX
 10
420.000000
 20
594.000000
  9
$HANDLING
 70
     1
  9
$HANDSEED
  5
3D5
  9
$DIMBLK
  1
_OPEN
  9
$DIMDEC
 70
     3
  9
$DIMAUNIT
 70
     1
  9
$DIMZIN
 70
     8
  9
$DIMTOFL
 70
     1
  0
ENDSEC
  0
SECTION
  2
CLASSES
  0
ENDSEC
  0
SECTION
  2
TABLES
  0
TABLE
  2
VPORT
  5
38A
100
AcDbSymbolTable
 70
     1
  0
VPORT
  5
38B
100
AcDbSymbolTableRecord
100
AcDbViewportTableRecord
  2
*ACTIVE
 70
     0
 12
430.039629
 22
281.461355
 40
562.922710
 41
1.527882
  0
ENDTAB
  0
TABLE
  2
LTYPE
  5
38C
100
AcDbSymbolTable
 70
     4
  0
LTYPE
  5
38D
100
AcDbSymbolTableRecord
100
AcDbLinetypeTableRecord
  2
BYBLOCK
 70
     0
  3

 72
    65
 73
     0
 40
0.0
  0
LTYPE
  5
38E
100
AcDbSymbolTableRecord
100
AcDbLinetypeTableRecord
  2
BYLAYER
 70
     0
  3

 72
    65
 73
     0
 40
0.0
  0
LTYPE
  5
38F
100
AcDbSymbolTableRecord
100
AcDbLinetypeTableRecord
  2
CONTINUOUS
 70
     0
  3
Solid line (NEC CAE2D for Win R12.1 : 2019.02.25)
 72
    65
 73
     0
 40
0.0
  0
LTYPE
  5
390
100
AcDbSymbolTableRecord
100
AcDbLinetypeTableRecord
  2
HIDDEN
 70
     0
  3
__ __ __ __ __ __ __ __ __ __ __ __ __ __
 72
    65
 73
     2
 40
0.375
 49
0.25
 74
     0
 49
-0.125
 74
     0
  0
LTYPE
  5
391
100
AcDbSymbolTableRecord
100
AcDbLinetypeTableRecord
  2
CENTER
 70
     0
  3
____ _ ____ _ ____ _ ____ _ ____ _ ____
 72
    65
 73
     4
 40
2.0
 49
1.25
 74
     0
 49
-0.25
 74
     0
 49
0.25
 74
     0
 49
-0.25
 74
     0
  0
LTYPE
  5
392
100
AcDbSymbolTableRecord
100
AcDbLinetypeTableRecord
  2
PHANTOM
 70
     0
  3
______  __  __  ______  __  __  ______ 
 72
    65
 73
     6
 40
2.5
 49
1.25
 74
     0
 49
-0.25
 74
     0
 49
0.25
 74
     0
 49
-0.25
 74
     0
 49
0.25
 74
     0
 49
-0.25
 74
     0
  0
ENDTAB
  0
TABLE
  2
LAYER
  5
393
100
AcDbSymbolTable
 70
    12
  0
LAYER
  5
394
100
AcDbSymbolTableRecord
100
AcDbLayerTableRecord
  2
0
 70
     0
 62
     7
  6
CONTINUOUS
  0
LAYER
  5
395
100
AcDbSymbolTableRecord
100
AcDbLayerTableRecord
  2
MAIN0
 70
     0
 62
     7
  6
CONTINUOUS
  0
LAYER
  5
396
100
AcDbSymbolTableRecord
100
AcDbLayerTableRecord
  2
MAIN1
 70
     0
 62
     7
  6
CONTINUOUS
  0
LAYER
  5
397
100
AcDbSymbolTableRecord
100
AcDbLayerTableRecord
  2
MAIN2
 70
     0
 62
     7
  6
CONTINUOUS
  0
LAYER
  5
398
100
AcDbSymbolTableRecord
100
AcDbLayerTableRecord
  2
MAIN3
 70
     0
 62
     7
  6
CONTINUOUS
  0
LAYER
  5
399
100
AcDbSymbolTableRecord
100
AcDbLayerTableRecord
  2
MAIN4
 70
     0
 62
     7
  6
CONTINUOUS
  0
LAYER
  5
39A
100
AcDbSymbolTableRecord
100
AcDbLayerTableRecord
  2
MAIN5
 70
     0
 62
     7
  6
CONTINUOUS
  0
LAYER
  5
39B
100
AcDbSymbolTableRecord
100
AcDbLayerTableRecord
  2
MAIN6
 70
     0
 62
     7
  6
CONTINUOUS
  0
LAYER
  5
39C
100
AcDbSymbolTableRecord
100
AcDbLayerTableRecord
  2
MAIN7
 70
     0
 62
     7
  6
CONTINUOUS
  0
LAYER
  5
39D
100
AcDbSymbolTableRecord
100
AcDbLayerTableRecord
  2
MAIN1023
 70
     0
 62
    16
  6
CONTINUOUS
  0
LAYER
  5
39E
100
AcDbSymbolTableRecord
100
AcDbLayerTableRecord
  2
WAKU0
 70
     0
 62
     7
  6
CONTINUOUS
  0
LAYER
  5
39F
100
AcDbSymbolTableRecord
100
AcDbLayerTableRecord
  2
WAKU1023
 70
     0
 62
    16
  6
CONTINUOUS
  0
ENDTAB
  0
TABLE
  2
STYLE
  5
3A0
100
AcDbSymbolTable
 70
     4
  0
STYLE
  5
3A1
100
AcDbSymbolTableRecord
100
AcDbTextStyleTableRecord
  2
STANDARD
 70
    64
 40
0.0
 41
1.0
 50
0.0
 71
     0
 42
3.140094041824341
  3
TXT
  4

  0
STYLE
  5
3A2
100
AcDbSymbolTableRecord
100
AcDbTextStyleTableRecord
  2
ANKTATE
 70
    68
 40
0.0
 41
1.0
 50
0.0
 71
     0
 42
3.140094041824341
  3
TXT
  4

  0
STYLE
  5
1C4
100
AcDbSymbolTableRecord
100
AcDbTextStyleTableRecord
  2
KNJYOKO
 70
    64
 40
0.0
 41
1.0
 50
0.0
 71
     0
 42
3.140094041824341
  3
TXT
  4
BIGFONT
  0
STYLE
  5
3A3
100
AcDbSymbolTableRecord
100
AcDbTextStyleTableRecord
  2
KNJTATE
 70
    68
 40
0.0
 41
1.0
 50
0.0
 71
     0
 42
3.140094041824341
  3
TXT
  4
BIGFONT
  0
ENDTAB
  0
TABLE
  2
VIEW
  5
3A4
100
AcDbSymbolTable
 70
     0
  0
ENDTAB
  0
TABLE
  2
UCS
  5
3A5
100
AcDbSymbolTable
 70
     0
  0
ENDTAB
  0
TABLE
  2
APPID
  5
3A6
100
AcDbSymbolTable
 70
     1
  0
APPID
  5
3A7
100
AcDbSymbolTableRecord
100
AcDbRegAppTableRecord
  2
ACAD
 70
     0
  0
ENDTAB
  0
TABLE
  2
DIMSTYLE
  5
3A8
100
AcDbSymbolTable
 70
     1
  0
DIMSTYLE
105
3A9
100
AcDbSymbolTableRecord
100
AcDbDimStyleTableRecord
  2
STANDARD
 70
     0
 41
2.000000
 44
2.000000
 42
0.800000
145
0.661290
140
3.100000
144
1.000000
146
0.903226
340
3A1
  0
DIMSTYLE
105
3AA
100
AcDbSymbolTableRecord
100
AcDbDimStyleTableRecord
  2
MAIN001
 70
     0
 41
3.000000
 44
3.000000
 42
1.200000
145
0.607527
140
4.650000
144
1.000000
146
0.903226
 77
     1
 73
     0
 74
     0
271
     3
275
     1
 78
     8
172
     1
340
3A1
  0
DIMSTYLE
105
3AB
100
AcDbSymbolTableRecord
100
AcDbDimStyleTableRecord
  2
WAKU002
 70
     0
 41
2.000000
 44
2.000000
 42
0.800000
145
0.661290
140
3.100000
144
1.000000
146
0.903226
 77
     1
 73
     0
 74
     0
271
     3
275
     1
 78
     8
172
     1
340
3A1
  0
ENDTAB
  0
TABLE
  2
BLOCK_RECORD
  5
3AC
100
AcDbSymbolTable
 70
    42
  0
BLOCK_RECORD
  5
3AD
100
AcDbSymbolTableRecord
100
AcDbBlockTableRecord
  2
*MODEL_SPACE
  0
BLOCK_RECORD
  5
3AE
100
AcDbSymbolTableRecord
100
AcDbBlockTableRecord
  2
*PAPER_SPACE
  0
BLOCK_RECORD
  5
1
100
AcDbSymbolTableRecord
100
AcDbBlockTableRecord
  2
_NONE
  0
BLOCK_RECORD
  5
4
100
AcDbSymbolTableRecord
100
AcDbBlockTableRecord
  2
_CLOSED
  0
BLOCK_RECORD
  5
B
100
AcDbSymbolTableRecord
100
AcDbBlockTableRecord
  2
_DOT
  0
BLOCK_RECORD
  5
13
100
AcDbSymbolTableRecord
100
AcDbBlockTableRecord
  2
_OPEN
  0
BLOCK_RECORD
  5
19
100
AcDbSymbolTableRecord
100
AcDbBlockTableRecord
  2
_ORIGIN
  0
BLOCK_RECORD
  5
1E
100
AcDbSymbolTableRecord
100
AcDbBlockTableRecord
  2
_OPEN30
  0
BLOCK_RECORD
  5
24
100
AcDbSymbolTableRecord
100
AcDbBlockTableRecord
  2
_BOXFILLED
  0
BLOCK_RECORD
  5
29
100
AcDbSymbolTableRecord
100
AcDbBlockTableRecord
  2
_BOXBLANK
  0
BLOCK_RECORD
  5
31
100
AcDbSymbolTableRecord
100
AcDbBlockTableRecord
  2
_OBLIQUE
  0
BLOCK_RECORD
  5
35
100
AcDbSymbolTableRecord
100
AcDbBlockTableRecord
  2
_OPEN90
  0
BLOCK_RECORD
  5
3B
100
AcDbSymbolTableRecord
100
AcDbBlockTableRecord
  2
_CLOSEDBLANK
  0
BLOCK_RECORD
  5
41
100
AcDbSymbolTableRecord
100
AcDbBlockTableRecord
  2
_DOTBLANK
  0
BLOCK_RECORD
  5
3AF
100
AcDbSymbolTableRecord
100
AcDbBlockTableRecord
  2
*D0
  0
BLOCK_RECORD
  5
3B0
100
AcDbSymbolTableRecord
100
AcDbBlockTableRecord
  2
*D1
  0
BLOCK_RECORD
  5
3B1
100
AcDbSymbolTableRecord
100
AcDbBlockTableRecord
  2
*D2
  0
BLOCK_RECORD
  5
3B2
100
AcDbSymbolTableRecord
100
AcDbBlockTableRecord
  2
*D3
  0
BLOCK_RECORD
  5
3B3
100
AcDbSymbolTableRecord
100
AcDbBlockTableRecord
  2
*D4
  0
BLOCK_RECORD
  5
3B4
100
AcDbSymbolTableRecord
100
AcDbBlockTableRecord
  2
*D5
  0
BLOCK_RECORD
  5
3B5
100
AcDbSymbolTableRecord
100
AcDbBlockTableRecord
  2
*D6
  0
BLOCK_RECORD
  5
3B6
100
AcDbSymbolTableRecord
100
AcDbBlockTableRecord
  2
*D7
  0
BLOCK_RECORD
  5
3B7
100
AcDbSymbolTableRecord
100
AcDbBlockTableRecord
  2
*D8
  0
BLOCK_RECORD
  5
3B8
100
AcDbSymbolTableRecord
100
AcDbBlockTableRecord
  2
*D9
  0
BLOCK_RECORD
  5
3B9
100
AcDbSymbolTableRecord
100
AcDbBlockTableRecord
  2
*D10
  0
BLOCK_RECORD
  5
3BA
100
AcDbSymbolTableRecord
100
AcDbBlockTableRecord
  2
*D11
  0
BLOCK_RECORD
  5
3BB
100
AcDbSymbolTableRecord
100
AcDbBlockTableRecord
  2
*D12
  0
BLOCK_RECORD
  5
3BC
100
AcDbSymbolTableRecord
100
AcDbBlockTableRecord
  2
*D13
  0
BLOCK_RECORD
  5
3BD
100
AcDbSymbolTableRecord
100
AcDbBlockTableRecord
  2
*D14
  0
BLOCK_RECORD
  5
3BE
100
AcDbSymbolTableRecord
100
AcDbBlockTableRecord
  2
*D15
  0
BLOCK_RECORD
  5
3BF
100
AcDbSymbolTableRecord
100
AcDbBlockTableRecord
  2
*D16
  0
BLOCK_RECORD
  5
3C0
100
AcDbSymbolTableRecord
100
AcDbBlockTableRecord
  2
*D17
  0
BLOCK_RECORD
  5
3C1
100
AcDbSymbolTableRecord
100
AcDbBlockTableRecord
  2
*D18
  0
BLOCK_RECORD
  5
3C2
100
AcDbSymbolTableRecord
100
AcDbBlockTableRecord
  2
*D19
  0
BLOCK_RECORD
  5
3C3
100
AcDbSymbolTableRecord
100
AcDbBlockTableRecord
  2
*D20
  0
BLOCK_RECORD
  5
3C4
100
AcDbSymbolTableRecord
100
AcDbBlockTableRecord
  2
*D21
  0
BLOCK_RECORD
  5
3C5
100
AcDbSymbolTableRecord
100
AcDbBlockTableRecord
  2
*D22
  0
BLOCK_RECORD
  5
3C6
100
AcDbSymbolTableRecord
100
AcDbBlockTableRecord
  2
*D23
  0
BLOCK_RECORD
  5
3C7
100
AcDbSymbolTableRecord
100
AcDbBlockTableRecord
  2
*D24
  0
BLOCK_RECORD
  5
3C8
100
AcDbSymbolTableRecord
100
AcDbBlockTableRecord
  2
*D25
  0
BLOCK_RECORD
  5
3C9
100
AcDbSymbolTableRecord
100
AcDbBlockTableRecord
  2
*D26
  0
BLOCK_RECORD
  5
3CA
100
AcDbSymbolTableRecord
100
AcDbBlockTableRecord
  2
*D27
  0
BLOCK_RECORD
  5
3CB
100
AcDbSymbolTableRecord
100
AcDbBlockTableRecord
  2
*D28
  0
BLOCK_RECORD
  5
3CC
100
AcDbSymbolTableRecord
100
AcDbBlockTableRecord
  2
*D29
  0
ENDTAB
  0
ENDSEC
  0
SECTION
  2
BLOCKS
  0
BLOCK
  5
3CD
100
AcDbEntity
  8
0
100
AcDbBlockBegin
  2
*MODEL_SPACE
 70
     0
 10
0.0
 20
0.0
 30
0.0
  3
*MODEL_SPACE
  1

  0
ENDBLK
  5
3CE
100
AcDbEntity
  8
0
100
AcDbBlockEnd
  0
BLOCK
  5
3CF
100
AcDbEntity
  8
0
100
AcDbBlockBegin
  2
*PAPER_SPACE
 70
     0
 10
0.0
 20
0.0
 30
0.0
  3
*PAPER_SPACE
  1

  0
ENDBLK
  5
3D0
100
AcDbEntity
  8
0
100
AcDbBlockEnd
  0
BLOCK
  5
2
100
AcDbEntity
  8
0
100
AcDbBlockBegin
  2
_NONE
 70
     0
 10
0.0
 20
0.0
 30
0.0
  3
_NONE
  1

  0
ENDBLK
  5
3
100
AcDbEntity
  8
0
100
AcDbBlockEnd
  0
BLOCK
  5
5
100
AcDbEntity
  8
0
100
AcDbBlockBegin
  2
_CLOSED
 70
     0
 10
0.0
 20
0.0
 30
0.0
  3
_CLOSED
  1

  0
LINE
  5
6
100
AcDbEntity
  8
0
  6
BYBLOCK
 62
     0
100
AcDbLine
 10
-1.0
 20
0.166667
 30
0.0
 11
0.0
 21
0.0
 31
0.0
  0
LINE
  5
7
100
AcDbEntity
  8
0
  6
BYBLOCK
 62
     0
100
AcDbLine
 10
0.0
 20
0.0
 30
0.0
 11
-1.0
 21
-0.166667
 31
0.0
  0
LINE
  5
8
100
AcDbEntity
  8
0
  6
BYBLOCK
 62
     0
100
AcDbLine
 10
-1.0
 20
0.166667
 30
0.0
 11
-1.0
 21
-0.166667
 31
0.0
  0
LINE
  5
9
100
AcDbEntity
  8
0
  6
BYBLOCK
 62
     0
100
AcDbLine
 10
0.0
 20
0.0
 30
0.0
 11
-1.0
 21
0.0
 31
0.0
  0
ENDBLK
  5
A
100
AcDbEntity
  8
0
100
AcDbBlockEnd
  0
BLOCK
  5
C
100
AcDbEntity
  8
0
100
AcDbBlockBegin
  2
_DOT
 70
     0
 10
0.0
 20
0.0
 30
0.0
  3
_DOT
  1

  0
POLYLINE
  5
D
100
AcDbEntity
  8
0
  6
BYBLOCK
 62
     0
100
AcDb2dPolyline
 66
     1
 10
0.0
 20
0.0
 30
0.0
 70
     1
 40
0.5
 41
0.5
  0
VERTEX
  5
E
100
AcDbEntity
  8
0
  6
BYBLOCK
 62
     0
100
AcDbVertex
100
AcDb2dVertex
 10
-0.25
 20
0.0
 30
0.0
 42
1.0
  0
VERTEX
  5
F
100
AcDbEntity
  8
0
  6
BYBLOCK
 62
     0
100
AcDbVertex
100
AcDb2dVertex
 10
0.25
 20
0.0
 30
0.0
 42
1.0
  0
SEQEND
  5
10
100
AcDbEntity
  8
0
  6
BYBLOCK
 62
     0
  0
LINE
  5
11
100
AcDbEntity
  8
0
  6
BYBLOCK
 62
     0
100
AcDbLine
 10
-0.5
 20
0.0
 30
0.0
 11
-1.0
 21
0.0
 31
0.0
  0
ENDBLK
  5
12
100
AcDbEntity
  8
0
100
AcDbBlockEnd
  0
BLOCK
  5
14
100
AcDbEntity
  8
0
100
AcDbBlockBegin
  2
_OPEN
 70
     0
 10
0.0
 20
0.0
 30
0.0
  3
_OPEN
  1

  0
LINE
  5
15
100
AcDbEntity
  8
0
  6
BYBLOCK
 62
     0
100
AcDbLine
 10
-1.0
 20
0.166667
 30
0.0
 11
0.0
 21
0.0
 31
0.0
  0
LINE
  5
16
100
AcDbEntity
  8
0
  6
BYBLOCK
 62
     0
100
AcDbLine
 10
0.0
 20
0.0
 30
0.0
 11
-1.0
 21
-0.166667
 31
0.0
  0
LINE
  5
17
100
AcDbEntity
  8
0
  6
BYBLOCK
 62
     0
100
AcDbLine
 10
0.0
 20
0.0
 30
0.0
 11
-1.0
 21
0.0
 31
0.0
  0
ENDBLK
  5
18
100
AcDbEntity
  8
0
100
AcDbBlockEnd
  0
BLOCK
  5
1A
100
AcDbEntity
  8
0
100
AcDbBlockBegin
  2
_ORIGIN
 70
     0
 10
0.0
 20
0.0
 30
0.0
  3
_ORIGIN
  1

  0
CIRCLE
  5
1B
100
AcDbEntity
  8
0
  6
BYBLOCK
 62
     0
100
AcDbCircle
 10
0.0
 20
0.0
 30
0.0
 40
0.5
  0
LINE
  5
1C
100
AcDbEntity
  8
0
  6
BYBLOCK
 62
     0
100
AcDbLine
 10
0.0
 20
0.0
 30
0.0
 11
-1.0
 21
0.0
 31
0.0
  0
ENDBLK
  5
1D
100
AcDbEntity
  8
0
100
AcDbBlockEnd
  0
BLOCK
  5
1F
100
AcDbEntity
  8
0
100
AcDbBlockBegin
  2
_OPEN30
 70
     0
 10
0.0
 20
0.0
 30
0.0
  3
_OPEN30
  1

  0
LINE
  5
20
100
AcDbEntity
  8
0
  6
BYBLOCK
 62
     0
100
AcDbLine
 10
-1.0
 20
0.267949
 30
0.0
 11
0.0
 21
0.0
 31
0.0
  0
LINE
  5
21
100
AcDbEntity
  8
0
  6
BYBLOCK
 62
     0
100
AcDbLine
 10
0.0
 20
0.0
 30
0.0
 11
-1.0
 21
-0.267949
 31
0.0
  0
LINE
  5
22
100
AcDbEntity
  8
0
  6
BYBLOCK
 62
     0
100
AcDbLine
 10
0.0
 20
0.0
 30
0.0
 11
-1.0
 21
0.0
 31
0.0
  0
ENDBLK
  5
23
100
AcDbEntity
  8
0
100
AcDbBlockEnd
  0
BLOCK
  5
25
100
AcDbEntity
  8
0
100
AcDbBlockBegin
  2
_BOXFILLED
 70
     0
 10
0.0
 20
0.0
 30
0.0
  3
_BOXFILLED
  1

  0
SOLID
  5
26
100
AcDbEntity
  8
0
  6
BYBLOCK
 62
     0
100
AcDbTrace
 10
-0.5
 20
0.5
 30
0.0
 11
0.5
 21
0.5
 31
0.0
 12
-0.5
 22
-0.5
 32
0.0
 13
0.5
 23
-0.5
 33
0.0
  0
LINE
  5
27
100
AcDbEntity
  8
0
  6
BYBLOCK
 62
     0
100
AcDbLine
 10
-0.5
 20
0.0
 30
0.0
 11
-1.0
 21
0.0
 31
0.0
  0
ENDBLK
  5
28
100
AcDbEntity
  8
0
100
AcDbBlockEnd
  0
BLOCK
  5
2A
100
AcDbEntity
  8
0
100
AcDbBlockBegin
  2
_BOXBLANK
 70
     0
 10
0.0
 20
0.0
 30
0.0
  3
_BOXBLANK
  1

  0
LINE
  5
2B
100
AcDbEntity
  8
0
  6
BYBLOCK
 62
     0
100
AcDbLine
 10
-0.5
 20
-0.5
 30
0.0
 11
0.5
 21
-0.5
 31
0.0
  0
LINE
  5
2C
100
AcDbEntity
  8
0
  6
BYBLOCK
 62
     0
100
AcDbLine
 10
0.5
 20
-0.5
 30
0.0
 11
0.5
 21
0.5
 31
0.0
  0
LINE
  5
2D
100
AcDbEntity
  8
0
  6
BYBLOCK
 62
     0
100
AcDbLine
 10
0.5
 20
0.5
 30
0.0
 11
-0.5
 21
0.5
 31
0.0
  0
LINE
  5
2E
100
AcDbEntity
  8
0
  6
BYBLOCK
 62
     0
100
AcDbLine
 10
-0.5
 20
0.5
 30
0.0
 11
-0.5
 21
-0.5
 31
0.0
  0
LINE
  5
2F
100
AcDbEntity
  8
0
  6
BYBLOCK
 62
     0
100
AcDbLine
 10
-0.5
 20
0.0
 30
0.0
 11
-1.0
 21
0.0
 31
0.0
  0
ENDBLK
  5
30
100
AcDbEntity
  8
0
100
AcDbBlockEnd
  0
BLOCK
  5
32
100
AcDbEntity
  8
0
100
AcDbBlockBegin
  2
_OBLIQUE
 70
     0
 10
0.0
 20
0.0
 30
0.0
  3
_OBLIQUE
  1

  0
LINE
  5
33
100
AcDbEntity
  8
0
  6
BYBLOCK
 62
     0
100
AcDbLine
 10
-0.5
 20
-0.5
 30
0.0
 11
0.5
 21
0.5
 31
0.0
  0
ENDBLK
  5
34
100
AcDbEntity
  8
0
100
AcDbBlockEnd
  0
BLOCK
  5
36
100
AcDbEntity
  8
0
100
AcDbBlockBegin
  2
_OPEN90
 70
     0
 10
0.0
 20
0.0
 30
0.0
  3
_OPEN90
  1

  0
LINE
  5
37
100
AcDbEntity
  8
0
  6
BYBLOCK
 62
     0
100
AcDbLine
 10
-0.5
 20
0.5
 30
0.0
 11
0.0
 21
0.0
 31
0.0
  0
LINE
  5
38
100
AcDbEntity
  8
0
  6
BYBLOCK
 62
     0
100
AcDbLine
 10
0.0
 20
0.0
 30
0.0
 11
-0.5
 21
-0.5
 31
0.0
  0
LINE
  5
39
100
AcDbEntity
  8
0
  6
BYBLOCK
 62
     0
100
AcDbLine
 10
0.0
 20
0.0
 30
0.0
 11
-1.0
 21
0.0
 31
0.0
  0
ENDBLK
  5
3A
100
AcDbEntity
  8
0
100
AcDbBlockEnd
  0
BLOCK
  5
3C
100
AcDbEntity
  8
0
100
AcDbBlockBegin
  2
_CLOSEDBLANK
 70
     0
 10
0.0
 20
0.0
 30
0.0
  3
_CLOSEDBLANK
  1

  0
LINE
  5
3D
100
AcDbEntity
  8
0
  6
BYBLOCK
 62
     0
100
AcDbLine
 10
-1.0
 20
0.1666666666666666
 30
0.0
 11
0.0
 21
0.0
 31
0.0
  0
LINE
  5
3E
100
AcDbEntity
  8
0
  6
BYBLOCK
 62
     0
100
AcDbLine
 10
0.0
 20
0.0
 30
0.0
 11
-1.0
 21
-0.1666666666666666
 31
0.0
  0
LINE
  5
3F
100
AcDbEntity
  8
0
  6
BYBLOCK
 62
     0
100
AcDbLine
 10
-1.0
 20
0.1666666666666666
 30
0.0
 11
-1.0
 21
-0.1666666666666666
 31
0.0
  0
ENDBLK
  5
40
100
AcDbEntity
  8
0
100
AcDbBlockEnd
  0
BLOCK
  5
42
100
AcDbEntity
  8
0
100
AcDbBlockBegin
  2
_DOTBLANK
 70
     0
 10
0.0
 20
0.0
 30
0.0
  3
_DOTBLANK
  1

  0
CIRCLE
  5
43
100
AcDbEntity
  8
0
  6
BYBLOCK
 62
     0
100
AcDbCircle
 10
0.0
 20
0.0
 30
0.0
 40
0.5
  0
LINE
  5
44
100
AcDbEntity
  8
0
  6
BYBLOCK
 62
     0
100
AcDbLine
 10
-0.5
 20
0.0
 30
0.0
 11
-1.0
 21
0.0
 31
0.0
  0
ENDBLK
  5
45
100
AcDbEntity
  8
0
100
AcDbBlockEnd
  0
BLOCK
  5
1BB
100
AcDbEntity
  8
MAIN0
  6
CONTINUOUS
 62
3
100
AcDbBlockBegin
  2
*D0
 70
    65
 10
0.0
 20
0.0
 30
0.0
  0
LINE
  5
1BC
100
AcDbEntity
  8
MAIN0
  6
BYBLOCK
 62
0
100
AcDbLine
 10
163.4591469835663
 20
443.5890056525408
 30
0.0000000000000000
 11
122.6591470014477
 21
443.5890056525408
 31
0.0000000000000000
  0
LINE
  5
1BD
100
AcDbEntity
  8
MAIN0
  6
BYBLOCK
 62
0
100
AcDbLine
 10
125.6591470014477
 20
440.5890056525408
 30
0.0000000000000000
 11
125.6591470014477
 21
216.5890056525408
 31
0.0000000000000000
  0
INSERT
  5
1BE
100
AcDbEntity
  8
MAIN0
  6
BYBLOCK
 62
0
100
AcDbBlockReference
  2
_OPEN
 10
125.6591470014477
 20
443.5890056525408
 30
0.0000000000000000
 41
3.000000000000000
 42
3.000000000000000
 43
3.000000000000000
 50
90.00000000000000
  0
INSERT
  5
1BF
100
AcDbEntity
  8
MAIN0
  6
BYBLOCK
 62
0
100
AcDbBlockReference
  2
_OPEN
 10
125.6591470014477
 20
213.5890056525408
 30
0.0000000000000000
 41
3.000000000000000
 42
3.000000000000000
 43
3.000000000000000
 50
270.0000000000000
  0
LINE
  5
1C0
100
AcDbEntity
  8
MAIN0
  6
BYBLOCK
 62
0
100
AcDbLine
 10
163.4591469835663
 20
213.5890056525408
 30
0.0000000000000000
 11
122.6591470014477
 21
213.5890056525408
 31
0.0000000000000000
  0
MTEXT
  5
1C1
100
AcDbEntity
  8
MAIN0
  6
BYBLOCK
 62
0
100
AcDbMText
 10
122.8341470729733
 20
328.5890056339143
 30
0.0000000000000000
 40
4.649999856948853
 41
0.0000000000000000
 71
     5
 72
     1
  1
\A1;\U+2205230H6\H0.903226x;\S＋0.029^ 　0;
 11
6.123233995736766e-017
 21
1.000000000000000
 31
0.0000000000000000
  7
KNJYOKO
  0
ENDBLK
  5
1C2
100
AcDbEntity
  8
MAIN0
  6
CONTINUOUS
 62
3
100
AcDbBlockEnd
  0
BLOCK
  5
1C5
100
AcDbEntity
  8
MAIN0
  6
CONTINUOUS
 62
3
100
AcDbBlockBegin
  2
*D1
 70
    65
 10
0.0
 20
0.0
 30
0.0
  0
LINE
  5
1C6
100
AcDbEntity
  8
MAIN0
  6
BYBLOCK
 62
0
100
AcDbLine
 10
180.9591469835662
 20
371.0890056525408
 30
0.0000000000000000
 11
137.6591470014477
 21
371.0890056525408
 31
0.0000000000000000
  0
LINE
  5
1C7
100
AcDbEntity
  8
MAIN0
  6
BYBLOCK
 62
0
100
AcDbLine
 10
140.6591470014477
 20
368.0890056525408
 30
0.0000000000000000
 11
140.6591470014477
 21
289.0890056525408
 31
0.0000000000000000
  0
INSERT
  5
1C8
100
AcDbEntity
  8
MAIN0
  6
BYBLOCK
 62
0
100
AcDbBlockReference
  2
_OPEN
 10
140.6591470014477
 20
371.0890056525408
 30
0.0000000000000000
 41
3.000000000000000
 42
3.000000000000000
 43
3.000000000000000
 50
90.00000000000000
  0
INSERT
  5
1C9
100
AcDbEntity
  8
MAIN0
  6
BYBLOCK
 62
0
100
AcDbBlockReference
  2
_OPEN
 10
140.6591470014477
 20
286.0890056525408
 30
0.0000000000000000
 41
3.000000000000000
 42
3.000000000000000
 43
3.000000000000000
 50
270.0000000000000
  0
LINE
  5
1CA
100
AcDbEntity
  8
MAIN0
  6
BYBLOCK
 62
0
100
AcDbLine
 10
180.9591469835662
 20
286.0890056525408
 30
0.0000000000000000
 11
137.6591470014477
 21
286.0890056525408
 31
0.0000000000000000
  0
MTEXT
  5
1CB
100
AcDbEntity
  8
MAIN0
  6
BYBLOCK
 62
0
100
AcDbMText
 10
137.8341470729733
 20
328.5890056525408
 30
0.0000000000000000
 40
4.649999856948853
 41
0.0000000000000000
 71
     5
 72
     1
  1
\A1;\U+220585
 11
6.123233995736766e-017
 21
1.000000000000000
 31
0.0000000000000000
  7
STANDARD
  0
ENDBLK
  5
1CC
100
AcDbEntity
  8
MAIN0
  6
CONTINUOUS
 62
3
100
AcDbBlockEnd
  0
BLOCK
  5
1CE
100
AcDbEntity
  8
MAIN0
  6
CONTINUOUS
 62
3
100
AcDbBlockBegin
  2
*D2
 70
    65
 10
0.0
 20
0.0
 30
0.0
  0
LINE
  5
1CF
100
AcDbEntity
  8
MAIN0
  6
BYBLOCK
 62
0
100
AcDbLine
 10
164.6591470014477
 20
308.5890056525408
 30
0.0000000000000000
 11
170.6591470014477
 21
308.5890056525408
 31
0.0000000000000000
  0
INSERT
  5
1D0
100
AcDbEntity
  8
MAIN0
  6
BYBLOCK
 62
0
100
AcDbBlockReference
  2
_OPEN
 10
164.6591470014477
 20
308.5890056525408
 30
0.0000000000000000
 41
3.000000000000000
 42
3.000000000000000
 43
3.000000000000000
 50
0.0000000000000000
  0
INSERT
  5
1D1
100
AcDbEntity
  8
MAIN0
  6
BYBLOCK
 62
0
100
AcDbBlockReference
  2
_OPEN
 10
170.6591470014477
 20
308.5890056525408
 30
0.0000000000000000
 41
3.000000000000000
 42
3.000000000000000
 43
3.000000000000000
 50
180.0000000000000
  0
LINE
  5
1D2
100
AcDbEntity
  8
MAIN0
  6
BYBLOCK
 62
0
100
AcDbLine
 10
161.6591470014477
 20
308.5890056525408
 30
0.0000000000000000
 11
157.3786938873341
 21
308.5890056525408
 31
0.0000000000000000
  0
LINE
  5
1D3
100
AcDbEntity
  8
MAIN0
  6
BYBLOCK
 62
0
100
AcDbLine
 10
173.6591470014477
 20
308.5890056525408
 30
0.0000000000000000
 11
175.1591470014477
 21
308.5890056525408
 31
0.0000000000000000
  0
MTEXT
  5
1D4
100
AcDbEntity
  8
MAIN0
  6
BYBLOCK
 62
0
100
AcDbMText
 10
158.8786938873341
 20
311.6640055810152
 30
0.0000000000000000
 40
4.649999856948853
 41
0.0000000000000000
 71
     5
 72
     1
  1
\A1;6
 11
1.000000000000000
 21
0.0000000000000000
 31
0.0000000000000000
  7
STANDARD
  0
ENDBLK
  5
1D5
100
AcDbEntity
  8
MAIN0
  6
CONTINUOUS
 62
3
100
AcDbBlockEnd
  0
BLOCK
  5
1D7
100
AcDbEntity
  8
MAIN0
  6
CONTINUOUS
 62
1
100
AcDbBlockBegin
  2
*D3
 70
    65
 10
0.0
 20
0.0
 30
0.0
  0
LINE
  5
1D8
100
AcDbEntity
  8
MAIN0
  6
BYBLOCK
 62
0
100
AcDbLine
 10
851.1364563392906
 20
492.8161711226340
 30
0.0000000000000000
 11
851.1364563392906
 21
551.9015823418824
 31
0.0000000000000000
  0
LINE
  5
1D9
100
AcDbEntity
  8
MAIN0
  6
BYBLOCK
 62
0
100
AcDbLine
 10
848.1364563392906
 20
548.9015823418824
 30
0.0000000000000000
 11
594.1364563392918
 21
548.9015823418824
 31
0.0000000000000000
  0
INSERT
  5
1DA
100
AcDbEntity
  8
MAIN0
  6
BYBLOCK
 62
0
100
AcDbBlockReference
  2
_OPEN
 10
851.1364563392906
 20
548.9015823418824
 30
0.0000000000000000
 41
3.000000000000000
 42
3.000000000000000
 43
3.000000000000000
 50
360.0000000000000
  0
INSERT
  5
1DB
100
AcDbEntity
  8
MAIN0
  6
BYBLOCK
 62
0
100
AcDbBlockReference
  2
_OPEN
 10
591.1364563392918
 20
548.9015823418824
 30
0.0000000000000000
 41
3.000000000000000
 42
3.000000000000000
 43
3.000000000000000
 50
180.0000000000000
  0
LINE
  5
1DC
100
AcDbEntity
  8
MAIN0
  6
BYBLOCK
 62
0
100
AcDbLine
 10
591.1364563392918
 20
492.8161711226340
 30
0.0000000000000000
 11
591.1364563392918
 21
551.9015823418824
 31
0.0000000000000000
  0
MTEXT
  5
1DD
100
AcDbEntity
  8
MAIN0
  6
BYBLOCK
 62
0
100
AcDbMText
 10
721.1364563392913
 20
551.7265822703569
 30
0.0000000000000000
 40
4.649999856948853
 41
0.0000000000000000
 71
     5
 72
     1
  1
\A1;360
 11
1.000000000000000
 21
0.0000000000000000
 31
0.0000000000000000
  7
STANDARD
  0
ENDBLK
  5
1DE
100
AcDbEntity
  8
MAIN0
  6
CONTINUOUS
 62
1
100
AcDbBlockEnd
  0
BLOCK
  5
1E0
100
AcDbEntity
  8
MAIN0
  6
CONTINUOUS
 62
3
100
AcDbBlockBegin
  2
*D4
 70
    65
 10
0.0
 20
0.0
 30
0.0
  0
LINE
  5
1E1
100
AcDbEntity
  8
MAIN0
  6
BYBLOCK
 62
0
100
AcDbLine
 10
708.1364563392907
 20
505.8161711226339
 30
0.0000000000000000
 11
708.1364563392907
 21
531.9015823418824
 31
0.0000000000000000
  0
LINE
  5
1E2
100
AcDbEntity
  8
MAIN0
  6
BYBLOCK
 62
0
100
AcDbLine
 10
711.1364563392907
 20
528.9015823418824
 30
0.0000000000000000
 11
731.1364563392907
 21
528.9015823418824
 31
0.0000000000000000
  0
INSERT
  5
1E3
100
AcDbEntity
  8
MAIN0
  6
BYBLOCK
 62
0
100
AcDbBlockReference
  2
_OPEN
 10
708.1364563392907
 20
528.9015823418824
 30
0.0000000000000000
 41
3.000000000000000
 42
3.000000000000000
 43
3.000000000000000
 50
180.0000000000000
  0
INSERT
  5
1E4
100
AcDbEntity
  8
MAIN0
  6
BYBLOCK
 62
0
100
AcDbBlockReference
  2
_OPEN
 10
734.1364563392907
 20
528.9015823418824
 30
0.0000000000000000
 41
3.000000000000000
 42
3.000000000000000
 43
3.000000000000000
 50
0.0000000000000000
  0
LINE
  5
1E5
100
AcDbEntity
  8
MAIN0
  6
BYBLOCK
 62
0
100
AcDbLine
 10
734.1364563392907
 20
505.8161711226339
 30
0.0000000000000000
 11
734.1364563392907
 21
531.9015823418824
 31
0.0000000000000000
  0
MTEXT
  5
1E6
100
AcDbEntity
  8
MAIN0
  6
BYBLOCK
 62
0
100
AcDbMText
 10
721.1364563392907
 20
531.7265822703569
 30
0.0000000000000000
 40
4.649999856948853
 41
0.0000000000000000
 71
     5
 72
     1
  1
\A1;\U+220526
 11
1.000000000000000
 21
0.0000000000000000
 31
0.0000000000000000
  7
STANDARD
  0
ENDBLK
  5
1E7
100
AcDbEntity
  8
MAIN0
  6
CONTINUOUS
 62
3
100
AcDbBlockEnd
  0
BLOCK
  5
1E9
100
AcDbEntity
  8
MAIN0
  6
CONTINUOUS
 62
3
100
AcDbBlockBegin
  2
*D5
 70
    65
 10
0.0
 20
0.0
 30
0.0
  0
LINE
  5
1EA
100
AcDbEntity
  8
MAIN0
  6
BYBLOCK
 62
0
100
AcDbLine
 10
678.8916641088634
 20
497.6161711047526
 30
0.0000000000000000
 11
678.8916641088634
 21
485.6161711047526
 31
0.0000000000000000
  0
INSERT
  5
1EB
100
AcDbEntity
  8
MAIN0
  6
BYBLOCK
 62
0
100
AcDbBlockReference
  2
_OPEN
 10
678.8916641088634
 20
497.6161711047526
 30
0.0000000000000000
 41
3.000000000000000
 42
3.000000000000000
 43
3.000000000000000
 50
270.0000000000000
  0
INSERT
  5
1EC
100
AcDbEntity
  8
MAIN0
  6
BYBLOCK
 62
0
100
AcDbBlockReference
  2
_OPEN
 10
678.8916641088634
 20
485.6161711047526
 30
0.0000000000000000
 41
3.000000000000000
 42
3.000000000000000
 43
3.000000000000000
 50
90.00000000000000
  0
LINE
  5
1ED
100
AcDbEntity
  8
MAIN0
  6
BYBLOCK
 62
0
100
AcDbLine
 10
678.8916641088634
 20
500.6161711047526
 30
0.0000000000000000
 11
678.8916641088634
 21
510.9046677812526
 31
0.0000000000000000
  0
LINE
  5
1EE
100
AcDbEntity
  8
MAIN0
  6
BYBLOCK
 62
0
100
AcDbLine
 10
678.8916641088634
 20
482.6161711047526
 30
0.0000000000000000
 11
678.8916641088634
 21
481.1161711047526
 31
0.0000000000000000
  0
MTEXT
  5
1EF
100
AcDbEntity
  8
MAIN0
  6
BYBLOCK
 62
0
100
AcDbMText
 10
675.8166641803890
 20
505.8796679243037
 30
0.0000000000000000
 40
4.649999856948853
 41
0.0000000000000000
 71
     5
 72
     1
  1
\A1;\U+220512
 11
6.123233995736766e-017
 21
1.000000000000000
 31
0.0000000000000000
  7
STANDARD
  0
ENDBLK
  5
1F0
100
AcDbEntity
  8
MAIN0
  6
CONTINUOUS
 62
3
100
AcDbBlockEnd
  0
BLOCK
  5
1F2
100
AcDbEntity
  8
MAIN0
  6
CONTINUOUS
 62
3
100
AcDbBlockBegin
  2
*D6
 70
    65
 10
0.0
 20
0.0
 30
0.0
  0
LINE
  5
1F3
100
AcDbEntity
  8
MAIN0
  6
BYBLOCK
 62
0
100
AcDbLine
 10
733.3364563571721
 20
506.6161711047526
 30
0.0000000000000000
 11
761.8916641088634
 21
506.6161711047526
 31
0.0000000000000000
  0
LINE
  5
1F4
100
AcDbEntity
  8
MAIN0
  6
BYBLOCK
 62
0
100
AcDbLine
 10
758.8916641088634
 20
503.6161711047526
 30
0.0000000000000000
 11
758.8916641088634
 21
494.6161711047526
 31
0.0000000000000000
  0
INSERT
  5
1F5
100
AcDbEntity
  8
MAIN0
  6
BYBLOCK
 62
0
100
AcDbBlockReference
  2
_OPEN
 10
758.8916641088634
 20
506.6161711047526
 30
0.0000000000000000
 41
3.000000000000000
 42
3.000000000000000
 43
3.000000000000000
 50
90.00000000000000
  0
INSERT
  5
1F6
100
AcDbEntity
  8
MAIN0
  6
BYBLOCK
 62
0
100
AcDbBlockReference
  2
_OPEN
 10
758.8916641088634
 20
491.6161711047526
 30
0.0000000000000000
 41
3.000000000000000
 42
3.000000000000000
 43
3.000000000000000
 50
270.0000000000000
  0
LINE
  5
1F7
100
AcDbEntity
  8
MAIN0
  6
BYBLOCK
 62
0
100
AcDbLine
 10
758.8916641088634
 20
506.6161711047526
 30
0.0000000000000000
 11
758.8916641088634
 21
514.6450966323118
 31
0.0000000000000000
  0
MTEXT
  5
1F8
100
AcDbEntity
  8
MAIN0
  6
BYBLOCK
 62
0
100
AcDbMText
 10
755.8166641803890
 20
511.5700967038375
 30
0.0000000000000000
 40
4.649999856948853
 41
0.0000000000000000
 71
     5
 72
     1
  1
\A1;15
 11
6.123233995736766e-017
 21
1.000000000000000
 31
0.0000000000000000
  7
STANDARD
  0
ENDBLK
  5
1F9
100
AcDbEntity
  8
MAIN0
  6
CONTINUOUS
 62
3
100
AcDbBlockEnd
  0
BLOCK
  5
1FB
100
AcDbEntity
  8
MAIN0
  6
CONTINUOUS
 62
3
100
AcDbBlockBegin
  2
*D7
 70
    65
 10
0.0
 20
0.0
 30
0.0
  0
LINE
  5
1FC
100
AcDbEntity
  8
MAIN0
  6
BYBLOCK
 62
0
100
AcDbLine
 10
733.3364563571721
 20
506.6161711047526
 30
0.0000000000000000
 11
781.8916641088634
 21
506.6161711047526
 31
0.0000000000000000
  0
LINE
  5
1FD
100
AcDbEntity
  8
MAIN0
  6
BYBLOCK
 62
0
100
AcDbLine
 10
778.8916641088634
 20
503.6161711047526
 30
0.0000000000000000
 11
778.8916641088634
 21
349.6161711047526
 31
0.0000000000000000
  0
INSERT
  5
1FE
100
AcDbEntity
  8
MAIN0
  6
BYBLOCK
 62
0
100
AcDbBlockReference
  2
_OPEN
 10
778.8916641088634
 20
506.6161711047526
 30
0.0000000000000000
 41
3.000000000000000
 42
3.000000000000000
 43
3.000000000000000
 50
90.00000000000000
  0
INSERT
  5
1FF
100
AcDbEntity
  8
MAIN0
  6
BYBLOCK
 62
0
100
AcDbBlockReference
  2
_OPEN
 10
778.8916641088634
 20
346.6161711047526
 30
0.0000000000000000
 41
3.000000000000000
 42
3.000000000000000
 43
3.000000000000000
 50
270.0000000000000
  0
LINE
  5
200
100
AcDbEntity
  8
MAIN0
  6
BYBLOCK
 62
0
100
AcDbLine
 10
729.4864563571721
 20
346.6161711047526
 30
0.0000000000000000
 11
781.8916641088634
 21
346.6161711047526
 31
0.0000000000000000
  0
MTEXT
  5
201
100
AcDbEntity
  8
MAIN0
  6
BYBLOCK
 62
0
100
AcDbMText
 10
776.0666641803890
 20
426.6161711047526
 30
0.0000000000000000
 40
4.649999856948853
 41
0.0000000000000000
 71
     5
 72
     1
  1
\A1;160
 11
6.123233995736766e-017
 21
1.000000000000000
 31
0.0000000000000000
  7
STANDARD
  0
ENDBLK
  5
202
100
AcDbEntity
  8
MAIN0
  6
CONTINUOUS
 62
3
100
AcDbBlockEnd
  0
BLOCK
  5
204
100
AcDbEntity
  8
MAIN0
  6
CONTINUOUS
 62
3
100
AcDbBlockBegin
  2
*D8
 70
    65
 10
0.0
 20
0.0
 30
0.0
  0
LINE
  5
205
100
AcDbEntity
  8
MAIN0
  6
BYBLOCK
 62
0
100
AcDbLine
 10
729.4864563571721
 20
346.6161711047526
 30
0.0000000000000000
 11
751.8916641088634
 21
346.6161711047526
 31
0.0000000000000000
  0
LINE
  5
206
100
AcDbEntity
  8
MAIN0
  6
BYBLOCK
 62
0
100
AcDbLine
 10
748.8916641088634
 20
349.6161711047526
 30
0.0000000000000000
 11
748.8916641088634
 21
359.6161711047526
 31
0.0000000000000000
  0
INSERT
  5
207
100
AcDbEntity
  8
MAIN0
  6
BYBLOCK
 62
0
100
AcDbBlockReference
  2
_OPEN
 10
748.8916641088634
 20
346.6161711047526
 30
0.0000000000000000
 41
3.000000000000000
 42
3.000000000000000
 43
3.000000000000000
 50
270.0000000000000
  0
INSERT
  5
208
100
AcDbEntity
  8
MAIN0
  6
BYBLOCK
 62
0
100
AcDbBlockReference
  2
_OPEN
 10
748.8916641088634
 20
362.6161711047526
 30
0.0000000000000000
 41
3.000000000000000
 42
3.000000000000000
 43
3.000000000000000
 50
90.00000000000000
  0
LINE
  5
209
100
AcDbEntity
  8
MAIN0
  6
BYBLOCK
 62
0
100
AcDbLine
 10
730.1864563571721
 20
362.6161711047526
 30
0.0000000000000000
 11
751.8916641088634
 21
362.6161711047526
 31
0.0000000000000000
  0
MTEXT
  5
20A
100
AcDbEntity
  8
MAIN0
  6
BYBLOCK
 62
0
100
AcDbMText
 10
746.0666641803890
 20
354.6161711047526
 30
0.0000000000000000
 40
4.649999856948853
 41
0.0000000000000000
 71
     5
 72
     1
  1
\A1;16
 11
6.123233995736766e-017
 21
1.000000000000000
 31
0.0000000000000000
  7
STANDARD
  0
ENDBLK
  5
20B
100
AcDbEntity
  8
MAIN0
  6
CONTINUOUS
 62
3
100
AcDbBlockEnd
  0
BLOCK
  5
20D
100
AcDbEntity
  8
MAIN0
  6
CONTINUOUS
 62
3
100
AcDbBlockBegin
  2
*D9
 70
    65
 10
0.0
 20
0.0
 30
0.0
  0
LINE
  5
20E
100
AcDbEntity
  8
MAIN0
  6
BYBLOCK
 62
0
100
AcDbLine
 10
713.1364563392907
 20
438.9015823418825
 30
0.0000000000000000
 11
729.1364563392907
 21
438.9015823418825
 31
0.0000000000000000
  0
INSERT
  5
20F
100
AcDbEntity
  8
MAIN0
  6
BYBLOCK
 62
0
100
AcDbBlockReference
  2
_OPEN
 10
710.1364563392907
 20
438.9015823418825
 30
0.0000000000000000
 41
3.000000000000000
 42
3.000000000000000
 43
3.000000000000000
 50
180.0000000000000
  0
INSERT
  5
210
100
AcDbEntity
  8
MAIN0
  6
BYBLOCK
 62
0
100
AcDbBlockReference
  2
_OPEN
 10
732.1364563392907
 20
438.9015823418825
 30
0.0000000000000000
 41
3.000000000000000
 42
3.000000000000000
 43
3.000000000000000
 50
0.0000000000000000
  0
MTEXT
  5
211
100
AcDbEntity
  8
MAIN0
  6
BYBLOCK
 62
0
100
AcDbMText
 10
721.1364563392907
 20
441.7265822703569
 30
0.0000000000000000
 40
4.649999856948853
 41
0.0000000000000000
 71
     5
 72
     1
  1
\A1;\U+220522
 11
1.000000000000000
 21
0.0000000000000000
 31
0.0000000000000000
  7
STANDARD
  0
ENDBLK
  5
212
100
AcDbEntity
  8
MAIN0
  6
CONTINUOUS
 62
3
100
AcDbBlockEnd
  0
BLOCK
  5
214
100
AcDbEntity
  8
MAIN0
  6
CONTINUOUS
 62
3
100
AcDbBlockBegin
  2
*D10
 70
    65
 10
0.0
 20
0.0
 30
0.0
  0
LINE
  5
215
100
AcDbEntity
  8
MAIN0
  6
BYBLOCK
 62
0
100
AcDbLine
 10
288.8591470193290
 20
341.8390056525408
 30
0.0000000000000000
 11
318.6591470014477
 21
341.8390056525408
 31
0.0000000000000000
  0
LINE
  5
216
100
AcDbEntity
  8
MAIN0
  6
BYBLOCK
 62
0
100
AcDbLine
 10
315.6591470014477
 20
338.8390056525408
 30
0.0000000000000000
 11
315.6591470014477
 21
318.3390056525408
 31
0.0000000000000000
  0
INSERT
  5
217
100
AcDbEntity
  8
MAIN0
  6
BYBLOCK
 62
0
100
AcDbBlockReference
  2
_OPEN
 10
315.6591470014477
 20
341.8390056525408
 30
0.0000000000000000
 41
3.000000000000000
 42
3.000000000000000
 43
3.000000000000000
 50
90.00000000000000
  0
INSERT
  5
218
100
AcDbEntity
  8
MAIN0
  6
BYBLOCK
 62
0
100
AcDbBlockReference
  2
_OPEN
 10
315.6591470014477
 20
315.3390056525408
 30
0.0000000000000000
 41
3.000000000000000
 42
3.000000000000000
 43
3.000000000000000
 50
270.0000000000000
  0
LINE
  5
219
100
AcDbEntity
  8
MAIN0
  6
BYBLOCK
 62
0
100
AcDbLine
 10
288.8591470193290
 20
315.3390056525408
 30
0.0000000000000000
 11
318.6591470014477
 21
315.3390056525408
 31
0.0000000000000000
  0
MTEXT
  5
21A
100
AcDbEntity
  8
MAIN0
  6
BYBLOCK
 62
0
100
AcDbMText
 10
312.8341470729732
 20
328.5890056525408
 30
0.0000000000000000
 40
4.649999856948853
 41
0.0000000000000000
 71
     5
 72
     1
  1
\A1;26.5
 11
6.123233995736766e-017
 21
1.000000000000000
 31
0.0000000000000000
  7
STANDARD
  0
ENDBLK
  5
21B
100
AcDbEntity
  8
MAIN0
  6
CONTINUOUS
 62
3
100
AcDbBlockEnd
  0
BLOCK
  5
22E
100
AcDbEntity
  8
MAIN0
  6
CONTINUOUS
 62
3
100
AcDbBlockBegin
  2
*D11
 70
    65
 10
0.0
 20
0.0
 30
0.0
  0
LINE
  5
22F
100
AcDbEntity
  8
MAIN0
  6
BYBLOCK
 62
0
100
AcDbLine
 10
163.4591469835663
 20
459.3390056524655
 30
0.0000000000000000
 11
142.6591470014477
 21
459.3390056524655
 31
0.0000000000000000
  0
LINE
  5
230
100
AcDbEntity
  8
MAIN0
  6
BYBLOCK
 62
0
100
AcDbLine
 10
145.6591470014477
 20
459.3390056524655
 30
0.0000000000000000
 11
145.6591470014477
 21
445.8390056524656
 31
0.0000000000000000
  0
INSERT
  5
231
100
AcDbEntity
  8
MAIN0
  6
BYBLOCK
 62
0
100
AcDbBlockReference
  2
_OPEN
 10
145.6591470014477
 20
459.3390056524655
 30
0.0000000000000000
 41
3.000000000000000
 42
3.000000000000000
 43
3.000000000000000
 50
270.0000000000000
  0
INSERT
  5
232
100
AcDbEntity
  8
MAIN0
  6
BYBLOCK
 62
0
100
AcDbBlockReference
  2
_OPEN
 10
145.6591470014477
 20
445.8390056524656
 30
0.0000000000000000
 41
3.000000000000000
 42
3.000000000000000
 43
3.000000000000000
 50
90.00000000000000
  0
LINE
  5
233
100
AcDbEntity
  8
MAIN0
  6
BYBLOCK
 62
0
100
AcDbLine
 10
145.6591470014477
 20
462.3390056524655
 30
0.0000000000000000
 11
145.6591470014477
 21
463.8390056524655
 31
0.0000000000000000
  0
LINE
  5
234
100
AcDbEntity
  8
MAIN0
  6
BYBLOCK
 62
0
100
AcDbLine
 10
145.6591470014477
 20
442.8390056524656
 30
0.0000000000000000
 11
145.6591470014477
 21
441.3390056524656
 31
0.0000000000000000
  0
LINE
  5
235
100
AcDbEntity
  8
MAIN0
  6
BYBLOCK
 62
0
100
AcDbLine
 10
163.4591469835663
 20
445.8390056524656
 30
0.0000000000000000
 11
142.6591470014477
 21
445.8390056524656
 31
0.0000000000000000
  0
MTEXT
  5
236
100
AcDbEntity
  8
MAIN0
  6
BYBLOCK
 62
0
100
AcDbMText
 10
142.8341470729733
 20
452.5890056524655
 30
0.0000000000000000
 40
4.649999856948853
 41
0.0000000000000000
 71
     5
 72
     1
  1
\A1;\U+220513.5
 11
6.123233995736766e-017
 21
1.000000000000000
 31
0.0000000000000000
  7
STANDARD
  0
ENDBLK
  5
237
100
AcDbEntity
  8
MAIN0
  6
CONTINUOUS
 62
3
100
AcDbBlockEnd
  0
BLOCK
  5
23E
100
AcDbEntity
  8
MAIN0
  6
CONTINUOUS
 62
3
100
AcDbBlockBegin
  2
*D12
 70
    65
 10
0.0
 20
0.0
 30
0.0
  0
LINE
  5
23F
100
AcDbEntity
  8
MAIN0
  6
BYBLOCK
 62
0
100
AcDbLine
 10
251.8591470193291
 20
462.5890056524655
 30
0.0000000000000000
 11
268.6591470014477
 21
462.5890056524655
 31
0.0000000000000000
  0
LINE
  5
240
100
AcDbEntity
  8
MAIN0
  6
BYBLOCK
 62
0
100
AcDbLine
 10
265.6591470014477
 20
459.5890056524655
 30
0.0000000000000000
 11
265.6591470014477
 21
445.5890056524656
 31
0.0000000000000000
  0
INSERT
  5
241
100
AcDbEntity
  8
MAIN0
  6
BYBLOCK
 62
0
100
AcDbBlockReference
  2
_OPEN
 10
265.6591470014477
 20
462.5890056524655
 30
0.0000000000000000
 41
3.000000000000000
 42
3.000000000000000
 43
3.000000000000000
 50
90.00000000000000
  0
INSERT
  5
242
100
AcDbEntity
  8
MAIN0
  6
BYBLOCK
 62
0
100
AcDbBlockReference
  2
_OPEN
 10
265.6591470014477
 20
442.5890056524656
 30
0.0000000000000000
 41
3.000000000000000
 42
3.000000000000000
 43
3.000000000000000
 50
270.0000000000000
  0
LINE
  5
243
100
AcDbEntity
  8
MAIN0
  6
BYBLOCK
 62
0
100
AcDbLine
 10
251.8591470193291
 20
442.5890056524656
 30
0.0000000000000000
 11
268.6591470014477
 21
442.5890056524656
 31
0.0000000000000000
  0
MTEXT
  5
244
100
AcDbEntity
  8
MAIN0
  6
BYBLOCK
 62
0
100
AcDbMText
 10
262.8341470729732
 20
452.5890056524655
 30
0.0000000000000000
 40
4.649999856948853
 41
0.0000000000000000
 71
     5
 72
     1
  1
\A1;\U+220520
 11
6.123233995736766e-017
 21
1.000000000000000
 31
0.0000000000000000
  7
STANDARD
  0
ENDBLK
  5
245
100
AcDbEntity
  8
MAIN0
  6
CONTINUOUS
 62
3
100
AcDbBlockEnd
  0
BLOCK
  5
254
100
AcDbEntity
  8
MAIN0
  6
CONTINUOUS
 62
3
100
AcDbBlockBegin
  2
*D13
 70
    65
 10
0.0
 20
0.0
 30
0.0
  0
LINE
  5
255
100
AcDbEntity
  8
MAIN0
  6
BYBLOCK
 62
0
100
AcDbLine
 10
196.3443151178651
 20
536.8586784177805
 30
0.0000000000000000
 11
204.7815157265794
 21
528.4214778090695
 31
0.0000000000000000
  0
LINE
  5
256
100
AcDbEntity
  8
MAIN0
  6
BYBLOCK
 62
0
100
AcDbLine
 10
202.6601953830194
 20
530.5427981526289
 30
0.0000000000000000
 11
211.1454767572562
 21
539.0280795268691
 31
0.0000000000000000
  0
INSERT
  5
257
100
AcDbEntity
  8
MAIN0
  6
BYBLOCK
 62
0
100
AcDbBlockReference
  2
_OPEN
 10
202.6601953830194
 20
530.5427981526289
 30
0.0000000000000000
 41
3.000000000000000
 42
3.000000000000000
 43
3.000000000000000
 50
45.00000000001151
  0
INSERT
  5
258
100
AcDbEntity
  8
MAIN0
  6
BYBLOCK
 62
0
100
AcDbBlockReference
  2
_OPEN
 10
211.1454767572562
 20
539.0280795268691
 30
0.0000000000000000
 41
3.000000000000000
 42
3.000000000000000
 43
3.000000000000000
 50
225.0000000000115
  0
LINE
  5
259
100
AcDbEntity
  8
MAIN0
  6
BYBLOCK
 62
0
100
AcDbLine
 10
200.5388750394602
 20
528.4214778090687
 30
0.0000000000000000
 11
199.4782148676805
 21
527.3608176372887
 31
0.0000000000000000
  0
LINE
  5
25A
100
AcDbEntity
  8
MAIN0
  6
BYBLOCK
 62
0
100
AcDbLine
 10
213.2667971008154
 20
541.1493998704291
 30
0.0000000000000000
 11
230.0108103327265
 21
557.8934131023468
 31
0.0000000000000000
  0
LINE
  5
25B
100
AcDbEntity
  8
MAIN0
  6
BYBLOCK
 62
0
100
AcDbLine
 10
204.8295964926653
 20
545.3439597914575
 30
0.0000000000000000
 11
213.2667971008163
 21
536.9067591833098
 31
0.0000000000000000
  0
MTEXT
  5
25C
100
AcDbEntity
  8
MAIN0
  6
BYBLOCK
 62
0
100
AcDbMText
 10
221.3399133940513
 20
553.5712227668139
 30
0.0000000000000000
 40
4.649999856948853
 41
0.0000000000000000
 71
     5
 72
     1
  1
\A1;12\H0.903226x;\S＋0.15^ ＋0.05;
 11
0.7071067811864061
 21
0.7071067811866890
 31
0.0000000000000000
  7
KNJYOKO
  0
ENDBLK
  5
25D
100
AcDbEntity
  8
MAIN0
  6
CONTINUOUS
 62
3
100
AcDbBlockEnd
  0
BLOCK
  5
25F
100
AcDbEntity
  8
MAIN0
  6
CONTINUOUS
 62
3
100
AcDbBlockBegin
  2
*D14
 70
    65
 10
0.0
 20
0.0
 30
0.0
  0
LINE
  5
260
100
AcDbEntity
  8
MAIN0
  6
BYBLOCK
 62
0
100
AcDbLine
 10
721.3497031151858
 20
286.6028855220209
 30
0.0000000000000000
 11
731.9371036011355
 21
276.0154850360491
 31
0.0000000000000000
  0
LINE
  5
261
100
AcDbEntity
  8
MAIN0
  6
BYBLOCK
 62
0
100
AcDbLine
 10
729.8157832575782
 20
278.1368053796109
 30
0.0000000000000000
 11
738.3010646318254
 21
286.6220867538405
 31
0.0000000000000000
  0
INSERT
  5
262
100
AcDbEntity
  8
MAIN0
  6
BYBLOCK
 62
0
100
AcDbBlockReference
  2
_OPEN
 10
729.8157832575782
 20
278.1368053796109
 30
0.0000000000000000
 41
3.000000000000000
 42
3.000000000000000
 43
3.000000000000000
 50
44.99999999994051
  0
INSERT
  5
263
100
AcDbEntity
  8
MAIN0
  6
BYBLOCK
 62
0
100
AcDbBlockReference
  2
_OPEN
 10
738.3010646318254
 20
286.6220867538405
 30
0.0000000000000000
 41
3.000000000000000
 42
3.000000000000000
 43
3.000000000000000
 50
224.9999999999405
  0
LINE
  5
264
100
AcDbEntity
  8
MAIN0
  6
BYBLOCK
 62
0
100
AcDbLine
 10
727.6944629140163
 20
276.0154850360535
 30
0.0000000000000000
 11
726.6338027422354
 21
274.9548248642748
 31
0.0000000000000000
  0
LINE
  5
265
100
AcDbEntity
  8
MAIN0
  6
BYBLOCK
 62
0
100
AcDbLine
 10
740.4223849753872
 20
288.7434070973980
 30
0.0000000000000000
 11
755.9070732296256
 21
304.2280953516039
 31
0.0000000000000000
  0
LINE
  5
266
100
AcDbEntity
  8
MAIN0
  6
BYBLOCK
 62
0
100
AcDbLine
 10
729.8349844893578
 20
295.0881668963258
 30
0.0000000000000000
 11
740.4223849753829
 21
284.5007664102786
 31
0.0000000000000000
  0
MTEXT
  5
267
100
AcDbEntity
  8
MAIN0
  6
BYBLOCK
 62
0
100
AcDbMText
 10
747.2361762909450
 20
299.9059050160817
 30
0.0000000000000000
 40
4.649999856948853
 41
0.0000000000000000
 71
     5
 72
     1
  1
\A1;12\H0.903226x;\S　0^ －0.15;
 11
0.7071067811872829
 21
0.7071067811858122
 31
0.0000000000000000
  7
KNJYOKO
  0
ENDBLK
  5
268
100
AcDbEntity
  8
MAIN0
  6
CONTINUOUS
 62
3
100
AcDbBlockEnd
  0
BLOCK
  5
275
100
AcDbEntity
  8
MAIN0
  6
CONTINUOUS
 62
3
100
AcDbBlockBegin
  2
*D15
 70
    65
 10
0.0
 20
0.0
 30
0.0
  0
LINE
  5
276
100
AcDbEntity
  8
MAIN0
  6
BYBLOCK
 62
0
100
AcDbLine
 10
660.0374196746355
 20
253.7705336747942
 30
0.0000000000000000
 11
665.1164953249611
 21
250.8381279808434
 31
0.0000000000000000
  0
ARC
  5
277
100
AcDbEntity
  8
MAIN0
  6
BYBLOCK
 62
0
100
AcDbCircle
 10
530.4480248645861
 20
328.5890056525128
 30
0.0000000000000000
 40
152.5017553433137
100
AcDbArc
 50
271.1271171151590
 51
328.8728828848358
  0
INSERT
  5
278
100
AcDbEntity
  8
MAIN0
  6
BYBLOCK
 62
0
100
AcDbBlockReference
  2
_OPEN
 10
530.4480248645861
 20
176.0872503091991
 30
0.0000000000000000
 41
3.000000000000000
 42
3.000000000000000
 43
3.000000000000000
 50
180.0000000000000
  0
INSERT
  5
279
100
AcDbEntity
  8
MAIN0
  6
BYBLOCK
 62
0
100
AcDbBlockReference
  2
_OPEN
 10
662.5184191136079
 20
252.3381279808438
 30
0.0000000000000000
 41
3.000000000000000
 42
3.000000000000000
 43
3.000000000000000
 50
59.99999999999477
  0
MTEXT
  5
27A
100
AcDbEntity
  8
MAIN0
  6
BYBLOCK
 62
0
100
AcDbMText
 10
605.2864025719997
 20
198.9651331072285
 30
0.0000000000000000
 40
4.649999856948853
 41
0.0000000000000000
 71
     5
 72
     1
  1
\A1;60\U+00B0
 11
0.8660254037844616
 21
0.4999999999999603
 31
0.0000000000000000
  7
STANDARD
  0
ENDBLK
  5
27B
100
AcDbEntity
  8
MAIN0
  6
CONTINUOUS
 62
3
100
AcDbBlockEnd
  0
BLOCK
  5
27D
100
AcDbEntity
  8
MAIN0
  6
CONTINUOUS
 62
3
100
AcDbBlockBegin
  2
*D16
 70
    65
 10
0.0
 20
0.0
 30
0.0
  0
LINE
  5
27E
100
AcDbEntity
  8
MAIN0
  6
BYBLOCK
 62
0
100
AcDbLine
 10
660.0374196746355
 20
253.7705336747942
 30
0.0000000000000000
 11
665.1164953249611
 21
250.8381279808434
 31
0.0000000000000000
  0
ARC
  5
27F
100
AcDbEntity
  8
MAIN0
  6
BYBLOCK
 62
0
100
AcDbCircle
 10
530.4480248645861
 20
328.5890056525128
 30
0.0000000000000000
 40
152.5017553433137
100
AcDbArc
 50
331.1271171151538
 51
358.8728828848410
  0
INSERT
  5
280
100
AcDbEntity
  8
MAIN0
  6
BYBLOCK
 62
0
100
AcDbBlockReference
  2
_OPEN
 10
662.5184191136079
 20
252.3381279808438
 30
0.0000000000000000
 41
3.000000000000000
 42
3.000000000000000
 43
3.000000000000000
 50
239.9999999999948
  0
INSERT
  5
281
100
AcDbEntity
  8
MAIN0
  6
BYBLOCK
 62
0
100
AcDbBlockReference
  2
_OPEN
 10
682.9497802078997
 20
328.5890056525127
 30
0.0000000000000000
 41
3.000000000000000
 42
3.000000000000000
 43
3.000000000000000
 50
90.00000000000000
  0
MTEXT
  5
282
100
AcDbEntity
  8
MAIN0
  6
BYBLOCK
 62
0
100
AcDbMText
 10
675.0246685149298
 20
289.8498107419939
 30
0.0000000000000000
 40
4.649999856948853
 41
0.0000000000000000
 71
     5
 72
     1
  1
\A1;30\U+00B0
 11
0.2588190451025652
 21
0.9659258262890564
 31
0.0000000000000000
  7
STANDARD
  0
ENDBLK
  5
283
100
AcDbEntity
  8
MAIN0
  6
CONTINUOUS
 62
3
100
AcDbBlockEnd
  0
BLOCK
  5
285
100
AcDbEntity
  8
MAIN0
  6
CONTINUOUS
 62
3
100
AcDbBlockBegin
  2
*D17
 70
    65
 10
0.0
 20
0.0
 30
0.0
  0
ARC
  5
286
100
AcDbEntity
  8
MAIN0
  6
BYBLOCK
 62
0
100
AcDbCircle
 10
530.4480248645861
 20
328.5890056525128
 30
0.0000000000000000
 40
152.5017553433137
100
AcDbArc
 50
1.127117115159050
 51
28.87288288471652
  0
INSERT
  5
287
100
AcDbEntity
  8
MAIN0
  6
BYBLOCK
 62
0
100
AcDbBlockReference
  2
_OPEN
 10
682.9497802078997
 20
328.5890056525128
 30
0.0000000000000000
 41
3.000000000000000
 42
3.000000000000000
 43
3.000000000000000
 50
270.0000000000000
  0
INSERT
  5
288
100
AcDbEntity
  8
MAIN0
  6
BYBLOCK
 62
0
100
AcDbBlockReference
  2
_OPEN
 10
662.5184191137805
 20
404.8398833238828
 30
0.0000000000000000
 41
3.000000000000000
 42
3.000000000000000
 43
3.000000000000000
 50
119.9999999998756
  0
MTEXT
  5
289
100
AcDbEntity
  8
MAIN0
  6
BYBLOCK
 62
0
100
AcDbMText
 10
675.0246685149734
 20
367.3282005628680
 30
0.0000000000000000
 40
4.649999856948853
 41
0.0000000000000000
 71
     5
 72
     1
  1
\A1;30\U+00B0
 11
-0.2588190451014718
 21
0.9659258262893493
 31
0.0000000000000000
  7
STANDARD
  0
ENDBLK
  5
28A
100
AcDbEntity
  8
MAIN0
  6
CONTINUOUS
 62
3
100
AcDbBlockEnd
  0
BLOCK
  5
28C
100
AcDbEntity
  8
MAIN0
  6
CONTINUOUS
 62
3
100
AcDbBlockBegin
  2
*D18
 70
    65
 10
0.0
 20
0.0
 30
0.0
  0
LINE
  5
28D
100
AcDbEntity
  8
MAIN0
  6
BYBLOCK
 62
0
100
AcDbLine
 10
566.9165532325583
 20
464.6914063969908
 30
0.0000000000000000
 11
570.6948406948770
 21
478.7921671717512
 31
0.0000000000000000
  0
ARC
  5
28E
100
AcDbEntity
  8
MAIN0
  6
BYBLOCK
 62
0
100
AcDbCircle
 10
530.4480248645861
 20
328.5890056525128
 30
0.0000000000000000
 40
152.5017553433137
100
AcDbArc
 50
31.12711711503462
 51
73.87288288462399
  0
INSERT
  5
28F
100
AcDbEntity
  8
MAIN0
  6
BYBLOCK
 62
0
100
AcDbBlockReference
  2
_OPEN
 10
662.5184191137805
 20
404.8398833238828
 30
0.0000000000000000
 41
3.000000000000000
 42
3.000000000000000
 43
3.000000000000000
 50
299.9999999998756
  0
INSERT
  5
290
100
AcDbEntity
  8
MAIN0
  6
BYBLOCK
 62
0
100
AcDbBlockReference
  2
_OPEN
 10
569.9183835595585
 20
475.8943896928869
 30
0.0000000000000000
 41
3.000000000000000
 42
3.000000000000000
 43
3.000000000000000
 50
164.9999999997830
  0
MTEXT
  5
291
100
AcDbEntity
  8
MAIN0
  6
BYBLOCK
 62
0
100
AcDbMText
 10
625.0049623674947
 20
451.8180057837033
 30
0.0000000000000000
 40
4.649999856948853
 41
0.0000000000000000
 71
     5
 72
     1
  1
\A1;45\U+00B0
 11
0.7933533402894215
 21
-0.6087614290110843
 31
0.0000000000000000
  7
STANDARD
  0
ENDBLK
  5
292
100
AcDbEntity
  8
MAIN0
  6
CONTINUOUS
 62
3
100
AcDbBlockEnd
  0
BLOCK
  5
294
100
AcDbEntity
  8
MAIN0
  6
CONTINUOUS
 62
3
100
AcDbBlockBegin
  2
*D19
 70
    65
 10
0.0
 20
0.0
 30
0.0
  0
LINE
  5
295
100
AcDbEntity
  8
MAIN0
  6
BYBLOCK
 62
0
100
AcDbLine
 10
566.9165532325583
 20
464.6914063969908
 30
0.0000000000000000
 11
570.6948406948770
 21
478.7921671717512
 31
0.0000000000000000
  0
ARC
  5
296
100
AcDbEntity
  8
MAIN0
  6
BYBLOCK
 62
0
100
AcDbCircle
 10
530.4480248645861
 20
328.5890056525128
 30
0.0000000000000000
 40
152.5017553433137
100
AcDbArc
 50
76.12711711494208
 51
88.87288288484095
  0
INSERT
  5
297
100
AcDbEntity
  8
MAIN0
  6
BYBLOCK
 62
0
100
AcDbBlockReference
  2
_OPEN
 10
569.9183835595585
 20
475.8943896928869
 30
0.0000000000000000
 41
3.000000000000000
 42
3.000000000000000
 43
3.000000000000000
 50
344.9999999997830
  0
INSERT
  5
298
100
AcDbEntity
  8
MAIN0
  6
BYBLOCK
 62
0
100
AcDbBlockReference
  2
_OPEN
 10
530.4480248645861
 20
481.0907609958264
 30
0.0000000000000000
 41
3.000000000000000
 42
3.000000000000000
 43
3.000000000000000
 50
180.0000000000000
  0
MTEXT
  5
299
100
AcDbEntity
  8
MAIN0
  6
BYBLOCK
 62
0
100
AcDbMText
 10
550.7222347804000
 20
482.5869190005561
 30
0.0000000000000000
 40
4.649999856948853
 41
0.0000000000000000
 71
     5
 72
     1
  1
\A1;15\U+00B0
 11
0.9914448613735633
 21
-0.1305261922219291
 31
0.0000000000000000
  7
STANDARD
  0
ENDBLK
  5
29A
100
AcDbEntity
  8
MAIN0
  6
CONTINUOUS
 62
3
100
AcDbBlockEnd
  0
BLOCK
  5
29C
100
AcDbEntity
  8
MAIN0
  6
CONTINUOUS
 62
3
100
AcDbBlockBegin
  2
*D20
 70
    65
 10
0.0
 20
0.0
 30
0.0
  0
LINE
  5
29D
100
AcDbEntity
  8
MAIN0
  6
BYBLOCK
 62
0
100
AcDbLine
 10
502.9325782932423
 20
404.1870737919995
 30
0.0000000000000000
 11
477.2632922132227
 21
474.7128576673525
 31
0.0000000000000000
  0
ARC
  5
29E
100
AcDbEntity
  8
MAIN0
  6
BYBLOCK
 62
0
100
AcDbCircle
 10
530.4480248645861
 20
328.5890056525128
 30
0.0000000000000000
 40
152.5017553433137
100
AcDbArc
 50
91.12711711515905
 51
108.8728828854052
  0
INSERT
  5
29F
100
AcDbEntity
  8
MAIN0
  6
BYBLOCK
 62
0
100
AcDbBlockReference
  2
_OPEN
 10
530.4480248645861
 20
481.0907609958264
 30
0.0000000000000000
 41
3.000000000000000
 42
3.000000000000000
 43
3.000000000000000
 50
360.0000000000000
  0
INSERT
  5
2A0
100
AcDbEntity
  8
MAIN0
  6
BYBLOCK
 62
0
100
AcDbBlockReference
  2
_OPEN
 10
478.2893526432385
 20
471.8937798050089
 30
0.0000000000000000
 41
3.000000000000000
 42
3.000000000000000
 43
3.000000000000000
 50
200.0000000005643
  0
MTEXT
  5
2A1
100
AcDbEntity
  8
MAIN0
  6
BYBLOCK
 62
0
100
AcDbMText
 10
503.4758168679696
 20
481.5559984942667
 30
0.0000000000000000
 40
4.649999856948853
 41
0.0000000000000000
 71
     5
 72
     1
  1
\A1;20\U+00B0
 11
0.9848077530113530
 21
0.1736481776717796
 31
0.0000000000000000
  7
STANDARD
  0
ENDBLK
  5
2A2
100
AcDbEntity
  8
MAIN0
  6
CONTINUOUS
 62
3
100
AcDbBlockEnd
  0
BLOCK
  5
2A5
100
AcDbEntity
  8
MAIN0
  6
CONTINUOUS
 62
3
100
AcDbBlockBegin
  2
*D21
 70
    65
 10
0.0
 20
0.0
 30
0.0
  0
LINE
  5
2A6
100
AcDbEntity
  8
MAIN0
  6
BYBLOCK
 62
0
100
AcDbLine
 10
165.4591469835662
 20
465.0890056525408
 30
0.0000000000000000
 11
107.6591470014477
 21
465.0890056525408
 31
0.0000000000000000
  0
LINE
  5
2A7
100
AcDbEntity
  8
MAIN0
  6
BYBLOCK
 62
0
100
AcDbLine
 10
110.6591470014477
 20
462.0890056525408
 30
0.0000000000000000
 11
110.6591470014477
 21
195.0890056525407
 31
0.0000000000000000
  0
INSERT
  5
2A8
100
AcDbEntity
  8
MAIN0
  6
BYBLOCK
 62
0
100
AcDbBlockReference
  2
_OPEN
 10
110.6591470014477
 20
465.0890056525408
 30
0.0000000000000000
 41
3.000000000000000
 42
3.000000000000000
 43
3.000000000000000
 50
90.00000000000000
  0
INSERT
  5
2A9
100
AcDbEntity
  8
MAIN0
  6
BYBLOCK
 62
0
100
AcDbBlockReference
  2
_OPEN
 10
110.6591470014477
 20
192.0890056525407
 30
0.0000000000000000
 41
3.000000000000000
 42
3.000000000000000
 43
3.000000000000000
 50
270.0000000000000
  0
LINE
  5
2AA
100
AcDbEntity
  8
MAIN0
  6
BYBLOCK
 62
0
100
AcDbLine
 10
282.0887719348986
 20
192.0890056525407
 30
0.0000000000000000
 11
107.6591470014477
 21
192.0890056525407
 31
0.0000000000000000
  0
MTEXT
  5
2AB
100
AcDbEntity
  8
MAIN0
  6
BYBLOCK
 62
0
100
AcDbMText
 10
107.8341470729733
 20
328.5890056525408
 30
0.0000000000000000
 40
4.649999856948853
 41
0.0000000000000000
 71
     5
 72
     1
  1
\A1;\U+2205273
 11
6.123233995736766e-017
 21
1.000000000000000
 31
0.0000000000000000
  7
STANDARD
  0
ENDBLK
  5
2AC
100
AcDbEntity
  8
MAIN0
  6
CONTINUOUS
 62
3
100
AcDbBlockEnd
  0
BLOCK
  5
2AE
100
AcDbEntity
  8
MAIN0
  6
CONTINUOUS
 62
3
100
AcDbBlockBegin
  2
*D22
 70
    65
 10
0.0
 20
0.0
 30
0.0
  0
LINE
  5
2AF
100
AcDbEntity
  8
MAIN0
  6
BYBLOCK
 62
0
100
AcDbLine
 10
287.6591470014477
 20
343.0390056704222
 30
0.0000000000000000
 11
287.6591470014477
 21
356.5890056525408
 31
0.0000000000000000
  0
LINE
  5
2B0
100
AcDbEntity
  8
MAIN0
  6
BYBLOCK
 62
0
100
AcDbLine
 10
284.6591470014477
 20
353.5890056525408
 30
0.0000000000000000
 11
253.6591470014477
 21
353.5890056525408
 31
0.0000000000000000
  0
INSERT
  5
2B1
100
AcDbEntity
  8
MAIN0
  6
BYBLOCK
 62
0
100
AcDbBlockReference
  2
_OPEN
 10
287.6591470014477
 20
353.5890056525408
 30
0.0000000000000000
 41
3.000000000000000
 42
3.000000000000000
 43
3.000000000000000
 50
360.0000000000000
  0
INSERT
  5
2B2
100
AcDbEntity
  8
MAIN0
  6
BYBLOCK
 62
0
100
AcDbBlockReference
  2
_OPEN
 10
250.6591470014477
 20
353.5890056525408
 30
0.0000000000000000
 41
3.000000000000000
 42
3.000000000000000
 43
3.000000000000000
 50
180.0000000000000
  0
MTEXT
  5
2B3
100
AcDbEntity
  8
MAIN0
  6
BYBLOCK
 62
0
100
AcDbMText
 10
269.1591470014477
 20
356.4140055810152
 30
0.0000000000000000
 40
4.649999856948853
 41
0.0000000000000000
 71
     5
 72
     1
  1
\A1;37
 11
1.000000000000000
 21
0.0000000000000000
 31
0.0000000000000000
  7
STANDARD
  0
ENDBLK
  5
2B4
100
AcDbEntity
  8
MAIN0
  6
CONTINUOUS
 62
3
100
AcDbBlockEnd
  0
BLOCK
  5
2B6
100
AcDbEntity
  8
MAIN0
  6
CONTINUOUS
 62
3
100
AcDbBlockBegin
  2
*D23
 70
    65
 10
0.0
 20
0.0
 30
0.0
  0
LINE
  5
2B7
100
AcDbEntity
  8
MAIN0
  6
BYBLOCK
 62
0
100
AcDbLine
 10
250.6591470014477
 20
464.2890056704222
 30
0.0000000000000000
 11
250.6591470014477
 21
481.5890056525408
 31
0.0000000000000000
  0
LINE
  5
2B8
100
AcDbEntity
  8
MAIN0
  6
BYBLOCK
 62
0
100
AcDbLine
 10
250.6591470014477
 20
478.5890056525408
 30
0.0000000000000000
 11
236.1591470014477
 21
478.5890056525408
 31
0.0000000000000000
  0
INSERT
  5
2B9
100
AcDbEntity
  8
MAIN0
  6
BYBLOCK
 62
0
100
AcDbBlockReference
  2
_OPEN
 10
250.6591470014477
 20
478.5890056525408
 30
0.0000000000000000
 41
3.000000000000000
 42
3.000000000000000
 43
3.000000000000000
 50
180.0000000000000
  0
INSERT
  5
2BA
100
AcDbEntity
  8
MAIN0
  6
BYBLOCK
 62
0
100
AcDbBlockReference
  2
_OPEN
 10
236.1591470014477
 20
478.5890056525408
 30
0.0000000000000000
 41
3.000000000000000
 42
3.000000000000000
 43
3.000000000000000
 50
360.0000000000000
  0
LINE
  5
2BB
100
AcDbEntity
  8
MAIN0
  6
BYBLOCK
 62
0
100
AcDbLine
 10
253.6591470014477
 20
478.5890056525408
 30
0.0000000000000000
 11
255.1591470014477
 21
478.5890056525408
 31
0.0000000000000000
  0
LINE
  5
2BC
100
AcDbEntity
  8
MAIN0
  6
BYBLOCK
 62
0
100
AcDbLine
 10
233.1591470014477
 20
478.5890056525408
 30
0.0000000000000000
 11
231.6591470014477
 21
478.5890056525408
 31
0.0000000000000000
  0
LINE
  5
2BD
100
AcDbEntity
  8
MAIN0
  6
BYBLOCK
 62
0
100
AcDbLine
 10
236.1591470014477
 20
463.7890056703469
 30
0.0000000000000000
 11
236.1591470014477
 21
481.5890056525408
 31
0.0000000000000000
  0
MTEXT
  5
2BE
100
AcDbEntity
  8
MAIN0
  6
BYBLOCK
 62
0
100
AcDbMText
 10
243.4091470014477
 20
481.4140055810152
 30
0.0000000000000000
 40
4.649999856948853
 41
0.0000000000000000
 71
     5
 72
     1
  1
\A1;14.5
 11
1.000000000000000
 21
0.0000000000000000
 31
0.0000000000000000
  7
STANDARD
  0
ENDBLK
  5
2BF
100
AcDbEntity
  8
MAIN0
  6
CONTINUOUS
 62
3
100
AcDbBlockEnd
  0
BLOCK
  5
2C1
100
AcDbEntity
  8
MAIN0
  6
CONTINUOUS
 62
3
100
AcDbBlockBegin
  2
*D24
 70
    65
 10
0.0
 20
0.0
 30
0.0
  0
LINE
  5
2C2
100
AcDbEntity
  8
MAIN0
  6
BYBLOCK
 62
0
100
AcDbLine
 10
250.6591470014477
 20
464.2890056704222
 30
0.0000000000000000
 11
250.6591470014477
 21
491.5890056525408
 31
0.0000000000000000
  0
LINE
  5
2C3
100
AcDbEntity
  8
MAIN0
  6
BYBLOCK
 62
0
100
AcDbLine
 10
250.6591470014477
 20
488.5890056525408
 30
0.0000000000000000
 11
234.1591470014477
 21
488.5890056525408
 31
0.0000000000000000
  0
INSERT
  5
2C4
100
AcDbEntity
  8
MAIN0
  6
BYBLOCK
 62
0
100
AcDbBlockReference
  2
_OPEN
 10
250.6591470014477
 20
488.5890056525408
 30
0.0000000000000000
 41
3.000000000000000
 42
3.000000000000000
 43
3.000000000000000
 50
180.0000000000000
  0
INSERT
  5
2C5
100
AcDbEntity
  8
MAIN0
  6
BYBLOCK
 62
0
100
AcDbBlockReference
  2
_OPEN
 10
234.1591470014477
 20
488.5890056525408
 30
0.0000000000000000
 41
3.000000000000000
 42
3.000000000000000
 43
3.000000000000000
 50
360.0000000000000
  0
LINE
  5
2C6
100
AcDbEntity
  8
MAIN0
  6
BYBLOCK
 62
0
100
AcDbLine
 10
253.6591470014477
 20
488.5890056525408
 30
0.0000000000000000
 11
255.1591470014477
 21
488.5890056525408
 31
0.0000000000000000
  0
LINE
  5
2C7
100
AcDbEntity
  8
MAIN0
  6
BYBLOCK
 62
0
100
AcDbLine
 10
231.1591470014477
 20
488.5890056525408
 30
0.0000000000000000
 11
229.6591470014477
 21
488.5890056525408
 31
0.0000000000000000
  0
LINE
  5
2C8
100
AcDbEntity
  8
MAIN0
  6
BYBLOCK
 62
0
100
AcDbLine
 10
234.1591470014477
 20
469.7890056704222
 30
0.0000000000000000
 11
234.1591470014477
 21
491.5890056525408
 31
0.0000000000000000
  0
MTEXT
  5
2C9
100
AcDbEntity
  8
MAIN0
  6
BYBLOCK
 62
0
100
AcDbMText
 10
242.4091470014477
 20
491.4140055810152
 30
0.0000000000000000
 40
4.649999856948853
 41
0.0000000000000000
 71
     5
 72
     1
  1
\A1;16.5
 11
1.000000000000000
 21
0.0000000000000000
 31
0.0000000000000000
  7
STANDARD
  0
ENDBLK
  5
2CA
100
AcDbEntity
  8
MAIN0
  6
CONTINUOUS
 62
3
100
AcDbBlockEnd
  0
BLOCK
  5
2CC
100
AcDbEntity
  8
MAIN0
  6
CONTINUOUS
 62
3
100
AcDbBlockBegin
  2
*D25
 70
    65
 10
0.0
 20
0.0
 30
0.0
  0
LINE
  5
2CD
100
AcDbEntity
  8
MAIN0
  6
BYBLOCK
 62
0
100
AcDbLine
 10
250.6591470014477
 20
464.2890056704222
 30
0.0000000000000000
 11
250.6591470014477
 21
501.5890056525408
 31
0.0000000000000000
  0
LINE
  5
2CE
100
AcDbEntity
  8
MAIN0
  6
BYBLOCK
 62
0
100
AcDbLine
 10
247.6591470014477
 20
498.5890056525408
 30
0.0000000000000000
 11
199.1591470014477
 21
498.5890056525408
 31
0.0000000000000000
  0
INSERT
  5
2CF
100
AcDbEntity
  8
MAIN0
  6
BYBLOCK
 62
0
100
AcDbBlockReference
  2
_OPEN
 10
250.6591470014477
 20
498.5890056525408
 30
0.0000000000000000
 41
3.000000000000000
 42
3.000000000000000
 43
3.000000000000000
 50
360.0000000000000
  0
INSERT
  5
2D0
100
AcDbEntity
  8
MAIN0
  6
BYBLOCK
 62
0
100
AcDbBlockReference
  2
_OPEN
 10
196.1591470014477
 20
498.5890056525408
 30
0.0000000000000000
 41
3.000000000000000
 42
3.000000000000000
 43
3.000000000000000
 50
180.0000000000000
  0
LINE
  5
2D1
100
AcDbEntity
  8
MAIN0
  6
BYBLOCK
 62
0
100
AcDbLine
 10
196.1591470014477
 20
469.7890056704222
 30
0.0000000000000000
 11
196.1591470014477
 21
501.5890056525408
 31
0.0000000000000000
  0
MTEXT
  5
2D2
100
AcDbEntity
  8
MAIN0
  6
BYBLOCK
 62
0
100
AcDbMText
 10
223.4091470014477
 20
501.4140055810152
 30
0.0000000000000000
 40
4.649999856948853
 41
0.0000000000000000
 71
     5
 72
     1
  1
\A1;54.5
 11
1.000000000000000
 21
0.0000000000000000
 31
0.0000000000000000
  7
STANDARD
  0
ENDBLK
  5
2D3
100
AcDbEntity
  8
MAIN0
  6
CONTINUOUS
 62
3
100
AcDbBlockEnd
  0
BLOCK
  5
2D5
100
AcDbEntity
  8
MAIN0
  6
CONTINUOUS
 62
3
100
AcDbBlockBegin
  2
*D26
 70
    65
 10
0.0
 20
0.0
 30
0.0
  0
LINE
  5
2D6
100
AcDbEntity
  8
MAIN0
  6
BYBLOCK
 62
0
100
AcDbLine
 10
196.1591470014477
 20
469.7890056704222
 30
0.0000000000000000
 11
196.1591470014477
 21
501.5890056525408
 31
0.0000000000000000
  0
LINE
  5
2D7
100
AcDbEntity
  8
MAIN0
  6
BYBLOCK
 62
0
100
AcDbLine
 10
193.1591470014477
 20
498.5890056525408
 30
0.0000000000000000
 11
167.6591470014477
 21
498.5890056525408
 31
0.0000000000000000
  0
INSERT
  5
2D8
100
AcDbEntity
  8
MAIN0
  6
BYBLOCK
 62
0
100
AcDbBlockReference
  2
_OPEN
 10
196.1591470014477
 20
498.5890056525408
 30
0.0000000000000000
 41
3.000000000000000
 42
3.000000000000000
 43
3.000000000000000
 50
360.0000000000000
  0
INSERT
  5
2D9
100
AcDbEntity
  8
MAIN0
  6
BYBLOCK
 62
0
100
AcDbBlockReference
  2
_OPEN
 10
164.6591470014477
 20
498.5890056525408
 30
0.0000000000000000
 41
3.000000000000000
 42
3.000000000000000
 43
3.000000000000000
 50
180.0000000000000
  0
LINE
  5
2DA
100
AcDbEntity
  8
MAIN0
  6
BYBLOCK
 62
0
100
AcDbLine
 10
164.6591470014477
 20
464.2890056704222
 30
0.0000000000000000
 11
164.6591470014477
 21
501.5890056525408
 31
0.0000000000000000
  0
MTEXT
  5
2DB
100
AcDbEntity
  8
MAIN0
  6
BYBLOCK
 62
0
100
AcDbMText
 10
180.4091470014477
 20
501.4140055810152
 30
0.0000000000000000
 40
4.649999856948853
 41
0.0000000000000000
 71
     5
 72
     1
  1
\A1;31.5
 11
1.000000000000000
 21
0.0000000000000000
 31
0.0000000000000000
  7
STANDARD
  0
ENDBLK
  5
2DC
100
AcDbEntity
  8
MAIN0
  6
CONTINUOUS
 62
3
100
AcDbBlockEnd
  0
BLOCK
  5
2DE
100
AcDbEntity
  8
MAIN0
  6
CONTINUOUS
 62
3
100
AcDbBlockBegin
  2
*D27
 70
    65
 10
0.0
 20
0.0
 30
0.0
  0
LINE
  5
2DF
100
AcDbEntity
  8
MAIN0
  6
BYBLOCK
 62
0
100
AcDbLine
 10
164.6591470014477
 20
464.2890056704222
 30
0.0000000000000000
 11
164.6591470014477
 21
511.5890056525408
 31
0.0000000000000000
  0
LINE
  5
2E0
100
AcDbEntity
  8
MAIN0
  6
BYBLOCK
 62
0
100
AcDbLine
 10
167.6591470014477
 20
508.5890056525408
 30
0.0000000000000000
 11
247.6591470014477
 21
508.5890056525408
 31
0.0000000000000000
  0
INSERT
  5
2E1
100
AcDbEntity
  8
MAIN0
  6
BYBLOCK
 62
0
100
AcDbBlockReference
  2
_OPEN
 10
164.6591470014477
 20
508.5890056525408
 30
0.0000000000000000
 41
3.000000000000000
 42
3.000000000000000
 43
3.000000000000000
 50
180.0000000000000
  0
INSERT
  5
2E2
100
AcDbEntity
  8
MAIN0
  6
BYBLOCK
 62
0
100
AcDbBlockReference
  2
_OPEN
 10
250.6591470014477
 20
508.5890056525408
 30
0.0000000000000000
 41
3.000000000000000
 42
3.000000000000000
 43
3.000000000000000
 50
0.0000000000000000
  0
LINE
  5
2E3
100
AcDbEntity
  8
MAIN0
  6
BYBLOCK
 62
0
100
AcDbLine
 10
250.6591470014477
 20
464.2890056704222
 30
0.0000000000000000
 11
250.6591470014477
 21
511.5890056525408
 31
0.0000000000000000
  0
MTEXT
  5
2E4
100
AcDbEntity
  8
MAIN0
  6
BYBLOCK
 62
0
100
AcDbMText
 10
207.6591470014477
 20
511.4140055810152
 30
0.0000000000000000
 40
4.649999856948853
 41
0.0000000000000000
 71
     5
 72
     1
  1
\A1;86
 11
1.000000000000000
 21
0.0000000000000000
 31
0.0000000000000000
  7
STANDARD
  0
ENDBLK
  5
2E5
100
AcDbEntity
  8
MAIN0
  6
CONTINUOUS
 62
3
100
AcDbBlockEnd
  0
BLOCK
  5
2E7
100
AcDbEntity
  8
MAIN0
  6
CONTINUOUS
 62
3
100
AcDbBlockBegin
  2
*D28
 70
    65
 10
0.0
 20
0.0
 30
0.0
  0
LINE
  5
2E8
100
AcDbEntity
  8
MAIN0
  6
BYBLOCK
 62
0
100
AcDbLine
 10
450.3452766698463
 20
237.8997023602003
 30
0.0000000000000000
 11
610.5507730593258
 21
419.2783089448813
 31
0.0000000000000000
  0
INSERT
  5
2E9
100
AcDbEntity
  8
MAIN0
  6
BYBLOCK
 62
0
100
AcDbBlockReference
  2
_OPEN
 10
448.3592581195635
 20
235.6512072372497
 30
0.0000000000000000
 41
3.000000000000000
 42
3.000000000000000
 43
3.000000000000000
 50
228.5469441936182
  0
INSERT
  5
2EA
100
AcDbEntity
  8
MAIN0
  6
BYBLOCK
 62
0
100
AcDbBlockReference
  2
_OPEN
 10
612.5367916096086
 20
421.5268040678319
 30
0.0000000000000000
 41
3.000000000000000
 42
3.000000000000000
 43
3.000000000000000
 50
48.54694419361822
  0
MTEXT
  5
2EB
100
AcDbEntity
  8
MAIN0
  6
BYBLOCK
 62
0
100
AcDbMText
 10
469.0584663178559
 20
263.7310398552691
 30
0.0000000000000000
 40
4.649999856948853
 41
0.0000000000000000
 71
     5
 72
     1
  1
\A1;\U+2205248\H0.903226x;\U+00B10.2
 11
0.6620061834276011
 21
0.7494983743168636
 31
0.0000000000000000
  7
STANDARD
  0
ENDBLK
  5
2EC
100
AcDbEntity
  8
MAIN0
  6
CONTINUOUS
 62
3
100
AcDbBlockEnd
  0
BLOCK
  5
2EE
100
AcDbEntity
  8
MAIN0
  6
CONTINUOUS
 62
3
100
AcDbBlockBegin
  2
*D29
 70
    65
 10
0.0
 20
0.0
 30
0.0
  0
LINE
  5
2EF
100
AcDbEntity
  8
MAIN0
  6
BYBLOCK
 62
0
100
AcDbLine
 10
287.8591470193290
 20
290.0890056525408
 30
0.0000000000000000
 11
318.6591470014477
 21
290.0890056525408
 31
0.0000000000000000
  0
LINE
  5
2F0
100
AcDbEntity
  8
MAIN0
  6
BYBLOCK
 62
0
100
AcDbLine
 10
315.6591470014477
 20
287.0890056525408
 30
0.0000000000000000
 11
315.6591470014477
 21
195.0890056525408
 31
0.0000000000000000
  0
INSERT
  5
2F1
100
AcDbEntity
  8
MAIN0
  6
BYBLOCK
 62
0
100
AcDbBlockReference
  2
_OPEN
 10
315.6591470014477
 20
290.0890056525408
 30
0.0000000000000000
 41
3.000000000000000
 42
3.000000000000000
 43
3.000000000000000
 50
90.00000000000000
  0
INSERT
  5
2F2
100
AcDbEntity
  8
MAIN0
  6
BYBLOCK
 62
0
100
AcDbBlockReference
  2
_OPEN
 10
315.6591470014477
 20
192.0890056525408
 30
0.0000000000000000
 41
3.000000000000000
 42
3.000000000000000
 43
3.000000000000000
 50
270.0000000000000
  0
LINE
  5
2F3
100
AcDbEntity
  8
MAIN0
  6
BYBLOCK
 62
0
100
AcDbLine
 10
259.5591470193291
 20
192.0890056525408
 30
0.0000000000000000
 11
318.6591470014477
 21
192.0890056525408
 31
0.0000000000000000
  0
MTEXT
  5
2F4
100
AcDbEntity
  8
MAIN0
  6
BYBLOCK
 62
0
100
AcDbMText
 10
312.8341470729732
 20
241.0890056525408
 30
0.0000000000000000
 40
4.649999856948853
 41
0.0000000000000000
 71
     5
 72
     1
  1
\A1;98
 11
6.123233995736766e-017
 21
1.000000000000000
 31
0.0000000000000000
  7
STANDARD
  0
ENDBLK
  5
2F5
100
AcDbEntity
  8
MAIN0
  6
CONTINUOUS
 62
3
100
AcDbBlockEnd
  0
ENDSEC
  0
SECTION
  2
ENTITIES
  0
LINE
  5
46
100
AcDbEntity
  8
MAIN0
  6
CONTINUOUS
 62
3
100
AcDbLine
 10
164.6591470014477
 20
194.0890056525408
 30
0.0000000000000000
 11
164.6591470014477
 21
463.0890056525408
 31
0.0000000000000000
  0
LINE
  5
47
100
AcDbEntity
  8
MAIN0
  6
CONTINUOUS
 62
3
100
AcDbLine
 10
166.6591470014476
 20
465.0890056525408
 30
0.0000000000000000
 11
248.6591470014477
 21
465.0890056525408
 31
0.0000000000000000
  0
LINE
  5
48
100
AcDbEntity
  8
MAIN0
  6
CONTINUOUS
 62
3
100
AcDbLine
 10
516.9480248645861
 20
192.0890056525407
 30
0.0000000000000000
 11
543.9480248645861
 21
192.0890056525407
 31
0.0000000000000000
  0
LINE
  5
49
100
AcDbEntity
  8
MAIN0
  6
CONTINUOUS
 62
3
100
AcDbLine
 10
166.6591470014477
 20
465.0890056525408
 30
0.0000000000000000
 11
164.6591470014477
 21
463.0890056525408
 31
0.0000000000000000
  0
LINE
  5
4A
100
AcDbEntity
  8
MAIN0
  6
CONTINUOUS
 62
3
100
AcDbLine
 10
248.6591470014477
 20
465.0890056525408
 30
0.0000000000000000
 11
250.6591470014477
 21
463.0890056525408
 31
0.0000000000000000
  0
LINE
  5
4B
100
AcDbEntity
  8
MAIN0
  6
CONTINUOUS
 62
3
100
AcDbLine
 10
250.6591470014477
 20
194.0890056525408
 30
0.0000000000000000
 11
248.6591470014477
 21
192.0890056525408
 31
0.0000000000000000
  0
LINE
  5
4C
100
AcDbEntity
  8
MAIN0
  6
CONTINUOUS
 62
3
100
AcDbLine
 10
166.6591470014477
 20
192.0890056525408
 30
0.0000000000000000
 11
164.6591470014477
 21
194.0890056525408
 31
0.0000000000000000
  0
LINE
  5
4D
100
AcDbEntity
  8
MAIN0
  6
CONTINUOUS
 62
3
100
AcDbLine
 10
164.6591470014477
 20
443.5890056525408
 30
0.0000000000000000
 11
170.6591470014475
 21
443.5890056525408
 31
0.0000000000000000
  0
LINE
  5
4E
100
AcDbEntity
  8
MAIN0
  6
CONTINUOUS
 62
3
100
AcDbLine
 10
164.6591470014477
 20
213.5890056525408
 30
0.0000000000000000
 11
170.6591470014477
 21
213.5890056525408
 31
0.0000000000000000
  0
LINE
  5
4F
100
AcDbEntity
  8
MAIN0
  6
CONTINUOUS
 62
3
100
AcDbLine
 10
170.6591470014477
 20
213.5890056525408
 30
0.0000000000000000
 11
170.6591470014477
 21
443.5890056525408
 31
0.0000000000000000
  0
LINE
  5
50
100
AcDbEntity
  8
MAIN0
  6
CONTINUOUS
 62
3
100
AcDbLine
 10
170.6591470014477
 20
213.5890056525408
 30
0.0000000000000000
 11
190.6592176888415
 21
213.5890056525408
 31
0.0000000000000000
  0
LINE
  5
51
100
AcDbEntity
  8
MAIN0
  6
CONTINUOUS
 62
3
100
AcDbLine
 10
176.6591470022135
 20
213.5890056525407
 30
0.0000000000000000
 11
180.5851777807269
 21
245.5639603997780
 31
0.0000000000000000
  0
LINE
  5
52
100
AcDbEntity
  8
MAIN0
  6
CONTINUOUS
 62
3
100
AcDbLine
 10
178.5808482898252
 20
427.9380046350809
 30
0.0000000000000000
 11
180.5851777807269
 21
411.6140509053036
 31
0.0000000000000000
  0
LINE
  5
53
100
AcDbEntity
  8
MAIN0
  6
CONTINUOUS
 62
3
100
AcDbLine
 10
188.5255469938578
 20
252.5890056525408
 30
0.0000000000000000
 11
196.3449445639218
 21
252.5890056525408
 31
0.0000000000000000
  0
ARC
  5
54
100
AcDbEntity
  8
MAIN0
  6
CONTINUOUS
 62
3
100
AcDbCircle
 10
188.5255469938580
 20
412.5890056525408
 30
0.0000000000000000
 40
8.000000000000000
100
AcDbArc
 50
186.9999999999711
 51
251.3003989503072
  0
ARC
  5
55
100
AcDbEntity
  8
MAIN0
  6
CONTINUOUS
 62
3
100
AcDbCircle
 10
188.5255469938578
 20
244.5890056525408
 30
0.0000000000000000
 40
8.000000000000000
100
AcDbArc
 50
90.00000000000000
 51
173.0000000000289
  0
LINE
  5
56
100
AcDbEntity
  8
MAIN0
  6
CONTINUOUS
 62
3
100
AcDbLine
 10
182.1591470014477
 20
263.5890056525408
 30
0.0000000000000000
 11
182.1591470014477
 21
393.5890056525408
 31
0.0000000000000000
  0
LINE
  5
57
100
AcDbEntity
  8
MAIN0
  6
CONTINUOUS
 62
3
100
AcDbLine
 10
170.6591470014476
 20
393.5890056525408
 30
0.0000000000000000
 11
182.1591470014475
 21
393.5890056525408
 31
0.0000000000000000
  0
LINE
  5
58
100
AcDbEntity
  8
MAIN0
  6
CONTINUOUS
 62
3
100
AcDbLine
 10
170.6591470014476
 20
263.5890056525408
 30
0.0000000000000000
 11
182.1591470014475
 21
263.5890056525408
 31
0.0000000000000000
  0
LINE
  5
59
100
AcDbEntity
  8
MAIN0
  6
CONTINUOUS
 62
3
100
AcDbLine
 10
182.1591470014476
 20
371.0890056525408
 30
0.0000000000000000
 11
193.1591470015275
 21
371.0890056525408
 31
0.0000000000000000
  0
LINE
  5
5A
100
AcDbEntity
  8
MAIN0
  6
CONTINUOUS
 62
3
100
AcDbLine
 10
182.1591470014476
 20
286.0890056525408
 30
0.0000000000000000
 11
199.1935181199162
 21
286.0890056525408
 31
0.0000000000000000
  0
LINE
  5
5B
100
AcDbEntity
  8
MAIN0
  6
HIDDEN
 62
3
100
AcDbLine
 10
213.9091470014477
 20
455.3848604642743
 30
0.0000000000000000
 11
213.9091470014477
 21
463.7890056525408
 31
0.0000000000000000
  0
LINE
  5
5C
100
AcDbEntity
  8
MAIN0
  6
HIDDEN
 62
3
100
AcDbLine
 10
178.4091470014477
 20
455.3848604642836
 30
0.0000000000000000
 11
178.4091470014477
 21
463.7890056525408
 31
0.0000000000000000
  0
LINE
  5
5D
100
AcDbEntity
  8
MAIN0
  6
HIDDEN
 62
3
100
AcDbLine
 10
178.4091470014477
 20
463.7890056525408
 30
0.0000000000000000
 11
213.9091470014477
 21
463.7890056525408
 31
0.0000000000000000
  0
LINE
  5
5E
100
AcDbEntity
  8
MAIN0
  6
HIDDEN
 62
3
100
AcDbLine
 10
211.9091470014477
 20
457.2890056525408
 30
0.0000000000000000
 11
213.9091470014476
 21
457.2890056525408
 31
0.0000000000000000
  0
ARC
  5
5F
100
AcDbEntity
  8
MAIN0
  6
HIDDEN
 62
3
100
AcDbCircle
 10
211.9091470014477
 20
454.5390056525408
 30
0.0000000000000000
 40
2.749999999999986
100
AcDbArc
 50
90.00000000000000
 51
162.0863347408978
  0
LINE
  5
60
100
AcDbEntity
  8
MAIN0
  6
HIDDEN
 62
3
100
AcDbLine
 10
180.4091470014477
 20
457.2890056525408
 30
0.0000000000000000
 11
178.4091470014479
 21
457.2890056525408
 31
0.0000000000000000
  0
ARC
  5
61
100
AcDbEntity
  8
MAIN0
  6
HIDDEN
 62
3
100
AcDbCircle
 10
180.4091470014477
 20
454.5390056525408
 30
0.0000000000000000
 40
2.749999999999986
100
AcDbArc
 50
17.91366525924159
 51
90.00000000000000
  0
ARC
  5
62
100
AcDbEntity
  8
MAIN0
  6
HIDDEN
 62
3
100
AcDbCircle
 10
231.5223062541123
 20
445.7880549297355
 30
0.0000000000000000
 40
22.50000000000000
100
AcDbArc
 50
141.5183122224538
 51
149.2593145857316
  0
LINE
  5
63
100
AcDbEntity
  8
MAIN0
  6
CENTER
 62
3
100
AcDbLine
 10
183.7749063128497
 20
545.5291279089164
 30
0.0000000000000000
 11
209.1642551486581
 21
545.5291279089031
 31
0.0000000000000000
  0
LINE
  5
64
100
AcDbEntity
  8
MAIN0
  6
CONTINUOUS
 62
3
100
AcDbLine
 10
196.8225070341698
 20
537.7072065677695
 30
0.0000000000000000
 11
203.9810683425884
 21
544.8657678761911
 31
0.0000000000000000
  0
LINE
  5
65
100
AcDbEntity
  8
MAIN0
  6
CONTINUOUS
 62
3
100
AcDbLine
 10
188.3372256603771
 20
546.1924879424540
 30
0.0000000000000000
 11
195.4957869679005
 21
553.3510492499803
 31
0.0000000000000000
  0
LINE
  5
66
100
AcDbEntity
  8
MAIN0
  6
CONTINUOUS
 62
3
100
AcDbLine
 10
196.8225070340487
 20
553.3510492500606
 30
0.0000000000000000
 11
203.9810683425971
 21
546.1924879415252
 31
0.0000000000000000
  0
LINE
  5
67
100
AcDbEntity
  8
MAIN0
  6
CONTINUOUS
 62
3
100
AcDbLine
 10
188.3372256603873
 20
544.8657678752448
 30
0.0000000000000000
 11
195.4957869677970
 21
537.7072065678483
 31
0.0000000000000000
  0
LINE
  5
68
100
AcDbEntity
  8
MAIN0
  6
HIDDEN
 62
3
100
AcDbLine
 10
204.0091470014189
 20
462.9807152757774
 30
0.0000000000000000
 11
204.0091470014171
 21
455.3848604642769
 31
0.0000000000000000
  0
LINE
  5
69
100
AcDbEntity
  8
MAIN0
  6
HIDDEN
 62
3
100
AcDbLine
 10
188.3091470014765
 20
462.9807152757855
 30
0.0000000000000000
 11
188.3091470014782
 21
455.3848604642810
 31
0.0000000000000000
  0
LINE
  5
6A
100
AcDbEntity
  8
MAIN0
  6
CONTINUOUS
 62
3
100
AcDbLine
 10
170.6591470014477
 20
443.5890056525408
 30
0.0000000000000000
 11
174.6346028770357
 21
443.5890056525408
 31
0.0000000000000000
  0
LINE
  5
6B
100
AcDbEntity
  8
MAIN0
  6
HIDDEN
 62
3
100
AcDbLine
 10
186.9091470018813
 20
463.7890056525410
 30
0.0000000000000000
 11
188.3091470016860
 21
462.9807152757856
 31
0.0000000000000000
  0
LINE
  5
6C
100
AcDbEntity
  8
MAIN0
  6
HIDDEN
 62
3
100
AcDbLine
 10
204.0091470012799
 20
462.9807152757776
 30
0.0000000000000000
 11
205.4091470011026
 21
463.7890056525405
 31
0.0000000000000000
  0
LINE
  5
6D
100
AcDbEntity
  8
MAIN0
  6
HIDDEN
 62
3
100
AcDbLine
 10
188.3091470014766
 20
462.9807152757855
 30
0.0000000000000000
 11
204.0091470014190
 21
462.9807152757774
 31
0.0000000000000000
  0
LINE
  5
6E
100
AcDbEntity
  8
MAIN0
  6
HIDDEN
 62
3
100
AcDbLine
 10
195.4957869677977
 20
462.9807152757819
 30
0.0000000000000000
 11
195.4957869677977
 21
455.3848604642791
 31
0.0000000000000000
  0
LINE
  5
6F
100
AcDbEntity
  8
MAIN0
  6
HIDDEN
 62
3
100
AcDbLine
 10
196.8225070341663
 20
462.9807152757811
 30
0.0000000000000000
 11
196.8225070341663
 21
455.3848604642788
 31
0.0000000000000000
  0
LINE
  5
70
100
AcDbEntity
  8
MAIN0
  6
HIDDEN
 62
3
100
AcDbLine
 10
188.3091470014765
 20
462.9807152757857
 30
0.0000000000000000
 11
191.9024669845818
 21
455.3848604642801
 31
0.0000000000000000
  0
LINE
  5
71
100
AcDbEntity
  8
MAIN0
  6
HIDDEN
 62
3
100
AcDbLine
 10
195.4957869677978
 20
462.9807152757819
 30
0.0000000000000000
 11
191.9024669846951
 21
455.3848604642801
 31
0.0000000000000000
  0
LINE
  5
72
100
AcDbEntity
  8
MAIN0
  6
HIDDEN
 62
3
100
AcDbLine
 10
196.8225070341663
 20
462.9807152757811
 30
0.0000000000000000
 11
200.4158270177355
 21
455.3848604642779
 31
0.0000000000000000
  0
LINE
  5
73
100
AcDbEntity
  8
MAIN0
  6
HIDDEN
 62
3
100
AcDbLine
 10
204.0091470012799
 20
462.9807152757776
 30
0.0000000000000000
 11
200.4158270177792
 21
455.3848604642778
 31
0.0000000000000000
  0
ARC
  5
74
100
AcDbEntity
  8
MAIN0
  6
HIDDEN
 62
3
100
AcDbCircle
 10
160.7959877487831
 20
445.7880549297355
 30
0.0000000000000000
 40
22.50000000000000
100
AcDbArc
 50
30.74068541426837
 51
38.48168777754621
  0
LINE
  5
75
100
AcDbEntity
  8
MAIN0
  6
CENTER
 62
3
100
AcDbLine
 10
175.6591470014477
 20
273.5890056525408
 30
0.0000000000000000
 11
205.6591470014477
 21
273.5890056525408
 31
0.0000000000000000
  0
LINE
  5
76
100
AcDbEntity
  8
MAIN0
  6
HIDDEN
 62
3
100
AcDbLine
 10
182.1591470014477
 20
282.6890056525408
 30
0.0000000000000000
 11
182.7591470014477
 21
282.0890056525408
 31
0.0000000000000000
  0
LINE
  5
77
100
AcDbEntity
  8
MAIN0
  6
HIDDEN
 62
3
100
AcDbLine
 10
182.7591470014477
 20
282.0890056525408
 30
0.0000000000000000
 11
194.1591470014477
 21
282.0890056525408
 31
0.0000000000000000
  0
LINE
  5
78
100
AcDbEntity
  8
MAIN0
  6
HIDDEN
 62
3
100
AcDbLine
 10
194.1591470014477
 20
282.0890056525408
 30
0.0000000000000000
 11
194.1591470014477
 21
265.0890056525408
 31
0.0000000000000000
  0
LINE
  5
79
100
AcDbEntity
  8
MAIN0
  6
HIDDEN
 62
3
100
AcDbLine
 10
194.1591470014477
 20
265.0890056525408
 30
0.0000000000000000
 11
182.7591470014477
 21
265.0890056525408
 31
0.0000000000000000
  0
LINE
  5
7A
100
AcDbEntity
  8
MAIN0
  6
HIDDEN
 62
3
100
AcDbLine
 10
182.7591470014477
 20
265.0890056525408
 30
0.0000000000000000
 11
182.1591470014477
 21
264.4890056525408
 31
0.0000000000000000
  0
LINE
  5
7B
100
AcDbEntity
  8
MAIN0
  6
HIDDEN
 62
3
100
AcDbLine
 10
194.1591470014477
 20
279.0890056525408
 30
0.0000000000000000
 11
199.4591470020675
 21
279.0890056525408
 31
0.0000000000000000
  0
LINE
  5
7C
100
AcDbEntity
  8
MAIN0
  6
HIDDEN
 62
3
100
AcDbLine
 10
194.1591470014477
 20
268.0890056525408
 30
0.0000000000000000
 11
199.4591470616850
 21
268.0890056525408
 31
0.0000000000000000
  0
LINE
  5
7D
100
AcDbEntity
  8
MAIN0
  6
HIDDEN
 62
3
100
AcDbLine
 10
194.1591470014477
 20
281.5890056525408
 30
0.0000000000000000
 11
185.1591470014477
 21
281.5890056525408
 31
0.0000000000000000
  0
LINE
  5
7E
100
AcDbEntity
  8
MAIN0
  6
HIDDEN
 62
3
100
AcDbLine
 10
185.1591470014477
 20
281.5890056525408
 30
0.0000000000000000
 11
184.1591470014477
 21
279.8569548449719
 31
0.0000000000000000
  0
LINE
  5
7F
100
AcDbEntity
  8
MAIN0
  6
HIDDEN
 62
3
100
AcDbLine
 10
184.1591470014477
 20
279.8569548449719
 30
0.0000000000000000
 11
184.1591470014477
 21
267.3210564601097
 31
0.0000000000000000
  0
LINE
  5
80
100
AcDbEntity
  8
MAIN0
  6
HIDDEN
 62
3
100
AcDbLine
 10
184.1591470014477
 20
267.3210564601096
 30
0.0000000000000000
 11
185.1591470014477
 21
265.5890056525408
 31
0.0000000000000000
  0
LINE
  5
81
100
AcDbEntity
  8
MAIN0
  6
HIDDEN
 62
3
100
AcDbLine
 10
185.1591470014477
 20
265.5890056525408
 30
0.0000000000000000
 11
194.1591470014477
 21
265.5890056525408
 31
0.0000000000000000
  0
LINE
  5
82
100
AcDbEntity
  8
MAIN0
  6
HIDDEN
 62
3
100
AcDbLine
 10
185.1591470014477
 20
281.5890056525408
 30
0.0000000000000000
 11
185.1591470014477
 21
265.5890056525408
 31
0.0000000000000000
  0
LINE
  5
83
100
AcDbEntity
  8
MAIN0
  6
HIDDEN
 62
3
100
AcDbLine
 10
194.1591470014477
 20
278.5890056525408
 30
0.0000000000000000
 11
199.4796459715346
 21
278.5890056525408
 31
0.0000000000000000
  0
LINE
  5
84
100
AcDbEntity
  8
MAIN0
  6
HIDDEN
 62
3
100
AcDbLine
 10
199.4999309741006
 20
268.5890056525408
 30
0.0000000000000000
 11
194.1591470014477
 21
268.5890056525408
 31
0.0000000000000000
  0
LINE
  5
85
100
AcDbEntity
  8
MAIN0
  6
HIDDEN
 62
3
100
AcDbLine
 10
194.1591470014477
 20
277.7771066525408
 30
0.0000000000000000
 11
199.5126747210849
 21
277.7771066525408
 31
0.0000000000000000
  0
LINE
  5
86
100
AcDbEntity
  8
MAIN0
  6
HIDDEN
 62
3
100
AcDbLine
 10
194.1591470014477
 20
269.4009046525408
 30
0.0000000000000000
 11
199.5537638403895
 21
269.4009046525408
 31
0.0000000000000000
  0
LINE
  5
87
100
AcDbEntity
  8
MAIN0
  6
CENTER
 62
3
100
AcDbLine
 10
530.4480248645861
 20
174.1390805050460
 30
0.0000000000000000
 11
530.4480248645861
 21
481.4216494206467
 31
0.0000000000000000
  0
ARC
  5
88
100
AcDbEntity
  8
MAIN0
  6
CONTINUOUS
 62
3
100
AcDbCircle
 10
196.1591470014477
 20
545.5291279089099
 30
0.0000000000000000
 40
7.850000000000001
100
AcDbArc
 50
85.15246984596553
 51
94.84753016096586
  0
ARC
  5
89
100
AcDbEntity
  8
MAIN0
  6
CONTINUOUS
 62
3
100
AcDbCircle
 10
196.1591470014477
 20
545.5291279089099
 30
0.0000000000000000
 40
7.850000000000001
100
AcDbArc
 50
175.1524698390569
 51
184.8475301618289
  0
ARC
  5
8A
100
AcDbEntity
  8
MAIN0
  6
CONTINUOUS
 62
3
100
AcDbCircle
 10
196.1591470014477
 20
545.5291279089099
 30
0.0000000000000000
 40
7.850000000000001
100
AcDbArc
 50
265.1524698382760
 51
274.8475301549216
  0
ARC
  5
8B
100
AcDbEntity
  8
MAIN0
  6
CONTINUOUS
 62
3
100
AcDbCircle
 10
196.1591470014477
 20
545.5291279089099
 30
0.0000000000000000
 40
7.850000000000001
100
AcDbArc
 50
355.1524698451013
 51
364.8475301541394
  0
LINE
  5
8C
100
AcDbEntity
  8
MAIN0
  6
CENTER
 62
3
100
AcDbLine
 10
196.1591470014477
 20
443.5890056525408
 30
0.0000000000000000
 11
196.1591470014477
 21
468.5890056525408
 31
0.0000000000000000
  0
LINE
  5
8D
100
AcDbEntity
  8
MAIN0
  6
CENTER
 62
3
100
AcDbLine
 10
196.1591470014477
 20
531.8780076105177
 30
0.0000000000000000
 11
196.1591470014477
 21
558.2194598607165
 31
0.0000000000000000
  0
LINE
  5
8E
100
AcDbEntity
  8
MAIN0
  6
CENTER
 62
3
100
AcDbLine
 10
150.6591470014477
 20
328.5890056525408
 30
0.0000000000000000
 11
305.6591470014477
 21
328.5890056525408
 31
0.0000000000000000
  0
LINE
  5
8F
100
AcDbEntity
  8
MAIN0
  6
CENTER
 62
3
100
AcDbLine
 10
365.4858169489938
 20
328.5890056525408
 30
0.0000000000000000
 11
683.2806994311690
 21
328.5890056525408
 31
0.0000000000000000
  0
LINE
  5
90
100
AcDbEntity
  8
MAIN0
  6
HIDDEN
 62
3
100
AcDbLine
 10
548.1980248645861
 20
442.2109115509982
 30
0.0000000000000000
 11
548.1980248645861
 21
462.9300101559877
 31
0.0000000000000000
  0
LINE
  5
91
100
AcDbEntity
  8
MAIN0
  6
HIDDEN
 62
3
100
AcDbLine
 10
512.6980248645861
 20
442.2109115510167
 30
0.0000000000000000
 11
512.6980248645861
 21
462.9300101559877
 31
0.0000000000000000
  0
LINE
  5
92
100
AcDbEntity
  8
MAIN0
  6
HIDDEN
 62
3
100
AcDbLine
 10
548.1980248645862
 20
462.9300101559877
 30
0.0000000000000000
 11
549.0794971875806
 21
463.8114824789822
 31
0.0000000000000000
  0
LINE
  5
93
100
AcDbEntity
  8
MAIN0
  6
HIDDEN
 62
3
100
AcDbLine
 10
512.6980248645862
 20
462.9300101559877
 30
0.0000000000000000
 11
511.8165525415916
 21
463.8114824789823
 31
0.0000000000000000
  0
LINE
  5
94
100
AcDbEntity
  8
MAIN0
  6
HIDDEN
 62
3
100
AcDbLine
 10
423.1735679301467
 20
287.1500036205373
 30
0.0000000000000000
 11
405.2303021947110
 21
276.7904543180425
 31
0.0000000000000000
  0
LINE
  5
95
100
AcDbEntity
  8
MAIN0
  6
HIDDEN
 62
3
100
AcDbLine
 10
440.9235679301306
 20
256.4061017861804
 30
0.0000000000000000
 11
422.9803021947110
 21
246.0465524836950
 31
0.0000000000000000
  0
LINE
  5
96
100
AcDbEntity
  8
MAIN0
  6
HIDDEN
 62
3
100
AcDbLine
 10
405.2303021947110
 20
276.7904543180425
 30
0.0000000000000000
 11
404.0261886087676
 21
277.1130955809915
 31
0.0000000000000000
  0
LINE
  5
97
100
AcDbEntity
  8
MAIN0
  6
HIDDEN
 62
3
100
AcDbLine
 10
422.9803021947109
 20
246.0465524836950
 30
0.0000000000000000
 11
422.6576609317621
 21
244.8424388977516
 31
0.0000000000000000
  0
LINE
  5
98
100
AcDbEntity
  8
MAIN0
  6
HIDDEN
 62
3
100
AcDbLine
 10
619.9724817990253
 20
256.4061017861897
 30
0.0000000000000000
 11
637.9157475344611
 21
246.0465524836949
 31
0.0000000000000000
  0
LINE
  5
99
100
AcDbEntity
  8
MAIN0
  6
HIDDEN
 62
3
100
AcDbLine
 10
637.7224817990414
 20
287.1500036205280
 30
0.0000000000000000
 11
655.6657475344611
 21
276.7904543180424
 31
0.0000000000000000
  0
LINE
  5
9A
100
AcDbEntity
  8
MAIN0
  6
HIDDEN
 62
3
100
AcDbLine
 10
637.9157475344611
 20
246.0465524836949
 30
0.0000000000000000
 11
638.2383887974099
 21
244.8424388977514
 31
0.0000000000000000
  0
LINE
  5
9B
100
AcDbEntity
  8
MAIN0
  6
HIDDEN
 62
3
100
AcDbLine
 10
655.6657475344612
 20
276.7904543180424
 30
0.0000000000000000
 11
656.8698611204045
 21
277.1130955809912
 31
0.0000000000000000
  0
LINE
  5
9C
100
AcDbEntity
  8
MAIN0
  6
HIDDEN
 62
3
100
AcDbLine
 10
553.6371319681482
 20
364.2052282447743
 30
0.0000000000000000
 11
637.8540704253484
 21
412.8279003330827
 31
0.0000000000000000
  0
LINE
  5
9D
100
AcDbEntity
  8
MAIN0
  6
HIDDEN
 62
3
100
AcDbLine
 10
572.8871319680906
 20
330.8632501990401
 30
0.0000000000000000
 11
657.1040704252721
 21
379.4859222873377
 31
0.0000000000000000
  0
LINE
  5
9E
100
AcDbEntity
  8
MAIN0
  6
PHANTOM
 62
3
100
AcDbLine
 10
250.6591470014477
 20
342.0890056525408
 30
0.0000000000000000
 11
251.6591470014477
 21
342.0890056525408
 31
0.0000000000000000
  0
LINE
  5
9F
100
AcDbEntity
  8
MAIN0
  6
PHANTOM
 62
3
100
AcDbLine
 10
250.6591470014477
 20
315.0890056525408
 30
0.0000000000000000
 11
251.6591470014477
 21
315.0890056525408
 31
0.0000000000000000
  0
LINE
  5
A0
100
AcDbEntity
  8
MAIN0
  6
HIDDEN
 62
3
100
AcDbLine
 10
488.0089177611192
 20
330.8632501992385
 30
0.0000000000000000
 11
403.7919793041634
 21
379.4859222879703
 31
0.0000000000000000
  0
LINE
  5
A1
100
AcDbEntity
  8
MAIN0
  6
HIDDEN
 62
3
100
AcDbLine
 10
507.2589177611770
 20
364.2052282449060
 30
0.0000000000000000
 11
423.0419793042399
 21
412.8279003336271
 31
0.0000000000000000
  0
LINE
  5
A2
100
AcDbEntity
  8
MAIN0
  6
HIDDEN
 62
3
100
AcDbLine
 10
549.6980248644908
 20
290.6985385137124
 30
0.0000000000000000
 11
549.6980248642464
 21
193.4531943366722
 31
0.0000000000000000
  0
LINE
  5
A3
100
AcDbEntity
  8
MAIN0
  6
HIDDEN
 62
3
100
AcDbLine
 10
511.1980248644908
 20
290.6985385137791
 30
0.0000000000000000
 11
511.1980248642462
 21
193.4531943367604
 31
0.0000000000000000
  0
ARC
  5
A4
100
AcDbEntity
  8
MAIN0
  6
CONTINUOUS
 62
3
100
AcDbCircle
 10
530.4480248645861
 20
332.0890056525407
 30
0.0000000000000000
 40
42.00000000000000
100
AcDbArc
 50
267.9532869022653
 51
272.0467130988254
  0
LINE
  5
A5
100
AcDbEntity
  8
MAIN0
  6
CONTINUOUS
 62
3
100
AcDbLine
 10
531.9480248654303
 20
290.1157999136723
 30
0.0000000000000000
 11
543.9480248645861
 21
283.1875966838913
 31
0.0000000000000000
  0
LINE
  5
A6
100
AcDbEntity
  8
MAIN0
  6
CONTINUOUS
 62
3
100
AcDbLine
 10
528.9480248645407
 20
290.1157999136433
 30
0.0000000000000000
 11
516.9480248645861
 21
283.1875966833909
 31
0.0000000000000000
  0
ARC
  5
A7
100
AcDbEntity
  8
MAIN0
  6
CONTINUOUS
 62
3
100
AcDbCircle
 10
530.4480248645861
 20
328.5890056525408
 30
0.0000000000000000
 40
42.50000000000000
100
AcDbArc
 50
279.9750674247114
 51
380.0249325761886
  0
ARC
  5
A8
100
AcDbEntity
  8
MAIN0
  6
CONTINUOUS
 62
3
100
AcDbCircle
 10
530.4480248645861
 20
328.5890056525408
 30
0.0000000000000000
 40
42.50000000000000
100
AcDbArc
 50
39.97506742489828
 51
140.0249325763754
  0
ARC
  5
A9
100
AcDbEntity
  8
MAIN0
  6
CONTINUOUS
 62
3
100
AcDbCircle
 10
530.4480248645861
 20
328.5890056525408
 30
0.0000000000000000
 40
42.50000000000000
100
AcDbArc
 50
159.9750674247115
 51
260.0249325761886
  0
LINE
  5
AA
100
AcDbEntity
  8
MAIN0
  6
CENTER
 62
3
100
AcDbLine
 10
530.4480248645861
 20
328.5890056525749
 30
0.0000000000000000
 11
666.7885899376317
 21
407.3052675985066
 31
0.0000000000000000
  0
LINE
  5
AB
100
AcDbEntity
  8
MAIN0
  6
CENTER
 62
3
100
AcDbLine
 10
398.3025456782191
 20
404.8832336329697
 30
0.0000000000000000
 11
530.4480248645861
 21
328.5890056525127
 31
0.0000000000000000
  0
ARC
  5
AC
100
AcDbEntity
  8
MAIN0
  6
CONTINUOUS
 62
3
100
AcDbCircle
 10
530.4480248645861
 20
328.5890056525408
 30
0.0000000000000000
 40
136.5000000000000
100
AcDbArc
 50
275.6758943880524
 51
384.3241056119476
  0
ARC
  5
AD
100
AcDbEntity
  8
MAIN0
  6
CONTINUOUS
 62
3
100
AcDbCircle
 10
530.4480248645861
 20
328.5890056525408
 30
0.0000000000000000
 40
136.5000000000000
100
AcDbArc
 50
35.67589438805227
 51
144.3241056119478
  0
ARC
  5
AE
100
AcDbEntity
  8
MAIN0
  6
CONTINUOUS
 62
3
100
AcDbCircle
 10
530.4480248645861
 20
328.5890056525408
 30
0.0000000000000000
 40
136.5000000000000
100
AcDbArc
 50
155.6758943880525
 51
264.3241056119477
  0
LINE
  5
AF
100
AcDbEntity
  8
MAIN0
  6
HIDDEN
 62
3
100
AcDbLine
 10
213.9091470014477
 20
463.7890056525408
 30
0.0000000000000000
 11
213.9091470014477
 21
464.0890056525408
 31
0.0000000000000000
  0
LINE
  5
B0
100
AcDbEntity
  8
MAIN0
  6
HIDDEN
 62
3
100
AcDbLine
 10
178.4091470014477
 20
463.7890056525408
 30
0.0000000000000000
 11
178.4091470014477
 21
464.0890056525408
 31
0.0000000000000000
  0
LINE
  5
B1
100
AcDbEntity
  8
MAIN0
  6
HIDDEN
 62
3
100
AcDbLine
 10
213.9091470014477
 20
464.0890056525408
 30
0.0000000000000000
 11
214.9091470014477
 21
465.0890056525408
 31
0.0000000000000000
  0
LINE
  5
B2
100
AcDbEntity
  8
MAIN0
  6
HIDDEN
 62
3
100
AcDbLine
 10
178.4091470014477
 20
464.0890056525408
 30
0.0000000000000000
 11
177.4091470014477
 21
465.0890056525408
 31
0.0000000000000000
  0
ARC
  5
B3
100
AcDbEntity
  8
MAIN0
  6
CENTER
 62
3
100
AcDbCircle
 10
530.4480248645861
 20
328.5890056525408
 30
0.0000000000000000
 40
64.00000000000000
100
AcDbArc
 50
98.22351831645283
 51
122.2969610140995
  0
LINE
  5
B4
100
AcDbEntity
  8
MAIN0
  6
CENTER
 62
3
100
AcDbLine
 10
503.3430024713645
 20
403.0594426302590
 30
0.0000000000000000
 11
513.1462603871166
 21
376.1252128696256
 31
0.0000000000000000
  0
LINE
  5
B5
100
AcDbEntity
  8
MAIN0
  6
CENTER
 62
3
100
AcDbLine
 10
514.1980248645861
 20
448.0535590963254
 30
0.0000000000000000
 11
514.1980248645861
 21
460.1670479144474
 31
0.0000000000000000
  0
ARC
  5
B6
100
AcDbEntity
  8
MAIN0
  6
CENTER
 62
3
100
AcDbCircle
 10
530.4480248645861
 20
328.5890056525408
 30
0.0000000000000000
 40
127.0000000000000
100
AcDbArc
 50
92.65757467793070
 51
101.9072821707606
  0
CIRCLE
  5
B7
100
AcDbEntity
  8
MAIN0
  6
HIDDEN
 62
3
100
AcDbCircle
 10
514.1980248645861
 20
454.5450991931075
 30
0.0000000000000000
 40
4.000000000000000
  0
CIRCLE
  5
B8
100
AcDbEntity
  8
MAIN0
  6
HIDDEN
 62
3
100
AcDbCircle
 10
514.1980248645861
 20
454.5450991931075
 30
0.0000000000000000
 40
3.400000000000000
  0
LINE
  5
B9
100
AcDbEntity
  8
MAIN0
  6
CENTER
 62
3
100
AcDbLine
 10
435.1136867305048
 20
254.7838161191514
 30
0.0000000000000000
 11
424.6230976855525
 21
248.7270717100904
 31
0.0000000000000000
  0
ARC
  5
BA
100
AcDbEntity
  8
MAIN0
  6
CENTER
 62
3
100
AcDbCircle
 10
530.4480248645861
 20
328.5890056525408
 30
0.0000000000000000
 40
127.0000000000000
100
AcDbArc
 50
212.6575746779307
 51
221.9072821707606
  0
CIRCLE
  5
BB
100
AcDbEntity
  8
MAIN0
  6
HIDDEN
 62
3
100
AcDbCircle
 10
429.4918480970063
 20
251.5380460707603
 30
0.0000000000000000
 40
4.000000000000000
  0
CIRCLE
  5
BC
100
AcDbEntity
  8
MAIN0
  6
HIDDEN
 62
3
100
AcDbCircle
 10
429.4918480970063
 20
251.5380460707603
 30
0.0000000000000000
 40
3.400000000000000
  0
LINE
  5
BD
100
AcDbEntity
  8
MAIN0
  6
CENTER
 62
3
100
AcDbLine
 10
642.0323629986673
 20
282.9296417421455
 30
0.0000000000000000
 11
652.5229520436196
 21
276.8728973330846
 31
0.0000000000000000
  0
ARC
  5
BE
100
AcDbEntity
  8
MAIN0
  6
CENTER
 62
3
100
AcDbCircle
 10
530.4480248645861
 20
328.5890056525408
 30
0.0000000000000000
 40
127.0000000000000
100
AcDbArc
 50
334.2837525401455
 51
340.5900505463390
  0
CIRCLE
  5
BF
100
AcDbEntity
  8
MAIN0
  6
HIDDEN
 62
3
100
AcDbCircle
 10
647.6542016321658
 20
279.6838716937545
 30
0.0000000000000000
 40
4.000000000000000
  0
CIRCLE
  5
C0
100
AcDbEntity
  8
MAIN0
  6
HIDDEN
 62
3
100
AcDbCircle
 10
647.6542016321658
 20
279.6838716937545
 30
0.0000000000000000
 40
3.400000000000000
  0
ARC
  5
C1
100
AcDbEntity
  8
MAIN0
  6
HIDDEN
 62
3
100
AcDbCircle
 10
530.4480248645268
 20
328.5890056525408
 30
0.0000000000000000
 40
115.0000000000000
100
AcDbArc
 50
38.75292907691246
 51
141.2470709231473
  0
ARC
  5
C2
100
AcDbEntity
  8
MAIN0
  6
HIDDEN
 62
3
100
AcDbCircle
 10
530.4480248645268
 20
328.5890056525408
 30
0.0000000000000000
 40
115.0000000000000
100
AcDbArc
 50
158.7529290769124
 51
261.2470709231473
  0
LINE
  5
C3
100
AcDbEntity
  8
MAIN0
  6
CENTER
 62
3
100
AcDbLine
 10
860.0792583283377
 20
491.6161711047526
 30
0.0000000000000000
 11
586.0938461464390
 21
491.6161711047526
 31
0.0000000000000000
  0
ARC
  5
C4
100
AcDbEntity
  8
MAIN0
  6
CONTINUOUS
 62
3
100
AcDbCircle
 10
845.1364563392907
 20
491.6161711047527
 30
0.0000000000000000
 40
5.999999999999943
100
AcDbArc
 50
270.0000000000000
 51
450.0000000000000
  0
ARC
  5
C5
100
AcDbEntity
  8
MAIN0
  6
CONTINUOUS
 62
3
100
AcDbCircle
 10
597.1364563392907
 20
491.6161711047526
 30
0.0000000000000000
 40
6.000000000000000
100
AcDbArc
 50
90.00000000000000
 51
270.0000000000000
  0
LINE
  5
C6
100
AcDbEntity
  8
MAIN0
  6
CONTINUOUS
 62
3
100
AcDbLine
 10
732.1364563392907
 20
506.6161711047526
 30
0.0000000000000000
 11
710.1364563392908
 21
506.6161711047526
 31
0.0000000000000000
  0
LINE
  5
C7
100
AcDbEntity
  8
MAIN0
  6
CONTINUOUS
 62
3
100
AcDbLine
 10
728.2864563392907
 20
346.6161711047526
 30
0.0000000000000000
 11
713.9864563392907
 21
346.6161711047526
 31
0.0000000000000000
  0
LINE
  5
C8
100
AcDbEntity
  8
MAIN0
  6
CONTINUOUS
 62
3
100
AcDbLine
 10
732.1364563392907
 20
387.6161711047521
 30
0.0000000000000000
 11
732.1364563392907
 21
476.6161711047526
 31
0.0000000000000000
  0
LINE
  5
C9
100
AcDbEntity
  8
MAIN0
  6
CONTINUOUS
 62
3
100
AcDbLine
 10
710.1364563392907
 20
387.6161711047526
 30
0.0000000000000000
 11
710.1364563392907
 21
476.6161711047526
 31
0.0000000000000000
  0
LINE
  5
CA
100
AcDbEntity
  8
MAIN0
  6
CONTINUOUS
 62
3
100
AcDbLine
 10
708.1364563392907
 20
504.6161711047525
 30
0.0000000000000000
 11
710.1364563392907
 21
506.6161711047525
 31
0.0000000000000000
  0
LINE
  5
CB
100
AcDbEntity
  8
MAIN0
  6
CONTINUOUS
 62
3
100
AcDbLine
 10
732.1364563392906
 20
506.6161711047525
 30
0.0000000000000000
 11
734.1364563392906
 21
504.6161711047525
 31
0.0000000000000000
  0
LINE
  5
CC
100
AcDbEntity
  8
MAIN0
  6
CONTINUOUS
 62
3
100
AcDbLine
 10
734.1364563392908
 20
504.6161711047526
 30
0.0000000000000000
 11
708.1364563392908
 21
504.6161711047526
 31
0.0000000000000000
  0
LINE
  5
CD
100
AcDbEntity
  8
MAIN0
  6
CONTINUOUS
 62
3
100
AcDbLine
 10
732.1364563392907
 20
476.6161711047526
 30
0.0000000000000000
 11
710.1364563392908
 21
476.6161711047526
 31
0.0000000000000000
  0
LINE
  5
CE
100
AcDbEntity
  8
MAIN0
  6
CONTINUOUS
 62
3
100
AcDbLine
 10
708.1364563392906
 20
478.6161711047527
 30
0.0000000000000000
 11
710.1364563392907
 21
476.6161711047526
 31
0.0000000000000000
  0
LINE
  5
CF
100
AcDbEntity
  8
MAIN0
  6
CONTINUOUS
 62
3
100
AcDbLine
 10
732.1364563392905
 20
476.6161711047525
 30
0.0000000000000000
 11
734.1364563392905
 21
478.6161711047525
 31
0.0000000000000000
  0
LINE
  5
D0
100
AcDbEntity
  8
MAIN0
  6
CONTINUOUS
 62
3
100
AcDbLine
 10
732.1364563392907
 20
387.6161711047526
 30
0.0000000000000000
 11
710.1364563392907
 21
387.6161711047526
 31
0.0000000000000000
  0
LINE
  5
D1
100
AcDbEntity
  8
MAIN0
  6
CENTER
 62
3
100
AcDbLine
 10
709.6466597345906
 20
295.3014136727555
 30
0.0000000000000000
 11
731.7411348612249
 21
295.3014136727583
 31
0.0000000000000000
  0
LINE
  5
D2
100
AcDbEntity
  8
MAIN0
  6
CONTINUOUS
 62
3
100
AcDbLine
 10
713.2864563392907
 20
295.9366950463342
 30
0.0000000000000000
 11
720.5011749650612
 21
303.1514136720897
 31
0.0000000000000000
  0
LINE
  5
D3
100
AcDbEntity
  8
MAIN0
  6
CONTINUOUS
 62
3
100
AcDbLine
 10
721.7717377135201
 20
287.4514136720869
 30
0.0000000000000000
 11
728.9864563392907
 21
294.6661322978425
 31
0.0000000000000000
  0
LINE
  5
D4
100
AcDbEntity
  8
MAIN0
  6
CONTINUOUS
 62
3
100
AcDbLine
 10
721.7717377135709
 20
303.1514136720870
 30
0.0000000000000000
 11
728.9864563392907
 21
295.9366950463946
 31
0.0000000000000000
  0
LINE
  5
D5
100
AcDbEntity
  8
MAIN0
  6
CONTINUOUS
 62
3
100
AcDbLine
 10
713.2864563392908
 20
294.6661322978903
 30
0.0000000000000000
 11
720.5011749651188
 21
287.4514136720896
 31
0.0000000000000000
  0
LINE
  5
D6
100
AcDbEntity
  8
MAIN0
  6
CONTINUOUS
 62
3
100
AcDbLine
 10
728.9864563392907
 20
294.6661322978422
 30
0.0000000000000000
 11
728.9864563392907
 21
295.9366950463945
 31
0.0000000000000000
  0
LINE
  5
D7
100
AcDbEntity
  8
MAIN0
  6
CONTINUOUS
 62
3
100
AcDbLine
 10
728.9864563392907
 20
347.3161711047526
 30
0.0000000000000000
 11
728.9864563392907
 21
367.6267363953866
 31
0.0000000000000000
  0
LINE
  5
D8
100
AcDbEntity
  8
MAIN0
  6
CONTINUOUS
 62
3
100
AcDbLine
 10
713.2864563392907
 20
294.6661322978902
 30
0.0000000000000000
 11
713.2864563392907
 21
295.9366950463344
 31
0.0000000000000000
  0
LINE
  5
D9
100
AcDbEntity
  8
MAIN0
  6
CONTINUOUS
 62
3
100
AcDbLine
 10
713.2864563392907
 20
347.3161711047526
 30
0.0000000000000000
 11
713.2864563392907
 21
367.6267363953866
 31
0.0000000000000000
  0
ARC
  5
DA
100
AcDbEntity
  8
MAIN0
  6
CONTINUOUS
 62
3
100
AcDbCircle
 10
648.2864563392907
 20
367.6267363953866
 30
0.0000000000000000
 40
65.00000000000000
100
AcDbArc
 50
0.0000000000000000
 51
17.91042553589133
  0
ARC
  5
DB
100
AcDbEntity
  8
MAIN0
  6
CONTINUOUS
 62
3
100
AcDbCircle
 10
793.9864563392908
 20
367.6267363953866
 30
0.0000000000000000
 40
65.00000000000000
100
AcDbArc
 50
162.0895744641087
 51
180.0000000000000
  0
LINE
  5
DC
100
AcDbEntity
  8
MAIN0
  6
CONTINUOUS
 62
3
100
AcDbLine
 10
720.5011749650610
 20
303.1514136720897
 30
0.0000000000000000
 11
721.7717377136132
 21
303.1514136720871
 31
0.0000000000000000
  0
LINE
  5
DD
100
AcDbEntity
  8
MAIN0
  6
CONTINUOUS
 62
3
100
AcDbLine
 10
720.5011749650763
 20
287.4514136720897
 30
0.0000000000000000
 11
721.7717377135206
 21
287.4514136720871
 31
0.0000000000000000
  0
LINE
  5
DE
100
AcDbEntity
  8
MAIN0
  6
CONTINUOUS
 62
3
100
AcDbLine
 10
721.7717377129553
 20
347.3161711047533
 30
0.0000000000000000
 11
721.7717377129101
 21
362.6161711047526
 31
0.0000000000000000
  0
LINE
  5
DF
100
AcDbEntity
  8
MAIN0
  6
CONTINUOUS
 62
3
100
AcDbLine
 10
720.5011749646127
 20
347.3161711047532
 30
0.0000000000000000
 11
720.5011749646127
 21
362.6161711047526
 31
0.0000000000000000
  0
LINE
  5
E0
100
AcDbEntity
  8
MAIN0
  6
CONTINUOUS
 62
3
100
AcDbLine
 10
713.2864563392907
 20
347.3161711047526
 30
0.0000000000000000
 11
713.9864563392907
 21
346.6161711047525
 31
0.0000000000000000
  0
LINE
  5
E1
100
AcDbEntity
  8
MAIN0
  6
CONTINUOUS
 62
3
100
AcDbLine
 10
728.2864563392908
 20
346.6161711047525
 30
0.0000000000000000
 11
728.9864563392907
 21
347.3161711047525
 31
0.0000000000000000
  0
LINE
  5
E2
100
AcDbEntity
  8
MAIN0
  6
CONTINUOUS
 62
3
100
AcDbLine
 10
713.2864563392907
 20
347.3161711047528
 30
0.0000000000000000
 11
728.9864563392907
 21
347.3161711047538
 31
0.0000000000000000
  0
LINE
  5
E3
100
AcDbEntity
  8
MAIN0
  6
CONTINUOUS
 62
3
100
AcDbLine
 10
720.5011749646127
 20
362.6161711047526
 30
0.0000000000000000
 11
713.2864563392907
 21
362.6161711047526
 31
0.0000000000000000
  0
LINE
  5
E4
100
AcDbEntity
  8
MAIN0
  6
CONTINUOUS
 62
3
100
AcDbLine
 10
728.9864563392907
 20
362.6161711047526
 30
0.0000000000000000
 11
721.7717377129100
 21
362.6161711047526
 31
0.0000000000000000
  0
LINE
  5
E5
100
AcDbEntity
  8
MAIN0
  6
CONTINUOUS
 62
3
100
AcDbLine
 10
713.2864563392906
 20
362.6161711047525
 30
0.0000000000000000
 11
720.5011749646126
 21
347.3161711047532
 31
0.0000000000000000
  0
LINE
  5
E6
100
AcDbEntity
  8
MAIN0
  6
CONTINUOUS
 62
3
100
AcDbLine
 10
720.5011749646126
 20
362.6161711047525
 30
0.0000000000000000
 11
713.2864563392907
 21
347.3161711047525
 31
0.0000000000000000
  0
LINE
  5
E7
100
AcDbEntity
  8
MAIN0
  6
CONTINUOUS
 62
3
100
AcDbLine
 10
728.9864563392906
 20
362.6161711047526
 30
0.0000000000000000
 11
721.7717377129551
 21
347.3161711047534
 31
0.0000000000000000
  0
LINE
  5
E8
100
AcDbEntity
  8
MAIN0
  6
CONTINUOUS
 62
3
100
AcDbLine
 10
721.7717377129100
 20
362.6161711047526
 30
0.0000000000000000
 11
728.9864563392908
 21
347.3161711047538
 31
0.0000000000000000
  0
ARC
  5
E9
100
AcDbEntity
  8
MAIN0
  6
CONTINUOUS
 62
3
100
AcDbCircle
 10
700.1364563392905
 20
491.6161711047526
 30
0.0000000000000000
 40
10.00000000000018
100
AcDbArc
 50
323.1301023541568
 51
396.8698976458433
  0
ARC
  5
EA
100
AcDbEntity
  8
MAIN0
  6
CONTINUOUS
 62
3
100
AcDbCircle
 10
742.1364563392907
 20
491.6161711047525
 30
0.0000000000000000
 40
10.00000000000002
100
AcDbArc
 50
143.1301023541559
 51
216.8698976458442
  0
LINE
  5
EB
100
AcDbEntity
  8
MAIN0
  6
CONTINUOUS
 62
3
100
AcDbLine
 10
734.1364563392907
 20
478.6161711047525
 30
0.0000000000000000
 11
734.1364563392907
 21
485.6161711047525
 31
0.0000000000000000
  0
LINE
  5
EC
100
AcDbEntity
  8
MAIN0
  6
CONTINUOUS
 62
3
100
AcDbLine
 10
734.1364563392907
 20
497.6161711047526
 30
0.0000000000000000
 11
734.1364563392907
 21
504.6161711047525
 31
0.0000000000000000
  0
LINE
  5
ED
100
AcDbEntity
  8
MAIN0
  6
CONTINUOUS
 62
3
100
AcDbLine
 10
708.1364563392907
 20
478.6161711047526
 30
0.0000000000000000
 11
708.1364563392907
 21
485.6161711047526
 31
0.0000000000000000
  0
LINE
  5
EE
100
AcDbEntity
  8
MAIN0
  6
CONTINUOUS
 62
3
100
AcDbLine
 10
708.1364563392907
 20
497.6161711047526
 30
0.0000000000000000
 11
708.1364563392907
 21
504.6161711047525
 31
0.0000000000000000
  0
ARC
  5
EF
100
AcDbEntity
  8
MAIN0
  6
CONTINUOUS
 62
3
100
AcDbCircle
 10
788.6752812518305
 20
494.6161711047526
 30
0.0000000000000000
 40
4.500000000000000
100
AcDbArc
 50
138.1896851042214
 51
221.8103148957786
  0
ARC
  5
F0
100
AcDbEntity
  8
MAIN0
  6
CONTINUOUS
 62
3
100
AcDbCircle
 10
781.9670773193311
 20
494.6161711047526
 30
0.0000000000000000
 40
4.500000000000000
100
AcDbArc
 50
318.1896851042214
 51
401.8103148957786
  0
ARC
  5
F1
100
AcDbEntity
  8
MAIN0
  6
CONTINUOUS
 62
3
100
AcDbCircle
 10
793.1752812518305
 20
494.6161711047526
 30
0.0000000000000000
 40
4.500000000000000
100
AcDbArc
 50
138.1896851042214
 51
221.8103148957786
  0
ARC
  5
F2
100
AcDbEntity
  8
MAIN0
  6
CONTINUOUS
 62
3
100
AcDbCircle
 10
781.9670773193311
 20
488.6161711047526
 30
0.0000000000000000
 40
4.500000000000000
100
AcDbArc
 50
318.1896851042214
 51
401.8103148957786
  0
ARC
  5
F3
100
AcDbEntity
  8
MAIN0
  6
CONTINUOUS
 62
3
100
AcDbCircle
 10
793.1752812518305
 20
488.6161711047526
 30
0.0000000000000000
 40
4.500000000000000
100
AcDbArc
 50
138.1896851042214
 51
221.8103148957786
  0
ARC
  5
F4
100
AcDbEntity
  8
MAIN0
  6
CONTINUOUS
 62
3
100
AcDbCircle
 10
786.4670773193311
 20
488.6161711047526
 30
0.0000000000000000
 40
4.500000000000000
100
AcDbArc
 50
318.1896851042214
 51
401.8103148957786
  0
LINE
  5
F5
100
AcDbEntity
  8
MAIN0
  6
CONTINUOUS
 62
3
100
AcDbLine
 10
785.3211792855808
 20
497.6161711047526
 30
0.0000000000000000
 11
734.1364563392906
 21
497.6161711047526
 31
0.0000000000000000
  0
LINE
  5
F6
100
AcDbEntity
  8
MAIN0
  6
CONTINUOUS
 62
3
100
AcDbLine
 10
845.1364563392907
 20
497.6161711047526
 30
0.0000000000000000
 11
789.8211792855808
 21
497.6161711047526
 31
0.0000000000000000
  0
LINE
  5
F7
100
AcDbEntity
  8
MAIN0
  6
CONTINUOUS
 62
3
100
AcDbLine
 10
785.3211792855808
 20
485.6161711047526
 30
0.0000000000000000
 11
734.1364563392906
 21
485.6161711047526
 31
0.0000000000000000
  0
LINE
  5
F8
100
AcDbEntity
  8
MAIN0
  6
CONTINUOUS
 62
3
100
AcDbLine
 10
845.1364563392907
 20
485.6161711047526
 30
0.0000000000000000
 11
789.8211792855808
 21
485.6161711047526
 31
0.0000000000000000
  0
ARC
  5
F9
100
AcDbEntity
  8
MAIN0
  6
CONTINUOUS
 62
3
100
AcDbCircle
 10
660.5315183903304
 20
494.6161711047526
 30
0.0000000000000000
 40
4.500000000000000
100
AcDbArc
 50
138.1896851042214
 51
221.8103148957786
  0
ARC
  5
FA
100
AcDbEntity
  8
MAIN0
  6
CONTINUOUS
 62
3
100
AcDbCircle
 10
653.8233144578310
 20
494.6161711047526
 30
0.0000000000000000
 40
4.500000000000000
100
AcDbArc
 50
318.1896851042214
 51
401.8103148957786
  0
ARC
  5
FB
100
AcDbEntity
  8
MAIN0
  6
CONTINUOUS
 62
3
100
AcDbCircle
 10
665.0315183903304
 20
494.6161711047526
 30
0.0000000000000000
 40
4.500000000000000
100
AcDbArc
 50
138.1896851042214
 51
221.8103148957786
  0
ARC
  5
FC
100
AcDbEntity
  8
MAIN0
  6
CONTINUOUS
 62
3
100
AcDbCircle
 10
653.8233144578310
 20
488.6161711047526
 30
0.0000000000000000
 40
4.500000000000000
100
AcDbArc
 50
318.1896851042214
 51
401.8103148957786
  0
ARC
  5
FD
100
AcDbEntity
  8
MAIN0
  6
CONTINUOUS
 62
3
100
AcDbCircle
 10
665.0315183903304
 20
488.6161711047526
 30
0.0000000000000000
 40
4.500000000000000
100
AcDbArc
 50
138.1896851042214
 51
221.8103148957786
  0
ARC
  5
FE
100
AcDbEntity
  8
MAIN0
  6
CONTINUOUS
 62
3
100
AcDbCircle
 10
658.3233144578310
 20
488.6161711047526
 30
0.0000000000000000
 40
4.500000000000000
100
AcDbArc
 50
318.1896851042214
 51
401.8103148957786
  0
LINE
  5
FF
100
AcDbEntity
  8
MAIN0
  6
CONTINUOUS
 62
3
100
AcDbLine
 10
657.1774164240807
 20
497.6161711047526
 30
0.0000000000000000
 11
597.1364563392907
 21
497.6161711047526
 31
0.0000000000000000
  0
LINE
  5
100
100
AcDbEntity
  8
MAIN0
  6
CONTINUOUS
 62
3
100
AcDbLine
 10
708.1364563392908
 20
497.6161711047526
 30
0.0000000000000000
 11
661.6774164240807
 21
497.6161711047526
 31
0.0000000000000000
  0
LINE
  5
101
100
AcDbEntity
  8
MAIN0
  6
CONTINUOUS
 62
3
100
AcDbLine
 10
657.1774164240807
 20
485.6161711047526
 30
0.0000000000000000
 11
597.1364563392907
 21
485.6161711047526
 31
0.0000000000000000
  0
LINE
  5
102
100
AcDbEntity
  8
MAIN0
  6
CONTINUOUS
 62
3
100
AcDbLine
 10
708.1364563392908
 20
485.6161711047526
 30
0.0000000000000000
 11
661.6774164240807
 21
485.6161711047526
 31
0.0000000000000000
  0
MTEXT
  5
103
100
AcDbEntity
  8
MAIN0
  6
CONTINUOUS
 62
3
100
AcDbMText
 10
553.5415159232051
 20
203.9495089977144
 30
0.0000000000000000
 40
4.649999856948853
 41
0.0000000000000000
 71
     1
 72
     1
  1
{\H0.81x;{1}}
 11
1.000000000000000
 21
0.0000000000000000
 31
0.0000000000000000
  7
STANDARD
  0
MTEXT
  5
104
100
AcDbEntity
  8
MAIN0
  6
CONTINUOUS
 62
3
100
AcDbMText
 10
630.1018837952390
 20
410.5481780000436
 30
0.0000000000000000
 40
4.649999856948853
 41
0.0000000000000000
 71
     1
 72
     1
  1
{\H0.81x;{2}}
 11
-0.4999999999983780
 21
0.8660254037853751
 31
0.0000000000000000
  7
STANDARD
  0
MTEXT
  5
105
100
AcDbEntity
  8
MAIN0
  6
CONTINUOUS
 62
3
100
AcDbMText
 10
408.9431132513625
 20
374.2748378288100
 30
0.0000000000000000
 40
4.649999856948853
 41
0.0000000000000000
 71
     1
 72
     1
  1
{\H0.81x;{3}}
 11
-0.5000000000000142
 21
-0.8660254037844304
 31
0.0000000000000000
  7
STANDARD
  0
ARC
  5
106
100
AcDbEntity
  8
MAIN0
  6
HIDDEN
 62
3
100
AcDbCircle
 10
530.4480248645861
 20
328.5890056525408
 30
0.0000000000000000
 40
65.00000000000000
100
AcDbArc
 50
165.6184982757299
 51
254.3815017243514
  0
ARC
  5
107
100
AcDbEntity
  8
MAIN0
  6
HIDDEN
 62
3
100
AcDbCircle
 10
530.4480248645861
 20
328.5890056525408
 30
0.0000000000000000
 40
65.00000000000000
100
AcDbArc
 50
285.6184982756486
 51
374.3815017244328
  0
ARC
  5
108
100
AcDbEntity
  8
MAIN0
  6
HIDDEN
 62
3
100
AcDbCircle
 10
530.4480248645861
 20
328.5890056525408
 30
0.0000000000000000
 40
65.00000000000000
100
AcDbArc
 50
45.61849827572996
 51
134.3815017244328
  0
LINE
  5
109
100
AcDbEntity
  8
MAIN0
  6
CENTER
 62
3
100
AcDbLine
 10
530.4480248645376
 20
328.5890056525407
 30
0.0000000000000000
 11
658.9981891746086
 21
254.3705336837350
 31
0.0000000000000000
  0
LINE
  5
10A
100
AcDbEntity
  8
MAIN0
  6
CENTER
 62
3
100
AcDbLine
 10
406.1432357241940
 20
256.8216021812267
 30
0.0000000000000000
 11
530.4480248645268
 21
328.5890056525408
 31
0.0000000000000000
  0
LINE
  5
10B
100
AcDbEntity
  8
MAIN0
  6
CENTER
 62
3
100
AcDbLine
 10
721.1364563392907
 20
281.5946511740758
 30
0.0000000000000000
 11
721.1364563392907
 21
437.4015823418825
 31
0.0000000000000000
  0
LINE
  5
10C
100
AcDbEntity
  8
MAIN0
  6
CENTER
 62
3
100
AcDbLine
 10
721.1364563392907
 20
446.5515821988314
 30
0.0000000000000000
 11
721.1364563392907
 21
514.1098787661334
 31
0.0000000000000000
  0
LINE
  5
10D
100
AcDbEntity
  8
MAIN0
  6
CONTINUOUS
 62
3
100
AcDbLine
 10
543.9480248645861
 20
192.0890056525407
 30
0.0000000000000000
 11
543.9480248645861
 21
288.2901222933211
 31
0.0000000000000000
  0
LINE
  5
10E
100
AcDbEntity
  8
MAIN0
  6
CONTINUOUS
 62
3
100
AcDbLine
 10
516.9480248645861
 20
192.0890056525407
 30
0.0000000000000000
 11
516.9480248645861
 21
288.2901222933210
 31
0.0000000000000000
  0
MTEXT
  5
10F
100
AcDbEntity
  8
MAIN0
  6
CONTINUOUS
 62
3
100
AcDbMText
 10
589.8563827718158
 20
265.6629837542058
 30
0.0000000000000000
 40
7.950000286102295
 41
0.0000000000000000
 71
     1
 72
     1
  1
{\H0.83x;{JN10-101}}
 11
0.5000000000004803
 21
0.8660254037841614
 31
0.0000000000000000
  7
STANDARD
  0
LINE
  5
110
100
AcDbEntity
  8
MAIN0
  6
CONTINUOUS
 62
3
100
AcDbLine
 10
637.4836660807566
 20
305.9801744596661
 30
0.0000000000000000
 11
603.9900991143786
 21
247.9676147472629
 31
0.0000000000000000
  0
MTEXT
  5
111
100
AcDbEntity
  8
MAIN0
  6
CONTINUOUS
 62
3
100
AcDbMText
 10
596.8892044933983
 20
254.1051880808706
 30
0.0000000000000000
 40
7.950000286102295
 41
0.0000000000000000
 71
     1
 72
     1
  1
{\H0.86x;{ＫＩＴＡＧＡＷＡ}}
 11
0.5000000000004803
 21
0.8660254037841614
 31
0.0000000000000000
  7
KNJYOKO
  0
LINE
  5
112
100
AcDbEntity
  8
MAIN0
  6
PHANTOM
 62
3
100
AcDbLine
 10
287.6591470014477
 20
315.3390056525408
 30
0.0000000000000000
 11
287.6591470014477
 21
341.8390056525408
 31
0.0000000000000000
  0
LINE
  5
113
100
AcDbEntity
  8
MAIN0
  6
CONTINUOUS
 62
3
100
AcDbLine
 10
273.6591470014477
 20
242.5890056524068
 30
0.0000000000000000
 11
273.6591470014477
 21
258.0890056523723
 31
0.0000000000000000
  0
LINE
  5
114
100
AcDbEntity
  8
MAIN0
  6
CONTINUOUS
 62
3
100
AcDbLine
 10
259.6591470014477
 20
211.0890056526195
 30
0.0000000000000000
 11
259.6591470014477
 21
226.0890056523723
 31
0.0000000000000000
  0
LINE
  5
115
100
AcDbEntity
  8
MAIN0
  6
CENTER
 62
3
100
AcDbLine
 10
279.6591470014477
 20
286.4431589902564
 30
0.0000000000000000
 11
279.6591470014477
 21
290.7598023939501
 31
0.0000000000000000
  0
LINE
  5
116
100
AcDbEntity
  8
MAIN0
  6
CONTINUOUS
 62
3
100
AcDbLine
 10
280.1787622436259
 20
287.9579167394848
 30
0.0000000000000000
 11
281.4091470012451
 21
290.0890056525408
 31
0.0000000000000000
  0
LINE
  5
117
100
AcDbEntity
  8
MAIN0
  6
CONTINUOUS
 62
3
100
AcDbLine
 10
277.9091470014643
 20
290.0890056525408
 30
0.0000000000000000
 11
279.1395317590846
 21
287.9579167394843
 31
0.0000000000000000
  0
ARC
  5
118
100
AcDbEntity
  8
MAIN0
  6
CONTINUOUS
 62
3
100
AcDbCircle
 10
279.6591470013551
 20
288.2579167394845
 30
0.0000000000000000
 40
0.6000000000000001
100
AcDbArc
 50
210.0000000000125
 51
330.0000000000244
  0
LINE
  5
119
100
AcDbEntity
  8
MAIN0
  6
CENTER
 62
3
100
AcDbLine
 10
272.6591470014477
 20
286.4431589902564
 30
0.0000000000000000
 11
272.6591470014477
 21
290.7598023939501
 31
0.0000000000000000
  0
LINE
  5
11A
100
AcDbEntity
  8
MAIN0
  6
CONTINUOUS
 62
3
100
AcDbLine
 10
273.1787622436258
 20
287.9579167394849
 30
0.0000000000000000
 11
274.4091470012451
 21
290.0890056525408
 31
0.0000000000000000
  0
LINE
  5
11B
100
AcDbEntity
  8
MAIN0
  6
CONTINUOUS
 62
3
100
AcDbLine
 10
270.9091470014643
 20
290.0890056525408
 30
0.0000000000000000
 11
272.1395317590846
 21
287.9579167394843
 31
0.0000000000000000
  0
ARC
  5
11C
100
AcDbEntity
  8
MAIN0
  6
CONTINUOUS
 62
3
100
AcDbCircle
 10
272.6591470013552
 20
288.2579167394845
 30
0.0000000000000000
 40
0.6000000000000001
100
AcDbArc
 50
210.0000000000125
 51
330.0000000000244
  0
LINE
  5
11D
100
AcDbEntity
  8
MAIN0
  6
CENTER
 62
3
100
AcDbLine
 10
265.6591470014477
 20
286.4431589902564
 30
0.0000000000000000
 11
265.6591470014477
 21
290.7598023939501
 31
0.0000000000000000
  0
LINE
  5
11E
100
AcDbEntity
  8
MAIN0
  6
CONTINUOUS
 62
3
100
AcDbLine
 10
266.1787622436259
 20
287.9579167394848
 30
0.0000000000000000
 11
267.4091470012451
 21
290.0890056525408
 31
0.0000000000000000
  0
LINE
  5
11F
100
AcDbEntity
  8
MAIN0
  6
CONTINUOUS
 62
3
100
AcDbLine
 10
263.9091470014643
 20
290.0890056525408
 30
0.0000000000000000
 11
265.1395317590846
 21
287.9579167394844
 31
0.0000000000000000
  0
ARC
  5
120
100
AcDbEntity
  8
MAIN0
  6
CONTINUOUS
 62
3
100
AcDbCircle
 10
265.6591470013552
 20
288.2579167394845
 30
0.0000000000000000
 40
0.6000000000000001
100
AcDbArc
 50
210.0000000000125
 51
330.0000000000244
  0
LINE
  5
121
100
AcDbEntity
  8
MAIN0
  6
CENTER
 62
3
100
AcDbLine
 10
258.6591470014477
 20
286.4431589902564
 30
0.0000000000000000
 11
258.6591470014477
 21
290.7598023939501
 31
0.0000000000000000
  0
LINE
  5
122
100
AcDbEntity
  8
MAIN0
  6
CONTINUOUS
 62
3
100
AcDbLine
 10
259.1787622436258
 20
287.9579167394848
 30
0.0000000000000000
 11
260.4091470012451
 21
290.0890056525408
 31
0.0000000000000000
  0
LINE
  5
123
100
AcDbEntity
  8
MAIN0
  6
CONTINUOUS
 62
3
100
AcDbLine
 10
256.9091470014643
 20
290.0890056525409
 30
0.0000000000000000
 11
258.1395317590846
 21
287.9579167394844
 31
0.0000000000000000
  0
ARC
  5
124
100
AcDbEntity
  8
MAIN0
  6
CONTINUOUS
 62
3
100
AcDbCircle
 10
258.6591470013552
 20
288.2579167394845
 30
0.0000000000000000
 40
0.6000000000000001
100
AcDbArc
 50
210.0000000000125
 51
330.0000000000244
  0
LINE
  5
125
100
AcDbEntity
  8
MAIN0
  6
CENTER
 62
3
100
AcDbLine
 10
251.6591470014477
 20
286.4431589902564
 30
0.0000000000000000
 11
251.6591470014477
 21
290.7598023939501
 31
0.0000000000000000
  0
LINE
  5
126
100
AcDbEntity
  8
MAIN0
  6
CONTINUOUS
 62
3
100
AcDbLine
 10
252.1787622436258
 20
287.9579167394848
 30
0.0000000000000000
 11
253.4091470012451
 21
290.0890056525408
 31
0.0000000000000000
  0
ARC
  5
127
100
AcDbEntity
  8
MAIN0
  6
CONTINUOUS
 62
3
100
AcDbCircle
 10
251.6591470013552
 20
288.2579167394845
 30
0.0000000000000000
 40
0.6000000000000001
100
AcDbArc
 50
210.0000000000125
 51
330.0000000000244
  0
LINE
  5
128
100
AcDbEntity
  8
MAIN0
  6
CONTINUOUS
 62
3
100
AcDbLine
 10
253.4091470012451
 20
290.0890056525408
 30
0.0000000000000000
 11
256.9091470014643
 21
290.0890056525408
 31
0.0000000000000000
  0
LINE
  5
129
100
AcDbEntity
  8
MAIN0
  6
CONTINUOUS
 62
3
100
AcDbLine
 10
260.4091470012451
 20
290.0890056525408
 30
0.0000000000000000
 11
263.9091470014643
 21
290.0890056525408
 31
0.0000000000000000
  0
LINE
  5
12A
100
AcDbEntity
  8
MAIN0
  6
CONTINUOUS
 62
3
100
AcDbLine
 10
267.4091470012451
 20
290.0890056525408
 30
0.0000000000000000
 11
270.9091470014643
 21
290.0890056525408
 31
0.0000000000000000
  0
LINE
  5
12B
100
AcDbEntity
  8
MAIN0
  6
CONTINUOUS
 62
3
100
AcDbLine
 10
274.4091470012451
 20
290.0890056525408
 30
0.0000000000000000
 11
277.9091470014643
 21
290.0890056525408
 31
0.0000000000000000
  0
LINE
  5
12C
100
AcDbEntity
  8
MAIN0
  6
CONTINUOUS
 62
3
100
AcDbLine
 10
281.4091470012451
 20
290.0890056525408
 30
0.0000000000000000
 11
286.6591470014477
 21
290.0890056525408
 31
0.0000000000000000
  0
LINE
  5
12D
100
AcDbEntity
  8
MAIN0
  6
CONTINUOUS
 62
3
100
AcDbLine
 10
286.6591470014477
 20
290.0890056525408
 30
0.0000000000000000
 11
287.6591470014477
 21
289.0890056525408
 31
0.0000000000000000
  0
LINE
  5
12E
100
AcDbEntity
  8
MAIN0
  6
CONTINUOUS
 62
3
100
AcDbLine
 10
259.1591470014477
 20
192.8890056525408
 30
0.0000000000000000
 11
259.1591470014477
 21
210.5890056526186
 31
0.0000000000000000
  0
LINE
  5
12F
100
AcDbEntity
  8
MAIN0
  6
CONTINUOUS
 62
3
100
AcDbLine
 10
273.1591470014477
 20
229.5890056525408
 30
0.0000000000000000
 11
273.1591470014477
 21
242.0890056524073
 31
0.0000000000000000
  0
LINE
  5
130
100
AcDbEntity
  8
MAIN0
  6
CONTINUOUS
 62
3
100
AcDbLine
 10
273.1591470014476
 20
242.0890056524073
 30
0.0000000000000000
 11
273.6591470014476
 21
242.5890056524069
 31
0.0000000000000000
  0
LINE
  5
131
100
AcDbEntity
  8
MAIN0
  6
CONTINUOUS
 62
3
100
AcDbLine
 10
259.1591470014477
 20
210.5890056526186
 30
0.0000000000000000
 11
259.6591470014478
 21
211.0890056526195
 31
0.0000000000000000
  0
LINE
  5
132
100
AcDbEntity
  8
MAIN0
  6
CONTINUOUS
 62
3
100
AcDbLine
 10
273.1591470014477
 20
229.5890056525408
 30
0.0000000000000000
 11
272.1591470014477
 21
228.5890056525408
 31
0.0000000000000000
  0
LINE
  5
133
100
AcDbEntity
  8
MAIN0
  6
CONTINUOUS
 62
3
100
AcDbLine
 10
259.1591470014477
 20
192.8890056525408
 30
0.0000000000000000
 11
258.3591470014477
 21
192.0890056525408
 31
0.0000000000000000
  0
LINE
  5
134
100
AcDbEntity
  8
MAIN0
  6
CENTER
 62
3
100
AcDbLine
 10
281.1591470014477
 20
259.6699887716482
 30
0.0000000000000000
 11
281.1591470014477
 21
264.0926774601715
 31
0.0000000000000000
  0
LINE
  5
135
100
AcDbEntity
  8
MAIN0
  6
CONTINUOUS
 62
3
100
AcDbLine
 10
279.4091470015995
 20
260.5890056525409
 30
0.0000000000000000
 11
280.6395317592948
 21
262.7200945657278
 31
0.0000000000000000
  0
LINE
  5
136
100
AcDbEntity
  8
MAIN0
  6
CONTINUOUS
 62
3
100
AcDbLine
 10
281.6787622438361
 20
262.7200945657281
 30
0.0000000000000000
 11
282.9091470015320
 21
260.5890056525408
 31
0.0000000000000000
  0
ARC
  5
137
100
AcDbEntity
  8
MAIN0
  6
CONTINUOUS
 62
3
100
AcDbCircle
 10
281.1591470015654
 20
262.4200945657281
 30
0.0000000000000000
 40
0.6000000000000001
100
AcDbArc
 50
30.00000000001052
 51
150.0000000000137
  0
LINE
  5
138
100
AcDbEntity
  8
MAIN0
  6
CONTINUOUS
 62
3
100
AcDbLine
 10
275.6591470010679
 20
260.5890056525408
 30
0.0000000000000000
 11
279.4091470015995
 21
260.5890056525408
 31
0.0000000000000000
  0
LINE
  5
139
100
AcDbEntity
  8
MAIN0
  6
CONTINUOUS
 62
3
100
AcDbLine
 10
282.9091470015319
 20
260.5890056525408
 30
0.0000000000000000
 11
286.8591470014477
 21
260.5890056525408
 31
0.0000000000000000
  0
LINE
  5
13A
100
AcDbEntity
  8
MAIN0
  6
CONTINUOUS
 62
3
100
AcDbLine
 10
272.8591470014477
 20
259.9194294858231
 30
0.0000000000000000
 11
272.8591470014477
 21
260.0690545969862
 31
0.0000000000000000
  0
LINE
  5
13B
100
AcDbEntity
  8
MAIN0
  6
CONTINUOUS
 62
3
100
AcDbLine
 10
275.6591470010679
 20
260.5890056525408
 30
0.0000000000000000
 11
274.6132453373295
 21
261.1334675968002
 31
0.0000000000000000
  0
LINE
  5
13C
100
AcDbEntity
  8
MAIN0
  6
CONTINUOUS
 62
3
100
AcDbLine
 10
273.6591470014476
 20
258.0890056523723
 30
0.0000000000000000
 11
272.9947340016342
 21
259.3653311499403
 31
0.0000000000000000
  0
ARC
  5
13D
100
AcDbEntity
  8
MAIN0
  6
CONTINUOUS
 62
3
100
AcDbCircle
 10
274.0591470014477
 20
259.9194294858231
 30
0.0000000000000000
 40
1.200000000000000
100
AcDbArc
 50
180.0000000000000
 51
207.5000000000294
  0
ARC
  5
13E
100
AcDbEntity
  8
MAIN0
  6
CONTINUOUS
 62
3
100
AcDbCircle
 10
274.0591470014477
 20
260.0690545969862
 30
0.0000000000000000
 40
1.200000000000000
100
AcDbArc
 50
62.50000000000773
 51
180.0000000000000
  0
LINE
  5
13F
100
AcDbEntity
  8
MAIN0
  6
CONTINUOUS
 62
3
100
AcDbLine
 10
258.8591470014477
 20
227.9194294858231
 30
0.0000000000000000
 11
258.8591470014477
 21
228.0690545969862
 31
0.0000000000000000
  0
LINE
  5
140
100
AcDbEntity
  8
MAIN0
  6
CONTINUOUS
 62
3
100
AcDbLine
 10
261.6591470010680
 20
228.5890056525408
 30
0.0000000000000000
 11
260.6132453373295
 21
229.1334675968002
 31
0.0000000000000000
  0
LINE
  5
141
100
AcDbEntity
  8
MAIN0
  6
CONTINUOUS
 62
3
100
AcDbLine
 10
259.6591470014475
 20
226.0890056523723
 30
0.0000000000000000
 11
258.9947340016342
 21
227.3653311499403
 31
0.0000000000000000
  0
ARC
  5
142
100
AcDbEntity
  8
MAIN0
  6
CONTINUOUS
 62
3
100
AcDbCircle
 10
260.0591470014477
 20
227.9194294858231
 30
0.0000000000000000
 40
1.200000000000000
100
AcDbArc
 50
180.0000000000000
 51
207.5000000000294
  0
ARC
  5
143
100
AcDbEntity
  8
MAIN0
  6
CONTINUOUS
 62
3
100
AcDbCircle
 10
260.0591470014477
 20
228.0690545969862
 30
0.0000000000000000
 40
1.200000000000000
100
AcDbArc
 50
62.50000000000773
 51
180.0000000000000
  0
LINE
  5
144
100
AcDbEntity
  8
MAIN0
  6
CENTER
 62
3
100
AcDbLine
 10
267.1591470014477
 20
227.6699887716482
 30
0.0000000000000000
 11
267.1591470014477
 21
232.0926774601715
 31
0.0000000000000000
  0
LINE
  5
145
100
AcDbEntity
  8
MAIN0
  6
CONTINUOUS
 62
3
100
AcDbLine
 10
265.4091470015995
 20
228.5890056525409
 30
0.0000000000000000
 11
266.6395317592948
 21
230.7200945657278
 31
0.0000000000000000
  0
LINE
  5
146
100
AcDbEntity
  8
MAIN0
  6
CONTINUOUS
 62
3
100
AcDbLine
 10
267.6787622438361
 20
230.7200945657282
 30
0.0000000000000000
 11
268.9091470015320
 21
228.5890056525408
 31
0.0000000000000000
  0
ARC
  5
147
100
AcDbEntity
  8
MAIN0
  6
CONTINUOUS
 62
3
100
AcDbCircle
 10
267.1591470015655
 20
230.4200945657281
 30
0.0000000000000000
 40
0.6000000000000001
100
AcDbArc
 50
30.00000000001052
 51
150.0000000000137
  0
LINE
  5
148
100
AcDbEntity
  8
MAIN0
  6
CONTINUOUS
 62
3
100
AcDbLine
 10
261.6591470010679
 20
228.5890056525408
 30
0.0000000000000000
 11
265.4091470015995
 21
228.5890056525408
 31
0.0000000000000000
  0
LINE
  5
149
100
AcDbEntity
  8
MAIN0
  6
CONTINUOUS
 62
3
100
AcDbLine
 10
268.9091470015320
 20
228.5890056525408
 30
0.0000000000000000
 11
272.1591470014477
 21
228.5890056525408
 31
0.0000000000000000
  0
LINE
  5
14A
100
AcDbEntity
  8
MAIN0
  6
CONTINUOUS
 62
3
100
AcDbLine
 10
286.8591470014477
 20
260.5890056525408
 30
0.0000000000000000
 11
287.6591470014477
 21
261.3890056525407
 31
0.0000000000000000
  0
LINE
  5
14B
100
AcDbEntity
  8
MAIN0
  6
CONTINUOUS
 62
3
100
AcDbLine
 10
251.6591470014477
 20
282.3340075028741
 30
0.0000000000000000
 11
287.6591470014477
 21
282.3340075028788
 31
0.0000000000000000
  0
LINE
  5
14C
100
AcDbEntity
  8
MAIN0
  6
CONTINUOUS
 62
3
100
AcDbLine
 10
251.6591470014477
 20
192.0890056525408
 30
0.0000000000000000
 11
251.6591470014477
 21
282.3340075028741
 31
0.0000000000000000
  0
LINE
  5
14D
100
AcDbEntity
  8
MAIN0
  6
CONTINUOUS
 62
3
100
AcDbLine
 10
250.6591470014477
 20
288.7899675468931
 30
0.0000000000000000
 11
251.1395317590846
 21
287.9579167394844
 31
0.0000000000000000
  0
LINE
  5
14E
100
AcDbEntity
  8
MAIN0
  6
CONTINUOUS
 62
3
100
AcDbLine
 10
250.6591470014477
 20
282.1608024221335
 30
0.0000000000000000
 11
251.6591470014477
 21
282.1608024221334
 31
0.0000000000000000
  0
LINE
  5
14F
100
AcDbEntity
  8
MAIN0
  6
PHANTOM
 62
3
100
AcDbLine
 10
251.6591470014477
 20
315.0890056525408
 30
0.0000000000000000
 11
251.6591470014477
 21
315.3390056525408
 31
0.0000000000000000
  0
LINE
  5
150
100
AcDbEntity
  8
MAIN0
  6
PHANTOM
 62
3
100
AcDbLine
 10
251.6591470014477
 20
341.8390056525408
 30
0.0000000000000000
 11
251.6591470014477
 21
342.0890056525408
 31
0.0000000000000000
  0
LINE
  5
151
100
AcDbEntity
  8
MAIN0
  6
PHANTOM
 62
3
100
AcDbLine
 10
251.6591470014477
 20
341.8390056525408
 30
0.0000000000000000
 11
287.6591470014477
 21
341.8390056525408
 31
0.0000000000000000
  0
LINE
  5
152
100
AcDbEntity
  8
MAIN0
  6
PHANTOM
 62
3
100
AcDbLine
 10
251.6591470014477
 20
315.3390056525408
 30
0.0000000000000000
 11
287.6591470014477
 21
315.3390056525408
 31
0.0000000000000000
  0
LINE
  5
153
100
AcDbEntity
  8
MAIN0
  6
CONTINUOUS
 62
3
100
AcDbLine
 10
287.6591470014477
 20
261.3890056525407
 30
0.0000000000000000
 11
287.6591470014477
 21
289.0890056525408
 31
0.0000000000000000
  0
LINE
  5
154
100
AcDbEntity
  8
MAIN0
  6
PHANTOM
 62
3
100
AcDbLine
 10
273.6591470014477
 20
419.0890056524068
 30
0.0000000000000000
 11
273.6591470014477
 21
434.5890056523723
 31
0.0000000000000000
  0
LINE
  5
155
100
AcDbEntity
  8
MAIN0
  6
PHANTOM
 62
3
100
AcDbLine
 10
259.6591470014477
 20
386.0890056526193
 30
0.0000000000000000
 11
259.6591470014477
 21
402.5890056523723
 31
0.0000000000000000
  0
LINE
  5
156
100
AcDbEntity
  8
MAIN0
  6
PHANTOM
 62
3
100
AcDbLine
 10
248.6591470014477
 20
465.0890056525408
 30
0.0000000000000000
 11
286.6591470014477
 21
465.0890056525408
 31
0.0000000000000000
  0
LINE
  5
157
100
AcDbEntity
  8
MAIN0
  6
PHANTOM
 62
3
100
AcDbLine
 10
286.6591470014477
 20
465.0890056525408
 30
0.0000000000000000
 11
287.6591470014477
 21
464.0890056525408
 31
0.0000000000000000
  0
LINE
  5
158
100
AcDbEntity
  8
MAIN0
  6
PHANTOM
 62
3
100
AcDbLine
 10
259.1591470014477
 20
367.8890056525408
 30
0.0000000000000000
 11
259.1591470014477
 21
385.5890056526186
 31
0.0000000000000000
  0
LINE
  5
159
100
AcDbEntity
  8
MAIN0
  6
PHANTOM
 62
3
100
AcDbLine
 10
273.1591470014477
 20
406.0890056525408
 30
0.0000000000000000
 11
273.1591470014477
 21
418.5890056524073
 31
0.0000000000000000
  0
LINE
  5
15A
100
AcDbEntity
  8
MAIN0
  6
PHANTOM
 62
3
100
AcDbLine
 10
273.1591470014476
 20
418.5890056524073
 30
0.0000000000000000
 11
273.6591470014477
 21
419.0890056524069
 31
0.0000000000000000
  0
LINE
  5
15B
100
AcDbEntity
  8
MAIN0
  6
PHANTOM
 62
3
100
AcDbLine
 10
259.1591470014477
 20
385.5890056526186
 30
0.0000000000000000
 11
259.6591470014478
 21
386.0890056526195
 31
0.0000000000000000
  0
LINE
  5
15C
100
AcDbEntity
  8
MAIN0
  6
PHANTOM
 62
3
100
AcDbLine
 10
273.1591470014477
 20
406.0890056525407
 30
0.0000000000000000
 11
272.1591470014477
 21
405.0890056525408
 31
0.0000000000000000
  0
LINE
  5
15D
100
AcDbEntity
  8
MAIN0
  6
PHANTOM
 62
3
100
AcDbLine
 10
259.1591470014477
 20
367.8890056525407
 30
0.0000000000000000
 11
258.3591470014477
 21
367.0890056525408
 31
0.0000000000000000
  0
LINE
  5
15E
100
AcDbEntity
  8
MAIN0
  6
PHANTOM
 62
3
100
AcDbLine
 10
279.4091470015995
 20
437.0890056525409
 30
0.0000000000000000
 11
280.6395317592948
 21
439.2200945657278
 31
0.0000000000000000
  0
LINE
  5
15F
100
AcDbEntity
  8
MAIN0
  6
PHANTOM
 62
3
100
AcDbLine
 10
281.6787622438361
 20
439.2200945657281
 30
0.0000000000000000
 11
282.9091470015320
 21
437.0890056525408
 31
0.0000000000000000
  0
ARC
  5
160
100
AcDbEntity
  8
MAIN0
  6
PHANTOM
 62
3
100
AcDbCircle
 10
281.1591470015654
 20
438.9200945657281
 30
0.0000000000000000
 40
0.6000000000000001
100
AcDbArc
 50
30.00000000001052
 51
150.0000000000137
  0
LINE
  5
161
100
AcDbEntity
  8
MAIN0
  6
PHANTOM
 62
3
100
AcDbLine
 10
275.6591470010679
 20
437.0890056525408
 30
0.0000000000000000
 11
279.4091470015995
 21
437.0890056525408
 31
0.0000000000000000
  0
LINE
  5
162
100
AcDbEntity
  8
MAIN0
  6
PHANTOM
 62
3
100
AcDbLine
 10
282.9091470015319
 20
437.0890056525408
 30
0.0000000000000000
 11
286.8591470014477
 21
437.0890056525408
 31
0.0000000000000000
  0
LINE
  5
163
100
AcDbEntity
  8
MAIN0
  6
PHANTOM
 62
3
100
AcDbLine
 10
272.8591470014477
 20
436.4194294858231
 30
0.0000000000000000
 11
272.8591470014477
 21
436.5690545969862
 31
0.0000000000000000
  0
LINE
  5
164
100
AcDbEntity
  8
MAIN0
  6
PHANTOM
 62
3
100
AcDbLine
 10
275.6591470010679
 20
437.0890056525408
 30
0.0000000000000000
 11
274.6132453373295
 21
437.6334675968002
 31
0.0000000000000000
  0
LINE
  5
165
100
AcDbEntity
  8
MAIN0
  6
PHANTOM
 62
3
100
AcDbLine
 10
273.6591470014475
 20
434.5890056523723
 30
0.0000000000000000
 11
272.9947340016342
 21
435.8653311499403
 31
0.0000000000000000
  0
ARC
  5
166
100
AcDbEntity
  8
MAIN0
  6
PHANTOM
 62
3
100
AcDbCircle
 10
274.0591470014477
 20
436.4194294858231
 30
0.0000000000000000
 40
1.200000000000000
100
AcDbArc
 50
180.0000000000000
 51
207.5000000000294
  0
ARC
  5
167
100
AcDbEntity
  8
MAIN0
  6
PHANTOM
 62
3
100
AcDbCircle
 10
274.0591470014477
 20
436.5690545969862
 30
0.0000000000000000
 40
1.200000000000000
100
AcDbArc
 50
62.50000000000773
 51
180.0000000000000
  0
LINE
  5
168
100
AcDbEntity
  8
MAIN0
  6
PHANTOM
 62
3
100
AcDbLine
 10
258.8591470014477
 20
404.4194294858231
 30
0.0000000000000000
 11
258.8591470014477
 21
404.5690545969862
 31
0.0000000000000000
  0
LINE
  5
169
100
AcDbEntity
  8
MAIN0
  6
PHANTOM
 62
3
100
AcDbLine
 10
261.6591470010680
 20
405.0890056525408
 30
0.0000000000000000
 11
260.6132453373295
 21
405.6334675968002
 31
0.0000000000000000
  0
LINE
  5
16A
100
AcDbEntity
  8
MAIN0
  6
PHANTOM
 62
3
100
AcDbLine
 10
259.6591470014475
 20
402.5890056523723
 30
0.0000000000000000
 11
258.9947340016342
 21
403.8653311499403
 31
0.0000000000000000
  0
ARC
  5
16B
100
AcDbEntity
  8
MAIN0
  6
PHANTOM
 62
3
100
AcDbCircle
 10
260.0591470014477
 20
404.4194294858231
 30
0.0000000000000000
 40
1.200000000000000
100
AcDbArc
 50
180.0000000000000
 51
207.5000000000294
  0
ARC
  5
16C
100
AcDbEntity
  8
MAIN0
  6
PHANTOM
 62
3
100
AcDbCircle
 10
260.0591470014477
 20
404.5690545969862
 30
0.0000000000000000
 40
1.200000000000000
100
AcDbArc
 50
62.50000000000773
 51
180.0000000000000
  0
LINE
  5
16D
100
AcDbEntity
  8
MAIN0
  6
PHANTOM
 62
3
100
AcDbLine
 10
265.4091470015994
 20
405.0890056525409
 30
0.0000000000000000
 11
266.6395317592948
 21
407.2200945657278
 31
0.0000000000000000
  0
LINE
  5
16E
100
AcDbEntity
  8
MAIN0
  6
PHANTOM
 62
3
100
AcDbLine
 10
267.6787622438361
 20
407.2200945657281
 30
0.0000000000000000
 11
268.9091470015320
 21
405.0890056525408
 31
0.0000000000000000
  0
ARC
  5
16F
100
AcDbEntity
  8
MAIN0
  6
PHANTOM
 62
3
100
AcDbCircle
 10
267.1591470015655
 20
406.9200945657281
 30
0.0000000000000000
 40
0.6000000000000001
100
AcDbArc
 50
30.00000000001052
 51
150.0000000000137
  0
LINE
  5
170
100
AcDbEntity
  8
MAIN0
  6
PHANTOM
 62
3
100
AcDbLine
 10
261.6591470010679
 20
405.0890056525408
 30
0.0000000000000000
 11
265.4091470015995
 21
405.0890056525408
 31
0.0000000000000000
  0
LINE
  5
171
100
AcDbEntity
  8
MAIN0
  6
PHANTOM
 62
3
100
AcDbLine
 10
268.9091470015320
 20
405.0890056525408
 30
0.0000000000000000
 11
272.1591470014477
 21
405.0890056525408
 31
0.0000000000000000
  0
LINE
  5
172
100
AcDbEntity
  8
MAIN0
  6
PHANTOM
 62
3
100
AcDbLine
 10
286.8591470014477
 20
437.0890056525408
 30
0.0000000000000000
 11
287.6591470014477
 21
437.8890056525408
 31
0.0000000000000000
  0
LINE
  5
173
100
AcDbEntity
  8
MAIN0
  6
PHANTOM
 62
3
100
AcDbLine
 10
287.6591470014477
 20
437.8890056525408
 30
0.0000000000000000
 11
287.6591470014477
 21
464.0890056525408
 31
0.0000000000000000
  0
LINE
  5
174
100
AcDbEntity
  8
MAIN0
  6
PHANTOM
 62
3
100
AcDbLine
 10
251.6787622436259
 20
369.2200945655968
 30
0.0000000000000000
 11
252.9091470012451
 21
367.0890056525408
 31
0.0000000000000000
  0
ARC
  5
175
100
AcDbEntity
  8
MAIN0
  6
PHANTOM
 62
3
100
AcDbCircle
 10
251.1591470013552
 20
368.9200945655970
 30
0.0000000000000000
 40
0.6000000000000001
100
AcDbArc
 50
29.99999999997554
 51
146.4426902221464
  0
LINE
  5
176
100
AcDbEntity
  8
MAIN0
  6
PHANTOM
 62
3
100
AcDbLine
 10
252.9091470012451
 20
367.0890056525408
 30
0.0000000000000000
 11
258.3591470014477
 21
367.0890056525408
 31
0.0000000000000000
  0
ARC
  5
177
100
AcDbEntity
  8
MAIN0
  6
CONTINUOUS
 62
3
100
AcDbCircle
 10
530.4480248645861
 20
332.0890056525407
 30
0.0000000000000000
 40
80.00000000000000
100
AcDbArc
 50
260.4664560957122
 51
279.5335439042879
  0
ARC
  5
178
100
AcDbEntity
  8
MAIN0
  6
CONTINUOUS
 62
3
100
AcDbCircle
 10
530.4480248645861
 20
332.0890056525407
 30
0.0000000000000000
 40
112.0000000000000
100
AcDbArc
 50
263.2057930337648
 51
276.7942069662352
  0
ARC
  5
179
100
AcDbEntity
  8
MAIN0
  6
CONTINUOUS
 62
3
100
AcDbCircle
 10
530.4480248645861
 20
332.0890056525407
 30
0.0000000000000000
 40
62.00000000000000
100
AcDbArc
 50
257.6601620741160
 51
282.3398379258840
  0
ARC
  5
17A
100
AcDbEntity
  8
MAIN0
  6
CONTINUOUS
 62
3
100
AcDbCircle
 10
530.4480248645861
 20
332.0890056525407
 30
0.0000000000000000
 40
94.00000000000000
100
AcDbArc
 50
261.8967466556571
 51
278.1032533443428
  0
ARC
  5
17B
100
AcDbEntity
  8
MAIN0
  6
CONTINUOUS
 62
3
100
AcDbCircle
 10
530.4480248645861
 20
332.0890056525407
 30
0.0000000000000000
 40
77.50000000000000
100
AcDbArc
 50
260.4664560957122
 51
279.8440903735080
  0
ARC
  5
17C
100
AcDbEntity
  8
MAIN0
  6
CONTINUOUS
 62
3
100
AcDbCircle
 10
530.4480248645861
 20
332.0890056525407
 30
0.0000000000000000
 40
109.5000000000000
100
AcDbArc
 50
263.2057930337648
 51
276.9500824826405
  0
LINE
  5
17D
100
AcDbEntity
  8
MAIN0
  6
CONTINUOUS
 62
3
100
AcDbLine
 10
258.3591470014477
 20
192.0890056525408
 30
0.0000000000000000
 11
166.6591470014477
 21
192.0890056525408
 31
0.0000000000000000
  0
LINE
  5
17E
100
AcDbEntity
  8
MAIN0
  6
CONTINUOUS
 62
3
100
AcDbLine
 10
655.4104924811620
 20
385.1476627014507
 30
0.0000000000000000
 11
641.9104924811620
 21
408.5303486036305
 31
0.0000000000000000
  0
ARC
  5
17F
100
AcDbEntity
  8
MAIN0
  6
CONTINUOUS
 62
3
100
AcDbCircle
 10
527.4169359513405
 20
326.8390056525409
 30
0.0000000000000000
 40
42.00000000000000
100
AcDbArc
 50
27.95328690226521
 51
32.04671309882528
  0
LINE
  5
180
100
AcDbEntity
  8
MAIN0
  6
CONTINUOUS
 62
3
100
AcDbLine
 10
563.0167983990493
 20
349.1246466283828
 30
0.0000000000000000
 11
563.0167983990432
 21
362.9810530879554
 31
0.0000000000000000
  0
LINE
  5
181
100
AcDbEntity
  8
MAIN0
  6
CONTINUOUS
 62
3
100
AcDbLine
 10
564.5167983995193
 20
346.5265704162736
 30
0.0000000000000000
 11
576.5167983994766
 21
339.5983671860258
 31
0.0000000000000000
  0
LINE
  5
182
100
AcDbEntity
  8
MAIN0
  6
CONTINUOUS
 62
3
100
AcDbLine
 10
641.9104924811620
 20
408.5303486036306
 30
0.0000000000000000
 11
558.5978815978162
 21
360.4297902832406
 31
0.0000000000000000
  0
LINE
  5
183
100
AcDbEntity
  8
MAIN0
  6
CONTINUOUS
 62
3
100
AcDbLine
 10
655.4104924811620
 20
385.1476627014507
 30
0.0000000000000000
 11
572.0978815978164
 21
337.0471043810608
 31
0.0000000000000000
  0
ARC
  5
184
100
AcDbEntity
  8
MAIN0
  6
CONTINUOUS
 62
3
100
AcDbCircle
 10
527.4169359513405
 20
326.8390056525409
 30
0.0000000000000000
 40
80.00000000000000
100
AcDbArc
 50
20.46645609571203
 51
39.53354390428770
  0
ARC
  5
185
100
AcDbEntity
  8
MAIN0
  6
CONTINUOUS
 62
3
100
AcDbCircle
 10
527.4169359513405
 20
326.8390056525409
 30
0.0000000000000000
 40
112.0000000000000
100
AcDbArc
 50
23.20579303376463
 51
36.79420696623510
  0
ARC
  5
186
100
AcDbEntity
  8
MAIN0
  6
CONTINUOUS
 62
3
100
AcDbCircle
 10
527.4169359513405
 20
326.8390056525409
 30
0.0000000000000000
 40
62.00000000000000
100
AcDbArc
 50
17.66016207411598
 51
42.33983792588385
  0
ARC
  5
187
100
AcDbEntity
  8
MAIN0
  6
CONTINUOUS
 62
3
100
AcDbCircle
 10
527.4169359513405
 20
326.8390056525409
 30
0.0000000000000000
 40
94.00000000000000
100
AcDbArc
 50
21.89674665565702
 51
38.10325334434271
  0
ARC
  5
188
100
AcDbEntity
  8
MAIN0
  6
CONTINUOUS
 62
3
100
AcDbCircle
 10
527.4169359513405
 20
326.8390056525409
 30
0.0000000000000000
 40
77.50000000000000
100
AcDbArc
 50
20.46645609571203
 51
39.84409037350796
  0
ARC
  5
189
100
AcDbEntity
  8
MAIN0
  6
CONTINUOUS
 62
3
100
AcDbCircle
 10
527.4169359513405
 20
326.8390056525409
 30
0.0000000000000000
 40
109.5000000000000
100
AcDbArc
 50
23.20579303376463
 51
36.95008248264033
  0
LINE
  5
18A
100
AcDbEntity
  8
MAIN0
  6
CONTINUOUS
 62
3
100
AcDbLine
 10
516.9480248645861
 20
192.0890056525408
 30
0.0000000000000000
 11
543.9480248645861
 21
192.0890056525408
 31
0.0000000000000000
  0
ARC
  5
18B
100
AcDbEntity
  8
MAIN0
  6
CONTINUOUS
 62
3
100
AcDbCircle
 10
530.4480248645861
 20
332.0890056525408
 30
0.0000000000000000
 40
42.00000000000000
100
AcDbArc
 50
267.9532869022654
 51
272.0467130988254
  0
LINE
  5
18C
100
AcDbEntity
  8
MAIN0
  6
CONTINUOUS
 62
3
100
AcDbLine
 10
531.9480248654303
 20
290.1157999136723
 30
0.0000000000000000
 11
543.9480248645862
 21
283.1875966838913
 31
0.0000000000000000
  0
LINE
  5
18D
100
AcDbEntity
  8
MAIN0
  6
CONTINUOUS
 62
3
100
AcDbLine
 10
528.9480248645407
 20
290.1157999136432
 30
0.0000000000000000
 11
516.9480248645862
 21
283.1875966833908
 31
0.0000000000000000
  0
LINE
  5
18E
100
AcDbEntity
  8
MAIN0
  6
CONTINUOUS
 62
3
100
AcDbLine
 10
543.9480248645862
 20
192.0890056525408
 30
0.0000000000000000
 11
543.9480248645862
 21
288.2901222933212
 31
0.0000000000000000
  0
LINE
  5
18F
100
AcDbEntity
  8
MAIN0
  6
CONTINUOUS
 62
3
100
AcDbLine
 10
516.9480248645862
 20
192.0890056525408
 30
0.0000000000000000
 11
516.9480248645862
 21
288.2901222933211
 31
0.0000000000000000
  0
ARC
  5
190
100
AcDbEntity
  8
MAIN0
  6
CONTINUOUS
 62
3
100
AcDbCircle
 10
530.4480248645861
 20
332.0890056525408
 30
0.0000000000000000
 40
80.00000000000000
100
AcDbArc
 50
260.4664560957122
 51
279.5335439042879
  0
ARC
  5
191
100
AcDbEntity
  8
MAIN0
  6
CONTINUOUS
 62
3
100
AcDbCircle
 10
530.4480248645861
 20
332.0890056525408
 30
0.0000000000000000
 40
112.0000000000000
100
AcDbArc
 50
263.2057930337648
 51
276.7942069662352
  0
ARC
  5
192
100
AcDbEntity
  8
MAIN0
  6
CONTINUOUS
 62
3
100
AcDbCircle
 10
530.4480248645861
 20
332.0890056525408
 30
0.0000000000000000
 40
62.00000000000000
100
AcDbArc
 50
257.6601620741161
 51
282.3398379258840
  0
ARC
  5
193
100
AcDbEntity
  8
MAIN0
  6
CONTINUOUS
 62
3
100
AcDbCircle
 10
530.4480248645861
 20
332.0890056525408
 30
0.0000000000000000
 40
94.00000000000000
100
AcDbArc
 50
261.8967466556571
 51
278.1032533443428
  0
ARC
  5
194
100
AcDbEntity
  8
MAIN0
  6
CONTINUOUS
 62
3
100
AcDbCircle
 10
530.4480248645861
 20
332.0890056525408
 30
0.0000000000000000
 40
77.50000000000000
100
AcDbArc
 50
260.4664560957122
 51
279.8440903735081
  0
ARC
  5
195
100
AcDbEntity
  8
MAIN0
  6
CONTINUOUS
 62
3
100
AcDbCircle
 10
530.4480248645861
 20
332.0890056525408
 30
0.0000000000000000
 40
109.5000000000000
100
AcDbArc
 50
263.2057930337648
 51
276.9500824826405
  0
LINE
  5
196
100
AcDbEntity
  8
MAIN0
  6
CONTINUOUS
 62
3
100
AcDbLine
 10
418.9855572480100
 20
408.5303486036306
 30
0.0000000000000000
 11
405.4855572480100
 21
385.1476627014507
 31
0.0000000000000000
  0
ARC
  5
197
100
AcDbEntity
  8
MAIN0
  6
CONTINUOUS
 62
3
100
AcDbCircle
 10
533.4791137778316
 20
326.8390056525408
 30
0.0000000000000000
 40
42.00000000000000
100
AcDbArc
 50
147.9532869022654
 51
152.0467130988255
  0
LINE
  5
198
100
AcDbEntity
  8
MAIN0
  6
CONTINUOUS
 62
3
100
AcDbLine
 10
496.3792513292785
 20
346.5265704155672
 30
0.0000000000000000
 11
484.3792513301290
 21
339.5983671857755
 31
0.0000000000000000
  0
LINE
  5
199
100
AcDbEntity
  8
MAIN0
  6
CONTINUOUS
 62
3
100
AcDbLine
 10
497.8792513296982
 20
349.1246466277054
 30
0.0000000000000000
 11
497.8792513296954
 21
362.9810530882056
 31
0.0000000000000000
  0
LINE
  5
19A
100
AcDbEntity
  8
MAIN0
  6
CONTINUOUS
 62
3
100
AcDbLine
 10
405.4855572480100
 20
385.1476627014507
 30
0.0000000000000000
 11
488.7981681313557
 21
337.0471043810607
 31
0.0000000000000000
  0
LINE
  5
19B
100
AcDbEntity
  8
MAIN0
  6
CONTINUOUS
 62
3
100
AcDbLine
 10
418.9855572480099
 20
408.5303486036306
 30
0.0000000000000000
 11
502.2981681313556
 21
360.4297902832406
 31
0.0000000000000000
  0
ARC
  5
19C
100
AcDbEntity
  8
MAIN0
  6
CONTINUOUS
 62
3
100
AcDbCircle
 10
533.4791137778316
 20
326.8390056525408
 30
0.0000000000000000
 40
80.00000000000000
100
AcDbArc
 50
140.4664560957123
 51
159.5335439042879
  0
ARC
  5
19D
100
AcDbEntity
  8
MAIN0
  6
CONTINUOUS
 62
3
100
AcDbCircle
 10
533.4791137778316
 20
326.8390056525408
 30
0.0000000000000000
 40
112.0000000000000
100
AcDbArc
 50
143.2057930337649
 51
156.7942069662354
  0
ARC
  5
19E
100
AcDbEntity
  8
MAIN0
  6
CONTINUOUS
 62
3
100
AcDbCircle
 10
533.4791137778316
 20
326.8390056525408
 30
0.0000000000000000
 40
62.00000000000000
100
AcDbArc
 50
137.6601620741162
 51
162.3398379258840
  0
ARC
  5
19F
100
AcDbEntity
  8
MAIN0
  6
CONTINUOUS
 62
3
100
AcDbCircle
 10
533.4791137778316
 20
326.8390056525408
 30
0.0000000000000000
 40
94.00000000000000
100
AcDbArc
 50
141.8967466556573
 51
158.1032533443430
  0
ARC
  5
1A0
100
AcDbEntity
  8
MAIN0
  6
CONTINUOUS
 62
3
100
AcDbCircle
 10
533.4791137778316
 20
326.8390056525408
 30
0.0000000000000000
 40
77.50000000000000
100
AcDbArc
 50
140.4664560957123
 51
159.8440903735082
  0
ARC
  5
1A1
100
AcDbEntity
  8
MAIN0
  6
CONTINUOUS
 62
3
100
AcDbCircle
 10
533.4791137778316
 20
326.8390056525408
 30
0.0000000000000000
 40
109.5000000000000
100
AcDbArc
 50
143.2057930337649
 51
156.9500824826406
  0
LINE
  5
1A2
100
AcDbEntity
  8
MAIN0
  6
CONTINUOUS
 62
3
100
AcDbLine
 10
418.9855572480101
 20
408.5303486036305
 30
0.0000000000000000
 11
405.4855572480101
 21
385.1476627014506
 31
0.0000000000000000
  0
ARC
  5
1A3
100
AcDbEntity
  8
MAIN0
  6
CONTINUOUS
 62
3
100
AcDbCircle
 10
533.4791137778316
 20
326.8390056525408
 30
0.0000000000000000
 40
42.00000000000000
100
AcDbArc
 50
147.9532869022655
 51
152.0467130988255
  0
LINE
  5
1A4
100
AcDbEntity
  8
MAIN0
  6
CONTINUOUS
 62
3
100
AcDbLine
 10
496.3792513292785
 20
346.5265704155671
 30
0.0000000000000000
 11
484.3792513301289
 21
339.5983671857754
 31
0.0000000000000000
  0
LINE
  5
1A5
100
AcDbEntity
  8
MAIN0
  6
CONTINUOUS
 62
3
100
AcDbLine
 10
497.8792513296981
 20
349.1246466277054
 30
0.0000000000000000
 11
497.8792513296954
 21
362.9810530882056
 31
0.0000000000000000
  0
LINE
  5
1A6
100
AcDbEntity
  8
MAIN0
  6
CONTINUOUS
 62
3
100
AcDbLine
 10
405.4855572480101
 20
385.1476627014506
 30
0.0000000000000000
 11
488.7981681313559
 21
337.0471043810605
 31
0.0000000000000000
  0
LINE
  5
1A7
100
AcDbEntity
  8
MAIN0
  6
CONTINUOUS
 62
3
100
AcDbLine
 10
418.9855572480100
 20
408.5303486036304
 30
0.0000000000000000
 11
502.2981681313557
 21
360.4297902832405
 31
0.0000000000000000
  0
ARC
  5
1A8
100
AcDbEntity
  8
MAIN0
  6
CONTINUOUS
 62
3
100
AcDbCircle
 10
533.4791137778316
 20
326.8390056525408
 30
0.0000000000000000
 40
80.00000000000000
100
AcDbArc
 50
140.4664560957123
 51
159.5335439042879
  0
ARC
  5
1A9
100
AcDbEntity
  8
MAIN0
  6
CONTINUOUS
 62
3
100
AcDbCircle
 10
533.4791137778316
 20
326.8390056525408
 30
0.0000000000000000
 40
112.0000000000000
100
AcDbArc
 50
143.2057930337649
 51
156.7942069662354
  0
ARC
  5
1AA
100
AcDbEntity
  8
MAIN0
  6
CONTINUOUS
 62
3
100
AcDbCircle
 10
533.4791137778316
 20
326.8390056525408
 30
0.0000000000000000
 40
62.00000000000000
100
AcDbArc
 50
137.6601620741162
 51
162.3398379258841
  0
ARC
  5
1AB
100
AcDbEntity
  8
MAIN0
  6
CONTINUOUS
 62
3
100
AcDbCircle
 10
533.4791137778316
 20
326.8390056525408
 30
0.0000000000000000
 40
94.00000000000000
100
AcDbArc
 50
141.8967466556573
 51
158.1032533443430
  0
ARC
  5
1AC
100
AcDbEntity
  8
MAIN0
  6
CONTINUOUS
 62
3
100
AcDbCircle
 10
533.4791137778316
 20
326.8390056525408
 30
0.0000000000000000
 40
77.50000000000000
100
AcDbArc
 50
140.4664560957123
 51
159.8440903735082
  0
ARC
  5
1AD
100
AcDbEntity
  8
MAIN0
  6
CONTINUOUS
 62
3
100
AcDbCircle
 10
533.4791137778316
 20
326.8390056525408
 30
0.0000000000000000
 40
109.5000000000000
100
AcDbArc
 50
143.2057930337649
 51
156.9500824826406
  0
CIRCLE
  5
1AE
100
AcDbEntity
  8
MAIN0
  6
CONTINUOUS
 62
3
100
AcDbCircle
 10
508.5587356912682
 20
388.7293333826660
 30
0.0000000000000000
 40
7.500000000000000
  0
LINE
  5
1AF
100
AcDbEntity
  8
MAIN0
  6
CONTINUOUS
 62
3
100
AcDbLine
 10
504.5786825421570
 20
389.4311241375082
 30
0.0000000000000000
 11
507.1764777385471
 21
392.5270558956299
 31
0.0000000000000000
  0
LINE
  5
1B0
100
AcDbEntity
  8
MAIN0
  6
CONTINUOUS
 62
3
100
AcDbLine
 10
507.1764777385472
 20
392.5270558956298
 30
0.0000000000000000
 11
511.1565308876583
 21
391.8252651407878
 31
0.0000000000000000
  0
LINE
  5
1B1
100
AcDbEntity
  8
MAIN0
  6
CONTINUOUS
 62
3
100
AcDbLine
 10
511.1565308876583
 20
391.8252651407878
 30
0.0000000000000000
 11
512.5387888403797
 21
388.0275426278240
 31
0.0000000000000000
  0
LINE
  5
1B2
100
AcDbEntity
  8
MAIN0
  6
CONTINUOUS
 62
3
100
AcDbLine
 10
509.9409936439898
 20
384.9316108697022
 30
0.0000000000000000
 11
512.5387888403798
 21
388.0275426278240
 31
0.0000000000000000
  0
CIRCLE
  5
1B3
100
AcDbEntity
  8
MAIN0
  6
CONTINUOUS
 62
3
100
AcDbCircle
 10
508.5587356912682
 20
388.7293333826660
 30
0.0000000000000000
 40
2.400000000000000
  0
LINE
  5
1B4
100
AcDbEntity
  8
MAIN0
  6
CONTINUOUS
 62
3
100
AcDbLine
 10
505.9609404948786
 20
385.6334016245443
 30
0.0000000000000000
 11
509.9409936439898
 21
384.9316108697022
 31
0.0000000000000000
  0
LINE
  5
1B5
100
AcDbEntity
  8
MAIN0
  6
CONTINUOUS
 62
3
100
AcDbLine
 10
504.5786825421569
 20
389.4311241375082
 30
0.0000000000000000
 11
505.9609404948784
 21
385.6334016245442
 31
0.0000000000000000
  0
POLYLINE
  5
1B6
100
AcDbEntity
  8
MAIN0
  6
CONTINUOUS
 62
3
100
AcDb2dPolyline
 66
     1
 10
0.0000000000000000
 20
0.0000000000000000
 30
0.0000000000000000
 70
     1
 40
0.7500000000000000
 41
0.7500000000000000
  0
VERTEX
  5
1B7
100
AcDbEntity
  8
MAIN0
  6
CONTINUOUS
 62
3
100
AcDbVertex
100
AcDb2dVertex
 10
508.9337356912682
 20
388.7293333826660
 30
0.0000000000000000
 42
1.000000000000000
  0
VERTEX
  5
1B8
100
AcDbEntity
  8
MAIN0
  6
CONTINUOUS
 62
3
100
AcDbVertex
100
AcDb2dVertex
 10
508.1837356912682
 20
388.7293333826660
 30
0.0000000000000000
 42
1.000000000000000
  0
SEQEND
  5
1B9
100
AcDbEntity
  8
MAIN0
  6
CONTINUOUS
 62
3
  0
CIRCLE
  5
1BA
100
AcDbEntity
  8
MAIN0
  6
CONTINUOUS
 62
3
100
AcDbCircle
 10
508.5587356912682
 20
388.7293333826660
 30
0.0000000000000000
 40
1.300000000000000
  0
DIMENSION
  5
1C3
100
AcDbEntity
  8
MAIN0
  6
CONTINUOUS
 62
3
100
AcDbDimension
  2
*D0
 10
125.6591470014477
 20
443.5890056525408
 30
0.0000000000000000
 11
125.1591470014477
 21
321.5140055154501
 31
0.0000000000000000
 70
32
  1
\A1;\U+2205230H6\H0.903226x;\S＋0.029^ 　0;
  3
MAIN001
100
AcDbAlignedDimension
 13
164.6591470014477
 23
213.5890056525408
 33
0.0000000000000000
 14
164.6591470014477
 24
443.5890056525408
 34
0.0000000000000000
 50
90.00000000000000
100
AcDbRotatedDimension
1001
ACAD
1000
DSTYLE
1002
{
1070
   173
1070
     1
1070
     6
1000
_OPEN
1070
     7
1000
_OPEN
1070
    41
1040
3.000000
1070
   272
1070
     3
1070
    47
1040
0.029000
1070
    48
1040
0.000000
1070
    71
1070
     1
1070
   340
1005
1C4
1002
}
  0
DIMENSION
  5
1CD
100
AcDbEntity
  8
MAIN0
  6
CONTINUOUS
 62
3
100
AcDbDimension
  2
*D1
 10
140.6591470014477
 20
371.0890056525408
 30
0.0000000000000000
 11
140.1591470014477
 21
328.5890056525408
 31
0.0000000000000000
 70
32
  1
\A1;\U+220585
  3
MAIN001
100
AcDbAlignedDimension
 13
182.1591470014476
 23
286.0890056525408
 33
0.0000000000000000
 14
182.1591470014476
 24
371.0890056525408
 34
0.0000000000000000
 50
90.00000000000000
100
AcDbRotatedDimension
1001
ACAD
1000
DSTYLE
1002
{
1070
   173
1070
     1
1070
     6
1000
_OPEN
1070
     7
1000
_OPEN
1070
    41
1040
3.000000
1002
}
  0
DIMENSION
  5
1D6
100
AcDbEntity
  8
MAIN0
  6
CONTINUOUS
 62
3
100
AcDbDimension
  2
*D2
 10
164.6591470014477
 20
308.5890056525408
 30
0.0000000000000000
 11
158.8786938873341
 21
309.3390056525408
 31
0.0000000000000000
 70
160
  3
MAIN001
100
AcDbAlignedDimension
 13
170.6591470014477
 23
213.5890056525408
 33
0.0000000000000000
 14
164.6591470014477
 24
194.0890056525408
 34
0.0000000000000000
100
AcDbRotatedDimension
1001
ACAD
1000
DSTYLE
1002
{
1070
   173
1070
     1
1070
     6
1000
_OPEN
1070
     7
1000
_OPEN
1070
    41
1040
3.000000
1070
   287
1070
     0
1002
}
  0
DIMENSION
  5
1DF
100
AcDbEntity
  8
MAIN0
  6
CONTINUOUS
 62
1
100
AcDbDimension
  2
*D3
 10
851.1364563392906
 20
548.9015823418824
 30
0.0000000000000000
 11
721.1364563392913
 21
549.4015823418824
 31
0.0000000000000000
 70
32
  1
\A1;360
  3
MAIN001
100
AcDbAlignedDimension
 13
591.1364563392918
 23
491.6161711047526
 33
0.0000000000000000
 14
851.1364563392906
 24
491.6161711047526
 34
0.0000000000000000
100
AcDbRotatedDimension
1001
ACAD
1000
DSTYLE
1002
{
1070
   173
1070
     1
1070
     6
1000
_OPEN
1070
     7
1000
_OPEN
1070
    41
1040
3.000000
1002
}
  0
DIMENSION
  5
1E8
100
AcDbEntity
  8
MAIN0
  6
CONTINUOUS
 62
3
100
AcDbDimension
  2
*D4
 10
708.1364563392907
 20
528.9015823418824
 30
0.0000000000000000
 11
721.1364563392907
 21
529.4015823418824
 31
0.0000000000000000
 70
32
  1
\A1;\U+220526
  3
MAIN001
100
AcDbAlignedDimension
 13
734.1364563392907
 23
504.6161711047525
 33
0.0000000000000000
 14
708.1364563392907
 24
504.6161711047525
 34
0.0000000000000000
100
AcDbRotatedDimension
1001
ACAD
1000
DSTYLE
1002
{
1070
   173
1070
     1
1070
     6
1000
_OPEN
1070
     7
1000
_OPEN
1070
    41
1040
3.000000
1002
}
  0
DIMENSION
  5
1F1
100
AcDbEntity
  8
MAIN0
  6
CONTINUOUS
 62
3
100
AcDbDimension
  2
*D5
 10
678.8916641088634
 20
497.6161711047526
 30
0.0000000000000000
 11
678.1416641088634
 21
505.8796679243037
 31
0.0000000000000000
 70
160
  1
\A1;\U+220512
  3
MAIN001
100
AcDbAlignedDimension
 13
661.6774164240807
 23
485.6161711047526
 33
0.0000000000000000
 14
661.6774164240807
 24
497.6161711047526
 34
0.0000000000000000
 50
90.00000000000000
100
AcDbRotatedDimension
1001
ACAD
1000
DSTYLE
1002
{
1070
   173
1070
     1
1070
     6
1000
_OPEN
1070
     7
1000
_OPEN
1070
    41
1040
3.000000
1070
   287
1070
     0
1002
}
  0
DIMENSION
  5
1FA
100
AcDbEntity
  8
MAIN0
  6
CONTINUOUS
 62
3
100
AcDbDimension
  2
*D6
 10
758.8916641088634
 20
506.6161711047526
 30
0.0000000000000000
 11
758.1416641088634
 21
511.5700967038375
 31
0.0000000000000000
 70
160
  3
MAIN001
100
AcDbAlignedDimension
 13
860.0792583283377
 23
491.6161711047526
 33
0.0000000000000000
 14
732.1364563392907
 24
506.6161711047526
 34
0.0000000000000000
 50
90.00000000000000
100
AcDbRotatedDimension
1001
ACAD
1000
DSTYLE
1002
{
1070
   173
1070
     1
1070
     6
1000
_OPEN
1070
     7
1000
_OPEN
1070
    41
1040
3.000000
1002
}
  0
DIMENSION
  5
203
100
AcDbEntity
  8
MAIN0
  6
CONTINUOUS
 62
3
100
AcDbDimension
  2
*D7
 10
778.8916641088634
 20
506.6161711047526
 30
0.0000000000000000
 11
778.3916641088634
 21
426.6161711047526
 31
0.0000000000000000
 70
32
  3
MAIN001
100
AcDbAlignedDimension
 13
728.2864563392907
 23
346.6161711047526
 33
0.0000000000000000
 14
732.1364563392907
 24
506.6161711047526
 34
0.0000000000000000
 50
90.00000000000000
100
AcDbRotatedDimension
1001
ACAD
1000
DSTYLE
1002
{
1070
   173
1070
     1
1070
     6
1000
_OPEN
1070
     7
1000
_OPEN
1070
    41
1040
3.000000
1002
}
  0
DIMENSION
  5
20C
100
AcDbEntity
  8
MAIN0
  6
CONTINUOUS
 62
3
100
AcDbDimension
  2
*D8
 10
748.8916641088634
 20
346.6161711047526
 30
0.0000000000000000
 11
748.3916641088634
 21
354.6161711047526
 31
0.0000000000000000
 70
32
  3
MAIN001
100
AcDbAlignedDimension
 13
728.9864563392907
 23
362.6161711047526
 33
0.0000000000000000
 14
728.2864563392907
 24
346.6161711047526
 34
0.0000000000000000
 50
90.00000000000000
100
AcDbRotatedDimension
1001
ACAD
1000
DSTYLE
1002
{
1070
   173
1070
     1
1070
     6
1000
_OPEN
1070
     7
1000
_OPEN
1070
    41
1040
3.000000
1002
}
  0
DIMENSION
  5
213
100
AcDbEntity
  8
MAIN0
  6
CONTINUOUS
 62
3
100
AcDbDimension
  2
*D9
 10
710.1364563392907
 20
438.9015823418825
 30
0.0000000000000000
 11
721.1364563392907
 21
439.4015823418825
 31
0.0000000000000000
 70
32
  1
\A1;\U+220522
  3
MAIN001
100
AcDbAlignedDimension
 13
732.1364563392907
 23
387.6161711047521
 33
0.0000000000000000
 14
710.1364563392907
 24
387.6161711047526
 34
0.0000000000000000
100
AcDbRotatedDimension
1001
ACAD
1000
DSTYLE
1002
{
1070
   173
1070
     1
1070
     6
1000
_OPEN
1070
     7
1000
_OPEN
1070
    41
1040
3.000000
1002
}
  0
DIMENSION
  5
21C
100
AcDbEntity
  8
MAIN0
  6
CONTINUOUS
 62
3
100
AcDbDimension
  2
*D10
 10
315.6591470014477
 20
341.8390056525408
 30
0.0000000000000000
 11
315.1591470014477
 21
328.5890056525408
 31
0.0000000000000000
 70
32
  3
MAIN001
100
AcDbAlignedDimension
 13
287.6591470014477
 23
315.3390056525408
 33
0.0000000000000000
 14
287.6591470014477
 24
341.8390056525408
 34
0.0000000000000000
 50
90.00000000000000
100
AcDbRotatedDimension
1001
ACAD
1000
DSTYLE
1002
{
1070
   173
1070
     1
1070
     6
1000
_OPEN
1070
     7
1000
_OPEN
1070
    41
1040
3.000000
1002
}
  0
CIRCLE
  5
21D
100
AcDbEntity
  8
MAIN0
  6
CONTINUOUS
 62
3
100
AcDbCircle
 10
654.4480248645862
 20
328.5890056525408
 30
0.0000000000000000
 40
10.00000000000000
  0
CIRCLE
  5
21E
100
AcDbEntity
  8
MAIN0
  6
CONTINUOUS
 62
3
100
AcDbCircle
 10
654.4480248645862
 20
328.5890056525408
 30
0.0000000000000000
 40
6.750000000000000
  0
CIRCLE
  5
21F
100
AcDbEntity
  8
MAIN0
  6
CONTINUOUS
 62
3
100
AcDbCircle
 10
468.4480248645832
 20
435.9761557218129
 30
0.0000000000000000
 40
10.00000000000000
  0
CIRCLE
  5
220
100
AcDbEntity
  8
MAIN0
  6
CONTINUOUS
 62
3
100
AcDbCircle
 10
468.4480248645832
 20
435.9761557218129
 30
0.0000000000000000
 40
6.750000000000000
  0
CIRCLE
  5
221
100
AcDbEntity
  8
MAIN0
  6
CONTINUOUS
 62
3
100
AcDbCircle
 10
468.4480248645831
 20
221.2018555832686
 30
0.0000000000000000
 40
10.00000000000000
  0
CIRCLE
  5
222
100
AcDbEntity
  8
MAIN0
  6
CONTINUOUS
 62
3
100
AcDbCircle
 10
468.4480248645831
 20
221.2018555832686
 30
0.0000000000000000
 40
6.750000000000000
  0
LINE
  5
223
100
AcDbEntity
  8
MAIN0
  6
CENTER
 62
3
100
AcDbLine
 10
474.2707874273123
 20
425.8908351227564
 30
0.0000000000000000
 11
461.5787940305937
 21
447.8740125352019
 31
0.0000000000000000
  0
LINE
  5
224
100
AcDbEntity
  8
MAIN0
  6
CENTER
 62
3
100
AcDbLine
 10
475.5003206569071
 20
233.4167902055779
 30
0.0000000000000000
 11
461.4177681748112
 21
209.0250938063327
 31
0.0000000000000000
  0
LEADER
  5
225
100
AcDbEntity
  8
MAIN2
  6
CONTINUOUS
 62
3
100
AcDbLeader
  3
MAIN001
 73
     3
 74
     0
 75
     0
 76
     6
 10
481.2133486683441
 20
337.3037437353061
 30
0.0000000000000000
 10
482.9518310967143
 20
338.5193418787104
 30
0.0000000000000000
 10
479.4748662399739
 20
336.0881455919018
 30
0.0000000000000000
 10
481.2133486683441
 20
337.3037437353061
 30
0.0000000000000000
 10
482.4289468117484
 20
335.5652613069359
 30
0.0000000000000000
 10
479.9977505249398
 20
339.0422261636764
 30
0.0000000000000000
1001
ACAD
1000
DSTYLE
1002
{
1070
   173
1070
     1
1070
     6
1000
_NONE
1070
     7
1000
_NONE
1002
}
  0
LEADER
  5
226
100
AcDbEntity
  8
MAIN2
  6
CONTINUOUS
 62
3
100
AcDbLeader
  3
MAIN001
 73
     3
 74
     0
 75
     0
 76
     6
 10
530.4480248645863
 20
328.5890056525407
 30
0.0000000000000000
 10
532.1865072929563
 20
329.8046037959451
 30
0.0000000000000000
 10
528.7095424362160
 20
327.3734075091364
 30
0.0000000000000000
 10
530.4480248645863
 20
328.5890056525407
 30
0.0000000000000000
 10
531.6636230079905
 20
326.8505232241705
 30
0.0000000000000000
 10
529.2324267211818
 20
330.3274880809111
 30
0.0000000000000000
1001
ACAD
1000
DSTYLE
1002
{
1070
   173
1070
     1
1070
     6
1000
_NONE
1070
     7
1000
_NONE
1002
}
  0
LINE
  5
227
100
AcDbEntity
  8
MAIN0
  6
CENTER
 62
3
100
AcDbLine
 10
155.5463019249060
 20
452.5890056524655
 30
0.0000000000000000
 11
255.6591470014477
 21
452.5890056524655
 31
0.0000000000000000
  0
LINE
  5
228
100
AcDbEntity
  8
MAIN0
  6
HIDDEN
 62
3
100
AcDbLine
 10
236.1591470014477
 20
462.5890056524655
 30
0.0000000000000000
 11
250.6591470014477
 21
462.5890056524655
 31
0.0000000000000000
  0
LINE
  5
229
100
AcDbEntity
  8
MAIN0
  6
HIDDEN
 62
3
100
AcDbLine
 10
236.1591470014477
 20
452.5890056524655
 30
0.0000000000000000
 11
236.1591470014477
 21
462.5890056524655
 31
0.0000000000000000
  0
LINE
  5
22A
100
AcDbEntity
  8
MAIN0
  6
HIDDEN
 62
3
100
AcDbLine
 10
164.6591470014477
 20
459.3390056524655
 30
0.0000000000000000
 11
236.1591470014477
 21
459.3390056524655
 31
0.0000000000000000
  0
LINE
  5
22B
100
AcDbEntity
  8
MAIN0
  6
HIDDEN
 62
3
100
AcDbLine
 10
236.1591470014477
 20
442.5890056524656
 30
0.0000000000000000
 11
250.6591470014477
 21
442.5890056524656
 31
0.0000000000000000
  0
LINE
  5
22C
100
AcDbEntity
  8
MAIN0
  6
HIDDEN
 62
3
100
AcDbLine
 10
236.1591470014477
 20
452.5890056524656
 30
0.0000000000000000
 11
236.1591470014477
 21
442.5890056524656
 31
0.0000000000000000
  0
LINE
  5
22D
100
AcDbEntity
  8
MAIN0
  6
HIDDEN
 62
3
100
AcDbLine
 10
164.6591470014477
 20
445.8390056524656
 30
0.0000000000000000
 11
236.1591470014477
 21
445.8390056524656
 31
0.0000000000000000
  0
DIMENSION
  5
238
100
AcDbEntity
  8
MAIN0
  6
CONTINUOUS
 62
3
100
AcDbDimension
  2
*D11
 10
145.6591470014477
 20
459.3390056524655
 30
0.0000000000000000
 11
145.1591470014477
 21
452.5890056524655
 31
0.0000000000000000
 70
32
  1
\A1;\U+220513.5
  3
MAIN001
100
AcDbAlignedDimension
 13
164.6591470014477
 23
445.8390056524656
 33
0.0000000000000000
 14
164.6591470014477
 24
459.3390056524655
 34
0.0000000000000000
 50
90.00000000000000
100
AcDbRotatedDimension
1001
ACAD
1000
DSTYLE
1002
{
1070
   173
1070
     1
1070
     6
1000
_OPEN
1070
     7
1000
_OPEN
1070
    41
1040
3.000000
1070
   287
1070
     0
1002
}
  0
ARC
  5
239
100
AcDbEntity
  8
MAIN0
  6
HIDDEN
 62
3
100
AcDbCircle
 10
530.4480248645268
 20
328.5890056525408
 30
0.0000000000000000
 40
115.0000000000000
100
AcDbArc
 50
278.7529290769124
 51
322.3845524070352
  0
ARC
  5
23A
100
AcDbEntity
  8
MAIN0
  6
HIDDEN
 62
3
100
AcDbCircle
 10
530.4480248645268
 20
328.5890056525408
 30
0.0000000000000000
 40
115.0000000000000
100
AcDbArc
 50
337.8855156908838
 51
381.2470709231474
  0
ARC
  5
23B
100
AcDbEntity
  8
MAIN0
  6
CENTER
 62
3
100
AcDbCircle
 10
530.4480248645861
 20
328.5890056525408
 30
0.0000000000000000
 40
124.0000000000000
100
AcDbArc
 50
113.1245805774958
 51
128.1535815951603
  0
ARC
  5
23C
100
AcDbEntity
  8
MAIN0
  6
CENTER
 62
3
100
AcDbCircle
 10
530.4480248645861
 20
328.5890056525408
 30
0.0000000000000000
 40
124.0000000000000
100
AcDbArc
 50
224.7602930136347
 51
249.4288166685061
  0
ARC
  5
23D
100
AcDbEntity
  8
MAIN0
  6
CENTER
 62
3
100
AcDbCircle
 10
530.4480248645861
 20
328.5890056525408
 30
0.0000000000000000
 40
124.0000000000000
100
AcDbArc
 50
351.7297460044172
 51
411.0071053165277
  0
DIMENSION
  5
246
100
AcDbEntity
  8
MAIN0
  6
CONTINUOUS
 62
3
100
AcDbDimension
  2
*D12
 10
265.6591470014477
 20
462.5890056524655
 30
0.0000000000000000
 11
265.1591470014477
 21
452.5890056524655
 31
0.0000000000000000
 70
32
  1
\A1;\U+220520
  3
MAIN001
100
AcDbAlignedDimension
 13
250.6591470014477
 23
442.5890056524656
 33
0.0000000000000000
 14
250.6591470014477
 24
462.5890056524655
 34
0.0000000000000000
 50
90.00000000000000
100
AcDbRotatedDimension
1001
ACAD
1000
DSTYLE
1002
{
1070
   173
1070
     1
1070
     6
1000
_OPEN
1070
     7
1000
_OPEN
1070
    41
1040
3.000000
1002
}
  0
MTEXT
  5
247
100
AcDbEntity
  8
MAIN0
  6
CONTINUOUS
 62
3
100
AcDbMText
 10
613.5813382036033
 20
260.5747325063983
 30
0.0000000000000000
 40
2.994604349136353
 41
0.0000000000000000
 71
     1
 72
     1
  1
{\H0.90x;{MAX.2500/min\P}
 11
0.5000000000000009
 21
0.8660254037844382
 31
0.0000000000000000
  7
STANDARD
  0
MTEXT
  5
248
100
AcDbEntity
  8
MAIN0
  6
CONTINUOUS
 62
3
100
AcDbMText
 10
622.5690561791148
 20
265.2473122395804
 30
0.0000000000000000
 40
3.099999904632568
 41
0.0000000000000000
 71
     1
 72
     1
  1
{\H0.92x;{JAPAN}}
 11
0.5000000000000009
 21
0.8660254037844382
 31
0.0000000000000000
  7
STANDARD
  0
LINE
  5
249
100
AcDbEntity
  8
MAIN0
  6
CENTER
 62
3
100
AcDbLine
 10
555.7908724297291
 20
423.1698003719907
 30
0.0000000000000000
 11
566.6059703738030
 21
463.5322953881729
 31
0.0000000000000000
  0
LINE
  5
24A
100
AcDbEntity
  8
MAIN0
  6
CENTER
 62
3
100
AcDbLine
 10
505.1051772994429
 20
234.0082109330908
 30
0.0000000000000000
 11
494.2900793553691
 21
193.6457159169086
 31
0.0000000000000000
  0
LINE
  5
24B
100
AcDbEntity
  8
MAIN0
  6
PHANTOM
 62
3
100
AcDbLine
 10
634.4480248645865
 20
338.5890056525054
 30
0.0000000000000000
 11
639.4480248645865
 21
338.5890056525050
 31
0.0000000000000000
  0
LINE
  5
24C
100
AcDbEntity
  8
MAIN0
  6
PHANTOM
 62
3
100
AcDbLine
 10
634.4480248645851
 20
318.5890056525054
 30
0.0000000000000000
 11
634.4480248645870
 21
338.5890056525055
 31
0.0000000000000000
  0
LINE
  5
24D
100
AcDbEntity
  8
MAIN0
  6
PHANTOM
 62
3
100
AcDbLine
 10
639.4480248645848
 20
318.5890056525049
 30
0.0000000000000000
 11
639.4480248645865
 21
338.5890056525049
 31
0.0000000000000000
  0
LINE
  5
24E
100
AcDbEntity
  8
MAIN0
  6
PHANTOM
 62
3
100
AcDbLine
 10
634.4480248645849
 20
318.5890056525054
 30
0.0000000000000000
 11
639.4480248645843
 21
318.5890056525049
 31
0.0000000000000000
  0
LINE
  5
24F
100
AcDbEntity
  8
MAIN0
  6
HIDDEN
 62
3
100
AcDbLine
 10
524.9480248645861
 20
390.5890056525408
 30
0.0000000000000000
 11
535.9480248645862
 21
390.5890056525408
 31
0.0000000000000000
  0
LINE
  5
250
100
AcDbEntity
  8
MAIN0
  6
HIDDEN
 62
3
100
AcDbLine
 10
530.4480248647769
 20
387.4135791719849
 30
0.0000000000000000
 11
535.9480248645862
 21
390.5890056524152
 31
0.0000000000000000
  0
LINE
  5
251
100
AcDbEntity
  8
MAIN0
  6
HIDDEN
 62
3
100
AcDbLine
 10
524.9480248645861
 20
390.5890056526371
 30
0.0000000000000000
 11
530.4480248647769
 21
387.4135791719847
 31
0.0000000000000000
  0
LINE
  5
252
100
AcDbEntity
  8
MAIN0
  6
HIDDEN
 62
3
100
AcDbLine
 10
524.9480248645861
 20
390.5890056525408
 30
0.0000000000000000
 11
524.9480248645861
 21
393.3558953416404
 31
0.0000000000000000
  0
LINE
  5
253
100
AcDbEntity
  8
MAIN0
  6
HIDDEN
 62
3
100
AcDbLine
 10
535.9480248645861
 20
390.5890056525408
 30
0.0000000000000000
 11
535.9480248645861
 21
393.3558953416404
 31
0.0000000000000000
  0
DIMENSION
  5
25E
100
AcDbEntity
  8
MAIN0
  6
CONTINUOUS
 62
3
100
AcDbDimension
  2
*D13
 10
202.6601953830194
 20
530.5427981526289
 30
0.0000000000000000
 11
218.6617462742038
 21
547.6050092155996
 31
0.0000000000000000
 70
161
  3
MAIN001
100
AcDbAlignedDimension
 13
203.9810683425972
 23
546.1924879415252
 33
0.0000000000000000
 14
195.4957869677970
 24
537.7072065678483
 34
0.0000000000000000
 50
45.00000000001152
1001
ACAD
1000
DSTYLE
1002
{
1070
   173
1070
     1
1070
     6
1000
_OPEN
1070
     7
1000
_OPEN
1070
    41
1040
3.000000
1070
   287
1070
     0
1070
   272
1070
     2
1070
    47
1040
0.150000
1070
    48
1040
-0.050000
1070
    71
1070
     1
1070
   340
1005
1C4
1002
}
  0
DIMENSION
  5
269
100
AcDbEntity
  8
MAIN0
  6
CONTINUOUS
 62
3
100
AcDbDimension
  2
*D14
 10
729.8157832575782
 20
278.1368053796109
 30
0.0000000000000000
 11
744.5580091710900
 21
293.9396914648708
 31
0.0000000000000000
 70
161
  3
MAIN001
100
AcDbAlignedDimension
 13
728.9864563392907
 23
295.9366950463946
 33
0.0000000000000000
 14
720.5011749651187
 24
287.4514136720896
 34
0.0000000000000000
 50
44.99999999994051
1001
ACAD
1000
DSTYLE
1002
{
1070
   173
1070
     1
1070
     6
1000
_OPEN
1070
     7
1000
_OPEN
1070
    41
1040
3.000000
1070
   287
1070
     0
1070
   272
1070
     2
1070
    47
1040
0.000000
1070
    48
1040
0.150000
1070
    71
1070
     1
1070
   340
1005
1C4
1002
}
  0
LINE
  5
26A
100
AcDbEntity
  8
MAIN0
  6
HIDDEN
 62
3
100
AcDbLine
 10
479.5044498299507
 20
292.8258659317265
 30
0.0000000000000000
 11
474.0044498299507
 21
302.3521453733554
 31
0.0000000000000000
  0
LINE
  5
26B
100
AcDbEntity
  8
MAIN0
  6
HIDDEN
 62
3
100
AcDbLine
 10
479.5044498298666
 20
299.1767188929840
 30
0.0000000000000000
 11
474.0044498300596
 21
302.3521453734181
 31
0.0000000000000000
  0
LINE
  5
26C
100
AcDbEntity
  8
MAIN0
  6
HIDDEN
 62
3
100
AcDbLine
 10
479.5044498298673
 20
292.8258659316784
 30
0.0000000000000000
 11
479.5044498298666
 21
299.1767188929842
 31
0.0000000000000000
  0
LINE
  5
26D
100
AcDbEntity
  8
MAIN0
  6
HIDDEN
 62
3
100
AcDbLine
 10
479.5044498299507
 20
292.8258659317265
 30
0.0000000000000000
 11
477.1082530697212
 21
291.4424210871767
 31
0.0000000000000000
  0
LINE
  5
26E
100
AcDbEntity
  8
MAIN0
  6
HIDDEN
 62
3
100
AcDbLine
 10
474.0044498299508
 20
302.3521453733553
 30
0.0000000000000000
 11
471.6082530697213
 21
300.9687005288055
 31
0.0000000000000000
  0
LINE
  5
26F
100
AcDbEntity
  8
MAIN0
  6
HIDDEN
 62
3
100
AcDbLine
 10
586.8915998992211
 20
302.3521453733549
 30
0.0000000000000000
 11
581.3915998992210
 21
292.8258659317261
 31
0.0000000000000000
  0
LINE
  5
270
100
AcDbEntity
  8
MAIN0
  6
HIDDEN
 62
3
100
AcDbLine
 10
581.3915998991146
 20
299.1767188926533
 30
0.0000000000000000
 11
581.3915998991123
 21
292.8258659317889
 31
0.0000000000000000
  0
LINE
  5
271
100
AcDbEntity
  8
MAIN0
  6
HIDDEN
 62
3
100
AcDbLine
 10
586.8915998993044
 20
302.3521453733068
 30
0.0000000000000000
 11
581.3915998991142
 21
299.1767188926533
 31
0.0000000000000000
  0
LINE
  5
272
100
AcDbEntity
  8
MAIN0
  6
HIDDEN
 62
3
100
AcDbLine
 10
586.8915998992211
 20
302.3521453733549
 30
0.0000000000000000
 11
589.2877966594505
 21
300.9687005288051
 31
0.0000000000000000
  0
LINE
  5
273
100
AcDbEntity
  8
MAIN0
  6
HIDDEN
 62
3
100
AcDbLine
 10
581.3915998992211
 20
292.8258659317261
 30
0.0000000000000000
 11
583.7877966594505
 21
291.4424210871763
 31
0.0000000000000000
  0
LINE
  5
274
100
AcDbEntity
  8
MAIN0
  6
CONTINUOUS
 62
3
100
AcDbLine
 10
250.6591470014477
 20
194.0890056525408
 30
0.0000000000000000
 11
250.6591470014477
 21
463.0890056525408
 31
0.0000000000000000
  0
DIMENSION
  5
27C
100
AcDbEntity
  8
MAIN0
  6
CONTINUOUS
 62
3
100
AcDbDimension
  2
*D15
 10
658.9981891746086
 20
254.3705336837350
 30
0.0000000000000000
 11
606.4489025362368
 21
196.9516241053726
 31
0.0000000000000000
 70
162
  3
MAIN001
100
AcDb2LineAngularDimension
 13
530.4480248645861
 23
176.0872503091991
 33
0.0000000000000000
 14
530.4480248645861
 24
328.5890056525128
 34
0.0000000000000000
 15
658.1321637708242
 25
254.8705336837351
 35
0.0000000000000000
 16
606.6989025362368
 26
196.5186114034804
 36
0.0000000000000000
1001
ACAD
1000
DSTYLE
1002
{
1070
   173
1070
     1
1070
     6
1000
_OPEN
1070
     7
1000
_OPEN
1070
    41
1040
3.000000
1002
}
  0
DIMENSION
  5
284
100
AcDbEntity
  8
MAIN0
  6
CONTINUOUS
 62
3
100
AcDbDimension
  2
*D16
 10
682.9497802078997
 20
328.5890056525127
 30
0.0000000000000000
 11
677.2704459919635
 21
289.2480564806426
 31
0.0000000000000000
 70
162
  3
MAIN001
100
AcDb2LineAngularDimension
 13
658.9981891746086
 23
254.3705336837350
 33
0.0000000000000000
 14
658.1321637708242
 24
254.8705336837351
 34
0.0000000000000000
 15
530.4480248645861
 25
328.5890056525128
 35
0.0000000000000000
 16
677.7534089051078
 26
289.1186469580912
 36
0.0000000000000000
1001
ACAD
1000
DSTYLE
1002
{
1070
   173
1070
     1
1070
     6
1000
_OPEN
1070
     7
1000
_OPEN
1070
    41
1040
3.000000
1002
}
  0
DIMENSION
  5
28B
100
AcDbEntity
  8
MAIN0
  6
CONTINUOUS
 62
3
100
AcDbDimension
  2
*D17
 10
662.5184191137805
 20
404.8398833238828
 30
0.0000000000000000
 11
677.2704459920078
 21
367.9299548242167
 31
0.0000000000000000
 70
162
  3
MAIN001
100
AcDb2LineAngularDimension
 13
682.9497802078997
 23
328.5890056525127
 33
0.0000000000000000
 14
530.4480248645861
 24
328.5890056525128
 34
0.0000000000000000
 15
530.4480248645861
 25
328.5890056525128
 35
0.0000000000000000
 16
677.7534089051525
 26
368.0593643467674
 36
0.0000000000000000
1001
ACAD
1000
DSTYLE
1002
{
1070
   173
1070
     1
1070
     6
1000
_OPEN
1070
     7
1000
_OPEN
1070
    41
1040
3.000000
1002
}
  0
DIMENSION
  5
293
100
AcDbEntity
  8
MAIN0
  6
CONTINUOUS
 62
3
100
AcDbDimension
  2
*D18
 10
566.6059703738029
 20
463.5322953881729
 30
0.0000000000000000
 11
623.5895920885860
 21
449.9734593242755
 31
0.0000000000000000
 70
162
  3
MAIN001
100
AcDb2LineAngularDimension
 13
662.5184191137805
 23
404.8398833238828
 33
0.0000000000000000
 14
530.4480248645861
 24
328.5890056525128
 34
0.0000000000000000
 15
566.3471513286967
 25
462.5663695618848
 35
0.0000000000000000
 16
623.2852113740804
 26
449.5767826541308
 36
0.0000000000000000
1001
ACAD
1000
DSTYLE
1002
{
1070
   173
1070
     1
1070
     6
1000
_OPEN
1070
     7
1000
_OPEN
1070
    41
1040
3.000000
1002
}
  0
DIMENSION
  5
29B
100
AcDbEntity
  8
MAIN0
  6
CONTINUOUS
 62
3
100
AcDbDimension
  2
*D19
 10
530.4480248645861
 20
481.0907609958264
 30
0.0000000000000000
 11
550.4187613928199
 21
480.2818097687762
 31
0.0000000000000000
 70
162
  3
MAIN001
100
AcDb2LineAngularDimension
 13
566.6059703738029
 23
463.5322953881729
 33
0.0000000000000000
 14
566.3471513286967
 24
462.5663695618848
 34
0.0000000000000000
 15
530.4480248645861
 25
328.5890056525128
 35
0.0000000000000000
 16
550.3534982967091
 26
479.7860873380894
 36
0.0000000000000000
1001
ACAD
1000
DSTYLE
1002
{
1070
   173
1070
     1
1070
     6
1000
_OPEN
1070
     7
1000
_OPEN
1070
    41
1040
3.000000
1002
}
  0
DIMENSION
  5
2A3
100
AcDbEntity
  8
MAIN0
  6
CONTINUOUS
 62
3
100
AcDbDimension
  2
*D20
 10
503.3430024713645
 20
403.0594426302590
 30
0.0000000000000000
 11
503.8795488686362
 21
479.2663205389542
 31
0.0000000000000000
 70
162
  3
MAIN001
100
AcDb2LineAngularDimension
 13
530.4480248645861
 23
481.0907609958264
 33
0.0000000000000000
 14
530.4480248645861
 24
328.5890056525128
 34
0.0000000000000000
 15
503.6850226146960
 25
402.1197500094752
 35
0.0000000000000000
 16
503.9663729574721
 26
478.7739166624486
 36
0.0000000000000000
1001
ACAD
1000
DSTYLE
1002
{
1070
   173
1070
     1
1070
     6
1000
_OPEN
1070
     7
1000
_OPEN
1070
    41
1040
3.000000
1002
}
  0
SPLINE
  5
2A4
100
AcDbEntity
  8
MAIN0
  6
CONTINUOUS
 62
3
100
AcDbSpline
210
0.0000000000000000
220
0.0000000000000000
230
1.000000000000000
 70
     8
 71
     3
 72
    20
 73
    16
 74
     0
 42
1.000000000000000e-007
 43
1.000000000000000e-007
 12
0.1355285371169792
 22
-0.8569226472773295
 32
0.0000000000000000
 13
-0.1016185624560784
 23
-0.9011492691096983
 33
0.0000000000000000
 40
0.0000000000000000
 40
0.0000000000000000
 40
0.0000000000000000
 40
0.0000000000000000
 40
22.84850650302438
 40
46.14110472449780
 40
54.04679887491875
 40
61.95249302533970
 40
74.70004180932166
 40
89.90694813506721
 40
97.81264228548815
 40
140.6057492070474
 40
190.1228169716071
 40
201.1228169716071
 40
216.9330807981110
 40
256.3449922234258
 40
277.9770192657691
 40
277.9770192657691
 40
277.9770192657691
 40
277.9770192657691
 10
170.8173460151478
 20
465.0890056525408
 30
0.0000000000000000
 10
171.8495542357020
 20
458.5625380929058
 30
0.0000000000000000
 10
174.2535058836251
 20
443.3633158667753
 30
0.0000000000000000
 10
179.0003134464353
 20
425.9391946539022
 30
0.0000000000000000
 10
183.1260359877371
 20
413.5806989918776
 30
0.0000000000000000
 10
186.3784117328375
 20
404.6148949241501
 30
0.0000000000000000
 10
188.4731199092186
 20
392.8125178843698
 30
0.0000000000000000
 10
189.5171742571821
 20
380.8069252505251
 30
0.0000000000000000
 10
197.5579906322345
 20
360.2340225096393
 30
0.0000000000000000
 10
198.2078629978875
 20
326.0769651916510
 30
0.0000000000000000
 10
198.8511743898132
 20
292.0124130030270
 30
0.0000000000000000
 10
200.0199632467156
 20
266.4245695338003
 30
0.0000000000000000
 10
193.8859487949800
 20
244.9851793841165
 30
0.0000000000000000
 10
191.3221016869526
 20
219.1380840212934
 30
0.0000000000000000
 10
189.0046472417123
 20
198.5869007721463
 30
0.0000000000000000
 10
188.2719087446943
 20
192.0890056526233
 30
0.0000000000000000
  0
DIMENSION
  5
2AD
100
AcDbEntity
  8
MAIN0
  6
CONTINUOUS
 62
3
100
AcDbDimension
  2
*D21
 10
110.6591470014477
 20
465.0890056525408
 30
0.0000000000000000
 11
110.1591470014477
 21
328.5890056525408
 31
0.0000000000000000
 70
32
  1
\A1;\U+2205273
  3
MAIN001
100
AcDbAlignedDimension
 13
516.9480248645861
 23
192.0890056525407
 33
0.0000000000000000
 14
166.6591470014476
 24
465.0890056525408
 34
0.0000000000000000
 50
90.00000000000000
100
AcDbRotatedDimension
1001
ACAD
1000
DSTYLE
1002
{
1070
   173
1070
     1
1070
     6
1000
_OPEN
1070
     7
1000
_OPEN
1070
    41
1040
3.000000
1002
}
  0
DIMENSION
  5
2B5
100
AcDbEntity
  8
MAIN0
  6
CONTINUOUS
 62
3
100
AcDbDimension
  2
*D22
 10
287.6591470014477
 20
353.5890056525408
 30
0.0000000000000000
 11
269.1591470014477
 21
354.0890056525408
 31
0.0000000000000000
 70
32
  3
MAIN001
100
AcDbAlignedDimension
 13
250.6591470014477
 23
194.0890056525408
 33
0.0000000000000000
 14
287.6591470014477
 24
341.8390056525408
 34
0.0000000000000000
100
AcDbRotatedDimension
1001
ACAD
1000
DSTYLE
1002
{
1070
   173
1070
     1
1070
     6
1000
_OPEN
1070
     7
1000
_OPEN
1070
    41
1040
3.000000
1002
}
  0
DIMENSION
  5
2C0
100
AcDbEntity
  8
MAIN0
  6
CONTINUOUS
 62
3
100
AcDbDimension
  2
*D23
 10
250.6591470014477
 20
478.5890056525408
 30
0.0000000000000000
 11
243.4091470014477
 21
479.0890056525408
 31
0.0000000000000000
 70
32
  3
MAIN001
100
AcDbAlignedDimension
 13
236.1591470014477
 23
462.5890056524655
 33
0.0000000000000000
 14
250.6591470014477
 24
463.0890056525408
 34
0.0000000000000000
100
AcDbRotatedDimension
1001
ACAD
1000
DSTYLE
1002
{
1070
   173
1070
     1
1070
     6
1000
_OPEN
1070
     7
1000
_OPEN
1070
    41
1040
3.000000
1070
   287
1070
     0
1002
}
  0
DIMENSION
  5
2CB
100
AcDbEntity
  8
MAIN0
  6
CONTINUOUS
 62
3
100
AcDbDimension
  2
*D24
 10
250.6591470014477
 20
488.5890056525408
 30
0.0000000000000000
 11
242.4091470014477
 21
489.0890056525408
 31
0.0000000000000000
 70
32
  3
MAIN001
100
AcDbAlignedDimension
 13
234.1591470014477
 23
468.5890056525408
 33
0.0000000000000000
 14
250.6591470014477
 24
463.0890056525408
 34
0.0000000000000000
100
AcDbRotatedDimension
1001
ACAD
1000
DSTYLE
1002
{
1070
   173
1070
     1
1070
     6
1000
_OPEN
1070
     7
1000
_OPEN
1070
    41
1040
3.000000
1070
   287
1070
     0
1002
}
  0
DIMENSION
  5
2D4
100
AcDbEntity
  8
MAIN0
  6
CONTINUOUS
 62
3
100
AcDbDimension
  2
*D25
 10
250.6591470014477
 20
498.5890056525408
 30
0.0000000000000000
 11
223.4091470014477
 21
499.0890056525408
 31
0.0000000000000000
 70
32
  3
MAIN001
100
AcDbAlignedDimension
 13
196.1591470014477
 23
468.5890056525408
 33
0.0000000000000000
 14
250.6591470014477
 24
463.0890056525408
 34
0.0000000000000000
100
AcDbRotatedDimension
1001
ACAD
1000
DSTYLE
1002
{
1070
   173
1070
     1
1070
     6
1000
_OPEN
1070
     7
1000
_OPEN
1070
    41
1040
3.000000
1002
}
  0
DIMENSION
  5
2DD
100
AcDbEntity
  8
MAIN0
  6
CONTINUOUS
 62
3
100
AcDbDimension
  2
*D26
 10
196.1591470014477
 20
498.5890056525408
 30
0.0000000000000000
 11
180.4091470014477
 21
499.0890056525408
 31
0.0000000000000000
 70
32
  3
MAIN001
100
AcDbAlignedDimension
 13
164.6591470014477
 23
463.0890056525408
 33
0.0000000000000000
 14
196.1591470014477
 24
468.5890056525408
 34
0.0000000000000000
100
AcDbRotatedDimension
1001
ACAD
1000
DSTYLE
1002
{
1070
   173
1070
     1
1070
     6
1000
_OPEN
1070
     7
1000
_OPEN
1070
    41
1040
3.000000
1002
}
  0
DIMENSION
  5
2E6
100
AcDbEntity
  8
MAIN0
  6
CONTINUOUS
 62
3
100
AcDbDimension
  2
*D27
 10
164.6591470014477
 20
508.5890056525408
 30
0.0000000000000000
 11
207.6591470014477
 21
509.0890056525408
 31
0.0000000000000000
 70
32
  3
MAIN001
100
AcDbAlignedDimension
 13
250.6591470014477
 23
463.0890056525408
 33
0.0000000000000000
 14
164.6591470014477
 24
463.0890056525408
 34
0.0000000000000000
100
AcDbRotatedDimension
1001
ACAD
1000
DSTYLE
1002
{
1070
   173
1070
     1
1070
     6
1000
_OPEN
1070
     7
1000
_OPEN
1070
    41
1040
3.000000
1002
}
  0
DIMENSION
  5
2ED
100
AcDbEntity
  8
MAIN0
  6
CONTINUOUS
 62
3
100
AcDbDimension
  2
*D28
 10
448.3592581195635
 20
235.6512072372497
 30
0.0000000000000000
 11
467.6482455389197
 21
258.6223895218167
 31
0.0000000000000000
 70
163
  3
MAIN001
100
AcDbDiametricDimension
 15
612.5367916096086
 25
421.5268040678319
 35
0.0000000000000000
1001
ACAD
1000
DSTYLE
1002
{
1070
   287
1070
     2
1070
   173
1070
     1
1070
     6
1000
_OPEN
1070
     7
1000
_OPEN
1070
    41
1040
3.000000
1070
   272
1070
     1
1070
    47
1040
0.200000
1070
    48
1040
0.200000
1070
    71
1070
     1
1002
}
  0
DIMENSION
  5
2F6
100
AcDbEntity
  8
MAIN0
  6
CONTINUOUS
 62
3
100
AcDbDimension
  2
*D29
 10
315.6591470014477
 20
290.0890056525408
 30
0.0000000000000000
 11
315.1591470014477
 21
241.0890056525408
 31
0.0000000000000000
 70
32
  3
MAIN001
100
AcDbAlignedDimension
 13
258.3591470014477
 23
192.0890056525408
 33
0.0000000000000000
 14
286.6591470014477
 24
290.0890056525408
 34
0.0000000000000000
 50
90.00000000000000
100
AcDbRotatedDimension
1001
ACAD
1000
DSTYLE
1002
{
1070
   173
1070
     1
1070
     6
1000
_OPEN
1070
     7
1000
_OPEN
1070
    41
1040
3.000000
1002
}
  0
LINE
  5
2F7
100
AcDbEntity
  8
MAIN0
  6
HIDDEN
 62
3
100
AcDbLine
 10
250.6591470014477
 20
286.0890056525408
 30
0.0000000000000000
 11
199.1935181199162
 21
286.0890056525408
 31
0.0000000000000000
  0
LINE
  5
2F8
100
AcDbEntity
  8
MAIN0
  6
HIDDEN
 62
3
100
AcDbLine
 10
250.6591470014477
 20
371.0890056525408
 30
0.0000000000000000
 11
193.1591470015275
 21
371.0890056525408
 31
0.0000000000000000
  0
MTEXT
  5
2F9
100
AcDbEntity
  8
MAIN0
  6
CONTINUOUS
 62
3
100
AcDbMText
 10
157.0878230231219
 20
124.5470099849791
 30
0.0000000000000000
 40
4.649999856948853
 41
0.0000000000000000
 71
     1
 72
     1
  1
{\H0.84x;{176.5\P}
 11
1.000000000000000
 21
0.0000000000000000
 31
0.0000000000000000
  7
STANDARD
  0
MTEXT
  5
2FA
100
AcDbEntity
  8
MAIN0
  6
CONTINUOUS
 62
3
100
AcDbMText
 10
161.5878230231220
 20
117.7970099849791
 30
0.0000000000000000
 40
4.649999856948853
 41
0.0000000000000000
 71
     1
 72
     1
  1
{\H0.81x;{18.0\P}
 11
1.000000000000000
 21
0.0000000000000000
 31
0.0000000000000000
  7
STANDARD
  0
MTEXT
  5
2FB
100
AcDbEntity
  8
MAIN0
  6
CONTINUOUS
 62
3
100
AcDbMText
 10
157.0878230231219
 20
109.5470099849790
 30
0.0000000000000000
 40
4.649999856948853
 41
0.0000000000000000
 71
     1
 72
     1
  1
{\H0.88x;{46}}
 11
1.000000000000000
 21
0.0000000000000000
 31
0.0000000000000000
  7
STANDARD
  0
MTEXT
  5
2FC
100
AcDbEntity
  8
MAIN0
  6
CONTINUOUS
 62
3
100
AcDbMText
 10
161.5878230231220
 20
102.7970099849790
 30
0.0000000000000000
 40
4.649999856948853
 41
0.0000000000000000
 71
     1
 72
     1
  1
{\H0.91x;{4691\P}
 11
1.000000000000000
 21
0.0000000000000000
 31
0.0000000000000000
  7
STANDARD
  0
MTEXT
  5
2FD
100
AcDbEntity
  8
MAIN0
  6
CONTINUOUS
 62
3
100
AcDbMText
 10
157.0878230231219
 20
78.29700998497901
 30
0.0000000000000000
 40
4.649999856948853
 41
0.0000000000000000
 71
     1
 72
     1
  1
{\H0.88x;{28}}
 11
1.000000000000000
 21
0.0000000000000000
 31
0.0000000000000000
  7
STANDARD
  0
MTEXT
  5
2FE
100
AcDbEntity
  8
MAIN0
  6
CONTINUOUS
 62
3
100
AcDbMText
 10
157.0878230231219
 20
65.29700998492797
 30
0.0000000000000000
 40
4.649999856948853
 41
0.0000000000000000
 71
     1
 72
     1
  1
{\H0.84x;{0.253}}
 11
1.000000000000000
 21
0.0000000000000000
 31
0.0000000000000000
  7
STANDARD
  0
MTEXT
  5
2FF
100
AcDbEntity
  8
MAIN0
  6
CONTINUOUS
 62
3
100
AcDbMText
 10
157.0878230230785
 20
52.79700998497413
 30
0.0000000000000000
 40
4.649999856948853
 41
0.0000000000000000
 71
     1
 72
     1
  1
{\H0.93x;{\U+22055～\U+2205260}}
 11
1.000000000000000
 21
0.0000000000000000
 31
0.0000000000000000
  7
KNJYOKO
  0
MTEXT
  5
300
100
AcDbEntity
  8
MAIN0
  6
CONTINUOUS
 62
3
100
AcDbMText
 10
157.0878230230785
 20
42.29700998497413
 30
0.0000000000000000
 40
4.649999856948853
 41
0.0000000000000000
 71
     1
 72
     1
  1
{\H0.93x;{\U+220570～\U+2205250}}
 11
1.000000000000000
 21
0.0000000000000000
 31
0.0000000000000000
  7
KNJYOKO
  0
LINE
  5
301
100
AcDbEntity
  8
MAIN0
  6
HIDDEN
 62
3
100
AcDbLine
 10
489.8549294548165
 20
198.1506941598917
 30
0.0000000000000000
 11
491.3246233004865
 21
198.9992222973156
 31
0.0000000000000000
  0
LINE
  5
302
100
AcDbEntity
  8
MAIN0
  6
HIDDEN
 62
3
100
AcDbLine
 10
491.3246233004863
 20
198.9992222973156
 30
0.0000000000000000
 11
499.5349928239434
 21
196.7992604139441
 31
0.0000000000000000
  0
LINE
  5
303
100
AcDbEntity
  8
MAIN0
  6
HIDDEN
 62
3
100
AcDbLine
 10
499.5349928239434
 20
196.7992604139442
 30
0.0000000000000000
 11
500.3835209613674
 21
195.3295665682742
 31
0.0000000000000000
  0
LINE
  5
304
100
AcDbEntity
  8
MAIN0
  6
HIDDEN
 62
3
100
AcDbLine
 10
490.4060646469427
 20
198.4688922114256
 30
0.0000000000000000
 11
496.2424341140045
 21
220.2505195942442
 31
0.0000000000000000
  0
LINE
  5
305
100
AcDbEntity
  8
MAIN0
  6
HIDDEN
 62
3
100
AcDbLine
 10
496.2424341140046
 20
220.2505195942442
 30
0.0000000000000000
 11
505.9016923768953
 21
217.6623291432190
 31
0.0000000000000000
  0
LINE
  5
306
100
AcDbEntity
  8
MAIN0
  6
HIDDEN
 62
3
100
AcDbLine
 10
505.9016923768952
 20
217.6623291432190
 30
0.0000000000000000
 11
500.0653229098333
 21
195.8807017604004
 31
0.0000000000000000
  0
LINE
  5
307
100
AcDbEntity
  8
MAIN0
  6
HIDDEN
 62
3
100
AcDbLine
 10
491.3246233004863
 20
198.9992222973156
 30
0.0000000000000000
 11
499.2962498896441
 21
228.7497377470189
 31
0.0000000000000000
  0
LINE
  5
308
100
AcDbEntity
  8
MAIN0
  6
HIDDEN
 62
3
100
AcDbLine
 10
499.2962498896441
 20
228.7497377470189
 30
0.0000000000000000
 11
507.5066194131011
 21
226.5497758636475
 31
0.0000000000000000
  0
LINE
  5
309
100
AcDbEntity
  8
MAIN0
  6
HIDDEN
 62
3
100
AcDbLine
 10
507.5066194131011
 20
226.5497758636475
 30
0.0000000000000000
 11
499.5349928239434
 21
196.7992604139441
 31
0.0000000000000000
  0
LINE
  5
30A
100
AcDbEntity
  8
MAIN0
  6
HIDDEN
 62
3
100
AcDbLine
 10
499.2962498896441
 20
228.7497377470188
 30
0.0000000000000000
 11
504.0365089441583
 21
230.0198863325903
 31
0.0000000000000000
  0
LINE
  5
30B
100
AcDbEntity
  8
MAIN0
  6
HIDDEN
 62
3
100
AcDbLine
 10
504.0365089441583
 20
230.0198863325903
 30
0.0000000000000000
 11
507.5066194131010
 21
226.5497758636474
 31
0.0000000000000000
  0
LINE
  5
30C
100
AcDbEntity
  8
MAIN0
  6
CENTER
 62
3
100
AcDbLine
 10
234.1591470014477
 20
468.5890056525408
 30
0.0000000000000000
 11
234.1591470014477
 21
427.0918105644655
 31
0.0000000000000000
  0
LINE
  5
30D
100
AcDbEntity
  8
MAIN0
  6
HIDDEN
 62
3
100
AcDbLine
 10
239.6091470014477
 20
465.0890056525408
 30
0.0000000000000000
 11
238.4091470014477
 21
463.8890056525408
 31
0.0000000000000000
  0
LINE
  5
30E
100
AcDbEntity
  8
MAIN0
  6
HIDDEN
 62
3
100
AcDbLine
 10
238.4091470014477
 20
463.8890056525408
 30
0.0000000000000000
 11
229.9091470014477
 21
463.8890056525408
 31
0.0000000000000000
  0
LINE
  5
30F
100
AcDbEntity
  8
MAIN0
  6
HIDDEN
 62
3
100
AcDbLine
 10
229.9091470014477
 20
463.8890056525408
 30
0.0000000000000000
 11
228.7091470014477
 21
465.0890056525408
 31
0.0000000000000000
  0
LINE
  5
310
100
AcDbEntity
  8
MAIN0
  6
HIDDEN
 62
3
100
AcDbLine
 10
239.1591470014477
 20
464.6390056525408
 30
0.0000000000000000
 11
239.1591470014477
 21
442.0890056525408
 31
0.0000000000000000
  0
LINE
  5
311
100
AcDbEntity
  8
MAIN0
  6
HIDDEN
 62
3
100
AcDbLine
 10
239.1591470014477
 20
442.0890056525408
 30
0.0000000000000000
 11
229.1591470014477
 21
442.0890056525408
 31
0.0000000000000000
  0
LINE
  5
312
100
AcDbEntity
  8
MAIN0
  6
HIDDEN
 62
3
100
AcDbLine
 10
229.1591470014477
 20
442.0890056525408
 30
0.0000000000000000
 11
229.1591470014477
 21
464.6390056525408
 31
0.0000000000000000
  0
LINE
  5
313
100
AcDbEntity
  8
MAIN0
  6
HIDDEN
 62
3
100
AcDbLine
 10
238.4091470014477
 20
463.8890056525408
 30
0.0000000000000000
 11
238.4091470014477
 21
433.0890056525408
 31
0.0000000000000000
  0
LINE
  5
314
100
AcDbEntity
  8
MAIN0
  6
HIDDEN
 62
3
100
AcDbLine
 10
238.4091470014477
 20
433.0890056525408
 30
0.0000000000000000
 11
229.9091470014477
 21
433.0890056525408
 31
0.0000000000000000
  0
LINE
  5
315
100
AcDbEntity
  8
MAIN0
  6
HIDDEN
 62
3
100
AcDbLine
 10
229.9091470014477
 20
433.0890056525408
 30
0.0000000000000000
 11
229.9091470014477
 21
463.8890056525408
 31
0.0000000000000000
  0
LINE
  5
316
100
AcDbEntity
  8
MAIN0
  6
HIDDEN
 62
3
100
AcDbLine
 10
238.4091470014478
 20
433.0890056525408
 30
0.0000000000000000
 11
234.1591470014477
 21
430.6352670084849
 31
0.0000000000000000
  0
LINE
  5
317
100
AcDbEntity
  8
MAIN0
  6
HIDDEN
 62
3
100
AcDbLine
 10
234.1591470014478
 20
430.6352670084849
 30
0.0000000000000000
 11
229.9091470014477
 21
433.0890056525408
 31
0.0000000000000000
  0
LEADER
  5
318
100
AcDbEntity
  8
MAIN0
  6
CONTINUOUS
 62
3
100
AcDbLeader
  3
MAIN001
 73
     0
 74
     0
 75
     1
 40
4.649999856948853
 41
43.95100002905730
 76
     3
 10
239.1591470014477
 20
454.9054555587721
 30
0.0000000000000000
 10
265.6591470014477
 20
488.5890056525408
 30
0.0000000000000000
 10
268.3371469224566
 20
488.5890056525408
 30
0.0000000000000000
340
319
213
-0.001000000000033197
223
-0.7500000000000000
233
0.0000000000000000
1001
ACAD
1000
DSTYLE
1002
{
1070
   147
1040
0.0
1070
    77
1070
     1
1070
   173
1070
     1
1070
     6
1000
_OPEN
1070
     7
1000
_OPEN
1002
}
  0
MTEXT
  5
319
102
{ACAD_REACTORS
330
318
102
}
100
AcDbEntity
  8
MAIN0
  6
CONTINUOUS
 62
3
100
AcDbMText
 10
268.3381469224566
 20
493.9890055094896
 30
0.0000000000000000
 40
4.649999856948853
 41
0.0000000000000000
 71
     1
 72
     1
  1
{\H0.71x;{2-M10 ネジ深23\P2-M10 DEPTH 23}}
 11
1.000000000000000
 21
0.0000000000000000
 31
0.0000000000000000
  7
KNJYOKO
  0
LINE
  5
31A
100
AcDbEntity
  8
MAIN0
  6
HIDDEN
 62
3
100
AcDbLine
 10
571.0411202743557
 20
459.0273171451899
 30
0.0000000000000000
 11
569.5714264286858
 21
458.1787890077661
 31
0.0000000000000000
  0
LINE
  5
31B
100
AcDbEntity
  8
MAIN0
  6
HIDDEN
 62
3
100
AcDbLine
 10
569.5714264286858
 20
458.1787890077659
 30
0.0000000000000000
 11
561.3610569052287
 21
460.3787508911374
 31
0.0000000000000000
  0
LINE
  5
31C
100
AcDbEntity
  8
MAIN0
  6
HIDDEN
 62
3
100
AcDbLine
 10
561.3610569052286
 20
460.3787508911373
 30
0.0000000000000000
 11
560.5125287678047
 21
461.8484447368073
 31
0.0000000000000000
  0
LINE
  5
31D
100
AcDbEntity
  8
MAIN0
  6
HIDDEN
 62
3
100
AcDbLine
 10
570.4899850822294
 20
458.7091190936560
 30
0.0000000000000000
 11
564.6536156151675
 21
436.9274917108374
 31
0.0000000000000000
  0
LINE
  5
31E
100
AcDbEntity
  8
MAIN0
  6
HIDDEN
 62
3
100
AcDbLine
 10
564.6536156151676
 20
436.9274917108373
 30
0.0000000000000000
 11
554.9943573522769
 21
439.5156821618626
 31
0.0000000000000000
  0
LINE
  5
31F
100
AcDbEntity
  8
MAIN0
  6
HIDDEN
 62
3
100
AcDbLine
 10
554.9943573522768
 20
439.5156821618626
 30
0.0000000000000000
 11
560.8307268193387
 21
461.2973095446812
 31
0.0000000000000000
  0
LINE
  5
320
100
AcDbEntity
  8
MAIN0
  6
HIDDEN
 62
3
100
AcDbLine
 10
569.5714264286858
 20
458.1787890077661
 30
0.0000000000000000
 11
561.5997998395280
 21
428.4282735580627
 31
0.0000000000000000
  0
LINE
  5
321
100
AcDbEntity
  8
MAIN0
  6
HIDDEN
 62
3
100
AcDbLine
 10
561.5997998395282
 20
428.4282735580626
 30
0.0000000000000000
 11
553.3894303160711
 21
430.6282354414341
 31
0.0000000000000000
  0
LINE
  5
322
100
AcDbEntity
  8
MAIN0
  6
HIDDEN
 62
3
100
AcDbLine
 10
553.3894303160710
 20
430.6282354414342
 30
0.0000000000000000
 11
561.3610569052287
 21
460.3787508911375
 31
0.0000000000000000
  0
LINE
  5
323
100
AcDbEntity
  8
MAIN0
  6
HIDDEN
 62
3
100
AcDbLine
 10
561.5997998395282
 20
428.4282735580627
 30
0.0000000000000000
 11
556.8595407850139
 21
427.1581249724913
 31
0.0000000000000000
  0
LINE
  5
324
100
AcDbEntity
  8
MAIN0
  6
HIDDEN
 62
3
100
AcDbLine
 10
556.8595407850138
 20
427.1581249724912
 30
0.0000000000000000
 11
553.3894303160711
 21
430.6282354414340
 31
0.0000000000000000
  0
MTEXT
  5
325
100
AcDbEntity
  8
MAIN0
  6
CONTINUOUS
 62
3
100
AcDbMText
 10
82.83782302312383
 20
68.92201070023987
 30
0.0000000000000000
 40
4.650000572204590
 41
0.0000000000000000
 71
     1
 72
     1
  1
{\H0.94x;{慣性モーメント}}
 11
1.000000000000000
 21
0.0000000000000000
 31
0.0000000000000000
  7
KNJYOKO
  0
MTEXT
  5
326
100
AcDbEntity
  8
MAIN0
  6
CONTINUOUS
 62
3
100
AcDbMText
 10
82.83782302312156
 20
61.27200869751391
 30
0.0000000000000000
 40
3.749998569488525
 41
0.0000000000000000
 71
     1
 72
     1
  1
{\H0.75x;{MOMENT OF INERTIA}}
 11
1.000000000000000
 21
0.0000000000000000
 31
0.0000000000000000
  7
STANDARD
  0
MTEXT
  5
327
100
AcDbEntity
  8
MAIN0
  6
CONTINUOUS
 62
3
100
AcDbMText
 10
182.1997314228493
 20
63.70117964902784
 30
0.0000000000000000
 40
3.000000000000000
 41
0.0000000000000000
 71
     1
 72
     1
  1
{\H0.92x;{ｋｇ・ｍ}}
 11
1.000000000000000
 21
0.0000000000000000
 31
0.0000000000000000
  7
KNJYOKO
  0
MTEXT
  5
328
100
AcDbEntity
  8
MAIN0
  6
CONTINUOUS
 62
3
100
AcDbMText
 10
195.1068944687812
 20
65.48318429536823
 30
0.0000000000000000
 40
2.099999964237213
 41
0.0000000000000000
 71
     1
 72
     1
  1
{\H0.82x;{2}}
 11
1.000000000000000
 21
0.0000000000000000
 31
0.0000000000000000
  7
STANDARD
  0
MTEXT
  5
329
100
AcDbEntity
  8
MAIN0
  6
CONTINUOUS
 62
3
100
AcDbMText
 10
79.15573691458195
 20
33.01738763226524
 30
0.0000000000000000
 40
4.650000572204590
 41
0.0000000000000000
 71
     1
 72
     1
  1
{\H0.95x;{○上記仕様は許容最大ハンドルトルク締込時の場合}}
 11
1.000000000000000
 21
0.0000000000000000
 31
0.0000000000000000
  7
KNJYOKO
  0
MTEXT
  5
32A
100
AcDbEntity
  8
MAIN0
  6
CONTINUOUS
 62
3
100
AcDbMText
 10
84.92486452467074
 20
27.43860644011988
 30
0.0000000000000000
 40
4.649999856948853
 41
0.0000000000000000
 71
     1
 72
     1
  1
{\H0.69x;{AT MAX.PERMISSIBLE HANDLE TORQUE.}}
 11
1.000000000000000
 21
0.0000000000000000
 31
0.0000000000000000
  7
STANDARD
  0
MTEXT
  5
32B
100
AcDbEntity
  8
MAIN0
  6
CONTINUOUS
 62
3
100
AcDbMText
 10
109.5514931391270
 20
55.12362025280913
 30
0.0000000000000000
 40
3.750000000000000
 41
0.0000000000000000
 71
     1
 72
     1
  1
{\H0.63x;{EXTERNAL\PGRIPPING}}
 11
1.000000000000000
 21
0.0000000000000000
 31
0.0000000000000000
  7
STANDARD
  0
MTEXT
  5
32C
100
AcDbEntity
  8
MAIN0
  6
CONTINUOUS
 62
3
100
AcDbMText
 10
109.4738789963508
 20
44.49054162947130
 30
0.0000000000000000
 40
3.750000000000000
 41
0.0000000000000000
 71
     1
 72
     1
  1
{\H0.63x;{INTERNALLY\PGRIPPING}}
 11
1.000000000000000
 21
0.0000000000000000
 31
0.0000000000000000
  7
STANDARD
  0
LINE
  5
32D
100
AcDbEntity
  8
MAIN0
  6
CONTINUOUS
 62
3
100
AcDbLine
 10
79.08782302312207
 20
34.64701012802516
 30
0.0000000000000000
 11
199.0878230231220
 21
34.64701012802522
 31
0.0000000000000000
  0
LINE
  5
32E
100
AcDbEntity
  8
MAIN0
  6
CONTINUOUS
 62
3
100
AcDbLine
 10
108.3378230231220
 20
34.64701012802527
 30
0.0000000000000000
 11
108.3378230231220
 21
55.64701012802527
 31
0.0000000000000000
  0
MTEXT
  5
32F
100
AcDbEntity
  8
MAIN0
  6
CONTINUOUS
 62
3
100
AcDbMText
 10
132.9132234002099
 20
52.84145793703431
 30
0.0000000000000000
 40
4.649999856948853
 41
0.0000000000000000
 71
     1
 72
     1
  1
{\H0.92x;{外径把握}}
 11
1.000000000000000
 21
0.0000000000000000
 31
0.0000000000000000
  7
KNJYOKO
  0
MTEXT
  5
330
100
AcDbEntity
  8
MAIN0
  6
CONTINUOUS
 62
3
100
AcDbMText
 10
132.9132234002099
 20
42.13076517092020
 30
0.0000000000000000
 40
4.649999856948853
 41
0.0000000000000000
 71
     1
 72
     1
  1
{\H0.92x;{内径把握}}
 11
1.000000000000000
 21
0.0000000000000000
 31
0.0000000000000000
  7
KNJYOKO
  0
MTEXT
  5
331
100
AcDbEntity
  8
MAIN0
  6
CONTINUOUS
 62
3
100
AcDbMText
 10
91.77795021600463
 20
40.19564887066895
 30
0.0000000000000000
 40
4.500000000000000
 41
0.0000000000000000
 71
     1
 72
     1
  1
{\H0.63x;{(mm)}}
 11
1.000000000000000
 21
0.0000000000000000
 31
0.0000000000000000
  7
STANDARD
  0
MTEXT
  5
332
100
AcDbEntity
  8
MAIN0
  6
CONTINUOUS
 62
3
100
AcDbMText
 10
82.83782302312358
 20
94.42200998502131
 30
0.0000000000000000
 40
4.649999856948853
 41
0.0000000000000000
 71
     1
 72
     1
  1
{\H0.94x;{許容最高回転速度　}}
 11
1.000000000000000
 21
0.0000000000000000
 31
0.0000000000000000
  7
KNJYOKO
  0
MTEXT
  5
333
100
AcDbEntity
  8
MAIN0
  6
CONTINUOUS
 62
3
100
AcDbMText
 10
157.0878230231219
 20
89.14701012803016
 30
0.0000000000000000
 40
4.649999856948853
 41
0.0000000000000000
 71
     7
 72
     1
  1
{2500 min}
 11
1.000000000000000
 21
0.0000000000000000
 31
0.0000000000000000
  7
STANDARD
  0
MTEXT
  5
334
100
AcDbEntity
  8
MAIN0
  6
CONTINUOUS
 62
3
100
AcDbMText
 10
190.3778239982539
 20
91.47201005650459
 30
0.0000000000000000
 40
2.324999928474426
 41
0.0000000000000000
 71
     7
 72
     1
  1
{-1}
 11
1.000000000000000
 21
0.0000000000000000
 31
0.0000000000000000
  7
STANDARD
  0
MTEXT
  5
335
100
AcDbEntity
  8
MAIN0
  6
CONTINUOUS
 62
3
100
AcDbMText
 10
176.4337492519300
 20
88.23693728379419
 30
0.0000000000000000
 40
4.649999856948853
 41
0.0000000000000000
 71
     1
 72
     1
  1
{\H0.92x;{(rpm)}}
 11
1.000000000000000
 21
0.0000000000000000
 31
0.0000000000000000
  7
STANDARD
  0
LINE
  5
336
100
AcDbEntity
  8
MAIN0
  6
CONTINUOUS
 62
3
100
AcDbLine
 10
108.3378230231221
 20
45.14701012802539
 30
0.0000000000000000
 11
199.0878230231219
 21
45.14701012802544
 31
0.0000000000000000
  0
LINE
  5
337
100
AcDbEntity
  8
MAIN0
  6
CONTINUOUS
 62
3
100
AcDbLine
 10
79.08782302312181
 20
137.1470101280827
 30
0.0000000000000000
 11
199.0878230231220
 21
137.1470101281191
 31
0.0000000000000000
  0
LINE
  5
338
100
AcDbEntity
  8
MAIN0
  6
CONTINUOUS
 62
3
100
AcDbLine
 10
79.08782302312184
 20
126.6470101280800
 30
0.0000000000000000
 11
199.0878230231218
 21
126.6470101281142
 31
0.0000000000000000
  0
LINE
  5
339
100
AcDbEntity
  8
MAIN0
  6
CONTINUOUS
 62
3
100
AcDbLine
 10
79.08782302312187
 20
111.6470101280698
 30
0.0000000000000000
 11
199.0878230231219
 21
111.6470101280971
 31
0.0000000000000000
  0
LINE
  5
33A
100
AcDbEntity
  8
MAIN0
  6
CONTINUOUS
 62
3
100
AcDbLine
 10
79.08782302312173
 20
96.64701012806549
 30
0.0000000000000000
 11
199.0878230231216
 21
96.64701012808973
 31
0.0000000000000000
  0
LINE
  5
33B
100
AcDbEntity
  8
MAIN0
  6
CONTINUOUS
 62
3
100
AcDbLine
 10
79.08782302312176
 20
81.14701012806250
 30
0.0000000000000000
 11
199.0878230231219
 21
81.14701012808476
 31
0.0000000000000000
  0
LINE
  5
33C
100
AcDbEntity
  8
MAIN0
  6
CONTINUOUS
 62
3
100
AcDbLine
 10
79.08782302312181
 20
70.64701012805961
 30
0.0000000000000000
 11
199.0878230231220
 21
70.64701012807973
 31
0.0000000000000000
  0
LINE
  5
33D
100
AcDbEntity
  8
MAIN0
  6
CONTINUOUS
 62
3
100
AcDbLine
 10
79.08782302312204
 20
55.64701012802544
 30
0.0000000000000000
 11
199.0878230231219
 21
55.64701012802550
 31
0.0000000000000000
  0
LINE
  5
33E
100
AcDbEntity
  8
MAIN0
  6
CONTINUOUS
 62
3
100
AcDbLine
 10
79.08782302312199
 20
34.64701012802527
 30
0.0000000000000000
 11
79.08782302312199
 21
137.1470101280303
 31
0.0000000000000000
  0
LINE
  5
33F
100
AcDbEntity
  8
MAIN0
  6
CONTINUOUS
 62
3
100
AcDbLine
 10
154.0878230231220
 20
34.64701012802527
 30
0.0000000000000000
 11
154.0878230231220
 21
126.6470101281009
 31
0.0000000000000000
  0
LINE
  5
340
100
AcDbEntity
  8
MAIN0
  6
CONTINUOUS
 62
3
100
AcDbLine
 10
199.0878230231220
 20
34.64701012802527
 30
0.0000000000000000
 11
199.0878230231220
 21
137.1470101280303
 31
0.0000000000000000
  0
MTEXT
  5
341
100
AcDbEntity
  8
MAIN0
  6
CONTINUOUS
 62
3
100
AcDbMText
 10
82.83782302312369
 20
124.9220107002844
 30
0.0000000000000000
 40
4.650000572204590
 41
0.0000000000000000
 71
     1
 72
     1
  1
{\H0.94x;{許容最大ハンドルトルク}}
 11
1.000000000000000
 21
0.0000000000000000
 31
0.0000000000000000
  7
KNJYOKO
  0
MTEXT
  5
342
100
AcDbEntity
  8
MAIN0
  6
CONTINUOUS
 62
3
100
AcDbMText
 10
82.83782302312358
 20
109.9220107002801
 30
0.0000000000000000
 40
4.650000572204590
 41
0.0000000000000000
 71
     1
 72
     1
  1
{\H0.94x;{最大静的把握力}}
 11
1.000000000000000
 21
0.0000000000000000
 31
0.0000000000000000
  7
KNJYOKO
  0
MTEXT
  5
343
100
AcDbEntity
  8
MAIN0
  6
CONTINUOUS
 62
3
100
AcDbMText
 10
82.08782302312199
 20
78.29701070026420
 30
0.0000000000000000
 40
4.650000572204590
 41
0.0000000000000000
 71
     1
 72
     1
  1
{\H0.90x;{質量}}
 11
1.000000000000000
 21
0.0000000000000000
 31
0.0000000000000000
  7
KNJYOKO
  0
MTEXT
  5
344
100
AcDbEntity
  8
MAIN0
  6
CONTINUOUS
 62
3
100
AcDbMText
 10
83.93978998816959
 20
53.88032399147789
 30
0.0000000000000000
 40
4.650000572204590
 41
0.0000000000000000
 71
     1
 72
     1
  1
{\H0.96x;{把握径}}
 11
1.000000000000000
 21
0.0000000000000000
 31
0.0000000000000000
  7
KNJYOKO
  0
MTEXT
  5
345
100
AcDbEntity
  8
MAIN0
  6
CONTINUOUS
 62
3
100
AcDbMText
 10
87.58682403452218
 20
135.4454273202855
 30
0.0000000000000000
 40
7.500000000000000
 41
0.0000000000000000
 71
     1
 72
     1
  1
{\H0.91x;{仕　様}}
 11
1.000000000000000
 21
0.0000000000000000
 31
0.0000000000000000
  7
KNJYOKO
  0
MTEXT
  5
346
100
AcDbEntity
  8
MAIN0
  6
CONTINUOUS
 62
3
100
AcDbMText
 10
176.5878230231220
 20
122.5970089836211
 30
0.0000000000000000
 40
4.199998855590820
 41
0.0000000000000000
 71
     1
 72
     1
  1
{\H0.58x;{　　　Ｎ・ｍ}}
 11
1.000000000000000
 21
0.0000000000000000
 31
0.0000000000000000
  7
KNJYOKO
  0
MTEXT
  5
347
100
AcDbEntity
  8
MAIN0
  6
CONTINUOUS
 62
3
100
AcDbMText
 10
157.0878230231219
 20
116.5970089836211
 30
0.0000000000000000
 40
4.199998855590820
 41
0.0000000000000000
 71
     1
 72
     1
  1
{\H0.48x;{（}}
 11
1.000000000000000
 21
0.0000000000000000
 31
0.0000000000000000
  7
KNJYOKO
  0
MTEXT
  5
348
100
AcDbEntity
  8
MAIN0
  6
CONTINUOUS
 62
3
100
AcDbMText
 10
175.0878230231220
 20
116.5970089836211
 30
0.0000000000000000
 40
4.199998855590820
 41
0.0000000000000000
 71
     1
 72
     1
  1
{\H0.58x;{　ｋｇｆ・ｍ）}}
 11
1.000000000000000
 21
0.0000000000000000
 31
0.0000000000000000
  7
KNJYOKO
  0
MTEXT
  5
349
100
AcDbEntity
  8
MAIN0
  6
CONTINUOUS
 62
3
100
AcDbMText
 10
176.5878230231220
 20
76.34700898362098
 30
0.0000000000000000
 40
4.199998855590820
 41
0.0000000000000000
 71
     1
 72
     1
  1
{\H0.58x;{　　　　ｋｇ}}
 11
1.000000000000000
 21
0.0000000000000000
 31
0.0000000000000000
  7
KNJYOKO
  0
MTEXT
  5
34A
100
AcDbEntity
  8
MAIN0
  6
CONTINUOUS
 62
3
100
AcDbMText
 10
176.5878230231220
 20
107.5970089836210
 30
0.0000000000000000
 40
4.199998855590820
 41
0.0000000000000000
 71
     1
 72
     1
  1
{\H0.58x;{　　　　ｋＮ}}
 11
1.000000000000000
 21
0.0000000000000000
 31
0.0000000000000000
  7
KNJYOKO
  0
MTEXT
  5
34B
100
AcDbEntity
  8
MAIN0
  6
CONTINUOUS
 62
3
100
AcDbMText
 10
157.0878230231219
 20
101.5970089836210
 30
0.0000000000000000
 40
4.199998855590820
 41
0.0000000000000000
 71
     1
 72
     1
  1
{\H0.48x;{（}}
 11
1.000000000000000
 21
0.0000000000000000
 31
0.0000000000000000
  7
KNJYOKO
  0
MTEXT
  5
34C
100
AcDbEntity
  8
MAIN0
  6
CONTINUOUS
 62
3
100
AcDbMText
 10
175.0878230231220
 20
101.5970089836210
 30
0.0000000000000000
 40
4.199998855590820
 41
0.0000000000000000
 71
     1
 72
     1
  1
{\H0.58x;{　　　ｋｇｆ）}}
 11
1.000000000000000
 21
0.0000000000000000
 31
0.0000000000000000
  7
KNJYOKO
  0
MTEXT
  5
34D
100
AcDbEntity
  8
MAIN0
  6
CONTINUOUS
 62
3
100
AcDbMText
 10
126.3365340924886
 20
134.1150203693265
 30
0.0000000000000000
 40
4.649999856948853
 41
0.0000000000000000
 71
     1
 72
     1
  1
{\H0.93x;{SPECIFICATIONS}}
 11
1.000000000000000
 21
0.0000000000000000
 31
0.0000000000000000
  7
STANDARD
  0
MTEXT
  5
34E
100
AcDbEntity
  8
MAIN0
  6
CONTINUOUS
 62
3
100
AcDbMText
 10
82.83782302312153
 20
117.2720101280701
 30
0.0000000000000000
 40
3.750000000000000
 41
0.0000000000000000
 71
     1
 72
     1
  1
{\H0.62x;{MAX.PERMISSIBLE HANDLE TORQUE}}
 11
1.000000000000000
 21
0.0000000000000000
 31
0.0000000000000000
  7
STANDARD
  0
MTEXT
  5
34F
100
AcDbEntity
  8
MAIN0
  6
CONTINUOUS
 62
3
100
AcDbMText
 10
82.83782302312153
 20
102.2720101280655
 30
0.0000000000000000
 40
3.750000000000000
 41
0.0000000000000000
 71
     1
 72
     1
  1
{\H0.63x;{MAX STATIC GRIPPING FORCE}}
 11
1.000000000000000
 21
0.0000000000000000
 31
0.0000000000000000
  7
STANDARD
  0
MTEXT
  5
350
100
AcDbEntity
  8
MAIN0
  6
CONTINUOUS
 62
3
100
AcDbMText
 10
82.83782302312130
 20
86.77201012806256
 30
0.0000000000000000
 40
3.750000000000000
 41
0.0000000000000000
 71
     1
 72
     1
  1
{\H0.63x;{MAX PREMISSIBLE SPEED}}
 11
1.000000000000000
 21
0.0000000000000000
 31
0.0000000000000000
  7
STANDARD
  0
MTEXT
  5
351
100
AcDbEntity
  8
MAIN0
  6
CONTINUOUS
 62
3
100
AcDbMText
 10
80.14079835349611
 20
46.29409721910758
 30
0.0000000000000000
 40
3.750000000000000
 41
0.0000000000000000
 71
     1
 72
     1
  1
{\H0.54x;{GRIPPING RANGE}}
 11
1.000000000000000
 21
0.0000000000000000
 31
0.0000000000000000
  7
STANDARD
  0
MTEXT
  5
352
100
AcDbEntity
  8
MAIN0
  6
CONTINUOUS
 62
3
100
AcDbMText
 10
107.4413099061705
 20
78.37019246432749
 30
0.0000000000000000
 40
4.650000572204590
 41
0.0000000000000000
 71
     1
 72
     1
  1
{\H0.91x;{MASS}}
 11
1.000000000000000
 21
0.0000000000000000
 31
0.0000000000000000
  7
STANDARD
  0
LINE
  5
353
100
AcDbEntity
  8
WAKU0
  6
CONTINUOUS
 62
3
100
AcDbLine
 10
412.0000000000000
 20
51.00000000000000
 30
0.0000000000000000
 11
582.0000000000000
 21
51.00000000000000
 31
0.0000000000000000
  0
LINE
  5
354
100
AcDbEntity
  8
WAKU0
  6
CONTINUOUS
 62
3
100
AcDbLine
 10
412.0000000000000
 20
51.00000000000000
 30
0.0000000000000000
 11
412.0000000000000
 21
12.00000000000000
 31
0.0000000000000000
  0
LINE
  5
355
100
AcDbEntity
  8
WAKU0
  6
CONTINUOUS
 62
3
100
AcDbLine
 10
484.0000000000000
 20
51.00000000000000
 30
0.0000000000000000
 11
484.0000000000000
 21
12.00000000000000
 31
0.0000000000000000
  0
LINE
  5
356
100
AcDbEntity
  8
WAKU0
  6
CONTINUOUS
 62
3
100
AcDbLine
 10
504.0000000000000
 20
51.00000000000000
 30
0.0000000000000000
 11
504.0000000000000
 21
12.00000000000000
 31
0.0000000000000000
  0
LINE
  5
357
100
AcDbEntity
  8
WAKU0
  6
CONTINUOUS
 62
3
100
AcDbLine
 10
516.0000000000000
 20
51.00000000000000
 30
0.0000000000000000
 11
516.0000000000000
 21
12.00000000000000
 31
0.0000000000000000
  0
LINE
  5
358
100
AcDbEntity
  8
WAKU0
  6
CONTINUOUS
 62
3
100
AcDbLine
 10
516.0000000000000
 20
37.00000000000000
 30
0.0000000000000000
 11
582.0000000000000
 21
37.00000000000000
 31
0.0000000000000000
  0
LINE
  5
359
100
AcDbEntity
  8
WAKU0
  6
CONTINUOUS
 62
3
100
AcDbLine
 10
504.0000000000000
 20
23.00000000000000
 30
0.0000000000000000
 11
582.0000000000000
 21
23.00000000000000
 31
0.0000000000000000
  0
LINE
  5
35A
100
AcDbEntity
  8
WAKU0
  6
CONTINUOUS
 62
3
100
AcDbLine
 10
547.0000000000000
 20
51.00000000000000
 30
0.0000000000000000
 11
547.0000000000000
 21
44.00000000000000
 31
0.0000000000000000
  0
LINE
  5
35B
100
AcDbEntity
  8
WAKU0
  6
CONTINUOUS
 62
3
100
AcDbLine
 10
559.0000000000000
 20
51.00000000000000
 30
0.0000000000000000
 11
559.0000000000000
 21
44.00000000000000
 31
0.0000000000000000
  0
LINE
  5
35C
100
AcDbEntity
  8
WAKU0
  6
CONTINUOUS
 62
3
100
AcDbLine
 10
484.0000000000000
 20
31.50000000000000
 30
0.0000000000000000
 11
504.0000000000000
 21
31.50000000000000
 31
0.0000000000000000
  0
LINE
  5
35D
100
AcDbEntity
  8
WAKU0
  6
CONTINUOUS
 62
3
100
AcDbLine
 10
504.0000000000000
 20
44.00000000000000
 30
0.0000000000000000
 11
582.0000000000000
 21
44.00000000000000
 31
0.0000000000000000
  0
LINE
  5
35E
100
AcDbEntity
  8
WAKU0
  6
CONTINUOUS
 62
3
100
AcDbLine
 10
412.0000000000000
 20
37.00000000000000
 30
0.0000000000000000
 11
484.0000000000000
 21
37.00000000000000
 31
0.0000000000000000
  0
LINE
  5
35F
100
AcDbEntity
  8
WAKU0
  6
CONTINUOUS
 62
3
100
AcDbLine
 10
412.0000000000000
 20
23.00000000000000
 30
0.0000000000000000
 11
484.0000000000000
 21
23.00000000000000
 31
0.0000000000000000
  0
LINE
  5
360
100
AcDbEntity
  8
WAKU0
  6
CONTINUOUS
 62
3
100
AcDbLine
 10
460.0000000000000
 20
37.00000000000000
 30
0.0000000000000000
 11
460.0000000000000
 21
12.00000000000000
 31
0.0000000000000000
  0
LINE
  5
361
100
AcDbEntity
  8
WAKU0
  6
CONTINUOUS
 62
3
100
AcDbLine
 10
436.0000000000000
 20
37.00000000000000
 30
0.0000000000000000
 11
436.0000000000000
 21
23.00000000000000
 31
0.0000000000000000
  0
LINE
  5
362
100
AcDbEntity
  8
WAKU0
  6
CONTINUOUS
 62
3
100
AcDbLine
 10
472.0000000000000
 20
26.00000000000000
 30
0.0000000000000000
 11
472.0000000000000
 21
23.00000000000000
 31
0.0000000000000000
  0
LINE
  5
363
100
AcDbEntity
  8
WAKU0
  6
CONTINUOUS
 62
3
100
AcDbLine
 10
448.0000000000000
 20
26.00000000000000
 30
0.0000000000000000
 11
448.0000000000000
 21
23.00000000000000
 31
0.0000000000000000
  0
LINE
  5
364
100
AcDbEntity
  8
WAKU0
  6
CONTINUOUS
 62
3
100
AcDbLine
 10
424.0000000000000
 20
26.00000000000000
 30
0.0000000000000000
 11
424.0000000000000
 21
23.00000000000000
 31
0.0000000000000000
  0
LINE
  5
365
100
AcDbEntity
  8
WAKU0
  6
CONTINUOUS
 62
3
100
AcDbLine
 10
430.0000000000000
 20
51.00000000000000
 30
0.0000000000000000
 11
430.0000000000000
 21
37.00000000000000
 31
0.0000000000000000
  0
LINE
  5
366
100
AcDbEntity
  8
WAKU0
  6
CONTINUOUS
 62
3
100
AcDbLine
 10
412.0000000000000
 20
45.00000000000000
 30
0.0000000000000000
 11
484.0000000000000
 21
45.00000000000000
 31
0.0000000000000000
  0
LINE
  5
367
100
AcDbEntity
  8
WAKU0
  6
HIDDEN
 62
3
100
AcDbLine
 10
532.5000000000000
 20
23.00000000000000
 30
0.0000000000000000
 11
532.5000000000000
 21
12.00000000000000
 31
0.0000000000000000
  0
LINE
  5
368
100
AcDbEntity
  8
WAKU0
  6
HIDDEN
 62
3
100
AcDbLine
 10
544.9000000000000
 20
23.00000000000000
 30
0.0000000000000000
 11
544.9000000000000
 21
12.00000000000000
 31
0.0000000000000000
  0
MTEXT
  5
369
100
AcDbEntity
  8
WAKU0
  6
CONTINUOUS
 62
3
100
AcDbMText
 10
516.4820000243485
 20
49.04999995231628
 30
0.0000000000000000
 40
3.099999904632568
 41
0.0000000000000000
 71
     1
 72
     1
  1
{\H0.93x;{JN10-101}}
 11
1.000000000000000
 21
0.0000000000000000
 31
0.0000000000000000
  7
STANDARD
  0
MTEXT
  5
36A
100
AcDbEntity
  8
WAKU0
  6
CONTINUOUS
 62
3
100
AcDbMText
 10
516.4659999916852
 20
43.50000000000000
 30
0.0000000000000000
 40
3.000000000000000
 41
0.0000000000000000
 71
     1
 72
     1
  1
{\H0.94x;{スクロールチャック　１０\PＳＣＲＯＬＬ　ＣＨＵＣＫ　１０}}
 11
1.000000000000000
 21
0.0000000000000000
 31
0.0000000000000000
  7
KNJYOKO
  0
MTEXT
  5
36B
100
AcDbEntity
  8
WAKU0
  6
CONTINUOUS
 62
3
100
AcDbMText
 10
516.4000000059605
 20
34.23333326975504
 30
0.0000000000000000
 40
3.099999904632568
 41
0.0000000000000000
 71
     1
 72
     1
  1
{\H0.70x;{ＪＮ１０－１０１　ガイケイ\PＪＮ１０－１０１　ＯＵＴＳＩＤＥ　ＶＩＥＷ}}
 11
1.000000000000000
 21
0.0000000000000000
 31
0.0000000000000000
  7
KNJYOKO
  0
MTEXT
  5
36C
100
AcDbEntity
  8
WAKU0
  6
CONTINUOUS
 62
3
100
AcDbMText
 10
490.0049998760223
 20
39.29999995231628
 30
0.0000000000000000
 40
3.099999904632568
 41
0.0000000000000000
 71
     1
 72
     1
  1
{\H0.90x;{2:3}}
 11
1.000000000000000
 21
0.0000000000000000
 31
0.0000000000000000
  7
STANDARD
  0
MTEXT
  5
36D
100
AcDbEntity
  8
WAKU0
  6
CONTINUOUS
 62
3
100
AcDbMText
 10
546.4000001549721
 20
20.15000009536743
 30
0.0000000000000000
 40
5.300000190734863
 41
0.0000000000000000
 71
     1
 72
     1
  1
{\H0.90x;{2930}}
 11
1.000000000000000
 21
0.0000000000000000
 31
0.0000000000000000
  7
STANDARD
  0
MTEXT
  5
36E
100
AcDbEntity
  8
WAKU0
  6
CONTINUOUS
 62
3
100
AcDbMText
 10
534.3000000834466
 20
20.15000009536743
 30
0.0000000000000000
 40
5.300000190734863
 41
0.0000000000000000
 71
     1
 72
     1
  1
{\H0.87x;{26}}
 11
1.000000000000000
 21
0.0000000000000000
 31
0.0000000000000000
  7
STANDARD
  0
MTEXT
  5
36F
100
AcDbEntity
  8
WAKU0
  6
CONTINUOUS
 62
3
100
AcDbMText
 10
517.5000001192093
 20
20.15000009536743
 30
0.0000000000000000
 40
5.300000190734863
 41
0.0000000000000000
 71
     1
 72
     1
  1
{\H0.89x;{61S}}
 11
1.000000000000000
 21
0.0000000000000000
 31
0.0000000000000000
  7
STANDARD
  0
MTEXT
  5
370
100
AcDbEntity
  8
WAKU0
  6
CONTINUOUS
 62
3
100
AcDbMText
 10
572.0000000476837
 20
20.15000009536743
 30
0.0000000000000000
 40
5.300000190734863
 41
0.0000000000000000
 71
     1
 72
     1
  1
{\H0.81x;{2}}
 11
1.000000000000000
 21
0.0000000000000000
 31
0.0000000000000000
  7
STANDARD
  0
MTEXT
  5
371
100
AcDbEntity
  8
WAKU0
  6
CONTINUOUS
 62
3
100
AcDbMText
 10
572.0000000819564
 20
44.84999990463257
 30
0.0000000000000000
 40
5.300000190734863
 41
0.0000000000000000
 71
     7
 72
     1
  1
{\H0.81x;{ }}
 11
1.000000000000000
 21
0.0000000000000000
 31
0.0000000000000000
  7
STANDARD
  0
MTEXT
  5
372
100
AcDbEntity
  8
WAKU0
  6
CONTINUOUS
 62
3
100
AcDbMText
 10
461.3850002884865
 20
33.00000000000000
 30
0.0000000000000000
 40
3.000000000000000
 41
0.0000000000000000
 71
     7
 72
     1
  1
{\H0.93x;{DRAWN BY}}
 11
1.000000000000000
 21
0.0000000000000000
 31
0.0000000000000000
  7
STANDARD
  0
MTEXT
  5
373
100
AcDbEntity
  8
WAKU0
  6
CONTINUOUS
 62
3
100
AcDbMText
 10
441.2149997949600
 20
32.95000004768372
 30
0.0000000000000000
 40
3.099999904632568
 41
0.0000000000000000
 71
     7
 72
     1
  1
{\H0.92x;{CHIEF}}
 11
1.000000000000000
 21
0.0000000000000000
 31
0.0000000000000000
  7
STANDARD
  0
MTEXT
  5
374
100
AcDbEntity
  8
WAKU0
  6
CONTINUOUS
 62
3
100
AcDbMText
 10
414.4249997138977
 20
32.95000004768372
 30
0.0000000000000000
 40
3.099999904632568
 41
0.0000000000000000
 71
     7
 72
     1
  1
{\H0.92x;{MANAGER}}
 11
1.000000000000000
 21
0.0000000000000000
 31
0.0000000000000000
  7
STANDARD
  0
MTEXT
  5
375
100
AcDbEntity
  8
WAKU0
  6
CONTINUOUS
 62
3
100
AcDbMText
 10
413.0850002169609
 20
46.50000000000000
 30
0.0000000000000000
 40
3.000000000000000
 41
0.0000000000000000
 71
     7
 72
     1
  1
{\H0.92x;{CAREER}}
 11
1.000000000000000
 21
0.0000000000000000
 31
0.0000000000000000
  7
STANDARD
  0
MTEXT
  5
376
100
AcDbEntity
  8
WAKU0
  6
CONTINUOUS
 62
3
100
AcDbMText
 10
466.6099998354912
 20
18.95000004768372
 30
0.0000000000000000
 40
3.099999904632568
 41
0.0000000000000000
 71
     7
 72
     1
  1
{\H0.91x;{DATE}}
 11
1.000000000000000
 21
0.0000000000000000
 31
0.0000000000000000
  7
STANDARD
  0
MTEXT
  5
377
100
AcDbEntity
  8
WAKU0
  6
CONTINUOUS
 62
3
100
AcDbMText
 10
485.9000002145767
 20
26.50000000000000
 30
0.0000000000000000
 40
3.000000000000000
 41
0.0000000000000000
 71
     7
 72
     1
  1
{\H0.63x;{3RD ANGLE}}
 11
1.000000000000000
 21
0.0000000000000000
 31
0.0000000000000000
  7
STANDARD
  0
MTEXT
  5
378
100
AcDbEntity
  8
WAKU0
  6
CONTINUOUS
 62
3
100
AcDbMText
 10
487.2149997949600
 20
45.95000004768372
 30
0.0000000000000000
 40
3.099999904632568
 41
0.0000000000000000
 71
     7
 72
     1
  1
{\H0.92x;{SCALE}}
 11
1.000000000000000
 21
0.0000000000000000
 31
0.0000000000000000
  7
STANDARD
  0
MTEXT
  5
379
100
AcDbEntity
  8
WAKU0
  6
CONTINUOUS
 62
3
100
AcDbMText
 10
577.7000000476837
 20
46.00000000000000
 30
0.0000000000000000
 40
3.000000000000000
 41
0.0000000000000000
 71
     7
 72
     1
  1
{\H0.63x;{kg}}
 11
1.000000000000000
 21
0.0000000000000000
 31
0.0000000000000000
  7
STANDARD
  0
MTEXT
  5
37A
100
AcDbEntity
  8
WAKU0
  6
CONTINUOUS
 62
3
100
AcDbMText
 10
547.6000001430512
 20
46.00000000000000
 30
0.0000000000000000
 40
3.000000000000000
 41
0.0000000000000000
 71
     7
 72
     1
  1
{\H0.63x;{WEIGHT}}
 11
1.000000000000000
 21
0.0000000000000000
 31
0.0000000000000000
  7
STANDARD
  0
MTEXT
  5
37B
100
AcDbEntity
  8
WAKU0
  6
CONTINUOUS
 62
3
100
AcDbMText
 10
506.0049998760223
 20
18.13333336512248
 30
0.0000000000000000
 40
3.099999904632568
 41
0.0000000000000000
 71
     7
 72
     1
  1
{\H0.90x;{DRW\PNO.}}
 11
1.000000000000000
 21
0.0000000000000000
 31
0.0000000000000000
  7
STANDARD
  0
MTEXT
  5
37C
100
AcDbEntity
  8
WAKU0
  6
CONTINUOUS
 62
3
100
AcDbMText
 10
504.6099998354912
 20
31.95000004768372
 30
0.0000000000000000
 40
3.099999904632568
 41
0.0000000000000000
 71
     7
 72
     1
  1
{\H0.91x;{NAME}}
 11
1.000000000000000
 21
0.0000000000000000
 31
0.0000000000000000
  7
STANDARD
  0
MTEXT
  5
37D
100
AcDbEntity
  8
WAKU0
  6
CONTINUOUS
 62
3
100
AcDbMText
 10
504.6099998354912
 20
45.95000004768372
 30
0.0000000000000000
 40
3.099999904632568
 41
0.0000000000000000
 71
     7
 72
     1
  1
{\H0.91x;{TYPE}}
 11
1.000000000000000
 21
0.0000000000000000
 31
0.0000000000000000
  7
STANDARD
  0
LINE
  5
37E
100
AcDbEntity
  8
WAKU0
  6
HIDDEN
 62
3
100
AcDbLine
 10
579.1599564743885
 20
13.84999990463257
 30
0.0000000000000000
 11
568.9400436209789
 21
13.84999990463257
 31
0.0000000000000000
  0
LINE
  5
37F
100
AcDbEntity
  8
WAKU0
  6
HIDDEN
 62
3
100
AcDbLine
 10
579.1599564743885
 20
13.84999990463250
 30
0.0000000000000000
 11
574.0500000476851
 21
22.70070406014901
 31
0.0000000000000000
  0
LINE
  5
380
100
AcDbEntity
  8
WAKU0
  6
HIDDEN
 62
3
100
AcDbLine
 10
574.0500000476851
 20
22.70070406014902
 30
0.0000000000000000
 11
568.9400436209789
 21
13.84999990463248
 31
0.0000000000000000
  0
MTEXT
  5
381
100
AcDbEntity
  8
WAKU0
  6
CONTINUOUS
 62
3
100
AcDbMText
 10
419.0000009614873
 20
20.63471521698214
 30
0.0000000000000000
 40
3.140094041824341
 41
0.0000000000000000
 71
     1
 72
     1
  1
{\H0.83x;{Ｋｉｔａｇａｗａ\PＣｏｒｐｏｒａｔｉｏｎ}}
 11
1.000000000000000
 21
0.0000000000000000
 31
0.0000000000000000
  7
KNJYOKO
  0
LINE
  5
382
100
AcDbEntity
  8
WAKU0
  6
CONTINUOUS
 62
3
100
AcDbLine
 10
502.4713877753800
 20
15.78041421262812
 30
0.0000000000000000
 11
502.4713877753800
 21
21.78041421262815
 31
0.0000000000000000
  0
LINE
  5
383
100
AcDbEntity
  8
WAKU0
  6
CONTINUOUS
 62
3
100
AcDbLine
 10
495.9336941228225
 20
17.28041421262811
 30
0.0000000000000000
 11
495.9336941228225
 21
20.28041421262824
 31
0.0000000000000000
  0
LINE
  5
384
100
AcDbEntity
  8
WAKU0
  6
CENTER
 62
12
100
AcDbLine
 10
485.4321805514995
 20
18.78041421262813
 30
0.0000000000000000
 11
503.2765788964694
 21
18.78041421262813
 31
0.0000000000000000
  0
LINE
  5
385
100
AcDbEntity
  8
WAKU0
  6
CENTER
 62
12
100
AcDbLine
 10
489.4474565857986
 20
14.55921662918448
 30
0.0000000000000000
 11
489.4474565857986
 21
22.89865102149943
 31
0.0000000000000000
  0
LINE
  5
386
100
AcDbEntity
  8
WAKU0
  6
CONTINUOUS
 62
3
100
AcDbLine
 10
495.9336941228225
 20
20.28041421262797
 30
0.0000000000000000
 11
502.4713877753800
 21
21.78041421262795
 31
0.0000000000000000
  0
LINE
  5
387
100
AcDbEntity
  8
WAKU0
  6
CONTINUOUS
 62
3
100
AcDbLine
 10
495.9336941228225
 20
17.28041421262811
 30
0.0000000000000000
 11
502.4713877753799
 21
15.78041421262812
 31
0.0000000000000000
  0
CIRCLE
  5
388
100
AcDbEntity
  8
WAKU0
  6
CONTINUOUS
 62
3
100
AcDbCircle
 10
489.4474565857986
 20
18.78041421262813
 30
0.0000000000000000
 40
1.499999999999972
  0
CIRCLE
  5
389
100
AcDbEntity
  8
WAKU0
  6
CONTINUOUS
 62
3
100
AcDbCircle
 10
489.4474565857986
 20
18.78041421262813
 30
0.0000000000000000
 40
2.999999999999979
  0
ENDSEC
  0
SECTION
  2
OBJECTS
  0
DICTIONARY
  5
3D1
100
AcDbDictionary
  3
ACAD_GROUP
350
3D2
  3
ACAD_MLINESTYLE
350
3D3
  0
DICTIONARY
  5
3D2
102
{ACAD_REACTORS
330
3D1
102
}
100
AcDbDictionary
  0
DICTIONARY
  5
3D3
102
{ACAD_REACTORS
330
3D1
102
}
100
AcDbDictionary
  3
STANDARD
350
3D4
  0
MLINESTYLE
  5
3D4
102
{ACAD_REACTORS
330
3D3
102
}
100
AcDbMlineStyle
  2
STANDARD
 70
     0
  3

 62
   256
 51
90.00
 52
90.00
 71
     2
 49
0.50
 62
   256
  6
BYLAYER
 49
-0.50
 62
   256
  6
BYLAYER
  0
ENDSEC
  0
EOF
