  0
SECTION
  2
HEADER
  9
$ACADVER
  1
AC1014
  9
$DWGCODEPAGE
  3
ANSI_932
  9
$LTSCALE
 40
20.0
  9
$FILLMODE
 70
     1
  9
$CLAYER
  8
0
  9
$PDMODE
 70
     0
  9
$SPLFRAME
 70
     0
  9
$SPLINETYPE
 70
     6
  9
$SPLINESEGS
 70
     8
  9
$DIMASZ
 40
2.000000
  9
$DIMEXE
 40
2.000000
  9
$DIMEXO
 40
0.800000
  9
$DIMTAD
 70
     1
  9
$DIMTIH
 70
     0
  9
$DIMTOH
 70
     0
  9
$DIMTVP
 40
0.500000
  9
$DIMTXT
 40
3.100000
  9
$EXTMIN
 10
0.000000
 20
0.000000
 30
0.000000
  9
$EXTMAX
 10
420.000000
 20
594.000000
 30
0.000000
  9
$MEASUREMENT
 70
  1
  9
$LIMMIN
 10
0.000000
 20
0.000000
  9
$LIMMAX
 10
420.000000
 20
594.000000
  9
$HANDLING
 70
     1
  9
$HANDSEED
  5
51A
  9
$DIMBLK
  1
_OPEN
  9
$DIMDEC
 70
     3
  9
$DIMAUNIT
 70
     1
  9
$DIMZIN
 70
     8
  9
$DIMTOFL
 70
     1
  0
ENDSEC
  0
SECTION
  2
CLASSES
  0
ENDSEC
  0
SECTION
  2
TABLES
  0
TABLE
  2
VPORT
  5
4BC
100
AcDbSymbolTable
 70
     1
  0
VPORT
  5
4BD
100
AcDbSymbolTableRecord
100
AcDbViewportTableRecord
  2
*ACTIVE
 70
     0
 12
297.000000
 22
226.738029
 40
470.381569
 41
1.262805
  0
ENDTAB
  0
TABLE
  2
LTYPE
  5
4BE
100
AcDbSymbolTable
 70
     4
  0
LTYPE
  5
4BF
100
AcDbSymbolTableRecord
100
AcDbLinetypeTableRecord
  2
BYBLOCK
 70
     0
  3

 72
    65
 73
     0
 40
0.0
  0
LTYPE
  5
4C0
100
AcDbSymbolTableRecord
100
AcDbLinetypeTableRecord
  2
BYLAYER
 70
     0
  3

 72
    65
 73
     0
 40
0.0
  0
LTYPE
  5
4C1
100
AcDbSymbolTableRecord
100
AcDbLinetypeTableRecord
  2
CONTINUOUS
 70
     0
  3
Solid line (NEC CAE2D for Win R12.1 : 2019.02.20)
 72
    65
 73
     0
 40
0.0
  0
LTYPE
  5
4C2
100
AcDbSymbolTableRecord
100
AcDbLinetypeTableRecord
  2
HIDDEN
 70
     0
  3
__ __ __ __ __ __ __ __ __ __ __ __ __ __
 72
    65
 73
     2
 40
0.375
 49
0.25
 74
     0
 49
-0.125
 74
     0
  0
LTYPE
  5
4C3
100
AcDbSymbolTableRecord
100
AcDbLinetypeTableRecord
  2
CENTER
 70
     0
  3
____ _ ____ _ ____ _ ____ _ ____ _ ____
 72
    65
 73
     4
 40
2.0
 49
1.25
 74
     0
 49
-0.25
 74
     0
 49
0.25
 74
     0
 49
-0.25
 74
     0
  0
LTYPE
  5
4C4
100
AcDbSymbolTableRecord
100
AcDbLinetypeTableRecord
  2
PHANTOM
 70
     0
  3
______  __  __  ______  __  __  ______ 
 72
    65
 73
     6
 40
2.5
 49
1.25
 74
     0
 49
-0.25
 74
     0
 49
0.25
 74
     0
 49
-0.25
 74
     0
 49
0.25
 74
     0
 49
-0.25
 74
     0
  0
ENDTAB
  0
TABLE
  2
LAYER
  5
4C5
100
AcDbSymbolTable
 70
    17
  0
LAYER
  5
4C6
100
AcDbSymbolTableRecord
100
AcDbLayerTableRecord
  2
0
 70
     0
 62
     7
  6
CONTINUOUS
  0
LAYER
  5
4C7
100
AcDbSymbolTableRecord
100
AcDbLayerTableRecord
  2
MAIN0
 70
     0
 62
     7
  6
CONTINUOUS
  0
LAYER
  5
4C8
100
AcDbSymbolTableRecord
100
AcDbLayerTableRecord
  2
MAIN1
 70
     0
 62
     7
  6
CONTINUOUS
  0
LAYER
  5
4C9
100
AcDbSymbolTableRecord
100
AcDbLayerTableRecord
  2
MAIN1023
 70
     0
 62
    16
  6
CONTINUOUS
  0
LAYER
  5
4CA
100
AcDbSymbolTableRecord
100
AcDbLayerTableRecord
  2
A0
 70
     0
 62
     7
  6
CONTINUOUS
  0
LAYER
  5
4CB
100
AcDbSymbolTableRecord
100
AcDbLayerTableRecord
  2
A1
 70
     0
 62
     7
  6
CONTINUOUS
  0
LAYER
  5
4CC
100
AcDbSymbolTableRecord
100
AcDbLayerTableRecord
  2
A2
 70
     0
 62
     5
  6
CONTINUOUS
  0
LAYER
  5
4CD
100
AcDbSymbolTableRecord
100
AcDbLayerTableRecord
  2
A3
 70
     0
 62
    14
  6
CONTINUOUS
  0
LAYER
  5
4CE
100
AcDbSymbolTableRecord
100
AcDbLayerTableRecord
  2
A4
 70
     0
 62
     9
  6
CONTINUOUS
  0
LAYER
  5
4CF
100
AcDbSymbolTableRecord
100
AcDbLayerTableRecord
  2
A5
 70
     0
 62
     9
  6
CONTINUOUS
  0
LAYER
  5
4D0
100
AcDbSymbolTableRecord
100
AcDbLayerTableRecord
  2
A6
 70
     0
 62
    10
  6
CONTINUOUS
  0
LAYER
  5
4D1
100
AcDbSymbolTableRecord
100
AcDbLayerTableRecord
  2
A7
 70
     0
 62
     7
  6
CONTINUOUS
  0
LAYER
  5
4D2
100
AcDbSymbolTableRecord
100
AcDbLayerTableRecord
  2
A8
 70
     0
 62
    12
  6
CONTINUOUS
  0
LAYER
  5
4D3
100
AcDbSymbolTableRecord
100
AcDbLayerTableRecord
  2
A9
 70
     0
 62
     8
  6
CONTINUOUS
  0
LAYER
  5
4D4
100
AcDbSymbolTableRecord
100
AcDbLayerTableRecord
  2
A1023
 70
     0
 62
    16
  6
CONTINUOUS
  0
LAYER
  5
4D5
100
AcDbSymbolTableRecord
100
AcDbLayerTableRecord
  2
WAKU0
 70
     0
 62
     7
  6
CONTINUOUS
  0
LAYER
  5
4D6
100
AcDbSymbolTableRecord
100
AcDbLayerTableRecord
  2
WAKU1023
 70
     0
 62
    16
  6
CONTINUOUS
  0
ENDTAB
  0
TABLE
  2
STYLE
  5
4D7
100
AcDbSymbolTable
 70
     4
  0
STYLE
  5
4D8
100
AcDbSymbolTableRecord
100
AcDbTextStyleTableRecord
  2
STANDARD
 70
    64
 40
0.0
 41
1.0
 50
0.0
 71
     0
 42
3.140094041824341
  3
TXT
  4

  0
STYLE
  5
4D9
100
AcDbSymbolTableRecord
100
AcDbTextStyleTableRecord
  2
ANKTATE
 70
    68
 40
0.0
 41
1.0
 50
0.0
 71
     0
 42
3.140094041824341
  3
TXT
  4

  0
STYLE
  5
1B1
100
AcDbSymbolTableRecord
100
AcDbTextStyleTableRecord
  2
KNJYOKO
 70
    64
 40
0.0
 41
1.0
 50
0.0
 71
     0
 42
3.140094041824341
  3
TXT
  4
BIGFONT
  0
STYLE
  5
4DA
100
AcDbSymbolTableRecord
100
AcDbTextStyleTableRecord
  2
KNJTATE
 70
    68
 40
0.0
 41
1.0
 50
0.0
 71
     0
 42
3.140094041824341
  3
TXT
  4
BIGFONT
  0
ENDTAB
  0
TABLE
  2
VIEW
  5
4DB
100
AcDbSymbolTable
 70
     0
  0
ENDTAB
  0
TABLE
  2
UCS
  5
4DC
100
AcDbSymbolTable
 70
     0
  0
ENDTAB
  0
TABLE
  2
APPID
  5
4DD
100
AcDbSymbolTable
 70
     1
  0
APPID
  5
4DE
100
AcDbSymbolTableRecord
100
AcDbRegAppTableRecord
  2
ACAD
 70
     0
  0
ENDTAB
  0
TABLE
  2
DIMSTYLE
  5
4DF
100
AcDbSymbolTable
 70
     1
  0
DIMSTYLE
105
4E0
100
AcDbSymbolTableRecord
100
AcDbDimStyleTableRecord
  2
STANDARD
 70
     0
 41
2.000000
 44
2.000000
 42
0.800000
145
0.661290
140
3.100000
144
1.000000
146
0.903226
340
4D8
  0
DIMSTYLE
105
4E1
100
AcDbSymbolTableRecord
100
AcDbDimStyleTableRecord
  2
MAIN001
 70
     0
 41
2.000000
 44
2.000000
 42
0.800000
145
0.661290
140
3.100000
144
1.000000
146
0.903226
 77
     1
 73
     0
 74
     0
271
     3
275
     1
 78
     8
172
     1
340
4D8
  0
DIMSTYLE
105
4E2
100
AcDbSymbolTableRecord
100
AcDbDimStyleTableRecord
  2
A002
 70
     0
 41
3.000000
 44
3.000000
 42
1.200000
145
0.607527
140
4.650000
144
1.000000
146
0.903226
 77
     1
 73
     0
 74
     0
271
     3
275
     1
 78
     8
172
     1
340
4D8
  0
DIMSTYLE
105
4E3
100
AcDbSymbolTableRecord
100
AcDbDimStyleTableRecord
  2
WAKU003
 70
     0
 41
2.000000
 44
2.000000
 42
0.800000
145
0.661290
140
3.100000
144
1.000000
146
0.903226
 77
     1
 73
     0
 74
     0
271
     3
275
     1
 78
     8
172
     1
340
4D8
  0
ENDTAB
  0
TABLE
  2
BLOCK_RECORD
  5
4E4
100
AcDbSymbolTable
 70
    54
  0
BLOCK_RECORD
  5
4E5
100
AcDbSymbolTableRecord
100
AcDbBlockTableRecord
  2
*MODEL_SPACE
  0
BLOCK_RECORD
  5
4E6
100
AcDbSymbolTableRecord
100
AcDbBlockTableRecord
  2
*PAPER_SPACE
  0
BLOCK_RECORD
  5
1
100
AcDbSymbolTableRecord
100
AcDbBlockTableRecord
  2
_NONE
  0
BLOCK_RECORD
  5
4
100
AcDbSymbolTableRecord
100
AcDbBlockTableRecord
  2
_CLOSED
  0
BLOCK_RECORD
  5
B
100
AcDbSymbolTableRecord
100
AcDbBlockTableRecord
  2
_DOT
  0
BLOCK_RECORD
  5
13
100
AcDbSymbolTableRecord
100
AcDbBlockTableRecord
  2
_OPEN
  0
BLOCK_RECORD
  5
19
100
AcDbSymbolTableRecord
100
AcDbBlockTableRecord
  2
_ORIGIN
  0
BLOCK_RECORD
  5
1E
100
AcDbSymbolTableRecord
100
AcDbBlockTableRecord
  2
_OPEN30
  0
BLOCK_RECORD
  5
24
100
AcDbSymbolTableRecord
100
AcDbBlockTableRecord
  2
_BOXFILLED
  0
BLOCK_RECORD
  5
29
100
AcDbSymbolTableRecord
100
AcDbBlockTableRecord
  2
_BOXBLANK
  0
BLOCK_RECORD
  5
31
100
AcDbSymbolTableRecord
100
AcDbBlockTableRecord
  2
_OBLIQUE
  0
BLOCK_RECORD
  5
35
100
AcDbSymbolTableRecord
100
AcDbBlockTableRecord
  2
_OPEN90
  0
BLOCK_RECORD
  5
3B
100
AcDbSymbolTableRecord
100
AcDbBlockTableRecord
  2
_CLOSEDBLANK
  0
BLOCK_RECORD
  5
41
100
AcDbSymbolTableRecord
100
AcDbBlockTableRecord
  2
_DOTBLANK
  0
BLOCK_RECORD
  5
4E7
100
AcDbSymbolTableRecord
100
AcDbBlockTableRecord
  2
*D0
  0
BLOCK_RECORD
  5
4E8
100
AcDbSymbolTableRecord
100
AcDbBlockTableRecord
  2
*D1
  0
BLOCK_RECORD
  5
4E9
100
AcDbSymbolTableRecord
100
AcDbBlockTableRecord
  2
*D2
  0
BLOCK_RECORD
  5
4EA
100
AcDbSymbolTableRecord
100
AcDbBlockTableRecord
  2
*D3
  0
BLOCK_RECORD
  5
4EB
100
AcDbSymbolTableRecord
100
AcDbBlockTableRecord
  2
*D4
  0
BLOCK_RECORD
  5
4EC
100
AcDbSymbolTableRecord
100
AcDbBlockTableRecord
  2
*D5
  0
BLOCK_RECORD
  5
4ED
100
AcDbSymbolTableRecord
100
AcDbBlockTableRecord
  2
*D6
  0
BLOCK_RECORD
  5
4EE
100
AcDbSymbolTableRecord
100
AcDbBlockTableRecord
  2
*D7
  0
BLOCK_RECORD
  5
4EF
100
AcDbSymbolTableRecord
100
AcDbBlockTableRecord
  2
*D8
  0
BLOCK_RECORD
  5
4F0
100
AcDbSymbolTableRecord
100
AcDbBlockTableRecord
  2
*D9
  0
BLOCK_RECORD
  5
4F1
100
AcDbSymbolTableRecord
100
AcDbBlockTableRecord
  2
*D10
  0
BLOCK_RECORD
  5
4F2
100
AcDbSymbolTableRecord
100
AcDbBlockTableRecord
  2
*D11
  0
BLOCK_RECORD
  5
4F3
100
AcDbSymbolTableRecord
100
AcDbBlockTableRecord
  2
*D12
  0
BLOCK_RECORD
  5
4F4
100
AcDbSymbolTableRecord
100
AcDbBlockTableRecord
  2
*D13
  0
BLOCK_RECORD
  5
4F5
100
AcDbSymbolTableRecord
100
AcDbBlockTableRecord
  2
*D14
  0
BLOCK_RECORD
  5
4F6
100
AcDbSymbolTableRecord
100
AcDbBlockTableRecord
  2
*D15
  0
BLOCK_RECORD
  5
4F7
100
AcDbSymbolTableRecord
100
AcDbBlockTableRecord
  2
*D16
  0
BLOCK_RECORD
  5
4F8
100
AcDbSymbolTableRecord
100
AcDbBlockTableRecord
  2
*D17
  0
BLOCK_RECORD
  5
4F9
100
AcDbSymbolTableRecord
100
AcDbBlockTableRecord
  2
*D18
  0
BLOCK_RECORD
  5
4FA
100
AcDbSymbolTableRecord
100
AcDbBlockTableRecord
  2
*D19
  0
BLOCK_RECORD
  5
4FB
100
AcDbSymbolTableRecord
100
AcDbBlockTableRecord
  2
*D20
  0
BLOCK_RECORD
  5
4FC
100
AcDbSymbolTableRecord
100
AcDbBlockTableRecord
  2
*D21
  0
BLOCK_RECORD
  5
4FD
100
AcDbSymbolTableRecord
100
AcDbBlockTableRecord
  2
*D22
  0
BLOCK_RECORD
  5
4FE
100
AcDbSymbolTableRecord
100
AcDbBlockTableRecord
  2
*D23
  0
BLOCK_RECORD
  5
4FF
100
AcDbSymbolTableRecord
100
AcDbBlockTableRecord
  2
*D24
  0
BLOCK_RECORD
  5
500
100
AcDbSymbolTableRecord
100
AcDbBlockTableRecord
  2
*D25
  0
BLOCK_RECORD
  5
501
100
AcDbSymbolTableRecord
100
AcDbBlockTableRecord
  2
*X0
  0
BLOCK_RECORD
  5
502
100
AcDbSymbolTableRecord
100
AcDbBlockTableRecord
  2
*X1
  0
BLOCK_RECORD
  5
503
100
AcDbSymbolTableRecord
100
AcDbBlockTableRecord
  2
*X2
  0
BLOCK_RECORD
  5
504
100
AcDbSymbolTableRecord
100
AcDbBlockTableRecord
  2
*X3
  0
BLOCK_RECORD
  5
505
100
AcDbSymbolTableRecord
100
AcDbBlockTableRecord
  2
*D26
  0
BLOCK_RECORD
  5
506
100
AcDbSymbolTableRecord
100
AcDbBlockTableRecord
  2
*D27
  0
BLOCK_RECORD
  5
507
100
AcDbSymbolTableRecord
100
AcDbBlockTableRecord
  2
*D28
  0
BLOCK_RECORD
  5
508
100
AcDbSymbolTableRecord
100
AcDbBlockTableRecord
  2
*D29
  0
BLOCK_RECORD
  5
509
100
AcDbSymbolTableRecord
100
AcDbBlockTableRecord
  2
*D30
  0
BLOCK_RECORD
  5
50A
100
AcDbSymbolTableRecord
100
AcDbBlockTableRecord
  2
*D31
  0
BLOCK_RECORD
  5
50B
100
AcDbSymbolTableRecord
100
AcDbBlockTableRecord
  2
*X4
  0
BLOCK_RECORD
  5
50C
100
AcDbSymbolTableRecord
100
AcDbBlockTableRecord
  2
*X5
  0
BLOCK_RECORD
  5
50D
100
AcDbSymbolTableRecord
100
AcDbBlockTableRecord
  2
*X6
  0
BLOCK_RECORD
  5
50E
100
AcDbSymbolTableRecord
100
AcDbBlockTableRecord
  2
*X7
  0
BLOCK_RECORD
  5
50F
100
AcDbSymbolTableRecord
100
AcDbBlockTableRecord
  2
M0
  0
BLOCK_RECORD
  5
510
100
AcDbSymbolTableRecord
100
AcDbBlockTableRecord
  2
M1
  0
ENDTAB
  0
ENDSEC
  0
SECTION
  2
BLOCKS
  0
BLOCK
  5
511
100
AcDbEntity
  8
0
100
AcDbBlockBegin
  2
*MODEL_SPACE
 70
     0
 10
0.0
 20
0.0
 30
0.0
  3
*MODEL_SPACE
  1

  0
ENDBLK
  5
512
100
AcDbEntity
  8
0
100
AcDbBlockEnd
  0
BLOCK
  5
513
100
AcDbEntity
  8
0
100
AcDbBlockBegin
  2
*PAPER_SPACE
 70
     0
 10
0.0
 20
0.0
 30
0.0
  3
*PAPER_SPACE
  1

  0
ENDBLK
  5
514
100
AcDbEntity
  8
0
100
AcDbBlockEnd
  0
BLOCK
  5
2
100
AcDbEntity
  8
0
100
AcDbBlockBegin
  2
_NONE
 70
     0
 10
0.0
 20
0.0
 30
0.0
  3
_NONE
  1

  0
ENDBLK
  5
3
100
AcDbEntity
  8
0
100
AcDbBlockEnd
  0
BLOCK
  5
5
100
AcDbEntity
  8
0
100
AcDbBlockBegin
  2
_CLOSED
 70
     0
 10
0.0
 20
0.0
 30
0.0
  3
_CLOSED
  1

  0
LINE
  5
6
100
AcDbEntity
  8
0
  6
BYBLOCK
 62
     0
100
AcDbLine
 10
-1.0
 20
0.166667
 30
0.0
 11
0.0
 21
0.0
 31
0.0
  0
LINE
  5
7
100
AcDbEntity
  8
0
  6
BYBLOCK
 62
     0
100
AcDbLine
 10
0.0
 20
0.0
 30
0.0
 11
-1.0
 21
-0.166667
 31
0.0
  0
LINE
  5
8
100
AcDbEntity
  8
0
  6
BYBLOCK
 62
     0
100
AcDbLine
 10
-1.0
 20
0.166667
 30
0.0
 11
-1.0
 21
-0.166667
 31
0.0
  0
LINE
  5
9
100
AcDbEntity
  8
0
  6
BYBLOCK
 62
     0
100
AcDbLine
 10
0.0
 20
0.0
 30
0.0
 11
-1.0
 21
0.0
 31
0.0
  0
ENDBLK
  5
A
100
AcDbEntity
  8
0
100
AcDbBlockEnd
  0
BLOCK
  5
C
100
AcDbEntity
  8
0
100
AcDbBlockBegin
  2
_DOT
 70
     0
 10
0.0
 20
0.0
 30
0.0
  3
_DOT
  1

  0
POLYLINE
  5
D
100
AcDbEntity
  8
0
  6
BYBLOCK
 62
     0
100
AcDb2dPolyline
 66
     1
 10
0.0
 20
0.0
 30
0.0
 70
     1
 40
0.5
 41
0.5
  0
VERTEX
  5
E
100
AcDbEntity
  8
0
  6
BYBLOCK
 62
     0
100
AcDbVertex
100
AcDb2dVertex
 10
-0.25
 20
0.0
 30
0.0
 42
1.0
  0
VERTEX
  5
F
100
AcDbEntity
  8
0
  6
BYBLOCK
 62
     0
100
AcDbVertex
100
AcDb2dVertex
 10
0.25
 20
0.0
 30
0.0
 42
1.0
  0
SEQEND
  5
10
100
AcDbEntity
  8
0
  6
BYBLOCK
 62
     0
  0
LINE
  5
11
100
AcDbEntity
  8
0
  6
BYBLOCK
 62
     0
100
AcDbLine
 10
-0.5
 20
0.0
 30
0.0
 11
-1.0
 21
0.0
 31
0.0
  0
ENDBLK
  5
12
100
AcDbEntity
  8
0
100
AcDbBlockEnd
  0
BLOCK
  5
14
100
AcDbEntity
  8
0
100
AcDbBlockBegin
  2
_OPEN
 70
     0
 10
0.0
 20
0.0
 30
0.0
  3
_OPEN
  1

  0
LINE
  5
15
100
AcDbEntity
  8
0
  6
BYBLOCK
 62
     0
100
AcDbLine
 10
-1.0
 20
0.166667
 30
0.0
 11
0.0
 21
0.0
 31
0.0
  0
LINE
  5
16
100
AcDbEntity
  8
0
  6
BYBLOCK
 62
     0
100
AcDbLine
 10
0.0
 20
0.0
 30
0.0
 11
-1.0
 21
-0.166667
 31
0.0
  0
LINE
  5
17
100
AcDbEntity
  8
0
  6
BYBLOCK
 62
     0
100
AcDbLine
 10
0.0
 20
0.0
 30
0.0
 11
-1.0
 21
0.0
 31
0.0
  0
ENDBLK
  5
18
100
AcDbEntity
  8
0
100
AcDbBlockEnd
  0
BLOCK
  5
1A
100
AcDbEntity
  8
0
100
AcDbBlockBegin
  2
_ORIGIN
 70
     0
 10
0.0
 20
0.0
 30
0.0
  3
_ORIGIN
  1

  0
CIRCLE
  5
1B
100
AcDbEntity
  8
0
  6
BYBLOCK
 62
     0
100
AcDbCircle
 10
0.0
 20
0.0
 30
0.0
 40
0.5
  0
LINE
  5
1C
100
AcDbEntity
  8
0
  6
BYBLOCK
 62
     0
100
AcDbLine
 10
0.0
 20
0.0
 30
0.0
 11
-1.0
 21
0.0
 31
0.0
  0
ENDBLK
  5
1D
100
AcDbEntity
  8
0
100
AcDbBlockEnd
  0
BLOCK
  5
1F
100
AcDbEntity
  8
0
100
AcDbBlockBegin
  2
_OPEN30
 70
     0
 10
0.0
 20
0.0
 30
0.0
  3
_OPEN30
  1

  0
LINE
  5
20
100
AcDbEntity
  8
0
  6
BYBLOCK
 62
     0
100
AcDbLine
 10
-1.0
 20
0.267949
 30
0.0
 11
0.0
 21
0.0
 31
0.0
  0
LINE
  5
21
100
AcDbEntity
  8
0
  6
BYBLOCK
 62
     0
100
AcDbLine
 10
0.0
 20
0.0
 30
0.0
 11
-1.0
 21
-0.267949
 31
0.0
  0
LINE
  5
22
100
AcDbEntity
  8
0
  6
BYBLOCK
 62
     0
100
AcDbLine
 10
0.0
 20
0.0
 30
0.0
 11
-1.0
 21
0.0
 31
0.0
  0
ENDBLK
  5
23
100
AcDbEntity
  8
0
100
AcDbBlockEnd
  0
BLOCK
  5
25
100
AcDbEntity
  8
0
100
AcDbBlockBegin
  2
_BOXFILLED
 70
     0
 10
0.0
 20
0.0
 30
0.0
  3
_BOXFILLED
  1

  0
SOLID
  5
26
100
AcDbEntity
  8
0
  6
BYBLOCK
 62
     0
100
AcDbTrace
 10
-0.5
 20
0.5
 30
0.0
 11
0.5
 21
0.5
 31
0.0
 12
-0.5
 22
-0.5
 32
0.0
 13
0.5
 23
-0.5
 33
0.0
  0
LINE
  5
27
100
AcDbEntity
  8
0
  6
BYBLOCK
 62
     0
100
AcDbLine
 10
-0.5
 20
0.0
 30
0.0
 11
-1.0
 21
0.0
 31
0.0
  0
ENDBLK
  5
28
100
AcDbEntity
  8
0
100
AcDbBlockEnd
  0
BLOCK
  5
2A
100
AcDbEntity
  8
0
100
AcDbBlockBegin
  2
_BOXBLANK
 70
     0
 10
0.0
 20
0.0
 30
0.0
  3
_BOXBLANK
  1

  0
LINE
  5
2B
100
AcDbEntity
  8
0
  6
BYBLOCK
 62
     0
100
AcDbLine
 10
-0.5
 20
-0.5
 30
0.0
 11
0.5
 21
-0.5
 31
0.0
  0
LINE
  5
2C
100
AcDbEntity
  8
0
  6
BYBLOCK
 62
     0
100
AcDbLine
 10
0.5
 20
-0.5
 30
0.0
 11
0.5
 21
0.5
 31
0.0
  0
LINE
  5
2D
100
AcDbEntity
  8
0
  6
BYBLOCK
 62
     0
100
AcDbLine
 10
0.5
 20
0.5
 30
0.0
 11
-0.5
 21
0.5
 31
0.0
  0
LINE
  5
2E
100
AcDbEntity
  8
0
  6
BYBLOCK
 62
     0
100
AcDbLine
 10
-0.5
 20
0.5
 30
0.0
 11
-0.5
 21
-0.5
 31
0.0
  0
LINE
  5
2F
100
AcDbEntity
  8
0
  6
BYBLOCK
 62
     0
100
AcDbLine
 10
-0.5
 20
0.0
 30
0.0
 11
-1.0
 21
0.0
 31
0.0
  0
ENDBLK
  5
30
100
AcDbEntity
  8
0
100
AcDbBlockEnd
  0
BLOCK
  5
32
100
AcDbEntity
  8
0
100
AcDbBlockBegin
  2
_OBLIQUE
 70
     0
 10
0.0
 20
0.0
 30
0.0
  3
_OBLIQUE
  1

  0
LINE
  5
33
100
AcDbEntity
  8
0
  6
BYBLOCK
 62
     0
100
AcDbLine
 10
-0.5
 20
-0.5
 30
0.0
 11
0.5
 21
0.5
 31
0.0
  0
ENDBLK
  5
34
100
AcDbEntity
  8
0
100
AcDbBlockEnd
  0
BLOCK
  5
36
100
AcDbEntity
  8
0
100
AcDbBlockBegin
  2
_OPEN90
 70
     0
 10
0.0
 20
0.0
 30
0.0
  3
_OPEN90
  1

  0
LINE
  5
37
100
AcDbEntity
  8
0
  6
BYBLOCK
 62
     0
100
AcDbLine
 10
-0.5
 20
0.5
 30
0.0
 11
0.0
 21
0.0
 31
0.0
  0
LINE
  5
38
100
AcDbEntity
  8
0
  6
BYBLOCK
 62
     0
100
AcDbLine
 10
0.0
 20
0.0
 30
0.0
 11
-0.5
 21
-0.5
 31
0.0
  0
LINE
  5
39
100
AcDbEntity
  8
0
  6
BYBLOCK
 62
     0
100
AcDbLine
 10
0.0
 20
0.0
 30
0.0
 11
-1.0
 21
0.0
 31
0.0
  0
ENDBLK
  5
3A
100
AcDbEntity
  8
0
100
AcDbBlockEnd
  0
BLOCK
  5
3C
100
AcDbEntity
  8
0
100
AcDbBlockBegin
  2
_CLOSEDBLANK
 70
     0
 10
0.0
 20
0.0
 30
0.0
  3
_CLOSEDBLANK
  1

  0
LINE
  5
3D
100
AcDbEntity
  8
0
  6
BYBLOCK
 62
     0
100
AcDbLine
 10
-1.0
 20
0.1666666666666666
 30
0.0
 11
0.0
 21
0.0
 31
0.0
  0
LINE
  5
3E
100
AcDbEntity
  8
0
  6
BYBLOCK
 62
     0
100
AcDbLine
 10
0.0
 20
0.0
 30
0.0
 11
-1.0
 21
-0.1666666666666666
 31
0.0
  0
LINE
  5
3F
100
AcDbEntity
  8
0
  6
BYBLOCK
 62
     0
100
AcDbLine
 10
-1.0
 20
0.1666666666666666
 30
0.0
 11
-1.0
 21
-0.1666666666666666
 31
0.0
  0
ENDBLK
  5
40
100
AcDbEntity
  8
0
100
AcDbBlockEnd
  0
BLOCK
  5
42
100
AcDbEntity
  8
0
100
AcDbBlockBegin
  2
_DOTBLANK
 70
     0
 10
0.0
 20
0.0
 30
0.0
  3
_DOTBLANK
  1

  0
CIRCLE
  5
43
100
AcDbEntity
  8
0
  6
BYBLOCK
 62
     0
100
AcDbCircle
 10
0.0
 20
0.0
 30
0.0
 40
0.5
  0
LINE
  5
44
100
AcDbEntity
  8
0
  6
BYBLOCK
 62
     0
100
AcDbLine
 10
-0.5
 20
0.0
 30
0.0
 11
-1.0
 21
0.0
 31
0.0
  0
ENDBLK
  5
45
100
AcDbEntity
  8
0
100
AcDbBlockEnd
  0
BLOCK
  5
84
100
AcDbEntity
  8
MAIN0
  6
CONTINUOUS
 62
3
100
AcDbBlockBegin
  2
*D0
 70
    65
 10
0.0
 20
0.0
 30
0.0
  0
LINE
  5
85
100
AcDbEntity
  8
MAIN0
  6
BYBLOCK
 62
0
100
AcDbLine
 10
328.2823767890014
 20
225.3479958278563
 30
0.0000000000000000
 11
369.6254173648774
 21
322.5704349797290
 31
0.0000000000000000
  0
INSERT
  5
86
100
AcDbEntity
  8
MAIN0
  6
BYBLOCK
 62
0
100
AcDbBlockReference
  2
_OPEN
 10
327.4997186488501
 20
223.5074942017623
 30
0.0000000000000000
 41
2.000000000000000
 42
2.000000000000000
 43
2.000000000000000
 50
246.9627766696993
  0
MTEXT
  5
87
100
AcDbEntity
  8
MAIN0
  6
BYBLOCK
 62
0
100
AcDbMText
 10
332.9913846718328
 20
241.6602730729462
 30
0.0000000000000000
 40
3.099999904632568
 41
0.0000000000000000
 71
     5
 72
     1
  1
\A1;\U+2205170\H0.903226x;\U+00B10.2
 11
0.3913290700756292
 21
0.9202508130470428
 31
0.0000000000000000
  7
STANDARD
  0
ENDBLK
  5
88
100
AcDbEntity
  8
MAIN0
  6
CONTINUOUS
 62
3
100
AcDbBlockEnd
  0
BLOCK
  5
93
100
AcDbEntity
  8
MAIN0
  6
CONTINUOUS
 62
3
100
AcDbBlockBegin
  2
*D1
 70
    65
 10
0.0
 20
0.0
 30
0.0
  0
LINE
  5
94
100
AcDbEntity
  8
MAIN0
  6
BYBLOCK
 62
0
100
AcDbLine
 10
218.0301239879219
 20
315.7288133107610
 30
0.0000000000000000
 11
232.7626896052786
 21
315.7288133107610
 31
0.0000000000000000
  0
LINE
  5
95
100
AcDbEntity
  8
MAIN0
  6
BYBLOCK
 62
0
100
AcDbLine
 10
230.7626896052786
 20
313.7288133107610
 30
0.0000000000000000
 11
230.7626896052786
 21
289.7288133107610
 31
0.0000000000000000
  0
INSERT
  5
96
100
AcDbEntity
  8
MAIN0
  6
BYBLOCK
 62
0
100
AcDbBlockReference
  2
_OPEN
 10
230.7626896052786
 20
315.7288133107610
 30
0.0000000000000000
 41
2.000000000000000
 42
2.000000000000000
 43
2.000000000000000
 50
90.00000000000000
  0
INSERT
  5
97
100
AcDbEntity
  8
MAIN0
  6
BYBLOCK
 62
0
100
AcDbBlockReference
  2
_OPEN
 10
230.7626896052786
 20
287.7288133107610
 30
0.0000000000000000
 41
2.000000000000000
 42
2.000000000000000
 43
2.000000000000000
 50
270.0000000000000
  0
LINE
  5
98
100
AcDbEntity
  8
MAIN0
  6
BYBLOCK
 62
0
100
AcDbLine
 10
218.0301239879339
 20
287.7288133107610
 30
0.0000000000000000
 11
232.7626896052786
 21
287.7288133107610
 31
0.0000000000000000
  0
MTEXT
  5
99
100
AcDbEntity
  8
MAIN0
  6
BYBLOCK
 62
0
100
AcDbMText
 10
228.7126896529623
 20
301.7288133107610
 30
0.0000000000000000
 40
3.099999904632568
 41
0.0000000000000000
 71
     5
 72
     1
  1
\A1;28
 11
6.123233995736766e-017
 21
1.000000000000000
 31
0.0000000000000000
  7
STANDARD
  0
ENDBLK
  5
9A
100
AcDbEntity
  8
MAIN0
  6
CONTINUOUS
 62
3
100
AcDbBlockEnd
  0
BLOCK
  5
9C
100
AcDbEntity
  8
MAIN0
  6
CONTINUOUS
 62
3
100
AcDbBlockBegin
  2
*D2
 70
    65
 10
0.0
 20
0.0
 30
0.0
  0
LINE
  5
9D
100
AcDbEntity
  8
MAIN0
  6
BYBLOCK
 62
0
100
AcDbLine
 10
217.8328843461038
 20
284.7283015195395
 30
0.0000000000000000
 11
232.7626896052786
 21
284.7283015195312
 31
0.0000000000000000
  0
LINE
  5
9E
100
AcDbEntity
  8
MAIN0
  6
BYBLOCK
 62
0
100
AcDbLine
 10
230.7626896052786
 20
282.7283015195323
 30
0.0000000000000000
 11
230.7626896052786
 21
206.7283015195616
 31
0.0000000000000000
  0
INSERT
  5
9F
100
AcDbEntity
  8
MAIN0
  6
BYBLOCK
 62
0
100
AcDbBlockReference
  2
_OPEN
 10
230.7626896052786
 20
284.7283015195323
 30
0.0000000000000000
 41
2.000000000000000
 42
2.000000000000000
 43
2.000000000000000
 50
90.00000000000000
  0
INSERT
  5
A0
100
AcDbEntity
  8
MAIN0
  6
BYBLOCK
 62
0
100
AcDbBlockReference
  2
_OPEN
 10
230.7626896052786
 20
204.7283015195616
 30
0.0000000000000000
 41
2.000000000000000
 42
2.000000000000000
 43
2.000000000000000
 50
270.0000000000000
  0
LINE
  5
A1
100
AcDbEntity
  8
MAIN0
  6
BYBLOCK
 62
0
100
AcDbLine
 10
198.3328843460151
 20
204.7283015195616
 30
0.0000000000000000
 11
232.7626896052786
 21
204.7283015195616
 31
0.0000000000000000
  0
MTEXT
  5
A2
100
AcDbEntity
  8
MAIN0
  6
BYBLOCK
 62
0
100
AcDbMText
 10
228.7126896529623
 20
244.7283015195470
 30
0.0000000000000000
 40
3.099999904632568
 41
0.0000000000000000
 71
     5
 72
     1
  1
\A1;80
 11
6.123233995736766e-017
 21
1.000000000000000
 31
0.0000000000000000
  7
STANDARD
  0
ENDBLK
  5
A3
100
AcDbEntity
  8
MAIN0
  6
CONTINUOUS
 62
3
100
AcDbBlockEnd
  0
BLOCK
  5
A5
100
AcDbEntity
  8
MAIN0
  6
CONTINUOUS
 62
3
100
AcDbBlockBegin
  2
*D3
 70
    65
 10
0.0
 20
0.0
 30
0.0
  0
LINE
  5
A6
100
AcDbEntity
  8
MAIN0
  6
BYBLOCK
 62
0
100
AcDbLine
 10
61.31576535661912
 20
174.3943119491156
 30
0.0000000000000000
 11
61.31576535661912
 21
187.3021987015852
 31
0.0000000000000000
  0
LINE
  5
A7
100
AcDbEntity
  8
MAIN0
  6
BYBLOCK
 62
0
100
AcDbLine
 10
63.31576535661912
 20
185.3021987015852
 30
0.0000000000000000
 11
147.3157653566192
 21
185.3021987015852
 31
0.0000000000000000
  0
INSERT
  5
A8
100
AcDbEntity
  8
MAIN0
  6
BYBLOCK
 62
0
100
AcDbBlockReference
  2
_OPEN
 10
61.31576535661912
 20
185.3021987015852
 30
0.0000000000000000
 41
2.000000000000000
 42
2.000000000000000
 43
2.000000000000000
 50
180.0000000000000
  0
INSERT
  5
A9
100
AcDbEntity
  8
MAIN0
  6
BYBLOCK
 62
0
100
AcDbBlockReference
  2
_OPEN
 10
149.3157653566192
 20
185.3021987015852
 30
0.0000000000000000
 41
2.000000000000000
 42
2.000000000000000
 43
2.000000000000000
 50
0.0000000000000000
  0
LINE
  5
AA
100
AcDbEntity
  8
MAIN0
  6
BYBLOCK
 62
0
100
AcDbLine
 10
149.3157653566192
 20
174.3943119491156
 30
0.0000000000000000
 11
149.3157653566192
 21
187.3021987015852
 31
0.0000000000000000
  0
MTEXT
  5
AB
100
AcDbEntity
  8
MAIN0
  6
BYBLOCK
 62
0
100
AcDbMText
 10
105.3157653566191
 20
187.3521986539014
 30
0.0000000000000000
 40
3.099999904632568
 41
0.0000000000000000
 71
     5
 72
     1
  1
\A1;88
 11
1.000000000000000
 21
0.0000000000000000
 31
0.0000000000000000
  7
STANDARD
  0
ENDBLK
  5
AC
100
AcDbEntity
  8
MAIN0
  6
CONTINUOUS
 62
3
100
AcDbBlockEnd
  0
BLOCK
  5
AE
100
AcDbEntity
  8
MAIN0
  6
CONTINUOUS
 62
3
100
AcDbBlockBegin
  2
*D4
 70
    65
 10
0.0
 20
0.0
 30
0.0
  0
LINE
  5
AF
100
AcDbEntity
  8
MAIN0
  6
BYBLOCK
 62
0
100
AcDbLine
 10
79.09076535661905
 20
128.5820600292744
 30
0.0000000000000000
 11
79.09076535661905
 21
122.1020682067330
 31
0.0000000000000000
  0
LINE
  5
B0
100
AcDbEntity
  8
MAIN0
  6
BYBLOCK
 62
0
100
AcDbLine
 10
81.09076535661905
 20
124.1020682067330
 30
0.0000000000000000
 11
99.31576535661912
 21
124.1020682067330
 31
0.0000000000000000
  0
INSERT
  5
B1
100
AcDbEntity
  8
MAIN0
  6
BYBLOCK
 62
0
100
AcDbBlockReference
  2
_OPEN
 10
79.09076535661905
 20
124.1020682067330
 30
0.0000000000000000
 41
2.000000000000000
 42
2.000000000000000
 43
2.000000000000000
 50
180.0000000000000
  0
INSERT
  5
B2
100
AcDbEntity
  8
MAIN0
  6
BYBLOCK
 62
0
100
AcDbBlockReference
  2
_OPEN
 10
101.3157653566191
 20
124.1020682067330
 30
0.0000000000000000
 41
2.000000000000000
 42
2.000000000000000
 43
2.000000000000000
 50
0.0000000000000000
  0
LINE
  5
B3
100
AcDbEntity
  8
MAIN0
  6
BYBLOCK
 62
0
100
AcDbLine
 10
101.3157653566191
 20
124.2761351881840
 30
0.0000000000000000
 11
101.3157653566191
 21
122.1020682067330
 31
0.0000000000000000
  0
MTEXT
  5
B4
100
AcDbEntity
  8
MAIN0
  6
BYBLOCK
 62
0
100
AcDbMText
 10
90.20326535661906
 20
126.1520681590493
 30
0.0000000000000000
 40
3.099999904632568
 41
0.0000000000000000
 71
     5
 72
     1
  1
\A1;22.225
 11
1.000000000000000
 21
0.0000000000000000
 31
0.0000000000000000
  7
STANDARD
  0
ENDBLK
  5
B5
100
AcDbEntity
  8
MAIN0
  6
CONTINUOUS
 62
3
100
AcDbBlockEnd
  0
BLOCK
  5
B7
100
AcDbEntity
  8
MAIN0
  6
CONTINUOUS
 62
3
100
AcDbBlockBegin
  2
*D5
 70
    65
 10
0.0
 20
0.0
 30
0.0
  0
LINE
  5
B8
100
AcDbEntity
  8
MAIN0
  6
BYBLOCK
 62
0
100
AcDbLine
 10
101.3157653566191
 20
124.2761351881840
 30
0.0000000000000000
 11
101.3157653566191
 21
122.1020682067330
 31
0.0000000000000000
  0
LINE
  5
B9
100
AcDbEntity
  8
MAIN0
  6
BYBLOCK
 62
0
100
AcDbLine
 10
103.3157653566191
 20
124.1020682067330
 30
0.0000000000000000
 11
121.5407653566191
 21
124.1020682067330
 31
0.0000000000000000
  0
INSERT
  5
BA
100
AcDbEntity
  8
MAIN0
  6
BYBLOCK
 62
0
100
AcDbBlockReference
  2
_OPEN
 10
101.3157653566191
 20
124.1020682067330
 30
0.0000000000000000
 41
2.000000000000000
 42
2.000000000000000
 43
2.000000000000000
 50
180.0000000000000
  0
INSERT
  5
BB
100
AcDbEntity
  8
MAIN0
  6
BYBLOCK
 62
0
100
AcDbBlockReference
  2
_OPEN
 10
123.5407653566191
 20
124.1020682067330
 30
0.0000000000000000
 41
2.000000000000000
 42
2.000000000000000
 43
2.000000000000000
 50
0.0000000000000000
  0
LINE
  5
BC
100
AcDbEntity
  8
MAIN0
  6
BYBLOCK
 62
0
100
AcDbLine
 10
123.5407653566191
 20
128.5820600292744
 30
0.0000000000000000
 11
123.5407653566191
 21
122.1020682067330
 31
0.0000000000000000
  0
MTEXT
  5
BD
100
AcDbEntity
  8
MAIN0
  6
BYBLOCK
 62
0
100
AcDbMText
 10
112.4282653566191
 20
126.1520681590493
 30
0.0000000000000000
 40
3.099999904632568
 41
0.0000000000000000
 71
     5
 72
     1
  1
\A1;22.225
 11
1.000000000000000
 21
0.0000000000000000
 31
0.0000000000000000
  7
STANDARD
  0
ENDBLK
  5
BE
100
AcDbEntity
  8
MAIN0
  6
CONTINUOUS
 62
3
100
AcDbBlockEnd
  0
BLOCK
  5
C0
100
AcDbEntity
  8
MAIN0
  6
CONTINUOUS
 62
3
100
AcDbBlockBegin
  2
*D6
 70
    65
 10
0.0
 20
0.0
 30
0.0
  0
LINE
  5
C1
100
AcDbEntity
  8
MAIN0
  6
BYBLOCK
 62
0
100
AcDbLine
 10
149.1157653685401
 20
174.5943119371947
 30
0.0000000000000000
 11
165.0108682154061
 21
174.5943119371947
 31
0.0000000000000000
  0
LINE
  5
C2
100
AcDbEntity
  8
MAIN0
  6
BYBLOCK
 62
0
100
AcDbLine
 10
163.0108682154061
 20
172.5943119371947
 30
0.0000000000000000
 11
163.0108682154061
 21
135.5943119371947
 31
0.0000000000000000
  0
INSERT
  5
C3
100
AcDbEntity
  8
MAIN0
  6
BYBLOCK
 62
0
100
AcDbBlockReference
  2
_OPEN
 10
163.0108682154061
 20
174.5943119371947
 30
0.0000000000000000
 41
2.000000000000000
 42
2.000000000000000
 43
2.000000000000000
 50
90.00000000000000
  0
INSERT
  5
C4
100
AcDbEntity
  8
MAIN0
  6
BYBLOCK
 62
0
100
AcDbBlockReference
  2
_OPEN
 10
163.0108682154061
 20
133.5943119371947
 30
0.0000000000000000
 41
2.000000000000000
 42
2.000000000000000
 43
2.000000000000000
 50
270.0000000000000
  0
LINE
  5
C5
100
AcDbEntity
  8
MAIN0
  6
BYBLOCK
 62
0
100
AcDbLine
 10
108.1557653685401
 20
133.5943119371947
 30
0.0000000000000000
 11
165.0108682154061
 21
133.5943119371947
 31
0.0000000000000000
  0
MTEXT
  5
C6
100
AcDbEntity
  8
MAIN0
  6
BYBLOCK
 62
0
100
AcDbMText
 10
160.9608682630899
 20
154.0943119371947
 30
0.0000000000000000
 40
3.099999904632568
 41
0.0000000000000000
 71
     5
 72
     1
  1
\A1;41
 11
6.123233995736766e-017
 21
1.000000000000000
 31
0.0000000000000000
  7
STANDARD
  0
ENDBLK
  5
C7
100
AcDbEntity
  8
MAIN0
  6
CONTINUOUS
 62
3
100
AcDbBlockEnd
  0
BLOCK
  5
DF
100
AcDbEntity
  8
MAIN0
  6
CONTINUOUS
 62
3
100
AcDbBlockBegin
  2
*D7
 70
    65
 10
0.0
 20
0.0
 30
0.0
  0
LINE
  5
E0
100
AcDbEntity
  8
MAIN0
  6
BYBLOCK
 62
0
100
AcDbLine
 10
311.4487480377673
 20
216.3145609943487
 30
0.0000000000000000
 11
302.2626896052785
 21
200.4038410679818
 31
0.0000000000000000
  0
LINE
  5
E1
100
AcDbEntity
  8
MAIN0
  6
BYBLOCK
 62
0
100
AcDbLine
 10
360.7626896052786
 20
190.9288132988401
 30
0.0000000000000000
 11
360.7626896052785
 21
184.7288133107610
 31
0.0000000000000000
  0
ARC
  5
E2
100
AcDbEntity
  8
MAIN0
  6
BYBLOCK
 62
0
100
AcDbCircle
 10
360.7626896052786
 20
301.7288133107609
 30
0.0000000000000000
 40
114.9999999999998
100
AcDbArc
 50
240.9964483393579
 51
269.0035516606421
  0
INSERT
  5
E3
100
AcDbEntity
  8
MAIN0
  6
BYBLOCK
 62
0
100
AcDbBlockReference
  2
_OPEN
 10
303.2626896052785
 20
202.1358918755507
 30
0.0000000000000000
 41
2.000000000000000
 42
2.000000000000000
 43
2.000000000000000
 50
149.9999999999999
  0
INSERT
  5
E4
100
AcDbEntity
  8
MAIN0
  6
BYBLOCK
 62
0
100
AcDbBlockReference
  2
_OPEN
 10
360.7626896052786
 20
186.7288133107611
 30
0.0000000000000000
 41
2.000000000000000
 42
2.000000000000000
 43
2.000000000000000
 50
360.0000000000000
  0
MTEXT
  5
E5
100
AcDbEntity
  8
MAIN0
  6
BYBLOCK
 62
0
100
AcDbMText
 10
331.5290784486074
 20
192.6274911853519
 30
0.0000000000000000
 40
3.099999904632568
 41
0.0000000000000000
 71
     5
 72
     1
  1
\A1;30\U+00B0
 11
0.9659258262890681
 21
-0.2588190451025216
 31
0.0000000000000000
  7
STANDARD
  0
ENDBLK
  5
E6
100
AcDbEntity
  8
MAIN0
  6
CONTINUOUS
 62
3
100
AcDbBlockEnd
  0
BLOCK
  5
EC
100
AcDbEntity
  8
MAIN0
  6
CONTINUOUS
 62
3
100
AcDbBlockBegin
  2
*D8
 70
    65
 10
0.0
 20
0.0
 30
0.0
  0
LINE
  5
ED
100
AcDbEntity
  8
MAIN0
  6
BYBLOCK
 62
0
100
AcDbLine
 10
360.7626896052786
 20
412.5288133226820
 30
0.0000000000000000
 11
360.7626896052786
 21
418.7288133107610
 31
0.0000000000000000
  0
LINE
  5
EE
100
AcDbEntity
  8
MAIN0
  6
BYBLOCK
 62
0
100
AcDbLine
 10
342.8636239323636
 20
350.9060920764304
 30
0.0000000000000000
 11
320.7463328361755
 21
411.6728499427125
 31
0.0000000000000000
  0
ARC
  5
EF
100
AcDbEntity
  8
MAIN0
  6
BYBLOCK
 62
0
100
AcDbCircle
 10
360.7626896052786
 20
301.7288133107606
 30
0.0000000000000000
 40
115.0000000000005
100
AcDbArc
 50
90.99644833935795
 51
109.0035516606419
  0
INSERT
  5
F0
100
AcDbEntity
  8
MAIN0
  6
BYBLOCK
 62
0
100
AcDbBlockReference
  2
_OPEN
 10
360.7626896052786
 20
416.7288133107610
 30
0.0000000000000000
 41
2.000000000000000
 42
2.000000000000000
 43
2.000000000000000
 50
360.0000000000000
  0
INSERT
  5
F1
100
AcDbEntity
  8
MAIN0
  6
BYBLOCK
 62
0
100
AcDbBlockReference
  2
_OPEN
 10
321.4303731228268
 20
409.7934647011406
 30
0.0000000000000000
 41
2.000000000000000
 42
2.000000000000000
 43
2.000000000000000
 50
199.9999999999998
  0
MTEXT
  5
F2
100
AcDbEntity
  8
MAIN0
  6
BYBLOCK
 62
0
100
AcDbMText
 10
340.4371704176447
 20
417.0005607538807
 30
0.0000000000000000
 40
3.099999904632568
 41
0.0000000000000000
 71
     5
 72
     1
  1
\A1;20\U+00B0
 11
0.9848077530122084
 21
0.1736481776669288
 31
0.0000000000000000
  7
STANDARD
  0
ENDBLK
  5
F3
100
AcDbEntity
  8
MAIN0
  6
CONTINUOUS
 62
3
100
AcDbBlockEnd
  0
BLOCK
  5
F6
100
AcDbEntity
  8
MAIN0
  6
CONTINUOUS
 62
3
100
AcDbBlockBegin
  2
*D9
 70
    65
 10
0.0
 20
0.0
 30
0.0
  0
LINE
  5
F7
100
AcDbEntity
  8
MAIN0
  6
BYBLOCK
 62
0
100
AcDbLine
 10
175.6301239759711
 20
395.9288133226820
 30
0.0000000000000000
 11
175.6301239760560
 21
413.7288133107610
 31
0.0000000000000000
  0
LINE
  5
F8
100
AcDbEntity
  8
MAIN0
  6
BYBLOCK
 62
0
100
AcDbLine
 10
173.6301239760465
 20
411.7288133107610
 30
0.0000000000000000
 11
130.1301239759634
 21
411.7288133107610
 31
0.0000000000000000
  0
INSERT
  5
F9
100
AcDbEntity
  8
MAIN0
  6
BYBLOCK
 62
0
100
AcDbBlockReference
  2
_OPEN
 10
175.6301239760465
 20
411.7288133107610
 30
0.0000000000000000
 41
2.000000000000000
 42
2.000000000000000
 43
2.000000000000000
 50
360.0000000000000
  0
INSERT
  5
FA
100
AcDbEntity
  8
MAIN0
  6
BYBLOCK
 62
0
100
AcDbBlockReference
  2
_OPEN
 10
128.1301239759634
 20
411.7288133107610
 30
0.0000000000000000
 41
2.000000000000000
 42
2.000000000000000
 43
2.000000000000000
 50
180.0000000000000
  0
LINE
  5
FB
100
AcDbEntity
  8
MAIN0
  6
BYBLOCK
 62
0
100
AcDbLine
 10
128.1301239759634
 20
405.0288133227809
 30
0.0000000000000000
 11
128.1301239759634
 21
413.7288133107610
 31
0.0000000000000000
  0
MTEXT
  5
FC
100
AcDbEntity
  8
MAIN0
  6
BYBLOCK
 62
0
100
AcDbMText
 10
151.8801239760049
 20
413.7788132630773
 30
0.0000000000000000
 40
3.099999904632568
 41
0.0000000000000000
 71
     5
 72
     1
  1
\A1;47.5
 11
1.000000000000000
 21
0.0000000000000000
 31
0.0000000000000000
  7
STANDARD
  0
ENDBLK
  5
FD
100
AcDbEntity
  8
MAIN0
  6
CONTINUOUS
 62
3
100
AcDbBlockEnd
  0
BLOCK
  5
FF
100
AcDbEntity
  8
MAIN0
  6
CONTINUOUS
 62
3
100
AcDbBlockBegin
  2
*D10
 70
    65
 10
0.0
 20
0.0
 30
0.0
  0
LINE
  5
100
100
AcDbEntity
  8
MAIN0
  6
BYBLOCK
 62
0
100
AcDbLine
 10
128.1301239759634
 20
405.0288133227809
 30
0.0000000000000000
 11
128.1301239759634
 21
413.7288133107610
 31
0.0000000000000000
  0
LINE
  5
101
100
AcDbEntity
  8
MAIN0
  6
BYBLOCK
 62
0
100
AcDbLine
 10
126.1301239759634
 20
411.7288133107610
 30
0.0000000000000000
 11
102.6301239759673
 21
411.7288133107610
 31
0.0000000000000000
  0
INSERT
  5
102
100
AcDbEntity
  8
MAIN0
  6
BYBLOCK
 62
0
100
AcDbBlockReference
  2
_OPEN
 10
128.1301239759634
 20
411.7288133107610
 30
0.0000000000000000
 41
2.000000000000000
 42
2.000000000000000
 43
2.000000000000000
 50
360.0000000000000
  0
INSERT
  5
103
100
AcDbEntity
  8
MAIN0
  6
BYBLOCK
 62
0
100
AcDbBlockReference
  2
_OPEN
 10
100.6301239759673
 20
411.7288133107610
 30
0.0000000000000000
 41
2.000000000000000
 42
2.000000000000000
 43
2.000000000000000
 50
180.0000000000000
  0
LINE
  5
104
100
AcDbEntity
  8
MAIN0
  6
BYBLOCK
 62
0
100
AcDbLine
 10
100.6301239759673
 20
395.9288133226820
 30
0.0000000000000000
 11
100.6301239759673
 21
413.7288133107610
 31
0.0000000000000000
  0
MTEXT
  5
105
100
AcDbEntity
  8
MAIN0
  6
BYBLOCK
 62
0
100
AcDbMText
 10
114.3801239759653
 20
413.7788132630773
 30
0.0000000000000000
 40
3.099999904632568
 41
0.0000000000000000
 71
     5
 72
     1
  1
\A1;27.5
 11
1.000000000000000
 21
0.0000000000000000
 31
0.0000000000000000
  7
STANDARD
  0
ENDBLK
  5
106
100
AcDbEntity
  8
MAIN0
  6
CONTINUOUS
 62
3
100
AcDbBlockEnd
  0
BLOCK
  5
108
100
AcDbEntity
  8
MAIN0
  6
CONTINUOUS
 62
1
100
AcDbBlockBegin
  2
*D11
 70
    65
 10
0.0
 20
0.0
 30
0.0
  0
LINE
  5
109
100
AcDbEntity
  8
MAIN0
  6
BYBLOCK
 62
0
100
AcDbLine
 10
572.7626896052786
 20
431.9288133226820
 30
0.0000000000000000
 11
572.7626896052786
 21
456.2288133107610
 31
0.0000000000000000
  0
LINE
  5
10A
100
AcDbEntity
  8
MAIN0
  6
BYBLOCK
 62
0
100
AcDbLine
 10
570.7626896052786
 20
454.2288133107610
 30
0.0000000000000000
 11
440.7626896052786
 21
454.2288133107610
 31
0.0000000000000000
  0
INSERT
  5
10B
100
AcDbEntity
  8
MAIN0
  6
BYBLOCK
 62
0
100
AcDbBlockReference
  2
_OPEN
 10
572.7626896052786
 20
454.2288133107610
 30
0.0000000000000000
 41
2.000000000000000
 42
2.000000000000000
 43
2.000000000000000
 50
360.0000000000000
  0
INSERT
  5
10C
100
AcDbEntity
  8
MAIN0
  6
BYBLOCK
 62
0
100
AcDbBlockReference
  2
_OPEN
 10
438.7626896052786
 20
454.2288133107610
 30
0.0000000000000000
 41
2.000000000000000
 42
2.000000000000000
 43
2.000000000000000
 50
180.0000000000000
  0
LINE
  5
10D
100
AcDbEntity
  8
MAIN0
  6
BYBLOCK
 62
0
100
AcDbLine
 10
438.7626896052786
 20
431.9288133226820
 30
0.0000000000000000
 11
438.7626896052786
 21
456.2288133107610
 31
0.0000000000000000
  0
MTEXT
  5
10E
100
AcDbEntity
  8
MAIN0
  6
BYBLOCK
 62
0
100
AcDbMText
 10
505.7626896052786
 20
456.2788132630773
 30
0.0000000000000000
 40
3.099999904632568
 41
0.0000000000000000
 71
     5
 72
     1
  1
\A1;240
 11
1.000000000000000
 21
0.0000000000000000
 31
0.0000000000000000
  7
STANDARD
  0
ENDBLK
  5
10F
100
AcDbEntity
  8
MAIN0
  6
CONTINUOUS
 62
1
100
AcDbBlockEnd
  0
BLOCK
  5
111
100
AcDbEntity
  8
MAIN0
  6
CONTINUOUS
 62
1
100
AcDbBlockBegin
  2
*D12
 70
    65
 10
0.0
 20
0.0
 30
0.0
  0
LINE
  5
112
100
AcDbEntity
  8
MAIN0
  6
BYBLOCK
 62
0
100
AcDbLine
 10
393.7626896052358
 20
411.5288132988401
 30
0.0000000000000000
 11
393.7626896052358
 21
397.2288133107610
 31
0.0000000000000000
  0
LINE
  5
113
100
AcDbEntity
  8
MAIN0
  6
BYBLOCK
 62
0
100
AcDbLine
 10
395.7626896052358
 20
399.2288133107610
 30
0.0000000000000000
 11
503.7626896052786
 21
399.2288133107610
 31
0.0000000000000000
  0
INSERT
  5
114
100
AcDbEntity
  8
MAIN0
  6
BYBLOCK
 62
0
100
AcDbBlockReference
  2
_OPEN
 10
393.7626896052358
 20
399.2288133107610
 30
0.0000000000000000
 41
2.000000000000000
 42
2.000000000000000
 43
2.000000000000000
 50
180.0000000000000
  0
INSERT
  5
115
100
AcDbEntity
  8
MAIN0
  6
BYBLOCK
 62
0
100
AcDbBlockReference
  2
_OPEN
 10
505.7626896052786
 20
399.2288133107610
 30
0.0000000000000000
 41
2.000000000000000
 42
2.000000000000000
 43
2.000000000000000
 50
0.0000000000000000
  0
MTEXT
  5
116
100
AcDbEntity
  8
MAIN0
  6
BYBLOCK
 62
0
100
AcDbMText
 10
449.7626896052572
 20
401.2788132630773
 30
0.0000000000000000
 40
3.099999904632568
 41
0.0000000000000000
 71
     5
 72
     1
  1
\A1;MAX 218
 11
1.000000000000000
 21
0.0000000000000000
 31
0.0000000000000000
  7
STANDARD
  0
ENDBLK
  5
117
100
AcDbEntity
  8
MAIN0
  6
CONTINUOUS
 62
1
100
AcDbBlockEnd
  0
BLOCK
  5
119
100
AcDbEntity
  8
MAIN0
  6
CONTINUOUS
 62
3
100
AcDbBlockBegin
  2
*D13
 70
    65
 10
0.0
 20
0.0
 30
0.0
  0
LINE
  5
11A
100
AcDbEntity
  8
MAIN0
  6
BYBLOCK
 62
0
100
AcDbLine
 10
448.7626896052786
 20
431.9288133226820
 30
0.0000000000000000
 11
448.7626896052786
 21
446.2288133107610
 31
0.0000000000000000
  0
LINE
  5
11B
100
AcDbEntity
  8
MAIN0
  6
BYBLOCK
 62
0
100
AcDbLine
 10
446.7626896052786
 20
444.2288133107610
 30
0.0000000000000000
 11
440.7626896052786
 21
444.2288133107610
 31
0.0000000000000000
  0
INSERT
  5
11C
100
AcDbEntity
  8
MAIN0
  6
BYBLOCK
 62
0
100
AcDbBlockReference
  2
_OPEN
 10
448.7626896052786
 20
444.2288133107610
 30
0.0000000000000000
 41
2.000000000000000
 42
2.000000000000000
 43
2.000000000000000
 50
360.0000000000000
  0
INSERT
  5
11D
100
AcDbEntity
  8
MAIN0
  6
BYBLOCK
 62
0
100
AcDbBlockReference
  2
_OPEN
 10
438.7626896052786
 20
444.2288133107610
 30
0.0000000000000000
 41
2.000000000000000
 42
2.000000000000000
 43
2.000000000000000
 50
180.0000000000000
  0
LINE
  5
11E
100
AcDbEntity
  8
MAIN0
  6
BYBLOCK
 62
0
100
AcDbLine
 10
438.7626896052786
 20
431.9288133226820
 30
0.0000000000000000
 11
438.7626896052786
 21
446.2288133107610
 31
0.0000000000000000
  0
MTEXT
  5
11F
100
AcDbEntity
  8
MAIN0
  6
BYBLOCK
 62
0
100
AcDbMText
 10
443.7626896052786
 20
446.2788132630773
 30
0.0000000000000000
 40
3.099999904632568
 41
0.0000000000000000
 71
     5
 72
     1
  1
\A1;10
 11
1.000000000000000
 21
0.0000000000000000
 31
0.0000000000000000
  7
STANDARD
  0
ENDBLK
  5
120
100
AcDbEntity
  8
MAIN0
  6
CONTINUOUS
 62
3
100
AcDbBlockEnd
  0
BLOCK
  5
122
100
AcDbEntity
  8
MAIN0
  6
CONTINUOUS
 62
3
100
AcDbBlockBegin
  2
*D14
 70
    65
 10
0.0
 20
0.0
 30
0.0
  0
LINE
  5
123
100
AcDbEntity
  8
MAIN0
  6
BYBLOCK
 62
0
100
AcDbLine
 10
438.5626895933577
 20
431.7288133107610
 30
0.0000000000000000
 11
428.7626896052786
 21
431.7288133107610
 31
0.0000000000000000
  0
LINE
  5
124
100
AcDbEntity
  8
MAIN0
  6
BYBLOCK
 62
0
100
AcDbLine
 10
430.7626896052786
 20
429.7288133107610
 30
0.0000000000000000
 11
430.7626896052786
 21
413.7288133107610
 31
0.0000000000000000
  0
INSERT
  5
125
100
AcDbEntity
  8
MAIN0
  6
BYBLOCK
 62
0
100
AcDbBlockReference
  2
_OPEN
 10
430.7626896052786
 20
431.7288133107610
 30
0.0000000000000000
 41
2.000000000000000
 42
2.000000000000000
 43
2.000000000000000
 50
90.00000000000000
  0
INSERT
  5
126
100
AcDbEntity
  8
MAIN0
  6
BYBLOCK
 62
0
100
AcDbBlockReference
  2
_OPEN
 10
430.7626896052786
 20
411.7288133107610
 30
0.0000000000000000
 41
2.000000000000000
 42
2.000000000000000
 43
2.000000000000000
 50
270.0000000000000
  0
LINE
  5
127
100
AcDbEntity
  8
MAIN0
  6
BYBLOCK
 62
0
100
AcDbLine
 10
438.5626895933577
 20
411.7288133107610
 30
0.0000000000000000
 11
428.7626896052786
 21
411.7288133107610
 31
0.0000000000000000
  0
MTEXT
  5
128
100
AcDbEntity
  8
MAIN0
  6
BYBLOCK
 62
0
100
AcDbMText
 10
428.7126896529623
 20
421.7288133107610
 30
0.0000000000000000
 40
3.099999904632568
 41
0.0000000000000000
 71
     5
 72
     1
  1
\A1;\U+220520
 11
6.123233995736766e-017
 21
1.000000000000000
 31
0.0000000000000000
  7
STANDARD
  0
ENDBLK
  5
129
100
AcDbEntity
  8
MAIN0
  6
CONTINUOUS
 62
3
100
AcDbBlockEnd
  0
BLOCK
  5
12B
100
AcDbEntity
  8
MAIN0
  6
CONTINUOUS
 62
3
100
AcDbBlockBegin
  2
*D15
 70
    65
 10
0.0
 20
0.0
 30
0.0
  0
LINE
  5
12C
100
AcDbEntity
  8
MAIN0
  6
BYBLOCK
 62
0
100
AcDbLine
 10
538.2626896052786
 20
423.7288133107610
 30
0.0000000000000000
 11
538.2626896052786
 21
432.7288133107610
 31
0.0000000000000000
  0
INSERT
  5
12D
100
AcDbEntity
  8
MAIN0
  6
BYBLOCK
 62
0
100
AcDbBlockReference
  2
_OPEN
 10
538.2626896052786
 20
421.7288133107610
 30
0.0000000000000000
 41
2.000000000000000
 42
2.000000000000000
 43
2.000000000000000
 50
270.0000000000000
  0
INSERT
  5
12E
100
AcDbEntity
  8
MAIN0
  6
BYBLOCK
 62
0
100
AcDbBlockReference
  2
_OPEN
 10
538.2626896052786
 20
434.7288133107610
 30
0.0000000000000000
 41
2.000000000000000
 42
2.000000000000000
 43
2.000000000000000
 50
90.00000000000000
  0
LINE
  5
12F
100
AcDbEntity
  8
MAIN0
  6
BYBLOCK
 62
0
100
AcDbLine
 10
538.2626896052786
 20
434.7288133107610
 30
0.0000000000000000
 11
538.2626896052786
 21
441.3288132153936
 31
0.0000000000000000
  0
LINE
  5
130
100
AcDbEntity
  8
MAIN0
  6
BYBLOCK
 62
0
100
AcDbLine
 10
516.5626896171494
 20
434.7288133107610
 30
0.0000000000000000
 11
540.2626896052786
 21
434.7288133107610
 31
0.0000000000000000
  0
MTEXT
  5
131
100
AcDbEntity
  8
MAIN0
  6
BYBLOCK
 62
0
100
AcDbMText
 10
536.2126896529624
 20
439.2288133107610
 30
0.0000000000000000
 40
3.099999904632568
 41
0.0000000000000000
 71
     5
 72
     1
  1
\A1;13
 11
6.123233995736766e-017
 21
1.000000000000000
 31
0.0000000000000000
  7
STANDARD
  0
ENDBLK
  5
132
100
AcDbEntity
  8
MAIN0
  6
CONTINUOUS
 62
3
100
AcDbBlockEnd
  0
BLOCK
  5
134
100
AcDbEntity
  8
MAIN0
  6
CONTINUOUS
 62
3
100
AcDbBlockBegin
  2
*D16
 70
    65
 10
0.0
 20
0.0
 30
0.0
  0
LINE
  5
135
100
AcDbEntity
  8
MAIN0
  6
BYBLOCK
 62
0
100
AcDbLine
 10
177.6301239760465
 20
329.2288133107610
 30
0.0000000000000000
 11
215.6301239760127
 21
329.2288133107610
 31
0.0000000000000000
  0
INSERT
  5
136
100
AcDbEntity
  8
MAIN0
  6
BYBLOCK
 62
0
100
AcDbBlockReference
  2
_OPEN
 10
175.6301239760465
 20
329.2288133107610
 30
0.0000000000000000
 41
2.000000000000000
 42
2.000000000000000
 43
2.000000000000000
 50
180.0000000000000
  0
INSERT
  5
137
100
AcDbEntity
  8
MAIN0
  6
BYBLOCK
 62
0
100
AcDbBlockReference
  2
_OPEN
 10
217.6301239760127
 20
329.2288133107610
 30
0.0000000000000000
 41
2.000000000000000
 42
2.000000000000000
 43
2.000000000000000
 50
0.0000000000000000
  0
LINE
  5
138
100
AcDbEntity
  8
MAIN0
  6
BYBLOCK
 62
0
100
AcDbLine
 10
217.6301239760018
 20
316.1288133226819
 30
0.0000000000000000
 11
217.6301239760144
 21
331.2288133107610
 31
0.0000000000000000
  0
MTEXT
  5
139
100
AcDbEntity
  8
MAIN0
  6
BYBLOCK
 62
0
100
AcDbMText
 10
196.6301239760296
 20
331.2788132630773
 30
0.0000000000000000
 40
3.099999904632568
 41
0.0000000000000000
 71
     5
 72
     1
  1
\A1;42
 11
1.000000000000000
 21
0.0000000000000000
 31
0.0000000000000000
  7
STANDARD
  0
ENDBLK
  5
13A
100
AcDbEntity
  8
MAIN0
  6
CONTINUOUS
 62
3
100
AcDbBlockEnd
  0
BLOCK
  5
193
100
AcDbEntity
  8
MAIN0
  6
CONTINUOUS
 62
3
100
AcDbBlockBegin
  2
*D17
 70
    65
 10
0.0
 20
0.0
 30
0.0
  0
LINE
  5
194
100
AcDbEntity
  8
MAIN0
  6
BYBLOCK
 62
0
100
AcDbLine
 10
117.8301239640743
 20
329.2288133107610
 30
0.0000000000000000
 11
83.76268960527858
 21
329.2288133107610
 31
0.0000000000000000
  0
LINE
  5
195
100
AcDbEntity
  8
MAIN0
  6
BYBLOCK
 62
0
100
AcDbLine
 10
85.76268960527858
 20
327.2288133107610
 30
0.0000000000000000
 11
85.76268960527858
 21
276.2288133107610
 31
0.0000000000000000
  0
INSERT
  5
196
100
AcDbEntity
  8
MAIN0
  6
BYBLOCK
 62
0
100
AcDbBlockReference
  2
_OPEN
 10
85.76268960527858
 20
329.2288133107610
 30
0.0000000000000000
 41
2.000000000000000
 42
2.000000000000000
 43
2.000000000000000
 50
90.00000000000000
  0
INSERT
  5
197
100
AcDbEntity
  8
MAIN0
  6
BYBLOCK
 62
0
100
AcDbBlockReference
  2
_OPEN
 10
85.76268960527858
 20
274.2288133107610
 30
0.0000000000000000
 41
2.000000000000000
 42
2.000000000000000
 43
2.000000000000000
 50
270.0000000000000
  0
LINE
  5
198
100
AcDbEntity
  8
MAIN0
  6
BYBLOCK
 62
0
100
AcDbLine
 10
117.8301239640977
 20
274.2288133107610
 30
0.0000000000000000
 11
83.76268960527858
 21
274.2288133107610
 31
0.0000000000000000
  0
MTEXT
  5
199
100
AcDbEntity
  8
MAIN0
  6
BYBLOCK
 62
0
100
AcDbMText
 10
83.71268965296230
 20
300.7136434534305
 30
0.0000000000000000
 40
3.099999904632568
 41
0.0000000000000000
 71
     5
 72
     1
  1
\A1;\U+220555
 11
6.123233995736766e-017
 21
1.000000000000000
 31
0.0000000000000000
  7
STANDARD
  0
ENDBLK
  5
19A
100
AcDbEntity
  8
MAIN0
  6
CONTINUOUS
 62
3
100
AcDbBlockEnd
  0
BLOCK
  5
1A7
100
AcDbEntity
  8
MAIN0
  6
CONTINUOUS
 62
3
100
AcDbBlockBegin
  2
*D18
 70
    65
 10
0.0
 20
0.0
 30
0.0
  0
LINE
  5
1A8
100
AcDbEntity
  8
MAIN0
  6
BYBLOCK
 62
0
100
AcDbLine
 10
128.1176348168753
 20
443.9631278773812
 30
0.0000000000000000
 11
136.9715330567595
 21
435.1092296374962
 31
0.0000000000000000
  0
LINE
  5
1A9
100
AcDbEntity
  8
MAIN0
  6
BYBLOCK
 62
0
100
AcDbLine
 10
136.9715330567597
 20
437.9376567622425
 30
0.0000000000000000
 11
141.9212805250656
 21
442.8874042305481
 31
0.0000000000000000
  0
INSERT
  5
1AA
100
AcDbEntity
  8
MAIN0
  6
BYBLOCK
 62
0
100
AcDbBlockReference
  2
_OPEN
 10
135.5573194943865
 20
436.5234431998694
 30
0.0000000000000000
 41
2.000000000000000
 42
2.000000000000000
 43
2.000000000000000
 50
224.9999999999980
  0
INSERT
  5
1AB
100
AcDbEntity
  8
MAIN0
  6
BYBLOCK
 62
0
100
AcDbBlockReference
  2
_OPEN
 10
143.3354940874388
 20
444.3016177929212
 30
0.0000000000000000
 41
2.000000000000000
 42
2.000000000000000
 43
2.000000000000000
 50
44.99999999999803
  0
LINE
  5
1AC
100
AcDbEntity
  8
MAIN0
  6
BYBLOCK
 62
0
100
AcDbLine
 10
143.3354940874388
 20
444.3016177929212
 30
0.0000000000000000
 11
154.7499976175747
 21
455.7161213230563
 31
0.0000000000000000
  0
LINE
  5
1AD
100
AcDbEntity
  8
MAIN0
  6
BYBLOCK
 62
0
100
AcDbLine
 10
135.8958094093214
 20
451.7413024710390
 30
0.0000000000000000
 11
144.7497076498118
 21
442.8874042305480
 31
0.0000000000000000
  0
MTEXT
  5
1AE
100
AcDbEntity
  8
MAIN0
  6
BYBLOCK
 62
0
100
AcDbMText
 10
148.0148054907371
 20
451.8800669316487
 30
0.0000000000000000
 40
3.099999904632568
 41
0.0000000000000000
 71
     5
 72
     1
  1
\A1;□11\H0.903226x;\S＋0.15^ ＋0.05;
 11
0.7071067811865720
 21
0.7071067811865230
 31
0.0000000000000000
  7
KNJYOKO
  0
ENDBLK
  5
1AF
100
AcDbEntity
  8
MAIN0
  6
CONTINUOUS
 62
3
100
AcDbBlockEnd
  0
BLOCK
  5
1BC
100
AcDbEntity
  8
MAIN0
  6
CONTINUOUS
 62
3
100
AcDbBlockBegin
  2
*D19
 70
    65
 10
0.0
 20
0.0
 30
0.0
  0
LINE
  5
1BD
100
AcDbEntity
  8
MAIN0
  6
BYBLOCK
 62
0
100
AcDbLine
 10
99.83012396411897
 20
224.2288133107610
 30
0.0000000000000000
 11
68.76268960527858
 21
224.2288133107610
 31
0.0000000000000000
  0
LINE
  5
1BE
100
AcDbEntity
  8
MAIN0
  6
BYBLOCK
 62
0
100
AcDbLine
 10
70.76268960527858
 20
226.2288133107610
 30
0.0000000000000000
 11
70.76268960527858
 21
377.2288133107610
 31
0.0000000000000000
  0
INSERT
  5
1BF
100
AcDbEntity
  8
MAIN0
  6
BYBLOCK
 62
0
100
AcDbBlockReference
  2
_OPEN
 10
70.76268960527858
 20
224.2288133107610
 30
0.0000000000000000
 41
2.000000000000000
 42
2.000000000000000
 43
2.000000000000000
 50
270.0000000000000
  0
INSERT
  5
1C0
100
AcDbEntity
  8
MAIN0
  6
BYBLOCK
 62
0
100
AcDbBlockReference
  2
_OPEN
 10
70.76268960527858
 20
379.2288133107610
 30
0.0000000000000000
 41
2.000000000000000
 42
2.000000000000000
 43
2.000000000000000
 50
90.00000000000000
  0
LINE
  5
1C1
100
AcDbEntity
  8
MAIN0
  6
BYBLOCK
 62
0
100
AcDbLine
 10
99.83012396405303
 20
379.2288133107610
 30
0.0000000000000000
 11
68.76268960527858
 21
379.2288133107610
 31
0.0000000000000000
  0
MTEXT
  5
1C2
100
AcDbEntity
  8
MAIN0
  6
BYBLOCK
 62
0
100
AcDbMText
 10
68.71268965296230
 20
308.5883103172639
 30
0.0000000000000000
 40
3.099999904632568
 41
0.0000000000000000
 71
     5
 72
     1
  1
\A1;\U+2205155H6\H0.903226x;\S＋0.025^ 　0;
 11
6.123233995736766e-017
 21
1.000000000000000
 31
0.0000000000000000
  7
KNJYOKO
  0
ENDBLK
  5
1C3
100
AcDbEntity
  8
MAIN0
  6
CONTINUOUS
 62
3
100
AcDbBlockEnd
  0
BLOCK
  5
1C5
100
AcDbEntity
  8
MAIN0
  6
CONTINUOUS
 62
3
100
AcDbBlockBegin
  2
*D20
 70
    65
 10
0.0
 20
0.0
 30
0.0
  0
LINE
  5
1C6
100
AcDbEntity
  8
MAIN0
  6
BYBLOCK
 62
0
100
AcDbLine
 10
101.4301239640456
 20
396.7288133107610
 30
0.0000000000000000
 11
53.76268960527858
 21
396.7288133107610
 31
0.0000000000000000
  0
LINE
  5
1C7
100
AcDbEntity
  8
MAIN0
  6
BYBLOCK
 62
0
100
AcDbLine
 10
55.76268960527858
 20
394.7288133107610
 30
0.0000000000000000
 11
55.76268960527858
 21
208.7288133107610
 31
0.0000000000000000
  0
INSERT
  5
1C8
100
AcDbEntity
  8
MAIN0
  6
BYBLOCK
 62
0
100
AcDbBlockReference
  2
_OPEN
 10
55.76268960527858
 20
396.7288133107610
 30
0.0000000000000000
 41
2.000000000000000
 42
2.000000000000000
 43
2.000000000000000
 50
90.00000000000000
  0
INSERT
  5
1C9
100
AcDbEntity
  8
MAIN0
  6
BYBLOCK
 62
0
100
AcDbBlockReference
  2
_OPEN
 10
55.76268960527858
 20
206.7288133107610
 30
0.0000000000000000
 41
2.000000000000000
 42
2.000000000000000
 43
2.000000000000000
 50
270.0000000000000
  0
LINE
  5
1CA
100
AcDbEntity
  8
MAIN0
  6
BYBLOCK
 62
0
100
AcDbLine
 10
101.4301239641265
 20
206.7288133107610
 30
0.0000000000000000
 11
53.76268960527858
 21
206.7288133107610
 31
0.0000000000000000
  0
MTEXT
  5
1CB
100
AcDbEntity
  8
MAIN0
  6
BYBLOCK
 62
0
100
AcDbMText
 10
53.71268965296230
 20
301.7288133107610
 30
0.0000000000000000
 40
3.099999904632568
 41
0.0000000000000000
 71
     5
 72
     1
  1
\A1;\U+2205190
 11
6.123233995736766e-017
 21
1.000000000000000
 31
0.0000000000000000
  7
STANDARD
  0
ENDBLK
  5
1CC
100
AcDbEntity
  8
MAIN0
  6
CONTINUOUS
 62
3
100
AcDbBlockEnd
  0
BLOCK
  5
1CE
100
AcDbEntity
  8
MAIN0
  6
CONTINUOUS
 62
3
100
AcDbBlockBegin
  2
*D21
 70
    65
 10
0.0
 20
0.0
 30
0.0
  0
LINE
  5
1CF
100
AcDbEntity
  8
MAIN0
  6
BYBLOCK
 62
0
100
AcDbLine
 10
100.6301239759673
 20
395.9288133226820
 30
0.0000000000000000
 11
100.6301239759675
 21
423.7288133107610
 31
0.0000000000000000
  0
LINE
  5
1D0
100
AcDbEntity
  8
MAIN0
  6
BYBLOCK
 62
0
100
AcDbLine
 10
102.6301239759675
 20
421.7288133107610
 30
0.0000000000000000
 11
173.6301239760160
 21
421.7288133107610
 31
0.0000000000000000
  0
INSERT
  5
1D1
100
AcDbEntity
  8
MAIN0
  6
BYBLOCK
 62
0
100
AcDbBlockReference
  2
_OPEN
 10
100.6301239759675
 20
421.7288133107610
 30
0.0000000000000000
 41
2.000000000000000
 42
2.000000000000000
 43
2.000000000000000
 50
180.0000000000000
  0
INSERT
  5
1D2
100
AcDbEntity
  8
MAIN0
  6
BYBLOCK
 62
0
100
AcDbBlockReference
  2
_OPEN
 10
175.6301239760160
 20
421.7288133107610
 30
0.0000000000000000
 41
2.000000000000000
 42
2.000000000000000
 43
2.000000000000000
 50
0.0000000000000000
  0
LINE
  5
1D3
100
AcDbEntity
  8
MAIN0
  6
BYBLOCK
 62
0
100
AcDbLine
 10
175.6301239760160
 20
395.9288133226331
 30
0.0000000000000000
 11
175.6301239760160
 21
423.7288133107610
 31
0.0000000000000000
  0
MTEXT
  5
1D4
100
AcDbEntity
  8
MAIN0
  6
BYBLOCK
 62
0
100
AcDbMText
 10
138.1301239759918
 20
423.7788132630773
 30
0.0000000000000000
 40
3.099999904632568
 41
0.0000000000000000
 71
     5
 72
     1
  1
\A1;75
 11
1.000000000000000
 21
0.0000000000000000
 31
0.0000000000000000
  7
STANDARD
  0
ENDBLK
  5
1D5
100
AcDbEntity
  8
MAIN0
  6
CONTINUOUS
 62
3
100
AcDbBlockEnd
  0
BLOCK
  5
1DB
100
AcDbEntity
  8
MAIN0
  6
CONTINUOUS
 62
3
100
AcDbBlockBegin
  2
*D22
 70
    65
 10
0.0
 20
0.0
 30
0.0
  0
LINE
  5
1DC
100
AcDbEntity
  8
MAIN0
  6
BYBLOCK
 62
0
100
AcDbLine
 10
100.2301239640473
 20
392.7288133107610
 30
0.0000000000000000
 11
83.76268960527858
 21
392.7288133107610
 31
0.0000000000000000
  0
LINE
  5
1DD
100
AcDbEntity
  8
MAIN0
  6
BYBLOCK
 62
0
100
AcDbLine
 10
85.76268960527858
 20
390.7288133107610
 30
0.0000000000000000
 11
85.76268960527858
 21
382.7288133107610
 31
0.0000000000000000
  0
INSERT
  5
1DE
100
AcDbEntity
  8
MAIN0
  6
BYBLOCK
 62
0
100
AcDbBlockReference
  2
_OPEN
 10
85.76268960527858
 20
392.7288133107610
 30
0.0000000000000000
 41
2.000000000000000
 42
2.000000000000000
 43
2.000000000000000
 50
90.00000000000000
  0
INSERT
  5
1DF
100
AcDbEntity
  8
MAIN0
  6
BYBLOCK
 62
0
100
AcDbBlockReference
  2
_OPEN
 10
85.76268960527858
 20
380.7288133107610
 30
0.0000000000000000
 41
2.000000000000000
 42
2.000000000000000
 43
2.000000000000000
 50
270.0000000000000
  0
LINE
  5
1E0
100
AcDbEntity
  8
MAIN0
  6
BYBLOCK
 62
0
100
AcDbLine
 10
100.2301239640524
 20
380.7288133107610
 30
0.0000000000000000
 11
83.76268960527858
 21
380.7288133107610
 31
0.0000000000000000
  0
MTEXT
  5
1E1
100
AcDbEntity
  8
MAIN0
  6
BYBLOCK
 62
0
100
AcDbMText
 10
83.71268965296230
 20
386.7288133107610
 30
0.0000000000000000
 40
3.099999904632568
 41
0.0000000000000000
 71
     5
 72
     1
  1
\A1;\U+220512
 11
6.123233995736766e-017
 21
1.000000000000000
 31
0.0000000000000000
  7
STANDARD
  0
ENDBLK
  5
1E2
100
AcDbEntity
  8
MAIN0
  6
CONTINUOUS
 62
3
100
AcDbBlockEnd
  0
BLOCK
  5
1E4
100
AcDbEntity
  8
MAIN0
  6
CONTINUOUS
 62
3
100
AcDbBlockBegin
  2
*D23
 70
    65
 10
0.0
 20
0.0
 30
0.0
  0
LINE
  5
1E5
100
AcDbEntity
  8
MAIN0
  6
BYBLOCK
 62
0
100
AcDbLine
 10
175.8301239879369
 20
395.2288133107610
 30
0.0000000000000000
 11
192.7626896052786
 21
395.2288133107610
 31
0.0000000000000000
  0
LINE
  5
1E6
100
AcDbEntity
  8
MAIN0
  6
BYBLOCK
 62
0
100
AcDbLine
 10
190.7626896052786
 20
393.2288133107610
 30
0.0000000000000000
 11
190.7626896052786
 21
380.2288133107610
 31
0.0000000000000000
  0
INSERT
  5
1E7
100
AcDbEntity
  8
MAIN0
  6
BYBLOCK
 62
0
100
AcDbBlockReference
  2
_OPEN
 10
190.7626896052786
 20
395.2288133107610
 30
0.0000000000000000
 41
2.000000000000000
 42
2.000000000000000
 43
2.000000000000000
 50
90.00000000000000
  0
INSERT
  5
1E8
100
AcDbEntity
  8
MAIN0
  6
BYBLOCK
 62
0
100
AcDbBlockReference
  2
_OPEN
 10
190.7626896052786
 20
378.2288133107610
 30
0.0000000000000000
 41
2.000000000000000
 42
2.000000000000000
 43
2.000000000000000
 50
270.0000000000000
  0
LINE
  5
1E9
100
AcDbEntity
  8
MAIN0
  6
BYBLOCK
 62
0
100
AcDbLine
 10
175.8301239879369
 20
378.2288133107610
 30
0.0000000000000000
 11
192.7626896052786
 21
378.2288133107610
 31
0.0000000000000000
  0
MTEXT
  5
1EA
100
AcDbEntity
  8
MAIN0
  6
BYBLOCK
 62
0
100
AcDbMText
 10
188.7126896529623
 20
386.7288133107610
 30
0.0000000000000000
 40
3.099999904632568
 41
0.0000000000000000
 71
     5
 72
     1
  1
\A1;\U+220517
 11
6.123233995736766e-017
 21
1.000000000000000
 31
0.0000000000000000
  7
STANDARD
  0
ENDBLK
  5
1EB
100
AcDbEntity
  8
MAIN0
  6
CONTINUOUS
 62
3
100
AcDbBlockEnd
  0
BLOCK
  5
1ED
100
AcDbEntity
  8
MAIN0
  6
CONTINUOUS
 62
3
100
AcDbBlockBegin
  2
*D24
 70
    65
 10
0.0
 20
0.0
 30
0.0
  0
LINE
  5
1EE
100
AcDbEntity
  8
MAIN0
  6
BYBLOCK
 62
0
100
AcDbLine
 10
163.6301239760160
 20
396.0288133226819
 30
0.0000000000000000
 11
163.6301239760163
 21
403.7288133107610
 31
0.0000000000000000
  0
LINE
  5
1EF
100
AcDbEntity
  8
MAIN0
  6
BYBLOCK
 62
0
100
AcDbLine
 10
165.6301239760162
 20
401.7288133107610
 30
0.0000000000000000
 11
173.6301239760160
 21
401.7288133107610
 31
0.0000000000000000
  0
INSERT
  5
1F0
100
AcDbEntity
  8
MAIN0
  6
BYBLOCK
 62
0
100
AcDbBlockReference
  2
_OPEN
 10
163.6301239760162
 20
401.7288133107610
 30
0.0000000000000000
 41
2.000000000000000
 42
2.000000000000000
 43
2.000000000000000
 50
180.0000000000000
  0
INSERT
  5
1F1
100
AcDbEntity
  8
MAIN0
  6
BYBLOCK
 62
0
100
AcDbBlockReference
  2
_OPEN
 10
175.6301239760160
 20
401.7288133107610
 30
0.0000000000000000
 41
2.000000000000000
 42
2.000000000000000
 43
2.000000000000000
 50
0.0000000000000000
  0
LINE
  5
1F2
100
AcDbEntity
  8
MAIN0
  6
BYBLOCK
 62
0
100
AcDbLine
 10
175.6301239760160
 20
395.9288133226331
 30
0.0000000000000000
 11
175.6301239760160
 21
403.7288133107610
 31
0.0000000000000000
  0
MTEXT
  5
1F3
100
AcDbEntity
  8
MAIN0
  6
BYBLOCK
 62
0
100
AcDbMText
 10
169.4795397899912
 20
403.7788132630773
 30
0.0000000000000000
 40
3.099999904632568
 41
0.0000000000000000
 71
     5
 72
     1
  1
\A1;12
 11
1.000000000000000
 21
0.0000000000000000
 31
0.0000000000000000
  7
STANDARD
  0
ENDBLK
  5
1F4
100
AcDbEntity
  8
MAIN0
  6
CONTINUOUS
 62
3
100
AcDbBlockEnd
  0
BLOCK
  5
1F6
100
AcDbEntity
  8
MAIN0
  6
CONTINUOUS
 62
3
100
AcDbBlockBegin
  2
*D25
 70
    65
 10
0.0
 20
0.0
 30
0.0
  0
LINE
  5
1F7
100
AcDbEntity
  8
MAIN0
  6
BYBLOCK
 62
0
100
AcDbLine
 10
100.6301239760398
 20
246.7288133107610
 30
0.0000000000000000
 11
105.6301239760399
 21
246.7288133107610
 31
0.0000000000000000
  0
INSERT
  5
1F8
100
AcDbEntity
  8
MAIN0
  6
BYBLOCK
 62
0
100
AcDbBlockReference
  2
_OPEN
 10
100.6301239760398
 20
246.7288133107610
 30
0.0000000000000000
 41
2.000000000000000
 42
2.000000000000000
 43
2.000000000000000
 50
0.0000000000000000
  0
INSERT
  5
1F9
100
AcDbEntity
  8
MAIN0
  6
BYBLOCK
 62
0
100
AcDbBlockReference
  2
_OPEN
 10
105.6301239760399
 20
246.7288133107610
 30
0.0000000000000000
 41
2.000000000000000
 42
2.000000000000000
 43
2.000000000000000
 50
180.0000000000000
  0
LINE
  5
1FA
100
AcDbEntity
  8
MAIN0
  6
BYBLOCK
 62
0
100
AcDbLine
 10
98.63012397603984
 20
246.7288133107610
 30
0.0000000000000000
 11
94.84473646001811
 21
246.7288133107610
 31
0.0000000000000000
  0
LINE
  5
1FB
100
AcDbEntity
  8
MAIN0
  6
BYBLOCK
 62
0
100
AcDbLine
 10
107.6301239760399
 20
246.7288133107610
 30
0.0000000000000000
 11
108.6301239760399
 21
246.7288133107610
 31
0.0000000000000000
  0
MTEXT
  5
1FC
100
AcDbEntity
  8
MAIN0
  6
BYBLOCK
 62
0
100
AcDbMText
 10
95.89473649029645
 20
248.7788132630773
 30
0.0000000000000000
 40
3.099999904632568
 41
0.0000000000000000
 71
     5
 72
     1
  1
\A1;5
 11
1.000000000000000
 21
0.0000000000000000
 31
0.0000000000000000
  7
STANDARD
  0
ENDBLK
  5
1FD
100
AcDbEntity
  8
MAIN0
  6
CONTINUOUS
 62
3
100
AcDbBlockEnd
  0
BLOCK
  5
248
100
AcDbEntity
  8
MAIN0
  6
BYBLOCK
 62
3
100
AcDbBlockBegin
  2
*X0
 70
     1
 10
0.0
 20
0.0
 30
0.0
  0
LINE
  5
249
100
AcDbEntity
  8
MAIN0
  6
BYBLOCK
 62
0
100
AcDbLine
 10
395.1769031675058
 20
426.7288133107620
 30
0.0000000000000000
 11
393.7626896052375
 21
428.1430268730302
 31
0.0000000000000000
  0
LINE
  5
24A
100
AcDbEntity
  8
MAIN0
  6
BYBLOCK
 62
0
100
AcDbLine
 10
395.0354818091615
 20
426.7288133107615
 30
0.0000000000000000
 11
393.7626896052367
 21
428.0016055146868
 31
0.0000000000000000
  0
LINE
  5
24B
100
AcDbEntity
  8
MAIN0
  6
BYBLOCK
 62
0
100
AcDbLine
 10
394.8940604508152
 20
426.7288133107625
 30
0.0000000000000000
 11
393.7626896052370
 21
427.8601841563411
 31
0.0000000000000000
  0
LINE
  5
24C
100
AcDbEntity
  8
MAIN0
  6
BYBLOCK
 62
0
100
AcDbLine
 10
394.7526390924723
 20
426.7288133107610
 30
0.0000000000000000
 11
393.7626896052357
 21
427.7187627979976
 31
0.0000000000000000
  0
LINE
  5
24D
100
AcDbEntity
  8
MAIN0
  6
BYBLOCK
 62
0
100
AcDbLine
 10
394.6112177341266
 20
426.7288133107614
 30
0.0000000000000000
 11
393.7626896052353
 21
427.5773414396532
 31
0.0000000000000000
  0
LINE
  5
24E
100
AcDbEntity
  8
MAIN0
  6
BYBLOCK
 62
0
100
AcDbLine
 10
394.4697963757822
 20
426.7288133107614
 30
0.0000000000000000
 11
393.7626896052353
 21
427.4359200813084
 31
0.0000000000000000
  0
LINE
  5
24F
100
AcDbEntity
  8
MAIN0
  6
BYBLOCK
 62
0
100
AcDbLine
 10
394.3283750174364
 20
426.7288133107624
 30
0.0000000000000000
 11
393.7626896052348
 21
427.2944987229641
 31
0.0000000000000000
  0
LINE
  5
250
100
AcDbEntity
  8
MAIN0
  6
BYBLOCK
 62
0
100
AcDbLine
 10
394.1869536590931
 20
426.7288133107610
 30
0.0000000000000000
 11
393.7626896052362
 21
427.1530773646184
 31
0.0000000000000000
  0
LINE
  5
251
100
AcDbEntity
  8
MAIN0
  6
BYBLOCK
 62
0
100
AcDbLine
 10
394.0455323007482
 20
426.7288133107616
 30
0.0000000000000000
 11
393.7626896052361
 21
427.0116560062726
 31
0.0000000000000000
  0
LINE
  5
252
100
AcDbEntity
  8
MAIN0
  6
BYBLOCK
 62
0
100
AcDbLine
 10
393.9041109424016
 20
426.7288133107624
 30
0.0000000000000000
 11
393.7626896052371
 21
426.8702346479274
 31
0.0000000000000000
  0
ENDBLK
  5
253
100
AcDbEntity
  8
MAIN0
  6
BYBLOCK
 62
3
100
AcDbBlockEnd
  0
BLOCK
  5
255
100
AcDbEntity
  8
MAIN0
  6
BYBLOCK
 62
3
100
AcDbBlockBegin
  2
*X1
 70
     1
 10
0.0
 20
0.0
 30
0.0
  0
LINE
  5
256
100
AcDbEntity
  8
MAIN0
  6
BYBLOCK
 62
0
100
AcDbLine
 10
395.1769031675058
 20
416.7288133107602
 30
0.0000000000000000
 11
393.7626896052375
 21
415.3145997484919
 31
0.0000000000000000
  0
LINE
  5
257
100
AcDbEntity
  8
MAIN0
  6
BYBLOCK
 62
0
100
AcDbLine
 10
395.0354818091615
 20
416.7288133107606
 30
0.0000000000000000
 11
393.7626896052367
 21
415.4560211068353
 31
0.0000000000000000
  0
LINE
  5
258
100
AcDbEntity
  8
MAIN0
  6
BYBLOCK
 62
0
100
AcDbLine
 10
394.8940604508153
 20
416.7288133107597
 30
0.0000000000000000
 11
393.7626896052371
 21
415.5974424651810
 31
0.0000000000000000
  0
LINE
  5
259
100
AcDbEntity
  8
MAIN0
  6
BYBLOCK
 62
0
100
AcDbLine
 10
394.7526390924722
 20
416.7288133107610
 30
0.0000000000000000
 11
393.7626896052357
 21
415.7388638235245
 31
0.0000000000000000
  0
LINE
  5
25A
100
AcDbEntity
  8
MAIN0
  6
BYBLOCK
 62
0
100
AcDbLine
 10
394.6112177341266
 20
416.7288133107606
 30
0.0000000000000000
 11
393.7626896052353
 21
415.8802851818688
 31
0.0000000000000000
  0
LINE
  5
25B
100
AcDbEntity
  8
MAIN0
  6
BYBLOCK
 62
0
100
AcDbLine
 10
394.4697963757822
 20
416.7288133107606
 30
0.0000000000000000
 11
393.7626896052353
 21
416.0217065402137
 31
0.0000000000000000
  0
LINE
  5
25C
100
AcDbEntity
  8
MAIN0
  6
BYBLOCK
 62
0
100
AcDbLine
 10
394.3283750174364
 20
416.7288133107597
 30
0.0000000000000000
 11
393.7626896052348
 21
416.1631278985581
 31
0.0000000000000000
  0
LINE
  5
25D
100
AcDbEntity
  8
MAIN0
  6
BYBLOCK
 62
0
100
AcDbLine
 10
394.1869536590931
 20
416.7288133107611
 30
0.0000000000000000
 11
393.7626896052362
 21
416.3045492569038
 31
0.0000000000000000
  0
LINE
  5
25E
100
AcDbEntity
  8
MAIN0
  6
BYBLOCK
 62
0
100
AcDbLine
 10
394.0455323007482
 20
416.7288133107606
 30
0.0000000000000000
 11
393.7626896052362
 21
416.4459706152495
 31
0.0000000000000000
  0
LINE
  5
25F
100
AcDbEntity
  8
MAIN0
  6
BYBLOCK
 62
0
100
AcDbLine
 10
393.9041109424015
 20
416.7288133107597
 30
0.0000000000000000
 11
393.7626896052369
 21
416.5873919735947
 31
0.0000000000000000
  0
ENDBLK
  5
260
100
AcDbEntity
  8
MAIN0
  6
BYBLOCK
 62
3
100
AcDbBlockEnd
  0
BLOCK
  5
262
100
AcDbEntity
  8
MAIN0
  6
BYBLOCK
 62
3
100
AcDbBlockBegin
  2
*X2
 70
     1
 10
0.0
 20
0.0
 30
0.0
  0
LINE
  5
263
100
AcDbEntity
  8
MAIN0
  6
BYBLOCK
 62
0
100
AcDbLine
 10
526.3484760429657
 20
426.7288133107620
 30
0.0000000000000000
 11
527.7626896052340
 21
428.1430268730303
 31
0.0000000000000000
  0
LINE
  5
264
100
AcDbEntity
  8
MAIN0
  6
BYBLOCK
 62
0
100
AcDbLine
 10
526.4898974013100
 20
426.7288133107614
 30
0.0000000000000000
 11
527.7626896052349
 21
428.0016055146867
 31
0.0000000000000000
  0
LINE
  5
265
100
AcDbEntity
  8
MAIN0
  6
BYBLOCK
 62
0
100
AcDbLine
 10
526.6313187596562
 20
426.7288133107625
 30
0.0000000000000000
 11
527.7626896052344
 21
427.8601841563411
 31
0.0000000000000000
  0
LINE
  5
266
100
AcDbEntity
  8
MAIN0
  6
BYBLOCK
 62
0
100
AcDbLine
 10
526.7727401179991
 20
426.7288133107611
 30
0.0000000000000000
 11
527.7626896052357
 21
427.7187627979977
 31
0.0000000000000000
  0
LINE
  5
267
100
AcDbEntity
  8
MAIN0
  6
BYBLOCK
 62
0
100
AcDbLine
 10
526.9141614763448
 20
426.7288133107614
 30
0.0000000000000000
 11
527.7626896052361
 21
427.5773414396533
 31
0.0000000000000000
  0
LINE
  5
268
100
AcDbEntity
  8
MAIN0
  6
BYBLOCK
 62
0
100
AcDbLine
 10
527.0555828346893
 20
426.7288133107616
 30
0.0000000000000000
 11
527.7626896052362
 21
427.4359200813085
 31
0.0000000000000000
  0
LINE
  5
269
100
AcDbEntity
  8
MAIN0
  6
BYBLOCK
 62
0
100
AcDbLine
 10
527.1970041930350
 20
426.7288133107625
 30
0.0000000000000000
 11
527.7626896052367
 21
427.2944987229641
 31
0.0000000000000000
  0
LINE
  5
26A
100
AcDbEntity
  8
MAIN0
  6
BYBLOCK
 62
0
100
AcDbLine
 10
527.3384255513784
 20
426.7288133107610
 30
0.0000000000000000
 11
527.7626896052352
 21
427.1530773646184
 31
0.0000000000000000
  0
LINE
  5
26B
100
AcDbEntity
  8
MAIN0
  6
BYBLOCK
 62
0
100
AcDbLine
 10
527.4798469097233
 20
426.7288133107616
 30
0.0000000000000000
 11
527.7626896052352
 21
427.0116560062727
 31
0.0000000000000000
  0
LINE
  5
26C
100
AcDbEntity
  8
MAIN0
  6
BYBLOCK
 62
0
100
AcDbLine
 10
527.6212682680699
 20
426.7288133107625
 30
0.0000000000000000
 11
527.7626896052344
 21
426.8702346479275
 31
0.0000000000000000
  0
ENDBLK
  5
26D
100
AcDbEntity
  8
MAIN0
  6
BYBLOCK
 62
3
100
AcDbBlockEnd
  0
BLOCK
  5
26F
100
AcDbEntity
  8
MAIN0
  6
BYBLOCK
 62
3
100
AcDbBlockBegin
  2
*X3
 70
     1
 10
0.0
 20
0.0
 30
0.0
  0
LINE
  5
270
100
AcDbEntity
  8
MAIN0
  6
BYBLOCK
 62
0
100
AcDbLine
 10
526.3484760429658
 20
416.7288133107602
 30
0.0000000000000000
 11
527.7626896052341
 21
415.3145997484919
 31
0.0000000000000000
  0
LINE
  5
271
100
AcDbEntity
  8
MAIN0
  6
BYBLOCK
 62
0
100
AcDbLine
 10
526.4898974013100
 20
416.7288133107606
 30
0.0000000000000000
 11
527.7626896052349
 21
415.4560211068354
 31
0.0000000000000000
  0
LINE
  5
272
100
AcDbEntity
  8
MAIN0
  6
BYBLOCK
 62
0
100
AcDbLine
 10
526.6313187596561
 20
416.7288133107596
 30
0.0000000000000000
 11
527.7626896052343
 21
415.5974424651810
 31
0.0000000000000000
  0
LINE
  5
273
100
AcDbEntity
  8
MAIN0
  6
BYBLOCK
 62
0
100
AcDbLine
 10
526.7727401179992
 20
416.7288133107611
 30
0.0000000000000000
 11
527.7626896052358
 21
415.7388638235246
 31
0.0000000000000000
  0
LINE
  5
274
100
AcDbEntity
  8
MAIN0
  6
BYBLOCK
 62
0
100
AcDbLine
 10
526.9141614763448
 20
416.7288133107605
 30
0.0000000000000000
 11
527.7626896052361
 21
415.8802851818688
 31
0.0000000000000000
  0
LINE
  5
275
100
AcDbEntity
  8
MAIN0
  6
BYBLOCK
 62
0
100
AcDbLine
 10
527.0555828346893
 20
416.7288133107606
 30
0.0000000000000000
 11
527.7626896052362
 21
416.0217065402137
 31
0.0000000000000000
  0
LINE
  5
276
100
AcDbEntity
  8
MAIN0
  6
BYBLOCK
 62
0
100
AcDbLine
 10
527.1970041930351
 20
416.7288133107597
 30
0.0000000000000000
 11
527.7626896052368
 21
416.1631278985581
 31
0.0000000000000000
  0
LINE
  5
277
100
AcDbEntity
  8
MAIN0
  6
BYBLOCK
 62
0
100
AcDbLine
 10
527.3384255513785
 20
416.7288133107611
 30
0.0000000000000000
 11
527.7626896052352
 21
416.3045492569038
 31
0.0000000000000000
  0
LINE
  5
278
100
AcDbEntity
  8
MAIN0
  6
BYBLOCK
 62
0
100
AcDbLine
 10
527.4798469097233
 20
416.7288133107606
 30
0.0000000000000000
 11
527.7626896052353
 21
416.4459706152495
 31
0.0000000000000000
  0
LINE
  5
279
100
AcDbEntity
  8
MAIN0
  6
BYBLOCK
 62
0
100
AcDbLine
 10
527.6212682680699
 20
416.7288133107597
 30
0.0000000000000000
 11
527.7626896052345
 21
416.5873919735948
 31
0.0000000000000000
  0
ENDBLK
  5
27A
100
AcDbEntity
  8
MAIN0
  6
BYBLOCK
 62
3
100
AcDbBlockEnd
  0
BLOCK
  5
360
100
AcDbEntity
  8
MAIN0
  6
CONTINUOUS
 62
3
100
AcDbBlockBegin
  2
*D26
 70
    65
 10
0.0
 20
0.0
 30
0.0
  0
LINE
  5
361
100
AcDbEntity
  8
MAIN0
  6
BYBLOCK
 62
0
100
AcDbLine
 10
493.7626896053276
 20
433.5288133226819
 30
0.0000000000000000
 11
493.7626896053276
 21
446.2288133107610
 31
0.0000000000000000
  0
LINE
  5
362
100
AcDbEntity
  8
MAIN0
  6
BYBLOCK
 62
0
100
AcDbLine
 10
495.7626896053276
 20
444.2288133107610
 30
0.0000000000000000
 11
515.7626896052296
 21
444.2288133107610
 31
0.0000000000000000
  0
INSERT
  5
363
100
AcDbEntity
  8
MAIN0
  6
BYBLOCK
 62
0
100
AcDbBlockReference
  2
_OPEN
 10
493.7626896053276
 20
444.2288133107610
 30
0.0000000000000000
 41
2.000000000000000
 42
2.000000000000000
 43
2.000000000000000
 50
180.0000000000000
  0
INSERT
  5
364
100
AcDbEntity
  8
MAIN0
  6
BYBLOCK
 62
0
100
AcDbBlockReference
  2
_OPEN
 10
517.7626896052296
 20
444.2288133107610
 30
0.0000000000000000
 41
2.000000000000000
 42
2.000000000000000
 43
2.000000000000000
 50
0.0000000000000000
  0
LINE
  5
365
100
AcDbEntity
  8
MAIN0
  6
BYBLOCK
 62
0
100
AcDbLine
 10
517.7626896052296
 20
433.5288133226819
 30
0.0000000000000000
 11
517.7626896052296
 21
446.2288133107610
 31
0.0000000000000000
  0
MTEXT
  5
366
100
AcDbEntity
  8
MAIN0
  6
BYBLOCK
 62
0
100
AcDbMText
 10
505.7626896052786
 20
446.2788132630773
 30
0.0000000000000000
 40
3.099999904632568
 41
0.0000000000000000
 71
     5
 72
     1
  1
\A1;\U+220524
 11
1.000000000000000
 21
0.0000000000000000
 31
0.0000000000000000
  7
STANDARD
  0
ENDBLK
  5
367
100
AcDbEntity
  8
MAIN0
  6
CONTINUOUS
 62
3
100
AcDbBlockEnd
  0
BLOCK
  5
369
100
AcDbEntity
  8
MAIN0
  6
CONTINUOUS
 62
3
100
AcDbBlockBegin
  2
*D27
 70
    65
 10
0.0
 20
0.0
 30
0.0
  0
LINE
  5
36A
100
AcDbEntity
  8
MAIN0
  6
BYBLOCK
 62
0
100
AcDbLine
 10
516.5626896171494
 20
434.7288133107610
 30
0.0000000000000000
 11
550.2626896052786
 21
434.7288133107610
 31
0.0000000000000000
  0
LINE
  5
36B
100
AcDbEntity
  8
MAIN0
  6
BYBLOCK
 62
0
100
AcDbLine
 10
548.2626896052786
 20
432.7288133107610
 30
0.0000000000000000
 11
548.2626896052786
 21
276.7288133107610
 31
0.0000000000000000
  0
INSERT
  5
36C
100
AcDbEntity
  8
MAIN0
  6
BYBLOCK
 62
0
100
AcDbBlockReference
  2
_OPEN
 10
548.2626896052786
 20
434.7288133107610
 30
0.0000000000000000
 41
2.000000000000000
 42
2.000000000000000
 43
2.000000000000000
 50
90.00000000000000
  0
INSERT
  5
36D
100
AcDbEntity
  8
MAIN0
  6
BYBLOCK
 62
0
100
AcDbBlockReference
  2
_OPEN
 10
548.2626896052786
 20
274.7288133107610
 30
0.0000000000000000
 41
2.000000000000000
 42
2.000000000000000
 43
2.000000000000000
 50
270.0000000000000
  0
LINE
  5
36E
100
AcDbEntity
  8
MAIN0
  6
BYBLOCK
 62
0
100
AcDbLine
 10
510.7770489697173
 20
274.7288133107610
 30
0.0000000000000000
 11
550.2626896052786
 21
274.7288133107610
 31
0.0000000000000000
  0
MTEXT
  5
36F
100
AcDbEntity
  8
MAIN0
  6
BYBLOCK
 62
0
100
AcDbMText
 10
546.2126896529624
 20
354.7288133107610
 30
0.0000000000000000
 40
3.099999904632568
 41
0.0000000000000000
 71
     5
 72
     1
  1
\A1;160
 11
6.123233995736766e-017
 21
1.000000000000000
 31
0.0000000000000000
  7
STANDARD
  0
ENDBLK
  5
370
100
AcDbEntity
  8
MAIN0
  6
CONTINUOUS
 62
3
100
AcDbBlockEnd
  0
BLOCK
  5
372
100
AcDbEntity
  8
MAIN0
  6
CONTINUOUS
 62
3
100
AcDbBlockBegin
  2
*D28
 70
    65
 10
0.0
 20
0.0
 30
0.0
  0
LINE
  5
373
100
AcDbEntity
  8
MAIN0
  6
BYBLOCK
 62
0
100
AcDbLine
 10
497.7626896052786
 20
379.2288133107610
 30
0.0000000000000000
 11
513.7626896052786
 21
379.2288133107610
 31
0.0000000000000000
  0
INSERT
  5
374
100
AcDbEntity
  8
MAIN0
  6
BYBLOCK
 62
0
100
AcDbBlockReference
  2
_OPEN
 10
495.7626896052786
 20
379.2288133107610
 30
0.0000000000000000
 41
2.000000000000000
 42
2.000000000000000
 43
2.000000000000000
 50
180.0000000000000
  0
INSERT
  5
375
100
AcDbEntity
  8
MAIN0
  6
BYBLOCK
 62
0
100
AcDbBlockReference
  2
_OPEN
 10
515.7626896052786
 20
379.2288133107610
 30
0.0000000000000000
 41
2.000000000000000
 42
2.000000000000000
 43
2.000000000000000
 50
0.0000000000000000
  0
MTEXT
  5
376
100
AcDbEntity
  8
MAIN0
  6
BYBLOCK
 62
0
100
AcDbMText
 10
505.7626896052786
 20
381.2788132630773
 30
0.0000000000000000
 40
3.099999904632568
 41
0.0000000000000000
 71
     5
 72
     1
  1
\A1;\U+220520
 11
1.000000000000000
 21
0.0000000000000000
 31
0.0000000000000000
  7
STANDARD
  0
ENDBLK
  5
377
100
AcDbEntity
  8
MAIN0
  6
CONTINUOUS
 62
3
100
AcDbBlockEnd
  0
BLOCK
  5
379
100
AcDbEntity
  8
MAIN0
  6
CONTINUOUS
 62
3
100
AcDbBlockBegin
  2
*D29
 70
    65
 10
0.0
 20
0.0
 30
0.0
  0
LINE
  5
37A
100
AcDbEntity
  8
MAIN0
  6
BYBLOCK
 62
0
100
AcDbLine
 10
513.9926896171995
 20
289.7288133107610
 30
0.0000000000000000
 11
527.7626896052786
 21
289.7288133107610
 31
0.0000000000000000
  0
LINE
  5
37B
100
AcDbEntity
  8
MAIN0
  6
BYBLOCK
 62
0
100
AcDbLine
 10
525.7626896052786
 20
287.7288133107610
 30
0.0000000000000000
 11
525.7626896052786
 21
276.7288133107610
 31
0.0000000000000000
  0
INSERT
  5
37C
100
AcDbEntity
  8
MAIN0
  6
BYBLOCK
 62
0
100
AcDbBlockReference
  2
_OPEN
 10
525.7626896052786
 20
289.7288133107610
 30
0.0000000000000000
 41
2.000000000000000
 42
2.000000000000000
 43
2.000000000000000
 50
90.00000000000000
  0
INSERT
  5
37D
100
AcDbEntity
  8
MAIN0
  6
BYBLOCK
 62
0
100
AcDbBlockReference
  2
_OPEN
 10
525.7626896052786
 20
274.7288133107610
 30
0.0000000000000000
 41
2.000000000000000
 42
2.000000000000000
 43
2.000000000000000
 50
270.0000000000000
  0
LINE
  5
37E
100
AcDbEntity
  8
MAIN0
  6
BYBLOCK
 62
0
100
AcDbLine
 10
510.7770489697173
 20
274.7288133107610
 30
0.0000000000000000
 11
527.7626896052786
 21
274.7288133107610
 31
0.0000000000000000
  0
MTEXT
  5
37F
100
AcDbEntity
  8
MAIN0
  6
BYBLOCK
 62
0
100
AcDbMText
 10
523.7126896529624
 20
282.2288133107610
 30
0.0000000000000000
 40
3.099999904632568
 41
0.0000000000000000
 71
     5
 72
     1
  1
\A1;15
 11
6.123233995736766e-017
 21
1.000000000000000
 31
0.0000000000000000
  7
STANDARD
  0
ENDBLK
  5
380
100
AcDbEntity
  8
MAIN0
  6
CONTINUOUS
 62
3
100
AcDbBlockEnd
  0
BLOCK
  5
382
100
AcDbEntity
  8
MAIN0
  6
CONTINUOUS
 62
3
100
AcDbBlockBegin
  2
*D30
 70
    65
 10
0.0
 20
0.0
 30
0.0
  0
LINE
  5
383
100
AcDbEntity
  8
MAIN0
  6
BYBLOCK
 62
0
100
AcDbLine
 10
468.2626896052786
 20
427.7288133107610
 30
0.0000000000000000
 11
468.2626896052786
 21
415.7288133107610
 31
0.0000000000000000
  0
INSERT
  5
384
100
AcDbEntity
  8
MAIN0
  6
BYBLOCK
 62
0
100
AcDbBlockReference
  2
_OPEN
 10
468.2626896052786
 20
427.7288133107610
 30
0.0000000000000000
 41
2.000000000000000
 42
2.000000000000000
 43
2.000000000000000
 50
270.0000000000000
  0
INSERT
  5
385
100
AcDbEntity
  8
MAIN0
  6
BYBLOCK
 62
0
100
AcDbBlockReference
  2
_OPEN
 10
468.2626896052786
 20
415.7288133107610
 30
0.0000000000000000
 41
2.000000000000000
 42
2.000000000000000
 43
2.000000000000000
 50
90.00000000000000
  0
LINE
  5
386
100
AcDbEntity
  8
MAIN0
  6
BYBLOCK
 62
0
100
AcDbLine
 10
468.2626896052786
 20
429.7288133107610
 30
0.0000000000000000
 11
468.2626896052786
 21
430.7288133107610
 31
0.0000000000000000
  0
LINE
  5
387
100
AcDbEntity
  8
MAIN0
  6
BYBLOCK
 62
0
100
AcDbLine
 10
468.2626896052786
 20
413.7288133107610
 30
0.0000000000000000
 11
468.2626896052786
 21
405.8288136922307
 31
0.0000000000000000
  0
MTEXT
  5
388
100
AcDbEntity
  8
MAIN0
  6
BYBLOCK
 62
0
100
AcDbMText
 10
466.2126896529623
 20
409.2288133107610
 30
0.0000000000000000
 40
3.099999904632568
 41
0.0000000000000000
 71
     5
 72
     1
  1
\A1;\U+220512
 11
6.123233995736766e-017
 21
1.000000000000000
 31
0.0000000000000000
  7
STANDARD
  0
ENDBLK
  5
389
100
AcDbEntity
  8
MAIN0
  6
CONTINUOUS
 62
3
100
AcDbBlockEnd
  0
BLOCK
  5
38B
100
AcDbEntity
  8
MAIN0
  6
CONTINUOUS
 62
3
100
AcDbBlockBegin
  2
*D31
 70
    65
 10
0.0
 20
0.0
 30
0.0
  0
LINE
  5
38C
100
AcDbEntity
  8
MAIN0
  6
BYBLOCK
 62
0
100
AcDbLine
 10
505.7502004456077
 20
248.9631278773822
 30
0.0000000000000000
 11
512.0378158711260
 21
242.6755124518629
 31
0.0000000000000000
  0
LINE
  5
38D
100
AcDbEntity
  8
MAIN0
  6
BYBLOCK
 62
0
100
AcDbLine
 10
510.6236023087530
 20
244.0897260142361
 30
0.0000000000000000
 11
518.4017769018055
 21
251.8679006072877
 31
0.0000000000000000
  0
INSERT
  5
38E
100
AcDbEntity
  8
MAIN0
  6
BYBLOCK
 62
0
100
AcDbBlockReference
  2
_OPEN
 10
510.6236023087530
 20
244.0897260142361
 30
0.0000000000000000
 41
2.000000000000000
 42
2.000000000000000
 43
2.000000000000000
 50
44.99999999999634
  0
INSERT
  5
38F
100
AcDbEntity
  8
MAIN0
  6
BYBLOCK
 62
0
100
AcDbBlockReference
  2
_OPEN
 10
518.4017769018055
 20
251.8679006072877
 30
0.0000000000000000
 41
2.000000000000000
 42
2.000000000000000
 43
2.000000000000000
 50
224.9999999999963
  0
LINE
  5
390
100
AcDbEntity
  8
MAIN0
  6
BYBLOCK
 62
0
100
AcDbLine
 10
509.2093887463798
 20
242.6755124518631
 30
0.0000000000000000
 11
508.5022819651932
 21
241.9684056706767
 31
0.0000000000000000
  0
LINE
  5
391
100
AcDbEntity
  8
MAIN0
  6
BYBLOCK
 62
0
100
AcDbLine
 10
519.8159904641788
 20
253.2821141696607
 30
0.0000000000000000
 11
529.8210777548268
 21
263.2872014603074
 31
0.0000000000000000
  0
LINE
  5
392
100
AcDbEntity
  8
MAIN0
  6
BYBLOCK
 62
0
100
AcDbLine
 10
513.5283750386570
 20
256.7413024704368
 30
0.0000000000000000
 11
519.8159904641785
 21
250.4536870449145
 31
0.0000000000000000
  0
MTEXT
  5
393
100
AcDbEntity
  8
MAIN0
  6
BYBLOCK
 62
0
100
AcDbMText
 10
523.0858849907689
 20
259.4511464316802
 30
0.0000000000000000
 40
3.099999904632568
 41
0.0000000000000000
 71
     5
 72
     1
  1
\A1;□11\H0.903226x;\S　0^ －0.15;
 11
0.7071067811865931
 21
0.7071067811865019
 31
0.0000000000000000
  7
KNJYOKO
  0
ENDBLK
  5
394
100
AcDbEntity
  8
MAIN0
  6
CONTINUOUS
 62
3
100
AcDbBlockEnd
  0
BLOCK
  5
398
100
AcDbEntity
  8
MAIN0
  6
BYBLOCK
 62
3
100
AcDbBlockBegin
  2
*X4
 70
     1
 10
0.0
 20
0.0
 30
0.0
  0
LINE
  5
399
100
AcDbEntity
  8
MAIN0
  6
BYBLOCK
 62
0
100
AcDbLine
 10
440.1769031675486
 20
426.7288133107620
 30
0.0000000000000000
 11
438.7626896052803
 21
428.1430268730302
 31
0.0000000000000000
  0
LINE
  5
39A
100
AcDbEntity
  8
MAIN0
  6
BYBLOCK
 62
0
100
AcDbLine
 10
440.0354818092043
 20
426.7288133107615
 30
0.0000000000000000
 11
438.7626896052795
 21
428.0016055146868
 31
0.0000000000000000
  0
LINE
  5
39B
100
AcDbEntity
  8
MAIN0
  6
BYBLOCK
 62
0
100
AcDbLine
 10
439.8940604508582
 20
426.7288133107625
 30
0.0000000000000000
 11
438.7626896052799
 21
427.8601841563411
 31
0.0000000000000000
  0
LINE
  5
39C
100
AcDbEntity
  8
MAIN0
  6
BYBLOCK
 62
0
100
AcDbLine
 10
439.7526390925151
 20
426.7288133107610
 30
0.0000000000000000
 11
438.7626896052785
 21
427.7187627979976
 31
0.0000000000000000
  0
LINE
  5
39D
100
AcDbEntity
  8
MAIN0
  6
BYBLOCK
 62
0
100
AcDbLine
 10
439.6112177341694
 20
426.7288133107615
 30
0.0000000000000000
 11
438.7626896052781
 21
427.5773414396533
 31
0.0000000000000000
  0
LINE
  5
39E
100
AcDbEntity
  8
MAIN0
  6
BYBLOCK
 62
0
100
AcDbLine
 10
439.4697963758250
 20
426.7288133107614
 30
0.0000000000000000
 11
438.7626896052781
 21
427.4359200813084
 31
0.0000000000000000
  0
LINE
  5
39F
100
AcDbEntity
  8
MAIN0
  6
BYBLOCK
 62
0
100
AcDbLine
 10
439.3283750174793
 20
426.7288133107624
 30
0.0000000000000000
 11
438.7626896052776
 21
427.2944987229641
 31
0.0000000000000000
  0
LINE
  5
3A0
100
AcDbEntity
  8
MAIN0
  6
BYBLOCK
 62
0
100
AcDbLine
 10
439.1869536591359
 20
426.7288133107610
 30
0.0000000000000000
 11
438.7626896052790
 21
427.1530773646183
 31
0.0000000000000000
  0
LINE
  5
3A1
100
AcDbEntity
  8
MAIN0
  6
BYBLOCK
 62
0
100
AcDbLine
 10
439.0455323007910
 20
426.7288133107616
 30
0.0000000000000000
 11
438.7626896052790
 21
427.0116560062727
 31
0.0000000000000000
  0
LINE
  5
3A2
100
AcDbEntity
  8
MAIN0
  6
BYBLOCK
 62
0
100
AcDbLine
 10
438.9041109424445
 20
426.7288133107624
 30
0.0000000000000000
 11
438.7626896052800
 21
426.8702346479274
 31
0.0000000000000000
  0
ENDBLK
  5
3A3
100
AcDbEntity
  8
MAIN0
  6
BYBLOCK
 62
3
100
AcDbBlockEnd
  0
BLOCK
  5
3A5
100
AcDbEntity
  8
MAIN0
  6
BYBLOCK
 62
3
100
AcDbBlockBegin
  2
*X5
 70
     1
 10
0.0
 20
0.0
 30
0.0
  0
LINE
  5
3A6
100
AcDbEntity
  8
MAIN0
  6
BYBLOCK
 62
0
100
AcDbLine
 10
440.1769031675486
 20
416.7288133107602
 30
0.0000000000000000
 11
438.7626896052803
 21
415.3145997484919
 31
0.0000000000000000
  0
LINE
  5
3A7
100
AcDbEntity
  8
MAIN0
  6
BYBLOCK
 62
0
100
AcDbLine
 10
440.0354818092043
 20
416.7288133107606
 30
0.0000000000000000
 11
438.7626896052795
 21
415.4560211068353
 31
0.0000000000000000
  0
LINE
  5
3A8
100
AcDbEntity
  8
MAIN0
  6
BYBLOCK
 62
0
100
AcDbLine
 10
439.8940604508582
 20
416.7288133107597
 30
0.0000000000000000
 11
438.7626896052800
 21
415.5974424651811
 31
0.0000000000000000
  0
LINE
  5
3A9
100
AcDbEntity
  8
MAIN0
  6
BYBLOCK
 62
0
100
AcDbLine
 10
439.7526390925151
 20
416.7288133107610
 30
0.0000000000000000
 11
438.7626896052785
 21
415.7388638235245
 31
0.0000000000000000
  0
LINE
  5
3AA
100
AcDbEntity
  8
MAIN0
  6
BYBLOCK
 62
0
100
AcDbLine
 10
439.6112177341694
 20
416.7288133107606
 30
0.0000000000000000
 11
438.7626896052780
 21
415.8802851818688
 31
0.0000000000000000
  0
LINE
  5
3AB
100
AcDbEntity
  8
MAIN0
  6
BYBLOCK
 62
0
100
AcDbLine
 10
439.4697963758250
 20
416.7288133107606
 30
0.0000000000000000
 11
438.7626896052781
 21
416.0217065402137
 31
0.0000000000000000
  0
LINE
  5
3AC
100
AcDbEntity
  8
MAIN0
  6
BYBLOCK
 62
0
100
AcDbLine
 10
439.3283750174793
 20
416.7288133107597
 30
0.0000000000000000
 11
438.7626896052776
 21
416.1631278985581
 31
0.0000000000000000
  0
LINE
  5
3AD
100
AcDbEntity
  8
MAIN0
  6
BYBLOCK
 62
0
100
AcDbLine
 10
439.1869536591359
 20
416.7288133107611
 30
0.0000000000000000
 11
438.7626896052790
 21
416.3045492569038
 31
0.0000000000000000
  0
LINE
  5
3AE
100
AcDbEntity
  8
MAIN0
  6
BYBLOCK
 62
0
100
AcDbLine
 10
439.0455323007911
 20
416.7288133107606
 30
0.0000000000000000
 11
438.7626896052790
 21
416.4459706152495
 31
0.0000000000000000
  0
LINE
  5
3AF
100
AcDbEntity
  8
MAIN0
  6
BYBLOCK
 62
0
100
AcDbLine
 10
438.9041109424443
 20
416.7288133107597
 30
0.0000000000000000
 11
438.7626896052798
 21
416.5873919735948
 31
0.0000000000000000
  0
ENDBLK
  5
3B0
100
AcDbEntity
  8
MAIN0
  6
BYBLOCK
 62
3
100
AcDbBlockEnd
  0
BLOCK
  5
3B2
100
AcDbEntity
  8
MAIN0
  6
BYBLOCK
 62
3
100
AcDbBlockBegin
  2
*X6
 70
     1
 10
0.0
 20
0.0
 30
0.0
  0
LINE
  5
3B3
100
AcDbEntity
  8
MAIN0
  6
BYBLOCK
 62
0
100
AcDbLine
 10
571.3484760430085
 20
426.7288133107620
 30
0.0000000000000000
 11
572.7626896052768
 21
428.1430268730303
 31
0.0000000000000000
  0
LINE
  5
3B4
100
AcDbEntity
  8
MAIN0
  6
BYBLOCK
 62
0
100
AcDbLine
 10
571.4898974013529
 20
426.7288133107615
 30
0.0000000000000000
 11
572.7626896052777
 21
428.0016055146868
 31
0.0000000000000000
  0
LINE
  5
3B5
100
AcDbEntity
  8
MAIN0
  6
BYBLOCK
 62
0
100
AcDbLine
 10
571.6313187596991
 20
426.7288133107625
 30
0.0000000000000000
 11
572.7626896052773
 21
427.8601841563411
 31
0.0000000000000000
  0
LINE
  5
3B6
100
AcDbEntity
  8
MAIN0
  6
BYBLOCK
 62
0
100
AcDbLine
 10
571.7727401180418
 20
426.7288133107610
 30
0.0000000000000000
 11
572.7626896052784
 21
427.7187627979976
 31
0.0000000000000000
  0
LINE
  5
3B7
100
AcDbEntity
  8
MAIN0
  6
BYBLOCK
 62
0
100
AcDbLine
 10
571.9141614763876
 20
426.7288133107614
 30
0.0000000000000000
 11
572.7626896052790
 21
427.5773414396533
 31
0.0000000000000000
  0
LINE
  5
3B8
100
AcDbEntity
  8
MAIN0
  6
BYBLOCK
 62
0
100
AcDbLine
 10
572.0555828347322
 20
426.7288133107616
 30
0.0000000000000000
 11
572.7626896052791
 21
427.4359200813085
 31
0.0000000000000000
  0
LINE
  5
3B9
100
AcDbEntity
  8
MAIN0
  6
BYBLOCK
 62
0
100
AcDbLine
 10
572.1970041930779
 20
426.7288133107625
 30
0.0000000000000000
 11
572.7626896052796
 21
427.2944987229641
 31
0.0000000000000000
  0
LINE
  5
3BA
100
AcDbEntity
  8
MAIN0
  6
BYBLOCK
 62
0
100
AcDbLine
 10
572.3384255514213
 20
426.7288133107610
 30
0.0000000000000000
 11
572.7626896052782
 21
427.1530773646184
 31
0.0000000000000000
  0
LINE
  5
3BB
100
AcDbEntity
  8
MAIN0
  6
BYBLOCK
 62
0
100
AcDbLine
 10
572.4798469097661
 20
426.7288133107616
 30
0.0000000000000000
 11
572.7626896052782
 21
427.0116560062727
 31
0.0000000000000000
  0
LINE
  5
3BC
100
AcDbEntity
  8
MAIN0
  6
BYBLOCK
 62
0
100
AcDbLine
 10
572.6212682681128
 20
426.7288133107625
 30
0.0000000000000000
 11
572.7626896052773
 21
426.8702346479275
 31
0.0000000000000000
  0
ENDBLK
  5
3BD
100
AcDbEntity
  8
MAIN0
  6
BYBLOCK
 62
3
100
AcDbBlockEnd
  0
BLOCK
  5
3BF
100
AcDbEntity
  8
MAIN0
  6
BYBLOCK
 62
3
100
AcDbBlockBegin
  2
*X7
 70
     1
 10
0.0
 20
0.0
 30
0.0
  0
LINE
  5
3C0
100
AcDbEntity
  8
MAIN0
  6
BYBLOCK
 62
0
100
AcDbLine
 10
571.3484760430085
 20
416.7288133107601
 30
0.0000000000000000
 11
572.7626896052768
 21
415.3145997484919
 31
0.0000000000000000
  0
LINE
  5
3C1
100
AcDbEntity
  8
MAIN0
  6
BYBLOCK
 62
0
100
AcDbLine
 10
571.4898974013529
 20
416.7288133107606
 30
0.0000000000000000
 11
572.7626896052777
 21
415.4560211068354
 31
0.0000000000000000
  0
LINE
  5
3C2
100
AcDbEntity
  8
MAIN0
  6
BYBLOCK
 62
0
100
AcDbLine
 10
571.6313187596990
 20
416.7288133107596
 30
0.0000000000000000
 11
572.7626896052772
 21
415.5974424651810
 31
0.0000000000000000
  0
LINE
  5
3C3
100
AcDbEntity
  8
MAIN0
  6
BYBLOCK
 62
0
100
AcDbLine
 10
571.7727401180421
 20
416.7288133107611
 30
0.0000000000000000
 11
572.7626896052785
 21
415.7388638235245
 31
0.0000000000000000
  0
LINE
  5
3C4
100
AcDbEntity
  8
MAIN0
  6
BYBLOCK
 62
0
100
AcDbLine
 10
571.9141614763877
 20
416.7288133107606
 30
0.0000000000000000
 11
572.7626896052790
 21
415.8802851818688
 31
0.0000000000000000
  0
LINE
  5
3C5
100
AcDbEntity
  8
MAIN0
  6
BYBLOCK
 62
0
100
AcDbLine
 10
572.0555828347322
 20
416.7288133107606
 30
0.0000000000000000
 11
572.7626896052791
 21
416.0217065402137
 31
0.0000000000000000
  0
LINE
  5
3C6
100
AcDbEntity
  8
MAIN0
  6
BYBLOCK
 62
0
100
AcDbLine
 10
572.1970041930779
 20
416.7288133107597
 30
0.0000000000000000
 11
572.7626896052796
 21
416.1631278985581
 31
0.0000000000000000
  0
LINE
  5
3C7
100
AcDbEntity
  8
MAIN0
  6
BYBLOCK
 62
0
100
AcDbLine
 10
572.3384255514212
 20
416.7288133107611
 30
0.0000000000000000
 11
572.7626896052781
 21
416.3045492569038
 31
0.0000000000000000
  0
LINE
  5
3C8
100
AcDbEntity
  8
MAIN0
  6
BYBLOCK
 62
0
100
AcDbLine
 10
572.4798469097661
 20
416.7288133107606
 30
0.0000000000000000
 11
572.7626896052782
 21
416.4459706152495
 31
0.0000000000000000
  0
LINE
  5
3C9
100
AcDbEntity
  8
MAIN0
  6
BYBLOCK
 62
0
100
AcDbLine
 10
572.6212682681128
 20
416.7288133107597
 30
0.0000000000000000
 11
572.7626896052773
 21
416.5873919735948
 31
0.0000000000000000
  0
ENDBLK
  5
3CA
100
AcDbEntity
  8
MAIN0
  6
BYBLOCK
 62
3
100
AcDbBlockEnd
  0
BLOCK
  5
437
100
AcDbEntity
  8
A0
  6
BYBLOCK
 62
3
100
AcDbBlockBegin
  2
M0
 70
    64
 10
0.0
 20
0.0
 30
0.0
  0
LINE
  5
438
100
AcDbEntity
  8
A0
  6
BYBLOCK
 62
0
100
AcDbLine
 10
154.7966098677762
 20
80.32627261795226
 30
0.0000000000000000
 11
297.2966098677761
 21
80.32627261795226
 31
0.0000000000000000
  0
LINE
  5
439
100
AcDbEntity
  8
A0
  6
BYBLOCK
 62
0
100
AcDbLine
 10
154.7966098677762
 20
72.82627261795227
 30
0.0000000000000000
 11
297.2966098677761
 21
72.82627261795227
 31
0.0000000000000000
  0
LINE
  5
43A
100
AcDbEntity
  8
A0
  6
BYBLOCK
 62
0
100
AcDbLine
 10
154.7966098677762
 20
65.32627261795234
 30
0.0000000000000000
 11
297.2966098677761
 21
65.32627261795234
 31
0.0000000000000000
  0
MTEXT
  5
43B
100
AcDbEntity
  8
A0
  6
BYBLOCK
 62
0
100
AcDbMText
 10
156.2966098677762
 20
85.72627247490111
 30
0.0000000000000000
 40
4.649999856948853
 41
0.0000000000000000
 71
     1
 72
     1
  1
{\H0.88x;1.}
 11
1.000000000000000
 21
0.0000000000000000
 31
0.0000000000000000
  7
STANDARD
  0
MTEXT
  5
43C
100
AcDbEntity
  8
A0
  6
BYBLOCK
 62
0
100
AcDbMText
 10
157.0466098677762
 20
101.3262726179527
 30
0.0000000000000000
 40
9.000000000000000
 41
0.0000000000000000
 71
     1
 72
     1
  1
{\H0.80x;要注意}
 11
1.000000000000000
 21
0.0000000000000000
 31
0.0000000000000000
  7
KNJYOKO
  0
LINE
  5
43D
100
AcDbEntity
  8
A0
  6
BYBLOCK
 62
0
100
AcDbLine
 10
184.7966098677762
 20
103.5762726179527
 30
0.0000000000000000
 11
184.7966098677762
 21
90.07627261795270
 31
0.0000000000000000
  0
LINE
  5
43E
100
AcDbEntity
  8
A0
  6
BYBLOCK
 62
0
100
AcDbLine
 10
154.7966098677762
 20
90.07627261795268
 30
0.0000000000000000
 11
184.7966098677762
 21
90.07627261795268
 31
0.0000000000000000
  0
LINE
  5
43F
100
AcDbEntity
  8
A0
  6
BYBLOCK
 62
0
100
AcDbLine
 10
154.7966098677762
 20
103.5762726179527
 30
0.0000000000000000
 11
154.7966098677762
 21
90.07627261795267
 31
0.0000000000000000
  0
LINE
  5
440
100
AcDbEntity
  8
A0
  6
BYBLOCK
 62
0
100
AcDbLine
 10
154.7966098677762
 20
103.5762726179527
 30
0.0000000000000000
 11
184.7966098677762
 21
103.5762726179527
 31
0.0000000000000000
  0
ENDBLK
  5
441
100
AcDbEntity
  8
A0
  6
BYBLOCK
 62
3
100
AcDbBlockEnd
  0
BLOCK
  5
476
100
AcDbEntity
  8
A0
  6
BYBLOCK
 62
3
100
AcDbBlockBegin
  2
M1
 70
    64
 10
0.0
 20
0.0
 30
0.0
  0
LINE
  5
477
100
AcDbEntity
  8
A0
  6
BYBLOCK
 62
0
100
AcDbLine
 10
154.7966098677762
 20
22.82627261795226
 30
0.0000000000000000
 11
297.2966098677761
 21
22.82627261795226
 31
0.0000000000000000
  0
LINE
  5
478
100
AcDbEntity
  8
A0
  6
BYBLOCK
 62
0
100
AcDbLine
 10
154.7966098677762
 20
15.32627261795228
 30
0.0000000000000000
 11
297.2966098677762
 21
15.32627261795228
 31
0.0000000000000000
  0
LINE
  5
479
100
AcDbEntity
  8
A0
  6
BYBLOCK
 62
0
100
AcDbLine
 10
154.7966098677762
 20
7.826272617952341
 30
0.0000000000000000
 11
297.2966098677761
 21
7.826272617952341
 31
0.0000000000000000
  0
LINE
  5
47A
100
AcDbEntity
  8
A0
  6
BYBLOCK
 62
0
100
AcDbLine
 10
154.7966098677762
 20
0.3262726179523412
 30
0.0000000000000000
 11
297.2966098677762
 21
0.3262726179523412
 31
0.0000000000000000
  0
MTEXT
  5
47B
100
AcDbEntity
  8
A0
  6
BYBLOCK
 62
0
100
AcDbMText
 10
156.2966098677762
 20
28.22627247490111
 30
0.0000000000000000
 40
4.649999856948853
 41
0.0000000000000000
 71
     1
 72
     1
  1
{\H0.88x;1.}
 11
1.000000000000000
 21
0.0000000000000000
 31
0.0000000000000000
  7
STANDARD
  0
MTEXT
  5
47C
100
AcDbEntity
  8
A0
  6
BYBLOCK
 62
0
100
AcDbMText
 10
156.7232153723634
 20
41.80333678235934
 30
0.0000000000000000
 40
4.954128384590149
 41
0.0000000000000000
 71
     1
 72
     1
  1
{\H0.92x;NOTICE}
 11
1.000000000000000
 21
0.0000000000000000
 31
0.0000000000000000
  7
STANDARD
  0
LINE
  5
47D
100
AcDbEntity
  8
A0
  6
BYBLOCK
 62
0
100
AcDbLine
 10
184.7966098677762
 20
46.07627261795267
 30
0.0000000000000000
 11
184.7966098677762
 21
32.57627261795270
 31
0.0000000000000000
  0
LINE
  5
47E
100
AcDbEntity
  8
A0
  6
BYBLOCK
 62
0
100
AcDbLine
 10
154.7966098677762
 20
32.57627261795268
 30
0.0000000000000000
 11
184.7966098677762
 21
32.57627261795268
 31
0.0000000000000000
  0
LINE
  5
47F
100
AcDbEntity
  8
A0
  6
BYBLOCK
 62
0
100
AcDbLine
 10
154.7966098677762
 20
46.07627261795267
 30
0.0000000000000000
 11
154.7966098677762
 21
32.57627261795267
 31
0.0000000000000000
  0
LINE
  5
480
100
AcDbEntity
  8
A0
  6
BYBLOCK
 62
0
100
AcDbLine
 10
154.7966098677762
 20
46.07627261795268
 30
0.0000000000000000
 11
184.7966098677762
 21
46.07627261795268
 31
0.0000000000000000
  0
ENDBLK
  5
481
100
AcDbEntity
  8
A0
  6
BYBLOCK
 62
3
100
AcDbBlockEnd
  0
ENDSEC
  0
SECTION
  2
ENTITIES
  0
LINE
  5
46
100
AcDbEntity
  8
MAIN0
  6
CENTER
 62
3
100
AcDbLine
 10
250.7626896052786
 20
301.7288133107610
 30
0.0000000000000000
 11
470.7626896052786
 21
301.7288133107610
 31
0.0000000000000000
  0
LINE
  5
47
100
AcDbEntity
  8
MAIN0
  6
CENTER
 62
3
100
AcDbLine
 10
372.2019749797759
 20
308.3332878010640
 30
0.0000000000000000
 11
455.6711119613976
 21
356.5242165064290
 31
0.0000000000000000
  0
ARC
  5
48
100
AcDbEntity
  8
MAIN0
  6
CONTINUOUS
 62
3
100
AcDbCircle
 10
360.7626896052786
 20
301.7288133107610
 30
0.0000000000000000
 40
95.00000000000001
100
AcDbArc
 50
32.83377853041517
 51
147.1662411359983
  0
ARC
  5
49
100
AcDbEntity
  8
MAIN0
  6
CONTINUOUS
 62
3
100
AcDbCircle
 10
360.7626896052786
 20
301.7288133107610
 30
0.0000000000000000
 40
95.00000000000001
100
AcDbArc
 50
152.8337785304133
 51
267.1662411359982
  0
ARC
  5
4A
100
AcDbEntity
  8
MAIN0
  6
CONTINUOUS
 62
3
100
AcDbCircle
 10
360.7626896052786
 20
301.7288133107610
 30
0.0000000000000000
 40
95.00000000000001
100
AcDbArc
 50
272.8337785304134
 51
387.1662411359964
  0
ARC
  5
4B
100
AcDbEntity
  8
MAIN0
  6
CENTER
 62
3
100
AcDbCircle
 10
360.7626896052786
 20
301.7288133107610
 30
0.0000000000000000
 40
40.00000000000003
100
AcDbArc
 50
93.62056553902377
 51
126.1177564306748
  0
CIRCLE
  5
4C
100
AcDbEntity
  8
MAIN0
  6
CONTINUOUS
 62
3
100
AcDbCircle
 10
347.0818838722529
 20
339.3165181421943
 30
0.0000000000000000
 40
7.500000000000000
  0
LINE
  5
4D
100
AcDbEntity
  8
MAIN0
  6
CONTINUOUS
 62
3
100
AcDbLine
 10
349.6796790686429
 20
342.4124499003160
 30
0.0000000000000000
 11
351.0619370213643
 21
338.6147273873523
 31
0.0000000000000000
  0
LINE
  5
4E
100
AcDbEntity
  8
MAIN0
  6
CONTINUOUS
 62
3
100
AcDbLine
 10
343.1018307231415
 20
340.0183088970364
 30
0.0000000000000000
 11
344.4840886758630
 21
336.2205863840727
 31
0.0000000000000000
  0
LINE
  5
4F
100
AcDbEntity
  8
MAIN0
  6
CONTINUOUS
 62
3
100
AcDbLine
 10
348.4641418249744
 20
335.5187956292306
 30
0.0000000000000000
 11
351.0619370213644
 21
338.6147273873523
 31
0.0000000000000000
  0
LINE
  5
50
100
AcDbEntity
  8
MAIN0
  6
CONTINUOUS
 62
3
100
AcDbLine
 10
343.1018307231416
 20
340.0183088970364
 30
0.0000000000000000
 11
345.6996259195315
 21
343.1142406551581
 31
0.0000000000000000
  0
LINE
  5
51
100
AcDbEntity
  8
MAIN0
  6
CONTINUOUS
 62
3
100
AcDbLine
 10
349.6796790686429
 20
342.4124499003160
 30
0.0000000000000000
 11
345.6996259195315
 21
343.1142406551580
 31
0.0000000000000000
  0
LINE
  5
52
100
AcDbEntity
  8
MAIN0
  6
CONTINUOUS
 62
3
100
AcDbLine
 10
348.4641418249744
 20
335.5187956292306
 30
0.0000000000000000
 11
344.4840886758630
 21
336.2205863840726
 31
0.0000000000000000
  0
LINE
  5
53
100
AcDbEntity
  8
MAIN0
  6
CENTER
 62
3
100
AcDbLine
 10
343.1372400511013
 20
350.1543379685997
 30
0.0000000000000000
 11
350.5368455648874
 21
329.8240889066003
 31
0.0000000000000000
  0
CIRCLE
  5
54
100
AcDbEntity
  8
MAIN0
  6
CONTINUOUS
 62
3
100
AcDbCircle
 10
347.0818838722518
 20
339.3165181421974
 30
0.0000000000000000
 40
2.400000000000000
  0
CIRCLE
  5
55
100
AcDbEntity
  8
MAIN0
  6
CONTINUOUS
 62
3
100
AcDbCircle
 10
347.0818838722518
 20
339.3165181421974
 30
0.0000000000000000
 40
0.4330000000000000
  0
LINE
  5
56
100
AcDbEntity
  8
MAIN0
  6
HIDDEN
 62
3
100
AcDbLine
 10
376.7626896052786
 20
395.3717521796368
 30
0.0000000000000000
 11
376.7626896052786
 21
378.0701520467303
 31
0.0000000000000000
  0
LINE
  5
57
100
AcDbEntity
  8
MAIN0
  6
HIDDEN
 62
3
100
AcDbLine
 10
344.7626896052786
 20
395.3717521796368
 30
0.0000000000000000
 11
344.7626896052786
 21
378.0701520467303
 31
0.0000000000000000
  0
ARC
  5
58
100
AcDbEntity
  8
MAIN0
  6
HIDDEN
 62
3
100
AcDbCircle
 10
360.7626896052786
 20
301.7288133107610
 30
0.0000000000000000
 40
78.00000000000000
100
AcDbArc
 50
344.8571655449238
 51
464.8571655449238
  0
LINE
  5
59
100
AcDbEntity
  8
MAIN0
  6
HIDDEN
 62
3
100
AcDbLine
 10
271.6655256597989
 20
268.7637503368742
 30
0.0000000000000000
 11
286.6491509010162
 21
277.4145504033274
 31
0.0000000000000000
  0
ARC
  5
5A
100
AcDbEntity
  8
MAIN0
  6
HIDDEN
 62
3
100
AcDbCircle
 10
360.7626896052786
 20
301.7288133107610
 30
0.0000000000000000
 40
78.00000000000000
100
AcDbArc
 50
104.8571655449238
 51
224.8571655449238
  0
LINE
  5
5B
100
AcDbEntity
  8
MAIN0
  6
HIDDEN
 62
3
100
AcDbLine
 10
287.6655256597989
 20
241.0509374157721
 30
0.0000000000000000
 11
302.6491509010162
 21
249.7017374822254
 31
0.0000000000000000
  0
LINE
  5
5C
100
AcDbEntity
  8
MAIN0
  6
HIDDEN
 62
3
100
AcDbLine
 10
433.8598535507582
 20
241.0509374157721
 30
0.0000000000000000
 11
418.8762283095409
 21
249.7017374822253
 31
0.0000000000000000
  0
ARC
  5
5D
100
AcDbEntity
  8
MAIN0
  6
HIDDEN
 62
3
100
AcDbCircle
 10
360.7626896052786
 20
301.7288133107610
 30
0.0000000000000000
 40
78.00000000000000
100
AcDbArc
 50
224.8571655449238
 51
344.8571655449238
  0
LINE
  5
5E
100
AcDbEntity
  8
MAIN0
  6
HIDDEN
 62
3
100
AcDbLine
 10
449.8598535507582
 20
268.7637503368741
 30
0.0000000000000000
 11
434.8762283095410
 21
277.4145504033274
 31
0.0000000000000000
  0
LINE
  5
5F
100
AcDbEntity
  8
MAIN0
  6
CENTER
 62
3
100
AcDbLine
 10
346.2626896052786
 20
391.2810548172258
 30
0.0000000000000000
 11
346.2626896052786
 21
379.9466619461607
 31
0.0000000000000000
  0
LINE
  5
60
100
AcDbEntity
  8
MAIN0
  6
HIDDEN
 62
3
100
AcDbLine
 10
347.0626896052786
 20
388.3307295473178
 30
0.0000000000000000
 11
347.0626896052786
 21
381.7216448905745
 31
0.0000000000000000
  0
LINE
  5
61
100
AcDbEntity
  8
MAIN0
  6
HIDDEN
 62
3
100
AcDbLine
 10
345.4626896052786
 20
388.3307295473178
 30
0.0000000000000000
 11
345.4626896052786
 21
381.7216448905745
 31
0.0000000000000000
  0
LINE
  5
62
100
AcDbEntity
  8
MAIN0
  6
CENTER
 62
3
100
AcDbLine
 10
290.4581734948411
 20
244.3953242026542
 30
0.0000000000000000
 11
300.2740456576568
 21
250.0625206381868
 31
0.0000000000000000
  0
CIRCLE
  5
63
100
AcDbEntity
  8
MAIN0
  6
HIDDEN
 62
3
100
AcDbCircle
 10
295.8750477322594
 20
247.5227580017941
 30
0.0000000000000000
 40
4.000000000000000
  0
LINE
  5
64
100
AcDbEntity
  8
MAIN0
  6
HIDDEN
 62
3
100
AcDbLine
 10
292.6132301280086
 20
246.5633071606358
 30
0.0000000000000000
 11
298.3368653365102
 21
249.8678494890074
 31
0.0000000000000000
  0
LINE
  5
65
100
AcDbEntity
  8
MAIN0
  6
HIDDEN
 62
3
100
AcDbLine
 10
293.4132301280086
 20
245.1776665145807
 30
0.0000000000000000
 11
299.1368653365103
 21
248.4822088429523
 31
0.0000000000000000
  0
CIRCLE
  5
66
100
AcDbEntity
  8
MAIN0
  6
HIDDEN
 62
3
100
AcDbCircle
 10
295.8750477322594
 20
247.5227580017941
 30
0.0000000000000000
 40
3.400000000000000
  0
LINE
  5
67
100
AcDbEntity
  8
MAIN0
  6
CENTER
 62
3
100
AcDbLine
 10
445.5672057157165
 20
269.5100609124031
 30
0.0000000000000000
 11
435.7513335529008
 21
275.1772573479357
 31
0.0000000000000000
  0
CIRCLE
  5
68
100
AcDbEntity
  8
MAIN0
  6
HIDDEN
 62
3
100
AcDbCircle
 10
440.1503314782981
 20
272.6374947115430
 30
0.0000000000000000
 40
4.000000000000000
  0
LINE
  5
69
100
AcDbEntity
  8
MAIN0
  6
HIDDEN
 62
3
100
AcDbLine
 10
442.6121490825490
 20
270.2924032243296
 30
0.0000000000000000
 11
436.8885138740473
 21
273.5969455527012
 31
0.0000000000000000
  0
LINE
  5
6A
100
AcDbEntity
  8
MAIN0
  6
HIDDEN
 62
3
100
AcDbLine
 10
443.4121490825490
 20
271.6780438703847
 30
0.0000000000000000
 11
437.6885138740473
 21
274.9825861987563
 31
0.0000000000000000
  0
CIRCLE
  5
6B
100
AcDbEntity
  8
MAIN0
  6
HIDDEN
 62
3
100
AcDbCircle
 10
440.1503314782981
 20
272.6374947115430
 30
0.0000000000000000
 40
3.400000000000000
  0
ARC
  5
6C
100
AcDbEntity
  8
MAIN0
  6
CENTER
 62
3
100
AcDbCircle
 10
360.7626896052787
 20
301.7288133107610
 30
0.0000000000000000
 40
84.55000000000000
100
AcDbArc
 50
213.4861641376090
 51
227.4263456246924
  0
ARC
  5
6D
100
AcDbEntity
  8
MAIN0
  6
CENTER
 62
3
100
AcDbCircle
 10
360.7626896052787
 20
301.7288133107610
 30
0.0000000000000000
 40
84.55000000000000
100
AcDbArc
 50
333.9390221154050
 51
347.1458922693644
  0
ARC
  5
6E
100
AcDbEntity
  8
MAIN0
  6
CENTER
 62
3
100
AcDbCircle
 10
360.7626896052787
 20
301.7288133107610
 30
0.0000000000000000
 40
84.55000000000000
100
AcDbArc
 50
92.56922883028894
 51
106.5570735759657
  0
MTEXT
  5
6F
100
AcDbEntity
  8
MAIN0
  6
CONTINUOUS
 62
3
100
AcDbMText
 10
380.4721791604326
 20
217.5144733967669
 30
0.0000000000000000
 40
5.000000000000000
 41
0.0000000000000000
 71
     1
 72
     1
  1
{\H0.82x;{1}}
 11
1.000000000000000
 21
0.0000000000000000
 31
0.0000000000000000
  7
STANDARD
  0
MTEXT
  5
70
100
AcDbEntity
  8
MAIN0
  6
CONTINUOUS
 62
3
100
AcDbMText
 10
426.0216509478011
 20
359.6533072293720
 30
0.0000000000000000
 40
5.000000000000000
 41
0.0000000000000000
 71
     1
 72
     1
  1
{\H0.82x;{2}}
 11
-0.5000000000008740
 21
0.8660254037839340
 31
0.0000000000000000
  7
STANDARD
  0
MTEXT
  5
71
100
AcDbEntity
  8
MAIN0
  6
CONTINUOUS
 62
3
100
AcDbMText
 10
277.4770658536675
 20
329.1090463912152
 30
0.0000000000000000
 40
5.000000000000000
 41
0.0000000000000000
 71
     1
 72
     1
  1
{\H0.82x;{3}}
 11
-0.4999999999996719
 21
-0.8660254037846280
 31
0.0000000000000000
  7
STANDARD
  0
LINE
  5
72
100
AcDbEntity
  8
MAIN0
  6
HIDDEN
 62
3
100
AcDbLine
 10
377.0126896052786
 20
279.5435141241375
 30
0.0000000000000000
 11
377.0126896052786
 21
208.1289335031458
 31
0.0000000000000000
  0
LINE
  5
73
100
AcDbEntity
  8
MAIN0
  6
HIDDEN
 62
3
100
AcDbLine
 10
344.5126896052786
 20
279.5435141241375
 30
0.0000000000000000
 11
344.5126896052786
 21
208.1289335031458
 31
0.0000000000000000
  0
LINE
  5
74
100
AcDbEntity
  8
MAIN0
  6
HIDDEN
 62
3
100
AcDbLine
 10
371.8507222914531
 20
326.8943757155699
 30
0.0000000000000000
 11
433.6975633098436
 21
362.6016660260657
 31
0.0000000000000000
  0
LINE
  5
75
100
AcDbEntity
  8
MAIN0
  6
HIDDEN
 62
3
100
AcDbLine
 10
388.1007222914530
 20
298.7485500925756
 30
0.0000000000000000
 11
449.9475633098436
 21
334.4558404030714
 31
0.0000000000000000
  0
LINE
  5
76
100
AcDbEntity
  8
MAIN0
  6
HIDDEN
 62
3
100
AcDbLine
 10
333.4246569191045
 20
298.7485500925758
 30
0.0000000000000000
 11
271.5778159007139
 21
334.4558404030717
 31
0.0000000000000000
  0
LINE
  5
77
100
AcDbEntity
  8
MAIN0
  6
HIDDEN
 62
3
100
AcDbLine
 10
349.6746569191045
 20
326.8943757155701
 30
0.0000000000000000
 11
287.8278159007139
 21
362.6016660260659
 31
0.0000000000000000
  0
ARC
  5
78
100
AcDbEntity
  8
MAIN0
  6
CONTINUOUS
 62
3
100
AcDbCircle
 10
360.7626896052786
 20
301.7288133107610
 30
0.0000000000000000
 40
27.50000000000001
100
AcDbArc
 50
178.8967353705700
 51
241.1033008564527
  0
ARC
  5
79
100
AcDbEntity
  8
MAIN0
  6
CONTINUOUS
 62
3
100
AcDbCircle
 10
360.7626896052786
 20
301.7288133107610
 30
0.0000000000000000
 40
27.50000000000001
100
AcDbArc
 50
298.8967353705697
 51
361.1033008564560
  0
ARC
  5
7A
100
AcDbEntity
  8
MAIN0
  6
CONTINUOUS
 62
3
100
AcDbCircle
 10
360.7626896052786
 20
301.7288133107610
 30
0.0000000000000000
 40
27.50000000000001
100
AcDbArc
 50
58.89673537056662
 51
121.1033008564525
  0
CIRCLE
  5
7B
100
AcDbEntity
  8
MAIN0
  6
HIDDEN
 62
3
100
AcDbCircle
 10
360.7626896052786
 20
301.7288133107610
 30
0.0000000000000000
 40
54.00000000000000
  0
LINE
  5
7C
100
AcDbEntity
  8
MAIN0
  6
CENTER
 62
3
100
AcDbLine
 10
311.7549579372028
 20
386.6126945235707
 30
0.0000000000000000
 11
324.6421422315991
 21
364.2914365591726
 31
0.0000000000000000
  0
LINE
  5
7D
100
AcDbEntity
  8
MAIN0
  6
CENTER
 62
3
100
AcDbLine
 10
311.8487480437278
 20
217.0073813277001
 30
0.0000000000000000
 11
324.4015962765348
 21
238.7495522466230
 31
0.0000000000000000
  0
ARC
  5
7E
100
AcDbEntity
  8
MAIN0
  6
CENTER
 62
3
100
AcDbCircle
 10
360.7626896052786
 20
301.7288133107609
 30
0.0000000000000000
 40
85.00000000000000
100
AcDbArc
 50
111.1626036410427
 51
128.1712183362752
  0
ARC
  5
7F
100
AcDbEntity
  8
MAIN0
  6
CENTER
 62
3
100
AcDbCircle
 10
360.7626896052786
 20
301.7288133107609
 30
0.0000000000000000
 40
85.00000000000000
100
AcDbArc
 50
231.1549751269987
 51
248.8698071350549
  0
ARC
  5
80
100
AcDbEntity
  8
MAIN0
  6
CENTER
 62
3
100
AcDbCircle
 10
360.7626896052786
 20
301.7288133107609
 30
0.0000000000000000
 40
85.00000000000000
100
AcDbArc
 50
350.5404406892886
 51
368.6809517690318
  0
LINE
  5
81
100
AcDbEntity
  8
MAIN0
  6
CENTER
 62
3
100
AcDbLine
 10
267.4487639675388
 20
355.6036333968510
 30
0.0000000000000000
 11
405.7197763843363
 21
275.7728271568914
 31
0.0000000000000000
  0
LINE
  5
82
100
AcDbEntity
  8
MAIN0
  6
CENTER
 62
3
100
AcDbLine
 10
422.7783432670863
 20
265.9240589751457
 30
0.0000000000000000
 11
456.6758194166798
 21
246.3533419953290
 31
0.0000000000000000
  0
CIRCLE
  5
83
100
AcDbEntity
  8
MAIN0
  6
HIDDEN
 62
3
100
AcDbCircle
 10
360.7626896052789
 20
301.7288133107610
 30
0.0000000000000000
 40
43.50000000000000
  0
DIMENSION
  5
89
100
AcDbEntity
  8
MAIN0
  6
CONTINUOUS
 62
3
100
AcDbDimension
  2
*D0
 10
327.4997186488501
 20
223.5074942017623
 30
0.0000000000000000
 11
333.1753035918509
 21
238.1319167043072
 31
0.0000000000000000
 70
163
  3
MAIN001
100
AcDbDiametricDimension
 15
394.0256605617071
 25
379.9501324197595
 35
0.0000000000000000
1001
ACAD
1000
DSTYLE
1002
{
1070
   287
1070
     2
1070
   173
1070
     1
1070
     6
1000
_OPEN
1070
     7
1000
_NONE
1070
    41
1040
2.000000
1070
   272
1070
     1
1070
    47
1040
0.200000
1070
    48
1040
0.200000
1070
    71
1070
     1
1002
}
  0
CIRCLE
  5
8A
100
AcDbEntity
  8
MAIN0
  6
CONTINUOUS
 62
3
100
AcDbCircle
 10
318.2626896052787
 20
375.3409726324383
 30
0.0000000000000000
 40
6.000000000000000
  0
CIRCLE
  5
8B
100
AcDbEntity
  8
MAIN0
  6
CONTINUOUS
 62
3
100
AcDbCircle
 10
318.2626896052786
 20
228.1166539890836
 30
0.0000000000000000
 40
6.000000000000000
  0
CIRCLE
  5
8C
100
AcDbEntity
  8
MAIN0
  6
CONTINUOUS
 62
3
100
AcDbCircle
 10
445.7626896052785
 20
301.7288133107610
 30
0.0000000000000000
 40
6.000000000000000
  0
LINE
  5
8D
100
AcDbEntity
  8
MAIN0
  6
CONTINUOUS
 62
3
100
AcDbLine
 10
273.3453001526946
 20
338.9202104517036
 30
0.0000000000000000
 11
276.2425481787383
 21
337.2474835239581
 31
0.0000000000000000
  0
LINE
  5
8E
100
AcDbEntity
  8
MAIN0
  6
CONTINUOUS
 62
3
100
AcDbLine
 10
284.8453001526949
 20
358.8387947387455
 30
0.0000000000000000
 11
287.7425630667581
 21
357.1660592153980
 31
0.0000000000000000
  0
LINE
  5
8F
100
AcDbEntity
  8
MAIN0
  6
CONTINUOUS
 62
3
100
AcDbLine
 10
349.2626896052786
 20
207.4274347418346
 30
0.0000000000000000
 11
349.2626896052786
 21
210.7729057885297
 31
0.0000000000000000
  0
LINE
  5
90
100
AcDbEntity
  8
MAIN0
  6
CONTINUOUS
 62
3
100
AcDbLine
 10
372.2626896052786
 20
207.4274347418345
 30
0.0000000000000000
 11
372.2626896052786
 21
210.7728885973251
 31
0.0000000000000000
  0
LINE
  5
91
100
AcDbEntity
  8
MAIN0
  6
CONTINUOUS
 62
3
100
AcDbLine
 10
433.7828310318201
 20
357.1660678110008
 30
0.0000000000000000
 11
436.6800790578624
 21
358.8387947387454
 31
0.0000000000000000
  0
LINE
  5
92
100
AcDbEntity
  8
MAIN0
  6
CONTINUOUS
 62
3
100
AcDbLine
 10
445.2828161438003
 20
337.2474749283564
 30
0.0000000000000000
 11
448.1800790578624
 21
338.9202104517033
 31
0.0000000000000000
  0
DIMENSION
  5
9B
100
AcDbEntity
  8
MAIN0
  6
CONTINUOUS
 62
3
100
AcDbDimension
  2
*D1
 10
230.7626896052786
 20
315.7288133107610
 30
0.0000000000000000
 11
230.2626896052786
 21
301.7288133107610
 31
0.0000000000000000
 70
32
  3
MAIN001
100
AcDbAlignedDimension
 13
217.2301239760129
 23
287.7288133107610
 33
0.0000000000000000
 14
217.2301239760010
 24
315.7288133107610
 34
0.0000000000000000
 50
90.00000000000000
100
AcDbRotatedDimension
1001
ACAD
1000
DSTYLE
1002
{
1070
   173
1070
     1
1070
     6
1000
_OPEN
1070
     7
1000
_OPEN
1070
    41
1040
2.000000
1002
}
  0
DIMENSION
  5
A4
100
AcDbEntity
  8
MAIN0
  6
CONTINUOUS
 62
3
100
AcDbDimension
  2
*D2
 10
230.7626896052786
 20
284.7283015195323
 30
0.0000000000000000
 11
230.2626896052786
 21
244.7283015195470
 31
0.0000000000000000
 70
32
  3
MAIN001
100
AcDbAlignedDimension
 13
197.5328843340942
 23
204.7283015195616
 33
0.0000000000000000
 14
217.0328843341829
 24
284.7283015195400
 34
0.0000000000000000
 50
90.00000000000000
100
AcDbRotatedDimension
1001
ACAD
1000
DSTYLE
1002
{
1070
   173
1070
     1
1070
     6
1000
_OPEN
1070
     7
1000
_OPEN
1070
    41
1040
2.000000
1002
}
  0
DIMENSION
  5
AD
100
AcDbEntity
  8
MAIN0
  6
CONTINUOUS
 62
3
100
AcDbDimension
  2
*D3
 10
61.31576535661912
 20
185.3021987015852
 30
0.0000000000000000
 11
105.3157653566191
 21
185.8021987015852
 31
0.0000000000000000
 70
32
  3
MAIN001
100
AcDbAlignedDimension
 13
149.3157653566192
 23
173.5943119371947
 33
0.0000000000000000
 14
61.31576535661912
 24
173.5943119371947
 34
0.0000000000000000
100
AcDbRotatedDimension
1001
ACAD
1000
DSTYLE
1002
{
1070
   173
1070
     1
1070
     6
1000
_OPEN
1070
     7
1000
_OPEN
1070
    41
1040
2.000000
1002
}
  0
DIMENSION
  5
B6
100
AcDbEntity
  8
MAIN0
  6
CONTINUOUS
 62
3
100
AcDbDimension
  2
*D4
 10
79.09076535661905
 20
124.1020682067330
 30
0.0000000000000000
 11
90.20326535661906
 21
124.6020682067330
 31
0.0000000000000000
 70
32
  3
MAIN001
100
AcDbAlignedDimension
 13
101.3157653566191
 23
125.0761352001049
 33
0.0000000000000000
 14
79.09076535661905
 24
129.3820600411953
 34
0.0000000000000000
100
AcDbRotatedDimension
1001
ACAD
1000
DSTYLE
1002
{
1070
   173
1070
     1
1070
     6
1000
_OPEN
1070
     7
1000
_OPEN
1070
    41
1040
2.000000
1002
}
  0
DIMENSION
  5
BF
100
AcDbEntity
  8
MAIN0
  6
CONTINUOUS
 62
3
100
AcDbDimension
  2
*D5
 10
101.3157653566191
 20
124.1020682067330
 30
0.0000000000000000
 11
112.4282653566191
 21
124.6020682067330
 31
0.0000000000000000
 70
32
  3
MAIN001
100
AcDbAlignedDimension
 13
123.5407653566191
 23
129.3820600411953
 33
0.0000000000000000
 14
101.3157653566191
 24
125.0761352001049
 34
0.0000000000000000
100
AcDbRotatedDimension
1001
ACAD
1000
DSTYLE
1002
{
1070
   173
1070
     1
1070
     6
1000
_OPEN
1070
     7
1000
_OPEN
1070
    41
1040
2.000000
1002
}
  0
DIMENSION
  5
C8
100
AcDbEntity
  8
MAIN0
  6
CONTINUOUS
 62
3
100
AcDbDimension
  2
*D6
 10
163.0108682154061
 20
174.5943119371947
 30
0.0000000000000000
 11
162.5108682154061
 21
154.0943119371947
 31
0.0000000000000000
 70
32
  3
MAIN001
100
AcDbAlignedDimension
 13
107.3557653566191
 23
133.5943119371947
 33
0.0000000000000000
 14
148.3157653566192
 24
174.5943119371947
 34
0.0000000000000000
 50
90.00000000000000
100
AcDbRotatedDimension
1001
ACAD
1000
DSTYLE
1002
{
1070
   173
1070
     1
1070
     6
1000
_OPEN
1070
     7
1000
_OPEN
1070
    41
1040
2.000000
1002
}
  0
LINE
  5
C9
100
AcDbEntity
  8
MAIN0
  6
CONTINUOUS
 62
3
100
AcDbLine
 10
175.6301239760465
 20
208.7288219691419
 30
0.0000000000000000
 11
173.6301239760473
 21
206.7288219691419
 31
0.0000000000000000
  0
LINE
  5
CA
100
AcDbEntity
  8
MAIN0
  6
CONTINUOUS
 62
3
100
AcDbLine
 10
183.6298913757420
 20
251.0683015195764
 30
0.0000000000000000
 11
183.6298913757420
 21
284.7288219691419
 31
0.0000000000000000
  0
LINE
  5
CB
100
AcDbEntity
  8
MAIN0
  6
CONTINUOUS
 62
3
100
AcDbLine
 10
183.6298913757420
 20
206.7288219691419
 30
0.0000000000000000
 11
183.6298913757420
 21
238.3883015195771
 31
0.0000000000000000
  0
LINE
  5
CC
100
AcDbEntity
  8
MAIN0
  6
CONTINUOUS
 62
3
100
AcDbLine
 10
110.6301239759738
 20
379.7288133107610
 30
0.0000000000000000
 11
110.6301239759740
 21
379.2288133107610
 31
0.0000000000000000
  0
LINE
  5
CD
100
AcDbEntity
  8
MAIN0
  6
CONTINUOUS
 62
3
100
AcDbLine
 10
110.6301239759737
 20
379.7288133107610
 30
0.0000000000000000
 11
111.3801239759738
 21
379.7288133107610
 31
0.0000000000000000
  0
ARC
  5
CE
100
AcDbEntity
  8
MAIN0
  6
CONTINUOUS
 62
3
100
AcDbCircle
 10
369.4233168386080
 20
296.7285978462479
 30
0.0000000000000000
 40
73.01162052311651
100
AcDbArc
 50
160.2564233030442
 51
161.0549591487444
  0
ARC
  5
CF
100
AcDbEntity
  8
MAIN0
  6
CONTINUOUS
 62
3
100
AcDbCircle
 10
369.4233168386080
 20
296.7285978462479
 30
0.0000000000000000
 40
73.01162052311651
100
AcDbArc
 50
138.9450646597639
 51
139.7435894286086
  0
ARC
  5
D0
100
AcDbEntity
  8
MAIN0
  6
CONTINUOUS
 62
3
100
AcDbCircle
 10
360.7626896052786
 20
311.7292442398510
 30
0.0000000000000000
 40
73.01162052317847
100
AcDbArc
 50
280.2564233030354
 51
281.0549591487343
  0
ARC
  5
D1
100
AcDbEntity
  8
MAIN0
  6
CONTINUOUS
 62
3
100
AcDbCircle
 10
360.7626896052786
 20
311.7292442398510
 30
0.0000000000000000
 40
73.01162052317847
100
AcDbArc
 50
258.9450646597729
 51
259.7435894286170
  0
ARC
  5
D2
100
AcDbEntity
  8
MAIN0
  6
CONTINUOUS
 62
3
100
AcDbCircle
 10
352.1020623719313
 20
296.7285978462369
 30
0.0000000000000000
 40
73.01162582487686
100
AcDbArc
 50
40.25643356471574
 51
41.05495833587258
  0
ARC
  5
D3
100
AcDbEntity
  8
MAIN0
  6
CONTINUOUS
 62
3
100
AcDbCircle
 10
352.1020623719313
 20
296.7285978462369
 30
0.0000000000000000
 40
73.01162582487686
100
AcDbArc
 50
18.94506547263307
 51
19.74358942861146
  0
MTEXT
  5
D4
100
AcDbEntity
  8
MAIN0
  6
CONTINUOUS
 62
3
100
AcDbMText
 10
401.3780614096392
 20
264.0767008442123
 30
0.0000000000000000
 40
4.000000000000000
 41
0.0000000000000000
 71
     1
 72
     1
  1
{JN07TN}
 11
0.5000000000000009
 21
0.8660254037844382
 31
0.0000000000000000
  7
STANDARD
  0
MTEXT
  5
D5
100
AcDbEntity
  8
MAIN0
  6
CONTINUOUS
 62
3
100
AcDbMText
 10
403.9742138323458
 20
256.5733687445332
 30
0.0000000000000000
 40
5.000000000000000
 41
0.0000000000000000
 71
     1
 72
     1
  1
{\H0.93x;{KITAGAWA}}
 11
0.5000000000000009
 21
0.8660254037844382
 31
0.0000000000000000
  7
STANDARD
  0
LINE
  5
D6
100
AcDbEntity
  8
MAIN0
  6
CONTINUOUS
 62
3
100
AcDbLine
 10
409.1703662550524
 20
253.5733687445332
 30
0.0000000000000000
 11
426.6703662550525
 21
283.8842578769887
 31
0.0000000000000000
  0
MTEXT
  5
D7
100
AcDbEntity
  8
MAIN0
  6
CONTINUOUS
 62
3
100
AcDbMText
 10
414.7786031532970
 20
260.3871198978094
 30
0.0000000000000000
 40
3.099999904632568
 41
0.0000000000000000
 71
     1
 72
     1
  1
{JAPAN}
 11
0.5000000000000009
 21
0.8660254037844382
 31
0.0000000000000000
  7
STANDARD
  0
MTEXT
  5
D8
100
AcDbEntity
  8
MAIN0
  6
CONTINUOUS
 62
3
100
AcDbMText
 10
382.7626896052786
 20
370.7288133107610
 30
0.0000000000000000
 40
3.000000000000000
 41
0.0000000000000000
 71
     1
 72
     1
  1
{\H0.63x;{77-1 MOTOMACHI FUCHU-SHI\PHIROSHIMA 726-8610 JAPAN}}
 11
-1.000000000000000
 21
2.786999939015111e-015
 31
0.0000000000000000
  7
STANDARD
  0
MTEXT
  5
D9
100
AcDbEntity
  8
MAIN0
  6
CONTINUOUS
 62
3
100
AcDbMText
 10
371.2626896052786
 20
382.7288133107610
 30
0.0000000000000000
 40
3.000000000000000
 41
0.0000000000000000
 71
     1
 72
     1
  1
{\H0.63x;{SCROLL CHUCK}}
 11
-1.000000000000000
 21
2.786999939015111e-015
 31
0.0000000000000000
  7
STANDARD
  0
LINE
  5
DA
100
AcDbEntity
  8
MAIN0
  6
CENTER
 62
3
100
AcDbLine
 10
270.4283347797875
 20
249.5742492351926
 30
0.0000000000000000
 11
294.5117462157722
 21
263.4788133107629
 31
0.0000000000000000
  0
LINE
  5
DB
100
AcDbEntity
  8
MAIN0
  6
CENTER
 62
3
100
AcDbLine
 10
306.6361018687543
 20
270.4788133107629
 30
0.0000000000000000
 11
372.2019749797759
 21
308.3332878010640
 31
0.0000000000000000
  0
LINE
  5
DC
100
AcDbEntity
  8
MAIN0
  6
CENTER
 62
3
100
AcDbLine
 10
360.7626896052786
 20
191.7288133107610
 30
0.0000000000000000
 11
360.7626896052786
 21
369.2288133107610
 31
0.0000000000000000
  0
LINE
  5
DD
100
AcDbEntity
  8
MAIN0
  6
CENTER
 62
3
100
AcDbLine
 10
360.7626896052786
 20
379.2288133107610
 30
0.0000000000000000
 11
360.7626896052786
 21
381.2288133107610
 31
0.0000000000000000
  0
LINE
  5
DE
100
AcDbEntity
  8
MAIN0
  6
CENTER
 62
3
100
AcDbLine
 10
360.7626896052786
 20
387.2288133107610
 30
0.0000000000000000
 11
360.7626896052786
 21
411.7288133107610
 31
0.0000000000000000
  0
DIMENSION
  5
E7
100
AcDbEntity
  8
MAIN0
  6
CONTINUOUS
 62
3
100
AcDbDimension
  2
*D7
 10
360.7626896052786
 20
191.7288133107610
 30
0.0000000000000000
 11
331.1279089410399
 21
191.1303062006627
 31
0.0000000000000000
 70
162
  3
MAIN001
100
AcDb2LineAngularDimension
 13
311.8487480437278
 23
217.0073813277001
 33
0.0000000000000000
 14
312.3487480437278
 24
217.8734067314845
 34
0.0000000000000000
 15
360.7626896052786
 25
192.7288133107610
 35
0.0000000000000000
 16
330.9984994184887
 26
190.6473432875182
 36
0.0000000000000000
1001
ACAD
1000
DSTYLE
1002
{
1070
   173
1070
     1
1070
     6
1000
_OPEN
1070
     7
1000
_OPEN
1070
    41
1040
2.000000
1002
}
  0
LINE
  5
E8
100
AcDbEntity
  8
MAIN0
  6
PHANTOM
 62
3
100
AcDbLine
 10
432.3275540423506
 20
274.2672260240697
 30
0.0000000000000000
 11
436.6576810612708
 21
271.7672260240656
 31
0.0000000000000000
  0
LINE
  5
E9
100
AcDbEntity
  8
MAIN0
  6
PHANTOM
 62
3
100
AcDbLine
 10
436.6576810612708
 20
271.7672260240656
 30
0.0000000000000000
 11
424.6576810612144
 21
250.9826163332716
 31
0.0000000000000000
  0
LINE
  5
EA
100
AcDbEntity
  8
MAIN0
  6
PHANTOM
 62
3
100
AcDbLine
 10
432.3275540423508
 20
274.2672260240696
 30
0.0000000000000000
 11
420.3275540422944
 21
253.4826163332756
 31
0.0000000000000000
  0
LINE
  5
EB
100
AcDbEntity
  8
MAIN0
  6
PHANTOM
 62
3
100
AcDbLine
 10
420.3275540422941
 20
253.4826163332757
 30
0.0000000000000000
 11
424.6576810612141
 21
250.9826163332717
 31
0.0000000000000000
  0
DIMENSION
  5
F4
100
AcDbEntity
  8
MAIN0
  6
CONTINUOUS
 62
3
100
AcDbDimension
  2
*D8
 10
343.1372400511013
 20
350.1543379685997
 30
0.0000000000000000
 11
340.7063250847482
 21
415.4741087836711
 31
0.0000000000000000
 70
162
  3
MAIN001
100
AcDb2LineAngularDimension
 13
360.7626896052786
 23
411.7288133107610
 33
0.0000000000000000
 14
360.7626896052786
 24
410.7288133107610
 34
0.0000000000000000
 15
343.4792601944270
 25
349.2146453478138
 35
0.0000000000000000
 16
340.7931491735817
 26
414.9817049071650
 36
0.0000000000000000
1001
ACAD
1000
DSTYLE
1002
{
1070
   173
1070
     1
1070
     6
1000
_OPEN
1070
     7
1000
_OPEN
1070
    41
1040
2.000000
1002
}
  0
SPLINE
  5
F5
100
AcDbEntity
  8
MAIN0
  6
CONTINUOUS
 62
3
100
AcDbSpline
210
0.0000000000000000
220
0.0000000000000000
230
1.000000000000000
 70
     8
 71
     3
 72
    19
 73
    15
 74
     0
 42
1.000000000000000e-007
 43
1.000000000000000e-007
 12
0.2050552413747369
 22
-0.9793532445659281
 32
0.0000000000000000
 13
-0.3030257844658486
 23
-0.9547432368065216
 33
0.0000000000000000
 40
0.0000000000000000
 40
0.0000000000000000
 40
0.0000000000000000
 40
0.0000000000000000
 40
17.28347178826037
 40
30.41907430008447
 40
38.32476845050542
 40
43.91493839425489
 40
57.37785041209115
 40
70.12539919607312
 40
98.07624891482050
 40
125.6896514577886
 40
138.1896514577886
 40
154.0010397586305
 40
177.0499009018627
 40
195.2501756250640
 40
195.2501756250640
 40
195.2501756250640
 40
195.2501756250640
 10
108.2626896052786
 20
396.7288133107610
 30
0.0000000000000000
 10
109.4440450983903
 20
391.0866052530288
 30
0.0000000000000000
 10
111.5232419727235
 20
381.1562655488689
 30
0.0000000000000000
 10
112.4777958784619
 20
368.3587406583386
 30
0.0000000000000000
 10
115.2671144631941
 20
359.8440983821059
 30
0.0000000000000000
 10
119.5638119295957
 20
351.9526872052959
 30
0.0000000000000000
 10
123.7332935553073
 20
342.0934335436592
 30
0.0000000000000000
 10
126.4140600943361
 20
324.1829167758867
 30
0.0000000000000000
 10
131.5254601033282
 20
301.9067960013653
 30
0.0000000000000000
 10
132.8036261412312
 20
279.3824958500855
 30
0.0000000000000000
 10
134.3694313518835
 20
260.4275424016392
 30
0.0000000000000000
 10
126.3707774452866
 20
244.6847329903740
 30
0.0000000000000000
 10
124.2675910319307
 20
225.6484542082902
 30
0.0000000000000000
 10
120.1010737804426
 20
212.5210097107600
 30
0.0000000000000000
 10
118.2626896052786
 20
206.7288133107610
 30
0.0000000000000000
  0
DIMENSION
  5
FE
100
AcDbEntity
  8
MAIN0
  6
CONTINUOUS
 62
3
100
AcDbDimension
  2
*D9
 10
175.6301239760465
 20
411.7288133107610
 30
0.0000000000000000
 11
151.8801239760049
 21
412.2288133107610
 31
0.0000000000000000
 70
32
  3
MAIN001
100
AcDbAlignedDimension
 13
128.1301239759634
 23
404.2288133108600
 33
0.0000000000000000
 14
175.6301239759672
 24
395.1288133107611
 34
0.0000000000000000
100
AcDbRotatedDimension
1001
ACAD
1000
DSTYLE
1002
{
1070
   173
1070
     1
1070
     6
1000
_OPEN
1070
     7
1000
_OPEN
1070
    41
1040
2.000000
1002
}
  0
DIMENSION
  5
107
100
AcDbEntity
  8
MAIN0
  6
CONTINUOUS
 62
3
100
AcDbDimension
  2
*D10
 10
128.1301239759634
 20
411.7288133107610
 30
0.0000000000000000
 11
114.3801239759653
 21
412.2288133107610
 31
0.0000000000000000
 70
32
  3
MAIN001
100
AcDbAlignedDimension
 13
100.6301239759673
 23
395.1288133107610
 33
0.0000000000000000
 14
128.1301239759634
 24
404.2288133108600
 34
0.0000000000000000
100
AcDbRotatedDimension
1001
ACAD
1000
DSTYLE
1002
{
1070
   173
1070
     1
1070
     6
1000
_OPEN
1070
     7
1000
_OPEN
1070
    41
1040
2.000000
1002
}
  0
DIMENSION
  5
110
100
AcDbEntity
  8
MAIN0
  6
CONTINUOUS
 62
1
100
AcDbDimension
  2
*D11
 10
572.7626896052786
 20
454.2288133107610
 30
0.0000000000000000
 11
505.7626896052786
 21
454.7288133107610
 31
0.0000000000000000
 70
32
  1
\A1;240
  3
MAIN001
100
AcDbAlignedDimension
 13
438.7626896052786
 23
431.1288133107611
 33
0.0000000000000000
 14
572.7626896052786
 24
431.1288133107611
 34
0.0000000000000000
100
AcDbRotatedDimension
1001
ACAD
1000
DSTYLE
1002
{
1070
   173
1070
     1
1070
     6
1000
_OPEN
1070
     7
1000
_OPEN
1070
    41
1040
2.000000
1002
}
  0
DIMENSION
  5
118
100
AcDbEntity
  8
MAIN0
  6
CONTINUOUS
 62
1
100
AcDbDimension
  2
*D12
 10
393.7626896052358
 20
399.2288133107610
 30
0.0000000000000000
 11
449.7626896052572
 21
399.7288133107610
 31
0.0000000000000000
 70
32
  1
\A1;MAX 218
  3
MAIN001
100
AcDbAlignedDimension
 13
505.7626896052786
 23
383.8702280567102
 33
0.0000000000000000
 14
393.7626896052358
 24
412.3288133107610
 34
0.0000000000000000
100
AcDbRotatedDimension
1001
ACAD
1000
DSTYLE
1002
{
1070
   173
1070
     1
1070
     6
1000
_OPEN
1070
     7
1000
_OPEN
1070
    41
1040
2.000000
1002
}
  0
DIMENSION
  5
121
100
AcDbEntity
  8
MAIN0
  6
CONTINUOUS
 62
3
100
AcDbDimension
  2
*D13
 10
448.7626896052786
 20
444.2288133107610
 30
0.0000000000000000
 11
443.7626896052786
 21
444.7288133107610
 31
0.0000000000000000
 70
32
  3
MAIN001
100
AcDbAlignedDimension
 13
438.7626896052786
 23
431.1288133107611
 33
0.0000000000000000
 14
448.7626896052786
 24
431.1288133107611
 34
0.0000000000000000
100
AcDbRotatedDimension
1001
ACAD
1000
DSTYLE
1002
{
1070
   173
1070
     1
1070
     6
1000
_OPEN
1070
     7
1000
_OPEN
1070
    41
1040
2.000000
1002
}
  0
DIMENSION
  5
12A
100
AcDbEntity
  8
MAIN0
  6
CONTINUOUS
 62
3
100
AcDbDimension
  2
*D14
 10
430.7626896052786
 20
431.7288133107610
 30
0.0000000000000000
 11
430.2626896052786
 21
421.7288133107610
 31
0.0000000000000000
 70
32
  1
\A1;\U+220520
  3
MAIN001
100
AcDbAlignedDimension
 13
439.3626896052787
 23
411.7288133107610
 33
0.0000000000000000
 14
439.3626896052787
 24
431.7288133107610
 34
0.0000000000000000
 50
90.00000000000000
100
AcDbRotatedDimension
1001
ACAD
1000
DSTYLE
1002
{
1070
   173
1070
     1
1070
     6
1000
_OPEN
1070
     7
1000
_OPEN
1070
    41
1040
2.000000
1002
}
  0
DIMENSION
  5
133
100
AcDbEntity
  8
MAIN0
  6
CONTINUOUS
 62
3
100
AcDbDimension
  2
*D15
 10
538.2626896052786
 20
421.7288133107610
 30
0.0000000000000000
 11
537.7626896052786
 21
439.2288133107610
 31
0.0000000000000000
 70
160
  3
MAIN001
100
AcDbAlignedDimension
 13
515.7626896052285
 23
434.7288133107610
 33
0.0000000000000000
 14
431.7626896052786
 24
421.7288133107610
 34
0.0000000000000000
 50
90.00000000000000
100
AcDbRotatedDimension
1001
ACAD
1000
DSTYLE
1002
{
1070
   173
1070
     1
1070
     6
1000
_OPEN
1070
     7
1000
_OPEN
1070
    41
1040
2.000000
1002
}
  0
DIMENSION
  5
13B
100
AcDbEntity
  8
MAIN0
  6
CONTINUOUS
 62
3
100
AcDbDimension
  2
*D16
 10
175.6301239760465
 20
329.2288133107610
 30
0.0000000000000000
 11
196.6301239760296
 21
329.7288133107610
 31
0.0000000000000000
 70
32
  3
MAIN001
100
AcDbAlignedDimension
 13
217.6301239760012
 23
315.3288133107610
 33
0.0000000000000000
 14
175.6301239760465
 24
208.7288219691419
 34
0.0000000000000000
100
AcDbRotatedDimension
1001
ACAD
1000
DSTYLE
1002
{
1070
   173
1070
     1
1070
     6
1000
_OPEN
1070
     7
1000
_OPEN
1070
    41
1040
2.000000
1002
}
  0
LINE
  5
13C
100
AcDbEntity
  8
MAIN0
  6
HIDDEN
 62
3
100
AcDbLine
 10
175.6301239760186
 20
274.2288133107610
 30
0.0000000000000000
 11
133.2626896433165
 21
274.2288133107610
 31
0.0000000000000000
  0
LINE
  5
13D
100
AcDbEntity
  8
MAIN0
  6
HIDDEN
 62
3
100
AcDbLine
 10
175.6301239759952
 20
329.2288133107610
 30
0.0000000000000000
 11
125.7626895731020
 21
329.2288133107610
 31
0.0000000000000000
  0
ARC
  5
13E
100
AcDbEntity
  8
MAIN0
  6
HIDDEN
 62
3
100
AcDbCircle
 10
346.2626896052786
 20
385.0261872189461
 30
0.0000000000000000
 40
4.000000000000000
100
AcDbArc
 50
33.41206485188246
 51
298.3593748656128
  0
ARC
  5
13F
100
AcDbEntity
  8
MAIN0
  6
HIDDEN
 62
3
100
AcDbCircle
 10
346.2626896052786
 20
385.0261872189461
 30
0.0000000000000000
 40
3.400000000000000
100
AcDbArc
 50
40.37828279148790
 51
303.9745069572535
  0
CIRCLE
  5
140
100
AcDbEntity
  8
MAIN0
  6
CONTINUOUS
 62
3
100
AcDbCircle
 10
445.7626896052785
 20
301.7288133107610
 30
0.0000000000000000
 40
8.500000000000000
  0
CIRCLE
  5
141
100
AcDbEntity
  8
MAIN0
  6
CONTINUOUS
 62
3
100
AcDbCircle
 10
318.2626896052786
 20
228.1166539890836
 30
0.0000000000000000
 40
8.500000000000000
  0
CIRCLE
  5
142
100
AcDbEntity
  8
MAIN0
  6
CONTINUOUS
 62
3
100
AcDbCircle
 10
318.2626896052787
 20
375.3409726324383
 30
0.0000000000000000
 40
8.500000000000000
  0
LINE
  5
143
100
AcDbEntity
  8
MAIN0
  6
CONTINUOUS
 62
3
100
AcDbLine
 10
374.7627044932984
 20
212.2162728658988
 30
0.0000000000000000
 11
374.7627044932984
 21
277.2422156136663
 31
0.0000000000000000
  0
LINE
  5
144
100
AcDbEntity
  8
MAIN0
  6
CONTINUOUS
 62
3
100
AcDbLine
 10
346.7627044932984
 20
212.2162728658989
 30
0.0000000000000000
 11
346.7627044932984
 21
277.2422156136662
 31
0.0000000000000000
  0
ARC
  5
145
100
AcDbEntity
  8
MAIN0
  6
CONTINUOUS
 62
3
100
AcDbCircle
 10
360.7627044932984
 20
311.7292442397826
 30
0.0000000000000000
 40
27.00000000000000
100
AcDbArc
 50
267.8774486378567
 51
272.1225513621434
  0
LINE
  5
146
100
AcDbEntity
  8
MAIN0
  6
CONTINUOUS
 62
3
100
AcDbLine
 10
374.7627044932984
 20
277.2422156136663
 30
0.0000000000000000
 11
361.7627044929721
 21
284.7477691133064
 31
0.0000000000000000
  0
LINE
  5
147
100
AcDbEntity
  8
MAIN0
  6
CONTINUOUS
 62
3
100
AcDbLine
 10
346.7627044932985
 20
277.2422156136663
 30
0.0000000000000000
 11
359.7627044936249
 21
284.7477691133064
 31
0.0000000000000000
  0
LINE
  5
148
100
AcDbEntity
  8
MAIN0
  6
CONTINUOUS
 62
3
100
AcDbLine
 10
374.7627044932984
 20
212.2162728658988
 30
0.0000000000000000
 11
361.7947905151190
 21
204.7292442397825
 31
0.0000000000000000
  0
LINE
  5
149
100
AcDbEntity
  8
MAIN0
  6
CONTINUOUS
 62
3
100
AcDbLine
 10
346.7627044932984
 20
212.2162728658989
 30
0.0000000000000000
 11
360.0078950906067
 21
204.5691585090887
 31
0.0000000000000000
  0
ARC
  5
14A
100
AcDbEntity
  8
MAIN0
  6
CONTINUOUS
 62
3
100
AcDbCircle
 10
360.7627044932984
 20
311.7292442397826
 30
0.0000000000000000
 40
53.10000000000000
100
AcDbArc
 50
254.7130420561361
 51
255.8287389113720
  0
ARC
  5
14B
100
AcDbEntity
  8
MAIN0
  6
CONTINUOUS
 62
3
100
AcDbCircle
 10
360.7627044932984
 20
311.7292442397826
 30
0.0000000000000000
 40
53.10000000000000
100
AcDbArc
 50
284.1712610886279
 51
285.2869579438639
  0
ARC
  5
14C
100
AcDbEntity
  8
MAIN0
  6
CONTINUOUS
 62
3
100
AcDbCircle
 10
360.7627044932984
 20
177.7292442397826
 30
0.0000000000000000
 40
57.50000000000000
100
AcDbArc
 50
76.93319665865244
 51
103.0668033413476
  0
ARC
  5
14D
100
AcDbEntity
  8
MAIN0
  6
CONTINUOUS
 62
3
100
AcDbCircle
 10
360.7627044932984
 20
177.7292442397826
 30
0.0000000000000000
 40
63.50000000000000
100
AcDbArc
 50
78.18664601189197
 51
101.8133667197601
  0
ARC
  5
14E
100
AcDbEntity
  8
MAIN0
  6
CONTINUOUS
 62
3
100
AcDbCircle
 10
360.7627044932984
 20
177.7292442397826
 30
0.0000000000000000
 40
80.00000000000000
100
AcDbArc
 50
79.92134189221235
 51
100.0786581077877
  0
ARC
  5
14F
100
AcDbEntity
  8
MAIN0
  6
CONTINUOUS
 62
3
100
AcDbCircle
 10
360.7627044932984
 20
311.7292442397826
 30
0.0000000000000000
 40
79.09999999999999
100
AcDbArc
 50
279.4594143199403
 51
280.1945516327704
  0
ARC
  5
150
100
AcDbEntity
  8
MAIN0
  6
CONTINUOUS
 62
3
100
AcDbCircle
 10
360.7627044932984
 20
311.7292442397826
 30
0.0000000000000000
 40
79.09999999999999
100
AcDbArc
 50
259.8054483672296
 51
260.5405856800597
  0
ARC
  5
151
100
AcDbEntity
  8
MAIN0
  6
CONTINUOUS
 62
3
100
AcDbCircle
 10
360.7627044932984
 20
177.7292442397826
 30
0.0000000000000000
 40
83.50000000000000
100
AcDbArc
 50
81.04326371208930
 51
85.82852474793361
  0
ARC
  5
152
100
AcDbEntity
  8
MAIN0
  6
CONTINUOUS
 62
3
100
AcDbCircle
 10
360.7627044932984
 20
177.7292442397826
 30
0.0000000000000000
 40
83.50000000000000
100
AcDbArc
 50
94.17147525206629
 51
98.95673628791072
  0
ARC
  5
153
100
AcDbEntity
  8
MAIN0
  6
CONTINUOUS
 62
3
100
AcDbCircle
 10
360.7627044932984
 20
177.7292442397826
 30
0.0000000000000000
 40
35.00000000000000
100
AcDbArc
 50
70.79334353837899
 51
109.2066564616210
  0
LINE
  5
154
100
AcDbEntity
  8
MAIN0
  6
CENTER
 62
3
100
AcDbLine
 10
348.2621413677396
 20
266.9542442397826
 30
0.0000000000000000
 11
372.5130938464847
 21
266.9542442397826
 31
0.0000000000000000
  0
LINE
  5
155
100
AcDbEntity
  8
MAIN0
  6
CENTER
 62
3
100
AcDbLine
 10
348.2621413677396
 20
222.5042442397825
 30
0.0000000000000000
 11
372.5130938464847
 21
222.5042442397825
 31
0.0000000000000000
  0
LINE
  5
156
100
AcDbEntity
  8
MAIN0
  6
CONTINUOUS
 62
3
100
AcDbLine
 10
361.7947905151190
 20
204.7292442397824
 30
0.0000000000000000
 11
359.7306184714778
 21
204.7292442397824
 31
0.0000000000000000
  0
LINE
  5
157
100
AcDbEntity
  8
MAIN0
  6
CONTINUOUS
 62
3
100
AcDbLine
 10
431.2828161438026
 20
358.6094520795784
 30
0.0000000000000000
 11
374.9686978192036
 21
326.0964807056947
 31
0.0000000000000000
  0
LINE
  5
158
100
AcDbEntity
  8
MAIN0
  6
CONTINUOUS
 62
3
100
AcDbLine
 10
445.2828161438026
 20
334.3607407736141
 30
0.0000000000000000
 11
388.9686978192036
 21
301.8477693997305
 31
0.0000000000000000
  0
ARC
  5
159
100
AcDbEntity
  8
MAIN0
  6
CONTINUOUS
 62
3
100
AcDbCircle
 10
352.1020549279457
 20
296.7286107396544
 30
0.0000000000000000
 40
27.00000000000000
100
AcDbArc
 50
27.87744863785661
 51
32.12255136214332
  0
LINE
  5
15A
100
AcDbEntity
  8
MAIN0
  6
CONTINUOUS
 62
3
100
AcDbLine
 10
374.9686978192036
 20
326.0964807056947
 30
0.0000000000000000
 11
374.9686978192152
 21
311.0853737063944
 31
0.0000000000000000
  0
LINE
  5
15B
100
AcDbEntity
  8
MAIN0
  6
CONTINUOUS
 62
3
100
AcDbLine
 10
388.9686978192036
 20
301.8477693997305
 30
0.0000000000000000
 11
375.9686978188888
 21
309.3533228993908
 31
0.0000000000000000
  0
LINE
  5
15C
100
AcDbEntity
  8
MAIN0
  6
CONTINUOUS
 62
3
100
AcDbLine
 10
431.2828161438026
 20
358.6094520795784
 30
0.0000000000000000
 11
444.2507301219705
 21
351.1224234534419
 31
0.0000000000000000
  0
LINE
  5
15D
100
AcDbEntity
  8
MAIN0
  6
CONTINUOUS
 62
3
100
AcDbLine
 10
445.2828161438026
 20
334.3607407736141
 30
0.0000000000000000
 11
445.2828161437910
 21
349.3347980258670
 31
0.0000000000000000
  0
ARC
  5
15E
100
AcDbEntity
  8
MAIN0
  6
CONTINUOUS
 62
3
100
AcDbCircle
 10
352.1020549279457
 20
296.7286107396544
 30
0.0000000000000000
 40
53.10000000000000
100
AcDbArc
 50
14.71304205613605
 51
15.82873891137205
  0
ARC
  5
15F
100
AcDbEntity
  8
MAIN0
  6
CONTINUOUS
 62
3
100
AcDbCircle
 10
352.1020549279457
 20
296.7286107396544
 30
0.0000000000000000
 40
53.10000000000000
100
AcDbArc
 50
44.17126108862799
 51
45.28695794386388
  0
ARC
  5
160
100
AcDbEntity
  8
MAIN0
  6
CONTINUOUS
 62
3
100
AcDbCircle
 10
468.1494590350605
 20
363.7286107396544
 30
0.0000000000000000
 40
57.50000000000000
100
AcDbArc
 50
195.9080785005820
 51
224.0919214994181
  0
ARC
  5
161
100
AcDbEntity
  8
MAIN0
  6
CONTINUOUS
 62
3
100
AcDbCircle
 10
468.1494590350605
 20
363.7286107396544
 30
0.0000000000000000
 40
80.00000000000000
100
AcDbArc
 50
199.9213418922123
 51
220.0786581077876
  0
ARC
  5
162
100
AcDbEntity
  8
MAIN0
  6
CONTINUOUS
 62
3
100
AcDbCircle
 10
468.1494590350605
 20
363.7286107396544
 30
0.0000000000000000
 40
83.50000000000000
100
AcDbArc
 50
201.0432637120893
 51
205.8285247479337
  0
ARC
  5
163
100
AcDbEntity
  8
MAIN0
  6
CONTINUOUS
 62
3
100
AcDbCircle
 10
468.1494590350605
 20
363.7286107396544
 30
0.0000000000000000
 40
83.50000000000000
100
AcDbArc
 50
214.1714752520662
 51
218.9567362879107
  0
ARC
  5
164
100
AcDbEntity
  8
MAIN0
  6
CONTINUOUS
 62
3
100
AcDbCircle
 10
468.1494590350605
 20
363.7286107396544
 30
0.0000000000000000
 40
35.00000000000000
100
AcDbArc
 50
190.7933435383790
 51
229.2066564616210
  0
LINE
  5
165
100
AcDbEntity
  8
MAIN0
  6
CENTER
 62
3
100
AcDbLine
 10
396.8171956012154
 20
308.8297152259617
 30
0.0000000000000000
 11
384.6710992784154
 21
329.8673711706768
 31
0.0000000000000000
  0
LINE
  5
166
100
AcDbEntity
  8
MAIN0
  6
CENTER
 62
3
100
AcDbLine
 10
435.3120247994337
 20
331.0547152259617
 30
0.0000000000000000
 11
423.1659284766337
 21
352.0923711706768
 31
0.0000000000000000
  0
LINE
  5
167
100
AcDbEntity
  8
MAIN0
  6
CONTINUOUS
 62
3
100
AcDbLine
 10
444.2507301219705
 20
351.1224234534419
 30
0.0000000000000000
 11
445.2828161437910
 21
349.3347980258670
 31
0.0000000000000000
  0
ARC
  5
168
100
AcDbEntity
  8
MAIN0
  6
CONTINUOUS
 62
3
100
AcDbCircle
 10
468.1494590350605
 20
363.7286107396544
 30
0.0000000000000000
 40
63.50000000000000
100
AcDbArc
 50
198.1866332802400
 51
221.8133667197601
  0
LINE
  5
169
100
AcDbEntity
  8
MAIN0
  6
CONTINUOUS
 62
3
100
AcDbLine
 10
102.2301239759665
 20
396.7288133107610
 30
0.0000000000000000
 11
174.0301239759665
 21
396.7288133107610
 31
0.0000000000000000
  0
LINE
  5
16A
100
AcDbEntity
  8
MAIN0
  6
CONTINUOUS
 62
3
100
AcDbLine
 10
102.2301239760474
 20
206.7288133107610
 30
0.0000000000000000
 11
155.1298913757421
 21
206.7288133107610
 31
0.0000000000000000
  0
LINE
  5
16B
100
AcDbEntity
  8
MAIN0
  6
CONTINUOUS
 62
3
100
AcDbLine
 10
102.2301239759666
 20
396.7288133107610
 30
0.0000000000000000
 11
100.6301239759673
 21
395.1288133107610
 31
0.0000000000000000
  0
LINE
  5
16C
100
AcDbEntity
  8
MAIN0
  6
CONTINUOUS
 62
3
100
AcDbLine
 10
174.0301239759665
 20
396.7288133107611
 30
0.0000000000000000
 11
175.6301239759672
 21
395.1288133107611
 31
0.0000000000000000
  0
LINE
  5
16D
100
AcDbEntity
  8
MAIN0
  6
CONTINUOUS
 62
3
100
AcDbLine
 10
100.6301239760467
 20
208.3288133107610
 30
0.0000000000000000
 11
102.2301239760474
 21
206.7288133107610
 31
0.0000000000000000
  0
LINE
  5
16E
100
AcDbEntity
  8
MAIN0
  6
CONTINUOUS
 62
3
100
AcDbLine
 10
100.6301239759740
 20
379.2288133107610
 30
0.0000000000000000
 11
110.6301239759738
 21
379.2288133107610
 31
0.0000000000000000
  0
LINE
  5
16F
100
AcDbEntity
  8
MAIN0
  6
CONTINUOUS
 62
3
100
AcDbLine
 10
100.6301239760399
 20
224.2288133107610
 30
0.0000000000000000
 11
110.6301239790041
 21
224.2288133107610
 31
0.0000000000000000
  0
LINE
  5
170
100
AcDbEntity
  8
MAIN0
  6
CONTINUOUS
 62
3
100
AcDbLine
 10
105.6301239759742
 20
378.8288133107610
 30
0.0000000000000000
 11
105.6301239760398
 21
224.6288133107611
 31
0.0000000000000000
  0
LINE
  5
171
100
AcDbEntity
  8
MAIN0
  6
CONTINUOUS
 62
3
100
AcDbLine
 10
110.6301239790041
 20
379.2288133107610
 30
0.0000000000000000
 11
112.6529940635494
 21
362.7538585635152
 31
0.0000000000000000
  0
ARC
  5
172
100
AcDbEntity
  8
MAIN0
  6
CONTINUOUS
 62
3
100
AcDbCircle
 10
120.5933632766794
 20
363.7288133107609
 30
0.0000000000000000
 40
8.000000000000000
100
AcDbArc
 50
187.0000000000327
 51
243.8630120352621
  0
LINE
  5
173
100
AcDbEntity
  8
MAIN0
  6
CONTINUOUS
 62
3
100
AcDbLine
 10
110.6301239790041
 20
224.2288133107611
 30
0.0000000000000000
 11
112.6529940635495
 21
240.7037680580069
 31
0.0000000000000000
  0
ARC
  5
174
100
AcDbEntity
  8
MAIN0
  6
CONTINUOUS
 62
3
100
AcDbCircle
 10
120.5933632766795
 20
239.7288133107612
 30
0.0000000000000000
 40
8.000000000000000
100
AcDbArc
 50
90.00000000000000
 51
172.9999999999673
  0
LINE
  5
175
100
AcDbEntity
  8
MAIN0
  6
CONTINUOUS
 62
3
100
AcDbLine
 10
120.5933632766795
 20
247.7288133107610
 30
0.0000000000000000
 11
128.6110002165246
 21
247.7288133107610
 31
0.0000000000000000
  0
LINE
  5
176
100
AcDbEntity
  8
MAIN0
  6
CONTINUOUS
 62
3
100
AcDbLine
 10
105.6301239759887
 20
344.7288133107610
 30
0.0000000000000000
 11
118.6301239759887
 21
344.7288133107610
 31
0.0000000000000000
  0
LINE
  5
177
100
AcDbEntity
  8
MAIN0
  6
CONTINUOUS
 62
3
100
AcDbLine
 10
105.6301239760253
 20
258.7288133107610
 30
0.0000000000000000
 11
118.6301239760253
 21
258.7288133107610
 31
0.0000000000000000
  0
LINE
  5
178
100
AcDbEntity
  8
MAIN0
  6
CONTINUOUS
 62
3
100
AcDbLine
 10
118.6301239759887
 20
344.7288133107610
 30
0.0000000000000000
 11
118.6301239760253
 21
258.7288133107610
 31
0.0000000000000000
  0
LINE
  5
179
100
AcDbEntity
  8
MAIN0
  6
CONTINUOUS
 62
3
100
AcDbLine
 10
118.6301239759952
 20
329.2288133107610
 30
0.0000000000000000
 11
125.7626895731020
 21
329.2288133107610
 31
0.0000000000000000
  0
LINE
  5
17A
100
AcDbEntity
  8
MAIN0
  6
CONTINUOUS
 62
3
100
AcDbLine
 10
118.6301239760186
 20
274.2288133107610
 30
0.0000000000000000
 11
133.2626896433165
 21
274.2288133107610
 31
0.0000000000000000
  0
LINE
  5
17B
100
AcDbEntity
  8
MAIN0
  6
CONTINUOUS
 62
3
100
AcDbLine
 10
136.6301239759865
 20
253.7288133107610
 30
0.0000000000000000
 11
136.6437708089602
 21
253.7288133107610
 31
0.0000000000000000
  0
LINE
  5
17C
100
AcDbEntity
  8
MAIN0
  6
CONTINUOUS
 62
3
100
AcDbLine
 10
110.6301239760402
 20
223.7288133107610
 30
0.0000000000000000
 11
123.1495661439643
 21
223.7288133107610
 31
0.0000000000000000
  0
LINE
  5
17D
100
AcDbEntity
  8
MAIN0
  6
CONTINUOUS
 62
3
100
AcDbLine
 10
110.6301239760400
 20
224.2288133107610
 30
0.0000000000000000
 11
110.6301239760402
 21
223.7288133107610
 31
0.0000000000000000
  0
LINE
  5
17E
100
AcDbEntity
  8
MAIN0
  6
CENTER
 62
3
100
AcDbLine
 10
115.7626896052786
 20
267.9788133107610
 30
0.0000000000000000
 11
138.2626896052786
 21
267.9788133107610
 31
0.0000000000000000
  0
LINE
  5
17F
100
AcDbEntity
  8
MAIN0
  6
HIDDEN
 62
3
100
AcDbLine
 10
112.1301239759672
 20
395.2888133107610
 30
0.0000000000000000
 11
144.1301239759672
 21
395.2888133107610
 31
0.0000000000000000
  0
ARC
  5
180
100
AcDbEntity
  8
MAIN0
  6
HIDDEN
 62
3
100
AcDbCircle
 10
142.1301239759715
 20
385.0388133107610
 30
0.0000000000000000
 40
2.750000000000000
100
AcDbArc
 50
90.00000000000000
 51
123.1447227070911
  0
ARC
  5
181
100
AcDbEntity
  8
MAIN0
  6
HIDDEN
 62
3
100
AcDbCircle
 10
114.1301239759715
 20
385.0388133107491
 30
0.0000000000000000
 40
2.750000000000000
100
AcDbArc
 50
56.85527729934643
 51
90.00000000004874
  0
LINE
  5
182
100
AcDbEntity
  8
MAIN0
  6
HIDDEN
 62
3
100
AcDbLine
 10
112.1301239759704
 20
387.7888133107610
 30
0.0000000000000000
 11
114.1301239759715
 21
387.7888133107610
 31
0.0000000000000000
  0
LINE
  5
183
100
AcDbEntity
  8
MAIN0
  6
HIDDEN
 62
3
100
AcDbLine
 10
142.1301239759715
 20
387.7888133107610
 30
0.0000000000000000
 11
144.1301239759704
 21
387.7888133107610
 31
0.0000000000000000
  0
LINE
  5
184
100
AcDbEntity
  8
MAIN0
  6
HIDDEN
 62
3
100
AcDbLine
 10
141.8099234852018
 20
387.7701081768842
 30
0.0000000000000000
 11
144.1301239760362
 21
391.7888133107611
 31
0.0000000000000000
  0
LINE
  5
185
100
AcDbEntity
  8
MAIN0
  6
HIDDEN
 62
3
100
AcDbLine
 10
114.4503244667390
 20
387.7701081768726
 30
0.0000000000000000
 11
112.1301239759011
 21
391.7888133107475
 31
0.0000000000000000
  0
LINE
  5
186
100
AcDbEntity
  8
MAIN0
  6
HIDDEN
 62
3
100
AcDbLine
 10
144.1301239763039
 20
395.2888133107610
 30
0.0000000000000000
 11
146.6242771391988
 21
396.7288133107610
 31
0.0000000000000000
  0
LINE
  5
187
100
AcDbEntity
  8
MAIN0
  6
HIDDEN
 62
3
100
AcDbLine
 10
109.6359708130701
 20
396.7288133107612
 30
0.0000000000000000
 11
112.1301239759765
 21
395.2888133107610
 31
0.0000000000000000
  0
LINE
  5
188
100
AcDbEntity
  8
MAIN0
  6
HIDDEN
 62
3
100
AcDbLine
 10
135.3301239757078
 20
394.3939203941366
 30
0.0000000000000000
 11
135.3301239756959
 21
387.3413668523876
 31
0.0000000000000000
  0
LINE
  5
189
100
AcDbEntity
  8
MAIN0
  6
HIDDEN
 62
3
100
AcDbLine
 10
120.9301239759638
 20
394.3939203941384
 30
0.0000000000000000
 11
120.9301239759572
 21
387.3413668524781
 31
0.0000000000000000
  0
LINE
  5
18A
100
AcDbEntity
  8
MAIN0
  6
HIDDEN
 62
3
100
AcDbLine
 10
127.5266112118007
 20
394.3939203941376
 30
0.0000000000000000
 11
127.5266112118015
 21
387.3413668524367
 31
0.0000000000000000
  0
LINE
  5
18B
100
AcDbEntity
  8
MAIN0
  6
HIDDEN
 62
3
100
AcDbLine
 10
128.7336367399026
 20
394.3939203941375
 30
0.0000000000000000
 11
128.7336367398935
 21
387.3413668524291
 31
0.0000000000000000
  0
LINE
  5
18C
100
AcDbEntity
  8
MAIN0
  6
HIDDEN
 62
3
100
AcDbLine
 10
119.3801239759730
 20
395.2888133107612
 30
0.0000000000000000
 11
120.9301239748973
 21
394.3939203941385
 31
0.0000000000000000
  0
LINE
  5
18D
100
AcDbEntity
  8
MAIN0
  6
HIDDEN
 62
3
100
AcDbLine
 10
135.3301239757782
 20
394.3939203941366
 30
0.0000000000000000
 11
136.8801239747052
 21
395.2888133107611
 31
0.0000000000000000
  0
LINE
  5
18E
100
AcDbEntity
  8
MAIN0
  6
HIDDEN
 62
3
100
AcDbLine
 10
120.9301239759638
 20
394.3939203941384
 30
0.0000000000000000
 11
135.3301239757078
 21
394.3939203941366
 31
0.0000000000000000
  0
LINE
  5
18F
100
AcDbEntity
  8
MAIN0
  6
HIDDEN
 62
3
100
AcDbLine
 10
135.3301239757783
 20
394.3939203941366
 30
0.0000000000000000
 11
132.0318803578125
 21
387.3413668524083
 31
0.0000000000000000
  0
LINE
  5
190
100
AcDbEntity
  8
MAIN0
  6
HIDDEN
 62
3
100
AcDbLine
 10
128.7336367399026
 20
394.3939203941375
 30
0.0000000000000000
 11
132.0318803578124
 21
387.3413668524084
 31
0.0000000000000000
  0
LINE
  5
191
100
AcDbEntity
  8
MAIN0
  6
HIDDEN
 62
3
100
AcDbLine
 10
127.5266112118007
 20
394.3939203941376
 30
0.0000000000000000
 11
124.2283675938795
 21
387.3413668524574
 31
0.0000000000000000
  0
LINE
  5
192
100
AcDbEntity
  8
MAIN0
  6
HIDDEN
 62
3
100
AcDbLine
 10
120.9301239759638
 20
394.3939203941384
 30
0.0000000000000000
 11
124.2283675938794
 21
387.3413668524574
 31
0.0000000000000000
  0
DIMENSION
  5
19B
100
AcDbEntity
  8
MAIN0
  6
CONTINUOUS
 62
3
100
AcDbDimension
  2
*D17
 10
85.76268960527858
 20
329.2288133107610
 30
0.0000000000000000
 11
85.26268960527858
 21
300.7136434534305
 31
0.0000000000000000
 70
160
  1
\A1;\U+220555
  3
MAIN001
100
AcDbAlignedDimension
 13
118.6301239760186
 23
274.2288133107610
 33
0.0000000000000000
 14
118.6301239759952
 24
329.2288133107610
 34
0.0000000000000000
 50
90.00000000000000
100
AcDbRotatedDimension
1001
ACAD
1000
DSTYLE
1002
{
1070
   173
1070
     1
1070
     6
1000
_OPEN
1070
     7
1000
_OPEN
1070
    41
1040
2.000000
1002
}
  0
LINE
  5
19C
100
AcDbEntity
  8
MAIN0
  6
CENTER
 62
3
100
AcDbLine
 10
117.9301239759431
 20
451.7288133107559
 30
0.0000000000000000
 11
138.3301239759431
 21
451.7288133107639
 31
0.0000000000000000
  0
LINE
  5
19D
100
AcDbEntity
  8
MAIN0
  6
CENTER
 62
3
100
AcDbLine
 10
128.1301239759634
 20
404.2288133107610
 30
0.0000000000000000
 11
128.1301239759729
 21
381.7288133107610
 31
0.0000000000000000
  0
LINE
  5
19E
100
AcDbEntity
  8
MAIN0
  6
CENTER
 62
3
100
AcDbLine
 10
128.1301239759388
 20
461.9288133107599
 30
0.0000000000000000
 11
128.1301239759475
 21
441.5288133107599
 31
0.0000000000000000
  0
LINE
  5
19F
100
AcDbEntity
  8
MAIN0
  6
CONTINUOUS
 62
3
100
AcDbLine
 10
128.7082985696012
 20
458.9288133107602
 30
0.0000000000000000
 11
135.3301239759429
 21
452.3069879044177
 31
0.0000000000000000
  0
LINE
  5
1A0
100
AcDbEntity
  8
MAIN0
  6
CONTINUOUS
 62
3
100
AcDbLine
 10
120.9301239759435
 20
451.1506387183138
 30
0.0000000000000000
 11
127.5519493834967
 21
444.5288133107598
 31
0.0000000000000000
  0
LINE
  5
1A1
100
AcDbEntity
  8
MAIN0
  6
CONTINUOUS
 62
3
100
AcDbLine
 10
120.9301239759428
 20
452.3069879044935
 30
0.0000000000000000
 11
127.5519493822070
 21
458.9288133107598
 31
0.0000000000000000
  0
LINE
  5
1A2
100
AcDbEntity
  8
MAIN0
  6
CONTINUOUS
 62
3
100
AcDbLine
 10
128.7082985683136
 20
444.5288133107600
 30
0.0000000000000000
 11
135.3301239759434
 21
451.1506387183920
 31
0.0000000000000000
  0
LINE
  5
1A3
100
AcDbEntity
  8
MAIN0
  6
CONTINUOUS
 62
3
100
AcDbLine
 10
135.3301239759429
 20
452.3069879044176
 30
0.0000000000000000
 11
135.3301239759434
 21
451.1506387183920
 31
0.0000000000000000
  0
LINE
  5
1A4
100
AcDbEntity
  8
MAIN0
  6
CONTINUOUS
 62
3
100
AcDbLine
 10
120.9301239759429
 20
452.3069879044934
 30
0.0000000000000000
 11
120.9301239759434
 21
451.1506387183138
 31
0.0000000000000000
  0
LINE
  5
1A5
100
AcDbEntity
  8
MAIN0
  6
CONTINUOUS
 62
3
100
AcDbLine
 10
127.5519493822071
 20
458.9288133107597
 30
0.0000000000000000
 11
128.7082985696012
 21
458.9288133107601
 31
0.0000000000000000
  0
LINE
  5
1A6
100
AcDbEntity
  8
MAIN0
  6
CONTINUOUS
 62
3
100
AcDbLine
 10
127.5519493834968
 20
444.5288133107597
 30
0.0000000000000000
 11
128.7082985683134
 21
444.5288133107601
 31
0.0000000000000000
  0
DIMENSION
  5
1B0
100
AcDbEntity
  8
MAIN0
  6
CONTINUOUS
 62
3
100
AcDbDimension
  2
*D18
 10
135.5573194943865
 20
436.5234431998694
 30
0.0000000000000000
 11
146.2293607270490
 21
447.9025912137175
 31
0.0000000000000000
 70
161
  1
\A1;□11\H0.903226x;\S＋0.15^ ＋0.05;
  3
MAIN001
100
AcDbAlignedDimension
 13
135.3301239759429
 23
452.3069879044177
 33
0.0000000000000000
 14
127.5519493834967
 24
444.5288133107598
 34
0.0000000000000000
 50
44.99999999999791
1001
ACAD
1000
DSTYLE
1002
{
1070
   173
1070
     1
1070
     6
1000
_OPEN
1070
     7
1000
_OPEN
1070
    41
1040
2.000000
1070
   272
1070
     2
1070
    47
1040
0.150000
1070
    48
1040
-0.050000
1070
    71
1070
     1
1070
   340
1005
1B1
1002
}
  0
LINE
  5
1B2
100
AcDbEntity
  8
MAIN0
  6
HIDDEN
 62
3
100
AcDbLine
 10
144.1301239759706
 20
387.3413668523324
 30
0.0000000000000000
 11
144.1301239759672
 21
395.2888133107610
 31
0.0000000000000000
  0
LINE
  5
1B3
100
AcDbEntity
  8
MAIN0
  6
HIDDEN
 62
3
100
AcDbLine
 10
112.1301239759705
 20
387.3413668525334
 30
0.0000000000000000
 11
112.1301239759671
 21
395.2888133107610
 31
0.0000000000000000
  0
LINE
  5
1B4
100
AcDbEntity
  8
MAIN0
  6
CENTER
 62
3
100
AcDbLine
 10
175.6301239760142
 20
284.7288219691419
 30
0.0000000000000000
 11
175.6301239760149
 21
286.5444972910050
 31
0.0000000000000000
  0
LINE
  5
1B5
100
AcDbEntity
  8
MAIN0
  6
CONTINUOUS
 62
3
100
AcDbLine
 10
100.6301239759673
 20
395.1288133107610
 30
0.0000000000000000
 11
100.6301239760398
 21
224.2288133107610
 31
0.0000000000000000
  0
LINE
  5
1B6
100
AcDbEntity
  8
MAIN0
  6
CENTER
 62
3
100
AcDbLine
 10
90.76268960527858
 20
301.7288133107610
 30
0.0000000000000000
 11
223.2626896052786
 21
301.7288133107610
 31
0.0000000000000000
  0
LINE
  5
1B7
100
AcDbEntity
  8
MAIN0
  6
CONTINUOUS
 62
3
100
AcDbLine
 10
100.6301239760400
 20
224.2288133107610
 30
0.0000000000000000
 11
100.6301239760467
 21
208.3288133107610
 31
0.0000000000000000
  0
LINE
  5
1B8
100
AcDbEntity
  8
MAIN0
  6
CONTINUOUS
 62
3
100
AcDbLine
 10
175.6301239760158
 20
373.8288133107494
 30
0.0000000000000000
 11
175.6301239760160
 21
395.1288133107122
 31
0.0000000000000000
  0
LINE
  5
1B9
100
AcDbEntity
  8
MAIN0
  6
PHANTOM
 62
3
100
AcDbLine
 10
175.6301239760021
 20
313.2288133107610
 30
0.0000000000000000
 11
180.6301239760021
 21
313.2288133107610
 31
0.0000000000000000
  0
LINE
  5
1BA
100
AcDbEntity
  8
MAIN0
  6
PHANTOM
 62
3
100
AcDbLine
 10
175.6301239760118
 20
290.2288133107610
 30
0.0000000000000000
 11
180.6301239760118
 21
290.2288133107610
 31
0.0000000000000000
  0
LINE
  5
1BB
100
AcDbEntity
  8
MAIN0
  6
CENTER
 62
3
100
AcDbLine
 10
95.76268960527858
 20
386.7288133107610
 30
0.0000000000000000
 11
180.7626896052786
 21
386.7288133107610
 31
0.0000000000000000
  0
DIMENSION
  5
1C4
100
AcDbEntity
  8
MAIN0
  6
CONTINUOUS
 62
3
100
AcDbDimension
  2
*D19
 10
70.76268960527858
 20
224.2288133107610
 30
0.0000000000000000
 11
70.26268960527858
 21
301.5133101987997
 31
0.0000000000000000
 70
160
  1
\A1;\U+2205155H6\H0.903226x;\S＋0.025^ 　0;
  3
MAIN001
100
AcDbAlignedDimension
 13
100.6301239759740
 23
379.2288133107610
 33
0.0000000000000000
 14
100.6301239760399
 24
224.2288133107610
 34
0.0000000000000000
 50
90.00000000000000
100
AcDbRotatedDimension
1001
ACAD
1000
DSTYLE
1002
{
1070
   173
1070
     1
1070
     6
1000
_OPEN
1070
     7
1000
_OPEN
1070
    41
1040
2.000000
1070
   272
1070
     3
1070
    47
1040
0.025000
1070
    48
1040
0.000000
1070
    71
1070
     1
1070
   340
1005
1B1
1002
}
  0
DIMENSION
  5
1CD
100
AcDbEntity
  8
MAIN0
  6
CONTINUOUS
 62
3
100
AcDbDimension
  2
*D20
 10
55.76268960527858
 20
396.7288133107610
 30
0.0000000000000000
 11
55.26268960527858
 21
301.7288133107610
 31
0.0000000000000000
 70
32
  1
\A1;\U+2205190
  3
MAIN001
100
AcDbAlignedDimension
 13
102.2301239760474
 23
206.7288133107610
 33
0.0000000000000000
 14
102.2301239759665
 24
396.7288133107610
 34
0.0000000000000000
 50
90.00000000000000
100
AcDbRotatedDimension
1001
ACAD
1000
DSTYLE
1002
{
1070
   173
1070
     1
1070
     6
1000
_OPEN
1070
     7
1000
_OPEN
1070
    41
1040
2.000000
1002
}
  0
DIMENSION
  5
1D6
100
AcDbEntity
  8
MAIN0
  6
CONTINUOUS
 62
3
100
AcDbDimension
  2
*D21
 10
100.6301239759675
 20
421.7288133107610
 30
0.0000000000000000
 11
138.1301239759918
 21
422.2288133107610
 31
0.0000000000000000
 70
32
  3
MAIN001
100
AcDbAlignedDimension
 13
175.6301239760160
 23
395.1288133107122
 33
0.0000000000000000
 14
100.6301239759673
 24
395.1288133107610
 34
0.0000000000000000
100
AcDbRotatedDimension
1001
ACAD
1000
DSTYLE
1002
{
1070
   173
1070
     1
1070
     6
1000
_OPEN
1070
     7
1000
_OPEN
1070
    41
1040
2.000000
1002
}
  0
LINE
  5
1D7
100
AcDbEntity
  8
MAIN0
  6
HIDDEN
 62
3
100
AcDbLine
 10
101.0301239759683
 20
392.7288133107610
 30
0.0000000000000000
 11
163.6301239760159
 21
392.7288133107610
 31
0.0000000000000000
  0
LINE
  5
1D8
100
AcDbEntity
  8
MAIN0
  6
HIDDEN
 62
3
100
AcDbLine
 10
101.0301239759734
 20
380.7288133107610
 30
0.0000000000000000
 11
163.6301239760159
 21
380.7288133107610
 31
0.0000000000000000
  0
LINE
  5
1D9
100
AcDbEntity
  8
MAIN0
  6
HIDDEN
 62
3
100
AcDbLine
 10
101.0301239759681
 20
392.7288133107610
 30
0.0000000000000000
 11
100.6301239759679
 21
393.1288133107611
 31
0.0000000000000000
  0
LINE
  5
1DA
100
AcDbEntity
  8
MAIN0
  6
HIDDEN
 62
3
100
AcDbLine
 10
101.0301239759735
 20
380.7288133107610
 30
0.0000000000000000
 11
100.6301239759736
 21
380.3288133107610
 31
0.0000000000000000
  0
DIMENSION
  5
1E3
100
AcDbEntity
  8
MAIN0
  6
CONTINUOUS
 62
3
100
AcDbDimension
  2
*D22
 10
85.76268960527858
 20
392.7288133107610
 30
0.0000000000000000
 11
85.26268960527858
 21
386.7288133107610
 31
0.0000000000000000
 70
32
  1
\A1;\U+220512
  3
MAIN001
100
AcDbAlignedDimension
 13
101.0301239759734
 23
380.7288133107610
 33
0.0000000000000000
 14
101.0301239759683
 24
392.7288133107610
 34
0.0000000000000000
 50
90.00000000000000
100
AcDbRotatedDimension
1001
ACAD
1000
DSTYLE
1002
{
1070
   173
1070
     1
1070
     6
1000
_OPEN
1070
     7
1000
_OPEN
1070
    41
1040
2.000000
1002
}
  0
DIMENSION
  5
1EC
100
AcDbEntity
  8
MAIN0
  6
CONTINUOUS
 62
3
100
AcDbDimension
  2
*D23
 10
190.7626896052786
 20
395.2288133107610
 30
0.0000000000000000
 11
190.2626896052786
 21
386.7288133107610
 31
0.0000000000000000
 70
32
  1
\A1;\U+220517
  3
MAIN001
100
AcDbAlignedDimension
 13
175.0301239760159
 23
378.2288133107610
 33
0.0000000000000000
 14
175.0301239760159
 24
395.2288133107610
 34
0.0000000000000000
 50
90.00000000000000
100
AcDbRotatedDimension
1001
ACAD
1000
DSTYLE
1002
{
1070
   173
1070
     1
1070
     6
1000
_OPEN
1070
     7
1000
_OPEN
1070
    41
1040
2.000000
1002
}
  0
DIMENSION
  5
1F5
100
AcDbEntity
  8
MAIN0
  6
CONTINUOUS
 62
3
100
AcDbDimension
  2
*D24
 10
163.6301239760162
 20
401.7288133107610
 30
0.0000000000000000
 11
169.4795397899912
 21
402.2288133107610
 31
0.0000000000000000
 70
160
  3
MAIN001
100
AcDbAlignedDimension
 13
175.6301239760160
 23
395.1288133107122
 33
0.0000000000000000
 14
163.6301239760159
 24
395.2288133107610
 34
0.0000000000000000
100
AcDbRotatedDimension
1001
ACAD
1000
DSTYLE
1002
{
1070
   173
1070
     1
1070
     6
1000
_OPEN
1070
     7
1000
_OPEN
1070
    41
1040
2.000000
1002
}
  0
DIMENSION
  5
1FE
100
AcDbEntity
  8
MAIN0
  6
CONTINUOUS
 62
3
100
AcDbDimension
  2
*D25
 10
100.6301239760398
 20
246.7288133107610
 30
0.0000000000000000
 11
95.89473649029645
 21
247.2288133107610
 31
0.0000000000000000
 70
160
  3
MAIN001
100
AcDbAlignedDimension
 13
105.6301239759742
 23
378.8288133107610
 33
0.0000000000000000
 14
100.6301239759673
 24
395.1288133107610
 34
0.0000000000000000
100
AcDbRotatedDimension
1001
ACAD
1000
DSTYLE
1002
{
1070
   173
1070
     1
1070
     6
1000
_OPEN
1070
     7
1000
_OPEN
1070
    41
1040
2.000000
1070
   287
1070
     0
1002
}
  0
LINE
  5
1FF
100
AcDbEntity
  8
MAIN0
  6
CONTINUOUS
 62
3
100
AcDbLine
 10
178.1328843341315
 20
238.3883015195831
 30
0.0000000000000000
 11
178.1328843341455
 21
251.0683015195831
 31
0.0000000000000000
  0
LINE
  5
200
100
AcDbEntity
  8
MAIN0
  6
PHANTOM
 62
3
100
AcDbLine
 10
184.1301239760052
 20
305.6988133107610
 30
0.0000000000000000
 11
184.1301239760086
 21
297.7588133107610
 31
0.0000000000000000
  0
LINE
  5
201
100
AcDbEntity
  8
MAIN0
  6
PHANTOM
 62
3
100
AcDbLine
 10
217.2301239760010
 20
315.7288133107610
 30
0.0000000000000000
 11
177.6301239760010
 21
315.7288133107610
 31
0.0000000000000000
  0
LINE
  5
202
100
AcDbEntity
  8
MAIN0
  6
PHANTOM
 62
3
100
AcDbLine
 10
217.2301239760129
 20
287.7288133107610
 30
0.0000000000000000
 11
177.6301239760129
 21
287.7288133107610
 31
0.0000000000000000
  0
LINE
  5
203
100
AcDbEntity
  8
MAIN0
  6
PHANTOM
 62
3
100
AcDbLine
 10
217.6301239760127
 20
288.1288133107610
 30
0.0000000000000000
 11
217.6301239760012
 21
315.3288133107610
 31
0.0000000000000000
  0
LINE
  5
204
100
AcDbEntity
  8
MAIN0
  6
PHANTOM
 62
3
100
AcDbLine
 10
177.6301239760020
 20
313.2288133107610
 30
0.0000000000000000
 11
177.6301239760010
 21
315.7288133107610
 31
0.0000000000000000
  0
LINE
  5
205
100
AcDbEntity
  8
MAIN0
  6
PHANTOM
 62
3
100
AcDbLine
 10
177.6301239760129
 20
287.7288133107610
 30
0.0000000000000000
 11
177.6301239760118
 21
290.2288133107610
 31
0.0000000000000000
  0
LINE
  5
206
100
AcDbEntity
  8
MAIN0
  6
PHANTOM
 62
3
100
AcDbLine
 10
184.1301239760052
 20
305.6988133107611
 30
0.0000000000000000
 11
180.6301239760052
 21
305.6988133107611
 31
0.0000000000000000
  0
LINE
  5
207
100
AcDbEntity
  8
MAIN0
  6
PHANTOM
 62
3
100
AcDbLine
 10
184.1301239760086
 20
297.7588133107610
 30
0.0000000000000000
 11
180.6301239760086
 21
297.7588133107610
 31
0.0000000000000000
  0
LINE
  5
208
100
AcDbEntity
  8
MAIN0
  6
PHANTOM
 62
3
100
AcDbLine
 10
180.6301239760052
 20
305.6988133107610
 30
0.0000000000000000
 11
180.6301239760010
 21
315.7288133107610
 31
0.0000000000000000
  0
LINE
  5
209
100
AcDbEntity
  8
MAIN0
  6
PHANTOM
 62
3
100
AcDbLine
 10
180.6301239760129
 20
287.7288133107610
 30
0.0000000000000000
 11
180.6301239760086
 21
297.7588133107611
 31
0.0000000000000000
  0
LINE
  5
20A
100
AcDbEntity
  8
MAIN0
  6
PHANTOM
 62
3
100
AcDbLine
 10
217.2301239760010
 20
315.7288133107610
 30
0.0000000000000000
 11
217.6301239760012
 21
315.3288133107610
 31
0.0000000000000000
  0
LINE
  5
20B
100
AcDbEntity
  8
MAIN0
  6
PHANTOM
 62
3
100
AcDbLine
 10
217.2301239760129
 20
287.7288133107610
 30
0.0000000000000000
 11
217.6301239760127
 21
288.1288133107610
 31
0.0000000000000000
  0
LINE
  5
20C
100
AcDbEntity
  8
MAIN0
  6
CONTINUOUS
 62
3
100
AcDbLine
 10
184.1298913757420
 20
227.5038219691419
 30
0.0000000000000000
 11
184.1298913757420
 21
238.3883015195765
 31
0.0000000000000000
  0
LINE
  5
20D
100
AcDbEntity
  8
MAIN0
  6
CONTINUOUS
 62
3
100
AcDbLine
 10
184.1298913757420
 20
226.6919229691419
 30
0.0000000000000000
 11
184.1298913757420
 21
227.5038219691419
 31
0.0000000000000000
  0
LINE
  5
20E
100
AcDbEntity
  8
MAIN0
  6
CONTINUOUS
 62
3
100
AcDbLine
 10
184.1298913757420
 20
218.3157209691419
 30
0.0000000000000000
 11
184.1298913757420
 21
226.6919229691419
 31
0.0000000000000000
  0
LINE
  5
20F
100
AcDbEntity
  8
MAIN0
  6
CONTINUOUS
 62
3
100
AcDbLine
 10
184.1298913757420
 20
204.7283015195765
 30
0.0000000000000000
 11
184.1298913757420
 21
217.5038219691419
 31
0.0000000000000000
  0
LINE
  5
210
100
AcDbEntity
  8
MAIN0
  6
CONTINUOUS
 62
3
100
AcDbLine
 10
184.1298913757420
 20
217.5038219691419
 30
0.0000000000000000
 11
184.1298913757420
 21
218.3157209691419
 31
0.0000000000000000
  0
LINE
  5
211
100
AcDbEntity
  8
MAIN0
  6
CONTINUOUS
 62
3
100
AcDbLine
 10
184.1298913757420
 20
271.9538219691419
 30
0.0000000000000000
 11
184.1298913757420
 21
284.7288219691419
 31
0.0000000000000000
  0
LINE
  5
212
100
AcDbEntity
  8
MAIN0
  6
CONTINUOUS
 62
3
100
AcDbLine
 10
184.1298913757420
 20
271.1419229691419
 30
0.0000000000000000
 11
184.1298913757420
 21
271.9538219691419
 31
0.0000000000000000
  0
LINE
  5
213
100
AcDbEntity
  8
MAIN0
  6
CONTINUOUS
 62
3
100
AcDbLine
 10
184.1298913757420
 20
262.7657209691419
 30
0.0000000000000000
 11
184.1298913757420
 21
271.1419229691419
 31
0.0000000000000000
  0
LINE
  5
214
100
AcDbEntity
  8
MAIN0
  6
CONTINUOUS
 62
3
100
AcDbLine
 10
184.1298913757420
 20
251.0683015195764
 30
0.0000000000000000
 11
184.1298913757420
 21
261.9538219691419
 31
0.0000000000000000
  0
LINE
  5
215
100
AcDbEntity
  8
MAIN0
  6
CONTINUOUS
 62
3
100
AcDbLine
 10
184.1298913757420
 20
261.9538219691419
 30
0.0000000000000000
 11
184.1298913757420
 21
262.7657209691419
 31
0.0000000000000000
  0
LINE
  5
216
100
AcDbEntity
  8
MAIN0
  6
CONTINUOUS
 62
3
100
AcDbLine
 10
106.0301239759741
 20
379.2288133107610
 30
0.0000000000000000
 11
105.6301239759742
 21
378.8288133107610
 31
0.0000000000000000
  0
LINE
  5
217
100
AcDbEntity
  8
MAIN0
  6
CONTINUOUS
 62
3
100
AcDbLine
 10
105.6301239760397
 20
224.6288133107610
 30
0.0000000000000000
 11
106.0301239760398
 21
224.2288133107610
 31
0.0000000000000000
  0
LINE
  5
218
100
AcDbEntity
  8
MAIN0
  6
CONTINUOUS
 62
3
100
AcDbLine
 10
175.6301239760465
 20
208.7288219691419
 30
0.0000000000000000
 11
175.6301239759672
 21
395.1288133107611
 31
0.0000000000000000
  0
LINE
  5
219
100
AcDbEntity
  8
MAIN0
  6
CONTINUOUS
 62
3
100
AcDbLine
 10
301.3320988667546
 20
278.6656159936968
 30
0.0000000000000000
 11
299.1670353572883
 21
277.4156159936945
 31
0.0000000000000000
  0
LINE
  5
21A
100
AcDbEntity
  8
MAIN0
  6
CONTINUOUS
 62
3
100
AcDbLine
 10
295.5820988667535
 20
288.6249081372399
 30
0.0000000000000000
 11
301.3320988667499
 21
278.6656159936942
 31
0.0000000000000000
  0
LINE
  5
21B
100
AcDbEntity
  8
MAIN0
  6
CONTINUOUS
 62
3
100
AcDbLine
 10
298.4170353572914
 20
278.7146540993730
 30
0.0000000000000000
 11
299.1670353572872
 21
277.4156159936971
 31
0.0000000000000000
  0
LINE
  5
21C
100
AcDbEntity
  8
MAIN0
  6
CONTINUOUS
 62
3
100
AcDbLine
 10
298.4170353572913
 20
278.7146540993729
 30
0.0000000000000000
 11
296.2519718478299
 21
277.4646540993734
 31
0.0000000000000000
  0
LINE
  5
21D
100
AcDbEntity
  8
MAIN0
  6
CONTINUOUS
 62
3
100
AcDbLine
 10
295.5019718478316
 20
278.7636922050510
 30
0.0000000000000000
 11
296.2519718478299
 21
277.4646540993733
 31
0.0000000000000000
  0
LINE
  5
21E
100
AcDbEntity
  8
MAIN0
  6
CONTINUOUS
 62
3
100
AcDbLine
 10
292.8369083383715
 20
278.3797176088368
 30
0.0000000000000000
 11
293.3369083383695
 21
277.5136922050512
 31
0.0000000000000000
  0
LINE
  5
21F
100
AcDbEntity
  8
MAIN0
  6
CONTINUOUS
 62
3
100
AcDbLine
 10
295.5019718478317
 20
278.7636922050511
 30
0.0000000000000000
 11
293.3369083383695
 21
277.5136922050511
 31
0.0000000000000000
  0
LINE
  5
220
100
AcDbEntity
  8
MAIN0
  6
CONTINUOUS
 62
3
100
AcDbLine
 10
295.4561471694738
 20
276.7146097365285
 30
0.0000000000000000
 11
291.8963180989632
 21
274.6593414644011
 31
0.0000000000000000
  0
LINE
  5
221
100
AcDbEntity
  8
MAIN0
  6
CONTINUOUS
 62
3
100
AcDbLine
 10
290.0429332472164
 20
273.5892892214644
 30
0.0000000000000000
 11
291.6095984645759
 21
275.1559544388197
 31
0.0000000000000000
  0
LINE
  5
222
100
AcDbEntity
  8
MAIN0
  6
CONTINUOUS
 62
3
100
AcDbLine
 10
290.0429332473295
 20
273.5892892212680
 30
0.0000000000000000
 11
292.1830377334647
 21
274.1627284900484
 31
0.0000000000000000
  0
MTEXT
  5
223
100
AcDbEntity
  8
MAIN0
  6
CONTINUOUS
 62
3
100
AcDbMText
 10
287.5176003205139
 20
274.3538406291146
 30
0.0000000000000000
 40
3.000000000000000
 41
0.0000000000000000
 71
     1
 72
     1
  1
{\H0.90x;{ΣＳ}}
 11
0.5000000000000009
 21
-0.8660254037844382
 31
0.0000000000000000
  7
KNJYOKO
  0
LINE
  5
224
100
AcDbEntity
  8
MAIN0
  6
CONTINUOUS
 62
3
100
AcDbLine
 10
299.3320988667556
 20
282.1297176088352
 30
0.0000000000000000
 11
283.7436415986337
 21
273.1297176088385
 31
0.0000000000000000
  0
LINE
  5
225
100
AcDbEntity
  8
MAIN0
  6
CONTINUOUS
 62
3
100
AcDbLine
 10
279.9936415986374
 20
279.6249081372333
 30
0.0000000000000000
 11
283.7436415986333
 21
273.1297176088393
 31
0.0000000000000000
  0
LINE
  5
226
100
AcDbEntity
  8
MAIN0
  6
CONTINUOUS
 62
3
100
AcDbLine
 10
295.5820988667573
 20
288.6249081372422
 30
0.0000000000000000
 11
279.9936415986373
 21
279.6249081372332
 31
0.0000000000000000
  0
LINE
  5
227
100
AcDbEntity
  8
MAIN0
  6
CONTINUOUS
 62
3
100
AcDbLine
 10
303.9522893951233
 20
289.1273128730616
 30
0.0000000000000000
 11
297.4570988667484
 21
285.3773128730472
 31
0.0000000000000000
  0
LINE
  5
228
100
AcDbEntity
  8
MAIN0
  6
CONTINUOUS
 62
3
100
AcDbLine
 10
300.4115792992537
 20
289.9690877192253
 30
0.0000000000000000
 11
298.6152653458192
 21
288.4618013434186
 31
0.0000000000000000
  0
LINE
  5
229
100
AcDbEntity
  8
MAIN0
  6
CONTINUOUS
 62
3
100
AcDbLine
 10
300.2468152262191
 20
288.0858257468295
 30
0.0000000000000000
 11
298.6152653458191
 21
288.4618013434184
 31
0.0000000000000000
  0
LINE
  5
22A
100
AcDbEntity
  8
MAIN0
  6
CONTINUOUS
 62
3
100
AcDbLine
 10
300.4115792992537
 20
289.9690877192253
 30
0.0000000000000000
 11
300.2468152262193
 21
288.0858257468298
 31
0.0000000000000000
  0
ARC
  5
22B
100
AcDbEntity
  8
MAIN0
  6
CONTINUOUS
 62
3
100
AcDbCircle
 10
302.0037322366124
 20
288.0023128730543
 30
0.0000000000000000
 40
2.530445468977860
100
AcDbArc
 50
173.2530843414756
 51
300.0000000000001
  0
LINE
  5
22C
100
AcDbEntity
  8
MAIN0
  6
CONTINUOUS
 62
3
100
AcDbLine
 10
302.0772893951418
 20
292.3749081372313
 30
0.0000000000000000
 11
305.8272893951429
 21
285.8797176088259
 31
0.0000000000000000
  0
LINE
  5
22D
100
AcDbEntity
  8
MAIN0
  6
CONTINUOUS
 62
3
100
AcDbLine
 10
291.6095984645275
 20
275.1559544387712
 30
0.0000000000000000
 11
292.1830377333990
 21
274.1627284900306
 31
0.0000000000000000
  0
MTEXT
  5
22E
100
AcDbEntity
  8
MAIN0
  6
CONTINUOUS
 62
3
100
AcDbMText
 10
303.2160734629730
 20
273.4024762729048
 30
0.0000000000000000
 40
3.000000000000000
 41
0.0000000000000000
 71
     1
 72
     1
  1
{\H0.60x;{T MAX 107.9 N・m\PΣS MAX 31 KN\PMASS 13 kg}}
 11
0.4999999999999986
 21
-0.8660254037844395
 31
0.0000000000000000
  7
KNJYOKO
  0
MTEXT
  5
22F
100
AcDbEntity
  8
MAIN0
  6
CONTINUOUS
 62
3
100
AcDbMText
 10
304.2854457794300
 20
284.0347607185199
 30
0.0000000000000000
 40
3.000000000000000
 41
0.0000000000000000
 71
     1
 72
     1
  1
{\H0.81x;{T}}
 11
0.5000000000000009
 21
-0.8660254037844382
 31
0.0000000000000000
  7
STANDARD
  0
LINE
  5
230
100
AcDbEntity
  8
MAIN0
  6
PHANTOM
 62
3
100
AcDbLine
 10
493.7626896053248
 20
427.7288133107610
 30
0.0000000000000000
 11
517.7626896052358
 21
427.7288133107610
 31
0.0000000000000000
  0
LINE
  5
231
100
AcDbEntity
  8
MAIN0
  6
PHANTOM
 62
3
100
AcDbLine
 10
493.7626896053182
 20
415.7288133107610
 30
0.0000000000000000
 11
517.7626896052358
 21
415.7288133107610
 31
0.0000000000000000
  0
LINE
  5
232
100
AcDbEntity
  8
MAIN0
  6
PHANTOM
 62
3
100
AcDbLine
 10
438.7626896052786
 20
427.7288133107610
 30
0.0000000000000000
 11
403.7626896052358
 21
427.7288133107610
 31
0.0000000000000000
  0
LINE
  5
233
100
AcDbEntity
  8
MAIN0
  6
PHANTOM
 62
3
100
AcDbLine
 10
438.7626896052786
 20
415.7288133107610
 30
0.0000000000000000
 11
403.7626896052358
 21
415.7288133107610
 31
0.0000000000000000
  0
LINE
  5
234
100
AcDbEntity
  8
MAIN0
  6
PHANTOM
 62
3
100
AcDbLine
 10
393.7626896052358
 20
431.1288133107611
 30
0.0000000000000000
 11
393.7626896052358
 21
412.3288133107610
 31
0.0000000000000000
  0
LINE
  5
235
100
AcDbEntity
  8
MAIN0
  6
PHANTOM
 62
3
100
AcDbLine
 10
403.1626896052358
 20
431.7288133107611
 30
0.0000000000000000
 11
394.3626896052358
 21
431.7288133107611
 31
0.0000000000000000
  0
LINE
  5
236
100
AcDbEntity
  8
MAIN0
  6
PHANTOM
 62
3
100
AcDbLine
 10
403.7626896052358
 20
431.1288133107611
 30
0.0000000000000000
 11
403.7626896052358
 21
412.3288133107610
 31
0.0000000000000000
  0
LINE
  5
237
100
AcDbEntity
  8
MAIN0
  6
PHANTOM
 62
3
100
AcDbLine
 10
403.1626896052358
 20
411.7288133107610
 30
0.0000000000000000
 11
394.3626896052358
 21
411.7288133107611
 31
0.0000000000000000
  0
LINE
  5
238
100
AcDbEntity
  8
MAIN0
  6
PHANTOM
 62
3
100
AcDbLine
 10
403.7626896052358
 20
426.7288133107611
 30
0.0000000000000000
 11
393.7626896052358
 21
426.7288133107611
 31
0.0000000000000000
  0
LINE
  5
239
100
AcDbEntity
  8
MAIN0
  6
PHANTOM
 62
3
100
AcDbLine
 10
403.7626896052358
 20
416.7288133107611
 30
0.0000000000000000
 11
393.7626896052358
 21
416.7288133107611
 31
0.0000000000000000
  0
LINE
  5
23A
100
AcDbEntity
  8
MAIN0
  6
PHANTOM
 62
3
100
AcDbLine
 10
403.7626896052358
 20
431.1288133107611
 30
0.0000000000000000
 11
403.1626896052358
 21
431.7288133107610
 31
0.0000000000000000
  0
LINE
  5
23B
100
AcDbEntity
  8
MAIN0
  6
PHANTOM
 62
3
100
AcDbLine
 10
394.3626896052357
 20
431.7288133107611
 30
0.0000000000000000
 11
393.7626896052357
 21
431.1288133107611
 31
0.0000000000000000
  0
LINE
  5
23C
100
AcDbEntity
  8
MAIN0
  6
PHANTOM
 62
3
100
AcDbLine
 10
393.7626896052358
 20
412.3288133107611
 30
0.0000000000000000
 11
394.3626896052358
 21
411.7288133107611
 31
0.0000000000000000
  0
LINE
  5
23D
100
AcDbEntity
  8
MAIN0
  6
PHANTOM
 62
3
100
AcDbLine
 10
403.1626896052357
 20
411.7288133107612
 30
0.0000000000000000
 11
403.7626896052357
 21
412.3288133107611
 31
0.0000000000000000
  0
LINE
  5
23E
100
AcDbEntity
  8
MAIN0
  6
PHANTOM
 62
3
100
AcDbLine
 10
527.7626896052358
 20
431.1288133107611
 30
0.0000000000000000
 11
527.7626896052358
 21
412.3288133107610
 31
0.0000000000000000
  0
LINE
  5
23F
100
AcDbEntity
  8
MAIN0
  6
PHANTOM
 62
3
100
AcDbLine
 10
518.3626896052358
 20
431.7288133107610
 30
0.0000000000000000
 11
527.1626896052358
 21
431.7288133107610
 31
0.0000000000000000
  0
LINE
  5
240
100
AcDbEntity
  8
MAIN0
  6
PHANTOM
 62
3
100
AcDbLine
 10
517.7626896052358
 20
431.1288133107611
 30
0.0000000000000000
 11
517.7626896052358
 21
412.3288133107610
 31
0.0000000000000000
  0
LINE
  5
241
100
AcDbEntity
  8
MAIN0
  6
PHANTOM
 62
3
100
AcDbLine
 10
518.3626896052358
 20
411.7288133107610
 30
0.0000000000000000
 11
527.1626896052358
 21
411.7288133107610
 31
0.0000000000000000
  0
LINE
  5
242
100
AcDbEntity
  8
MAIN0
  6
PHANTOM
 62
3
100
AcDbLine
 10
517.7626896052357
 20
426.7288133107610
 30
0.0000000000000000
 11
527.7626896052357
 21
426.7288133107610
 31
0.0000000000000000
  0
LINE
  5
243
100
AcDbEntity
  8
MAIN0
  6
PHANTOM
 62
3
100
AcDbLine
 10
517.7626896052358
 20
416.7288133107610
 30
0.0000000000000000
 11
527.7626896052358
 21
416.7288133107610
 31
0.0000000000000000
  0
LINE
  5
244
100
AcDbEntity
  8
MAIN0
  6
PHANTOM
 62
3
100
AcDbLine
 10
517.7626896052357
 20
431.1288133107610
 30
0.0000000000000000
 11
518.3626896052357
 21
431.7288133107610
 31
0.0000000000000000
  0
LINE
  5
245
100
AcDbEntity
  8
MAIN0
  6
PHANTOM
 62
3
100
AcDbLine
 10
527.1626896052358
 20
431.7288133107612
 30
0.0000000000000000
 11
527.7626896052358
 21
431.1288133107612
 31
0.0000000000000000
  0
LINE
  5
246
100
AcDbEntity
  8
MAIN0
  6
PHANTOM
 62
3
100
AcDbLine
 10
527.7626896052357
 20
412.3288133107610
 30
0.0000000000000000
 11
527.1626896052356
 21
411.7288133107610
 31
0.0000000000000000
  0
LINE
  5
247
100
AcDbEntity
  8
MAIN0
  6
PHANTOM
 62
3
100
AcDbLine
 10
518.3626896052357
 20
411.7288133107612
 30
0.0000000000000000
 11
517.7626896052357
 21
412.3288133107612
 31
0.0000000000000000
  0
INSERT
  5
254
100
AcDbEntity
  8
MAIN0
  6
PHANTOM
 62
3
100
AcDbBlockReference
  2
*X0
 10
0.0000000000000000
 20
0.0000000000000000
 30
0.0000000000000000
 50
0.0000000000000000
  0
INSERT
  5
261
100
AcDbEntity
  8
MAIN0
  6
PHANTOM
 62
3
100
AcDbBlockReference
  2
*X1
 10
0.0000000000000000
 20
0.0000000000000000
 30
0.0000000000000000
 50
0.0000000000000000
  0
INSERT
  5
26E
100
AcDbEntity
  8
MAIN0
  6
PHANTOM
 62
3
100
AcDbBlockReference
  2
*X2
 10
0.0000000000000000
 20
0.0000000000000000
 30
0.0000000000000000
 50
0.0000000000000000
  0
INSERT
  5
27B
100
AcDbEntity
  8
MAIN0
  6
PHANTOM
 62
3
100
AcDbBlockReference
  2
*X3
 10
0.0000000000000000
 20
0.0000000000000000
 30
0.0000000000000000
 50
0.0000000000000000
  0
ARC
  5
27C
100
AcDbEntity
  8
MAIN0
  6
CONTINUOUS
 62
3
100
AcDbCircle
 10
360.7627044932985
 20
266.9542442397826
 30
0.0000000000000000
 40
8.500000000000000
100
AcDbArc
 50
210.3899424493274
 51
329.6100575506724
  0
ARC
  5
27D
100
AcDbEntity
  8
MAIN0
  6
CONTINUOUS
 62
3
100
AcDbCircle
 10
360.7627044932985
 20
266.9542442397826
 30
0.0000000000000000
 40
8.500000000000000
100
AcDbArc
 50
329.6100575506724
 51
570.3899424493275
  0
ARC
  5
27E
100
AcDbEntity
  8
MAIN0
  6
CONTINUOUS
 62
3
100
AcDbCircle
 10
360.7627044932985
 20
266.9542442397826
 30
0.0000000000000000
 40
5.500000000000000
100
AcDbArc
 50
195.8266201318720
 51
344.1733798681279
  0
ARC
  5
27F
100
AcDbEntity
  8
MAIN0
  6
CONTINUOUS
 62
3
100
AcDbCircle
 10
360.7627044932985
 20
266.9542442397826
 30
0.0000000000000000
 40
5.500000000000000
100
AcDbArc
 50
344.1733798681279
 51
555.8266201318720
  0
CIRCLE
  5
280
100
AcDbEntity
  8
MAIN0
  6
CONTINUOUS
 62
3
100
AcDbCircle
 10
360.7627044932984
 20
222.5042442397825
 30
0.0000000000000000
 40
8.500000000000000
  0
CIRCLE
  5
281
100
AcDbEntity
  8
MAIN0
  6
CONTINUOUS
 62
3
100
AcDbCircle
 10
360.7627044932984
 20
222.5042442397825
 30
0.0000000000000000
 40
5.500000000000000
  0
ARC
  5
282
100
AcDbEntity
  8
MAIN0
  6
CONTINUOUS
 62
3
100
AcDbCircle
 10
390.8783423823940
 20
319.1161107396545
 30
0.0000000000000000
 40
8.500000000000000
100
AcDbArc
 50
330.3899424493274
 51
449.6100575506724
  0
ARC
  5
283
100
AcDbEntity
  8
MAIN0
  6
CONTINUOUS
 62
3
100
AcDbCircle
 10
390.8783423823940
 20
319.1161107396545
 30
0.0000000000000000
 40
8.500000000000000
100
AcDbArc
 50
89.61005755067235
 51
330.3899424493274
  0
ARC
  5
284
100
AcDbEntity
  8
MAIN0
  6
CONTINUOUS
 62
3
100
AcDbCircle
 10
390.8783423823940
 20
319.1161107396545
 30
0.0000000000000000
 40
5.500000000000000
100
AcDbArc
 50
315.8266201318720
 51
464.1733798681279
  0
ARC
  5
285
100
AcDbEntity
  8
MAIN0
  6
CONTINUOUS
 62
3
100
AcDbCircle
 10
390.8783423823940
 20
319.1161107396545
 30
0.0000000000000000
 40
5.500000000000000
100
AcDbArc
 50
104.1733798681279
 51
315.8266201318720
  0
CIRCLE
  5
286
100
AcDbEntity
  8
MAIN0
  6
CONTINUOUS
 62
3
100
AcDbCircle
 10
429.3731715806123
 20
341.3411107396545
 30
0.0000000000000000
 40
8.500000000000000
  0
CIRCLE
  5
287
100
AcDbEntity
  8
MAIN0
  6
CONTINUOUS
 62
3
100
AcDbCircle
 10
429.3731715806123
 20
341.3411107396545
 30
0.0000000000000000
 40
5.500000000000000
  0
LINE
  5
288
100
AcDbEntity
  8
MAIN0
  6
HIDDEN
 62
3
100
AcDbLine
 10
118.6301239760213
 20
273.8788133107610
 30
0.0000000000000000
 11
119.0301239760213
 21
273.4788133107610
 31
0.0000000000000000
  0
LINE
  5
289
100
AcDbEntity
  8
MAIN0
  6
HIDDEN
 62
3
100
AcDbLine
 10
119.0301239760213
 20
273.4788133107610
 30
0.0000000000000000
 11
128.6301239760213
 21
273.4788133107610
 31
0.0000000000000000
  0
LINE
  5
28A
100
AcDbEntity
  8
MAIN0
  6
HIDDEN
 62
3
100
AcDbLine
 10
128.6301239760213
 20
273.4788133107610
 30
0.0000000000000000
 11
128.6301239760213
 21
262.4788133107610
 31
0.0000000000000000
  0
LINE
  5
28B
100
AcDbEntity
  8
MAIN0
  6
HIDDEN
 62
3
100
AcDbLine
 10
128.6301239760213
 20
262.4788133107610
 30
0.0000000000000000
 11
119.0301239760213
 21
262.4788133107610
 31
0.0000000000000000
  0
LINE
  5
28C
100
AcDbEntity
  8
MAIN0
  6
HIDDEN
 62
3
100
AcDbLine
 10
119.0301239760213
 20
262.4788133107610
 30
0.0000000000000000
 11
118.6301239760213
 21
262.0788133107611
 31
0.0000000000000000
  0
LINE
  5
28D
100
AcDbEntity
  8
MAIN0
  6
HIDDEN
 62
3
100
AcDbLine
 10
128.6301239760213
 20
271.2788133107611
 30
0.0000000000000000
 11
133.4753063738301
 21
271.2788133107611
 31
0.0000000000000000
  0
LINE
  5
28E
100
AcDbEntity
  8
MAIN0
  6
HIDDEN
 62
3
100
AcDbLine
 10
128.6301239760213
 20
264.6788133107610
 30
0.0000000000000000
 11
133.5801164892789
 21
264.6788133107610
 31
0.0000000000000000
  0
LINE
  5
28F
100
AcDbEntity
  8
MAIN0
  6
HIDDEN
 62
3
100
AcDbLine
 10
128.6301239760213
 20
272.9788133107610
 30
0.0000000000000000
 11
123.2301239760213
 21
272.9788133107610
 31
0.0000000000000000
  0
LINE
  5
290
100
AcDbEntity
  8
MAIN0
  6
HIDDEN
 62
3
100
AcDbLine
 10
123.2301239760213
 20
272.9788133107610
 30
0.0000000000000000
 11
122.6301239760213
 21
271.9395828262196
 31
0.0000000000000000
  0
LINE
  5
291
100
AcDbEntity
  8
MAIN0
  6
HIDDEN
 62
3
100
AcDbLine
 10
122.6301239760213
 20
271.9395828262197
 30
0.0000000000000000
 11
122.6301239760213
 21
264.0180437953024
 31
0.0000000000000000
  0
LINE
  5
292
100
AcDbEntity
  8
MAIN0
  6
HIDDEN
 62
3
100
AcDbLine
 10
122.6301239760213
 20
264.0180437953023
 30
0.0000000000000000
 11
123.2301239760213
 21
262.9788133107610
 31
0.0000000000000000
  0
LINE
  5
293
100
AcDbEntity
  8
MAIN0
  6
HIDDEN
 62
3
100
AcDbLine
 10
123.2301239760213
 20
262.9788133107610
 30
0.0000000000000000
 11
128.6301239760213
 21
262.9788133107610
 31
0.0000000000000000
  0
LINE
  5
294
100
AcDbEntity
  8
MAIN0
  6
HIDDEN
 62
3
100
AcDbLine
 10
123.2301239760213
 20
272.9788133107610
 30
0.0000000000000000
 11
123.2301239760213
 21
262.9788133107610
 31
0.0000000000000000
  0
LINE
  5
295
100
AcDbEntity
  8
MAIN0
  6
HIDDEN
 62
3
100
AcDbLine
 10
128.6301239760213
 20
270.9788133107610
 30
0.0000000000000000
 11
133.4944383110781
 21
270.9788133107610
 31
0.0000000000000000
  0
LINE
  5
296
100
AcDbEntity
  8
MAIN0
  6
HIDDEN
 62
3
100
AcDbLine
 10
133.5960442640253
 20
264.9788133107610
 30
0.0000000000000000
 11
128.6301239760213
 21
264.9788133107610
 31
0.0000000000000000
  0
LINE
  5
297
100
AcDbEntity
  8
MAIN0
  6
HIDDEN
 62
3
100
AcDbLine
 10
128.6301239760213
 20
270.4375473107610
 30
0.0000000000000000
 11
133.5269025948712
 21
270.4375473107610
 31
0.0000000000000000
  0
LINE
  5
298
100
AcDbEntity
  8
MAIN0
  6
HIDDEN
 62
3
100
AcDbLine
 10
128.6301239760213
 20
265.5200793107611
 30
0.0000000000000000
 11
133.6182653872343
 21
265.5200793107611
 31
0.0000000000000000
  0
LINE
  5
299
100
AcDbEntity
  8
MAIN0
  6
HIDDEN
 62
3
100
AcDbLine
 10
175.6301239760159
 20
377.6288133107610
 30
0.0000000000000000
 11
175.0301239760159
 21
378.2288133107610
 31
0.0000000000000000
  0
LINE
  5
29A
100
AcDbEntity
  8
MAIN0
  6
HIDDEN
 62
3
100
AcDbLine
 10
175.0301239760159
 20
378.2288133107610
 30
0.0000000000000000
 11
163.6301239760159
 21
378.2288133107610
 31
0.0000000000000000
  0
LINE
  5
29B
100
AcDbEntity
  8
MAIN0
  6
HIDDEN
 62
3
100
AcDbLine
 10
163.6301239760159
 20
378.2288133107610
 30
0.0000000000000000
 11
163.6301239760159
 21
395.2288133107610
 31
0.0000000000000000
  0
LINE
  5
29C
100
AcDbEntity
  8
MAIN0
  6
HIDDEN
 62
3
100
AcDbLine
 10
163.6301239760159
 20
395.2288133107610
 30
0.0000000000000000
 11
175.0301239760159
 21
395.2288133107610
 31
0.0000000000000000
  0
LINE
  5
29D
100
AcDbEntity
  8
MAIN0
  6
HIDDEN
 62
3
100
AcDbLine
 10
175.0301239760159
 20
395.2288133107610
 30
0.0000000000000000
 11
175.2801239759915
 21
395.4788133107366
 31
0.0000000000000000
  0
LINE
  5
29E
100
AcDbEntity
  8
MAIN0
  6
CONTINUOUS
 62
3
100
AcDbLine
 10
188.1328843341632
 20
258.9538219691419
 30
0.0000000000000000
 11
197.1328843341632
 21
258.9538219691419
 31
0.0000000000000000
  0
LINE
  5
29F
100
AcDbEntity
  8
MAIN0
  6
CONTINUOUS
 62
3
100
AcDbLine
 10
197.1328843341632
 20
258.9538219691419
 30
0.0000000000000000
 11
198.1328843341632
 21
260.6858727767108
 31
0.0000000000000000
  0
LINE
  5
2A0
100
AcDbEntity
  8
MAIN0
  6
CONTINUOUS
 62
3
100
AcDbLine
 10
198.1328843341632
 20
260.6858727767108
 30
0.0000000000000000
 11
198.1328843341632
 21
273.2217711615730
 31
0.0000000000000000
  0
LINE
  5
2A1
100
AcDbEntity
  8
MAIN0
  6
CONTINUOUS
 62
3
100
AcDbLine
 10
198.1328843341631
 20
273.2217711615730
 30
0.0000000000000000
 11
197.1328843341631
 21
274.9538219691419
 31
0.0000000000000000
  0
LINE
  5
2A2
100
AcDbEntity
  8
MAIN0
  6
CONTINUOUS
 62
3
100
AcDbLine
 10
197.1328843341632
 20
274.9538219691419
 30
0.0000000000000000
 11
188.1328843341632
 21
274.9538219691419
 31
0.0000000000000000
  0
LINE
  5
2A3
100
AcDbEntity
  8
MAIN0
  6
CONTINUOUS
 62
3
100
AcDbLine
 10
197.1328843341632
 20
258.9538219691419
 30
0.0000000000000000
 11
197.1328843341632
 21
274.9538219691419
 31
0.0000000000000000
  0
LINE
  5
2A4
100
AcDbEntity
  8
MAIN0
  6
HIDDEN
 62
3
100
AcDbLine
 10
170.7626896052786
 20
271.9538219691419
 30
0.0000000000000000
 11
184.1298913757420
 21
271.9538219691419
 31
0.0000000000000000
  0
LINE
  5
2A5
100
AcDbEntity
  8
MAIN0
  6
CONTINUOUS
 62
3
100
AcDbLine
 10
184.1298913757420
 20
271.9538219691419
 30
0.0000000000000000
 11
188.1328843341632
 21
271.9538219691419
 31
0.0000000000000000
  0
LINE
  5
2A6
100
AcDbEntity
  8
MAIN0
  6
HIDDEN
 62
3
100
AcDbLine
 10
170.7626896052786
 20
271.1419229691419
 30
0.0000000000000000
 11
184.1298913757420
 21
271.1419229691419
 31
0.0000000000000000
  0
LINE
  5
2A7
100
AcDbEntity
  8
MAIN0
  6
CONTINUOUS
 62
3
100
AcDbLine
 10
184.1298913757420
 20
271.1419229691419
 30
0.0000000000000000
 11
188.1328843341632
 21
271.1419229691419
 31
0.0000000000000000
  0
LINE
  5
2A8
100
AcDbEntity
  8
MAIN0
  6
HIDDEN
 62
3
100
AcDbLine
 10
170.7626896052786
 20
262.7657209691419
 30
0.0000000000000000
 11
184.1298913757420
 21
262.7657209691419
 31
0.0000000000000000
  0
LINE
  5
2A9
100
AcDbEntity
  8
MAIN0
  6
CONTINUOUS
 62
3
100
AcDbLine
 10
184.1298913757420
 20
262.7657209691419
 30
0.0000000000000000
 11
188.1328843341632
 21
262.7657209691419
 31
0.0000000000000000
  0
LINE
  5
2AA
100
AcDbEntity
  8
MAIN0
  6
HIDDEN
 62
3
100
AcDbLine
 10
170.7626896052786
 20
261.9538219691419
 30
0.0000000000000000
 11
184.1298913757420
 21
261.9538219691419
 31
0.0000000000000000
  0
LINE
  5
2AB
100
AcDbEntity
  8
MAIN0
  6
CONTINUOUS
 62
3
100
AcDbLine
 10
184.1298913757420
 20
261.9538219691419
 30
0.0000000000000000
 11
188.1328843341632
 21
261.9538219691419
 31
0.0000000000000000
  0
LINE
  5
2AC
100
AcDbEntity
  8
MAIN0
  6
CONTINUOUS
 62
3
100
AcDbLine
 10
188.1328843341139
 20
214.5038219691419
 30
0.0000000000000000
 11
197.1328843341139
 21
214.5038219691419
 31
0.0000000000000000
  0
LINE
  5
2AD
100
AcDbEntity
  8
MAIN0
  6
CONTINUOUS
 62
3
100
AcDbLine
 10
197.1328843341139
 20
214.5038219691419
 30
0.0000000000000000
 11
198.1328843341139
 21
216.2358727767108
 31
0.0000000000000000
  0
LINE
  5
2AE
100
AcDbEntity
  8
MAIN0
  6
CONTINUOUS
 62
3
100
AcDbLine
 10
198.1328843341139
 20
216.2358727767108
 30
0.0000000000000000
 11
198.1328843341139
 21
228.7717711615730
 31
0.0000000000000000
  0
LINE
  5
2AF
100
AcDbEntity
  8
MAIN0
  6
CONTINUOUS
 62
3
100
AcDbLine
 10
198.1328843341139
 20
228.7717711615730
 30
0.0000000000000000
 11
197.1328843341139
 21
230.5038219691419
 31
0.0000000000000000
  0
LINE
  5
2B0
100
AcDbEntity
  8
MAIN0
  6
CONTINUOUS
 62
3
100
AcDbLine
 10
197.1328843341139
 20
230.5038219691419
 30
0.0000000000000000
 11
188.1328843341139
 21
230.5038219691419
 31
0.0000000000000000
  0
LINE
  5
2B1
100
AcDbEntity
  8
MAIN0
  6
CONTINUOUS
 62
3
100
AcDbLine
 10
197.1328843341139
 20
214.5038219691419
 30
0.0000000000000000
 11
197.1328843341139
 21
230.5038219691419
 31
0.0000000000000000
  0
LINE
  5
2B2
100
AcDbEntity
  8
MAIN0
  6
HIDDEN
 62
3
100
AcDbLine
 10
170.7626896052786
 20
227.5038219691419
 30
0.0000000000000000
 11
184.1298913757420
 21
227.5038219691419
 31
0.0000000000000000
  0
LINE
  5
2B3
100
AcDbEntity
  8
MAIN0
  6
CONTINUOUS
 62
3
100
AcDbLine
 10
184.1298913757420
 20
227.5038219691419
 30
0.0000000000000000
 11
188.1328843341139
 21
227.5038219691419
 31
0.0000000000000000
  0
LINE
  5
2B4
100
AcDbEntity
  8
MAIN0
  6
HIDDEN
 62
3
100
AcDbLine
 10
170.7626896052786
 20
226.6919229691419
 30
0.0000000000000000
 11
184.1298913757420
 21
226.6919229691419
 31
0.0000000000000000
  0
LINE
  5
2B5
100
AcDbEntity
  8
MAIN0
  6
CONTINUOUS
 62
3
100
AcDbLine
 10
184.1298913757420
 20
226.6919229691419
 30
0.0000000000000000
 11
188.1328843341139
 21
226.6919229691419
 31
0.0000000000000000
  0
LINE
  5
2B6
100
AcDbEntity
  8
MAIN0
  6
HIDDEN
 62
3
100
AcDbLine
 10
170.7626896052786
 20
218.3157209691419
 30
0.0000000000000000
 11
184.1298913757420
 21
218.3157209691419
 31
0.0000000000000000
  0
LINE
  5
2B7
100
AcDbEntity
  8
MAIN0
  6
CONTINUOUS
 62
3
100
AcDbLine
 10
184.1298913757420
 20
218.3157209691419
 30
0.0000000000000000
 11
188.1328843341139
 21
218.3157209691419
 31
0.0000000000000000
  0
LINE
  5
2B8
100
AcDbEntity
  8
MAIN0
  6
HIDDEN
 62
3
100
AcDbLine
 10
170.7626896052786
 20
217.5038219691419
 30
0.0000000000000000
 11
184.1298913757420
 21
217.5038219691419
 31
0.0000000000000000
  0
LINE
  5
2B9
100
AcDbEntity
  8
MAIN0
  6
CONTINUOUS
 62
3
100
AcDbLine
 10
184.1298913757420
 20
217.5038219691419
 30
0.0000000000000000
 11
188.1328843341139
 21
217.5038219691419
 31
0.0000000000000000
  0
LINE
  5
2BA
100
AcDbEntity
  8
MAIN0
  6
CENTER
 62
3
100
AcDbLine
 10
101.3157653566191
 20
125.0761352001049
 30
0.0000000000000000
 11
101.3157653566191
 21
157.3705920405519
 31
0.0000000000000000
  0
LINE
  5
2BB
100
AcDbEntity
  8
MAIN0
  6
CONTINUOUS
 62
3
100
AcDbLine
 10
149.3157653566192
 20
136.8943119371947
 30
0.0000000000000000
 11
149.3157653566192
 21
173.5943119371947
 31
0.0000000000000000
  0
LINE
  5
2BC
100
AcDbEntity
  8
MAIN0
  6
CONTINUOUS
 62
3
100
AcDbLine
 10
61.31576535661912
 20
136.8943119371947
 30
0.0000000000000000
 11
61.31576535661912
 21
173.5943119371947
 31
0.0000000000000000
  0
LINE
  5
2BD
100
AcDbEntity
  8
MAIN0
  6
CONTINUOUS
 62
3
100
AcDbLine
 10
62.31576535661912
 20
174.5943119371947
 30
0.0000000000000000
 11
148.3157653566192
 21
174.5943119371947
 31
0.0000000000000000
  0
LINE
  5
2BE
100
AcDbEntity
  8
MAIN0
  6
CONTINUOUS
 62
3
100
AcDbLine
 10
95.27576535661916
 20
133.5943119371947
 30
0.0000000000000000
 11
107.3557653566191
 21
133.5943119371947
 31
0.0000000000000000
  0
LINE
  5
2BF
100
AcDbEntity
  8
MAIN0
  6
CENTER
 62
3
100
AcDbLine
 10
79.09076535661905
 20
178.3114455115579
 30
0.0000000000000000
 11
79.09076535661905
 21
129.3820600411953
 31
0.0000000000000000
  0
LINE
  5
2C0
100
AcDbEntity
  8
MAIN0
  6
CENTER
 62
3
100
AcDbLine
 10
123.5407653566191
 20
178.3114455115579
 30
0.0000000000000000
 11
123.5407653566191
 21
129.3820600411953
 31
0.0000000000000000
  0
LINE
  5
2C1
100
AcDbEntity
  8
MAIN0
  6
CONTINUOUS
 62
3
100
AcDbLine
 10
132.0407653566191
 20
144.0943119371947
 30
0.0000000000000000
 11
132.0407653566191
 21
174.2943119371947
 31
0.0000000000000000
  0
LINE
  5
2C2
100
AcDbEntity
  8
MAIN0
  6
CONTINUOUS
 62
3
100
AcDbLine
 10
115.0407653566191
 20
144.0943119371947
 30
0.0000000000000000
 11
115.0407653566191
 21
174.2943119371947
 31
0.0000000000000000
  0
LINE
  5
2C3
100
AcDbEntity
  8
MAIN0
  6
CONTINUOUS
 62
3
100
AcDbLine
 10
87.59076535661905
 20
144.0943119371947
 30
0.0000000000000000
 11
87.59076535661905
 21
174.2943119371947
 31
0.0000000000000000
  0
LINE
  5
2C4
100
AcDbEntity
  8
MAIN0
  6
CONTINUOUS
 62
3
100
AcDbLine
 10
70.59076535661899
 20
144.0943119371947
 30
0.0000000000000000
 11
70.59076535661899
 21
174.2943119371947
 31
0.0000000000000000
  0
LINE
  5
2C5
100
AcDbEntity
  8
MAIN0
  6
CONTINUOUS
 62
3
100
AcDbLine
 10
70.59076535661899
 20
144.0943119371947
 30
0.0000000000000000
 11
87.59076535661905
 21
144.0943119371947
 31
0.0000000000000000
  0
LINE
  5
2C6
100
AcDbEntity
  8
MAIN0
  6
CONTINUOUS
 62
3
100
AcDbLine
 10
115.0407653566191
 20
144.0943119371947
 30
0.0000000000000000
 11
132.0407653566191
 21
144.0943119371947
 31
0.0000000000000000
  0
LINE
  5
2C7
100
AcDbEntity
  8
MAIN0
  6
CONTINUOUS
 62
3
100
AcDbLine
 10
73.59076535661899
 20
140.0943119371947
 30
0.0000000000000000
 11
73.59076535661899
 21
144.0943119371947
 31
0.0000000000000000
  0
LINE
  5
2C8
100
AcDbEntity
  8
MAIN0
  6
CONTINUOUS
 62
3
100
AcDbLine
 10
84.59076535661905
 20
140.0943119371947
 30
0.0000000000000000
 11
84.59076535661905
 21
144.0943119371947
 31
0.0000000000000000
  0
LINE
  5
2C9
100
AcDbEntity
  8
MAIN0
  6
CONTINUOUS
 62
3
100
AcDbLine
 10
118.0407653566191
 20
140.0943119371947
 30
0.0000000000000000
 11
118.0407653566191
 21
144.0943119371947
 31
0.0000000000000000
  0
LINE
  5
2CA
100
AcDbEntity
  8
MAIN0
  6
CONTINUOUS
 62
3
100
AcDbLine
 10
129.0407653566191
 20
140.0943119371947
 30
0.0000000000000000
 11
129.0407653566191
 21
144.0943119371947
 31
0.0000000000000000
  0
LINE
  5
2CB
100
AcDbEntity
  8
MAIN0
  6
CONTINUOUS
 62
3
100
AcDbLine
 10
94.97576535661915
 20
133.8943119371947
 30
0.0000000000000000
 11
94.97576535661915
 21
137.2943119371946
 31
0.0000000000000000
  0
LINE
  5
2CC
100
AcDbEntity
  8
MAIN0
  6
CONTINUOUS
 62
3
100
AcDbLine
 10
107.6557653566192
 20
133.8943119371947
 30
0.0000000000000000
 11
107.6557653566192
 21
137.2943119371946
 31
0.0000000000000000
  0
LINE
  5
2CD
100
AcDbEntity
  8
MAIN0
  6
CONTINUOUS
 62
3
100
AcDbLine
 10
110.6557653566193
 20
137.2943119371946
 30
0.0000000000000000
 11
110.6557653566193
 21
136.5943119371947
 31
0.0000000000000000
  0
LINE
  5
2CE
100
AcDbEntity
  8
MAIN0
  6
CONTINUOUS
 62
3
100
AcDbLine
 10
91.97576535661943
 20
136.5943119371947
 30
0.0000000000000000
 11
91.97576535661943
 21
137.2943119371946
 31
0.0000000000000000
  0
LINE
  5
2CF
100
AcDbEntity
  8
MAIN0
  6
CONTINUOUS
 62
3
100
AcDbLine
 10
61.61576535661919
 20
136.5943119371947
 30
0.0000000000000000
 11
91.97576535661943
 21
136.5943119371947
 31
0.0000000000000000
  0
LINE
  5
2D0
100
AcDbEntity
  8
MAIN0
  6
CONTINUOUS
 62
3
100
AcDbLine
 10
110.6557653566193
 20
136.5943119371947
 30
0.0000000000000000
 11
149.0157653566191
 21
136.5943119371947
 31
0.0000000000000000
  0
LINE
  5
2D1
100
AcDbEntity
  8
MAIN0
  6
CONTINUOUS
 62
3
100
AcDbLine
 10
91.97576535661943
 20
137.2943119371946
 30
0.0000000000000000
 11
94.97576535661915
 21
137.2943119371946
 31
0.0000000000000000
  0
LINE
  5
2D2
100
AcDbEntity
  8
MAIN0
  6
CONTINUOUS
 62
3
100
AcDbLine
 10
107.6557653566192
 20
137.2943119371946
 30
0.0000000000000000
 11
110.6557653566193
 21
137.2943119371946
 31
0.0000000000000000
  0
LINE
  5
2D3
100
AcDbEntity
  8
MAIN0
  6
CONTINUOUS
 62
3
100
AcDbLine
 10
75.29076535661903
 20
136.5943119371947
 30
0.0000000000000000
 11
75.29076535661903
 21
140.0943119371946
 31
0.0000000000000000
  0
LINE
  5
2D4
100
AcDbEntity
  8
MAIN0
  6
CONTINUOUS
 62
3
100
AcDbLine
 10
82.89076535661906
 20
136.5943119371947
 30
0.0000000000000000
 11
82.89076535661906
 21
140.0943119371946
 31
0.0000000000000000
  0
LINE
  5
2D5
100
AcDbEntity
  8
MAIN0
  6
CONTINUOUS
 62
3
100
AcDbLine
 10
119.7407653566191
 20
136.5943119371946
 30
0.0000000000000000
 11
119.7407653566191
 21
140.0943119371947
 31
0.0000000000000000
  0
LINE
  5
2D6
100
AcDbEntity
  8
MAIN0
  6
CONTINUOUS
 62
3
100
AcDbLine
 10
127.3407653566191
 20
136.5943119371947
 30
0.0000000000000000
 11
127.3407653566191
 21
140.0943119371946
 31
0.0000000000000000
  0
LINE
  5
2D7
100
AcDbEntity
  8
MAIN0
  6
CONTINUOUS
 62
3
100
AcDbLine
 10
127.3407653566191
 20
140.0943119371947
 30
0.0000000000000000
 11
149.3157653566192
 21
140.0943119371947
 31
0.0000000000000000
  0
LINE
  5
2D8
100
AcDbEntity
  8
MAIN0
  6
CONTINUOUS
 62
3
100
AcDbLine
 10
82.89076535661906
 20
140.0943119371947
 30
0.0000000000000000
 11
119.7407653566191
 21
140.0943119371947
 31
0.0000000000000000
  0
LINE
  5
2D9
100
AcDbEntity
  8
MAIN0
  6
CONTINUOUS
 62
3
100
AcDbLine
 10
61.31576535661912
 20
140.0943119371947
 30
0.0000000000000000
 11
75.29076535661903
 21
140.0943119371947
 31
0.0000000000000000
  0
LINE
  5
2DA
100
AcDbEntity
  8
MAIN0
  6
CONTINUOUS
 62
3
100
AcDbLine
 10
148.3157653566192
 20
174.5943119371947
 30
0.0000000000000000
 11
149.3157653566192
 21
173.5943119371947
 31
0.0000000000000000
  0
LINE
  5
2DB
100
AcDbEntity
  8
MAIN0
  6
CONTINUOUS
 62
3
100
AcDbLine
 10
62.31576535661918
 20
174.5943119371947
 30
0.0000000000000000
 11
61.31576535661924
 21
173.5943119371948
 31
0.0000000000000000
  0
LINE
  5
2DC
100
AcDbEntity
  8
MAIN0
  6
CONTINUOUS
 62
3
100
AcDbLine
 10
61.31576535661924
 20
136.8943119371947
 30
0.0000000000000000
 11
61.61576535661925
 21
136.5943119371947
 31
0.0000000000000000
  0
LINE
  5
2DD
100
AcDbEntity
  8
MAIN0
  6
CONTINUOUS
 62
3
100
AcDbLine
 10
149.0157653566191
 20
136.5943119371947
 30
0.0000000000000000
 11
149.3157653566191
 21
136.8943119371947
 31
0.0000000000000000
  0
LINE
  5
2DE
100
AcDbEntity
  8
MAIN0
  6
CONTINUOUS
 62
3
100
AcDbLine
 10
94.97576535661921
 20
133.8943119371947
 30
0.0000000000000000
 11
95.27576535661922
 21
133.5943119371947
 31
0.0000000000000000
  0
LINE
  5
2DF
100
AcDbEntity
  8
MAIN0
  6
CONTINUOUS
 62
3
100
AcDbLine
 10
107.3557653566192
 20
133.5943119371947
 30
0.0000000000000000
 11
107.6557653566192
 21
133.8943119371947
 31
0.0000000000000000
  0
LINE
  5
2E0
100
AcDbEntity
  8
MAIN0
  6
CONTINUOUS
 62
3
100
AcDbLine
 10
70.29076535661909
 20
174.5943119371947
 30
0.0000000000000000
 11
70.59076535661910
 21
174.2943119371947
 31
0.0000000000000000
  0
LINE
  5
2E1
100
AcDbEntity
  8
MAIN0
  6
CONTINUOUS
 62
3
100
AcDbLine
 10
87.89076535661906
 20
174.5943119371947
 30
0.0000000000000000
 11
87.59076535661910
 21
174.2943119371948
 31
0.0000000000000000
  0
LINE
  5
2E2
100
AcDbEntity
  8
MAIN0
  6
CONTINUOUS
 62
3
100
AcDbLine
 10
114.7407653566191
 20
174.5943119371947
 30
0.0000000000000000
 11
115.0407653566192
 21
174.2943119371947
 31
0.0000000000000000
  0
LINE
  5
2E3
100
AcDbEntity
  8
MAIN0
  6
CONTINUOUS
 62
3
100
AcDbLine
 10
132.3407653566191
 20
174.5943119371947
 30
0.0000000000000000
 11
132.0407653566191
 21
174.2943119371947
 31
0.0000000000000000
  0
ARC
  5
2E4
100
AcDbEntity
  8
MAIN0
  6
CONTINUOUS
 62
3
100
AcDbCircle
 10
528.7285457077568
 20
421.7288133107671
 30
0.0000000000000000
 40
12.50000000244790
100
AcDbArc
 50
151.3145979920585
 51
208.6854020080051
  0
LINE
  5
2E5
100
AcDbEntity
  8
MAIN0
  6
CONTINUOUS
 62
3
100
AcDbLine
 10
517.7626896052418
 20
410.7288133107611
 30
0.0000000000000000
 11
517.7626896052391
 21
415.7288133107610
 31
0.0000000000000000
  0
LINE
  5
2E6
100
AcDbEntity
  8
MAIN0
  6
CONTINUOUS
 62
3
100
AcDbLine
 10
517.7626896052324
 20
427.7288133107610
 30
0.0000000000000000
 11
517.7626896052295
 21
432.7288133107610
 31
0.0000000000000000
  0
LINE
  5
2E7
100
AcDbEntity
  8
MAIN0
  6
CONTINUOUS
 62
3
100
AcDbLine
 10
515.7626896052285
 20
434.7288133107610
 30
0.0000000000000000
 11
517.7626896052296
 21
432.7288133107610
 31
0.0000000000000000
  0
LINE
  5
2E8
100
AcDbEntity
  8
MAIN0
  6
CONTINUOUS
 62
3
100
AcDbLine
 10
515.7626896052429
 20
408.7288133107610
 30
0.0000000000000000
 11
517.7626896052418
 21
410.7288133107610
 31
0.0000000000000000
  0
ARC
  5
2E9
100
AcDbEntity
  8
MAIN0
  6
CONTINUOUS
 62
3
100
AcDbCircle
 10
535.0573021280470
 20
424.7288133107610
 30
0.0000000000000000
 40
4.500000000000021
100
AcDbArc
 50
138.1896851042213
 51
221.8103148957787
  0
ARC
  5
2EA
100
AcDbEntity
  8
MAIN0
  6
CONTINUOUS
 62
3
100
AcDbCircle
 10
528.3490981955476
 20
424.7288133107610
 30
0.0000000000000000
 40
4.500000000000021
100
AcDbArc
 50
318.1896851042213
 51
401.8103148957787
  0
ARC
  5
2EB
100
AcDbEntity
  8
MAIN0
  6
CONTINUOUS
 62
3
100
AcDbCircle
 10
539.5573021280470
 20
424.7288133107610
 30
0.0000000000000000
 40
4.500000000000021
100
AcDbArc
 50
138.1896851042213
 51
221.8103148957787
  0
ARC
  5
2EC
100
AcDbEntity
  8
MAIN0
  6
CONTINUOUS
 62
3
100
AcDbCircle
 10
528.3490981955476
 20
418.7288133107610
 30
0.0000000000000000
 40
4.500000000000021
100
AcDbArc
 50
318.1896851042213
 51
401.8103148957787
  0
ARC
  5
2ED
100
AcDbEntity
  8
MAIN0
  6
CONTINUOUS
 62
3
100
AcDbCircle
 10
539.5573021280470
 20
418.7288133107610
 30
0.0000000000000000
 40
4.500000000000021
100
AcDbArc
 50
138.1896851042213
 51
221.8103148957787
  0
ARC
  5
2EE
100
AcDbEntity
  8
MAIN0
  6
CONTINUOUS
 62
3
100
AcDbCircle
 10
532.8490981955476
 20
418.7288133107610
 30
0.0000000000000000
 40
4.500000000000021
100
AcDbArc
 50
318.1896851042213
 51
401.8103148957787
  0
LINE
  5
2EF
100
AcDbEntity
  8
MAIN0
  6
CONTINUOUS
 62
3
100
AcDbLine
 10
517.7626896052325
 20
427.7288133107610
 30
0.0000000000000000
 11
531.7032001617974
 21
427.7288133107610
 31
0.0000000000000000
  0
LINE
  5
2F0
100
AcDbEntity
  8
MAIN0
  6
CONTINUOUS
 62
3
100
AcDbLine
 10
536.2032001617974
 20
427.7288133107610
 30
0.0000000000000000
 11
562.7626896052786
 21
427.7288133107610
 31
0.0000000000000000
  0
LINE
  5
2F1
100
AcDbEntity
  8
MAIN0
  6
CONTINUOUS
 62
3
100
AcDbLine
 10
517.7626896052391
 20
415.7288133107610
 30
0.0000000000000000
 11
531.7032001617974
 21
415.7288133107610
 31
0.0000000000000000
  0
LINE
  5
2F2
100
AcDbEntity
  8
MAIN0
  6
CONTINUOUS
 62
3
100
AcDbLine
 10
536.2032001617974
 20
415.7288133107610
 30
0.0000000000000000
 11
562.7626896052786
 21
415.7288133107610
 31
0.0000000000000000
  0
ARC
  5
2F3
100
AcDbEntity
  8
MAIN0
  6
CONTINUOUS
 62
3
100
AcDbCircle
 10
482.7968335028004
 20
421.7288133107671
 30
0.0000000000000000
 40
12.50000000244790
100
AcDbArc
 50
331.3145979919949
 51
388.6854020079415
  0
LINE
  5
2F4
100
AcDbEntity
  8
MAIN0
  6
CONTINUOUS
 62
3
100
AcDbLine
 10
493.7626896053154
 20
410.7288133107610
 30
0.0000000000000000
 11
493.7626896053182
 21
415.7288133107609
 31
0.0000000000000000
  0
LINE
  5
2F5
100
AcDbEntity
  8
MAIN0
  6
CONTINUOUS
 62
3
100
AcDbLine
 10
493.7626896053248
 20
427.7288133107610
 30
0.0000000000000000
 11
493.7626896053276
 21
432.7288133107610
 31
0.0000000000000000
  0
LINE
  5
2F6
100
AcDbEntity
  8
MAIN0
  6
CONTINUOUS
 62
3
100
AcDbLine
 10
495.7626896053287
 20
434.7288133107611
 30
0.0000000000000000
 11
493.7626896053276
 21
432.7288133107611
 31
0.0000000000000000
  0
LINE
  5
2F7
100
AcDbEntity
  8
MAIN0
  6
CONTINUOUS
 62
3
100
AcDbLine
 10
495.7626896053142
 20
408.7288133107610
 30
0.0000000000000000
 11
493.7626896053154
 21
410.7288133107610
 31
0.0000000000000000
  0
ARC
  5
2F8
100
AcDbEntity
  8
MAIN0
  6
CONTINUOUS
 62
3
100
AcDbCircle
 10
476.4680770825102
 20
424.7288133107610
 30
0.0000000000000000
 40
4.500000000000021
100
AcDbArc
 50
318.1896851042213
 51
401.8103148957787
  0
ARC
  5
2F9
100
AcDbEntity
  8
MAIN0
  6
CONTINUOUS
 62
3
100
AcDbCircle
 10
483.1762810150095
 20
424.7288133107610
 30
0.0000000000000000
 40
4.500000000000021
100
AcDbArc
 50
138.1896851042213
 51
221.8103148957787
  0
ARC
  5
2FA
100
AcDbEntity
  8
MAIN0
  6
CONTINUOUS
 62
3
100
AcDbCircle
 10
471.9680770825102
 20
424.7288133107610
 30
0.0000000000000000
 40
4.500000000000021
100
AcDbArc
 50
318.1896851042213
 51
401.8103148957787
  0
ARC
  5
2FB
100
AcDbEntity
  8
MAIN0
  6
CONTINUOUS
 62
3
100
AcDbCircle
 10
483.1762810150095
 20
418.7288133107610
 30
0.0000000000000000
 40
4.500000000000021
100
AcDbArc
 50
138.1896851042213
 51
221.8103148957787
  0
ARC
  5
2FC
100
AcDbEntity
  8
MAIN0
  6
CONTINUOUS
 62
3
100
AcDbCircle
 10
471.9680770825102
 20
418.7288133107610
 30
0.0000000000000000
 40
4.500000000000021
100
AcDbArc
 50
318.1896851042213
 51
401.8103148957787
  0
ARC
  5
2FD
100
AcDbEntity
  8
MAIN0
  6
CONTINUOUS
 62
3
100
AcDbCircle
 10
478.6762810150095
 20
418.7288133107610
 30
0.0000000000000000
 40
4.500000000000021
100
AcDbArc
 50
138.1896851042213
 51
221.8103148957787
  0
LINE
  5
2FE
100
AcDbEntity
  8
MAIN0
  6
CONTINUOUS
 62
3
100
AcDbLine
 10
493.7626896053248
 20
427.7288133107610
 30
0.0000000000000000
 11
479.8221790487598
 21
427.7288133107610
 31
0.0000000000000000
  0
LINE
  5
2FF
100
AcDbEntity
  8
MAIN0
  6
CONTINUOUS
 62
3
100
AcDbLine
 10
475.3221790487598
 20
427.7288133107610
 30
0.0000000000000000
 11
448.7626896052786
 21
427.7288133107610
 31
0.0000000000000000
  0
LINE
  5
300
100
AcDbEntity
  8
MAIN0
  6
CONTINUOUS
 62
3
100
AcDbLine
 10
493.7626896053181
 20
415.7288133107610
 30
0.0000000000000000
 11
479.8221790487598
 21
415.7288133107610
 31
0.0000000000000000
  0
LINE
  5
301
100
AcDbEntity
  8
MAIN0
  6
CONTINUOUS
 62
3
100
AcDbLine
 10
475.3221790487598
 20
415.7288133107610
 30
0.0000000000000000
 11
448.7626896052786
 21
415.7288133107610
 31
0.0000000000000000
  0
LINE
  5
302
100
AcDbEntity
  8
MAIN0
  6
CONTINUOUS
 62
3
100
AcDbLine
 10
493.7626896053276
 20
432.7288133107610
 30
0.0000000000000000
 11
517.7626896052298
 21
432.7288133107610
 31
0.0000000000000000
  0
LINE
  5
303
100
AcDbEntity
  8
MAIN0
  6
CONTINUOUS
 62
3
100
AcDbLine
 10
517.7626896052419
 20
410.7288133107610
 30
0.0000000000000000
 11
493.7626896053154
 21
410.7288133107610
 31
0.0000000000000000
  0
LINE
  5
304
100
AcDbEntity
  8
MAIN0
  6
CONTINUOUS
 62
3
100
AcDbLine
 10
495.7626896053287
 20
434.7288133107610
 30
0.0000000000000000
 11
515.7626896052285
 21
434.7288133107610
 31
0.0000000000000000
  0
LINE
  5
305
100
AcDbEntity
  8
MAIN0
  6
CONTINUOUS
 62
3
100
AcDbLine
 10
495.7626896053142
 20
408.7288133107610
 30
0.0000000000000000
 11
515.7626896052429
 21
408.7288133107610
 31
0.0000000000000000
  0
LINE
  5
306
100
AcDbEntity
  8
MAIN0
  6
CONTINUOUS
 62
3
100
AcDbLine
 10
515.7626896052786
 20
408.7288133107610
 30
0.0000000000000000
 11
515.7626896052786
 21
320.7288133107610
 31
0.0000000000000000
  0
LINE
  5
307
100
AcDbEntity
  8
MAIN0
  6
CONTINUOUS
 62
3
100
AcDbLine
 10
495.7626896052786
 20
408.7288133107610
 30
0.0000000000000000
 11
495.7626896052786
 21
320.7288133107610
 31
0.0000000000000000
  0
LINE
  5
308
100
AcDbEntity
  8
MAIN0
  6
CONTINUOUS
 62
3
100
AcDbLine
 10
497.2626896052786
 20
319.2288133107610
 30
0.0000000000000000
 11
514.2626896052786
 21
319.2288133107610
 31
0.0000000000000000
  0
LINE
  5
309
100
AcDbEntity
  8
MAIN0
  6
CONTINUOUS
 62
3
100
AcDbLine
 10
501.5483302527608
 20
274.7288133107610
 30
0.0000000000000000
 11
509.9770489577964
 21
274.7288133107610
 31
0.0000000000000000
  0
LINE
  5
30A
100
AcDbEntity
  8
MAIN0
  6
CENTER
 62
3
100
AcDbLine
 10
495.7626896052793
 20
256.7288133107581
 30
0.0000000000000000
 11
515.7626896052793
 21
256.7288133107640
 31
0.0000000000000000
  0
LINE
  5
30B
100
AcDbEntity
  8
MAIN0
  6
CENTER
 62
3
100
AcDbLine
 10
505.7626896052786
 20
266.7288133107610
 30
0.0000000000000000
 11
505.7626896052786
 21
246.7288133107610
 31
0.0000000000000000
  0
LINE
  5
30C
100
AcDbEntity
  8
MAIN0
  6
CONTINUOUS
 62
3
100
AcDbLine
 10
498.5626896052786
 20
257.3069879032128
 30
0.0000000000000000
 11
505.1845150128203
 21
263.9288133107609
 31
0.0000000000000000
  0
LINE
  5
30D
100
AcDbEntity
  8
MAIN0
  6
CONTINUOUS
 62
3
100
AcDbLine
 10
506.3408641989311
 20
249.5288133107613
 30
0.0000000000000000
 11
512.9626896052785
 21
256.1506387171152
 31
0.0000000000000000
  0
LINE
  5
30E
100
AcDbEntity
  8
MAIN0
  6
CONTINUOUS
 62
3
100
AcDbLine
 10
506.3408641983338
 20
263.9288133107612
 30
0.0000000000000000
 11
512.9626896052785
 21
257.3069879038155
 31
0.0000000000000000
  0
LINE
  5
30F
100
AcDbEntity
  8
MAIN0
  6
CONTINUOUS
 62
3
100
AcDbLine
 10
498.5626896052786
 20
256.1506387177125
 30
0.0000000000000000
 11
505.1845150122291
 21
249.5288133107609
 31
0.0000000000000000
  0
LINE
  5
310
100
AcDbEntity
  8
MAIN0
  6
CONTINUOUS
 62
3
100
AcDbLine
 10
505.1845150128202
 20
263.9288133107609
 30
0.0000000000000000
 11
506.3408641983339
 21
263.9288133107613
 31
0.0000000000000000
  0
LINE
  5
311
100
AcDbEntity
  8
MAIN0
  6
CONTINUOUS
 62
3
100
AcDbLine
 10
505.1845150122292
 20
249.5288133107609
 30
0.0000000000000000
 11
506.3408641989312
 21
249.5288133107612
 31
0.0000000000000000
  0
LINE
  5
312
100
AcDbEntity
  8
MAIN0
  6
CONTINUOUS
 62
3
100
AcDbLine
 10
512.9626896052786
 20
257.3069879038155
 30
0.0000000000000000
 11
512.9626896052786
 21
256.1506387171152
 31
0.0000000000000000
  0
LINE
  5
313
100
AcDbEntity
  8
MAIN0
  6
CONTINUOUS
 62
3
100
AcDbLine
 10
498.5626896052786
 20
257.3069879032127
 30
0.0000000000000000
 11
498.5626896052786
 21
256.1506387177125
 31
0.0000000000000000
  0
LINE
  5
314
100
AcDbEntity
  8
MAIN0
  6
CONTINUOUS
 62
3
100
AcDbLine
 10
512.9626896053798
 20
289.7288133107610
 30
0.0000000000000000
 11
512.9626896053842
 21
275.5288133107780
 31
0.0000000000000000
  0
LINE
  5
315
100
AcDbEntity
  8
MAIN0
  6
CONTINUOUS
 62
3
100
AcDbLine
 10
498.5626896053117
 20
289.7288133107610
 30
0.0000000000000000
 11
498.5626896052999
 21
275.5288133107788
 31
0.0000000000000000
  0
LINE
  5
316
100
AcDbEntity
  8
MAIN0
  6
CONTINUOUS
 62
3
100
AcDbLine
 10
505.1845150128394
 20
289.7288133107610
 30
0.0000000000000000
 11
505.1845150128250
 21
275.5288133107783
 31
0.0000000000000000
  0
LINE
  5
317
100
AcDbEntity
  8
MAIN0
  6
CONTINUOUS
 62
3
100
AcDbLine
 10
506.3243125046860
 20
289.7288133107610
 30
0.0000000000000000
 11
506.3243125046779
 21
275.5288133107783
 31
0.0000000000000000
  0
LINE
  5
318
100
AcDbEntity
  8
MAIN0
  6
CONTINUOUS
 62
3
100
AcDbLine
 10
498.3326896052786
 20
289.7288133107610
 30
0.0000000000000000
 11
505.1845150128419
 21
289.7288133107610
 31
0.0000000000000000
  0
LINE
  5
319
100
AcDbEntity
  8
MAIN0
  6
CONTINUOUS
 62
3
100
AcDbLine
 10
506.3243125046873
 20
289.7288133107610
 30
0.0000000000000000
 11
513.1926896052786
 21
289.7288133107610
 31
0.0000000000000000
  0
LINE
  5
31A
100
AcDbEntity
  8
MAIN0
  6
CONTINUOUS
 62
3
100
AcDbLine
 10
498.5626896052998
 20
275.5288133107787
 30
0.0000000000000000
 11
512.9626896053842
 21
275.5288133107779
 31
0.0000000000000000
  0
LINE
  5
31B
100
AcDbEntity
  8
MAIN0
  6
CONTINUOUS
 62
3
100
AcDbLine
 10
512.9626896053798
 20
289.7288133107610
 30
0.0000000000000000
 11
506.3243125046779
 21
275.5288133107783
 31
0.0000000000000000
  0
LINE
  5
31C
100
AcDbEntity
  8
MAIN0
  6
CONTINUOUS
 62
3
100
AcDbLine
 10
506.3243125046873
 20
289.7288133107610
 30
0.0000000000000000
 11
512.9626896053842
 21
275.5288133107779
 31
0.0000000000000000
  0
LINE
  5
31D
100
AcDbEntity
  8
MAIN0
  6
CONTINUOUS
 62
3
100
AcDbLine
 10
505.1845150128420
 20
289.7288133107610
 30
0.0000000000000000
 11
498.5626896052999
 21
275.5288133107787
 31
0.0000000000000000
  0
LINE
  5
31E
100
AcDbEntity
  8
MAIN0
  6
CONTINUOUS
 62
3
100
AcDbLine
 10
498.5626896053117
 20
289.7288133107610
 30
0.0000000000000000
 11
505.1845150128250
 21
275.5288133107783
 31
0.0000000000000000
  0
LINE
  5
31F
100
AcDbEntity
  8
MAIN0
  6
CENTER
 62
3
100
AcDbLine
 10
505.7626896052786
 20
269.2288133107610
 30
0.0000000000000000
 11
505.7626896052786
 21
377.7702281520776
 31
0.0000000000000000
  0
LINE
  5
320
100
AcDbEntity
  8
MAIN0
  6
CENTER
 62
3
100
AcDbLine
 10
505.7626896052786
 20
383.8702280567102
 30
0.0000000000000000
 11
505.7626896052786
 21
439.2288133107610
 31
0.0000000000000000
  0
LINE
  5
321
100
AcDbEntity
  8
MAIN0
  6
CONTINUOUS
 62
3
100
AcDbLine
 10
498.3326896052786
 20
289.7288133107610
 30
0.0000000000000000
 11
498.3326896052786
 21
318.4288133107610
 31
0.0000000000000000
  0
LINE
  5
322
100
AcDbEntity
  8
MAIN0
  6
CONTINUOUS
 62
3
100
AcDbLine
 10
495.7626896052786
 20
320.7288133107610
 30
0.0000000000000000
 11
497.2626896052785
 21
319.2288133107610
 31
0.0000000000000000
  0
ARC
  5
323
100
AcDbEntity
  8
MAIN0
  6
CONTINUOUS
 62
3
100
AcDbCircle
 10
497.5326896052786
 20
318.4288133107610
 30
0.0000000000000000
 40
0.8000000000000000
100
AcDbArc
 50
0.0000000000000000
 51
90.00000000000000
  0
LINE
  5
324
100
AcDbEntity
  8
MAIN0
  6
CONTINUOUS
 62
3
100
AcDbLine
 10
495.7626896052786
 20
320.7288133107610
 30
0.0000000000000000
 11
515.7626896052786
 21
320.7288133107610
 31
0.0000000000000000
  0
LINE
  5
325
100
AcDbEntity
  8
MAIN0
  6
CONTINUOUS
 62
3
100
AcDbLine
 10
515.7626896052786
 20
320.7288133107610
 30
0.0000000000000000
 11
514.2626896052786
 21
319.2288133107610
 31
0.0000000000000000
  0
ARC
  5
326
100
AcDbEntity
  8
MAIN0
  6
CONTINUOUS
 62
3
100
AcDbCircle
 10
513.9926896052787
 20
318.4288133107610
 30
0.0000000000000000
 40
0.8000000000000000
100
AcDbArc
 50
90.00000000000000
 51
180.0000000000000
  0
LINE
  5
327
100
AcDbEntity
  8
MAIN0
  6
CONTINUOUS
 62
3
100
AcDbLine
 10
513.1926896052786
 20
289.7288133107610
 30
0.0000000000000000
 11
513.1926896052786
 21
318.4288133107610
 31
0.0000000000000000
  0
LINE
  5
328
100
AcDbEntity
  8
MAIN0
  6
CONTINUOUS
 62
3
100
AcDbLine
 10
498.5626896053888
 20
275.5288133111129
 30
0.0000000000000000
 11
501.5483302527620
 21
274.7288133107607
 31
0.0000000000000000
  0
LINE
  5
329
100
AcDbEntity
  8
MAIN0
  6
CONTINUOUS
 62
3
100
AcDbLine
 10
512.9626896051684
 20
275.5288133111129
 30
0.0000000000000000
 11
509.9770489577952
 21
274.7288133107608
 31
0.0000000000000000
  0
LINE
  5
32A
100
AcDbEntity
  8
MAIN0
  6
CONTINUOUS
 62
3
100
AcDbLine
 10
497.8076896052786
 20
319.2288133107610
 30
0.0000000000000000
 11
513.7176896052786
 21
319.2288133107610
 31
0.0000000000000000
  0
LINE
  5
32B
100
AcDbEntity
  8
MAIN0
  6
CONTINUOUS
 62
3
100
AcDbLine
 10
497.4626896052786
 20
276.3288133107610
 30
0.0000000000000000
 11
514.0626896052786
 21
276.3288133107610
 31
0.0000000000000000
  0
LINE
  5
32C
100
AcDbEntity
  8
MAIN0
  6
PHANTOM
 62
3
100
AcDbLine
 10
498.2626896052786
 20
277.1288133107611
 30
0.0000000000000000
 11
498.2626896052786
 21
313.6788133108057
 31
0.0000000000000000
  0
LINE
  5
32D
100
AcDbEntity
  8
MAIN0
  6
PHANTOM
 62
3
100
AcDbLine
 10
513.2626896052786
 20
277.1288133107610
 30
0.0000000000000000
 11
513.2626896052786
 21
315.2788133108056
 31
0.0000000000000000
  0
LINE
  5
32E
100
AcDbEntity
  8
MAIN0
  6
CENTER
 62
3
100
AcDbLine
 10
497.4626896052786
 20
275.4068235897223
 30
0.0000000000000000
 11
497.4626896052786
 21
315.3409584610878
 31
0.0000000000000000
  0
LINE
  5
32F
100
AcDbEntity
  8
MAIN0
  6
CENTER
 62
3
100
AcDbLine
 10
514.0626896052786
 20
275.4068235897223
 30
0.0000000000000000
 11
514.0626896052786
 21
316.4600539874614
 31
0.0000000000000000
  0
LINE
  5
330
100
AcDbEntity
  8
MAIN0
  6
PHANTOM
 62
3
100
AcDbLine
 10
496.6626896052786
 20
277.1288133107611
 30
0.0000000000000000
 11
496.6626896052786
 21
313.6788133108057
 31
0.0000000000000000
  0
LINE
  5
331
100
AcDbEntity
  8
MAIN0
  6
PHANTOM
 62
3
100
AcDbLine
 10
514.8626896052786
 20
277.1288133107610
 30
0.0000000000000000
 11
514.8626896052786
 21
315.2788133108056
 31
0.0000000000000000
  0
CIRCLE
  5
332
100
AcDbEntity
  8
MAIN0
  6
CONTINUOUS
 62
3
100
AcDbCircle
 10
497.4626896052786
 20
277.1288133107611
 30
0.0000000000000000
 40
0.7999999999999972
  0
CIRCLE
  5
333
100
AcDbEntity
  8
MAIN0
  6
CONTINUOUS
 62
3
100
AcDbCircle
 10
514.0626896052786
 20
277.1288133107610
 30
0.0000000000000000
 40
0.7999999999999545
  0
LINE
  5
334
100
AcDbEntity
  8
MAIN0
  6
CONTINUOUS
 62
3
100
AcDbLine
 10
514.0626896052785
 20
277.9288133107610
 30
0.0000000000000000
 11
497.4626896052786
 21
277.9288133107610
 31
0.0000000000000000
  0
CIRCLE
  5
335
100
AcDbEntity
  8
MAIN0
  6
CONTINUOUS
 62
3
100
AcDbCircle
 10
514.0626896052786
 20
280.3288133107610
 30
0.0000000000000000
 40
0.7999999999999545
  0
LINE
  5
336
100
AcDbEntity
  8
MAIN0
  6
CONTINUOUS
 62
3
100
AcDbLine
 10
514.1394423401471
 20
279.5325036865003
 30
0.0000000000000000
 11
497.5394423401471
 21
277.9325036865004
 31
0.0000000000000000
  0
LINE
  5
337
100
AcDbEntity
  8
MAIN0
  6
CONTINUOUS
 62
3
100
AcDbLine
 10
513.9859368704101
 20
281.1251229350216
 30
0.0000000000000000
 11
497.3859368704101
 21
279.5251229350217
 31
0.0000000000000000
  0
CIRCLE
  5
338
100
AcDbEntity
  8
MAIN0
  6
CONTINUOUS
 62
3
100
AcDbCircle
 10
497.4626896052786
 20
278.7288133107610
 30
0.0000000000000000
 40
0.7999999999999972
  0
LINE
  5
339
100
AcDbEntity
  8
MAIN0
  6
CONTINUOUS
 62
3
100
AcDbLine
 10
513.9859368704102
 20
284.3251229350215
 30
0.0000000000000000
 11
497.3859368704102
 21
282.7251229350216
 31
0.0000000000000000
  0
LINE
  5
33A
100
AcDbEntity
  8
MAIN0
  6
CONTINUOUS
 62
3
100
AcDbLine
 10
514.1394423401471
 20
282.7325036865001
 30
0.0000000000000000
 11
497.5394423401471
 21
281.1325036865002
 31
0.0000000000000000
  0
CIRCLE
  5
33B
100
AcDbEntity
  8
MAIN0
  6
CONTINUOUS
 62
3
100
AcDbCircle
 10
497.4626896052786
 20
281.9288133107609
 30
0.0000000000000000
 40
0.7999999999999972
  0
CIRCLE
  5
33C
100
AcDbEntity
  8
MAIN0
  6
CONTINUOUS
 62
3
100
AcDbCircle
 10
514.0626896052786
 20
283.5288133107608
 30
0.0000000000000000
 40
0.7999999999999545
  0
CIRCLE
  5
33D
100
AcDbEntity
  8
MAIN0
  6
CONTINUOUS
 62
3
100
AcDbCircle
 10
513.7176896052786
 20
318.7038133107611
 30
0.0000000000000000
 40
0.5249999999999915
  0
CIRCLE
  5
33E
100
AcDbEntity
  8
MAIN0
  6
CONTINUOUS
 62
3
100
AcDbCircle
 10
497.8076896052786
 20
318.7038133107611
 30
0.0000000000000000
 40
0.5249999999999915
  0
LINE
  5
33F
100
AcDbEntity
  8
MAIN0
  6
CONTINUOUS
 62
3
100
AcDbLine
 10
513.7176896052786
 20
318.1788133107610
 30
0.0000000000000000
 11
497.8076896052786
 21
318.1788133107610
 31
0.0000000000000000
  0
CIRCLE
  5
340
100
AcDbEntity
  8
MAIN0
  6
CONTINUOUS
 62
3
100
AcDbCircle
 10
513.7176896052786
 20
317.6538133107611
 30
0.0000000000000000
 40
0.5249999999999915
  0
LINE
  5
341
100
AcDbEntity
  8
MAIN0
  6
CONTINUOUS
 62
3
100
AcDbLine
 10
513.7176896052786
 20
317.1288133107611
 30
0.0000000000000000
 11
497.8076896052786
 21
317.1288133107611
 31
0.0000000000000000
  0
CIRCLE
  5
342
100
AcDbEntity
  8
MAIN0
  6
CONTINUOUS
 62
3
100
AcDbCircle
 10
497.8076896052786
 20
317.6538133107611
 30
0.0000000000000000
 40
0.5249999999999915
  0
LINE
  5
343
100
AcDbEntity
  8
MAIN0
  6
CONTINUOUS
 62
3
100
AcDbLine
 10
513.9859368704101
 20
316.0751229350663
 30
0.0000000000000000
 11
497.3859368704102
 21
314.4751229350663
 31
0.0000000000000000
  0
LINE
  5
344
100
AcDbEntity
  8
MAIN0
  6
CONTINUOUS
 62
3
100
AcDbLine
 10
514.1394423401471
 20
314.4825036865449
 30
0.0000000000000000
 11
497.5394423401471
 21
312.8825036865450
 31
0.0000000000000000
  0
CIRCLE
  5
345
100
AcDbEntity
  8
MAIN0
  6
CONTINUOUS
 62
3
100
AcDbCircle
 10
514.0626896052786
 20
315.2788133108056
 30
0.0000000000000000
 40
0.7999999999999545
  0
CIRCLE
  5
346
100
AcDbEntity
  8
MAIN0
  6
CONTINUOUS
 62
3
100
AcDbCircle
 10
497.4626896052786
 20
313.6788133108057
 30
0.0000000000000000
 40
0.7999999999999972
  0
LINE
  5
347
100
AcDbEntity
  8
MAIN0
  6
CONTINUOUS
 62
3
100
AcDbLine
 10
514.1662060474863
 20
316.0720877565005
 30
0.0000000000000000
 11
506.0682328131949
 21
317.1288133107611
 31
0.0000000000000000
  0
LINE
  5
348
100
AcDbEntity
  8
MAIN0
  6
CONTINUOUS
 62
3
100
AcDbLine
 10
497.7221779884754
 20
317.1358241570216
 30
0.0000000000000000
 11
507.8878345881562
 21
315.4873540403912
 31
0.0000000000000000
  0
LINE
  5
349
100
AcDbEntity
  8
MAIN0
  6
CONTINUOUS
 62
3
100
AcDbLine
 10
514.1394423401471
 20
281.1251229350216
 30
0.0000000000000000
 11
505.8011546918519
 21
281.9288133107609
 31
0.0000000000000000
  0
LINE
  5
34A
100
AcDbEntity
  8
MAIN0
  6
CONTINUOUS
 62
3
100
AcDbLine
 10
497.3859368704101
 20
281.1325036865003
 30
0.0000000000000000
 11
505.7242245187058
 21
280.3288133107610
 31
0.0000000000000000
  0
CIRCLE
  5
34B
100
AcDbEntity
  8
MAIN0
  6
PHANTOM
 62
3
100
AcDbCircle
 10
505.7626896052786
 20
256.7288133107610
 30
0.0000000000000000
 40
7.200000000000000
  0
LINE
  5
34C
100
AcDbEntity
  8
MAIN0
  6
CONTINUOUS
 62
3
100
AcDbLine
 10
438.7626896052786
 20
431.1288133107611
 30
0.0000000000000000
 11
438.7626896052786
 21
412.3288133107611
 31
0.0000000000000000
  0
LINE
  5
34D
100
AcDbEntity
  8
MAIN0
  6
CONTINUOUS
 62
3
100
AcDbLine
 10
448.1626896052786
 20
431.7288133107610
 30
0.0000000000000000
 11
439.3626896052787
 21
431.7288133107610
 31
0.0000000000000000
  0
LINE
  5
34E
100
AcDbEntity
  8
MAIN0
  6
CONTINUOUS
 62
3
100
AcDbLine
 10
448.7626896052786
 20
431.1288133107611
 30
0.0000000000000000
 11
448.7626896052786
 21
412.3288133107611
 31
0.0000000000000000
  0
LINE
  5
34F
100
AcDbEntity
  8
MAIN0
  6
CONTINUOUS
 62
3
100
AcDbLine
 10
448.1626896052786
 20
411.7288133107610
 30
0.0000000000000000
 11
439.3626896052787
 21
411.7288133107610
 31
0.0000000000000000
  0
LINE
  5
350
100
AcDbEntity
  8
MAIN0
  6
HIDDEN
 62
3
100
AcDbLine
 10
448.7626896052786
 20
426.7288133107610
 30
0.0000000000000000
 11
438.7626896052786
 21
426.7288133107610
 31
0.0000000000000000
  0
LINE
  5
351
100
AcDbEntity
  8
MAIN0
  6
HIDDEN
 62
3
100
AcDbLine
 10
448.7626896052786
 20
416.7288133107610
 30
0.0000000000000000
 11
438.7626896052786
 21
416.7288133107610
 31
0.0000000000000000
  0
LINE
  5
352
100
AcDbEntity
  8
MAIN0
  6
CONTINUOUS
 62
3
100
AcDbLine
 10
448.7626896052786
 20
431.1288133107610
 30
0.0000000000000000
 11
448.1626896052786
 21
431.7288133107610
 31
0.0000000000000000
  0
LINE
  5
353
100
AcDbEntity
  8
MAIN0
  6
CONTINUOUS
 62
3
100
AcDbLine
 10
439.3626896052786
 20
431.7288133107611
 30
0.0000000000000000
 11
438.7626896052785
 21
431.1288133107611
 31
0.0000000000000000
  0
LINE
  5
354
100
AcDbEntity
  8
MAIN0
  6
CONTINUOUS
 62
3
100
AcDbLine
 10
438.7626896052786
 20
412.3288133107610
 30
0.0000000000000000
 11
439.3626896052786
 21
411.7288133107610
 31
0.0000000000000000
  0
LINE
  5
355
100
AcDbEntity
  8
MAIN0
  6
CONTINUOUS
 62
3
100
AcDbLine
 10
448.1626896052786
 20
411.7288133107612
 30
0.0000000000000000
 11
448.7626896052785
 21
412.3288133107611
 31
0.0000000000000000
  0
LINE
  5
356
100
AcDbEntity
  8
MAIN0
  6
CONTINUOUS
 62
3
100
AcDbLine
 10
572.7626896052786
 20
431.1288133107611
 30
0.0000000000000000
 11
572.7626896052786
 21
412.3288133107611
 31
0.0000000000000000
  0
LINE
  5
357
100
AcDbEntity
  8
MAIN0
  6
CONTINUOUS
 62
3
100
AcDbLine
 10
563.3626896052786
 20
431.7288133107610
 30
0.0000000000000000
 11
572.1626896052785
 21
431.7288133107610
 31
0.0000000000000000
  0
LINE
  5
358
100
AcDbEntity
  8
MAIN0
  6
CONTINUOUS
 62
3
100
AcDbLine
 10
562.7626896052786
 20
431.1288133107611
 30
0.0000000000000000
 11
562.7626896052786
 21
412.3288133107611
 31
0.0000000000000000
  0
LINE
  5
359
100
AcDbEntity
  8
MAIN0
  6
CONTINUOUS
 62
3
100
AcDbLine
 10
563.3626896052786
 20
411.7288133107610
 30
0.0000000000000000
 11
572.1626896052785
 21
411.7288133107610
 31
0.0000000000000000
  0
LINE
  5
35A
100
AcDbEntity
  8
MAIN0
  6
HIDDEN
 62
3
100
AcDbLine
 10
562.7626896052785
 20
426.7288133107610
 30
0.0000000000000000
 11
572.7626896052785
 21
426.7288133107610
 31
0.0000000000000000
  0
LINE
  5
35B
100
AcDbEntity
  8
MAIN0
  6
HIDDEN
 62
3
100
AcDbLine
 10
562.7626896052786
 20
416.7288133107610
 30
0.0000000000000000
 11
572.7626896052786
 21
416.7288133107610
 31
0.0000000000000000
  0
LINE
  5
35C
100
AcDbEntity
  8
MAIN0
  6
CONTINUOUS
 62
3
100
AcDbLine
 10
562.7626896052785
 20
431.1288133107610
 30
0.0000000000000000
 11
563.3626896052786
 21
431.7288133107610
 31
0.0000000000000000
  0
LINE
  5
35D
100
AcDbEntity
  8
MAIN0
  6
CONTINUOUS
 62
3
100
AcDbLine
 10
572.1626896052786
 20
431.7288133107612
 30
0.0000000000000000
 11
572.7626896052786
 21
431.1288133107612
 31
0.0000000000000000
  0
LINE
  5
35E
100
AcDbEntity
  8
MAIN0
  6
CONTINUOUS
 62
3
100
AcDbLine
 10
572.7626896052785
 20
412.3288133107610
 30
0.0000000000000000
 11
572.1626896052785
 21
411.7288133107610
 31
0.0000000000000000
  0
LINE
  5
35F
100
AcDbEntity
  8
MAIN0
  6
CONTINUOUS
 62
3
100
AcDbLine
 10
563.3626896052786
 20
411.7288133107612
 30
0.0000000000000000
 11
562.7626896052786
 21
412.3288133107612
 31
0.0000000000000000
  0
DIMENSION
  5
368
100
AcDbEntity
  8
MAIN0
  6
CONTINUOUS
 62
3
100
AcDbDimension
  2
*D26
 10
493.7626896053276
 20
444.2288133107610
 30
0.0000000000000000
 11
505.7626896052786
 21
444.7288133107610
 31
0.0000000000000000
 70
32
  1
\A1;\U+220524
  3
MAIN001
100
AcDbAlignedDimension
 13
517.7626896052296
 23
432.7288133107610
 33
0.0000000000000000
 14
493.7626896053276
 24
432.7288133107610
 34
0.0000000000000000
100
AcDbRotatedDimension
1001
ACAD
1000
DSTYLE
1002
{
1070
   173
1070
     1
1070
     6
1000
_OPEN
1070
     7
1000
_OPEN
1070
    41
1040
2.000000
1002
}
  0
DIMENSION
  5
371
100
AcDbEntity
  8
MAIN0
  6
CONTINUOUS
 62
3
100
AcDbDimension
  2
*D27
 10
548.2626896052786
 20
434.7288133107610
 30
0.0000000000000000
 11
547.7626896052786
 21
354.7288133107610
 31
0.0000000000000000
 70
32
  3
MAIN001
100
AcDbAlignedDimension
 13
509.9770489577964
 23
274.7288133107610
 33
0.0000000000000000
 14
515.7626896052285
 24
434.7288133107610
 34
0.0000000000000000
 50
90.00000000000000
100
AcDbRotatedDimension
1001
ACAD
1000
DSTYLE
1002
{
1070
   173
1070
     1
1070
     6
1000
_OPEN
1070
     7
1000
_OPEN
1070
    41
1040
2.000000
1002
}
  0
DIMENSION
  5
378
100
AcDbEntity
  8
MAIN0
  6
CONTINUOUS
 62
3
100
AcDbDimension
  2
*D28
 10
495.7626896052786
 20
379.2288133107610
 30
0.0000000000000000
 11
505.7626896052786
 21
379.7288133107610
 31
0.0000000000000000
 70
32
  1
\A1;\U+220520
  3
MAIN001
100
AcDbAlignedDimension
 13
515.7626896052786
 23
408.7288133107610
 33
0.0000000000000000
 14
495.7626896052786
 24
408.7288133107610
 34
0.0000000000000000
100
AcDbRotatedDimension
1001
ACAD
1000
DSTYLE
1002
{
1070
   173
1070
     1
1070
     6
1000
_OPEN
1070
     7
1000
_OPEN
1070
    41
1040
2.000000
1002
}
  0
DIMENSION
  5
381
100
AcDbEntity
  8
MAIN0
  6
CONTINUOUS
 62
3
100
AcDbDimension
  2
*D29
 10
525.7626896052786
 20
289.7288133107610
 30
0.0000000000000000
 11
525.2626896052786
 21
282.2288133107610
 31
0.0000000000000000
 70
32
  3
MAIN001
100
AcDbAlignedDimension
 13
509.9770489577964
 23
274.7288133107610
 33
0.0000000000000000
 14
513.1926896052786
 24
289.7288133107610
 34
0.0000000000000000
 50
90.00000000000000
100
AcDbRotatedDimension
1001
ACAD
1000
DSTYLE
1002
{
1070
   173
1070
     1
1070
     6
1000
_OPEN
1070
     7
1000
_OPEN
1070
    41
1040
2.000000
1002
}
  0
DIMENSION
  5
38A
100
AcDbEntity
  8
MAIN0
  6
CONTINUOUS
 62
3
100
AcDbDimension
  2
*D30
 10
468.2626896052786
 20
427.7288133107610
 30
0.0000000000000000
 11
467.7626896052786
 21
409.2288133107610
 31
0.0000000000000000
 70
160
  1
\A1;\U+220512
  3
MAIN001
100
AcDbAlignedDimension
 13
475.3221790487598
 23
415.7288133107610
 33
0.0000000000000000
 14
475.3221790487598
 24
427.7288133107610
 34
0.0000000000000000
 50
90.00000000000000
100
AcDbRotatedDimension
1001
ACAD
1000
DSTYLE
1002
{
1070
   173
1070
     1
1070
     6
1000
_OPEN
1070
     7
1000
_OPEN
1070
    41
1040
2.000000
1070
   287
1070
     0
1002
}
  0
DIMENSION
  5
395
100
AcDbEntity
  8
MAIN0
  6
CONTINUOUS
 62
3
100
AcDbDimension
  2
*D31
 10
510.6236023087530
 20
244.0897260142361
 30
0.0000000000000000
 11
521.3004402270807
 21
255.4736707137490
 31
0.0000000000000000
 70
161
  1
\A1;□11\H0.903226x;\S　0^ －0.15;
  3
MAIN001
100
AcDbAlignedDimension
 13
512.9626896052785
 23
257.3069879038155
 33
0.0000000000000000
 14
505.1845150122291
 24
249.5288133107609
 34
0.0000000000000000
 50
44.99999999999633
1001
ACAD
1000
DSTYLE
1002
{
1070
   173
1070
     1
1070
     6
1000
_OPEN
1070
     7
1000
_OPEN
1070
    41
1040
2.000000
1070
   287
1070
     0
1070
   272
1070
     2
1070
    47
1040
0.000000
1070
    48
1040
0.150000
1070
    71
1070
     1
1070
   340
1005
1B1
1002
}
  0
LINE
  5
396
100
AcDbEntity
  8
MAIN0
  6
CENTER
 62
3
100
AcDbLine
 10
388.2626896052786
 20
421.7288133107610
 30
0.0000000000000000
 11
425.6626897006460
 21
421.7288133107610
 31
0.0000000000000000
  0
LINE
  5
397
100
AcDbEntity
  8
MAIN0
  6
CENTER
 62
3
100
AcDbLine
 10
431.7626896052786
 20
421.7288133107610
 30
0.0000000000000000
 11
578.2626896052786
 21
421.7288133107610
 31
0.0000000000000000
  0
INSERT
  5
3A4
100
AcDbEntity
  8
MAIN0
  6
CONTINUOUS
 62
3
100
AcDbBlockReference
  2
*X4
 10
0.0000000000000000
 20
0.0000000000000000
 30
0.0000000000000000
 50
0.0000000000000000
  0
INSERT
  5
3B1
100
AcDbEntity
  8
MAIN0
  6
CONTINUOUS
 62
3
100
AcDbBlockReference
  2
*X5
 10
0.0000000000000000
 20
0.0000000000000000
 30
0.0000000000000000
 50
0.0000000000000000
  0
INSERT
  5
3BE
100
AcDbEntity
  8
MAIN0
  6
CONTINUOUS
 62
3
100
AcDbBlockReference
  2
*X6
 10
0.0000000000000000
 20
0.0000000000000000
 30
0.0000000000000000
 50
0.0000000000000000
  0
INSERT
  5
3CB
100
AcDbEntity
  8
MAIN0
  6
CONTINUOUS
 62
3
100
AcDbBlockReference
  2
*X7
 10
0.0000000000000000
 20
0.0000000000000000
 30
0.0000000000000000
 50
0.0000000000000000
  0
LINE
  5
3CC
100
AcDbEntity
  8
MAIN0
  6
CONTINUOUS
 62
3
100
AcDbLine
 10
276.2425481787361
 20
334.3607149868065
 30
0.0000000000000000
 11
332.5566665033351
 21
301.8477436129228
 31
0.0000000000000000
  0
LINE
  5
3CD
100
AcDbEntity
  8
MAIN0
  6
CONTINUOUS
 62
3
100
AcDbLine
 10
290.2425481787361
 20
358.6094262927708
 30
0.0000000000000000
 11
346.5566665033351
 21
326.0964549188871
 31
0.0000000000000000
  0
ARC
  5
3CE
100
AcDbEntity
  8
MAIN0
  6
CONTINUOUS
 62
3
100
AcDbCircle
 10
369.4233093945931
 20
296.7285849528468
 30
0.0000000000000000
 40
27.00000000000000
100
AcDbArc
 50
147.8774486378567
 51
152.1225513621434
  0
LINE
  5
3CF
100
AcDbEntity
  8
MAIN0
  6
CONTINUOUS
 62
3
100
AcDbLine
 10
332.5566665033351
 20
301.8477436129228
 30
0.0000000000000000
 11
345.5566665036499
 21
309.3532971125831
 31
0.0000000000000000
  0
LINE
  5
3D0
100
AcDbEntity
  8
MAIN0
  6
CONTINUOUS
 62
3
100
AcDbLine
 10
346.5566665033351
 20
326.0964549188871
 30
0.0000000000000000
 11
346.5566665033234
 21
311.0853479195866
 31
0.0000000000000000
  0
LINE
  5
3D1
100
AcDbEntity
  8
MAIN0
  6
CONTINUOUS
 62
3
100
AcDbLine
 10
276.2425481787361
 20
334.3607149868065
 30
0.0000000000000000
 11
276.2425481787477
 21
349.3347722390595
 31
0.0000000000000000
  0
LINE
  5
3D2
100
AcDbEntity
  8
MAIN0
  6
CONTINUOUS
 62
3
100
AcDbLine
 10
290.2425481787361
 20
358.6094262927708
 30
0.0000000000000000
 11
277.2746342005684
 21
351.1223976666343
 31
0.0000000000000000
  0
ARC
  5
3D3
100
AcDbEntity
  8
MAIN0
  6
CONTINUOUS
 62
3
100
AcDbCircle
 10
369.4233093945931
 20
296.7285849528468
 30
0.0000000000000000
 40
53.10000000000000
100
AcDbArc
 50
134.7130420561361
 51
135.8287389113720
  0
ARC
  5
3D4
100
AcDbEntity
  8
MAIN0
  6
CONTINUOUS
 62
3
100
AcDbCircle
 10
369.4233093945931
 20
296.7285849528468
 30
0.0000000000000000
 40
53.10000000000000
100
AcDbArc
 50
164.1712610886280
 51
165.2869579438639
  0
ARC
  5
3D5
100
AcDbEntity
  8
MAIN0
  6
CONTINUOUS
 62
3
100
AcDbCircle
 10
253.3759052874782
 20
363.7285849528468
 30
0.0000000000000000
 40
57.50000000000000
100
AcDbArc
 50
315.9080785005820
 51
344.0919214994181
  0
ARC
  5
3D6
100
AcDbEntity
  8
MAIN0
  6
CONTINUOUS
 62
3
100
AcDbCircle
 10
253.3759052874782
 20
363.7285849528468
 30
0.0000000000000000
 40
63.50000000000000
100
AcDbArc
 50
318.1866460118925
 51
341.8133667197603
  0
ARC
  5
3D7
100
AcDbEntity
  8
MAIN0
  6
CONTINUOUS
 62
3
100
AcDbCircle
 10
253.3759052874782
 20
363.7285849528468
 30
0.0000000000000000
 40
80.00000000000000
100
AcDbArc
 50
319.9213418922123
 51
340.0786581077877
  0
ARC
  5
3D8
100
AcDbEntity
  8
MAIN0
  6
CONTINUOUS
 62
3
100
AcDbCircle
 10
253.3759052874782
 20
363.7285849528468
 30
0.0000000000000000
 40
83.50000000000000
100
AcDbArc
 50
321.0432637120894
 51
325.8285247479337
  0
ARC
  5
3D9
100
AcDbEntity
  8
MAIN0
  6
CONTINUOUS
 62
3
100
AcDbCircle
 10
253.3759052874782
 20
363.7285849528468
 30
0.0000000000000000
 40
83.50000000000000
100
AcDbArc
 50
334.1714752520663
 51
338.9567362879107
  0
ARC
  5
3DA
100
AcDbEntity
  8
MAIN0
  6
CONTINUOUS
 62
3
100
AcDbCircle
 10
253.3759052874782
 20
363.7285849528468
 30
0.0000000000000000
 40
35.00000000000000
100
AcDbArc
 50
310.7933435383790
 51
349.2066564616211
  0
LINE
  5
3DB
100
AcDbEntity
  8
MAIN0
  6
CENTER
 62
3
100
AcDbLine
 10
336.6428943255451
 20
329.5012405600593
 30
0.0000000000000000
 11
324.9041467597357
 21
309.1691333588520
 31
0.0000000000000000
  0
LINE
  5
3DC
100
AcDbEntity
  8
MAIN0
  6
CENTER
 62
3
100
AcDbLine
 10
298.4695766961102
 20
352.2831149324136
 30
0.0000000000000000
 11
286.2721097868395
 21
331.1564825219164
 31
0.0000000000000000
  0
LINE
  5
3DD
100
AcDbEntity
  8
MAIN0
  6
CONTINUOUS
 62
3
100
AcDbLine
 10
276.2425481787477
 20
349.3347722390595
 30
0.0000000000000000
 11
277.2746342005682
 21
351.1223976666343
 31
0.0000000000000000
  0
LINE
  5
3DE
100
AcDbEntity
  8
MAIN0
  6
CONTINUOUS
 62
3
100
AcDbLine
 10
184.1298913757420
 20
204.7283015195765
 30
0.0000000000000000
 11
197.5328843340942
 21
204.7283015195616
 31
0.0000000000000000
  0
LINE
  5
3DF
100
AcDbEntity
  8
MAIN0
  6
CONTINUOUS
 62
3
100
AcDbLine
 10
198.6328843341031
 20
212.7283015195604
 30
0.0000000000000000
 11
198.6328843341241
 21
231.7283015195607
 31
0.0000000000000000
  0
LINE
  5
3E0
100
AcDbEntity
  8
MAIN0
  6
CONTINUOUS
 62
3
100
AcDbLine
 10
198.1328843340949
 20
205.3283015195610
 30
0.0000000000000000
 11
198.1328843341031
 21
212.7283015195609
 31
0.0000000000000000
  0
LINE
  5
3E1
100
AcDbEntity
  8
MAIN0
  6
CONTINUOUS
 62
3
100
AcDbLine
 10
208.1328843341347
 20
241.2283015195499
 30
0.0000000000000000
 11
208.1328843341530
 21
257.7283015195499
 31
0.0000000000000000
  0
LINE
  5
3E2
100
AcDbEntity
  8
MAIN0
  6
CONTINUOUS
 62
3
100
AcDbLine
 10
207.6328843341287
 20
235.8283015195504
 30
0.0000000000000000
 11
207.6328843341347
 21
241.2283015195505
 31
0.0000000000000000
  0
LINE
  5
3E3
100
AcDbEntity
  8
MAIN0
  6
CONTINUOUS
 62
3
100
AcDbLine
 10
217.6328843341576
 20
261.8283015195393
 30
0.0000000000000000
 11
217.6328843341823
 21
284.1283015195393
 31
0.0000000000000000
  0
LINE
  5
3E4
100
AcDbEntity
  8
MAIN0
  6
CONTINUOUS
 62
3
100
AcDbLine
 10
198.1328843341031
 20
212.7283015195609
 30
0.0000000000000000
 11
198.6328843341031
 21
212.7283015195604
 31
0.0000000000000000
  0
LINE
  5
3E5
100
AcDbEntity
  8
MAIN0
  6
CONTINUOUS
 62
3
100
AcDbLine
 10
207.6328843341347
 20
241.2283015195504
 30
0.0000000000000000
 11
208.1328843341347
 21
241.2283015195499
 31
0.0000000000000000
  0
LINE
  5
3E6
100
AcDbEntity
  8
MAIN0
  6
CONTINUOUS
 62
3
100
AcDbLine
 10
217.6328843341823
 20
284.1283015195393
 30
0.0000000000000000
 11
217.0328843341830
 21
284.7283015195400
 31
0.0000000000000000
  0
LINE
  5
3E7
100
AcDbEntity
  8
MAIN0
  6
CONTINUOUS
 62
3
100
AcDbLine
 10
217.0328843341569
 20
261.2283015195399
 30
0.0000000000000000
 11
217.6328843341576
 21
261.8283015195393
 31
0.0000000000000000
  0
LINE
  5
3E8
100
AcDbEntity
  8
MAIN0
  6
CONTINUOUS
 62
3
100
AcDbLine
 10
207.0328843341281
 20
235.2283015195510
 30
0.0000000000000000
 11
207.6328843341287
 21
235.8283015195503
 31
0.0000000000000000
  0
LINE
  5
3E9
100
AcDbEntity
  8
MAIN0
  6
CONTINUOUS
 62
3
100
AcDbLine
 10
197.5328843340942
 20
204.7283015195616
 30
0.0000000000000000
 11
198.1328843340949
 21
205.3283015195609
 31
0.0000000000000000
  0
LINE
  5
3EA
100
AcDbEntity
  8
MAIN0
  6
CONTINUOUS
 62
3
100
AcDbLine
 10
177.6328843341315
 20
238.3883015195836
 30
0.0000000000000000
 11
177.6328843341456
 21
251.0688219691419
 31
0.0000000000000000
  0
LINE
  5
3EB
100
AcDbEntity
  8
MAIN0
  6
CONTINUOUS
 62
3
100
AcDbLine
 10
184.1328843341456
 20
251.0683015195764
 30
0.0000000000000000
 11
177.6328843341456
 21
251.0683015195837
 31
0.0000000000000000
  0
LINE
  5
3EC
100
AcDbEntity
  8
MAIN0
  6
CONTINUOUS
 62
3
100
AcDbLine
 10
184.1328843341316
 20
238.3883015195765
 30
0.0000000000000000
 11
177.6328843341315
 21
238.3883015195837
 31
0.0000000000000000
  0
LINE
  5
3ED
100
AcDbEntity
  8
MAIN0
  6
CENTER
 62
3
100
AcDbLine
 10
190.6328843341804
 20
282.4502195778215
 30
0.0000000000000000
 11
190.6328843341833
 21
285.0345130468119
 31
0.0000000000000000
  0
LINE
  5
3EE
100
AcDbEntity
  8
MAIN0
  6
CONTINUOUS
 62
3
100
AcDbLine
 10
191.1524995764524
 20
283.8962507118860
 30
0.0000000000000000
 11
191.6328843342495
 21
284.7283015195681
 31
0.0000000000000000
  0
LINE
  5
3EF
100
AcDbEntity
  8
MAIN0
  6
CONTINUOUS
 62
3
100
AcDbLine
 10
190.1132690919116
 20
283.8962507118872
 30
0.0000000000000000
 11
189.6328843341164
 21
284.7283015195703
 31
0.0000000000000000
  0
ARC
  5
3F0
100
AcDbEntity
  8
MAIN0
  6
CONTINUOUS
 62
3
100
AcDbCircle
 10
190.6328843341823
 20
284.1962507118871
 30
0.0000000000000000
 40
0.6000000000000000
100
AcDbArc
 50
209.9999999999878
 51
329.9999999998732
  0
LINE
  5
3F1
100
AcDbEntity
  8
MAIN0
  6
CENTER
 62
3
100
AcDbLine
 10
197.1328843341804
 20
282.4502195778143
 30
0.0000000000000000
 11
197.1328843341833
 21
285.0345130468047
 31
0.0000000000000000
  0
LINE
  5
3F2
100
AcDbEntity
  8
MAIN0
  6
CONTINUOUS
 62
3
100
AcDbLine
 10
197.6524995764524
 20
283.8962507118787
 30
0.0000000000000000
 11
198.1328843342495
 21
284.7283015195608
 31
0.0000000000000000
  0
LINE
  5
3F3
100
AcDbEntity
  8
MAIN0
  6
CONTINUOUS
 62
3
100
AcDbLine
 10
196.6132690919117
 20
283.8962507118800
 30
0.0000000000000000
 11
196.1328843341165
 21
284.7283015195631
 31
0.0000000000000000
  0
ARC
  5
3F4
100
AcDbEntity
  8
MAIN0
  6
CONTINUOUS
 62
3
100
AcDbCircle
 10
197.1328843341823
 20
284.1962507118798
 30
0.0000000000000000
 40
0.6000000000000000
100
AcDbArc
 50
209.9999999999878
 51
329.9999999998732
  0
LINE
  5
3F5
100
AcDbEntity
  8
MAIN0
  6
CENTER
 62
3
100
AcDbLine
 10
203.6328843341804
 20
282.4502195778071
 30
0.0000000000000000
 11
203.6328843341833
 21
285.0345130467975
 31
0.0000000000000000
  0
LINE
  5
3F6
100
AcDbEntity
  8
MAIN0
  6
CONTINUOUS
 62
3
100
AcDbLine
 10
204.1524995764524
 20
283.8962507118715
 30
0.0000000000000000
 11
204.6328843342495
 21
284.7283015195537
 31
0.0000000000000000
  0
LINE
  5
3F7
100
AcDbEntity
  8
MAIN0
  6
CONTINUOUS
 62
3
100
AcDbLine
 10
203.1132690919117
 20
283.8962507118728
 30
0.0000000000000000
 11
202.6328843341165
 21
284.7283015195559
 31
0.0000000000000000
  0
ARC
  5
3F8
100
AcDbEntity
  8
MAIN0
  6
CONTINUOUS
 62
3
100
AcDbCircle
 10
203.6328843341823
 20
284.1962507118727
 30
0.0000000000000000
 40
0.6000000000000000
100
AcDbArc
 50
209.9999999999878
 51
329.9999999998732
  0
LINE
  5
3F9
100
AcDbEntity
  8
MAIN0
  6
CENTER
 62
3
100
AcDbLine
 10
210.1328843341804
 20
282.4502195777999
 30
0.0000000000000000
 11
210.1328843341833
 21
285.0345130467903
 31
0.0000000000000000
  0
LINE
  5
3FA
100
AcDbEntity
  8
MAIN0
  6
CONTINUOUS
 62
3
100
AcDbLine
 10
210.6524995764524
 20
283.8962507118644
 30
0.0000000000000000
 11
211.1328843342495
 21
284.7283015195465
 31
0.0000000000000000
  0
LINE
  5
3FB
100
AcDbEntity
  8
MAIN0
  6
CONTINUOUS
 62
3
100
AcDbLine
 10
209.6132690919117
 20
283.8962507118656
 30
0.0000000000000000
 11
209.1328843341165
 21
284.7283015195487
 31
0.0000000000000000
  0
ARC
  5
3FC
100
AcDbEntity
  8
MAIN0
  6
CONTINUOUS
 62
3
100
AcDbCircle
 10
210.1328843341823
 20
284.1962507118655
 30
0.0000000000000000
 40
0.6000000000000000
100
AcDbArc
 50
209.9999999999878
 51
329.9999999998732
  0
LINE
  5
3FD
100
AcDbEntity
  8
MAIN0
  6
CENTER
 62
3
100
AcDbLine
 10
213.8328843341607
 20
264.6895334203356
 30
0.0000000000000000
 11
213.8328843341543
 21
258.8936476365423
 31
0.0000000000000000
  0
LINE
  5
3FE
100
AcDbEntity
  8
MAIN0
  6
CONTINUOUS
 62
3
100
AcDbLine
 10
213.3132690918875
 20
262.0603523272268
 30
0.0000000000000000
 11
212.8328843340904
 21
261.2283015195447
 31
0.0000000000000000
  0
LINE
  5
3FF
100
AcDbEntity
  8
MAIN0
  6
CONTINUOUS
 62
3
100
AcDbLine
 10
214.3524995764282
 20
262.0603523272256
 30
0.0000000000000000
 11
214.8328843342233
 21
261.2283015195426
 31
0.0000000000000000
  0
ARC
  5
400
100
AcDbEntity
  8
MAIN0
  6
CONTINUOUS
 62
3
100
AcDbCircle
 10
213.8328843341575
 20
261.7603523272256
 30
0.0000000000000000
 40
0.6000000000000000
100
AcDbArc
 50
29.99999999998775
 51
149.9999999998732
  0
LINE
  5
401
100
AcDbEntity
  8
MAIN0
  6
CONTINUOUS
 62
3
100
AcDbLine
 10
203.6132690918587
 20
236.0603523272376
 30
0.0000000000000000
 11
203.1328843340616
 21
235.2283015195555
 31
0.0000000000000000
  0
LINE
  5
402
100
AcDbEntity
  8
MAIN0
  6
CONTINUOUS
 62
3
100
AcDbLine
 10
204.6524995763994
 20
236.0603523272363
 30
0.0000000000000000
 11
205.1328843341946
 21
235.2283015195533
 31
0.0000000000000000
  0
ARC
  5
403
100
AcDbEntity
  8
MAIN0
  6
CONTINUOUS
 62
3
100
AcDbCircle
 10
204.1328843341287
 20
235.7603523272364
 30
0.0000000000000000
 40
0.6000000000000000
100
AcDbArc
 50
29.99999999998775
 51
149.9999999998732
  0
LINE
  5
404
100
AcDbEntity
  8
MAIN0
  6
CONTINUOUS
 62
3
100
AcDbLine
 10
184.7328843341829
 20
284.7283015195758
 30
0.0000000000000000
 11
189.6328843341164
 21
284.7283015195703
 31
0.0000000000000000
  0
LINE
  5
405
100
AcDbEntity
  8
MAIN0
  6
CONTINUOUS
 62
3
100
AcDbLine
 10
191.6328843342494
 20
284.7283015195681
 30
0.0000000000000000
 11
196.1328843341164
 21
284.7283015195631
 31
0.0000000000000000
  0
LINE
  5
406
100
AcDbEntity
  8
MAIN0
  6
CONTINUOUS
 62
3
100
AcDbLine
 10
198.1328843342494
 20
284.7283015195609
 30
0.0000000000000000
 11
202.6328843341164
 21
284.7283015195559
 31
0.0000000000000000
  0
LINE
  5
407
100
AcDbEntity
  8
MAIN0
  6
CONTINUOUS
 62
3
100
AcDbLine
 10
204.6328843342494
 20
284.7283015195537
 30
0.0000000000000000
 11
209.1328843341164
 21
284.7283015195487
 31
0.0000000000000000
  0
LINE
  5
408
100
AcDbEntity
  8
MAIN0
  6
CONTINUOUS
 62
3
100
AcDbLine
 10
211.1328843342494
 20
284.7283015195465
 30
0.0000000000000000
 11
217.0328843341829
 21
284.7283015195400
 31
0.0000000000000000
  0
LINE
  5
409
100
AcDbEntity
  8
MAIN0
  6
CONTINUOUS
 62
3
100
AcDbLine
 10
210.7328843341568
 20
261.2283015195470
 30
0.0000000000000000
 11
212.8328843340904
 21
261.2283015195446
 31
0.0000000000000000
  0
LINE
  5
40A
100
AcDbEntity
  8
MAIN0
  6
CONTINUOUS
 62
3
100
AcDbLine
 10
214.8328843342234
 20
261.2283015195424
 30
0.0000000000000000
 11
217.0328843341569
 21
261.2283015195400
 31
0.0000000000000000
  0
LINE
  5
40B
100
AcDbEntity
  8
MAIN0
  6
CONTINUOUS
 62
3
100
AcDbLine
 10
201.2328843341281
 20
235.2283015195575
 30
0.0000000000000000
 11
203.1328843340615
 21
235.2283015195554
 31
0.0000000000000000
  0
LINE
  5
40C
100
AcDbEntity
  8
MAIN0
  6
CONTINUOUS
 62
3
100
AcDbLine
 10
205.1328843341946
 20
235.2283015195532
 30
0.0000000000000000
 11
207.0328843341280
 21
235.2283015195511
 31
0.0000000000000000
  0
LINE
  5
40D
100
AcDbEntity
  8
MAIN0
  6
CONTINUOUS
 62
3
100
AcDbLine
 10
198.6328843341242
 20
231.7283015195604
 30
0.0000000000000000
 11
197.8328843341259
 21
233.2650872211382
 31
0.0000000000000000
  0
LINE
  5
40E
100
AcDbEntity
  8
MAIN0
  6
CONTINUOUS
 62
3
100
AcDbLine
 10
197.8328843341258
 20
233.2650872211382
 30
0.0000000000000000
 11
197.8328843341276
 21
234.8283015195613
 31
0.0000000000000000
  0
LINE
  5
40F
100
AcDbEntity
  8
MAIN0
  6
CONTINUOUS
 62
3
100
AcDbLine
 10
199.0328843341289
 20
236.0283015195599
 30
0.0000000000000000
 11
199.6960986325520
 21
236.0283015195592
 31
0.0000000000000000
  0
LINE
  5
410
100
AcDbEntity
  8
MAIN0
  6
CONTINUOUS
 62
3
100
AcDbLine
 10
199.6960986325520
 20
236.0283015195592
 30
0.0000000000000000
 11
201.2328843341281
 21
235.2283015195575
 31
0.0000000000000000
  0
ARC
  5
411
100
AcDbEntity
  8
MAIN0
  6
CONTINUOUS
 62
3
100
AcDbCircle
 10
199.0328843341276
 20
234.8283015195599
 30
0.0000000000000000
 40
1.200000000000000
100
AcDbArc
 50
89.99999999993646
 51
179.9999999999365
  0
LINE
  5
412
100
AcDbEntity
  8
MAIN0
  6
CONTINUOUS
 62
3
100
AcDbLine
 10
208.1328843341530
 20
257.7283015195498
 30
0.0000000000000000
 11
207.3328843341547
 21
259.2650872211276
 31
0.0000000000000000
  0
LINE
  5
413
100
AcDbEntity
  8
MAIN0
  6
CONTINUOUS
 62
3
100
AcDbLine
 10
207.3328843341547
 20
259.2650872211276
 30
0.0000000000000000
 11
207.3328843341564
 21
260.8283015195507
 31
0.0000000000000000
  0
LINE
  5
414
100
AcDbEntity
  8
MAIN0
  6
CONTINUOUS
 62
3
100
AcDbLine
 10
208.5328843341577
 20
262.0283015195494
 30
0.0000000000000000
 11
209.1960986325808
 21
262.0283015195486
 31
0.0000000000000000
  0
LINE
  5
415
100
AcDbEntity
  8
MAIN0
  6
CONTINUOUS
 62
3
100
AcDbLine
 10
209.1960986325809
 20
262.0283015195486
 30
0.0000000000000000
 11
210.7328843341569
 21
261.2283015195469
 31
0.0000000000000000
  0
ARC
  5
416
100
AcDbEntity
  8
MAIN0
  6
CONTINUOUS
 62
3
100
AcDbCircle
 10
208.5328843341565
 20
260.8283015195493
 30
0.0000000000000000
 40
1.200000000000000
100
AcDbArc
 50
89.99999999993646
 51
179.9999999999365
  0
LINE
  5
417
100
AcDbEntity
  8
MAIN0
  6
CONTINUOUS
 62
3
100
AcDbLine
 10
217.6328843341734
 20
276.0533015195393
 30
0.0000000000000000
 11
217.0328843341727
 21
275.4533015195399
 31
0.0000000000000000
  0
LINE
  5
418
100
AcDbEntity
  8
MAIN0
  6
CONTINUOUS
 62
3
100
AcDbLine
 10
217.0328843341726
 20
275.4533015195399
 30
0.0000000000000000
 11
188.1328843341726
 21
275.4533015195720
 31
0.0000000000000000
  0
LINE
  5
419
100
AcDbEntity
  8
MAIN0
  6
CONTINUOUS
 62
3
100
AcDbLine
 10
188.1328843341726
 20
275.4533015195720
 30
0.0000000000000000
 11
188.1328843341538
 21
258.4533015195720
 31
0.0000000000000000
  0
LINE
  5
41A
100
AcDbEntity
  8
MAIN0
  6
CONTINUOUS
 62
3
100
AcDbLine
 10
188.1328843341538
 20
258.4533015195720
 30
0.0000000000000000
 11
207.7554732225037
 21
258.4533015195502
 31
0.0000000000000000
  0
LINE
  5
41B
100
AcDbEntity
  8
MAIN0
  6
CONTINUOUS
 62
3
100
AcDbLine
 10
188.1328843341693
 20
272.4533015195720
 30
0.0000000000000000
 11
184.1328843341693
 21
272.4533015195764
 31
0.0000000000000000
  0
LINE
  5
41C
100
AcDbEntity
  8
MAIN0
  6
CONTINUOUS
 62
3
100
AcDbLine
 10
188.1328843341571
 20
261.4533015195720
 30
0.0000000000000000
 11
184.1328843341571
 21
261.4533015195764
 31
0.0000000000000000
  0
LINE
  5
41D
100
AcDbEntity
  8
MAIN0
  6
CONTINUOUS
 62
3
100
AcDbLine
 10
198.6328843341240
 20
231.6033015195603
 30
0.0000000000000000
 11
198.0328843341233
 21
231.0033015195610
 31
0.0000000000000000
  0
LINE
  5
41E
100
AcDbEntity
  8
MAIN0
  6
CONTINUOUS
 62
3
100
AcDbLine
 10
198.0328843341233
 20
231.0033015195610
 30
0.0000000000000000
 11
188.1328843341233
 21
231.0033015195720
 31
0.0000000000000000
  0
LINE
  5
41F
100
AcDbEntity
  8
MAIN0
  6
CONTINUOUS
 62
3
100
AcDbLine
 10
188.1328843341233
 20
231.0033015195720
 30
0.0000000000000000
 11
188.1328843341045
 21
214.0033015195720
 31
0.0000000000000000
  0
LINE
  5
420
100
AcDbEntity
  8
MAIN0
  6
CONTINUOUS
 62
3
100
AcDbLine
 10
188.1328843341045
 20
214.0033015195720
 30
0.0000000000000000
 11
198.0328843341045
 21
214.0033015195610
 31
0.0000000000000000
  0
LINE
  5
421
100
AcDbEntity
  8
MAIN0
  6
CONTINUOUS
 62
3
100
AcDbLine
 10
198.0328843341046
 20
214.0033015195610
 30
0.0000000000000000
 11
198.6328843341039
 21
213.4033015195604
 31
0.0000000000000000
  0
LINE
  5
422
100
AcDbEntity
  8
MAIN0
  6
CONTINUOUS
 62
3
100
AcDbLine
 10
188.1328843341200
 20
228.0033015195720
 30
0.0000000000000000
 11
184.1328843341200
 21
228.0033015195764
 31
0.0000000000000000
  0
LINE
  5
423
100
AcDbEntity
  8
MAIN0
  6
CONTINUOUS
 62
3
100
AcDbLine
 10
188.1328843341078
 20
217.0033015195720
 30
0.0000000000000000
 11
184.1328843341078
 21
217.0033015195764
 31
0.0000000000000000
  0
ARC
  5
424
100
AcDbEntity
  8
MAIN0
  6
CONTINUOUS
 62
3
100
AcDbCircle
 10
330.6470219401448
 20
319.1160849528468
 30
0.0000000000000000
 40
8.500000000000000
100
AcDbArc
 50
90.38994244932738
 51
209.6100575506724
  0
ARC
  5
425
100
AcDbEntity
  8
MAIN0
  6
CONTINUOUS
 62
3
100
AcDbCircle
 10
330.6470219401448
 20
319.1160849528468
 30
0.0000000000000000
 40
8.500000000000000
100
AcDbArc
 50
209.6100575506724
 51
450.3899424493274
  0
ARC
  5
426
100
AcDbEntity
  8
MAIN0
  6
CONTINUOUS
 62
3
100
AcDbCircle
 10
330.6470219401448
 20
319.1160849528468
 30
0.0000000000000000
 40
5.500000000000000
100
AcDbArc
 50
75.82662013187196
 51
224.1733798681279
  0
ARC
  5
427
100
AcDbEntity
  8
MAIN0
  6
CONTINUOUS
 62
3
100
AcDbCircle
 10
330.6470219401448
 20
319.1160849528468
 30
0.0000000000000000
 40
5.500000000000000
100
AcDbArc
 50
224.1733798681279
 51
435.8266201318720
  0
CIRCLE
  5
428
100
AcDbEntity
  8
MAIN0
  6
CONTINUOUS
 62
3
100
AcDbCircle
 10
292.1521927419265
 20
341.3410849528468
 30
0.0000000000000000
 40
8.500000000000000
  0
CIRCLE
  5
429
100
AcDbEntity
  8
MAIN0
  6
CONTINUOUS
 62
3
100
AcDbCircle
 10
292.1521927419265
 20
341.3410849528468
 30
0.0000000000000000
 40
5.500000000000000
  0
LINE
  5
42A
100
AcDbEntity
  8
MAIN0
  6
CONTINUOUS
 62
3
100
AcDbLine
 10
155.1298913757421
 20
206.7288219691419
 30
0.0000000000000000
 11
184.1298913757420
 21
206.7288219691419
 31
0.0000000000000000
  0
LINE
  5
42B
100
AcDbEntity
  8
MAIN0
  6
CENTER
 62
3
100
AcDbLine
 10
165.7626896052786
 20
244.7288219691419
 30
0.0000000000000000
 11
185.7626896052786
 21
244.7288219691419
 31
0.0000000000000000
  0
LINE
  5
42C
100
AcDbEntity
  8
MAIN0
  6
CENTER
 62
3
100
AcDbLine
 10
165.7626896052786
 20
266.9538219691419
 30
0.0000000000000000
 11
220.7626896052786
 21
266.9538219691419
 31
0.0000000000000000
  0
LINE
  5
42D
100
AcDbEntity
  8
MAIN0
  6
CENTER
 62
3
100
AcDbLine
 10
165.7626896052786
 20
222.5038219691419
 30
0.0000000000000000
 11
203.2626896052786
 21
222.5038219691419
 31
0.0000000000000000
  0
LINE
  5
42E
100
AcDbEntity
  8
MAIN0
  6
CONTINUOUS
 62
3
100
AcDbLine
 10
180.6298913757421
 20
206.7288219691419
 30
0.0000000000000000
 11
180.6298913757421
 21
238.3883015195798
 31
0.0000000000000000
  0
LINE
  5
42F
100
AcDbEntity
  8
MAIN0
  6
CONTINUOUS
 62
3
100
AcDbLine
 10
180.6298913757421
 20
251.0683015195798
 30
0.0000000000000000
 11
180.6298913757421
 21
284.7288219691419
 31
0.0000000000000000
  0
LINE
  5
430
100
AcDbEntity
  8
MAIN0
  6
CONTINUOUS
 62
3
100
AcDbLine
 10
175.6301239760167
 20
278.6851219691419
 30
0.0000000000000000
 11
180.6298913757421
 21
278.6851219691419
 31
0.0000000000000000
  0
LINE
  5
431
100
AcDbEntity
  8
MAIN0
  6
CENTER
 62
3
100
AcDbLine
 10
177.1298913757421
 20
282.4502195778365
 30
0.0000000000000000
 11
177.1298913757421
 21
285.0345130468269
 31
0.0000000000000000
  0
LINE
  5
432
100
AcDbEntity
  8
MAIN0
  6
CONTINUOUS
 62
3
100
AcDbLine
 10
177.6495066180174
 20
283.8967711616637
 30
0.0000000000000000
 11
178.1298913756945
 21
284.7288219691419
 31
0.0000000000000000
  0
LINE
  5
433
100
AcDbEntity
  8
MAIN0
  6
CONTINUOUS
 62
3
100
AcDbLine
 10
176.6102761334760
 20
283.8967711616641
 30
0.0000000000000000
 11
176.1298913757998
 21
284.7288219691420
 31
0.0000000000000000
  0
ARC
  5
434
100
AcDbEntity
  8
MAIN0
  6
CONTINUOUS
 62
3
100
AcDbCircle
 10
177.1298913757468
 20
284.1967711616637
 30
0.0000000000000000
 40
0.6000000000000000
100
AcDbArc
 50
209.9999999999597
 51
329.9999999999945
  0
LINE
  5
435
100
AcDbEntity
  8
MAIN0
  6
CONTINUOUS
 62
3
100
AcDbLine
 10
178.1298913756946
 20
284.7288219691419
 30
0.0000000000000000
 11
184.7328843341829
 21
284.7288219691419
 31
0.0000000000000000
  0
LINE
  5
436
100
AcDbEntity
  8
MAIN0
  6
CONTINUOUS
 62
3
100
AcDbLine
 10
175.6301239760142
 20
284.7288219691419
 30
0.0000000000000000
 11
176.1298913757999
 21
284.7288219691419
 31
0.0000000000000000
  0
INSERT
  5
442
100
AcDbEntity
  8
A0
  6
CONTINUOUS
 62
3
100
AcDbBlockReference
  2
M0
 10
0.0000000000000000
 20
0.0000000000000000
 30
0.0000000000000000
 50
0.0000000000000000
  0
MTEXT
  5
443
100
AcDbEntity
  8
A0
  6
CONTINUOUS
 62
3
100
AcDbMText
 10
169.7966098677762
 20
85.72627247490111
 30
0.0000000000000000
 40
4.649999856948853
 41
0.0000000000000000
 71
     1
 72
     1
  1
{\H0.94x;{本スクロールチャックは円テーブル上で工作物を}}
 11
1.000000000000000
 21
0.0000000000000000
 31
0.0000000000000000
  7
KNJYOKO
  0
MTEXT
  5
444
100
AcDbEntity
  8
A0
  6
CONTINUOUS
 62
3
100
AcDbMText
 10
169.7966098677762
 20
78.22627247490111
 30
0.0000000000000000
 40
4.649999856948853
 41
0.0000000000000000
 71
     1
 72
     1
  1
{\H0.94x;{把握することに適しています。それ以外の用途の}}
 11
1.000000000000000
 21
0.0000000000000000
 31
0.0000000000000000
  7
KNJYOKO
  0
MTEXT
  5
445
100
AcDbEntity
  8
A0
  6
CONTINUOUS
 62
3
100
AcDbMText
 10
169.7966098677762
 20
70.72627247490119
 30
0.0000000000000000
 40
4.649999856948853
 41
0.0000000000000000
 71
     1
 72
     1
  1
{\H0.94x;{場合、事前に弊社にご相談下さい。}}
 11
1.000000000000000
 21
0.0000000000000000
 31
0.0000000000000000
  7
KNJYOKO
  0
MTEXT
  5
446
100
AcDbEntity
  8
A0
  6
CONTINUOUS
 62
3
100
AcDbMText
 10
118.2471326722408
 20
29.95038238917616
 30
0.0000000000000000
 40
4.199998855590820
 41
0.0000000000000000
 71
     7
 72
     1
  1
{　　Kg・m}
 11
1.000000000000000
 21
0.0000000000000000
 31
0.0000000000000000
  7
KNJYOKO
  0
MTEXT
  5
447
100
AcDbEntity
  8
A0
  6
CONTINUOUS
 62
3
100
AcDbMText
 10
136.0471323861385
 20
32.05038181697157
 30
0.0000000000000000
 40
2.099999427795410
 41
0.0000000000000000
 71
     7
 72
     1
  1
{2}
 11
1.000000000000000
 21
0.0000000000000000
 31
0.0000000000000000
  7
STANDARD
  0
MTEXT
  5
448
100
AcDbEntity
  8
A0
  6
CONTINUOUS
 62
3
100
AcDbMText
 10
19.32201271604376
 20
2.820466290070470
 30
0.0000000000000000
 40
4.650000572204590
 41
0.0000000000000000
 71
     1
 72
     1
  1
{\H0.95x;{○上記仕様は許容最大ハンドルトルク締込時の場合}}
 11
1.000000000000000
 21
0.0000000000000000
 31
0.0000000000000000
  7
KNJYOKO
  0
MTEXT
  5
449
100
AcDbEntity
  8
A0
  6
CONTINUOUS
 62
3
100
AcDbMText
 10
101.7966098677762
 20
74.22627247495402
 30
0.0000000000000000
 40
4.649999856948853
 41
0.0000000000000000
 71
     1
 72
     1
  1
{\H0.81x;{11.0}}
 11
1.000000000000000
 21
0.0000000000000000
 31
0.0000000000000000
  7
STANDARD
  0
MTEXT
  5
44A
100
AcDbEntity
  8
A0
  6
CONTINUOUS
 62
3
100
AcDbMText
 10
101.7966098677762
 20
59.22627247495385
 30
0.0000000000000000
 40
4.649999856948853
 41
0.0000000000000000
 71
     1
 72
     1
  1
{\H0.91x;{3161}}
 11
1.000000000000000
 21
0.0000000000000000
 31
0.0000000000000000
  7
STANDARD
  0
MTEXT
  5
44B
100
AcDbEntity
  8
A0
  6
CONTINUOUS
 62
3
100
AcDbMText
 10
97.29660986777617
 20
80.97627247495402
 30
0.0000000000000000
 40
4.649999856948853
 41
0.0000000000000000
 71
     1
 72
     1
  1
{\H0.84x;{107.9}}
 11
1.000000000000000
 21
0.0000000000000000
 31
0.0000000000000000
  7
STANDARD
  0
MTEXT
  5
44C
100
AcDbEntity
  8
A0
  6
CONTINUOUS
 62
3
100
AcDbMText
 10
97.29660986777617
 20
65.97627247495385
 30
0.0000000000000000
 40
4.649999856948853
 41
0.0000000000000000
 71
     1
 72
     1
  1
{\H0.88x;{31}}
 11
1.000000000000000
 21
0.0000000000000000
 31
0.0000000000000000
  7
STANDARD
  0
MTEXT
  5
44D
100
AcDbEntity
  8
A0
  6
CONTINUOUS
 62
3
100
AcDbMText
 10
97.29660986777617
 20
49.22627247495379
 30
0.0000000000000000
 40
4.649999856948853
 41
0.0000000000000000
 71
     1
 72
     1
  1
{\H0.88x;{13}}
 11
1.000000000000000
 21
0.0000000000000000
 31
0.0000000000000000
  7
STANDARD
  0
MTEXT
  5
44E
100
AcDbEntity
  8
A0
  6
CONTINUOUS
 62
3
100
AcDbMText
 10
97.29660986773274
 20
23.72627247494896
 30
0.0000000000000000
 40
4.649999856948853
 41
0.0000000000000000
 71
     1
 72
     1
  1
{\H0.93x;{\U+22054～\U+2205180}}
 11
1.000000000000000
 21
0.0000000000000000
 31
0.0000000000000000
  7
KNJYOKO
  0
MTEXT
  5
44F
100
AcDbEntity
  8
A0
  6
CONTINUOUS
 62
3
100
AcDbMText
 10
97.29660986773274
 20
13.22627247494890
 30
0.0000000000000000
 40
4.649999856948853
 41
0.0000000000000000
 71
     1
 72
     1
  1
{\H0.93x;{\U+220562～\U+2205170}}
 11
1.000000000000000
 21
0.0000000000000000
 31
0.0000000000000000
  7
KNJYOKO
  0
MTEXT
  5
450
100
AcDbEntity
  8
A0
  6
CONTINUOUS
 62
3
100
AcDbMText
 10
20.34958519815029
 20
17.22335970908236
 30
0.0000000000000000
 40
3.750000000000000
 41
0.0000000000000000
 71
     1
 72
     1
  1
{\H0.54x;{GRIPPING RANGE}}
 11
1.000000000000000
 21
0.0000000000000000
 31
0.0000000000000000
  7
STANDARD
  0
MTEXT
  5
451
100
AcDbEntity
  8
A0
  6
CONTINUOUS
 62
3
100
AcDbMText
 10
31.98673706065882
 20
11.12491136064378
 30
0.0000000000000000
 40
4.500000000000000
 41
0.0000000000000000
 71
     1
 72
     1
  1
{\H0.63x;{(mm)}}
 11
1.000000000000000
 21
0.0000000000000000
 31
0.0000000000000000
  7
STANDARD
  0
MTEXT
  5
452
100
AcDbEntity
  8
A0
  6
CONTINUOUS
 62
3
100
AcDbMText
 10
24.14857683282378
 20
24.80958648145273
 30
0.0000000000000000
 40
4.650000572204590
 41
0.0000000000000000
 71
     1
 72
     1
  1
{\H0.96x;{把握径}}
 11
1.000000000000000
 21
0.0000000000000000
 31
0.0000000000000000
  7
KNJYOKO
  0
MTEXT
  5
453
100
AcDbEntity
  8
A0
  6
CONTINUOUS
 62
3
100
AcDbMText
 10
22.54146961143593
 20
38.38323080291730
 30
0.0000000000000000
 40
3.750000000000000
 41
0.0000000000000000
 71
     1
 72
     1
  1
{\H0.63x;{慣性モーメント\PMOMENT OF INERTIA\P}
 11
1.000000000000000
 21
0.0000000000000000
 31
0.0000000000000000
  7
KNJYOKO
  0
MTEXT
  5
454
100
AcDbEntity
  8
A0
  6
CONTINUOUS
 62
3
100
AcDbMText
 10
22.54146961143593
 20
51.84640610187452
 30
0.0000000000000000
 40
3.750000000000000
 41
0.0000000000000000
 71
     1
 72
     1
  1
{\H0.63x;{質量\PMASS}}
 11
1.000000000000000
 21
0.0000000000000000
 31
0.0000000000000000
  7
KNJYOKO
  0
MTEXT
  5
455
100
AcDbEntity
  8
A0
  6
CONTINUOUS
 62
3
100
AcDbMText
 10
23.04660986777572
 20
58.70127261804041
 30
0.0000000000000000
 40
3.750000000000000
 41
0.0000000000000000
 71
     1
 72
     1
  1
{\H0.63x;{MAX STATIC GRIPPING FORCE}}
 11
1.000000000000000
 21
0.0000000000000000
 31
0.0000000000000000
  7
STANDARD
  0
MTEXT
  5
456
100
AcDbEntity
  8
A0
  6
CONTINUOUS
 62
3
100
AcDbMText
 10
23.04660986777776
 20
66.35127319025494
 30
0.0000000000000000
 40
4.650000572204590
 41
0.0000000000000000
 71
     1
 72
     1
  1
{\H0.94x;{最大静的把握力}}
 11
1.000000000000000
 21
0.0000000000000000
 31
0.0000000000000000
  7
KNJYOKO
  0
MTEXT
  5
457
100
AcDbEntity
  8
A0
  6
CONTINUOUS
 62
3
100
AcDbMText
 10
23.04660986777788
 20
81.35127319025932
 30
0.0000000000000000
 40
4.650000572204590
 41
0.0000000000000000
 71
     1
 72
     1
  1
{\H0.94x;{許容最大ハンドルトルク}}
 11
1.000000000000000
 21
0.0000000000000000
 31
0.0000000000000000
  7
KNJYOKO
  0
MTEXT
  5
458
100
AcDbEntity
  8
A0
  6
CONTINUOUS
 62
3
100
AcDbMText
 10
23.04660986777572
 20
73.70127261804484
 30
0.0000000000000000
 40
3.750000000000000
 41
0.0000000000000000
 71
     1
 72
     1
  1
{\H0.62x;{MAX.PERMISSIBLE HANDLE TORQUE}}
 11
1.000000000000000
 21
0.0000000000000000
 31
0.0000000000000000
  7
STANDARD
  0
LINE
  5
459
100
AcDbEntity
  8
A0
  6
CONTINUOUS
 62
3
100
AcDbLine
 10
19.29660986777608
 20
68.07627261804478
 30
0.0000000000000000
 11
139.2966098677761
 21
68.07627261807207
 31
0.0000000000000000
  0
LINE
  5
45A
100
AcDbEntity
  8
A0
  6
CONTINUOUS
 62
3
100
AcDbLine
 10
19.29660986777594
 20
53.07627261804043
 30
0.0000000000000000
 11
139.2966098677759
 21
53.07627261806469
 31
0.0000000000000000
  0
LINE
  5
45B
100
AcDbEntity
  8
A0
  6
CONTINUOUS
 62
3
100
AcDbLine
 10
19.29660986777601
 20
41.57627261803444
 30
0.0000000000000000
 11
139.2966098677762
 21
41.57627261805456
 31
0.0000000000000000
  0
LINE
  5
45C
100
AcDbEntity
  8
A0
  6
CONTINUOUS
 62
3
100
AcDbLine
 10
19.29660986777624
 20
26.57627261800015
 30
0.0000000000000000
 11
139.2966098677761
 21
26.57627261800019
 31
0.0000000000000000
  0
MTEXT
  5
45D
100
AcDbEntity
  8
A0
  6
CONTINUOUS
 62
3
100
AcDbMText
 10
49.76027998378117
 20
26.05288274278396
 30
0.0000000000000000
 40
3.750000000000000
 41
0.0000000000000000
 71
     1
 72
     1
  1
{\H0.60x;{OUTER DIA.\PGRIPPING}}
 11
1.000000000000000
 21
0.0000000000000000
 31
0.0000000000000000
  7
STANDARD
  0
LINE
  5
45E
100
AcDbEntity
  8
A0
  6
CONTINUOUS
 62
3
100
AcDbLine
 10
48.54660986777617
 20
5.576272618000161
 30
0.0000000000000000
 11
48.54660986777617
 21
26.57627261800010
 31
0.0000000000000000
  0
LINE
  5
45F
100
AcDbEntity
  8
A0
  6
CONTINUOUS
 62
3
100
AcDbLine
 10
19.29660986777625
 20
5.576272618000047
 30
0.0000000000000000
 11
139.2966098677762
 21
5.576272618000132
 31
0.0000000000000000
  0
MTEXT
  5
460
100
AcDbEntity
  8
A0
  6
CONTINUOUS
 62
3
100
AcDbMText
 10
49.68266584100491
 20
15.41980411944613
 30
0.0000000000000000
 40
3.750000000000000
 41
0.0000000000000000
 71
     1
 72
     1
  1
{\H0.60x;{INNER DIA.\PGRIPPING}}
 11
1.000000000000000
 21
0.0000000000000000
 31
0.0000000000000000
  7
STANDARD
  0
LINE
  5
461
100
AcDbEntity
  8
A0
  6
CONTINUOUS
 62
3
100
AcDbLine
 10
48.54660986777628
 20
16.07627261800003
 30
0.0000000000000000
 11
139.2966098677761
 21
16.07627261800012
 31
0.0000000000000000
  0
MTEXT
  5
462
100
AcDbEntity
  8
A0
  6
CONTINUOUS
 62
3
100
AcDbMText
 10
73.12201024486410
 20
13.06002766089509
 30
0.0000000000000000
 40
4.649999856948853
 41
0.0000000000000000
 71
     1
 72
     1
  1
{\H0.92x;{内径把握}}
 11
1.000000000000000
 21
0.0000000000000000
 31
0.0000000000000000
  7
KNJYOKO
  0
MTEXT
  5
463
100
AcDbEntity
  8
A0
  6
CONTINUOUS
 62
3
100
AcDbMText
 10
73.12201024486410
 20
23.77072042700908
 30
0.0000000000000000
 40
4.649999856948853
 41
0.0000000000000000
 71
     1
 72
     1
  1
{\H0.92x;{外径把握}}
 11
1.000000000000000
 21
0.0000000000000000
 31
0.0000000000000000
  7
KNJYOKO
  0
LINE
  5
464
100
AcDbEntity
  8
A0
  6
CONTINUOUS
 62
3
100
AcDbLine
 10
94.29660986777617
 20
5.576272618000104
 30
0.0000000000000000
 11
94.29660986777617
 21
83.07627261807571
 31
0.0000000000000000
  0
LINE
  5
465
100
AcDbEntity
  8
A0
  6
CONTINUOUS
 62
3
100
AcDbLine
 10
139.2966098677762
 20
5.576272618000132
 30
0.0000000000000000
 11
139.2966098677762
 21
103.5762726180052
 31
0.0000000000000000
  0
MTEXT
  5
466
100
AcDbEntity
  8
A0
  6
CONTINUOUS
 62
3
100
AcDbMText
 10
116.7966098677762
 20
47.27627147359576
 30
0.0000000000000000
 40
4.199998855590820
 41
0.0000000000000000
 71
     1
 72
     1
  1
{\H0.58x;{　　　　ｋｇ}}
 11
1.000000000000000
 21
0.0000000000000000
 31
0.0000000000000000
  7
KNJYOKO
  0
MTEXT
  5
467
100
AcDbEntity
  8
A0
  6
CONTINUOUS
 62
3
100
AcDbMText
 10
97.29660986777617
 20
58.02627147359581
 30
0.0000000000000000
 40
4.199998855590820
 41
0.0000000000000000
 71
     1
 72
     1
  1
{\H0.48x;{（}}
 11
1.000000000000000
 21
0.0000000000000000
 31
0.0000000000000000
  7
KNJYOKO
  0
MTEXT
  5
468
100
AcDbEntity
  8
A0
  6
CONTINUOUS
 62
3
100
AcDbMText
 10
115.2966098677762
 20
58.02627147359581
 30
0.0000000000000000
 40
4.199998855590820
 41
0.0000000000000000
 71
     1
 72
     1
  1
{\H0.58x;{　　　ｋｇｆ）}}
 11
1.000000000000000
 21
0.0000000000000000
 31
0.0000000000000000
  7
KNJYOKO
  0
MTEXT
  5
469
100
AcDbEntity
  8
A0
  6
CONTINUOUS
 62
3
100
AcDbMText
 10
116.7966098677762
 20
64.02627147359581
 30
0.0000000000000000
 40
4.199998855590820
 41
0.0000000000000000
 71
     1
 72
     1
  1
{\H0.58x;{　　　　ｋＮ}}
 11
1.000000000000000
 21
0.0000000000000000
 31
0.0000000000000000
  7
KNJYOKO
  0
MTEXT
  5
46A
100
AcDbEntity
  8
A0
  6
CONTINUOUS
 62
3
100
AcDbMText
 10
115.2966098677762
 20
73.02627147359598
 30
0.0000000000000000
 40
4.199998855590820
 41
0.0000000000000000
 71
     1
 72
     1
  1
{\H0.58x;{　ｋｇｆ・ｍ）}}
 11
1.000000000000000
 21
0.0000000000000000
 31
0.0000000000000000
  7
KNJYOKO
  0
MTEXT
  5
46B
100
AcDbEntity
  8
A0
  6
CONTINUOUS
 62
3
100
AcDbMText
 10
116.7966098677762
 20
79.02627147359598
 30
0.0000000000000000
 40
4.199998855590820
 41
0.0000000000000000
 71
     1
 72
     1
  1
{\H0.58x;{　　　Ｎ・ｍ}}
 11
1.000000000000000
 21
0.0000000000000000
 31
0.0000000000000000
  7
KNJYOKO
  0
MTEXT
  5
46C
100
AcDbEntity
  8
A0
  6
CONTINUOUS
 62
3
100
AcDbMText
 10
97.29660986777617
 20
73.02627147359598
 30
0.0000000000000000
 40
4.199998855590820
 41
0.0000000000000000
 71
     1
 72
     1
  1
{\H0.48x;{（}}
 11
1.000000000000000
 21
0.0000000000000000
 31
0.0000000000000000
  7
KNJYOKO
  0
MTEXT
  5
46D
100
AcDbEntity
  8
A0
  6
CONTINUOUS
 62
3
100
AcDbMText
 10
44.75469807006883
 20
90.56684131370616
 30
0.0000000000000000
 40
4.649999856948853
 41
0.0000000000000000
 71
     1
 72
     1
  1
{\H0.93x;{SPECIFICATIONS}}
 11
1.000000000000000
 21
0.0000000000000000
 31
0.0000000000000000
  7
STANDARD
  0
LINE
  5
46E
100
AcDbEntity
  8
A0
  6
CONTINUOUS
 62
3
100
AcDbLine
 10
19.29660986777601
 20
83.07627261805475
 30
0.0000000000000000
 11
139.2966098677760
 21
83.07627261808902
 31
0.0000000000000000
  0
LINE
  5
46F
100
AcDbEntity
  8
A0
  6
CONTINUOUS
 62
3
100
AcDbLine
 10
19.29660986777609
 20
103.5762726180576
 30
0.0000000000000000
 11
139.2966098677762
 21
103.5762726180940
 31
0.0000000000000000
  0
MTEXT
  5
470
100
AcDbEntity
  8
A0
  6
CONTINUOUS
 62
3
100
AcDbMText
 10
59.73666594265691
 20
101.8849062219035
 30
0.0000000000000000
 40
7.500000000000000
 41
0.0000000000000000
 71
     1
 72
     1
  1
{\H0.91x;{仕　様}}
 11
1.000000000000000
 21
0.0000000000000000
 31
0.0000000000000000
  7
KNJYOKO
  0
LINE
  5
471
100
AcDbEntity
  8
A0
  6
CONTINUOUS
 62
3
100
AcDbLine
 10
19.29660986777617
 20
5.576272618000047
 30
0.0000000000000000
 11
19.29660986777617
 21
103.5762726180052
 31
0.0000000000000000
  0
MTEXT
  5
472
100
AcDbEntity
  8
A0
  6
CONTINUOUS
 62
3
100
AcDbMText
 10
97.29660986777617
 20
37.47627247495379
 30
0.0000000000000000
 40
4.649999856948853
 41
0.0000000000000000
 71
     1
 72
     1
  1
{\H0.84x;{0.063}}
 11
1.000000000000000
 21
0.0000000000000000
 31
0.0000000000000000
  7
STANDARD
  0
MTEXT
  5
473
100
AcDbEntity
  8
A0
  6
CONTINUOUS
 62
3
100
AcDbMText
 10
169.7966098677762
 20
28.22627247490111
 30
0.0000000000000000
 40
4.649999856948853
 41
0.0000000000000000
 71
     1
 72
     1
  1
{\H0.71x;{This scroll chuck is suitable for}}
 11
1.000000000000000
 21
0.0000000000000000
 31
0.0000000000000000
  7
STANDARD
  0
MTEXT
  5
474
100
AcDbEntity
  8
A0
  6
CONTINUOUS
 62
3
100
AcDbMText
 10
169.7966098677762
 20
20.72627247490111
 30
0.0000000000000000
 40
4.649999856948853
 41
0.0000000000000000
 71
     1
 72
     1
  1
{\H0.71x;{gripping a workpiece on the rotary}}
 11
1.000000000000000
 21
0.0000000000000000
 31
0.0000000000000000
  7
STANDARD
  0
MTEXT
  5
475
100
AcDbEntity
  8
A0
  6
CONTINUOUS
 62
3
100
AcDbMText
 10
169.7966098677762
 20
13.22627247490119
 30
0.0000000000000000
 40
4.649999856948853
 41
0.0000000000000000
 71
     1
 72
     1
  1
{\H0.69x;{tables. For any other applications,}}
 11
1.000000000000000
 21
0.0000000000000000
 31
0.0000000000000000
  7
STANDARD
  0
INSERT
  5
482
100
AcDbEntity
  8
A0
  6
CONTINUOUS
 62
3
100
AcDbBlockReference
  2
M1
 10
0.0000000000000000
 20
0.0000000000000000
 30
0.0000000000000000
 50
0.0000000000000000
  0
MTEXT
  5
483
100
AcDbEntity
  8
A0
  6
CONTINUOUS
 62
3
100
AcDbMText
 10
169.7966098677762
 20
5.726272474901194
 30
0.0000000000000000
 40
4.649999856948853
 41
0.0000000000000000
 71
     1
 72
     1
  1
{\H0.69x;{please contact us.}}
 11
1.000000000000000
 21
0.0000000000000000
 31
0.0000000000000000
  7
STANDARD
  0
MTEXT
  5
484
100
AcDbEntity
  8
A0
  6
CONTINUOUS
 62
3
100
AcDbMText
 10
19.10642259701095
 20
-3.952756010929164
 30
0.0000000000000000
 40
4.500000000000000
 41
0.0000000000000000
 71
     1
 72
     1
  1
{\H0.63x;{ABOVE SPECS :AT MAX PERMISSIBLE HANDLE TORQUE}}
 11
1.000000000000000
 21
0.0000000000000000
 31
0.0000000000000000
  7
STANDARD
  0
LINE
  5
485
100
AcDbEntity
  8
WAKU0
  6
CONTINUOUS
 62
3
100
AcDbLine
 10
412.0000000000000
 20
51.00000000000000
 30
0.0000000000000000
 11
582.0000000000000
 21
51.00000000000000
 31
0.0000000000000000
  0
LINE
  5
486
100
AcDbEntity
  8
WAKU0
  6
CONTINUOUS
 62
3
100
AcDbLine
 10
412.0000000000000
 20
51.00000000000000
 30
0.0000000000000000
 11
412.0000000000000
 21
12.00000000000000
 31
0.0000000000000000
  0
LINE
  5
487
100
AcDbEntity
  8
WAKU0
  6
CONTINUOUS
 62
3
100
AcDbLine
 10
484.0000000000000
 20
51.00000000000000
 30
0.0000000000000000
 11
484.0000000000000
 21
12.00000000000000
 31
0.0000000000000000
  0
LINE
  5
488
100
AcDbEntity
  8
WAKU0
  6
CONTINUOUS
 62
3
100
AcDbLine
 10
504.0000000000000
 20
51.00000000000000
 30
0.0000000000000000
 11
504.0000000000000
 21
12.00000000000000
 31
0.0000000000000000
  0
LINE
  5
489
100
AcDbEntity
  8
WAKU0
  6
CONTINUOUS
 62
3
100
AcDbLine
 10
516.0000000000000
 20
51.00000000000000
 30
0.0000000000000000
 11
516.0000000000000
 21
12.00000000000000
 31
0.0000000000000000
  0
LINE
  5
48A
100
AcDbEntity
  8
WAKU0
  6
CONTINUOUS
 62
3
100
AcDbLine
 10
516.0000000000000
 20
37.00000000000000
 30
0.0000000000000000
 11
582.0000000000000
 21
37.00000000000000
 31
0.0000000000000000
  0
LINE
  5
48B
100
AcDbEntity
  8
WAKU0
  6
CONTINUOUS
 62
3
100
AcDbLine
 10
504.0000000000000
 20
23.00000000000000
 30
0.0000000000000000
 11
582.0000000000000
 21
23.00000000000000
 31
0.0000000000000000
  0
LINE
  5
48C
100
AcDbEntity
  8
WAKU0
  6
CONTINUOUS
 62
3
100
AcDbLine
 10
547.0000000000000
 20
51.00000000000000
 30
0.0000000000000000
 11
547.0000000000000
 21
44.00000000000000
 31
0.0000000000000000
  0
LINE
  5
48D
100
AcDbEntity
  8
WAKU0
  6
CONTINUOUS
 62
3
100
AcDbLine
 10
559.0000000000000
 20
51.00000000000000
 30
0.0000000000000000
 11
559.0000000000000
 21
44.00000000000000
 31
0.0000000000000000
  0
LINE
  5
48E
100
AcDbEntity
  8
WAKU0
  6
CONTINUOUS
 62
3
100
AcDbLine
 10
484.0000000000000
 20
31.50000000000000
 30
0.0000000000000000
 11
504.0000000000000
 21
31.50000000000000
 31
0.0000000000000000
  0
LINE
  5
48F
100
AcDbEntity
  8
WAKU0
  6
CONTINUOUS
 62
3
100
AcDbLine
 10
504.0000000000000
 20
44.00000000000000
 30
0.0000000000000000
 11
582.0000000000000
 21
44.00000000000000
 31
0.0000000000000000
  0
LINE
  5
490
100
AcDbEntity
  8
WAKU0
  6
CONTINUOUS
 62
3
100
AcDbLine
 10
412.0000000000000
 20
37.00000000000000
 30
0.0000000000000000
 11
484.0000000000000
 21
37.00000000000000
 31
0.0000000000000000
  0
LINE
  5
491
100
AcDbEntity
  8
WAKU0
  6
CONTINUOUS
 62
3
100
AcDbLine
 10
412.0000000000000
 20
23.00000000000000
 30
0.0000000000000000
 11
484.0000000000000
 21
23.00000000000000
 31
0.0000000000000000
  0
LINE
  5
492
100
AcDbEntity
  8
WAKU0
  6
CONTINUOUS
 62
3
100
AcDbLine
 10
460.0000000000000
 20
37.00000000000000
 30
0.0000000000000000
 11
460.0000000000000
 21
12.00000000000000
 31
0.0000000000000000
  0
LINE
  5
493
100
AcDbEntity
  8
WAKU0
  6
CONTINUOUS
 62
3
100
AcDbLine
 10
436.0000000000000
 20
37.00000000000000
 30
0.0000000000000000
 11
436.0000000000000
 21
23.00000000000000
 31
0.0000000000000000
  0
LINE
  5
494
100
AcDbEntity
  8
WAKU0
  6
CONTINUOUS
 62
3
100
AcDbLine
 10
472.0000000000000
 20
26.00000000000000
 30
0.0000000000000000
 11
472.0000000000000
 21
23.00000000000000
 31
0.0000000000000000
  0
LINE
  5
495
100
AcDbEntity
  8
WAKU0
  6
CONTINUOUS
 62
3
100
AcDbLine
 10
448.0000000000000
 20
26.00000000000000
 30
0.0000000000000000
 11
448.0000000000000
 21
23.00000000000000
 31
0.0000000000000000
  0
LINE
  5
496
100
AcDbEntity
  8
WAKU0
  6
CONTINUOUS
 62
3
100
AcDbLine
 10
424.0000000000000
 20
26.00000000000000
 30
0.0000000000000000
 11
424.0000000000000
 21
23.00000000000000
 31
0.0000000000000000
  0
LINE
  5
497
100
AcDbEntity
  8
WAKU0
  6
CONTINUOUS
 62
3
100
AcDbLine
 10
430.0000000000000
 20
51.00000000000000
 30
0.0000000000000000
 11
430.0000000000000
 21
37.00000000000000
 31
0.0000000000000000
  0
LINE
  5
498
100
AcDbEntity
  8
WAKU0
  6
CONTINUOUS
 62
3
100
AcDbLine
 10
412.0000000000000
 20
45.00000000000000
 30
0.0000000000000000
 11
484.0000000000000
 21
45.00000000000000
 31
0.0000000000000000
  0
LINE
  5
499
100
AcDbEntity
  8
WAKU0
  6
HIDDEN
 62
3
100
AcDbLine
 10
532.5000000000000
 20
23.00000000000000
 30
0.0000000000000000
 11
532.5000000000000
 21
12.00000000000000
 31
0.0000000000000000
  0
LINE
  5
49A
100
AcDbEntity
  8
WAKU0
  6
HIDDEN
 62
3
100
AcDbLine
 10
544.9000000000000
 20
23.00000000000000
 30
0.0000000000000000
 11
544.9000000000000
 21
12.00000000000000
 31
0.0000000000000000
  0
MTEXT
  5
49B
100
AcDbEntity
  8
WAKU0
  6
CONTINUOUS
 62
3
100
AcDbMText
 10
516.4820000243485
 20
49.04999995231628
 30
0.0000000000000000
 40
3.099999904632568
 41
0.0000000000000000
 71
     1
 72
     1
  1
{\H0.92x;{JN07TN}}
 11
1.000000000000000
 21
0.0000000000000000
 31
0.0000000000000000
  7
STANDARD
  0
MTEXT
  5
49C
100
AcDbEntity
  8
WAKU0
  6
CONTINUOUS
 62
3
100
AcDbMText
 10
516.4659999916852
 20
43.50000000000000
 30
0.0000000000000000
 40
3.000000000000000
 41
0.0000000000000000
 71
     1
 72
     1
  1
{\H0.94x;{スクロールチャック　７\PＳＣＲＯＬＬ　ＣＨＵＣＫ　７}}
 11
1.000000000000000
 21
0.0000000000000000
 31
0.0000000000000000
  7
KNJYOKO
  0
MTEXT
  5
49D
100
AcDbEntity
  8
WAKU0
  6
CONTINUOUS
 62
3
100
AcDbMText
 10
516.4000000059605
 20
34.23333326975504
 30
0.0000000000000000
 40
3.099999904632568
 41
0.0000000000000000
 71
     1
 72
     1
  1
{\H0.70x;{ＪＮ０７ＴＮ　ガイケイ\PＪＮ０７ＴＮ　ＯＵＴＳＩＤＥ　ＶＩＥＷ}}
 11
1.000000000000000
 21
0.0000000000000000
 31
0.0000000000000000
  7
KNJYOKO
  0
MTEXT
  5
49E
100
AcDbEntity
  8
WAKU0
  6
CONTINUOUS
 62
3
100
AcDbMText
 10
490.0049998760223
 20
39.29999995231628
 30
0.0000000000000000
 40
3.099999904632568
 41
0.0000000000000000
 71
     1
 72
     1
  1
{\H0.90x;{1:1}}
 11
1.000000000000000
 21
0.0000000000000000
 31
0.0000000000000000
  7
STANDARD
  0
MTEXT
  5
49F
100
AcDbEntity
  8
WAKU0
  6
CONTINUOUS
 62
3
100
AcDbMText
 10
546.4000001549721
 20
20.15000009536743
 30
0.0000000000000000
 40
5.300000190734863
 41
0.0000000000000000
 71
     1
 72
     1
  1
{\H0.90x;{6860}}
 11
1.000000000000000
 21
0.0000000000000000
 31
0.0000000000000000
  7
STANDARD
  0
MTEXT
  5
4A0
100
AcDbEntity
  8
WAKU0
  6
CONTINUOUS
 62
3
100
AcDbMText
 10
534.3000000834466
 20
20.15000009536743
 30
0.0000000000000000
 40
5.300000190734863
 41
0.0000000000000000
 71
     1
 72
     1
  1
{\H0.87x;{28}}
 11
1.000000000000000
 21
0.0000000000000000
 31
0.0000000000000000
  7
STANDARD
  0
MTEXT
  5
4A1
100
AcDbEntity
  8
WAKU0
  6
CONTINUOUS
 62
3
100
AcDbMText
 10
517.5000001192093
 20
20.15000009536743
 30
0.0000000000000000
 40
5.300000190734863
 41
0.0000000000000000
 71
     1
 72
     1
  1
{\H0.89x;{61S}}
 11
1.000000000000000
 21
0.0000000000000000
 31
0.0000000000000000
  7
STANDARD
  0
MTEXT
  5
4A2
100
AcDbEntity
  8
WAKU0
  6
CONTINUOUS
 62
3
100
AcDbMText
 10
572.0000000476837
 20
20.15000009536743
 30
0.0000000000000000
 40
5.300000190734863
 41
0.0000000000000000
 71
     1
 72
     1
  1
{\H0.81x;{0}}
 11
1.000000000000000
 21
0.0000000000000000
 31
0.0000000000000000
  7
STANDARD
  0
MTEXT
  5
4A3
100
AcDbEntity
  8
WAKU0
  6
CONTINUOUS
 62
3
100
AcDbMText
 10
572.0000000819564
 20
44.84999990463257
 30
0.0000000000000000
 40
5.300000190734863
 41
0.0000000000000000
 71
     7
 72
     1
  1
{\H0.81x;{ }}
 11
1.000000000000000
 21
0.0000000000000000
 31
0.0000000000000000
  7
STANDARD
  0
MTEXT
  5
4A4
100
AcDbEntity
  8
WAKU0
  6
CONTINUOUS
 62
3
100
AcDbMText
 10
461.3850002884865
 20
33.00000000000000
 30
0.0000000000000000
 40
3.000000000000000
 41
0.0000000000000000
 71
     7
 72
     1
  1
{\H0.93x;{DRAWN BY}}
 11
1.000000000000000
 21
0.0000000000000000
 31
0.0000000000000000
  7
STANDARD
  0
MTEXT
  5
4A5
100
AcDbEntity
  8
WAKU0
  6
CONTINUOUS
 62
3
100
AcDbMText
 10
441.2149997949600
 20
32.95000004768372
 30
0.0000000000000000
 40
3.099999904632568
 41
0.0000000000000000
 71
     7
 72
     1
  1
{\H0.92x;{CHIEF}}
 11
1.000000000000000
 21
0.0000000000000000
 31
0.0000000000000000
  7
STANDARD
  0
MTEXT
  5
4A6
100
AcDbEntity
  8
WAKU0
  6
CONTINUOUS
 62
3
100
AcDbMText
 10
414.4249997138977
 20
32.95000004768372
 30
0.0000000000000000
 40
3.099999904632568
 41
0.0000000000000000
 71
     7
 72
     1
  1
{\H0.92x;{MANAGER}}
 11
1.000000000000000
 21
0.0000000000000000
 31
0.0000000000000000
  7
STANDARD
  0
MTEXT
  5
4A7
100
AcDbEntity
  8
WAKU0
  6
CONTINUOUS
 62
3
100
AcDbMText
 10
413.0850002169609
 20
46.50000000000000
 30
0.0000000000000000
 40
3.000000000000000
 41
0.0000000000000000
 71
     7
 72
     1
  1
{\H0.92x;{CAREER}}
 11
1.000000000000000
 21
0.0000000000000000
 31
0.0000000000000000
  7
STANDARD
  0
MTEXT
  5
4A8
100
AcDbEntity
  8
WAKU0
  6
CONTINUOUS
 62
3
100
AcDbMText
 10
466.6099998354912
 20
18.95000004768372
 30
0.0000000000000000
 40
3.099999904632568
 41
0.0000000000000000
 71
     7
 72
     1
  1
{\H0.91x;{DATE}}
 11
1.000000000000000
 21
0.0000000000000000
 31
0.0000000000000000
  7
STANDARD
  0
MTEXT
  5
4A9
100
AcDbEntity
  8
WAKU0
  6
CONTINUOUS
 62
3
100
AcDbMText
 10
485.9000002145767
 20
26.50000000000000
 30
0.0000000000000000
 40
3.000000000000000
 41
0.0000000000000000
 71
     7
 72
     1
  1
{\H0.63x;{3RD ANGLE}}
 11
1.000000000000000
 21
0.0000000000000000
 31
0.0000000000000000
  7
STANDARD
  0
MTEXT
  5
4AA
100
AcDbEntity
  8
WAKU0
  6
CONTINUOUS
 62
3
100
AcDbMText
 10
487.2149997949600
 20
45.95000004768372
 30
0.0000000000000000
 40
3.099999904632568
 41
0.0000000000000000
 71
     7
 72
     1
  1
{\H0.92x;{SCALE}}
 11
1.000000000000000
 21
0.0000000000000000
 31
0.0000000000000000
  7
STANDARD
  0
MTEXT
  5
4AB
100
AcDbEntity
  8
WAKU0
  6
CONTINUOUS
 62
3
100
AcDbMText
 10
577.7000000476837
 20
46.00000000000000
 30
0.0000000000000000
 40
3.000000000000000
 41
0.0000000000000000
 71
     7
 72
     1
  1
{\H0.63x;{kg}}
 11
1.000000000000000
 21
0.0000000000000000
 31
0.0000000000000000
  7
STANDARD
  0
MTEXT
  5
4AC
100
AcDbEntity
  8
WAKU0
  6
CONTINUOUS
 62
3
100
AcDbMText
 10
547.6000001430512
 20
46.00000000000000
 30
0.0000000000000000
 40
3.000000000000000
 41
0.0000000000000000
 71
     7
 72
     1
  1
{\H0.63x;{WEIGHT}}
 11
1.000000000000000
 21
0.0000000000000000
 31
0.0000000000000000
  7
STANDARD
  0
MTEXT
  5
4AD
100
AcDbEntity
  8
WAKU0
  6
CONTINUOUS
 62
3
100
AcDbMText
 10
506.0049998760223
 20
18.13333336512248
 30
0.0000000000000000
 40
3.099999904632568
 41
0.0000000000000000
 71
     7
 72
     1
  1
{\H0.90x;{DRW\PNO.}}
 11
1.000000000000000
 21
0.0000000000000000
 31
0.0000000000000000
  7
STANDARD
  0
MTEXT
  5
4AE
100
AcDbEntity
  8
WAKU0
  6
CONTINUOUS
 62
3
100
AcDbMText
 10
504.6099998354912
 20
31.95000004768372
 30
0.0000000000000000
 40
3.099999904632568
 41
0.0000000000000000
 71
     7
 72
     1
  1
{\H0.91x;{NAME}}
 11
1.000000000000000
 21
0.0000000000000000
 31
0.0000000000000000
  7
STANDARD
  0
MTEXT
  5
4AF
100
AcDbEntity
  8
WAKU0
  6
CONTINUOUS
 62
3
100
AcDbMText
 10
504.6099998354912
 20
45.95000004768372
 30
0.0000000000000000
 40
3.099999904632568
 41
0.0000000000000000
 71
     7
 72
     1
  1
{\H0.91x;{TYPE}}
 11
1.000000000000000
 21
0.0000000000000000
 31
0.0000000000000000
  7
STANDARD
  0
LINE
  5
4B0
100
AcDbEntity
  8
WAKU0
  6
HIDDEN
 62
3
100
AcDbLine
 10
579.1599564743885
 20
13.84999990463257
 30
0.0000000000000000
 11
568.9400436209789
 21
13.84999990463257
 31
0.0000000000000000
  0
LINE
  5
4B1
100
AcDbEntity
  8
WAKU0
  6
HIDDEN
 62
3
100
AcDbLine
 10
579.1599564743885
 20
13.84999990463250
 30
0.0000000000000000
 11
574.0500000476851
 21
22.70070406014901
 31
0.0000000000000000
  0
LINE
  5
4B2
100
AcDbEntity
  8
WAKU0
  6
HIDDEN
 62
3
100
AcDbLine
 10
574.0500000476851
 20
22.70070406014902
 30
0.0000000000000000
 11
568.9400436209789
 21
13.84999990463248
 31
0.0000000000000000
  0
MTEXT
  5
4B3
100
AcDbEntity
  8
WAKU0
  6
CONTINUOUS
 62
3
100
AcDbMText
 10
419.0000009614873
 20
20.63471521698214
 30
0.0000000000000000
 40
3.140094041824341
 41
0.0000000000000000
 71
     1
 72
     1
  1
{\H0.83x;{Ｋｉｔａｇａｗａ\PＣｏｒｐｏｒａｔｉｏｎ}}
 11
1.000000000000000
 21
0.0000000000000000
 31
0.0000000000000000
  7
KNJYOKO
  0
LINE
  5
4B4
100
AcDbEntity
  8
WAKU0
  6
CONTINUOUS
 62
3
100
AcDbLine
 10
502.4713877753800
 20
15.78041421262812
 30
0.0000000000000000
 11
502.4713877753800
 21
21.78041421262815
 31
0.0000000000000000
  0
LINE
  5
4B5
100
AcDbEntity
  8
WAKU0
  6
CONTINUOUS
 62
3
100
AcDbLine
 10
495.9336941228225
 20
17.28041421262811
 30
0.0000000000000000
 11
495.9336941228225
 21
20.28041421262824
 31
0.0000000000000000
  0
LINE
  5
4B6
100
AcDbEntity
  8
WAKU0
  6
CENTER
 62
12
100
AcDbLine
 10
485.4321805514995
 20
18.78041421262813
 30
0.0000000000000000
 11
503.2765788964694
 21
18.78041421262813
 31
0.0000000000000000
  0
LINE
  5
4B7
100
AcDbEntity
  8
WAKU0
  6
CENTER
 62
12
100
AcDbLine
 10
489.4474565857986
 20
14.55921662918448
 30
0.0000000000000000
 11
489.4474565857986
 21
22.89865102149943
 31
0.0000000000000000
  0
LINE
  5
4B8
100
AcDbEntity
  8
WAKU0
  6
CONTINUOUS
 62
3
100
AcDbLine
 10
495.9336941228225
 20
20.28041421262797
 30
0.0000000000000000
 11
502.4713877753800
 21
21.78041421262795
 31
0.0000000000000000
  0
LINE
  5
4B9
100
AcDbEntity
  8
WAKU0
  6
CONTINUOUS
 62
3
100
AcDbLine
 10
495.9336941228225
 20
17.28041421262811
 30
0.0000000000000000
 11
502.4713877753799
 21
15.78041421262812
 31
0.0000000000000000
  0
CIRCLE
  5
4BA
100
AcDbEntity
  8
WAKU0
  6
CONTINUOUS
 62
3
100
AcDbCircle
 10
489.4474565857986
 20
18.78041421262813
 30
0.0000000000000000
 40
1.499999999999972
  0
CIRCLE
  5
4BB
100
AcDbEntity
  8
WAKU0
  6
CONTINUOUS
 62
3
100
AcDbCircle
 10
489.4474565857986
 20
18.78041421262813
 30
0.0000000000000000
 40
2.999999999999979
  0
ENDSEC
  0
SECTION
  2
OBJECTS
  0
DICTIONARY
  5
515
100
AcDbDictionary
  3
ACAD_GROUP
350
516
  3
ACAD_MLINESTYLE
350
517
  3
DWGPROPS
350
518
  0
DICTIONARY
  5
516
102
{ACAD_REACTORS
330
515
102
}
100
AcDbDictionary
  0
DICTIONARY
  5
517
102
{ACAD_REACTORS
330
515
102
}
100
AcDbDictionary
  3
STANDARD
350
519
  0
MLINESTYLE
  5
519
102
{ACAD_REACTORS
330
517
102
}
100
AcDbMlineStyle
  2
STANDARD
 70
     0
  3

 62
   256
 51
90.00
 52
90.00
 71
     2
 49
0.50
 62
   256
  6
BYLAYER
 49
-0.50
 62
   256
  6
BYLAYER
  0
XRECORD
  5
518
102
{ACAD_REACTORS
330
515
102
}
100
AcDbXrecord
280
     1
  1
DWGPROPS COOKIE
  2
ＪＮ０７Ｔ１０２　クミタテ
  3

  4

  6
スクロールチャック　７
  7

  8

  9

300
=
301
=
302
=
303
=
304
=
305
=
306
=
307
=
308
=
309
=
 40
0.000000
 41
0.000000
 42
0.000000
  1

 90
        0
  0
ENDSEC
  0
EOF
