  0
SECTION
  2
HEADER
  9
$ACADVER
  1
AC1014
  9
$DWGCODEPAGE
  3
ANSI_932
  9
$LTSCALE
 40
20.0
  9
$FILLMODE
 70
     1
  9
$CLAYER
  8
0
  9
$PDMODE
 70
     0
  9
$SPLFRAME
 70
     0
  9
$SPLINETYPE
 70
     6
  9
$SPLINESEGS
 70
     8
  9
$DIMASZ
 40
2.000000
  9
$DIMEXE
 40
2.000000
  9
$DIMEXO
 40
0.800000
  9
$DIMTAD
 70
     1
  9
$DIMTIH
 70
     0
  9
$DIMTOH
 70
     0
  9
$DIMTVP
 40
0.500000
  9
$DIMTXT
 40
3.100000
  9
$EXTMIN
 10
0.000000
 20
0.000000
 30
0.000000
  9
$EXTMAX
 10
420.000000
 20
594.000000
 30
0.000000
  9
$MEASUREMENT
 70
  1
  9
$LIMMIN
 10
0.000000
 20
0.000000
  9
$LIMMAX
 10
420.000000
 20
594.000000
  9
$HANDLING
 70
     1
  9
$HANDSEED
  5
561
  9
$DIMBLK
  1
_OPEN
  9
$DIMDEC
 70
     3
  9
$DIMAUNIT
 70
     1
  9
$DIMZIN
 70
     8
  9
$DIMTOFL
 70
     1
  0
ENDSEC
  0
SECTION
  2
CLASSES
  0
ENDSEC
  0
SECTION
  2
TABLES
  0
TABLE
  2
VPORT
  5
4FE
100
AcDbSymbolTable
 70
     1
  0
VPORT
  5
4FF
100
AcDbSymbolTableRecord
100
AcDbViewportTableRecord
  2
*ACTIVE
 70
     0
 12
274.983347
 22
173.859495
 40
464.557636
 41
1.321759
  0
ENDTAB
  0
TABLE
  2
LTYPE
  5
500
100
AcDbSymbolTable
 70
     4
  0
LTYPE
  5
501
100
AcDbSymbolTableRecord
100
AcDbLinetypeTableRecord
  2
BYBLOCK
 70
     0
  3

 72
    65
 73
     0
 40
0.0
  0
LTYPE
  5
502
100
AcDbSymbolTableRecord
100
AcDbLinetypeTableRecord
  2
BYLAYER
 70
     0
  3

 72
    65
 73
     0
 40
0.0
  0
LTYPE
  5
503
100
AcDbSymbolTableRecord
100
AcDbLinetypeTableRecord
  2
CONTINUOUS
 70
     0
  3
Solid line (NEC CAE2D for Win R12.1 : 2019.02.20)
 72
    65
 73
     0
 40
0.0
  0
LTYPE
  5
504
100
AcDbSymbolTableRecord
100
AcDbLinetypeTableRecord
  2
HIDDEN
 70
     0
  3
__ __ __ __ __ __ __ __ __ __ __ __ __ __
 72
    65
 73
     2
 40
0.375
 49
0.25
 74
     0
 49
-0.125
 74
     0
  0
LTYPE
  5
505
100
AcDbSymbolTableRecord
100
AcDbLinetypeTableRecord
  2
CENTER
 70
     0
  3
____ _ ____ _ ____ _ ____ _ ____ _ ____
 72
    65
 73
     4
 40
2.0
 49
1.25
 74
     0
 49
-0.25
 74
     0
 49
0.25
 74
     0
 49
-0.25
 74
     0
  0
LTYPE
  5
506
100
AcDbSymbolTableRecord
100
AcDbLinetypeTableRecord
  2
PHANTOM
 70
     0
  3
______  __  __  ______  __  __  ______ 
 72
    65
 73
     6
 40
2.5
 49
1.25
 74
     0
 49
-0.25
 74
     0
 49
0.25
 74
     0
 49
-0.25
 74
     0
 49
0.25
 74
     0
 49
-0.25
 74
     0
  0
ENDTAB
  0
TABLE
  2
LAYER
  5
507
100
AcDbSymbolTable
 70
    19
  0
LAYER
  5
508
100
AcDbSymbolTableRecord
100
AcDbLayerTableRecord
  2
0
 70
     0
 62
     7
  6
CONTINUOUS
  0
LAYER
  5
509
100
AcDbSymbolTableRecord
100
AcDbLayerTableRecord
  2
MAIN0
 70
     0
 62
     7
  6
CONTINUOUS
  0
LAYER
  5
50A
100
AcDbSymbolTableRecord
100
AcDbLayerTableRecord
  2
MAIN1023
 70
     0
 62
    16
  6
CONTINUOUS
  0
LAYER
  5
50B
100
AcDbSymbolTableRecord
100
AcDbLayerTableRecord
  2
A0
 70
     0
 62
     7
  6
CONTINUOUS
  0
LAYER
  5
50C
100
AcDbSymbolTableRecord
100
AcDbLayerTableRecord
  2
A1
 70
     0
 62
     7
  6
CONTINUOUS
  0
LAYER
  5
50D
100
AcDbSymbolTableRecord
100
AcDbLayerTableRecord
  2
A1023
 70
     0
 62
    16
  6
CONTINUOUS
  0
LAYER
  5
50E
100
AcDbSymbolTableRecord
100
AcDbLayerTableRecord
  2
B0
 70
     0
 62
     7
  6
CONTINUOUS
  0
LAYER
  5
50F
100
AcDbSymbolTableRecord
100
AcDbLayerTableRecord
  2
B1
 70
     0
 62
     7
  6
CONTINUOUS
  0
LAYER
  5
510
100
AcDbSymbolTableRecord
100
AcDbLayerTableRecord
  2
B2
 70
     0
 62
     5
  6
CONTINUOUS
  0
LAYER
  5
511
100
AcDbSymbolTableRecord
100
AcDbLayerTableRecord
  2
B3
 70
     0
 62
    14
  6
CONTINUOUS
  0
LAYER
  5
512
100
AcDbSymbolTableRecord
100
AcDbLayerTableRecord
  2
B4
 70
     0
 62
     9
  6
CONTINUOUS
  0
LAYER
  5
513
100
AcDbSymbolTableRecord
100
AcDbLayerTableRecord
  2
B5
 70
     0
 62
     9
  6
CONTINUOUS
  0
LAYER
  5
514
100
AcDbSymbolTableRecord
100
AcDbLayerTableRecord
  2
B6
 70
     0
 62
    10
  6
CONTINUOUS
  0
LAYER
  5
515
100
AcDbSymbolTableRecord
100
AcDbLayerTableRecord
  2
B7
 70
     0
 62
     7
  6
CONTINUOUS
  0
LAYER
  5
516
100
AcDbSymbolTableRecord
100
AcDbLayerTableRecord
  2
B8
 70
     0
 62
    12
  6
CONTINUOUS
  0
LAYER
  5
517
100
AcDbSymbolTableRecord
100
AcDbLayerTableRecord
  2
B9
 70
     0
 62
     8
  6
CONTINUOUS
  0
LAYER
  5
518
100
AcDbSymbolTableRecord
100
AcDbLayerTableRecord
  2
B1023
 70
     0
 62
    16
  6
CONTINUOUS
  0
LAYER
  5
519
100
AcDbSymbolTableRecord
100
AcDbLayerTableRecord
  2
WAKU0
 70
     0
 62
     7
  6
CONTINUOUS
  0
LAYER
  5
51A
100
AcDbSymbolTableRecord
100
AcDbLayerTableRecord
  2
WAKU1023
 70
     0
 62
    16
  6
CONTINUOUS
  0
ENDTAB
  0
TABLE
  2
STYLE
  5
51B
100
AcDbSymbolTable
 70
     4
  0
STYLE
  5
51C
100
AcDbSymbolTableRecord
100
AcDbTextStyleTableRecord
  2
STANDARD
 70
    64
 40
0.0
 41
1.0
 50
0.0
 71
     0
 42
3.140094041824341
  3
TXT
  4

  0
STYLE
  5
51D
100
AcDbSymbolTableRecord
100
AcDbTextStyleTableRecord
  2
ANKTATE
 70
    68
 40
0.0
 41
1.0
 50
0.0
 71
     0
 42
3.140094041824341
  3
TXT
  4

  0
STYLE
  5
AC
100
AcDbSymbolTableRecord
100
AcDbTextStyleTableRecord
  2
KNJYOKO
 70
    64
 40
0.0
 41
1.0
 50
0.0
 71
     0
 42
3.140094041824341
  3
TXT
  4
BIGFONT
  0
STYLE
  5
51E
100
AcDbSymbolTableRecord
100
AcDbTextStyleTableRecord
  2
KNJTATE
 70
    68
 40
0.0
 41
1.0
 50
0.0
 71
     0
 42
3.140094041824341
  3
TXT
  4
BIGFONT
  0
ENDTAB
  0
TABLE
  2
VIEW
  5
51F
100
AcDbSymbolTable
 70
     0
  0
ENDTAB
  0
TABLE
  2
UCS
  5
520
100
AcDbSymbolTable
 70
     0
  0
ENDTAB
  0
TABLE
  2
APPID
  5
521
100
AcDbSymbolTable
 70
     1
  0
APPID
  5
522
100
AcDbSymbolTableRecord
100
AcDbRegAppTableRecord
  2
ACAD
 70
     0
  0
ENDTAB
  0
TABLE
  2
DIMSTYLE
  5
523
100
AcDbSymbolTable
 70
     1
  0
DIMSTYLE
105
524
100
AcDbSymbolTableRecord
100
AcDbDimStyleTableRecord
  2
STANDARD
 70
     0
 41
2.000000
 44
2.000000
 42
0.800000
145
0.661290
140
3.100000
144
1.000000
146
0.903226
340
51C
  0
DIMSTYLE
105
525
100
AcDbSymbolTableRecord
100
AcDbDimStyleTableRecord
  2
MAIN001
 70
     0
 41
2.000000
 44
2.000000
 42
0.800000
145
0.661290
140
3.100000
144
1.000000
146
0.903226
 77
     1
 73
     0
 74
     0
271
     3
275
     1
 78
     8
172
     1
340
51C
  0
DIMSTYLE
105
526
100
AcDbSymbolTableRecord
100
AcDbDimStyleTableRecord
  2
A002
 70
     0
 41
2.000000
 44
2.000000
 42
0.800000
145
0.661290
140
3.100000
144
1.000000
146
0.903226
 77
     1
 73
     0
 74
     0
271
     3
275
     1
 78
     8
172
     1
340
51C
  0
DIMSTYLE
105
527
100
AcDbSymbolTableRecord
100
AcDbDimStyleTableRecord
  2
B003
 70
     0
 41
3.000000
 44
3.000000
 42
1.200000
145
0.607527
140
4.650000
144
1.000000
146
0.903226
 77
     1
 73
     0
 74
     0
271
     3
275
     1
 78
     8
172
     1
340
51C
  0
DIMSTYLE
105
528
100
AcDbSymbolTableRecord
100
AcDbDimStyleTableRecord
  2
WAKU004
 70
     0
 41
2.000000
 44
2.000000
 42
0.800000
145
0.661290
140
3.100000
144
1.000000
146
0.903226
 77
     1
 73
     0
 74
     0
271
     3
275
     1
 78
     8
172
     1
340
51C
  0
ENDTAB
  0
TABLE
  2
BLOCK_RECORD
  5
529
100
AcDbSymbolTable
 70
    56
  0
BLOCK_RECORD
  5
52A
100
AcDbSymbolTableRecord
100
AcDbBlockTableRecord
  2
*MODEL_SPACE
  0
BLOCK_RECORD
  5
52B
100
AcDbSymbolTableRecord
100
AcDbBlockTableRecord
  2
*PAPER_SPACE
  0
BLOCK_RECORD
  5
1
100
AcDbSymbolTableRecord
100
AcDbBlockTableRecord
  2
_NONE
  0
BLOCK_RECORD
  5
4
100
AcDbSymbolTableRecord
100
AcDbBlockTableRecord
  2
_CLOSED
  0
BLOCK_RECORD
  5
B
100
AcDbSymbolTableRecord
100
AcDbBlockTableRecord
  2
_DOT
  0
BLOCK_RECORD
  5
13
100
AcDbSymbolTableRecord
100
AcDbBlockTableRecord
  2
_OPEN
  0
BLOCK_RECORD
  5
19
100
AcDbSymbolTableRecord
100
AcDbBlockTableRecord
  2
_ORIGIN
  0
BLOCK_RECORD
  5
1E
100
AcDbSymbolTableRecord
100
AcDbBlockTableRecord
  2
_OPEN30
  0
BLOCK_RECORD
  5
24
100
AcDbSymbolTableRecord
100
AcDbBlockTableRecord
  2
_BOXFILLED
  0
BLOCK_RECORD
  5
29
100
AcDbSymbolTableRecord
100
AcDbBlockTableRecord
  2
_BOXBLANK
  0
BLOCK_RECORD
  5
31
100
AcDbSymbolTableRecord
100
AcDbBlockTableRecord
  2
_OBLIQUE
  0
BLOCK_RECORD
  5
35
100
AcDbSymbolTableRecord
100
AcDbBlockTableRecord
  2
_OPEN90
  0
BLOCK_RECORD
  5
3B
100
AcDbSymbolTableRecord
100
AcDbBlockTableRecord
  2
_CLOSEDBLANK
  0
BLOCK_RECORD
  5
41
100
AcDbSymbolTableRecord
100
AcDbBlockTableRecord
  2
_DOTBLANK
  0
BLOCK_RECORD
  5
52C
100
AcDbSymbolTableRecord
100
AcDbBlockTableRecord
  2
*D0
  0
BLOCK_RECORD
  5
52D
100
AcDbSymbolTableRecord
100
AcDbBlockTableRecord
  2
*D1
  0
BLOCK_RECORD
  5
52E
100
AcDbSymbolTableRecord
100
AcDbBlockTableRecord
  2
*D2
  0
BLOCK_RECORD
  5
52F
100
AcDbSymbolTableRecord
100
AcDbBlockTableRecord
  2
*D3
  0
BLOCK_RECORD
  5
530
100
AcDbSymbolTableRecord
100
AcDbBlockTableRecord
  2
*D4
  0
BLOCK_RECORD
  5
531
100
AcDbSymbolTableRecord
100
AcDbBlockTableRecord
  2
*D5
  0
BLOCK_RECORD
  5
532
100
AcDbSymbolTableRecord
100
AcDbBlockTableRecord
  2
*D6
  0
BLOCK_RECORD
  5
533
100
AcDbSymbolTableRecord
100
AcDbBlockTableRecord
  2
*D7
  0
BLOCK_RECORD
  5
534
100
AcDbSymbolTableRecord
100
AcDbBlockTableRecord
  2
*D8
  0
BLOCK_RECORD
  5
535
100
AcDbSymbolTableRecord
100
AcDbBlockTableRecord
  2
*D9
  0
BLOCK_RECORD
  5
536
100
AcDbSymbolTableRecord
100
AcDbBlockTableRecord
  2
*D10
  0
BLOCK_RECORD
  5
537
100
AcDbSymbolTableRecord
100
AcDbBlockTableRecord
  2
*D11
  0
BLOCK_RECORD
  5
538
100
AcDbSymbolTableRecord
100
AcDbBlockTableRecord
  2
*D12
  0
BLOCK_RECORD
  5
539
100
AcDbSymbolTableRecord
100
AcDbBlockTableRecord
  2
*D13
  0
BLOCK_RECORD
  5
53A
100
AcDbSymbolTableRecord
100
AcDbBlockTableRecord
  2
*D14
  0
BLOCK_RECORD
  5
53B
100
AcDbSymbolTableRecord
100
AcDbBlockTableRecord
  2
*D15
  0
BLOCK_RECORD
  5
53C
100
AcDbSymbolTableRecord
100
AcDbBlockTableRecord
  2
*D16
  0
BLOCK_RECORD
  5
53D
100
AcDbSymbolTableRecord
100
AcDbBlockTableRecord
  2
*D17
  0
BLOCK_RECORD
  5
53E
100
AcDbSymbolTableRecord
100
AcDbBlockTableRecord
  2
*D18
  0
BLOCK_RECORD
  5
53F
100
AcDbSymbolTableRecord
100
AcDbBlockTableRecord
  2
*D19
  0
BLOCK_RECORD
  5
540
100
AcDbSymbolTableRecord
100
AcDbBlockTableRecord
  2
*D20
  0
BLOCK_RECORD
  5
541
100
AcDbSymbolTableRecord
100
AcDbBlockTableRecord
  2
*D21
  0
BLOCK_RECORD
  5
542
100
AcDbSymbolTableRecord
100
AcDbBlockTableRecord
  2
*D22
  0
BLOCK_RECORD
  5
543
100
AcDbSymbolTableRecord
100
AcDbBlockTableRecord
  2
*D23
  0
BLOCK_RECORD
  5
544
100
AcDbSymbolTableRecord
100
AcDbBlockTableRecord
  2
*D24
  0
BLOCK_RECORD
  5
545
100
AcDbSymbolTableRecord
100
AcDbBlockTableRecord
  2
*D25
  0
BLOCK_RECORD
  5
546
100
AcDbSymbolTableRecord
100
AcDbBlockTableRecord
  2
*D26
  0
BLOCK_RECORD
  5
547
100
AcDbSymbolTableRecord
100
AcDbBlockTableRecord
  2
*D27
  0
BLOCK_RECORD
  5
548
100
AcDbSymbolTableRecord
100
AcDbBlockTableRecord
  2
*D28
  0
BLOCK_RECORD
  5
549
100
AcDbSymbolTableRecord
100
AcDbBlockTableRecord
  2
*D29
  0
BLOCK_RECORD
  5
54A
100
AcDbSymbolTableRecord
100
AcDbBlockTableRecord
  2
*D30
  0
BLOCK_RECORD
  5
54B
100
AcDbSymbolTableRecord
100
AcDbBlockTableRecord
  2
*D31
  0
BLOCK_RECORD
  5
54C
100
AcDbSymbolTableRecord
100
AcDbBlockTableRecord
  2
*D32
  0
BLOCK_RECORD
  5
54D
100
AcDbSymbolTableRecord
100
AcDbBlockTableRecord
  2
*D33
  0
BLOCK_RECORD
  5
54E
100
AcDbSymbolTableRecord
100
AcDbBlockTableRecord
  2
*X0
  0
BLOCK_RECORD
  5
54F
100
AcDbSymbolTableRecord
100
AcDbBlockTableRecord
  2
*X1
  0
BLOCK_RECORD
  5
550
100
AcDbSymbolTableRecord
100
AcDbBlockTableRecord
  2
*X2
  0
BLOCK_RECORD
  5
551
100
AcDbSymbolTableRecord
100
AcDbBlockTableRecord
  2
*X3
  0
BLOCK_RECORD
  5
552
100
AcDbSymbolTableRecord
100
AcDbBlockTableRecord
  2
*X4
  0
BLOCK_RECORD
  5
553
100
AcDbSymbolTableRecord
100
AcDbBlockTableRecord
  2
*X5
  0
BLOCK_RECORD
  5
554
100
AcDbSymbolTableRecord
100
AcDbBlockTableRecord
  2
*X6
  0
BLOCK_RECORD
  5
555
100
AcDbSymbolTableRecord
100
AcDbBlockTableRecord
  2
*X7
  0
BLOCK_RECORD
  5
556
100
AcDbSymbolTableRecord
100
AcDbBlockTableRecord
  2
M0
  0
BLOCK_RECORD
  5
557
100
AcDbSymbolTableRecord
100
AcDbBlockTableRecord
  2
M1
  0
ENDTAB
  0
ENDSEC
  0
SECTION
  2
BLOCKS
  0
BLOCK
  5
558
100
AcDbEntity
  8
0
100
AcDbBlockBegin
  2
*MODEL_SPACE
 70
     0
 10
0.0
 20
0.0
 30
0.0
  3
*MODEL_SPACE
  1

  0
ENDBLK
  5
559
100
AcDbEntity
  8
0
100
AcDbBlockEnd
  0
BLOCK
  5
55A
100
AcDbEntity
  8
0
100
AcDbBlockBegin
  2
*PAPER_SPACE
 70
     0
 10
0.0
 20
0.0
 30
0.0
  3
*PAPER_SPACE
  1

  0
ENDBLK
  5
55B
100
AcDbEntity
  8
0
100
AcDbBlockEnd
  0
BLOCK
  5
2
100
AcDbEntity
  8
0
100
AcDbBlockBegin
  2
_NONE
 70
     0
 10
0.0
 20
0.0
 30
0.0
  3
_NONE
  1

  0
ENDBLK
  5
3
100
AcDbEntity
  8
0
100
AcDbBlockEnd
  0
BLOCK
  5
5
100
AcDbEntity
  8
0
100
AcDbBlockBegin
  2
_CLOSED
 70
     0
 10
0.0
 20
0.0
 30
0.0
  3
_CLOSED
  1

  0
LINE
  5
6
100
AcDbEntity
  8
0
  6
BYBLOCK
 62
     0
100
AcDbLine
 10
-1.0
 20
0.166667
 30
0.0
 11
0.0
 21
0.0
 31
0.0
  0
LINE
  5
7
100
AcDbEntity
  8
0
  6
BYBLOCK
 62
     0
100
AcDbLine
 10
0.0
 20
0.0
 30
0.0
 11
-1.0
 21
-0.166667
 31
0.0
  0
LINE
  5
8
100
AcDbEntity
  8
0
  6
BYBLOCK
 62
     0
100
AcDbLine
 10
-1.0
 20
0.166667
 30
0.0
 11
-1.0
 21
-0.166667
 31
0.0
  0
LINE
  5
9
100
AcDbEntity
  8
0
  6
BYBLOCK
 62
     0
100
AcDbLine
 10
0.0
 20
0.0
 30
0.0
 11
-1.0
 21
0.0
 31
0.0
  0
ENDBLK
  5
A
100
AcDbEntity
  8
0
100
AcDbBlockEnd
  0
BLOCK
  5
C
100
AcDbEntity
  8
0
100
AcDbBlockBegin
  2
_DOT
 70
     0
 10
0.0
 20
0.0
 30
0.0
  3
_DOT
  1

  0
POLYLINE
  5
D
100
AcDbEntity
  8
0
  6
BYBLOCK
 62
     0
100
AcDb2dPolyline
 66
     1
 10
0.0
 20
0.0
 30
0.0
 70
     1
 40
0.5
 41
0.5
  0
VERTEX
  5
E
100
AcDbEntity
  8
0
  6
BYBLOCK
 62
     0
100
AcDbVertex
100
AcDb2dVertex
 10
-0.25
 20
0.0
 30
0.0
 42
1.0
  0
VERTEX
  5
F
100
AcDbEntity
  8
0
  6
BYBLOCK
 62
     0
100
AcDbVertex
100
AcDb2dVertex
 10
0.25
 20
0.0
 30
0.0
 42
1.0
  0
SEQEND
  5
10
100
AcDbEntity
  8
0
  6
BYBLOCK
 62
     0
  0
LINE
  5
11
100
AcDbEntity
  8
0
  6
BYBLOCK
 62
     0
100
AcDbLine
 10
-0.5
 20
0.0
 30
0.0
 11
-1.0
 21
0.0
 31
0.0
  0
ENDBLK
  5
12
100
AcDbEntity
  8
0
100
AcDbBlockEnd
  0
BLOCK
  5
14
100
AcDbEntity
  8
0
100
AcDbBlockBegin
  2
_OPEN
 70
     0
 10
0.0
 20
0.0
 30
0.0
  3
_OPEN
  1

  0
LINE
  5
15
100
AcDbEntity
  8
0
  6
BYBLOCK
 62
     0
100
AcDbLine
 10
-1.0
 20
0.166667
 30
0.0
 11
0.0
 21
0.0
 31
0.0
  0
LINE
  5
16
100
AcDbEntity
  8
0
  6
BYBLOCK
 62
     0
100
AcDbLine
 10
0.0
 20
0.0
 30
0.0
 11
-1.0
 21
-0.166667
 31
0.0
  0
LINE
  5
17
100
AcDbEntity
  8
0
  6
BYBLOCK
 62
     0
100
AcDbLine
 10
0.0
 20
0.0
 30
0.0
 11
-1.0
 21
0.0
 31
0.0
  0
ENDBLK
  5
18
100
AcDbEntity
  8
0
100
AcDbBlockEnd
  0
BLOCK
  5
1A
100
AcDbEntity
  8
0
100
AcDbBlockBegin
  2
_ORIGIN
 70
     0
 10
0.0
 20
0.0
 30
0.0
  3
_ORIGIN
  1

  0
CIRCLE
  5
1B
100
AcDbEntity
  8
0
  6
BYBLOCK
 62
     0
100
AcDbCircle
 10
0.0
 20
0.0
 30
0.0
 40
0.5
  0
LINE
  5
1C
100
AcDbEntity
  8
0
  6
BYBLOCK
 62
     0
100
AcDbLine
 10
0.0
 20
0.0
 30
0.0
 11
-1.0
 21
0.0
 31
0.0
  0
ENDBLK
  5
1D
100
AcDbEntity
  8
0
100
AcDbBlockEnd
  0
BLOCK
  5
1F
100
AcDbEntity
  8
0
100
AcDbBlockBegin
  2
_OPEN30
 70
     0
 10
0.0
 20
0.0
 30
0.0
  3
_OPEN30
  1

  0
LINE
  5
20
100
AcDbEntity
  8
0
  6
BYBLOCK
 62
     0
100
AcDbLine
 10
-1.0
 20
0.267949
 30
0.0
 11
0.0
 21
0.0
 31
0.0
  0
LINE
  5
21
100
AcDbEntity
  8
0
  6
BYBLOCK
 62
     0
100
AcDbLine
 10
0.0
 20
0.0
 30
0.0
 11
-1.0
 21
-0.267949
 31
0.0
  0
LINE
  5
22
100
AcDbEntity
  8
0
  6
BYBLOCK
 62
     0
100
AcDbLine
 10
0.0
 20
0.0
 30
0.0
 11
-1.0
 21
0.0
 31
0.0
  0
ENDBLK
  5
23
100
AcDbEntity
  8
0
100
AcDbBlockEnd
  0
BLOCK
  5
25
100
AcDbEntity
  8
0
100
AcDbBlockBegin
  2
_BOXFILLED
 70
     0
 10
0.0
 20
0.0
 30
0.0
  3
_BOXFILLED
  1

  0
SOLID
  5
26
100
AcDbEntity
  8
0
  6
BYBLOCK
 62
     0
100
AcDbTrace
 10
-0.5
 20
0.5
 30
0.0
 11
0.5
 21
0.5
 31
0.0
 12
-0.5
 22
-0.5
 32
0.0
 13
0.5
 23
-0.5
 33
0.0
  0
LINE
  5
27
100
AcDbEntity
  8
0
  6
BYBLOCK
 62
     0
100
AcDbLine
 10
-0.5
 20
0.0
 30
0.0
 11
-1.0
 21
0.0
 31
0.0
  0
ENDBLK
  5
28
100
AcDbEntity
  8
0
100
AcDbBlockEnd
  0
BLOCK
  5
2A
100
AcDbEntity
  8
0
100
AcDbBlockBegin
  2
_BOXBLANK
 70
     0
 10
0.0
 20
0.0
 30
0.0
  3
_BOXBLANK
  1

  0
LINE
  5
2B
100
AcDbEntity
  8
0
  6
BYBLOCK
 62
     0
100
AcDbLine
 10
-0.5
 20
-0.5
 30
0.0
 11
0.5
 21
-0.5
 31
0.0
  0
LINE
  5
2C
100
AcDbEntity
  8
0
  6
BYBLOCK
 62
     0
100
AcDbLine
 10
0.5
 20
-0.5
 30
0.0
 11
0.5
 21
0.5
 31
0.0
  0
LINE
  5
2D
100
AcDbEntity
  8
0
  6
BYBLOCK
 62
     0
100
AcDbLine
 10
0.5
 20
0.5
 30
0.0
 11
-0.5
 21
0.5
 31
0.0
  0
LINE
  5
2E
100
AcDbEntity
  8
0
  6
BYBLOCK
 62
     0
100
AcDbLine
 10
-0.5
 20
0.5
 30
0.0
 11
-0.5
 21
-0.5
 31
0.0
  0
LINE
  5
2F
100
AcDbEntity
  8
0
  6
BYBLOCK
 62
     0
100
AcDbLine
 10
-0.5
 20
0.0
 30
0.0
 11
-1.0
 21
0.0
 31
0.0
  0
ENDBLK
  5
30
100
AcDbEntity
  8
0
100
AcDbBlockEnd
  0
BLOCK
  5
32
100
AcDbEntity
  8
0
100
AcDbBlockBegin
  2
_OBLIQUE
 70
     0
 10
0.0
 20
0.0
 30
0.0
  3
_OBLIQUE
  1

  0
LINE
  5
33
100
AcDbEntity
  8
0
  6
BYBLOCK
 62
     0
100
AcDbLine
 10
-0.5
 20
-0.5
 30
0.0
 11
0.5
 21
0.5
 31
0.0
  0
ENDBLK
  5
34
100
AcDbEntity
  8
0
100
AcDbBlockEnd
  0
BLOCK
  5
36
100
AcDbEntity
  8
0
100
AcDbBlockBegin
  2
_OPEN90
 70
     0
 10
0.0
 20
0.0
 30
0.0
  3
_OPEN90
  1

  0
LINE
  5
37
100
AcDbEntity
  8
0
  6
BYBLOCK
 62
     0
100
AcDbLine
 10
-0.5
 20
0.5
 30
0.0
 11
0.0
 21
0.0
 31
0.0
  0
LINE
  5
38
100
AcDbEntity
  8
0
  6
BYBLOCK
 62
     0
100
AcDbLine
 10
0.0
 20
0.0
 30
0.0
 11
-0.5
 21
-0.5
 31
0.0
  0
LINE
  5
39
100
AcDbEntity
  8
0
  6
BYBLOCK
 62
     0
100
AcDbLine
 10
0.0
 20
0.0
 30
0.0
 11
-1.0
 21
0.0
 31
0.0
  0
ENDBLK
  5
3A
100
AcDbEntity
  8
0
100
AcDbBlockEnd
  0
BLOCK
  5
3C
100
AcDbEntity
  8
0
100
AcDbBlockBegin
  2
_CLOSEDBLANK
 70
     0
 10
0.0
 20
0.0
 30
0.0
  3
_CLOSEDBLANK
  1

  0
LINE
  5
3D
100
AcDbEntity
  8
0
  6
BYBLOCK
 62
     0
100
AcDbLine
 10
-1.0
 20
0.1666666666666666
 30
0.0
 11
0.0
 21
0.0
 31
0.0
  0
LINE
  5
3E
100
AcDbEntity
  8
0
  6
BYBLOCK
 62
     0
100
AcDbLine
 10
0.0
 20
0.0
 30
0.0
 11
-1.0
 21
-0.1666666666666666
 31
0.0
  0
LINE
  5
3F
100
AcDbEntity
  8
0
  6
BYBLOCK
 62
     0
100
AcDbLine
 10
-1.0
 20
0.1666666666666666
 30
0.0
 11
-1.0
 21
-0.1666666666666666
 31
0.0
  0
ENDBLK
  5
40
100
AcDbEntity
  8
0
100
AcDbBlockEnd
  0
BLOCK
  5
42
100
AcDbEntity
  8
0
100
AcDbBlockBegin
  2
_DOTBLANK
 70
     0
 10
0.0
 20
0.0
 30
0.0
  3
_DOTBLANK
  1

  0
CIRCLE
  5
43
100
AcDbEntity
  8
0
  6
BYBLOCK
 62
     0
100
AcDbCircle
 10
0.0
 20
0.0
 30
0.0
 40
0.5
  0
LINE
  5
44
100
AcDbEntity
  8
0
  6
BYBLOCK
 62
     0
100
AcDbLine
 10
-0.5
 20
0.0
 30
0.0
 11
-1.0
 21
0.0
 31
0.0
  0
ENDBLK
  5
45
100
AcDbEntity
  8
0
100
AcDbBlockEnd
  0
BLOCK
  5
63
100
AcDbEntity
  8
MAIN0
  6
CONTINUOUS
 62
3
100
AcDbBlockBegin
  2
*D0
 70
    65
 10
0.0
 20
0.0
 30
0.0
  0
LINE
  5
64
100
AcDbEntity
  8
MAIN0
  6
BYBLOCK
 62
0
100
AcDbLine
 10
91.19368143849381
 20
268.0930882850090
 30
0.0000000000000000
 11
53.43637063648446
 21
268.0930882850090
 31
0.0000000000000000
  0
LINE
  5
65
100
AcDbEntity
  8
MAIN0
  6
BYBLOCK
 62
0
100
AcDbLine
 10
55.43637063648446
 20
266.0930882850090
 30
0.0000000000000000
 11
55.43637063648446
 21
200.0930882850090
 31
0.0000000000000000
  0
INSERT
  5
66
100
AcDbEntity
  8
MAIN0
  6
BYBLOCK
 62
0
100
AcDbBlockReference
  2
_OPEN
 10
55.43637063648446
 20
268.0930882850090
 30
0.0000000000000000
 41
2.000000000000000
 42
2.000000000000000
 43
2.000000000000000
 50
90.00000000000000
  0
INSERT
  5
67
100
AcDbEntity
  8
MAIN0
  6
BYBLOCK
 62
0
100
AcDbBlockReference
  2
_OPEN
 10
55.43637063648446
 20
198.0930882850090
 30
0.0000000000000000
 41
2.000000000000000
 42
2.000000000000000
 43
2.000000000000000
 50
270.0000000000000
  0
LINE
  5
68
100
AcDbEntity
  8
MAIN0
  6
BYBLOCK
 62
0
100
AcDbLine
 10
91.19368143849383
 20
198.0930882850090
 30
0.0000000000000000
 11
53.43637063648446
 21
198.0930882850090
 31
0.0000000000000000
  0
MTEXT
  5
69
100
AcDbEntity
  8
MAIN0
  6
BYBLOCK
 62
0
100
AcDbMText
 10
53.38637068416817
 20
233.0930882850090
 30
0.0000000000000000
 40
3.099999904632568
 41
0.0000000000000000
 71
     5
 72
     1
  1
\A1;\U+220570
 11
6.123233995736766e-017
 21
1.000000000000000
 31
0.0000000000000000
  7
STANDARD
  0
ENDBLK
  5
6A
100
AcDbEntity
  8
MAIN0
  6
CONTINUOUS
 62
3
100
AcDbBlockEnd
  0
BLOCK
  5
6C
100
AcDbEntity
  8
MAIN0
  6
CONTINUOUS
 62
3
100
AcDbBlockBegin
  2
*D1
 70
    65
 10
0.0
 20
0.0
 30
0.0
  0
LINE
  5
6D
100
AcDbEntity
  8
MAIN0
  6
BYBLOCK
 62
0
100
AcDbLine
 10
72.99368143849381
 20
349.0930882850090
 30
0.0000000000000000
 11
33.43637063648446
 21
349.0930882850090
 31
0.0000000000000000
  0
LINE
  5
6E
100
AcDbEntity
  8
MAIN0
  6
BYBLOCK
 62
0
100
AcDbLine
 10
35.43637063648446
 20
347.0930882850090
 30
0.0000000000000000
 11
35.43637063648446
 21
119.0930882850090
 31
0.0000000000000000
  0
INSERT
  5
6F
100
AcDbEntity
  8
MAIN0
  6
BYBLOCK
 62
0
100
AcDbBlockReference
  2
_OPEN
 10
35.43637063648446
 20
349.0930882850090
 30
0.0000000000000000
 41
2.000000000000000
 42
2.000000000000000
 43
2.000000000000000
 50
90.00000000000000
  0
INSERT
  5
70
100
AcDbEntity
  8
MAIN0
  6
BYBLOCK
 62
0
100
AcDbBlockReference
  2
_OPEN
 10
35.43637063648446
 20
117.0930882850090
 30
0.0000000000000000
 41
2.000000000000000
 42
2.000000000000000
 43
2.000000000000000
 50
270.0000000000000
  0
LINE
  5
71
100
AcDbEntity
  8
MAIN0
  6
BYBLOCK
 62
0
100
AcDbLine
 10
72.99368143849382
 20
117.0930882850090
 30
0.0000000000000000
 11
33.43637063648446
 21
117.0930882850090
 31
0.0000000000000000
  0
MTEXT
  5
72
100
AcDbEntity
  8
MAIN0
  6
BYBLOCK
 62
0
100
AcDbMText
 10
33.38637068416817
 20
233.0930882850090
 30
0.0000000000000000
 40
3.099999904632568
 41
0.0000000000000000
 71
     5
 72
     1
  1
\A1;\U+2205232
 11
6.123233995736766e-017
 21
1.000000000000000
 31
0.0000000000000000
  7
STANDARD
  0
ENDBLK
  5
73
100
AcDbEntity
  8
MAIN0
  6
CONTINUOUS
 62
3
100
AcDbBlockEnd
  0
BLOCK
  5
75
100
AcDbEntity
  8
MAIN0
  6
CONTINUOUS
 62
3
100
AcDbBlockBegin
  2
*D2
 70
    65
 10
0.0
 20
0.0
 30
0.0
  0
LINE
  5
76
100
AcDbEntity
  8
MAIN0
  6
BYBLOCK
 62
0
100
AcDbLine
 10
71.79368145041475
 20
347.8930882969299
 30
0.0000000000000000
 11
71.79368145041475
 21
380.0930882850090
 31
0.0000000000000000
  0
LINE
  5
77
100
AcDbEntity
  8
MAIN0
  6
BYBLOCK
 62
0
100
AcDbLine
 10
73.79368145041475
 20
378.0930882850090
 30
0.0000000000000000
 11
153.7936814504147
 21
378.0930882850090
 31
0.0000000000000000
  0
INSERT
  5
78
100
AcDbEntity
  8
MAIN0
  6
BYBLOCK
 62
0
100
AcDbBlockReference
  2
_OPEN
 10
71.79368145041475
 20
378.0930882850090
 30
0.0000000000000000
 41
2.000000000000000
 42
2.000000000000000
 43
2.000000000000000
 50
180.0000000000000
  0
INSERT
  5
79
100
AcDbEntity
  8
MAIN0
  6
BYBLOCK
 62
0
100
AcDbBlockReference
  2
_OPEN
 10
155.7936814504147
 20
378.0930882850090
 30
0.0000000000000000
 41
2.000000000000000
 42
2.000000000000000
 43
2.000000000000000
 50
0.0000000000000000
  0
LINE
  5
7A
100
AcDbEntity
  8
MAIN0
  6
BYBLOCK
 62
0
100
AcDbLine
 10
155.7936814504147
 20
347.8930882969299
 30
0.0000000000000000
 11
155.7936814504147
 21
380.0930882850090
 31
0.0000000000000000
  0
MTEXT
  5
7B
100
AcDbEntity
  8
MAIN0
  6
BYBLOCK
 62
0
100
AcDbMText
 10
113.7936814504148
 20
380.1430882373253
 30
0.0000000000000000
 40
3.099999904632568
 41
0.0000000000000000
 71
     5
 72
     1
  1
\A1;84
 11
1.000000000000000
 21
0.0000000000000000
 31
0.0000000000000000
  7
STANDARD
  0
ENDBLK
  5
7C
100
AcDbEntity
  8
MAIN0
  6
CONTINUOUS
 62
3
100
AcDbBlockEnd
  0
BLOCK
  5
7E
100
AcDbEntity
  8
MAIN0
  6
CONTINUOUS
 62
3
100
AcDbBlockBegin
  2
*D3
 70
    65
 10
0.0
 20
0.0
 30
0.0
  0
LINE
  5
7F
100
AcDbEntity
  8
MAIN0
  6
BYBLOCK
 62
0
100
AcDbLine
 10
142.7936814504147
 20
347.8930882969299
 30
0.0000000000000000
 11
142.7936814504147
 21
357.5930882850090
 31
0.0000000000000000
  0
LINE
  5
80
100
AcDbEntity
  8
MAIN0
  6
BYBLOCK
 62
0
100
AcDbLine
 10
144.7936814504147
 20
355.5930882850090
 30
0.0000000000000000
 11
153.7936814504147
 21
355.5930882850090
 31
0.0000000000000000
  0
INSERT
  5
81
100
AcDbEntity
  8
MAIN0
  6
BYBLOCK
 62
0
100
AcDbBlockReference
  2
_OPEN
 10
142.7936814504147
 20
355.5930882850090
 30
0.0000000000000000
 41
2.000000000000000
 42
2.000000000000000
 43
2.000000000000000
 50
180.0000000000000
  0
INSERT
  5
82
100
AcDbEntity
  8
MAIN0
  6
BYBLOCK
 62
0
100
AcDbBlockReference
  2
_OPEN
 10
155.7936814504147
 20
355.5930882850090
 30
0.0000000000000000
 41
2.000000000000000
 42
2.000000000000000
 43
2.000000000000000
 50
0.0000000000000000
  0
LINE
  5
83
100
AcDbEntity
  8
MAIN0
  6
BYBLOCK
 62
0
100
AcDbLine
 10
155.7936814504147
 20
347.8930882969299
 30
0.0000000000000000
 11
155.7936814504147
 21
357.5930882850090
 31
0.0000000000000000
  0
MTEXT
  5
84
100
AcDbEntity
  8
MAIN0
  6
BYBLOCK
 62
0
100
AcDbMText
 10
149.2936814504147
 20
357.6430882373253
 30
0.0000000000000000
 40
3.099999904632568
 41
0.0000000000000000
 71
     5
 72
     1
  1
\A1;13
 11
1.000000000000000
 21
0.0000000000000000
 31
0.0000000000000000
  7
STANDARD
  0
ENDBLK
  5
85
100
AcDbEntity
  8
MAIN0
  6
CONTINUOUS
 62
3
100
AcDbBlockEnd
  0
BLOCK
  5
87
100
AcDbEntity
  8
MAIN0
  6
CONTINUOUS
 62
3
100
AcDbBlockBegin
  2
*D4
 70
    65
 10
0.0
 20
0.0
 30
0.0
  0
LINE
  5
88
100
AcDbEntity
  8
MAIN0
  6
BYBLOCK
 62
0
100
AcDbLine
 10
71.59368143849382
 20
343.8430882850090
 30
0.0000000000000000
 11
53.43637063648446
 21
343.8430882850090
 31
0.0000000000000000
  0
LINE
  5
89
100
AcDbEntity
  8
MAIN0
  6
BYBLOCK
 62
0
100
AcDbLine
 10
55.43637063648446
 20
341.8430882850090
 30
0.0000000000000000
 11
55.43637063648446
 21
332.3430882850090
 31
0.0000000000000000
  0
INSERT
  5
8A
100
AcDbEntity
  8
MAIN0
  6
BYBLOCK
 62
0
100
AcDbBlockReference
  2
_OPEN
 10
55.43637063648446
 20
343.8430882850090
 30
0.0000000000000000
 41
2.000000000000000
 42
2.000000000000000
 43
2.000000000000000
 50
90.00000000000000
  0
INSERT
  5
8B
100
AcDbEntity
  8
MAIN0
  6
BYBLOCK
 62
0
100
AcDbBlockReference
  2
_OPEN
 10
55.43637063648446
 20
330.3430882850090
 30
0.0000000000000000
 41
2.000000000000000
 42
2.000000000000000
 43
2.000000000000000
 50
270.0000000000000
  0
LINE
  5
8C
100
AcDbEntity
  8
MAIN0
  6
BYBLOCK
 62
0
100
AcDbLine
 10
71.59368143849382
 20
330.3430882850090
 30
0.0000000000000000
 11
53.43637063648446
 21
330.3430882850090
 31
0.0000000000000000
  0
MTEXT
  5
8D
100
AcDbEntity
  8
MAIN0
  6
BYBLOCK
 62
0
100
AcDbMText
 10
53.38637068416817
 20
337.0930882850090
 30
0.0000000000000000
 40
3.099999904632568
 41
0.0000000000000000
 71
     5
 72
     1
  1
\A1;\U+220513.5
 11
6.123233995736766e-017
 21
1.000000000000000
 31
0.0000000000000000
  7
STANDARD
  0
ENDBLK
  5
8E
100
AcDbEntity
  8
MAIN0
  6
CONTINUOUS
 62
3
100
AcDbBlockEnd
  0
BLOCK
  5
90
100
AcDbEntity
  8
MAIN0
  6
CONTINUOUS
 62
3
100
AcDbBlockBegin
  2
*D5
 70
    65
 10
0.0
 20
0.0
 30
0.0
  0
LINE
  5
91
100
AcDbEntity
  8
MAIN0
  6
BYBLOCK
 62
0
100
AcDbLine
 10
155.9936814623357
 20
347.0930882850090
 30
0.0000000000000000
 11
172.4363706364845
 21
347.0930882850090
 31
0.0000000000000000
  0
LINE
  5
92
100
AcDbEntity
  8
MAIN0
  6
BYBLOCK
 62
0
100
AcDbLine
 10
170.4363706364845
 20
345.0930882850090
 30
0.0000000000000000
 11
170.4363706364845
 21
329.0930882850090
 31
0.0000000000000000
  0
INSERT
  5
93
100
AcDbEntity
  8
MAIN0
  6
BYBLOCK
 62
0
100
AcDbBlockReference
  2
_OPEN
 10
170.4363706364845
 20
347.0930882850090
 30
0.0000000000000000
 41
2.000000000000000
 42
2.000000000000000
 43
2.000000000000000
 50
90.00000000000000
  0
INSERT
  5
94
100
AcDbEntity
  8
MAIN0
  6
BYBLOCK
 62
0
100
AcDbBlockReference
  2
_OPEN
 10
170.4363706364845
 20
327.0930882850090
 30
0.0000000000000000
 41
2.000000000000000
 42
2.000000000000000
 43
2.000000000000000
 50
270.0000000000000
  0
LINE
  5
95
100
AcDbEntity
  8
MAIN0
  6
BYBLOCK
 62
0
100
AcDbLine
 10
155.9936814623357
 20
327.0930882850090
 30
0.0000000000000000
 11
172.4363706364845
 21
327.0930882850090
 31
0.0000000000000000
  0
MTEXT
  5
96
100
AcDbEntity
  8
MAIN0
  6
BYBLOCK
 62
0
100
AcDbMText
 10
168.3863706841682
 20
337.0930882850090
 30
0.0000000000000000
 40
3.099999904632568
 41
0.0000000000000000
 71
     5
 72
     1
  1
\A1;\U+220520
 11
6.123233995736766e-017
 21
1.000000000000000
 31
0.0000000000000000
  7
STANDARD
  0
ENDBLK
  5
97
100
AcDbEntity
  8
MAIN0
  6
CONTINUOUS
 62
3
100
AcDbBlockEnd
  0
BLOCK
  5
99
100
AcDbEntity
  8
MAIN0
  6
CONTINUOUS
 62
3
100
AcDbBlockBegin
  2
*D6
 70
    65
 10
0.0
 20
0.0
 30
0.0
  0
LINE
  5
9A
100
AcDbEntity
  8
MAIN0
  6
BYBLOCK
 62
0
100
AcDbLine
 10
71.79368145041475
 20
168.0930882850090
 30
0.0000000000000000
 11
77.79368145041475
 21
168.0930882850090
 31
0.0000000000000000
  0
INSERT
  5
9B
100
AcDbEntity
  8
MAIN0
  6
BYBLOCK
 62
0
100
AcDbBlockReference
  2
_OPEN
 10
71.79368145041475
 20
168.0930882850090
 30
0.0000000000000000
 41
2.000000000000000
 42
2.000000000000000
 43
2.000000000000000
 50
0.0000000000000000
  0
INSERT
  5
9C
100
AcDbEntity
  8
MAIN0
  6
BYBLOCK
 62
0
100
AcDbBlockReference
  2
_OPEN
 10
77.79368145041475
 20
168.0930882850090
 30
0.0000000000000000
 41
2.000000000000000
 42
2.000000000000000
 43
2.000000000000000
 50
180.0000000000000
  0
LINE
  5
9D
100
AcDbEntity
  8
MAIN0
  6
BYBLOCK
 62
0
100
AcDbLine
 10
69.79368145041475
 20
168.0930882850090
 30
0.0000000000000000
 11
66.88637048773775
 21
168.0930882850090
 31
0.0000000000000000
  0
LINE
  5
9E
100
AcDbEntity
  8
MAIN0
  6
BYBLOCK
 62
0
100
AcDbLine
 10
79.79368145041475
 20
168.0930882850090
 30
0.0000000000000000
 11
80.79368145041475
 21
168.0930882850090
 31
0.0000000000000000
  0
MTEXT
  5
9F
100
AcDbEntity
  8
MAIN0
  6
BYBLOCK
 62
0
100
AcDbMText
 10
67.93637063648446
 20
170.1430882373253
 30
0.0000000000000000
 40
3.099999904632568
 41
0.0000000000000000
 71
     5
 72
     1
  1
\A1;6
 11
1.000000000000000
 21
0.0000000000000000
 31
0.0000000000000000
  7
STANDARD
  0
ENDBLK
  5
A0
100
AcDbEntity
  8
MAIN0
  6
CONTINUOUS
 62
3
100
AcDbBlockEnd
  0
BLOCK
  5
A2
100
AcDbEntity
  8
MAIN0
  6
CONTINUOUS
 62
3
100
AcDbBlockBegin
  2
*D7
 70
    65
 10
0.0
 20
0.0
 30
0.0
  0
LINE
  5
A3
100
AcDbEntity
  8
MAIN0
  6
BYBLOCK
 62
0
100
AcDbLine
 10
101.1240855096462
 20
387.2774028516300
 30
0.0000000000000000
 11
108.0365989187537
 21
380.3648894425269
 31
0.0000000000000000
  0
LINE
  5
A4
100
AcDbEntity
  8
MAIN0
  6
BYBLOCK
 62
0
100
AcDbLine
 10
108.0365989187529
 20
383.1933165672730
 30
0.0000000000000000
 11
113.6934531682435
 21
388.8501708167670
 31
0.0000000000000000
  0
INSERT
  5
A5
100
AcDbEntity
  8
MAIN0
  6
BYBLOCK
 62
0
100
AcDbBlockReference
  2
_OPEN
 10
106.6223853563802
 20
381.7791030048995
 30
0.0000000000000000
 41
2.000000000000000
 42
2.000000000000000
 43
2.000000000000000
 50
225.0000000000169
  0
INSERT
  5
A6
100
AcDbEntity
  8
MAIN0
  6
BYBLOCK
 62
0
100
AcDbBlockReference
  2
_OPEN
 10
115.1076667306162
 20
390.2643843791405
 30
0.0000000000000000
 41
2.000000000000000
 42
2.000000000000000
 43
2.000000000000000
 50
45.00000000001692
  0
LINE
  5
A7
100
AcDbEntity
  8
MAIN0
  6
BYBLOCK
 62
0
100
AcDbLine
 10
115.1076667306162
 20
390.2643843791405
 30
0.0000000000000000
 11
126.7035986194214
 21
401.8603162679525
 31
0.0000000000000000
  0
LINE
  5
A8
100
AcDbEntity
  8
MAIN0
  6
BYBLOCK
 62
0
100
AcDbLine
 10
109.6093668837935
 20
395.7626842259599
 30
0.0000000000000000
 11
116.5218802929897
 21
388.8501708167678
 31
0.0000000000000000
  0
MTEXT
  5
A9
100
AcDbEntity
  8
MAIN0
  6
BYBLOCK
 62
0
100
AcDbMText
 10
119.9684070940624
 20
398.0242624780203
 30
0.0000000000000000
 40
3.099999904632568
 41
0.0000000000000000
 71
     5
 72
     1
  1
\A1;□12\H0.903226x;\S＋0.15^ ＋0.05;
 11
0.7071067811863397
 21
0.7071067811867553
 31
0.0000000000000000
  7
KNJYOKO
  0
ENDBLK
  5
AA
100
AcDbEntity
  8
MAIN0
  6
CONTINUOUS
 62
3
100
AcDbBlockEnd
  0
BLOCK
  5
AD
100
AcDbEntity
  8
MAIN0
  6
CONTINUOUS
 62
3
100
AcDbBlockBegin
  2
*D8
 70
    65
 10
0.0
 20
0.0
 30
0.0
  0
LINE
  5
AE
100
AcDbEntity
  8
MAIN0
  6
BYBLOCK
 62
0
100
AcDbLine
 10
307.3363504402156
 20
138.4760260764008
 30
0.0000000000000000
 11
349.7548194336270
 21
243.8174641856328
 31
0.0000000000000000
  0
INSERT
  5
AF
100
AcDbEntity
  8
MAIN0
  6
BYBLOCK
 62
0
100
AcDbBlockReference
  2
_OPEN
 10
306.5892912206664
 20
136.6207895625065
 30
0.0000000000000000
 41
2.000000000000000
 42
2.000000000000000
 43
2.000000000000000
 50
248.0665371361560
  0
MTEXT
  5
B0
100
AcDbEntity
  8
MAIN0
  6
BYBLOCK
 62
0
100
AcDbMText
 10
314.5112139809792
 20
161.7821687114834
 30
0.0000000000000000
 40
3.099999904632568
 41
0.0000000000000000
 71
     5
 72
     1
  1
\A1;\U+2205208\H0.903226x;\U+00B10.2
 11
0.3735296097745803
 21
0.9276182569471397
 31
0.0000000000000000
  7
STANDARD
  0
ENDBLK
  5
B1
100
AcDbEntity
  8
MAIN0
  6
CONTINUOUS
 62
3
100
AcDbBlockEnd
  0
BLOCK
  5
B8
100
AcDbEntity
  8
MAIN0
  6
CONTINUOUS
 62
3
100
AcDbBlockBegin
  2
*D9
 70
    65
 10
0.0
 20
0.0
 30
0.0
  0
LINE
  5
B9
100
AcDbEntity
  8
MAIN0
  6
BYBLOCK
 62
0
100
AcDbLine
 10
71.79368145041475
 20
347.8930882969299
 30
0.0000000000000000
 11
71.79368145041475
 21
370.1057306890393
 31
0.0000000000000000
  0
LINE
  5
BA
100
AcDbEntity
  8
MAIN0
  6
BYBLOCK
 62
0
100
AcDbLine
 10
73.79368145041475
 20
368.1057306890393
 30
0.0000000000000000
 11
99.29368145041475
 21
368.1057306890393
 31
0.0000000000000000
  0
INSERT
  5
BB
100
AcDbEntity
  8
MAIN0
  6
BYBLOCK
 62
0
100
AcDbBlockReference
  2
_OPEN
 10
71.79368145041475
 20
368.1057306890393
 30
0.0000000000000000
 41
2.000000000000000
 42
2.000000000000000
 43
2.000000000000000
 50
180.0000000000000
  0
INSERT
  5
BC
100
AcDbEntity
  8
MAIN0
  6
BYBLOCK
 62
0
100
AcDbBlockReference
  2
_OPEN
 10
101.2936814504148
 20
368.1057306890393
 30
0.0000000000000000
 41
2.000000000000000
 42
2.000000000000000
 43
2.000000000000000
 50
0.0000000000000000
  0
LINE
  5
BD
100
AcDbEntity
  8
MAIN0
  6
BYBLOCK
 62
0
100
AcDbLine
 10
101.2936814504148
 20
358.8930882969299
 30
0.0000000000000000
 11
101.2936814504148
 21
370.1057306890393
 31
0.0000000000000000
  0
MTEXT
  5
BE
100
AcDbEntity
  8
MAIN0
  6
BYBLOCK
 62
0
100
AcDbMText
 10
86.54368145041475
 20
370.1557306413556
 30
0.0000000000000000
 40
3.099999904632568
 41
0.0000000000000000
 71
     5
 72
     1
  1
\A1;29.5
 11
1.000000000000000
 21
0.0000000000000000
 31
0.0000000000000000
  7
STANDARD
  0
ENDBLK
  5
BF
100
AcDbEntity
  8
MAIN0
  6
CONTINUOUS
 62
3
100
AcDbBlockEnd
  0
BLOCK
  5
C1
100
AcDbEntity
  8
MAIN0
  6
CONTINUOUS
 62
3
100
AcDbBlockBegin
  2
*D10
 70
    65
 10
0.0
 20
0.0
 30
0.0
  0
LINE
  5
C2
100
AcDbEntity
  8
MAIN0
  6
BYBLOCK
 62
0
100
AcDbLine
 10
101.2936814504148
 20
358.8930882969299
 30
0.0000000000000000
 11
101.2936814504148
 21
370.1057306890393
 31
0.0000000000000000
  0
LINE
  5
C3
100
AcDbEntity
  8
MAIN0
  6
BYBLOCK
 62
0
100
AcDbLine
 10
103.2936814504148
 20
368.1057306890393
 30
0.0000000000000000
 11
153.7936814504147
 21
368.1057306890393
 31
0.0000000000000000
  0
INSERT
  5
C4
100
AcDbEntity
  8
MAIN0
  6
BYBLOCK
 62
0
100
AcDbBlockReference
  2
_OPEN
 10
101.2936814504148
 20
368.1057306890393
 30
0.0000000000000000
 41
2.000000000000000
 42
2.000000000000000
 43
2.000000000000000
 50
180.0000000000000
  0
INSERT
  5
C5
100
AcDbEntity
  8
MAIN0
  6
BYBLOCK
 62
0
100
AcDbBlockReference
  2
_OPEN
 10
155.7936814504147
 20
368.1057306890393
 30
0.0000000000000000
 41
2.000000000000000
 42
2.000000000000000
 43
2.000000000000000
 50
0.0000000000000000
  0
LINE
  5
C6
100
AcDbEntity
  8
MAIN0
  6
BYBLOCK
 62
0
100
AcDbLine
 10
155.7936814504147
 20
347.8930882969299
 30
0.0000000000000000
 11
155.7936814504147
 21
370.1057306890393
 31
0.0000000000000000
  0
MTEXT
  5
C7
100
AcDbEntity
  8
MAIN0
  6
BYBLOCK
 62
0
100
AcDbMText
 10
128.5436814504147
 20
370.1557306413556
 30
0.0000000000000000
 40
3.099999904632568
 41
0.0000000000000000
 71
     5
 72
     1
  1
\A1;54.5
 11
1.000000000000000
 21
0.0000000000000000
 31
0.0000000000000000
  7
STANDARD
  0
ENDBLK
  5
C8
100
AcDbEntity
  8
MAIN0
  6
CONTINUOUS
 62
3
100
AcDbBlockEnd
  0
BLOCK
  5
E0
100
AcDbEntity
  8
MAIN0
  6
CONTINUOUS
 62
3
100
AcDbBlockBegin
  2
*D11
 70
    65
 10
0.0
 20
0.0
 30
0.0
  0
LINE
  5
E1
100
AcDbEntity
  8
MAIN0
  6
BYBLOCK
 62
0
100
AcDbLine
 10
205.5936814623357
 20
249.0930882850090
 30
0.0000000000000000
 11
217.4363706364845
 21
249.0930882850090
 31
0.0000000000000000
  0
LINE
  5
E2
100
AcDbEntity
  8
MAIN0
  6
BYBLOCK
 62
0
100
AcDbLine
 10
215.4363706364845
 20
247.0930882850090
 30
0.0000000000000000
 11
215.4363706364845
 21
219.0930882850090
 31
0.0000000000000000
  0
INSERT
  5
E3
100
AcDbEntity
  8
MAIN0
  6
BYBLOCK
 62
0
100
AcDbBlockReference
  2
_OPEN
 10
215.4363706364845
 20
249.0930882850090
 30
0.0000000000000000
 41
2.000000000000000
 42
2.000000000000000
 43
2.000000000000000
 50
90.00000000000000
  0
INSERT
  5
E4
100
AcDbEntity
  8
MAIN0
  6
BYBLOCK
 62
0
100
AcDbBlockReference
  2
_OPEN
 10
215.4363706364845
 20
217.0930882850090
 30
0.0000000000000000
 41
2.000000000000000
 42
2.000000000000000
 43
2.000000000000000
 50
270.0000000000000
  0
LINE
  5
E5
100
AcDbEntity
  8
MAIN0
  6
BYBLOCK
 62
0
100
AcDbLine
 10
205.5936814623357
 20
217.0930882850090
 30
0.0000000000000000
 11
217.4363706364845
 21
217.0930882850090
 31
0.0000000000000000
  0
MTEXT
  5
E6
100
AcDbEntity
  8
MAIN0
  6
BYBLOCK
 62
0
100
AcDbMText
 10
213.3863706841682
 20
233.0930882850090
 30
0.0000000000000000
 40
3.099999904632568
 41
0.0000000000000000
 71
     5
 72
     1
  1
\A1;32
 11
6.123233995736766e-017
 21
1.000000000000000
 31
0.0000000000000000
  7
STANDARD
  0
ENDBLK
  5
E7
100
AcDbEntity
  8
MAIN0
  6
CONTINUOUS
 62
3
100
AcDbBlockEnd
  0
BLOCK
  5
E9
100
AcDbEntity
  8
MAIN0
  6
CONTINUOUS
 62
3
100
AcDbBlockBegin
  2
*D12
 70
    65
 10
0.0
 20
0.0
 30
0.0
  0
LINE
  5
EA
100
AcDbEntity
  8
MAIN0
  6
BYBLOCK
 62
0
100
AcDbLine
 10
205.8904482360582
 20
205.0931273091401
 30
0.0000000000000000
 11
217.4363706364845
 21
205.0931273091287
 31
0.0000000000000000
  0
LINE
  5
EB
100
AcDbEntity
  8
MAIN0
  6
BYBLOCK
 62
0
100
AcDbLine
 10
215.4363706364845
 20
203.0931273091306
 30
0.0000000000000000
 11
215.4363706364845
 21
117.0931273091681
 31
0.0000000000000000
  0
INSERT
  5
EC
100
AcDbEntity
  8
MAIN0
  6
BYBLOCK
 62
0
100
AcDbBlockReference
  2
_OPEN
 10
215.4363706364845
 20
205.0931273091306
 30
0.0000000000000000
 41
2.000000000000000
 42
2.000000000000000
 43
2.000000000000000
 50
90.00000000000000
  0
INSERT
  5
ED
100
AcDbEntity
  8
MAIN0
  6
BYBLOCK
 62
0
100
AcDbBlockReference
  2
_OPEN
 10
215.4363706364845
 20
115.0931273091681
 30
0.0000000000000000
 41
2.000000000000000
 42
2.000000000000000
 43
2.000000000000000
 50
270.0000000000000
  0
LINE
  5
EE
100
AcDbEntity
  8
MAIN0
  6
BYBLOCK
 62
0
100
AcDbLine
 10
181.3904482359584
 20
115.0931273091681
 30
0.0000000000000000
 11
217.4363706364845
 21
115.0931273091681
 31
0.0000000000000000
  0
MTEXT
  5
EF
100
AcDbEntity
  8
MAIN0
  6
BYBLOCK
 62
0
100
AcDbMText
 10
213.3863706841682
 20
160.0931273091493
 30
0.0000000000000000
 40
3.099999904632568
 41
0.0000000000000000
 71
     5
 72
     1
  1
\A1;90
 11
6.123233995736766e-017
 21
1.000000000000000
 31
0.0000000000000000
  7
STANDARD
  0
ENDBLK
  5
F0
100
AcDbEntity
  8
MAIN0
  6
CONTINUOUS
 62
3
100
AcDbBlockEnd
  0
BLOCK
  5
F2
100
AcDbEntity
  8
MAIN0
  6
CONTINUOUS
 62
3
100
AcDbBlockBegin
  2
*D13
 70
    65
 10
0.0
 20
0.0
 30
0.0
  0
LINE
  5
F3
100
AcDbEntity
  8
MAIN0
  6
BYBLOCK
 62
0
100
AcDbLine
 10
157.7936814504147
 20
258.0930882850090
 30
0.0000000000000000
 11
203.7936814504147
 21
258.0930882850090
 31
0.0000000000000000
  0
INSERT
  5
F4
100
AcDbEntity
  8
MAIN0
  6
BYBLOCK
 62
0
100
AcDbBlockReference
  2
_OPEN
 10
155.7936814504147
 20
258.0930882850090
 30
0.0000000000000000
 41
2.000000000000000
 42
2.000000000000000
 43
2.000000000000000
 50
180.0000000000000
  0
INSERT
  5
F5
100
AcDbEntity
  8
MAIN0
  6
BYBLOCK
 62
0
100
AcDbBlockReference
  2
_OPEN
 10
205.7936814504147
 20
258.0930882850090
 30
0.0000000000000000
 41
2.000000000000000
 42
2.000000000000000
 43
2.000000000000000
 50
0.0000000000000000
  0
LINE
  5
F6
100
AcDbEntity
  8
MAIN0
  6
BYBLOCK
 62
0
100
AcDbLine
 10
205.7936814504147
 20
248.8930882969299
 30
0.0000000000000000
 11
205.7936814504147
 21
260.0930882850090
 31
0.0000000000000000
  0
MTEXT
  5
F7
100
AcDbEntity
  8
MAIN0
  6
BYBLOCK
 62
0
100
AcDbMText
 10
180.7936814504147
 20
260.1430882373253
 30
0.0000000000000000
 40
3.099999904632568
 41
0.0000000000000000
 71
     5
 72
     1
  1
\A1;50
 11
1.000000000000000
 21
0.0000000000000000
 31
0.0000000000000000
  7
STANDARD
  0
ENDBLK
  5
F8
100
AcDbEntity
  8
MAIN0
  6
CONTINUOUS
 62
3
100
AcDbBlockEnd
  0
BLOCK
  5
117
100
AcDbEntity
  8
MAIN0
  6
CONTINUOUS
 62
3
100
AcDbBlockBegin
  2
*D14
 70
    65
 10
0.0
 20
0.0
 30
0.0
  0
LINE
  5
118
100
AcDbEntity
  8
MAIN0
  6
BYBLOCK
 62
0
100
AcDbLine
 10
155.7936814504147
 20
347.8930882969299
 30
0.0000000000000000
 11
155.7936814504147
 21
362.5930882850090
 31
0.0000000000000000
  0
LINE
  5
119
100
AcDbEntity
  8
MAIN0
  6
BYBLOCK
 62
0
100
AcDbLine
 10
153.7936814504147
 20
360.5930882850090
 30
0.0000000000000000
 11
140.7936814503043
 21
360.5930882850090
 31
0.0000000000000000
  0
INSERT
  5
11A
100
AcDbEntity
  8
MAIN0
  6
BYBLOCK
 62
0
100
AcDbBlockReference
  2
_OPEN
 10
155.7936814504147
 20
360.5930882850090
 30
0.0000000000000000
 41
2.000000000000000
 42
2.000000000000000
 43
2.000000000000000
 50
360.0000000000000
  0
INSERT
  5
11B
100
AcDbEntity
  8
MAIN0
  6
BYBLOCK
 62
0
100
AcDbBlockReference
  2
_OPEN
 10
138.7936814503043
 20
360.5930882850090
 30
0.0000000000000000
 41
2.000000000000000
 42
2.000000000000000
 43
2.000000000000000
 50
180.0000000000000
  0
LINE
  5
11C
100
AcDbEntity
  8
MAIN0
  6
BYBLOCK
 62
0
100
AcDbLine
 10
138.7936814503043
 20
353.8930882968676
 30
0.0000000000000000
 11
138.7936814503043
 21
362.5930882850090
 31
0.0000000000000000
  0
MTEXT
  5
11D
100
AcDbEntity
  8
MAIN0
  6
BYBLOCK
 62
0
100
AcDbMText
 10
147.2936814503595
 20
362.6430882373253
 30
0.0000000000000000
 40
3.099999904632568
 41
0.0000000000000000
 71
     5
 72
     1
  1
\A1;17
 11
1.000000000000000
 21
0.0000000000000000
 31
0.0000000000000000
  7
STANDARD
  0
ENDBLK
  5
11E
100
AcDbEntity
  8
MAIN0
  6
CONTINUOUS
 62
3
100
AcDbBlockEnd
  0
BLOCK
  5
137
100
AcDbEntity
  8
MAIN0
  6
CONTINUOUS
 62
3
100
AcDbBlockBegin
  2
*D15
 70
    65
 10
0.0
 20
0.0
 30
0.0
  0
LINE
  5
138
100
AcDbEntity
  8
MAIN0
  6
BYBLOCK
 62
0
100
AcDbLine
 10
70.99368143849380
 20
138.0930882850090
 30
0.0000000000000000
 11
43.43637063648446
 21
138.0930882850090
 31
0.0000000000000000
  0
LINE
  5
139
100
AcDbEntity
  8
MAIN0
  6
BYBLOCK
 62
0
100
AcDbLine
 10
45.43637063648446
 20
140.0930882850090
 30
0.0000000000000000
 11
45.43637063648446
 21
326.0930882850090
 31
0.0000000000000000
  0
INSERT
  5
13A
100
AcDbEntity
  8
MAIN0
  6
BYBLOCK
 62
0
100
AcDbBlockReference
  2
_OPEN
 10
45.43637063648446
 20
138.0930882850090
 30
0.0000000000000000
 41
2.000000000000000
 42
2.000000000000000
 43
2.000000000000000
 50
270.0000000000000
  0
INSERT
  5
13B
100
AcDbEntity
  8
MAIN0
  6
BYBLOCK
 62
0
100
AcDbBlockReference
  2
_OPEN
 10
45.43637063648446
 20
328.0930882850090
 30
0.0000000000000000
 41
2.000000000000000
 42
2.000000000000000
 43
2.000000000000000
 50
90.00000000000000
  0
LINE
  5
13C
100
AcDbEntity
  8
MAIN0
  6
BYBLOCK
 62
0
100
AcDbLine
 10
70.99368143849380
 20
328.0930882850090
 30
0.0000000000000000
 11
43.43637063648446
 21
328.0930882850090
 31
0.0000000000000000
  0
MTEXT
  5
13D
100
AcDbEntity
  8
MAIN0
  6
BYBLOCK
 62
0
100
AcDbMText
 10
43.38637068416817
 20
233.0930882663825
 30
0.0000000000000000
 40
3.099999904632568
 41
0.0000000000000000
 71
     5
 72
     1
  1
\A1;\U+2205190H6\H0.903226x;\S＋0.029^ 　0;
 11
6.123233995736766e-017
 21
1.000000000000000
 31
0.0000000000000000
  7
KNJYOKO
  0
ENDBLK
  5
13E
100
AcDbEntity
  8
MAIN0
  6
CONTINUOUS
 62
3
100
AcDbBlockEnd
  0
BLOCK
  5
140
100
AcDbEntity
  8
MAIN0
  6
CONTINUOUS
 62
3
100
AcDbBlockBegin
  2
*D16
 70
    65
 10
0.0
 20
0.0
 30
0.0
  0
LINE
  5
141
100
AcDbEntity
  8
MAIN0
  6
BYBLOCK
 62
0
100
AcDbLine
 10
284.0157130273182
 20
126.7093886743482
 30
0.0000000000000000
 11
279.4363706351369
 21
118.7777349858496
 31
0.0000000000000000
  0
LINE
  5
142
100
AcDbEntity
  8
MAIN0
  6
BYBLOCK
 62
0
100
AcDbLine
 10
345.4363706364845
 20
107.2930882730881
 30
0.0000000000000000
 11
345.4363706364844
 21
101.0930882850090
 31
0.0000000000000000
  0
ARC
  5
143
100
AcDbEntity
  8
MAIN0
  6
BYBLOCK
 62
0
100
AcDbCircle
 10
345.4363706364845
 20
233.0930882875398
 30
0.0000000000000000
 40
130.0000000025308
100
AcDbArc
 50
240.8814735309122
 51
269.1185264690466
  0
INSERT
  5
144
100
AcDbEntity
  8
MAIN0
  6
BYBLOCK
 62
0
100
AcDbBlockReference
  2
_OPEN
 10
280.4363706351381
 20
120.5097857934178
 30
0.0000000000000000
 41
2.000000000000000
 42
2.000000000000000
 43
2.000000000000000
 50
149.9999999999589
  0
INSERT
  5
145
100
AcDbEntity
  8
MAIN0
  6
BYBLOCK
 62
0
100
AcDbBlockReference
  2
_OPEN
 10
345.4363706364844
 20
103.0930882850090
 30
0.0000000000000000
 41
2.000000000000000
 42
2.000000000000000
 43
2.000000000000000
 50
359.9999999999999
  0
MTEXT
  5
146
100
AcDbEntity
  8
MAIN0
  6
BYBLOCK
 62
0
100
AcDbMText
 10
312.3204738025760
 20
109.5028787653619
 30
0.0000000000000000
 40
3.099999904632568
 41
0.0000000000000000
 71
     5
 72
     1
  1
\A1;30\U+00B0
 11
0.9659258262889749
 21
-0.2588190451028690
 31
0.0000000000000000
  7
STANDARD
  0
ENDBLK
  5
147
100
AcDbEntity
  8
MAIN0
  6
CONTINUOUS
 62
3
100
AcDbBlockEnd
  0
BLOCK
  5
149
100
AcDbEntity
  8
MAIN0
  6
CONTINUOUS
 62
3
100
AcDbBlockBegin
  2
*D17
 70
    65
 10
0.0
 20
0.0
 30
0.0
  0
LINE
  5
14A
100
AcDbEntity
  8
MAIN0
  6
BYBLOCK
 62
0
100
AcDbLine
 10
345.4363706364845
 20
358.8930882969299
 30
0.0000000000000000
 11
345.4363706364845
 21
365.0930882850090
 31
0.0000000000000000
  0
LINE
  5
14B
100
AcDbEntity
  8
MAIN0
  6
BYBLOCK
 62
0
100
AcDbLine
 10
324.9835660616316
 20
289.2867070172595
 30
0.0000000000000000
 11
300.2897117169232
 21
357.1325142286480
 31
0.0000000000000000
  0
ARC
  5
14C
100
AcDbEntity
  8
MAIN0
  6
BYBLOCK
 62
0
100
AcDbCircle
 10
345.4363706364844
 20
233.0930882833324
 30
0.0000000000000000
 40
130.0000000016765
100
AcDbArc
 50
90.88147353095910
 51
109.1185264690407
  0
INSERT
  5
14D
100
AcDbEntity
  8
MAIN0
  6
BYBLOCK
 62
0
100
AcDbBlockReference
  2
_OPEN
 10
345.4363706364845
 20
363.0930882850090
 30
0.0000000000000000
 41
2.000000000000000
 42
2.000000000000000
 43
2.000000000000000
 50
360.0000000000000
  0
INSERT
  5
14E
100
AcDbEntity
  8
MAIN0
  6
BYBLOCK
 62
0
100
AcDbBlockReference
  2
_OPEN
 10
300.9737520035745
 20
355.2531289870761
 30
0.0000000000000000
 41
2.000000000000000
 42
2.000000000000000
 43
2.000000000000000
 50
199.9999999999998
  0
MTEXT
  5
14F
100
AcDbEntity
  8
MAIN0
  6
BYBLOCK
 62
0
100
AcDbMText
 10
322.5061287835556
 20
363.1369520232863
 30
0.0000000000000000
 40
3.099999904632568
 41
0.0000000000000000
 71
     5
 72
     1
  1
\A1;20\U+00B0
 11
0.9848077530122084
 21
0.1736481776669284
 31
0.0000000000000000
  7
STANDARD
  0
ENDBLK
  5
150
100
AcDbEntity
  8
MAIN0
  6
CONTINUOUS
 62
3
100
AcDbBlockEnd
  0
BLOCK
  5
152
100
AcDbEntity
  8
MAIN0
  6
CONTINUOUS
 62
3
100
AcDbBlockBegin
  2
*D18
 70
    65
 10
0.0
 20
0.0
 30
0.0
  0
LINE
  5
153
100
AcDbEntity
  8
MAIN0
  6
BYBLOCK
 62
0
100
AcDbLine
 10
266.4754952570118
 20
138.9911813792446
 30
0.0000000000000000
 11
254.1605300596523
 21
124.3147773626401
 31
0.0000000000000000
  0
LINE
  5
154
100
AcDbEntity
  8
MAIN0
  6
BYBLOCK
 62
0
100
AcDbLine
 10
345.4363706364845
 20
107.2930882730881
 30
0.0000000000000000
 11
345.4363706364845
 21
91.09308828500897
 31
0.0000000000000000
  0
ARC
  5
155
100
AcDbEntity
  8
MAIN0
  6
BYBLOCK
 62
0
100
AcDbCircle
 10
345.4363706364845
 20
233.0930882869778
 30
0.0000000000000000
 40
140.0000000019688
100
AcDbArc
 50
230.8185111358486
 51
269.1814888641104
  0
INSERT
  5
156
100
AcDbEntity
  8
MAIN0
  6
BYBLOCK
 62
0
100
AcDbBlockReference
  2
_OPEN
 10
255.4461052790265
 20
125.8468662488772
 30
0.0000000000000000
 41
2.000000000000000
 42
2.000000000000000
 43
2.000000000000000
 50
139.9999999999590
  0
INSERT
  5
157
100
AcDbEntity
  8
MAIN0
  6
BYBLOCK
 62
0
100
AcDbBlockReference
  2
_OPEN
 10
345.4363706364845
 20
93.09308828500897
 30
0.0000000000000000
 41
2.000000000000000
 42
2.000000000000000
 43
2.000000000000000
 50
360.0000000000000
  0
MTEXT
  5
158
100
AcDbEntity
  8
MAIN0
  6
BYBLOCK
 62
0
100
AcDbMText
 10
298.2546918476798
 20
103.4624912029205
 30
0.0000000000000000
 40
3.099999904632568
 41
0.0000000000000000
 71
     5
 72
     1
  1
\A1;40\U+00B0
 11
0.9396926207857858
 21
-0.3420201433260058
 31
0.0000000000000000
  7
STANDARD
  0
ENDBLK
  5
159
100
AcDbEntity
  8
MAIN0
  6
CONTINUOUS
 62
3
100
AcDbBlockEnd
  0
BLOCK
  5
15B
100
AcDbEntity
  8
MAIN0
  6
CONTINUOUS
 62
3
100
AcDbBlockBegin
  2
*D19
 70
    65
 10
0.0
 20
0.0
 30
0.0
  0
LINE
  5
15C
100
AcDbEntity
  8
MAIN0
  6
BYBLOCK
 62
0
100
AcDbLine
 10
293.4463706365135
 20
22.29308827296057
 30
0.0000000000000000
 11
293.4463706365135
 21
16.09308828500897
 31
0.0000000000000000
  0
LINE
  5
15D
100
AcDbEntity
  8
MAIN0
  6
BYBLOCK
 62
0
100
AcDbLine
 10
295.4463706365135
 20
18.09308828500897
 30
0.0000000000000000
 11
318.4363706365135
 21
18.09308828500897
 31
0.0000000000000000
  0
INSERT
  5
15E
100
AcDbEntity
  8
MAIN0
  6
BYBLOCK
 62
0
100
AcDbBlockReference
  2
_OPEN
 10
293.4463706365135
 20
18.09308828500897
 30
0.0000000000000000
 41
2.000000000000000
 42
2.000000000000000
 43
2.000000000000000
 50
180.0000000000000
  0
INSERT
  5
15F
100
AcDbEntity
  8
MAIN0
  6
BYBLOCK
 62
0
100
AcDbBlockReference
  2
_OPEN
 10
320.4363706365135
 20
18.09308828500897
 30
0.0000000000000000
 41
2.000000000000000
 42
2.000000000000000
 43
2.000000000000000
 50
0.0000000000000000
  0
LINE
  5
160
100
AcDbEntity
  8
MAIN0
  6
BYBLOCK
 62
0
100
AcDbLine
 10
320.4363706365135
 20
22.29308827294409
 30
0.0000000000000000
 11
320.4363706365135
 21
16.09308828500897
 31
0.0000000000000000
  0
MTEXT
  5
161
100
AcDbEntity
  8
MAIN0
  6
BYBLOCK
 62
0
100
AcDbMText
 10
306.9413706365135
 20
20.14308823732526
 30
0.0000000000000000
 40
3.099999904632568
 41
0.0000000000000000
 71
     5
 72
     1
  1
\A1;26.99
 11
1.000000000000000
 21
0.0000000000000000
 31
0.0000000000000000
  7
STANDARD
  0
ENDBLK
  5
162
100
AcDbEntity
  8
MAIN0
  6
CONTINUOUS
 62
3
100
AcDbBlockEnd
  0
BLOCK
  5
164
100
AcDbEntity
  8
MAIN0
  6
CONTINUOUS
 62
3
100
AcDbBlockBegin
  2
*D20
 70
    65
 10
0.0
 20
0.0
 30
0.0
  0
LINE
  5
165
100
AcDbEntity
  8
MAIN0
  6
BYBLOCK
 62
0
100
AcDbLine
 10
320.4363706365135
 20
22.29308827294409
 30
0.0000000000000000
 11
320.4363706365135
 21
16.09308828500897
 31
0.0000000000000000
  0
LINE
  5
166
100
AcDbEntity
  8
MAIN0
  6
BYBLOCK
 62
0
100
AcDbLine
 10
322.4363706365135
 20
18.09308828500897
 30
0.0000000000000000
 11
345.4263706365134
 21
18.09308828500897
 31
0.0000000000000000
  0
INSERT
  5
167
100
AcDbEntity
  8
MAIN0
  6
BYBLOCK
 62
0
100
AcDbBlockReference
  2
_OPEN
 10
320.4363706365135
 20
18.09308828500897
 30
0.0000000000000000
 41
2.000000000000000
 42
2.000000000000000
 43
2.000000000000000
 50
180.0000000000000
  0
INSERT
  5
168
100
AcDbEntity
  8
MAIN0
  6
BYBLOCK
 62
0
100
AcDbBlockReference
  2
_OPEN
 10
347.4263706365134
 20
18.09308828500897
 30
0.0000000000000000
 41
2.000000000000000
 42
2.000000000000000
 43
2.000000000000000
 50
0.0000000000000000
  0
LINE
  5
169
100
AcDbEntity
  8
MAIN0
  6
BYBLOCK
 62
0
100
AcDbLine
 10
347.4263706365134
 20
22.29308827293261
 30
0.0000000000000000
 11
347.4263706365134
 21
16.09308828500897
 31
0.0000000000000000
  0
MTEXT
  5
16A
100
AcDbEntity
  8
MAIN0
  6
BYBLOCK
 62
0
100
AcDbMText
 10
333.9313706365135
 20
20.14308823732526
 30
0.0000000000000000
 40
3.099999904632568
 41
0.0000000000000000
 71
     5
 72
     1
  1
\A1;26.99
 11
1.000000000000000
 21
0.0000000000000000
 31
0.0000000000000000
  7
STANDARD
  0
ENDBLK
  5
16B
100
AcDbEntity
  8
MAIN0
  6
CONTINUOUS
 62
3
100
AcDbBlockEnd
  0
BLOCK
  5
2B3
100
AcDbEntity
  8
MAIN0
  6
CONTINUOUS
 62
3
100
AcDbBlockBegin
  2
*D21
 70
    65
 10
0.0
 20
0.0
 30
0.0
  0
LINE
  5
2B4
100
AcDbEntity
  8
MAIN0
  6
BYBLOCK
 62
0
100
AcDbLine
 10
275.4363706364853
 20
77.39308829692993
 30
0.0000000000000000
 11
275.4363706364853
 21
90.09308828500897
 31
0.0000000000000000
  0
LINE
  5
2B5
100
AcDbEntity
  8
MAIN0
  6
BYBLOCK
 62
0
100
AcDbLine
 10
277.4363706364853
 20
88.09308828500897
 30
0.0000000000000000
 11
373.4363706364853
 21
88.09308828500897
 31
0.0000000000000000
  0
INSERT
  5
2B6
100
AcDbEntity
  8
MAIN0
  6
BYBLOCK
 62
0
100
AcDbBlockReference
  2
_OPEN
 10
275.4363706364853
 20
88.09308828500897
 30
0.0000000000000000
 41
2.000000000000000
 42
2.000000000000000
 43
2.000000000000000
 50
180.0000000000000
  0
INSERT
  5
2B7
100
AcDbEntity
  8
MAIN0
  6
BYBLOCK
 62
0
100
AcDbBlockReference
  2
_OPEN
 10
375.4363706364853
 20
88.09308828500897
 30
0.0000000000000000
 41
2.000000000000000
 42
2.000000000000000
 43
2.000000000000000
 50
0.0000000000000000
  0
LINE
  5
2B8
100
AcDbEntity
  8
MAIN0
  6
BYBLOCK
 62
0
100
AcDbLine
 10
375.4363706364853
 20
77.39308829700832
 30
0.0000000000000000
 11
375.4363706364853
 21
90.09308828500897
 31
0.0000000000000000
  0
MTEXT
  5
2B9
100
AcDbEntity
  8
MAIN0
  6
BYBLOCK
 62
0
100
AcDbMText
 10
325.4363706364853
 20
90.14308823732526
 30
0.0000000000000000
 40
3.099999904632568
 41
0.0000000000000000
 71
     5
 72
     1
  1
\A1;100
 11
1.000000000000000
 21
0.0000000000000000
 31
0.0000000000000000
  7
STANDARD
  0
ENDBLK
  5
2BA
100
AcDbEntity
  8
MAIN0
  6
CONTINUOUS
 62
3
100
AcDbBlockEnd
  0
BLOCK
  5
2BC
100
AcDbEntity
  8
MAIN0
  6
CONTINUOUS
 62
3
100
AcDbBlockBegin
  2
*D22
 70
    65
 10
0.0
 20
0.0
 30
0.0
  0
LINE
  5
2BD
100
AcDbEntity
  8
MAIN0
  6
BYBLOCK
 62
0
100
AcDbLine
 10
330.4513706484319
 20
30.09308828505260
 30
0.0000000000000000
 11
387.4363706364845
 21
30.09308828513034
 31
0.0000000000000000
  0
LINE
  5
2BE
100
AcDbEntity
  8
MAIN0
  6
BYBLOCK
 62
0
100
AcDbLine
 10
385.4363706364845
 20
32.09308828512761
 30
0.0000000000000000
 11
385.4363706364845
 21
76.09308828508623
 31
0.0000000000000000
  0
INSERT
  5
2BF
100
AcDbEntity
  8
MAIN0
  6
BYBLOCK
 62
0
100
AcDbBlockReference
  2
_OPEN
 10
385.4363706364845
 20
30.09308828512761
 30
0.0000000000000000
 41
2.000000000000000
 42
2.000000000000000
 43
2.000000000000000
 50
270.0000000000000
  0
INSERT
  5
2C0
100
AcDbEntity
  8
MAIN0
  6
BYBLOCK
 62
0
100
AcDbBlockReference
  2
_OPEN
 10
385.4363706364845
 20
78.09308828508623
 30
0.0000000000000000
 41
2.000000000000000
 42
2.000000000000000
 43
2.000000000000000
 50
90.00000000000000
  0
LINE
  5
2C1
100
AcDbEntity
  8
MAIN0
  6
BYBLOCK
 62
0
100
AcDbLine
 10
374.7363706484054
 20
78.09308828508623
 30
0.0000000000000000
 11
387.4363706364845
 21
78.09308828508623
 31
0.0000000000000000
  0
MTEXT
  5
2C2
100
AcDbEntity
  8
MAIN0
  6
BYBLOCK
 62
0
100
AcDbMText
 10
383.3863706841682
 20
54.09308828510692
 30
0.0000000000000000
 40
3.099999904632568
 41
0.0000000000000000
 71
     5
 72
     1
  1
\A1;48
 11
6.123233995736766e-017
 21
1.000000000000000
 31
0.0000000000000000
  7
STANDARD
  0
ENDBLK
  5
2C3
100
AcDbEntity
  8
MAIN0
  6
CONTINUOUS
 62
3
100
AcDbBlockEnd
  0
BLOCK
  5
31B
100
AcDbEntity
  8
A0
  6
CONTINUOUS
 62
3
100
AcDbBlockBegin
  2
*D23
 70
    65
 10
0.0
 20
0.0
 30
0.0
  0
LINE
  5
31C
100
AcDbEntity
  8
A0
  6
BYBLOCK
 62
0
100
AcDbLine
 10
505.0000000000000
 20
375.8000000119209
 30
0.0000000000000000
 11
505.0000000000000
 21
379.5000000000000
 31
0.0000000000000000
  0
LINE
  5
31D
100
AcDbEntity
  8
A0
  6
BYBLOCK
 62
0
100
AcDbLine
 10
503.0000000000000
 20
377.5000000000000
 30
0.0000000000000000
 11
400.0000000000013
 21
377.5000000000000
 31
0.0000000000000000
  0
INSERT
  5
31E
100
AcDbEntity
  8
A0
  6
BYBLOCK
 62
0
100
AcDbBlockReference
  2
_OPEN
 10
505.0000000000000
 20
377.5000000000000
 30
0.0000000000000000
 41
2.000000000000000
 42
2.000000000000000
 43
2.000000000000000
 50
360.0000000000000
  0
INSERT
  5
31F
100
AcDbEntity
  8
A0
  6
BYBLOCK
 62
0
100
AcDbBlockReference
  2
_OPEN
 10
398.0000000000013
 20
377.5000000000000
 30
0.0000000000000000
 41
2.000000000000000
 42
2.000000000000000
 43
2.000000000000000
 50
180.0000000000000
  0
LINE
  5
320
100
AcDbEntity
  8
A0
  6
BYBLOCK
 62
0
100
AcDbLine
 10
398.0000000000013
 20
365.2000000119209
 30
0.0000000000000000
 11
398.0000000000013
 21
379.5000000000000
 31
0.0000000000000000
  0
MTEXT
  5
321
100
AcDbEntity
  8
A0
  6
BYBLOCK
 62
0
100
AcDbMText
 10
451.5000000000006
 20
379.5499999523163
 30
0.0000000000000000
 40
3.099999904632568
 41
0.0000000000000000
 71
     5
 72
     1
  1
\A1;MAX 267
 11
1.000000000000000
 21
0.0000000000000000
 31
0.0000000000000000
  7
STANDARD
  0
ENDBLK
  5
322
100
AcDbEntity
  8
A0
  6
CONTINUOUS
 62
3
100
AcDbBlockEnd
  0
BLOCK
  5
324
100
AcDbEntity
  8
A0
  6
CONTINUOUS
 62
3
100
AcDbBlockBegin
  2
*D24
 70
    65
 10
0.0
 20
0.0
 30
0.0
  0
LINE
  5
325
100
AcDbEntity
  8
A0
  6
BYBLOCK
 62
0
100
AcDbLine
 10
445.0000000000011
 20
365.2000000119209
 30
0.0000000000000000
 11
445.0000000000011
 21
372.0000000000000
 31
0.0000000000000000
  0
LINE
  5
326
100
AcDbEntity
  8
A0
  6
BYBLOCK
 62
0
100
AcDbLine
 10
443.0000000000011
 20
370.0000000000000
 30
0.0000000000000000
 11
437.0000000000011
 21
370.0000000000000
 31
0.0000000000000000
  0
INSERT
  5
327
100
AcDbEntity
  8
A0
  6
BYBLOCK
 62
0
100
AcDbBlockReference
  2
_OPEN
 10
445.0000000000011
 20
370.0000000000000
 30
0.0000000000000000
 41
2.000000000000000
 42
2.000000000000000
 43
2.000000000000000
 50
360.0000000000000
  0
INSERT
  5
328
100
AcDbEntity
  8
A0
  6
BYBLOCK
 62
0
100
AcDbBlockReference
  2
_OPEN
 10
435.0000000000011
 20
370.0000000000000
 30
0.0000000000000000
 41
2.000000000000000
 42
2.000000000000000
 43
2.000000000000000
 50
180.0000000000000
  0
LINE
  5
329
100
AcDbEntity
  8
A0
  6
BYBLOCK
 62
0
100
AcDbLine
 10
435.0000000000011
 20
365.2000000119209
 30
0.0000000000000000
 11
435.0000000000011
 21
372.0000000000000
 31
0.0000000000000000
  0
MTEXT
  5
32A
100
AcDbEntity
  8
A0
  6
BYBLOCK
 62
0
100
AcDbMText
 10
440.0000000000011
 20
372.0499999523163
 30
0.0000000000000000
 40
3.099999904632568
 41
0.0000000000000000
 71
     5
 72
     1
  1
\A1;10
 11
1.000000000000000
 21
0.0000000000000000
 31
0.0000000000000000
  7
STANDARD
  0
ENDBLK
  5
32B
100
AcDbEntity
  8
A0
  6
CONTINUOUS
 62
3
100
AcDbBlockEnd
  0
BLOCK
  5
32D
100
AcDbEntity
  8
A0
  6
CONTINUOUS
 62
3
100
AcDbBlockBegin
  2
*D25
 70
    65
 10
0.0
 20
0.0
 30
0.0
  0
LINE
  5
32E
100
AcDbEntity
  8
A0
  6
BYBLOCK
 62
0
100
AcDbLine
 10
434.7999999880802
 20
345.0000000000000
 30
0.0000000000000000
 11
425.5000000000000
 21
345.0000000000000
 31
0.0000000000000000
  0
LINE
  5
32F
100
AcDbEntity
  8
A0
  6
BYBLOCK
 62
0
100
AcDbLine
 10
427.5000000000000
 20
347.0000000000000
 30
0.0000000000000000
 11
427.5000000000000
 21
363.0000000000000
 31
0.0000000000000000
  0
INSERT
  5
330
100
AcDbEntity
  8
A0
  6
BYBLOCK
 62
0
100
AcDbBlockReference
  2
_OPEN
 10
427.5000000000000
 20
345.0000000000000
 30
0.0000000000000000
 41
2.000000000000000
 42
2.000000000000000
 43
2.000000000000000
 50
270.0000000000000
  0
INSERT
  5
331
100
AcDbEntity
  8
A0
  6
BYBLOCK
 62
0
100
AcDbBlockReference
  2
_OPEN
 10
427.5000000000000
 20
365.0000000000000
 30
0.0000000000000000
 41
2.000000000000000
 42
2.000000000000000
 43
2.000000000000000
 50
90.00000000000000
  0
LINE
  5
332
100
AcDbEntity
  8
A0
  6
BYBLOCK
 62
0
100
AcDbLine
 10
434.7999999880802
 20
365.0000000000000
 30
0.0000000000000000
 11
425.5000000000000
 21
365.0000000000000
 31
0.0000000000000000
  0
MTEXT
  5
333
100
AcDbEntity
  8
A0
  6
BYBLOCK
 62
0
100
AcDbMText
 10
425.4500000476837
 20
355.0000000000000
 30
0.0000000000000000
 40
3.099999904632568
 41
0.0000000000000000
 71
     5
 72
     1
  1
\A1;\U+220520
 11
6.123233995736766e-017
 21
1.000000000000000
 31
0.0000000000000000
  7
STANDARD
  0
ENDBLK
  5
334
100
AcDbEntity
  8
A0
  6
CONTINUOUS
 62
3
100
AcDbBlockEnd
  0
BLOCK
  5
336
100
AcDbEntity
  8
A0
  6
CONTINUOUS
 62
3
100
AcDbBlockBegin
  2
*D26
 70
    65
 10
0.0
 20
0.0
 30
0.0
  0
LINE
  5
337
100
AcDbEntity
  8
A0
  6
BYBLOCK
 62
0
100
AcDbLine
 10
535.0000000000000
 20
357.0000000000000
 30
0.0000000000000000
 11
535.0000000000000
 21
368.0000000000000
 31
0.0000000000000000
  0
INSERT
  5
338
100
AcDbEntity
  8
A0
  6
BYBLOCK
 62
0
100
AcDbBlockReference
  2
_OPEN
 10
535.0000000000000
 20
355.0000000000000
 30
0.0000000000000000
 41
2.000000000000000
 42
2.000000000000000
 43
2.000000000000000
 50
270.0000000000000
  0
INSERT
  5
339
100
AcDbEntity
  8
A0
  6
BYBLOCK
 62
0
100
AcDbBlockReference
  2
_OPEN
 10
535.0000000000000
 20
370.0000000000000
 30
0.0000000000000000
 41
2.000000000000000
 42
2.000000000000000
 43
2.000000000000000
 50
90.00000000000000
  0
LINE
  5
33A
100
AcDbEntity
  8
A0
  6
BYBLOCK
 62
0
100
AcDbLine
 10
516.8000000119209
 20
370.0000000000000
 30
0.0000000000000000
 11
537.0000000000000
 21
370.0000000000000
 31
0.0000000000000000
  0
MTEXT
  5
33B
100
AcDbEntity
  8
A0
  6
BYBLOCK
 62
0
100
AcDbMText
 10
532.9500000476837
 20
365.0000000000000
 30
0.0000000000000000
 40
3.099999904632568
 41
0.0000000000000000
 71
     5
 72
     1
  1
\A1;15
 11
6.123233995736766e-017
 21
1.000000000000000
 31
0.0000000000000000
  7
STANDARD
  0
ENDBLK
  5
33C
100
AcDbEntity
  8
A0
  6
CONTINUOUS
 62
3
100
AcDbBlockEnd
  0
BLOCK
  5
3BB
100
AcDbEntity
  8
A0
  6
CONTINUOUS
 62
3
100
AcDbBlockBegin
  2
*D27
 70
    65
 10
0.0
 20
0.0
 30
0.0
  0
LINE
  5
3BC
100
AcDbEntity
  8
A0
  6
BYBLOCK
 62
0
100
AcDbLine
 10
574.9999999999999
 20
365.2000000119209
 30
0.0000000000000000
 11
574.9999999999999
 21
392.0000000000000
 31
0.0000000000000000
  0
LINE
  5
3BD
100
AcDbEntity
  8
A0
  6
BYBLOCK
 62
0
100
AcDbLine
 10
572.9999999999999
 20
390.0000000000000
 30
0.0000000000000000
 11
437.0000000000011
 21
390.0000000000000
 31
0.0000000000000000
  0
INSERT
  5
3BE
100
AcDbEntity
  8
A0
  6
BYBLOCK
 62
0
100
AcDbBlockReference
  2
_OPEN
 10
574.9999999999999
 20
390.0000000000000
 30
0.0000000000000000
 41
2.000000000000000
 42
2.000000000000000
 43
2.000000000000000
 50
360.0000000000000
  0
INSERT
  5
3BF
100
AcDbEntity
  8
A0
  6
BYBLOCK
 62
0
100
AcDbBlockReference
  2
_OPEN
 10
435.0000000000011
 20
390.0000000000000
 30
0.0000000000000000
 41
2.000000000000000
 42
2.000000000000000
 43
2.000000000000000
 50
180.0000000000000
  0
LINE
  5
3C0
100
AcDbEntity
  8
A0
  6
BYBLOCK
 62
0
100
AcDbLine
 10
435.0000000000011
 20
365.2000000119209
 30
0.0000000000000000
 11
435.0000000000011
 21
392.0000000000000
 31
0.0000000000000000
  0
MTEXT
  5
3C1
100
AcDbEntity
  8
A0
  6
BYBLOCK
 62
0
100
AcDbMText
 10
505.0000000000000
 20
392.0499999523163
 30
0.0000000000000000
 40
3.099999904632568
 41
0.0000000000000000
 71
     5
 72
     1
  1
\A1;290
 11
1.000000000000000
 21
0.0000000000000000
 31
0.0000000000000000
  7
STANDARD
  0
ENDBLK
  5
3C2
100
AcDbEntity
  8
A0
  6
CONTINUOUS
 62
3
100
AcDbBlockEnd
  0
BLOCK
  5
3C4
100
AcDbEntity
  8
A0
  6
CONTINUOUS
 62
3
100
AcDbBlockBegin
  2
*D28
 70
    65
 10
0.0
 20
0.0
 30
0.0
  0
LINE
  5
3C5
100
AcDbEntity
  8
A0
  6
BYBLOCK
 62
0
100
AcDbLine
 10
492.0000000000000
 20
368.8000000119209
 30
0.0000000000000000
 11
492.0000000000000
 21
384.5000000000000
 31
0.0000000000000000
  0
LINE
  5
3C6
100
AcDbEntity
  8
A0
  6
BYBLOCK
 62
0
100
AcDbLine
 10
494.0000000000000
 20
382.5000000000000
 30
0.0000000000000000
 11
516.0000000000000
 21
382.5000000000000
 31
0.0000000000000000
  0
INSERT
  5
3C7
100
AcDbEntity
  8
A0
  6
BYBLOCK
 62
0
100
AcDbBlockReference
  2
_OPEN
 10
492.0000000000000
 20
382.5000000000000
 30
0.0000000000000000
 41
2.000000000000000
 42
2.000000000000000
 43
2.000000000000000
 50
180.0000000000000
  0
INSERT
  5
3C8
100
AcDbEntity
  8
A0
  6
BYBLOCK
 62
0
100
AcDbBlockReference
  2
_OPEN
 10
518.0000000000000
 20
382.5000000000000
 30
0.0000000000000000
 41
2.000000000000000
 42
2.000000000000000
 43
2.000000000000000
 50
0.0000000000000000
  0
LINE
  5
3C9
100
AcDbEntity
  8
A0
  6
BYBLOCK
 62
0
100
AcDbLine
 10
518.0000000000000
 20
368.8000000119209
 30
0.0000000000000000
 11
518.0000000000000
 21
384.5000000000000
 31
0.0000000000000000
  0
MTEXT
  5
3CA
100
AcDbEntity
  8
A0
  6
BYBLOCK
 62
0
100
AcDbMText
 10
505.0000000000000
 20
384.5499999523163
 30
0.0000000000000000
 40
3.099999904632568
 41
0.0000000000000000
 71
     5
 72
     1
  1
\A1;\U+220526
 11
1.000000000000000
 21
0.0000000000000000
 31
0.0000000000000000
  7
STANDARD
  0
ENDBLK
  5
3CB
100
AcDbEntity
  8
A0
  6
CONTINUOUS
 62
3
100
AcDbBlockEnd
  0
BLOCK
  5
3CD
100
AcDbEntity
  8
A0
  6
CONTINUOUS
 62
3
100
AcDbBlockBegin
  2
*D29
 70
    65
 10
0.0
 20
0.0
 30
0.0
  0
LINE
  5
3CE
100
AcDbEntity
  8
A0
  6
BYBLOCK
 62
0
100
AcDbLine
 10
480.0000000000000
 20
361.0000000000000
 30
0.0000000000000000
 11
480.0000000000000
 21
349.0000000000000
 31
0.0000000000000000
  0
INSERT
  5
3CF
100
AcDbEntity
  8
A0
  6
BYBLOCK
 62
0
100
AcDbBlockReference
  2
_OPEN
 10
480.0000000000000
 20
361.0000000000000
 30
0.0000000000000000
 41
2.000000000000000
 42
2.000000000000000
 43
2.000000000000000
 50
270.0000000000000
  0
INSERT
  5
3D0
100
AcDbEntity
  8
A0
  6
BYBLOCK
 62
0
100
AcDbBlockReference
  2
_OPEN
 10
480.0000000000000
 20
349.0000000000000
 30
0.0000000000000000
 41
2.000000000000000
 42
2.000000000000000
 43
2.000000000000000
 50
90.00000000000000
  0
LINE
  5
3D1
100
AcDbEntity
  8
A0
  6
BYBLOCK
 62
0
100
AcDbLine
 10
480.0000000000000
 20
363.0000000000000
 30
0.0000000000000000
 11
480.0000000000000
 21
371.3999996185303
 31
0.0000000000000000
  0
LINE
  5
3D2
100
AcDbEntity
  8
A0
  6
BYBLOCK
 62
0
100
AcDbLine
 10
480.0000000000000
 20
347.0000000000000
 30
0.0000000000000000
 11
480.0000000000000
 21
346.0000000000000
 31
0.0000000000000000
  0
MTEXT
  5
3D3
100
AcDbEntity
  8
A0
  6
BYBLOCK
 62
0
100
AcDbMText
 10
477.9500000476837
 20
368.0000000000000
 30
0.0000000000000000
 40
3.099999904632568
 41
0.0000000000000000
 71
     5
 72
     1
  1
\A1;\U+220512
 11
6.123233995736766e-017
 21
1.000000000000000
 31
0.0000000000000000
  7
STANDARD
  0
ENDBLK
  5
3D4
100
AcDbEntity
  8
A0
  6
CONTINUOUS
 62
3
100
AcDbBlockEnd
  0
BLOCK
  5
3D6
100
AcDbEntity
  8
A0
  6
CONTINUOUS
 62
3
100
AcDbBlockBegin
  2
*D30
 70
    65
 10
0.0
 20
0.0
 30
0.0
  0
LINE
  5
3D7
100
AcDbEntity
  8
A0
  6
BYBLOCK
 62
0
100
AcDbLine
 10
516.8000000119209
 20
370.0000000000000
 30
0.0000000000000000
 11
547.0000000000000
 21
370.0000000000000
 31
0.0000000000000000
  0
LINE
  5
3D8
100
AcDbEntity
  8
A0
  6
BYBLOCK
 62
0
100
AcDbLine
 10
545.0000000000000
 20
368.0000000000000
 30
0.0000000000000000
 11
545.0000000000000
 21
212.0000000000000
 31
0.0000000000000000
  0
INSERT
  5
3D9
100
AcDbEntity
  8
A0
  6
BYBLOCK
 62
0
100
AcDbBlockReference
  2
_OPEN
 10
545.0000000000000
 20
370.0000000000000
 30
0.0000000000000000
 41
2.000000000000000
 42
2.000000000000000
 43
2.000000000000000
 50
90.00000000000000
  0
INSERT
  5
3DA
100
AcDbEntity
  8
A0
  6
BYBLOCK
 62
0
100
AcDbBlockReference
  2
_OPEN
 10
545.0000000000000
 20
210.0000000000000
 30
0.0000000000000000
 41
2.000000000000000
 42
2.000000000000000
 43
2.000000000000000
 50
270.0000000000000
  0
LINE
  5
3DB
100
AcDbEntity
  8
A0
  6
BYBLOCK
 62
0
100
AcDbLine
 10
510.6643593643458
 20
210.0000000000000
 30
0.0000000000000000
 11
547.0000000000000
 21
210.0000000000000
 31
0.0000000000000000
  0
MTEXT
  5
3DC
100
AcDbEntity
  8
A0
  6
BYBLOCK
 62
0
100
AcDbMText
 10
542.9500000476837
 20
290.0000000000000
 30
0.0000000000000000
 40
3.099999904632568
 41
0.0000000000000000
 71
     5
 72
     1
  1
\A1;160
 11
6.123233995736766e-017
 21
1.000000000000000
 31
0.0000000000000000
  7
STANDARD
  0
ENDBLK
  5
3DD
100
AcDbEntity
  8
A0
  6
CONTINUOUS
 62
3
100
AcDbBlockEnd
  0
BLOCK
  5
3DF
100
AcDbEntity
  8
A0
  6
CONTINUOUS
 62
3
100
AcDbBlockBegin
  2
*D31
 70
    65
 10
0.0
 20
0.0
 30
0.0
  0
LINE
  5
3E0
100
AcDbEntity
  8
A0
  6
BYBLOCK
 62
0
100
AcDbLine
 10
512.9500000119210
 20
210.0000000000000
 30
0.0000000000000000
 11
534.7552077695727
 21
210.0000000000000
 31
0.0000000000000000
  0
LINE
  5
3E1
100
AcDbEntity
  8
A0
  6
BYBLOCK
 62
0
100
AcDbLine
 10
532.7552077695727
 20
212.0000000000000
 30
0.0000000000000000
 11
532.7552077695727
 21
224.0000000000000
 31
0.0000000000000000
  0
INSERT
  5
3E2
100
AcDbEntity
  8
A0
  6
BYBLOCK
 62
0
100
AcDbBlockReference
  2
_OPEN
 10
532.7552077695727
 20
210.0000000000000
 30
0.0000000000000000
 41
2.000000000000000
 42
2.000000000000000
 43
2.000000000000000
 50
270.0000000000000
  0
INSERT
  5
3E3
100
AcDbEntity
  8
A0
  6
BYBLOCK
 62
0
100
AcDbBlockReference
  2
_OPEN
 10
532.7552077695727
 20
226.0000000000000
 30
0.0000000000000000
 41
2.000000000000000
 42
2.000000000000000
 43
2.000000000000000
 50
90.00000000000000
  0
LINE
  5
3E4
100
AcDbEntity
  8
A0
  6
BYBLOCK
 62
0
100
AcDbLine
 10
513.6500000119210
 20
226.0000000000000
 30
0.0000000000000000
 11
534.7552077695727
 21
226.0000000000000
 31
0.0000000000000000
  0
MTEXT
  5
3E5
100
AcDbEntity
  8
A0
  6
BYBLOCK
 62
0
100
AcDbMText
 10
530.0802078172565
 20
218.0000000000000
 30
0.0000000000000000
 40
3.099999904632568
 41
0.0000000000000000
 71
     5
 72
     1
  1
\A1;16
 11
6.123233995736766e-017
 21
1.000000000000000
 31
0.0000000000000000
  7
STANDARD
  0
ENDBLK
  5
3E6
100
AcDbEntity
  8
A0
  6
CONTINUOUS
 62
3
100
AcDbBlockEnd
  0
BLOCK
  5
3E8
100
AcDbEntity
  8
A0
  6
CONTINUOUS
 62
3
100
AcDbBlockBegin
  2
*D32
 70
    65
 10
0.0
 20
0.0
 30
0.0
  0
LINE
  5
3E9
100
AcDbEntity
  8
A0
  6
BYBLOCK
 62
0
100
AcDbLine
 10
496.0000000000000
 20
321.2854112371299
 30
0.0000000000000000
 11
514.0000000000000
 21
321.2854112371299
 31
0.0000000000000000
  0
INSERT
  5
3EA
100
AcDbEntity
  8
A0
  6
BYBLOCK
 62
0
100
AcDbBlockReference
  2
_OPEN
 10
494.0000000000000
 20
321.2854112371299
 30
0.0000000000000000
 41
2.000000000000000
 42
2.000000000000000
 43
2.000000000000000
 50
180.0000000000000
  0
INSERT
  5
3EB
100
AcDbEntity
  8
A0
  6
BYBLOCK
 62
0
100
AcDbBlockReference
  2
_OPEN
 10
516.0000000000000
 20
321.2854112371299
 30
0.0000000000000000
 41
2.000000000000000
 42
2.000000000000000
 43
2.000000000000000
 50
0.0000000000000000
  0
MTEXT
  5
3EC
100
AcDbEntity
  8
A0
  6
BYBLOCK
 62
0
100
AcDbMText
 10
505.0000000000000
 20
323.9604111894462
 30
0.0000000000000000
 40
3.099999904632568
 41
0.0000000000000000
 71
     5
 72
     1
  1
\A1;\U+220522
 11
1.000000000000000
 21
0.0000000000000000
 31
0.0000000000000000
  7
STANDARD
  0
ENDBLK
  5
3ED
100
AcDbEntity
  8
A0
  6
CONTINUOUS
 62
3
100
AcDbBlockEnd
  0
BLOCK
  5
3EF
100
AcDbEntity
  8
A0
  6
CONTINUOUS
 62
3
100
AcDbBlockBegin
  2
*D33
 70
    65
 10
0.0
 20
0.0
 30
0.0
  0
LINE
  5
3F0
100
AcDbEntity
  8
A0
  6
BYBLOCK
 62
0
100
AcDbLine
 10
513.4156854333797
 20
188.7548385082644
 30
0.0000000000000000
 11
520.5716171311346
 21
181.5989068105364
 31
0.0000000000000000
  0
LINE
  5
3F1
100
AcDbEntity
  8
A0
  6
BYBLOCK
 62
0
100
AcDbLine
 10
517.7431900063886
 20
181.5989068105310
 30
0.0000000000000000
 11
512.0863357569072
 21
175.9420525610280
 31
0.0000000000000000
  0
INSERT
  5
3F2
100
AcDbEntity
  8
A0
  6
BYBLOCK
 62
0
100
AcDbBlockReference
  2
_OPEN
 10
519.1574035687589
 20
183.0131203729068
 30
0.0000000000000000
 41
2.000000000000000
 42
2.000000000000000
 43
2.000000000000000
 50
45.00000000010954
  0
INSERT
  5
3F3
100
AcDbEntity
  8
A0
  6
BYBLOCK
 62
0
100
AcDbBlockReference
  2
_OPEN
 10
510.6721221945367
 20
174.5278389986522
 30
0.0000000000000000
 41
2.000000000000000
 42
2.000000000000000
 43
2.000000000000000
 50
225.0000000001095
  0
LINE
  5
3F4
100
AcDbEntity
  8
A0
  6
BYBLOCK
 62
0
100
AcDbLine
 10
519.1574035687589
 20
183.0131203729068
 30
0.0000000000000000
 11
530.9669747980736
 21
194.8226916022666
 31
0.0000000000000000
  0
LINE
  5
3F5
100
AcDbEntity
  8
A0
  6
BYBLOCK
 62
0
100
AcDbLine
 10
504.9304040592076
 20
180.2695571339595
 30
0.0000000000000000
 11
512.0863357569126
 21
173.1136254362818
 31
0.0000000000000000
  0
MTEXT
  5
3F6
100
AcDbEntity
  8
A0
  6
BYBLOCK
 62
0
100
AcDbMText
 10
524.2317830277766
 20
190.9866375673794
 30
0.0000000000000000
 40
3.099999904632568
 41
0.0000000000000000
 71
     5
 72
     1
  1
\A1;□12\H0.903226x;\S　0^ －0.05;
 11
0.7071067811851975
 21
0.7071067811878975
 31
0.0000000000000000
  7
KNJYOKO
  0
ENDBLK
  5
3F7
100
AcDbEntity
  8
A0
  6
CONTINUOUS
 62
3
100
AcDbBlockEnd
  0
BLOCK
  5
3FB
100
AcDbEntity
  8
A0
  6
BYBLOCK
 62
3
100
AcDbBlockBegin
  2
*X0
 70
     1
 10
0.0
 20
0.0
 30
0.0
  0
LINE
  5
3FC
100
AcDbEntity
  8
A0
  6
BYBLOCK
 62
0
100
AcDbLine
 10
436.4142135622712
 20
360.0000000000010
 30
0.0000000000000000
 11
435.0000000000029
 21
361.4142135622692
 31
0.0000000000000000
  0
LINE
  5
3FD
100
AcDbEntity
  8
A0
  6
BYBLOCK
 62
0
100
AcDbLine
 10
436.2727922039268
 20
360.0000000000005
 30
0.0000000000000000
 11
435.0000000000020
 21
361.2727922039258
 31
0.0000000000000000
  0
LINE
  5
3FE
100
AcDbEntity
  8
A0
  6
BYBLOCK
 62
0
100
AcDbLine
 10
436.1313708455807
 20
360.0000000000014
 30
0.0000000000000000
 11
435.0000000000024
 21
361.1313708455800
 31
0.0000000000000000
  0
LINE
  5
3FF
100
AcDbEntity
  8
A0
  6
BYBLOCK
 62
0
100
AcDbLine
 10
435.9899494872377
 20
360.0000000000001
 30
0.0000000000000000
 11
435.0000000000011
 21
360.9899494872366
 31
0.0000000000000000
  0
LINE
  5
400
100
AcDbEntity
  8
A0
  6
BYBLOCK
 62
0
100
AcDbLine
 10
435.8485281288920
 20
360.0000000000005
 30
0.0000000000000000
 11
435.0000000000007
 21
360.8485281288922
 31
0.0000000000000000
  0
LINE
  5
401
100
AcDbEntity
  8
A0
  6
BYBLOCK
 62
0
100
AcDbLine
 10
435.7071067705476
 20
360.0000000000005
 30
0.0000000000000000
 11
435.0000000000007
 21
360.7071067705474
 31
0.0000000000000000
  0
LINE
  5
402
100
AcDbEntity
  8
A0
  6
BYBLOCK
 62
0
100
AcDbLine
 10
435.5656854122018
 20
360.0000000000014
 30
0.0000000000000000
 11
435.0000000000002
 21
360.5656854122031
 31
0.0000000000000000
  0
LINE
  5
403
100
AcDbEntity
  8
A0
  6
BYBLOCK
 62
0
100
AcDbLine
 10
435.4242640538585
 20
360.0000000000000
 30
0.0000000000000000
 11
435.0000000000016
 21
360.4242640538573
 31
0.0000000000000000
  0
LINE
  5
404
100
AcDbEntity
  8
A0
  6
BYBLOCK
 62
0
100
AcDbLine
 10
435.2828426955136
 20
360.0000000000005
 30
0.0000000000000000
 11
435.0000000000016
 21
360.2828426955116
 31
0.0000000000000000
  0
LINE
  5
405
100
AcDbEntity
  8
A0
  6
BYBLOCK
 62
0
100
AcDbLine
 10
435.1414213371670
 20
360.0000000000014
 30
0.0000000000000000
 11
435.0000000000025
 21
360.1414213371663
 31
0.0000000000000000
  0
ENDBLK
  5
406
100
AcDbEntity
  8
A0
  6
BYBLOCK
 62
3
100
AcDbBlockEnd
  0
BLOCK
  5
408
100
AcDbEntity
  8
A0
  6
BYBLOCK
 62
3
100
AcDbBlockBegin
  2
*X1
 70
     1
 10
0.0
 20
0.0
 30
0.0
  0
LINE
  5
409
100
AcDbEntity
  8
A0
  6
BYBLOCK
 62
0
100
AcDbLine
 10
436.4142135622712
 20
349.9999999999991
 30
0.0000000000000000
 11
435.0000000000030
 21
348.5857864377308
 31
0.0000000000000000
  0
LINE
  5
40A
100
AcDbEntity
  8
A0
  6
BYBLOCK
 62
0
100
AcDbLine
 10
436.2727922039269
 20
349.9999999999996
 30
0.0000000000000000
 11
435.0000000000021
 21
348.7272077960743
 31
0.0000000000000000
  0
LINE
  5
40B
100
AcDbEntity
  8
A0
  6
BYBLOCK
 62
0
100
AcDbLine
 10
436.1313708455807
 20
349.9999999999987
 30
0.0000000000000000
 11
435.0000000000025
 21
348.8686291544200
 31
0.0000000000000000
  0
LINE
  5
40C
100
AcDbEntity
  8
A0
  6
BYBLOCK
 62
0
100
AcDbLine
 10
435.9899494872377
 20
350.0000000000000
 30
0.0000000000000000
 11
435.0000000000011
 21
349.0100505127634
 31
0.0000000000000000
  0
LINE
  5
40D
100
AcDbEntity
  8
A0
  6
BYBLOCK
 62
0
100
AcDbLine
 10
435.8485281288920
 20
349.9999999999996
 30
0.0000000000000000
 11
435.0000000000007
 21
349.1514718711078
 31
0.0000000000000000
  0
LINE
  5
40E
100
AcDbEntity
  8
A0
  6
BYBLOCK
 62
0
100
AcDbLine
 10
435.7071067705476
 20
349.9999999999996
 30
0.0000000000000000
 11
435.0000000000007
 21
349.2928932294527
 31
0.0000000000000000
  0
LINE
  5
40F
100
AcDbEntity
  8
A0
  6
BYBLOCK
 62
0
100
AcDbLine
 10
435.5656854122019
 20
349.9999999999986
 30
0.0000000000000000
 11
435.0000000000002
 21
349.4343145877970
 31
0.0000000000000000
  0
LINE
  5
410
100
AcDbEntity
  8
A0
  6
BYBLOCK
 62
0
100
AcDbLine
 10
435.4242640538585
 20
350.0000000000001
 30
0.0000000000000000
 11
435.0000000000016
 21
349.5757359461427
 31
0.0000000000000000
  0
LINE
  5
411
100
AcDbEntity
  8
A0
  6
BYBLOCK
 62
0
100
AcDbLine
 10
435.2828426955136
 20
349.9999999999996
 30
0.0000000000000000
 11
435.0000000000016
 21
349.7171573044884
 31
0.0000000000000000
  0
LINE
  5
412
100
AcDbEntity
  8
A0
  6
BYBLOCK
 62
0
100
AcDbLine
 10
435.1414213371670
 20
349.9999999999986
 30
0.0000000000000000
 11
435.0000000000025
 21
349.8585786628337
 31
0.0000000000000000
  0
ENDBLK
  5
413
100
AcDbEntity
  8
A0
  6
BYBLOCK
 62
3
100
AcDbBlockEnd
  0
BLOCK
  5
415
100
AcDbEntity
  8
A0
  6
BYBLOCK
 62
3
100
AcDbBlockBegin
  2
*X2
 70
     1
 10
0.0
 20
0.0
 30
0.0
  0
LINE
  5
416
100
AcDbEntity
  8
A0
  6
BYBLOCK
 62
0
100
AcDbLine
 10
573.5857864377298
 20
360.0000000000009
 30
0.0000000000000000
 11
574.9999999999981
 21
361.4142135622692
 31
0.0000000000000000
  0
LINE
  5
417
100
AcDbEntity
  8
A0
  6
BYBLOCK
 62
0
100
AcDbLine
 10
573.7272077960740
 20
360.0000000000003
 30
0.0000000000000000
 11
574.9999999999990
 21
361.2727922039257
 31
0.0000000000000000
  0
LINE
  5
418
100
AcDbEntity
  8
A0
  6
BYBLOCK
 62
0
100
AcDbLine
 10
573.8686291544203
 20
360.0000000000014
 30
0.0000000000000000
 11
574.9999999999985
 21
361.1313708455800
 31
0.0000000000000000
  0
LINE
  5
419
100
AcDbEntity
  8
A0
  6
BYBLOCK
 62
0
100
AcDbLine
 10
574.0100505127633
 20
360.0000000000000
 30
0.0000000000000000
 11
574.9999999999999
 21
360.9899494872366
 31
0.0000000000000000
  0
LINE
  5
41A
100
AcDbEntity
  8
A0
  6
BYBLOCK
 62
0
100
AcDbLine
 10
574.1514718711089
 20
360.0000000000005
 30
0.0000000000000000
 11
575.0000000000002
 21
360.8485281288922
 31
0.0000000000000000
  0
LINE
  5
41B
100
AcDbEntity
  8
A0
  6
BYBLOCK
 62
0
100
AcDbLine
 10
574.2928932294534
 20
360.0000000000005
 30
0.0000000000000000
 11
575.0000000000003
 21
360.7071067705474
 31
0.0000000000000000
  0
LINE
  5
41C
100
AcDbEntity
  8
A0
  6
BYBLOCK
 62
0
100
AcDbLine
 10
574.4343145877991
 20
360.0000000000014
 30
0.0000000000000000
 11
575.0000000000008
 21
360.5656854122030
 31
0.0000000000000000
  0
LINE
  5
41D
100
AcDbEntity
  8
A0
  6
BYBLOCK
 62
0
100
AcDbLine
 10
574.5757359461427
 20
360.0000000000001
 30
0.0000000000000000
 11
574.9999999999994
 21
360.4242640538574
 31
0.0000000000000000
  0
LINE
  5
41E
100
AcDbEntity
  8
A0
  6
BYBLOCK
 62
0
100
AcDbLine
 10
574.7171573044873
 20
360.0000000000005
 30
0.0000000000000000
 11
574.9999999999994
 21
360.2828426955116
 31
0.0000000000000000
  0
LINE
  5
41F
100
AcDbEntity
  8
A0
  6
BYBLOCK
 62
0
100
AcDbLine
 10
574.8585786628340
 20
360.0000000000014
 30
0.0000000000000000
 11
574.9999999999985
 21
360.1414213371663
 31
0.0000000000000000
  0
ENDBLK
  5
420
100
AcDbEntity
  8
A0
  6
BYBLOCK
 62
3
100
AcDbBlockEnd
  0
BLOCK
  5
422
100
AcDbEntity
  8
A0
  6
BYBLOCK
 62
3
100
AcDbBlockBegin
  2
*X3
 70
     1
 10
0.0
 20
0.0
 30
0.0
  0
LINE
  5
423
100
AcDbEntity
  8
A0
  6
BYBLOCK
 62
0
100
AcDbLine
 10
573.5857864377297
 20
349.9999999999992
 30
0.0000000000000000
 11
574.9999999999981
 21
348.5857864377308
 31
0.0000000000000000
  0
LINE
  5
424
100
AcDbEntity
  8
A0
  6
BYBLOCK
 62
0
100
AcDbLine
 10
573.7272077960740
 20
349.9999999999996
 30
0.0000000000000000
 11
574.9999999999990
 21
348.7272077960743
 31
0.0000000000000000
  0
LINE
  5
425
100
AcDbEntity
  8
A0
  6
BYBLOCK
 62
0
100
AcDbLine
 10
573.8686291544202
 20
349.9999999999987
 30
0.0000000000000000
 11
574.9999999999984
 21
348.8686291544200
 31
0.0000000000000000
  0
LINE
  5
426
100
AcDbEntity
  8
A0
  6
BYBLOCK
 62
0
100
AcDbLine
 10
574.0100505127633
 20
350.0000000000000
 30
0.0000000000000000
 11
574.9999999999999
 21
349.0100505127635
 31
0.0000000000000000
  0
LINE
  5
427
100
AcDbEntity
  8
A0
  6
BYBLOCK
 62
0
100
AcDbLine
 10
574.1514718711090
 20
349.9999999999996
 30
0.0000000000000000
 11
575.0000000000003
 21
349.1514718711078
 31
0.0000000000000000
  0
LINE
  5
428
100
AcDbEntity
  8
A0
  6
BYBLOCK
 62
0
100
AcDbLine
 10
574.2928932294534
 20
349.9999999999996
 30
0.0000000000000000
 11
575.0000000000003
 21
349.2928932294526
 31
0.0000000000000000
  0
LINE
  5
429
100
AcDbEntity
  8
A0
  6
BYBLOCK
 62
0
100
AcDbLine
 10
574.4343145877991
 20
349.9999999999987
 30
0.0000000000000000
 11
575.0000000000008
 21
349.4343145877970
 31
0.0000000000000000
  0
LINE
  5
42A
100
AcDbEntity
  8
A0
  6
BYBLOCK
 62
0
100
AcDbLine
 10
574.5757359461425
 20
350.0000000000000
 30
0.0000000000000000
 11
574.9999999999993
 21
349.5757359461427
 31
0.0000000000000000
  0
LINE
  5
42B
100
AcDbEntity
  8
A0
  6
BYBLOCK
 62
0
100
AcDbLine
 10
574.7171573044873
 20
349.9999999999996
 30
0.0000000000000000
 11
574.9999999999993
 21
349.7171573044884
 31
0.0000000000000000
  0
LINE
  5
42C
100
AcDbEntity
  8
A0
  6
BYBLOCK
 62
0
100
AcDbLine
 10
574.8585786628340
 20
349.9999999999986
 30
0.0000000000000000
 11
574.9999999999984
 21
349.8585786628337
 31
0.0000000000000000
  0
ENDBLK
  5
42D
100
AcDbEntity
  8
A0
  6
BYBLOCK
 62
3
100
AcDbBlockEnd
  0
BLOCK
  5
445
100
AcDbEntity
  8
A0
  6
BYBLOCK
 62
3
100
AcDbBlockBegin
  2
*X4
 70
     1
 10
0.0
 20
0.0
 30
0.0
  0
LINE
  5
446
100
AcDbEntity
  8
A0
  6
BYBLOCK
 62
0
100
AcDbLine
 10
399.4142135622712
 20
360.0000000000010
 30
0.0000000000000000
 11
398.0000000000030
 21
361.4142135622693
 31
0.0000000000000000
  0
LINE
  5
447
100
AcDbEntity
  8
A0
  6
BYBLOCK
 62
0
100
AcDbLine
 10
399.2727922039270
 20
360.0000000000005
 30
0.0000000000000000
 11
398.0000000000022
 21
361.2727922039258
 31
0.0000000000000000
  0
LINE
  5
448
100
AcDbEntity
  8
A0
  6
BYBLOCK
 62
0
100
AcDbLine
 10
399.1313708455808
 20
360.0000000000014
 30
0.0000000000000000
 11
398.0000000000026
 21
361.1313708455800
 31
0.0000000000000000
  0
LINE
  5
449
100
AcDbEntity
  8
A0
  6
BYBLOCK
 62
0
100
AcDbLine
 10
398.9899494872378
 20
360.0000000000000
 30
0.0000000000000000
 11
398.0000000000013
 21
360.9899494872366
 31
0.0000000000000000
  0
LINE
  5
44A
100
AcDbEntity
  8
A0
  6
BYBLOCK
 62
0
100
AcDbLine
 10
398.8485281288921
 20
360.0000000000005
 30
0.0000000000000000
 11
398.0000000000008
 21
360.8485281288923
 31
0.0000000000000000
  0
LINE
  5
44B
100
AcDbEntity
  8
A0
  6
BYBLOCK
 62
0
100
AcDbLine
 10
398.7071067705477
 20
360.0000000000005
 30
0.0000000000000000
 11
398.0000000000007
 21
360.7071067705474
 31
0.0000000000000000
  0
LINE
  5
44C
100
AcDbEntity
  8
A0
  6
BYBLOCK
 62
0
100
AcDbLine
 10
398.5656854122020
 20
360.0000000000014
 30
0.0000000000000000
 11
398.0000000000003
 21
360.5656854122031
 31
0.0000000000000000
  0
LINE
  5
44D
100
AcDbEntity
  8
A0
  6
BYBLOCK
 62
0
100
AcDbLine
 10
398.4242640538586
 20
359.9999999999999
 30
0.0000000000000000
 11
398.0000000000017
 21
360.4242640538573
 31
0.0000000000000000
  0
LINE
  5
44E
100
AcDbEntity
  8
A0
  6
BYBLOCK
 62
0
100
AcDbLine
 10
398.2828426955138
 20
360.0000000000005
 30
0.0000000000000000
 11
398.0000000000017
 21
360.2828426955116
 31
0.0000000000000000
  0
LINE
  5
44F
100
AcDbEntity
  8
A0
  6
BYBLOCK
 62
0
100
AcDbLine
 10
398.1414213371671
 20
360.0000000000014
 30
0.0000000000000000
 11
398.0000000000026
 21
360.1414213371663
 31
0.0000000000000000
  0
ENDBLK
  5
450
100
AcDbEntity
  8
A0
  6
BYBLOCK
 62
3
100
AcDbBlockEnd
  0
BLOCK
  5
452
100
AcDbEntity
  8
A0
  6
BYBLOCK
 62
3
100
AcDbBlockBegin
  2
*X5
 70
     1
 10
0.0
 20
0.0
 30
0.0
  0
LINE
  5
453
100
AcDbEntity
  8
A0
  6
BYBLOCK
 62
0
100
AcDbLine
 10
399.4142135622713
 20
349.9999999999991
 30
0.0000000000000000
 11
398.0000000000030
 21
348.5857864377308
 31
0.0000000000000000
  0
LINE
  5
454
100
AcDbEntity
  8
A0
  6
BYBLOCK
 62
0
100
AcDbLine
 10
399.2727922039270
 20
349.9999999999997
 30
0.0000000000000000
 11
398.0000000000022
 21
348.7272077960744
 31
0.0000000000000000
  0
LINE
  5
455
100
AcDbEntity
  8
A0
  6
BYBLOCK
 62
0
100
AcDbLine
 10
399.1313708455808
 20
349.9999999999987
 30
0.0000000000000000
 11
398.0000000000026
 21
348.8686291544200
 31
0.0000000000000000
  0
LINE
  5
456
100
AcDbEntity
  8
A0
  6
BYBLOCK
 62
0
100
AcDbLine
 10
398.9899494872378
 20
350.0000000000000
 30
0.0000000000000000
 11
398.0000000000013
 21
349.0100505127634
 31
0.0000000000000000
  0
LINE
  5
457
100
AcDbEntity
  8
A0
  6
BYBLOCK
 62
0
100
AcDbLine
 10
398.8485281288921
 20
349.9999999999996
 30
0.0000000000000000
 11
398.0000000000008
 21
349.1514718711078
 31
0.0000000000000000
  0
LINE
  5
458
100
AcDbEntity
  8
A0
  6
BYBLOCK
 62
0
100
AcDbLine
 10
398.7071067705477
 20
349.9999999999996
 30
0.0000000000000000
 11
398.0000000000008
 21
349.2928932294527
 31
0.0000000000000000
  0
LINE
  5
459
100
AcDbEntity
  8
A0
  6
BYBLOCK
 62
0
100
AcDbLine
 10
398.5656854122020
 20
349.9999999999986
 30
0.0000000000000000
 11
398.0000000000003
 21
349.4343145877970
 31
0.0000000000000000
  0
LINE
  5
45A
100
AcDbEntity
  8
A0
  6
BYBLOCK
 62
0
100
AcDbLine
 10
398.4242640538586
 20
350.0000000000001
 30
0.0000000000000000
 11
398.0000000000017
 21
349.5757359461427
 31
0.0000000000000000
  0
LINE
  5
45B
100
AcDbEntity
  8
A0
  6
BYBLOCK
 62
0
100
AcDbLine
 10
398.2828426955137
 20
349.9999999999996
 30
0.0000000000000000
 11
398.0000000000017
 21
349.7171573044884
 31
0.0000000000000000
  0
LINE
  5
45C
100
AcDbEntity
  8
A0
  6
BYBLOCK
 62
0
100
AcDbLine
 10
398.1414213371671
 20
349.9999999999987
 30
0.0000000000000000
 11
398.0000000000026
 21
349.8585786628337
 31
0.0000000000000000
  0
ENDBLK
  5
45D
100
AcDbEntity
  8
A0
  6
BYBLOCK
 62
3
100
AcDbBlockEnd
  0
BLOCK
  5
45F
100
AcDbEntity
  8
A0
  6
BYBLOCK
 62
3
100
AcDbBlockBegin
  2
*X6
 70
     1
 10
0.0
 20
0.0
 30
0.0
  0
LINE
  5
460
100
AcDbEntity
  8
A0
  6
BYBLOCK
 62
0
100
AcDbLine
 10
526.5857864377299
 20
360.0000000000009
 30
0.0000000000000000
 11
527.9999999999982
 21
361.4142135622692
 31
0.0000000000000000
  0
LINE
  5
461
100
AcDbEntity
  8
A0
  6
BYBLOCK
 62
0
100
AcDbLine
 10
526.7272077960743
 20
360.0000000000003
 30
0.0000000000000000
 11
527.9999999999991
 21
361.2727922039258
 31
0.0000000000000000
  0
LINE
  5
462
100
AcDbEntity
  8
A0
  6
BYBLOCK
 62
0
100
AcDbLine
 10
526.8686291544204
 20
360.0000000000014
 30
0.0000000000000000
 11
527.9999999999986
 21
361.1313708455800
 31
0.0000000000000000
  0
LINE
  5
463
100
AcDbEntity
  8
A0
  6
BYBLOCK
 62
0
100
AcDbLine
 10
527.0100505127634
 20
360.0000000000001
 30
0.0000000000000000
 11
528.0000000000000
 21
360.9899494872366
 31
0.0000000000000000
  0
LINE
  5
464
100
AcDbEntity
  8
A0
  6
BYBLOCK
 62
0
100
AcDbLine
 10
527.1514718711090
 20
360.0000000000005
 30
0.0000000000000000
 11
528.0000000000005
 21
360.8485281288922
 31
0.0000000000000000
  0
LINE
  5
465
100
AcDbEntity
  8
A0
  6
BYBLOCK
 62
0
100
AcDbLine
 10
527.2928932294535
 20
360.0000000000004
 30
0.0000000000000000
 11
528.0000000000005
 21
360.7071067705473
 31
0.0000000000000000
  0
LINE
  5
466
100
AcDbEntity
  8
A0
  6
BYBLOCK
 62
0
100
AcDbLine
 10
527.4343145877992
 20
360.0000000000014
 30
0.0000000000000000
 11
528.0000000000009
 21
360.5656854122030
 31
0.0000000000000000
  0
LINE
  5
467
100
AcDbEntity
  8
A0
  6
BYBLOCK
 62
0
100
AcDbLine
 10
527.5757359461427
 20
360.0000000000001
 30
0.0000000000000000
 11
527.9999999999996
 21
360.4242640538574
 31
0.0000000000000000
  0
LINE
  5
468
100
AcDbEntity
  8
A0
  6
BYBLOCK
 62
0
100
AcDbLine
 10
527.7171573044874
 20
360.0000000000005
 30
0.0000000000000000
 11
527.9999999999996
 21
360.2828426955116
 31
0.0000000000000000
  0
LINE
  5
469
100
AcDbEntity
  8
A0
  6
BYBLOCK
 62
0
100
AcDbLine
 10
527.8585786628341
 20
360.0000000000014
 30
0.0000000000000000
 11
527.9999999999985
 21
360.1414213371663
 31
0.0000000000000000
  0
ENDBLK
  5
46A
100
AcDbEntity
  8
A0
  6
BYBLOCK
 62
3
100
AcDbBlockEnd
  0
BLOCK
  5
46C
100
AcDbEntity
  8
A0
  6
BYBLOCK
 62
3
100
AcDbBlockBegin
  2
*X7
 70
     1
 10
0.0
 20
0.0
 30
0.0
  0
LINE
  5
46D
100
AcDbEntity
  8
A0
  6
BYBLOCK
 62
0
100
AcDbLine
 10
526.5857864377298
 20
349.9999999999992
 30
0.0000000000000000
 11
527.9999999999982
 21
348.5857864377308
 31
0.0000000000000000
  0
LINE
  5
46E
100
AcDbEntity
  8
A0
  6
BYBLOCK
 62
0
100
AcDbLine
 10
526.7272077960743
 20
349.9999999999996
 30
0.0000000000000000
 11
527.9999999999991
 21
348.7272077960743
 31
0.0000000000000000
  0
LINE
  5
46F
100
AcDbEntity
  8
A0
  6
BYBLOCK
 62
0
100
AcDbLine
 10
526.8686291544203
 20
349.9999999999987
 30
0.0000000000000000
 11
527.9999999999985
 21
348.8686291544200
 31
0.0000000000000000
  0
LINE
  5
470
100
AcDbEntity
  8
A0
  6
BYBLOCK
 62
0
100
AcDbLine
 10
527.0100505127634
 20
350.0000000000001
 30
0.0000000000000000
 11
528.0000000000000
 21
349.0100505127635
 31
0.0000000000000000
  0
LINE
  5
471
100
AcDbEntity
  8
A0
  6
BYBLOCK
 62
0
100
AcDbLine
 10
527.1514718711092
 20
349.9999999999996
 30
0.0000000000000000
 11
528.0000000000005
 21
349.1514718711078
 31
0.0000000000000000
  0
LINE
  5
472
100
AcDbEntity
  8
A0
  6
BYBLOCK
 62
0
100
AcDbLine
 10
527.2928932294535
 20
349.9999999999996
 30
0.0000000000000000
 11
528.0000000000005
 21
349.2928932294526
 31
0.0000000000000000
  0
LINE
  5
473
100
AcDbEntity
  8
A0
  6
BYBLOCK
 62
0
100
AcDbLine
 10
527.4343145877992
 20
349.9999999999987
 30
0.0000000000000000
 11
528.0000000000009
 21
349.4343145877970
 31
0.0000000000000000
  0
LINE
  5
474
100
AcDbEntity
  8
A0
  6
BYBLOCK
 62
0
100
AcDbLine
 10
527.5757359461426
 20
349.9999999999999
 30
0.0000000000000000
 11
527.9999999999994
 21
349.5757359461427
 31
0.0000000000000000
  0
LINE
  5
475
100
AcDbEntity
  8
A0
  6
BYBLOCK
 62
0
100
AcDbLine
 10
527.7171573044874
 20
349.9999999999996
 30
0.0000000000000000
 11
527.9999999999994
 21
349.7171573044884
 31
0.0000000000000000
  0
LINE
  5
476
100
AcDbEntity
  8
A0
  6
BYBLOCK
 62
0
100
AcDbLine
 10
527.8585786628340
 20
349.9999999999986
 30
0.0000000000000000
 11
527.9999999999985
 21
349.8585786628337
 31
0.0000000000000000
  0
ENDBLK
  5
477
100
AcDbEntity
  8
A0
  6
BYBLOCK
 62
3
100
AcDbBlockEnd
  0
BLOCK
  5
479
100
AcDbEntity
  8
B0
  6
BYBLOCK
 62
3
100
AcDbBlockBegin
  2
M0
 70
    64
 10
0.0
 20
0.0
 30
0.0
  0
LINE
  5
47A
100
AcDbEntity
  8
B0
  6
BYBLOCK
 62
0
100
AcDbLine
 10
-32.03330587850175
 20
49.45829673551484
 30
0.0000000000000000
 11
100.5564375047472
 21
49.45829673551484
 31
0.0000000000000000
  0
LINE
  5
47B
100
AcDbEntity
  8
B0
  6
BYBLOCK
 62
0
100
AcDbLine
 10
-32.03330587850175
 20
41.95829673551486
 30
0.0000000000000000
 11
100.5564375047472
 21
41.95829673551486
 31
0.0000000000000000
  0
LINE
  5
47C
100
AcDbEntity
  8
B0
  6
BYBLOCK
 62
0
100
AcDbLine
 10
-32.03330587850175
 20
34.45829673551492
 30
0.0000000000000000
 11
100.5564375047472
 21
34.45829673551492
 31
0.0000000000000000
  0
MTEXT
  5
47D
100
AcDbEntity
  8
B0
  6
BYBLOCK
 62
0
100
AcDbMText
 10
-30.53330587850176
 20
54.85829659246369
 30
0.0000000000000000
 40
4.649999856948853
 41
0.0000000000000000
 71
     1
 72
     1
  1
{\H0.88x;1.}
 11
1.000000000000000
 21
0.0000000000000000
 31
0.0000000000000000
  7
STANDARD
  0
MTEXT
  5
47E
100
AcDbEntity
  8
B0
  6
BYBLOCK
 62
0
100
AcDbMText
 10
-29.78330587850175
 20
70.45829673551526
 30
0.0000000000000000
 40
9.000000000000000
 41
0.0000000000000000
 71
     1
 72
     1
  1
{\H0.80x;要注意}
 11
1.000000000000000
 21
0.0000000000000000
 31
0.0000000000000000
  7
KNJYOKO
  0
LINE
  5
47F
100
AcDbEntity
  8
B0
  6
BYBLOCK
 62
0
100
AcDbLine
 10
-2.033305878501750
 20
72.70829673551525
 30
0.0000000000000000
 11
-2.033305878501750
 21
59.20829673551528
 31
0.0000000000000000
  0
LINE
  5
480
100
AcDbEntity
  8
B0
  6
BYBLOCK
 62
0
100
AcDbLine
 10
-32.03330587850175
 20
59.20829673551526
 30
0.0000000000000000
 11
-2.033305878501750
 21
59.20829673551526
 31
0.0000000000000000
  0
LINE
  5
481
100
AcDbEntity
  8
B0
  6
BYBLOCK
 62
0
100
AcDbLine
 10
-32.03330587850175
 20
72.70829673551525
 30
0.0000000000000000
 11
-32.03330587850175
 21
59.20829673551525
 31
0.0000000000000000
  0
LINE
  5
482
100
AcDbEntity
  8
B0
  6
BYBLOCK
 62
0
100
AcDbLine
 10
-32.03330587850175
 20
72.70829673551526
 30
0.0000000000000000
 11
-2.033305878501750
 21
72.70829673551526
 31
0.0000000000000000
  0
ENDBLK
  5
483
100
AcDbEntity
  8
B0
  6
BYBLOCK
 62
3
100
AcDbBlockEnd
  0
BLOCK
  5
4B8
100
AcDbEntity
  8
B0
  6
BYBLOCK
 62
3
100
AcDbBlockBegin
  2
M1
 70
    64
 10
0.0
 20
0.0
 30
0.0
  0
LINE
  5
4B9
100
AcDbEntity
  8
B0
  6
BYBLOCK
 62
0
100
AcDbLine
 10
-32.03330587850175
 20
6.958296735514836
 30
0.0000000000000000
 11
92.95313342848944
 21
6.958296735514836
 31
0.0000000000000000
  0
LINE
  5
4BA
100
AcDbEntity
  8
B0
  6
BYBLOCK
 62
0
100
AcDbLine
 10
-32.03330587850175
 20
-0.5417032644851361
 30
0.0000000000000000
 11
92.95313342848944
 21
-0.5417032644851361
 31
0.0000000000000000
  0
LINE
  5
4BB
100
AcDbEntity
  8
B0
  6
BYBLOCK
 62
0
100
AcDbLine
 10
-32.03330587850178
 20
-8.041703264485079
 30
0.0000000000000000
 11
92.95313342848944
 21
-8.041703264485079
 31
0.0000000000000000
  0
LINE
  5
4BC
100
AcDbEntity
  8
B0
  6
BYBLOCK
 62
0
100
AcDbLine
 10
-32.03330587850178
 20
-15.54170326448508
 30
0.0000000000000000
 11
92.95313342848944
 21
-15.54170326448508
 31
0.0000000000000000
  0
MTEXT
  5
4BD
100
AcDbEntity
  8
B0
  6
BYBLOCK
 62
0
100
AcDbMText
 10
-30.53330587850176
 20
12.35829659246369
 30
0.0000000000000000
 40
4.649999856948853
 41
0.0000000000000000
 71
     1
 72
     1
  1
{\H0.88x;1.}
 11
1.000000000000000
 21
0.0000000000000000
 31
0.0000000000000000
  7
STANDARD
  0
MTEXT
  5
4BE
100
AcDbEntity
  8
B0
  6
BYBLOCK
 62
0
100
AcDbMText
 10
-30.10670037391461
 20
25.93536089992193
 30
0.0000000000000000
 40
4.954128384590149
 41
0.0000000000000000
 71
     1
 72
     1
  1
{\H0.92x;NOTICE}
 11
1.000000000000000
 21
0.0000000000000000
 31
0.0000000000000000
  7
STANDARD
  0
LINE
  5
4BF
100
AcDbEntity
  8
B0
  6
BYBLOCK
 62
0
100
AcDbLine
 10
-2.033305878501750
 20
30.20829673551525
 30
0.0000000000000000
 11
-2.033305878501750
 21
16.70829673551528
 31
0.0000000000000000
  0
LINE
  5
4C0
100
AcDbEntity
  8
B0
  6
BYBLOCK
 62
0
100
AcDbLine
 10
-32.03330587850175
 20
16.70829673551526
 30
0.0000000000000000
 11
-2.033305878501750
 21
16.70829673551526
 31
0.0000000000000000
  0
LINE
  5
4C1
100
AcDbEntity
  8
B0
  6
BYBLOCK
 62
0
100
AcDbLine
 10
-32.03330587850175
 20
30.20829673551525
 30
0.0000000000000000
 11
-32.03330587850175
 21
16.70829673551525
 31
0.0000000000000000
  0
LINE
  5
4C2
100
AcDbEntity
  8
B0
  6
BYBLOCK
 62
0
100
AcDbLine
 10
-32.03330587850175
 20
30.20829673551526
 30
0.0000000000000000
 11
-2.033305878501750
 21
30.20829673551526
 31
0.0000000000000000
  0
ENDBLK
  5
4C3
100
AcDbEntity
  8
B0
  6
BYBLOCK
 62
3
100
AcDbBlockEnd
  0
ENDSEC
  0
SECTION
  2
ENTITIES
  0
CIRCLE
  5
46
100
AcDbEntity
  8
MAIN0
  6
HIDDEN
 62
3
100
AcDbCircle
 10
345.4363706364844
 20
233.0930882850090
 30
0.0000000000000000
 40
52.50000000000000
  0
LINE
  5
47
100
AcDbEntity
  8
MAIN0
  6
HIDDEN
 62
3
100
AcDbLine
 10
255.8341506811145
 20
306.7642643246887
 30
0.0000000000000000
 11
329.4805265129697
 21
264.2445094132028
 31
0.0000000000000000
  0
LINE
  5
48
100
AcDbEntity
  8
MAIN0
  6
HIDDEN
 62
3
100
AcDbLine
 10
236.8341506813003
 20
273.8552989807725
 30
0.0000000000000000
 11
310.4805265138140
 21
231.3355440689065
 31
0.0000000000000000
  0
LINE
  5
49
100
AcDbEntity
  8
MAIN0
  6
HIDDEN
 62
3
100
AcDbLine
 10
361.3922147595426
 20
264.2445094134371
 30
0.0000000000000000
 11
435.0385905915597
 21
306.7642643250474
 31
0.0000000000000000
  0
LINE
  5
4A
100
AcDbEntity
  8
MAIN0
  6
HIDDEN
 62
3
100
AcDbLine
 10
380.3922147591812
 20
231.3355440694198
 30
0.0000000000000000
 11
454.0385905915053
 21
273.8552989812074
 31
0.0000000000000000
  0
LINE
  5
4B
100
AcDbEntity
  8
MAIN0
  6
HIDDEN
 62
3
100
AcDbLine
 10
326.4363706364845
 20
118.6597015484451
 30
0.0000000000000000
 11
326.4363706364845
 21
203.6992113716108
 31
0.0000000000000000
  0
LINE
  5
4C
100
AcDbEntity
  8
MAIN0
  6
HIDDEN
 62
3
100
AcDbLine
 10
364.4363706364845
 20
118.6597015484451
 30
0.0000000000000000
 11
364.4363706364845
 21
203.6992113716109
 31
0.0000000000000000
  0
LINE
  5
4D
100
AcDbEntity
  8
MAIN0
  6
HIDDEN
 62
3
100
AcDbLine
 10
237.2854766593461
 20
191.1480750898058
 30
0.0000000000000000
 11
255.2970449765014
 21
201.5470589062807
 31
0.0000000000000000
  0
LINE
  5
4E
100
AcDbEntity
  8
MAIN0
  6
HIDDEN
 62
3
100
AcDbLine
 10
255.0354766594936
 20
160.4041732555434
 30
0.0000000000000000
 11
273.0470449766714
 21
170.8031570720312
 31
0.0000000000000000
  0
LINE
  5
4F
100
AcDbEntity
  8
MAIN0
  6
HIDDEN
 62
3
100
AcDbLine
 10
435.8372646132306
 20
160.4041732552392
 30
0.0000000000000000
 11
417.8256962960371
 21
170.8031570717285
 31
0.0000000000000000
  0
LINE
  5
50
100
AcDbEntity
  8
MAIN0
  6
HIDDEN
 62
3
100
AcDbLine
 10
453.5872646134819
 20
191.1480750894416
 30
0.0000000000000000
 11
435.5756962963351
 21
201.5470589059039
 31
0.0000000000000000
  0
LINE
  5
51
100
AcDbEntity
  8
MAIN0
  6
CENTER
 62
3
100
AcDbLine
 10
220.4363706364845
 20
233.0930882850090
 30
0.0000000000000000
 11
470.4363706364845
 21
233.0930882850090
 31
0.0000000000000000
  0
LINE
  5
52
100
AcDbEntity
  8
MAIN0
  6
CENTER
 62
3
100
AcDbLine
 10
287.1863706376031
 20
333.9850478261155
 30
0.0000000000000000
 11
299.6863706375752
 21
312.3344127314885
 31
0.0000000000000000
  0
LINE
  5
53
100
AcDbEntity
  8
MAIN0
  6
CENTER
 62
3
100
AcDbLine
 10
284.4157130332791
 20
127.4022090076993
 30
0.0000000000000000
 11
302.4100344421825
 21
158.5692879355926
 31
0.0000000000000000
  0
ARC
  5
54
100
AcDbEntity
  8
MAIN0
  6
CENTER
 62
3
100
AcDbCircle
 10
345.4363706372229
 20
233.0930882850090
 30
0.0000000000000000
 40
104.0000000000000
100
AcDbArc
 50
230.3096256393978
 51
249.7602930167696
  0
ARC
  5
55
100
AcDbEntity
  8
MAIN0
  6
CENTER
 62
3
100
AcDbCircle
 10
345.4363706372229
 20
233.0930882850090
 30
0.0000000000000000
 40
104.0000000000000
100
AcDbArc
 50
351.6167537707907
 51
368.9264086284535
  0
ARC
  5
56
100
AcDbEntity
  8
MAIN0
  6
CENTER
 62
3
100
AcDbCircle
 10
345.4363706372229
 20
233.0930882850090
 30
0.0000000000000000
 40
104.0000000000000
100
AcDbArc
 50
113.1093361267608
 51
126.8906638727732
  0
LINE
  5
57
100
AcDbEntity
  8
MAIN0
  6
CENTER
 62
3
100
AcDbLine
 10
257.7057720727823
 20
163.6779198387977
 30
0.0000000000000000
 11
270.4798772068864
 21
171.0530528766562
 31
0.0000000000000000
  0
LINE
  5
58
100
AcDbEntity
  8
MAIN0
  6
CENTER
 62
3
100
AcDbLine
 10
449.8571309275393
 20
191.5696179695701
 30
0.0000000000000000
 11
436.8135457310605
 21
199.1003353939769
 31
0.0000000000000000
  0
ARC
  5
59
100
AcDbEntity
  8
MAIN0
  6
CENTER
 62
3
100
AcDbCircle
 10
345.4363706364845
 20
233.0930882845826
 30
0.0000000000000000
 40
104.0000000000000
100
AcDbArc
 50
214.3192672555574
 51
224.0947987703929
  0
ARC
  5
5A
100
AcDbEntity
  8
MAIN0
  6
CENTER
 62
3
100
AcDbCircle
 10
345.4363706364845
 20
233.0930882845826
 30
0.0000000000000000
 40
104.0000000000000
100
AcDbArc
 50
333.4349488230950
 51
344.3908996878355
  0
ARC
  5
5B
100
AcDbEntity
  8
MAIN0
  6
CONTINUOUS
 62
3
100
AcDbCircle
 10
345.4363706364844
 20
233.0930882850090
 30
0.0000000000000000
 40
35.00000000000000
100
AcDbArc
 50
287.8877650527563
 51
372.1122397370675
  0
ARC
  5
5C
100
AcDbEntity
  8
MAIN0
  6
CONTINUOUS
 62
3
100
AcDbCircle
 10
345.4363706364844
 20
233.0930882850090
 30
0.0000000000000000
 40
35.00000000000000
100
AcDbArc
 50
167.8877650527561
 51
252.1122397326426
  0
ARC
  5
5D
100
AcDbEntity
  8
MAIN0
  6
CONTINUOUS
 62
3
100
AcDbCircle
 10
345.4363706364844
 20
233.0930882850090
 30
0.0000000000000000
 40
35.00000000000000
100
AcDbArc
 50
47.88776505194117
 51
132.1122397378823
  0
ARC
  5
5E
100
AcDbEntity
  8
MAIN0
  6
CONTINUOUS
 62
3
100
AcDbCircle
 10
345.4363706364844
 20
233.0930882850090
 30
0.0000000000000000
 40
116.0000000000000
100
AcDbArc
 50
32.58140644755130
 51
147.4185780308372
  0
ARC
  5
5F
100
AcDbEntity
  8
MAIN0
  6
CONTINUOUS
 62
3
100
AcDbCircle
 10
345.4363706364844
 20
233.0930882850090
 30
0.0000000000000000
 40
116.0000000000000
100
AcDbArc
 50
152.5814064475522
 51
267.4185780308372
  0
ARC
  5
60
100
AcDbEntity
  8
MAIN0
  6
CONTINUOUS
 62
3
100
AcDbCircle
 10
345.4363706364844
 20
233.0930882850090
 30
0.0000000000000000
 40
116.0000000000000
100
AcDbArc
 50
272.5814064475513
 51
387.4185780308382
  0
ARC
  5
61
100
AcDbEntity
  8
MAIN0
  6
CENTER
 62
3
100
AcDbCircle
 10
345.4363706364845
 20
233.0930882830277
 30
0.0000000000000000
 40
49.00000000000000
100
AcDbArc
 50
98.28659618004099
 51
121.7134038197150
  0
LINE
  5
62
100
AcDbEntity
  8
MAIN0
  6
CENTER
 62
3
100
AcDbLine
 10
422.7415659517522
 20
188.4609129589387
 30
0.0000000000000000
 11
455.8946111723460
 21
169.3199933763173
 31
0.0000000000000000
  0
DIMENSION
  5
6B
100
AcDbEntity
  8
MAIN0
  6
CONTINUOUS
 62
3
100
AcDbDimension
  2
*D0
 10
55.43637063648446
 20
268.0930882850090
 30
0.0000000000000000
 11
54.93637063648446
 21
233.0930882850090
 31
0.0000000000000000
 70
32
  1
\A1;\U+220570
  3
MAIN001
100
AcDbAlignedDimension
 13
91.99368145041476
 23
198.0930882850090
 33
0.0000000000000000
 14
91.99368145041474
 24
268.0930882850090
 34
0.0000000000000000
 50
90.00000000000000
100
AcDbRotatedDimension
1001
ACAD
1000
DSTYLE
1002
{
1070
   173
1070
     1
1070
     6
1000
_OPEN
1070
     7
1000
_OPEN
1070
    41
1040
2.000000
1002
}
  0
DIMENSION
  5
74
100
AcDbEntity
  8
MAIN0
  6
CONTINUOUS
 62
3
100
AcDbDimension
  2
*D1
 10
35.43637063648446
 20
349.0930882850090
 30
0.0000000000000000
 11
34.93637063648446
 21
233.0930882850090
 31
0.0000000000000000
 70
32
  1
\A1;\U+2205232
  3
MAIN001
100
AcDbAlignedDimension
 13
73.79368145041475
 23
117.0930882850090
 33
0.0000000000000000
 14
73.79368145041474
 24
349.0930882850090
 34
0.0000000000000000
 50
90.00000000000000
100
AcDbRotatedDimension
1001
ACAD
1000
DSTYLE
1002
{
1070
   173
1070
     1
1070
     6
1000
_OPEN
1070
     7
1000
_OPEN
1070
    41
1040
2.000000
1002
}
  0
DIMENSION
  5
7D
100
AcDbEntity
  8
MAIN0
  6
CONTINUOUS
 62
3
100
AcDbDimension
  2
*D2
 10
71.79368145041475
 20
378.0930882850090
 30
0.0000000000000000
 11
113.7936814504148
 21
378.5930882850090
 31
0.0000000000000000
 70
32
  3
MAIN001
100
AcDbAlignedDimension
 13
155.7936814504147
 23
347.0930882850090
 33
0.0000000000000000
 14
71.79368145041475
 24
347.0930882850090
 34
0.0000000000000000
100
AcDbRotatedDimension
1001
ACAD
1000
DSTYLE
1002
{
1070
   173
1070
     1
1070
     6
1000
_OPEN
1070
     7
1000
_OPEN
1070
    41
1040
2.000000
1002
}
  0
DIMENSION
  5
86
100
AcDbEntity
  8
MAIN0
  6
CONTINUOUS
 62
3
100
AcDbDimension
  2
*D3
 10
142.7936814504147
 20
355.5930882850090
 30
0.0000000000000000
 11
149.2936814504147
 21
356.0930882850090
 31
0.0000000000000000
 70
32
  3
MAIN001
100
AcDbAlignedDimension
 13
155.7936814504147
 23
347.0930882850090
 33
0.0000000000000000
 14
142.7936814504147
 24
347.0930882850090
 34
0.0000000000000000
100
AcDbRotatedDimension
1001
ACAD
1000
DSTYLE
1002
{
1070
   173
1070
     1
1070
     6
1000
_OPEN
1070
     7
1000
_OPEN
1070
    41
1040
2.000000
1002
}
  0
DIMENSION
  5
8F
100
AcDbEntity
  8
MAIN0
  6
CONTINUOUS
 62
3
100
AcDbDimension
  2
*D4
 10
55.43637063648446
 20
343.8430882850090
 30
0.0000000000000000
 11
54.93637063648446
 21
337.0930882850090
 31
0.0000000000000000
 70
32
  1
\A1;\U+220513.5
  3
MAIN001
100
AcDbAlignedDimension
 13
72.39368145041475
 23
330.3430882850090
 33
0.0000000000000000
 14
72.39368145041475
 24
343.8430882850090
 34
0.0000000000000000
 50
90.00000000000000
100
AcDbRotatedDimension
1001
ACAD
1000
DSTYLE
1002
{
1070
   173
1070
     1
1070
     6
1000
_OPEN
1070
     7
1000
_OPEN
1070
    41
1040
2.000000
1002
}
  0
DIMENSION
  5
98
100
AcDbEntity
  8
MAIN0
  6
CONTINUOUS
 62
3
100
AcDbDimension
  2
*D5
 10
170.4363706364845
 20
347.0930882850090
 30
0.0000000000000000
 11
169.9363706364845
 21
337.0930882850090
 31
0.0000000000000000
 70
32
  1
\A1;\U+220520
  3
MAIN001
100
AcDbAlignedDimension
 13
155.1936814504147
 23
327.0930882850090
 33
0.0000000000000000
 14
155.1936814504148
 24
347.0930882850090
 34
0.0000000000000000
 50
90.00000000000000
100
AcDbRotatedDimension
1001
ACAD
1000
DSTYLE
1002
{
1070
   173
1070
     1
1070
     6
1000
_OPEN
1070
     7
1000
_OPEN
1070
    41
1040
2.000000
1002
}
  0
DIMENSION
  5
A1
100
AcDbEntity
  8
MAIN0
  6
CONTINUOUS
 62
3
100
AcDbDimension
  2
*D6
 10
71.79368145041475
 20
168.0930882850090
 30
0.0000000000000000
 11
67.93637063648446
 21
168.5930882850090
 31
0.0000000000000000
 70
160
  3
MAIN001
100
AcDbAlignedDimension
 13
77.79368145041475
 23
138.4930882850090
 33
0.0000000000000000
 14
71.79368145041475
 24
119.0930882850090
 34
0.0000000000000000
100
AcDbRotatedDimension
1001
ACAD
1000
DSTYLE
1002
{
1070
   173
1070
     1
1070
     6
1000
_OPEN
1070
     7
1000
_OPEN
1070
    41
1040
2.000000
1070
   287
1070
     0
1002
}
  0
DIMENSION
  5
AB
100
AcDbEntity
  8
MAIN0
  6
CONTINUOUS
 62
3
100
AcDbDimension
  2
*D7
 10
106.6223853563802
 20
381.7791030048995
 30
0.0000000000000000
 11
118.1829623303756
 21
394.0467867600885
 31
0.0000000000000000
 70
161
  1
\A1;□12\H0.903226x;\S＋0.15^ ＋0.05;
  3
MAIN001
100
AcDbAlignedDimension
 13
109.0436814504147
 23
396.3283696593384
 33
0.0000000000000000
 14
100.5584000762674
 24
387.8430882850084
 34
0.0000000000000000
 50
45.00000000001689
1001
ACAD
1000
DSTYLE
1002
{
1070
   173
1070
     1
1070
     6
1000
_OPEN
1070
     7
1000
_OPEN
1070
    41
1040
2.000000
1070
   272
1070
     2
1070
    47
1040
0.150000
1070
    48
1040
-0.050000
1070
    71
1070
     1
1070
   340
1005
AC
1002
}
  0
DIMENSION
  5
B2
100
AcDbEntity
  8
MAIN0
  6
CONTINUOUS
 62
3
100
AcDbDimension
  2
*D8
 10
306.5892912206664
 20
136.6207895625065
 30
0.0000000000000000
 11
314.7630657250940
 21
158.2580098711014
 31
0.0000000000000000
 70
163
  3
MAIN001
100
AcDbDiametricDimension
 15
384.2834500537791
 25
329.5653870075114
 35
0.0000000000000000
1001
ACAD
1000
DSTYLE
1002
{
1070
   287
1070
     2
1070
   173
1070
     1
1070
     6
1000
_OPEN
1070
     7
1000
_NONE
1070
    41
1040
2.000000
1070
   272
1070
     1
1070
    47
1040
0.200000
1070
    48
1040
0.200000
1070
    71
1070
     1
1002
}
  0
MTEXT
  5
B3
100
AcDbEntity
  8
MAIN0
  6
CONTINUOUS
 62
3
100
AcDbMText
 10
368.2374619998446
 20
136.3164894686337
 30
0.0000000000000000
 40
4.000000000000000
 41
0.0000000000000000
 71
     1
 72
     1
  1
{\H0.84x;{１}}
 11
1.000000000000000
 21
0.0000000000000000
 31
0.0000000000000000
  7
KNJYOKO
  0
MTEXT
  5
B4
100
AcDbEntity
  8
MAIN0
  6
CONTINUOUS
 62
3
100
AcDbMText
 10
248.9338585377671
 20
261.5857383092664
 30
0.0000000000000000
 40
3.099999904632568
 41
0.0000000000000000
 71
     1
 72
     1
  1
{\H0.84x;{３}}
 11
-0.5000000000000004
 21
-0.8660254037844384
 31
0.0000000000000000
  7
KNJYOKO
  0
MTEXT
  5
B5
100
AcDbEntity
  8
MAIN0
  6
CONTINUOUS
 62
3
100
AcDbMText
 10
418.3061954931720
 20
302.5862625657978
 30
0.0000000000000000
 40
3.099999904632568
 41
0.0000000000000000
 71
     1
 72
     1
  1
{\H0.84x;{２}}
 11
-0.4999999999999998
 21
0.8660254037844387
 31
0.0000000000000000
  7
KNJYOKO
  0
ARC
  5
B6
100
AcDbEntity
  8
MAIN0
  6
HIDDEN
 62
3
100
AcDbCircle
 10
135.9175511210874
 20
327.2394555853904
 30
0.0000000000000000
 40
22.50000000000000
100
AcDbArc
 50
138.5860264068159
 51
147.9725542049656
  0
ARC
  5
B7
100
AcDbEntity
  8
MAIN0
  6
HIDDEN
 62
3
100
AcDbCircle
 10
66.66981177983782
 20
327.2394555852821
 30
0.0000000000000000
 40
22.50000000000000
100
AcDbArc
 50
32.02744580075608
 51
41.41397359355194
  0
DIMENSION
  5
C0
100
AcDbEntity
  8
MAIN0
  6
CONTINUOUS
 62
3
100
AcDbDimension
  2
*D9
 10
71.79368145041475
 20
368.1057306890393
 30
0.0000000000000000
 11
86.54368145041475
 21
368.6057306890393
 31
0.0000000000000000
 70
32
  3
MAIN001
100
AcDbAlignedDimension
 13
101.2936814504148
 23
358.0930882850090
 33
0.0000000000000000
 14
71.79368145041475
 24
347.0930882850090
 34
0.0000000000000000
100
AcDbRotatedDimension
1001
ACAD
1000
DSTYLE
1002
{
1070
   173
1070
     1
1070
     6
1000
_OPEN
1070
     7
1000
_OPEN
1070
    41
1040
2.000000
1002
}
  0
DIMENSION
  5
C9
100
AcDbEntity
  8
MAIN0
  6
CONTINUOUS
 62
3
100
AcDbDimension
  2
*D10
 10
101.2936814504148
 20
368.1057306890393
 30
0.0000000000000000
 11
128.5436814504147
 21
368.6057306890393
 31
0.0000000000000000
 70
32
  3
MAIN001
100
AcDbAlignedDimension
 13
155.7936814504147
 23
347.0930882850090
 33
0.0000000000000000
 14
101.2936814504148
 24
358.0930882850090
 34
0.0000000000000000
100
AcDbRotatedDimension
1001
ACAD
1000
DSTYLE
1002
{
1070
   173
1070
     1
1070
     6
1000
_OPEN
1070
     7
1000
_OPEN
1070
    41
1040
2.000000
1002
}
  0
CIRCLE
  5
CA
100
AcDbEntity
  8
MAIN0
  6
CONTINUOUS
 62
3
100
AcDbCircle
 10
293.4363706375891
 20
323.1597302788020
 30
0.0000000000000000
 40
6.750000000000000
  0
CIRCLE
  5
CB
100
AcDbEntity
  8
MAIN0
  6
CONTINUOUS
 62
3
100
AcDbCircle
 10
293.4363706355085
 20
143.0264462924172
 30
0.0000000000000000
 40
6.750000000000000
  0
CIRCLE
  5
CC
100
AcDbEntity
  8
MAIN0
  6
CONTINUOUS
 62
3
100
AcDbCircle
 10
449.4363706372229
 20
233.0930882850090
 30
0.0000000000000000
 40
6.750000000000000
  0
LINE
  5
CD
100
AcDbEntity
  8
MAIN0
  6
PHANTOM
 62
3
100
AcDbLine
 10
205.7936814504147
 20
218.0930882850090
 30
0.0000000000000000
 11
205.7936814504147
 21
248.0930882850090
 31
0.0000000000000000
  0
LINE
  5
CE
100
AcDbEntity
  8
MAIN0
  6
PHANTOM
 62
3
100
AcDbLine
 10
204.7936814504147
 20
249.0930882850090
 30
0.0000000000000000
 11
158.1936814504147
 21
249.0930882850090
 31
0.0000000000000000
  0
LINE
  5
CF
100
AcDbEntity
  8
MAIN0
  6
PHANTOM
 62
3
100
AcDbLine
 10
204.7936814504147
 20
217.0930882850090
 30
0.0000000000000000
 11
158.1936814504148
 21
217.0930882850090
 31
0.0000000000000000
  0
LINE
  5
D0
100
AcDbEntity
  8
MAIN0
  6
PHANTOM
 62
3
100
AcDbLine
 10
205.7936814504147
 20
248.0930882850090
 30
0.0000000000000000
 11
204.7936814504147
 21
249.0930882850090
 31
0.0000000000000000
  0
LINE
  5
D1
100
AcDbEntity
  8
MAIN0
  6
PHANTOM
 62
3
100
AcDbLine
 10
204.7936814504147
 20
217.0930882850090
 30
0.0000000000000000
 11
205.7936814504147
 21
218.0930882850090
 31
0.0000000000000000
  0
LINE
  5
D2
100
AcDbEntity
  8
MAIN0
  6
PHANTOM
 62
3
100
AcDbLine
 10
158.1936814504147
 20
249.0930882850090
 30
0.0000000000000000
 11
157.7936814504147
 21
248.6930882850090
 31
0.0000000000000000
  0
LINE
  5
D3
100
AcDbEntity
  8
MAIN0
  6
PHANTOM
 62
3
100
AcDbLine
 10
157.7936814504147
 20
217.4930882850090
 30
0.0000000000000000
 11
158.1936814504147
 21
217.0930882850090
 31
0.0000000000000000
  0
LINE
  5
D4
100
AcDbEntity
  8
MAIN0
  6
PHANTOM
 62
3
100
AcDbLine
 10
163.8936814504147
 20
239.4430882850090
 30
0.0000000000000000
 11
160.2936814504147
 21
239.4430882850090
 31
0.0000000000000000
  0
LINE
  5
D5
100
AcDbEntity
  8
MAIN0
  6
PHANTOM
 62
3
100
AcDbLine
 10
163.8936814504148
 20
226.7430882850090
 30
0.0000000000000000
 11
160.2936814504148
 21
226.7430882850090
 31
0.0000000000000000
  0
LINE
  5
D6
100
AcDbEntity
  8
MAIN0
  6
PHANTOM
 62
3
100
AcDbLine
 10
160.7936814504148
 20
239.4430882850090
 30
0.0000000000000000
 11
160.7936814504147
 21
248.6930882850090
 31
0.0000000000000000
  0
LINE
  5
D7
100
AcDbEntity
  8
MAIN0
  6
PHANTOM
 62
3
100
AcDbLine
 10
160.7936814504148
 20
217.4930882850090
 30
0.0000000000000000
 11
160.7936814504148
 21
226.7430882850090
 31
0.0000000000000000
  0
LINE
  5
D8
100
AcDbEntity
  8
MAIN0
  6
PHANTOM
 62
3
100
AcDbLine
 10
157.7936814504147
 20
246.3430882850090
 30
0.0000000000000000
 11
157.7936814504147
 21
248.6930882850090
 31
0.0000000000000000
  0
LINE
  5
D9
100
AcDbEntity
  8
MAIN0
  6
PHANTOM
 62
3
100
AcDbLine
 10
157.7936814504147
 20
217.4930882850090
 30
0.0000000000000000
 11
157.7936814504147
 21
219.8430882850090
 31
0.0000000000000000
  0
LINE
  5
DA
100
AcDbEntity
  8
MAIN0
  6
PHANTOM
 62
3
100
AcDbLine
 10
160.7936814504147
 20
248.6930882850090
 30
0.0000000000000000
 11
161.1936814504147
 21
249.0930882850090
 31
0.0000000000000000
  0
LINE
  5
DB
100
AcDbEntity
  8
MAIN0
  6
PHANTOM
 62
3
100
AcDbLine
 10
160.7936814504148
 20
217.4930882850090
 30
0.0000000000000000
 11
161.1936814504148
 21
217.0930882850090
 31
0.0000000000000000
  0
LINE
  5
DC
100
AcDbEntity
  8
MAIN0
  6
PHANTOM
 62
3
100
AcDbLine
 10
160.7936814504148
 20
241.4430882850090
 30
0.0000000000000000
 11
160.2936814504147
 21
241.4430882850090
 31
0.0000000000000000
  0
LINE
  5
DD
100
AcDbEntity
  8
MAIN0
  6
PHANTOM
 62
3
100
AcDbLine
 10
160.7936814504148
 20
224.7430882850090
 30
0.0000000000000000
 11
160.2936814504148
 21
224.7430882850090
 31
0.0000000000000000
  0
LINE
  5
DE
100
AcDbEntity
  8
MAIN0
  6
PHANTOM
 62
3
100
AcDbLine
 10
160.2936814504148
 20
224.7430882850090
 30
0.0000000000000000
 11
160.2936814504148
 21
226.7430882850090
 31
0.0000000000000000
  0
LINE
  5
DF
100
AcDbEntity
  8
MAIN0
  6
PHANTOM
 62
3
100
AcDbLine
 10
160.2936814504147
 20
239.4430882850090
 30
0.0000000000000000
 11
160.2936814504147
 21
241.4430882850090
 31
0.0000000000000000
  0
DIMENSION
  5
E8
100
AcDbEntity
  8
MAIN0
  6
CONTINUOUS
 62
3
100
AcDbDimension
  2
*D11
 10
215.4363706364845
 20
249.0930882850090
 30
0.0000000000000000
 11
214.9363706364845
 21
233.0930882850090
 31
0.0000000000000000
 70
32
  3
MAIN001
100
AcDbAlignedDimension
 13
204.7936814504147
 23
217.0930882850090
 33
0.0000000000000000
 14
204.7936814504147
 24
249.0930882850090
 34
0.0000000000000000
 50
90.00000000000000
100
AcDbRotatedDimension
1001
ACAD
1000
DSTYLE
1002
{
1070
   173
1070
     1
1070
     6
1000
_OPEN
1070
     7
1000
_OPEN
1070
    41
1040
2.000000
1002
}
  0
DIMENSION
  5
F1
100
AcDbEntity
  8
MAIN0
  6
CONTINUOUS
 62
3
100
AcDbDimension
  2
*D12
 10
215.4363706364845
 20
205.0931273091306
 30
0.0000000000000000
 11
214.9363706364845
 21
160.0931273091493
 31
0.0000000000000000
 70
32
  3
MAIN001
100
AcDbAlignedDimension
 13
180.5904482240375
 23
115.0931273091681
 33
0.0000000000000000
 14
205.0904482241373
 24
205.0931273091409
 34
0.0000000000000000
 50
90.00000000000000
100
AcDbRotatedDimension
1001
ACAD
1000
DSTYLE
1002
{
1070
   173
1070
     1
1070
     6
1000
_OPEN
1070
     7
1000
_OPEN
1070
    41
1040
2.000000
1002
}
  0
DIMENSION
  5
F9
100
AcDbEntity
  8
MAIN0
  6
CONTINUOUS
 62
3
100
AcDbDimension
  2
*D13
 10
155.7936814504147
 20
258.0930882850090
 30
0.0000000000000000
 11
180.7936814504147
 21
258.5930882850090
 31
0.0000000000000000
 70
32
  3
MAIN001
100
AcDbAlignedDimension
 13
205.7936814504147
 23
248.0930882850090
 33
0.0000000000000000
 14
155.7936814504147
 24
118.6931213490543
 34
0.0000000000000000
100
AcDbRotatedDimension
1001
ACAD
1000
DSTYLE
1002
{
1070
   173
1070
     1
1070
     6
1000
_OPEN
1070
     7
1000
_OPEN
1070
    41
1040
2.000000
1002
}
  0
LINE
  5
FA
100
AcDbEntity
  8
MAIN0
  6
PHANTOM
 62
3
100
AcDbLine
 10
164.2936814504147
 20
227.1430882850090
 30
0.0000000000000000
 11
164.2936814504147
 21
239.0430882850090
 31
0.0000000000000000
  0
LINE
  5
FB
100
AcDbEntity
  8
MAIN0
  6
PHANTOM
 62
3
100
AcDbLine
 10
164.2936814504147
 20
239.0430882850090
 30
0.0000000000000000
 11
163.8936814504147
 21
239.4430882850090
 31
0.0000000000000000
  0
LINE
  5
FC
100
AcDbEntity
  8
MAIN0
  6
PHANTOM
 62
3
100
AcDbLine
 10
163.8936814504147
 20
226.7430882850090
 30
0.0000000000000000
 11
164.2936814504147
 21
227.1430882850090
 31
0.0000000000000000
  0
ARC
  5
FD
100
AcDbEntity
  8
MAIN0
  6
CONTINUOUS
 62
3
100
AcDbCircle
 10
345.4363706364492
 20
239.5930882842779
 30
0.0000000000000000
 40
34.50000000000000
100
AcDbArc
 50
267.5080936310201
 51
272.4919063689679
  0
ARC
  5
FE
100
AcDbEntity
  8
MAIN0
  6
CONTINUOUS
 62
3
100
AcDbCircle
 10
339.8072055117449
 20
229.8430882839732
 30
0.0000000000000000
 40
34.50000000000000
100
AcDbArc
 50
27.50809363102010
 51
32.49190636896793
  0
LINE
  5
FF
100
AcDbEntity
  8
MAIN0
  6
CONTINUOUS
 62
3
100
AcDbLine
 10
331.9363706364845
 20
117.8813267326396
 30
0.0000000000000000
 11
331.9363706364845
 21
121.9608895482295
 31
0.0000000000000000
  0
LINE
  5
100
100
AcDbEntity
  8
MAIN0
  6
CONTINUOUS
 62
3
100
AcDbLine
 10
358.9363706364845
 20
117.8813267326397
 30
0.0000000000000000
 11
358.9363706364845
 21
121.9608895482295
 31
0.0000000000000000
  0
LINE
  5
101
100
AcDbEntity
  8
MAIN0
  6
CONTINUOUS
 62
3
100
AcDbLine
 10
358.9363706364845
 20
198.1974873280852
 30
0.0000000000000000
 11
358.9363706364845
 21
200.8014485000740
 31
0.0000000000000000
  0
LINE
  5
102
100
AcDbEntity
  8
MAIN0
  6
CONTINUOUS
 62
3
100
AcDbLine
 10
331.9363706364845
 20
198.1975040374377
 30
0.0000000000000000
 11
331.9363706364845
 21
200.8014485000739
 31
0.0000000000000000
  0
LINE
  5
103
100
AcDbEntity
  8
MAIN0
  6
CONTINUOUS
 62
3
100
AcDbLine
 10
434.9296779210527
 20
300.3505306043203
 30
0.0000000000000000
 11
438.4626829557042
 21
302.3903120121320
 31
0.0000000000000000
  0
LINE
  5
104
100
AcDbEntity
  8
MAIN0
  6
CONTINUOUS
 62
3
100
AcDbLine
 10
448.4296779210530
 20
276.9678447021406
 30
0.0000000000000000
 11
451.9626829556661
 21
279.0076261099302
 31
0.0000000000000000
  0
LINE
  5
105
100
AcDbEntity
  8
MAIN0
  6
CONTINUOUS
 62
3
100
AcDbLine
 10
380.1517510201381
 20
237.5475652260441
 30
0.0000000000000000
 11
382.4068330750955
 21
238.8495374575232
 31
0.0000000000000000
  0
LINE
  5
106
100
AcDbEntity
  8
MAIN0
  6
CONTINUOUS
 62
3
100
AcDbLine
 10
366.6517510203689
 20
260.9302511283573
 30
0.0000000000000000
 11
368.9068475455042
 21
262.2322317141975
 31
0.0000000000000000
  0
LINE
  5
107
100
AcDbEntity
  8
MAIN0
  6
CONTINUOUS
 62
3
100
AcDbLine
 10
321.9659081981868
 20
262.2322233590223
 30
0.0000000000000000
 11
324.2209902522278
 21
260.9302511280732
 31
0.0000000000000000
  0
LINE
  5
108
100
AcDbEntity
  8
MAIN0
  6
CONTINUOUS
 62
3
100
AcDbLine
 10
308.4658937267164
 20
238.8495458119495
 30
0.0000000000000000
 11
310.7209902527712
 21
237.5475652255794
 31
0.0000000000000000
  0
LINE
  5
109
100
AcDbEntity
  8
MAIN0
  6
CONTINUOUS
 62
3
100
AcDbLine
 10
238.9100583171200
 20
279.0076261095063
 30
0.0000000000000000
 11
242.4430633516864
 21
276.9678447017451
 31
0.0000000000000000
  0
LINE
  5
10A
100
AcDbEntity
  8
MAIN0
  6
CONTINUOUS
 62
3
100
AcDbLine
 10
252.4100583169891
 20
302.3903120117619
 30
0.0000000000000000
 11
255.9430633516866
 21
300.3505306039251
 31
0.0000000000000000
  0
LINE
  5
10B
100
AcDbEntity
  8
MAIN0
  6
CONTINUOUS
 62
3
100
AcDbLine
 10
163.8904482240979
 20
169.6081213490645
 30
0.0000000000000000
 11
163.8904482241372
 21
205.0931213490634
 31
0.0000000000000000
  0
LINE
  5
10C
100
AcDbEntity
  8
MAIN0
  6
CONTINUOUS
 62
3
100
AcDbLine
 10
163.8904482240397
 20
117.0931213490568
 30
0.0000000000000000
 11
163.8904482240768
 21
150.5781213490645
 31
0.0000000000000000
  0
LINE
  5
10D
100
AcDbEntity
  8
MAIN0
  6
CONTINUOUS
 62
3
100
AcDbLine
 10
155.7936814504148
 20
118.6931213490544
 30
0.0000000000000000
 11
154.1936814504148
 21
117.0931213490526
 31
0.0000000000000000
  0
LINE
  5
10E
100
AcDbEntity
  8
MAIN0
  6
CONTINUOUS
 62
3
100
AcDbLine
 10
82.79368145041475
 20
137.0930882850090
 30
0.0000000000000000
 11
93.21520587825032
 21
137.0930882850090
 31
0.0000000000000000
  0
LINE
  5
10F
100
AcDbEntity
  8
MAIN0
  6
CONTINUOUS
 62
3
100
AcDbLine
 10
82.79368145041475
 20
137.0930882850090
 30
0.0000000000000000
 11
82.79368145041475
 21
138.0930882850090
 31
0.0000000000000000
  0
LINE
  5
110
100
AcDbEntity
  8
MAIN0
  6
HIDDEN
 62
3
100
AcDbLine
 10
119.0436814504565
 20
347.6230882850089
 30
0.0000000000000000
 11
121.5897961375869
 21
349.0930882850088
 31
0.0000000000000000
  0
LINE
  5
111
100
AcDbEntity
  8
MAIN0
  6
HIDDEN
 62
3
100
AcDbLine
 10
80.99756676311114
 20
349.0930882850091
 30
0.0000000000000000
 11
83.54368145023202
 21
347.6230882850090
 31
0.0000000000000000
  0
LINE
  5
112
100
AcDbEntity
  8
MAIN0
  6
CENTER
 62
3
100
AcDbLine
 10
266.9897253524241
 20
139.6040169428714
 30
0.0000000000000000
 11
295.4758205754600
 21
173.5524232638557
 31
0.0000000000000000
  0
LINE
  5
113
100
AcDbEntity
  8
MAIN0
  6
CENTER
 62
3
100
AcDbLine
 10
423.2029322430886
 20
325.7716674612749
 30
0.0000000000000000
 11
395.6393987861895
 21
292.9227274394725
 31
0.0000000000000000
  0
LINE
  5
114
100
AcDbEntity
  8
MAIN0
  6
CENTER
 62
3
100
AcDbLine
 10
138.7936814503432
 20
310.5930882850098
 30
0.0000000000000000
 11
138.7936814503040
 21
353.0930882850144
 31
0.0000000000000000
  0
LEADER
  5
115
100
AcDbEntity
  8
MAIN0
  6
CONTINUOUS
 62
3
100
AcDbLeader
  3
MAIN001
 73
     0
 74
     0
 75
     1
 40
3.099999904632568
 41
35.89100105857850
 76
     3
 10
143.7936814503078
 20
333.8185051274749
 30
0.0000000000000000
 10
175.4363706364845
 20
360.5930882850090
 30
0.0000000000000000
 10
177.3613705806945
 20
360.5930882850090
 30
0.0000000000000000
340
116
213
-0.001000000000004775
223
-0.5000000000000000
233
0.0000000000000000
1001
ACAD
1000
DSTYLE
1002
{
1070
   147
1040
0.0
1070
    77
1070
     1
1070
   173
1070
     1
1070
     6
1000
_OPEN
1070
     7
1000
_OPEN
1002
}
  0
MTEXT
  5
116
102
{ACAD_REACTORS
330
115
102
}
100
AcDbEntity
  8
MAIN0
  6
CONTINUOUS
 62
3
100
AcDbMText
 10
177.3623705806945
 20
364.1930881896416
 30
0.0000000000000000
 40
3.099999904632568
 41
0.0000000000000000
 71
     1
 72
     1
  1
{\H0.93x;{2-M10 ネジ深23\P2-M10 DEPTH23}}
 11
1.000000000000000
 21
0.0000000000000000
 31
0.0000000000000000
  7
KNJYOKO
  0
DIMENSION
  5
11F
100
AcDbEntity
  8
MAIN0
  6
CONTINUOUS
 62
3
100
AcDbDimension
  2
*D14
 10
155.7936814504147
 20
360.5930882850090
 30
0.0000000000000000
 11
147.2936814503595
 21
361.0930882850090
 31
0.0000000000000000
 70
32
  3
MAIN001
100
AcDbAlignedDimension
 13
138.7936814503043
 23
353.0930882849467
 33
0.0000000000000000
 14
155.7936814504147
 24
347.0930882850090
 34
0.0000000000000000
100
AcDbRotatedDimension
1001
ACAD
1000
DSTYLE
1002
{
1070
   173
1070
     1
1070
     6
1000
_OPEN
1070
     7
1000
_OPEN
1070
    41
1040
2.000000
1002
}
  0
LINE
  5
120
100
AcDbEntity
  8
MAIN0
  6
PHANTOM
 62
3
100
AcDbLine
 10
437.9363706374880
 20
225.5930882850090
 30
0.0000000000000000
 11
437.9363706374547
 21
240.5930882850090
 31
0.0000000000000000
  0
LINE
  5
121
100
AcDbEntity
  8
MAIN0
  6
PHANTOM
 62
3
100
AcDbLine
 10
433.9363706374881
 20
225.5930882850090
 30
0.0000000000000000
 11
433.9363706374548
 21
240.5930882850090
 31
0.0000000000000000
  0
LINE
  5
122
100
AcDbEntity
  8
MAIN0
  6
PHANTOM
 62
3
100
AcDbLine
 10
433.9363706374548
 20
240.5930882850090
 30
0.0000000000000000
 11
437.9363706374547
 21
240.5930882850090
 31
0.0000000000000000
  0
LINE
  5
123
100
AcDbEntity
  8
MAIN0
  6
PHANTOM
 62
3
100
AcDbLine
 10
433.9363706374880
 20
225.5930882850090
 30
0.0000000000000000
 11
437.9363706374879
 21
225.5930882850090
 31
0.0000000000000000
  0
MTEXT
  5
124
100
AcDbEntity
  8
MAIN0
  6
CONTINUOUS
 62
3
100
AcDbMText
 10
367.4363706364845
 20
323.0930882850090
 30
0.0000000000000000
 40
3.000000000000000
 41
0.0000000000000000
 71
     1
 72
     1
  1
{\H0.63x;{77-1 MOTOMACHI FUCHU-SHI\PHIROSHIMA 726-8610 JAPAN}}
 11
-1.000000000000000
 21
2.786999939015111e-015
 31
0.0000000000000000
  7
STANDARD
  0
MTEXT
  5
125
100
AcDbEntity
  8
MAIN0
  6
CONTINUOUS
 62
3
100
AcDbMText
 10
355.9363706364845
 20
335.0930882850090
 30
0.0000000000000000
 40
3.000000000000000
 41
0.0000000000000000
 71
     1
 72
     1
  1
{\H0.63x;{SCROLL CHUCK}}
 11
-1.000000000000000
 21
2.786999939015111e-015
 31
0.0000000000000000
  7
STANDARD
  0
LINE
  5
126
100
AcDbEntity
  8
MAIN0
  6
CENTER
 62
3
100
AcDbLine
 10
345.4363706364845
 20
339.5930882850090
 30
0.0000000000000000
 11
345.4363706364845
 21
358.0930882850090
 31
0.0000000000000000
  0
LINE
  5
127
100
AcDbEntity
  8
MAIN0
  6
CENTER
 62
3
100
AcDbLine
 10
345.4363706364845
 20
108.0930882850090
 30
0.0000000000000000
 11
345.4363706364845
 21
321.5930882850089
 31
0.0000000000000000
  0
LINE
  5
128
100
AcDbEntity
  8
MAIN0
  6
CENTER
 62
3
100
AcDbLine
 10
345.4363706364845
 20
331.5930882850089
 30
0.0000000000000000
 11
345.4363706364845
 21
333.5930882850090
 31
0.0000000000000000
  0
LINE
  5
129
100
AcDbEntity
  8
MAIN0
  6
HIDDEN
 62
3
100
AcDbLine
 10
327.6863706364845
 20
331.5930882850090
 30
0.0000000000000000
 11
327.6863706364845
 21
347.7270165087247
 31
0.0000000000000000
  0
LINE
  5
12A
100
AcDbEntity
  8
MAIN0
  6
CENTER
 62
3
100
AcDbLine
 10
329.1863706364845
 20
331.5930882850089
 30
0.0000000000000000
 11
329.1863706364845
 21
344.6601717596431
 31
0.0000000000000000
  0
LINE
  5
12B
100
AcDbEntity
  8
MAIN0
  6
HIDDEN
 62
3
100
AcDbLine
 10
363.1863706364845
 20
331.5930882850089
 30
0.0000000000000000
 11
363.1863706364845
 21
347.7270165087247
 31
0.0000000000000000
  0
ARC
  5
12C
100
AcDbEntity
  8
MAIN0
  6
CENTER
 62
3
100
AcDbCircle
 10
345.4363706364845
 20
233.0930882845826
 30
0.0000000000000000
 40
104.0000000000000
100
AcDbArc
 50
96.95869813943551
 51
102.8560238172958
  0
LINE
  5
12D
100
AcDbEntity
  8
MAIN0
  6
CENTER
 62
3
100
AcDbLine
 10
237.9601423407773
 20
171.0416589463443
 30
0.0000000000000000
 11
260.9988937677663
 21
184.3430882845578
 31
0.0000000000000000
  0
LINE
  5
12E
100
AcDbEntity
  8
MAIN0
  6
CENTER
 62
3
100
AcDbLine
 10
273.1232494207375
 20
191.3430882845769
 30
0.0000000000000000
 11
454.9477255679271
 21
296.3194985338020
 31
0.0000000000000000
  0
ARC
  5
12F
100
AcDbEntity
  8
MAIN0
  6
HIDDEN
 62
3
100
AcDbCircle
 10
345.4363706364844
 20
233.0930882850090
 30
0.0000000000000000
 40
95.50000000000000
100
AcDbArc
 50
103.7506140941670
 51
206.5529864018060
  0
ARC
  5
130
100
AcDbEntity
  8
MAIN0
  6
HIDDEN
 62
3
100
AcDbCircle
 10
345.4363706364844
 20
233.0930882850090
 30
0.0000000000000000
 40
95.50000000000000
100
AcDbArc
 50
222.6770649852876
 51
435.7547288059735
  0
MTEXT
  5
131
100
AcDbEntity
  8
MAIN0
  6
CONTINUOUS
 62
3
100
AcDbMText
 10
397.8975725896520
 20
188.6137277698466
 30
0.0000000000000000
 40
4.655172348022461
 41
0.0000000000000000
 71
     1
 72
     1
  1
{\H0.92x;{JN09TN}}
 11
0.5000000000000009
 21
0.8660254037844382
 31
0.0000000000000000
  7
STANDARD
  0
MTEXT
  5
132
100
AcDbEntity
  8
MAIN0
  6
CONTINUOUS
 62
3
100
AcDbMText
 10
399.3980837088093
 20
175.9575166018275
 30
0.0000000000000000
 40
7.199999809265137
 41
0.0000000000000000
 71
     1
 72
     1
  1
{\H0.82x;{KITAGAWA}}
 11
0.5000000000000009
 21
0.8660254037844382
 31
0.0000000000000000
  7
STANDARD
  0
LINE
  5
133
100
AcDbEntity
  8
MAIN0
  6
CONTINUOUS
 62
3
100
AcDbLine
 10
406.4994918546605
 20
171.8575166971949
 30
0.0000000000000000
 11
428.9994918546606
 21
210.8286598674946
 31
0.0000000000000000
  0
MTEXT
  5
134
100
AcDbEntity
  8
MAIN0
  6
CONTINUOUS
 62
3
100
AcDbMText
 10
414.6077287528952
 20
183.0013948693749
 30
0.0000000000000000
 40
3.099999904632568
 41
0.0000000000000000
 71
     1
 72
     1
  1
{JAPAN}
 11
0.5000000000000009
 21
0.8660254037844382
 31
0.0000000000000000
  7
STANDARD
  0
LINE
  5
135
100
AcDbEntity
  8
MAIN0
  6
CENTER
 62
3
100
AcDbLine
 10
237.2609395046898
 20
295.5482025679224
 30
0.0000000000000000
 11
402.7433620703545
 21
200.0068813532062
 31
0.0000000000000000
  0
SPLINE
  5
136
100
AcDbEntity
  8
MAIN0
  6
CONTINUOUS
 62
3
100
AcDbSpline
210
0.0000000000000000
220
0.0000000000000000
230
1.000000000000000
 70
     8
 71
     3
 72
    20
 73
    16
 74
     0
 42
1.000000000000000e-007
 43
1.000000000000000e-007
 12
0.01186082992542303
 22
-0.8174349183019558
 32
0.0000000000000000
 13
-0.2255260829863630
 23
-0.8057412888284645
 33
0.0000000000000000
 40
0.0000000000000000
 40
0.0000000000000000
 40
0.0000000000000000
 40
0.0000000000000000
 40
22.63846284534354
 40
30.54415699576449
 40
43.29170577974645
 40
48.88187572349592
 40
54.47204566724540
 40
62.37773981766635
 40
85.42660096089857
 40
120.7819400202260
 40
158.8747385622316
 40
170.8757696301099
 40
184.3386816479462
 40
220.1332343061371
 40
239.1914483148826
 40
239.1914483148826
 40
239.1914483148826
 40
239.1914483148826
 10
77.95888380441986
 20
349.0930882850090
 30
0.0000000000000000
 10
78.04838745694707
 20
342.9245982761873
 30
0.0000000000000000
 10
78.19952224793310
 20
332.5781553948818
 30
0.0000000000000000
 10
83.99697035457456
 20
319.2178137760432
 30
0.0000000000000000
 10
83.93672030098405
 20
310.0869629098406
 30
0.0000000000000000
 10
87.97551551882549
 20
303.1020954751359
 30
0.0000000000000000
 10
90.92975472269677
 20
297.4691245578199
 30
0.0000000000000000
 10
94.45610698463361
 20
285.7455129213070
 30
0.0000000000000000
 10
98.93309141919424
 20
264.1323200338414
 30
0.0000000000000000
 10
103.6889041004569
 20
232.1448593517094
 30
0.0000000000000000
 10
104.7992473258566
 20
204.0244466001223
 30
0.0000000000000000
 10
106.6243014197914
 20
182.3519896879747
 30
0.0000000000000000
 10
95.97194189408388
 20
164.0908054530847
 30
0.0000000000000000
 10
94.85681710925877
 20
140.3223396126137
 30
0.0000000000000000
 10
89.78859434401812
 20
122.2117516557533
 30
0.0000000000000000
 10
88.35588622598205
 20
117.0930883496948
 30
0.0000000000000000
  0
DIMENSION
  5
13F
100
AcDbEntity
  8
MAIN0
  6
CONTINUOUS
 62
3
100
AcDbDimension
  2
*D15
 10
45.43637063648446
 20
138.0930882850090
 30
0.0000000000000000
 11
44.93637063648446
 21
226.0180881479183
 31
0.0000000000000000
 70
32
  1
\A1;\U+2205190H6\H0.903226x;\S＋0.029^ 　0;
  3
MAIN001
100
AcDbAlignedDimension
 13
71.79368145041472
 23
328.0930882850090
 33
0.0000000000000000
 14
71.79368145041472
 24
138.0930882850090
 34
0.0000000000000000
 50
90.00000000000000
100
AcDbRotatedDimension
1001
ACAD
1000
DSTYLE
1002
{
1070
   173
1070
     1
1070
     6
1000
_OPEN
1070
     7
1000
_OPEN
1070
    41
1040
2.000000
1070
   272
1070
     3
1070
    47
1040
0.029000
1070
    48
1040
0.000000
1070
    71
1070
     1
1070
   340
1005
AC
1002
}
  0
DIMENSION
  5
148
100
AcDbEntity
  8
MAIN0
  6
CONTINUOUS
 62
3
100
AcDbDimension
  2
*D16
 10
345.4363706364845
 20
108.0930882850090
 30
0.0000000000000000
 11
311.9193042950080
 21
108.0056937806730
 31
0.0000000000000000
 70
162
  3
MAIN001
100
AcDb2LineAngularDimension
 13
284.4157130332792
 23
127.4022090076993
 33
0.0000000000000000
 14
284.9157130332798
 24
128.2682344114834
 34
0.0000000000000000
 15
345.4363706364845
 25
109.0930882850090
 35
0.0000000000000000
 16
311.7898947724565
 26
107.5227308675285
 36
0.0000000000000000
1001
ACAD
1000
DSTYLE
1002
{
1070
   173
1070
     1
1070
     6
1000
_OPEN
1070
     7
1000
_OPEN
1070
    41
1040
2.000000
1002
}
  0
DIMENSION
  5
151
100
AcDbEntity
  8
MAIN0
  6
CONTINUOUS
 62
3
100
AcDbDimension
  2
*D17
 10
325.2571821803693
 20
288.5349529094287
 30
0.0000000000000000
 11
322.7752834506591
 21
361.6105000530768
 31
0.0000000000000000
 70
162
  3
MAIN001
100
AcDb2LineAngularDimension
 13
345.4363706364845
 23
358.0930882850090
 33
0.0000000000000000
 14
345.4363706364845
 24
357.0930882850090
 34
0.0000000000000000
 15
325.5992023236950
 25
287.5952602886428
 35
0.0000000000000000
 16
322.8621075394926
 26
361.1180961765706
 36
0.0000000000000000
1001
ACAD
1000
DSTYLE
1002
{
1070
   173
1070
     1
1070
     6
1000
_OPEN
1070
     7
1000
_OPEN
1070
    41
1040
2.000000
1002
}
  0
DIMENSION
  5
15A
100
AcDbEntity
  8
MAIN0
  6
CONTINUOUS
 62
3
100
AcDbDimension
  2
*D18
 10
345.4363706364845
 20
108.0930882850090
 30
0.0000000000000000
 11
297.7245606418333
 21
102.0059676855106
 31
0.0000000000000000
 70
162
  3
MAIN001
100
AcDb2LineAngularDimension
 13
266.9897253524241
 23
139.6040169428714
 33
0.0000000000000000
 14
267.6325129621112
 24
140.3700613859899
 34
0.0000000000000000
 15
345.4363706364845
 25
109.0930882850090
 35
0.0000000000000000
 16
297.5535505701703
 26
101.5361213751177
 36
0.0000000000000000
1001
ACAD
1000
DSTYLE
1002
{
1070
   173
1070
     1
1070
     6
1000
_OPEN
1070
     7
1000
_OPEN
1070
    41
1040
2.000000
1002
}
  0
DIMENSION
  5
163
100
AcDbEntity
  8
MAIN0
  6
CONTINUOUS
 62
3
100
AcDbDimension
  2
*D19
 10
293.4463706365135
 20
18.09308828500897
 30
0.0000000000000000
 11
306.9413706365135
 21
18.59308828500897
 31
0.0000000000000000
 70
32
  3
MAIN001
100
AcDbAlignedDimension
 13
320.4363706365135
 23
23.09308828486502
 33
0.0000000000000000
 14
293.4463706365135
 24
23.09308828488150
 34
0.0000000000000000
100
AcDbRotatedDimension
1001
ACAD
1000
DSTYLE
1002
{
1070
   173
1070
     1
1070
     6
1000
_OPEN
1070
     7
1000
_OPEN
1070
    41
1040
2.000000
1002
}
  0
DIMENSION
  5
16C
100
AcDbEntity
  8
MAIN0
  6
CONTINUOUS
 62
3
100
AcDbDimension
  2
*D20
 10
320.4363706365135
 20
18.09308828500897
 30
0.0000000000000000
 11
333.9313706365135
 21
18.59308828500897
 31
0.0000000000000000
 70
32
  3
MAIN001
100
AcDbAlignedDimension
 13
347.4263706365134
 23
23.09308828485354
 33
0.0000000000000000
 14
320.4363706365135
 24
23.09308828486502
 34
0.0000000000000000
100
AcDbRotatedDimension
1001
ACAD
1000
DSTYLE
1002
{
1070
   173
1070
     1
1070
     6
1000
_OPEN
1070
     7
1000
_OPEN
1070
    41
1040
2.000000
1002
}
  0
LINE
  5
16D
100
AcDbEntity
  8
MAIN0
  6
HIDDEN
 62
3
100
AcDbLine
 10
155.7936814504147
 20
198.0930882850090
 30
0.0000000000000000
 11
105.3796013438562
 21
198.0930882850090
 31
0.0000000000000000
  0
LINE
  5
16E
100
AcDbEntity
  8
MAIN0
  6
HIDDEN
 62
3
100
AcDbLine
 10
155.7936814504148
 20
268.0930882850090
 30
0.0000000000000000
 11
97.93637075901775
 21
268.0930882850090
 31
0.0000000000000000
  0
CIRCLE
  5
16F
100
AcDbEntity
  8
MAIN0
  6
CONTINUOUS
 62
3
100
AcDbCircle
 10
293.4363706375892
 20
323.1597302788020
 30
0.0000000000000000
 40
10.00000000000000
  0
CIRCLE
  5
170
100
AcDbEntity
  8
MAIN0
  6
CONTINUOUS
 62
3
100
AcDbCircle
 10
449.4363706372229
 20
233.0930882850090
 30
0.0000000000000000
 40
10.00000000000000
  0
CIRCLE
  5
171
100
AcDbEntity
  8
MAIN0
  6
CONTINUOUS
 62
3
100
AcDbCircle
 10
293.4363706355086
 20
143.0264462924171
 30
0.0000000000000000
 40
10.00000000000000
  0
CIRCLE
  5
172
100
AcDbEntity
  8
MAIN0
  6
HIDDEN
 62
3
100
AcDbCircle
 10
264.6009686309764
 20
167.6588634278009
 30
0.0000000000000000
 40
4.000000000000000
  0
CIRCLE
  5
173
100
AcDbEntity
  8
MAIN0
  6
HIDDEN
 62
3
100
AcDbCircle
 10
264.6009686309764
 20
167.6588634278009
 30
0.0000000000000000
 40
3.400000000000000
  0
CIRCLE
  5
174
100
AcDbEntity
  8
MAIN0
  6
HIDDEN
 62
3
100
AcDbCircle
 10
329.1863706364845
 20
335.8157123748968
 30
0.0000000000000000
 40
4.000000000000000
  0
CIRCLE
  5
175
100
AcDbEntity
  8
MAIN0
  6
HIDDEN
 62
3
100
AcDbCircle
 10
329.1863706364845
 20
335.8157123748968
 30
0.0000000000000000
 40
3.400000000000000
  0
CIRCLE
  5
176
100
AcDbEntity
  8
MAIN0
  6
HIDDEN
 62
3
100
AcDbCircle
 10
442.5217726418956
 20
195.8046890504011
 30
0.0000000000000000
 40
4.000000000000000
  0
CIRCLE
  5
177
100
AcDbEntity
  8
MAIN0
  6
HIDDEN
 62
3
100
AcDbCircle
 10
442.5217726418956
 20
195.8046890504011
 30
0.0000000000000000
 40
3.400000000000000
  0
CIRCLE
  5
178
100
AcDbEntity
  8
MAIN0
  6
CONTINUOUS
 62
3
100
AcDbCircle
 10
328.6773836136259
 20
279.1380267015699
 30
0.0000000000000000
 40
7.500000000000000
  0
LINE
  5
179
100
AcDbEntity
  8
MAIN0
  6
CONTINUOUS
 62
3
100
AcDbLine
 10
331.2751788100158
 20
282.2339584596916
 30
0.0000000000000000
 11
332.6574367627373
 21
278.4362359467278
 31
0.0000000000000000
  0
LINE
  5
17A
100
AcDbEntity
  8
MAIN0
  6
CONTINUOUS
 62
3
100
AcDbLine
 10
324.6973304645144
 20
279.8398174564119
 30
0.0000000000000000
 11
326.0795884172359
 21
276.0420949434482
 31
0.0000000000000000
  0
LINE
  5
17B
100
AcDbEntity
  8
MAIN0
  6
CONTINUOUS
 62
3
100
AcDbLine
 10
330.0596415663473
 20
275.3403041886061
 30
0.0000000000000000
 11
332.6574367627373
 21
278.4362359467278
 31
0.0000000000000000
  0
LINE
  5
17C
100
AcDbEntity
  8
MAIN0
  6
CONTINUOUS
 62
3
100
AcDbLine
 10
324.6973304645144
 20
279.8398174564119
 30
0.0000000000000000
 11
327.2951256609044
 21
282.9357492145336
 31
0.0000000000000000
  0
LINE
  5
17D
100
AcDbEntity
  8
MAIN0
  6
CONTINUOUS
 62
3
100
AcDbLine
 10
331.2751788100158
 20
282.2339584596915
 30
0.0000000000000000
 11
327.2951256609043
 21
282.9357492145335
 31
0.0000000000000000
  0
LINE
  5
17E
100
AcDbEntity
  8
MAIN0
  6
CONTINUOUS
 62
3
100
AcDbLine
 10
330.0596415663472
 20
275.3403041886061
 30
0.0000000000000000
 11
326.0795884172358
 21
276.0420949434482
 31
0.0000000000000000
  0
LINE
  5
17F
100
AcDbEntity
  8
MAIN0
  6
CENTER
 62
3
100
AcDbLine
 10
325.2571821803693
 20
288.5349529094290
 30
0.0000000000000000
 11
332.0975850468826
 21
269.7411004937108
 31
0.0000000000000000
  0
CIRCLE
  5
180
100
AcDbEntity
  8
MAIN0
  6
CONTINUOUS
 62
3
100
AcDbCircle
 10
328.6773836136247
 20
279.1380267015729
 30
0.0000000000000000
 40
2.400000000000000
  0
CIRCLE
  5
181
100
AcDbEntity
  8
MAIN0
  6
CONTINUOUS
 62
3
100
AcDbCircle
 10
328.6773836136247
 20
279.1380267015729
 30
0.0000000000000000
 40
0.4330000000000000
  0
LINE
  5
182
100
AcDbEntity
  8
MAIN0
  6
CONTINUOUS
 62
3
100
AcDbLine
 10
71.79368145041475
 20
119.0930882850090
 30
0.0000000000000000
 11
71.79368145041475
 21
347.0930882850090
 31
0.0000000000000000
  0
LINE
  5
183
100
AcDbEntity
  8
MAIN0
  6
CONTINUOUS
 62
3
100
AcDbLine
 10
71.79368145041475
 20
119.0930882850090
 30
0.0000000000000000
 11
71.79368145041475
 21
347.0930882850090
 31
0.0000000000000000
  0
LINE
  5
184
100
AcDbEntity
  8
MAIN0
  6
CONTINUOUS
 62
3
100
AcDbLine
 10
73.79368145041474
 20
349.0930882850090
 30
0.0000000000000000
 11
153.7936814504147
 21
349.0930882850090
 31
0.0000000000000000
  0
LINE
  5
185
100
AcDbEntity
  8
MAIN0
  6
CONTINUOUS
 62
3
100
AcDbLine
 10
73.79368145041475
 20
117.0930882850090
 30
0.0000000000000000
 11
155.7936814504147
 21
117.0930882850090
 31
0.0000000000000000
  0
LINE
  5
186
100
AcDbEntity
  8
MAIN0
  6
CONTINUOUS
 62
3
100
AcDbLine
 10
77.79368145041475
 20
138.4930882850090
 30
0.0000000000000000
 11
77.79368145041475
 21
327.6930882850090
 31
0.0000000000000000
  0
LINE
  5
187
100
AcDbEntity
  8
MAIN0
  6
PHANTOM
 62
3
100
AcDbLine
 10
160.7936814504148
 20
219.8430882850090
 30
0.0000000000000000
 11
155.7936814504147
 21
219.8430882850090
 31
0.0000000000000000
  0
LINE
  5
188
100
AcDbEntity
  8
MAIN0
  6
PHANTOM
 62
3
100
AcDbLine
 10
160.7936814504147
 20
246.3430882850090
 30
0.0000000000000000
 11
155.7936814504147
 21
246.3430882850090
 31
0.0000000000000000
  0
LINE
  5
189
100
AcDbEntity
  8
MAIN0
  6
CONTINUOUS
 62
3
100
AcDbLine
 10
91.99368145041474
 20
268.0930882850090
 30
0.0000000000000000
 11
97.93637075901775
 21
268.0930882850090
 31
0.0000000000000000
  0
LINE
  5
18A
100
AcDbEntity
  8
MAIN0
  6
CONTINUOUS
 62
3
100
AcDbLine
 10
91.99368145041476
 20
198.0930882850090
 30
0.0000000000000000
 11
105.3796013438562
 21
198.0930882850090
 31
0.0000000000000000
  0
LINE
  5
18B
100
AcDbEntity
  8
MAIN0
  6
CONTINUOUS
 62
3
100
AcDbLine
 10
77.79368145041475
 20
284.5930882850090
 30
0.0000000000000000
 11
91.79368145041477
 21
284.5930882850090
 31
0.0000000000000000
  0
LINE
  5
18C
100
AcDbEntity
  8
MAIN0
  6
CONTINUOUS
 62
3
100
AcDbLine
 10
77.79368145041475
 20
181.5930882850090
 30
0.0000000000000000
 11
91.79368145041471
 21
181.5930882850090
 31
0.0000000000000000
  0
LINE
  5
18D
100
AcDbEntity
  8
MAIN0
  6
CONTINUOUS
 62
3
100
AcDbLine
 10
91.79368145041475
 20
284.5930882850090
 30
0.0000000000000000
 11
91.79368145041475
 21
181.5930882850090
 31
0.0000000000000000
  0
LINE
  5
18E
100
AcDbEntity
  8
MAIN0
  6
CONTINUOUS
 62
3
100
AcDbLine
 10
93.98476635717245
 20
171.5930882850090
 30
0.0000000000000000
 11
100.8787113490425
 21
171.5930882850090
 31
0.0000000000000000
  0
LINE
  5
18F
100
AcDbEntity
  8
MAIN0
  6
CONTINUOUS
 62
3
100
AcDbLine
 10
82.79368145048036
 20
138.0930882850090
 30
0.0000000000000000
 11
86.04439714404178
 21
164.5680430322493
 31
0.0000000000000000
  0
LINE
  5
190
100
AcDbEntity
  8
MAIN0
  6
CONTINUOUS
 62
3
100
AcDbLine
 10
85.14782069424676
 20
308.9201627440689
 30
0.0000000000000000
 11
86.04439714404177
 21
301.6181335377686
 31
0.0000000000000000
  0
ARC
  5
191
100
AcDbEntity
  8
MAIN0
  6
CONTINUOUS
 62
3
100
AcDbCircle
 10
93.98476635717245
 20
302.5930882850090
 30
0.0000000000000000
 40
8.000000000000000
100
AcDbArc
 50
186.9999999999941
 51
252.8453690754371
  0
ARC
  5
192
100
AcDbEntity
  8
MAIN0
  6
CONTINUOUS
 62
3
100
AcDbCircle
 10
93.98476635717245
 20
163.5930882850090
 30
0.0000000000000000
 40
8.000000000000000
100
AcDbArc
 50
90.00000000000000
 51
173.0000000000059
  0
LINE
  5
193
100
AcDbEntity
  8
MAIN0
  6
CENTER
 62
3
100
AcDbLine
 10
85.43637063648446
 20
190.5930882850090
 30
0.0000000000000000
 11
110.4363706364845
 21
190.5930882850090
 31
0.0000000000000000
  0
LINE
  5
194
100
AcDbEntity
  8
MAIN0
  6
CENTER
 62
3
100
AcDbLine
 10
65.43637063648446
 20
337.0930882850090
 30
0.0000000000000000
 11
165.4363706364845
 21
337.0930882850090
 31
0.0000000000000000
  0
LINE
  5
195
100
AcDbEntity
  8
MAIN0
  6
HIDDEN
 62
3
100
AcDbLine
 10
142.7936814504147
 20
343.8430882850090
 30
0.0000000000000000
 11
72.39368145041475
 21
343.8430882850090
 31
0.0000000000000000
  0
LINE
  5
196
100
AcDbEntity
  8
MAIN0
  6
HIDDEN
 62
3
100
AcDbLine
 10
142.7936814504147
 20
330.3430882850090
 30
0.0000000000000000
 11
72.39368145041475
 21
330.3430882850090
 31
0.0000000000000000
  0
LINE
  5
197
100
AcDbEntity
  8
MAIN0
  6
HIDDEN
 62
3
100
AcDbLine
 10
72.39368145041475
 20
330.3430882850090
 30
0.0000000000000000
 11
71.79368145041474
 21
329.7430882850090
 31
0.0000000000000000
  0
LINE
  5
198
100
AcDbEntity
  8
MAIN0
  6
HIDDEN
 62
3
100
AcDbLine
 10
72.39368145041475
 20
343.8430882850090
 30
0.0000000000000000
 11
71.79368145041474
 21
344.4430882850090
 31
0.0000000000000000
  0
LINE
  5
199
100
AcDbEntity
  8
MAIN0
  6
HIDDEN
 62
3
100
AcDbLine
 10
155.1936814504147
 20
327.0930882850090
 30
0.0000000000000000
 11
142.7936814504148
 21
327.0930882850090
 31
0.0000000000000000
  0
LINE
  5
19A
100
AcDbEntity
  8
MAIN0
  6
HIDDEN
 62
3
100
AcDbLine
 10
155.1936814504148
 20
347.0930882850090
 30
0.0000000000000000
 11
142.7936814504147
 21
347.0930882850090
 31
0.0000000000000000
  0
LINE
  5
19B
100
AcDbEntity
  8
MAIN0
  6
HIDDEN
 62
3
100
AcDbLine
 10
155.1936814504147
 20
327.0930882850090
 30
0.0000000000000000
 11
155.7936814504147
 21
326.4930882850090
 31
0.0000000000000000
  0
LINE
  5
19C
100
AcDbEntity
  8
MAIN0
  6
HIDDEN
 62
3
100
AcDbLine
 10
155.1936814504148
 20
347.0930882850090
 30
0.0000000000000000
 11
155.4936814504147
 21
347.3930882850090
 31
0.0000000000000000
  0
LINE
  5
19D
100
AcDbEntity
  8
MAIN0
  6
CONTINUOUS
 62
3
100
AcDbLine
 10
153.7936814504147
 20
349.0930882850090
 30
0.0000000000000000
 11
155.7936814504147
 21
347.0930882850090
 31
0.0000000000000000
  0
LINE
  5
19E
100
AcDbEntity
  8
MAIN0
  6
CONTINUOUS
 62
3
100
AcDbLine
 10
73.79368145041474
 20
349.0930882850090
 30
0.0000000000000000
 11
71.79368145041474
 21
347.0930882850090
 31
0.0000000000000000
  0
LINE
  5
19F
100
AcDbEntity
  8
MAIN0
  6
CONTINUOUS
 62
3
100
AcDbLine
 10
71.79368145041477
 20
119.0930882850090
 30
0.0000000000000000
 11
73.79368145041477
 21
117.0930882850090
 31
0.0000000000000000
  0
LINE
  5
1A0
100
AcDbEntity
  8
MAIN0
  6
HIDDEN
 62
3
100
AcDbLine
 10
83.54368145041475
 20
347.6230882850090
 30
0.0000000000000000
 11
83.54368145041475
 21
339.1717778744978
 31
0.0000000000000000
  0
LINE
  5
1A1
100
AcDbEntity
  8
MAIN0
  6
HIDDEN
 62
3
100
AcDbLine
 10
119.0436814504148
 20
347.6230882850090
 30
0.0000000000000000
 11
119.0436814504148
 21
339.1717778724469
 31
0.0000000000000000
  0
LINE
  5
1A2
100
AcDbEntity
  8
MAIN0
  6
HIDDEN
 62
3
100
AcDbLine
 10
83.54368145041475
 20
347.6230882850090
 30
0.0000000000000000
 11
119.0436814504148
 21
347.6230882850090
 31
0.0000000000000000
  0
LINE
  5
1A3
100
AcDbEntity
  8
MAIN0
  6
HIDDEN
 62
3
100
AcDbLine
 10
92.04368145057677
 20
347.6230882850090
 30
0.0000000000000000
 11
93.54368145031390
 21
346.7570628813768
 31
0.0000000000000000
  0
LINE
  5
1A4
100
AcDbEntity
  8
MAIN0
  6
HIDDEN
 62
3
100
AcDbLine
 10
109.0436814506315
 20
346.7570628813709
 30
0.0000000000000000
 11
110.5436814503721
 21
347.6230882850089
 31
0.0000000000000000
  0
LINE
  5
1A5
100
AcDbEntity
  8
MAIN0
  6
HIDDEN
 62
3
100
AcDbLine
 10
93.54368145041475
 20
346.7570628813186
 30
0.0000000000000000
 11
93.54368145041475
 21
339.1717778739201
 31
0.0000000000000000
  0
LINE
  5
1A6
100
AcDbEntity
  8
MAIN0
  6
HIDDEN
 62
3
100
AcDbLine
 10
109.0436814504148
 20
346.7570628812459
 30
0.0000000000000000
 11
109.0436814504148
 21
339.1717778730246
 31
0.0000000000000000
  0
LINE
  5
1A7
100
AcDbEntity
  8
MAIN0
  6
HIDDEN
 62
3
100
AcDbLine
 10
93.54368145041475
 20
346.7570628813771
 30
0.0000000000000000
 11
109.0436814504147
 21
346.7570628813710
 31
0.0000000000000000
  0
LINE
  5
1A8
100
AcDbEntity
  8
MAIN0
  6
CENTER
 62
3
100
AcDbLine
 10
91.04368145041480
 20
395.5930882850009
 30
0.0000000000000000
 11
111.5436814504147
 21
395.5930882850170
 31
0.0000000000000000
  0
LINE
  5
1A9
100
AcDbEntity
  8
MAIN0
  6
CONTINUOUS
 62
3
100
AcDbLine
 10
93.54368145041480
 20
396.3283696592424
 30
0.0000000000000000
 11
100.5584000761788
 21
403.3430882850083
 31
0.0000000000000000
  0
LINE
  5
1AA
100
AcDbEntity
  8
MAIN0
  6
CONTINUOUS
 62
3
100
AcDbLine
 10
102.0289628246593
 20
387.8430882850096
 30
0.0000000000000000
 11
109.0436814504148
 21
394.8578069107670
 31
0.0000000000000000
  0
LINE
  5
1AB
100
AcDbEntity
  8
MAIN0
  6
CONTINUOUS
 62
3
100
AcDbLine
 10
93.54368145041475
 20
394.8578069108571
 30
0.0000000000000000
 11
100.5584000762675
 21
387.8430882850084
 31
0.0000000000000000
  0
LINE
  5
1AC
100
AcDbEntity
  8
MAIN0
  6
CONTINUOUS
 62
3
100
AcDbLine
 10
102.0289628247393
 20
403.3430882850095
 30
0.0000000000000000
 11
109.0436814504147
 21
396.3283696593384
 31
0.0000000000000000
  0
LINE
  5
1AD
100
AcDbEntity
  8
MAIN0
  6
HIDDEN
 62
3
100
AcDbLine
 10
105.5556971783207
 20
339.1717778732261
 30
0.0000000000000000
 11
109.0605909081736
 21
346.7570628813709
 31
0.0000000000000000
  0
LINE
  5
1AE
100
AcDbEntity
  8
MAIN0
  6
HIDDEN
 62
3
100
AcDbLine
 10
97.03166572247039
 20
339.1717778737186
 30
0.0000000000000000
 11
100.5365594521004
 21
346.7570628813742
 31
0.0000000000000000
  0
LINE
  5
1AF
100
AcDbEntity
  8
MAIN0
  6
HIDDEN
 62
3
100
AcDbLine
 10
102.0508034484597
 20
346.7570628813738
 30
0.0000000000000000
 11
105.5556971783207
 21
339.1717778732261
 31
0.0000000000000000
  0
LINE
  5
1B0
100
AcDbEntity
  8
MAIN0
  6
HIDDEN
 62
3
100
AcDbLine
 10
93.52677199284240
 20
346.7570628813771
 30
0.0000000000000000
 11
97.03166572247039
 21
339.1717778737186
 31
0.0000000000000000
  0
LINE
  5
1B1
100
AcDbEntity
  8
MAIN0
  6
CONTINUOUS
 62
3
100
AcDbLine
 10
78.19368145041474
 20
328.0930882850090
 30
0.0000000000000000
 11
77.79368145041477
 21
327.6930882850090
 31
0.0000000000000000
  0
LINE
  5
1B2
100
AcDbEntity
  8
MAIN0
  6
CONTINUOUS
 62
3
100
AcDbLine
 10
78.19368145041474
 20
138.0930882850090
 30
0.0000000000000000
 11
77.79368145041474
 21
138.4930882850090
 31
0.0000000000000000
  0
LINE
  5
1B3
100
AcDbEntity
  8
MAIN0
  6
CONTINUOUS
 62
3
100
AcDbLine
 10
71.79368145041472
 20
328.0930882850090
 30
0.0000000000000000
 11
80.42783352525891
 21
328.0930882850090
 31
0.0000000000000000
  0
LINE
  5
1B4
100
AcDbEntity
  8
MAIN0
  6
CENTER
 62
3
100
AcDbLine
 10
101.2936814504148
 20
333.0930882850090
 30
0.0000000000000000
 11
101.2936814504148
 21
358.0930882850090
 31
0.0000000000000000
  0
LINE
  5
1B5
100
AcDbEntity
  8
MAIN0
  6
CENTER
 62
3
100
AcDbLine
 10
101.2936814504148
 20
385.3430882850090
 30
0.0000000000000000
 11
101.2936814504148
 21
405.8430882850090
 31
0.0000000000000000
  0
LINE
  5
1B6
100
AcDbEntity
  8
MAIN0
  6
CENTER
 62
3
100
AcDbLine
 10
60.43637063648446
 20
233.0930882850090
 30
0.0000000000000000
 11
210.4363706364845
 21
233.0930882850090
 31
0.0000000000000000
  0
LINE
  5
1B7
100
AcDbEntity
  8
MAIN0
  6
CONTINUOUS
 62
3
100
AcDbLine
 10
155.7936814504147
 20
118.6931213490543
 30
0.0000000000000000
 11
155.7936814504147
 21
347.0930882850090
 31
0.0000000000000000
  0
LINE
  5
1B8
100
AcDbEntity
  8
MAIN0
  6
CONTINUOUS
 62
3
100
AcDbLine
 10
93.54368145041475
 20
394.8578069108571
 30
0.0000000000000000
 11
93.54368145041475
 21
396.3283696592424
 31
0.0000000000000000
  0
LINE
  5
1B9
100
AcDbEntity
  8
MAIN0
  6
CONTINUOUS
 62
3
100
AcDbLine
 10
109.0436814504148
 20
394.8578069107670
 30
0.0000000000000000
 11
109.0436814504148
 21
396.3283696593383
 31
0.0000000000000000
  0
LINE
  5
1BA
100
AcDbEntity
  8
MAIN0
  6
CONTINUOUS
 62
3
100
AcDbLine
 10
102.0289628247393
 20
403.3430882850095
 30
0.0000000000000000
 11
100.5584000761788
 21
403.3430882850083
 31
0.0000000000000000
  0
LINE
  5
1BB
100
AcDbEntity
  8
MAIN0
  6
CONTINUOUS
 62
3
100
AcDbLine
 10
102.0289628246594
 20
387.8430882850096
 30
0.0000000000000000
 11
100.5584000762674
 21
387.8430882850084
 31
0.0000000000000000
  0
LINE
  5
1BC
100
AcDbEntity
  8
MAIN0
  6
HIDDEN
 62
3
100
AcDbLine
 10
100.5584000762257
 20
339.1717778735148
 30
0.0000000000000000
 11
100.5584000762257
 21
346.7570628813743
 31
0.0000000000000000
  0
LINE
  5
1BD
100
AcDbEntity
  8
MAIN0
  6
HIDDEN
 62
3
100
AcDbLine
 10
102.0289628246429
 20
339.1717778734299
 30
0.0000000000000000
 11
102.0289628246436
 21
346.7570628813738
 31
0.0000000000000000
  0
LINE
  5
1BE
100
AcDbEntity
  8
MAIN0
  6
CONTINUOUS
 62
3
100
AcDbLine
 10
91.99368145041476
 20
198.0930882850090
 30
0.0000000000000000
 11
91.79368145041475
 21
197.8930882850090
 31
0.0000000000000000
  0
LINE
  5
1BF
100
AcDbEntity
  8
MAIN0
  6
CONTINUOUS
 62
3
100
AcDbLine
 10
91.99368145041474
 20
268.0930882850090
 30
0.0000000000000000
 11
91.79368145041474
 21
268.2930882850090
 31
0.0000000000000000
  0
LINE
  5
1C0
100
AcDbEntity
  8
MAIN0
  6
CONTINUOUS
 62
3
100
AcDbLine
 10
71.79368145041472
 20
138.0930882850090
 30
0.0000000000000000
 11
82.79368145048036
 21
138.0930882850090
 31
0.0000000000000000
  0
LINE
  5
1C1
100
AcDbEntity
  8
MAIN0
  6
CONTINUOUS
 62
3
100
AcDbLine
 10
157.8904482240772
 20
150.9781273091931
 30
0.0000000000000000
 11
157.8904482240974
 21
169.2081273091932
 31
0.0000000000000000
  0
LINE
  5
1C2
100
AcDbEntity
  8
MAIN0
  6
CONTINUOUS
 62
3
100
AcDbLine
 10
164.3904482240374
 20
115.0931273091860
 30
0.0000000000000000
 11
180.5904482240375
 21
115.0931273091681
 31
0.0000000000000000
  0
LINE
  5
1C3
100
AcDbEntity
  8
MAIN0
  6
CONTINUOUS
 62
3
100
AcDbLine
 10
181.3904482240474
 20
124.0931273091672
 30
0.0000000000000000
 11
181.8904482240474
 21
124.0931273091666
 31
0.0000000000000000
  0
LINE
  5
1C4
100
AcDbEntity
  8
MAIN0
  6
CONTINUOUS
 62
3
100
AcDbLine
 10
193.3904482240829
 20
156.0931273091539
 30
0.0000000000000000
 11
193.8904482240829
 21
156.0931273091533
 31
0.0000000000000000
  0
LINE
  5
1C5
100
AcDbEntity
  8
MAIN0
  6
CONTINUOUS
 62
3
100
AcDbLine
 10
205.8904482241093
 20
179.8931273091399
 30
0.0000000000000000
 11
205.8904482241364
 21
204.2931273091400
 31
0.0000000000000000
  0
LINE
  5
1C6
100
AcDbEntity
  8
MAIN0
  6
CONTINUOUS
 62
3
100
AcDbLine
 10
181.8904482240474
 20
124.0931273091666
 30
0.0000000000000000
 11
181.8904482240712
 21
145.5931273091667
 31
0.0000000000000000
  0
LINE
  5
1C7
100
AcDbEntity
  8
MAIN0
  6
CONTINUOUS
 62
3
100
AcDbLine
 10
193.8904482240829
 20
156.0931273091533
 30
0.0000000000000000
 11
193.8904482241046
 21
175.5931273091533
 31
0.0000000000000000
  0
LINE
  5
1C8
100
AcDbEntity
  8
MAIN0
  6
CONTINUOUS
 62
3
100
AcDbLine
 10
181.3904482240383
 20
115.8931273091671
 30
0.0000000000000000
 11
181.3904482240474
 21
124.0931273091671
 31
0.0000000000000000
  0
LINE
  5
1C9
100
AcDbEntity
  8
MAIN0
  6
CONTINUOUS
 62
3
100
AcDbLine
 10
193.3904482240760
 20
149.8931273091538
 30
0.0000000000000000
 11
193.3904482240829
 21
156.0931273091539
 31
0.0000000000000000
  0
LINE
  5
1CA
100
AcDbEntity
  8
MAIN0
  6
CONTINUOUS
 62
3
100
AcDbLine
 10
205.8904482241363
 20
204.2931273091399
 30
0.0000000000000000
 11
205.0904482241372
 21
205.0931273091408
 31
0.0000000000000000
  0
LINE
  5
1CB
100
AcDbEntity
  8
MAIN0
  6
CONTINUOUS
 62
3
100
AcDbLine
 10
205.0904482241085
 20
179.0931273091409
 30
0.0000000000000000
 11
205.8904482241093
 21
179.8931273091399
 31
0.0000000000000000
  0
LINE
  5
1CC
100
AcDbEntity
  8
MAIN0
  6
CONTINUOUS
 62
3
100
AcDbLine
 10
192.5904482240752
 20
149.0931273091546
 30
0.0000000000000000
 11
193.3904482240761
 21
149.8931273091538
 31
0.0000000000000000
  0
LINE
  5
1CD
100
AcDbEntity
  8
MAIN0
  6
CONTINUOUS
 62
3
100
AcDbLine
 10
180.5904482240375
 20
115.0931273091680
 30
0.0000000000000000
 11
181.3904482240384
 21
115.8931273091671
 31
0.0000000000000000
  0
LINE
  5
1CE
100
AcDbEntity
  8
MAIN0
  6
CONTINUOUS
 62
3
100
AcDbLine
 10
157.8904482240975
 20
169.2081273091933
 30
0.0000000000000000
 11
158.2904482240978
 21
169.6081273091928
 31
0.0000000000000000
  0
LINE
  5
1CF
100
AcDbEntity
  8
MAIN0
  6
CONTINUOUS
 62
3
100
AcDbLine
 10
157.8904482240772
 20
150.9781273091932
 30
0.0000000000000000
 11
158.2904482240768
 21
150.5781273091928
 31
0.0000000000000000
  0
LINE
  5
1D0
100
AcDbEntity
  8
MAIN0
  6
CONTINUOUS
 62
3
100
AcDbLine
 10
180.7904482240468
 20
123.6031273091678
 30
0.0000000000000000
 11
181.3904482240462
 21
123.0031273091671
 31
0.0000000000000000
  0
LINE
  5
1D1
100
AcDbEntity
  8
MAIN0
  6
CONTINUOUS
 62
3
100
AcDbLine
 10
192.4904482241068
 20
177.5831273091548
 30
0.0000000000000000
 11
193.0904482241061
 21
176.9831273091542
 31
0.0000000000000000
  0
LINE
  5
1D2
100
AcDbEntity
  8
MAIN0
  6
CONTINUOUS
 62
3
100
AcDbLine
 10
164.3904482241157
 20
185.6947773091860
 30
0.0000000000000000
 11
164.3904482241372
 21
205.0931213490657
 31
0.0000000000000000
  0
LINE
  5
1D3
100
AcDbEntity
  8
MAIN0
  6
CONTINUOUS
 62
3
100
AcDbLine
 10
164.3904482240374
 20
115.0931273091860
 30
0.0000000000000000
 11
164.3904482240559
 21
131.7147773091860
 31
0.0000000000000000
  0
LINE
  5
1D4
100
AcDbEntity
  8
MAIN0
  6
CENTER
 62
3
100
AcDbLine
 10
170.8904482241323
 20
200.6558823064881
 30
0.0000000000000000
 11
170.8904482241406
 21
208.1074627248650
 31
0.0000000000000000
  0
LINE
  5
1D5
100
AcDbEntity
  8
MAIN0
  6
CONTINUOUS
 62
3
100
AcDbLine
 10
171.4100634664064
 20
203.8280637995516
 30
0.0000000000000000
 11
172.1404482242331
 21
205.0931273091774
 31
0.0000000000000000
  0
LINE
  5
1D6
100
AcDbEntity
  8
MAIN0
  6
CONTINUOUS
 62
3
100
AcDbLine
 10
170.3708329818653
 20
203.8280637995528
 30
0.0000000000000000
 11
169.6404482240414
 21
205.0931273091803
 31
0.0000000000000000
  0
ARC
  5
1D7
100
AcDbEntity
  8
MAIN0
  6
CONTINUOUS
 62
3
100
AcDbCircle
 10
170.8904482241362
 20
204.1280637995524
 30
0.0000000000000000
 40
0.6000000000000001
100
AcDbArc
 50
209.9999999999520
 51
329.9999999999243
  0
LINE
  5
1D8
100
AcDbEntity
  8
MAIN0
  6
CENTER
 62
3
100
AcDbLine
 10
177.3904482241323
 20
200.6558823064809
 30
0.0000000000000000
 11
177.3904482241406
 21
208.1074627248578
 31
0.0000000000000000
  0
LINE
  5
1D9
100
AcDbEntity
  8
MAIN0
  6
CONTINUOUS
 62
3
100
AcDbLine
 10
177.9100634664065
 20
203.8280637995445
 30
0.0000000000000000
 11
178.6404482242331
 21
205.0931273091702
 31
0.0000000000000000
  0
LINE
  5
1DA
100
AcDbEntity
  8
MAIN0
  6
CONTINUOUS
 62
3
100
AcDbLine
 10
176.8708329818653
 20
203.8280637995457
 30
0.0000000000000000
 11
176.1404482240414
 21
205.0931273091731
 31
0.0000000000000000
  0
ARC
  5
1DB
100
AcDbEntity
  8
MAIN0
  6
CONTINUOUS
 62
3
100
AcDbCircle
 10
177.3904482241362
 20
204.1280637995452
 30
0.0000000000000000
 40
0.6000000000000001
100
AcDbArc
 50
209.9999999999520
 51
329.9999999999243
  0
LINE
  5
1DC
100
AcDbEntity
  8
MAIN0
  6
CENTER
 62
3
100
AcDbLine
 10
183.8904482241323
 20
200.6558823064737
 30
0.0000000000000000
 11
183.8904482241406
 21
208.1074627248506
 31
0.0000000000000000
  0
LINE
  5
1DD
100
AcDbEntity
  8
MAIN0
  6
CONTINUOUS
 62
3
100
AcDbLine
 10
184.4100634664065
 20
203.8280637995372
 30
0.0000000000000000
 11
185.1404482242331
 21
205.0931273091629
 31
0.0000000000000000
  0
LINE
  5
1DE
100
AcDbEntity
  8
MAIN0
  6
CONTINUOUS
 62
3
100
AcDbLine
 10
183.3708329818653
 20
203.8280637995385
 30
0.0000000000000000
 11
182.6404482240415
 21
205.0931273091658
 31
0.0000000000000000
  0
ARC
  5
1DF
100
AcDbEntity
  8
MAIN0
  6
CONTINUOUS
 62
3
100
AcDbCircle
 10
183.8904482241362
 20
204.1280637995380
 30
0.0000000000000000
 40
0.6000000000000001
100
AcDbArc
 50
209.9999999999520
 51
329.9999999999243
  0
LINE
  5
1E0
100
AcDbEntity
  8
MAIN0
  6
CENTER
 62
3
100
AcDbLine
 10
190.3904482241323
 20
200.6558823064665
 30
0.0000000000000000
 11
190.3904482241406
 21
208.1074627248433
 31
0.0000000000000000
  0
LINE
  5
1E1
100
AcDbEntity
  8
MAIN0
  6
CONTINUOUS
 62
3
100
AcDbLine
 10
190.9100634664065
 20
203.8280637995300
 30
0.0000000000000000
 11
191.6404482242331
 21
205.0931273091557
 31
0.0000000000000000
  0
LINE
  5
1E2
100
AcDbEntity
  8
MAIN0
  6
CONTINUOUS
 62
3
100
AcDbLine
 10
189.8708329818652
 20
203.8280637995312
 30
0.0000000000000000
 11
189.1404482240414
 21
205.0931273091586
 31
0.0000000000000000
  0
ARC
  5
1E3
100
AcDbEntity
  8
MAIN0
  6
CONTINUOUS
 62
3
100
AcDbCircle
 10
190.3904482241362
 20
204.1280637995307
 30
0.0000000000000000
 40
0.6000000000000001
100
AcDbArc
 50
209.9999999999520
 51
329.9999999999243
  0
LINE
  5
1E4
100
AcDbEntity
  8
MAIN0
  6
CENTER
 62
3
100
AcDbLine
 10
196.8904482241323
 20
200.6558823064593
 30
0.0000000000000000
 11
196.8904482241406
 21
208.1074627248361
 31
0.0000000000000000
  0
LINE
  5
1E5
100
AcDbEntity
  8
MAIN0
  6
CONTINUOUS
 62
3
100
AcDbLine
 10
197.4100634664065
 20
203.8280637995228
 30
0.0000000000000000
 11
198.1404482242331
 21
205.0931273091486
 31
0.0000000000000000
  0
LINE
  5
1E6
100
AcDbEntity
  8
MAIN0
  6
CONTINUOUS
 62
3
100
AcDbLine
 10
196.3708329818653
 20
203.8280637995240
 30
0.0000000000000000
 11
195.6404482240414
 21
205.0931273091514
 31
0.0000000000000000
  0
ARC
  5
1E7
100
AcDbEntity
  8
MAIN0
  6
CONTINUOUS
 62
3
100
AcDbCircle
 10
196.8904482241362
 20
204.1280637995236
 30
0.0000000000000000
 40
0.6000000000000001
100
AcDbArc
 50
209.9999999999520
 51
329.9999999999243
  0
LINE
  5
1E8
100
AcDbEntity
  8
MAIN0
  6
CENTER
 62
3
100
AcDbLine
 10
200.7904482241063
 20
177.1834177060988
 30
0.0000000000000000
 11
200.7904482241130
 21
183.2688739440638
 31
0.0000000000000000
  0
LINE
  5
1E9
100
AcDbEntity
  8
MAIN0
  6
CONTINUOUS
 62
3
100
AcDbLine
 10
201.7904482239905
 20
179.0931273091446
 30
0.0000000000000000
 11
201.3100634663800
 21
179.9251781165093
 31
0.0000000000000000
  0
LINE
  5
1EA
100
AcDbEntity
  8
MAIN0
  6
CONTINUOUS
 62
3
100
AcDbLine
 10
199.7904482242265
 20
179.0931273091467
 30
0.0000000000000000
 11
200.2708329818388
 21
179.9251781165103
 31
0.0000000000000000
  0
ARC
  5
1EB
100
AcDbEntity
  8
MAIN0
  6
CONTINUOUS
 62
3
100
AcDbCircle
 10
200.7904482241090
 20
179.6251781165097
 30
0.0000000000000000
 40
0.6000000000000001
100
AcDbArc
 50
29.99999999994816
 51
149.9999999999249
  0
LINE
  5
1EC
100
AcDbEntity
  8
MAIN0
  6
CENTER
 62
3
100
AcDbLine
 10
188.4904482240731
 20
147.1834177061124
 30
0.0000000000000000
 11
188.4904482240798
 21
153.2688739440774
 31
0.0000000000000000
  0
LINE
  5
1ED
100
AcDbEntity
  8
MAIN0
  6
CONTINUOUS
 62
3
100
AcDbLine
 10
189.4904482239572
 20
149.0931273091582
 30
0.0000000000000000
 11
189.0100634663467
 21
149.9251781165230
 31
0.0000000000000000
  0
LINE
  5
1EE
100
AcDbEntity
  8
MAIN0
  6
CONTINUOUS
 62
3
100
AcDbLine
 10
187.4904482241933
 20
149.0931273091603
 30
0.0000000000000000
 11
187.9708329818056
 21
149.9251781165240
 31
0.0000000000000000
  0
ARC
  5
1EF
100
AcDbEntity
  8
MAIN0
  6
CONTINUOUS
 62
3
100
AcDbCircle
 10
188.4904482240757
 20
149.6251781165234
 30
0.0000000000000000
 40
0.6000000000000001
100
AcDbArc
 50
29.99999999994816
 51
149.9999999999249
  0
LINE
  5
1F0
100
AcDbEntity
  8
MAIN0
  6
CONTINUOUS
 62
3
100
AcDbLine
 10
184.4904482240753
 20
149.0931273091638
 30
0.0000000000000000
 11
187.4904482241932
 21
149.0931273091604
 31
0.0000000000000000
  0
LINE
  5
1F1
100
AcDbEntity
  8
MAIN0
  6
CONTINUOUS
 62
3
100
AcDbLine
 10
189.4904482239572
 20
149.0931273091582
 30
0.0000000000000000
 11
192.5904482240751
 21
149.0931273091548
 31
0.0000000000000000
  0
LINE
  5
1F2
100
AcDbEntity
  8
MAIN0
  6
CONTINUOUS
 62
3
100
AcDbLine
 10
196.4904482241084
 20
179.0931273091504
 30
0.0000000000000000
 11
199.7904482242265
 21
179.0931273091468
 31
0.0000000000000000
  0
LINE
  5
1F3
100
AcDbEntity
  8
MAIN0
  6
CONTINUOUS
 62
3
100
AcDbLine
 10
201.7904482239904
 20
179.0931273091445
 30
0.0000000000000000
 11
205.0904482241085
 21
179.0931273091409
 31
0.0000000000000000
  0
LINE
  5
1F4
100
AcDbEntity
  8
MAIN0
  6
CONTINUOUS
 62
3
100
AcDbLine
 10
198.1404482242331
 20
205.0931273091486
 30
0.0000000000000000
 11
205.0904482241373
 21
205.0931273091409
 31
0.0000000000000000
  0
LINE
  5
1F5
100
AcDbEntity
  8
MAIN0
  6
CONTINUOUS
 62
3
100
AcDbLine
 10
191.6404482242331
 20
205.0931273091558
 30
0.0000000000000000
 11
195.6404482240414
 21
205.0931273091514
 31
0.0000000000000000
  0
LINE
  5
1F6
100
AcDbEntity
  8
MAIN0
  6
CONTINUOUS
 62
3
100
AcDbLine
 10
185.1404482242331
 20
205.0931273091630
 30
0.0000000000000000
 11
189.1404482240414
 21
205.0931273091586
 31
0.0000000000000000
  0
LINE
  5
1F7
100
AcDbEntity
  8
MAIN0
  6
CONTINUOUS
 62
3
100
AcDbLine
 10
178.6404482242331
 20
205.0931273091702
 30
0.0000000000000000
 11
182.6404482240414
 21
205.0931273091658
 31
0.0000000000000000
  0
LINE
  5
1F8
100
AcDbEntity
  8
MAIN0
  6
CONTINUOUS
 62
3
100
AcDbLine
 10
165.1904482241372
 20
205.0931273091851
 30
0.0000000000000000
 11
169.6404482240414
 21
205.0931273091802
 31
0.0000000000000000
  0
LINE
  5
1F9
100
AcDbEntity
  8
MAIN0
  6
CONTINUOUS
 62
3
100
AcDbLine
 10
172.1404482242331
 20
205.0931273091774
 30
0.0000000000000000
 11
176.1404482240414
 21
205.0931273091730
 31
0.0000000000000000
  0
LINE
  5
1FA
100
AcDbEntity
  8
MAIN0
  6
CENTER
 62
3
100
AcDbLine
 10
172.2991681961346
 20
187.0831273091773
 30
0.0000000000000000
 11
188.2546702154006
 21
187.0831273091596
 31
0.0000000000000000
  0
LINE
  5
1FB
100
AcDbEntity
  8
MAIN0
  6
CENTER
 62
3
100
AcDbLine
 10
188.2546702154006
 20
187.0831273091596
 30
0.0000000000000000
 11
210.4363706364889
 21
187.0831273091350
 31
0.0000000000000000
  0
LINE
  5
1FC
100
AcDbEntity
  8
MAIN0
  6
CONTINUOUS
 62
3
100
AcDbLine
 10
164.3904482240979
 20
169.6081213490639
 30
0.0000000000000000
 11
164.3904482241157
 21
185.6947773091860
 31
0.0000000000000000
  0
LINE
  5
1FD
100
AcDbEntity
  8
MAIN0
  6
CONTINUOUS
 62
3
100
AcDbLine
 10
164.3904482240559
 20
131.7147773091860
 30
0.0000000000000000
 11
164.3904482240768
 21
150.5781213490639
 31
0.0000000000000000
  0
LINE
  5
1FE
100
AcDbEntity
  8
MAIN0
  6
CONTINUOUS
 62
3
100
AcDbLine
 10
171.3904482241173
 20
178.0831273091783
 30
0.0000000000000000
 11
182.1904482241172
 21
178.0831273091783
 31
0.0000000000000000
  0
LINE
  5
1FF
100
AcDbEntity
  8
MAIN0
  6
CONTINUOUS
 62
3
100
AcDbLine
 10
182.1904482241172
 20
178.0831273091783
 30
0.0000000000000000
 11
183.3904482241173
 21
180.1615882782609
 31
0.0000000000000000
  0
LINE
  5
200
100
AcDbEntity
  8
MAIN0
  6
CONTINUOUS
 62
3
100
AcDbLine
 10
183.3904482241173
 20
180.1615882782609
 30
0.0000000000000000
 11
183.3904482241173
 21
194.0046663400956
 31
0.0000000000000000
  0
LINE
  5
201
100
AcDbEntity
  8
MAIN0
  6
CONTINUOUS
 62
3
100
AcDbLine
 10
183.3904482241173
 20
194.0046663400956
 30
0.0000000000000000
 11
182.1904482241172
 21
196.0831273091783
 31
0.0000000000000000
  0
LINE
  5
202
100
AcDbEntity
  8
MAIN0
  6
CONTINUOUS
 62
3
100
AcDbLine
 10
182.1904482241172
 20
196.0831273091783
 30
0.0000000000000000
 11
171.3904482241173
 21
196.0831273091783
 31
0.0000000000000000
  0
LINE
  5
203
100
AcDbEntity
  8
MAIN0
  6
CONTINUOUS
 62
3
100
AcDbLine
 10
182.1904482241172
 20
178.0831273091783
 30
0.0000000000000000
 11
182.1904482241172
 21
196.0831273091783
 31
0.0000000000000000
  0
LINE
  5
204
100
AcDbEntity
  8
MAIN0
  6
HIDDEN
 62
3
100
AcDbLine
 10
150.4363706364845
 20
193.0831273091783
 30
0.0000000000000000
 11
164.3904482241239
 21
193.0831273091783
 31
0.0000000000000000
  0
LINE
  5
205
100
AcDbEntity
  8
MAIN0
  6
CONTINUOUS
 62
3
100
AcDbLine
 10
164.3904482241239
 20
193.0831273091783
 30
0.0000000000000000
 11
171.3904482241173
 21
193.0831273091783
 31
0.0000000000000000
  0
LINE
  5
206
100
AcDbEntity
  8
MAIN0
  6
HIDDEN
 62
3
100
AcDbLine
 10
150.4363706364845
 20
192.1359118091783
 30
0.0000000000000000
 11
164.3904482241229
 21
192.1359118091783
 31
0.0000000000000000
  0
LINE
  5
207
100
AcDbEntity
  8
MAIN0
  6
CONTINUOUS
 62
3
100
AcDbLine
 10
164.3904482241229
 20
192.1359118091783
 30
0.0000000000000000
 11
171.3904482241173
 21
192.1359118091783
 31
0.0000000000000000
  0
LINE
  5
208
100
AcDbEntity
  8
MAIN0
  6
HIDDEN
 62
3
100
AcDbLine
 10
150.4363706364845
 20
182.0303428091783
 30
0.0000000000000000
 11
164.3904482241117
 21
182.0303428091783
 31
0.0000000000000000
  0
LINE
  5
209
100
AcDbEntity
  8
MAIN0
  6
CONTINUOUS
 62
3
100
AcDbLine
 10
164.3904482241117
 20
182.0303428091783
 30
0.0000000000000000
 11
171.3904482241173
 21
182.0303428091783
 31
0.0000000000000000
  0
LINE
  5
20A
100
AcDbEntity
  8
MAIN0
  6
HIDDEN
 62
3
100
AcDbLine
 10
150.4363706364845
 20
181.0831273091783
 30
0.0000000000000000
 11
164.3904482241106
 21
181.0831273091783
 31
0.0000000000000000
  0
LINE
  5
20B
100
AcDbEntity
  8
MAIN0
  6
CONTINUOUS
 62
3
100
AcDbLine
 10
164.3904482241106
 20
181.0831273091783
 30
0.0000000000000000
 11
171.3904482241173
 21
181.0831273091783
 31
0.0000000000000000
  0
LINE
  5
20C
100
AcDbEntity
  8
MAIN0
  6
CONTINUOUS
 62
3
100
AcDbLine
 10
168.3904482240575
 20
124.1031273091816
 30
0.0000000000000000
 11
179.1904482240574
 21
124.1031273091816
 31
0.0000000000000000
  0
LINE
  5
20D
100
AcDbEntity
  8
MAIN0
  6
CONTINUOUS
 62
3
100
AcDbLine
 10
179.1904482240574
 20
124.1031273091816
 30
0.0000000000000000
 11
180.3904482240575
 21
126.1815882782642
 31
0.0000000000000000
  0
LINE
  5
20E
100
AcDbEntity
  8
MAIN0
  6
CONTINUOUS
 62
3
100
AcDbLine
 10
180.3904482240575
 20
126.1815882782642
 30
0.0000000000000000
 11
180.3904482240575
 21
140.0246663400989
 31
0.0000000000000000
  0
LINE
  5
20F
100
AcDbEntity
  8
MAIN0
  6
CONTINUOUS
 62
3
100
AcDbLine
 10
180.3904482240575
 20
140.0246663400989
 30
0.0000000000000000
 11
179.1904482240574
 21
142.1031273091816
 31
0.0000000000000000
  0
LINE
  5
210
100
AcDbEntity
  8
MAIN0
  6
CONTINUOUS
 62
3
100
AcDbLine
 10
179.1904482240574
 20
142.1031273091816
 30
0.0000000000000000
 11
168.3904482240575
 21
142.1031273091816
 31
0.0000000000000000
  0
LINE
  5
211
100
AcDbEntity
  8
MAIN0
  6
CONTINUOUS
 62
3
100
AcDbLine
 10
179.1904482240574
 20
124.1031273091816
 30
0.0000000000000000
 11
179.1904482240574
 21
142.1031273091816
 31
0.0000000000000000
  0
LINE
  5
212
100
AcDbEntity
  8
MAIN0
  6
HIDDEN
 62
3
100
AcDbLine
 10
150.4363706364845
 20
139.1031273091816
 30
0.0000000000000000
 11
164.3904482240641
 21
139.1031273091816
 31
0.0000000000000000
  0
LINE
  5
213
100
AcDbEntity
  8
MAIN0
  6
CONTINUOUS
 62
3
100
AcDbLine
 10
164.3904482240641
 20
139.1031273091816
 30
0.0000000000000000
 11
168.3904482240575
 21
139.1031273091816
 31
0.0000000000000000
  0
LINE
  5
214
100
AcDbEntity
  8
MAIN0
  6
HIDDEN
 62
3
100
AcDbLine
 10
150.4363706364845
 20
138.1559118091816
 30
0.0000000000000000
 11
164.3904482240630
 21
138.1559118091816
 31
0.0000000000000000
  0
LINE
  5
215
100
AcDbEntity
  8
MAIN0
  6
CONTINUOUS
 62
3
100
AcDbLine
 10
164.3904482240630
 20
138.1559118091816
 30
0.0000000000000000
 11
168.3904482240575
 21
138.1559118091816
 31
0.0000000000000000
  0
LINE
  5
216
100
AcDbEntity
  8
MAIN0
  6
HIDDEN
 62
3
100
AcDbLine
 10
150.4363706364845
 20
128.0503428091816
 30
0.0000000000000000
 11
164.3904482240518
 21
128.0503428091816
 31
0.0000000000000000
  0
LINE
  5
217
100
AcDbEntity
  8
MAIN0
  6
CONTINUOUS
 62
3
100
AcDbLine
 10
164.3904482240518
 20
128.0503428091816
 30
0.0000000000000000
 11
168.3904482240575
 21
128.0503428091816
 31
0.0000000000000000
  0
LINE
  5
218
100
AcDbEntity
  8
MAIN0
  6
HIDDEN
 62
3
100
AcDbLine
 10
150.4363706364845
 20
127.1031273091816
 30
0.0000000000000000
 11
164.3904482240508
 21
127.1031273091816
 31
0.0000000000000000
  0
LINE
  5
219
100
AcDbEntity
  8
MAIN0
  6
CONTINUOUS
 62
3
100
AcDbLine
 10
164.3904482240508
 20
127.1031273091816
 30
0.0000000000000000
 11
168.3904482240575
 21
127.1031273091816
 31
0.0000000000000000
  0
LINE
  5
21A
100
AcDbEntity
  8
MAIN0
  6
CONTINUOUS
 62
3
100
AcDbLine
 10
361.4363561657607
 20
123.4320295741217
 30
0.0000000000000000
 11
361.4363561657607
 21
196.7541200097900
 31
0.0000000000000000
  0
LINE
  5
21B
100
AcDbEntity
  8
MAIN0
  6
CONTINUOUS
 62
3
100
AcDbLine
 10
329.4363561657608
 20
123.4320295741217
 30
0.0000000000000000
 11
329.4363561657608
 21
196.7541200097900
 31
0.0000000000000000
  0
LINE
  5
21C
100
AcDbEntity
  8
MAIN0
  6
CONTINUOUS
 62
3
100
AcDbLine
 10
361.4363561657606
 20
196.7541200097900
 30
0.0000000000000000
 11
346.9363561658892
 21
205.1256989129504
 31
0.0000000000000000
  0
LINE
  5
21D
100
AcDbEntity
  8
MAIN0
  6
CONTINUOUS
 62
3
100
AcDbLine
 10
329.4363561657607
 20
196.7541200097900
 30
0.0000000000000000
 11
343.9363561656322
 21
205.1256989129504
 31
0.0000000000000000
  0
LINE
  5
21E
100
AcDbEntity
  8
MAIN0
  6
CONTINUOUS
 62
3
100
AcDbLine
 10
329.4363561657606
 20
123.4320295741219
 30
0.0000000000000000
 11
343.8798495305173
 21
115.0930747919560
 31
0.0000000000000000
  0
LINE
  5
21F
100
AcDbEntity
  8
MAIN0
  6
CONTINUOUS
 62
3
100
AcDbLine
 10
361.4363561657607
 20
123.4320295741218
 30
0.0000000000000000
 11
346.9928628010042
 21
115.0930747919559
 31
0.0000000000000000
  0
CIRCLE
  5
220
100
AcDbEntity
  8
MAIN0
  6
CONTINUOUS
 62
3
100
AcDbCircle
 10
345.4363561657607
 20
187.0830747919559
 30
0.0000000000000000
 40
9.500000000000000
  0
CIRCLE
  5
221
100
AcDbEntity
  8
MAIN0
  6
CONTINUOUS
 62
3
100
AcDbCircle
 10
345.4363561657607
 20
187.0830747919559
 30
0.0000000000000000
 40
6.500000000000000
  0
CIRCLE
  5
222
100
AcDbEntity
  8
MAIN0
  6
CONTINUOUS
 62
3
100
AcDbCircle
 10
345.4363561657607
 20
133.1030747919558
 30
0.0000000000000000
 40
9.500000000000000
  0
CIRCLE
  5
223
100
AcDbEntity
  8
MAIN0
  6
CONTINUOUS
 62
3
100
AcDbCircle
 10
345.4363561657607
 20
133.1030747919558
 30
0.0000000000000000
 40
6.500000000000000
  0
ARC
  5
224
100
AcDbEntity
  8
MAIN0
  6
CONTINUOUS
 62
3
100
AcDbCircle
 10
345.4363561657607
 20
80.59307479195584
 30
0.0000000000000000
 40
68.50000000000000
100
AcDbArc
 50
77.29546668961297
 51
102.7045333103870
  0
ARC
  5
225
100
AcDbEntity
  8
MAIN0
  6
CONTINUOUS
 62
3
100
AcDbCircle
 10
345.4363561657607
 20
239.5930747919559
 30
0.0000000000000000
 40
93.40000000000001
100
AcDbArc
 50
279.2819457964332
 51
279.8637735374995
  0
ARC
  5
226
100
AcDbEntity
  8
MAIN0
  6
CONTINUOUS
 62
3
100
AcDbCircle
 10
345.4363561657607
 20
239.5930747919559
 30
0.0000000000000000
 40
93.40000000000001
100
AcDbArc
 50
260.1362264625005
 51
260.7180542035669
  0
ARC
  5
227
100
AcDbEntity
  8
MAIN0
  6
CONTINUOUS
 62
3
100
AcDbCircle
 10
345.4363561657607
 20
239.5930747919559
 30
0.0000000000000000
 40
63.40000000000001
100
AcDbArc
 50
283.5708440372509
 51
284.6175600515255
  0
ARC
  5
228
100
AcDbEntity
  8
MAIN0
  6
CONTINUOUS
 62
3
100
AcDbCircle
 10
345.4363561657607
 20
239.5930747919559
 30
0.0000000000000000
 40
63.40000000000001
100
AcDbArc
 50
255.3824399484746
 51
256.4291559627491
  0
ARC
  5
229
100
AcDbEntity
  8
MAIN0
  6
CONTINUOUS
 62
3
100
AcDbCircle
 10
345.4363561657607
 20
80.59307479195584
 30
0.0000000000000000
 40
98.50000000000000
100
AcDbArc
 50
81.31326372407315
 51
85.44793934423662
  0
ARC
  5
22A
100
AcDbEntity
  8
MAIN0
  6
CONTINUOUS
 62
3
100
AcDbCircle
 10
345.4363561657607
 20
80.59307479195584
 30
0.0000000000000000
 40
98.50000000000000
100
AcDbArc
 50
94.55206065576348
 51
98.68673627592695
  0
ARC
  5
22B
100
AcDbEntity
  8
MAIN0
  6
CONTINUOUS
 62
3
100
AcDbCircle
 10
345.4363561657607
 20
177.0830747919559
 30
0.0000000000000000
 40
8.000000000000000
100
AcDbArc
 50
12.26372997784257
 51
27.44761922420758
  0
ARC
  5
22C
100
AcDbEntity
  8
MAIN0
  6
CONTINUOUS
 62
3
100
AcDbCircle
 10
345.4363561657607
 20
177.0830747919559
 30
0.0000000000000000
 40
8.000000000000000
100
AcDbArc
 50
152.5523807757926
 51
167.7362700221574
  0
ARC
  5
22D
100
AcDbEntity
  8
MAIN0
  6
CONTINUOUS
 62
3
100
AcDbCircle
 10
345.4363561657607
 20
80.59307479195584
 30
0.0000000000000000
 40
65.00000000000000
100
AcDbArc
 50
75.74996730219648
 51
104.2500326978036
  0
ARC
  5
22E
100
AcDbEntity
  8
MAIN0
  6
CONTINUOUS
 62
3
100
AcDbCircle
 10
345.4363561657607
 20
80.59307479195584
 30
0.0000000000000000
 40
95.00000000000000
100
AcDbArc
 50
80.30397160185137
 51
99.69602839814874
  0
ARC
  5
22F
100
AcDbEntity
  8
MAIN0
  6
CONTINUOUS
 62
3
100
AcDbCircle
 10
345.4363561657607
 20
80.59307479195584
 30
0.0000000000000000
 40
75.50000000000000
100
AcDbArc
 50
77.76507601519437
 51
102.2349239848056
  0
LINE
  5
230
100
AcDbEntity
  8
MAIN0
  6
CENTER
 62
3
100
AcDbLine
 10
359.1189829276640
 20
187.0830747919558
 30
0.0000000000000000
 11
332.7334953764130
 21
187.0830747919558
 31
0.0000000000000000
  0
LINE
  5
231
100
AcDbEntity
  8
MAIN0
  6
CENTER
 62
3
100
AcDbLine
 10
359.1189829276640
 20
133.1030747919558
 30
0.0000000000000000
 11
332.7334953764130
 21
133.1030747919558
 31
0.0000000000000000
  0
LINE
  5
232
100
AcDbEntity
  8
MAIN0
  6
CONTINUOUS
 62
3
100
AcDbLine
 10
346.9928628010042
 20
115.0930747919558
 30
0.0000000000000000
 11
343.8798495305173
 21
115.0930747919558
 31
0.0000000000000000
  0
ARC
  5
233
100
AcDbEntity
  8
MAIN0
  6
CONTINUOUS
 62
3
100
AcDbCircle
 10
345.4363561657607
 20
80.59307479195584
 30
0.0000000000000000
 40
43.50000000000000
100
AcDbArc
 50
71.98660519939628
 51
86.38897809237965
  0
ARC
  5
234
100
AcDbEntity
  8
MAIN0
  6
CONTINUOUS
 62
3
100
AcDbCircle
 10
345.4363561657607
 20
80.59307479195584
 30
0.0000000000000000
 40
43.50000000000000
100
AcDbArc
 50
93.61102190762047
 51
108.0133948006037
  0
LINE
  5
235
100
AcDbEntity
  8
MAIN0
  6
CONTINUOUS
 62
3
100
AcDbLine
 10
432.4056405213706
 20
301.7800115689897
 30
0.0000000000000000
 11
368.9068475455019
 21
265.1189663511556
 31
0.0000000000000000
  0
LINE
  5
236
100
AcDbEntity
  8
MAIN0
  6
CONTINUOUS
 62
3
100
AcDbLine
 10
448.4056405213706
 20
274.0671986478877
 30
0.0000000000000000
 11
384.9068475455018
 21
237.4061534300536
 31
0.0000000000000000
  0
LINE
  5
237
100
AcDbEntity
  8
MAIN0
  6
CONTINUOUS
 62
3
100
AcDbLine
 10
368.9068475455020
 20
265.1189663511556
 30
0.0000000000000000
 11
368.9068475455150
 21
248.3758085448123
 31
0.0000000000000000
  0
LINE
  5
238
100
AcDbEntity
  8
MAIN0
  6
CONTINUOUS
 62
3
100
AcDbLine
 10
384.9068475455018
 20
237.4061534300536
 30
0.0000000000000000
 11
370.4068475456433
 21
245.7777323332364
 31
0.0000000000000000
  0
LINE
  5
239
100
AcDbEntity
  8
MAIN0
  6
CONTINUOUS
 62
3
100
AcDbLine
 10
448.4056405213705
 20
274.0671986478876
 30
0.0000000000000000
 11
448.4056405213576
 21
290.7451082122418
 31
0.0000000000000000
  0
LINE
  5
23A
100
AcDbEntity
  8
MAIN0
  6
CONTINUOUS
 62
3
100
AcDbLine
 10
432.4056405213706
 20
301.7800115689897
 30
0.0000000000000000
 11
446.8491338861142
 21
293.4410567868015
 31
0.0000000000000000
  0
CIRCLE
  5
23B
100
AcDbEntity
  8
MAIN0
  6
CONTINUOUS
 62
3
100
AcDbCircle
 10
385.2822183852943
 20
256.0980824995216
 30
0.0000000000000000
 40
9.500000000000000
  0
CIRCLE
  5
23C
100
AcDbEntity
  8
MAIN0
  6
CONTINUOUS
 62
3
100
AcDbCircle
 10
385.2822183852943
 20
256.0980824995216
 30
0.0000000000000000
 40
6.500000000000000
  0
CIRCLE
  5
23D
100
AcDbEntity
  8
MAIN0
  6
CONTINUOUS
 62
3
100
AcDbCircle
 10
432.0302696815783
 20
283.0880824995217
 30
0.0000000000000000
 40
9.500000000000000
  0
CIRCLE
  5
23E
100
AcDbEntity
  8
MAIN0
  6
CONTINUOUS
 62
3
100
AcDbCircle
 10
432.0302696815783
 20
283.0880824995217
 30
0.0000000000000000
 40
6.500000000000000
  0
ARC
  5
23F
100
AcDbEntity
  8
MAIN0
  6
CONTINUOUS
 62
3
100
AcDbCircle
 10
477.5052636342992
 20
309.3430824995216
 30
0.0000000000000000
 40
68.50000000000000
100
AcDbArc
 50
197.2954666896131
 51
222.7045333103871
  0
ARC
  5
240
100
AcDbEntity
  8
MAIN0
  6
CONTINUOUS
 62
3
100
AcDbCircle
 10
339.8072244325734
 20
229.8430824995216
 30
0.0000000000000000
 40
93.40000000000001
100
AcDbArc
 50
39.28194579643311
 51
39.86377353749949
  0
ARC
  5
241
100
AcDbEntity
  8
MAIN0
  6
CONTINUOUS
 62
3
100
AcDbCircle
 10
339.8072244325734
 20
229.8430824995216
 30
0.0000000000000000
 40
93.40000000000001
100
AcDbArc
 50
20.13622646250044
 51
20.71805420356682
  0
ARC
  5
242
100
AcDbEntity
  8
MAIN0
  6
CONTINUOUS
 62
3
100
AcDbCircle
 10
339.8072244325734
 20
229.8430824995216
 30
0.0000000000000000
 40
63.40000000000001
100
AcDbArc
 50
43.57084403725082
 51
44.61756005152539
  0
ARC
  5
243
100
AcDbEntity
  8
MAIN0
  6
CONTINUOUS
 62
3
100
AcDbCircle
 10
339.8072244325734
 20
229.8430824995216
 30
0.0000000000000000
 40
63.40000000000001
100
AcDbArc
 50
15.38243994847455
 51
16.42915596274911
  0
ARC
  5
244
100
AcDbEntity
  8
MAIN0
  6
CONTINUOUS
 62
3
100
AcDbCircle
 10
477.5052636342992
 20
309.3430824995216
 30
0.0000000000000000
 40
98.50000000000000
100
AcDbArc
 50
201.3132637240731
 51
205.4479393442366
  0
ARC
  5
245
100
AcDbEntity
  8
MAIN0
  6
CONTINUOUS
 62
3
100
AcDbCircle
 10
477.5052636342992
 20
309.3430824995216
 30
0.0000000000000000
 40
98.50000000000000
100
AcDbArc
 50
214.5520606557635
 51
218.6867362759269
  0
ARC
  5
246
100
AcDbEntity
  8
MAIN0
  6
CONTINUOUS
 62
3
100
AcDbCircle
 10
393.9424724231387
 20
261.0980824995216
 30
0.0000000000000000
 40
8.000000000000000
100
AcDbArc
 50
132.2637299778426
 51
147.4476192242076
  0
ARC
  5
247
100
AcDbEntity
  8
MAIN0
  6
CONTINUOUS
 62
3
100
AcDbCircle
 10
393.9424724231387
 20
261.0980824995216
 30
0.0000000000000000
 40
8.000000000000000
100
AcDbArc
 50
272.5523807757926
 51
287.7362700221573
  0
ARC
  5
248
100
AcDbEntity
  8
MAIN0
  6
CONTINUOUS
 62
3
100
AcDbCircle
 10
477.5052636342992
 20
309.3430824995216
 30
0.0000000000000000
 40
65.00000000000000
100
AcDbArc
 50
195.7499673021964
 51
224.2500326978036
  0
ARC
  5
249
100
AcDbEntity
  8
MAIN0
  6
CONTINUOUS
 62
3
100
AcDbCircle
 10
477.5052636342992
 20
309.3430824995216
 30
0.0000000000000000
 40
95.00000000000000
100
AcDbArc
 50
200.3039716018513
 51
219.6960283981487
  0
ARC
  5
24A
100
AcDbEntity
  8
MAIN0
  6
CONTINUOUS
 62
3
100
AcDbCircle
 10
477.5052636342992
 20
309.3430824995216
 30
0.0000000000000000
 40
75.50000000000000
100
AcDbArc
 50
197.7650760151943
 51
222.2349239848056
  0
LINE
  5
24B
100
AcDbEntity
  8
MAIN0
  6
CENTER
 62
3
100
AcDbLine
 10
378.5323409083156
 20
267.7892132345134
 30
0.0000000000000000
 11
392.1512220574041
 21
244.2006191420501
 31
0.0000000000000000
  0
LINE
  5
24C
100
AcDbEntity
  8
MAIN0
  6
CENTER
 62
3
100
AcDbLine
 10
425.2803922045999
 20
294.7792132345135
 30
0.0000000000000000
 11
438.8992733536884
 21
271.1906191420501
 31
0.0000000000000000
  0
LINE
  5
24D
100
AcDbEntity
  8
MAIN0
  6
CONTINUOUS
 62
3
100
AcDbLine
 10
446.8491338861143
 20
293.4410567868014
 30
0.0000000000000000
 11
448.4056405213577
 21
290.7451082122418
 31
0.0000000000000000
  0
ARC
  5
24E
100
AcDbEntity
  8
MAIN0
  6
CONTINUOUS
 62
3
100
AcDbCircle
 10
477.5052636342992
 20
309.3430824995216
 30
0.0000000000000000
 40
43.50000000000000
100
AcDbArc
 50
191.9866051993964
 51
206.3889780923797
  0
ARC
  5
24F
100
AcDbEntity
  8
MAIN0
  6
CONTINUOUS
 62
3
100
AcDbCircle
 10
477.5052636342992
 20
309.3430824995216
 30
0.0000000000000000
 40
43.50000000000000
100
AcDbArc
 50
213.6110219076204
 51
228.0133948006037
  0
LINE
  5
250
100
AcDbEntity
  8
MAIN0
  6
HIDDEN
 62
3
100
AcDbLine
 10
424.1746755752196
 20
318.4510512139362
 30
0.0000000000000000
 11
422.4840771118529
 21
318.3031430138173
 31
0.0000000000000000
  0
LINE
  5
251
100
AcDbEntity
  8
MAIN0
  6
HIDDEN
 62
3
100
AcDbLine
 10
422.4840771118531
 20
318.3031430138173
 30
0.0000000000000000
 11
415.9726993453418
 21
323.7668376961529
 31
0.0000000000000000
  0
LINE
  5
252
100
AcDbEntity
  8
MAIN0
  6
HIDDEN
 62
3
100
AcDbLine
 10
415.9726993453418
 20
323.7668376961529
 30
0.0000000000000000
 11
415.8247911452228
 21
325.4574361595195
 31
0.0000000000000000
  0
LINE
  5
253
100
AcDbEntity
  8
MAIN0
  6
HIDDEN
 62
3
100
AcDbLine
 10
423.5407011514572
 20
318.3955856388916
 30
0.0000000000000000
 11
409.0458405530258
 21
301.1212834465587
 31
0.0000000000000000
  0
LINE
  5
254
100
AcDbEntity
  8
MAIN0
  6
HIDDEN
 62
3
100
AcDbLine
 10
409.0458405530258
 20
301.1212834465587
 30
0.0000000000000000
 11
401.3853961218360
 21
307.5491595434240
 31
0.0000000000000000
  0
LINE
  5
255
100
AcDbEntity
  8
MAIN0
  6
HIDDEN
 62
3
100
AcDbLine
 10
401.3853961218360
 20
307.5491595434240
 30
0.0000000000000000
 11
415.8802567202674
 21
324.8234617357570
 31
0.0000000000000000
  0
LINE
  5
256
100
AcDbEntity
  8
MAIN0
  6
HIDDEN
 62
3
100
AcDbLine
 10
422.4840771118531
 20
318.3031430138173
 30
0.0000000000000000
 11
402.6862187335077
 21
294.7089741657527
 31
0.0000000000000000
  0
LINE
  5
257
100
AcDbEntity
  8
MAIN0
  6
HIDDEN
 62
3
100
AcDbLine
 10
402.6862187335077
 20
294.7089741657528
 30
0.0000000000000000
 11
396.1748409669964
 21
300.1726688480884
 31
0.0000000000000000
  0
LINE
  5
258
100
AcDbEntity
  8
MAIN0
  6
HIDDEN
 62
3
100
AcDbLine
 10
396.1748409669964
 20
300.1726688480884
 30
0.0000000000000000
 11
415.9726993453418
 21
323.7668376961529
 31
0.0000000000000000
  0
LINE
  5
259
100
AcDbEntity
  8
MAIN0
  6
HIDDEN
 62
3
100
AcDbLine
 10
402.6862187335076
 20
294.7089741657528
 30
0.0000000000000000
 11
397.8532970524439
 21
295.5611486537752
 31
0.0000000000000000
  0
LINE
  5
25A
100
AcDbEntity
  8
MAIN0
  6
HIDDEN
 62
3
100
AcDbLine
 10
397.8532970524438
 20
295.5611486537752
 30
0.0000000000000000
 11
396.1748409669964
 21
300.1726688480884
 31
0.0000000000000000
  0
LINE
  5
25B
100
AcDbEntity
  8
MAIN0
  6
HIDDEN
 62
3
100
AcDbLine
 10
266.6980656977494
 20
147.7351253560817
 30
0.0000000000000000
 11
268.3886641611160
 21
147.8830335562007
 31
0.0000000000000000
  0
LINE
  5
25C
100
AcDbEntity
  8
MAIN0
  6
HIDDEN
 62
3
100
AcDbLine
 10
268.3886641611160
 20
147.8830335562007
 30
0.0000000000000000
 11
274.9000419276273
 21
142.4193388738651
 31
0.0000000000000000
  0
LINE
  5
25D
100
AcDbEntity
  8
MAIN0
  6
HIDDEN
 62
3
100
AcDbLine
 10
274.9000419276273
 20
142.4193388738651
 30
0.0000000000000000
 11
275.0479501277462
 21
140.7287404104985
 31
0.0000000000000000
  0
LINE
  5
25E
100
AcDbEntity
  8
MAIN0
  6
HIDDEN
 62
3
100
AcDbLine
 10
267.3320401215117
 20
147.7905909311265
 30
0.0000000000000000
 11
281.8269007199432
 21
165.0648931234594
 31
0.0000000000000000
  0
LINE
  5
25F
100
AcDbEntity
  8
MAIN0
  6
HIDDEN
 62
3
100
AcDbLine
 10
281.8269007199433
 20
165.0648931234593
 30
0.0000000000000000
 11
289.4873451511331
 21
158.6370170265939
 31
0.0000000000000000
  0
LINE
  5
260
100
AcDbEntity
  8
MAIN0
  6
HIDDEN
 62
3
100
AcDbLine
 10
289.4873451511330
 20
158.6370170265940
 30
0.0000000000000000
 11
274.9924845527016
 21
141.3627148342611
 31
0.0000000000000000
  0
LINE
  5
261
100
AcDbEntity
  8
MAIN0
  6
HIDDEN
 62
3
100
AcDbLine
 10
268.3886641611160
 20
147.8830335562007
 30
0.0000000000000000
 11
288.1865225394614
 21
171.4772024042653
 31
0.0000000000000000
  0
LINE
  5
262
100
AcDbEntity
  8
MAIN0
  6
HIDDEN
 62
3
100
AcDbLine
 10
288.1865225394614
 20
171.4772024042652
 30
0.0000000000000000
 11
294.6979003059727
 21
166.0135077219296
 31
0.0000000000000000
  0
LINE
  5
263
100
AcDbEntity
  8
MAIN0
  6
HIDDEN
 62
3
100
AcDbLine
 10
294.6979003059727
 20
166.0135077219296
 30
0.0000000000000000
 11
274.9000419276273
 21
142.4193388738651
 31
0.0000000000000000
  0
LINE
  5
264
100
AcDbEntity
  8
MAIN0
  6
HIDDEN
 62
3
100
AcDbLine
 10
288.1865225394615
 20
171.4772024042652
 30
0.0000000000000000
 11
293.0194442205253
 21
170.6250279162428
 31
0.0000000000000000
  0
LINE
  5
265
100
AcDbEntity
  8
MAIN0
  6
HIDDEN
 62
3
100
AcDbLine
 10
293.0194442205251
 20
170.6250279162427
 30
0.0000000000000000
 11
294.6979003059726
 21
166.0135077219296
 31
0.0000000000000000
  0
LINE
  5
266
100
AcDbEntity
  8
MAIN0
  6
HIDDEN
 62
3
100
AcDbLine
 10
144.2436814503077
 20
349.0930882850091
 30
0.0000000000000000
 11
143.0436814503077
 21
347.8930882850090
 31
0.0000000000000000
  0
LINE
  5
267
100
AcDbEntity
  8
MAIN0
  6
HIDDEN
 62
3
100
AcDbLine
 10
143.0436814503078
 20
347.8930882850091
 30
0.0000000000000000
 11
134.5436814503078
 21
347.8930882850091
 31
0.0000000000000000
  0
LINE
  5
268
100
AcDbEntity
  8
MAIN0
  6
HIDDEN
 62
3
100
AcDbLine
 10
134.5436814503077
 20
347.8930882850090
 30
0.0000000000000000
 11
133.3436814503077
 21
349.0930882850090
 31
0.0000000000000000
  0
LINE
  5
269
100
AcDbEntity
  8
MAIN0
  6
HIDDEN
 62
3
100
AcDbLine
 10
143.7936814503078
 20
348.6430882850091
 30
0.0000000000000000
 11
143.7936814503078
 21
326.0930882850091
 31
0.0000000000000000
  0
LINE
  5
26A
100
AcDbEntity
  8
MAIN0
  6
HIDDEN
 62
3
100
AcDbLine
 10
143.7936814503078
 20
326.0930882850091
 30
0.0000000000000000
 11
133.7936814503078
 21
326.0930882850091
 31
0.0000000000000000
  0
LINE
  5
26B
100
AcDbEntity
  8
MAIN0
  6
HIDDEN
 62
3
100
AcDbLine
 10
133.7936814503078
 20
326.0930882850091
 30
0.0000000000000000
 11
133.7936814503078
 21
348.6430882850091
 31
0.0000000000000000
  0
LINE
  5
26C
100
AcDbEntity
  8
MAIN0
  6
HIDDEN
 62
3
100
AcDbLine
 10
143.0436814503078
 20
347.8930882850091
 30
0.0000000000000000
 11
143.0436814503078
 21
317.0930882850091
 31
0.0000000000000000
  0
LINE
  5
26D
100
AcDbEntity
  8
MAIN0
  6
HIDDEN
 62
3
100
AcDbLine
 10
143.0436814503078
 20
317.0930882850091
 30
0.0000000000000000
 11
134.5436814503078
 21
317.0930882850091
 31
0.0000000000000000
  0
LINE
  5
26E
100
AcDbEntity
  8
MAIN0
  6
HIDDEN
 62
3
100
AcDbLine
 10
134.5436814503078
 20
317.0930882850091
 30
0.0000000000000000
 11
134.5436814503078
 21
347.8930882850091
 31
0.0000000000000000
  0
LINE
  5
26F
100
AcDbEntity
  8
MAIN0
  6
HIDDEN
 62
3
100
AcDbLine
 10
143.0436814503077
 20
317.0930882850091
 30
0.0000000000000000
 11
138.7936814503077
 21
314.6393496409531
 31
0.0000000000000000
  0
LINE
  5
270
100
AcDbEntity
  8
MAIN0
  6
HIDDEN
 62
3
100
AcDbLine
 10
138.7936814503076
 20
314.6393496409531
 30
0.0000000000000000
 11
134.5436814503076
 21
317.0930882850091
 31
0.0000000000000000
  0
LINE
  5
271
100
AcDbEntity
  8
MAIN0
  6
CONTINUOUS
 62
3
100
AcDbLine
 10
267.8192464187632
 20
199.5298909674665
 30
0.0000000000000000
 11
265.6541829092969
 21
198.2798909674642
 31
0.0000000000000000
  0
LINE
  5
272
100
AcDbEntity
  8
MAIN0
  6
CONTINUOUS
 62
3
100
AcDbLine
 10
262.0692464187621
 20
209.4891831110096
 30
0.0000000000000000
 11
267.8192464187585
 21
199.5298909674639
 31
0.0000000000000000
  0
LINE
  5
273
100
AcDbEntity
  8
MAIN0
  6
CONTINUOUS
 62
3
100
AcDbLine
 10
264.9041829093000
 20
199.5789290731427
 30
0.0000000000000000
 11
265.6541829092957
 21
198.2798909674668
 31
0.0000000000000000
  0
LINE
  5
274
100
AcDbEntity
  8
MAIN0
  6
CONTINUOUS
 62
3
100
AcDbLine
 10
264.9041829092999
 20
199.5789290731426
 30
0.0000000000000000
 11
262.7391193998385
 21
198.3289290731431
 31
0.0000000000000000
  0
LINE
  5
275
100
AcDbEntity
  8
MAIN0
  6
CONTINUOUS
 62
3
100
AcDbLine
 10
261.9891193998402
 20
199.6279671788207
 30
0.0000000000000000
 11
262.7391193998384
 21
198.3289290731429
 31
0.0000000000000000
  0
LINE
  5
276
100
AcDbEntity
  8
MAIN0
  6
CONTINUOUS
 62
3
100
AcDbLine
 10
259.3240558903800
 20
199.2439925826065
 30
0.0000000000000000
 11
259.8240558903781
 21
198.3779671788209
 31
0.0000000000000000
  0
LINE
  5
277
100
AcDbEntity
  8
MAIN0
  6
CONTINUOUS
 62
3
100
AcDbLine
 10
261.9891193998403
 20
199.6279671788208
 30
0.0000000000000000
 11
259.8240558903781
 21
198.3779671788208
 31
0.0000000000000000
  0
LINE
  5
278
100
AcDbEntity
  8
MAIN0
  6
CONTINUOUS
 62
3
100
AcDbLine
 10
261.9432947214825
 20
197.5788847102982
 30
0.0000000000000000
 11
258.3834656509718
 21
195.5236164381707
 31
0.0000000000000000
  0
LINE
  5
279
100
AcDbEntity
  8
MAIN0
  6
CONTINUOUS
 62
3
100
AcDbLine
 10
256.5300807992248
 20
194.4535641952340
 30
0.0000000000000000
 11
258.0967460165845
 21
196.0202294125893
 31
0.0000000000000000
  0
LINE
  5
27A
100
AcDbEntity
  8
MAIN0
  6
CONTINUOUS
 62
3
100
AcDbLine
 10
256.5300807993380
 20
194.4535641950377
 30
0.0000000000000000
 11
258.6701852854732
 21
195.0270034638180
 31
0.0000000000000000
  0
MTEXT
  5
27B
100
AcDbEntity
  8
MAIN0
  6
CONTINUOUS
 62
3
100
AcDbMText
 10
254.0047478725226
 20
195.2181156028843
 30
0.0000000000000000
 40
3.000000000000000
 41
0.0000000000000000
 71
     1
 72
     1
  1
{\H0.90x;{ΣＳ}}
 11
0.5000000000000009
 21
-0.8660254037844382
 31
0.0000000000000000
  7
KNJYOKO
  0
LINE
  5
27C
100
AcDbEntity
  8
MAIN0
  6
CONTINUOUS
 62
3
100
AcDbLine
 10
265.8192464187642
 20
202.9939925826048
 30
0.0000000000000000
 11
250.2307891506423
 21
193.9939925826082
 31
0.0000000000000000
  0
LINE
  5
27D
100
AcDbEntity
  8
MAIN0
  6
CONTINUOUS
 62
3
100
AcDbLine
 10
246.4807891506459
 20
200.4891831110029
 30
0.0000000000000000
 11
250.2307891506419
 21
193.9939925826089
 31
0.0000000000000000
  0
LINE
  5
27E
100
AcDbEntity
  8
MAIN0
  6
CONTINUOUS
 62
3
100
AcDbLine
 10
262.0692464187659
 20
209.4891831110119
 30
0.0000000000000000
 11
246.4807891506459
 21
200.4891831110028
 31
0.0000000000000000
  0
LINE
  5
27F
100
AcDbEntity
  8
MAIN0
  6
CONTINUOUS
 62
3
100
AcDbLine
 10
270.4394369471320
 20
209.9915878468313
 30
0.0000000000000000
 11
263.9442464187571
 21
206.2415878468169
 31
0.0000000000000000
  0
LINE
  5
280
100
AcDbEntity
  8
MAIN0
  6
CONTINUOUS
 62
3
100
AcDbLine
 10
266.8987268512622
 20
210.8333626929949
 30
0.0000000000000000
 11
265.1024128978277
 21
209.3260763171882
 31
0.0000000000000000
  0
LINE
  5
281
100
AcDbEntity
  8
MAIN0
  6
CONTINUOUS
 62
3
100
AcDbLine
 10
266.7339627782278
 20
208.9501007205992
 30
0.0000000000000000
 11
265.1024128978278
 21
209.3260763171880
 31
0.0000000000000000
  0
LINE
  5
282
100
AcDbEntity
  8
MAIN0
  6
CONTINUOUS
 62
3
100
AcDbLine
 10
266.8987268512623
 20
210.8333626929950
 30
0.0000000000000000
 11
266.7339627782279
 21
208.9501007205994
 31
0.0000000000000000
  0
ARC
  5
283
100
AcDbEntity
  8
MAIN0
  6
CONTINUOUS
 62
3
100
AcDbCircle
 10
268.4908797886211
 20
208.8665878468240
 30
0.0000000000000000
 40
2.530445468977860
100
AcDbArc
 50
173.2530843414756
 51
300.0000000000001
  0
LINE
  5
284
100
AcDbEntity
  8
MAIN0
  6
CONTINUOUS
 62
3
100
AcDbLine
 10
268.5644369471506
 20
213.2391831110010
 30
0.0000000000000000
 11
272.3144369471516
 21
206.7439925825956
 31
0.0000000000000000
  0
LINE
  5
285
100
AcDbEntity
  8
MAIN0
  6
CONTINUOUS
 62
3
100
AcDbLine
 10
258.0967460165361
 20
196.0202294125409
 30
0.0000000000000000
 11
258.6701852854076
 21
195.0270034638002
 31
0.0000000000000000
  0
MTEXT
  5
286
100
AcDbEntity
  8
MAIN0
  6
CONTINUOUS
 62
3
100
AcDbMText
 10
269.7032210149818
 20
194.2667512466745
 30
0.0000000000000000
 40
3.000000000000000
 41
0.0000000000000000
 71
     1
 72
     1
  1
{\H0.62x;{T MAX 147 N・m\PΣS MAX 37 KN\PMASS 22 kg}}
 11
0.4999999999999986
 21
-0.8660254037844395
 31
0.0000000000000000
  7
KNJYOKO
  0
MTEXT
  5
287
100
AcDbEntity
  8
MAIN0
  6
CONTINUOUS
 62
3
100
AcDbMText
 10
270.7725933314387
 20
204.8990356922895
 30
0.0000000000000000
 40
3.000000000000000
 41
0.0000000000000000
 71
     1
 72
     1
  1
{\H0.81x;{T}}
 11
0.5000000000000009
 21
-0.8660254037844382
 31
0.0000000000000000
  7
STANDARD
  0
LINE
  5
288
100
AcDbEntity
  8
MAIN0
  6
CONTINUOUS
 62
3
100
AcDbLine
 10
275.4363706365093
 20
33.39308828500899
 30
0.0000000000000000
 11
275.4363706364853
 21
76.59308828500900
 31
0.0000000000000000
  0
LINE
  5
289
100
AcDbEntity
  8
MAIN0
  6
CONTINUOUS
 62
3
100
AcDbLine
 10
375.4363706365093
 20
33.39308828508740
 30
0.0000000000000000
 11
375.4363706364853
 21
76.59308828508739
 31
0.0000000000000000
  0
LINE
  5
28A
100
AcDbEntity
  8
MAIN0
  6
CONTINUOUS
 62
3
100
AcDbLine
 10
276.9363706364845
 20
78.09308828501017
 30
0.0000000000000000
 11
373.9363706364845
 21
78.09308828508623
 31
0.0000000000000000
  0
LINE
  5
28B
100
AcDbEntity
  8
MAIN0
  6
CONTINUOUS
 62
3
100
AcDbLine
 10
329.6513706365110
 20
30.09308828505152
 30
0.0000000000000000
 11
311.2213706365112
 21
30.09308828503706
 31
0.0000000000000000
  0
LINE
  5
28C
100
AcDbEntity
  8
MAIN0
  6
CENTER
 62
3
100
AcDbLine
 10
320.4363706365149
 20
23.09308828500622
 30
0.0000000000000000
 11
320.4363706365024
 21
45.78252133796650
 31
0.0000000000000000
  0
LINE
  5
28D
100
AcDbEntity
  8
MAIN0
  6
CENTER
 62
3
100
AcDbLine
 10
293.4463706365149
 20
23.09308828500787
 30
0.0000000000000000
 11
293.4463706364817
 21
83.09308828500787
 31
0.0000000000000000
  0
LINE
  5
28E
100
AcDbEntity
  8
MAIN0
  6
CENTER
 62
3
100
AcDbLine
 10
347.4263706365150
 20
23.09308828501008
 30
0.0000000000000000
 11
347.4263706364816
 21
83.09308828501284
 31
0.0000000000000000
  0
LINE
  5
28F
100
AcDbEntity
  8
MAIN0
  6
CONTINUOUS
 62
3
100
AcDbLine
 10
310.9213706365109
 20
30.39308828503690
 30
0.0000000000000000
 11
310.9213706365090
 21
33.79308828503687
 31
0.0000000000000000
  0
LINE
  5
290
100
AcDbEntity
  8
MAIN0
  6
CONTINUOUS
 62
3
100
AcDbLine
 10
329.9513706365108
 20
30.39308828505185
 30
0.0000000000000000
 11
329.9513706365090
 21
33.79308828505177
 31
0.0000000000000000
  0
LINE
  5
291
100
AcDbEntity
  8
MAIN0
  6
CONTINUOUS
 62
3
100
AcDbLine
 10
283.9463706365036
 20
43.59308828501565
 30
0.0000000000000000
 11
283.9463706364846
 21
77.79308828501564
 31
0.0000000000000000
  0
LINE
  5
292
100
AcDbEntity
  8
MAIN0
  6
CONTINUOUS
 62
3
100
AcDbLine
 10
302.9463706365036
 20
43.59308828503055
 30
0.0000000000000000
 11
302.9463706364846
 21
77.79308828503054
 31
0.0000000000000000
  0
LINE
  5
293
100
AcDbEntity
  8
MAIN0
  6
CONTINUOUS
 62
3
100
AcDbLine
 10
337.9263706365037
 20
43.59308828505806
 30
0.0000000000000000
 11
337.9263706364847
 21
77.79308828505802
 31
0.0000000000000000
  0
LINE
  5
294
100
AcDbEntity
  8
MAIN0
  6
CONTINUOUS
 62
3
100
AcDbLine
 10
356.9263706365037
 20
43.59308828507292
 30
0.0000000000000000
 11
356.9263706364847
 21
77.79308828507291
 31
0.0000000000000000
  0
LINE
  5
295
100
AcDbEntity
  8
MAIN0
  6
CONTINUOUS
 62
3
100
AcDbLine
 10
286.9463706365074
 20
36.59308828501807
 30
0.0000000000000000
 11
286.9463706365036
 21
43.59308828501807
 31
0.0000000000000000
  0
LINE
  5
296
100
AcDbEntity
  8
MAIN0
  6
CONTINUOUS
 62
3
100
AcDbLine
 10
298.7386090381677
 20
36.59308828502731
 30
0.0000000000000000
 11
298.7386090381639
 21
43.59308828502736
 31
0.0000000000000000
  0
LINE
  5
297
100
AcDbEntity
  8
MAIN0
  6
CONTINUOUS
 62
3
100
AcDbLine
 10
340.0345274040156
 20
36.59308828505962
 30
0.0000000000000000
 11
340.0345274040117
 21
43.59308828505968
 31
0.0000000000000000
  0
LINE
  5
298
100
AcDbEntity
  8
MAIN0
  6
CONTINUOUS
 62
3
100
AcDbLine
 10
353.9263706365075
 20
36.59308828507054
 30
0.0000000000000000
 11
353.9263706365036
 21
43.59308828507048
 31
0.0000000000000000
  0
LINE
  5
299
100
AcDbEntity
  8
MAIN0
  6
CONTINUOUS
 62
3
100
AcDbLine
 10
307.9213706365096
 20
33.09308828503455
 30
0.0000000000000000
 11
307.9213706365092
 21
33.79308828503449
 31
0.0000000000000000
  0
LINE
  5
29A
100
AcDbEntity
  8
MAIN0
  6
CONTINUOUS
 62
3
100
AcDbLine
 10
332.9513706365092
 20
33.09308828505411
 30
0.0000000000000000
 11
332.9513706365088
 21
33.79308828505415
 31
0.0000000000000000
  0
LINE
  5
29B
100
AcDbEntity
  8
MAIN0
  6
CONTINUOUS
 62
3
100
AcDbLine
 10
307.9213706365092
 20
33.79308828503449
 30
0.0000000000000000
 11
310.9213706365090
 21
33.79308828503685
 31
0.0000000000000000
  0
LINE
  5
29C
100
AcDbEntity
  8
MAIN0
  6
CONTINUOUS
 62
3
100
AcDbLine
 10
329.9513706365090
 20
33.79308828505168
 30
0.0000000000000000
 11
332.9513706365088
 21
33.79308828505404
 31
0.0000000000000000
  0
LINE
  5
29D
100
AcDbEntity
  8
MAIN0
  6
CONTINUOUS
 62
3
100
AcDbLine
 10
275.7363706365094
 20
33.09308828500917
 30
0.0000000000000000
 11
307.9213706365096
 21
33.09308828503441
 31
0.0000000000000000
  0
LINE
  5
29E
100
AcDbEntity
  8
MAIN0
  6
CONTINUOUS
 62
3
100
AcDbLine
 10
283.9463706365036
 20
43.59308828501565
 30
0.0000000000000000
 11
302.9463706365036
 21
43.59308828503055
 31
0.0000000000000000
  0
LINE
  5
29F
100
AcDbEntity
  8
MAIN0
  6
CONTINUOUS
 62
3
100
AcDbLine
 10
337.9263706365036
 20
43.59308828505803
 30
0.0000000000000000
 11
356.9263706365036
 21
43.59308828507292
 31
0.0000000000000000
  0
LINE
  5
2A0
100
AcDbEntity
  8
MAIN0
  6
CONTINUOUS
 62
3
100
AcDbLine
 10
275.4363706364854
 20
76.59308828500895
 30
0.0000000000000000
 11
276.9363706364845
 21
78.09308828501011
 31
0.0000000000000000
  0
LINE
  5
2A1
100
AcDbEntity
  8
MAIN0
  6
CONTINUOUS
 62
3
100
AcDbLine
 10
375.4363706364853
 20
76.59308828508745
 30
0.0000000000000000
 11
373.9363706364844
 21
78.09308828508628
 31
0.0000000000000000
  0
LINE
  5
2A2
100
AcDbEntity
  8
MAIN0
  6
CONTINUOUS
 62
3
100
AcDbLine
 10
275.4363706365092
 20
33.39308828500904
 30
0.0000000000000000
 11
275.7363706365093
 21
33.09308828500929
 31
0.0000000000000000
  0
LINE
  5
2A3
100
AcDbEntity
  8
MAIN0
  6
CONTINUOUS
 62
3
100
AcDbLine
 10
375.1363706365095
 20
33.09308828508716
 30
0.0000000000000000
 11
375.4363706365093
 21
33.39308828508740
 31
0.0000000000000000
  0
LINE
  5
2A4
100
AcDbEntity
  8
MAIN0
  6
CONTINUOUS
 62
3
100
AcDbLine
 10
310.9213706365109
 20
30.39308828503690
 30
0.0000000000000000
 11
311.2213706365110
 21
30.09308828503714
 31
0.0000000000000000
  0
LINE
  5
2A5
100
AcDbEntity
  8
MAIN0
  6
CONTINUOUS
 62
3
100
AcDbLine
 10
329.6513706365111
 20
30.09308828505149
 30
0.0000000000000000
 11
329.9513706365109
 21
30.39308828505173
 31
0.0000000000000000
  0
LINE
  5
2A6
100
AcDbEntity
  8
MAIN0
  6
CONTINUOUS
 62
3
100
AcDbLine
 10
283.9463706364846
 20
77.79308828501561
 30
0.0000000000000000
 11
283.6463706364844
 21
78.09308828501546
 31
0.0000000000000000
  0
LINE
  5
2A7
100
AcDbEntity
  8
MAIN0
  6
CONTINUOUS
 62
3
100
AcDbLine
 10
302.9463706364846
 20
77.79308828503054
 30
0.0000000000000000
 11
303.2463706364845
 21
78.09308828503080
 31
0.0000000000000000
  0
LINE
  5
2A8
100
AcDbEntity
  8
MAIN0
  6
CONTINUOUS
 62
3
100
AcDbLine
 10
337.9263706364846
 20
77.79308828505802
 30
0.0000000000000000
 11
337.6263706364844
 21
78.09308828505780
 31
0.0000000000000000
  0
LINE
  5
2A9
100
AcDbEntity
  8
MAIN0
  6
CONTINUOUS
 62
3
100
AcDbLine
 10
356.9263706364847
 20
77.79308828507286
 30
0.0000000000000000
 11
357.2263706364846
 21
78.09308828507309
 31
0.0000000000000000
  0
LINE
  5
2AA
100
AcDbEntity
  8
MAIN0
  6
CONTINUOUS
 62
3
100
AcDbLine
 10
292.0580262986612
 20
33.09308828502196
 30
0.0000000000000000
 11
292.0580262986456
 21
36.59308828502202
 31
0.0000000000000000
  0
LINE
  5
2AB
100
AcDbEntity
  8
MAIN0
  6
CONTINUOUS
 62
3
100
AcDbLine
 10
294.8347149742534
 20
33.09308828502418
 30
0.0000000000000000
 11
294.8347149742447
 21
36.59308828502429
 31
0.0000000000000000
  0
LINE
  5
2AC
100
AcDbEntity
  8
MAIN0
  6
CONTINUOUS
 62
3
100
AcDbLine
 10
346.0380262988704
 20
33.09308828506440
 30
0.0000000000000000
 11
346.0380262988743
 21
36.59308828506440
 31
0.0000000000000000
  0
LINE
  5
2AD
100
AcDbEntity
  8
MAIN0
  6
CONTINUOUS
 62
3
100
AcDbLine
 10
348.8147149741753
 20
33.09308828506650
 30
0.0000000000000000
 11
348.8147149741714
 21
36.59308828506656
 31
0.0000000000000000
  0
LINE
  5
2AE
100
AcDbEntity
  8
MAIN0
  6
CONTINUOUS
 62
3
100
AcDbLine
 10
348.8147149741715
 20
36.59308828506650
 30
0.0000000000000000
 11
375.4363706365074
 21
36.59308828508736
 31
0.0000000000000000
  0
LINE
  5
2AF
100
AcDbEntity
  8
MAIN0
  6
CONTINUOUS
 62
3
100
AcDbLine
 10
332.9513706365092
 20
33.09308828505405
 30
0.0000000000000000
 11
346.0380262988704
 21
33.09308828506431
 31
0.0000000000000000
  0
LINE
  5
2B0
100
AcDbEntity
  8
MAIN0
  6
CONTINUOUS
 62
3
100
AcDbLine
 10
346.0380262988704
 20
33.09308828506434
 30
0.0000000000000000
 11
375.1363706365094
 21
33.09308828508713
 31
0.0000000000000000
  0
LINE
  5
2B1
100
AcDbEntity
  8
MAIN0
  6
CONTINUOUS
 62
3
100
AcDbLine
 10
275.4363706365074
 20
36.59308828500897
 30
0.0000000000000000
 11
292.0580262986456
 21
36.59308828502199
 31
0.0000000000000000
  0
LINE
  5
2B2
100
AcDbEntity
  8
MAIN0
  6
CONTINUOUS
 62
3
100
AcDbLine
 10
294.8347149742447
 20
36.59308828502424
 30
0.0000000000000000
 11
346.0380262988743
 21
36.59308828506437
 31
0.0000000000000000
  0
DIMENSION
  5
2BB
100
AcDbEntity
  8
MAIN0
  6
CONTINUOUS
 62
3
100
AcDbDimension
  2
*D21
 10
275.4363706364853
 20
88.09308828500897
 30
0.0000000000000000
 11
325.4363706364853
 21
88.59308828500897
 31
0.0000000000000000
 70
32
  3
MAIN001
100
AcDbAlignedDimension
 13
375.4363706364853
 23
76.59308828508739
 33
0.0000000000000000
 14
275.4363706364853
 24
76.59308828500900
 34
0.0000000000000000
100
AcDbRotatedDimension
1001
ACAD
1000
DSTYLE
1002
{
1070
   173
1070
     1
1070
     6
1000
_OPEN
1070
     7
1000
_OPEN
1070
    41
1040
2.000000
1002
}
  0
DIMENSION
  5
2C4
100
AcDbEntity
  8
MAIN0
  6
CONTINUOUS
 62
3
100
AcDbDimension
  2
*D22
 10
385.4363706364845
 20
30.09308828512761
 30
0.0000000000000000
 11
384.9363706364845
 21
54.09308828510692
 31
0.0000000000000000
 70
32
  3
MAIN001
100
AcDbAlignedDimension
 13
373.9363706364845
 23
78.09308828508623
 33
0.0000000000000000
 14
329.6513706365110
 24
30.09308828505152
 34
0.0000000000000000
 50
90.00000000000000
100
AcDbRotatedDimension
1001
ACAD
1000
DSTYLE
1002
{
1070
   173
1070
     1
1070
     6
1000
_OPEN
1070
     7
1000
_OPEN
1070
    41
1040
2.000000
1002
}
  0
ARC
  5
2C5
100
AcDbEntity
  8
MAIN0
  6
CONTINUOUS
 62
3
100
AcDbCircle
 10
351.0655357612592
 20
229.8430882840343
 30
0.0000000000000000
 40
34.50000000000000
100
AcDbArc
 50
147.5080936310201
 51
152.4919063689679
  0
LINE
  5
2C6
100
AcDbEntity
  8
MAIN0
  6
HIDDEN
 62
3
100
AcDbLine
 10
91.79368145041475
 20
197.9930882850090
 30
0.0000000000000000
 11
92.19368145041474
 21
197.5930882850090
 31
0.0000000000000000
  0
LINE
  5
2C7
100
AcDbEntity
  8
MAIN0
  6
HIDDEN
 62
3
100
AcDbLine
 10
92.19368145041474
 20
197.5930882850090
 30
0.0000000000000000
 11
101.7936814504148
 21
197.5930882850090
 31
0.0000000000000000
  0
LINE
  5
2C8
100
AcDbEntity
  8
MAIN0
  6
HIDDEN
 62
3
100
AcDbLine
 10
101.7936814504148
 20
197.5930882850090
 30
0.0000000000000000
 11
101.7936814504148
 21
183.5930882850090
 31
0.0000000000000000
  0
LINE
  5
2C9
100
AcDbEntity
  8
MAIN0
  6
HIDDEN
 62
3
100
AcDbLine
 10
101.7936814504148
 20
183.5930882850090
 30
0.0000000000000000
 11
92.19368145041474
 21
183.5930882850090
 31
0.0000000000000000
  0
LINE
  5
2CA
100
AcDbEntity
  8
MAIN0
  6
HIDDEN
 62
3
100
AcDbLine
 10
92.19368145041474
 20
183.5930882850090
 30
0.0000000000000000
 11
91.79368145041475
 21
183.1930882850090
 31
0.0000000000000000
  0
LINE
  5
2CB
100
AcDbEntity
  8
MAIN0
  6
HIDDEN
 62
3
100
AcDbLine
 10
101.7936814504148
 20
195.0930882850090
 30
0.0000000000000000
 11
105.5936814504148
 21
195.0930882850090
 31
0.0000000000000000
  0
LINE
  5
2CC
100
AcDbEntity
  8
MAIN0
  6
HIDDEN
 62
3
100
AcDbLine
 10
101.7936814504148
 20
186.0930882850090
 30
0.0000000000000000
 11
105.8465090779945
 21
186.0930882850090
 31
0.0000000000000000
  0
LINE
  5
2CD
100
AcDbEntity
  8
MAIN0
  6
HIDDEN
 62
3
100
AcDbLine
 10
101.7936814504148
 20
197.0930882850090
 30
0.0000000000000000
 11
94.59368145041475
 21
197.0930882850090
 31
0.0000000000000000
  0
LINE
  5
2CE
100
AcDbEntity
  8
MAIN0
  6
HIDDEN
 62
3
100
AcDbLine
 10
94.59368145041475
 20
197.0930882850090
 30
0.0000000000000000
 11
93.79368145041475
 21
195.7074476389539
 31
0.0000000000000000
  0
LINE
  5
2CF
100
AcDbEntity
  8
MAIN0
  6
HIDDEN
 62
3
100
AcDbLine
 10
93.79368145041475
 20
195.7074476389539
 30
0.0000000000000000
 11
93.79368145041475
 21
185.4787289310641
 31
0.0000000000000000
  0
LINE
  5
2D0
100
AcDbEntity
  8
MAIN0
  6
HIDDEN
 62
3
100
AcDbLine
 10
93.79368145041475
 20
185.4787289310641
 30
0.0000000000000000
 11
94.59368145041475
 21
184.0930882850090
 31
0.0000000000000000
  0
LINE
  5
2D1
100
AcDbEntity
  8
MAIN0
  6
HIDDEN
 62
3
100
AcDbLine
 10
94.59368145041475
 20
184.0930882850090
 30
0.0000000000000000
 11
101.7936814504148
 21
184.0930882850090
 31
0.0000000000000000
  0
LINE
  5
2D2
100
AcDbEntity
  8
MAIN0
  6
HIDDEN
 62
3
100
AcDbLine
 10
94.59368145041475
 20
197.0930882850090
 30
0.0000000000000000
 11
94.59368145041475
 21
184.0930882850090
 31
0.0000000000000000
  0
LINE
  5
2D3
100
AcDbEntity
  8
MAIN0
  6
HIDDEN
 62
3
100
AcDbLine
 10
101.7936814504148
 20
194.5930882850090
 30
0.0000000000000000
 11
105.6307076369340
 21
194.5930882850090
 31
0.0000000000000000
  0
LINE
  5
2D4
100
AcDbEntity
  8
MAIN0
  6
HIDDEN
 62
3
100
AcDbLine
 10
105.8790553776724
 20
186.5930882850090
 30
0.0000000000000000
 11
101.7936814504148
 21
186.5930882850090
 31
0.0000000000000000
  0
LINE
  5
2D5
100
AcDbEntity
  8
MAIN0
  6
HIDDEN
 62
3
100
AcDbLine
 10
101.7936814504148
 20
193.9165057850090
 30
0.0000000000000000
 11
105.6806323184353
 21
193.9165057850090
 31
0.0000000000000000
  0
LINE
  5
2D6
100
AcDbEntity
  8
MAIN0
  6
HIDDEN
 62
3
100
AcDbLine
 10
101.7936814504148
 20
187.2696707850090
 30
0.0000000000000000
 11
105.9097391596048
 21
187.2696707850090
 31
0.0000000000000000
  0
LINE
  5
2D7
100
AcDbEntity
  8
MAIN0
  6
HIDDEN
 62
3
100
AcDbLine
 10
142.7936814504147
 20
327.0930882850090
 30
0.0000000000000000
 11
142.7936814504147
 21
347.0930882850090
 31
0.0000000000000000
  0
LINE
  5
2D8
100
AcDbEntity
  8
MAIN0
  6
CONTINUOUS
 62
3
100
AcDbLine
 10
181.8904482240713
 20
145.5931273091667
 30
0.0000000000000000
 11
181.0904482240730
 21
147.1299130107445
 31
0.0000000000000000
  0
LINE
  5
2D9
100
AcDbEntity
  8
MAIN0
  6
CONTINUOUS
 62
3
100
AcDbLine
 10
181.0904482240729
 20
147.1299130107445
 30
0.0000000000000000
 11
181.0904482240749
 21
148.8931273091676
 31
0.0000000000000000
  0
LINE
  5
2DA
100
AcDbEntity
  8
MAIN0
  6
CONTINUOUS
 62
3
100
AcDbLine
 10
182.2904482240762
 20
150.0931273091662
 30
0.0000000000000000
 11
182.5694660971050
 21
150.0931273091659
 31
0.0000000000000000
  0
LINE
  5
2DB
100
AcDbEntity
  8
MAIN0
  6
CONTINUOUS
 62
3
100
AcDbLine
 10
182.5694660971051
 20
150.0931273091659
 30
0.0000000000000000
 11
184.4904482240752
 21
149.0931273091638
 31
0.0000000000000000
  0
ARC
  5
2DC
100
AcDbEntity
  8
MAIN0
  6
CONTINUOUS
 62
3
100
AcDbCircle
 10
182.2904482240749
 20
148.8931273091662
 30
0.0000000000000000
 40
1.200000000000000
100
AcDbArc
 50
89.99999999993649
 51
179.9999999999365
  0
LINE
  5
2DD
100
AcDbEntity
  8
MAIN0
  6
CONTINUOUS
 62
3
100
AcDbLine
 10
193.8904482241044
 20
175.5931273091534
 30
0.0000000000000000
 11
193.0904482241062
 21
177.1299130107311
 31
0.0000000000000000
  0
LINE
  5
2DE
100
AcDbEntity
  8
MAIN0
  6
CONTINUOUS
 62
3
100
AcDbLine
 10
193.0904482241062
 20
177.1299130107311
 30
0.0000000000000000
 11
193.0904482241082
 21
178.8931273091541
 31
0.0000000000000000
  0
LINE
  5
2DF
100
AcDbEntity
  8
MAIN0
  6
CONTINUOUS
 62
3
100
AcDbLine
 10
194.2904482241095
 20
180.0931273091529
 30
0.0000000000000000
 11
194.5694660971383
 21
180.0931273091526
 31
0.0000000000000000
  0
LINE
  5
2E0
100
AcDbEntity
  8
MAIN0
  6
CONTINUOUS
 62
3
100
AcDbLine
 10
194.5694660971383
 20
180.0931273091525
 30
0.0000000000000000
 11
196.4904482241084
 21
179.0931273091504
 31
0.0000000000000000
  0
ARC
  5
2E1
100
AcDbEntity
  8
MAIN0
  6
CONTINUOUS
 62
3
100
AcDbCircle
 10
194.2904482241082
 20
178.8931273091528
 30
0.0000000000000000
 40
1.200000000000000
100
AcDbArc
 50
89.99999999993649
 51
179.9999999999365
  0
LINE
  5
2E2
100
AcDbEntity
  8
MAIN0
  6
CONTINUOUS
 62
3
100
AcDbLine
 10
205.8904482241285
 20
197.1831273091400
 30
0.0000000000000000
 11
205.2904482241279
 21
196.5831273091407
 31
0.0000000000000000
  0
LINE
  5
2E3
100
AcDbEntity
  8
MAIN0
  6
CONTINUOUS
 62
3
100
AcDbLine
 10
205.2904482241278
 20
196.5831273091407
 30
0.0000000000000000
 11
171.3904482241278
 21
196.5831273091783
 31
0.0000000000000000
  0
LINE
  5
2E4
100
AcDbEntity
  8
MAIN0
  6
CONTINUOUS
 62
3
100
AcDbLine
 10
171.3904482241279
 20
196.5831273091782
 30
0.0000000000000000
 11
171.3904482241068
 21
177.5831273091781
 31
0.0000000000000000
  0
LINE
  5
2E5
100
AcDbEntity
  8
MAIN0
  6
CONTINUOUS
 62
3
100
AcDbLine
 10
171.3904482241067
 20
177.5831273091783
 30
0.0000000000000000
 11
192.4904482241068
 21
177.5831273091549
 31
0.0000000000000000
  0
LINE
  5
2E6
100
AcDbEntity
  8
MAIN0
  6
CONTINUOUS
 62
3
100
AcDbLine
 10
171.3904482241245
 20
193.5831273091782
 30
0.0000000000000000
 11
164.3904482241245
 21
193.5831273091860
 31
0.0000000000000000
  0
LINE
  5
2E7
100
AcDbEntity
  8
MAIN0
  6
CONTINUOUS
 62
3
100
AcDbLine
 10
171.3904482241101
 20
180.5831273091782
 30
0.0000000000000000
 11
164.3904482241100
 21
180.5831273091860
 31
0.0000000000000000
  0
LINE
  5
2E8
100
AcDbEntity
  8
MAIN0
  6
CONTINUOUS
 62
3
100
AcDbLine
 10
181.8904482240686
 20
143.2031273091666
 30
0.0000000000000000
 11
181.2904482240680
 21
142.6031273091673
 31
0.0000000000000000
  0
LINE
  5
2E9
100
AcDbEntity
  8
MAIN0
  6
CONTINUOUS
 62
3
100
AcDbLine
 10
181.2904482240679
 20
142.6031273091672
 30
0.0000000000000000
 11
168.3904482240679
 21
142.6031273091815
 31
0.0000000000000000
  0
LINE
  5
2EA
100
AcDbEntity
  8
MAIN0
  6
CONTINUOUS
 62
3
100
AcDbLine
 10
168.3904482240680
 20
142.6031273091815
 30
0.0000000000000000
 11
168.3904482240469
 21
123.6031273091815
 31
0.0000000000000000
  0
LINE
  5
2EB
100
AcDbEntity
  8
MAIN0
  6
CONTINUOUS
 62
3
100
AcDbLine
 10
168.3904482240469
 20
123.6031273091815
 30
0.0000000000000000
 11
180.7904482240468
 21
123.6031273091678
 31
0.0000000000000000
  0
LINE
  5
2EC
100
AcDbEntity
  8
MAIN0
  6
CONTINUOUS
 62
3
100
AcDbLine
 10
168.3904482240646
 20
139.6031273091816
 30
0.0000000000000000
 11
164.3904482240646
 21
139.6031273091860
 31
0.0000000000000000
  0
LINE
  5
2ED
100
AcDbEntity
  8
MAIN0
  6
CONTINUOUS
 62
3
100
AcDbLine
 10
168.3904482240502
 20
126.6031273091816
 30
0.0000000000000000
 11
164.3904482240502
 21
126.6031273091860
 31
0.0000000000000000
  0
LINE
  5
2EE
100
AcDbEntity
  8
MAIN0
  6
CONTINUOUS
 62
3
100
AcDbLine
 10
242.4671152223203
 20
274.0672237119155
 30
0.0000000000000000
 11
305.9659081981890
 21
237.4061784940813
 31
0.0000000000000000
  0
LINE
  5
2EF
100
AcDbEntity
  8
MAIN0
  6
CONTINUOUS
 62
3
100
AcDbLine
 10
258.4671152223203
 20
301.7800366330175
 30
0.0000000000000000
 11
321.9659081981890
 21
265.1189914151834
 31
0.0000000000000000
  0
LINE
  5
2F0
100
AcDbEntity
  8
MAIN0
  6
CONTINUOUS
 62
3
100
AcDbLine
 10
305.9659081981891
 20
237.4061784940814
 30
0.0000000000000000
 11
320.4659081980476
 21
245.7777573972643
 31
0.0000000000000000
  0
LINE
  5
2F1
100
AcDbEntity
  8
MAIN0
  6
CONTINUOUS
 62
3
100
AcDbLine
 10
321.9659081981890
 20
265.1189914151834
 30
0.0000000000000000
 11
321.9659081981760
 21
248.3758336088401
 31
0.0000000000000000
  0
LINE
  5
2F2
100
AcDbEntity
  8
MAIN0
  6
CONTINUOUS
 62
3
100
AcDbLine
 10
258.4671152223203
 20
301.7800366330175
 30
0.0000000000000000
 11
244.0236218575766
 21
293.4410818508292
 31
0.0000000000000000
  0
LINE
  5
2F3
100
AcDbEntity
  8
MAIN0
  6
CONTINUOUS
 62
3
100
AcDbLine
 10
242.4671152223203
 20
274.0672237119154
 30
0.0000000000000000
 11
242.4671152223332
 21
290.7451332762695
 31
0.0000000000000000
  0
CIRCLE
  5
2F4
100
AcDbEntity
  8
MAIN0
  6
CONTINUOUS
 62
3
100
AcDbCircle
 10
305.5905373583967
 20
256.0981075635495
 30
0.0000000000000000
 40
9.500000000000000
  0
CIRCLE
  5
2F5
100
AcDbEntity
  8
MAIN0
  6
CONTINUOUS
 62
3
100
AcDbCircle
 10
305.5905373583967
 20
256.0981075635495
 30
0.0000000000000000
 40
6.500000000000000
  0
CIRCLE
  5
2F6
100
AcDbEntity
  8
MAIN0
  6
CONTINUOUS
 62
3
100
AcDbCircle
 10
258.8424860621126
 20
283.0881075635494
 30
0.0000000000000000
 40
9.500000000000000
  0
CIRCLE
  5
2F7
100
AcDbEntity
  8
MAIN0
  6
CONTINUOUS
 62
3
100
AcDbCircle
 10
258.8424860621126
 20
283.0881075635494
 30
0.0000000000000000
 40
6.500000000000000
  0
ARC
  5
2F8
100
AcDbEntity
  8
MAIN0
  6
CONTINUOUS
 62
3
100
AcDbCircle
 10
213.3674921093918
 20
309.3431075635494
 30
0.0000000000000000
 40
68.50000000000000
100
AcDbArc
 50
317.2954666896130
 51
342.7045333103871
  0
ARC
  5
2F9
100
AcDbEntity
  8
MAIN0
  6
CONTINUOUS
 62
3
100
AcDbCircle
 10
351.0655313111176
 20
229.8431075635494
 30
0.0000000000000000
 40
93.40000000000001
100
AcDbArc
 50
159.2819457964332
 51
159.8637735374995
  0
ARC
  5
2FA
100
AcDbEntity
  8
MAIN0
  6
CONTINUOUS
 62
3
100
AcDbCircle
 10
351.0655313111176
 20
229.8431075635494
 30
0.0000000000000000
 40
93.40000000000001
100
AcDbArc
 50
140.1362264625005
 51
140.7180542035669
  0
ARC
  5
2FB
100
AcDbEntity
  8
MAIN0
  6
CONTINUOUS
 62
3
100
AcDbCircle
 10
351.0655313111176
 20
229.8431075635494
 30
0.0000000000000000
 40
63.40000000000001
100
AcDbArc
 50
163.5708440372509
 51
164.6175600515254
  0
ARC
  5
2FC
100
AcDbEntity
  8
MAIN0
  6
CONTINUOUS
 62
3
100
AcDbCircle
 10
351.0655313111176
 20
229.8431075635494
 30
0.0000000000000000
 40
63.40000000000001
100
AcDbArc
 50
135.3824399484746
 51
136.4291559627492
  0
ARC
  5
2FD
100
AcDbEntity
  8
MAIN0
  6
CONTINUOUS
 62
3
100
AcDbCircle
 10
213.3674921093918
 20
309.3431075635494
 30
0.0000000000000000
 40
98.50000000000000
100
AcDbArc
 50
321.3132637240731
 51
325.4479393442366
  0
ARC
  5
2FE
100
AcDbEntity
  8
MAIN0
  6
CONTINUOUS
 62
3
100
AcDbCircle
 10
213.3674921093918
 20
309.3431075635494
 30
0.0000000000000000
 40
98.50000000000000
100
AcDbArc
 50
334.5520606557635
 51
338.6867362759269
  0
ARC
  5
2FF
100
AcDbEntity
  8
MAIN0
  6
CONTINUOUS
 62
3
100
AcDbCircle
 10
296.9302833205523
 20
261.0981075635494
 30
0.0000000000000000
 40
8.000000000000000
100
AcDbArc
 50
252.2637299778426
 51
267.4476192242076
  0
ARC
  5
300
100
AcDbEntity
  8
MAIN0
  6
CONTINUOUS
 62
3
100
AcDbCircle
 10
296.9302833205523
 20
261.0981075635494
 30
0.0000000000000000
 40
8.000000000000000
100
AcDbArc
 50
32.55238077579263
 51
47.73627002215739
  0
ARC
  5
301
100
AcDbEntity
  8
MAIN0
  6
CONTINUOUS
 62
3
100
AcDbCircle
 10
213.3674921093918
 20
309.3431075635494
 30
0.0000000000000000
 40
65.00000000000000
100
AcDbArc
 50
315.7499673021965
 51
344.2500326978036
  0
ARC
  5
302
100
AcDbEntity
  8
MAIN0
  6
CONTINUOUS
 62
3
100
AcDbCircle
 10
213.3674921093918
 20
309.3431075635494
 30
0.0000000000000000
 40
95.00000000000000
100
AcDbArc
 50
320.3039716018513
 51
339.6960283981487
  0
ARC
  5
303
100
AcDbEntity
  8
MAIN0
  6
CONTINUOUS
 62
3
100
AcDbCircle
 10
213.3674921093918
 20
309.3431075635494
 30
0.0000000000000000
 40
75.50000000000000
100
AcDbArc
 50
317.7650760151944
 51
342.2349239848057
  0
LINE
  5
304
100
AcDbEntity
  8
MAIN0
  6
CENTER
 62
3
100
AcDbLine
 10
299.0155592688581
 20
244.7099114538163
 30
0.0000000000000000
 11
312.3551839383478
 21
267.8148191352717
 31
0.0000000000000000
  0
LINE
  5
305
100
AcDbEntity
  8
MAIN0
  6
CENTER
 62
3
100
AcDbLine
 10
252.2675079725740
 20
271.6999114538163
 30
0.0000000000000000
 11
265.6071326420637
 21
294.8048191352717
 31
0.0000000000000000
  0
LINE
  5
306
100
AcDbEntity
  8
MAIN0
  6
CONTINUOUS
 62
3
100
AcDbLine
 10
242.4671152223332
 20
290.7451332762696
 30
0.0000000000000000
 11
244.0236218575766
 21
293.4410818508293
 31
0.0000000000000000
  0
ARC
  5
307
100
AcDbEntity
  8
MAIN0
  6
CONTINUOUS
 62
3
100
AcDbCircle
 10
213.3674921093918
 20
309.3431075635494
 30
0.0000000000000000
 40
43.50000000000000
100
AcDbArc
 50
311.9866051993963
 51
326.3889780923797
  0
ARC
  5
308
100
AcDbEntity
  8
MAIN0
  6
CONTINUOUS
 62
3
100
AcDbCircle
 10
213.3674921093918
 20
309.3431075635494
 30
0.0000000000000000
 40
43.50000000000000
100
AcDbArc
 50
333.6110219076205
 51
348.0133948006037
  0
LINE
  5
309
100
AcDbEntity
  8
MAIN0
  6
CONTINUOUS
 62
3
100
AcDbLine
 10
126.3906819379662
 20
117.0931213490218
 30
0.0000000000000000
 11
164.3904482240396
 21
117.0931213490639
 31
0.0000000000000000
  0
LINE
  5
30A
100
AcDbEntity
  8
MAIN0
  6
CONTINUOUS
 62
3
100
AcDbLine
 10
157.3906819379291
 20
150.5781213490562
 30
0.0000000000000000
 11
157.3906819379080
 21
169.6081213490562
 31
0.0000000000000000
  0
LINE
  5
30B
100
AcDbEntity
  8
MAIN0
  6
CENTER
 62
3
100
AcDbLine
 10
150.4363706364823
 20
160.0931213490484
 30
0.0000000000000000
 11
170.4363706364823
 21
160.0931213490706
 31
0.0000000000000000
  0
LINE
  5
30C
100
AcDbEntity
  8
MAIN0
  6
CENTER
 62
3
100
AcDbLine
 10
145.4363706364789
 20
133.1031213490429
 30
0.0000000000000000
 11
190.4363706364817
 21
133.1031213490928
 31
0.0000000000000000
  0
LINE
  5
30D
100
AcDbEntity
  8
MAIN0
  6
CONTINUOUS
 62
3
100
AcDbLine
 10
157.3906819379291
 20
150.5781213490562
 30
0.0000000000000000
 11
164.3904482240768
 21
150.5781213490639
 31
0.0000000000000000
  0
LINE
  5
30E
100
AcDbEntity
  8
MAIN0
  6
CONTINUOUS
 62
3
100
AcDbLine
 10
157.3906819379080
 20
169.6081213490562
 30
0.0000000000000000
 11
164.3904482240979
 21
169.6081213490639
 31
0.0000000000000000
  0
LINE
  5
30F
100
AcDbEntity
  8
MAIN0
  6
CONTINUOUS
 62
3
100
AcDbLine
 10
160.8906819379662
 20
117.0931213490600
 30
0.0000000000000000
 11
160.8906819379296
 21
150.1781213490600
 31
0.0000000000000000
  0
LINE
  5
310
100
AcDbEntity
  8
MAIN0
  6
CONTINUOUS
 62
3
100
AcDbLine
 10
160.8906819379076
 20
170.0081213490601
 30
0.0000000000000000
 11
160.8906819378763
 21
198.1975213490600
 31
0.0000000000000000
  0
LINE
  5
311
100
AcDbEntity
  8
MAIN0
  6
CONTINUOUS
 62
3
100
AcDbLine
 10
155.7936814504147
 20
198.1975213490544
 30
0.0000000000000000
 11
160.8906819378763
 21
198.1975213490600
 31
0.0000000000000000
  0
LINE
  5
312
100
AcDbEntity
  8
MAIN0
  6
CENTER
 62
3
100
AcDbLine
 10
145.4363706364800
 20
187.0831213490429
 30
0.0000000000000000
 11
172.2991681961346
 21
187.0831213490727
 31
0.0000000000000000
  0
LINE
  5
313
100
AcDbEntity
  8
MAIN0
  6
CENTER
 62
3
100
AcDbLine
 10
157.3906819378725
 20
201.6440339244524
 30
0.0000000000000000
 11
157.3906819378665
 21
207.0754203560247
 31
0.0000000000000000
  0
LINE
  5
314
100
AcDbEntity
  8
MAIN0
  6
CONTINUOUS
 62
3
100
AcDbLine
 10
157.9102971800807
 20
203.8280578395516
 30
0.0000000000000000
 11
158.6406819378350
 21
205.0931213490577
 31
0.0000000000000000
  0
LINE
  5
315
100
AcDbEntity
  8
MAIN0
  6
CONTINUOUS
 62
3
100
AcDbLine
 10
156.8710666955397
 20
203.8280578395501
 30
0.0000000000000000
 11
156.1406819377821
 21
205.0931213490548
 31
0.0000000000000000
  0
ARC
  5
316
100
AcDbEntity
  8
MAIN0
  6
CONTINUOUS
 62
3
100
AcDbCircle
 10
157.3906819378098
 20
204.1280578395512
 30
0.0000000000000000
 40
0.6000000000000000
100
AcDbArc
 50
210.0000000001096
 51
330.0000000000356
  0
LINE
  5
317
100
AcDbEntity
  8
MAIN0
  6
CONTINUOUS
 62
3
100
AcDbLine
 10
155.7936814504147
 20
205.0931213490544
 30
0.0000000000000000
 11
156.1406819377822
 21
205.0931213490548
 31
0.0000000000000000
  0
LINE
  5
318
100
AcDbEntity
  8
MAIN0
  6
CONTINUOUS
 62
3
100
AcDbLine
 10
158.6406819378350
 20
205.0931213490575
 30
0.0000000000000000
 11
165.1904482241373
 21
205.0931213490648
 31
0.0000000000000000
  0
LINE
  5
319
100
AcDbEntity
  8
MAIN0
  6
CONTINUOUS
 62
3
100
AcDbLine
 10
160.8906819379296
 20
150.1781213490600
 30
0.0000000000000000
 11
160.4906819379291
 21
150.5781213490596
 31
0.0000000000000000
  0
LINE
  5
31A
100
AcDbEntity
  8
MAIN0
  6
CONTINUOUS
 62
3
100
AcDbLine
 10
160.4906819379081
 20
169.6081213490596
 30
0.0000000000000000
 11
160.8906819379076
 21
170.0081213490601
 31
0.0000000000000000
  0
DIMENSION
  5
323
100
AcDbEntity
  8
A0
  6
CONTINUOUS
 62
3
100
AcDbDimension
  2
*D23
 10
505.0000000000000
 20
377.5000000000000
 30
0.0000000000000000
 11
451.5000000000006
 21
378.0000000000000
 31
0.0000000000000000
 70
32
  1
\A1;MAX 267
  3
A002
100
AcDbAlignedDimension
 13
398.0000000000013
 23
364.4000000000000
 33
0.0000000000000000
 14
505.0000000000000
 24
375.0000000000000
 34
0.0000000000000000
100
AcDbRotatedDimension
1001
ACAD
1000
DSTYLE
1002
{
1070
   173
1070
     1
1070
     6
1000
_OPEN
1070
     7
1000
_OPEN
1070
    41
1040
2.000000
1002
}
  0
DIMENSION
  5
32C
100
AcDbEntity
  8
A0
  6
CONTINUOUS
 62
3
100
AcDbDimension
  2
*D24
 10
445.0000000000011
 20
370.0000000000000
 30
0.0000000000000000
 11
440.0000000000011
 21
370.5000000000000
 31
0.0000000000000000
 70
32
  3
A002
100
AcDbAlignedDimension
 13
435.0000000000011
 23
364.4000000000000
 33
0.0000000000000000
 14
445.0000000000011
 24
364.4000000000000
 34
0.0000000000000000
100
AcDbRotatedDimension
1001
ACAD
1000
DSTYLE
1002
{
1070
   173
1070
     1
1070
     6
1000
_OPEN
1070
     7
1000
_OPEN
1070
    41
1040
2.000000
1002
}
  0
DIMENSION
  5
335
100
AcDbEntity
  8
A0
  6
CONTINUOUS
 62
3
100
AcDbDimension
  2
*D25
 10
427.5000000000000
 20
345.0000000000000
 30
0.0000000000000000
 11
427.0000000000000
 21
355.0000000000000
 31
0.0000000000000000
 70
32
  1
\A1;\U+220520
  3
A002
100
AcDbAlignedDimension
 13
435.6000000000012
 23
365.0000000000000
 33
0.0000000000000000
 14
435.6000000000012
 24
345.0000000000000
 34
0.0000000000000000
 50
90.00000000000000
100
AcDbRotatedDimension
1001
ACAD
1000
DSTYLE
1002
{
1070
   173
1070
     1
1070
     6
1000
_OPEN
1070
     7
1000
_OPEN
1070
    41
1040
2.000000
1002
}
  0
DIMENSION
  5
33D
100
AcDbEntity
  8
A0
  6
CONTINUOUS
 62
3
100
AcDbDimension
  2
*D26
 10
535.0000000000000
 20
355.0000000000000
 30
0.0000000000000000
 11
534.5000000000000
 21
365.0000000000000
 31
0.0000000000000000
 70
160
  3
A002
100
AcDbAlignedDimension
 13
516.0000000000000
 23
370.0000000000000
 33
0.0000000000000000
 14
428.5000000000000
 24
355.0000000000000
 34
0.0000000000000000
 50
90.00000000000000
100
AcDbRotatedDimension
1001
ACAD
1000
DSTYLE
1002
{
1070
   173
1070
     1
1070
     6
1000
_OPEN
1070
     7
1000
_OPEN
1070
    41
1040
2.000000
1002
}
  0
LINE
  5
33E
100
AcDbEntity
  8
A0
  6
CONTINUOUS
 62
3
100
AcDbLine
 10
496.5000000000000
 20
226.0000000000000
 30
0.0000000000000000
 11
496.5000000000000
 21
269.2000000000000
 31
0.0000000000000000
  0
LINE
  5
33F
100
AcDbEntity
  8
A0
  6
CONTINUOUS
 62
3
100
AcDbLine
 10
513.5000000000000
 20
226.0000000000000
 30
0.0000000000000000
 11
513.5000000000000
 21
269.2000000000000
 31
0.0000000000000000
  0
ARC
  5
340
100
AcDbEntity
  8
A0
  6
CONTINUOUS
 62
3
100
AcDbCircle
 10
495.7000000000000
 20
269.2000000000000
 30
0.0000000000000000
 40
0.8000000000000000
100
AcDbArc
 50
0.0000000000000000
 51
90.00000000000000
  0
LINE
  5
341
100
AcDbEntity
  8
A0
  6
CONTINUOUS
 62
3
100
AcDbLine
 10
516.0000000000000
 20
270.6000000000000
 30
0.0000000000000000
 11
515.4000000000000
 21
270.0000000000000
 31
0.0000000000000000
  0
ARC
  5
342
100
AcDbEntity
  8
A0
  6
CONTINUOUS
 62
3
100
AcDbCircle
 10
514.3000000000000
 20
269.2000000000000
 30
0.0000000000000000
 40
0.8000000000000000
100
AcDbArc
 50
90.00000000000000
 51
180.0000000000000
  0
CIRCLE
  5
343
100
AcDbEntity
  8
A0
  6
PHANTOM
 62
3
100
AcDbCircle
 10
505.0000000000000
 20
188.6852425680043
 30
0.0000000000000000
 40
7.850000000000001
  0
LINE
  5
344
100
AcDbEntity
  8
A0
  6
CONTINUOUS
 62
3
100
AcDbLine
 10
435.0000000000011
 20
364.4000000000000
 30
0.0000000000000000
 11
435.0000000000011
 21
345.6000000000000
 31
0.0000000000000000
  0
LINE
  5
345
100
AcDbEntity
  8
A0
  6
CONTINUOUS
 62
3
100
AcDbLine
 10
444.4000000000011
 20
365.0000000000000
 30
0.0000000000000000
 11
435.6000000000012
 21
365.0000000000000
 31
0.0000000000000000
  0
LINE
  5
346
100
AcDbEntity
  8
A0
  6
CONTINUOUS
 62
3
100
AcDbLine
 10
445.0000000000011
 20
364.4000000000000
 30
0.0000000000000000
 11
445.0000000000011
 21
345.6000000000000
 31
0.0000000000000000
  0
LINE
  5
347
100
AcDbEntity
  8
A0
  6
CONTINUOUS
 62
3
100
AcDbLine
 10
444.4000000000011
 20
345.0000000000000
 30
0.0000000000000000
 11
435.6000000000012
 21
345.0000000000000
 31
0.0000000000000000
  0
LINE
  5
348
100
AcDbEntity
  8
A0
  6
HIDDEN
 62
3
100
AcDbLine
 10
445.0000000000011
 20
360.0000000000000
 30
0.0000000000000000
 11
435.0000000000011
 21
360.0000000000000
 31
0.0000000000000000
  0
LINE
  5
349
100
AcDbEntity
  8
A0
  6
HIDDEN
 62
3
100
AcDbLine
 10
445.0000000000011
 20
350.0000000000000
 30
0.0000000000000000
 11
435.0000000000011
 21
350.0000000000000
 31
0.0000000000000000
  0
LINE
  5
34A
100
AcDbEntity
  8
A0
  6
CONTINUOUS
 62
3
100
AcDbLine
 10
445.0000000000012
 20
364.4000000000000
 30
0.0000000000000000
 11
444.4000000000012
 21
365.0000000000000
 31
0.0000000000000000
  0
LINE
  5
34B
100
AcDbEntity
  8
A0
  6
CONTINUOUS
 62
3
100
AcDbLine
 10
435.6000000000011
 20
365.0000000000001
 30
0.0000000000000000
 11
435.0000000000011
 21
364.4000000000001
 31
0.0000000000000000
  0
LINE
  5
34C
100
AcDbEntity
  8
A0
  6
CONTINUOUS
 62
3
100
AcDbLine
 10
435.0000000000012
 20
345.6000000000000
 30
0.0000000000000000
 11
435.6000000000012
 21
345.0000000000000
 31
0.0000000000000000
  0
LINE
  5
34D
100
AcDbEntity
  8
A0
  6
CONTINUOUS
 62
3
100
AcDbLine
 10
444.4000000000011
 20
345.0000000000001
 30
0.0000000000000000
 11
445.0000000000011
 21
345.6000000000001
 31
0.0000000000000000
  0
LINE
  5
34E
100
AcDbEntity
  8
A0
  6
CONTINUOUS
 62
3
100
AcDbLine
 10
574.9999999999999
 20
364.4000000000000
 30
0.0000000000000000
 11
574.9999999999999
 21
345.6000000000000
 31
0.0000000000000000
  0
LINE
  5
34F
100
AcDbEntity
  8
A0
  6
CONTINUOUS
 62
3
100
AcDbLine
 10
564.9999999999999
 20
364.4000000000000
 30
0.0000000000000000
 11
564.9999999999999
 21
345.6000000000000
 31
0.0000000000000000
  0
LINE
  5
350
100
AcDbEntity
  8
A0
  6
CONTINUOUS
 62
3
100
AcDbLine
 10
565.5999999999999
 20
365.0000000000000
 30
0.0000000000000000
 11
574.3999999999999
 21
365.0000000000000
 31
0.0000000000000000
  0
LINE
  5
351
100
AcDbEntity
  8
A0
  6
CONTINUOUS
 62
3
100
AcDbLine
 10
565.5999999999999
 20
345.0000000000000
 30
0.0000000000000000
 11
574.3999999999999
 21
345.0000000000000
 31
0.0000000000000000
  0
LINE
  5
352
100
AcDbEntity
  8
A0
  6
HIDDEN
 62
3
100
AcDbLine
 10
564.9999999999999
 20
360.0000000000000
 30
0.0000000000000000
 11
574.9999999999999
 21
360.0000000000000
 31
0.0000000000000000
  0
LINE
  5
353
100
AcDbEntity
  8
A0
  6
HIDDEN
 62
3
100
AcDbLine
 10
564.9999999999999
 20
350.0000000000000
 30
0.0000000000000000
 11
574.9999999999999
 21
350.0000000000000
 31
0.0000000000000000
  0
LINE
  5
354
100
AcDbEntity
  8
A0
  6
CONTINUOUS
 62
3
100
AcDbLine
 10
574.3999999999999
 20
365.0000000000000
 30
0.0000000000000000
 11
575.0000000000000
 21
364.4000000000000
 31
0.0000000000000000
  0
LINE
  5
355
100
AcDbEntity
  8
A0
  6
CONTINUOUS
 62
3
100
AcDbLine
 10
565.5999999999998
 20
365.0000000000000
 30
0.0000000000000000
 11
564.9999999999998
 21
364.4000000000000
 31
0.0000000000000000
  0
LINE
  5
356
100
AcDbEntity
  8
A0
  6
CONTINUOUS
 62
3
100
AcDbLine
 10
565.0000000000000
 20
345.6000000000000
 30
0.0000000000000000
 11
565.6000000000000
 21
345.0000000000000
 31
0.0000000000000000
  0
LINE
  5
357
100
AcDbEntity
  8
A0
  6
CONTINUOUS
 62
3
100
AcDbLine
 10
574.3999999999998
 20
345.0000000000000
 30
0.0000000000000000
 11
574.9999999999997
 21
345.6000000000000
 31
0.0000000000000000
  0
LINE
  5
358
100
AcDbEntity
  8
A0
  6
CONTINUOUS
 62
3
100
AcDbLine
 10
516.0000000000000
 20
370.0000000000000
 30
0.0000000000000000
 11
494.0000000000001
 21
370.0000000000000
 31
0.0000000000000000
  0
LINE
  5
359
100
AcDbEntity
  8
A0
  6
CONTINUOUS
 62
3
100
AcDbLine
 10
509.8643593524249
 20
210.0000000000000
 30
0.0000000000000000
 11
500.1356406475750
 21
210.0000000000000
 31
0.0000000000000000
  0
LINE
  5
35A
100
AcDbEntity
  8
A0
  6
CONTINUOUS
 62
3
100
AcDbLine
 10
516.0000000000000
 20
270.6000000000000
 30
0.0000000000000000
 11
516.0000000000000
 21
340.0000000000000
 31
0.0000000000000000
  0
LINE
  5
35B
100
AcDbEntity
  8
A0
  6
CONTINUOUS
 62
3
100
AcDbLine
 10
494.0000000000000
 20
270.6000000000000
 30
0.0000000000000000
 11
494.0000000000000
 21
340.0000000000000
 31
0.0000000000000000
  0
LINE
  5
35C
100
AcDbEntity
  8
A0
  6
CONTINUOUS
 62
3
100
AcDbLine
 10
492.0000000000000
 20
367.9999999999999
 30
0.0000000000000000
 11
494.0000000000000
 21
369.9999999999999
 31
0.0000000000000000
  0
LINE
  5
35D
100
AcDbEntity
  8
A0
  6
CONTINUOUS
 62
3
100
AcDbLine
 10
516.0000000000000
 20
370.0000000000000
 30
0.0000000000000000
 11
518.0000000000000
 21
368.0000000000000
 31
0.0000000000000000
  0
LINE
  5
35E
100
AcDbEntity
  8
A0
  6
CONTINUOUS
 62
3
100
AcDbLine
 10
518.0000000000000
 20
368.0000000000000
 30
0.0000000000000000
 11
492.0000000000001
 21
368.0000000000000
 31
0.0000000000000000
  0
LINE
  5
35F
100
AcDbEntity
  8
A0
  6
CONTINUOUS
 62
3
100
AcDbLine
 10
516.0000000000000
 20
340.0000000000000
 30
0.0000000000000000
 11
494.0000000000001
 21
340.0000000000000
 31
0.0000000000000000
  0
LINE
  5
360
100
AcDbEntity
  8
A0
  6
CONTINUOUS
 62
3
100
AcDbLine
 10
492.0000000000000
 20
342.0000000000000
 30
0.0000000000000000
 11
494.0000000000000
 21
340.0000000000000
 31
0.0000000000000000
  0
LINE
  5
361
100
AcDbEntity
  8
A0
  6
CONTINUOUS
 62
3
100
AcDbLine
 10
515.9999999999999
 20
339.9999999999999
 30
0.0000000000000000
 11
517.9999999999999
 21
341.9999999999999
 31
0.0000000000000000
  0
LINE
  5
362
100
AcDbEntity
  8
A0
  6
CONTINUOUS
 62
3
100
AcDbLine
 10
515.4000000000000
 20
270.0000000000000
 30
0.0000000000000000
 11
494.6000000000000
 21
270.0000000000000
 31
0.0000000000000000
  0
LINE
  5
363
100
AcDbEntity
  8
A0
  6
CENTER
 62
3
100
AcDbLine
 10
493.5102033952998
 20
188.6852425680028
 30
0.0000000000000000
 11
515.6046785219340
 21
188.6852425680057
 31
0.0000000000000000
  0
LINE
  5
364
100
AcDbEntity
  8
A0
  6
CONTINUOUS
 62
3
100
AcDbLine
 10
497.1500000000000
 20
189.3205239415817
 30
0.0000000000000000
 11
504.3647186257705
 21
196.5352425673372
 31
0.0000000000000000
  0
LINE
  5
365
100
AcDbEntity
  8
A0
  6
CONTINUOUS
 62
3
100
AcDbLine
 10
505.6352813742294
 20
180.8352425673344
 30
0.0000000000000000
 11
512.8500000000000
 21
188.0499611930900
 31
0.0000000000000000
  0
LINE
  5
366
100
AcDbEntity
  8
A0
  6
CONTINUOUS
 62
3
100
AcDbLine
 10
505.6352813742803
 20
196.5352425673344
 30
0.0000000000000000
 11
512.8500000000000
 21
189.3205239416419
 31
0.0000000000000000
  0
LINE
  5
367
100
AcDbEntity
  8
A0
  6
CONTINUOUS
 62
3
100
AcDbLine
 10
497.1500000000000
 20
188.0499611931376
 30
0.0000000000000000
 11
504.3647186258280
 21
180.8352425673369
 31
0.0000000000000000
  0
LINE
  5
368
100
AcDbEntity
  8
A0
  6
CONTINUOUS
 62
3
100
AcDbLine
 10
512.8500000000000
 20
188.0499611930896
 30
0.0000000000000000
 11
512.8500000000000
 21
189.3205239416419
 31
0.0000000000000000
  0
LINE
  5
369
100
AcDbEntity
  8
A0
  6
CONTINUOUS
 62
3
100
AcDbLine
 10
512.8500000000001
 20
210.8000000004088
 30
0.0000000000000000
 11
512.8500000000000
 21
226.0000000000000
 31
0.0000000000000000
  0
LINE
  5
36A
100
AcDbEntity
  8
A0
  6
CONTINUOUS
 62
3
100
AcDbLine
 10
497.1500000000000
 20
188.0499611931376
 30
0.0000000000000000
 11
497.1500000000000
 21
189.3205239415818
 31
0.0000000000000000
  0
LINE
  5
36B
100
AcDbEntity
  8
A0
  6
CONTINUOUS
 62
3
100
AcDbLine
 10
497.1499999999999
 20
210.8000000004088
 30
0.0000000000000000
 11
497.1500000000000
 21
226.0000000000000
 31
0.0000000000000000
  0
LINE
  5
36C
100
AcDbEntity
  8
A0
  6
CONTINUOUS
 62
3
100
AcDbLine
 10
504.3647186257702
 20
196.5352425673371
 30
0.0000000000000000
 11
505.6352813743225
 21
196.5352425673345
 31
0.0000000000000000
  0
LINE
  5
36D
100
AcDbEntity
  8
A0
  6
CONTINUOUS
 62
3
100
AcDbLine
 10
504.3647186257857
 20
180.8352425673371
 30
0.0000000000000000
 11
505.6352813742298
 21
180.8352425673345
 31
0.0000000000000000
  0
LINE
  5
36E
100
AcDbEntity
  8
A0
  6
CONTINUOUS
 62
3
100
AcDbLine
 10
505.6352813736645
 20
210.8000000000007
 30
0.0000000000000000
 11
505.6352813736193
 21
226.0000000000000
 31
0.0000000000000000
  0
LINE
  5
36F
100
AcDbEntity
  8
A0
  6
CONTINUOUS
 62
3
100
AcDbLine
 10
504.3647186253220
 20
210.8000000000006
 30
0.0000000000000000
 11
504.3647186253220
 21
226.0000000000000
 31
0.0000000000000000
  0
LINE
  5
370
100
AcDbEntity
  8
A0
  6
CONTINUOUS
 62
3
100
AcDbLine
 10
497.1500000000000
 20
210.8000000000002
 30
0.0000000000000000
 11
512.8500000000000
 21
210.8000000000012
 31
0.0000000000000000
  0
LINE
  5
371
100
AcDbEntity
  8
A0
  6
CONTINUOUS
 62
3
100
AcDbLine
 10
504.3647186253220
 20
226.0000000000000
 30
0.0000000000000000
 11
496.5000000000000
 21
226.0000000000000
 31
0.0000000000000000
  0
LINE
  5
372
100
AcDbEntity
  8
A0
  6
CONTINUOUS
 62
3
100
AcDbLine
 10
513.5000000000000
 20
226.0000000000000
 30
0.0000000000000000
 11
505.6352813736193
 21
226.0000000000000
 31
0.0000000000000000
  0
LINE
  5
373
100
AcDbEntity
  8
A0
  6
CONTINUOUS
 62
3
100
AcDbLine
 10
497.1499999999999
 20
226.0000000000000
 30
0.0000000000000000
 11
504.3647186253220
 21
210.8000000000006
 31
0.0000000000000000
  0
LINE
  5
374
100
AcDbEntity
  8
A0
  6
CONTINUOUS
 62
3
100
AcDbLine
 10
504.3647186253220
 20
226.0000000000001
 30
0.0000000000000000
 11
497.1499999999999
 21
210.8000000004089
 31
0.0000000000000000
  0
LINE
  5
375
100
AcDbEntity
  8
A0
  6
CONTINUOUS
 62
3
100
AcDbLine
 10
512.8499999999999
 20
226.0000000000000
 30
0.0000000000000000
 11
505.6352813736644
 21
210.8000000000008
 31
0.0000000000000000
  0
LINE
  5
376
100
AcDbEntity
  8
A0
  6
CONTINUOUS
 62
3
100
AcDbLine
 10
505.6352813736192
 20
226.0000000000000
 30
0.0000000000000000
 11
512.8500000000001
 21
210.8000000004100
 31
0.0000000000000000
  0
ARC
  5
377
100
AcDbEntity
  8
A0
  6
CONTINUOUS
 62
3
100
AcDbCircle
 10
483.9999999999998
 20
355.0000000000000
 30
0.0000000000000000
 40
10.00000000000018
100
AcDbArc
 50
323.1301023541568
 51
396.8698976458433
  0
ARC
  5
378
100
AcDbEntity
  8
A0
  6
CONTINUOUS
 62
3
100
AcDbCircle
 10
526.0000000000000
 20
355.0000000000000
 30
0.0000000000000000
 40
10.00000000000002
100
AcDbArc
 50
143.1301023541559
 51
216.8698976458442
  0
LINE
  5
379
100
AcDbEntity
  8
A0
  6
CONTINUOUS
 62
3
100
AcDbLine
 10
518.0000000000000
 20
341.9999999999999
 30
0.0000000000000000
 11
518.0000000000000
 21
348.9999999999999
 31
0.0000000000000000
  0
LINE
  5
37A
100
AcDbEntity
  8
A0
  6
CONTINUOUS
 62
3
100
AcDbLine
 10
518.0000000000000
 20
361.0000000000000
 30
0.0000000000000000
 11
518.0000000000000
 21
368.0000000000000
 31
0.0000000000000000
  0
LINE
  5
37B
100
AcDbEntity
  8
A0
  6
CONTINUOUS
 62
3
100
AcDbLine
 10
492.0000000000000
 20
342.0000000000000
 30
0.0000000000000000
 11
492.0000000000000
 21
349.0000000000000
 31
0.0000000000000000
  0
LINE
  5
37C
100
AcDbEntity
  8
A0
  6
CONTINUOUS
 62
3
100
AcDbLine
 10
492.0000000000000
 20
361.0000000000000
 30
0.0000000000000000
 11
492.0000000000000
 21
368.0000000000000
 31
0.0000000000000000
  0
ARC
  5
37D
100
AcDbEntity
  8
A0
  6
CONTINUOUS
 62
3
100
AcDbCircle
 10
552.5388249125398
 20
358.0000000000000
 30
0.0000000000000000
 40
4.500000000000000
100
AcDbArc
 50
138.1896851042214
 51
221.8103148957786
  0
ARC
  5
37E
100
AcDbEntity
  8
A0
  6
CONTINUOUS
 62
3
100
AcDbCircle
 10
545.8306209800404
 20
358.0000000000000
 30
0.0000000000000000
 40
4.500000000000000
100
AcDbArc
 50
318.1896851042214
 51
401.8103148957786
  0
ARC
  5
37F
100
AcDbEntity
  8
A0
  6
CONTINUOUS
 62
3
100
AcDbCircle
 10
557.0388249125398
 20
358.0000000000000
 30
0.0000000000000000
 40
4.500000000000000
100
AcDbArc
 50
138.1896851042214
 51
221.8103148957786
  0
ARC
  5
380
100
AcDbEntity
  8
A0
  6
CONTINUOUS
 62
3
100
AcDbCircle
 10
545.8306209800404
 20
352.0000000000000
 30
0.0000000000000000
 40
4.500000000000000
100
AcDbArc
 50
318.1896851042214
 51
401.8103148957786
  0
ARC
  5
381
100
AcDbEntity
  8
A0
  6
CONTINUOUS
 62
3
100
AcDbCircle
 10
557.0388249125398
 20
352.0000000000000
 30
0.0000000000000000
 40
4.500000000000000
100
AcDbArc
 50
138.1896851042214
 51
221.8103148957786
  0
ARC
  5
382
100
AcDbEntity
  8
A0
  6
CONTINUOUS
 62
3
100
AcDbCircle
 10
550.3306209800404
 20
352.0000000000000
 30
0.0000000000000000
 40
4.500000000000000
100
AcDbArc
 50
318.1896851042214
 51
401.8103148957786
  0
LINE
  5
383
100
AcDbEntity
  8
A0
  6
CONTINUOUS
 62
3
100
AcDbLine
 10
549.1847229462901
 20
361.0000000000000
 30
0.0000000000000000
 11
518.0000000000000
 21
361.0000000000000
 31
0.0000000000000000
  0
LINE
  5
384
100
AcDbEntity
  8
A0
  6
CONTINUOUS
 62
3
100
AcDbLine
 10
564.9999999999999
 20
361.0000000000000
 30
0.0000000000000000
 11
553.6847229462901
 21
361.0000000000000
 31
0.0000000000000000
  0
LINE
  5
385
100
AcDbEntity
  8
A0
  6
CONTINUOUS
 62
3
100
AcDbLine
 10
549.1847229462901
 20
349.0000000000000
 30
0.0000000000000000
 11
518.0000000000000
 21
349.0000000000000
 31
0.0000000000000000
  0
LINE
  5
386
100
AcDbEntity
  8
A0
  6
CONTINUOUS
 62
3
100
AcDbLine
 10
564.9999999999999
 20
349.0000000000000
 30
0.0000000000000000
 11
553.6847229462901
 21
349.0000000000000
 31
0.0000000000000000
  0
ARC
  5
387
100
AcDbEntity
  8
A0
  6
CONTINUOUS
 62
3
100
AcDbCircle
 10
464.3950620510396
 20
358.0000000000000
 30
0.0000000000000000
 40
4.500000000000000
100
AcDbArc
 50
138.1896851042214
 51
221.8103148957786
  0
ARC
  5
388
100
AcDbEntity
  8
A0
  6
CONTINUOUS
 62
3
100
AcDbCircle
 10
457.6868581185403
 20
358.0000000000000
 30
0.0000000000000000
 40
4.500000000000000
100
AcDbArc
 50
318.1896851042214
 51
401.8103148957786
  0
ARC
  5
389
100
AcDbEntity
  8
A0
  6
CONTINUOUS
 62
3
100
AcDbCircle
 10
468.8950620510396
 20
358.0000000000000
 30
0.0000000000000000
 40
4.500000000000000
100
AcDbArc
 50
138.1896851042214
 51
221.8103148957786
  0
ARC
  5
38A
100
AcDbEntity
  8
A0
  6
CONTINUOUS
 62
3
100
AcDbCircle
 10
457.6868581185403
 20
352.0000000000000
 30
0.0000000000000000
 40
4.500000000000000
100
AcDbArc
 50
318.1896851042214
 51
401.8103148957786
  0
ARC
  5
38B
100
AcDbEntity
  8
A0
  6
CONTINUOUS
 62
3
100
AcDbCircle
 10
468.8950620510396
 20
352.0000000000000
 30
0.0000000000000000
 40
4.500000000000000
100
AcDbArc
 50
138.1896851042214
 51
221.8103148957786
  0
ARC
  5
38C
100
AcDbEntity
  8
A0
  6
CONTINUOUS
 62
3
100
AcDbCircle
 10
462.1868581185403
 20
352.0000000000000
 30
0.0000000000000000
 40
4.500000000000000
100
AcDbArc
 50
318.1896851042214
 51
401.8103148957786
  0
LINE
  5
38D
100
AcDbEntity
  8
A0
  6
CONTINUOUS
 62
3
100
AcDbLine
 10
461.0409600847900
 20
361.0000000000000
 30
0.0000000000000000
 11
445.0000000000011
 21
361.0000000000000
 31
0.0000000000000000
  0
LINE
  5
38E
100
AcDbEntity
  8
A0
  6
CONTINUOUS
 62
3
100
AcDbLine
 10
492.0000000000001
 20
361.0000000000000
 30
0.0000000000000000
 11
465.5409600847900
 21
361.0000000000000
 31
0.0000000000000000
  0
LINE
  5
38F
100
AcDbEntity
  8
A0
  6
CONTINUOUS
 62
3
100
AcDbLine
 10
461.0409600847900
 20
349.0000000000000
 30
0.0000000000000000
 11
445.0000000000011
 21
349.0000000000000
 31
0.0000000000000000
  0
LINE
  5
390
100
AcDbEntity
  8
A0
  6
CONTINUOUS
 62
3
100
AcDbLine
 10
492.0000000000001
 20
349.0000000000000
 30
0.0000000000000000
 11
465.5409600847900
 21
349.0000000000000
 31
0.0000000000000000
  0
LINE
  5
391
100
AcDbEntity
  8
A0
  6
CENTER
 62
3
100
AcDbLine
 10
505.0000000000000
 20
174.9784800693232
 30
0.0000000000000000
 11
505.0000000000000
 21
318.5427923826453
 31
0.0000000000000000
  0
LINE
  5
392
100
AcDbEntity
  8
A0
  6
CENTER
 62
3
100
AcDbLine
 10
505.0000000000000
 20
328.4383342891225
 30
0.0000000000000000
 11
505.0000000000000
 21
375.0000000000000
 31
0.0000000000000000
  0
LINE
  5
393
100
AcDbEntity
  8
A0
  6
CONTINUOUS
 62
3
100
AcDbLine
 10
494.0000000000000
 20
270.6000000000000
 30
0.0000000000000000
 11
494.6000000000000
 21
270.0000000000000
 31
0.0000000000000000
  0
LINE
  5
394
100
AcDbEntity
  8
A0
  6
CONTINUOUS
 62
3
100
AcDbLine
 10
497.1499999999999
 20
210.8000000004088
 30
0.0000000000000000
 11
500.1356406475761
 21
209.9999999999997
 31
0.0000000000000000
  0
LINE
  5
395
100
AcDbEntity
  8
A0
  6
CONTINUOUS
 62
3
100
AcDbLine
 10
512.8500000000001
 20
210.8000000004088
 30
0.0000000000000000
 11
509.8643593524238
 21
209.9999999999997
 31
0.0000000000000000
  0
LINE
  5
396
100
AcDbEntity
  8
A0
  6
PHANTOM
 62
3
100
AcDbLine
 10
496.4000000000000
 20
213.0000000000000
 30
0.0000000000000000
 11
496.4000000000000
 21
264.4500000000479
 31
0.0000000000000000
  0
LINE
  5
397
100
AcDbEntity
  8
A0
  6
CONTINUOUS
 62
3
100
AcDbLine
 10
514.0250000000000
 20
270.0000000000000
 30
0.0000000000000000
 11
495.9750000000000
 21
270.0000000000000
 31
0.0000000000000000
  0
LINE
  5
398
100
AcDbEntity
  8
A0
  6
PHANTOM
 62
3
100
AcDbLine
 10
513.5999999999999
 20
213.0000000000000
 30
0.0000000000000000
 11
513.5999999999999
 21
266.0500000000479
 31
0.0000000000000000
  0
LINE
  5
399
100
AcDbEntity
  8
A0
  6
CENTER
 62
3
100
AcDbLine
 10
495.6000000000000
 20
212.0923389038435
 30
0.0000000000000000
 11
495.6000000000000
 21
267.7354625750749
 31
0.0000000000000000
  0
LINE
  5
39A
100
AcDbEntity
  8
A0
  6
CENTER
 62
3
100
AcDbLine
 10
514.4000000000000
 20
212.0923389038435
 30
0.0000000000000000
 11
514.4000000000000
 21
267.7354625750749
 31
0.0000000000000000
  0
LINE
  5
39B
100
AcDbEntity
  8
A0
  6
CONTINUOUS
 62
3
100
AcDbLine
 10
514.4000000000000
 20
213.0000000000000
 30
0.0000000000000000
 11
495.6000000000000
 21
213.0000000000000
 31
0.0000000000000000
  0
LINE
  5
39C
100
AcDbEntity
  8
A0
  6
PHANTOM
 62
3
100
AcDbLine
 10
494.8000000000000
 20
213.0000000000000
 30
0.0000000000000000
 11
494.8000000000000
 21
264.4500000000479
 31
0.0000000000000000
  0
CIRCLE
  5
39D
100
AcDbEntity
  8
A0
  6
CONTINUOUS
 62
3
100
AcDbCircle
 10
495.6000000000000
 20
213.8000000000000
 30
0.0000000000000000
 40
0.7999999999999902
  0
LINE
  5
39E
100
AcDbEntity
  8
A0
  6
PHANTOM
 62
3
100
AcDbLine
 10
515.1999999999999
 20
213.0000000000000
 30
0.0000000000000000
 11
515.1999999999999
 21
266.0500000000479
 31
0.0000000000000000
  0
CIRCLE
  5
39F
100
AcDbEntity
  8
A0
  6
CONTINUOUS
 62
3
100
AcDbCircle
 10
514.4000000000000
 20
213.8000000000000
 30
0.0000000000000000
 40
0.7999999999999830
  0
LINE
  5
3A0
100
AcDbEntity
  8
A0
  6
CONTINUOUS
 62
3
100
AcDbLine
 10
514.4000000000000
 20
214.5999999999999
 30
0.0000000000000000
 11
495.6000000000000
 21
214.6000000000000
 31
0.0000000000000000
  0
CIRCLE
  5
3A1
100
AcDbEntity
  8
A0
  6
CONTINUOUS
 62
3
100
AcDbCircle
 10
514.4000000000000
 20
217.0000000000000
 30
0.0000000000000000
 40
0.7999999999999830
  0
CIRCLE
  5
3A2
100
AcDbEntity
  8
A0
  6
CONTINUOUS
 62
3
100
AcDbCircle
 10
495.6000000000000
 20
215.4000000000000
 30
0.0000000000000000
 40
0.7999999999999902
  0
LINE
  5
3A3
100
AcDbEntity
  8
A0
  6
CONTINUOUS
 62
3
100
AcDbLine
 10
514.4678398643204
 20
216.2028815942352
 30
0.0000000000000000
 11
495.6678398643203
 21
214.6028815942352
 31
0.0000000000000000
  0
LINE
  5
3A4
100
AcDbEntity
  8
A0
  6
CONTINUOUS
 62
3
100
AcDbLine
 10
495.5321601356795
 20
216.1971184057648
 30
0.0000000000000000
 11
514.3321601356795
 21
217.7971184057647
 31
0.0000000000000000
  0
CIRCLE
  5
3A5
100
AcDbEntity
  8
A0
  6
CONTINUOUS
 62
3
100
AcDbCircle
 10
495.6000000000000
 20
218.6000000000000
 30
0.0000000000000000
 40
0.7999999999999902
  0
LINE
  5
3A6
100
AcDbEntity
  8
A0
  6
CONTINUOUS
 62
3
100
AcDbLine
 10
495.5321601356795
 20
219.3971184057648
 30
0.0000000000000000
 11
514.3321601356795
 21
220.9971184057647
 31
0.0000000000000000
  0
LINE
  5
3A7
100
AcDbEntity
  8
A0
  6
CONTINUOUS
 62
3
100
AcDbLine
 10
514.4678398643204
 20
219.4028815942352
 30
0.0000000000000000
 11
495.6678398643203
 21
217.8028815942352
 31
0.0000000000000000
  0
CIRCLE
  5
3A8
100
AcDbEntity
  8
A0
  6
CONTINUOUS
 62
3
100
AcDbCircle
 10
514.4000000000000
 20
220.2000000000000
 30
0.0000000000000000
 40
0.7999999999999830
  0
CIRCLE
  5
3A9
100
AcDbEntity
  8
A0
  6
CONTINUOUS
 62
3
100
AcDbCircle
 10
495.9750000000000
 20
269.4750000000000
 30
0.0000000000000000
 40
0.5249999999999986
  0
CIRCLE
  5
3AA
100
AcDbEntity
  8
A0
  6
CONTINUOUS
 62
3
100
AcDbCircle
 10
514.0250000000000
 20
269.4750000000000
 30
0.0000000000000000
 40
0.5249999999999986
  0
LINE
  5
3AB
100
AcDbEntity
  8
A0
  6
CONTINUOUS
 62
3
100
AcDbLine
 10
514.0250000000000
 20
268.9500000000001
 30
0.0000000000000000
 11
495.9750000000000
 21
268.9500000000001
 31
0.0000000000000000
  0
CIRCLE
  5
3AC
100
AcDbEntity
  8
A0
  6
CONTINUOUS
 62
3
100
AcDbCircle
 10
514.0250000000000
 20
268.4250000000001
 30
0.0000000000000000
 40
0.5249999999999986
  0
LINE
  5
3AD
100
AcDbEntity
  8
A0
  6
CONTINUOUS
 62
3
100
AcDbLine
 10
514.0250000000000
 20
267.9000000000000
 30
0.0000000000000000
 11
495.9750000000000
 21
267.9000000000000
 31
0.0000000000000000
  0
CIRCLE
  5
3AE
100
AcDbEntity
  8
A0
  6
CONTINUOUS
 62
3
100
AcDbCircle
 10
495.9750000000000
 20
268.4250000000001
 30
0.0000000000000000
 40
0.5249999999999986
  0
LINE
  5
3AF
100
AcDbEntity
  8
A0
  6
CONTINUOUS
 62
3
100
AcDbLine
 10
495.5321601356795
 20
265.2471184058127
 30
0.0000000000000000
 11
514.3321601356795
 21
266.8471184058126
 31
0.0000000000000000
  0
CIRCLE
  5
3B0
100
AcDbEntity
  8
A0
  6
CONTINUOUS
 62
3
100
AcDbCircle
 10
514.4000000000000
 20
266.0500000000479
 30
0.0000000000000000
 40
0.7999999999999830
  0
LINE
  5
3B1
100
AcDbEntity
  8
A0
  6
CONTINUOUS
 62
3
100
AcDbLine
 10
514.4678398643204
 20
265.2528815942831
 30
0.0000000000000000
 11
495.6678398643203
 21
263.6528815942831
 31
0.0000000000000000
  0
CIRCLE
  5
3B2
100
AcDbEntity
  8
A0
  6
CONTINUOUS
 62
3
100
AcDbCircle
 10
495.6000000000000
 20
264.4500000000479
 30
0.0000000000000000
 40
0.7999999999999902
  0
CIRCLE
  5
3B3
100
AcDbEntity
  8
A0
  6
CONTINUOUS
 62
3
100
AcDbCircle
 10
514.4000000000000
 20
262.8500000000479
 30
0.0000000000000000
 40
0.7999999999999830
  0
LINE
  5
3B4
100
AcDbEntity
  8
A0
  6
CONTINUOUS
 62
3
100
AcDbLine
 10
495.5321601356795
 20
262.0471184058127
 30
0.0000000000000000
 11
514.3321601356795
 21
263.6471184058127
 31
0.0000000000000000
  0
LINE
  5
3B5
100
AcDbEntity
  8
A0
  6
CONTINUOUS
 62
3
100
AcDbLine
 10
514.4678398643204
 20
262.0528815942831
 30
0.0000000000000000
 11
495.6678398643203
 21
260.4528815942832
 31
0.0000000000000000
  0
CIRCLE
  5
3B6
100
AcDbEntity
  8
A0
  6
CONTINUOUS
 62
3
100
AcDbCircle
 10
495.6000000000000
 20
261.2500000000479
 30
0.0000000000000000
 40
0.7999999999999902
  0
LINE
  5
3B7
100
AcDbEntity
  8
A0
  6
CONTINUOUS
 62
3
100
AcDbLine
 10
514.4678398643205
 20
217.7971184057647
 30
0.0000000000000000
 11
505.0339811320563
 21
218.6000000000000
 31
0.0000000000000000
  0
LINE
  5
3B8
100
AcDbEntity
  8
A0
  6
CONTINUOUS
 62
3
100
AcDbLine
 10
495.5321601356796
 20
217.8028815942352
 30
0.0000000000000000
 11
504.9660188679436
 21
217.0000000000000
 31
0.0000000000000000
  0
LINE
  5
3B9
100
AcDbEntity
  8
A0
  6
CONTINUOUS
 62
3
100
AcDbLine
 10
514.4912503258763
 20
266.8447788233864
 30
0.0000000000000000
 11
505.3004070378540
 21
267.9000000000000
 31
0.0000000000000000
  0
LINE
  5
3BA
100
AcDbEntity
  8
A0
  6
CONTINUOUS
 62
3
100
AcDbLine
 10
495.8995791239382
 20
267.9054456799776
 30
0.0000000000000000
 11
507.4026901263422
 21
266.2573762773584
 31
0.0000000000000000
  0
DIMENSION
  5
3C3
100
AcDbEntity
  8
A0
  6
CONTINUOUS
 62
3
100
AcDbDimension
  2
*D27
 10
574.9999999999999
 20
390.0000000000000
 30
0.0000000000000000
 11
505.0000000000000
 21
390.5000000000000
 31
0.0000000000000000
 70
160
  1
\A1;290
  3
A002
100
AcDbAlignedDimension
 13
435.0000000000011
 23
364.4000000000000
 33
0.0000000000000000
 14
574.9999999999999
 24
364.4000000000000
 34
0.0000000000000000
100
AcDbRotatedDimension
1001
ACAD
1000
DSTYLE
1002
{
1070
   173
1070
     1
1070
     6
1000
_OPEN
1070
     7
1000
_OPEN
1070
    41
1040
2.000000
1002
}
  0
DIMENSION
  5
3CC
100
AcDbEntity
  8
A0
  6
CONTINUOUS
 62
3
100
AcDbDimension
  2
*D28
 10
492.0000000000000
 20
382.5000000000000
 30
0.0000000000000000
 11
505.0000000000000
 21
383.0000000000000
 31
0.0000000000000000
 70
32
  1
\A1;\U+220526
  3
A002
100
AcDbAlignedDimension
 13
518.0000000000000
 23
368.0000000000000
 33
0.0000000000000000
 14
492.0000000000000
 24
368.0000000000000
 34
0.0000000000000000
100
AcDbRotatedDimension
1001
ACAD
1000
DSTYLE
1002
{
1070
   173
1070
     1
1070
     6
1000
_OPEN
1070
     7
1000
_OPEN
1070
    41
1040
2.000000
1002
}
  0
DIMENSION
  5
3D5
100
AcDbEntity
  8
A0
  6
CONTINUOUS
 62
3
100
AcDbDimension
  2
*D29
 10
480.0000000000000
 20
361.0000000000000
 30
0.0000000000000000
 11
479.5000000000000
 21
368.0000000000000
 31
0.0000000000000000
 70
160
  1
\A1;\U+220512
  3
A002
100
AcDbAlignedDimension
 13
492.0000000000001
 23
349.0000000000000
 33
0.0000000000000000
 14
492.0000000000001
 24
361.0000000000000
 34
0.0000000000000000
 50
90.00000000000000
100
AcDbRotatedDimension
1001
ACAD
1000
DSTYLE
1002
{
1070
   173
1070
     1
1070
     6
1000
_OPEN
1070
     7
1000
_OPEN
1070
    41
1040
2.000000
1070
   287
1070
     0
1002
}
  0
DIMENSION
  5
3DE
100
AcDbEntity
  8
A0
  6
CONTINUOUS
 62
3
100
AcDbDimension
  2
*D30
 10
545.0000000000000
 20
370.0000000000000
 30
0.0000000000000000
 11
544.5000000000000
 21
290.0000000000000
 31
0.0000000000000000
 70
32
  3
A002
100
AcDbAlignedDimension
 13
509.8643593524249
 23
210.0000000000000
 33
0.0000000000000000
 14
516.0000000000000
 24
370.0000000000000
 34
0.0000000000000000
 50
90.00000000000000
100
AcDbRotatedDimension
1001
ACAD
1000
DSTYLE
1002
{
1070
   173
1070
     1
1070
     6
1000
_OPEN
1070
     7
1000
_OPEN
1070
    41
1040
2.000000
1002
}
  0
DIMENSION
  5
3E7
100
AcDbEntity
  8
A0
  6
CONTINUOUS
 62
3
100
AcDbDimension
  2
*D31
 10
532.7552077695727
 20
210.0000000000000
 30
0.0000000000000000
 11
531.6302077695727
 21
218.0000000000000
 31
0.0000000000000000
 70
32
  3
A002
100
AcDbAlignedDimension
 13
512.8500000000000
 23
226.0000000000000
 33
0.0000000000000000
 14
512.1500000000001
 24
210.0000000000000
 34
0.0000000000000000
 50
90.00000000000000
100
AcDbRotatedDimension
1001
ACAD
1000
DSTYLE
1002
{
1070
   173
1070
     1
1070
     6
1000
_OPEN
1070
     7
1000
_OPEN
1070
    41
1040
2.000000
1002
}
  0
DIMENSION
  5
3EE
100
AcDbEntity
  8
A0
  6
CONTINUOUS
 62
3
100
AcDbDimension
  2
*D32
 10
494.0000000000000
 20
321.2854112371299
 30
0.0000000000000000
 11
505.0000000000000
 21
322.4104112371299
 31
0.0000000000000000
 70
32
  1
\A1;\U+220522
  3
A002
100
AcDbAlignedDimension
 13
516.0000000000000
 23
340.0000000000000
 33
0.0000000000000000
 14
494.0000000000000
 24
340.0000000000000
 34
0.0000000000000000
100
AcDbRotatedDimension
1001
ACAD
1000
DSTYLE
1002
{
1070
   173
1070
     1
1070
     6
1000
_OPEN
1070
     7
1000
_OPEN
1070
    41
1040
2.000000
1002
}
  0
DIMENSION
  5
3F8
100
AcDbEntity
  8
A0
  6
CONTINUOUS
 62
3
100
AcDbDimension
  2
*D33
 10
519.1574035687589
 20
183.0131203729068
 30
0.0000000000000000
 11
522.4463382640963
 21
187.0091618494446
 31
0.0000000000000000
 70
161
  1
\A1;□12\H0.903226x;\S　0^ －0.05;
  3
A002
100
AcDbAlignedDimension
 13
504.3647186258279
 23
180.8352425673370
 33
0.0000000000000000
 14
512.8500000000001
 24
189.3205239416419
 34
0.0000000000000000
 50
45.00000000010939
1001
ACAD
1000
DSTYLE
1002
{
1070
   173
1070
     1
1070
     6
1000
_OPEN
1070
     7
1000
_OPEN
1070
    41
1040
2.000000
1070
   272
1070
     2
1070
    47
1040
0.000000
1070
    48
1040
0.050000
1070
    71
1070
     1
1070
   340
1005
AC
1002
}
  0
LINE
  5
3F9
100
AcDbEntity
  8
A0
  6
CENTER
 62
3
100
AcDbLine
 10
390.0000000000000
 20
355.0000000000000
 30
0.0000000000000000
 11
422.4000000953674
 21
355.0000000000000
 31
0.0000000000000000
  0
LINE
  5
3FA
100
AcDbEntity
  8
A0
  6
CENTER
 62
3
100
AcDbLine
 10
428.5000000000000
 20
355.0000000000000
 30
0.0000000000000000
 11
579.7266840207489
 21
355.0000000000000
 31
0.0000000000000000
  0
INSERT
  5
407
100
AcDbEntity
  8
A0
  6
CONTINUOUS
 62
3
100
AcDbBlockReference
  2
*X0
 10
0.0000000000000000
 20
0.0000000000000000
 30
0.0000000000000000
 50
0.0000000000000000
  0
INSERT
  5
414
100
AcDbEntity
  8
A0
  6
CONTINUOUS
 62
3
100
AcDbBlockReference
  2
*X1
 10
0.0000000000000000
 20
0.0000000000000000
 30
0.0000000000000000
 50
0.0000000000000000
  0
INSERT
  5
421
100
AcDbEntity
  8
A0
  6
CONTINUOUS
 62
3
100
AcDbBlockReference
  2
*X2
 10
0.0000000000000000
 20
0.0000000000000000
 30
0.0000000000000000
 50
0.0000000000000000
  0
INSERT
  5
42E
100
AcDbEntity
  8
A0
  6
CONTINUOUS
 62
3
100
AcDbBlockReference
  2
*X3
 10
0.0000000000000000
 20
0.0000000000000000
 30
0.0000000000000000
 50
0.0000000000000000
  0
LINE
  5
42F
100
AcDbEntity
  8
A0
  6
PHANTOM
 62
3
100
AcDbLine
 10
398.0000000000013
 20
364.4000000000000
 30
0.0000000000000000
 11
398.0000000000013
 21
345.6000000000000
 31
0.0000000000000000
  0
LINE
  5
430
100
AcDbEntity
  8
A0
  6
PHANTOM
 62
3
100
AcDbLine
 10
407.4000000000012
 20
365.0000000000000
 30
0.0000000000000000
 11
398.6000000000013
 21
365.0000000000000
 31
0.0000000000000000
  0
LINE
  5
431
100
AcDbEntity
  8
A0
  6
PHANTOM
 62
3
100
AcDbLine
 10
408.0000000000013
 20
364.4000000000000
 30
0.0000000000000000
 11
408.0000000000013
 21
345.6000000000000
 31
0.0000000000000000
  0
LINE
  5
432
100
AcDbEntity
  8
A0
  6
PHANTOM
 62
3
100
AcDbLine
 10
407.4000000000012
 20
345.0000000000000
 30
0.0000000000000000
 11
398.6000000000013
 21
345.0000000000000
 31
0.0000000000000000
  0
LINE
  5
433
100
AcDbEntity
  8
A0
  6
PHANTOM
 62
3
100
AcDbLine
 10
408.0000000000013
 20
360.0000000000000
 30
0.0000000000000000
 11
398.0000000000013
 21
360.0000000000000
 31
0.0000000000000000
  0
LINE
  5
434
100
AcDbEntity
  8
A0
  6
PHANTOM
 62
3
100
AcDbLine
 10
408.0000000000013
 20
350.0000000000000
 30
0.0000000000000000
 11
398.0000000000013
 21
350.0000000000000
 31
0.0000000000000000
  0
LINE
  5
435
100
AcDbEntity
  8
A0
  6
PHANTOM
 62
3
100
AcDbLine
 10
408.0000000000013
 20
364.4000000000000
 30
0.0000000000000000
 11
407.4000000000013
 21
365.0000000000000
 31
0.0000000000000000
  0
LINE
  5
436
100
AcDbEntity
  8
A0
  6
PHANTOM
 62
3
100
AcDbLine
 10
398.6000000000012
 20
365.0000000000001
 30
0.0000000000000000
 11
398.0000000000012
 21
364.4000000000001
 31
0.0000000000000000
  0
LINE
  5
437
100
AcDbEntity
  8
A0
  6
PHANTOM
 62
3
100
AcDbLine
 10
398.0000000000013
 20
345.6000000000000
 30
0.0000000000000000
 11
398.6000000000013
 21
345.0000000000000
 31
0.0000000000000000
  0
LINE
  5
438
100
AcDbEntity
  8
A0
  6
PHANTOM
 62
3
100
AcDbLine
 10
407.4000000000012
 20
345.0000000000001
 30
0.0000000000000000
 11
408.0000000000013
 21
345.6000000000001
 31
0.0000000000000000
  0
LINE
  5
439
100
AcDbEntity
  8
A0
  6
PHANTOM
 62
3
100
AcDbLine
 10
528.0000000000000
 20
364.4000000000000
 30
0.0000000000000000
 11
528.0000000000000
 21
345.6000000000000
 31
0.0000000000000000
  0
LINE
  5
43A
100
AcDbEntity
  8
A0
  6
PHANTOM
 62
3
100
AcDbLine
 10
518.0000000000000
 20
364.4000000000000
 30
0.0000000000000000
 11
518.0000000000000
 21
345.6000000000000
 31
0.0000000000000000
  0
LINE
  5
43B
100
AcDbEntity
  8
A0
  6
PHANTOM
 62
3
100
AcDbLine
 10
518.6000000000000
 20
365.0000000000000
 30
0.0000000000000000
 11
527.4000000000000
 21
365.0000000000000
 31
0.0000000000000000
  0
LINE
  5
43C
100
AcDbEntity
  8
A0
  6
PHANTOM
 62
3
100
AcDbLine
 10
518.6000000000000
 20
345.0000000000000
 30
0.0000000000000000
 11
527.4000000000000
 21
345.0000000000000
 31
0.0000000000000000
  0
LINE
  5
43D
100
AcDbEntity
  8
A0
  6
PHANTOM
 62
3
100
AcDbLine
 10
518.0000000000000
 20
360.0000000000000
 30
0.0000000000000000
 11
528.0000000000000
 21
360.0000000000000
 31
0.0000000000000000
  0
LINE
  5
43E
100
AcDbEntity
  8
A0
  6
PHANTOM
 62
3
100
AcDbLine
 10
518.0000000000000
 20
350.0000000000000
 30
0.0000000000000000
 11
528.0000000000000
 21
350.0000000000000
 31
0.0000000000000000
  0
LINE
  5
43F
100
AcDbEntity
  8
A0
  6
PHANTOM
 62
3
100
AcDbLine
 10
527.4000000000001
 20
365.0000000000000
 30
0.0000000000000000
 11
528.0000000000001
 21
364.4000000000000
 31
0.0000000000000000
  0
LINE
  5
440
100
AcDbEntity
  8
A0
  6
PHANTOM
 62
3
100
AcDbLine
 10
518.5999999999999
 20
365.0000000000000
 30
0.0000000000000000
 11
517.9999999999999
 21
364.4000000000000
 31
0.0000000000000000
  0
LINE
  5
441
100
AcDbEntity
  8
A0
  6
PHANTOM
 62
3
100
AcDbLine
 10
518.0000000000001
 20
345.6000000000001
 30
0.0000000000000000
 11
518.6000000000001
 21
345.0000000000000
 31
0.0000000000000000
  0
LINE
  5
442
100
AcDbEntity
  8
A0
  6
PHANTOM
 62
3
100
AcDbLine
 10
527.3999999999999
 20
345.0000000000000
 30
0.0000000000000000
 11
527.9999999999998
 21
345.6000000000000
 31
0.0000000000000000
  0
LINE
  5
443
100
AcDbEntity
  8
A0
  6
PHANTOM
 62
3
100
AcDbLine
 10
435.0000000000011
 20
361.0000000000000
 30
0.0000000000000000
 11
408.0000000000013
 21
361.0000000000000
 31
0.0000000000000000
  0
LINE
  5
444
100
AcDbEntity
  8
A0
  6
PHANTOM
 62
3
100
AcDbLine
 10
435.0000000000011
 20
349.0000000000000
 30
0.0000000000000000
 11
408.0000000000013
 21
349.0000000000000
 31
0.0000000000000000
  0
INSERT
  5
451
100
AcDbEntity
  8
A0
  6
PHANTOM
 62
3
100
AcDbBlockReference
  2
*X4
 10
0.0000000000000000
 20
0.0000000000000000
 30
0.0000000000000000
 50
0.0000000000000000
  0
INSERT
  5
45E
100
AcDbEntity
  8
A0
  6
PHANTOM
 62
3
100
AcDbBlockReference
  2
*X5
 10
0.0000000000000000
 20
0.0000000000000000
 30
0.0000000000000000
 50
0.0000000000000000
  0
INSERT
  5
46B
100
AcDbEntity
  8
A0
  6
PHANTOM
 62
3
100
AcDbBlockReference
  2
*X6
 10
0.0000000000000000
 20
0.0000000000000000
 30
0.0000000000000000
 50
0.0000000000000000
  0
INSERT
  5
478
100
AcDbEntity
  8
A0
  6
PHANTOM
 62
3
100
AcDbBlockReference
  2
*X7
 10
0.0000000000000000
 20
0.0000000000000000
 30
0.0000000000000000
 50
0.0000000000000000
  0
INSERT
  5
484
100
AcDbEntity
  8
B0
  6
CONTINUOUS
 62
3
100
AcDbBlockReference
  2
M0
 10
0.0000000000000000
 20
0.0000000000000000
 30
0.0000000000000000
 50
0.0000000000000000
  0
MTEXT
  5
485
100
AcDbEntity
  8
B0
  6
CONTINUOUS
 62
3
100
AcDbMText
 10
-17.03330587850175
 20
54.85829659246369
 30
0.0000000000000000
 40
4.649999856948853
 41
0.0000000000000000
 71
     1
 72
     1
  1
{\H0.94x;{本スクロールチャックは円テーブル上で工作物を}}
 11
1.000000000000000
 21
0.0000000000000000
 31
0.0000000000000000
  7
KNJYOKO
  0
MTEXT
  5
486
100
AcDbEntity
  8
B0
  6
CONTINUOUS
 62
3
100
AcDbMText
 10
-17.03330587850175
 20
47.35829659246369
 30
0.0000000000000000
 40
4.649999856948853
 41
0.0000000000000000
 71
     1
 72
     1
  1
{\H0.94x;{把握することに適しています。それ以外の用途の}}
 11
1.000000000000000
 21
0.0000000000000000
 31
0.0000000000000000
  7
KNJYOKO
  0
MTEXT
  5
487
100
AcDbEntity
  8
B0
  6
CONTINUOUS
 62
3
100
AcDbMText
 10
-17.03330587850175
 20
39.85829659246377
 30
0.0000000000000000
 40
4.649999856948853
 41
0.0000000000000000
 71
     1
 72
     1
  1
{\H0.94x;{場合、事前に弊社にご相談下さい。}}
 11
1.000000000000000
 21
0.0000000000000000
 31
0.0000000000000000
  7
KNJYOKO
  0
MTEXT
  5
488
100
AcDbEntity
  8
B0
  6
CONTINUOUS
 62
3
100
AcDbMText
 10
201.6469343422577
 20
-20.01618487050759
 30
0.0000000000000000
 40
4.199998855590820
 41
0.0000000000000000
 71
     7
 72
     1
  1
{　　Kg・m}
 11
1.000000000000000
 21
0.0000000000000000
 31
0.0000000000000000
  7
KNJYOKO
  0
MTEXT
  5
489
100
AcDbEntity
  8
B0
  6
CONTINUOUS
 62
3
100
AcDbMText
 10
219.4469340561554
 20
-17.91618544271218
 30
0.0000000000000000
 40
2.099999427795410
 41
0.0000000000000000
 71
     7
 72
     1
  1
{2}
 11
1.000000000000000
 21
0.0000000000000000
 31
0.0000000000000000
  7
STANDARD
  0
MTEXT
  5
48A
100
AcDbEntity
  8
B0
  6
CONTINUOUS
 62
3
100
AcDbMText
 10
102.7218143860607
 20
-47.14610096961327
 30
0.0000000000000000
 40
4.650000572204590
 41
0.0000000000000000
 71
     1
 72
     1
  1
{\H0.95x;{○上記仕様は許容最大ハンドルトルク締込時の場合}}
 11
1.000000000000000
 21
0.0000000000000000
 31
0.0000000000000000
  7
KNJYOKO
  0
MTEXT
  5
48B
100
AcDbEntity
  8
B0
  6
CONTINUOUS
 62
3
100
AcDbMText
 10
185.1964115377931
 20
24.25970521527027
 30
0.0000000000000000
 40
4.649999856948853
 41
0.0000000000000000
 71
     1
 72
     1
  1
{\H0.81x;{15.0}}
 11
1.000000000000000
 21
0.0000000000000000
 31
0.0000000000000000
  7
STANDARD
  0
MTEXT
  5
48C
100
AcDbEntity
  8
B0
  6
CONTINUOUS
 62
3
100
AcDbMText
 10
185.1964115377931
 20
9.259705215270103
 30
0.0000000000000000
 40
4.649999856948853
 41
0.0000000000000000
 71
     1
 72
     1
  1
{\H0.91x;{3773}}
 11
1.000000000000000
 21
0.0000000000000000
 31
0.0000000000000000
  7
STANDARD
  0
MTEXT
  5
48D
100
AcDbEntity
  8
B0
  6
CONTINUOUS
 62
3
100
AcDbMText
 10
180.6964115377931
 20
31.00970521527027
 30
0.0000000000000000
 40
4.649999856948853
 41
0.0000000000000000
 71
     1
 72
     1
  1
{\H0.90x;{147}}
 11
1.000000000000000
 21
0.0000000000000000
 31
0.0000000000000000
  7
STANDARD
  0
MTEXT
  5
48E
100
AcDbEntity
  8
B0
  6
CONTINUOUS
 62
3
100
AcDbMText
 10
180.6964115377931
 20
16.00970521527010
 30
0.0000000000000000
 40
4.649999856948853
 41
0.0000000000000000
 71
     1
 72
     1
  1
{\H0.88x;{37}}
 11
1.000000000000000
 21
0.0000000000000000
 31
0.0000000000000000
  7
STANDARD
  0
MTEXT
  5
48F
100
AcDbEntity
  8
B0
  6
CONTINUOUS
 62
3
100
AcDbMText
 10
180.6964115377931
 20
-0.7402947847299544
 30
0.0000000000000000
 40
4.649999856948853
 41
0.0000000000000000
 71
     1
 72
     1
  1
{\H0.88x;{22}}
 11
1.000000000000000
 21
0.0000000000000000
 31
0.0000000000000000
  7
STANDARD
  0
MTEXT
  5
490
100
AcDbEntity
  8
B0
  6
CONTINUOUS
 62
3
100
AcDbMText
 10
180.6964115377497
 20
-26.24029478473479
 30
0.0000000000000000
 40
4.649999856948853
 41
0.0000000000000000
 71
     1
 72
     1
  1
{\H0.93x;{\U+22055～\U+2205220}}
 11
1.000000000000000
 21
0.0000000000000000
 31
0.0000000000000000
  7
KNJYOKO
  0
MTEXT
  5
491
100
AcDbEntity
  8
B0
  6
CONTINUOUS
 62
3
100
AcDbMText
 10
180.6964115377497
 20
-36.74029478473484
 30
0.0000000000000000
 40
4.649999856948853
 41
0.0000000000000000
 71
     1
 72
     1
  1
{\H0.93x;{\U+220570～\U+2205210}}
 11
1.000000000000000
 21
0.0000000000000000
 31
0.0000000000000000
  7
KNJYOKO
  0
MTEXT
  5
492
100
AcDbEntity
  8
B0
  6
CONTINUOUS
 62
3
100
AcDbMText
 10
103.7493868681673
 20
-32.74320755060138
 30
0.0000000000000000
 40
3.750000000000000
 41
0.0000000000000000
 71
     1
 72
     1
  1
{\H0.54x;{GRIPPING RANGE}}
 11
1.000000000000000
 21
0.0000000000000000
 31
0.0000000000000000
  7
STANDARD
  0
MTEXT
  5
493
100
AcDbEntity
  8
B0
  6
CONTINUOUS
 62
3
100
AcDbMText
 10
115.3865387306758
 20
-38.84165589903996
 30
0.0000000000000000
 40
4.500000000000000
 41
0.0000000000000000
 71
     1
 72
     1
  1
{\H0.63x;{(mm)}}
 11
1.000000000000000
 21
0.0000000000000000
 31
0.0000000000000000
  7
STANDARD
  0
MTEXT
  5
494
100
AcDbEntity
  8
B0
  6
CONTINUOUS
 62
3
100
AcDbMText
 10
107.5483785028407
 20
-25.15698077823102
 30
0.0000000000000000
 40
4.650000572204590
 41
0.0000000000000000
 71
     1
 72
     1
  1
{\H0.96x;{把握径}}
 11
1.000000000000000
 21
0.0000000000000000
 31
0.0000000000000000
  7
KNJYOKO
  0
MTEXT
  5
495
100
AcDbEntity
  8
B0
  6
CONTINUOUS
 62
3
100
AcDbMText
 10
105.9412712814529
 20
-11.58333645676645
 30
0.0000000000000000
 40
3.750000000000000
 41
0.0000000000000000
 71
     1
 72
     1
  1
{\H0.63x;{慣性モーメント\PMOMENT OF INERTIA\P}
 11
1.000000000000000
 21
0.0000000000000000
 31
0.0000000000000000
  7
KNJYOKO
  0
MTEXT
  5
496
100
AcDbEntity
  8
B0
  6
CONTINUOUS
 62
3
100
AcDbMText
 10
105.9412712814529
 20
1.879838842190779
 30
0.0000000000000000
 40
3.750000000000000
 41
0.0000000000000000
 71
     1
 72
     1
  1
{\H0.63x;{質量\PMASS}}
 11
1.000000000000000
 21
0.0000000000000000
 31
0.0000000000000000
  7
KNJYOKO
  0
MTEXT
  5
497
100
AcDbEntity
  8
B0
  6
CONTINUOUS
 62
3
100
AcDbMText
 10
106.4464115377927
 20
8.734705358356663
 30
0.0000000000000000
 40
3.750000000000000
 41
0.0000000000000000
 71
     1
 72
     1
  1
{\H0.63x;{MAX STATIC GRIPPING FORCE}}
 11
1.000000000000000
 21
0.0000000000000000
 31
0.0000000000000000
  7
STANDARD
  0
MTEXT
  5
498
100
AcDbEntity
  8
B0
  6
CONTINUOUS
 62
3
100
AcDbMText
 10
106.4464115377947
 20
16.38470593057120
 30
0.0000000000000000
 40
4.650000572204590
 41
0.0000000000000000
 71
     1
 72
     1
  1
{\H0.94x;{最大静的把握力}}
 11
1.000000000000000
 21
0.0000000000000000
 31
0.0000000000000000
  7
KNJYOKO
  0
MTEXT
  5
499
100
AcDbEntity
  8
B0
  6
CONTINUOUS
 62
3
100
AcDbMText
 10
106.4464115377948
 20
31.38470593057558
 30
0.0000000000000000
 40
4.650000572204590
 41
0.0000000000000000
 71
     1
 72
     1
  1
{\H0.94x;{許容最大ハンドルトルク}}
 11
1.000000000000000
 21
0.0000000000000000
 31
0.0000000000000000
  7
KNJYOKO
  0
MTEXT
  5
49A
100
AcDbEntity
  8
B0
  6
CONTINUOUS
 62
3
100
AcDbMText
 10
106.4464115377927
 20
23.73470535836110
 30
0.0000000000000000
 40
3.750000000000000
 41
0.0000000000000000
 71
     1
 72
     1
  1
{\H0.62x;{MAX.PERMISSIBLE HANDLE TORQUE}}
 11
1.000000000000000
 21
0.0000000000000000
 31
0.0000000000000000
  7
STANDARD
  0
LINE
  5
49B
100
AcDbEntity
  8
B0
  6
CONTINUOUS
 62
3
100
AcDbLine
 10
102.6964115377930
 20
18.10970535836104
 30
0.0000000000000000
 11
222.6964115377930
 21
18.10970535838833
 31
0.0000000000000000
  0
LINE
  5
49C
100
AcDbEntity
  8
B0
  6
CONTINUOUS
 62
3
100
AcDbLine
 10
102.6964115377929
 20
3.109705358356692
 30
0.0000000000000000
 11
222.6964115377929
 21
3.109705358380950
 31
0.0000000000000000
  0
LINE
  5
49D
100
AcDbEntity
  8
B0
  6
CONTINUOUS
 62
3
100
AcDbLine
 10
102.6964115377930
 20
-8.390294641649305
 30
0.0000000000000000
 11
222.6964115377932
 21
-8.390294641629183
 31
0.0000000000000000
  0
LINE
  5
49E
100
AcDbEntity
  8
B0
  6
CONTINUOUS
 62
3
100
AcDbLine
 10
102.6964115377932
 20
-23.39029464168360
 30
0.0000000000000000
 11
222.6964115377931
 21
-23.39029464168355
 31
0.0000000000000000
  0
MTEXT
  5
49F
100
AcDbEntity
  8
B0
  6
CONTINUOUS
 62
3
100
AcDbMText
 10
133.1600816537981
 20
-23.91368451689978
 30
0.0000000000000000
 40
3.750000000000000
 41
0.0000000000000000
 71
     1
 72
     1
  1
{\H0.60x;{OUTER DIA.\PGRIPPING}}
 11
1.000000000000000
 21
0.0000000000000000
 31
0.0000000000000000
  7
STANDARD
  0
LINE
  5
4A0
100
AcDbEntity
  8
B0
  6
CONTINUOUS
 62
3
100
AcDbLine
 10
131.9464115377931
 20
-44.39029464168358
 30
0.0000000000000000
 11
131.9464115377931
 21
-23.39029464168364
 31
0.0000000000000000
  0
LINE
  5
4A1
100
AcDbEntity
  8
B0
  6
CONTINUOUS
 62
3
100
AcDbLine
 10
102.6964115377932
 20
-44.39029464168370
 30
0.0000000000000000
 11
222.6964115377932
 21
-44.39029464168361
 31
0.0000000000000000
  0
MTEXT
  5
4A2
100
AcDbEntity
  8
B0
  6
CONTINUOUS
 62
3
100
AcDbMText
 10
133.0824675110219
 20
-34.54676314023762
 30
0.0000000000000000
 40
3.750000000000000
 41
0.0000000000000000
 71
     1
 72
     1
  1
{\H0.60x;{INNER DIA.\PGRIPPING}}
 11
1.000000000000000
 21
0.0000000000000000
 31
0.0000000000000000
  7
STANDARD
  0
LINE
  5
4A3
100
AcDbEntity
  8
B0
  6
CONTINUOUS
 62
3
100
AcDbLine
 10
131.9464115377932
 20
-33.89029464168371
 30
0.0000000000000000
 11
222.6964115377930
 21
-33.89029464168362
 31
0.0000000000000000
  0
MTEXT
  5
4A4
100
AcDbEntity
  8
B0
  6
CONTINUOUS
 62
3
100
AcDbMText
 10
156.5218119148811
 20
-36.90653959878866
 30
0.0000000000000000
 40
4.649999856948853
 41
0.0000000000000000
 71
     1
 72
     1
  1
{\H0.92x;{内径把握}}
 11
1.000000000000000
 21
0.0000000000000000
 31
0.0000000000000000
  7
KNJYOKO
  0
MTEXT
  5
4A5
100
AcDbEntity
  8
B0
  6
CONTINUOUS
 62
3
100
AcDbMText
 10
156.5218119148811
 20
-26.19584683267466
 30
0.0000000000000000
 40
4.649999856948853
 41
0.0000000000000000
 71
     1
 72
     1
  1
{\H0.92x;{外径把握}}
 11
1.000000000000000
 21
0.0000000000000000
 31
0.0000000000000000
  7
KNJYOKO
  0
LINE
  5
4A6
100
AcDbEntity
  8
B0
  6
CONTINUOUS
 62
3
100
AcDbLine
 10
177.6964115377931
 20
-44.39029464168364
 30
0.0000000000000000
 11
177.6964115377931
 21
33.10970535839196
 31
0.0000000000000000
  0
LINE
  5
4A7
100
AcDbEntity
  8
B0
  6
CONTINUOUS
 62
3
100
AcDbLine
 10
222.6964115377931
 20
-44.39029464168361
 30
0.0000000000000000
 11
222.6964115377931
 21
53.60970535832141
 31
0.0000000000000000
  0
MTEXT
  5
4A8
100
AcDbEntity
  8
B0
  6
CONTINUOUS
 62
3
100
AcDbMText
 10
200.1964115377931
 20
-2.690295786087987
 30
0.0000000000000000
 40
4.199998855590820
 41
0.0000000000000000
 71
     1
 72
     1
  1
{\H0.58x;{　　　　ｋｇ}}
 11
1.000000000000000
 21
0.0000000000000000
 31
0.0000000000000000
  7
KNJYOKO
  0
MTEXT
  5
4A9
100
AcDbEntity
  8
B0
  6
CONTINUOUS
 62
3
100
AcDbMText
 10
180.6964115377931
 20
8.059704213912070
 30
0.0000000000000000
 40
4.199998855590820
 41
0.0000000000000000
 71
     1
 72
     1
  1
{\H0.48x;{（}}
 11
1.000000000000000
 21
0.0000000000000000
 31
0.0000000000000000
  7
KNJYOKO
  0
MTEXT
  5
4AA
100
AcDbEntity
  8
B0
  6
CONTINUOUS
 62
3
100
AcDbMText
 10
198.6964115377931
 20
8.059704213912070
 30
0.0000000000000000
 40
4.199998855590820
 41
0.0000000000000000
 71
     1
 72
     1
  1
{\H0.58x;{　　　ｋｇｆ）}}
 11
1.000000000000000
 21
0.0000000000000000
 31
0.0000000000000000
  7
KNJYOKO
  0
MTEXT
  5
4AB
100
AcDbEntity
  8
B0
  6
CONTINUOUS
 62
3
100
AcDbMText
 10
200.1964115377931
 20
14.05970421391207
 30
0.0000000000000000
 40
4.199998855590820
 41
0.0000000000000000
 71
     1
 72
     1
  1
{\H0.58x;{　　　　ｋＮ}}
 11
1.000000000000000
 21
0.0000000000000000
 31
0.0000000000000000
  7
KNJYOKO
  0
MTEXT
  5
4AC
100
AcDbEntity
  8
B0
  6
CONTINUOUS
 62
3
100
AcDbMText
 10
198.6964115377931
 20
23.05970421391224
 30
0.0000000000000000
 40
4.199998855590820
 41
0.0000000000000000
 71
     1
 72
     1
  1
{\H0.58x;{　ｋｇｆ・ｍ）}}
 11
1.000000000000000
 21
0.0000000000000000
 31
0.0000000000000000
  7
KNJYOKO
  0
MTEXT
  5
4AD
100
AcDbEntity
  8
B0
  6
CONTINUOUS
 62
3
100
AcDbMText
 10
200.1964115377931
 20
29.05970421391224
 30
0.0000000000000000
 40
4.199998855590820
 41
0.0000000000000000
 71
     1
 72
     1
  1
{\H0.58x;{　　　Ｎ・ｍ}}
 11
1.000000000000000
 21
0.0000000000000000
 31
0.0000000000000000
  7
KNJYOKO
  0
MTEXT
  5
4AE
100
AcDbEntity
  8
B0
  6
CONTINUOUS
 62
3
100
AcDbMText
 10
180.6964115377931
 20
23.05970421391224
 30
0.0000000000000000
 40
4.199998855590820
 41
0.0000000000000000
 71
     1
 72
     1
  1
{\H0.48x;{（}}
 11
1.000000000000000
 21
0.0000000000000000
 31
0.0000000000000000
  7
KNJYOKO
  0
MTEXT
  5
4AF
100
AcDbEntity
  8
B0
  6
CONTINUOUS
 62
3
100
AcDbMText
 10
128.1544997400858
 20
40.60027405402242
 30
0.0000000000000000
 40
4.649999856948853
 41
0.0000000000000000
 71
     1
 72
     1
  1
{\H0.93x;{SPECIFICATIONS}}
 11
1.000000000000000
 21
0.0000000000000000
 31
0.0000000000000000
  7
STANDARD
  0
LINE
  5
4B0
100
AcDbEntity
  8
B0
  6
CONTINUOUS
 62
3
100
AcDbLine
 10
102.6964115377930
 20
33.10970535837100
 30
0.0000000000000000
 11
222.6964115377930
 21
33.10970535840528
 31
0.0000000000000000
  0
LINE
  5
4B1
100
AcDbEntity
  8
B0
  6
CONTINUOUS
 62
3
100
AcDbLine
 10
102.6964115377930
 20
53.60970535837390
 30
0.0000000000000000
 11
222.6964115377931
 21
53.60970535841027
 31
0.0000000000000000
  0
MTEXT
  5
4B2
100
AcDbEntity
  8
B0
  6
CONTINUOUS
 62
3
100
AcDbMText
 10
143.1364676126739
 20
51.91833896221976
 30
0.0000000000000000
 40
7.500000000000000
 41
0.0000000000000000
 71
     1
 72
     1
  1
{\H0.91x;{仕　様}}
 11
1.000000000000000
 21
0.0000000000000000
 31
0.0000000000000000
  7
KNJYOKO
  0
LINE
  5
4B3
100
AcDbEntity
  8
B0
  6
CONTINUOUS
 62
3
100
AcDbLine
 10
102.6964115377931
 20
-44.39029464168370
 30
0.0000000000000000
 11
102.6964115377931
 21
53.60970535832141
 31
0.0000000000000000
  0
MTEXT
  5
4B4
100
AcDbEntity
  8
B0
  6
CONTINUOUS
 62
3
100
AcDbMText
 10
180.6964115377931
 20
-12.49029478472995
 30
0.0000000000000000
 40
4.649999856948853
 41
0.0000000000000000
 71
     1
 72
     1
  1
{\H0.84x;{0.163}}
 11
1.000000000000000
 21
0.0000000000000000
 31
0.0000000000000000
  7
STANDARD
  0
MTEXT
  5
4B5
100
AcDbEntity
  8
B0
  6
CONTINUOUS
 62
3
100
AcDbMText
 10
-17.03330587850175
 20
12.35829659246369
 30
0.0000000000000000
 40
4.649999856948853
 41
0.0000000000000000
 71
     1
 72
     1
  1
{\H0.71x;{This scroll chuck is suitable for}}
 11
1.000000000000000
 21
0.0000000000000000
 31
0.0000000000000000
  7
STANDARD
  0
MTEXT
  5
4B6
100
AcDbEntity
  8
B0
  6
CONTINUOUS
 62
3
100
AcDbMText
 10
-17.03330587850175
 20
4.858296592463688
 30
0.0000000000000000
 40
4.649999856948853
 41
0.0000000000000000
 71
     1
 72
     1
  1
{\H0.71x;{gripping a workpiece on the rotary}}
 11
1.000000000000000
 21
0.0000000000000000
 31
0.0000000000000000
  7
STANDARD
  0
MTEXT
  5
4B7
100
AcDbEntity
  8
B0
  6
CONTINUOUS
 62
3
100
AcDbMText
 10
-17.03330587850175
 20
-2.641703407536227
 30
0.0000000000000000
 40
4.649999856948853
 41
0.0000000000000000
 71
     1
 72
     1
  1
{\H0.69x;{tables. For any other applications,}}
 11
1.000000000000000
 21
0.0000000000000000
 31
0.0000000000000000
  7
STANDARD
  0
INSERT
  5
4C4
100
AcDbEntity
  8
B0
  6
CONTINUOUS
 62
3
100
AcDbBlockReference
  2
M1
 10
0.0000000000000000
 20
0.0000000000000000
 30
0.0000000000000000
 50
0.0000000000000000
  0
MTEXT
  5
4C5
100
AcDbEntity
  8
B0
  6
CONTINUOUS
 62
3
100
AcDbMText
 10
-17.03330587850175
 20
-10.14170340753623
 30
0.0000000000000000
 40
4.649999856948853
 41
0.0000000000000000
 71
     1
 72
     1
  1
{\H0.69x;{please contact us.}}
 11
1.000000000000000
 21
0.0000000000000000
 31
0.0000000000000000
  7
STANDARD
  0
MTEXT
  5
4C6
100
AcDbEntity
  8
B0
  6
CONTINUOUS
 62
3
100
AcDbMText
 10
102.5062242670279
 20
-53.91932327061291
 30
0.0000000000000000
 40
4.500000000000000
 41
0.0000000000000000
 71
     1
 72
     1
  1
{\H0.63x;{ABOVE SPECS :AT MAX PERMISSIBLE HANDLE TORQUE}}
 11
1.000000000000000
 21
0.0000000000000000
 31
0.0000000000000000
  7
STANDARD
  0
LINE
  5
4C7
100
AcDbEntity
  8
WAKU0
  6
CONTINUOUS
 62
3
100
AcDbLine
 10
412.0000000000000
 20
51.00000000000000
 30
0.0000000000000000
 11
582.0000000000000
 21
51.00000000000000
 31
0.0000000000000000
  0
LINE
  5
4C8
100
AcDbEntity
  8
WAKU0
  6
CONTINUOUS
 62
3
100
AcDbLine
 10
412.0000000000000
 20
51.00000000000000
 30
0.0000000000000000
 11
412.0000000000000
 21
12.00000000000000
 31
0.0000000000000000
  0
LINE
  5
4C9
100
AcDbEntity
  8
WAKU0
  6
CONTINUOUS
 62
3
100
AcDbLine
 10
484.0000000000000
 20
51.00000000000000
 30
0.0000000000000000
 11
484.0000000000000
 21
12.00000000000000
 31
0.0000000000000000
  0
LINE
  5
4CA
100
AcDbEntity
  8
WAKU0
  6
CONTINUOUS
 62
3
100
AcDbLine
 10
504.0000000000000
 20
51.00000000000000
 30
0.0000000000000000
 11
504.0000000000000
 21
12.00000000000000
 31
0.0000000000000000
  0
LINE
  5
4CB
100
AcDbEntity
  8
WAKU0
  6
CONTINUOUS
 62
3
100
AcDbLine
 10
516.0000000000000
 20
51.00000000000000
 30
0.0000000000000000
 11
516.0000000000000
 21
12.00000000000000
 31
0.0000000000000000
  0
LINE
  5
4CC
100
AcDbEntity
  8
WAKU0
  6
CONTINUOUS
 62
3
100
AcDbLine
 10
516.0000000000000
 20
37.00000000000000
 30
0.0000000000000000
 11
582.0000000000000
 21
37.00000000000000
 31
0.0000000000000000
  0
LINE
  5
4CD
100
AcDbEntity
  8
WAKU0
  6
CONTINUOUS
 62
3
100
AcDbLine
 10
504.0000000000000
 20
23.00000000000000
 30
0.0000000000000000
 11
582.0000000000000
 21
23.00000000000000
 31
0.0000000000000000
  0
LINE
  5
4CE
100
AcDbEntity
  8
WAKU0
  6
CONTINUOUS
 62
3
100
AcDbLine
 10
547.0000000000000
 20
51.00000000000000
 30
0.0000000000000000
 11
547.0000000000000
 21
44.00000000000000
 31
0.0000000000000000
  0
LINE
  5
4CF
100
AcDbEntity
  8
WAKU0
  6
CONTINUOUS
 62
3
100
AcDbLine
 10
559.0000000000000
 20
51.00000000000000
 30
0.0000000000000000
 11
559.0000000000000
 21
44.00000000000000
 31
0.0000000000000000
  0
LINE
  5
4D0
100
AcDbEntity
  8
WAKU0
  6
CONTINUOUS
 62
3
100
AcDbLine
 10
484.0000000000000
 20
31.50000000000000
 30
0.0000000000000000
 11
504.0000000000000
 21
31.50000000000000
 31
0.0000000000000000
  0
LINE
  5
4D1
100
AcDbEntity
  8
WAKU0
  6
CONTINUOUS
 62
3
100
AcDbLine
 10
504.0000000000000
 20
44.00000000000000
 30
0.0000000000000000
 11
582.0000000000000
 21
44.00000000000000
 31
0.0000000000000000
  0
LINE
  5
4D2
100
AcDbEntity
  8
WAKU0
  6
CONTINUOUS
 62
3
100
AcDbLine
 10
412.0000000000000
 20
37.00000000000000
 30
0.0000000000000000
 11
484.0000000000000
 21
37.00000000000000
 31
0.0000000000000000
  0
LINE
  5
4D3
100
AcDbEntity
  8
WAKU0
  6
CONTINUOUS
 62
3
100
AcDbLine
 10
412.0000000000000
 20
23.00000000000000
 30
0.0000000000000000
 11
484.0000000000000
 21
23.00000000000000
 31
0.0000000000000000
  0
LINE
  5
4D4
100
AcDbEntity
  8
WAKU0
  6
CONTINUOUS
 62
3
100
AcDbLine
 10
460.0000000000000
 20
37.00000000000000
 30
0.0000000000000000
 11
460.0000000000000
 21
12.00000000000000
 31
0.0000000000000000
  0
LINE
  5
4D5
100
AcDbEntity
  8
WAKU0
  6
CONTINUOUS
 62
3
100
AcDbLine
 10
436.0000000000000
 20
37.00000000000000
 30
0.0000000000000000
 11
436.0000000000000
 21
23.00000000000000
 31
0.0000000000000000
  0
LINE
  5
4D6
100
AcDbEntity
  8
WAKU0
  6
CONTINUOUS
 62
3
100
AcDbLine
 10
472.0000000000000
 20
26.00000000000000
 30
0.0000000000000000
 11
472.0000000000000
 21
23.00000000000000
 31
0.0000000000000000
  0
LINE
  5
4D7
100
AcDbEntity
  8
WAKU0
  6
CONTINUOUS
 62
3
100
AcDbLine
 10
448.0000000000000
 20
26.00000000000000
 30
0.0000000000000000
 11
448.0000000000000
 21
23.00000000000000
 31
0.0000000000000000
  0
LINE
  5
4D8
100
AcDbEntity
  8
WAKU0
  6
CONTINUOUS
 62
3
100
AcDbLine
 10
424.0000000000000
 20
26.00000000000000
 30
0.0000000000000000
 11
424.0000000000000
 21
23.00000000000000
 31
0.0000000000000000
  0
LINE
  5
4D9
100
AcDbEntity
  8
WAKU0
  6
CONTINUOUS
 62
3
100
AcDbLine
 10
430.0000000000000
 20
51.00000000000000
 30
0.0000000000000000
 11
430.0000000000000
 21
37.00000000000000
 31
0.0000000000000000
  0
LINE
  5
4DA
100
AcDbEntity
  8
WAKU0
  6
CONTINUOUS
 62
3
100
AcDbLine
 10
412.0000000000000
 20
45.00000000000000
 30
0.0000000000000000
 11
484.0000000000000
 21
45.00000000000000
 31
0.0000000000000000
  0
LINE
  5
4DB
100
AcDbEntity
  8
WAKU0
  6
HIDDEN
 62
3
100
AcDbLine
 10
532.5000000000000
 20
23.00000000000000
 30
0.0000000000000000
 11
532.5000000000000
 21
12.00000000000000
 31
0.0000000000000000
  0
LINE
  5
4DC
100
AcDbEntity
  8
WAKU0
  6
HIDDEN
 62
3
100
AcDbLine
 10
544.9000000000000
 20
23.00000000000000
 30
0.0000000000000000
 11
544.9000000000000
 21
12.00000000000000
 31
0.0000000000000000
  0
MTEXT
  5
4DD
100
AcDbEntity
  8
WAKU0
  6
CONTINUOUS
 62
3
100
AcDbMText
 10
516.4820000243485
 20
49.04999995231628
 30
0.0000000000000000
 40
3.099999904632568
 41
0.0000000000000000
 71
     1
 72
     1
  1
{\H0.92x;{JN09TN}}
 11
1.000000000000000
 21
0.0000000000000000
 31
0.0000000000000000
  7
STANDARD
  0
MTEXT
  5
4DE
100
AcDbEntity
  8
WAKU0
  6
CONTINUOUS
 62
3
100
AcDbMText
 10
516.4659999916852
 20
43.50000000000000
 30
0.0000000000000000
 40
3.000000000000000
 41
0.0000000000000000
 71
     1
 72
     1
  1
{\H0.94x;{スクロールチャック　９\PＳＣＲＯＬＬ　ＣＨＵＣＫ　９}}
 11
1.000000000000000
 21
0.0000000000000000
 31
0.0000000000000000
  7
KNJYOKO
  0
MTEXT
  5
4DF
100
AcDbEntity
  8
WAKU0
  6
CONTINUOUS
 62
3
100
AcDbMText
 10
516.4000000059605
 20
34.23333326975504
 30
0.0000000000000000
 40
3.099999904632568
 41
0.0000000000000000
 71
     1
 72
     1
  1
{\H0.70x;{ＪＮ０９ＴＮ　ガイケイ\PＪＮ０９ＴＮ　ＯＵＴＳＩＤＥ　ＶＩＥＷ}}
 11
1.000000000000000
 21
0.0000000000000000
 31
0.0000000000000000
  7
KNJYOKO
  0
MTEXT
  5
4E0
100
AcDbEntity
  8
WAKU0
  6
CONTINUOUS
 62
3
100
AcDbMText
 10
490.0049998760223
 20
39.29999995231628
 30
0.0000000000000000
 40
3.099999904632568
 41
0.0000000000000000
 71
     1
 72
     1
  1
{\H0.90x;{1:1}}
 11
1.000000000000000
 21
0.0000000000000000
 31
0.0000000000000000
  7
STANDARD
  0
MTEXT
  5
4E1
100
AcDbEntity
  8
WAKU0
  6
CONTINUOUS
 62
3
100
AcDbMText
 10
546.4000001549721
 20
20.15000009536743
 30
0.0000000000000000
 40
5.300000190734863
 41
0.0000000000000000
 71
     1
 72
     1
  1
{\H0.90x;{6861}}
 11
1.000000000000000
 21
0.0000000000000000
 31
0.0000000000000000
  7
STANDARD
  0
MTEXT
  5
4E2
100
AcDbEntity
  8
WAKU0
  6
CONTINUOUS
 62
3
100
AcDbMText
 10
534.3000000834466
 20
20.15000009536743
 30
0.0000000000000000
 40
5.300000190734863
 41
0.0000000000000000
 71
     1
 72
     1
  1
{\H0.87x;{28}}
 11
1.000000000000000
 21
0.0000000000000000
 31
0.0000000000000000
  7
STANDARD
  0
MTEXT
  5
4E3
100
AcDbEntity
  8
WAKU0
  6
CONTINUOUS
 62
3
100
AcDbMText
 10
517.5000001192093
 20
20.15000009536743
 30
0.0000000000000000
 40
5.300000190734863
 41
0.0000000000000000
 71
     1
 72
     1
  1
{\H0.89x;{61S}}
 11
1.000000000000000
 21
0.0000000000000000
 31
0.0000000000000000
  7
STANDARD
  0
MTEXT
  5
4E4
100
AcDbEntity
  8
WAKU0
  6
CONTINUOUS
 62
3
100
AcDbMText
 10
572.0000000476837
 20
20.15000009536743
 30
0.0000000000000000
 40
5.300000190734863
 41
0.0000000000000000
 71
     1
 72
     1
  1
{\H0.81x;{0}}
 11
1.000000000000000
 21
0.0000000000000000
 31
0.0000000000000000
  7
STANDARD
  0
MTEXT
  5
4E5
100
AcDbEntity
  8
WAKU0
  6
CONTINUOUS
 62
3
100
AcDbMText
 10
572.0000000819564
 20
44.84999990463257
 30
0.0000000000000000
 40
5.300000190734863
 41
0.0000000000000000
 71
     7
 72
     1
  1
{\H0.81x;{ }}
 11
1.000000000000000
 21
0.0000000000000000
 31
0.0000000000000000
  7
STANDARD
  0
MTEXT
  5
4E6
100
AcDbEntity
  8
WAKU0
  6
CONTINUOUS
 62
3
100
AcDbMText
 10
461.3850002884865
 20
33.00000000000000
 30
0.0000000000000000
 40
3.000000000000000
 41
0.0000000000000000
 71
     7
 72
     1
  1
{\H0.93x;{DRAWN BY}}
 11
1.000000000000000
 21
0.0000000000000000
 31
0.0000000000000000
  7
STANDARD
  0
MTEXT
  5
4E7
100
AcDbEntity
  8
WAKU0
  6
CONTINUOUS
 62
3
100
AcDbMText
 10
441.2149997949600
 20
32.95000004768372
 30
0.0000000000000000
 40
3.099999904632568
 41
0.0000000000000000
 71
     7
 72
     1
  1
{\H0.92x;{CHIEF}}
 11
1.000000000000000
 21
0.0000000000000000
 31
0.0000000000000000
  7
STANDARD
  0
MTEXT
  5
4E8
100
AcDbEntity
  8
WAKU0
  6
CONTINUOUS
 62
3
100
AcDbMText
 10
414.4249997138977
 20
32.95000004768372
 30
0.0000000000000000
 40
3.099999904632568
 41
0.0000000000000000
 71
     7
 72
     1
  1
{\H0.92x;{MANAGER}}
 11
1.000000000000000
 21
0.0000000000000000
 31
0.0000000000000000
  7
STANDARD
  0
MTEXT
  5
4E9
100
AcDbEntity
  8
WAKU0
  6
CONTINUOUS
 62
3
100
AcDbMText
 10
413.0850002169609
 20
46.50000000000000
 30
0.0000000000000000
 40
3.000000000000000
 41
0.0000000000000000
 71
     7
 72
     1
  1
{\H0.92x;{CAREER}}
 11
1.000000000000000
 21
0.0000000000000000
 31
0.0000000000000000
  7
STANDARD
  0
MTEXT
  5
4EA
100
AcDbEntity
  8
WAKU0
  6
CONTINUOUS
 62
3
100
AcDbMText
 10
466.6099998354912
 20
18.95000004768372
 30
0.0000000000000000
 40
3.099999904632568
 41
0.0000000000000000
 71
     7
 72
     1
  1
{\H0.91x;{DATE}}
 11
1.000000000000000
 21
0.0000000000000000
 31
0.0000000000000000
  7
STANDARD
  0
MTEXT
  5
4EB
100
AcDbEntity
  8
WAKU0
  6
CONTINUOUS
 62
3
100
AcDbMText
 10
485.9000002145767
 20
26.50000000000000
 30
0.0000000000000000
 40
3.000000000000000
 41
0.0000000000000000
 71
     7
 72
     1
  1
{\H0.63x;{3RD ANGLE}}
 11
1.000000000000000
 21
0.0000000000000000
 31
0.0000000000000000
  7
STANDARD
  0
MTEXT
  5
4EC
100
AcDbEntity
  8
WAKU0
  6
CONTINUOUS
 62
3
100
AcDbMText
 10
487.2149997949600
 20
45.95000004768372
 30
0.0000000000000000
 40
3.099999904632568
 41
0.0000000000000000
 71
     7
 72
     1
  1
{\H0.92x;{SCALE}}
 11
1.000000000000000
 21
0.0000000000000000
 31
0.0000000000000000
  7
STANDARD
  0
MTEXT
  5
4ED
100
AcDbEntity
  8
WAKU0
  6
CONTINUOUS
 62
3
100
AcDbMText
 10
577.7000000476837
 20
46.00000000000000
 30
0.0000000000000000
 40
3.000000000000000
 41
0.0000000000000000
 71
     7
 72
     1
  1
{\H0.63x;{kg}}
 11
1.000000000000000
 21
0.0000000000000000
 31
0.0000000000000000
  7
STANDARD
  0
MTEXT
  5
4EE
100
AcDbEntity
  8
WAKU0
  6
CONTINUOUS
 62
3
100
AcDbMText
 10
547.6000001430512
 20
46.00000000000000
 30
0.0000000000000000
 40
3.000000000000000
 41
0.0000000000000000
 71
     7
 72
     1
  1
{\H0.63x;{WEIGHT}}
 11
1.000000000000000
 21
0.0000000000000000
 31
0.0000000000000000
  7
STANDARD
  0
MTEXT
  5
4EF
100
AcDbEntity
  8
WAKU0
  6
CONTINUOUS
 62
3
100
AcDbMText
 10
506.0049998760223
 20
18.13333336512248
 30
0.0000000000000000
 40
3.099999904632568
 41
0.0000000000000000
 71
     7
 72
     1
  1
{\H0.90x;{DRW\PNO.}}
 11
1.000000000000000
 21
0.0000000000000000
 31
0.0000000000000000
  7
STANDARD
  0
MTEXT
  5
4F0
100
AcDbEntity
  8
WAKU0
  6
CONTINUOUS
 62
3
100
AcDbMText
 10
504.6099998354912
 20
31.95000004768372
 30
0.0000000000000000
 40
3.099999904632568
 41
0.0000000000000000
 71
     7
 72
     1
  1
{\H0.91x;{NAME}}
 11
1.000000000000000
 21
0.0000000000000000
 31
0.0000000000000000
  7
STANDARD
  0
MTEXT
  5
4F1
100
AcDbEntity
  8
WAKU0
  6
CONTINUOUS
 62
3
100
AcDbMText
 10
504.6099998354912
 20
45.95000004768372
 30
0.0000000000000000
 40
3.099999904632568
 41
0.0000000000000000
 71
     7
 72
     1
  1
{\H0.91x;{TYPE}}
 11
1.000000000000000
 21
0.0000000000000000
 31
0.0000000000000000
  7
STANDARD
  0
LINE
  5
4F2
100
AcDbEntity
  8
WAKU0
  6
HIDDEN
 62
3
100
AcDbLine
 10
579.1599564743885
 20
13.84999990463257
 30
0.0000000000000000
 11
568.9400436209789
 21
13.84999990463257
 31
0.0000000000000000
  0
LINE
  5
4F3
100
AcDbEntity
  8
WAKU0
  6
HIDDEN
 62
3
100
AcDbLine
 10
579.1599564743885
 20
13.84999990463250
 30
0.0000000000000000
 11
574.0500000476851
 21
22.70070406014901
 31
0.0000000000000000
  0
LINE
  5
4F4
100
AcDbEntity
  8
WAKU0
  6
HIDDEN
 62
3
100
AcDbLine
 10
574.0500000476851
 20
22.70070406014902
 30
0.0000000000000000
 11
568.9400436209789
 21
13.84999990463248
 31
0.0000000000000000
  0
MTEXT
  5
4F5
100
AcDbEntity
  8
WAKU0
  6
CONTINUOUS
 62
3
100
AcDbMText
 10
419.0000009614873
 20
20.63471521698214
 30
0.0000000000000000
 40
3.140094041824341
 41
0.0000000000000000
 71
     1
 72
     1
  1
{\H0.83x;{Ｋｉｔａｇａｗａ\PＣｏｒｐｏｒａｔｉｏｎ}}
 11
1.000000000000000
 21
0.0000000000000000
 31
0.0000000000000000
  7
KNJYOKO
  0
LINE
  5
4F6
100
AcDbEntity
  8
WAKU0
  6
CONTINUOUS
 62
3
100
AcDbLine
 10
502.4713877753800
 20
15.78041421262812
 30
0.0000000000000000
 11
502.4713877753800
 21
21.78041421262815
 31
0.0000000000000000
  0
LINE
  5
4F7
100
AcDbEntity
  8
WAKU0
  6
CONTINUOUS
 62
3
100
AcDbLine
 10
495.9336941228225
 20
17.28041421262811
 30
0.0000000000000000
 11
495.9336941228225
 21
20.28041421262824
 31
0.0000000000000000
  0
LINE
  5
4F8
100
AcDbEntity
  8
WAKU0
  6
CENTER
 62
12
100
AcDbLine
 10
485.4321805514995
 20
18.78041421262813
 30
0.0000000000000000
 11
503.2765788964694
 21
18.78041421262813
 31
0.0000000000000000
  0
LINE
  5
4F9
100
AcDbEntity
  8
WAKU0
  6
CENTER
 62
12
100
AcDbLine
 10
489.4474565857986
 20
14.55921662918448
 30
0.0000000000000000
 11
489.4474565857986
 21
22.89865102149943
 31
0.0000000000000000
  0
LINE
  5
4FA
100
AcDbEntity
  8
WAKU0
  6
CONTINUOUS
 62
3
100
AcDbLine
 10
495.9336941228225
 20
20.28041421262797
 30
0.0000000000000000
 11
502.4713877753800
 21
21.78041421262795
 31
0.0000000000000000
  0
LINE
  5
4FB
100
AcDbEntity
  8
WAKU0
  6
CONTINUOUS
 62
3
100
AcDbLine
 10
495.9336941228225
 20
17.28041421262811
 30
0.0000000000000000
 11
502.4713877753799
 21
15.78041421262812
 31
0.0000000000000000
  0
CIRCLE
  5
4FC
100
AcDbEntity
  8
WAKU0
  6
CONTINUOUS
 62
3
100
AcDbCircle
 10
489.4474565857986
 20
18.78041421262813
 30
0.0000000000000000
 40
1.499999999999972
  0
CIRCLE
  5
4FD
100
AcDbEntity
  8
WAKU0
  6
CONTINUOUS
 62
3
100
AcDbCircle
 10
489.4474565857986
 20
18.78041421262813
 30
0.0000000000000000
 40
2.999999999999979
  0
ENDSEC
  0
SECTION
  2
OBJECTS
  0
DICTIONARY
  5
55C
100
AcDbDictionary
  3
ACAD_GROUP
350
55D
  3
ACAD_MLINESTYLE
350
55E
  3
DWGPROPS
350
55F
  0
DICTIONARY
  5
55D
102
{ACAD_REACTORS
330
55C
102
}
100
AcDbDictionary
  0
DICTIONARY
  5
55E
102
{ACAD_REACTORS
330
55C
102
}
100
AcDbDictionary
  3
STANDARD
350
560
  0
MLINESTYLE
  5
560
102
{ACAD_REACTORS
330
55E
102
}
100
AcDbMlineStyle
  2
STANDARD
 70
     0
  3

 62
   256
 51
90.00
 52
90.00
 71
     2
 49
0.50
 62
   256
  6
BYLAYER
 49
-0.50
 62
   256
  6
BYLAYER
  0
XRECORD
  5
55F
102
{ACAD_REACTORS
330
55C
102
}
100
AcDbXrecord
280
     1
  1
DWGPROPS COOKIE
  2
ＪＮ０９Ｔ１０２　クミタテ
  3

  4

  6
スクロールチャック　９
  7

  8

  9

300
=
301
=
302
=
303
=
304
=
305
=
306
=
307
=
308
=
309
=
 40
0.000000
 41
0.000000
 42
0.000000
  1

 90
        0
  0
ENDSEC
  0
EOF
