  0
SECTION
  2
HEADER
  9
$ACADVER
  1
AC1014
  9
$DWGCODEPAGE
  3
ANSI_932
  9
$LTSCALE
 40
20.0
  9
$FILLMODE
 70
     1
  9
$CLAYER
  8
0
  9
$PDMODE
 70
     0
  9
$SPLFRAME
 70
     0
  9
$SPLINETYPE
 70
     6
  9
$SPLINESEGS
 70
     8
  9
$DIMASZ
 40
2.000000
  9
$DIMEXE
 40
2.000000
  9
$DIMEXO
 40
0.800000
  9
$DIMTAD
 70
     1
  9
$DIMTIH
 70
     0
  9
$DIMTOH
 70
     0
  9
$DIMTVP
 40
0.500000
  9
$DIMTXT
 40
3.100000
  9
$EXTMIN
 10
0.000000
 20
0.000000
 30
0.000000
  9
$EXTMAX
 10
420.000000
 20
594.000000
 30
0.000000
  9
$MEASUREMENT
 70
  1
  9
$LIMMIN
 10
0.000000
 20
0.000000
  9
$LIMMAX
 10
420.000000
 20
594.000000
  9
$HANDLING
 70
     1
  9
$HANDSEED
  5
560
  9
$DIMBLK
  1
_OPEN
  9
$DIMDEC
 70
     3
  9
$DIMAUNIT
 70
     1
  9
$DIMZIN
 70
     8
  9
$DIMTOFL
 70
     1
  0
ENDSEC
  0
SECTION
  2
CLASSES
  0
ENDSEC
  0
SECTION
  2
TABLES
  0
TABLE
  2
VPORT
  5
501
100
AcDbSymbolTable
 70
     1
  0
VPORT
  5
502
100
AcDbSymbolTableRecord
100
AcDbViewportTableRecord
  2
*ACTIVE
 70
     0
 12
484.805347
 22
255.759064
 40
640.816546
 41
1.159144
  0
ENDTAB
  0
TABLE
  2
LTYPE
  5
503
100
AcDbSymbolTable
 70
     4
  0
LTYPE
  5
504
100
AcDbSymbolTableRecord
100
AcDbLinetypeTableRecord
  2
BYBLOCK
 70
     0
  3

 72
    65
 73
     0
 40
0.0
  0
LTYPE
  5
505
100
AcDbSymbolTableRecord
100
AcDbLinetypeTableRecord
  2
BYLAYER
 70
     0
  3

 72
    65
 73
     0
 40
0.0
  0
LTYPE
  5
506
100
AcDbSymbolTableRecord
100
AcDbLinetypeTableRecord
  2
CONTINUOUS
 70
     0
  3
Solid line (NEC CAE2D for Win R12.1 : 2019.02.20)
 72
    65
 73
     0
 40
0.0
  0
LTYPE
  5
507
100
AcDbSymbolTableRecord
100
AcDbLinetypeTableRecord
  2
HIDDEN
 70
     0
  3
__ __ __ __ __ __ __ __ __ __ __ __ __ __
 72
    65
 73
     2
 40
0.375
 49
0.25
 74
     0
 49
-0.125
 74
     0
  0
LTYPE
  5
508
100
AcDbSymbolTableRecord
100
AcDbLinetypeTableRecord
  2
CENTER
 70
     0
  3
____ _ ____ _ ____ _ ____ _ ____ _ ____
 72
    65
 73
     4
 40
2.0
 49
1.25
 74
     0
 49
-0.25
 74
     0
 49
0.25
 74
     0
 49
-0.25
 74
     0
  0
LTYPE
  5
509
100
AcDbSymbolTableRecord
100
AcDbLinetypeTableRecord
  2
PHANTOM
 70
     0
  3
______  __  __  ______  __  __  ______ 
 72
    65
 73
     6
 40
2.5
 49
1.25
 74
     0
 49
-0.25
 74
     0
 49
0.25
 74
     0
 49
-0.25
 74
     0
 49
0.25
 74
     0
 49
-0.25
 74
     0
  0
ENDTAB
  0
TABLE
  2
LAYER
  5
50A
100
AcDbSymbolTable
 70
    17
  0
LAYER
  5
50B
100
AcDbSymbolTableRecord
100
AcDbLayerTableRecord
  2
0
 70
     0
 62
     7
  6
CONTINUOUS
  0
LAYER
  5
50C
100
AcDbSymbolTableRecord
100
AcDbLayerTableRecord
  2
MAIN0
 70
     0
 62
     7
  6
CONTINUOUS
  0
LAYER
  5
50D
100
AcDbSymbolTableRecord
100
AcDbLayerTableRecord
  2
MAIN1
 70
     0
 62
     7
  6
CONTINUOUS
  0
LAYER
  5
50E
100
AcDbSymbolTableRecord
100
AcDbLayerTableRecord
  2
MAIN1023
 70
     0
 62
    16
  6
CONTINUOUS
  0
LAYER
  5
50F
100
AcDbSymbolTableRecord
100
AcDbLayerTableRecord
  2
A0
 70
     0
 62
     7
  6
CONTINUOUS
  0
LAYER
  5
510
100
AcDbSymbolTableRecord
100
AcDbLayerTableRecord
  2
A1
 70
     0
 62
     7
  6
CONTINUOUS
  0
LAYER
  5
511
100
AcDbSymbolTableRecord
100
AcDbLayerTableRecord
  2
A2
 70
     0
 62
     5
  6
CONTINUOUS
  0
LAYER
  5
512
100
AcDbSymbolTableRecord
100
AcDbLayerTableRecord
  2
A3
 70
     0
 62
    14
  6
CONTINUOUS
  0
LAYER
  5
513
100
AcDbSymbolTableRecord
100
AcDbLayerTableRecord
  2
A4
 70
     0
 62
     9
  6
CONTINUOUS
  0
LAYER
  5
514
100
AcDbSymbolTableRecord
100
AcDbLayerTableRecord
  2
A5
 70
     0
 62
     9
  6
CONTINUOUS
  0
LAYER
  5
515
100
AcDbSymbolTableRecord
100
AcDbLayerTableRecord
  2
A6
 70
     0
 62
    10
  6
CONTINUOUS
  0
LAYER
  5
516
100
AcDbSymbolTableRecord
100
AcDbLayerTableRecord
  2
A7
 70
     0
 62
     7
  6
CONTINUOUS
  0
LAYER
  5
517
100
AcDbSymbolTableRecord
100
AcDbLayerTableRecord
  2
A8
 70
     0
 62
    12
  6
CONTINUOUS
  0
LAYER
  5
518
100
AcDbSymbolTableRecord
100
AcDbLayerTableRecord
  2
A9
 70
     0
 62
     8
  6
CONTINUOUS
  0
LAYER
  5
519
100
AcDbSymbolTableRecord
100
AcDbLayerTableRecord
  2
A1023
 70
     0
 62
    16
  6
CONTINUOUS
  0
LAYER
  5
51A
100
AcDbSymbolTableRecord
100
AcDbLayerTableRecord
  2
WAKU0
 70
     0
 62
     7
  6
CONTINUOUS
  0
LAYER
  5
51B
100
AcDbSymbolTableRecord
100
AcDbLayerTableRecord
  2
WAKU1023
 70
     0
 62
    16
  6
CONTINUOUS
  0
ENDTAB
  0
TABLE
  2
STYLE
  5
51C
100
AcDbSymbolTable
 70
     4
  0
STYLE
  5
51D
100
AcDbSymbolTableRecord
100
AcDbTextStyleTableRecord
  2
STANDARD
 70
    64
 40
0.0
 41
1.0
 50
0.0
 71
     0
 42
3.140094041824341
  3
TXT
  4

  0
STYLE
  5
51E
100
AcDbSymbolTableRecord
100
AcDbTextStyleTableRecord
  2
ANKTATE
 70
    68
 40
0.0
 41
1.0
 50
0.0
 71
     0
 42
3.140094041824341
  3
TXT
  4

  0
STYLE
  5
E6
100
AcDbSymbolTableRecord
100
AcDbTextStyleTableRecord
  2
KNJYOKO
 70
    64
 40
0.0
 41
1.0
 50
0.0
 71
     0
 42
3.140094041824341
  3
TXT
  4
BIGFONT
  0
STYLE
  5
51F
100
AcDbSymbolTableRecord
100
AcDbTextStyleTableRecord
  2
KNJTATE
 70
    68
 40
0.0
 41
1.0
 50
0.0
 71
     0
 42
3.140094041824341
  3
TXT
  4
BIGFONT
  0
ENDTAB
  0
TABLE
  2
VIEW
  5
520
100
AcDbSymbolTable
 70
     0
  0
ENDTAB
  0
TABLE
  2
UCS
  5
521
100
AcDbSymbolTable
 70
     0
  0
ENDTAB
  0
TABLE
  2
APPID
  5
522
100
AcDbSymbolTable
 70
     1
  0
APPID
  5
523
100
AcDbSymbolTableRecord
100
AcDbRegAppTableRecord
  2
ACAD
 70
     0
  0
ENDTAB
  0
TABLE
  2
DIMSTYLE
  5
524
100
AcDbSymbolTable
 70
     1
  0
DIMSTYLE
105
525
100
AcDbSymbolTableRecord
100
AcDbDimStyleTableRecord
  2
STANDARD
 70
     0
 41
2.000000
 44
2.000000
 42
0.800000
145
0.661290
140
3.100000
144
1.000000
146
0.903226
340
51D
  0
DIMSTYLE
105
526
100
AcDbSymbolTableRecord
100
AcDbDimStyleTableRecord
  2
MAIN001
 70
     0
 41
3.000000
 44
3.000000
 42
1.200000
145
0.607527
140
4.650000
144
1.000000
146
0.903226
 77
     1
 73
     0
 74
     0
271
     3
275
     1
 78
     8
172
     1
340
51D
  0
DIMSTYLE
105
527
100
AcDbSymbolTableRecord
100
AcDbDimStyleTableRecord
  2
A002
 70
     0
 41
3.000000
 44
3.000000
 42
1.200000
145
0.607527
140
4.650000
144
1.000000
146
0.903226
 77
     1
 73
     0
 74
     0
271
     3
275
     1
 78
     8
172
     1
340
51D
  0
DIMSTYLE
105
528
100
AcDbSymbolTableRecord
100
AcDbDimStyleTableRecord
  2
WAKU003
 70
     0
 41
2.000000
 44
2.000000
 42
0.800000
145
0.661290
140
3.100000
144
1.000000
146
0.903226
 77
     1
 73
     0
 74
     0
271
     3
275
     1
 78
     8
172
     1
340
51D
  0
ENDTAB
  0
TABLE
  2
BLOCK_RECORD
  5
529
100
AcDbSymbolTable
 70
    56
  0
BLOCK_RECORD
  5
52A
100
AcDbSymbolTableRecord
100
AcDbBlockTableRecord
  2
*MODEL_SPACE
  0
BLOCK_RECORD
  5
52B
100
AcDbSymbolTableRecord
100
AcDbBlockTableRecord
  2
*PAPER_SPACE
  0
BLOCK_RECORD
  5
1
100
AcDbSymbolTableRecord
100
AcDbBlockTableRecord
  2
_NONE
  0
BLOCK_RECORD
  5
4
100
AcDbSymbolTableRecord
100
AcDbBlockTableRecord
  2
_CLOSED
  0
BLOCK_RECORD
  5
B
100
AcDbSymbolTableRecord
100
AcDbBlockTableRecord
  2
_DOT
  0
BLOCK_RECORD
  5
13
100
AcDbSymbolTableRecord
100
AcDbBlockTableRecord
  2
_OPEN
  0
BLOCK_RECORD
  5
19
100
AcDbSymbolTableRecord
100
AcDbBlockTableRecord
  2
_ORIGIN
  0
BLOCK_RECORD
  5
1E
100
AcDbSymbolTableRecord
100
AcDbBlockTableRecord
  2
_OPEN30
  0
BLOCK_RECORD
  5
24
100
AcDbSymbolTableRecord
100
AcDbBlockTableRecord
  2
_BOXFILLED
  0
BLOCK_RECORD
  5
29
100
AcDbSymbolTableRecord
100
AcDbBlockTableRecord
  2
_BOXBLANK
  0
BLOCK_RECORD
  5
31
100
AcDbSymbolTableRecord
100
AcDbBlockTableRecord
  2
_OBLIQUE
  0
BLOCK_RECORD
  5
35
100
AcDbSymbolTableRecord
100
AcDbBlockTableRecord
  2
_OPEN90
  0
BLOCK_RECORD
  5
3B
100
AcDbSymbolTableRecord
100
AcDbBlockTableRecord
  2
_CLOSEDBLANK
  0
BLOCK_RECORD
  5
41
100
AcDbSymbolTableRecord
100
AcDbBlockTableRecord
  2
_DOTBLANK
  0
BLOCK_RECORD
  5
52C
100
AcDbSymbolTableRecord
100
AcDbBlockTableRecord
  2
*D0
  0
BLOCK_RECORD
  5
52D
100
AcDbSymbolTableRecord
100
AcDbBlockTableRecord
  2
*D1
  0
BLOCK_RECORD
  5
52E
100
AcDbSymbolTableRecord
100
AcDbBlockTableRecord
  2
*D2
  0
BLOCK_RECORD
  5
52F
100
AcDbSymbolTableRecord
100
AcDbBlockTableRecord
  2
*D3
  0
BLOCK_RECORD
  5
530
100
AcDbSymbolTableRecord
100
AcDbBlockTableRecord
  2
*D4
  0
BLOCK_RECORD
  5
531
100
AcDbSymbolTableRecord
100
AcDbBlockTableRecord
  2
*D5
  0
BLOCK_RECORD
  5
532
100
AcDbSymbolTableRecord
100
AcDbBlockTableRecord
  2
*D6
  0
BLOCK_RECORD
  5
533
100
AcDbSymbolTableRecord
100
AcDbBlockTableRecord
  2
*D7
  0
BLOCK_RECORD
  5
534
100
AcDbSymbolTableRecord
100
AcDbBlockTableRecord
  2
*D8
  0
BLOCK_RECORD
  5
535
100
AcDbSymbolTableRecord
100
AcDbBlockTableRecord
  2
*D9
  0
BLOCK_RECORD
  5
536
100
AcDbSymbolTableRecord
100
AcDbBlockTableRecord
  2
*D10
  0
BLOCK_RECORD
  5
537
100
AcDbSymbolTableRecord
100
AcDbBlockTableRecord
  2
*D11
  0
BLOCK_RECORD
  5
538
100
AcDbSymbolTableRecord
100
AcDbBlockTableRecord
  2
*D12
  0
BLOCK_RECORD
  5
539
100
AcDbSymbolTableRecord
100
AcDbBlockTableRecord
  2
*D13
  0
BLOCK_RECORD
  5
53A
100
AcDbSymbolTableRecord
100
AcDbBlockTableRecord
  2
*D14
  0
BLOCK_RECORD
  5
53B
100
AcDbSymbolTableRecord
100
AcDbBlockTableRecord
  2
*D15
  0
BLOCK_RECORD
  5
53C
100
AcDbSymbolTableRecord
100
AcDbBlockTableRecord
  2
*D16
  0
BLOCK_RECORD
  5
53D
100
AcDbSymbolTableRecord
100
AcDbBlockTableRecord
  2
*D17
  0
BLOCK_RECORD
  5
53E
100
AcDbSymbolTableRecord
100
AcDbBlockTableRecord
  2
*D18
  0
BLOCK_RECORD
  5
53F
100
AcDbSymbolTableRecord
100
AcDbBlockTableRecord
  2
*D19
  0
BLOCK_RECORD
  5
540
100
AcDbSymbolTableRecord
100
AcDbBlockTableRecord
  2
*D20
  0
BLOCK_RECORD
  5
541
100
AcDbSymbolTableRecord
100
AcDbBlockTableRecord
  2
*D21
  0
BLOCK_RECORD
  5
542
100
AcDbSymbolTableRecord
100
AcDbBlockTableRecord
  2
*D22
  0
BLOCK_RECORD
  5
543
100
AcDbSymbolTableRecord
100
AcDbBlockTableRecord
  2
*D23
  0
BLOCK_RECORD
  5
544
100
AcDbSymbolTableRecord
100
AcDbBlockTableRecord
  2
*D24
  0
BLOCK_RECORD
  5
545
100
AcDbSymbolTableRecord
100
AcDbBlockTableRecord
  2
*D25
  0
BLOCK_RECORD
  5
546
100
AcDbSymbolTableRecord
100
AcDbBlockTableRecord
  2
*D26
  0
BLOCK_RECORD
  5
547
100
AcDbSymbolTableRecord
100
AcDbBlockTableRecord
  2
*D27
  0
BLOCK_RECORD
  5
548
100
AcDbSymbolTableRecord
100
AcDbBlockTableRecord
  2
*D28
  0
BLOCK_RECORD
  5
549
100
AcDbSymbolTableRecord
100
AcDbBlockTableRecord
  2
*D29
  0
BLOCK_RECORD
  5
54A
100
AcDbSymbolTableRecord
100
AcDbBlockTableRecord
  2
*D30
  0
BLOCK_RECORD
  5
54B
100
AcDbSymbolTableRecord
100
AcDbBlockTableRecord
  2
*D31
  0
BLOCK_RECORD
  5
54C
100
AcDbSymbolTableRecord
100
AcDbBlockTableRecord
  2
*D32
  0
BLOCK_RECORD
  5
54D
100
AcDbSymbolTableRecord
100
AcDbBlockTableRecord
  2
*D33
  0
BLOCK_RECORD
  5
54E
100
AcDbSymbolTableRecord
100
AcDbBlockTableRecord
  2
*X0
  0
BLOCK_RECORD
  5
54F
100
AcDbSymbolTableRecord
100
AcDbBlockTableRecord
  2
*X1
  0
BLOCK_RECORD
  5
550
100
AcDbSymbolTableRecord
100
AcDbBlockTableRecord
  2
*X2
  0
BLOCK_RECORD
  5
551
100
AcDbSymbolTableRecord
100
AcDbBlockTableRecord
  2
*X3
  0
BLOCK_RECORD
  5
552
100
AcDbSymbolTableRecord
100
AcDbBlockTableRecord
  2
*X4
  0
BLOCK_RECORD
  5
553
100
AcDbSymbolTableRecord
100
AcDbBlockTableRecord
  2
*X5
  0
BLOCK_RECORD
  5
554
100
AcDbSymbolTableRecord
100
AcDbBlockTableRecord
  2
*X6
  0
BLOCK_RECORD
  5
555
100
AcDbSymbolTableRecord
100
AcDbBlockTableRecord
  2
*X7
  0
BLOCK_RECORD
  5
556
100
AcDbSymbolTableRecord
100
AcDbBlockTableRecord
  2
M0
  0
BLOCK_RECORD
  5
557
100
AcDbSymbolTableRecord
100
AcDbBlockTableRecord
  2
M1
  0
ENDTAB
  0
ENDSEC
  0
SECTION
  2
BLOCKS
  0
BLOCK
  5
558
100
AcDbEntity
  8
0
100
AcDbBlockBegin
  2
*MODEL_SPACE
 70
     0
 10
0.0
 20
0.0
 30
0.0
  3
*MODEL_SPACE
  1

  0
ENDBLK
  5
559
100
AcDbEntity
  8
0
100
AcDbBlockEnd
  0
BLOCK
  5
55A
100
AcDbEntity
  8
0
100
AcDbBlockBegin
  2
*PAPER_SPACE
 70
     0
 10
0.0
 20
0.0
 30
0.0
  3
*PAPER_SPACE
  1

  0
ENDBLK
  5
55B
100
AcDbEntity
  8
0
100
AcDbBlockEnd
  0
BLOCK
  5
2
100
AcDbEntity
  8
0
100
AcDbBlockBegin
  2
_NONE
 70
     0
 10
0.0
 20
0.0
 30
0.0
  3
_NONE
  1

  0
ENDBLK
  5
3
100
AcDbEntity
  8
0
100
AcDbBlockEnd
  0
BLOCK
  5
5
100
AcDbEntity
  8
0
100
AcDbBlockBegin
  2
_CLOSED
 70
     0
 10
0.0
 20
0.0
 30
0.0
  3
_CLOSED
  1

  0
LINE
  5
6
100
AcDbEntity
  8
0
  6
BYBLOCK
 62
     0
100
AcDbLine
 10
-1.0
 20
0.166667
 30
0.0
 11
0.0
 21
0.0
 31
0.0
  0
LINE
  5
7
100
AcDbEntity
  8
0
  6
BYBLOCK
 62
     0
100
AcDbLine
 10
0.0
 20
0.0
 30
0.0
 11
-1.0
 21
-0.166667
 31
0.0
  0
LINE
  5
8
100
AcDbEntity
  8
0
  6
BYBLOCK
 62
     0
100
AcDbLine
 10
-1.0
 20
0.166667
 30
0.0
 11
-1.0
 21
-0.166667
 31
0.0
  0
LINE
  5
9
100
AcDbEntity
  8
0
  6
BYBLOCK
 62
     0
100
AcDbLine
 10
0.0
 20
0.0
 30
0.0
 11
-1.0
 21
0.0
 31
0.0
  0
ENDBLK
  5
A
100
AcDbEntity
  8
0
100
AcDbBlockEnd
  0
BLOCK
  5
C
100
AcDbEntity
  8
0
100
AcDbBlockBegin
  2
_DOT
 70
     0
 10
0.0
 20
0.0
 30
0.0
  3
_DOT
  1

  0
POLYLINE
  5
D
100
AcDbEntity
  8
0
  6
BYBLOCK
 62
     0
100
AcDb2dPolyline
 66
     1
 10
0.0
 20
0.0
 30
0.0
 70
     1
 40
0.5
 41
0.5
  0
VERTEX
  5
E
100
AcDbEntity
  8
0
  6
BYBLOCK
 62
     0
100
AcDbVertex
100
AcDb2dVertex
 10
-0.25
 20
0.0
 30
0.0
 42
1.0
  0
VERTEX
  5
F
100
AcDbEntity
  8
0
  6
BYBLOCK
 62
     0
100
AcDbVertex
100
AcDb2dVertex
 10
0.25
 20
0.0
 30
0.0
 42
1.0
  0
SEQEND
  5
10
100
AcDbEntity
  8
0
  6
BYBLOCK
 62
     0
  0
LINE
  5
11
100
AcDbEntity
  8
0
  6
BYBLOCK
 62
     0
100
AcDbLine
 10
-0.5
 20
0.0
 30
0.0
 11
-1.0
 21
0.0
 31
0.0
  0
ENDBLK
  5
12
100
AcDbEntity
  8
0
100
AcDbBlockEnd
  0
BLOCK
  5
14
100
AcDbEntity
  8
0
100
AcDbBlockBegin
  2
_OPEN
 70
     0
 10
0.0
 20
0.0
 30
0.0
  3
_OPEN
  1

  0
LINE
  5
15
100
AcDbEntity
  8
0
  6
BYBLOCK
 62
     0
100
AcDbLine
 10
-1.0
 20
0.166667
 30
0.0
 11
0.0
 21
0.0
 31
0.0
  0
LINE
  5
16
100
AcDbEntity
  8
0
  6
BYBLOCK
 62
     0
100
AcDbLine
 10
0.0
 20
0.0
 30
0.0
 11
-1.0
 21
-0.166667
 31
0.0
  0
LINE
  5
17
100
AcDbEntity
  8
0
  6
BYBLOCK
 62
     0
100
AcDbLine
 10
0.0
 20
0.0
 30
0.0
 11
-1.0
 21
0.0
 31
0.0
  0
ENDBLK
  5
18
100
AcDbEntity
  8
0
100
AcDbBlockEnd
  0
BLOCK
  5
1A
100
AcDbEntity
  8
0
100
AcDbBlockBegin
  2
_ORIGIN
 70
     0
 10
0.0
 20
0.0
 30
0.0
  3
_ORIGIN
  1

  0
CIRCLE
  5
1B
100
AcDbEntity
  8
0
  6
BYBLOCK
 62
     0
100
AcDbCircle
 10
0.0
 20
0.0
 30
0.0
 40
0.5
  0
LINE
  5
1C
100
AcDbEntity
  8
0
  6
BYBLOCK
 62
     0
100
AcDbLine
 10
0.0
 20
0.0
 30
0.0
 11
-1.0
 21
0.0
 31
0.0
  0
ENDBLK
  5
1D
100
AcDbEntity
  8
0
100
AcDbBlockEnd
  0
BLOCK
  5
1F
100
AcDbEntity
  8
0
100
AcDbBlockBegin
  2
_OPEN30
 70
     0
 10
0.0
 20
0.0
 30
0.0
  3
_OPEN30
  1

  0
LINE
  5
20
100
AcDbEntity
  8
0
  6
BYBLOCK
 62
     0
100
AcDbLine
 10
-1.0
 20
0.267949
 30
0.0
 11
0.0
 21
0.0
 31
0.0
  0
LINE
  5
21
100
AcDbEntity
  8
0
  6
BYBLOCK
 62
     0
100
AcDbLine
 10
0.0
 20
0.0
 30
0.0
 11
-1.0
 21
-0.267949
 31
0.0
  0
LINE
  5
22
100
AcDbEntity
  8
0
  6
BYBLOCK
 62
     0
100
AcDbLine
 10
0.0
 20
0.0
 30
0.0
 11
-1.0
 21
0.0
 31
0.0
  0
ENDBLK
  5
23
100
AcDbEntity
  8
0
100
AcDbBlockEnd
  0
BLOCK
  5
25
100
AcDbEntity
  8
0
100
AcDbBlockBegin
  2
_BOXFILLED
 70
     0
 10
0.0
 20
0.0
 30
0.0
  3
_BOXFILLED
  1

  0
SOLID
  5
26
100
AcDbEntity
  8
0
  6
BYBLOCK
 62
     0
100
AcDbTrace
 10
-0.5
 20
0.5
 30
0.0
 11
0.5
 21
0.5
 31
0.0
 12
-0.5
 22
-0.5
 32
0.0
 13
0.5
 23
-0.5
 33
0.0
  0
LINE
  5
27
100
AcDbEntity
  8
0
  6
BYBLOCK
 62
     0
100
AcDbLine
 10
-0.5
 20
0.0
 30
0.0
 11
-1.0
 21
0.0
 31
0.0
  0
ENDBLK
  5
28
100
AcDbEntity
  8
0
100
AcDbBlockEnd
  0
BLOCK
  5
2A
100
AcDbEntity
  8
0
100
AcDbBlockBegin
  2
_BOXBLANK
 70
     0
 10
0.0
 20
0.0
 30
0.0
  3
_BOXBLANK
  1

  0
LINE
  5
2B
100
AcDbEntity
  8
0
  6
BYBLOCK
 62
     0
100
AcDbLine
 10
-0.5
 20
-0.5
 30
0.0
 11
0.5
 21
-0.5
 31
0.0
  0
LINE
  5
2C
100
AcDbEntity
  8
0
  6
BYBLOCK
 62
     0
100
AcDbLine
 10
0.5
 20
-0.5
 30
0.0
 11
0.5
 21
0.5
 31
0.0
  0
LINE
  5
2D
100
AcDbEntity
  8
0
  6
BYBLOCK
 62
     0
100
AcDbLine
 10
0.5
 20
0.5
 30
0.0
 11
-0.5
 21
0.5
 31
0.0
  0
LINE
  5
2E
100
AcDbEntity
  8
0
  6
BYBLOCK
 62
     0
100
AcDbLine
 10
-0.5
 20
0.5
 30
0.0
 11
-0.5
 21
-0.5
 31
0.0
  0
LINE
  5
2F
100
AcDbEntity
  8
0
  6
BYBLOCK
 62
     0
100
AcDbLine
 10
-0.5
 20
0.0
 30
0.0
 11
-1.0
 21
0.0
 31
0.0
  0
ENDBLK
  5
30
100
AcDbEntity
  8
0
100
AcDbBlockEnd
  0
BLOCK
  5
32
100
AcDbEntity
  8
0
100
AcDbBlockBegin
  2
_OBLIQUE
 70
     0
 10
0.0
 20
0.0
 30
0.0
  3
_OBLIQUE
  1

  0
LINE
  5
33
100
AcDbEntity
  8
0
  6
BYBLOCK
 62
     0
100
AcDbLine
 10
-0.5
 20
-0.5
 30
0.0
 11
0.5
 21
0.5
 31
0.0
  0
ENDBLK
  5
34
100
AcDbEntity
  8
0
100
AcDbBlockEnd
  0
BLOCK
  5
36
100
AcDbEntity
  8
0
100
AcDbBlockBegin
  2
_OPEN90
 70
     0
 10
0.0
 20
0.0
 30
0.0
  3
_OPEN90
  1

  0
LINE
  5
37
100
AcDbEntity
  8
0
  6
BYBLOCK
 62
     0
100
AcDbLine
 10
-0.5
 20
0.5
 30
0.0
 11
0.0
 21
0.0
 31
0.0
  0
LINE
  5
38
100
AcDbEntity
  8
0
  6
BYBLOCK
 62
     0
100
AcDbLine
 10
0.0
 20
0.0
 30
0.0
 11
-0.5
 21
-0.5
 31
0.0
  0
LINE
  5
39
100
AcDbEntity
  8
0
  6
BYBLOCK
 62
     0
100
AcDbLine
 10
0.0
 20
0.0
 30
0.0
 11
-1.0
 21
0.0
 31
0.0
  0
ENDBLK
  5
3A
100
AcDbEntity
  8
0
100
AcDbBlockEnd
  0
BLOCK
  5
3C
100
AcDbEntity
  8
0
100
AcDbBlockBegin
  2
_CLOSEDBLANK
 70
     0
 10
0.0
 20
0.0
 30
0.0
  3
_CLOSEDBLANK
  1

  0
LINE
  5
3D
100
AcDbEntity
  8
0
  6
BYBLOCK
 62
     0
100
AcDbLine
 10
-1.0
 20
0.1666666666666666
 30
0.0
 11
0.0
 21
0.0
 31
0.0
  0
LINE
  5
3E
100
AcDbEntity
  8
0
  6
BYBLOCK
 62
     0
100
AcDbLine
 10
0.0
 20
0.0
 30
0.0
 11
-1.0
 21
-0.1666666666666666
 31
0.0
  0
LINE
  5
3F
100
AcDbEntity
  8
0
  6
BYBLOCK
 62
     0
100
AcDbLine
 10
-1.0
 20
0.1666666666666666
 30
0.0
 11
-1.0
 21
-0.1666666666666666
 31
0.0
  0
ENDBLK
  5
40
100
AcDbEntity
  8
0
100
AcDbBlockEnd
  0
BLOCK
  5
42
100
AcDbEntity
  8
0
100
AcDbBlockBegin
  2
_DOTBLANK
 70
     0
 10
0.0
 20
0.0
 30
0.0
  3
_DOTBLANK
  1

  0
CIRCLE
  5
43
100
AcDbEntity
  8
0
  6
BYBLOCK
 62
     0
100
AcDbCircle
 10
0.0
 20
0.0
 30
0.0
 40
0.5
  0
LINE
  5
44
100
AcDbEntity
  8
0
  6
BYBLOCK
 62
     0
100
AcDbLine
 10
-0.5
 20
0.0
 30
0.0
 11
-1.0
 21
0.0
 31
0.0
  0
ENDBLK
  5
45
100
AcDbEntity
  8
0
100
AcDbBlockEnd
  0
BLOCK
  5
DC
100
AcDbEntity
  8
MAIN0
  6
CONTINUOUS
 62
3
100
AcDbBlockBegin
  2
*D0
 70
    65
 10
0.0
 20
0.0
 30
0.0
  0
LINE
  5
DD
100
AcDbEntity
  8
MAIN0
  6
BYBLOCK
 62
0
100
AcDbLine
 10
215.3751374962773
 20
561.0768623412866
 30
0.0000000000000000
 11
226.2887101636937
 21
550.1632896738900
 31
0.0000000000000000
  0
LINE
  5
DE
100
AcDbEntity
  8
MAIN0
  6
BYBLOCK
 62
0
100
AcDbLine
 10
222.0460694765744
 20
550.1632896738861
 30
0.0000000000000000
 11
217.8034287894590
 21
545.9206489867631
 31
0.0000000000000000
  0
INSERT
  5
DF
100
AcDbEntity
  8
MAIN0
  6
BYBLOCK
 62
0
100
AcDbBlockReference
  2
_OPEN
 10
224.1673898201321
 20
552.2846100174477
 30
0.0000000000000000
 41
3.000000000000000
 42
3.000000000000000
 43
3.000000000000000
 50
45.00000000005105
  0
INSERT
  5
E0
100
AcDbEntity
  8
MAIN0
  6
BYBLOCK
 62
0
100
AcDbBlockReference
  2
_OPEN
 10
215.6821084459013
 20
543.7993286432015
 30
0.0000000000000000
 41
3.000000000000000
 42
3.000000000000000
 43
3.000000000000000
 50
225.0000000000511
  0
LINE
  5
E1
100
AcDbEntity
  8
MAIN0
  6
BYBLOCK
 62
0
100
AcDbLine
 10
224.1673898201321
 20
552.2846100174477
 30
0.0000000000000000
 11
243.0208199899379
 21
571.1380401872876
 31
0.0000000000000000
  0
LINE
  5
E2
100
AcDbEntity
  8
MAIN0
  6
BYBLOCK
 62
0
100
AcDbLine
 10
206.8898561214772
 20
552.5915809676097
 30
0.0000000000000000
 11
217.8034287894629
 21
541.6780082996438
 31
0.0000000000000000
  0
MTEXT
  5
E3
100
AcDbEntity
  8
MAIN0
  6
BYBLOCK
 62
0
100
AcDbMText
 10
232.9710648528462
 20
565.4369916533265
 30
0.0000000000000000
 40
4.649999856948853
 41
0.0000000000000000
 71
     5
 72
     1
  1
\A1;□12\H0.903226x;\S+0.15^ +0.05;
 11
0.7071067811859075
 21
0.7071067811871875
 31
0.0000000000000000
  7
KNJYOKO
  0
ENDBLK
  5
E4
100
AcDbEntity
  8
MAIN0
  6
CONTINUOUS
 62
3
100
AcDbBlockEnd
  0
BLOCK
  5
E7
100
AcDbEntity
  8
MAIN0
  6
CONTINUOUS
 62
3
100
AcDbBlockBegin
  2
*D1
 70
    65
 10
0.0
 20
0.0
 30
0.0
  0
LINE
  5
E8
100
AcDbEntity
  8
MAIN0
  6
BYBLOCK
 62
0
100
AcDbLine
 10
174.0046879871778
 20
466.2620304587385
 30
0.0000000000000000
 11
133.2046880050592
 21
466.2620304587385
 31
0.0000000000000000
  0
LINE
  5
E9
100
AcDbEntity
  8
MAIN0
  6
BYBLOCK
 62
0
100
AcDbLine
 10
136.2046880050592
 20
463.2620304587385
 30
0.0000000000000000
 11
136.2046880050592
 21
239.2620304587385
 31
0.0000000000000000
  0
INSERT
  5
EA
100
AcDbEntity
  8
MAIN0
  6
BYBLOCK
 62
0
100
AcDbBlockReference
  2
_OPEN
 10
136.2046880050592
 20
466.2620304587385
 30
0.0000000000000000
 41
3.000000000000000
 42
3.000000000000000
 43
3.000000000000000
 50
90.00000000000000
  0
INSERT
  5
EB
100
AcDbEntity
  8
MAIN0
  6
BYBLOCK
 62
0
100
AcDbBlockReference
  2
_OPEN
 10
136.2046880050592
 20
236.2620304587385
 30
0.0000000000000000
 41
3.000000000000000
 42
3.000000000000000
 43
3.000000000000000
 50
270.0000000000000
  0
LINE
  5
EC
100
AcDbEntity
  8
MAIN0
  6
BYBLOCK
 62
0
100
AcDbLine
 10
174.0046879871778
 20
236.2620304587385
 30
0.0000000000000000
 11
133.2046880050592
 21
236.2620304587385
 31
0.0000000000000000
  0
MTEXT
  5
ED
100
AcDbEntity
  8
MAIN0
  6
BYBLOCK
 62
0
100
AcDbMText
 10
133.3796880765847
 20
351.2620304401121
 30
0.0000000000000000
 40
4.649999856948853
 41
0.0000000000000000
 71
     5
 72
     1
  1
\A1;\U+2205230H6\H0.903226x;\S＋0.029^ 　0;
 11
6.123233995736766e-017
 21
1.000000000000000
 31
0.0000000000000000
  7
KNJYOKO
  0
ENDBLK
  5
EE
100
AcDbEntity
  8
MAIN0
  6
CONTINUOUS
 62
3
100
AcDbBlockEnd
  0
BLOCK
  5
F0
100
AcDbEntity
  8
MAIN0
  6
CONTINUOUS
 62
3
100
AcDbBlockBegin
  2
*D2
 70
    65
 10
0.0
 20
0.0
 30
0.0
  0
LINE
  5
F1
100
AcDbEntity
  8
MAIN0
  6
BYBLOCK
 62
0
100
AcDbLine
 10
191.5046879871777
 20
393.7620304587385
 30
0.0000000000000000
 11
148.2046880050592
 21
393.7620304587385
 31
0.0000000000000000
  0
LINE
  5
F2
100
AcDbEntity
  8
MAIN0
  6
BYBLOCK
 62
0
100
AcDbLine
 10
151.2046880050592
 20
390.7620304587385
 30
0.0000000000000000
 11
151.2046880050592
 21
311.7620304587385
 31
0.0000000000000000
  0
INSERT
  5
F3
100
AcDbEntity
  8
MAIN0
  6
BYBLOCK
 62
0
100
AcDbBlockReference
  2
_OPEN
 10
151.2046880050592
 20
393.7620304587385
 30
0.0000000000000000
 41
3.000000000000000
 42
3.000000000000000
 43
3.000000000000000
 50
90.00000000000000
  0
INSERT
  5
F4
100
AcDbEntity
  8
MAIN0
  6
BYBLOCK
 62
0
100
AcDbBlockReference
  2
_OPEN
 10
151.2046880050592
 20
308.7620304587385
 30
0.0000000000000000
 41
3.000000000000000
 42
3.000000000000000
 43
3.000000000000000
 50
270.0000000000000
  0
LINE
  5
F5
100
AcDbEntity
  8
MAIN0
  6
BYBLOCK
 62
0
100
AcDbLine
 10
191.5046879871777
 20
308.7620304587385
 30
0.0000000000000000
 11
148.2046880050592
 21
308.7620304587385
 31
0.0000000000000000
  0
MTEXT
  5
F6
100
AcDbEntity
  8
MAIN0
  6
BYBLOCK
 62
0
100
AcDbMText
 10
148.3796880765847
 20
351.2620304587385
 30
0.0000000000000000
 40
4.649999856948853
 41
0.0000000000000000
 71
     5
 72
     1
  1
\A1;\U+220585
 11
6.123233995736766e-017
 21
1.000000000000000
 31
0.0000000000000000
  7
STANDARD
  0
ENDBLK
  5
F7
100
AcDbEntity
  8
MAIN0
  6
CONTINUOUS
 62
3
100
AcDbBlockEnd
  0
BLOCK
  5
F9
100
AcDbEntity
  8
MAIN0
  6
CONTINUOUS
 62
3
100
AcDbBlockBegin
  2
*D3
 70
    65
 10
0.0
 20
0.0
 30
0.0
  0
LINE
  5
FA
100
AcDbEntity
  8
MAIN0
  6
BYBLOCK
 62
0
100
AcDbLine
 10
175.2046880050592
 20
331.2620304587385
 30
0.0000000000000000
 11
181.2046880050592
 21
331.2620304587385
 31
0.0000000000000000
  0
INSERT
  5
FB
100
AcDbEntity
  8
MAIN0
  6
BYBLOCK
 62
0
100
AcDbBlockReference
  2
_OPEN
 10
175.2046880050592
 20
331.2620304587385
 30
0.0000000000000000
 41
3.000000000000000
 42
3.000000000000000
 43
3.000000000000000
 50
0.0000000000000000
  0
INSERT
  5
FC
100
AcDbEntity
  8
MAIN0
  6
BYBLOCK
 62
0
100
AcDbBlockReference
  2
_OPEN
 10
181.2046880050592
 20
331.2620304587385
 30
0.0000000000000000
 41
3.000000000000000
 42
3.000000000000000
 43
3.000000000000000
 50
180.0000000000000
  0
LINE
  5
FD
100
AcDbEntity
  8
MAIN0
  6
BYBLOCK
 62
0
100
AcDbLine
 10
172.2046880050592
 20
331.2620304587385
 30
0.0000000000000000
 11
167.9242348909456
 21
331.2620304587385
 31
0.0000000000000000
  0
LINE
  5
FE
100
AcDbEntity
  8
MAIN0
  6
BYBLOCK
 62
0
100
AcDbLine
 10
184.2046880050592
 20
331.2620304587385
 30
0.0000000000000000
 11
185.7046880050592
 21
331.2620304587385
 31
0.0000000000000000
  0
MTEXT
  5
FF
100
AcDbEntity
  8
MAIN0
  6
BYBLOCK
 62
0
100
AcDbMText
 10
169.4242348909456
 20
334.3370303872130
 30
0.0000000000000000
 40
4.649999856948853
 41
0.0000000000000000
 71
     5
 72
     1
  1
\A1;6
 11
1.000000000000000
 21
0.0000000000000000
 31
0.0000000000000000
  7
STANDARD
  0
ENDBLK
  5
100
100
AcDbEntity
  8
MAIN0
  6
CONTINUOUS
 62
3
100
AcDbBlockEnd
  0
BLOCK
  5
102
100
AcDbEntity
  8
MAIN0
  6
CONTINUOUS
 62
3
100
AcDbBlockBegin
  2
*D4
 70
    65
 10
0.0
 20
0.0
 30
0.0
  0
LINE
  5
103
100
AcDbEntity
  8
MAIN0
  6
BYBLOCK
 62
0
100
AcDbLine
 10
261.2046880050592
 20
486.9620304766199
 30
0.0000000000000000
 11
261.2046880050592
 21
504.2620304587385
 31
0.0000000000000000
  0
LINE
  5
104
100
AcDbEntity
  8
MAIN0
  6
BYBLOCK
 62
0
100
AcDbLine
 10
261.2046880050592
 20
501.2620304587385
 30
0.0000000000000000
 11
246.7046880050592
 21
501.2620304587385
 31
0.0000000000000000
  0
INSERT
  5
105
100
AcDbEntity
  8
MAIN0
  6
BYBLOCK
 62
0
100
AcDbBlockReference
  2
_OPEN
 10
261.2046880050592
 20
501.2620304587385
 30
0.0000000000000000
 41
3.000000000000000
 42
3.000000000000000
 43
3.000000000000000
 50
180.0000000000000
  0
INSERT
  5
106
100
AcDbEntity
  8
MAIN0
  6
BYBLOCK
 62
0
100
AcDbBlockReference
  2
_OPEN
 10
246.7046880050592
 20
501.2620304587385
 30
0.0000000000000000
 41
3.000000000000000
 42
3.000000000000000
 43
3.000000000000000
 50
360.0000000000000
  0
LINE
  5
107
100
AcDbEntity
  8
MAIN0
  6
BYBLOCK
 62
0
100
AcDbLine
 10
264.2046880050592
 20
501.2620304587385
 30
0.0000000000000000
 11
265.7046880050592
 21
501.2620304587385
 31
0.0000000000000000
  0
LINE
  5
108
100
AcDbEntity
  8
MAIN0
  6
BYBLOCK
 62
0
100
AcDbLine
 10
243.7046880050592
 20
501.2620304587385
 30
0.0000000000000000
 11
242.2046880050592
 21
501.2620304587385
 31
0.0000000000000000
  0
LINE
  5
109
100
AcDbEntity
  8
MAIN0
  6
BYBLOCK
 62
0
100
AcDbLine
 10
246.7046880050592
 20
486.4620304765447
 30
0.0000000000000000
 11
246.7046880050592
 21
504.2620304587385
 31
0.0000000000000000
  0
MTEXT
  5
10A
100
AcDbEntity
  8
MAIN0
  6
BYBLOCK
 62
0
100
AcDbMText
 10
253.9546880050592
 20
504.0870303872130
 30
0.0000000000000000
 40
4.649999856948853
 41
0.0000000000000000
 71
     5
 72
     1
  1
\A1;14.5
 11
1.000000000000000
 21
0.0000000000000000
 31
0.0000000000000000
  7
STANDARD
  0
ENDBLK
  5
10B
100
AcDbEntity
  8
MAIN0
  6
CONTINUOUS
 62
3
100
AcDbBlockEnd
  0
BLOCK
  5
10D
100
AcDbEntity
  8
MAIN0
  6
CONTINUOUS
 62
3
100
AcDbBlockBegin
  2
*D5
 70
    65
 10
0.0
 20
0.0
 30
0.0
  0
LINE
  5
10E
100
AcDbEntity
  8
MAIN0
  6
BYBLOCK
 62
0
100
AcDbLine
 10
174.0046879871778
 20
482.0120304586633
 30
0.0000000000000000
 11
158.2046880050592
 21
482.0120304586633
 31
0.0000000000000000
  0
LINE
  5
10F
100
AcDbEntity
  8
MAIN0
  6
BYBLOCK
 62
0
100
AcDbLine
 10
161.2046880050592
 20
482.0120304586633
 30
0.0000000000000000
 11
161.2046880050592
 21
468.5120304586633
 31
0.0000000000000000
  0
INSERT
  5
110
100
AcDbEntity
  8
MAIN0
  6
BYBLOCK
 62
0
100
AcDbBlockReference
  2
_OPEN
 10
161.2046880050592
 20
482.0120304586633
 30
0.0000000000000000
 41
3.000000000000000
 42
3.000000000000000
 43
3.000000000000000
 50
270.0000000000000
  0
INSERT
  5
111
100
AcDbEntity
  8
MAIN0
  6
BYBLOCK
 62
0
100
AcDbBlockReference
  2
_OPEN
 10
161.2046880050592
 20
468.5120304586633
 30
0.0000000000000000
 41
3.000000000000000
 42
3.000000000000000
 43
3.000000000000000
 50
90.00000000000000
  0
LINE
  5
112
100
AcDbEntity
  8
MAIN0
  6
BYBLOCK
 62
0
100
AcDbLine
 10
161.2046880050592
 20
485.0120304586633
 30
0.0000000000000000
 11
161.2046880050592
 21
486.5120304586633
 31
0.0000000000000000
  0
LINE
  5
113
100
AcDbEntity
  8
MAIN0
  6
BYBLOCK
 62
0
100
AcDbLine
 10
161.2046880050592
 20
465.5120304586633
 30
0.0000000000000000
 11
161.2046880050592
 21
464.0120304586633
 31
0.0000000000000000
  0
LINE
  5
114
100
AcDbEntity
  8
MAIN0
  6
BYBLOCK
 62
0
100
AcDbLine
 10
174.0046879871778
 20
468.5120304586633
 30
0.0000000000000000
 11
158.2046880050592
 21
468.5120304586633
 31
0.0000000000000000
  0
MTEXT
  5
115
100
AcDbEntity
  8
MAIN0
  6
BYBLOCK
 62
0
100
AcDbMText
 10
158.3796880765847
 20
475.2620304586633
 30
0.0000000000000000
 40
4.649999856948853
 41
0.0000000000000000
 71
     5
 72
     1
  1
\A1;\U+220513.5
 11
6.123233995736766e-017
 21
1.000000000000000
 31
0.0000000000000000
  7
STANDARD
  0
ENDBLK
  5
116
100
AcDbEntity
  8
MAIN0
  6
CONTINUOUS
 62
3
100
AcDbBlockEnd
  0
BLOCK
  5
118
100
AcDbEntity
  8
MAIN0
  6
CONTINUOUS
 62
3
100
AcDbBlockBegin
  2
*D6
 70
    65
 10
0.0
 20
0.0
 30
0.0
  0
LINE
  5
119
100
AcDbEntity
  8
MAIN0
  6
BYBLOCK
 62
0
100
AcDbLine
 10
262.4046880229406
 20
485.2620304586633
 30
0.0000000000000000
 11
284.2046880050592
 21
485.2620304586633
 31
0.0000000000000000
  0
LINE
  5
11A
100
AcDbEntity
  8
MAIN0
  6
BYBLOCK
 62
0
100
AcDbLine
 10
281.2046880050592
 20
482.2620304586633
 30
0.0000000000000000
 11
281.2046880050592
 21
468.2620304586633
 31
0.0000000000000000
  0
INSERT
  5
11B
100
AcDbEntity
  8
MAIN0
  6
BYBLOCK
 62
0
100
AcDbBlockReference
  2
_OPEN
 10
281.2046880050592
 20
485.2620304586633
 30
0.0000000000000000
 41
3.000000000000000
 42
3.000000000000000
 43
3.000000000000000
 50
90.00000000000000
  0
INSERT
  5
11C
100
AcDbEntity
  8
MAIN0
  6
BYBLOCK
 62
0
100
AcDbBlockReference
  2
_OPEN
 10
281.2046880050592
 20
465.2620304586633
 30
0.0000000000000000
 41
3.000000000000000
 42
3.000000000000000
 43
3.000000000000000
 50
270.0000000000000
  0
LINE
  5
11D
100
AcDbEntity
  8
MAIN0
  6
BYBLOCK
 62
0
100
AcDbLine
 10
262.4046880229406
 20
465.2620304586633
 30
0.0000000000000000
 11
284.2046880050592
 21
465.2620304586633
 31
0.0000000000000000
  0
MTEXT
  5
11E
100
AcDbEntity
  8
MAIN0
  6
BYBLOCK
 62
0
100
AcDbMText
 10
278.3796880765847
 20
475.2620304586633
 30
0.0000000000000000
 40
4.649999856948853
 41
0.0000000000000000
 71
     5
 72
     1
  1
\A1;\U+220520
 11
6.123233995736766e-017
 21
1.000000000000000
 31
0.0000000000000000
  7
STANDARD
  0
ENDBLK
  5
11F
100
AcDbEntity
  8
MAIN0
  6
CONTINUOUS
 62
3
100
AcDbBlockEnd
  0
BLOCK
  5
147
100
AcDbEntity
  8
MAIN0
  6
CONTINUOUS
 62
3
100
AcDbBlockBegin
  2
*D7
 70
    65
 10
0.0
 20
0.0
 30
0.0
  0
LINE
  5
148
100
AcDbEntity
  8
MAIN0
  6
BYBLOCK
 62
0
100
AcDbLine
 10
163.4060067172823
 20
102.4495514947805
 30
0.0000000000000000
 11
163.4060067172823
 21
84.26566177984165
 31
0.0000000000000000
  0
LINE
  5
149
100
AcDbEntity
  8
MAIN0
  6
BYBLOCK
 62
0
100
AcDbLine
 10
166.4060067172823
 20
87.26566177984165
 30
0.0000000000000000
 11
187.3960067172829
 21
87.26566177984165
 31
0.0000000000000000
  0
INSERT
  5
14A
100
AcDbEntity
  8
MAIN0
  6
BYBLOCK
 62
0
100
AcDbBlockReference
  2
_OPEN
 10
163.4060067172823
 20
87.26566177984165
 30
0.0000000000000000
 41
3.000000000000000
 42
3.000000000000000
 43
3.000000000000000
 50
180.0000000000000
  0
INSERT
  5
14B
100
AcDbEntity
  8
MAIN0
  6
BYBLOCK
 62
0
100
AcDbBlockReference
  2
_OPEN
 10
190.3960067172829
 20
87.26566177984165
 30
0.0000000000000000
 41
3.000000000000000
 42
3.000000000000000
 43
3.000000000000000
 50
0.0000000000000000
  0
LINE
  5
14C
100
AcDbEntity
  8
MAIN0
  6
BYBLOCK
 62
0
100
AcDbLine
 10
190.3960067172829
 20
104.7982588365582
 30
0.0000000000000000
 11
190.3960067172829
 21
84.26566177984165
 31
0.0000000000000000
  0
MTEXT
  5
14D
100
AcDbEntity
  8
MAIN0
  6
BYBLOCK
 62
0
100
AcDbMText
 10
176.9010067172826
 20
90.09066170831608
 30
0.0000000000000000
 40
4.649999856948853
 41
0.0000000000000000
 71
     5
 72
     1
  1
\A1;26.99
 11
1.000000000000000
 21
0.0000000000000000
 31
0.0000000000000000
  7
STANDARD
  0
ENDBLK
  5
14E
100
AcDbEntity
  8
MAIN0
  6
CONTINUOUS
 62
3
100
AcDbBlockEnd
  0
BLOCK
  5
150
100
AcDbEntity
  8
MAIN0
  6
CONTINUOUS
 62
3
100
AcDbBlockBegin
  2
*D8
 70
    65
 10
0.0
 20
0.0
 30
0.0
  0
LINE
  5
151
100
AcDbEntity
  8
MAIN0
  6
BYBLOCK
 62
0
100
AcDbLine
 10
174.1210067351648
 20
107.8547037396898
 30
0.0000000000000000
 11
249.5853567886556
 21
107.8547037396898
 31
0.0000000000000000
  0
LINE
  5
152
100
AcDbEntity
  8
MAIN0
  6
BYBLOCK
 62
0
100
AcDbLine
 10
246.5853567886556
 20
110.8547037396898
 30
0.0000000000000000
 11
246.5853567886556
 21
156.8547037397316
 31
0.0000000000000000
  0
INSERT
  5
153
100
AcDbEntity
  8
MAIN0
  6
BYBLOCK
 62
0
100
AcDbBlockReference
  2
_OPEN
 10
246.5853567886556
 20
107.8547037396898
 30
0.0000000000000000
 41
3.000000000000000
 42
3.000000000000000
 43
3.000000000000000
 50
270.0000000000000
  0
INSERT
  5
154
100
AcDbEntity
  8
MAIN0
  6
BYBLOCK
 62
0
100
AcDbBlockReference
  2
_OPEN
 10
246.5853567886556
 20
159.8547037397316
 30
0.0000000000000000
 41
3.000000000000000
 42
3.000000000000000
 43
3.000000000000000
 50
90.00000000000000
  0
LINE
  5
155
100
AcDbEntity
  8
MAIN0
  6
BYBLOCK
 62
0
100
AcDbLine
 10
223.1060067351784
 20
159.8547037397316
 30
0.0000000000000000
 11
249.5853567886556
 21
159.8547037397316
 31
0.0000000000000000
  0
MTEXT
  5
156
100
AcDbEntity
  8
MAIN0
  6
BYBLOCK
 62
0
100
AcDbMText
 10
243.7603568601812
 20
133.8547037397107
 30
0.0000000000000000
 40
4.649999856948853
 41
0.0000000000000000
 71
     5
 72
     1
  1
\A1;52
 11
6.123233995736766e-017
 21
1.000000000000000
 31
0.0000000000000000
  7
STANDARD
  0
ENDBLK
  5
157
100
AcDbEntity
  8
MAIN0
  6
CONTINUOUS
 62
3
100
AcDbBlockEnd
  0
BLOCK
  5
159
100
AcDbEntity
  8
MAIN0
  6
CONTINUOUS
 62
3
100
AcDbBlockBegin
  2
*D9
 70
    65
 10
0.0
 20
0.0
 30
0.0
  0
LINE
  5
15A
100
AcDbEntity
  8
MAIN0
  6
BYBLOCK
 62
0
100
AcDbLine
 10
223.4060067172967
 20
159.5547037576144
 30
0.0000000000000000
 11
223.4060067172967
 21
180.2656617798417
 31
0.0000000000000000
  0
LINE
  5
15B
100
AcDbEntity
  8
MAIN0
  6
BYBLOCK
 62
0
100
AcDbLine
 10
220.4060067172967
 20
177.2656617798417
 30
0.0000000000000000
 11
116.4060067172966
 21
177.2656617798417
 31
0.0000000000000000
  0
INSERT
  5
15C
100
AcDbEntity
  8
MAIN0
  6
BYBLOCK
 62
0
100
AcDbBlockReference
  2
_OPEN
 10
223.4060067172967
 20
177.2656617798417
 30
0.0000000000000000
 41
3.000000000000000
 42
3.000000000000000
 43
3.000000000000000
 50
360.0000000000000
  0
INSERT
  5
15D
100
AcDbEntity
  8
MAIN0
  6
BYBLOCK
 62
0
100
AcDbBlockReference
  2
_OPEN
 10
113.4060067172966
 20
177.2656617798417
 30
0.0000000000000000
 41
3.000000000000000
 42
3.000000000000000
 43
3.000000000000000
 50
180.0000000000000
  0
LINE
  5
15E
100
AcDbEntity
  8
MAIN0
  6
BYBLOCK
 62
0
100
AcDbLine
 10
113.4060067172966
 20
159.5547037575201
 30
0.0000000000000000
 11
113.4060067172966
 21
180.2656617798417
 31
0.0000000000000000
  0
MTEXT
  5
15F
100
AcDbEntity
  8
MAIN0
  6
BYBLOCK
 62
0
100
AcDbMText
 10
168.4060067172966
 20
180.0906617083161
 30
0.0000000000000000
 40
4.649999856948853
 41
0.0000000000000000
 71
     5
 72
     1
  1
\A1;110
 11
1.000000000000000
 21
0.0000000000000000
 31
0.0000000000000000
  7
STANDARD
  0
ENDBLK
  5
160
100
AcDbEntity
  8
MAIN0
  6
CONTINUOUS
 62
3
100
AcDbBlockEnd
  0
BLOCK
  5
1EB
100
AcDbEntity
  8
MAIN0
  6
CONTINUOUS
 62
3
100
AcDbBlockBegin
  2
*D10
 70
    65
 10
0.0
 20
0.0
 30
0.0
  0
LINE
  5
1EC
100
AcDbEntity
  8
MAIN0
  6
BYBLOCK
 62
0
100
AcDbLine
 10
315.4046880229406
 20
312.7620304587387
 30
0.0000000000000000
 11
339.2046880050592
 21
312.7620304587387
 31
0.0000000000000000
  0
LINE
  5
1ED
100
AcDbEntity
  8
MAIN0
  6
BYBLOCK
 62
0
100
AcDbLine
 10
336.2046880050592
 20
309.7620304587387
 30
0.0000000000000000
 11
336.2046880050592
 21
215.7620304587387
 31
0.0000000000000000
  0
INSERT
  5
1EE
100
AcDbEntity
  8
MAIN0
  6
BYBLOCK
 62
0
100
AcDbBlockReference
  2
_OPEN
 10
336.2046880050592
 20
312.7620304587387
 30
0.0000000000000000
 41
3.000000000000000
 42
3.000000000000000
 43
3.000000000000000
 50
90.00000000000000
  0
INSERT
  5
1EF
100
AcDbEntity
  8
MAIN0
  6
BYBLOCK
 62
0
100
AcDbBlockReference
  2
_OPEN
 10
336.2046880050592
 20
212.7620304587387
 30
0.0000000000000000
 41
3.000000000000000
 42
3.000000000000000
 43
3.000000000000000
 50
270.0000000000000
  0
LINE
  5
1F0
100
AcDbEntity
  8
MAIN0
  6
BYBLOCK
 62
0
100
AcDbLine
 10
286.9046880229406
 20
212.7620304587387
 30
0.0000000000000000
 11
339.2046880050592
 21
212.7620304587387
 31
0.0000000000000000
  0
MTEXT
  5
1F1
100
AcDbEntity
  8
MAIN0
  6
BYBLOCK
 62
0
100
AcDbMText
 10
333.3796880765847
 20
262.7620304587387
 30
0.0000000000000000
 40
4.649999856948853
 41
0.0000000000000000
 71
     5
 72
     1
  1
\A1;100
 11
6.123233995736766e-017
 21
1.000000000000000
 31
0.0000000000000000
  7
STANDARD
  0
ENDBLK
  5
1F2
100
AcDbEntity
  8
MAIN0
  6
CONTINUOUS
 62
3
100
AcDbBlockEnd
  0
BLOCK
  5
1F4
100
AcDbEntity
  8
MAIN0
  6
CONTINUOUS
 62
3
100
AcDbBlockBegin
  2
*D11
 70
    65
 10
0.0
 20
0.0
 30
0.0
  0
LINE
  5
1F5
100
AcDbEntity
  8
MAIN0
  6
BYBLOCK
 62
0
100
AcDbLine
 10
315.4046880229386
 20
368.7620304587387
 30
0.0000000000000000
 11
339.2046880050592
 21
368.7620304587387
 31
0.0000000000000000
  0
LINE
  5
1F6
100
AcDbEntity
  8
MAIN0
  6
BYBLOCK
 62
0
100
AcDbLine
 10
336.2046880050592
 20
365.7620304587387
 30
0.0000000000000000
 11
336.2046880050592
 21
336.7620304587387
 31
0.0000000000000000
  0
INSERT
  5
1F7
100
AcDbEntity
  8
MAIN0
  6
BYBLOCK
 62
0
100
AcDbBlockReference
  2
_OPEN
 10
336.2046880050592
 20
368.7620304587387
 30
0.0000000000000000
 41
3.000000000000000
 42
3.000000000000000
 43
3.000000000000000
 50
90.00000000000000
  0
INSERT
  5
1F8
100
AcDbEntity
  8
MAIN0
  6
BYBLOCK
 62
0
100
AcDbBlockReference
  2
_OPEN
 10
336.2046880050592
 20
333.7620304587387
 30
0.0000000000000000
 41
3.000000000000000
 42
3.000000000000000
 43
3.000000000000000
 50
270.0000000000000
  0
LINE
  5
1F9
100
AcDbEntity
  8
MAIN0
  6
BYBLOCK
 62
0
100
AcDbLine
 10
315.4046880229415
 20
333.7620304587387
 30
0.0000000000000000
 11
339.2046880050592
 21
333.7620304587387
 31
0.0000000000000000
  0
MTEXT
  5
1FA
100
AcDbEntity
  8
MAIN0
  6
BYBLOCK
 62
0
100
AcDbMText
 10
333.3796880765847
 20
351.2620304587387
 30
0.0000000000000000
 40
4.649999856948853
 41
0.0000000000000000
 71
     5
 72
     1
  1
\A1;35
 11
6.123233995736766e-017
 21
1.000000000000000
 31
0.0000000000000000
  7
STANDARD
  0
ENDBLK
  5
1FB
100
AcDbEntity
  8
MAIN0
  6
CONTINUOUS
 62
3
100
AcDbBlockEnd
  0
BLOCK
  5
1FD
100
AcDbEntity
  8
MAIN0
  6
CONTINUOUS
 62
3
100
AcDbBlockBegin
  2
*D12
 70
    65
 10
0.0
 20
0.0
 30
0.0
  0
LINE
  5
1FE
100
AcDbEntity
  8
MAIN0
  6
BYBLOCK
 62
0
100
AcDbLine
 10
261.2046880050592
 20
486.9620304766199
 30
0.0000000000000000
 11
261.2046880050592
 21
514.2620304587385
 31
0.0000000000000000
  0
LINE
  5
1FF
100
AcDbEntity
  8
MAIN0
  6
BYBLOCK
 62
0
100
AcDbLine
 10
261.2046880050592
 20
511.2620304587385
 30
0.0000000000000000
 11
244.7046880050592
 21
511.2620304587385
 31
0.0000000000000000
  0
INSERT
  5
200
100
AcDbEntity
  8
MAIN0
  6
BYBLOCK
 62
0
100
AcDbBlockReference
  2
_OPEN
 10
261.2046880050592
 20
511.2620304587385
 30
0.0000000000000000
 41
3.000000000000000
 42
3.000000000000000
 43
3.000000000000000
 50
180.0000000000000
  0
INSERT
  5
201
100
AcDbEntity
  8
MAIN0
  6
BYBLOCK
 62
0
100
AcDbBlockReference
  2
_OPEN
 10
244.7046880050592
 20
511.2620304587385
 30
0.0000000000000000
 41
3.000000000000000
 42
3.000000000000000
 43
3.000000000000000
 50
360.0000000000000
  0
LINE
  5
202
100
AcDbEntity
  8
MAIN0
  6
BYBLOCK
 62
0
100
AcDbLine
 10
264.2046880050592
 20
511.2620304587385
 30
0.0000000000000000
 11
265.7046880050592
 21
511.2620304587385
 31
0.0000000000000000
  0
LINE
  5
203
100
AcDbEntity
  8
MAIN0
  6
BYBLOCK
 62
0
100
AcDbLine
 10
241.7046880050592
 20
511.2620304587385
 30
0.0000000000000000
 11
240.2046880050592
 21
511.2620304587385
 31
0.0000000000000000
  0
LINE
  5
204
100
AcDbEntity
  8
MAIN0
  6
BYBLOCK
 62
0
100
AcDbLine
 10
244.7046880050592
 20
492.4620304766199
 30
0.0000000000000000
 11
244.7046880050592
 21
514.2620304587385
 31
0.0000000000000000
  0
MTEXT
  5
205
100
AcDbEntity
  8
MAIN0
  6
BYBLOCK
 62
0
100
AcDbMText
 10
252.9546880050592
 20
514.0870303872130
 30
0.0000000000000000
 40
4.649999856948853
 41
0.0000000000000000
 71
     5
 72
     1
  1
\A1;16.5
 11
1.000000000000000
 21
0.0000000000000000
 31
0.0000000000000000
  7
STANDARD
  0
ENDBLK
  5
206
100
AcDbEntity
  8
MAIN0
  6
CONTINUOUS
 62
3
100
AcDbBlockEnd
  0
BLOCK
  5
231
100
AcDbEntity
  8
MAIN0
  6
CONTINUOUS
 62
3
100
AcDbBlockBegin
  2
*D13
 70
    65
 10
0.0
 20
0.0
 30
0.0
  0
LINE
  5
232
100
AcDbEntity
  8
MAIN0
  6
BYBLOCK
 62
0
100
AcDbLine
 10
514.6297228620664
 20
424.2761471104340
 30
0.0000000000000000
 11
488.8756060757403
 21
495.0350014389006
 31
0.0000000000000000
  0
ARC
  5
233
100
AcDbEntity
  8
MAIN0
  6
BYBLOCK
 62
0
100
AcDbCircle
 10
541.2046880050591
 20
351.2620304572276
 30
0.0000000000000000
 40
150.0000000015109
100
AcDbArc
 50
91.14591559025011
 51
108.8540844097398
  0
INSERT
  5
234
100
AcDbEntity
  8
MAIN0
  6
BYBLOCK
 62
0
100
AcDbBlockReference
  2
_OPEN
 10
541.2046880050591
 20
501.2620304587385
 30
0.0000000000000000
 41
3.000000000000000
 42
3.000000000000000
 43
3.000000000000000
 50
360.0000000000000
  0
INSERT
  5
235
100
AcDbEntity
  8
MAIN0
  6
BYBLOCK
 62
0
100
AcDbBlockReference
  2
_OPEN
 10
489.9016665057168
 20
492.2159235765427
 30
0.0000000000000000
 41
3.000000000000000
 42
3.000000000000000
 43
3.000000000000000
 50
199.9999999999899
  0
MTEXT
  5
236
100
AcDbEntity
  8
MAIN0
  6
BYBLOCK
 62
0
100
AcDbMText
 10
514.6669052652817
 20
501.7652752423697
 30
0.0000000000000000
 40
4.649999856948853
 41
0.0000000000000000
 71
     5
 72
     1
  1
\A1;20\U+00B0
 11
0.9848077530122233
 21
0.1736481776668440
 31
0.0000000000000000
  7
STANDARD
  0
ENDBLK
  5
237
100
AcDbEntity
  8
MAIN0
  6
CONTINUOUS
 62
3
100
AcDbBlockEnd
  0
BLOCK
  5
239
100
AcDbEntity
  8
MAIN0
  6
CONTINUOUS
 62
3
100
AcDbBlockBegin
  2
*D14
 70
    65
 10
0.0
 20
0.0
 30
0.0
  0
LINE
  5
23A
100
AcDbEntity
  8
MAIN0
  6
BYBLOCK
 62
0
100
AcDbLine
 10
471.1046879961150
 20
229.8452688326721
 30
0.0000000000000000
 11
459.7046880050573
 21
210.0998896418757
 31
0.0000000000000000
  0
LINE
  5
23B
100
AcDbEntity
  8
MAIN0
  6
BYBLOCK
 62
0
100
AcDbLine
 10
541.2046880050591
 20
195.0620304408571
 30
0.0000000000000000
 11
541.2046880050591
 21
188.2620304587385
 31
0.0000000000000000
  0
ARC
  5
23C
100
AcDbEntity
  8
MAIN0
  6
BYBLOCK
 62
0
100
AcDbCircle
 10
541.2046880050591
 20
351.2620304587410
 30
0.0000000000000000
 40
160.0000000000025
100
AcDbArc
 50
241.0742958658701
 51
268.9257041341297
  0
INSERT
  5
23D
100
AcDbEntity
  8
MAIN0
  6
BYBLOCK
 62
0
100
AcDbBlockReference
  2
_OPEN
 10
461.2046880050573
 20
212.6979658532290
 30
0.0000000000000000
 41
3.000000000000000
 42
3.000000000000000
 43
3.000000000000000
 50
149.9999999999998
  0
INSERT
  5
23E
100
AcDbEntity
  8
MAIN0
  6
BYBLOCK
 62
0
100
AcDbBlockReference
  2
_OPEN
 10
541.2046880050591
 20
191.2620304587385
 30
0.0000000000000000
 41
3.000000000000000
 42
3.000000000000000
 43
3.000000000000000
 50
360.0000000000000
  0
MTEXT
  5
23F
100
AcDbEntity
  8
MAIN0
  6
BYBLOCK
 62
0
100
AcDbMText
 10
500.5248045725574
 20
199.4426386426660
 30
0.0000000000000000
 40
4.649999856948853
 41
0.0000000000000000
 71
     5
 72
     1
  1
\A1;30\U+00B0
 11
0.9659258262890679
 21
-0.2588190451025224
 31
0.0000000000000000
  7
STANDARD
  0
ENDBLK
  5
240
100
AcDbEntity
  8
MAIN0
  6
CONTINUOUS
 62
3
100
AcDbBlockEnd
  0
BLOCK
  5
243
100
AcDbEntity
  8
MAIN0
  6
CONTINUOUS
 62
3
100
AcDbBlockBegin
  2
*D15
 70
    65
 10
0.0
 20
0.0
 30
0.0
  0
LINE
  5
244
100
AcDbEntity
  8
MAIN0
  6
BYBLOCK
 62
0
100
AcDbLine
 10
504.4646132219958
 20
214.1462046944668
 30
0.0000000000000000
 11
501.6053741043731
 21
203.4753790365112
 31
0.0000000000000000
  0
ARC
  5
245
100
AcDbEntity
  8
MAIN0
  6
BYBLOCK
 62
0
100
AcDbCircle
 10
541.2046880050591
 20
351.2620304587389
 30
0.0000000000000000
 40
150.0000000000003
100
AcDbArc
 50
256.1459155902616
 51
268.8540844097384
  0
INSERT
  5
246
100
AcDbEntity
  8
MAIN0
  6
BYBLOCK
 62
0
100
AcDbBlockReference
  2
_OPEN
 10
502.3818312396807
 20
206.3731565153784
 30
0.0000000000000000
 41
3.000000000000000
 42
3.000000000000000
 43
3.000000000000000
 50
165.0000000000000
  0
INSERT
  5
247
100
AcDbEntity
  8
MAIN0
  6
BYBLOCK
 62
0
100
AcDbBlockReference
  2
_OPEN
 10
541.2046880050591
 20
201.2620304587385
 30
0.0000000000000000
 41
3.000000000000000
 42
3.000000000000000
 43
3.000000000000000
 50
360.0000000000000
  0
MTEXT
  5
248
100
AcDbEntity
  8
MAIN0
  6
BYBLOCK
 62
0
100
AcDbMText
 10
521.9944956557368
 20
205.3461329151343
 30
0.0000000000000000
 40
4.649999856948853
 41
0.0000000000000000
 71
     5
 72
     1
  1
\A1;15\U+00B0
 11
0.9914448613738103
 21
-0.1305261922200526
 31
0.0000000000000000
  7
STANDARD
  0
ENDBLK
  5
249
100
AcDbEntity
  8
MAIN0
  6
CONTINUOUS
 62
3
100
AcDbBlockEnd
  0
BLOCK
  5
24B
100
AcDbEntity
  8
MAIN0
  6
CONTINUOUS
 62
1
100
AcDbBlockBegin
  2
*D16
 70
    65
 10
0.0
 20
0.0
 30
0.0
  0
LINE
  5
24C
100
AcDbEntity
  8
MAIN0
  6
BYBLOCK
 62
0
100
AcDbLine
 10
753.2046880050592
 20
511.2620304587385
 30
0.0000000000000000
 11
632.2046880050605
 21
511.2620304587385
 31
0.0000000000000000
  0
INSERT
  5
24D
100
AcDbEntity
  8
MAIN0
  6
BYBLOCK
 62
0
100
AcDbBlockReference
  2
_OPEN
 10
756.2046880050592
 20
511.2620304587385
 30
0.0000000000000000
 41
3.000000000000000
 42
3.000000000000000
 43
3.000000000000000
 50
360.0000000000000
  0
INSERT
  5
24E
100
AcDbEntity
  8
MAIN0
  6
BYBLOCK
 62
0
100
AcDbBlockReference
  2
_OPEN
 10
629.2046880050605
 20
511.2620304587385
 30
0.0000000000000000
 41
3.000000000000000
 42
3.000000000000000
 43
3.000000000000000
 50
180.0000000000000
  0
LINE
  5
24F
100
AcDbEntity
  8
MAIN0
  6
BYBLOCK
 62
0
100
AcDbLine
 10
629.2046880050605
 20
520.6620304408572
 30
0.0000000000000000
 11
629.2046880050605
 21
508.2620304587385
 31
0.0000000000000000
  0
MTEXT
  5
250
100
AcDbEntity
  8
MAIN0
  6
BYBLOCK
 62
0
100
AcDbMText
 10
692.7046880050598
 20
514.0870303872130
 30
0.0000000000000000
 40
4.649999856948853
 41
0.0000000000000000
 71
     5
 72
     1
  1
\A1;MAX 337
 11
1.000000000000000
 21
0.0000000000000000
 31
0.0000000000000000
  7
STANDARD
  0
ENDBLK
  5
251
100
AcDbEntity
  8
MAIN0
  6
CONTINUOUS
 62
1
100
AcDbBlockEnd
  0
BLOCK
  5
253
100
AcDbEntity
  8
MAIN0
  6
CONTINUOUS
 62
3
100
AcDbBlockBegin
  2
*D17
 70
    65
 10
0.0
 20
0.0
 30
0.0
  0
LINE
  5
254
100
AcDbEntity
  8
MAIN0
  6
BYBLOCK
 62
0
100
AcDbLine
 10
665.6046879871790
 20
541.2620304587385
 30
0.0000000000000000
 11
653.2046880050591
 21
541.2620304587385
 31
0.0000000000000000
  0
LINE
  5
255
100
AcDbEntity
  8
MAIN0
  6
BYBLOCK
 62
0
100
AcDbLine
 10
656.2046880050591
 20
538.2620304587385
 30
0.0000000000000000
 11
656.2046880050591
 21
524.2620304587385
 31
0.0000000000000000
  0
INSERT
  5
256
100
AcDbEntity
  8
MAIN0
  6
BYBLOCK
 62
0
100
AcDbBlockReference
  2
_OPEN
 10
656.2046880050591
 20
541.2620304587385
 30
0.0000000000000000
 41
3.000000000000000
 42
3.000000000000000
 43
3.000000000000000
 50
90.00000000000000
  0
INSERT
  5
257
100
AcDbEntity
  8
MAIN0
  6
BYBLOCK
 62
0
100
AcDbBlockReference
  2
_OPEN
 10
656.2046880050591
 20
521.2620304587385
 30
0.0000000000000000
 41
3.000000000000000
 42
3.000000000000000
 43
3.000000000000000
 50
270.0000000000000
  0
LINE
  5
258
100
AcDbEntity
  8
MAIN0
  6
BYBLOCK
 62
0
100
AcDbLine
 10
665.6046879871790
 20
521.2620304587385
 30
0.0000000000000000
 11
653.2046880050591
 21
521.2620304587385
 31
0.0000000000000000
  0
MTEXT
  5
259
100
AcDbEntity
  8
MAIN0
  6
BYBLOCK
 62
0
100
AcDbMText
 10
653.3796880765847
 20
531.2620304587385
 30
0.0000000000000000
 40
4.649999856948853
 41
0.0000000000000000
 71
     5
 72
     1
  1
\A1;\U+220520
 11
6.123233995736766e-017
 21
1.000000000000000
 31
0.0000000000000000
  7
STANDARD
  0
ENDBLK
  5
25A
100
AcDbEntity
  8
MAIN0
  6
CONTINUOUS
 62
3
100
AcDbBlockEnd
  0
BLOCK
  5
25C
100
AcDbEntity
  8
MAIN0
  6
CONTINUOUS
 62
3
100
AcDbBlockBegin
  2
*D18
 70
    65
 10
0.0
 20
0.0
 30
0.0
  0
LINE
  5
25D
100
AcDbEntity
  8
MAIN0
  6
BYBLOCK
 62
0
100
AcDbLine
 10
676.2046880050604
 20
541.8620304766200
 30
0.0000000000000000
 11
676.2046880050604
 21
559.2620304587385
 31
0.0000000000000000
  0
LINE
  5
25E
100
AcDbEntity
  8
MAIN0
  6
BYBLOCK
 62
0
100
AcDbLine
 10
676.2046880050604
 20
556.2620304587385
 30
0.0000000000000000
 11
666.2046880050604
 21
556.2620304587385
 31
0.0000000000000000
  0
INSERT
  5
25F
100
AcDbEntity
  8
MAIN0
  6
BYBLOCK
 62
0
100
AcDbBlockReference
  2
_OPEN
 10
676.2046880050604
 20
556.2620304587385
 30
0.0000000000000000
 41
3.000000000000000
 42
3.000000000000000
 43
3.000000000000000
 50
180.0000000000000
  0
INSERT
  5
260
100
AcDbEntity
  8
MAIN0
  6
BYBLOCK
 62
0
100
AcDbBlockReference
  2
_OPEN
 10
666.2046880050604
 20
556.2620304587385
 30
0.0000000000000000
 41
3.000000000000000
 42
3.000000000000000
 43
3.000000000000000
 50
360.0000000000000
  0
LINE
  5
261
100
AcDbEntity
  8
MAIN0
  6
BYBLOCK
 62
0
100
AcDbLine
 10
679.2046880050604
 20
556.2620304587385
 30
0.0000000000000000
 11
680.7046880050604
 21
556.2620304587385
 31
0.0000000000000000
  0
LINE
  5
262
100
AcDbEntity
  8
MAIN0
  6
BYBLOCK
 62
0
100
AcDbLine
 10
663.2046880050604
 20
556.2620304587385
 30
0.0000000000000000
 11
661.7046880050604
 21
556.2620304587385
 31
0.0000000000000000
  0
LINE
  5
263
100
AcDbEntity
  8
MAIN0
  6
BYBLOCK
 62
0
100
AcDbLine
 10
666.2046880050604
 20
541.8620304766200
 30
0.0000000000000000
 11
666.2046880050604
 21
559.2620304587385
 31
0.0000000000000000
  0
MTEXT
  5
264
100
AcDbEntity
  8
MAIN0
  6
BYBLOCK
 62
0
100
AcDbMText
 10
671.2046880050604
 20
559.0870303872130
 30
0.0000000000000000
 40
4.649999856948853
 41
0.0000000000000000
 71
     5
 72
     1
  1
\A1;10
 11
1.000000000000000
 21
0.0000000000000000
 31
0.0000000000000000
  7
STANDARD
  0
ENDBLK
  5
265
100
AcDbEntity
  8
MAIN0
  6
CONTINUOUS
 62
3
100
AcDbBlockEnd
  0
BLOCK
  5
267
100
AcDbEntity
  8
MAIN0
  6
CONTINUOUS
 62
3
100
AcDbBlockBegin
  2
*D19
 70
    65
 10
0.0
 20
0.0
 30
0.0
  0
LINE
  5
268
100
AcDbEntity
  8
MAIN0
  6
BYBLOCK
 62
0
100
AcDbLine
 10
136.4160067172840
 20
105.2680020968448
 30
0.0000000000000000
 11
136.4160067173005
 21
84.26566177984165
 31
0.0000000000000000
  0
LINE
  5
269
100
AcDbEntity
  8
MAIN0
  6
BYBLOCK
 62
0
100
AcDbLine
 10
139.4160067172981
 20
87.26566177984165
 30
0.0000000000000000
 11
160.4060067172875
 21
87.26566177984165
 31
0.0000000000000000
  0
INSERT
  5
26A
100
AcDbEntity
  8
MAIN0
  6
BYBLOCK
 62
0
100
AcDbBlockReference
  2
_OPEN
 10
136.4160067172981
 20
87.26566177984165
 30
0.0000000000000000
 41
3.000000000000000
 42
3.000000000000000
 43
3.000000000000000
 50
180.0000000000000
  0
INSERT
  5
26B
100
AcDbEntity
  8
MAIN0
  6
BYBLOCK
 62
0
100
AcDbBlockReference
  2
_OPEN
 10
163.4060067172875
 20
87.26566177984165
 30
0.0000000000000000
 41
3.000000000000000
 42
3.000000000000000
 43
3.000000000000000
 50
0.0000000000000000
  0
LINE
  5
26C
100
AcDbEntity
  8
MAIN0
  6
BYBLOCK
 62
0
100
AcDbLine
 10
163.4060067172827
 20
102.4495514947805
 30
0.0000000000000000
 11
163.4060067172885
 21
84.26566177984165
 31
0.0000000000000000
  0
MTEXT
  5
26D
100
AcDbEntity
  8
MAIN0
  6
BYBLOCK
 62
0
100
AcDbMText
 10
149.9110067172928
 20
90.09066170831608
 30
0.0000000000000000
 40
4.649999856948853
 41
0.0000000000000000
 71
     5
 72
     1
  1
\A1;26.99
 11
1.000000000000000
 21
0.0000000000000000
 31
0.0000000000000000
  7
STANDARD
  0
ENDBLK
  5
26E
100
AcDbEntity
  8
MAIN0
  6
CONTINUOUS
 62
3
100
AcDbBlockEnd
  0
BLOCK
  5
270
100
AcDbEntity
  8
MAIN0
  6
CONTINUOUS
 62
3
100
AcDbBlockBegin
  2
*D20
 70
    65
 10
0.0
 20
0.0
 30
0.0
  0
LINE
  5
271
100
AcDbEntity
  8
MAIN0
  6
BYBLOCK
 62
0
100
AcDbLine
 10
176.0046879871777
 20
487.7620304587385
 30
0.0000000000000000
 11
118.2046880050592
 21
487.7620304587385
 31
0.0000000000000000
  0
LINE
  5
272
100
AcDbEntity
  8
MAIN0
  6
BYBLOCK
 62
0
100
AcDbLine
 10
121.2046880050592
 20
484.7620304587385
 30
0.0000000000000000
 11
121.2046880050592
 21
217.7620304587386
 31
0.0000000000000000
  0
INSERT
  5
273
100
AcDbEntity
  8
MAIN0
  6
BYBLOCK
 62
0
100
AcDbBlockReference
  2
_OPEN
 10
121.2046880050592
 20
487.7620304587385
 30
0.0000000000000000
 41
3.000000000000000
 42
3.000000000000000
 43
3.000000000000000
 50
90.00000000000000
  0
INSERT
  5
274
100
AcDbEntity
  8
MAIN0
  6
BYBLOCK
 62
0
100
AcDbBlockReference
  2
_OPEN
 10
121.2046880050592
 20
214.7620304587386
 30
0.0000000000000000
 41
3.000000000000000
 42
3.000000000000000
 43
3.000000000000000
 50
270.0000000000000
  0
LINE
  5
275
100
AcDbEntity
  8
MAIN0
  6
BYBLOCK
 62
0
100
AcDbLine
 10
176.0046879871778
 20
214.7620304587386
 30
0.0000000000000000
 11
118.2046880050592
 21
214.7620304587386
 31
0.0000000000000000
  0
MTEXT
  5
276
100
AcDbEntity
  8
MAIN0
  6
BYBLOCK
 62
0
100
AcDbMText
 10
118.3796880765847
 20
351.2620304587385
 30
0.0000000000000000
 40
4.649999856948853
 41
0.0000000000000000
 71
     5
 72
     1
  1
\A1;\U+2205273
 11
6.123233995736766e-017
 21
1.000000000000000
 31
0.0000000000000000
  7
STANDARD
  0
ENDBLK
  5
277
100
AcDbEntity
  8
MAIN0
  6
CONTINUOUS
 62
3
100
AcDbBlockEnd
  0
BLOCK
  5
279
100
AcDbEntity
  8
MAIN0
  6
CONTINUOUS
 62
3
100
AcDbBlockBegin
  2
*D21
 70
    65
 10
0.0
 20
0.0
 30
0.0
  0
LINE
  5
27A
100
AcDbEntity
  8
MAIN0
  6
BYBLOCK
 62
0
100
AcDbLine
 10
261.2046880050592
 20
486.9620304766199
 30
0.0000000000000000
 11
261.2046880050592
 21
524.2620304587385
 31
0.0000000000000000
  0
LINE
  5
27B
100
AcDbEntity
  8
MAIN0
  6
BYBLOCK
 62
0
100
AcDbLine
 10
258.2046880050592
 20
521.2620304587385
 30
0.0000000000000000
 11
209.7046880050592
 21
521.2620304587385
 31
0.0000000000000000
  0
INSERT
  5
27C
100
AcDbEntity
  8
MAIN0
  6
BYBLOCK
 62
0
100
AcDbBlockReference
  2
_OPEN
 10
261.2046880050592
 20
521.2620304587385
 30
0.0000000000000000
 41
3.000000000000000
 42
3.000000000000000
 43
3.000000000000000
 50
360.0000000000000
  0
INSERT
  5
27D
100
AcDbEntity
  8
MAIN0
  6
BYBLOCK
 62
0
100
AcDbBlockReference
  2
_OPEN
 10
206.7046880050592
 20
521.2620304587385
 30
0.0000000000000000
 41
3.000000000000000
 42
3.000000000000000
 43
3.000000000000000
 50
180.0000000000000
  0
LINE
  5
27E
100
AcDbEntity
  8
MAIN0
  6
BYBLOCK
 62
0
100
AcDbLine
 10
206.7046880050592
 20
497.4620304766199
 30
0.0000000000000000
 11
206.7046880050592
 21
524.2620304587385
 31
0.0000000000000000
  0
MTEXT
  5
27F
100
AcDbEntity
  8
MAIN0
  6
BYBLOCK
 62
0
100
AcDbMText
 10
233.9546880050592
 20
524.0870303872130
 30
0.0000000000000000
 40
4.649999856948853
 41
0.0000000000000000
 71
     5
 72
     1
  1
\A1;54.5
 11
1.000000000000000
 21
0.0000000000000000
 31
0.0000000000000000
  7
STANDARD
  0
ENDBLK
  5
280
100
AcDbEntity
  8
MAIN0
  6
CONTINUOUS
 62
3
100
AcDbBlockEnd
  0
BLOCK
  5
282
100
AcDbEntity
  8
MAIN0
  6
CONTINUOUS
 62
3
100
AcDbBlockBegin
  2
*D22
 70
    65
 10
0.0
 20
0.0
 30
0.0
  0
LINE
  5
283
100
AcDbEntity
  8
MAIN0
  6
BYBLOCK
 62
0
100
AcDbLine
 10
206.7046880050592
 20
497.4620304766199
 30
0.0000000000000000
 11
206.7046880050592
 21
524.2620304587385
 31
0.0000000000000000
  0
LINE
  5
284
100
AcDbEntity
  8
MAIN0
  6
BYBLOCK
 62
0
100
AcDbLine
 10
203.7046880050592
 20
521.2620304587385
 30
0.0000000000000000
 11
178.2046880050592
 21
521.2620304587385
 31
0.0000000000000000
  0
INSERT
  5
285
100
AcDbEntity
  8
MAIN0
  6
BYBLOCK
 62
0
100
AcDbBlockReference
  2
_OPEN
 10
206.7046880050592
 20
521.2620304587385
 30
0.0000000000000000
 41
3.000000000000000
 42
3.000000000000000
 43
3.000000000000000
 50
360.0000000000000
  0
INSERT
  5
286
100
AcDbEntity
  8
MAIN0
  6
BYBLOCK
 62
0
100
AcDbBlockReference
  2
_OPEN
 10
175.2046880050592
 20
521.2620304587385
 30
0.0000000000000000
 41
3.000000000000000
 42
3.000000000000000
 43
3.000000000000000
 50
180.0000000000000
  0
LINE
  5
287
100
AcDbEntity
  8
MAIN0
  6
BYBLOCK
 62
0
100
AcDbLine
 10
175.2046880050592
 20
486.9620304766199
 30
0.0000000000000000
 11
175.2046880050592
 21
524.2620304587385
 31
0.0000000000000000
  0
MTEXT
  5
288
100
AcDbEntity
  8
MAIN0
  6
BYBLOCK
 62
0
100
AcDbMText
 10
190.9546880050592
 20
524.0870303872130
 30
0.0000000000000000
 40
4.649999856948853
 41
0.0000000000000000
 71
     5
 72
     1
  1
\A1;31.5
 11
1.000000000000000
 21
0.0000000000000000
 31
0.0000000000000000
  7
STANDARD
  0
ENDBLK
  5
289
100
AcDbEntity
  8
MAIN0
  6
CONTINUOUS
 62
3
100
AcDbBlockEnd
  0
BLOCK
  5
28B
100
AcDbEntity
  8
MAIN0
  6
CONTINUOUS
 62
3
100
AcDbBlockBegin
  2
*D23
 70
    65
 10
0.0
 20
0.0
 30
0.0
  0
LINE
  5
28C
100
AcDbEntity
  8
MAIN0
  6
BYBLOCK
 62
0
100
AcDbLine
 10
175.2046880050592
 20
486.9620304766199
 30
0.0000000000000000
 11
175.2046880050592
 21
534.2620304587385
 31
0.0000000000000000
  0
LINE
  5
28D
100
AcDbEntity
  8
MAIN0
  6
BYBLOCK
 62
0
100
AcDbLine
 10
178.2046880050592
 20
531.2620304587385
 30
0.0000000000000000
 11
258.2046880050592
 21
531.2620304587385
 31
0.0000000000000000
  0
INSERT
  5
28E
100
AcDbEntity
  8
MAIN0
  6
BYBLOCK
 62
0
100
AcDbBlockReference
  2
_OPEN
 10
175.2046880050592
 20
531.2620304587385
 30
0.0000000000000000
 41
3.000000000000000
 42
3.000000000000000
 43
3.000000000000000
 50
180.0000000000000
  0
INSERT
  5
28F
100
AcDbEntity
  8
MAIN0
  6
BYBLOCK
 62
0
100
AcDbBlockReference
  2
_OPEN
 10
261.2046880050592
 20
531.2620304587385
 30
0.0000000000000000
 41
3.000000000000000
 42
3.000000000000000
 43
3.000000000000000
 50
0.0000000000000000
  0
LINE
  5
290
100
AcDbEntity
  8
MAIN0
  6
BYBLOCK
 62
0
100
AcDbLine
 10
261.2046880050592
 20
486.9620304766199
 30
0.0000000000000000
 11
261.2046880050592
 21
534.2620304587385
 31
0.0000000000000000
  0
MTEXT
  5
291
100
AcDbEntity
  8
MAIN0
  6
BYBLOCK
 62
0
100
AcDbMText
 10
218.2046880050592
 20
534.0870303872130
 30
0.0000000000000000
 40
4.649999856948853
 41
0.0000000000000000
 71
     5
 72
     1
  1
\A1;86
 11
1.000000000000000
 21
0.0000000000000000
 31
0.0000000000000000
  7
STANDARD
  0
ENDBLK
  5
292
100
AcDbEntity
  8
MAIN0
  6
CONTINUOUS
 62
3
100
AcDbBlockEnd
  0
BLOCK
  5
294
100
AcDbEntity
  8
MAIN0
  6
CONTINUOUS
 62
3
100
AcDbBlockBegin
  2
*D24
 70
    65
 10
0.0
 20
0.0
 30
0.0
  0
LINE
  5
295
100
AcDbEntity
  8
MAIN0
  6
BYBLOCK
 62
0
100
AcDbLine
 10
461.5256304529686
 20
260.2002503992062
 30
0.0000000000000000
 11
620.8837455571497
 21
442.3238105182709
 31
0.0000000000000000
  0
INSERT
  5
296
100
AcDbEntity
  8
MAIN0
  6
BYBLOCK
 62
0
100
AcDbBlockReference
  2
_OPEN
 10
459.5501166293631
 20
257.9425203150856
 30
0.0000000000000000
 41
3.000000000000000
 42
3.000000000000000
 43
3.000000000000000
 50
228.8140748342904
  0
INSERT
  5
297
100
AcDbEntity
  8
MAIN0
  6
BYBLOCK
 62
0
100
AcDbBlockReference
  2
_OPEN
 10
622.8592593807553
 20
444.5815406023914
 30
0.0000000000000000
 41
3.000000000000000
 42
3.000000000000000
 43
3.000000000000000
 50
48.81407483429043
  0
MTEXT
  5
298
100
AcDbEntity
  8
MAIN0
  6
BYBLOCK
 62
0
100
AcDbMText
 10
482.9704733061494
 20
289.3783133191031
 30
0.0000000000000000
 40
4.649999856948853
 41
0.0000000000000000
 71
     5
 72
     1
  1
\A1;\U+2205248\H0.903226x;\U+00B10.2
 11
0.6585046078685173
 21
0.7525766947068786
 31
0.0000000000000000
  7
STANDARD
  0
ENDBLK
  5
299
100
AcDbEntity
  8
MAIN0
  6
CONTINUOUS
 62
3
100
AcDbBlockEnd
  0
BLOCK
  5
29B
100
AcDbEntity
  8
MAIN0
  6
CONTINUOUS
 62
3
100
AcDbBlockBegin
  2
*D25
 70
    65
 10
0.0
 20
0.0
 30
0.0
  0
LINE
  5
29C
100
AcDbEntity
  8
MAIN0
  6
BYBLOCK
 62
0
100
AcDbLine
 10
786.2046880050591
 20
534.2620304587385
 30
0.0000000000000000
 11
786.2046880050591
 21
543.2620304587385
 31
0.0000000000000000
  0
INSERT
  5
29D
100
AcDbEntity
  8
MAIN0
  6
BYBLOCK
 62
0
100
AcDbBlockReference
  2
_OPEN
 10
786.2046880050591
 20
531.2620304587385
 30
0.0000000000000000
 41
3.000000000000000
 42
3.000000000000000
 43
3.000000000000000
 50
270.0000000000000
  0
INSERT
  5
29E
100
AcDbEntity
  8
MAIN0
  6
BYBLOCK
 62
0
100
AcDbBlockReference
  2
_OPEN
 10
786.2046880050591
 20
546.2620304587385
 30
0.0000000000000000
 41
3.000000000000000
 42
3.000000000000000
 43
3.000000000000000
 50
90.00000000000000
  0
LINE
  5
29F
100
AcDbEntity
  8
MAIN0
  6
BYBLOCK
 62
0
100
AcDbLine
 10
786.2046880050591
 20
546.2620304587385
 30
0.0000000000000000
 11
786.2046880050591
 21
554.3991802053909
 31
0.0000000000000000
  0
LINE
  5
2A0
100
AcDbEntity
  8
MAIN0
  6
BYBLOCK
 62
0
100
AcDbLine
 10
768.4046880229406
 20
546.2620304587385
 30
0.0000000000000000
 11
789.2046880050591
 21
546.2620304587385
 31
0.0000000000000000
  0
MTEXT
  5
2A1
100
AcDbEntity
  8
MAIN0
  6
BYBLOCK
 62
0
100
AcDbMText
 10
783.1296880765847
 20
551.3241802769164
 30
0.0000000000000000
 40
4.649999856948853
 41
0.0000000000000000
 71
     5
 72
     1
  1
\A1;15
 11
6.123233995736766e-017
 21
1.000000000000000
 31
0.0000000000000000
  7
STANDARD
  0
ENDBLK
  5
2A2
100
AcDbEntity
  8
MAIN0
  6
CONTINUOUS
 62
3
100
AcDbBlockEnd
  0
BLOCK
  5
2A4
100
AcDbEntity
  8
MAIN0
  6
CONTINUOUS
 62
3
100
AcDbBlockBegin
  2
*D26
 70
    65
 10
0.0
 20
0.0
 30
0.0
  0
LINE
  5
2A5
100
AcDbEntity
  8
MAIN0
  6
BYBLOCK
 62
0
100
AcDbLine
 10
315.2046880050592
 20
368.9620304766181
 30
0.0000000000000000
 11
315.2046880050592
 21
384.2620304587387
 31
0.0000000000000000
  0
LINE
  5
2A6
100
AcDbEntity
  8
MAIN0
  6
BYBLOCK
 62
0
100
AcDbLine
 10
312.2046880050592
 20
381.2620304587387
 30
0.0000000000000000
 11
264.2046880050592
 21
381.2620304587387
 31
0.0000000000000000
  0
INSERT
  5
2A7
100
AcDbEntity
  8
MAIN0
  6
BYBLOCK
 62
0
100
AcDbBlockReference
  2
_OPEN
 10
315.2046880050592
 20
381.2620304587387
 30
0.0000000000000000
 41
3.000000000000000
 42
3.000000000000000
 43
3.000000000000000
 50
360.0000000000000
  0
INSERT
  5
2A8
100
AcDbEntity
  8
MAIN0
  6
BYBLOCK
 62
0
100
AcDbBlockReference
  2
_OPEN
 10
261.2046880050592
 20
381.2620304587387
 30
0.0000000000000000
 41
3.000000000000000
 42
3.000000000000000
 43
3.000000000000000
 50
180.0000000000000
  0
MTEXT
  5
2A9
100
AcDbEntity
  8
MAIN0
  6
BYBLOCK
 62
0
100
AcDbMText
 10
288.2046880050592
 20
384.0870303872131
 30
0.0000000000000000
 40
4.649999856948853
 41
0.0000000000000000
 71
     5
 72
     1
  1
\A1;54
 11
1.000000000000000
 21
0.0000000000000000
 31
0.0000000000000000
  7
STANDARD
  0
ENDBLK
  5
2AA
100
AcDbEntity
  8
MAIN0
  6
CONTINUOUS
 62
3
100
AcDbBlockEnd
  0
BLOCK
  5
352
100
AcDbEntity
  8
MAIN0
  6
CONTINUOUS
 62
1
100
AcDbBlockBegin
  2
*D27
 70
    65
 10
0.0
 20
0.0
 30
0.0
  0
LINE
  5
353
100
AcDbEntity
  8
MAIN0
  6
BYBLOCK
 62
0
100
AcDbLine
 10
846.2046880050591
 20
541.8620304766200
 30
0.0000000000000000
 11
846.2046880050591
 21
569.2620304587385
 31
0.0000000000000000
  0
LINE
  5
354
100
AcDbEntity
  8
MAIN0
  6
BYBLOCK
 62
0
100
AcDbLine
 10
843.2046880050591
 20
566.2620304587385
 30
0.0000000000000000
 11
669.2046880050604
 21
566.2620304587385
 31
0.0000000000000000
  0
INSERT
  5
355
100
AcDbEntity
  8
MAIN0
  6
BYBLOCK
 62
0
100
AcDbBlockReference
  2
_OPEN
 10
846.2046880050591
 20
566.2620304587385
 30
0.0000000000000000
 41
3.000000000000000
 42
3.000000000000000
 43
3.000000000000000
 50
360.0000000000000
  0
INSERT
  5
356
100
AcDbEntity
  8
MAIN0
  6
BYBLOCK
 62
0
100
AcDbBlockReference
  2
_OPEN
 10
666.2046880050604
 20
566.2620304587385
 30
0.0000000000000000
 41
3.000000000000000
 42
3.000000000000000
 43
3.000000000000000
 50
180.0000000000000
  0
LINE
  5
357
100
AcDbEntity
  8
MAIN0
  6
BYBLOCK
 62
0
100
AcDbLine
 10
666.2046880050604
 20
541.8620304766200
 30
0.0000000000000000
 11
666.2046880050604
 21
569.2620304587385
 31
0.0000000000000000
  0
MTEXT
  5
358
100
AcDbEntity
  8
MAIN0
  6
BYBLOCK
 62
0
100
AcDbMText
 10
757.8992701108157
 20
569.3370303872130
 30
0.0000000000000000
 40
4.649999856948853
 41
0.0000000000000000
 71
     5
 72
     1
  1
\A1;360
 11
1.000000000000000
 21
0.0000000000000000
 31
0.0000000000000000
  7
STANDARD
  0
ENDBLK
  5
359
100
AcDbEntity
  8
MAIN0
  6
CONTINUOUS
 62
1
100
AcDbBlockEnd
  0
BLOCK
  5
35B
100
AcDbEntity
  8
MAIN0
  6
CONTINUOUS
 62
3
100
AcDbBlockBegin
  2
*D28
 70
    65
 10
0.0
 20
0.0
 30
0.0
  0
LINE
  5
35C
100
AcDbEntity
  8
MAIN0
  6
BYBLOCK
 62
0
100
AcDbLine
 10
743.2046880050592
 20
545.4620304766199
 30
0.0000000000000000
 11
743.2046880050592
 21
559.2620304587385
 31
0.0000000000000000
  0
LINE
  5
35D
100
AcDbEntity
  8
MAIN0
  6
BYBLOCK
 62
0
100
AcDbLine
 10
746.2046880050592
 20
556.2620304587385
 30
0.0000000000000000
 11
766.2046880050592
 21
556.2620304587385
 31
0.0000000000000000
  0
INSERT
  5
35E
100
AcDbEntity
  8
MAIN0
  6
BYBLOCK
 62
0
100
AcDbBlockReference
  2
_OPEN
 10
743.2046880050592
 20
556.2620304587385
 30
0.0000000000000000
 41
3.000000000000000
 42
3.000000000000000
 43
3.000000000000000
 50
180.0000000000000
  0
INSERT
  5
35F
100
AcDbEntity
  8
MAIN0
  6
BYBLOCK
 62
0
100
AcDbBlockReference
  2
_OPEN
 10
769.2046880050592
 20
556.2620304587385
 30
0.0000000000000000
 41
3.000000000000000
 42
3.000000000000000
 43
3.000000000000000
 50
0.0000000000000000
  0
LINE
  5
360
100
AcDbEntity
  8
MAIN0
  6
BYBLOCK
 62
0
100
AcDbLine
 10
769.2046880050592
 20
545.4620304766199
 30
0.0000000000000000
 11
769.2046880050592
 21
559.2620304587385
 31
0.0000000000000000
  0
MTEXT
  5
361
100
AcDbEntity
  8
MAIN0
  6
BYBLOCK
 62
0
100
AcDbMText
 10
756.2046880050592
 20
559.0870303872130
 30
0.0000000000000000
 40
4.649999856948853
 41
0.0000000000000000
 71
     5
 72
     1
  1
\A1;\U+220526
 11
1.000000000000000
 21
0.0000000000000000
 31
0.0000000000000000
  7
STANDARD
  0
ENDBLK
  5
362
100
AcDbEntity
  8
MAIN0
  6
CONTINUOUS
 62
3
100
AcDbBlockEnd
  0
BLOCK
  5
364
100
AcDbEntity
  8
MAIN0
  6
CONTINUOUS
 62
3
100
AcDbBlockBegin
  2
*D29
 70
    65
 10
0.0
 20
0.0
 30
0.0
  0
LINE
  5
365
100
AcDbEntity
  8
MAIN0
  6
BYBLOCK
 62
0
100
AcDbLine
 10
731.2046880050591
 20
537.2620304587385
 30
0.0000000000000000
 11
731.2046880050591
 21
525.2620304587385
 31
0.0000000000000000
  0
INSERT
  5
366
100
AcDbEntity
  8
MAIN0
  6
BYBLOCK
 62
0
100
AcDbBlockReference
  2
_OPEN
 10
731.2046880050591
 20
537.2620304587385
 30
0.0000000000000000
 41
3.000000000000000
 42
3.000000000000000
 43
3.000000000000000
 50
270.0000000000000
  0
INSERT
  5
367
100
AcDbEntity
  8
MAIN0
  6
BYBLOCK
 62
0
100
AcDbBlockReference
  2
_OPEN
 10
731.2046880050591
 20
525.2620304587385
 30
0.0000000000000000
 41
3.000000000000000
 42
3.000000000000000
 43
3.000000000000000
 50
90.00000000000000
  0
LINE
  5
368
100
AcDbEntity
  8
MAIN0
  6
BYBLOCK
 62
0
100
AcDbLine
 10
731.2046880050591
 20
540.2620304587385
 30
0.0000000000000000
 11
731.2046880050591
 21
550.5505271352386
 31
0.0000000000000000
  0
LINE
  5
369
100
AcDbEntity
  8
MAIN0
  6
BYBLOCK
 62
0
100
AcDbLine
 10
731.2046880050591
 20
522.2620304587385
 30
0.0000000000000000
 11
731.2046880050591
 21
520.7620304587385
 31
0.0000000000000000
  0
MTEXT
  5
36A
100
AcDbEntity
  8
MAIN0
  6
BYBLOCK
 62
0
100
AcDbMText
 10
728.1296880765847
 20
545.5255272782897
 30
0.0000000000000000
 40
4.649999856948853
 41
0.0000000000000000
 71
     5
 72
     1
  1
\A1;\U+220512
 11
6.123233995736766e-017
 21
1.000000000000000
 31
0.0000000000000000
  7
STANDARD
  0
ENDBLK
  5
36B
100
AcDbEntity
  8
MAIN0
  6
CONTINUOUS
 62
3
100
AcDbBlockEnd
  0
BLOCK
  5
36D
100
AcDbEntity
  8
MAIN0
  6
CONTINUOUS
 62
3
100
AcDbBlockBegin
  2
*D30
 70
    65
 10
0.0
 20
0.0
 30
0.0
  0
LINE
  5
36E
100
AcDbEntity
  8
MAIN0
  6
BYBLOCK
 62
0
100
AcDbLine
 10
768.4046880229406
 20
546.2620304587385
 30
0.0000000000000000
 11
799.2046880050591
 21
546.2620304587385
 31
0.0000000000000000
  0
LINE
  5
36F
100
AcDbEntity
  8
MAIN0
  6
BYBLOCK
 62
0
100
AcDbLine
 10
796.2046880050591
 20
543.2620304587385
 30
0.0000000000000000
 11
796.2046880050591
 21
389.2620304587385
 31
0.0000000000000000
  0
INSERT
  5
370
100
AcDbEntity
  8
MAIN0
  6
BYBLOCK
 62
0
100
AcDbBlockReference
  2
_OPEN
 10
796.2046880050591
 20
546.2620304587385
 30
0.0000000000000000
 41
3.000000000000000
 42
3.000000000000000
 43
3.000000000000000
 50
90.00000000000000
  0
INSERT
  5
371
100
AcDbEntity
  8
MAIN0
  6
BYBLOCK
 62
0
100
AcDbBlockReference
  2
_OPEN
 10
796.2046880050591
 20
386.2620304587385
 30
0.0000000000000000
 41
3.000000000000000
 42
3.000000000000000
 43
3.000000000000000
 50
270.0000000000000
  0
LINE
  5
372
100
AcDbEntity
  8
MAIN0
  6
BYBLOCK
 62
0
100
AcDbLine
 10
762.2690473753655
 20
386.2620304587385
 30
0.0000000000000000
 11
799.2046880050591
 21
386.2620304587385
 31
0.0000000000000000
  0
MTEXT
  5
373
100
AcDbEntity
  8
MAIN0
  6
BYBLOCK
 62
0
100
AcDbMText
 10
793.3796880765847
 20
466.2620304587385
 30
0.0000000000000000
 40
4.649999856948853
 41
0.0000000000000000
 71
     5
 72
     1
  1
\A1;160
 11
6.123233995736766e-017
 21
1.000000000000000
 31
0.0000000000000000
  7
STANDARD
  0
ENDBLK
  5
374
100
AcDbEntity
  8
MAIN0
  6
CONTINUOUS
 62
3
100
AcDbBlockEnd
  0
BLOCK
  5
376
100
AcDbEntity
  8
MAIN0
  6
CONTINUOUS
 62
3
100
AcDbBlockBegin
  2
*D31
 70
    65
 10
0.0
 20
0.0
 30
0.0
  0
LINE
  5
377
100
AcDbEntity
  8
MAIN0
  6
BYBLOCK
 62
0
100
AcDbLine
 10
762.2690473753655
 20
386.2620304587385
 30
0.0000000000000000
 11
789.2046880050591
 21
386.2620304587385
 31
0.0000000000000000
  0
LINE
  5
378
100
AcDbEntity
  8
MAIN0
  6
BYBLOCK
 62
0
100
AcDbLine
 10
786.2046880050591
 20
389.2620304587385
 30
0.0000000000000000
 11
786.2046880050591
 21
399.2620304587385
 31
0.0000000000000000
  0
INSERT
  5
379
100
AcDbEntity
  8
MAIN0
  6
BYBLOCK
 62
0
100
AcDbBlockReference
  2
_OPEN
 10
786.2046880050591
 20
386.2620304587385
 30
0.0000000000000000
 41
3.000000000000000
 42
3.000000000000000
 43
3.000000000000000
 50
270.0000000000000
  0
INSERT
  5
37A
100
AcDbEntity
  8
MAIN0
  6
BYBLOCK
 62
0
100
AcDbBlockReference
  2
_OPEN
 10
786.2046880050591
 20
402.2620304587385
 30
0.0000000000000000
 41
3.000000000000000
 42
3.000000000000000
 43
3.000000000000000
 50
90.00000000000000
  0
LINE
  5
37B
100
AcDbEntity
  8
MAIN0
  6
BYBLOCK
 62
0
100
AcDbLine
 10
765.9046880229406
 20
402.2620304587385
 30
0.0000000000000000
 11
789.2046880050591
 21
402.2620304587385
 31
0.0000000000000000
  0
MTEXT
  5
37C
100
AcDbEntity
  8
MAIN0
  6
BYBLOCK
 62
0
100
AcDbMText
 10
783.3796880765847
 20
394.2620304587385
 30
0.0000000000000000
 40
4.649999856948853
 41
0.0000000000000000
 71
     5
 72
     1
  1
\A1;16
 11
6.123233995736766e-017
 21
1.000000000000000
 31
0.0000000000000000
  7
STANDARD
  0
ENDBLK
  5
37D
100
AcDbEntity
  8
MAIN0
  6
CONTINUOUS
 62
3
100
AcDbBlockEnd
  0
BLOCK
  5
37F
100
AcDbEntity
  8
MAIN0
  6
CONTINUOUS
 62
3
100
AcDbBlockBegin
  2
*D32
 70
    65
 10
0.0
 20
0.0
 30
0.0
  0
LINE
  5
380
100
AcDbEntity
  8
MAIN0
  6
BYBLOCK
 62
0
100
AcDbLine
 10
748.2046880050592
 20
496.2620304587385
 30
0.0000000000000000
 11
764.2046880050592
 21
496.2620304587385
 31
0.0000000000000000
  0
INSERT
  5
381
100
AcDbEntity
  8
MAIN0
  6
BYBLOCK
 62
0
100
AcDbBlockReference
  2
_OPEN
 10
745.2046880050592
 20
496.2620304587385
 30
0.0000000000000000
 41
3.000000000000000
 42
3.000000000000000
 43
3.000000000000000
 50
180.0000000000000
  0
INSERT
  5
382
100
AcDbEntity
  8
MAIN0
  6
BYBLOCK
 62
0
100
AcDbBlockReference
  2
_OPEN
 10
767.2046880050592
 20
496.2620304587385
 30
0.0000000000000000
 41
3.000000000000000
 42
3.000000000000000
 43
3.000000000000000
 50
0.0000000000000000
  0
MTEXT
  5
383
100
AcDbEntity
  8
MAIN0
  6
BYBLOCK
 62
0
100
AcDbMText
 10
756.2046880050592
 20
499.0870303872130
 30
0.0000000000000000
 40
4.649999856948853
 41
0.0000000000000000
 71
     5
 72
     1
  1
\A1;\U+220522
 11
1.000000000000000
 21
0.0000000000000000
 31
0.0000000000000000
  7
STANDARD
  0
ENDBLK
  5
384
100
AcDbEntity
  8
MAIN0
  6
CONTINUOUS
 62
3
100
AcDbBlockEnd
  0
BLOCK
  5
386
100
AcDbEntity
  8
MAIN0
  6
CONTINUOUS
 62
3
100
AcDbBlockBegin
  2
*D33
 70
    65
 10
0.0
 20
0.0
 30
0.0
  0
LINE
  5
387
100
AcDbEntity
  8
MAIN0
  6
BYBLOCK
 62
0
100
AcDbLine
 10
764.9032161551286
 20
344.7340262503142
 30
0.0000000000000000
 11
772.4834119173816
 21
337.1538304880898
 31
0.0000000000000000
  0
LINE
  5
388
100
AcDbEntity
  8
MAIN0
  6
BYBLOCK
 62
0
100
AcDbLine
 10
768.2407712302627
 20
337.1538304880816
 30
0.0000000000000000
 11
763.9981305431516
 21
332.9111898009544
 31
0.0000000000000000
  0
INSERT
  5
389
100
AcDbEntity
  8
MAIN0
  6
BYBLOCK
 62
0
100
AcDbBlockReference
  2
_OPEN
 10
770.3620915738183
 20
339.2751508316453
 30
0.0000000000000000
 41
3.000000000000000
 42
3.000000000000000
 43
3.000000000000000
 50
45.00000000010857
  0
INSERT
  5
38A
100
AcDbEntity
  8
MAIN0
  6
BYBLOCK
 62
0
100
AcDbBlockReference
  2
_OPEN
 10
761.8768101995961
 20
330.7898694573906
 30
0.0000000000000000
 41
3.000000000000000
 42
3.000000000000000
 43
3.000000000000000
 50
225.0000000001086
  0
LINE
  5
38B
100
AcDbEntity
  8
MAIN0
  6
BYBLOCK
 62
0
100
AcDbLine
 10
770.3620915738183
 20
339.2751508316453
 30
0.0000000000000000
 11
788.5929615878522
 21
357.5060208457489
 31
0.0000000000000000
  0
LINE
  5
38C
100
AcDbEntity
  8
MAIN0
  6
BYBLOCK
 62
0
100
AcDbLine
 10
756.4179347809566
 20
336.2487448760091
 30
0.0000000000000000
 11
763.9981305431595
 21
328.6685491138352
 31
0.0000000000000000
  0
MTEXT
  5
38D
100
AcDbEntity
  8
MAIN0
  6
BYBLOCK
 62
0
100
AcDbMText
 10
778.5432064507663
 20
351.8049723117775
 30
0.0000000000000000
 40
4.649999856948853
 41
0.0000000000000000
 71
     5
 72
     1
  1
\A1;□12\H0.903226x;\S　0^ －0.05;
 11
0.7071067811851975
 21
0.7071067811878975
 31
0.0000000000000000
  7
KNJYOKO
  0
ENDBLK
  5
38E
100
AcDbEntity
  8
MAIN0
  6
CONTINUOUS
 62
3
100
AcDbBlockEnd
  0
BLOCK
  5
393
100
AcDbEntity
  8
MAIN0
  6
BYBLOCK
 62
3
100
AcDbBlockBegin
  2
*X0
 70
     1
 10
0.0
 20
0.0
 30
0.0
  0
LINE
  5
394
100
AcDbEntity
  8
MAIN0
  6
BYBLOCK
 62
0
100
AcDbLine
 10
667.6189015673306
 20
536.2620304587393
 30
0.0000000000000000
 11
666.2046880050623
 21
537.6762440210076
 31
0.0000000000000000
  0
LINE
  5
395
100
AcDbEntity
  8
MAIN0
  6
BYBLOCK
 62
0
100
AcDbLine
 10
667.4774802089861
 20
536.2620304587389
 30
0.0000000000000000
 11
666.2046880050613
 21
537.5348226626642
 31
0.0000000000000000
  0
LINE
  5
396
100
AcDbEntity
  8
MAIN0
  6
BYBLOCK
 62
0
100
AcDbLine
 10
667.3360588506400
 20
536.2620304587401
 30
0.0000000000000000
 11
666.2046880050618
 21
537.3934013043188
 31
0.0000000000000000
  0
LINE
  5
397
100
AcDbEntity
  8
MAIN0
  6
BYBLOCK
 62
0
100
AcDbLine
 10
667.1946374922968
 20
536.2620304587383
 30
0.0000000000000000
 11
666.2046880050604
 21
537.2519799459749
 31
0.0000000000000000
  0
LINE
  5
398
100
AcDbEntity
  8
MAIN0
  6
BYBLOCK
 62
0
100
AcDbLine
 10
667.0532161339511
 20
536.2620304587390
 30
0.0000000000000000
 11
666.2046880050597
 21
537.1105585876308
 31
0.0000000000000000
  0
LINE
  5
399
100
AcDbEntity
  8
MAIN0
  6
BYBLOCK
 62
0
100
AcDbLine
 10
666.9117947756068
 20
536.2620304587390
 30
0.0000000000000000
 11
666.2046880050600
 21
536.9691372292859
 31
0.0000000000000000
  0
LINE
  5
39A
100
AcDbEntity
  8
MAIN0
  6
BYBLOCK
 62
0
100
AcDbLine
 10
666.7703734172612
 20
536.2620304587398
 30
0.0000000000000000
 11
666.2046880050596
 21
536.8277158709415
 31
0.0000000000000000
  0
LINE
  5
39B
100
AcDbEntity
  8
MAIN0
  6
BYBLOCK
 62
0
100
AcDbLine
 10
666.6289520589177
 20
536.2620304587385
 30
0.0000000000000000
 11
666.2046880050609
 21
536.6862945125956
 31
0.0000000000000000
  0
LINE
  5
39C
100
AcDbEntity
  8
MAIN0
  6
BYBLOCK
 62
0
100
AcDbLine
 10
666.4875307005730
 20
536.2620304587388
 30
0.0000000000000000
 11
666.2046880050609
 21
536.5448731542498
 31
0.0000000000000000
  0
LINE
  5
39D
100
AcDbEntity
  8
MAIN0
  6
BYBLOCK
 62
0
100
AcDbLine
 10
666.3461093422263
 20
536.2620304587399
 30
0.0000000000000000
 11
666.2046880050617
 21
536.4034517959049
 31
0.0000000000000000
  0
ENDBLK
  5
39E
100
AcDbEntity
  8
MAIN0
  6
BYBLOCK
 62
3
100
AcDbBlockEnd
  0
BLOCK
  5
3A0
100
AcDbEntity
  8
MAIN0
  6
BYBLOCK
 62
3
100
AcDbBlockBegin
  2
*X1
 70
     1
 10
0.0
 20
0.0
 30
0.0
  0
LINE
  5
3A1
100
AcDbEntity
  8
MAIN0
  6
BYBLOCK
 62
0
100
AcDbLine
 10
667.6189015673305
 20
526.2620304587375
 30
0.0000000000000000
 11
666.2046880050622
 21
524.8478168964693
 31
0.0000000000000000
  0
LINE
  5
3A2
100
AcDbEntity
  8
MAIN0
  6
BYBLOCK
 62
0
100
AcDbLine
 10
667.4774802089860
 20
526.2620304587383
 30
0.0000000000000000
 11
666.2046880050611
 21
524.9892382548130
 31
0.0000000000000000
  0
LINE
  5
3A3
100
AcDbEntity
  8
MAIN0
  6
BYBLOCK
 62
0
100
AcDbLine
 10
667.3360588506400
 20
526.2620304587372
 30
0.0000000000000000
 11
666.2046880050618
 21
525.1306596131585
 31
0.0000000000000000
  0
LINE
  5
3A4
100
AcDbEntity
  8
MAIN0
  6
BYBLOCK
 62
0
100
AcDbLine
 10
667.1946374922968
 20
526.2620304587384
 30
0.0000000000000000
 11
666.2046880050605
 21
525.2720809715019
 31
0.0000000000000000
  0
LINE
  5
3A5
100
AcDbEntity
  8
MAIN0
  6
BYBLOCK
 62
0
100
AcDbLine
 10
667.0532161339511
 20
526.2620304587380
 30
0.0000000000000000
 11
666.2046880050598
 21
525.4135023298462
 31
0.0000000000000000
  0
LINE
  5
3A6
100
AcDbEntity
  8
MAIN0
  6
BYBLOCK
 62
0
100
AcDbLine
 10
666.9117947756070
 20
526.2620304587381
 30
0.0000000000000000
 11
666.2046880050600
 21
525.5549236881911
 31
0.0000000000000000
  0
LINE
  5
3A7
100
AcDbEntity
  8
MAIN0
  6
BYBLOCK
 62
0
100
AcDbLine
 10
666.7703734172612
 20
526.2620304587372
 30
0.0000000000000000
 11
666.2046880050594
 21
525.6963450465354
 31
0.0000000000000000
  0
LINE
  5
3A8
100
AcDbEntity
  8
MAIN0
  6
BYBLOCK
 62
0
100
AcDbLine
 10
666.6289520589177
 20
526.2620304587387
 30
0.0000000000000000
 11
666.2046880050608
 21
525.8377664048813
 31
0.0000000000000000
  0
LINE
  5
3A9
100
AcDbEntity
  8
MAIN0
  6
BYBLOCK
 62
0
100
AcDbLine
 10
666.4875307005730
 20
526.2620304587379
 30
0.0000000000000000
 11
666.2046880050609
 21
525.9791877632267
 31
0.0000000000000000
  0
LINE
  5
3AA
100
AcDbEntity
  8
MAIN0
  6
BYBLOCK
 62
0
100
AcDbLine
 10
666.3461093422263
 20
526.2620304587372
 30
0.0000000000000000
 11
666.2046880050617
 21
526.1206091215721
 31
0.0000000000000000
  0
ENDBLK
  5
3AB
100
AcDbEntity
  8
MAIN0
  6
BYBLOCK
 62
3
100
AcDbBlockEnd
  0
BLOCK
  5
3AD
100
AcDbEntity
  8
MAIN0
  6
BYBLOCK
 62
3
100
AcDbBlockBegin
  2
*X2
 70
     1
 10
0.0
 20
0.0
 30
0.0
  0
LINE
  5
3AE
100
AcDbEntity
  8
MAIN0
  6
BYBLOCK
 62
0
100
AcDbLine
 10
844.7904744427895
 20
536.2620304587396
 30
0.0000000000000000
 11
846.2046880050577
 21
537.6762440210079
 31
0.0000000000000000
  0
LINE
  5
3AF
100
AcDbEntity
  8
MAIN0
  6
BYBLOCK
 62
0
100
AcDbLine
 10
844.9318958011334
 20
536.2620304587390
 30
0.0000000000000000
 11
846.2046880050582
 21
537.5348226626643
 31
0.0000000000000000
  0
LINE
  5
3B0
100
AcDbEntity
  8
MAIN0
  6
BYBLOCK
 62
0
100
AcDbLine
 10
845.0733171594795
 20
536.2620304587399
 30
0.0000000000000000
 11
846.2046880050577
 21
537.3934013043186
 31
0.0000000000000000
  0
LINE
  5
3B1
100
AcDbEntity
  8
MAIN0
  6
BYBLOCK
 62
0
100
AcDbLine
 10
845.2147385178221
 20
536.2620304587385
 30
0.0000000000000000
 11
846.2046880050586
 21
537.2519799459751
 31
0.0000000000000000
  0
LINE
  5
3B2
100
AcDbEntity
  8
MAIN0
  6
BYBLOCK
 62
0
100
AcDbLine
 10
845.3561598761680
 20
536.2620304587391
 30
0.0000000000000000
 11
846.2046880050593
 21
537.1105585876309
 31
0.0000000000000000
  0
LINE
  5
3B3
100
AcDbEntity
  8
MAIN0
  6
BYBLOCK
 62
0
100
AcDbLine
 10
845.4975812345128
 20
536.2620304587391
 30
0.0000000000000000
 11
846.2046880050598
 21
536.9691372292861
 31
0.0000000000000000
  0
LINE
  5
3B4
100
AcDbEntity
  8
MAIN0
  6
BYBLOCK
 62
0
100
AcDbLine
 10
845.6390025928588
 20
536.2620304587400
 30
0.0000000000000000
 11
846.2046880050605
 21
536.8277158709417
 31
0.0000000000000000
  0
LINE
  5
3B5
100
AcDbEntity
  8
MAIN0
  6
BYBLOCK
 62
0
100
AcDbLine
 10
845.7804239512018
 20
536.2620304587385
 30
0.0000000000000000
 11
846.2046880050586
 21
536.6862945125957
 31
0.0000000000000000
  0
LINE
  5
3B6
100
AcDbEntity
  8
MAIN0
  6
BYBLOCK
 62
0
100
AcDbLine
 10
845.9218453095464
 20
536.2620304587391
 30
0.0000000000000000
 11
846.2046880050586
 21
536.5448731542504
 31
0.0000000000000000
  0
LINE
  5
3B7
100
AcDbEntity
  8
MAIN0
  6
BYBLOCK
 62
0
100
AcDbLine
 10
846.0632666678935
 20
536.2620304587401
 30
0.0000000000000000
 11
846.2046880050577
 21
536.4034517959050
 31
0.0000000000000000
  0
ENDBLK
  5
3B8
100
AcDbEntity
  8
MAIN0
  6
BYBLOCK
 62
3
100
AcDbBlockEnd
  0
BLOCK
  5
3BA
100
AcDbEntity
  8
MAIN0
  6
BYBLOCK
 62
3
100
AcDbBlockBegin
  2
*X3
 70
     1
 10
0.0
 20
0.0
 30
0.0
  0
LINE
  5
3BB
100
AcDbEntity
  8
MAIN0
  6
BYBLOCK
 62
0
100
AcDbLine
 10
844.7904744427890
 20
526.2620304587379
 30
0.0000000000000000
 11
846.2046880050575
 21
524.8478168964695
 31
0.0000000000000000
  0
LINE
  5
3BC
100
AcDbEntity
  8
MAIN0
  6
BYBLOCK
 62
0
100
AcDbLine
 10
844.9318958011331
 20
526.2620304587383
 30
0.0000000000000000
 11
846.2046880050582
 21
524.9892382548129
 31
0.0000000000000000
  0
LINE
  5
3BD
100
AcDbEntity
  8
MAIN0
  6
BYBLOCK
 62
0
100
AcDbLine
 10
845.0733171594795
 20
526.2620304587372
 30
0.0000000000000000
 11
846.2046880050575
 21
525.1306596131587
 31
0.0000000000000000
  0
LINE
  5
3BE
100
AcDbEntity
  8
MAIN0
  6
BYBLOCK
 62
0
100
AcDbLine
 10
845.2147385178221
 20
526.2620304587385
 30
0.0000000000000000
 11
846.2046880050586
 21
525.2720809715020
 31
0.0000000000000000
  0
LINE
  5
3BF
100
AcDbEntity
  8
MAIN0
  6
BYBLOCK
 62
0
100
AcDbLine
 10
845.3561598761680
 20
526.2620304587379
 30
0.0000000000000000
 11
846.2046880050593
 21
525.4135023298462
 31
0.0000000000000000
  0
LINE
  5
3C0
100
AcDbEntity
  8
MAIN0
  6
BYBLOCK
 62
0
100
AcDbLine
 10
845.4975812345128
 20
526.2620304587383
 30
0.0000000000000000
 11
846.2046880050598
 21
525.5549236881915
 31
0.0000000000000000
  0
LINE
  5
3C1
100
AcDbEntity
  8
MAIN0
  6
BYBLOCK
 62
0
100
AcDbLine
 10
845.6390025928583
 20
526.2620304587374
 30
0.0000000000000000
 11
846.2046880050602
 21
525.6963450465356
 31
0.0000000000000000
  0
LINE
  5
3C2
100
AcDbEntity
  8
MAIN0
  6
BYBLOCK
 62
0
100
AcDbLine
 10
845.7804239512016
 20
526.2620304587387
 30
0.0000000000000000
 11
846.2046880050584
 21
525.8377664048813
 31
0.0000000000000000
  0
LINE
  5
3C3
100
AcDbEntity
  8
MAIN0
  6
BYBLOCK
 62
0
100
AcDbLine
 10
845.9218453095466
 20
526.2620304587383
 30
0.0000000000000000
 11
846.2046880050589
 21
525.9791877632272
 31
0.0000000000000000
  0
LINE
  5
3C4
100
AcDbEntity
  8
MAIN0
  6
BYBLOCK
 62
0
100
AcDbLine
 10
846.0632666678932
 20
526.2620304587373
 30
0.0000000000000000
 11
846.2046880050580
 21
526.1206091215723
 31
0.0000000000000000
  0
ENDBLK
  5
3C5
100
AcDbEntity
  8
MAIN0
  6
BYBLOCK
 62
3
100
AcDbBlockEnd
  0
BLOCK
  5
441
100
AcDbEntity
  8
MAIN0
  6
BYBLOCK
 62
3
100
AcDbBlockBegin
  2
*X4
 70
     1
 10
0.0
 20
0.0
 30
0.0
  0
LINE
  5
442
100
AcDbEntity
  8
MAIN0
  6
BYBLOCK
 62
0
100
AcDbLine
 10
630.6189015673307
 20
536.2620304587392
 30
0.0000000000000000
 11
629.2046880050625
 21
537.6762440210075
 31
0.0000000000000000
  0
LINE
  5
443
100
AcDbEntity
  8
MAIN0
  6
BYBLOCK
 62
0
100
AcDbLine
 10
630.4774802089862
 20
536.2620304587388
 30
0.0000000000000000
 11
629.2046880050614
 21
537.5348226626641
 31
0.0000000000000000
  0
LINE
  5
444
100
AcDbEntity
  8
MAIN0
  6
BYBLOCK
 62
0
100
AcDbLine
 10
630.3360588506403
 20
536.2620304587400
 30
0.0000000000000000
 11
629.2046880050621
 21
537.3934013043188
 31
0.0000000000000000
  0
LINE
  5
445
100
AcDbEntity
  8
MAIN0
  6
BYBLOCK
 62
0
100
AcDbLine
 10
630.1946374922970
 20
536.2620304587383
 30
0.0000000000000000
 11
629.2046880050605
 21
537.2519799459749
 31
0.0000000000000000
  0
LINE
  5
446
100
AcDbEntity
  8
MAIN0
  6
BYBLOCK
 62
0
100
AcDbLine
 10
630.0532161339513
 20
536.2620304587390
 30
0.0000000000000000
 11
629.2046880050599
 21
537.1105585876308
 31
0.0000000000000000
  0
LINE
  5
447
100
AcDbEntity
  8
MAIN0
  6
BYBLOCK
 62
0
100
AcDbLine
 10
629.9117947756070
 20
536.2620304587389
 30
0.0000000000000000
 11
629.2046880050600
 21
536.9691372292858
 31
0.0000000000000000
  0
LINE
  5
448
100
AcDbEntity
  8
MAIN0
  6
BYBLOCK
 62
0
100
AcDbLine
 10
629.7703734172613
 20
536.2620304587398
 30
0.0000000000000000
 11
629.2046880050597
 21
536.8277158709414
 31
0.0000000000000000
  0
LINE
  5
449
100
AcDbEntity
  8
MAIN0
  6
BYBLOCK
 62
0
100
AcDbLine
 10
629.6289520589179
 20
536.2620304587384
 30
0.0000000000000000
 11
629.2046880050611
 21
536.6862945125956
 31
0.0000000000000000
  0
LINE
  5
44A
100
AcDbEntity
  8
MAIN0
  6
BYBLOCK
 62
0
100
AcDbLine
 10
629.4875307005731
 20
536.2620304587388
 30
0.0000000000000000
 11
629.2046880050611
 21
536.5448731542498
 31
0.0000000000000000
  0
LINE
  5
44B
100
AcDbEntity
  8
MAIN0
  6
BYBLOCK
 62
0
100
AcDbLine
 10
629.3461093422264
 20
536.2620304587398
 30
0.0000000000000000
 11
629.2046880050618
 21
536.4034517959049
 31
0.0000000000000000
  0
ENDBLK
  5
44C
100
AcDbEntity
  8
MAIN0
  6
BYBLOCK
 62
3
100
AcDbBlockEnd
  0
BLOCK
  5
44E
100
AcDbEntity
  8
MAIN0
  6
BYBLOCK
 62
3
100
AcDbBlockBegin
  2
*X5
 70
     1
 10
0.0
 20
0.0
 30
0.0
  0
LINE
  5
44F
100
AcDbEntity
  8
MAIN0
  6
BYBLOCK
 62
0
100
AcDbLine
 10
630.6189015673306
 20
526.2620304587375
 30
0.0000000000000000
 11
629.2046880050623
 21
524.8478168964692
 31
0.0000000000000000
  0
LINE
  5
450
100
AcDbEntity
  8
MAIN0
  6
BYBLOCK
 62
0
100
AcDbLine
 10
630.4774802089862
 20
526.2620304587382
 30
0.0000000000000000
 11
629.2046880050614
 21
524.9892382548129
 31
0.0000000000000000
  0
LINE
  5
451
100
AcDbEntity
  8
MAIN0
  6
BYBLOCK
 62
0
100
AcDbLine
 10
630.3360588506403
 20
526.2620304587372
 30
0.0000000000000000
 11
629.2046880050621
 21
525.1306596131585
 31
0.0000000000000000
  0
LINE
  5
452
100
AcDbEntity
  8
MAIN0
  6
BYBLOCK
 62
0
100
AcDbLine
 10
630.1946374922970
 20
526.2620304587383
 30
0.0000000000000000
 11
629.2046880050605
 21
525.2720809715017
 31
0.0000000000000000
  0
LINE
  5
453
100
AcDbEntity
  8
MAIN0
  6
BYBLOCK
 62
0
100
AcDbLine
 10
630.0532161339512
 20
526.2620304587379
 30
0.0000000000000000
 11
629.2046880050599
 21
525.4135023298461
 31
0.0000000000000000
  0
LINE
  5
454
100
AcDbEntity
  8
MAIN0
  6
BYBLOCK
 62
0
100
AcDbLine
 10
629.9117947756072
 20
526.2620304587380
 30
0.0000000000000000
 11
629.2046880050602
 21
525.5549236881910
 31
0.0000000000000000
  0
LINE
  5
455
100
AcDbEntity
  8
MAIN0
  6
BYBLOCK
 62
0
100
AcDbLine
 10
629.7703734172615
 20
526.2620304587372
 30
0.0000000000000000
 11
629.2046880050596
 21
525.6963450465353
 31
0.0000000000000000
  0
LINE
  5
456
100
AcDbEntity
  8
MAIN0
  6
BYBLOCK
 62
0
100
AcDbLine
 10
629.6289520589178
 20
526.2620304587385
 30
0.0000000000000000
 11
629.2046880050609
 21
525.8377664048812
 31
0.0000000000000000
  0
LINE
  5
457
100
AcDbEntity
  8
MAIN0
  6
BYBLOCK
 62
0
100
AcDbLine
 10
629.4875307005732
 20
526.2620304587379
 30
0.0000000000000000
 11
629.2046880050611
 21
525.9791877632267
 31
0.0000000000000000
  0
LINE
  5
458
100
AcDbEntity
  8
MAIN0
  6
BYBLOCK
 62
0
100
AcDbLine
 10
629.3461093422263
 20
526.2620304587369
 30
0.0000000000000000
 11
629.2046880050618
 21
526.1206091215720
 31
0.0000000000000000
  0
ENDBLK
  5
459
100
AcDbEntity
  8
MAIN0
  6
BYBLOCK
 62
3
100
AcDbBlockEnd
  0
BLOCK
  5
45B
100
AcDbEntity
  8
MAIN0
  6
BYBLOCK
 62
3
100
AcDbBlockBegin
  2
*X6
 70
     1
 10
0.0
 20
0.0
 30
0.0
  0
LINE
  5
45C
100
AcDbEntity
  8
MAIN0
  6
BYBLOCK
 62
0
100
AcDbLine
 10
777.7904744427895
 20
536.2620304587395
 30
0.0000000000000000
 11
779.2046880050577
 21
537.6762440210077
 31
0.0000000000000000
  0
LINE
  5
45D
100
AcDbEntity
  8
MAIN0
  6
BYBLOCK
 62
0
100
AcDbLine
 10
777.9318958011336
 20
536.2620304587390
 30
0.0000000000000000
 11
779.2046880050584
 21
537.5348226626643
 31
0.0000000000000000
  0
LINE
  5
45E
100
AcDbEntity
  8
MAIN0
  6
BYBLOCK
 62
0
100
AcDbLine
 10
778.0733171594798
 20
536.2620304587399
 30
0.0000000000000000
 11
779.2046880050580
 21
537.3934013043186
 31
0.0000000000000000
  0
LINE
  5
45F
100
AcDbEntity
  8
MAIN0
  6
BYBLOCK
 62
0
100
AcDbLine
 10
778.2147385178225
 20
536.2620304587384
 30
0.0000000000000000
 11
779.2046880050591
 21
537.2519799459750
 31
0.0000000000000000
  0
LINE
  5
460
100
AcDbEntity
  8
MAIN0
  6
BYBLOCK
 62
0
100
AcDbLine
 10
778.3561598761680
 20
536.2620304587390
 30
0.0000000000000000
 11
779.2046880050596
 21
537.1105585876309
 31
0.0000000000000000
  0
LINE
  5
461
100
AcDbEntity
  8
MAIN0
  6
BYBLOCK
 62
0
100
AcDbLine
 10
778.4975812345128
 20
536.2620304587390
 30
0.0000000000000000
 11
779.2046880050598
 21
536.9691372292859
 31
0.0000000000000000
  0
LINE
  5
462
100
AcDbEntity
  8
MAIN0
  6
BYBLOCK
 62
0
100
AcDbLine
 10
778.6390025928588
 20
536.2620304587399
 30
0.0000000000000000
 11
779.2046880050605
 21
536.8277158709416
 31
0.0000000000000000
  0
LINE
  5
463
100
AcDbEntity
  8
MAIN0
  6
BYBLOCK
 62
0
100
AcDbLine
 10
778.7804239512020
 20
536.2620304587385
 30
0.0000000000000000
 11
779.2046880050589
 21
536.6862945125957
 31
0.0000000000000000
  0
LINE
  5
464
100
AcDbEntity
  8
MAIN0
  6
BYBLOCK
 62
0
100
AcDbLine
 10
778.9218453095466
 20
536.2620304587391
 30
0.0000000000000000
 11
779.2046880050586
 21
536.5448731542502
 31
0.0000000000000000
  0
LINE
  5
465
100
AcDbEntity
  8
MAIN0
  6
BYBLOCK
 62
0
100
AcDbLine
 10
779.0632666678935
 20
536.2620304587400
 30
0.0000000000000000
 11
779.2046880050580
 21
536.4034517959049
 31
0.0000000000000000
  0
ENDBLK
  5
466
100
AcDbEntity
  8
MAIN0
  6
BYBLOCK
 62
3
100
AcDbBlockEnd
  0
BLOCK
  5
468
100
AcDbEntity
  8
MAIN0
  6
BYBLOCK
 62
3
100
AcDbBlockBegin
  2
*X7
 70
     1
 10
0.0
 20
0.0
 30
0.0
  0
LINE
  5
469
100
AcDbEntity
  8
MAIN0
  6
BYBLOCK
 62
0
100
AcDbLine
 10
777.7904744427892
 20
526.2620304587377
 30
0.0000000000000000
 11
779.2046880050575
 21
524.8478168964693
 31
0.0000000000000000
  0
LINE
  5
46A
100
AcDbEntity
  8
MAIN0
  6
BYBLOCK
 62
0
100
AcDbLine
 10
777.9318958011334
 20
526.2620304587383
 30
0.0000000000000000
 11
779.2046880050582
 21
524.9892382548129
 31
0.0000000000000000
  0
LINE
  5
46B
100
AcDbEntity
  8
MAIN0
  6
BYBLOCK
 62
0
100
AcDbLine
 10
778.0733171594795
 20
526.2620304587372
 30
0.0000000000000000
 11
779.2046880050577
 21
525.1306596131586
 31
0.0000000000000000
  0
LINE
  5
46C
100
AcDbEntity
  8
MAIN0
  6
BYBLOCK
 62
0
100
AcDbLine
 10
778.2147385178223
 20
526.2620304587385
 30
0.0000000000000000
 11
779.2046880050589
 21
525.2720809715020
 31
0.0000000000000000
  0
LINE
  5
46D
100
AcDbEntity
  8
MAIN0
  6
BYBLOCK
 62
0
100
AcDbLine
 10
778.3561598761683
 20
526.2620304587379
 30
0.0000000000000000
 11
779.2046880050596
 21
525.4135023298461
 31
0.0000000000000000
  0
LINE
  5
46E
100
AcDbEntity
  8
MAIN0
  6
BYBLOCK
 62
0
100
AcDbLine
 10
778.4975812345128
 20
526.2620304587383
 30
0.0000000000000000
 11
779.2046880050598
 21
525.5549236881914
 31
0.0000000000000000
  0
LINE
  5
46F
100
AcDbEntity
  8
MAIN0
  6
BYBLOCK
 62
0
100
AcDbLine
 10
778.6390025928586
 20
526.2620304587373
 30
0.0000000000000000
 11
779.2046880050602
 21
525.6963450465355
 31
0.0000000000000000
  0
LINE
  5
470
100
AcDbEntity
  8
MAIN0
  6
BYBLOCK
 62
0
100
AcDbLine
 10
778.7804239512018
 20
526.2620304587385
 30
0.0000000000000000
 11
779.2046880050586
 21
525.8377664048812
 31
0.0000000000000000
  0
LINE
  5
471
100
AcDbEntity
  8
MAIN0
  6
BYBLOCK
 62
0
100
AcDbLine
 10
778.9218453095468
 20
526.2620304587383
 30
0.0000000000000000
 11
779.2046880050589
 21
525.9791877632271
 31
0.0000000000000000
  0
LINE
  5
472
100
AcDbEntity
  8
MAIN0
  6
BYBLOCK
 62
0
100
AcDbLine
 10
779.0632666678935
 20
526.2620304587372
 30
0.0000000000000000
 11
779.2046880050580
 21
526.1206091215722
 31
0.0000000000000000
  0
ENDBLK
  5
473
100
AcDbEntity
  8
MAIN0
  6
BYBLOCK
 62
3
100
AcDbBlockEnd
  0
BLOCK
  5
47B
100
AcDbEntity
  8
A0
  6
BYBLOCK
 62
3
100
AcDbBlockBegin
  2
M0
 70
    64
 10
0.0
 20
0.0
 30
0.0
  0
LINE
  5
47C
100
AcDbEntity
  8
A0
  6
BYBLOCK
 62
0
100
AcDbLine
 10
452.6771120866472
 20
110.6118646580983
 30
0.0000000000000000
 11
595.1771120866471
 21
110.6118646580983
 31
0.0000000000000000
  0
LINE
  5
47D
100
AcDbEntity
  8
A0
  6
BYBLOCK
 62
0
100
AcDbLine
 10
452.6771120866472
 20
103.1118646580983
 30
0.0000000000000000
 11
595.1771120866472
 21
103.1118646580983
 31
0.0000000000000000
  0
LINE
  5
47E
100
AcDbEntity
  8
A0
  6
BYBLOCK
 62
0
100
AcDbLine
 10
452.6771120866472
 20
95.61186465809840
 30
0.0000000000000000
 11
595.1771120866471
 21
95.61186465809840
 31
0.0000000000000000
  0
MTEXT
  5
47F
100
AcDbEntity
  8
A0
  6
BYBLOCK
 62
0
100
AcDbMText
 10
454.1771120866472
 20
116.0118645150472
 30
0.0000000000000000
 40
4.649999856948853
 41
0.0000000000000000
 71
     1
 72
     1
  1
{\H0.88x;1.}
 11
1.000000000000000
 21
0.0000000000000000
 31
0.0000000000000000
  7
STANDARD
  0
MTEXT
  5
480
100
AcDbEntity
  8
A0
  6
BYBLOCK
 62
0
100
AcDbMText
 10
454.9271120866472
 20
131.6118646580987
 30
0.0000000000000000
 40
9.000000000000000
 41
0.0000000000000000
 71
     1
 72
     1
  1
{\H0.80x;要注意}
 11
1.000000000000000
 21
0.0000000000000000
 31
0.0000000000000000
  7
KNJYOKO
  0
LINE
  5
481
100
AcDbEntity
  8
A0
  6
BYBLOCK
 62
0
100
AcDbLine
 10
482.6771120866472
 20
133.8618646580987
 30
0.0000000000000000
 11
482.6771120866472
 21
120.3618646580988
 31
0.0000000000000000
  0
LINE
  5
482
100
AcDbEntity
  8
A0
  6
BYBLOCK
 62
0
100
AcDbLine
 10
452.6771120866472
 20
120.3618646580987
 30
0.0000000000000000
 11
482.6771120866472
 21
120.3618646580987
 31
0.0000000000000000
  0
LINE
  5
483
100
AcDbEntity
  8
A0
  6
BYBLOCK
 62
0
100
AcDbLine
 10
452.6771120866472
 20
133.8618646580987
 30
0.0000000000000000
 11
452.6771120866472
 21
120.3618646580987
 31
0.0000000000000000
  0
LINE
  5
484
100
AcDbEntity
  8
A0
  6
BYBLOCK
 62
0
100
AcDbLine
 10
452.6771120866472
 20
133.8618646580987
 30
0.0000000000000000
 11
482.6771120866472
 21
133.8618646580987
 31
0.0000000000000000
  0
ENDBLK
  5
485
100
AcDbEntity
  8
A0
  6
BYBLOCK
 62
3
100
AcDbBlockEnd
  0
BLOCK
  5
4BA
100
AcDbEntity
  8
A0
  6
BYBLOCK
 62
3
100
AcDbBlockBegin
  2
M1
 70
    64
 10
0.0
 20
0.0
 30
0.0
  0
LINE
  5
4BB
100
AcDbEntity
  8
A0
  6
BYBLOCK
 62
0
100
AcDbLine
 10
452.6771120866472
 20
53.11186465809831
 30
0.0000000000000000
 11
595.1771120866471
 21
53.11186465809831
 31
0.0000000000000000
  0
LINE
  5
4BC
100
AcDbEntity
  8
A0
  6
BYBLOCK
 62
0
100
AcDbLine
 10
452.6771120866472
 20
45.61186465809834
 30
0.0000000000000000
 11
595.1771120866472
 21
45.61186465809834
 31
0.0000000000000000
  0
LINE
  5
4BD
100
AcDbEntity
  8
A0
  6
BYBLOCK
 62
0
100
AcDbLine
 10
452.6771120866472
 20
38.11186465809840
 30
0.0000000000000000
 11
595.1771120866471
 21
38.11186465809840
 31
0.0000000000000000
  0
LINE
  5
4BE
100
AcDbEntity
  8
A0
  6
BYBLOCK
 62
0
100
AcDbLine
 10
452.6771120866472
 20
30.61186465809840
 30
0.0000000000000000
 11
595.1771120866472
 21
30.61186465809840
 31
0.0000000000000000
  0
MTEXT
  5
4BF
100
AcDbEntity
  8
A0
  6
BYBLOCK
 62
0
100
AcDbMText
 10
454.1771120866472
 20
58.51186451504717
 30
0.0000000000000000
 40
4.649999856948853
 41
0.0000000000000000
 71
     1
 72
     1
  1
{\H0.88x;1.}
 11
1.000000000000000
 21
0.0000000000000000
 31
0.0000000000000000
  7
STANDARD
  0
MTEXT
  5
4C0
100
AcDbEntity
  8
A0
  6
BYBLOCK
 62
0
100
AcDbMText
 10
454.6037175912344
 20
72.08892882250540
 30
0.0000000000000000
 40
4.954128384590149
 41
0.0000000000000000
 71
     1
 72
     1
  1
{\H0.92x;NOTICE}
 11
1.000000000000000
 21
0.0000000000000000
 31
0.0000000000000000
  7
STANDARD
  0
LINE
  5
4C1
100
AcDbEntity
  8
A0
  6
BYBLOCK
 62
0
100
AcDbLine
 10
482.6771120866472
 20
76.36186465809873
 30
0.0000000000000000
 11
482.6771120866472
 21
62.86186465809875
 31
0.0000000000000000
  0
LINE
  5
4C2
100
AcDbEntity
  8
A0
  6
BYBLOCK
 62
0
100
AcDbLine
 10
452.6771120866472
 20
62.86186465809874
 30
0.0000000000000000
 11
482.6771120866472
 21
62.86186465809874
 31
0.0000000000000000
  0
LINE
  5
4C3
100
AcDbEntity
  8
A0
  6
BYBLOCK
 62
0
100
AcDbLine
 10
452.6771120866472
 20
76.36186465809873
 30
0.0000000000000000
 11
452.6771120866472
 21
62.86186465809873
 31
0.0000000000000000
  0
LINE
  5
4C4
100
AcDbEntity
  8
A0
  6
BYBLOCK
 62
0
100
AcDbLine
 10
452.6771120866472
 20
76.36186465809874
 30
0.0000000000000000
 11
482.6771120866472
 21
76.36186465809874
 31
0.0000000000000000
  0
ENDBLK
  5
4C5
100
AcDbEntity
  8
A0
  6
BYBLOCK
 62
3
100
AcDbBlockEnd
  0
ENDSEC
  0
SECTION
  2
ENTITIES
  0
LINE
  5
46
100
AcDbEntity
  8
MAIN0
  6
CONTINUOUS
 62
3
100
AcDbLine
 10
175.2046880050592
 20
216.7620304587385
 30
0.0000000000000000
 11
175.2046880050592
 21
485.7620304587385
 31
0.0000000000000000
  0
LINE
  5
47
100
AcDbEntity
  8
MAIN0
  6
CONTINUOUS
 62
3
100
AcDbLine
 10
177.2046880050591
 20
487.7620304587385
 30
0.0000000000000000
 11
259.2046880050592
 21
487.7620304587385
 31
0.0000000000000000
  0
LINE
  5
48
100
AcDbEntity
  8
MAIN0
  6
CONTINUOUS
 62
3
100
AcDbLine
 10
177.2046880050591
 20
487.7620304587385
 30
0.0000000000000000
 11
175.2046880050591
 21
485.7620304587385
 31
0.0000000000000000
  0
LINE
  5
49
100
AcDbEntity
  8
MAIN0
  6
CONTINUOUS
 62
3
100
AcDbLine
 10
259.2046880050592
 20
487.7620304587385
 30
0.0000000000000000
 11
261.2046880050592
 21
485.7620304587385
 31
0.0000000000000000
  0
LINE
  5
4A
100
AcDbEntity
  8
MAIN0
  6
CONTINUOUS
 62
3
100
AcDbLine
 10
261.2046880050591
 20
216.7620304587386
 30
0.0000000000000000
 11
259.2046880050591
 21
214.7620304587386
 31
0.0000000000000000
  0
LINE
  5
4B
100
AcDbEntity
  8
MAIN0
  6
CONTINUOUS
 62
3
100
AcDbLine
 10
177.2046880050592
 20
214.7620304587386
 30
0.0000000000000000
 11
175.2046880050592
 21
216.7620304587386
 31
0.0000000000000000
  0
LINE
  5
4C
100
AcDbEntity
  8
MAIN0
  6
CONTINUOUS
 62
3
100
AcDbLine
 10
175.2046880050592
 20
466.2620304587385
 30
0.0000000000000000
 11
181.2046880050590
 21
466.2620304587385
 31
0.0000000000000000
  0
LINE
  5
4D
100
AcDbEntity
  8
MAIN0
  6
CONTINUOUS
 62
3
100
AcDbLine
 10
175.2046880050592
 20
236.2620304587385
 30
0.0000000000000000
 11
181.2046880050592
 21
236.2620304587385
 31
0.0000000000000000
  0
LINE
  5
4E
100
AcDbEntity
  8
MAIN0
  6
CONTINUOUS
 62
3
100
AcDbLine
 10
181.2046880050592
 20
236.2620304587385
 30
0.0000000000000000
 11
181.2046880050592
 21
466.2620304587385
 31
0.0000000000000000
  0
LINE
  5
4F
100
AcDbEntity
  8
MAIN0
  6
CONTINUOUS
 62
3
100
AcDbLine
 10
181.2046880050592
 20
236.2620304587385
 30
0.0000000000000000
 11
201.2056275112866
 21
236.2620304587385
 31
0.0000000000000000
  0
LINE
  5
50
100
AcDbEntity
  8
MAIN0
  6
CONTINUOUS
 62
3
100
AcDbLine
 10
187.2046880058250
 20
236.2620304587385
 30
0.0000000000000000
 11
191.1307187843383
 21
268.2369852059757
 31
0.0000000000000000
  0
LINE
  5
51
100
AcDbEntity
  8
MAIN0
  6
CONTINUOUS
 62
3
100
AcDbLine
 10
189.9707202813833
 20
443.7345053755387
 30
0.0000000000000000
 11
191.1307187843384
 21
434.2870757115014
 31
0.0000000000000000
  0
LINE
  5
52
100
AcDbEntity
  8
MAIN0
  6
CONTINUOUS
 62
3
100
AcDbLine
 10
199.0710879974693
 20
275.2620304587385
 30
0.0000000000000000
 11
206.8905464565735
 21
275.2620304587385
 31
0.0000000000000000
  0
ARC
  5
53
100
AcDbEntity
  8
MAIN0
  6
CONTINUOUS
 62
3
100
AcDbCircle
 10
199.0710879974695
 20
435.2620304587385
 30
0.0000000000000000
 40
8.000000000000000
100
AcDbArc
 50
186.9999999999711
 51
242.7594646591170
  0
ARC
  5
54
100
AcDbEntity
  8
MAIN0
  6
CONTINUOUS
 62
3
100
AcDbCircle
 10
199.0710879974693
 20
267.2620304587385
 30
0.0000000000000000
 40
8.000000000000000
100
AcDbArc
 50
90.00000000000000
 51
173.0000000000289
  0
LINE
  5
55
100
AcDbEntity
  8
MAIN0
  6
CONTINUOUS
 62
3
100
AcDbLine
 10
192.7046880050592
 20
286.2620304587385
 30
0.0000000000000000
 11
192.7046880050592
 21
416.2620304587385
 31
0.0000000000000000
  0
LINE
  5
56
100
AcDbEntity
  8
MAIN0
  6
CONTINUOUS
 62
3
100
AcDbLine
 10
181.2046880050590
 20
416.2620304587385
 30
0.0000000000000000
 11
192.7046880050590
 21
416.2620304587385
 31
0.0000000000000000
  0
LINE
  5
57
100
AcDbEntity
  8
MAIN0
  6
CONTINUOUS
 62
3
100
AcDbLine
 10
181.2046880050590
 20
286.2620304587385
 30
0.0000000000000000
 11
192.7046880050590
 21
286.2620304587385
 31
0.0000000000000000
  0
LINE
  5
58
100
AcDbEntity
  8
MAIN0
  6
CONTINUOUS
 62
3
100
AcDbLine
 10
192.7046880050591
 20
393.7620304587385
 30
0.0000000000000000
 11
202.7209730719443
 21
393.7620304587385
 31
0.0000000000000000
  0
LINE
  5
59
100
AcDbEntity
  8
MAIN0
  6
CONTINUOUS
 62
3
100
AcDbLine
 10
192.7046880050591
 20
308.7620304587385
 30
0.0000000000000000
 11
211.2046880051629
 21
308.7620304587385
 31
0.0000000000000000
  0
LINE
  5
5A
100
AcDbEntity
  8
MAIN0
  6
HIDDEN
 62
3
100
AcDbLine
 10
224.4546880050592
 20
478.0578852705424
 30
0.0000000000000000
 11
224.4546880050592
 21
486.4620304587386
 31
0.0000000000000000
  0
LINE
  5
5B
100
AcDbEntity
  8
MAIN0
  6
HIDDEN
 62
3
100
AcDbLine
 10
188.9546880050592
 20
478.0578852702452
 30
0.0000000000000000
 11
188.9546880050592
 21
486.4620304587386
 31
0.0000000000000000
  0
LINE
  5
5C
100
AcDbEntity
  8
MAIN0
  6
HIDDEN
 62
3
100
AcDbLine
 10
188.9546880050592
 20
486.4620304587386
 30
0.0000000000000000
 11
224.4546880050592
 21
486.4620304587386
 31
0.0000000000000000
  0
LINE
  5
5D
100
AcDbEntity
  8
MAIN0
  6
HIDDEN
 62
3
100
AcDbLine
 10
222.4546880050592
 20
479.9620304587386
 30
0.0000000000000000
 11
224.4546880050590
 21
479.9620304587386
 31
0.0000000000000000
  0
ARC
  5
5E
100
AcDbEntity
  8
MAIN0
  6
HIDDEN
 62
3
100
AcDbCircle
 10
222.4546880050592
 20
477.2120304587386
 30
0.0000000000000000
 40
2.749999999999986
100
AcDbArc
 50
90.00000000000000
 51
162.0863347402114
  0
LINE
  5
5F
100
AcDbEntity
  8
MAIN0
  6
HIDDEN
 62
3
100
AcDbLine
 10
190.9546880050592
 20
479.9620304587385
 30
0.0000000000000000
 11
188.9546880050593
 21
479.9620304587385
 31
0.0000000000000000
  0
ARC
  5
60
100
AcDbEntity
  8
MAIN0
  6
HIDDEN
 62
3
100
AcDbCircle
 10
190.9546880050592
 20
477.2120304587386
 30
0.0000000000000000
 40
2.749999999999986
100
AcDbArc
 50
17.91366525496646
 51
90.00000000000000
  0
ARC
  5
61
100
AcDbEntity
  8
MAIN0
  6
HIDDEN
 62
3
100
AcDbCircle
 10
242.0678472577238
 20
468.4610797359333
 30
0.0000000000000000
 40
22.50000000000000
100
AcDbArc
 50
141.5183122224538
 51
149.2593145857316
  0
LINE
  5
62
100
AcDbEntity
  8
MAIN0
  6
CENTER
 62
3
100
AcDbLine
 10
194.3204473164611
 20
561.2620304587450
 30
0.0000000000000000
 11
219.7097961522696
 21
561.2620304587317
 31
0.0000000000000000
  0
LINE
  5
63
100
AcDbEntity
  8
MAIN0
  6
CONTINUOUS
 62
3
100
AcDbLine
 10
207.3680480377813
 20
553.4401091175981
 30
0.0000000000000000
 11
214.5266093461999
 21
560.5986704260197
 31
0.0000000000000000
  0
LINE
  5
64
100
AcDbEntity
  8
MAIN0
  6
CONTINUOUS
 62
3
100
AcDbLine
 10
198.8827666639885
 20
561.9253904922827
 30
0.0000000000000000
 11
206.0413279715119
 21
569.0839517998089
 31
0.0000000000000000
  0
LINE
  5
65
100
AcDbEntity
  8
MAIN0
  6
CONTINUOUS
 62
3
100
AcDbLine
 10
207.3680480376601
 20
569.0839517998893
 30
0.0000000000000000
 11
214.5266093462086
 21
561.9253904913538
 31
0.0000000000000000
  0
LINE
  5
66
100
AcDbEntity
  8
MAIN0
  6
CONTINUOUS
 62
3
100
AcDbLine
 10
198.8827666639988
 20
560.5986704250735
 30
0.0000000000000000
 11
206.0413279714085
 21
553.4401091176769
 31
0.0000000000000000
  0
LINE
  5
67
100
AcDbEntity
  8
MAIN0
  6
HIDDEN
 62
3
100
AcDbLine
 10
214.5546880050304
 20
485.6537400819751
 30
0.0000000000000000
 11
214.5546880050286
 21
478.0578852704595
 31
0.0000000000000000
  0
LINE
  5
68
100
AcDbEntity
  8
MAIN0
  6
HIDDEN
 62
3
100
AcDbLine
 10
198.8546880050880
 20
485.6537400819833
 30
0.0000000000000000
 11
198.8546880050897
 21
478.0578852703280
 31
0.0000000000000000
  0
LINE
  5
69
100
AcDbEntity
  8
MAIN0
  6
CONTINUOUS
 62
3
100
AcDbLine
 10
181.2046880050592
 20
466.2620304587385
 30
0.0000000000000000
 11
185.1811237237077
 21
466.2620304587385
 31
0.0000000000000000
  0
LINE
  5
6A
100
AcDbEntity
  8
MAIN0
  6
HIDDEN
 62
3
100
AcDbLine
 10
197.4546880054928
 20
486.4620304587388
 30
0.0000000000000000
 11
198.8546880052975
 21
485.6537400819834
 31
0.0000000000000000
  0
LINE
  5
6B
100
AcDbEntity
  8
MAIN0
  6
HIDDEN
 62
3
100
AcDbLine
 10
214.5546880048914
 20
485.6537400819753
 30
0.0000000000000000
 11
215.9546880047141
 21
486.4620304587384
 31
0.0000000000000000
  0
LINE
  5
6C
100
AcDbEntity
  8
MAIN0
  6
HIDDEN
 62
3
100
AcDbLine
 10
198.8546880050881
 20
485.6537400819833
 30
0.0000000000000000
 11
214.5546880050305
 21
485.6537400819751
 31
0.0000000000000000
  0
LINE
  5
6D
100
AcDbEntity
  8
MAIN0
  6
HIDDEN
 62
3
100
AcDbLine
 10
206.0413279714092
 20
485.6537400819797
 30
0.0000000000000000
 11
206.0413279714092
 21
478.0578852703882
 31
0.0000000000000000
  0
LINE
  5
6E
100
AcDbEntity
  8
MAIN0
  6
HIDDEN
 62
3
100
AcDbLine
 10
207.3680480377778
 20
485.6537400819789
 30
0.0000000000000000
 11
207.3680480377778
 21
478.0578852703993
 31
0.0000000000000000
  0
LINE
  5
6F
100
AcDbEntity
  8
MAIN0
  6
HIDDEN
 62
3
100
AcDbLine
 10
198.8546880050880
 20
485.6537400819834
 30
0.0000000000000000
 11
202.4480079882499
 21
478.0578852703582
 31
0.0000000000000000
  0
LINE
  5
70
100
AcDbEntity
  8
MAIN0
  6
HIDDEN
 62
3
100
AcDbLine
 10
206.0413279714092
 20
485.6537400819796
 30
0.0000000000000000
 11
202.4480079882499
 21
478.0578852703582
 31
0.0000000000000000
  0
LINE
  5
71
100
AcDbEntity
  8
MAIN0
  6
HIDDEN
 62
3
100
AcDbLine
 10
207.3680480377778
 20
485.6537400819788
 30
0.0000000000000000
 11
210.9613680213689
 21
478.0578852704293
 31
0.0000000000000000
  0
LINE
  5
72
100
AcDbEntity
  8
MAIN0
  6
HIDDEN
 62
3
100
AcDbLine
 10
214.5546880048914
 20
485.6537400819753
 30
0.0000000000000000
 11
210.9613680213689
 21
478.0578852704294
 31
0.0000000000000000
  0
ARC
  5
73
100
AcDbEntity
  8
MAIN0
  6
HIDDEN
 62
3
100
AcDbCircle
 10
171.3415287523945
 20
468.4610797359333
 30
0.0000000000000000
 40
22.50000000000000
100
AcDbArc
 50
30.74068541426837
 51
38.48168777754621
  0
LINE
  5
74
100
AcDbEntity
  8
MAIN0
  6
CENTER
 62
3
100
AcDbLine
 10
188.8449464953170
 20
296.2620304587385
 30
0.0000000000000000
 11
216.2046880050592
 21
296.2620304587385
 31
0.0000000000000000
  0
LINE
  5
75
100
AcDbEntity
  8
MAIN0
  6
HIDDEN
 62
3
100
AcDbLine
 10
192.7046880050591
 20
305.3620304587386
 30
0.0000000000000000
 11
193.3046880050591
 21
304.7620304587386
 31
0.0000000000000000
  0
LINE
  5
76
100
AcDbEntity
  8
MAIN0
  6
HIDDEN
 62
3
100
AcDbLine
 10
193.3046880050592
 20
304.7620304587385
 30
0.0000000000000000
 11
204.7046880050592
 21
304.7620304587385
 31
0.0000000000000000
  0
LINE
  5
77
100
AcDbEntity
  8
MAIN0
  6
HIDDEN
 62
3
100
AcDbLine
 10
204.7046880050592
 20
304.7620304587385
 30
0.0000000000000000
 11
204.7046880050592
 21
287.7620304587385
 31
0.0000000000000000
  0
LINE
  5
78
100
AcDbEntity
  8
MAIN0
  6
HIDDEN
 62
3
100
AcDbLine
 10
204.7046880050592
 20
287.7620304587385
 30
0.0000000000000000
 11
193.3046880050592
 21
287.7620304587385
 31
0.0000000000000000
  0
LINE
  5
79
100
AcDbEntity
  8
MAIN0
  6
HIDDEN
 62
3
100
AcDbLine
 10
193.3046880050592
 20
287.7620304587385
 30
0.0000000000000000
 11
192.7046880050592
 21
287.1620304587385
 31
0.0000000000000000
  0
LINE
  5
7A
100
AcDbEntity
  8
MAIN0
  6
HIDDEN
 62
3
100
AcDbLine
 10
204.7046880050592
 20
301.7620304587385
 30
0.0000000000000000
 11
211.0639285362151
 21
301.7620304587385
 31
0.0000000000000000
  0
LINE
  5
7B
100
AcDbEntity
  8
MAIN0
  6
HIDDEN
 62
3
100
AcDbLine
 10
204.7046880050592
 20
290.7620304587385
 30
0.0000000000000000
 11
210.0046880870484
 21
290.7620304587385
 31
0.0000000000000000
  0
LINE
  5
7C
100
AcDbEntity
  8
MAIN0
  6
HIDDEN
 62
3
100
AcDbLine
 10
204.7046880050592
 20
304.2620304587385
 30
0.0000000000000000
 11
195.7046880050592
 21
304.2620304587385
 31
0.0000000000000000
  0
LINE
  5
7D
100
AcDbEntity
  8
MAIN0
  6
HIDDEN
 62
3
100
AcDbLine
 10
195.7046880050592
 20
304.2620304587385
 30
0.0000000000000000
 11
194.7046880050592
 21
302.5299796511696
 31
0.0000000000000000
  0
LINE
  5
7E
100
AcDbEntity
  8
MAIN0
  6
HIDDEN
 62
3
100
AcDbLine
 10
194.7046880050592
 20
302.5299796511696
 30
0.0000000000000000
 11
194.7046880050592
 21
289.9940812663074
 31
0.0000000000000000
  0
LINE
  5
7F
100
AcDbEntity
  8
MAIN0
  6
HIDDEN
 62
3
100
AcDbLine
 10
194.7046880050592
 20
289.9940812663074
 30
0.0000000000000000
 11
195.7046880050591
 21
288.2620304587385
 31
0.0000000000000000
  0
LINE
  5
80
100
AcDbEntity
  8
MAIN0
  6
HIDDEN
 62
3
100
AcDbLine
 10
195.7046880050592
 20
288.2620304587385
 30
0.0000000000000000
 11
204.7046880050592
 21
288.2620304587385
 31
0.0000000000000000
  0
LINE
  5
81
100
AcDbEntity
  8
MAIN0
  6
HIDDEN
 62
3
100
AcDbLine
 10
195.7046880050592
 20
304.2620304587385
 30
0.0000000000000000
 11
195.7046880050592
 21
288.2620304587385
 31
0.0000000000000000
  0
LINE
  5
82
100
AcDbEntity
  8
MAIN0
  6
HIDDEN
 62
3
100
AcDbLine
 10
204.7046880050592
 20
301.2620304587385
 30
0.0000000000000000
 11
211.0403317480493
 21
301.2620304587385
 31
0.0000000000000000
  0
LINE
  5
83
100
AcDbEntity
  8
MAIN0
  6
HIDDEN
 62
3
100
AcDbLine
 10
210.0807453665402
 20
291.2620304587385
 30
0.0000000000000000
 11
204.7046880050592
 21
291.2620304587385
 31
0.0000000000000000
  0
LINE
  5
84
100
AcDbEntity
  8
MAIN0
  6
HIDDEN
 62
3
100
AcDbLine
 10
204.7046880050592
 20
300.4501314587386
 30
0.0000000000000000
 11
210.9976652811204
 21
300.4501314587386
 31
0.0000000000000000
  0
LINE
  5
85
100
AcDbEntity
  8
MAIN0
  6
HIDDEN
 62
3
100
AcDbLine
 10
204.7046880050592
 20
292.0739294587385
 30
0.0000000000000000
 11
210.1978907437998
 21
292.0739294587385
 31
0.0000000000000000
  0
ARC
  5
86
100
AcDbEntity
  8
MAIN0
  6
CONTINUOUS
 62
3
100
AcDbCircle
 10
206.7046880050592
 20
561.2620304587385
 30
0.0000000000000000
 40
7.850000000000001
100
AcDbArc
 50
85.15246984596553
 51
94.84753016096586
  0
ARC
  5
87
100
AcDbEntity
  8
MAIN0
  6
CONTINUOUS
 62
3
100
AcDbCircle
 10
206.7046880050592
 20
561.2620304587385
 30
0.0000000000000000
 40
7.850000000000001
100
AcDbArc
 50
175.1524698390569
 51
184.8475301618289
  0
ARC
  5
88
100
AcDbEntity
  8
MAIN0
  6
CONTINUOUS
 62
3
100
AcDbCircle
 10
206.7046880050592
 20
561.2620304587385
 30
0.0000000000000000
 40
7.850000000000001
100
AcDbArc
 50
265.1524698382760
 51
274.8475301549216
  0
ARC
  5
89
100
AcDbEntity
  8
MAIN0
  6
CONTINUOUS
 62
3
100
AcDbCircle
 10
206.7046880050592
 20
561.2620304587385
 30
0.0000000000000000
 40
7.850000000000001
100
AcDbArc
 50
355.1524698451013
 51
364.8475301541394
  0
LINE
  5
8A
100
AcDbEntity
  8
MAIN0
  6
CENTER
 62
3
100
AcDbLine
 10
206.7046880050592
 20
476.2620304587385
 30
0.0000000000000000
 11
206.7046880050592
 21
496.2620304587385
 31
0.0000000000000000
  0
LINE
  5
8B
100
AcDbEntity
  8
MAIN0
  6
CENTER
 62
3
100
AcDbLine
 10
206.7046880050592
 20
547.6109101603463
 30
0.0000000000000000
 11
206.7046880050592
 21
573.9523624105451
 31
0.0000000000000000
  0
LINE
  5
8C
100
AcDbEntity
  8
MAIN0
  6
CENTER
 62
3
100
AcDbLine
 10
156.2046880050592
 20
351.2620304587385
 30
0.0000000000000000
 11
326.2046880050592
 21
351.2620304587385
 31
0.0000000000000000
  0
LINE
  5
8D
100
AcDbEntity
  8
MAIN0
  6
CENTER
 62
3
100
AcDbLine
 10
386.2046880050592
 20
351.2620304587385
 30
0.0000000000000000
 11
696.2046880050591
 21
351.2620304587385
 31
0.0000000000000000
  0
LINE
  5
8E
100
AcDbEntity
  8
MAIN0
  6
HIDDEN
 62
3
100
AcDbLine
 10
558.9546880050593
 20
485.6030349621855
 30
0.0000000000000000
 11
559.8361603280539
 21
486.4845072851800
 31
0.0000000000000000
  0
LINE
  5
8F
100
AcDbEntity
  8
MAIN0
  6
HIDDEN
 62
3
100
AcDbLine
 10
523.4546880050592
 20
485.6030349621855
 30
0.0000000000000000
 11
522.5732156820648
 21
486.4845072851800
 31
0.0000000000000000
  0
LINE
  5
90
100
AcDbEntity
  8
MAIN0
  6
HIDDEN
 62
3
100
AcDbLine
 10
433.9302310706198
 20
309.8230284267351
 30
0.0000000000000000
 11
415.9869653351841
 21
299.4634791242403
 31
0.0000000000000000
  0
LINE
  5
91
100
AcDbEntity
  8
MAIN0
  6
HIDDEN
 62
3
100
AcDbLine
 10
451.6802310706037
 20
279.0791265923782
 30
0.0000000000000000
 11
433.7369653351841
 21
268.7195772898927
 31
0.0000000000000000
  0
LINE
  5
92
100
AcDbEntity
  8
MAIN0
  6
HIDDEN
 62
3
100
AcDbLine
 10
415.9869653351841
 20
299.4634791242403
 30
0.0000000000000000
 11
414.7828517492407
 21
299.7861203871892
 31
0.0000000000000000
  0
LINE
  5
93
100
AcDbEntity
  8
MAIN0
  6
HIDDEN
 62
3
100
AcDbLine
 10
433.7369653351840
 20
268.7195772898928
 30
0.0000000000000000
 11
433.4143240722351
 21
267.5154637039493
 31
0.0000000000000000
  0
LINE
  5
94
100
AcDbEntity
  8
MAIN0
  6
HIDDEN
 62
3
100
AcDbLine
 10
630.7291449394985
 20
279.0791265923874
 30
0.0000000000000000
 11
648.6724106749341
 21
268.7195772898926
 31
0.0000000000000000
  0
LINE
  5
95
100
AcDbEntity
  8
MAIN0
  6
HIDDEN
 62
3
100
AcDbLine
 10
648.4791449395145
 20
309.8230284267257
 30
0.0000000000000000
 11
666.4224106749341
 21
299.4634791242402
 31
0.0000000000000000
  0
LINE
  5
96
100
AcDbEntity
  8
MAIN0
  6
HIDDEN
 62
3
100
AcDbLine
 10
648.6724106749341
 20
268.7195772898926
 30
0.0000000000000000
 11
648.9950519378830
 21
267.5154637039492
 31
0.0000000000000000
  0
LINE
  5
97
100
AcDbEntity
  8
MAIN0
  6
HIDDEN
 62
3
100
AcDbLine
 10
666.4224106749342
 20
299.4634791242402
 30
0.0000000000000000
 11
667.6265242608777
 21
299.7861203871890
 31
0.0000000000000000
  0
LINE
  5
98
100
AcDbEntity
  8
MAIN0
  6
HIDDEN
 62
3
100
AcDbLine
 10
564.3937951086213
 20
386.8782530509720
 30
0.0000000000000000
 11
648.6107335658214
 21
435.5009251392805
 31
0.0000000000000000
  0
LINE
  5
99
100
AcDbEntity
  8
MAIN0
  6
HIDDEN
 62
3
100
AcDbLine
 10
583.6437951085636
 20
353.5362750052378
 30
0.0000000000000000
 11
667.8607335657453
 21
402.1589470935354
 31
0.0000000000000000
  0
LINE
  5
9A
100
AcDbEntity
  8
MAIN0
  6
PHANTOM
 62
3
100
AcDbLine
 10
261.2046880050592
 20
364.7620304587385
 30
0.0000000000000000
 11
266.2046880050592
 21
364.7620304587385
 31
0.0000000000000000
  0
LINE
  5
9B
100
AcDbEntity
  8
MAIN0
  6
PHANTOM
 62
3
100
AcDbLine
 10
261.2046880050592
 20
337.7620304587385
 30
0.0000000000000000
 11
266.2046880050592
 21
337.7620304587385
 31
0.0000000000000000
  0
LINE
  5
9C
100
AcDbEntity
  8
MAIN0
  6
HIDDEN
 62
3
100
AcDbLine
 10
498.7655809015922
 20
353.5362750054362
 30
0.0000000000000000
 11
414.5486424446365
 21
402.1589470941680
 31
0.0000000000000000
  0
LINE
  5
9D
100
AcDbEntity
  8
MAIN0
  6
HIDDEN
 62
3
100
AcDbLine
 10
518.0155809016501
 20
386.8782530511037
 30
0.0000000000000000
 11
433.7986424447130
 21
435.5009251398249
 31
0.0000000000000000
  0
LINE
  5
9E
100
AcDbEntity
  8
MAIN0
  6
HIDDEN
 62
3
100
AcDbLine
 10
560.4546880049638
 20
313.3715633199101
 30
0.0000000000000000
 11
560.4546880047194
 21
216.1262191428700
 31
0.0000000000000000
  0
LINE
  5
9F
100
AcDbEntity
  8
MAIN0
  6
HIDDEN
 62
3
100
AcDbLine
 10
521.9546880049638
 20
313.3715633199768
 30
0.0000000000000000
 11
521.9546880047194
 21
216.1262191429582
 31
0.0000000000000000
  0
ARC
  5
A0
100
AcDbEntity
  8
MAIN0
  6
CONTINUOUS
 62
3
100
AcDbCircle
 10
541.2046880050591
 20
351.2620304587385
 30
0.0000000000000000
 40
42.50000000000000
100
AcDbArc
 50
279.9750674247114
 51
380.0249325761886
  0
ARC
  5
A1
100
AcDbEntity
  8
MAIN0
  6
CONTINUOUS
 62
3
100
AcDbCircle
 10
541.2046880050591
 20
351.2620304587385
 30
0.0000000000000000
 40
42.50000000000000
100
AcDbArc
 50
39.97506742489828
 51
140.0249325763754
  0
ARC
  5
A2
100
AcDbEntity
  8
MAIN0
  6
CONTINUOUS
 62
3
100
AcDbCircle
 10
541.2046880050591
 20
351.2620304587385
 30
0.0000000000000000
 40
42.50000000000000
100
AcDbArc
 50
159.9750674247115
 51
260.0249325761886
  0
LINE
  5
A3
100
AcDbEntity
  8
MAIN0
  6
HIDDEN
 62
3
100
AcDbLine
 10
224.4546880050592
 20
486.4620304587386
 30
0.0000000000000000
 11
224.4546880050592
 21
486.7620304587385
 31
0.0000000000000000
  0
LINE
  5
A4
100
AcDbEntity
  8
MAIN0
  6
HIDDEN
 62
3
100
AcDbLine
 10
188.9546880050592
 20
486.4620304587386
 30
0.0000000000000000
 11
188.9546880050592
 21
486.7620304587385
 31
0.0000000000000000
  0
LINE
  5
A5
100
AcDbEntity
  8
MAIN0
  6
HIDDEN
 62
3
100
AcDbLine
 10
224.4546880050592
 20
486.7620304587385
 30
0.0000000000000000
 11
225.4546880050592
 21
487.7620304587385
 31
0.0000000000000000
  0
LINE
  5
A6
100
AcDbEntity
  8
MAIN0
  6
HIDDEN
 62
3
100
AcDbLine
 10
188.9546880050592
 20
486.7620304587385
 30
0.0000000000000000
 11
187.9546880050592
 21
487.7620304587385
 31
0.0000000000000000
  0
ARC
  5
A7
100
AcDbEntity
  8
MAIN0
  6
CENTER
 62
3
100
AcDbCircle
 10
541.2046880050591
 20
351.2620304587385
 30
0.0000000000000000
 40
64.00000000000000
100
AcDbArc
 50
98.79155434387927
 51
121.2084456570258
  0
LINE
  5
A8
100
AcDbEntity
  8
MAIN0
  6
CENTER
 62
3
100
AcDbLine
 10
515.0401470401724
 20
423.1485159486883
 30
0.0000000000000000
 11
523.5906506233100
 21
399.6562004290391
 31
0.0000000000000000
  0
LINE
  5
A9
100
AcDbEntity
  8
MAIN0
  6
CENTER
 62
3
100
AcDbLine
 10
524.9546880050591
 20
470.7265839025232
 30
0.0000000000000000
 11
524.9546880050591
 21
482.8400727206451
 31
0.0000000000000000
  0
ARC
  5
AA
100
AcDbEntity
  8
MAIN0
  6
CENTER
 62
3
100
AcDbCircle
 10
541.2046880050591
 20
351.2620304587385
 30
0.0000000000000000
 40
127.0000000000000
100
AcDbArc
 50
92.65757467793070
 51
101.9072821707606
  0
LINE
  5
AB
100
AcDbEntity
  8
MAIN0
  6
CENTER
 62
3
100
AcDbLine
 10
445.8703498709779
 20
277.4568409253491
 30
0.0000000000000000
 11
435.3797608260255
 21
271.4000965162882
 31
0.0000000000000000
  0
ARC
  5
AC
100
AcDbEntity
  8
MAIN0
  6
CENTER
 62
3
100
AcDbCircle
 10
541.2046880050591
 20
351.2620304587385
 30
0.0000000000000000
 40
127.0000000000000
100
AcDbArc
 50
212.6575746779307
 51
221.9072821707606
  0
CIRCLE
  5
AD
100
AcDbEntity
  8
MAIN0
  6
HIDDEN
 62
3
100
AcDbCircle
 10
440.2485112374793
 20
274.2110708769581
 30
0.0000000000000000
 40
4.000000000000000
  0
CIRCLE
  5
AE
100
AcDbEntity
  8
MAIN0
  6
HIDDEN
 62
3
100
AcDbCircle
 10
440.2485112374793
 20
274.2110708769581
 30
0.0000000000000000
 40
3.400000000000000
  0
LINE
  5
AF
100
AcDbEntity
  8
MAIN0
  6
CENTER
 62
3
100
AcDbLine
 10
652.7890261391403
 20
305.6026665483432
 30
0.0000000000000000
 11
663.2796151840927
 21
299.5459221392823
 31
0.0000000000000000
  0
ARC
  5
B0
100
AcDbEntity
  8
MAIN0
  6
CENTER
 62
3
100
AcDbCircle
 10
541.2046880050591
 20
351.2620304587385
 30
0.0000000000000000
 40
127.0000000000000
100
AcDbArc
 50
334.2837525401455
 51
340.5900505463390
  0
CIRCLE
  5
B1
100
AcDbEntity
  8
MAIN0
  6
HIDDEN
 62
3
100
AcDbCircle
 10
658.4108647726389
 20
302.3568964999523
 30
0.0000000000000000
 40
4.000000000000000
  0
CIRCLE
  5
B2
100
AcDbEntity
  8
MAIN0
  6
HIDDEN
 62
3
100
AcDbCircle
 10
658.4108647726389
 20
302.3568964999523
 30
0.0000000000000000
 40
3.400000000000000
  0
ARC
  5
B3
100
AcDbEntity
  8
MAIN0
  6
HIDDEN
 62
3
100
AcDbCircle
 10
541.2046880049999
 20
351.2620304587385
 30
0.0000000000000000
 40
115.0000000000000
100
AcDbArc
 50
158.7529290769124
 51
261.2470709231473
  0
MTEXT
  5
B4
100
AcDbEntity
  8
MAIN0
  6
CONTINUOUS
 62
3
100
AcDbMText
 10
564.2981790636782
 20
226.6225338039121
 30
0.0000000000000000
 40
4.649999856948853
 41
0.0000000000000000
 71
     1
 72
     1
  1
{\H0.81x;{1}}
 11
1.000000000000000
 21
0.0000000000000000
 31
0.0000000000000000
  7
STANDARD
  0
MTEXT
  5
B5
100
AcDbEntity
  8
MAIN0
  6
CONTINUOUS
 62
3
100
AcDbMText
 10
640.8585469357121
 20
433.2212028062413
 30
0.0000000000000000
 40
4.649999856948853
 41
0.0000000000000000
 71
     1
 72
     1
  1
{\H0.81x;{2}}
 11
-0.4999999999983780
 21
0.8660254037853751
 31
0.0000000000000000
  7
STANDARD
  0
MTEXT
  5
B6
100
AcDbEntity
  8
MAIN0
  6
CONTINUOUS
 62
3
100
AcDbMText
 10
419.6997763918356
 20
396.9478626350077
 30
0.0000000000000000
 40
4.649999856948853
 41
0.0000000000000000
 71
     1
 72
     1
  1
{\H0.81x;{3}}
 11
-0.5000000000000142
 21
-0.8660254037844304
 31
0.0000000000000000
  7
STANDARD
  0
ARC
  5
B7
100
AcDbEntity
  8
MAIN0
  6
HIDDEN
 62
3
100
AcDbCircle
 10
541.2046880050591
 20
351.2620304587385
 30
0.0000000000000000
 40
65.00000000000000
100
AcDbArc
 50
165.6184982757299
 51
254.3815017243514
  0
ARC
  5
B8
100
AcDbEntity
  8
MAIN0
  6
HIDDEN
 62
3
100
AcDbCircle
 10
541.2046880050591
 20
351.2620304587385
 30
0.0000000000000000
 40
65.00000000000000
100
AcDbArc
 50
285.6184982756486
 51
374.3815017244328
  0
ARC
  5
B9
100
AcDbEntity
  8
MAIN0
  6
HIDDEN
 62
3
100
AcDbCircle
 10
541.2046880050591
 20
351.2620304587385
 30
0.0000000000000000
 40
65.00000000000000
100
AcDbArc
 50
45.61849827572996
 51
134.3815017244328
  0
LINE
  5
BA
100
AcDbEntity
  8
MAIN0
  6
CONTINUOUS
 62
3
100
AcDbLine
 10
261.2046880050592
 20
216.7620304587385
 30
0.0000000000000000
 11
261.2046880050592
 21
485.7620304587385
 31
0.0000000000000000
  0
LINE
  5
BB
100
AcDbEntity
  8
MAIN0
  6
CONTINUOUS
 62
3
100
AcDbLine
 10
269.0046880050559
 20
214.7620304587386
 30
0.0000000000000000
 11
177.2046880050592
 21
214.7620304587386
 31
0.0000000000000000
  0
CIRCLE
  5
BC
100
AcDbEntity
  8
MAIN0
  6
CONTINUOUS
 62
3
100
AcDbCircle
 10
519.3153988317413
 20
411.4023581888638
 30
0.0000000000000000
 40
7.500000000000000
  0
LINE
  5
BD
100
AcDbEntity
  8
MAIN0
  6
CONTINUOUS
 62
3
100
AcDbLine
 10
515.3353456826301
 20
412.1041489437059
 30
0.0000000000000000
 11
517.9331408790201
 21
415.2000807018276
 31
0.0000000000000000
  0
LINE
  5
BE
100
AcDbEntity
  8
MAIN0
  6
CONTINUOUS
 62
3
100
AcDbLine
 10
517.9331408790201
 20
415.2000807018276
 30
0.0000000000000000
 11
521.9131940281313
 21
414.4982899469856
 31
0.0000000000000000
  0
LINE
  5
BF
100
AcDbEntity
  8
MAIN0
  6
CONTINUOUS
 62
3
100
AcDbLine
 10
521.9131940281313
 20
414.4982899469856
 30
0.0000000000000000
 11
523.2954519808527
 21
410.7005674340218
 31
0.0000000000000000
  0
LINE
  5
C0
100
AcDbEntity
  8
MAIN0
  6
CONTINUOUS
 62
3
100
AcDbLine
 10
520.6976567844629
 20
407.6046356759000
 30
0.0000000000000000
 11
523.2954519808528
 21
410.7005674340218
 31
0.0000000000000000
  0
CIRCLE
  5
C1
100
AcDbEntity
  8
MAIN0
  6
CONTINUOUS
 62
3
100
AcDbCircle
 10
519.3153988317413
 20
411.4023581888638
 30
0.0000000000000000
 40
2.400000000000000
  0
LINE
  5
C2
100
AcDbEntity
  8
MAIN0
  6
CONTINUOUS
 62
3
100
AcDbLine
 10
516.7176036353517
 20
408.3064264307420
 30
0.0000000000000000
 11
520.6976567844629
 21
407.6046356759000
 31
0.0000000000000000
  0
LINE
  5
C3
100
AcDbEntity
  8
MAIN0
  6
CONTINUOUS
 62
3
100
AcDbLine
 10
515.3353456826300
 20
412.1041489437060
 30
0.0000000000000000
 11
516.7176036353515
 21
408.3064264307420
 31
0.0000000000000000
  0
POLYLINE
  5
C4
100
AcDbEntity
  8
MAIN0
  6
CONTINUOUS
 62
3
100
AcDb2dPolyline
 66
     1
 10
0.0000000000000000
 20
0.0000000000000000
 30
0.0000000000000000
 70
     1
 40
0.7500000000000000
 41
0.7500000000000000
  0
VERTEX
  5
C5
100
AcDbEntity
  8
MAIN0
  6
CONTINUOUS
 62
3
100
AcDbVertex
100
AcDb2dVertex
 10
519.6903988317413
 20
411.4023581888638
 30
0.0000000000000000
 42
1.000000000000000
  0
VERTEX
  5
C6
100
AcDbEntity
  8
MAIN0
  6
CONTINUOUS
 62
3
100
AcDbVertex
100
AcDb2dVertex
 10
518.9403988317413
 20
411.4023581888638
 30
0.0000000000000000
 42
1.000000000000000
  0
SEQEND
  5
C7
100
AcDbEntity
  8
MAIN0
  6
CONTINUOUS
 62
3
  0
CIRCLE
  5
C8
100
AcDbEntity
  8
MAIN0
  6
CONTINUOUS
 62
3
100
AcDbCircle
 10
519.3153988317413
 20
411.4023581888638
 30
0.0000000000000000
 40
1.300000000000000
  0
CIRCLE
  5
C9
100
AcDbEntity
  8
MAIN0
  6
CONTINUOUS
 62
3
100
AcDbCircle
 10
665.2046880050593
 20
351.2620304587385
 30
0.0000000000000000
 40
10.00000000000000
  0
CIRCLE
  5
CA
100
AcDbEntity
  8
MAIN0
  6
CONTINUOUS
 62
3
100
AcDbCircle
 10
665.2046880050593
 20
351.2620304587385
 30
0.0000000000000000
 40
6.750000000000000
  0
CIRCLE
  5
CB
100
AcDbEntity
  8
MAIN0
  6
CONTINUOUS
 62
3
100
AcDbCircle
 10
479.2046880050563
 20
458.6491805280107
 30
0.0000000000000000
 40
10.00000000000000
  0
CIRCLE
  5
CC
100
AcDbEntity
  8
MAIN0
  6
CONTINUOUS
 62
3
100
AcDbCircle
 10
479.2046880050563
 20
458.6491805280107
 30
0.0000000000000000
 40
6.750000000000000
  0
CIRCLE
  5
CD
100
AcDbEntity
  8
MAIN0
  6
CONTINUOUS
 62
3
100
AcDbCircle
 10
479.2046880050562
 20
243.8748803894664
 30
0.0000000000000000
 40
10.00000000000000
  0
CIRCLE
  5
CE
100
AcDbEntity
  8
MAIN0
  6
CONTINUOUS
 62
3
100
AcDbCircle
 10
479.2046880050562
 20
243.8748803894664
 30
0.0000000000000000
 40
6.750000000000000
  0
LINE
  5
CF
100
AcDbEntity
  8
MAIN0
  6
CENTER
 62
3
100
AcDbLine
 10
486.7046880050563
 20
445.6587994712441
 30
0.0000000000000000
 11
471.7046880050564
 21
471.6395615847773
 31
0.0000000000000000
  0
LINE
  5
D0
100
AcDbEntity
  8
MAIN0
  6
CENTER
 62
3
100
AcDbLine
 10
486.7046880050562
 20
256.8652614462330
 30
0.0000000000000000
 11
471.7046880050561
 21
230.8844993326999
 31
0.0000000000000000
  0
LINE
  5
D1
100
AcDbEntity
  8
MAIN0
  6
CENTER
 62
3
100
AcDbLine
 10
166.0918429285175
 20
475.2620304586633
 30
0.0000000000000000
 11
271.2046880050592
 21
475.2620304586633
 31
0.0000000000000000
  0
LINE
  5
D2
100
AcDbEntity
  8
MAIN0
  6
HIDDEN
 62
3
100
AcDbLine
 10
246.7046880050592
 20
485.2620304586633
 30
0.0000000000000000
 11
261.2046880050592
 21
485.2620304586633
 31
0.0000000000000000
  0
LINE
  5
D3
100
AcDbEntity
  8
MAIN0
  6
HIDDEN
 62
3
100
AcDbLine
 10
246.7046880050592
 20
475.2620304586633
 30
0.0000000000000000
 11
246.7046880050592
 21
485.2620304586633
 31
0.0000000000000000
  0
LINE
  5
D4
100
AcDbEntity
  8
MAIN0
  6
HIDDEN
 62
3
100
AcDbLine
 10
175.2046880050592
 20
482.0120304586633
 30
0.0000000000000000
 11
246.7046880050592
 21
482.0120304586633
 31
0.0000000000000000
  0
LINE
  5
D5
100
AcDbEntity
  8
MAIN0
  6
HIDDEN
 62
3
100
AcDbLine
 10
246.7046880050592
 20
465.2620304586633
 30
0.0000000000000000
 11
261.2046880050592
 21
465.2620304586633
 31
0.0000000000000000
  0
LINE
  5
D6
100
AcDbEntity
  8
MAIN0
  6
HIDDEN
 62
3
100
AcDbLine
 10
246.7046880050592
 20
475.2620304586633
 30
0.0000000000000000
 11
246.7046880050592
 21
465.2620304586633
 31
0.0000000000000000
  0
LINE
  5
D7
100
AcDbEntity
  8
MAIN0
  6
HIDDEN
 62
3
100
AcDbLine
 10
175.2046880050592
 20
468.5120304586633
 30
0.0000000000000000
 11
246.7046880050592
 21
468.5120304586633
 31
0.0000000000000000
  0
ARC
  5
D8
100
AcDbEntity
  8
MAIN0
  6
HIDDEN
 62
3
100
AcDbCircle
 10
541.2046880049999
 20
351.2620304587385
 30
0.0000000000000000
 40
115.0000000000000
100
AcDbArc
 50
278.7529290769124
 51
380.3638215258172
  0
ARC
  5
D9
100
AcDbEntity
  8
MAIN0
  6
CENTER
 62
3
100
AcDbCircle
 10
541.2046880050591
 20
351.2620304587385
 30
0.0000000000000000
 40
124.0000000000000
100
AcDbArc
 50
113.0648260491234
 51
126.9351739508781
  0
ARC
  5
DA
100
AcDbEntity
  8
MAIN0
  6
CENTER
 62
3
100
AcDbCircle
 10
541.2046880050591
 20
351.2620304587385
 30
0.0000000000000000
 40
124.0000000000000
100
AcDbArc
 50
226.6365770416167
 51
246.9351739508766
  0
ARC
  5
DB
100
AcDbEntity
  8
MAIN0
  6
CENTER
 62
3
100
AcDbCircle
 10
541.2046880050591
 20
351.2620304587385
 30
0.0000000000000000
 40
124.0000000000000
100
AcDbArc
 50
353.0648260491226
 51
411.0090059574945
  0
DIMENSION
  5
E5
100
AcDbEntity
  8
MAIN0
  6
CONTINUOUS
 62
3
100
AcDbDimension
  2
*D0
 10
224.1673898201321
 20
552.2846100174477
 30
0.0000000000000000
 11
230.2928977073197
 21
559.4707780764271
 31
0.0000000000000000
 70
161
  1
\A1;□12\H0.903226x;\S+0.15^ +0.05;
  3
MAIN001
100
AcDbAlignedDimension
 13
206.0413279714085
 23
553.4401091176769
 33
0.0000000000000000
 14
214.5266093462086
 24
561.9253904913538
 34
0.0000000000000000
 50
45.00000000005171
1001
ACAD
1000
DSTYLE
1002
{
1070
   173
1070
     1
1070
     6
1000
_OPEN
1070
     7
1000
_OPEN
1070
    41
1040
3.000000
1070
   272
1070
     2
1070
    47
1040
0.150000
1070
    48
1040
-0.050000
1070
    71
1070
     1
1070
   340
1005
E6
1002
}
  0
DIMENSION
  5
EF
100
AcDbEntity
  8
MAIN0
  6
CONTINUOUS
 62
3
100
AcDbDimension
  2
*D1
 10
136.2046880050592
 20
466.2620304587385
 30
0.0000000000000000
 11
135.7046880050592
 21
344.1870303216479
 31
0.0000000000000000
 70
32
  1
\A1;\U+2205230H6\H0.903226x;\S＋0.029^ 　0;
  3
MAIN001
100
AcDbAlignedDimension
 13
175.2046880050592
 23
236.2620304587385
 33
0.0000000000000000
 14
175.2046880050592
 24
466.2620304587385
 34
0.0000000000000000
 50
90.00000000000000
100
AcDbRotatedDimension
1001
ACAD
1000
DSTYLE
1002
{
1070
   173
1070
     1
1070
     6
1000
_OPEN
1070
     7
1000
_OPEN
1070
    41
1040
3.000000
1070
   272
1070
     3
1070
    47
1040
0.029000
1070
    48
1040
0.000000
1070
    71
1070
     1
1070
   340
1005
E6
1002
}
  0
DIMENSION
  5
F8
100
AcDbEntity
  8
MAIN0
  6
CONTINUOUS
 62
3
100
AcDbDimension
  2
*D2
 10
151.2046880050592
 20
393.7620304587385
 30
0.0000000000000000
 11
150.7046880050592
 21
351.2620304587385
 31
0.0000000000000000
 70
32
  1
\A1;\U+220585
  3
MAIN001
100
AcDbAlignedDimension
 13
192.7046880050591
 23
308.7620304587385
 33
0.0000000000000000
 14
192.7046880050591
 24
393.7620304587385
 34
0.0000000000000000
 50
90.00000000000000
100
AcDbRotatedDimension
1001
ACAD
1000
DSTYLE
1002
{
1070
   173
1070
     1
1070
     6
1000
_OPEN
1070
     7
1000
_OPEN
1070
    41
1040
3.000000
1002
}
  0
DIMENSION
  5
101
100
AcDbEntity
  8
MAIN0
  6
CONTINUOUS
 62
3
100
AcDbDimension
  2
*D3
 10
175.2046880050592
 20
331.2620304587385
 30
0.0000000000000000
 11
169.4242348909456
 21
332.0120304587385
 31
0.0000000000000000
 70
160
  3
MAIN001
100
AcDbAlignedDimension
 13
181.2046880050592
 23
236.2620304587385
 33
0.0000000000000000
 14
175.2046880050592
 24
216.7620304587385
 34
0.0000000000000000
100
AcDbRotatedDimension
1001
ACAD
1000
DSTYLE
1002
{
1070
   173
1070
     1
1070
     6
1000
_OPEN
1070
     7
1000
_OPEN
1070
    41
1040
3.000000
1070
   287
1070
     0
1002
}
  0
DIMENSION
  5
10C
100
AcDbEntity
  8
MAIN0
  6
CONTINUOUS
 62
3
100
AcDbDimension
  2
*D4
 10
261.2046880050592
 20
501.2620304587385
 30
0.0000000000000000
 11
253.9546880050592
 21
501.7620304587385
 31
0.0000000000000000
 70
32
  3
MAIN001
100
AcDbAlignedDimension
 13
246.7046880050592
 23
485.2620304586633
 33
0.0000000000000000
 14
261.2046880050592
 24
485.7620304587385
 34
0.0000000000000000
100
AcDbRotatedDimension
1001
ACAD
1000
DSTYLE
1002
{
1070
   173
1070
     1
1070
     6
1000
_OPEN
1070
     7
1000
_OPEN
1070
    41
1040
3.000000
1070
   287
1070
     0
1002
}
  0
DIMENSION
  5
117
100
AcDbEntity
  8
MAIN0
  6
CONTINUOUS
 62
3
100
AcDbDimension
  2
*D5
 10
161.2046880050592
 20
482.0120304586633
 30
0.0000000000000000
 11
160.7046880050592
 21
475.2620304586633
 31
0.0000000000000000
 70
32
  1
\A1;\U+220513.5
  3
MAIN001
100
AcDbAlignedDimension
 13
175.2046880050592
 23
468.5120304586633
 33
0.0000000000000000
 14
175.2046880050592
 24
482.0120304586633
 34
0.0000000000000000
 50
90.00000000000000
100
AcDbRotatedDimension
1001
ACAD
1000
DSTYLE
1002
{
1070
   173
1070
     1
1070
     6
1000
_OPEN
1070
     7
1000
_OPEN
1070
    41
1040
3.000000
1070
   287
1070
     0
1002
}
  0
DIMENSION
  5
120
100
AcDbEntity
  8
MAIN0
  6
CONTINUOUS
 62
3
100
AcDbDimension
  2
*D6
 10
281.2046880050592
 20
485.2620304586633
 30
0.0000000000000000
 11
280.7046880050592
 21
475.2620304586633
 31
0.0000000000000000
 70
32
  1
\A1;\U+220520
  3
MAIN001
100
AcDbAlignedDimension
 13
261.2046880050592
 23
465.2620304586633
 33
0.0000000000000000
 14
261.2046880050592
 24
485.2620304586633
 34
0.0000000000000000
 50
90.00000000000000
100
AcDbRotatedDimension
1001
ACAD
1000
DSTYLE
1002
{
1070
   173
1070
     1
1070
     6
1000
_OPEN
1070
     7
1000
_OPEN
1070
    41
1040
3.000000
1002
}
  0
LINE
  5
121
100
AcDbEntity
  8
MAIN0
  6
CONTINUOUS
 62
3
100
AcDbLine
 10
153.8910067172834
 20
107.8547037396736
 30
0.0000000000000000
 11
172.9210067172833
 21
107.8547037396899
 31
0.0000000000000000
  0
LINE
  5
122
100
AcDbEntity
  8
MAIN0
  6
CONTINUOUS
 62
3
100
AcDbLine
 10
114.9060067172970
 20
159.8547037396402
 30
0.0000000000000000
 11
221.9060067172970
 21
159.8547037397318
 31
0.0000000000000000
  0
LINE
  5
123
100
AcDbEntity
  8
MAIN0
  6
CENTER
 62
3
100
AcDbLine
 10
163.4060067172875
 20
123.3786967674785
 30
0.0000000000000000
 11
163.4060067172824
 21
103.6495515126618
 31
0.0000000000000000
  0
LINE
  5
124
100
AcDbEntity
  8
MAIN0
  6
CENTER
 62
3
100
AcDbLine
 10
136.4160067172981
 20
164.1251632202406
 30
0.0000000000000000
 11
136.4160067172831
 21
106.4680021147262
 31
0.0000000000000000
  0
LINE
  5
125
100
AcDbEntity
  8
MAIN0
  6
CENTER
 62
3
100
AcDbLine
 10
190.3960067172985
 20
165.5344019606737
 30
0.0000000000000000
 11
190.3960067172829
 21
105.9982588544396
 31
0.0000000000000000
  0
LINE
  5
126
100
AcDbEntity
  8
MAIN0
  6
CONTINUOUS
 62
3
100
AcDbLine
 10
113.4060067172852
 20
114.3547037396389
 30
0.0000000000000000
 11
223.4060067172852
 21
114.3547037397331
 31
0.0000000000000000
  0
LINE
  5
127
100
AcDbEntity
  8
MAIN0
  6
CONTINUOUS
 62
3
100
AcDbLine
 10
172.9210067172844
 20
111.5547037396898
 30
0.0000000000000000
 11
172.9210067172834
 21
107.8547037396898
 31
0.0000000000000000
  0
LINE
  5
128
100
AcDbEntity
  8
MAIN0
  6
CONTINUOUS
 62
3
100
AcDbLine
 10
153.8910067172844
 20
111.5547037396735
 30
0.0000000000000000
 11
153.8910067172834
 21
107.8547037396735
 31
0.0000000000000000
  0
LINE
  5
129
100
AcDbEntity
  8
MAIN0
  6
CONTINUOUS
 62
3
100
AcDbLine
 10
175.9210067172844
 20
111.5547037396924
 30
0.0000000000000000
 11
175.9210067172842
 21
110.8547037396923
 31
0.0000000000000000
  0
LINE
  5
12A
100
AcDbEntity
  8
MAIN0
  6
CONTINUOUS
 62
3
100
AcDbLine
 10
150.8910067172844
 20
111.5547037396709
 30
0.0000000000000000
 11
150.8910067172843
 21
110.8547037396710
 31
0.0000000000000000
  0
LINE
  5
12B
100
AcDbEntity
  8
MAIN0
  6
CONTINUOUS
 62
3
100
AcDbLine
 10
113.7060067172842
 20
110.8547037396393
 30
0.0000000000000000
 11
150.8910067172850
 21
110.8547037396711
 31
0.0000000000000000
  0
LINE
  5
12C
100
AcDbEntity
  8
MAIN0
  6
CONTINUOUS
 62
3
100
AcDbLine
 10
175.9210067172842
 20
110.8547037396923
 30
0.0000000000000000
 11
223.1060067172842
 21
110.8547037397327
 31
0.0000000000000000
  0
LINE
  5
12D
100
AcDbEntity
  8
MAIN0
  6
CONTINUOUS
 62
3
100
AcDbLine
 10
150.8910067172843
 20
111.5547037396710
 30
0.0000000000000000
 11
153.8910067172844
 21
111.5547037396735
 31
0.0000000000000000
  0
LINE
  5
12E
100
AcDbEntity
  8
MAIN0
  6
CONTINUOUS
 62
3
100
AcDbLine
 10
172.9210067172843
 20
111.5547037396898
 30
0.0000000000000000
 11
175.9210067172836
 21
111.5547037396924
 31
0.0000000000000000
  0
LINE
  5
12F
100
AcDbEntity
  8
MAIN0
  6
CONTINUOUS
 62
3
100
AcDbLine
 10
147.0160067172969
 20
159.8547037396585
 30
0.0000000000000000
 11
146.4160067172969
 21
159.2547037396585
 31
0.0000000000000000
  0
LINE
  5
130
100
AcDbEntity
  8
MAIN0
  6
CONTINUOUS
 62
3
100
AcDbLine
 10
146.4160067172970
 20
159.2547037396586
 30
0.0000000000000000
 11
146.4160067172975
 21
121.3547037396586
 31
0.0000000000000000
  0
LINE
  5
131
100
AcDbEntity
  8
MAIN0
  6
CONTINUOUS
 62
3
100
AcDbLine
 10
146.4160067172975
 20
121.3547037396585
 30
0.0000000000000000
 11
126.4160067172975
 21
121.3547037396585
 31
0.0000000000000000
  0
LINE
  5
132
100
AcDbEntity
  8
MAIN0
  6
CONTINUOUS
 62
3
100
AcDbLine
 10
126.4160067172975
 20
121.3547037396585
 30
0.0000000000000000
 11
126.4160067172970
 21
159.2547037396585
 31
0.0000000000000000
  0
LINE
  5
133
100
AcDbEntity
  8
MAIN0
  6
CONTINUOUS
 62
3
100
AcDbLine
 10
126.4160067172970
 20
159.2547037396584
 30
0.0000000000000000
 11
125.8160067172970
 21
159.8547037396584
 31
0.0000000000000000
  0
LINE
  5
134
100
AcDbEntity
  8
MAIN0
  6
CONTINUOUS
 62
3
100
AcDbLine
 10
143.1660067172975
 20
121.3547037396585
 30
0.0000000000000000
 11
143.1660067172975
 21
114.9547037396585
 31
0.0000000000000000
  0
LINE
  5
135
100
AcDbEntity
  8
MAIN0
  6
CONTINUOUS
 62
3
100
AcDbLine
 10
143.1660067172977
 20
114.9547037396584
 30
0.0000000000000000
 11
143.7660067172976
 21
114.3547037396584
 31
0.0000000000000000
  0
LINE
  5
136
100
AcDbEntity
  8
MAIN0
  6
CONTINUOUS
 62
3
100
AcDbLine
 10
129.6660067172975
 20
121.3547037396585
 30
0.0000000000000000
 11
129.6660067172975
 21
114.9547037396585
 31
0.0000000000000000
  0
LINE
  5
137
100
AcDbEntity
  8
MAIN0
  6
CONTINUOUS
 62
3
100
AcDbLine
 10
129.6660067172976
 20
114.9547037396584
 30
0.0000000000000000
 11
129.0660067172976
 21
114.3547037396584
 31
0.0000000000000000
  0
LINE
  5
138
100
AcDbEntity
  8
MAIN0
  6
CONTINUOUS
 62
3
100
AcDbLine
 10
200.9960067172968
 20
159.8547037397049
 30
0.0000000000000000
 11
200.3960067172968
 21
159.2547037397049
 31
0.0000000000000000
  0
LINE
  5
139
100
AcDbEntity
  8
MAIN0
  6
CONTINUOUS
 62
3
100
AcDbLine
 10
200.3960067172970
 20
159.2547037397048
 30
0.0000000000000000
 11
200.3960067172975
 21
121.3547037397048
 31
0.0000000000000000
  0
LINE
  5
13A
100
AcDbEntity
  8
MAIN0
  6
CONTINUOUS
 62
3
100
AcDbLine
 10
200.3960067172975
 20
121.3547037397048
 30
0.0000000000000000
 11
180.3960067172975
 21
121.3547037397048
 31
0.0000000000000000
  0
LINE
  5
13B
100
AcDbEntity
  8
MAIN0
  6
CONTINUOUS
 62
3
100
AcDbLine
 10
180.3960067172975
 20
121.3547037397048
 30
0.0000000000000000
 11
180.3960067172970
 21
159.2547037397047
 31
0.0000000000000000
  0
LINE
  5
13C
100
AcDbEntity
  8
MAIN0
  6
CONTINUOUS
 62
3
100
AcDbLine
 10
180.3960067172970
 20
159.2547037397048
 30
0.0000000000000000
 11
179.7960067172970
 21
159.8547037397049
 31
0.0000000000000000
  0
LINE
  5
13D
100
AcDbEntity
  8
MAIN0
  6
CONTINUOUS
 62
3
100
AcDbLine
 10
197.1460067172975
 20
121.3547037397048
 30
0.0000000000000000
 11
197.1460067172975
 21
114.9547037397048
 31
0.0000000000000000
  0
LINE
  5
13E
100
AcDbEntity
  8
MAIN0
  6
CONTINUOUS
 62
3
100
AcDbLine
 10
197.1460067172976
 20
114.9547037397047
 30
0.0000000000000000
 11
197.7460067172976
 21
114.3547037397047
 31
0.0000000000000000
  0
LINE
  5
13F
100
AcDbEntity
  8
MAIN0
  6
CONTINUOUS
 62
3
100
AcDbLine
 10
183.6460067172975
 20
121.3547037397048
 30
0.0000000000000000
 11
183.6460067172975
 21
114.9547037397048
 31
0.0000000000000000
  0
LINE
  5
140
100
AcDbEntity
  8
MAIN0
  6
CONTINUOUS
 62
3
100
AcDbLine
 10
183.6460067172976
 20
114.9547037397048
 30
0.0000000000000000
 11
183.0460067172975
 21
114.3547037397049
 31
0.0000000000000000
  0
LINE
  5
141
100
AcDbEntity
  8
MAIN0
  6
CONTINUOUS
 62
3
100
AcDbLine
 10
223.4060067172966
 20
158.3547037397330
 30
0.0000000000000000
 11
223.4060067172843
 21
111.1547037397330
 31
0.0000000000000000
  0
LINE
  5
142
100
AcDbEntity
  8
MAIN0
  6
CONTINUOUS
 62
3
100
AcDbLine
 10
113.4060067172966
 20
158.3547037396388
 30
0.0000000000000000
 11
113.4060067172843
 21
111.1547037396390
 31
0.0000000000000000
  0
LINE
  5
143
100
AcDbEntity
  8
MAIN0
  6
CONTINUOUS
 62
3
100
AcDbLine
 10
221.9060067172970
 20
159.8547037397317
 30
0.0000000000000000
 11
223.4060067172967
 21
158.3547037397329
 31
0.0000000000000000
  0
LINE
  5
144
100
AcDbEntity
  8
MAIN0
  6
CONTINUOUS
 62
3
100
AcDbLine
 10
114.9060067172969
 20
159.8547037396401
 30
0.0000000000000000
 11
113.4060067172965
 21
158.3547037396388
 31
0.0000000000000000
  0
LINE
  5
145
100
AcDbEntity
  8
MAIN0
  6
CONTINUOUS
 62
3
100
AcDbLine
 10
223.4060067172843
 20
111.1547037397329
 30
0.0000000000000000
 11
223.1060067172842
 21
110.8547037397326
 31
0.0000000000000000
  0
LINE
  5
146
100
AcDbEntity
  8
MAIN0
  6
CONTINUOUS
 62
3
100
AcDbLine
 10
113.4060067172843
 20
111.1547037396390
 30
0.0000000000000000
 11
113.7060067172843
 21
110.8547037396392
 31
0.0000000000000000
  0
DIMENSION
  5
14F
100
AcDbEntity
  8
MAIN0
  6
CONTINUOUS
 62
3
100
AcDbDimension
  2
*D7
 10
163.4060067172823
 20
87.26566177984165
 30
0.0000000000000000
 11
176.9010067172826
 21
87.76566177984165
 31
0.0000000000000000
 70
32
  3
MAIN001
100
AcDbAlignedDimension
 13
190.3960067172829
 23
105.9982588544396
 33
0.0000000000000000
 14
163.4060067172823
 24
103.6495515126618
 34
0.0000000000000000
100
AcDbRotatedDimension
1001
ACAD
1000
DSTYLE
1002
{
1070
   173
1070
     1
1070
     6
1000
_OPEN
1070
     7
1000
_OPEN
1070
    41
1040
3.000000
1002
}
  0
DIMENSION
  5
158
100
AcDbEntity
  8
MAIN0
  6
CONTINUOUS
 62
3
100
AcDbDimension
  2
*D8
 10
246.5853567886556
 20
107.8547037396898
 30
0.0000000000000000
 11
246.0853567886556
 21
133.8547037397107
 31
0.0000000000000000
 70
32
  3
MAIN001
100
AcDbAlignedDimension
 13
221.9060067172970
 23
159.8547037397316
 33
0.0000000000000000
 14
172.9210067172834
 24
107.8547037396898
 34
0.0000000000000000
 50
90.00000000000000
100
AcDbRotatedDimension
1001
ACAD
1000
DSTYLE
1002
{
1070
   173
1070
     1
1070
     6
1000
_OPEN
1070
     7
1000
_OPEN
1070
    41
1040
3.000000
1002
}
  0
DIMENSION
  5
161
100
AcDbEntity
  8
MAIN0
  6
CONTINUOUS
 62
3
100
AcDbDimension
  2
*D9
 10
223.4060067172967
 20
177.2656617798417
 30
0.0000000000000000
 11
168.4060067172966
 21
177.7656617798417
 31
0.0000000000000000
 70
32
  3
MAIN001
100
AcDbAlignedDimension
 13
113.4060067172966
 23
158.3547037396388
 33
0.0000000000000000
 14
223.4060067172967
 24
158.3547037397330
 34
0.0000000000000000
100
AcDbRotatedDimension
1001
ACAD
1000
DSTYLE
1002
{
1070
   173
1070
     1
1070
     6
1000
_OPEN
1070
     7
1000
_OPEN
1070
    41
1040
3.000000
1002
}
  0
LINE
  5
162
100
AcDbEntity
  8
MAIN0
  6
PHANTOM
 62
3
100
AcDbLine
 10
315.2046880050592
 20
334.7620304587377
 30
0.0000000000000000
 11
315.2046880050592
 21
367.7620304587367
 31
0.0000000000000000
  0
LINE
  5
163
100
AcDbEntity
  8
MAIN0
  6
PHANTOM
 62
3
100
AcDbLine
 10
263.2046880050591
 20
368.7620304587387
 30
0.0000000000000000
 11
314.2046880050572
 21
368.7620304587387
 31
0.0000000000000000
  0
LINE
  5
164
100
AcDbEntity
  8
MAIN0
  6
PHANTOM
 62
3
100
AcDbLine
 10
263.2046880050591
 20
333.7620304587387
 30
0.0000000000000000
 11
314.2046880050601
 21
333.7620304587387
 31
0.0000000000000000
  0
LINE
  5
165
100
AcDbEntity
  8
MAIN0
  6
PHANTOM
 62
3
100
AcDbLine
 10
314.2046880050571
 20
368.7620304587387
 30
0.0000000000000000
 11
315.2046880050590
 21
367.7620304587368
 31
0.0000000000000000
  0
LINE
  5
166
100
AcDbEntity
  8
MAIN0
  6
PHANTOM
 62
3
100
AcDbLine
 10
315.2046880050591
 20
334.7620304587377
 30
0.0000000000000000
 11
314.2046880050600
 21
333.7620304587386
 31
0.0000000000000000
  0
LINE
  5
167
100
AcDbEntity
  8
MAIN0
  6
PHANTOM
 62
3
100
AcDbLine
 10
269.2046880050592
 20
344.9120304587386
 30
0.0000000000000000
 11
269.2046880050592
 21
357.6120304587387
 31
0.0000000000000000
  0
LINE
  5
168
100
AcDbEntity
  8
MAIN0
  6
PHANTOM
 62
3
100
AcDbLine
 10
266.2046880050591
 20
357.6120304587387
 30
0.0000000000000000
 11
269.2046880050591
 21
357.6120304587387
 31
0.0000000000000000
  0
LINE
  5
169
100
AcDbEntity
  8
MAIN0
  6
PHANTOM
 62
3
100
AcDbLine
 10
266.2046880050591
 20
344.9120304587386
 30
0.0000000000000000
 11
269.2046880050591
 21
344.9120304587386
 31
0.0000000000000000
  0
LINE
  5
16A
100
AcDbEntity
  8
MAIN0
  6
PHANTOM
 62
3
100
AcDbLine
 10
266.2046880050592
 20
333.7620304587387
 30
0.0000000000000000
 11
266.2046880050592
 21
344.9120304587387
 31
0.0000000000000000
  0
LINE
  5
16B
100
AcDbEntity
  8
MAIN0
  6
PHANTOM
 62
3
100
AcDbLine
 10
266.2046880050592
 20
357.6120304587387
 30
0.0000000000000000
 11
266.2046880050592
 21
368.7620304587387
 31
0.0000000000000000
  0
LINE
  5
16C
100
AcDbEntity
  8
MAIN0
  6
PHANTOM
 62
3
100
AcDbLine
 10
263.2046880050591
 20
333.7620304587387
 30
0.0000000000000000
 11
263.2046880050591
 21
337.7620304587387
 31
0.0000000000000000
  0
LINE
  5
16D
100
AcDbEntity
  8
MAIN0
  6
PHANTOM
 62
3
100
AcDbLine
 10
263.2046880050591
 20
364.7620304587387
 30
0.0000000000000000
 11
263.2046880050591
 21
368.7620304587387
 31
0.0000000000000000
  0
LINE
  5
16E
100
AcDbEntity
  8
MAIN0
  6
CENTER
 62
3
100
AcDbLine
 10
261.7046880050591
 20
309.9823853761092
 30
0.0000000000000000
 11
261.7046880050591
 21
314.2339396687596
 31
0.0000000000000000
  0
LINE
  5
16F
100
AcDbEntity
  8
MAIN0
  6
CONTINUOUS
 62
3
100
AcDbLine
 10
262.2243032473557
 20
311.4969669493171
 30
0.0000000000000000
 11
262.9546880050622
 21
312.7620304587387
 31
0.0000000000000000
  0
ARC
  5
170
100
AcDbEntity
  8
MAIN0
  6
CONTINUOUS
 62
3
100
AcDbCircle
 10
261.7046880050851
 20
311.7969669493172
 30
0.0000000000000000
 40
0.6000000000000001
100
AcDbArc
 50
213.5573097576384
 51
330.0000000000017
  0
LINE
  5
171
100
AcDbEntity
  8
MAIN0
  6
CONTINUOUS
 62
3
100
AcDbLine
 10
262.9546880050622
 20
312.7620304587387
 30
0.0000000000000000
 11
268.2046880050591
 21
312.7620304587387
 31
0.0000000000000000
  0
LINE
  5
172
100
AcDbEntity
  8
MAIN0
  6
CONTINUOUS
 62
3
100
AcDbLine
 10
268.2046880050591
 20
312.7620304587386
 30
0.0000000000000000
 11
269.2046880050591
 21
311.7620304587385
 31
0.0000000000000000
  0
LINE
  5
173
100
AcDbEntity
  8
MAIN0
  6
CONTINUOUS
 62
3
100
AcDbLine
 10
269.0046880050559
 20
214.7620304587386
 30
0.0000000000000000
 11
269.2046880050592
 21
214.9620304587419
 31
0.0000000000000000
  0
LINE
  5
174
100
AcDbEntity
  8
MAIN0
  6
CENTER
 62
3
100
AcDbLine
 10
256.2046880050592
 20
262.7620304587387
 30
0.0000000000000000
 11
273.6202750091180
 21
262.7620304587387
 31
0.0000000000000000
  0
LINE
  5
175
100
AcDbEntity
  8
MAIN0
  6
CONTINUOUS
 62
3
100
AcDbLine
 10
262.7046880050591
 20
272.2770304587386
 30
0.0000000000000000
 11
269.7046880050591
 21
272.2770304587386
 31
0.0000000000000000
  0
LINE
  5
176
100
AcDbEntity
  8
MAIN0
  6
CONTINUOUS
 62
3
100
AcDbLine
 10
262.7046880050591
 20
253.2470304587387
 30
0.0000000000000000
 11
269.7046880050591
 21
253.2470304587387
 31
0.0000000000000000
  0
LINE
  5
177
100
AcDbEntity
  8
MAIN0
  6
CONTINUOUS
 62
3
100
AcDbLine
 10
262.7046880050592
 20
253.2470304587386
 30
0.0000000000000000
 11
262.7046880050592
 21
272.2770304587386
 31
0.0000000000000000
  0
LINE
  5
178
100
AcDbEntity
  8
MAIN0
  6
CONTINUOUS
 62
3
100
AcDbLine
 10
266.2046880050592
 20
214.7620304587386
 30
0.0000000000000000
 11
266.2046880050592
 21
253.2470304587386
 31
0.0000000000000000
  0
LINE
  5
179
100
AcDbEntity
  8
MAIN0
  6
CONTINUOUS
 62
3
100
AcDbLine
 10
266.2046880050592
 20
272.2770304587386
 30
0.0000000000000000
 11
266.2046880050592
 21
312.7620304587387
 31
0.0000000000000000
  0
LINE
  5
17A
100
AcDbEntity
  8
MAIN0
  6
CENTER
 62
3
100
AcDbLine
 10
251.2046880050592
 20
289.7520304587387
 30
0.0000000000000000
 11
321.2046880050592
 21
289.7520304587387
 31
0.0000000000000000
  0
LINE
  5
17B
100
AcDbEntity
  8
MAIN0
  6
CENTER
 62
3
100
AcDbLine
 10
251.2046880050592
 20
235.7720304587386
 30
0.0000000000000000
 11
296.2046880050592
 21
235.7720304587386
 31
0.0000000000000000
  0
LINE
  5
17C
100
AcDbEntity
  8
MAIN0
  6
CONTINUOUS
 62
3
100
AcDbLine
 10
269.2046880050592
 20
214.9620304587419
 30
0.0000000000000000
 11
269.2046880050592
 21
253.2470304587386
 31
0.0000000000000000
  0
LINE
  5
17D
100
AcDbEntity
  8
MAIN0
  6
CONTINUOUS
 62
3
100
AcDbLine
 10
269.2046880050592
 20
272.2770304587385
 30
0.0000000000000000
 11
269.2046880050592
 21
311.7620304587385
 31
0.0000000000000000
  0
LINE
  5
17E
100
AcDbEntity
  8
MAIN0
  6
CONTINUOUS
 62
3
100
AcDbLine
 10
315.2046880050592
 20
283.7620304587387
 30
0.0000000000000000
 11
315.2046880050592
 21
311.7620304587387
 31
0.0000000000000000
  0
LINE
  5
17F
100
AcDbEntity
  8
MAIN0
  6
CONTINUOUS
 62
3
100
AcDbLine
 10
301.2046880050592
 20
258.7620304587387
 30
0.0000000000000000
 11
301.2046880050592
 21
280.1620304587386
 31
0.0000000000000000
  0
LINE
  5
180
100
AcDbEntity
  8
MAIN0
  6
CONTINUOUS
 62
3
100
AcDbLine
 10
287.2046880050592
 20
222.7620304587387
 30
0.0000000000000000
 11
287.2046880050592
 21
248.1620304587386
 31
0.0000000000000000
  0
LINE
  5
181
100
AcDbEntity
  8
MAIN0
  6
CONTINUOUS
 62
3
100
AcDbLine
 10
269.7046880050591
 20
212.7620304587387
 30
0.0000000000000000
 11
285.7046880050592
 21
212.7620304587387
 31
0.0000000000000000
  0
LINE
  5
182
100
AcDbEntity
  8
MAIN0
  6
CENTER
 62
3
100
AcDbLine
 10
307.2046880050592
 20
309.1252610924507
 30
0.0000000000000000
 11
307.2046880050592
 21
317.2553976817344
 31
0.0000000000000000
  0
LINE
  5
183
100
AcDbEntity
  8
MAIN0
  6
CENTER
 62
3
100
AcDbLine
 10
299.7046880050592
 20
309.1252610924507
 30
0.0000000000000000
 11
299.7046880050592
 21
317.2553976817344
 31
0.0000000000000000
  0
LINE
  5
184
100
AcDbEntity
  8
MAIN0
  6
CENTER
 62
3
100
AcDbLine
 10
292.2046880050592
 20
309.1252610924507
 30
0.0000000000000000
 11
292.2046880050592
 21
317.2553976817344
 31
0.0000000000000000
  0
LINE
  5
185
100
AcDbEntity
  8
MAIN0
  6
CENTER
 62
3
100
AcDbLine
 10
284.7046880050592
 20
309.1252610924507
 30
0.0000000000000000
 11
284.7046880050592
 21
317.2553976817344
 31
0.0000000000000000
  0
LINE
  5
186
100
AcDbEntity
  8
MAIN0
  6
CENTER
 62
3
100
AcDbLine
 10
277.2046880050592
 20
309.1252610924507
 30
0.0000000000000000
 11
277.2046880050592
 21
317.2553976817344
 31
0.0000000000000000
  0
LINE
  5
187
100
AcDbEntity
  8
MAIN0
  6
CONTINUOUS
 62
3
100
AcDbLine
 10
314.2046880050592
 20
312.7620304587387
 30
0.0000000000000000
 11
315.2046880050592
 21
311.7620304587387
 31
0.0000000000000000
  0
LINE
  5
188
100
AcDbEntity
  8
MAIN0
  6
CONTINUOUS
 62
3
100
AcDbLine
 10
307.7243032474385
 20
311.4969669490274
 30
0.0000000000000000
 11
308.4546880053123
 21
312.7620304587385
 31
0.0000000000000000
  0
LINE
  5
189
100
AcDbEntity
  8
MAIN0
  6
CONTINUOUS
 62
3
100
AcDbLine
 10
305.9546880050231
 20
312.7620304587387
 30
0.0000000000000000
 11
306.6850727628973
 21
311.4969669490273
 31
0.0000000000000000
  0
LINE
  5
18A
100
AcDbEntity
  8
MAIN0
  6
CONTINUOUS
 62
3
100
AcDbLine
 10
300.2243032474386
 20
311.4969669490274
 30
0.0000000000000000
 11
300.9546880053123
 21
312.7620304587385
 31
0.0000000000000000
  0
LINE
  5
18B
100
AcDbEntity
  8
MAIN0
  6
CONTINUOUS
 62
3
100
AcDbLine
 10
298.4546880050231
 20
312.7620304587387
 30
0.0000000000000000
 11
299.1850727628973
 21
311.4969669490273
 31
0.0000000000000000
  0
LINE
  5
18C
100
AcDbEntity
  8
MAIN0
  6
CONTINUOUS
 62
3
100
AcDbLine
 10
292.7243032474385
 20
311.4969669490273
 30
0.0000000000000000
 11
293.4546880053123
 21
312.7620304587385
 31
0.0000000000000000
  0
LINE
  5
18D
100
AcDbEntity
  8
MAIN0
  6
CONTINUOUS
 62
3
100
AcDbLine
 10
290.9546880050231
 20
312.7620304587387
 30
0.0000000000000000
 11
291.6850727628973
 21
311.4969669490273
 31
0.0000000000000000
  0
LINE
  5
18E
100
AcDbEntity
  8
MAIN0
  6
CONTINUOUS
 62
3
100
AcDbLine
 10
285.2243032474386
 20
311.4969669490274
 30
0.0000000000000000
 11
285.9546880053123
 21
312.7620304587386
 31
0.0000000000000000
  0
LINE
  5
18F
100
AcDbEntity
  8
MAIN0
  6
CONTINUOUS
 62
3
100
AcDbLine
 10
283.4546880050231
 20
312.7620304587387
 30
0.0000000000000000
 11
284.1850727628973
 21
311.4969669490273
 31
0.0000000000000000
  0
LINE
  5
190
100
AcDbEntity
  8
MAIN0
  6
CONTINUOUS
 62
3
100
AcDbLine
 10
277.7243032474385
 20
311.4969669490273
 30
0.0000000000000000
 11
278.4546880053123
 21
312.7620304587385
 31
0.0000000000000000
  0
LINE
  5
191
100
AcDbEntity
  8
MAIN0
  6
CONTINUOUS
 62
3
100
AcDbLine
 10
275.9546880050231
 20
312.7620304587386
 30
0.0000000000000000
 11
276.6850727628973
 21
311.4969669490273
 31
0.0000000000000000
  0
ARC
  5
192
100
AcDbEntity
  8
MAIN0
  6
CONTINUOUS
 62
3
100
AcDbCircle
 10
307.2046880051679
 20
311.7969669490274
 30
0.0000000000000000
 40
0.6000000000000001
100
AcDbArc
 50
210.0000000000132
 51
329.9999999999996
  0
ARC
  5
193
100
AcDbEntity
  8
MAIN0
  6
CONTINUOUS
 62
3
100
AcDbCircle
 10
299.7046880051679
 20
311.7969669490274
 30
0.0000000000000000
 40
0.6000000000000001
100
AcDbArc
 50
210.0000000000132
 51
329.9999999999993
  0
ARC
  5
194
100
AcDbEntity
  8
MAIN0
  6
CONTINUOUS
 62
3
100
AcDbCircle
 10
292.2046880051679
 20
311.7969669490274
 30
0.0000000000000000
 40
0.6000000000000001
100
AcDbArc
 50
210.0000000000132
 51
329.9999999999996
  0
ARC
  5
195
100
AcDbEntity
  8
MAIN0
  6
CONTINUOUS
 62
3
100
AcDbCircle
 10
284.7046880051679
 20
311.7969669490274
 30
0.0000000000000000
 40
0.6000000000000001
100
AcDbArc
 50
210.0000000000131
 51
329.9999999999993
  0
ARC
  5
196
100
AcDbEntity
  8
MAIN0
  6
CONTINUOUS
 62
3
100
AcDbCircle
 10
277.2046880051679
 20
311.7969669490274
 30
0.0000000000000000
 40
0.6000000000000001
100
AcDbArc
 50
210.0000000000130
 51
329.9999999999996
  0
LINE
  5
197
100
AcDbEntity
  8
MAIN0
  6
CONTINUOUS
 62
3
100
AcDbLine
 10
308.4546880053123
 20
312.7620304587387
 30
0.0000000000000000
 11
314.2046880050592
 21
312.7620304587387
 31
0.0000000000000000
  0
LINE
  5
198
100
AcDbEntity
  8
MAIN0
  6
CONTINUOUS
 62
3
100
AcDbLine
 10
300.9546880053123
 20
312.7620304587387
 30
0.0000000000000000
 11
305.9546880050231
 21
312.7620304587387
 31
0.0000000000000000
  0
LINE
  5
199
100
AcDbEntity
  8
MAIN0
  6
CONTINUOUS
 62
3
100
AcDbLine
 10
293.4546880053123
 20
312.7620304587387
 30
0.0000000000000000
 11
298.4546880050231
 21
312.7620304587387
 31
0.0000000000000000
  0
LINE
  5
19A
100
AcDbEntity
  8
MAIN0
  6
CONTINUOUS
 62
3
100
AcDbLine
 10
285.9546880053123
 20
312.7620304587387
 30
0.0000000000000000
 11
290.9546880050231
 21
312.7620304587387
 31
0.0000000000000000
  0
LINE
  5
19B
100
AcDbEntity
  8
MAIN0
  6
CONTINUOUS
 62
3
100
AcDbLine
 10
269.7046880050591
 20
312.7620304587387
 30
0.0000000000000000
 11
275.9546880050231
 21
312.7620304587387
 31
0.0000000000000000
  0
LINE
  5
19C
100
AcDbEntity
  8
MAIN0
  6
CONTINUOUS
 62
3
100
AcDbLine
 10
278.4546880053123
 20
312.7620304587387
 30
0.0000000000000000
 11
283.4546880050231
 21
312.7620304587387
 31
0.0000000000000000
  0
LINE
  5
19D
100
AcDbEntity
  8
MAIN0
  6
CONTINUOUS
 62
3
100
AcDbLine
 10
315.2046880050592
 20
283.7620304587387
 30
0.0000000000000000
 11
314.2046880050591
 21
282.7620304587387
 31
0.0000000000000000
  0
LINE
  5
19E
100
AcDbEntity
  8
MAIN0
  6
CONTINUOUS
 62
3
100
AcDbLine
 10
300.7046880050592
 20
251.7620304587387
 30
0.0000000000000000
 11
300.7046880050592
 21
258.7620304587387
 31
0.0000000000000000
  0
LINE
  5
19F
100
AcDbEntity
  8
MAIN0
  6
CONTINUOUS
 62
3
100
AcDbLine
 10
300.7046880050592
 20
258.7620304587387
 30
0.0000000000000000
 11
301.2046880050592
 21
258.7620304587387
 31
0.0000000000000000
  0
LINE
  5
1A0
100
AcDbEntity
  8
MAIN0
  6
CONTINUOUS
 62
3
100
AcDbLine
 10
286.7046880050592
 20
213.7620304587387
 30
0.0000000000000000
 11
286.7046880050592
 21
222.7620304587387
 31
0.0000000000000000
  0
LINE
  5
1A1
100
AcDbEntity
  8
MAIN0
  6
CONTINUOUS
 62
3
100
AcDbLine
 10
286.7046880050592
 20
222.7620304587387
 30
0.0000000000000000
 11
287.2046880050592
 21
222.7620304587387
 31
0.0000000000000000
  0
LINE
  5
1A2
100
AcDbEntity
  8
MAIN0
  6
CONTINUOUS
 62
3
100
AcDbLine
 10
300.7046880050592
 20
251.7620304587387
 30
0.0000000000000000
 11
299.7046880050592
 21
250.7620304587387
 31
0.0000000000000000
  0
LINE
  5
1A3
100
AcDbEntity
  8
MAIN0
  6
CONTINUOUS
 62
3
100
AcDbLine
 10
286.7046880050592
 20
213.7620304587387
 30
0.0000000000000000
 11
285.7046880050592
 21
212.7620304587387
 31
0.0000000000000000
  0
LINE
  5
1A4
100
AcDbEntity
  8
MAIN0
  6
CENTER
 62
3
100
AcDbLine
 10
294.2046880050592
 20
246.2620304587385
 30
0.0000000000000000
 11
294.2046880050592
 21
256.2620304587385
 31
0.0000000000000000
  0
LINE
  5
1A5
100
AcDbEntity
  8
MAIN0
  6
CENTER
 62
3
100
AcDbLine
 10
309.0046880050591
 20
276.2620304587385
 30
0.0000000000000000
 11
309.0046880050591
 21
287.7061327540515
 31
0.0000000000000000
  0
LINE
  5
1A6
100
AcDbEntity
  8
MAIN0
  6
CONTINUOUS
 62
3
100
AcDbLine
 10
309.0046880050592
 20
284.9270939676787
 30
0.0000000000000000
 11
310.2546880047578
 21
282.7620304587387
 31
0.0000000000000000
  0
LINE
  5
1A7
100
AcDbEntity
  8
MAIN0
  6
CONTINUOUS
 62
3
100
AcDbLine
 10
307.7546880049895
 20
282.7620304587382
 30
0.0000000000000000
 11
309.0046880048751
 21
284.9270939679976
 31
0.0000000000000000
  0
LINE
  5
1A8
100
AcDbEntity
  8
MAIN0
  6
CONTINUOUS
 62
3
100
AcDbLine
 10
292.9546880050384
 20
250.7620304587387
 30
0.0000000000000000
 11
294.2046880052275
 21
252.9270939685264
 31
0.0000000000000000
  0
LINE
  5
1A9
100
AcDbEntity
  8
MAIN0
  6
CONTINUOUS
 62
3
100
AcDbLine
 10
294.2046880052275
 20
252.9270939685262
 30
0.0000000000000000
 11
295.4546880054152
 21
250.7620304587384
 31
0.0000000000000000
  0
LINE
  5
1AA
100
AcDbEntity
  8
MAIN0
  6
CONTINUOUS
 62
3
100
AcDbLine
 10
304.7046880050592
 20
282.7620304587387
 30
0.0000000000000000
 11
307.7546880049898
 21
282.7620304587387
 31
0.0000000000000000
  0
LINE
  5
1AB
100
AcDbEntity
  8
MAIN0
  6
CONTINUOUS
 62
3
100
AcDbLine
 10
310.2546880047579
 20
282.7620304587387
 30
0.0000000000000000
 11
314.2046880050592
 21
282.7620304587387
 31
0.0000000000000000
  0
LINE
  5
1AC
100
AcDbEntity
  8
MAIN0
  6
CONTINUOUS
 62
3
100
AcDbLine
 10
290.7046880050591
 20
250.7620304587387
 30
0.0000000000000000
 11
292.9546880050383
 21
250.7620304587387
 31
0.0000000000000000
  0
LINE
  5
1AD
100
AcDbEntity
  8
MAIN0
  6
CONTINUOUS
 62
3
100
AcDbLine
 10
295.4546880054151
 20
250.7620304587387
 30
0.0000000000000000
 11
299.7046880050592
 21
250.7620304587387
 31
0.0000000000000000
  0
LINE
  5
1AE
100
AcDbEntity
  8
MAIN0
  6
CONTINUOUS
 62
3
100
AcDbLine
 10
301.2046880050592
 20
280.1620304587387
 30
0.0000000000000000
 11
300.2046880050592
 21
282.0830125857098
 31
0.0000000000000000
  0
LINE
  5
1AF
100
AcDbEntity
  8
MAIN0
  6
CONTINUOUS
 62
3
100
AcDbLine
 10
300.2046880050591
 20
282.0830125857098
 30
0.0000000000000000
 11
300.2046880050591
 21
282.3620304587387
 31
0.0000000000000000
  0
LINE
  5
1B0
100
AcDbEntity
  8
MAIN0
  6
CONTINUOUS
 62
3
100
AcDbLine
 10
301.4046880050591
 20
283.5620304587387
 30
0.0000000000000000
 11
303.1679023034822
 21
283.5620304587387
 31
0.0000000000000000
  0
LINE
  5
1B1
100
AcDbEntity
  8
MAIN0
  6
CONTINUOUS
 62
3
100
AcDbLine
 10
303.1679023034822
 20
283.5620304587387
 30
0.0000000000000000
 11
304.7046880050591
 21
282.7620304587387
 31
0.0000000000000000
  0
ARC
  5
1B2
100
AcDbEntity
  8
MAIN0
  6
CONTINUOUS
 62
3
100
AcDbCircle
 10
301.4046880050591
 20
282.3620304587387
 30
0.0000000000000000
 40
1.200000000000000
100
AcDbArc
 50
90.00000000000000
 51
180.0000000000000
  0
LINE
  5
1B3
100
AcDbEntity
  8
MAIN0
  6
CONTINUOUS
 62
3
100
AcDbLine
 10
287.2046880050592
 20
248.1620304587386
 30
0.0000000000000000
 11
286.2046880050592
 21
250.0830125857099
 31
0.0000000000000000
  0
LINE
  5
1B4
100
AcDbEntity
  8
MAIN0
  6
CONTINUOUS
 62
3
100
AcDbLine
 10
286.2046880050591
 20
250.0830125857098
 30
0.0000000000000000
 11
286.2046880050591
 21
250.3620304587387
 31
0.0000000000000000
  0
LINE
  5
1B5
100
AcDbEntity
  8
MAIN0
  6
CONTINUOUS
 62
3
100
AcDbLine
 10
287.4046880050591
 20
251.5620304587387
 30
0.0000000000000000
 11
289.1679023034822
 21
251.5620304587387
 31
0.0000000000000000
  0
LINE
  5
1B6
100
AcDbEntity
  8
MAIN0
  6
CONTINUOUS
 62
3
100
AcDbLine
 10
289.1679023034821
 20
251.5620304587387
 30
0.0000000000000000
 11
290.7046880050591
 21
250.7620304587387
 31
0.0000000000000000
  0
ARC
  5
1B7
100
AcDbEntity
  8
MAIN0
  6
CONTINUOUS
 62
3
100
AcDbCircle
 10
287.4046880050591
 20
250.3620304587387
 30
0.0000000000000000
 40
1.200000000000000
100
AcDbArc
 50
90.00000000000000
 51
180.0000000000000
  0
LINE
  5
1B8
100
AcDbEntity
  8
MAIN0
  6
CONTINUOUS
 62
3
100
AcDbLine
 10
301.1578369705094
 20
280.2520304587387
 30
0.0000000000000000
 11
276.7046880050591
 21
280.2520304587387
 31
0.0000000000000000
  0
LINE
  5
1B9
100
AcDbEntity
  8
MAIN0
  6
CONTINUOUS
 62
3
100
AcDbLine
 10
276.7046880050591
 20
280.2520304587387
 30
0.0000000000000000
 11
276.7046880050591
 21
299.2520304587387
 31
0.0000000000000000
  0
LINE
  5
1BA
100
AcDbEntity
  8
MAIN0
  6
CONTINUOUS
 62
3
100
AcDbLine
 10
276.7046880050591
 20
299.2520304587386
 30
0.0000000000000000
 11
314.6046880050592
 21
299.2520304587386
 31
0.0000000000000000
  0
LINE
  5
1BB
100
AcDbEntity
  8
MAIN0
  6
CONTINUOUS
 62
3
100
AcDbLine
 10
314.6046880050592
 20
299.2520304587386
 30
0.0000000000000000
 11
315.2046880050592
 21
299.8520304587386
 31
0.0000000000000000
  0
LINE
  5
1BC
100
AcDbEntity
  8
MAIN0
  6
CONTINUOUS
 62
3
100
AcDbLine
 10
276.7046880050592
 20
283.2520304587387
 30
0.0000000000000000
 11
270.3046880050591
 21
283.2520304587387
 31
0.0000000000000000
  0
LINE
  5
1BD
100
AcDbEntity
  8
MAIN0
  6
CONTINUOUS
 62
3
100
AcDbLine
 10
270.3046880050592
 20
283.2520304587386
 30
0.0000000000000000
 11
269.7046880050592
 21
282.6520304587385
 31
0.0000000000000000
  0
LINE
  5
1BE
100
AcDbEntity
  8
MAIN0
  6
CONTINUOUS
 62
3
100
AcDbLine
 10
276.7046880050592
 20
296.2520304587387
 30
0.0000000000000000
 11
270.3046880050591
 21
296.2520304587387
 31
0.0000000000000000
  0
LINE
  5
1BF
100
AcDbEntity
  8
MAIN0
  6
CONTINUOUS
 62
3
100
AcDbLine
 10
270.3046880050592
 20
296.2520304587387
 30
0.0000000000000000
 11
269.7046880050592
 21
296.8520304587387
 31
0.0000000000000000
  0
LINE
  5
1C0
100
AcDbEntity
  8
MAIN0
  6
CONTINUOUS
 62
3
100
AcDbLine
 10
287.2046880050591
 20
225.6720304587387
 30
0.0000000000000000
 11
286.6046880050591
 21
226.2720304587387
 31
0.0000000000000000
  0
LINE
  5
1C1
100
AcDbEntity
  8
MAIN0
  6
CONTINUOUS
 62
3
100
AcDbLine
 10
286.6046880050591
 20
226.2720304587386
 30
0.0000000000000000
 11
274.0046880050591
 21
226.2720304587386
 31
0.0000000000000000
  0
LINE
  5
1C2
100
AcDbEntity
  8
MAIN0
  6
CONTINUOUS
 62
3
100
AcDbLine
 10
274.0046880050591
 20
226.2720304587387
 30
0.0000000000000000
 11
274.0046880050591
 21
245.2720304587387
 31
0.0000000000000000
  0
LINE
  5
1C3
100
AcDbEntity
  8
MAIN0
  6
CONTINUOUS
 62
3
100
AcDbLine
 10
274.0046880050591
 20
245.2720304587386
 30
0.0000000000000000
 11
286.6046880050591
 21
245.2720304587386
 31
0.0000000000000000
  0
LINE
  5
1C4
100
AcDbEntity
  8
MAIN0
  6
CONTINUOUS
 62
3
100
AcDbLine
 10
286.6046880050591
 20
245.2720304587387
 30
0.0000000000000000
 11
287.2046880050591
 21
245.8720304587387
 31
0.0000000000000000
  0
LINE
  5
1C5
100
AcDbEntity
  8
MAIN0
  6
CONTINUOUS
 62
3
100
AcDbLine
 10
274.0046880050591
 20
229.2720304587386
 30
0.0000000000000000
 11
270.3046880050591
 21
229.2720304587386
 31
0.0000000000000000
  0
LINE
  5
1C6
100
AcDbEntity
  8
MAIN0
  6
CONTINUOUS
 62
3
100
AcDbLine
 10
270.3046880050592
 20
229.2720304587385
 30
0.0000000000000000
 11
269.7046880050592
 21
228.6720304587385
 31
0.0000000000000000
  0
LINE
  5
1C7
100
AcDbEntity
  8
MAIN0
  6
CONTINUOUS
 62
3
100
AcDbLine
 10
274.0046880050591
 20
242.2720304587386
 30
0.0000000000000000
 11
270.3046880050591
 21
242.2720304587386
 31
0.0000000000000000
  0
LINE
  5
1C8
100
AcDbEntity
  8
MAIN0
  6
CONTINUOUS
 62
3
100
AcDbLine
 10
270.3046880050592
 20
242.2720304587388
 30
0.0000000000000000
 11
269.7046880050592
 21
242.8720304587387
 31
0.0000000000000000
  0
LINE
  5
1C9
100
AcDbEntity
  8
MAIN0
  6
CONTINUOUS
 62
3
100
AcDbLine
 10
276.7046880050591
 20
280.7520304587387
 30
0.0000000000000000
 11
287.5046880050591
 21
280.7520304587387
 31
0.0000000000000000
  0
LINE
  5
1CA
100
AcDbEntity
  8
MAIN0
  6
CONTINUOUS
 62
3
100
AcDbLine
 10
287.5046880050591
 20
280.7520304587386
 30
0.0000000000000000
 11
288.7046880050592
 21
282.8304914278214
 31
0.0000000000000000
  0
LINE
  5
1CB
100
AcDbEntity
  8
MAIN0
  6
CONTINUOUS
 62
3
100
AcDbLine
 10
288.7046880050592
 20
282.8304914278213
 30
0.0000000000000000
 11
288.7046880050592
 21
296.6735694896560
 31
0.0000000000000000
  0
LINE
  5
1CC
100
AcDbEntity
  8
MAIN0
  6
CONTINUOUS
 62
3
100
AcDbLine
 10
288.7046880050592
 20
296.6735694896560
 30
0.0000000000000000
 11
287.5046880050592
 21
298.7520304587387
 31
0.0000000000000000
  0
LINE
  5
1CD
100
AcDbEntity
  8
MAIN0
  6
CONTINUOUS
 62
3
100
AcDbLine
 10
287.5046880050591
 20
298.7520304587387
 30
0.0000000000000000
 11
276.7046880050592
 21
298.7520304587387
 31
0.0000000000000000
  0
LINE
  5
1CE
100
AcDbEntity
  8
MAIN0
  6
CONTINUOUS
 62
3
100
AcDbLine
 10
287.5046880050591
 20
280.7520304587387
 30
0.0000000000000000
 11
287.5046880050591
 21
298.7520304587387
 31
0.0000000000000000
  0
LINE
  5
1CF
100
AcDbEntity
  8
MAIN0
  6
CONTINUOUS
 62
3
100
AcDbLine
 10
274.0046880050591
 20
226.7720304587386
 30
0.0000000000000000
 11
284.8046880050591
 21
226.7720304587386
 31
0.0000000000000000
  0
LINE
  5
1D0
100
AcDbEntity
  8
MAIN0
  6
CONTINUOUS
 62
3
100
AcDbLine
 10
284.8046880050591
 20
226.7720304587386
 30
0.0000000000000000
 11
286.0046880050591
 21
228.8504914278213
 31
0.0000000000000000
  0
LINE
  5
1D1
100
AcDbEntity
  8
MAIN0
  6
CONTINUOUS
 62
3
100
AcDbLine
 10
286.0046880050591
 20
228.8504914278213
 30
0.0000000000000000
 11
286.0046880050591
 21
242.6935694896560
 31
0.0000000000000000
  0
LINE
  5
1D2
100
AcDbEntity
  8
MAIN0
  6
CONTINUOUS
 62
3
100
AcDbLine
 10
286.0046880050592
 20
242.6935694896560
 30
0.0000000000000000
 11
284.8046880050591
 21
244.7720304587387
 31
0.0000000000000000
  0
LINE
  5
1D3
100
AcDbEntity
  8
MAIN0
  6
CONTINUOUS
 62
3
100
AcDbLine
 10
284.8046880050591
 20
244.7720304587386
 30
0.0000000000000000
 11
274.0046880050591
 21
244.7720304587386
 31
0.0000000000000000
  0
LINE
  5
1D4
100
AcDbEntity
  8
MAIN0
  6
CONTINUOUS
 62
3
100
AcDbLine
 10
284.8046880050591
 20
226.7720304587386
 30
0.0000000000000000
 11
284.8046880050591
 21
244.7720304587386
 31
0.0000000000000000
  0
LINE
  5
1D5
100
AcDbEntity
  8
MAIN0
  6
HIDDEN
 62
3
100
AcDbLine
 10
256.9465466081169
 20
295.7520304587387
 30
0.0000000000000000
 11
269.7046880050591
 21
295.7520304587387
 31
0.0000000000000000
  0
LINE
  5
1D6
100
AcDbEntity
  8
MAIN0
  6
CONTINUOUS
 62
3
100
AcDbLine
 10
269.7046880050591
 20
295.7520304587387
 30
0.0000000000000000
 11
276.7046880050592
 21
295.7520304587387
 31
0.0000000000000000
  0
LINE
  5
1D7
100
AcDbEntity
  8
MAIN0
  6
HIDDEN
 62
3
100
AcDbLine
 10
256.9465466081169
 20
294.8048149587387
 30
0.0000000000000000
 11
269.7046880050591
 21
294.8048149587387
 31
0.0000000000000000
  0
LINE
  5
1D8
100
AcDbEntity
  8
MAIN0
  6
CONTINUOUS
 62
3
100
AcDbLine
 10
269.7046880050591
 20
294.8048149587386
 30
0.0000000000000000
 11
276.7046880050591
 21
294.8048149587386
 31
0.0000000000000000
  0
LINE
  5
1D9
100
AcDbEntity
  8
MAIN0
  6
HIDDEN
 62
3
100
AcDbLine
 10
256.9465466081169
 20
284.6992459587387
 30
0.0000000000000000
 11
269.7046880050591
 21
284.6992459587387
 31
0.0000000000000000
  0
LINE
  5
1DA
100
AcDbEntity
  8
MAIN0
  6
CONTINUOUS
 62
3
100
AcDbLine
 10
269.7046880050591
 20
284.6992459587387
 30
0.0000000000000000
 11
276.7046880050592
 21
284.6992459587387
 31
0.0000000000000000
  0
LINE
  5
1DB
100
AcDbEntity
  8
MAIN0
  6
HIDDEN
 62
3
100
AcDbLine
 10
256.9465466081169
 20
283.7520304587387
 30
0.0000000000000000
 11
269.7046880050591
 21
283.7520304587387
 31
0.0000000000000000
  0
LINE
  5
1DC
100
AcDbEntity
  8
MAIN0
  6
CONTINUOUS
 62
3
100
AcDbLine
 10
269.7046880050591
 20
283.7520304587387
 30
0.0000000000000000
 11
276.7046880050592
 21
283.7520304587387
 31
0.0000000000000000
  0
LINE
  5
1DD
100
AcDbEntity
  8
MAIN0
  6
HIDDEN
 62
3
100
AcDbLine
 10
256.9465466081169
 20
241.7720304587386
 30
0.0000000000000000
 11
269.7046880050591
 21
241.7720304587386
 31
0.0000000000000000
  0
LINE
  5
1DE
100
AcDbEntity
  8
MAIN0
  6
CONTINUOUS
 62
3
100
AcDbLine
 10
269.7046880050591
 20
241.7720304587386
 30
0.0000000000000000
 11
274.0046880050591
 21
241.7720304587386
 31
0.0000000000000000
  0
LINE
  5
1DF
100
AcDbEntity
  8
MAIN0
  6
HIDDEN
 62
3
100
AcDbLine
 10
256.9465466081169
 20
240.8248149587387
 30
0.0000000000000000
 11
269.7046880050591
 21
240.8248149587387
 31
0.0000000000000000
  0
LINE
  5
1E0
100
AcDbEntity
  8
MAIN0
  6
CONTINUOUS
 62
3
100
AcDbLine
 10
269.7046880050591
 20
240.8248149587387
 30
0.0000000000000000
 11
274.0046880050591
 21
240.8248149587387
 31
0.0000000000000000
  0
LINE
  5
1E1
100
AcDbEntity
  8
MAIN0
  6
HIDDEN
 62
3
100
AcDbLine
 10
256.9465466081169
 20
230.7192459587386
 30
0.0000000000000000
 11
269.7046880050592
 21
230.7192459587386
 31
0.0000000000000000
  0
LINE
  5
1E2
100
AcDbEntity
  8
MAIN0
  6
CONTINUOUS
 62
3
100
AcDbLine
 10
269.7046880050592
 20
230.7192459587387
 30
0.0000000000000000
 11
274.0046880050591
 21
230.7192459587387
 31
0.0000000000000000
  0
LINE
  5
1E3
100
AcDbEntity
  8
MAIN0
  6
HIDDEN
 62
3
100
AcDbLine
 10
256.9465466081169
 20
229.7720304587386
 30
0.0000000000000000
 11
269.7046880050591
 21
229.7720304587386
 31
0.0000000000000000
  0
LINE
  5
1E4
100
AcDbEntity
  8
MAIN0
  6
CONTINUOUS
 62
3
100
AcDbLine
 10
269.7046880050591
 20
229.7720304587386
 30
0.0000000000000000
 11
274.0046880050591
 21
229.7720304587386
 31
0.0000000000000000
  0
LINE
  5
1E5
100
AcDbEntity
  8
MAIN0
  6
CONTINUOUS
 62
3
100
AcDbLine
 10
261.2046880050591
 20
305.8606214895468
 30
0.0000000000000000
 11
266.2046880050591
 21
305.8606214895468
 31
0.0000000000000000
  0
LINE
  5
1E6
100
AcDbEntity
  8
MAIN0
  6
CONTINUOUS
 62
3
100
AcDbLine
 10
263.2046880050592
 20
253.2470304587386
 30
0.0000000000000000
 11
263.2046880050592
 21
272.2770304587386
 31
0.0000000000000000
  0
LINE
  5
1E7
100
AcDbEntity
  8
MAIN0
  6
CONTINUOUS
 62
3
100
AcDbLine
 10
269.7046880050591
 20
212.7620304587386
 30
0.0000000000000000
 11
269.7046880050591
 21
253.2470304587386
 31
0.0000000000000000
  0
LINE
  5
1E8
100
AcDbEntity
  8
MAIN0
  6
CONTINUOUS
 62
3
100
AcDbLine
 10
269.7046880050591
 20
272.2770304587386
 30
0.0000000000000000
 11
269.7046880050591
 21
312.7620304587387
 31
0.0000000000000000
  0
LINE
  5
1E9
100
AcDbEntity
  8
MAIN0
  6
CONTINUOUS
 62
3
100
AcDbLine
 10
266.2046880050590
 20
309.9886759143886
 30
0.0000000000000000
 11
269.7046880050590
 21
309.9886759143881
 31
0.0000000000000000
  0
LINE
  5
1EA
100
AcDbEntity
  8
MAIN0
  6
CONTINUOUS
 62
3
100
AcDbLine
 10
266.2046880050590
 20
215.5621792643420
 30
0.0000000000000000
 11
269.7046880050591
 21
215.5621792643420
 31
0.0000000000000000
  0
DIMENSION
  5
1F3
100
AcDbEntity
  8
MAIN0
  6
CONTINUOUS
 62
3
100
AcDbDimension
  2
*D10
 10
336.2046880050592
 20
312.7620304587387
 30
0.0000000000000000
 11
335.7046880050592
 21
262.7620304587387
 31
0.0000000000000000
 70
32
  3
MAIN001
100
AcDbAlignedDimension
 13
285.7046880050592
 23
212.7620304587387
 33
0.0000000000000000
 14
314.2046880050592
 24
312.7620304587387
 34
0.0000000000000000
 50
90.00000000000000
100
AcDbRotatedDimension
1001
ACAD
1000
DSTYLE
1002
{
1070
   173
1070
     1
1070
     6
1000
_OPEN
1070
     7
1000
_OPEN
1070
    41
1040
3.000000
1002
}
  0
DIMENSION
  5
1FC
100
AcDbEntity
  8
MAIN0
  6
CONTINUOUS
 62
3
100
AcDbDimension
  2
*D11
 10
336.2046880050592
 20
368.7620304587387
 30
0.0000000000000000
 11
335.7046880050592
 21
351.2620304587387
 31
0.0000000000000000
 70
32
  3
MAIN001
100
AcDbAlignedDimension
 13
314.2046880050601
 23
333.7620304587387
 33
0.0000000000000000
 14
314.2046880050572
 24
368.7620304587387
 34
0.0000000000000000
 50
90.00000000000000
100
AcDbRotatedDimension
1001
ACAD
1000
DSTYLE
1002
{
1070
   173
1070
     1
1070
     6
1000
_OPEN
1070
     7
1000
_OPEN
1070
    41
1040
3.000000
1002
}
  0
DIMENSION
  5
207
100
AcDbEntity
  8
MAIN0
  6
CONTINUOUS
 62
3
100
AcDbDimension
  2
*D12
 10
261.2046880050592
 20
511.2620304587385
 30
0.0000000000000000
 11
252.9546880050592
 21
511.7620304587385
 31
0.0000000000000000
 70
32
  3
MAIN001
100
AcDbAlignedDimension
 13
244.7046880050592
 23
491.2620304587385
 33
0.0000000000000000
 14
261.2046880050592
 24
485.7620304587385
 34
0.0000000000000000
100
AcDbRotatedDimension
1001
ACAD
1000
DSTYLE
1002
{
1070
   173
1070
     1
1070
     6
1000
_OPEN
1070
     7
1000
_OPEN
1070
    41
1040
3.000000
1070
   287
1070
     0
1002
}
  0
LINE
  5
208
100
AcDbEntity
  8
MAIN0
  6
CENTER
 62
3
100
AcDbLine
 10
515.7800055523644
 20
256.3758237789778
 30
0.0000000000000000
 11
504.7751960807477
 21
215.3053157032890
 31
0.0000000000000000
  0
LINE
  5
209
100
AcDbEntity
  8
MAIN0
  6
PHANTOM
 62
3
100
AcDbLine
 10
645.2046880050597
 20
361.2620304587031
 30
0.0000000000000000
 11
650.2046880050597
 21
361.2620304587027
 31
0.0000000000000000
  0
LINE
  5
20A
100
AcDbEntity
  8
MAIN0
  6
PHANTOM
 62
3
100
AcDbLine
 10
650.2046880050580
 20
341.2620304587027
 30
0.0000000000000000
 11
650.2046880050597
 21
361.2620304587027
 31
0.0000000000000000
  0
LINE
  5
20B
100
AcDbEntity
  8
MAIN0
  6
PHANTOM
 62
3
100
AcDbLine
 10
645.2046880050584
 20
341.2620304587032
 30
0.0000000000000000
 11
645.2046880050602
 21
361.2620304587032
 31
0.0000000000000000
  0
LINE
  5
20C
100
AcDbEntity
  8
MAIN0
  6
PHANTOM
 62
3
100
AcDbLine
 10
645.2046880050580
 20
341.2620304587031
 30
0.0000000000000000
 11
650.2046880050575
 21
341.2620304587027
 31
0.0000000000000000
  0
LINE
  5
20D
100
AcDbEntity
  8
MAIN0
  6
CONTINUOUS
 62
3
100
AcDbLine
 10
554.7046880050591
 20
215.4312533866773
 30
0.0000000000000000
 11
554.7046880050591
 21
219.6902336888663
 31
0.0000000000000000
  0
LINE
  5
20E
100
AcDbEntity
  8
MAIN0
  6
CONTINUOUS
 62
3
100
AcDbLine
 10
554.7046880050591
 20
305.8606214894909
 30
0.0000000000000000
 11
554.7046880050591
 21
310.9631470995188
 31
0.0000000000000000
  0
LINE
  5
20F
100
AcDbEntity
  8
MAIN0
  6
CONTINUOUS
 62
3
100
AcDbLine
 10
527.7046880050591
 20
215.4312533866773
 30
0.0000000000000000
 11
527.7046880050591
 21
219.6902336889802
 31
0.0000000000000000
  0
LINE
  5
210
100
AcDbEntity
  8
MAIN0
  6
CONTINUOUS
 62
3
100
AcDbLine
 10
527.7046880050591
 20
305.8606214895058
 30
0.0000000000000000
 11
527.7046880050591
 21
310.9631470995188
 31
0.0000000000000000
  0
LINE
  5
211
100
AcDbEntity
  8
MAIN0
  6
CONTINUOUS
 62
3
100
AcDbLine
 10
573.7734615400342
 20
385.6540778944523
 30
0.0000000000000000
 11
569.3545447382894
 21
383.1028150894383
 31
0.0000000000000000
  0
LINE
  5
212
100
AcDbEntity
  8
MAIN0
  6
CONTINUOUS
 62
3
100
AcDbLine
 10
652.0875915652450
 20
430.8687619458589
 30
0.0000000000000000
 11
648.3992064293318
 21
428.7392717947645
 31
0.0000000000000000
  0
LINE
  5
213
100
AcDbEntity
  8
MAIN0
  6
CONTINUOUS
 62
3
100
AcDbLine
 10
587.2734615400213
 20
362.2713919922650
 30
0.0000000000000000
 11
582.8545447382894
 21
359.7201291872584
 31
0.0000000000000000
  0
LINE
  5
214
100
AcDbEntity
  8
MAIN0
  6
CONTINUOUS
 62
3
100
AcDbLine
 10
665.5875915652451
 20
407.4860760436791
 30
0.0000000000000000
 11
661.8992064292334
 21
405.3565858925276
 31
0.0000000000000000
  0
ARC
  5
215
100
AcDbEntity
  8
MAIN0
  6
CONTINUOUS
 62
3
100
AcDbCircle
 10
541.2046880050591
 20
351.2620304587385
 30
0.0000000000000000
 40
136.5000000000000
100
AcDbArc
 50
272.1543281527777
 51
387.8456718472087
  0
LINE
  5
216
100
AcDbEntity
  8
MAIN0
  6
CONTINUOUS
 62
3
100
AcDbLine
 10
430.3217844448731
 20
430.8687619458589
 30
0.0000000000000000
 11
434.0101695808846
 21
428.7392717947076
 31
0.0000000000000000
  0
LINE
  5
217
100
AcDbEntity
  8
MAIN0
  6
CONTINUOUS
 62
3
100
AcDbLine
 10
508.6359144700973
 20
385.6540778944446
 30
0.0000000000000000
 11
513.0548312718288
 21
383.1028150894384
 31
0.0000000000000000
  0
LINE
  5
218
100
AcDbEntity
  8
MAIN0
  6
CONTINUOUS
 62
3
100
AcDbLine
 10
416.8217844448731
 20
407.4860760436790
 30
0.0000000000000000
 11
420.5101695807866
 21
405.3565858925844
 31
0.0000000000000000
  0
LINE
  5
219
100
AcDbEntity
  8
MAIN0
  6
CONTINUOUS
 62
3
100
AcDbLine
 10
495.1359144700838
 20
362.2713919922725
 30
0.0000000000000000
 11
499.5548312718289
 21
359.7201291872584
 31
0.0000000000000000
  0
ARC
  5
21A
100
AcDbEntity
  8
MAIN0
  6
CONTINUOUS
 62
3
100
AcDbCircle
 10
541.2046880050591
 20
351.2620304587385
 30
0.0000000000000000
 40
136.5000000000000
100
AcDbArc
 50
32.15432815277764
 51
147.8456718472086
  0
ARC
  5
21B
100
AcDbEntity
  8
MAIN0
  6
CONTINUOUS
 62
3
100
AcDbCircle
 10
541.2046880050591
 20
351.2620304587385
 30
0.0000000000000000
 40
136.5000000000000
100
AcDbArc
 50
152.1543281527777
 51
267.8456718472089
  0
MTEXT
  5
21C
100
AcDbEntity
  8
MAIN0
  6
CONTINUOUS
 62
3
100
AcDbMText
 10
611.5694107336324
 20
296.7924775673756
 30
0.0000000000000000
 40
4.655172348022461
 41
0.0000000000000000
 71
     1
 72
     1
  1
{\H0.92x;{JN10TN}}
 11
0.5000000000000009
 21
0.8660254037844382
 31
0.0000000000000000
  7
STANDARD
  0
MTEXT
  5
21D
100
AcDbEntity
  8
MAIN0
  6
CONTINUOUS
 62
3
100
AcDbMText
 10
612.9199218527897
 20
283.8764587782210
 30
0.0000000000000000
 40
7.199999809265137
 41
0.0000000000000000
 71
     1
 72
     1
  1
{\H0.82x;{KITAGAWA}}
 11
0.5000000000000009
 21
0.8660254037844382
 31
0.0000000000000000
  7
STANDARD
  0
MTEXT
  5
21E
100
AcDbEntity
  8
MAIN0
  6
CONTINUOUS
 62
3
100
AcDbMText
 10
629.4967261155707
 20
292.3937218300807
 30
0.0000000000000000
 40
3.099999904632568
 41
0.0000000000000000
 71
     1
 72
     1
  1
{\H0.92x;{JAPAN}}
 11
0.5000000000000009
 21
0.8660254037844382
 31
0.0000000000000000
  7
STANDARD
  0
LINE
  5
21F
100
AcDbEntity
  8
MAIN0
  6
CONTINUOUS
 62
3
100
AcDbLine
 10
620.0213299986408
 20
279.7764588735885
 30
0.0000000000000000
 11
642.5213299986408
 21
318.7476020438884
 31
0.0000000000000000
  0
LINE
  5
220
100
AcDbEntity
  8
MAIN0
  6
CENTER
 62
3
100
AcDbLine
 10
637.5476777907018
 20
295.6383793714246
 30
0.0000000000000000
 11
667.4306406469570
 21
278.3854427221785
 31
0.0000000000000000
  0
LINE
  5
221
100
AcDbEntity
  8
MAIN0
  6
CENTER
 62
3
100
AcDbLine
 10
413.4993835423562
 20
424.9927223672106
 30
0.0000000000000000
 11
615.6156811613082
 21
308.3008235292736
 31
0.0000000000000000
  0
MTEXT
  5
222
100
AcDbEntity
  8
MAIN0
  6
CONTINUOUS
 62
3
100
AcDbMText
 10
575.2046880050591
 20
455.2620304587385
 30
0.0000000000000000
 40
4.500000000000000
 41
0.0000000000000000
 71
     1
 72
     1
  1
{\H0.63x;{77-1 MOTOMACHI FUCHU-SHI\PHIROSHIMA 726-8610 JAPAN}}
 11
-1.000000000000000
 21
2.786999939015111e-015
 31
0.0000000000000000
  7
STANDARD
  0
MTEXT
  5
223
100
AcDbEntity
  8
MAIN0
  6
CONTINUOUS
 62
3
100
AcDbMText
 10
557.7046880050591
 20
472.2620304587385
 30
0.0000000000000000
 40
4.500000000000000
 41
0.0000000000000000
 71
     1
 72
     1
  1
{\H0.63x;{SCROLL CHUCK}}
 11
-1.000000000000000
 21
2.786999939015111e-015
 31
0.0000000000000000
  7
STANDARD
  0
LINE
  5
224
100
AcDbEntity
  8
MAIN0
  6
CENTER
 62
3
100
AcDbLine
 10
417.1437988724049
 20
279.6354427225463
 30
0.0000000000000000
 11
441.8282729206389
 21
293.8870304590158
 31
0.0000000000000000
  0
LINE
  5
225
100
AcDbEntity
  8
MAIN0
  6
CENTER
 62
3
100
AcDbLine
 10
457.8497428906743
 20
303.1370304589755
 30
0.0000000000000000
 11
668.4951793345650
 21
424.7532298927160
 31
0.0000000000000000
  0
LINE
  5
226
100
AcDbEntity
  8
MAIN0
  6
CENTER
 62
3
100
AcDbLine
 10
541.2046880050591
 20
479.0120304587385
 30
0.0000000000000000
 11
541.2046880050591
 21
506.2620304587385
 31
0.0000000000000000
  0
LINE
  5
227
100
AcDbEntity
  8
MAIN0
  6
CENTER
 62
3
100
AcDbLine
 10
541.2046880050591
 20
196.2620304587385
 30
0.0000000000000000
 11
541.2046880050591
 21
453.0120304587385
 31
0.0000000000000000
  0
LINE
  5
228
100
AcDbEntity
  8
MAIN0
  6
CENTER
 62
3
100
AcDbLine
 10
541.2046880050591
 20
468.0120304587385
 30
0.0000000000000000
 11
541.2046880050591
 21
470.0120304587385
 31
0.0000000000000000
  0
ARC
  5
229
100
AcDbEntity
  8
MAIN0
  6
HIDDEN
 62
3
100
AcDbCircle
 10
524.9546880050591
 20
477.2181239993053
 30
0.0000000000000000
 40
3.400000000000000
100
AcDbArc
 50
31.84475784992212
 51
236.0255705601301
  0
ARC
  5
22A
100
AcDbEntity
  8
MAIN0
  6
HIDDEN
 62
3
100
AcDbCircle
 10
524.9546880050591
 20
477.2181239993053
 30
0.0000000000000000
 40
4.000000000000000
100
AcDbArc
 50
26.64598707484013
 51
241.6406872280147
  0
ARC
  5
22B
100
AcDbEntity
  8
MAIN0
  6
HIDDEN
 62
3
100
AcDbCircle
 10
541.2046880049999
 20
351.2620304587385
 30
0.0000000000000000
 40
115.0000000000000
100
AcDbArc
 50
38.75292907691246
 51
71.62606199663937
  0
ARC
  5
22C
100
AcDbEntity
  8
MAIN0
  6
HIDDEN
 62
3
100
AcDbCircle
 10
541.2046880049999
 20
351.2620304587385
 30
0.0000000000000000
 40
115.0000000000000
100
AcDbArc
 50
106.7018391190323
 51
141.2470709231473
  0
LINE
  5
22D
100
AcDbEntity
  8
MAIN0
  6
HIDDEN
 62
3
100
AcDbLine
 10
558.9546880050591
 20
468.0120304587385
 30
0.0000000000000000
 11
558.9546880050591
 21
485.6030349621855
 31
0.0000000000000000
  0
LINE
  5
22E
100
AcDbEntity
  8
MAIN0
  6
HIDDEN
 62
3
100
AcDbLine
 10
523.4546880050591
 20
468.0120304587385
 30
0.0000000000000000
 11
523.4546880050591
 21
485.6030349621855
 31
0.0000000000000000
  0
LINE
  5
22F
100
AcDbEntity
  8
MAIN0
  6
CENTER
 62
3
100
AcDbLine
 10
566.6293704577539
 20
446.1482371384993
 30
0.0000000000000000
 11
568.4685183349261
 21
453.0120304587384
 31
0.0000000000000000
  0
LINE
  5
230
100
AcDbEntity
  8
MAIN0
  6
CENTER
 62
3
100
AcDbLine
 10
572.4877562213929
 20
468.0120304587385
 30
0.0000000000000000
 11
577.6341799293706
 21
487.2187452141881
 31
0.0000000000000000
  0
DIMENSION
  5
238
100
AcDbEntity
  8
MAIN0
  6
CONTINUOUS
 62
3
100
AcDbDimension
  2
*D13
 10
515.0401470401728
 20
423.1485159486878
 30
0.0000000000000000
 11
515.0706372659369
 21
499.4755972870552
 31
0.0000000000000000
 70
162
  3
MAIN001
100
AcDb2LineAngularDimension
 13
541.2046880050591
 23
501.2620304587385
 33
0.0000000000000000
 14
541.2046880050591
 24
479.0120304587385
 34
0.0000000000000000
 15
515.3821671834983
 25
422.2088233279019
 35
0.0000000000000000
 16
515.1574613547703
 26
498.9831934105491
 36
0.0000000000000000
1001
ACAD
1000
DSTYLE
1002
{
1070
   173
1070
     1
1070
     6
1000
_OPEN
1070
     7
1000
_OPEN
1070
    41
1040
3.000000
1002
}
  0
DIMENSION
  5
241
100
AcDbEntity
  8
MAIN0
  6
CONTINUOUS
 62
3
100
AcDbDimension
  2
*D14
 10
541.2046880050591
 20
196.2620304587385
 30
0.0000000000000000
 11
499.9230503112062
 21
197.1968611656323
 31
0.0000000000000000
 70
162
  3
MAIN001
100
AcDb2LineAngularDimension
 13
471.7046880050557
 23
230.8844993326991
 33
0.0000000000000000
 14
472.2046880050557
 24
231.7505247364836
 34
0.0000000000000000
 15
541.2046880050591
 25
197.2620304587385
 35
0.0000000000000000
 16
499.7936407886549
 26
196.7138982524878
 36
0.0000000000000000
1001
ACAD
1000
DSTYLE
1002
{
1070
   173
1070
     1
1070
     6
1000
_OPEN
1070
     7
1000
_OPEN
1070
    41
1040
3.000000
1002
}
  0
SPLINE
  5
242
100
AcDbEntity
  8
MAIN0
  6
CONTINUOUS
 62
3
100
AcDbSpline
210
0.0000000000000000
220
0.0000000000000000
230
1.000000000000000
 70
     8
 71
     3
 72
    20
 73
    16
 74
     0
 42
1.000000000000000e-007
 43
1.000000000000000e-007
 12
0.1812913044311522
 22
-0.8414480651100291
 32
0.0000000000000000
 13
-0.2159988783551512
 23
-0.8815298325391225
 33
0.0000000000000000
 40
0.0000000000000000
 40
0.0000000000000000
 40
0.0000000000000000
 40
0.0000000000000000
 40
22.84850650302438
 40
43.15669232266191
 40
48.74686226641138
 40
56.65255641683233
 40
74.85283114003363
 40
90.05973746577918
 40
102.8072862497612
 40
125.4457490951047
 40
183.1627309981807
 40
201.2026866522282
 40
217.0129504787320
 40
256.4248619040469
 40
278.4453000317492
 40
278.4453000317492
 40
278.4453000317492
 40
278.4453000317492
 10
181.4200477717191
 20
487.7620304587385
 30
0.0000000000000000
 10
182.8007929544647
 20
481.3534199295306
 30
0.0000000000000000
 10
185.8155462472918
 20
467.3598958843097
 30
0.0000000000000000
 10
185.9451797928308
 20
450.4489306626656
 30
0.0000000000000000
 10
191.8097349940201
 20
440.6726084683243
 30
0.0000000000000000
 10
194.5252479445355
 20
430.4075284075931
 30
0.0000000000000000
 10
199.1243755890112
 20
417.3818960614470
 30
0.0000000000000000
 10
200.7578237855318
 20
402.0100507670861
 30
0.0000000000000000
 10
204.7489945088979
 20
385.5947176272719
 30
0.0000000000000000
 10
206.7406672609665
 20
354.5374352158042
 30
0.0000000000000000
 10
212.1536107837124
 20
322.0712147626646
 30
0.0000000000000000
 10
210.6697252519737
 20
291.4051247209412
 30
0.0000000000000000
 10
204.6900646542397
 20
267.6591776366478
 30
0.0000000000000000
 10
202.9954826893962
 20
241.4772676809522
 30
0.0000000000000000
 10
198.0351260146413
 20
221.2325881790501
 30
0.0000000000000000
 10
196.4496627024837
 20
214.7620304673329
 30
0.0000000000000000
  0
DIMENSION
  5
24A
100
AcDbEntity
  8
MAIN0
  6
CONTINUOUS
 62
3
100
AcDbDimension
  2
*D15
 10
541.2046880050591
 20
201.2620304587385
 30
0.0000000000000000
 11
521.6910222681612
 21
203.0410236833539
 31
0.0000000000000000
 70
162
  3
MAIN001
100
AcDb2LineAngularDimension
 13
504.7751960807468
 23
215.3053157032858
 33
0.0000000000000000
 14
505.0340151258494
 24
216.2712415295748
 34
0.0000000000000000
 15
541.2046880050591
 25
351.2620304587389
 35
0.0000000000000000
 16
521.6257591720512
 26
202.5453012526670
 36
0.0000000000000000
1001
ACAD
1000
DSTYLE
1002
{
1070
   173
1070
     1
1070
     6
1000
_OPEN
1070
     7
1000
_OPEN
1070
    41
1040
3.000000
1002
}
  0
DIMENSION
  5
252
100
AcDbEntity
  8
MAIN0
  6
CONTINUOUS
 62
1
100
AcDbDimension
  2
*D16
 10
756.2046880050592
 20
511.2620304587385
 30
0.0000000000000000
 11
692.7046880050598
 21
511.7620304587385
 31
0.0000000000000000
 70
32
  1
\A1;MAX 337
  3
MAIN001
100
AcDbAlignedDimension
 13
629.2046880050605
 23
521.8620304587386
 33
0.0000000000000000
 14
756.2046880050592
 24
501.2620304587385
 34
0.0000000000000000
100
AcDbRotatedDimension
1001
ACAD
1000
DSTYLE
1002
{
1070
   173
1070
     1
1070
     6
1000
_OPEN
1070
     7
1000
_OPEN
1070
    41
1040
3.000000
1002
}
  0
DIMENSION
  5
25B
100
AcDbEntity
  8
MAIN0
  6
CONTINUOUS
 62
3
100
AcDbDimension
  2
*D17
 10
656.2046880050591
 20
541.2620304587385
 30
0.0000000000000000
 11
655.7046880050591
 21
531.2620304587385
 31
0.0000000000000000
 70
32
  1
\A1;\U+220520
  3
MAIN001
100
AcDbAlignedDimension
 13
666.8046880050604
 23
521.2620304587385
 33
0.0000000000000000
 14
666.8046880050604
 24
541.2620304587385
 34
0.0000000000000000
 50
90.00000000000000
100
AcDbRotatedDimension
1001
ACAD
1000
DSTYLE
1002
{
1070
   173
1070
     1
1070
     6
1000
_OPEN
1070
     7
1000
_OPEN
1070
    41
1040
3.000000
1002
}
  0
DIMENSION
  5
266
100
AcDbEntity
  8
MAIN0
  6
CONTINUOUS
 62
3
100
AcDbDimension
  2
*D18
 10
676.2046880050604
 20
556.2620304587385
 30
0.0000000000000000
 11
671.2046880050604
 21
556.7620304587385
 31
0.0000000000000000
 70
32
  3
MAIN001
100
AcDbAlignedDimension
 13
666.2046880050604
 23
540.6620304587386
 33
0.0000000000000000
 14
676.2046880050604
 24
540.6620304587386
 34
0.0000000000000000
100
AcDbRotatedDimension
1001
ACAD
1000
DSTYLE
1002
{
1070
   173
1070
     1
1070
     6
1000
_OPEN
1070
     7
1000
_OPEN
1070
    41
1040
3.000000
1070
   287
1070
     0
1002
}
  0
DIMENSION
  5
26F
100
AcDbEntity
  8
MAIN0
  6
CONTINUOUS
 62
3
100
AcDbDimension
  2
*D19
 10
136.4160067172981
 20
87.26566177984165
 30
0.0000000000000000
 11
149.9110067172928
 21
87.76566177984165
 31
0.0000000000000000
 70
32
  3
MAIN001
100
AcDbAlignedDimension
 13
163.4060067172824
 23
103.6495515126618
 33
0.0000000000000000
 14
136.4160067172831
 24
106.4680021147262
 34
0.0000000000000000
100
AcDbRotatedDimension
1001
ACAD
1000
DSTYLE
1002
{
1070
   173
1070
     1
1070
     6
1000
_OPEN
1070
     7
1000
_OPEN
1070
    41
1040
3.000000
1002
}
  0
DIMENSION
  5
278
100
AcDbEntity
  8
MAIN0
  6
CONTINUOUS
 62
3
100
AcDbDimension
  2
*D20
 10
121.2046880050592
 20
487.7620304587385
 30
0.0000000000000000
 11
120.7046880050592
 21
351.2620304587385
 31
0.0000000000000000
 70
32
  1
\A1;\U+2205273
  3
MAIN001
100
AcDbAlignedDimension
 13
177.2046880050592
 23
214.7620304587386
 33
0.0000000000000000
 14
177.2046880050591
 24
487.7620304587385
 34
0.0000000000000000
 50
90.00000000000000
100
AcDbRotatedDimension
1001
ACAD
1000
DSTYLE
1002
{
1070
   173
1070
     1
1070
     6
1000
_OPEN
1070
     7
1000
_OPEN
1070
    41
1040
3.000000
1002
}
  0
DIMENSION
  5
281
100
AcDbEntity
  8
MAIN0
  6
CONTINUOUS
 62
3
100
AcDbDimension
  2
*D21
 10
261.2046880050592
 20
521.2620304587385
 30
0.0000000000000000
 11
233.9546880050592
 21
521.7620304587385
 31
0.0000000000000000
 70
32
  3
MAIN001
100
AcDbAlignedDimension
 13
206.7046880050592
 23
496.2620304587385
 33
0.0000000000000000
 14
261.2046880050592
 24
485.7620304587385
 34
0.0000000000000000
100
AcDbRotatedDimension
1001
ACAD
1000
DSTYLE
1002
{
1070
   173
1070
     1
1070
     6
1000
_OPEN
1070
     7
1000
_OPEN
1070
    41
1040
3.000000
1002
}
  0
DIMENSION
  5
28A
100
AcDbEntity
  8
MAIN0
  6
CONTINUOUS
 62
3
100
AcDbDimension
  2
*D22
 10
206.7046880050592
 20
521.2620304587385
 30
0.0000000000000000
 11
190.9546880050592
 21
521.7620304587385
 31
0.0000000000000000
 70
32
  3
MAIN001
100
AcDbAlignedDimension
 13
175.2046880050592
 23
485.7620304587385
 33
0.0000000000000000
 14
206.7046880050592
 24
496.2620304587385
 34
0.0000000000000000
100
AcDbRotatedDimension
1001
ACAD
1000
DSTYLE
1002
{
1070
   173
1070
     1
1070
     6
1000
_OPEN
1070
     7
1000
_OPEN
1070
    41
1040
3.000000
1002
}
  0
DIMENSION
  5
293
100
AcDbEntity
  8
MAIN0
  6
CONTINUOUS
 62
3
100
AcDbDimension
  2
*D23
 10
175.2046880050592
 20
531.2620304587385
 30
0.0000000000000000
 11
218.2046880050592
 21
531.7620304587385
 31
0.0000000000000000
 70
32
  3
MAIN001
100
AcDbAlignedDimension
 13
261.2046880050592
 23
485.7620304587385
 33
0.0000000000000000
 14
175.2046880050592
 24
485.7620304587385
 34
0.0000000000000000
100
AcDbRotatedDimension
1001
ACAD
1000
DSTYLE
1002
{
1070
   173
1070
     1
1070
     6
1000
_OPEN
1070
     7
1000
_OPEN
1070
    41
1040
3.000000
1002
}
  0
DIMENSION
  5
29A
100
AcDbEntity
  8
MAIN0
  6
CONTINUOUS
 62
3
100
AcDbDimension
  2
*D24
 10
459.5501166293631
 20
257.9425203150856
 30
0.0000000000000000
 11
481.5840858754843
 21
284.2631436477315
 31
0.0000000000000000
 70
163
  3
MAIN001
100
AcDbDiametricDimension
 15
622.8592593807553
 25
444.5815406023914
 35
0.0000000000000000
1001
ACAD
1000
DSTYLE
1002
{
1070
   287
1070
     2
1070
   173
1070
     1
1070
     6
1000
_OPEN
1070
     7
1000
_OPEN
1070
    41
1040
3.000000
1070
   272
1070
     1
1070
    47
1040
0.200000
1070
    48
1040
0.200000
1070
    71
1070
     1
1002
}
  0
DIMENSION
  5
2A3
100
AcDbEntity
  8
MAIN0
  6
CONTINUOUS
 62
3
100
AcDbDimension
  2
*D25
 10
786.2046880050591
 20
531.2620304587385
 30
0.0000000000000000
 11
785.4546880050591
 21
551.3241802769164
 31
0.0000000000000000
 70
160
  3
MAIN001
100
AcDbAlignedDimension
 13
767.2046880050592
 23
546.2620304587385
 33
0.0000000000000000
 14
657.7046880050592
 24
531.2620304587385
 34
0.0000000000000000
 50
90.00000000000000
100
AcDbRotatedDimension
1001
ACAD
1000
DSTYLE
1002
{
1070
   173
1070
     1
1070
     6
1000
_OPEN
1070
     7
1000
_OPEN
1070
    41
1040
3.000000
1002
}
  0
DIMENSION
  5
2AB
100
AcDbEntity
  8
MAIN0
  6
CONTINUOUS
 62
3
100
AcDbDimension
  2
*D26
 10
315.2046880050592
 20
381.2620304587387
 30
0.0000000000000000
 11
288.2046880050592
 21
381.7620304587387
 31
0.0000000000000000
 70
32
  3
MAIN001
100
AcDbAlignedDimension
 13
261.2046880050592
 23
216.7620304587385
 33
0.0000000000000000
 14
315.2046880050592
 24
367.7620304587367
 34
0.0000000000000000
100
AcDbRotatedDimension
1001
ACAD
1000
DSTYLE
1002
{
1070
   173
1070
     1
1070
     6
1000
_OPEN
1070
     7
1000
_OPEN
1070
    41
1040
3.000000
1002
}
  0
LEADER
  5
2AC
100
AcDbEntity
  8
MAIN0
  6
CONTINUOUS
 62
3
100
AcDbLeader
  3
MAIN001
 73
     0
 75
     1
 40
4.649999856948853
 41
50.24900003352758
 76
     3
 10
470.6111432077940
 20
238.7610767349008
 30
0.0000000000000000
 10
441.2046880050592
 20
221.2620304587385
 30
0.0000000000000000
 10
438.5246880840502
 20
221.2620304587385
 30
0.0000000000000000
340
2AD
213
0.0000000000000000
223
-0.7500000000000000
233
0.0000000000000000
1001
ACAD
1000
DSTYLE
1002
{
1070
   147
1040
0.0
1070
    77
1070
     1
1070
   173
1070
     1
1070
     6
1000
_OPEN
1070
     7
1000
_OPEN
1002
}
  0
MTEXT
  5
2AD
102
{ACAD_REACTORS
330
2AC
102
}
100
AcDbEntity
  8
MAIN0
  6
CONTINUOUS
 62
3
100
AcDbMText
 10
388.2756880505226
 20
226.6620303156874
 30
0.0000000000000000
 40
4.649999856948853
 41
0.0000000000000000
 71
     1
 72
     1
  1
{\H0.71x;{3等配\P3 EQUALLY SPACED}}
 11
1.000000000000000
 21
0.0000000000000000
 31
0.0000000000000000
  7
KNJYOKO
  0
LINE
  5
2AE
100
AcDbEntity
  8
MAIN0
  6
HIDDEN
 62
3
100
AcDbLine
 10
261.2046880050592
 20
308.7620304587385
 30
0.0000000000000000
 11
211.2046880051629
 21
308.7620304587385
 31
0.0000000000000000
  0
LINE
  5
2AF
100
AcDbEntity
  8
MAIN0
  6
HIDDEN
 62
3
100
AcDbLine
 10
261.2046880050592
 20
393.7620304587385
 30
0.0000000000000000
 11
202.7209730719443
 21
393.7620304587385
 31
0.0000000000000000
  0
LINE
  5
2B0
100
AcDbEntity
  8
MAIN0
  6
CENTER
 62
3
100
AcDbLine
 10
244.7046880050592
 20
491.2620304587385
 30
0.0000000000000000
 11
244.7046880050592
 21
449.7648353706633
 31
0.0000000000000000
  0
LINE
  5
2B1
100
AcDbEntity
  8
MAIN0
  6
HIDDEN
 62
3
100
AcDbLine
 10
250.1546880050592
 20
487.7620304587385
 30
0.0000000000000000
 11
248.9546880050592
 21
486.5620304587385
 31
0.0000000000000000
  0
LINE
  5
2B2
100
AcDbEntity
  8
MAIN0
  6
HIDDEN
 62
3
100
AcDbLine
 10
248.9546880050592
 20
486.5620304587385
 30
0.0000000000000000
 11
240.4546880050592
 21
486.5620304587385
 31
0.0000000000000000
  0
LINE
  5
2B3
100
AcDbEntity
  8
MAIN0
  6
HIDDEN
 62
3
100
AcDbLine
 10
240.4546880050592
 20
486.5620304587385
 30
0.0000000000000000
 11
239.2546880050592
 21
487.7620304587385
 31
0.0000000000000000
  0
LINE
  5
2B4
100
AcDbEntity
  8
MAIN0
  6
HIDDEN
 62
3
100
AcDbLine
 10
249.7046880050592
 20
487.3120304587385
 30
0.0000000000000000
 11
249.7046880050592
 21
464.7620304587385
 31
0.0000000000000000
  0
LINE
  5
2B5
100
AcDbEntity
  8
MAIN0
  6
HIDDEN
 62
3
100
AcDbLine
 10
249.7046880050592
 20
464.7620304587385
 30
0.0000000000000000
 11
239.7046880050592
 21
464.7620304587385
 31
0.0000000000000000
  0
LINE
  5
2B6
100
AcDbEntity
  8
MAIN0
  6
HIDDEN
 62
3
100
AcDbLine
 10
239.7046880050592
 20
464.7620304587385
 30
0.0000000000000000
 11
239.7046880050592
 21
487.3120304587385
 31
0.0000000000000000
  0
LINE
  5
2B7
100
AcDbEntity
  8
MAIN0
  6
HIDDEN
 62
3
100
AcDbLine
 10
248.9546880050592
 20
486.5620304587385
 30
0.0000000000000000
 11
248.9546880050592
 21
455.7620304587385
 31
0.0000000000000000
  0
LINE
  5
2B8
100
AcDbEntity
  8
MAIN0
  6
HIDDEN
 62
3
100
AcDbLine
 10
248.9546880050592
 20
455.7620304587385
 30
0.0000000000000000
 11
240.4546880050592
 21
455.7620304587385
 31
0.0000000000000000
  0
LINE
  5
2B9
100
AcDbEntity
  8
MAIN0
  6
HIDDEN
 62
3
100
AcDbLine
 10
240.4546880050592
 20
455.7620304587385
 30
0.0000000000000000
 11
240.4546880050592
 21
486.5620304587385
 31
0.0000000000000000
  0
LINE
  5
2BA
100
AcDbEntity
  8
MAIN0
  6
HIDDEN
 62
3
100
AcDbLine
 10
248.9546880050592
 20
455.7620304587385
 30
0.0000000000000000
 11
244.7046880050592
 21
453.3082918146826
 31
0.0000000000000000
  0
LINE
  5
2BB
100
AcDbEntity
  8
MAIN0
  6
HIDDEN
 62
3
100
AcDbLine
 10
244.7046880050592
 20
453.3082918146826
 30
0.0000000000000000
 11
240.4546880050592
 21
455.7620304587385
 31
0.0000000000000000
  0
LEADER
  5
2BC
100
AcDbEntity
  8
MAIN0
  6
CONTINUOUS
 62
3
100
AcDbLeader
  3
MAIN001
 73
     0
 74
     0
 75
     1
 40
4.649999856948853
 41
50.25100003352759
 76
     3
 10
249.7046880050592
 20
478.0548127498529
 30
0.0000000000000000
 10
286.2046880050592
 20
521.2620304587385
 30
0.0000000000000000
 10
288.8826879260681
 20
521.2620304587385
 30
0.0000000000000000
340
2BD
213
0.0000000000000000
223
-0.7500000000000000
233
0.0000000000000000
1001
ACAD
1000
DSTYLE
1002
{
1070
   147
1040
0.0
1070
    77
1070
     1
1070
   173
1070
     1
1070
     6
1000
_OPEN
1070
     7
1000
_OPEN
1002
}
  0
MTEXT
  5
2BD
102
{ACAD_REACTORS
330
2BC
102
}
100
AcDbEntity
  8
MAIN0
  6
CONTINUOUS
 62
3
100
AcDbMText
 10
288.8836879260681
 20
526.6620303156874
 30
0.0000000000000000
 40
4.649999856948853
 41
0.0000000000000000
 71
     1
 72
     1
  1
{\H0.71x;{2-M10 ねじ深23\P(等配)\P2-M10 DEPTH 23\P(EQUALLY SPACED)}}
 11
1.000000000000000
 21
0.0000000000000000
 31
0.0000000000000000
  7
KNJYOKO
  0
LINE
  5
2BE
100
AcDbEntity
  8
MAIN0
  6
HIDDEN
 62
3
100
AcDbLine
 10
581.7977834148287
 20
481.7003419513875
 30
0.0000000000000000
 11
580.3280895691589
 21
480.8518138139637
 31
0.0000000000000000
  0
LINE
  5
2BF
100
AcDbEntity
  8
MAIN0
  6
HIDDEN
 62
3
100
AcDbLine
 10
580.3280895691589
 20
480.8518138139637
 30
0.0000000000000000
 11
572.1177200457018
 21
483.0517756973351
 31
0.0000000000000000
  0
LINE
  5
2C0
100
AcDbEntity
  8
MAIN0
  6
HIDDEN
 62
3
100
AcDbLine
 10
572.1177200457018
 20
483.0517756973352
 30
0.0000000000000000
 11
571.2691919082779
 21
484.5214695430051
 31
0.0000000000000000
  0
LINE
  5
2C1
100
AcDbEntity
  8
MAIN0
  6
HIDDEN
 62
3
100
AcDbLine
 10
581.2466482227027
 20
481.3821438998537
 30
0.0000000000000000
 11
575.4102787556408
 21
459.6005165170352
 31
0.0000000000000000
  0
LINE
  5
2C2
100
AcDbEntity
  8
MAIN0
  6
HIDDEN
 62
3
100
AcDbLine
 10
575.4102787556408
 20
459.6005165170351
 30
0.0000000000000000
 11
571.2305468704842
 21
460.7204723002414
 31
0.0000000000000000
  0
LINE
  5
2C3
100
AcDbEntity
  8
MAIN0
  6
HIDDEN
 62
3
100
AcDbLine
 10
572.3564629800012
 20
451.1012983642604
 30
0.0000000000000000
 11
564.1460934565441
 21
453.3012602476319
 31
0.0000000000000000
  0
LINE
  5
2C4
100
AcDbEntity
  8
MAIN0
  6
HIDDEN
 62
3
100
AcDbLine
 10
572.3564629800012
 20
451.1012983642605
 30
0.0000000000000000
 11
567.6162039254871
 21
449.8311497786891
 31
0.0000000000000000
  0
LINE
  5
2C5
100
AcDbEntity
  8
MAIN0
  6
HIDDEN
 62
3
100
AcDbLine
 10
567.6162039254868
 20
449.8311497786890
 30
0.0000000000000000
 11
564.1460934565441
 21
453.3012602476318
 31
0.0000000000000000
  0
LINE
  5
2C6
100
AcDbEntity
  8
MAIN0
  6
HIDDEN
 62
3
100
AcDbLine
 10
567.3113753193425
 20
468.0120304587385
 30
0.0000000000000000
 11
571.5873899598121
 21
483.9703343508789
 31
0.0000000000000000
  0
LINE
  5
2C7
100
AcDbEntity
  8
MAIN0
  6
HIDDEN
 62
3
100
AcDbLine
 10
568.0878324546501
 20
468.0120304587385
 30
0.0000000000000000
 11
572.1177200457018
 21
483.0517756973352
 31
0.0000000000000000
  0
LINE
  5
2C8
100
AcDbEntity
  8
MAIN0
  6
HIDDEN
 62
3
100
AcDbLine
 10
572.3564629800012
 20
451.1012983642605
 30
0.0000000000000000
 11
572.8684421016689
 21
453.0120304587385
 31
0.0000000000000000
  0
LINE
  5
2C9
100
AcDbEntity
  8
MAIN0
  6
HIDDEN
 62
3
100
AcDbLine
 10
576.8876799881357
 20
468.0120304587385
 30
0.0000000000000000
 11
580.3280895691589
 21
480.8518138139638
 31
0.0000000000000000
  0
LINE
  5
2CA
100
AcDbEntity
  8
MAIN0
  6
HIDDEN
 62
3
100
AcDbLine
 10
564.1460934565444
 20
453.3012602476318
 30
0.0000000000000000
 11
564.6580725782120
 21
455.2119923421099
 31
0.0000000000000000
  0
LINE
  5
2CB
100
AcDbEntity
  8
MAIN0
  6
HIDDEN
 62
3
100
AcDbLine
 10
500.6115925952895
 20
220.8237189660895
 30
0.0000000000000000
 11
502.0812864409594
 21
221.6722471035133
 31
0.0000000000000000
  0
LINE
  5
2CC
100
AcDbEntity
  8
MAIN0
  6
HIDDEN
 62
3
100
AcDbLine
 10
502.0812864409595
 20
221.6722471035134
 30
0.0000000000000000
 11
510.2916559644166
 21
219.4722852201419
 31
0.0000000000000000
  0
LINE
  5
2CD
100
AcDbEntity
  8
MAIN0
  6
HIDDEN
 62
3
100
AcDbLine
 10
510.2916559644165
 20
219.4722852201419
 30
0.0000000000000000
 11
511.1401841018404
 21
218.0025913744721
 31
0.0000000000000000
  0
LINE
  5
2CE
100
AcDbEntity
  8
MAIN0
  6
HIDDEN
 62
3
100
AcDbLine
 10
501.1627277874157
 20
221.1419170176234
 30
0.0000000000000000
 11
506.9990972544776
 21
242.9235444004419
 31
0.0000000000000000
  0
LINE
  5
2CF
100
AcDbEntity
  8
MAIN0
  6
HIDDEN
 62
3
100
AcDbLine
 10
506.9990972544777
 20
242.9235444004419
 30
0.0000000000000000
 11
516.6583555173684
 21
240.3353539494167
 31
0.0000000000000000
  0
LINE
  5
2D0
100
AcDbEntity
  8
MAIN0
  6
HIDDEN
 62
3
100
AcDbLine
 10
516.6583555173683
 20
240.3353539494167
 30
0.0000000000000000
 11
510.8219860503064
 21
218.5537265665981
 31
0.0000000000000000
  0
LINE
  5
2D1
100
AcDbEntity
  8
MAIN0
  6
HIDDEN
 62
3
100
AcDbLine
 10
502.0812864409593
 20
221.6722471035133
 30
0.0000000000000000
 11
510.0529130301170
 21
251.4227625532166
 31
0.0000000000000000
  0
LINE
  5
2D2
100
AcDbEntity
  8
MAIN0
  6
HIDDEN
 62
3
100
AcDbLine
 10
510.0529130301172
 20
251.4227625532166
 30
0.0000000000000000
 11
518.2632825535743
 21
249.2228006698452
 31
0.0000000000000000
  0
LINE
  5
2D3
100
AcDbEntity
  8
MAIN0
  6
HIDDEN
 62
3
100
AcDbLine
 10
518.2632825535741
 20
249.2228006698452
 30
0.0000000000000000
 11
510.2916559644164
 21
219.4722852201418
 31
0.0000000000000000
  0
LINE
  5
2D4
100
AcDbEntity
  8
MAIN0
  6
HIDDEN
 62
3
100
AcDbLine
 10
510.0529130301171
 20
251.4227625532166
 30
0.0000000000000000
 11
514.7931720846314
 21
252.6929111387880
 31
0.0000000000000000
  0
LINE
  5
2D5
100
AcDbEntity
  8
MAIN0
  6
HIDDEN
 62
3
100
AcDbLine
 10
514.7931720846315
 20
252.6929111387880
 30
0.0000000000000000
 11
518.2632825535742
 21
249.2228006698452
 31
0.0000000000000000
  0
LINE
  5
2D6
100
AcDbEntity
  8
MAIN0
  6
CONTINUOUS
 62
3
100
AcDbLine
 10
747.7046880050592
 20
402.2620304587385
 30
0.0000000000000000
 11
747.7046880050592
 21
445.4620304587386
 31
0.0000000000000000
  0
LINE
  5
2D7
100
AcDbEntity
  8
MAIN0
  6
CONTINUOUS
 62
3
100
AcDbLine
 10
764.7046880050592
 20
402.2620304587385
 30
0.0000000000000000
 11
764.7046880050592
 21
445.4620304587386
 31
0.0000000000000000
  0
ARC
  5
2D8
100
AcDbEntity
  8
MAIN0
  6
CONTINUOUS
 62
3
100
AcDbCircle
 10
746.9046880050591
 20
445.4620304587386
 30
0.0000000000000000
 40
0.8000000000000000
100
AcDbArc
 50
0.0000000000000000
 51
90.00000000000000
  0
LINE
  5
2D9
100
AcDbEntity
  8
MAIN0
  6
CONTINUOUS
 62
3
100
AcDbLine
 10
767.2046880050593
 20
446.8620304587386
 30
0.0000000000000000
 11
766.6046880050594
 21
446.2620304587387
 31
0.0000000000000000
  0
ARC
  5
2DA
100
AcDbEntity
  8
MAIN0
  6
CONTINUOUS
 62
3
100
AcDbCircle
 10
765.5046880050593
 20
445.4620304587386
 30
0.0000000000000000
 40
0.8000000000000000
100
AcDbArc
 50
90.00000000000000
 51
180.0000000000000
  0
CIRCLE
  5
2DB
100
AcDbEntity
  8
MAIN0
  6
PHANTOM
 62
3
100
AcDbCircle
 10
756.2046880050592
 20
344.9472730267429
 30
0.0000000000000000
 40
7.850000000000001
  0
LINE
  5
2DC
100
AcDbEntity
  8
MAIN0
  6
CONTINUOUS
 62
3
100
AcDbLine
 10
666.2046880050604
 20
540.6620304587386
 30
0.0000000000000000
 11
666.2046880050604
 21
521.8620304587386
 31
0.0000000000000000
  0
LINE
  5
2DD
100
AcDbEntity
  8
MAIN0
  6
CONTINUOUS
 62
3
100
AcDbLine
 10
675.6046880050603
 20
541.2620304587385
 30
0.0000000000000000
 11
666.8046880050604
 21
541.2620304587385
 31
0.0000000000000000
  0
LINE
  5
2DE
100
AcDbEntity
  8
MAIN0
  6
CONTINUOUS
 62
3
100
AcDbLine
 10
676.2046880050604
 20
540.6620304587386
 30
0.0000000000000000
 11
676.2046880050604
 21
521.8620304587386
 31
0.0000000000000000
  0
LINE
  5
2DF
100
AcDbEntity
  8
MAIN0
  6
CONTINUOUS
 62
3
100
AcDbLine
 10
675.6046880050603
 20
521.2620304587385
 30
0.0000000000000000
 11
666.8046880050604
 21
521.2620304587385
 31
0.0000000000000000
  0
LINE
  5
2E0
100
AcDbEntity
  8
MAIN0
  6
HIDDEN
 62
3
100
AcDbLine
 10
676.2046880050604
 20
536.2620304587385
 30
0.0000000000000000
 11
666.2046880050604
 21
536.2620304587385
 31
0.0000000000000000
  0
LINE
  5
2E1
100
AcDbEntity
  8
MAIN0
  6
HIDDEN
 62
3
100
AcDbLine
 10
676.2046880050604
 20
526.2620304587385
 30
0.0000000000000000
 11
666.2046880050604
 21
526.2620304587385
 31
0.0000000000000000
  0
LINE
  5
2E2
100
AcDbEntity
  8
MAIN0
  6
CONTINUOUS
 62
3
100
AcDbLine
 10
676.2046880050607
 20
540.6620304587389
 30
0.0000000000000000
 11
675.6046880050608
 21
541.2620304587389
 31
0.0000000000000000
  0
LINE
  5
2E3
100
AcDbEntity
  8
MAIN0
  6
CONTINUOUS
 62
3
100
AcDbLine
 10
666.8046880050604
 20
541.2620304587388
 30
0.0000000000000000
 11
666.2046880050604
 21
540.6620304587387
 31
0.0000000000000000
  0
LINE
  5
2E4
100
AcDbEntity
  8
MAIN0
  6
CONTINUOUS
 62
3
100
AcDbLine
 10
666.2046880050607
 20
521.8620304587386
 30
0.0000000000000000
 11
666.8046880050606
 21
521.2620304587387
 31
0.0000000000000000
  0
LINE
  5
2E5
100
AcDbEntity
  8
MAIN0
  6
CONTINUOUS
 62
3
100
AcDbLine
 10
675.6046880050599
 20
521.2620304587385
 30
0.0000000000000000
 11
676.2046880050599
 21
521.8620304587385
 31
0.0000000000000000
  0
LINE
  5
2E6
100
AcDbEntity
  8
MAIN0
  6
CONTINUOUS
 62
3
100
AcDbLine
 10
846.2046880050591
 20
540.6620304587386
 30
0.0000000000000000
 11
846.2046880050591
 21
521.8620304587386
 31
0.0000000000000000
  0
LINE
  5
2E7
100
AcDbEntity
  8
MAIN0
  6
CONTINUOUS
 62
3
100
AcDbLine
 10
836.2046880050591
 20
540.6620304587386
 30
0.0000000000000000
 11
836.2046880050591
 21
521.8620304587386
 31
0.0000000000000000
  0
LINE
  5
2E8
100
AcDbEntity
  8
MAIN0
  6
CONTINUOUS
 62
3
100
AcDbLine
 10
836.8046880050592
 20
541.2620304587385
 30
0.0000000000000000
 11
845.6046880050592
 21
541.2620304587385
 31
0.0000000000000000
  0
LINE
  5
2E9
100
AcDbEntity
  8
MAIN0
  6
CONTINUOUS
 62
3
100
AcDbLine
 10
836.8046880050592
 20
521.2620304587385
 30
0.0000000000000000
 11
845.6046880050592
 21
521.2620304587385
 31
0.0000000000000000
  0
LINE
  5
2EA
100
AcDbEntity
  8
MAIN0
  6
HIDDEN
 62
3
100
AcDbLine
 10
836.2046880050591
 20
536.2620304587385
 30
0.0000000000000000
 11
846.2046880050591
 21
536.2620304587385
 31
0.0000000000000000
  0
LINE
  5
2EB
100
AcDbEntity
  8
MAIN0
  6
HIDDEN
 62
3
100
AcDbLine
 10
836.2046880050591
 20
526.2620304587385
 30
0.0000000000000000
 11
846.2046880050591
 21
526.2620304587385
 31
0.0000000000000000
  0
LINE
  5
2EC
100
AcDbEntity
  8
MAIN0
  6
CONTINUOUS
 62
3
100
AcDbLine
 10
845.6046880050590
 20
541.2620304587385
 30
0.0000000000000000
 11
846.2046880050589
 21
540.6620304587384
 31
0.0000000000000000
  0
LINE
  5
2ED
100
AcDbEntity
  8
MAIN0
  6
CONTINUOUS
 62
3
100
AcDbLine
 10
836.8046880050592
 20
541.2620304587384
 30
0.0000000000000000
 11
836.2046880050596
 21
540.6620304587385
 31
0.0000000000000000
  0
LINE
  5
2EE
100
AcDbEntity
  8
MAIN0
  6
CONTINUOUS
 62
3
100
AcDbLine
 10
836.2046880050589
 20
521.8620304587386
 30
0.0000000000000000
 11
836.8046880050586
 21
521.2620304587387
 31
0.0000000000000000
  0
LINE
  5
2EF
100
AcDbEntity
  8
MAIN0
  6
CONTINUOUS
 62
3
100
AcDbLine
 10
845.6046880050590
 20
521.2620304587383
 30
0.0000000000000000
 11
846.2046880050589
 21
521.8620304587386
 31
0.0000000000000000
  0
LINE
  5
2F0
100
AcDbEntity
  8
MAIN0
  6
CONTINUOUS
 62
3
100
AcDbLine
 10
767.2046880050592
 20
546.2620304587385
 30
0.0000000000000000
 11
745.2046880050593
 21
546.2620304587385
 31
0.0000000000000000
  0
LINE
  5
2F1
100
AcDbEntity
  8
MAIN0
  6
CONTINUOUS
 62
3
100
AcDbLine
 10
761.0690473574841
 20
386.2620304587385
 30
0.0000000000000000
 11
751.3403286526343
 21
386.2620304587385
 31
0.0000000000000000
  0
LINE
  5
2F2
100
AcDbEntity
  8
MAIN0
  6
CONTINUOUS
 62
3
100
AcDbLine
 10
767.2046880050592
 20
446.8620304587386
 30
0.0000000000000000
 11
767.2046880050592
 21
516.2620304587385
 31
0.0000000000000000
  0
LINE
  5
2F3
100
AcDbEntity
  8
MAIN0
  6
CONTINUOUS
 62
3
100
AcDbLine
 10
745.2046880050592
 20
446.8620304587386
 30
0.0000000000000000
 11
745.2046880050592
 21
516.2620304587385
 31
0.0000000000000000
  0
LINE
  5
2F4
100
AcDbEntity
  8
MAIN0
  6
CONTINUOUS
 62
3
100
AcDbLine
 10
743.2046880050591
 20
544.2620304587385
 30
0.0000000000000000
 11
745.2046880050591
 21
546.2620304587385
 31
0.0000000000000000
  0
LINE
  5
2F5
100
AcDbEntity
  8
MAIN0
  6
CONTINUOUS
 62
3
100
AcDbLine
 10
767.2046880050591
 20
546.2620304587385
 30
0.0000000000000000
 11
769.2046880050591
 21
544.2620304587385
 31
0.0000000000000000
  0
LINE
  5
2F6
100
AcDbEntity
  8
MAIN0
  6
CONTINUOUS
 62
3
100
AcDbLine
 10
769.2046880050593
 20
544.2620304587385
 30
0.0000000000000000
 11
743.2046880050593
 21
544.2620304587385
 31
0.0000000000000000
  0
LINE
  5
2F7
100
AcDbEntity
  8
MAIN0
  6
CONTINUOUS
 62
3
100
AcDbLine
 10
767.2046880050592
 20
516.2620304587385
 30
0.0000000000000000
 11
745.2046880050593
 21
516.2620304587385
 31
0.0000000000000000
  0
LINE
  5
2F8
100
AcDbEntity
  8
MAIN0
  6
CONTINUOUS
 62
3
100
AcDbLine
 10
743.2046880050591
 20
518.2620304587384
 30
0.0000000000000000
 11
745.2046880050591
 21
516.2620304587384
 31
0.0000000000000000
  0
LINE
  5
2F9
100
AcDbEntity
  8
MAIN0
  6
CONTINUOUS
 62
3
100
AcDbLine
 10
767.2046880050591
 20
516.2620304587385
 30
0.0000000000000000
 11
769.2046880050589
 21
518.2620304587384
 31
0.0000000000000000
  0
LINE
  5
2FA
100
AcDbEntity
  8
MAIN0
  6
CONTINUOUS
 62
3
100
AcDbLine
 10
766.6046880050592
 20
446.2620304587385
 30
0.0000000000000000
 11
745.8046880050592
 21
446.2620304587385
 31
0.0000000000000000
  0
LINE
  5
2FB
100
AcDbEntity
  8
MAIN0
  6
CENTER
 62
3
100
AcDbLine
 10
744.7148914003590
 20
344.9472730267414
 30
0.0000000000000000
 11
766.8093665269932
 21
344.9472730267443
 31
0.0000000000000000
  0
LINE
  5
2FC
100
AcDbEntity
  8
MAIN0
  6
CONTINUOUS
 62
3
100
AcDbLine
 10
748.3546880050592
 20
345.5825544003202
 30
0.0000000000000000
 11
755.5694066308297
 21
352.7972730260757
 31
0.0000000000000000
  0
LINE
  5
2FD
100
AcDbEntity
  8
MAIN0
  6
CONTINUOUS
 62
3
100
AcDbLine
 10
756.8399693792885
 20
337.0972730260730
 30
0.0000000000000000
 11
764.0546880050591
 21
344.3119916518286
 31
0.0000000000000000
  0
LINE
  5
2FE
100
AcDbEntity
  8
MAIN0
  6
CONTINUOUS
 62
3
100
AcDbLine
 10
756.8399693793394
 20
352.7972730260730
 30
0.0000000000000000
 11
764.0546880050592
 21
345.5825544003806
 31
0.0000000000000000
  0
LINE
  5
2FF
100
AcDbEntity
  8
MAIN0
  6
CONTINUOUS
 62
3
100
AcDbLine
 10
748.3546880050596
 20
344.3119916518760
 30
0.0000000000000000
 11
755.5694066308872
 21
337.0972730260755
 31
0.0000000000000000
  0
LINE
  5
300
100
AcDbEntity
  8
MAIN0
  6
CONTINUOUS
 62
3
100
AcDbLine
 10
764.0546880050592
 20
344.3119916518282
 30
0.0000000000000000
 11
764.0546880050592
 21
345.5825544003804
 31
0.0000000000000000
  0
LINE
  5
301
100
AcDbEntity
  8
MAIN0
  6
CONTINUOUS
 62
3
100
AcDbLine
 10
764.0546880050594
 20
387.0620304591474
 30
0.0000000000000000
 11
764.0546880050592
 21
402.2620304587385
 31
0.0000000000000000
  0
LINE
  5
302
100
AcDbEntity
  8
MAIN0
  6
CONTINUOUS
 62
3
100
AcDbLine
 10
748.3546880050592
 20
344.3119916518762
 30
0.0000000000000000
 11
748.3546880050592
 21
345.5825544003204
 31
0.0000000000000000
  0
LINE
  5
303
100
AcDbEntity
  8
MAIN0
  6
CONTINUOUS
 62
3
100
AcDbLine
 10
748.3546880050590
 20
387.0620304591474
 30
0.0000000000000000
 11
748.3546880050592
 21
402.2620304587385
 31
0.0000000000000000
  0
LINE
  5
304
100
AcDbEntity
  8
MAIN0
  6
CONTINUOUS
 62
3
100
AcDbLine
 10
755.5694066308297
 20
352.7972730260756
 30
0.0000000000000000
 11
756.8399693793820
 21
352.7972730260730
 31
0.0000000000000000
  0
LINE
  5
305
100
AcDbEntity
  8
MAIN0
  6
CONTINUOUS
 62
3
100
AcDbLine
 10
755.5694066308449
 20
337.0972730260756
 30
0.0000000000000000
 11
756.8399693792891
 21
337.0972730260730
 31
0.0000000000000000
  0
LINE
  5
306
100
AcDbEntity
  8
MAIN0
  6
CONTINUOUS
 62
3
100
AcDbLine
 10
756.8399693787237
 20
387.0620304587392
 30
0.0000000000000000
 11
756.8399693786785
 21
402.2620304587385
 31
0.0000000000000000
  0
LINE
  5
307
100
AcDbEntity
  8
MAIN0
  6
CONTINUOUS
 62
3
100
AcDbLine
 10
755.5694066303812
 20
387.0620304587392
 30
0.0000000000000000
 11
755.5694066303812
 21
402.2620304587385
 31
0.0000000000000000
  0
LINE
  5
308
100
AcDbEntity
  8
MAIN0
  6
CONTINUOUS
 62
3
100
AcDbLine
 10
748.3546880050592
 20
387.0620304587387
 30
0.0000000000000000
 11
764.0546880050592
 21
387.0620304587397
 31
0.0000000000000000
  0
LINE
  5
309
100
AcDbEntity
  8
MAIN0
  6
CONTINUOUS
 62
3
100
AcDbLine
 10
755.5694066303812
 20
402.2620304587385
 30
0.0000000000000000
 11
747.7046880050592
 21
402.2620304587385
 31
0.0000000000000000
  0
LINE
  5
30A
100
AcDbEntity
  8
MAIN0
  6
CONTINUOUS
 62
3
100
AcDbLine
 10
764.7046880050592
 20
402.2620304587385
 30
0.0000000000000000
 11
756.8399693786785
 21
402.2620304587385
 31
0.0000000000000000
  0
LINE
  5
30B
100
AcDbEntity
  8
MAIN0
  6
CONTINUOUS
 62
3
100
AcDbLine
 10
748.3546880050592
 20
402.2620304587386
 30
0.0000000000000000
 11
755.5694066303813
 21
387.0620304587391
 31
0.0000000000000000
  0
LINE
  5
30C
100
AcDbEntity
  8
MAIN0
  6
CONTINUOUS
 62
3
100
AcDbLine
 10
755.5694066303811
 20
402.2620304587385
 30
0.0000000000000000
 11
748.3546880050590
 21
387.0620304591474
 31
0.0000000000000000
  0
LINE
  5
30D
100
AcDbEntity
  8
MAIN0
  6
CONTINUOUS
 62
3
100
AcDbLine
 10
764.0546880050588
 20
402.2620304587387
 30
0.0000000000000000
 11
756.8399693787233
 21
387.0620304587395
 31
0.0000000000000000
  0
LINE
  5
30E
100
AcDbEntity
  8
MAIN0
  6
CONTINUOUS
 62
3
100
AcDbLine
 10
756.8399693786780
 20
402.2620304587384
 30
0.0000000000000000
 11
764.0546880050590
 21
387.0620304591485
 31
0.0000000000000000
  0
ARC
  5
30F
100
AcDbEntity
  8
MAIN0
  6
CONTINUOUS
 62
3
100
AcDbCircle
 10
735.2046880050590
 20
531.2620304587385
 30
0.0000000000000000
 40
10.00000000000018
100
AcDbArc
 50
323.1301023541568
 51
396.8698976458433
  0
ARC
  5
310
100
AcDbEntity
  8
MAIN0
  6
CONTINUOUS
 62
3
100
AcDbCircle
 10
777.2046880050591
 20
531.2620304587385
 30
0.0000000000000000
 40
10.00000000000002
100
AcDbArc
 50
143.1301023541559
 51
216.8698976458442
  0
LINE
  5
311
100
AcDbEntity
  8
MAIN0
  6
CONTINUOUS
 62
3
100
AcDbLine
 10
769.2046880050592
 20
518.2620304587385
 30
0.0000000000000000
 11
769.2046880050592
 21
525.2620304587385
 31
0.0000000000000000
  0
LINE
  5
312
100
AcDbEntity
  8
MAIN0
  6
CONTINUOUS
 62
3
100
AcDbLine
 10
769.2046880050592
 20
537.2620304587385
 30
0.0000000000000000
 11
769.2046880050592
 21
544.2620304587385
 31
0.0000000000000000
  0
LINE
  5
313
100
AcDbEntity
  8
MAIN0
  6
CONTINUOUS
 62
3
100
AcDbLine
 10
743.2046880050592
 20
518.2620304587385
 30
0.0000000000000000
 11
743.2046880050592
 21
525.2620304587385
 31
0.0000000000000000
  0
LINE
  5
314
100
AcDbEntity
  8
MAIN0
  6
CONTINUOUS
 62
3
100
AcDbLine
 10
743.2046880050592
 20
537.2620304587385
 30
0.0000000000000000
 11
743.2046880050592
 21
544.2620304587385
 31
0.0000000000000000
  0
ARC
  5
315
100
AcDbEntity
  8
MAIN0
  6
CONTINUOUS
 62
3
100
AcDbCircle
 10
813.7435129175990
 20
534.2620304587385
 30
0.0000000000000000
 40
4.500000000000000
100
AcDbArc
 50
138.1896851042214
 51
221.8103148957786
  0
ARC
  5
316
100
AcDbEntity
  8
MAIN0
  6
CONTINUOUS
 62
3
100
AcDbCircle
 10
807.0353089850999
 20
534.2620304587385
 30
0.0000000000000000
 40
4.500000000000000
100
AcDbArc
 50
318.1896851042214
 51
401.8103148957786
  0
ARC
  5
317
100
AcDbEntity
  8
MAIN0
  6
CONTINUOUS
 62
3
100
AcDbCircle
 10
818.2435129175990
 20
534.2620304587385
 30
0.0000000000000000
 40
4.500000000000000
100
AcDbArc
 50
138.1896851042214
 51
221.8103148957786
  0
ARC
  5
318
100
AcDbEntity
  8
MAIN0
  6
CONTINUOUS
 62
3
100
AcDbCircle
 10
807.0353089850999
 20
528.2620304587385
 30
0.0000000000000000
 40
4.500000000000000
100
AcDbArc
 50
318.1896851042214
 51
401.8103148957786
  0
ARC
  5
319
100
AcDbEntity
  8
MAIN0
  6
CONTINUOUS
 62
3
100
AcDbCircle
 10
818.2435129175990
 20
528.2620304587385
 30
0.0000000000000000
 40
4.500000000000000
100
AcDbArc
 50
138.1896851042214
 51
221.8103148957786
  0
ARC
  5
31A
100
AcDbEntity
  8
MAIN0
  6
CONTINUOUS
 62
3
100
AcDbCircle
 10
811.5353089850999
 20
528.2620304587385
 30
0.0000000000000000
 40
4.500000000000000
100
AcDbArc
 50
318.1896851042214
 51
401.8103148957786
  0
LINE
  5
31B
100
AcDbEntity
  8
MAIN0
  6
CONTINUOUS
 62
3
100
AcDbLine
 10
810.3894109513494
 20
537.2620304587385
 30
0.0000000000000000
 11
769.2046880050591
 21
537.2620304587385
 31
0.0000000000000000
  0
LINE
  5
31C
100
AcDbEntity
  8
MAIN0
  6
CONTINUOUS
 62
3
100
AcDbLine
 10
836.2046880050591
 20
537.2620304587385
 30
0.0000000000000000
 11
814.8894109513494
 21
537.2620304587385
 31
0.0000000000000000
  0
LINE
  5
31D
100
AcDbEntity
  8
MAIN0
  6
CONTINUOUS
 62
3
100
AcDbLine
 10
810.3894109513494
 20
525.2620304587385
 30
0.0000000000000000
 11
769.2046880050591
 21
525.2620304587385
 31
0.0000000000000000
  0
LINE
  5
31E
100
AcDbEntity
  8
MAIN0
  6
CONTINUOUS
 62
3
100
AcDbLine
 10
836.2046880050591
 20
525.2620304587385
 30
0.0000000000000000
 11
814.8894109513494
 21
525.2620304587385
 31
0.0000000000000000
  0
ARC
  5
31F
100
AcDbEntity
  8
MAIN0
  6
CONTINUOUS
 62
3
100
AcDbCircle
 10
705.5997500560989
 20
534.2620304587385
 30
0.0000000000000000
 40
4.500000000000000
100
AcDbArc
 50
138.1896851042214
 51
221.8103148957786
  0
ARC
  5
320
100
AcDbEntity
  8
MAIN0
  6
CONTINUOUS
 62
3
100
AcDbCircle
 10
698.8915461235995
 20
534.2620304587385
 30
0.0000000000000000
 40
4.500000000000000
100
AcDbArc
 50
318.1896851042214
 51
401.8103148957786
  0
ARC
  5
321
100
AcDbEntity
  8
MAIN0
  6
CONTINUOUS
 62
3
100
AcDbCircle
 10
710.0997500560989
 20
534.2620304587385
 30
0.0000000000000000
 40
4.500000000000000
100
AcDbArc
 50
138.1896851042214
 51
221.8103148957786
  0
ARC
  5
322
100
AcDbEntity
  8
MAIN0
  6
CONTINUOUS
 62
3
100
AcDbCircle
 10
698.8915461235995
 20
528.2620304587385
 30
0.0000000000000000
 40
4.500000000000000
100
AcDbArc
 50
318.1896851042214
 51
401.8103148957786
  0
ARC
  5
323
100
AcDbEntity
  8
MAIN0
  6
CONTINUOUS
 62
3
100
AcDbCircle
 10
710.0997500560989
 20
528.2620304587385
 30
0.0000000000000000
 40
4.500000000000000
100
AcDbArc
 50
138.1896851042214
 51
221.8103148957786
  0
ARC
  5
324
100
AcDbEntity
  8
MAIN0
  6
CONTINUOUS
 62
3
100
AcDbCircle
 10
703.3915461235995
 20
528.2620304587385
 30
0.0000000000000000
 40
4.500000000000000
100
AcDbArc
 50
318.1896851042214
 51
401.8103148957786
  0
LINE
  5
325
100
AcDbEntity
  8
MAIN0
  6
CONTINUOUS
 62
3
100
AcDbLine
 10
702.2456480898492
 20
537.2620304587385
 30
0.0000000000000000
 11
676.2046880050604
 21
537.2620304587385
 31
0.0000000000000000
  0
LINE
  5
326
100
AcDbEntity
  8
MAIN0
  6
CONTINUOUS
 62
3
100
AcDbLine
 10
743.2046880050593
 20
537.2620304587385
 30
0.0000000000000000
 11
706.7456480898492
 21
537.2620304587385
 31
0.0000000000000000
  0
LINE
  5
327
100
AcDbEntity
  8
MAIN0
  6
CONTINUOUS
 62
3
100
AcDbLine
 10
702.2456480898492
 20
525.2620304587385
 30
0.0000000000000000
 11
676.2046880050604
 21
525.2620304587385
 31
0.0000000000000000
  0
LINE
  5
328
100
AcDbEntity
  8
MAIN0
  6
CONTINUOUS
 62
3
100
AcDbLine
 10
743.2046880050593
 20
525.2620304587385
 30
0.0000000000000000
 11
706.7456480898492
 21
525.2620304587385
 31
0.0000000000000000
  0
LINE
  5
329
100
AcDbEntity
  8
MAIN0
  6
CENTER
 62
3
100
AcDbLine
 10
756.2046880050592
 20
331.2405105280618
 30
0.0000000000000000
 11
756.2046880050592
 21
494.8048228413838
 31
0.0000000000000000
  0
LINE
  5
32A
100
AcDbEntity
  8
MAIN0
  6
CONTINUOUS
 62
3
100
AcDbLine
 10
745.2046880050591
 20
446.8620304587385
 30
0.0000000000000000
 11
745.8046880050592
 21
446.2620304587384
 31
0.0000000000000000
  0
LINE
  5
32B
100
AcDbEntity
  8
MAIN0
  6
CONTINUOUS
 62
3
100
AcDbLine
 10
748.3546880050592
 20
387.0620304591474
 30
0.0000000000000000
 11
751.3403286526354
 21
386.2620304587383
 31
0.0000000000000000
  0
LINE
  5
32C
100
AcDbEntity
  8
MAIN0
  6
CONTINUOUS
 62
3
100
AcDbLine
 10
764.0546880050595
 20
387.0620304591474
 30
0.0000000000000000
 11
761.0690473574831
 21
386.2620304587383
 31
0.0000000000000000
  0
LINE
  5
32D
100
AcDbEntity
  8
MAIN0
  6
PHANTOM
 62
3
100
AcDbLine
 10
747.6046880050592
 20
389.2620304587385
 30
0.0000000000000000
 11
747.6046880050592
 21
440.7120304587864
 31
0.0000000000000000
  0
LINE
  5
32E
100
AcDbEntity
  8
MAIN0
  6
CONTINUOUS
 62
3
100
AcDbLine
 10
765.2296880050592
 20
446.2620304587385
 30
0.0000000000000000
 11
747.1796880050592
 21
446.2620304587385
 31
0.0000000000000000
  0
LINE
  5
32F
100
AcDbEntity
  8
MAIN0
  6
PHANTOM
 62
3
100
AcDbLine
 10
764.8046880050592
 20
389.2620304587385
 30
0.0000000000000000
 11
764.8046880050592
 21
442.3120304587864
 31
0.0000000000000000
  0
LINE
  5
330
100
AcDbEntity
  8
MAIN0
  6
CENTER
 62
3
100
AcDbLine
 10
746.8046880050592
 20
388.3543693625821
 30
0.0000000000000000
 11
746.8046880050592
 21
443.9974930338134
 31
0.0000000000000000
  0
LINE
  5
331
100
AcDbEntity
  8
MAIN0
  6
CENTER
 62
3
100
AcDbLine
 10
765.6046880050592
 20
388.3543693625821
 30
0.0000000000000000
 11
765.6046880050592
 21
443.9974930338134
 31
0.0000000000000000
  0
LINE
  5
332
100
AcDbEntity
  8
MAIN0
  6
CONTINUOUS
 62
3
100
AcDbLine
 10
765.6046880050592
 20
389.2620304587385
 30
0.0000000000000000
 11
746.8046880050592
 21
389.2620304587385
 31
0.0000000000000000
  0
LINE
  5
333
100
AcDbEntity
  8
MAIN0
  6
PHANTOM
 62
3
100
AcDbLine
 10
746.0046880050593
 20
389.2620304587385
 30
0.0000000000000000
 11
746.0046880050593
 21
440.7120304587864
 31
0.0000000000000000
  0
CIRCLE
  5
334
100
AcDbEntity
  8
MAIN0
  6
CONTINUOUS
 62
3
100
AcDbCircle
 10
746.8046880050592
 20
390.0620304587386
 30
0.0000000000000000
 40
0.7999999999999902
  0
LINE
  5
335
100
AcDbEntity
  8
MAIN0
  6
PHANTOM
 62
3
100
AcDbLine
 10
766.4046880050591
 20
389.2620304587385
 30
0.0000000000000000
 11
766.4046880050591
 21
442.3120304587864
 31
0.0000000000000000
  0
CIRCLE
  5
336
100
AcDbEntity
  8
MAIN0
  6
CONTINUOUS
 62
3
100
AcDbCircle
 10
765.6046880050592
 20
390.0620304587386
 30
0.0000000000000000
 40
0.7999999999999830
  0
LINE
  5
337
100
AcDbEntity
  8
MAIN0
  6
CONTINUOUS
 62
3
100
AcDbLine
 10
765.6046880050591
 20
390.8620304587385
 30
0.0000000000000000
 11
746.8046880050591
 21
390.8620304587386
 31
0.0000000000000000
  0
CIRCLE
  5
338
100
AcDbEntity
  8
MAIN0
  6
CONTINUOUS
 62
3
100
AcDbCircle
 10
765.6046880050592
 20
393.2620304587385
 30
0.0000000000000000
 40
0.7999999999999830
  0
CIRCLE
  5
339
100
AcDbEntity
  8
MAIN0
  6
CONTINUOUS
 62
3
100
AcDbCircle
 10
746.8046880050592
 20
391.6620304587386
 30
0.0000000000000000
 40
0.7999999999999902
  0
LINE
  5
33A
100
AcDbEntity
  8
MAIN0
  6
CONTINUOUS
 62
3
100
AcDbLine
 10
765.6725278693796
 20
392.4649120529738
 30
0.0000000000000000
 11
746.8725278693796
 21
390.8649120529738
 31
0.0000000000000000
  0
LINE
  5
33B
100
AcDbEntity
  8
MAIN0
  6
CONTINUOUS
 62
3
100
AcDbLine
 10
746.7368481407387
 20
392.4591488645033
 30
0.0000000000000000
 11
765.5368481407388
 21
394.0591488645033
 31
0.0000000000000000
  0
CIRCLE
  5
33C
100
AcDbEntity
  8
MAIN0
  6
CONTINUOUS
 62
3
100
AcDbCircle
 10
746.8046880050592
 20
394.8620304587386
 30
0.0000000000000000
 40
0.7999999999999902
  0
LINE
  5
33D
100
AcDbEntity
  8
MAIN0
  6
CONTINUOUS
 62
3
100
AcDbLine
 10
746.7368481407386
 20
395.6591488645033
 30
0.0000000000000000
 11
765.5368481407386
 21
397.2591488645032
 31
0.0000000000000000
  0
LINE
  5
33E
100
AcDbEntity
  8
MAIN0
  6
CONTINUOUS
 62
3
100
AcDbLine
 10
765.6725278693793
 20
395.6649120529737
 30
0.0000000000000000
 11
746.8725278693794
 21
394.0649120529737
 31
0.0000000000000000
  0
CIRCLE
  5
33F
100
AcDbEntity
  8
MAIN0
  6
CONTINUOUS
 62
3
100
AcDbCircle
 10
765.6046880050592
 20
396.4620304587385
 30
0.0000000000000000
 40
0.7999999999999830
  0
CIRCLE
  5
340
100
AcDbEntity
  8
MAIN0
  6
CONTINUOUS
 62
3
100
AcDbCircle
 10
747.1796880050592
 20
445.7370304587386
 30
0.0000000000000000
 40
0.5249999999999986
  0
CIRCLE
  5
341
100
AcDbEntity
  8
MAIN0
  6
CONTINUOUS
 62
3
100
AcDbCircle
 10
765.2296880050592
 20
445.7370304587386
 30
0.0000000000000000
 40
0.5249999999999986
  0
LINE
  5
342
100
AcDbEntity
  8
MAIN0
  6
CONTINUOUS
 62
3
100
AcDbLine
 10
765.2296880050592
 20
445.2120304587386
 30
0.0000000000000000
 11
747.1796880050592
 21
445.2120304587386
 31
0.0000000000000000
  0
CIRCLE
  5
343
100
AcDbEntity
  8
MAIN0
  6
CONTINUOUS
 62
3
100
AcDbCircle
 10
765.2296880050592
 20
444.6870304587386
 30
0.0000000000000000
 40
0.5249999999999986
  0
LINE
  5
344
100
AcDbEntity
  8
MAIN0
  6
CONTINUOUS
 62
3
100
AcDbLine
 10
765.2296880050592
 20
444.1620304587386
 30
0.0000000000000000
 11
747.1796880050592
 21
444.1620304587386
 31
0.0000000000000000
  0
CIRCLE
  5
345
100
AcDbEntity
  8
MAIN0
  6
CONTINUOUS
 62
3
100
AcDbCircle
 10
747.1796880050592
 20
444.6870304587386
 30
0.0000000000000000
 40
0.5249999999999986
  0
LINE
  5
346
100
AcDbEntity
  8
MAIN0
  6
CONTINUOUS
 62
3
100
AcDbLine
 10
746.7368481407386
 20
441.5091488645512
 30
0.0000000000000000
 11
765.5368481407386
 21
443.1091488645511
 31
0.0000000000000000
  0
CIRCLE
  5
347
100
AcDbEntity
  8
MAIN0
  6
CONTINUOUS
 62
3
100
AcDbCircle
 10
765.6046880050592
 20
442.3120304587864
 30
0.0000000000000000
 40
0.7999999999999830
  0
LINE
  5
348
100
AcDbEntity
  8
MAIN0
  6
CONTINUOUS
 62
3
100
AcDbLine
 10
765.6725278693795
 20
441.5149120530216
 30
0.0000000000000000
 11
746.8725278693794
 21
439.9149120530216
 31
0.0000000000000000
  0
CIRCLE
  5
349
100
AcDbEntity
  8
MAIN0
  6
CONTINUOUS
 62
3
100
AcDbCircle
 10
746.8046880050592
 20
440.7120304587864
 30
0.0000000000000000
 40
0.7999999999999902
  0
CIRCLE
  5
34A
100
AcDbEntity
  8
MAIN0
  6
CONTINUOUS
 62
3
100
AcDbCircle
 10
765.6046880050592
 20
439.1120304587864
 30
0.0000000000000000
 40
0.7999999999999830
  0
LINE
  5
34B
100
AcDbEntity
  8
MAIN0
  6
CONTINUOUS
 62
3
100
AcDbLine
 10
746.7368481407387
 20
438.3091488645512
 30
0.0000000000000000
 11
765.5368481407388
 21
439.9091488645512
 31
0.0000000000000000
  0
LINE
  5
34C
100
AcDbEntity
  8
MAIN0
  6
CONTINUOUS
 62
3
100
AcDbLine
 10
765.6725278693796
 20
438.3149120530217
 30
0.0000000000000000
 11
746.8725278693796
 21
436.7149120530216
 31
0.0000000000000000
  0
CIRCLE
  5
34D
100
AcDbEntity
  8
MAIN0
  6
CONTINUOUS
 62
3
100
AcDbCircle
 10
746.8046880050592
 20
437.5120304587865
 30
0.0000000000000000
 40
0.7999999999999902
  0
LINE
  5
34E
100
AcDbEntity
  8
MAIN0
  6
CONTINUOUS
 62
3
100
AcDbLine
 10
765.6725278693797
 20
394.0591488645032
 30
0.0000000000000000
 11
756.2386691371155
 21
394.8620304587386
 31
0.0000000000000000
  0
LINE
  5
34F
100
AcDbEntity
  8
MAIN0
  6
CONTINUOUS
 62
3
100
AcDbLine
 10
746.7368481407389
 20
394.0649120529737
 30
0.0000000000000000
 11
756.1707068730028
 21
393.2620304587385
 31
0.0000000000000000
  0
LINE
  5
350
100
AcDbEntity
  8
MAIN0
  6
CONTINUOUS
 62
3
100
AcDbLine
 10
765.6959383309354
 20
443.1068092821250
 30
0.0000000000000000
 11
756.5050950429131
 21
444.1620304587386
 31
0.0000000000000000
  0
LINE
  5
351
100
AcDbEntity
  8
MAIN0
  6
CONTINUOUS
 62
3
100
AcDbLine
 10
747.1042671289973
 20
444.1674761387162
 30
0.0000000000000000
 11
758.6073781314012
 21
442.5194067360970
 31
0.0000000000000000
  0
DIMENSION
  5
35A
100
AcDbEntity
  8
MAIN0
  6
CONTINUOUS
 62
1
100
AcDbDimension
  2
*D27
 10
846.2046880050591
 20
566.2620304587385
 30
0.0000000000000000
 11
757.8992701108157
 21
567.0120304587385
 31
0.0000000000000000
 70
160
  1
\A1;360
  3
MAIN001
100
AcDbAlignedDimension
 13
666.2046880050604
 23
540.6620304587386
 33
0.0000000000000000
 14
846.2046880050591
 24
540.6620304587386
 34
0.0000000000000000
100
AcDbRotatedDimension
1001
ACAD
1000
DSTYLE
1002
{
1070
   173
1070
     1
1070
     6
1000
_OPEN
1070
     7
1000
_OPEN
1070
    41
1040
3.000000
1002
}
  0
DIMENSION
  5
363
100
AcDbEntity
  8
MAIN0
  6
CONTINUOUS
 62
3
100
AcDbDimension
  2
*D28
 10
743.2046880050592
 20
556.2620304587385
 30
0.0000000000000000
 11
756.2046880050592
 21
556.7620304587385
 31
0.0000000000000000
 70
32
  1
\A1;\U+220526
  3
MAIN001
100
AcDbAlignedDimension
 13
769.2046880050592
 23
544.2620304587385
 33
0.0000000000000000
 14
743.2046880050592
 24
544.2620304587385
 34
0.0000000000000000
100
AcDbRotatedDimension
1001
ACAD
1000
DSTYLE
1002
{
1070
   173
1070
     1
1070
     6
1000
_OPEN
1070
     7
1000
_OPEN
1070
    41
1040
3.000000
1002
}
  0
DIMENSION
  5
36C
100
AcDbEntity
  8
MAIN0
  6
CONTINUOUS
 62
3
100
AcDbDimension
  2
*D29
 10
731.2046880050591
 20
537.2620304587385
 30
0.0000000000000000
 11
730.4546880050591
 21
545.5255272782897
 31
0.0000000000000000
 70
160
  1
\A1;\U+220512
  3
MAIN001
100
AcDbAlignedDimension
 13
743.2046880050593
 23
525.2620304587385
 33
0.0000000000000000
 14
743.2046880050593
 24
537.2620304587385
 34
0.0000000000000000
 50
90.00000000000000
100
AcDbRotatedDimension
1001
ACAD
1000
DSTYLE
1002
{
1070
   173
1070
     1
1070
     6
1000
_OPEN
1070
     7
1000
_OPEN
1070
    41
1040
3.000000
1070
   287
1070
     0
1002
}
  0
DIMENSION
  5
375
100
AcDbEntity
  8
MAIN0
  6
CONTINUOUS
 62
3
100
AcDbDimension
  2
*D30
 10
796.2046880050591
 20
546.2620304587385
 30
0.0000000000000000
 11
795.7046880050591
 21
466.2620304587385
 31
0.0000000000000000
 70
32
  3
MAIN001
100
AcDbAlignedDimension
 13
761.0690473574841
 23
386.2620304587385
 33
0.0000000000000000
 14
767.2046880050592
 24
546.2620304587385
 34
0.0000000000000000
 50
90.00000000000000
100
AcDbRotatedDimension
1001
ACAD
1000
DSTYLE
1002
{
1070
   173
1070
     1
1070
     6
1000
_OPEN
1070
     7
1000
_OPEN
1070
    41
1040
3.000000
1002
}
  0
DIMENSION
  5
37E
100
AcDbEntity
  8
MAIN0
  6
CONTINUOUS
 62
3
100
AcDbDimension
  2
*D31
 10
786.2046880050591
 20
386.2620304587385
 30
0.0000000000000000
 11
785.7046880050591
 21
394.2620304587385
 31
0.0000000000000000
 70
32
  3
MAIN001
100
AcDbAlignedDimension
 13
764.7046880050592
 23
402.2620304587385
 33
0.0000000000000000
 14
761.0690473574841
 24
386.2620304587385
 34
0.0000000000000000
 50
90.00000000000000
100
AcDbRotatedDimension
1001
ACAD
1000
DSTYLE
1002
{
1070
   173
1070
     1
1070
     6
1000
_OPEN
1070
     7
1000
_OPEN
1070
    41
1040
3.000000
1002
}
  0
DIMENSION
  5
385
100
AcDbEntity
  8
MAIN0
  6
CONTINUOUS
 62
3
100
AcDbDimension
  2
*D32
 10
745.2046880050592
 20
496.2620304587385
 30
0.0000000000000000
 11
756.2046880050592
 21
496.7620304587385
 31
0.0000000000000000
 70
32
  1
\A1;\U+220522
  3
MAIN001
100
AcDbAlignedDimension
 13
767.2046880050592
 23
446.8620304587386
 33
0.0000000000000000
 14
745.2046880050592
 24
446.8620304587386
 34
0.0000000000000000
100
AcDbRotatedDimension
1001
ACAD
1000
DSTYLE
1002
{
1070
   173
1070
     1
1070
     6
1000
_OPEN
1070
     7
1000
_OPEN
1070
    41
1040
3.000000
1002
}
  0
DIMENSION
  5
38F
100
AcDbEntity
  8
MAIN0
  6
CONTINUOUS
 62
3
100
AcDbDimension
  2
*D33
 10
770.3620915738183
 20
339.2751508316453
 30
0.0000000000000000
 11
775.8650393052458
 21
345.8387587348755
 31
0.0000000000000000
 70
161
  1
\A1;□12\H0.903226x;\S　0^ －0.05;
  3
MAIN001
100
AcDbAlignedDimension
 13
755.5694066308870
 23
337.0972730260754
 33
0.0000000000000000
 14
764.0546880050592
 24
345.5825544003805
 34
0.0000000000000000
 50
45.00000000010977
1001
ACAD
1000
DSTYLE
1002
{
1070
   173
1070
     1
1070
     6
1000
_OPEN
1070
     7
1000
_OPEN
1070
    41
1040
3.000000
1070
   272
1070
     2
1070
    47
1040
0.000000
1070
    48
1040
0.050000
1070
    71
1070
     1
1070
   340
1005
E6
1002
}
  0
LINE
  5
390
100
AcDbEntity
  8
MAIN0
  6
CENTER
 62
3
100
AcDbLine
 10
621.2046880050591
 20
531.2620304587385
 30
0.0000000000000000
 11
648.5546881481104
 21
531.2620304587385
 31
0.0000000000000000
  0
LINE
  5
391
100
AcDbEntity
  8
MAIN0
  6
CENTER
 62
3
100
AcDbLine
 10
657.7046880050592
 20
531.2620304587385
 30
0.0000000000000000
 11
856.2046880050591
 21
531.2620304587385
 31
0.0000000000000000
  0
LINE
  5
392
100
AcDbEntity
  8
MAIN0
  6
CENTER
 62
3
100
AcDbLine
 10
756.2046880050592
 20
503.9120303156874
 30
0.0000000000000000
 11
756.2046880050592
 21
551.2620304587385
 31
0.0000000000000000
  0
INSERT
  5
39F
100
AcDbEntity
  8
MAIN0
  6
CONTINUOUS
 62
3
100
AcDbBlockReference
  2
*X0
 10
0.0000000000000000
 20
0.0000000000000000
 30
0.0000000000000000
 50
0.0000000000000000
  0
INSERT
  5
3AC
100
AcDbEntity
  8
MAIN0
  6
CONTINUOUS
 62
3
100
AcDbBlockReference
  2
*X1
 10
0.0000000000000000
 20
0.0000000000000000
 30
0.0000000000000000
 50
0.0000000000000000
  0
INSERT
  5
3B9
100
AcDbEntity
  8
MAIN0
  6
CONTINUOUS
 62
3
100
AcDbBlockReference
  2
*X2
 10
0.0000000000000000
 20
0.0000000000000000
 30
0.0000000000000000
 50
0.0000000000000000
  0
INSERT
  5
3C6
100
AcDbEntity
  8
MAIN0
  6
CONTINUOUS
 62
3
100
AcDbBlockReference
  2
*X3
 10
0.0000000000000000
 20
0.0000000000000000
 30
0.0000000000000000
 50
0.0000000000000000
  0
LINE
  5
3C7
100
AcDbEntity
  8
MAIN0
  6
CONTINUOUS
 62
3
100
AcDbLine
 10
523.7046880049777
 20
221.9996347658152
 30
0.0000000000000000
 11
523.7046880054598
 21
303.5512204130098
 31
0.0000000000000000
  0
LINE
  5
3C8
100
AcDbEntity
  8
MAIN0
  6
CONTINUOUS
 62
3
100
AcDbLine
 10
558.7046880049777
 20
221.9996347655443
 30
0.0000000000000000
 11
558.7046880054598
 21
303.5512204124662
 31
0.0000000000000000
  0
LINE
  5
3C9
100
AcDbEntity
  8
MAIN0
  6
CONTINUOUS
 62
3
100
AcDbLine
 10
539.7046880048333
 20
212.7620304587476
 30
0.0000000000000000
 11
542.7046880051265
 21
212.7620304587298
 31
0.0000000000000000
  0
ARC
  5
3CA
100
AcDbEntity
  8
MAIN0
  6
CONTINUOUS
 62
3
100
AcDbCircle
 10
541.2046880057626
 20
354.7620304587387
 30
0.0000000000000000
 40
42.00000000000000
100
AcDbArc
 50
267.9532869017605
 51
272.0467130968385
  0
LINE
  5
3CB
100
AcDbEntity
  8
MAIN0
  6
CONTINUOUS
 62
3
100
AcDbLine
 10
523.7046880054597
 20
303.5512204130098
 30
0.0000000000000000
 11
539.7046880053472
 21
312.7888247198538
 31
0.0000000000000000
  0
LINE
  5
3CC
100
AcDbEntity
  8
MAIN0
  6
CONTINUOUS
 62
3
100
AcDbLine
 10
542.7046880051264
 20
212.7620304587299
 30
0.0000000000000000
 11
558.7046880049777
 21
221.9996347655444
 31
0.0000000000000000
  0
LINE
  5
3CD
100
AcDbEntity
  8
MAIN0
  6
CONTINUOUS
 62
3
100
AcDbLine
 10
558.7046880054600
 20
303.5512204124663
 30
0.0000000000000000
 11
542.7046880051516
 21
312.7888247198173
 31
0.0000000000000000
  0
LINE
  5
3CE
100
AcDbEntity
  8
MAIN0
  6
CONTINUOUS
 62
3
100
AcDbLine
 10
539.7046880048331
 20
212.7620304587476
 30
0.0000000000000000
 11
523.7046880049774
 21
221.9996347658151
 31
0.0000000000000000
  0
ARC
  5
3CF
100
AcDbEntity
  8
MAIN0
  6
CONTINUOUS
 62
3
100
AcDbCircle
 10
541.2046880046748
 20
170.7620304587388
 30
0.0000000000000000
 40
80.00000000000000
100
AcDbArc
 50
78.09712621989331
 51
101.9028737794293
  0
ARC
  5
3D0
100
AcDbEntity
  8
MAIN0
  6
CONTINUOUS
 62
3
100
AcDbCircle
 10
541.2046880046748
 20
170.7620304587388
 30
0.0000000000000000
 40
108.5000000000000
100
AcDbArc
 50
80.71820091298378
 51
99.28179908633885
  0
ARC
  5
3D1
100
AcDbEntity
  8
MAIN0
  6
CONTINUOUS
 62
3
100
AcDbCircle
 10
541.2046880046748
 20
170.7620304587388
 30
0.0000000000000000
 40
76.50000000000000
100
AcDbArc
 50
76.77602895163244
 51
103.2239710476901
  0
ARC
  5
3D2
100
AcDbEntity
  8
MAIN0
  6
CONTINUOUS
 62
3
100
AcDbCircle
 10
541.2046880046748
 20
170.7620304587388
 30
0.0000000000000000
 40
52.00000000000000
100
AcDbArc
 50
73.24024576587408
 51
106.7597542333645
  0
ARC
  5
3D3
100
AcDbEntity
  8
MAIN0
  6
CONTINUOUS
 62
3
100
AcDbCircle
 10
541.2046880046748
 20
170.7620304587388
 30
0.0000000000000000
 40
88.00000000000000
100
AcDbArc
 50
78.52948454958394
 51
101.4705154497387
  0
ARC
  5
3D4
100
AcDbEntity
  8
MAIN0
  6
CONTINUOUS
 62
3
100
AcDbCircle
 10
541.2046880057626
 20
354.7620304587387
 30
0.0000000000000000
 40
75.09999999999999
100
AcDbArc
 50
256.5249074249893
 51
257.2187505288084
  0
ARC
  5
3D5
100
AcDbEntity
  8
MAIN0
  6
CONTINUOUS
 62
3
100
AcDbCircle
 10
541.2046880057626
 20
354.7620304587387
 30
0.0000000000000000
 40
75.09999999999999
100
AcDbArc
 50
282.7812494705142
 51
283.4750925743333
  0
ARC
  5
3D6
100
AcDbEntity
  8
MAIN0
  6
CONTINUOUS
 62
3
100
AcDbCircle
 10
541.2046880057626
 20
354.7620304587387
 30
0.0000000000000000
 40
107.0000000000000
100
AcDbArc
 50
260.5869072081429
 51
261.1291314692655
  0
ARC
  5
3D7
100
AcDbEntity
  8
MAIN0
  6
CONTINUOUS
 62
3
100
AcDbCircle
 10
541.2046880057626
 20
354.7620304587387
 30
0.0000000000000000
 40
107.0000000000000
100
AcDbArc
 50
278.8708685300571
 51
279.4130927911797
  0
ARC
  5
3D8
100
AcDbEntity
  8
MAIN0
  6
CONTINUOUS
 62
3
100
AcDbCircle
 10
541.2046880053249
 20
280.7520304587387
 30
0.0000000000000000
 40
8.000000000000000
100
AcDbArc
 50
12.54338286480042
 51
22.34658789802269
  0
ARC
  5
3D9
100
AcDbEntity
  8
MAIN0
  6
CONTINUOUS
 62
3
100
AcDbCircle
 10
541.2046880053249
 20
280.7520304587387
 30
0.0000000000000000
 40
8.000000000000000
100
AcDbArc
 50
157.6534121012999
 51
167.4566171345221
  0
ARC
  5
3DA
100
AcDbEntity
  8
MAIN0
  6
CONTINUOUS
 62
3
100
AcDbCircle
 10
541.2046880046748
 20
170.7620304587388
 30
0.0000000000000000
 40
112.0000000000000
100
AcDbArc
 50
93.99811780326353
 51
98.53086606705602
  0
ARC
  5
3DB
100
AcDbEntity
  8
MAIN0
  6
CONTINUOUS
 62
3
100
AcDbCircle
 10
541.2046880046748
 20
170.7620304587388
 30
0.0000000000000000
 40
112.0000000000000
100
AcDbArc
 50
81.46913393226650
 51
86.00188219605902
  0
LINE
  5
3DC
100
AcDbEntity
  8
MAIN0
  6
CENTER
 62
3
100
AcDbLine
 10
526.7282676027046
 20
289.7520304588243
 30
0.0000000000000000
 11
554.8609440376129
 21
289.7520304586579
 31
0.0000000000000000
  0
LINE
  5
3DD
100
AcDbEntity
  8
MAIN0
  6
CENTER
 62
3
100
AcDbLine
 10
526.7282676023854
 20
235.7720304588243
 30
0.0000000000000000
 11
554.8609440372936
 21
235.7720304586580
 31
0.0000000000000000
  0
CIRCLE
  5
3DE
100
AcDbEntity
  8
MAIN0
  6
CONTINUOUS
 62
3
100
AcDbCircle
 10
541.2046880050591
 20
235.7720304587386
 30
0.0000000000000000
 40
9.500000000000000
  0
CIRCLE
  5
3DF
100
AcDbEntity
  8
MAIN0
  6
CONTINUOUS
 62
3
100
AcDbCircle
 10
541.2046880050591
 20
235.7720304587386
 30
0.0000000000000000
 40
6.500000000000000
  0
LINE
  5
3E0
100
AcDbEntity
  8
MAIN0
  6
CONTINUOUS
 62
3
100
AcDbLine
 10
661.8992064292077
 20
400.7377837389018
 30
0.0000000000000000
 11
591.2734615395937
 21
359.9619909157222
 31
0.0000000000000000
  0
LINE
  5
3E1
100
AcDbEntity
  8
MAIN0
  6
CONTINUOUS
 62
3
100
AcDbLine
 10
644.3992064294423
 20
431.0486728714927
 30
0.0000000000000000
 11
573.7734615400646
 21
390.2728800484495
 31
0.0000000000000000
  0
LINE
  5
3E2
100
AcDbEntity
  8
MAIN0
  6
CONTINUOUS
 62
3
100
AcDbLine
 10
661.8992064293091
 20
419.2129923528616
 30
0.0000000000000000
 11
660.3992064291779
 21
421.8110685644777
 31
0.0000000000000000
  0
ARC
  5
3E3
100
AcDbEntity
  8
MAIN0
  6
CONTINUOUS
 62
3
100
AcDbCircle
 10
538.1735990914617
 20
349.5120304593476
 30
0.0000000000000000
 40
42.00000000000000
100
AcDbArc
 50
27.95328690176039
 51
32.04671309683837
  0
LINE
  5
3E4
100
AcDbEntity
  8
MAIN0
  6
CONTINUOUS
 62
3
100
AcDbLine
 10
591.2734615395939
 20
359.9619909157220
 30
0.0000000000000000
 11
575.2734615398147
 21
369.1995952227535
 31
0.0000000000000000
  0
LINE
  5
3E5
100
AcDbEntity
  8
MAIN0
  6
CONTINUOUS
 62
3
100
AcDbLine
 10
660.3992064291779
 20
421.8110685644775
 30
0.0000000000000000
 11
644.3992064294423
 21
431.0486728714925
 31
0.0000000000000000
  0
LINE
  5
3E6
100
AcDbEntity
  8
MAIN0
  6
CONTINUOUS
 62
3
100
AcDbLine
 10
573.7734615400643
 20
390.2728800484495
 30
0.0000000000000000
 11
573.7734615399438
 21
371.7976714339559
 31
0.0000000000000000
  0
LINE
  5
3E7
100
AcDbEntity
  8
MAIN0
  6
CONTINUOUS
 62
3
100
AcDbLine
 10
661.8992064293093
 20
419.2129923528614
 30
0.0000000000000000
 11
661.8992064292080
 21
400.7377837389015
 31
0.0000000000000000
  0
ARC
  5
3E8
100
AcDbEntity
  8
MAIN0
  6
CONTINUOUS
 62
3
100
AcDbCircle
 10
697.5222733883425
 20
441.5120304584052
 30
0.0000000000000000
 40
80.00000000000000
100
AcDbArc
 50
198.0971262198932
 51
221.9028737794292
  0
ARC
  5
3E9
100
AcDbEntity
  8
MAIN0
  6
CONTINUOUS
 62
3
100
AcDbCircle
 10
697.5222733883425
 20
441.5120304584052
 30
0.0000000000000000
 40
108.5000000000000
100
AcDbArc
 50
200.7182009129837
 51
219.2817990863387
  0
ARC
  5
3EA
100
AcDbEntity
  8
MAIN0
  6
CONTINUOUS
 62
3
100
AcDbCircle
 10
697.5222733883425
 20
441.5120304584052
 30
0.0000000000000000
 40
76.50000000000000
100
AcDbArc
 50
196.7760289516323
 51
223.2239710476900
  0
ARC
  5
3EB
100
AcDbEntity
  8
MAIN0
  6
CONTINUOUS
 62
3
100
AcDbCircle
 10
697.5222733883425
 20
441.5120304584052
 30
0.0000000000000000
 40
52.00000000000000
100
AcDbArc
 50
193.2402457658740
 51
226.7597542333644
  0
ARC
  5
3EC
100
AcDbEntity
  8
MAIN0
  6
CONTINUOUS
 62
3
100
AcDbCircle
 10
697.5222733883425
 20
441.5120304584052
 30
0.0000000000000000
 40
88.00000000000000
100
AcDbArc
 50
198.5294845495838
 51
221.4705154497385
  0
ARC
  5
3ED
100
AcDbEntity
  8
MAIN0
  6
CONTINUOUS
 62
3
100
AcDbCircle
 10
538.1735990914617
 20
349.5120304593476
 30
0.0000000000000000
 40
75.09999999999999
100
AcDbArc
 50
16.52490742498916
 51
17.21875052880822
  0
ARC
  5
3EE
100
AcDbEntity
  8
MAIN0
  6
CONTINUOUS
 62
3
100
AcDbCircle
 10
538.1735990914617
 20
349.5120304593476
 30
0.0000000000000000
 40
75.09999999999999
100
AcDbArc
 50
42.78124947051407
 51
43.47509257433314
  0
ARC
  5
3EF
100
AcDbEntity
  8
MAIN0
  6
CONTINUOUS
 62
3
100
AcDbCircle
 10
538.1735990914617
 20
349.5120304593476
 30
0.0000000000000000
 40
107.0000000000000
100
AcDbArc
 50
20.58690720814273
 51
21.12913146926536
  0
ARC
  5
3F0
100
AcDbEntity
  8
MAIN0
  6
CONTINUOUS
 62
3
100
AcDbCircle
 10
538.1735990914617
 20
349.5120304593476
 30
0.0000000000000000
 40
107.0000000000000
100
AcDbArc
 50
38.87086853005694
 51
39.41309279117957
  0
ARC
  5
3F1
100
AcDbEntity
  8
MAIN0
  6
CONTINUOUS
 62
3
100
AcDbCircle
 10
602.2681392257670
 20
386.5170304589685
 30
0.0000000000000000
 40
8.000000000000000
100
AcDbArc
 50
132.5433828648003
 51
142.3465878980226
  0
ARC
  5
3F2
100
AcDbEntity
  8
MAIN0
  6
CONTINUOUS
 62
3
100
AcDbCircle
 10
602.2681392257670
 20
386.5170304589685
 30
0.0000000000000000
 40
8.000000000000000
100
AcDbArc
 50
277.6534121012998
 51
287.4566171345220
  0
ARC
  5
3F3
100
AcDbEntity
  8
MAIN0
  6
CONTINUOUS
 62
3
100
AcDbCircle
 10
697.5222733883425
 20
441.5120304584052
 30
0.0000000000000000
 40
112.0000000000000
100
AcDbArc
 50
213.9981178032634
 51
218.5308660670559
  0
ARC
  5
3F4
100
AcDbEntity
  8
MAIN0
  6
CONTINUOUS
 62
3
100
AcDbCircle
 10
697.5222733883425
 20
441.5120304584052
 30
0.0000000000000000
 40
112.0000000000000
100
AcDbArc
 50
201.4691339322664
 51
206.0018821960589
  0
LINE
  5
3F5
100
AcDbEntity
  8
MAIN0
  6
CENTER
 62
3
100
AcDbLine
 10
601.7121207929431
 20
369.4800826343932
 30
0.0000000000000000
 11
587.6457825756331
 21
393.8436951035548
 31
0.0000000000000000
  0
LINE
  5
3F6
100
AcDbEntity
  8
MAIN0
  6
CENTER
 62
3
100
AcDbLine
 10
648.4601720893866
 20
396.4700826341167
 30
0.0000000000000000
 11
634.3938338720766
 21
420.8336951032782
 31
0.0000000000000000
  0
CIRCLE
  5
3F7
100
AcDbEntity
  8
MAIN0
  6
CONTINUOUS
 62
3
100
AcDbCircle
 10
641.2219618881240
 20
409.0070304587383
 30
0.0000000000000000
 40
9.500000000000000
  0
CIRCLE
  5
3F8
100
AcDbEntity
  8
MAIN0
  6
CONTINUOUS
 62
3
100
AcDbCircle
 10
641.2219618881240
 20
409.0070304587383
 30
0.0000000000000000
 40
6.500000000000000
  0
LINE
  5
3F9
100
AcDbEntity
  8
MAIN0
  6
CONTINUOUS
 62
3
100
AcDbLine
 10
438.0101695809923
 20
431.0486728714988
 30
0.0000000000000000
 11
508.6359144701240
 21
390.2728800474836
 31
0.0000000000000000
  0
LINE
  5
3FA
100
AcDbEntity
  8
MAIN0
  6
CONTINUOUS
 62
3
100
AcDbLine
 10
420.5101695807576
 20
400.7377837391789
 30
0.0000000000000000
 11
491.1359144696531
 21
359.9619909153001
 31
0.0000000000000000
  0
LINE
  5
3FB
100
AcDbEntity
  8
MAIN0
  6
CONTINUOUS
 62
3
100
AcDbLine
 10
422.0101695810353
 20
421.8110685646067
 30
0.0000000000000000
 11
420.5101695808734
 21
419.2129923530083
 31
0.0000000000000000
  0
ARC
  5
3FC
100
AcDbEntity
  8
MAIN0
  6
CONTINUOUS
 62
3
100
AcDbCircle
 10
544.2357769179531
 20
349.5120304581293
 30
0.0000000000000000
 40
42.00000000000000
100
AcDbArc
 50
147.9532869017603
 51
152.0467130968383
  0
LINE
  5
3FD
100
AcDbEntity
  8
MAIN0
  6
CONTINUOUS
 62
3
100
AcDbLine
 10
508.6359144701243
 20
390.2728800474839
 30
0.0000000000000000
 11
508.6359144700160
 21
371.7976714336083
 31
0.0000000000000000
  0
LINE
  5
3FE
100
AcDbEntity
  8
MAIN0
  6
CONTINUOUS
 62
3
100
AcDbLine
 10
420.5101695808735
 20
419.2129923530084
 30
0.0000000000000000
 11
420.5101695807576
 21
400.7377837391791
 31
0.0000000000000000
  0
LINE
  5
3FF
100
AcDbEntity
  8
MAIN0
  6
CONTINUOUS
 62
3
100
AcDbLine
 10
491.1359144696529
 20
359.9619909153001
 30
0.0000000000000000
 11
507.1359144700817
 21
369.1995952224425
 31
0.0000000000000000
  0
LINE
  5
400
100
AcDbEntity
  8
MAIN0
  6
CONTINUOUS
 62
3
100
AcDbLine
 10
422.0101695810355
 20
421.8110685646069
 30
0.0000000000000000
 11
438.0101695809925
 21
431.0486728714992
 31
0.0000000000000000
  0
ARC
  5
401
100
AcDbEntity
  8
MAIN0
  6
CONTINUOUS
 62
3
100
AcDbCircle
 10
384.8871026221607
 20
441.5120304590719
 30
0.0000000000000000
 40
80.00000000000000
100
AcDbArc
 50
318.0971262198931
 51
341.9028737794291
  0
ARC
  5
402
100
AcDbEntity
  8
MAIN0
  6
CONTINUOUS
 62
3
100
AcDbCircle
 10
384.8871026221607
 20
441.5120304590719
 30
0.0000000000000000
 40
108.5000000000000
100
AcDbArc
 50
320.7182009129836
 51
339.2817990863387
  0
ARC
  5
403
100
AcDbEntity
  8
MAIN0
  6
CONTINUOUS
 62
3
100
AcDbCircle
 10
384.8871026221607
 20
441.5120304590719
 30
0.0000000000000000
 40
76.50000000000000
100
AcDbArc
 50
316.7760289516322
 51
343.2239710476899
  0
ARC
  5
404
100
AcDbEntity
  8
MAIN0
  6
CONTINUOUS
 62
3
100
AcDbCircle
 10
384.8871026221607
 20
441.5120304590719
 30
0.0000000000000000
 40
52.00000000000000
100
AcDbArc
 50
313.2402457658739
 51
346.7597542333642
  0
ARC
  5
405
100
AcDbEntity
  8
MAIN0
  6
CONTINUOUS
 62
3
100
AcDbCircle
 10
384.8871026221607
 20
441.5120304590719
 30
0.0000000000000000
 40
88.00000000000000
100
AcDbArc
 50
318.5294845495837
 51
341.4705154497385
  0
ARC
  5
406
100
AcDbEntity
  8
MAIN0
  6
CONTINUOUS
 62
3
100
AcDbCircle
 10
544.2357769179531
 20
349.5120304581293
 30
0.0000000000000000
 40
75.09999999999999
100
AcDbArc
 50
136.5249074249891
 51
137.2187505288081
  0
ARC
  5
407
100
AcDbEntity
  8
MAIN0
  6
CONTINUOUS
 62
3
100
AcDbCircle
 10
544.2357769179531
 20
349.5120304581293
 30
0.0000000000000000
 40
75.09999999999999
100
AcDbArc
 50
162.7812494705140
 51
163.4750925743331
  0
ARC
  5
408
100
AcDbEntity
  8
MAIN0
  6
CONTINUOUS
 62
3
100
AcDbCircle
 10
544.2357769179531
 20
349.5120304581293
 30
0.0000000000000000
 40
107.0000000000000
100
AcDbArc
 50
140.5869072081426
 51
141.1291314692653
  0
ARC
  5
409
100
AcDbEntity
  8
MAIN0
  6
CONTINUOUS
 62
3
100
AcDbCircle
 10
544.2357769179531
 20
349.5120304581293
 30
0.0000000000000000
 40
107.0000000000000
100
AcDbArc
 50
158.8708685300568
 51
159.4130927911795
  0
ARC
  5
40A
100
AcDbEntity
  8
MAIN0
  6
CONTINUOUS
 62
3
100
AcDbCircle
 10
480.1412367840857
 20
386.5170304585085
 30
0.0000000000000000
 40
8.000000000000000
100
AcDbArc
 50
252.5433828648002
 51
262.3465878980225
  0
ARC
  5
40B
100
AcDbEntity
  8
MAIN0
  6
CONTINUOUS
 62
3
100
AcDbCircle
 10
480.1412367840857
 20
386.5170304585085
 30
0.0000000000000000
 40
8.000000000000000
100
AcDbArc
 50
37.65341210129971
 51
47.45661713452192
  0
ARC
  5
40C
100
AcDbEntity
  8
MAIN0
  6
CONTINUOUS
 62
3
100
AcDbCircle
 10
384.8871026221607
 20
441.5120304590719
 30
0.0000000000000000
 40
112.0000000000000
100
AcDbArc
 50
333.9981178032634
 51
338.5308660670559
  0
ARC
  5
40D
100
AcDbEntity
  8
MAIN0
  6
CONTINUOUS
 62
3
100
AcDbCircle
 10
384.8871026221607
 20
441.5120304590719
 30
0.0000000000000000
 40
112.0000000000000
100
AcDbArc
 50
321.4691339322663
 51
326.0018821960588
  0
LINE
  5
40E
100
AcDbEntity
  8
MAIN0
  6
CENTER
 62
3
100
AcDbLine
 10
495.1736756195299
 20
394.5539782829983
 30
0.0000000000000000
 11
481.1073374019317
 21
370.1903658140031
 31
0.0000000000000000
  0
LINE
  5
40F
100
AcDbEntity
  8
MAIN0
  6
CENTER
 62
3
100
AcDbLine
 10
448.4256243234056
 20
421.5439782832748
 30
0.0000000000000000
 11
434.3592861058074
 21
397.1803658142797
 31
0.0000000000000000
  0
CIRCLE
  5
410
100
AcDbEntity
  8
MAIN0
  6
CONTINUOUS
 62
3
100
AcDbCircle
 10
441.1874141219946
 20
409.0070304587389
 30
0.0000000000000000
 40
9.500000000000000
  0
CIRCLE
  5
411
100
AcDbEntity
  8
MAIN0
  6
CONTINUOUS
 62
3
100
AcDbCircle
 10
441.1874141219946
 20
409.0070304587389
 30
0.0000000000000000
 40
6.500000000000000
  0
LINE
  5
412
100
AcDbEntity
  8
MAIN0
  6
CONTINUOUS
 62
3
100
AcDbLine
 10
451.0301954320086
 20
310.4488331419840
 30
0.0000000000000000
 11
448.8651319225423
 21
309.1988331419817
 31
0.0000000000000000
  0
LINE
  5
413
100
AcDbEntity
  8
MAIN0
  6
CONTINUOUS
 62
3
100
AcDbLine
 10
445.2801954320075
 20
320.4081252855272
 30
0.0000000000000000
 11
451.0301954320039
 21
310.4488331419814
 31
0.0000000000000000
  0
LINE
  5
414
100
AcDbEntity
  8
MAIN0
  6
CONTINUOUS
 62
3
100
AcDbLine
 10
448.1151319225453
 20
310.4978712476602
 30
0.0000000000000000
 11
448.8651319225411
 21
309.1988331419843
 31
0.0000000000000000
  0
LINE
  5
415
100
AcDbEntity
  8
MAIN0
  6
CONTINUOUS
 62
3
100
AcDbLine
 10
448.1151319225453
 20
310.4978712476601
 30
0.0000000000000000
 11
445.9500684130839
 21
309.2478712476606
 31
0.0000000000000000
  0
LINE
  5
416
100
AcDbEntity
  8
MAIN0
  6
CONTINUOUS
 62
3
100
AcDbLine
 10
445.2000684130857
 20
310.5469093533382
 30
0.0000000000000000
 11
445.9500684130839
 21
309.2478712476605
 31
0.0000000000000000
  0
LINE
  5
417
100
AcDbEntity
  8
MAIN0
  6
CONTINUOUS
 62
3
100
AcDbLine
 10
442.5350049036254
 20
310.1629347571240
 30
0.0000000000000000
 11
443.0350049036235
 21
309.2969093533384
 31
0.0000000000000000
  0
LINE
  5
418
100
AcDbEntity
  8
MAIN0
  6
CONTINUOUS
 62
3
100
AcDbLine
 10
445.2000684130857
 20
310.5469093533383
 30
0.0000000000000000
 11
443.0350049036235
 21
309.2969093533383
 31
0.0000000000000000
  0
LINE
  5
419
100
AcDbEntity
  8
MAIN0
  6
CONTINUOUS
 62
3
100
AcDbLine
 10
445.1542437347279
 20
308.4978268848158
 30
0.0000000000000000
 11
441.5944146642172
 21
306.4425586126883
 31
0.0000000000000000
  0
LINE
  5
41A
100
AcDbEntity
  8
MAIN0
  6
CONTINUOUS
 62
3
100
AcDbLine
 10
439.7410298124703
 20
305.3725063697515
 30
0.0000000000000000
 11
441.3076950298299
 21
306.9391715871069
 31
0.0000000000000000
  0
LINE
  5
41B
100
AcDbEntity
  8
MAIN0
  6
CONTINUOUS
 62
3
100
AcDbLine
 10
439.7410298125834
 20
305.3725063695553
 30
0.0000000000000000
 11
441.8811342987186
 21
305.9459456383356
 31
0.0000000000000000
  0
MTEXT
  5
41C
100
AcDbEntity
  8
MAIN0
  6
CONTINUOUS
 62
3
100
AcDbMText
 10
438.0817222895525
 20
306.6370577774018
 30
0.0000000000000000
 40
4.000000000000000
 41
0.0000000000000000
 71
     1
 72
     1
  1
{\H0.59x;{ΣＳ}}
 11
0.5000000000000009
 21
-0.8660254037844382
 31
0.0000000000000000
  7
KNJYOKO
  0
LINE
  5
41D
100
AcDbEntity
  8
MAIN0
  6
CONTINUOUS
 62
3
100
AcDbLine
 10
449.0301954320096
 20
313.9129347571223
 30
0.0000000000000000
 11
433.4417381638878
 21
304.9129347571258
 31
0.0000000000000000
  0
LINE
  5
41E
100
AcDbEntity
  8
MAIN0
  6
CONTINUOUS
 62
3
100
AcDbLine
 10
429.6917381638913
 20
311.4081252855205
 30
0.0000000000000000
 11
433.4417381638873
 21
304.9129347571264
 31
0.0000000000000000
  0
LINE
  5
41F
100
AcDbEntity
  8
MAIN0
  6
CONTINUOUS
 62
3
100
AcDbLine
 10
445.2801954320113
 20
320.4081252855295
 30
0.0000000000000000
 11
429.6917381638914
 21
311.4081252855204
 31
0.0000000000000000
  0
LINE
  5
420
100
AcDbEntity
  8
MAIN0
  6
CONTINUOUS
 62
3
100
AcDbLine
 10
453.6503859603775
 20
320.9105300213488
 30
0.0000000000000000
 11
447.1551954320025
 21
317.1605300213344
 31
0.0000000000000000
  0
LINE
  5
421
100
AcDbEntity
  8
MAIN0
  6
CONTINUOUS
 62
3
100
AcDbLine
 10
450.1096758645077
 20
321.7523048675125
 30
0.0000000000000000
 11
448.3133619110732
 21
320.2450184917058
 31
0.0000000000000000
  0
LINE
  5
422
100
AcDbEntity
  8
MAIN0
  6
CONTINUOUS
 62
3
100
AcDbLine
 10
449.9449117914733
 20
319.8690428951168
 30
0.0000000000000000
 11
448.3133619110732
 21
320.2450184917056
 31
0.0000000000000000
  0
LINE
  5
423
100
AcDbEntity
  8
MAIN0
  6
CONTINUOUS
 62
3
100
AcDbLine
 10
450.1096758645077
 20
321.7523048675125
 30
0.0000000000000000
 11
449.9449117914733
 21
319.8690428951169
 31
0.0000000000000000
  0
ARC
  5
424
100
AcDbEntity
  8
MAIN0
  6
CONTINUOUS
 62
3
100
AcDbCircle
 10
451.7018288018666
 20
319.7855300213416
 30
0.0000000000000000
 40
2.530445468977860
100
AcDbArc
 50
173.2530843414756
 51
300.0000000000001
  0
LINE
  5
425
100
AcDbEntity
  8
MAIN0
  6
CONTINUOUS
 62
3
100
AcDbLine
 10
451.7753859603960
 20
324.1581252855185
 30
0.0000000000000000
 11
455.5253859603970
 21
317.6629347571131
 31
0.0000000000000000
  0
LINE
  5
426
100
AcDbEntity
  8
MAIN0
  6
CONTINUOUS
 62
3
100
AcDbLine
 10
441.3076950297815
 20
306.9391715870584
 30
0.0000000000000000
 11
441.8811342986531
 21
305.9459456383178
 31
0.0000000000000000
  0
MTEXT
  5
427
100
AcDbEntity
  8
MAIN0
  6
CONTINUOUS
 62
3
100
AcDbMText
 10
453.7801954320116
 20
305.6856934211921
 30
0.0000000000000000
 40
4.000000000000000
 41
0.0000000000000000
 71
     1
 72
     1
  1
{\H0.60x;{T MAX 176.5 N・m\PΣS MAX 46 KN\PMASS 29 kg}}
 11
0.4999999999999986
 21
-0.8660254037844395
 31
0.0000000000000000
  7
KNJYOKO
  0
MTEXT
  5
428
100
AcDbEntity
  8
MAIN0
  6
CONTINUOUS
 62
3
100
AcDbMText
 10
454.8495677484685
 20
316.3179778668071
 30
0.0000000000000000
 40
4.000000000000000
 41
0.0000000000000000
 71
     1
 72
     1
  1
{\H0.63x;{T}}
 11
0.5000000000000009
 21
-0.8660254037844382
 31
0.0000000000000000
  7
STANDARD
  0
LINE
  5
429
100
AcDbEntity
  8
MAIN0
  6
PHANTOM
 62
3
100
AcDbLine
 10
629.2046880050605
 20
540.6620304587385
 30
0.0000000000000000
 11
629.2046880050605
 21
521.8620304587386
 31
0.0000000000000000
  0
LINE
  5
42A
100
AcDbEntity
  8
MAIN0
  6
PHANTOM
 62
3
100
AcDbLine
 10
638.6046880050606
 20
541.2620304587385
 30
0.0000000000000000
 11
629.8046880050606
 21
541.2620304587385
 31
0.0000000000000000
  0
LINE
  5
42B
100
AcDbEntity
  8
MAIN0
  6
PHANTOM
 62
3
100
AcDbLine
 10
639.2046880050605
 20
540.6620304587385
 30
0.0000000000000000
 11
639.2046880050605
 21
521.8620304587386
 31
0.0000000000000000
  0
LINE
  5
42C
100
AcDbEntity
  8
MAIN0
  6
PHANTOM
 62
3
100
AcDbLine
 10
638.6046880050606
 20
521.2620304587385
 30
0.0000000000000000
 11
629.8046880050606
 21
521.2620304587385
 31
0.0000000000000000
  0
LINE
  5
42D
100
AcDbEntity
  8
MAIN0
  6
PHANTOM
 62
3
100
AcDbLine
 10
639.2046880050605
 20
536.2620304587385
 30
0.0000000000000000
 11
629.2046880050605
 21
536.2620304587385
 31
0.0000000000000000
  0
LINE
  5
42E
100
AcDbEntity
  8
MAIN0
  6
PHANTOM
 62
3
100
AcDbLine
 10
639.2046880050605
 20
526.2620304587385
 30
0.0000000000000000
 11
629.2046880050605
 21
526.2620304587385
 31
0.0000000000000000
  0
LINE
  5
42F
100
AcDbEntity
  8
MAIN0
  6
PHANTOM
 62
3
100
AcDbLine
 10
639.2046880050610
 20
540.6620304587389
 30
0.0000000000000000
 11
638.6046880050610
 21
541.2620304587388
 31
0.0000000000000000
  0
LINE
  5
430
100
AcDbEntity
  8
MAIN0
  6
PHANTOM
 62
3
100
AcDbLine
 10
629.8046880050606
 20
541.2620304587388
 30
0.0000000000000000
 11
629.2046880050605
 21
540.6620304587389
 31
0.0000000000000000
  0
LINE
  5
431
100
AcDbEntity
  8
MAIN0
  6
PHANTOM
 62
3
100
AcDbLine
 10
629.2046880050610
 20
521.8620304587387
 30
0.0000000000000000
 11
629.8046880050608
 21
521.2620304587387
 31
0.0000000000000000
  0
LINE
  5
432
100
AcDbEntity
  8
MAIN0
  6
PHANTOM
 62
3
100
AcDbLine
 10
638.6046880050601
 20
521.2620304587385
 30
0.0000000000000000
 11
639.2046880050601
 21
521.8620304587385
 31
0.0000000000000000
  0
LINE
  5
433
100
AcDbEntity
  8
MAIN0
  6
PHANTOM
 62
3
100
AcDbLine
 10
779.2046880050591
 20
540.6620304587385
 30
0.0000000000000000
 11
779.2046880050591
 21
521.8620304587386
 31
0.0000000000000000
  0
LINE
  5
434
100
AcDbEntity
  8
MAIN0
  6
PHANTOM
 62
3
100
AcDbLine
 10
769.2046880050592
 20
540.6620304587385
 30
0.0000000000000000
 11
769.2046880050592
 21
521.8620304587386
 31
0.0000000000000000
  0
LINE
  5
435
100
AcDbEntity
  8
MAIN0
  6
PHANTOM
 62
3
100
AcDbLine
 10
769.8046880050594
 20
541.2620304587385
 30
0.0000000000000000
 11
778.6046880050592
 21
541.2620304587385
 31
0.0000000000000000
  0
LINE
  5
436
100
AcDbEntity
  8
MAIN0
  6
PHANTOM
 62
3
100
AcDbLine
 10
769.8046880050594
 20
521.2620304587385
 30
0.0000000000000000
 11
778.6046880050592
 21
521.2620304587385
 31
0.0000000000000000
  0
LINE
  5
437
100
AcDbEntity
  8
MAIN0
  6
PHANTOM
 62
3
100
AcDbLine
 10
769.2046880050592
 20
536.2620304587385
 30
0.0000000000000000
 11
779.2046880050591
 21
536.2620304587385
 31
0.0000000000000000
  0
LINE
  5
438
100
AcDbEntity
  8
MAIN0
  6
PHANTOM
 62
3
100
AcDbLine
 10
769.2046880050592
 20
526.2620304587385
 30
0.0000000000000000
 11
779.2046880050591
 21
526.2620304587385
 31
0.0000000000000000
  0
LINE
  5
439
100
AcDbEntity
  8
MAIN0
  6
PHANTOM
 62
3
100
AcDbLine
 10
778.6046880050592
 20
541.2620304587385
 30
0.0000000000000000
 11
779.2046880050591
 21
540.6620304587384
 31
0.0000000000000000
  0
LINE
  5
43A
100
AcDbEntity
  8
MAIN0
  6
PHANTOM
 62
3
100
AcDbLine
 10
769.8046880050595
 20
541.2620304587384
 30
0.0000000000000000
 11
769.2046880050598
 21
540.6620304587385
 31
0.0000000000000000
  0
LINE
  5
43B
100
AcDbEntity
  8
MAIN0
  6
PHANTOM
 62
3
100
AcDbLine
 10
769.2046880050591
 20
521.8620304587386
 30
0.0000000000000000
 11
769.8046880050590
 21
521.2620304587387
 31
0.0000000000000000
  0
LINE
  5
43C
100
AcDbEntity
  8
MAIN0
  6
PHANTOM
 62
3
100
AcDbLine
 10
778.6046880050592
 20
521.2620304587383
 30
0.0000000000000000
 11
779.2046880050591
 21
521.8620304587385
 31
0.0000000000000000
  0
LINE
  5
43D
100
AcDbEntity
  8
MAIN0
  6
PHANTOM
 62
3
100
AcDbLine
 10
639.2046880050605
 20
537.2620304587385
 30
0.0000000000000000
 11
648.5546881481105
 21
537.2620304587385
 31
0.0000000000000000
  0
LINE
  5
43E
100
AcDbEntity
  8
MAIN0
  6
PHANTOM
 62
3
100
AcDbLine
 10
657.7046880050591
 20
537.2620304587385
 30
0.0000000000000000
 11
666.2046880050604
 21
537.2620304587385
 31
0.0000000000000000
  0
LINE
  5
43F
100
AcDbEntity
  8
MAIN0
  6
PHANTOM
 62
3
100
AcDbLine
 10
639.2046880050605
 20
525.2620304587385
 30
0.0000000000000000
 11
648.5546881481102
 21
525.2620304587385
 31
0.0000000000000000
  0
LINE
  5
440
100
AcDbEntity
  8
MAIN0
  6
PHANTOM
 62
3
100
AcDbLine
 10
657.7046880050593
 20
525.2620304587385
 30
0.0000000000000000
 11
666.2046880050604
 21
525.2620304587385
 31
0.0000000000000000
  0
INSERT
  5
44D
100
AcDbEntity
  8
MAIN0
  6
PHANTOM
 62
3
100
AcDbBlockReference
  2
*X4
 10
0.0000000000000000
 20
0.0000000000000000
 30
0.0000000000000000
 50
0.0000000000000000
  0
INSERT
  5
45A
100
AcDbEntity
  8
MAIN0
  6
PHANTOM
 62
3
100
AcDbBlockReference
  2
*X5
 10
0.0000000000000000
 20
0.0000000000000000
 30
0.0000000000000000
 50
0.0000000000000000
  0
INSERT
  5
467
100
AcDbEntity
  8
MAIN0
  6
PHANTOM
 62
3
100
AcDbBlockReference
  2
*X6
 10
0.0000000000000000
 20
0.0000000000000000
 30
0.0000000000000000
 50
0.0000000000000000
  0
INSERT
  5
474
100
AcDbEntity
  8
MAIN0
  6
PHANTOM
 62
3
100
AcDbBlockReference
  2
*X7
 10
0.0000000000000000
 20
0.0000000000000000
 30
0.0000000000000000
 50
0.0000000000000000
  0
CIRCLE
  5
475
100
AcDbEntity
  8
MAIN0
  6
CONTINUOUS
 62
3
100
AcDbCircle
 10
541.2046880053781
 20
289.7520304587387
 30
0.0000000000000000
 40
9.500000000000000
  0
CIRCLE
  5
476
100
AcDbEntity
  8
MAIN0
  6
CONTINUOUS
 62
3
100
AcDbCircle
 10
541.2046880053781
 20
289.7520304587387
 30
0.0000000000000000
 40
6.500000000000000
  0
CIRCLE
  5
477
100
AcDbEntity
  8
MAIN0
  6
CONTINUOUS
 62
3
100
AcDbCircle
 10
594.4739105916804
 20
382.0170304590147
 30
0.0000000000000000
 40
9.500000000000000
  0
CIRCLE
  5
478
100
AcDbEntity
  8
MAIN0
  6
CONTINUOUS
 62
3
100
AcDbCircle
 10
594.4739105916804
 20
382.0170304590147
 30
0.0000000000000000
 40
6.500000000000000
  0
CIRCLE
  5
479
100
AcDbEntity
  8
MAIN0
  6
CONTINUOUS
 62
3
100
AcDbCircle
 10
487.9354654181191
 20
382.0170304584624
 30
0.0000000000000000
 40
9.500000000000000
  0
CIRCLE
  5
47A
100
AcDbEntity
  8
MAIN0
  6
CONTINUOUS
 62
3
100
AcDbCircle
 10
487.9354654181191
 20
382.0170304584624
 30
0.0000000000000000
 40
6.500000000000000
  0
INSERT
  5
486
100
AcDbEntity
  8
A0
  6
CONTINUOUS
 62
3
100
AcDbBlockReference
  2
M0
 10
0.0000000000000000
 20
0.0000000000000000
 30
0.0000000000000000
 50
0.0000000000000000
  0
MTEXT
  5
487
100
AcDbEntity
  8
A0
  6
CONTINUOUS
 62
3
100
AcDbMText
 10
467.6771120866472
 20
116.0118645150472
 30
0.0000000000000000
 40
4.649999856948853
 41
0.0000000000000000
 71
     1
 72
     1
  1
{\H0.94x;{本スクロールチャックは円テーブル上で工作物を}}
 11
1.000000000000000
 21
0.0000000000000000
 31
0.0000000000000000
  7
KNJYOKO
  0
MTEXT
  5
488
100
AcDbEntity
  8
A0
  6
CONTINUOUS
 62
3
100
AcDbMText
 10
467.6771120866472
 20
108.5118645150472
 30
0.0000000000000000
 40
4.649999856948853
 41
0.0000000000000000
 71
     1
 72
     1
  1
{\H0.94x;{把握することに適しています。それ以外の用途の}}
 11
1.000000000000000
 21
0.0000000000000000
 31
0.0000000000000000
  7
KNJYOKO
  0
MTEXT
  5
489
100
AcDbEntity
  8
A0
  6
CONTINUOUS
 62
3
100
AcDbMText
 10
467.6771120866472
 20
101.0118645150473
 30
0.0000000000000000
 40
4.649999856948853
 41
0.0000000000000000
 71
     1
 72
     1
  1
{\H0.94x;{場合、事前に弊社にご相談下さい。}}
 11
1.000000000000000
 21
0.0000000000000000
 31
0.0000000000000000
  7
KNJYOKO
  0
MTEXT
  5
48A
100
AcDbEntity
  8
A0
  6
CONTINUOUS
 62
3
100
AcDbMText
 10
416.1276348911118
 20
60.23597442932221
 30
0.0000000000000000
 40
4.199998855590820
 41
0.0000000000000000
 71
     7
 72
     1
  1
{　　Kg・m}
 11
1.000000000000000
 21
0.0000000000000000
 31
0.0000000000000000
  7
KNJYOKO
  0
MTEXT
  5
48B
100
AcDbEntity
  8
A0
  6
CONTINUOUS
 62
3
100
AcDbMText
 10
433.9276346050095
 20
62.33597385711762
 30
0.0000000000000000
 40
2.099999427795410
 41
0.0000000000000000
 71
     7
 72
     1
  1
{2}
 11
1.000000000000000
 21
0.0000000000000000
 31
0.0000000000000000
  7
STANDARD
  0
MTEXT
  5
48C
100
AcDbEntity
  8
A0
  6
CONTINUOUS
 62
3
100
AcDbMText
 10
317.2025149349148
 20
33.10605833021653
 30
0.0000000000000000
 40
4.650000572204590
 41
0.0000000000000000
 71
     1
 72
     1
  1
{\H0.95x;{○上記仕様は許容最大ハンドルトルク締込時の場合}}
 11
1.000000000000000
 21
0.0000000000000000
 31
0.0000000000000000
  7
KNJYOKO
  0
MTEXT
  5
48D
100
AcDbEntity
  8
A0
  6
CONTINUOUS
 62
3
100
AcDbMText
 10
399.6771120866472
 20
104.5118645151001
 30
0.0000000000000000
 40
4.649999856948853
 41
0.0000000000000000
 71
     1
 72
     1
  1
{\H0.81x;{18.0}}
 11
1.000000000000000
 21
0.0000000000000000
 31
0.0000000000000000
  7
STANDARD
  0
MTEXT
  5
48E
100
AcDbEntity
  8
A0
  6
CONTINUOUS
 62
3
100
AcDbMText
 10
399.6771120866472
 20
89.51186451509990
 30
0.0000000000000000
 40
4.649999856948853
 41
0.0000000000000000
 71
     1
 72
     1
  1
{\H0.91x;{4691}}
 11
1.000000000000000
 21
0.0000000000000000
 31
0.0000000000000000
  7
STANDARD
  0
MTEXT
  5
48F
100
AcDbEntity
  8
A0
  6
CONTINUOUS
 62
3
100
AcDbMText
 10
395.1771120866472
 20
111.2618645151001
 30
0.0000000000000000
 40
4.649999856948853
 41
0.0000000000000000
 71
     1
 72
     1
  1
{\H0.84x;{176.5}}
 11
1.000000000000000
 21
0.0000000000000000
 31
0.0000000000000000
  7
STANDARD
  0
MTEXT
  5
490
100
AcDbEntity
  8
A0
  6
CONTINUOUS
 62
3
100
AcDbMText
 10
395.1771120866472
 20
96.26186451509990
 30
0.0000000000000000
 40
4.649999856948853
 41
0.0000000000000000
 71
     1
 72
     1
  1
{\H0.88x;{46}}
 11
1.000000000000000
 21
0.0000000000000000
 31
0.0000000000000000
  7
STANDARD
  0
MTEXT
  5
491
100
AcDbEntity
  8
A0
  6
CONTINUOUS
 62
3
100
AcDbMText
 10
395.1771120866472
 20
79.51186451509985
 30
0.0000000000000000
 40
4.649999856948853
 41
0.0000000000000000
 71
     1
 72
     1
  1
{\H0.88x;{29}}
 11
1.000000000000000
 21
0.0000000000000000
 31
0.0000000000000000
  7
STANDARD
  0
MTEXT
  5
492
100
AcDbEntity
  8
A0
  6
CONTINUOUS
 62
3
100
AcDbMText
 10
395.1771120866038
 20
54.01186451509501
 30
0.0000000000000000
 40
4.649999856948853
 41
0.0000000000000000
 71
     1
 72
     1
  1
{\H0.93x;{\U+22055～\U+2205260}}
 11
1.000000000000000
 21
0.0000000000000000
 31
0.0000000000000000
  7
KNJYOKO
  0
MTEXT
  5
493
100
AcDbEntity
  8
A0
  6
CONTINUOUS
 62
3
100
AcDbMText
 10
395.1771120866038
 20
43.51186451509496
 30
0.0000000000000000
 40
4.649999856948853
 41
0.0000000000000000
 71
     1
 72
     1
  1
{\H0.93x;{\U+220580～\U+2205250}}
 11
1.000000000000000
 21
0.0000000000000000
 31
0.0000000000000000
  7
KNJYOKO
  0
MTEXT
  5
494
100
AcDbEntity
  8
A0
  6
CONTINUOUS
 62
3
100
AcDbMText
 10
318.2300874170213
 20
47.50895174922842
 30
0.0000000000000000
 40
3.750000000000000
 41
0.0000000000000000
 71
     1
 72
     1
  1
{\H0.54x;{GRIPPING RANGE}}
 11
1.000000000000000
 21
0.0000000000000000
 31
0.0000000000000000
  7
STANDARD
  0
MTEXT
  5
495
100
AcDbEntity
  8
A0
  6
CONTINUOUS
 62
3
100
AcDbMText
 10
329.8672392795298
 20
41.41050340078984
 30
0.0000000000000000
 40
4.500000000000000
 41
0.0000000000000000
 71
     1
 72
     1
  1
{\H0.63x;{(mm)}}
 11
1.000000000000000
 21
0.0000000000000000
 31
0.0000000000000000
  7
STANDARD
  0
MTEXT
  5
496
100
AcDbEntity
  8
A0
  6
CONTINUOUS
 62
3
100
AcDbMText
 10
322.0290790516948
 20
55.09517852159878
 30
0.0000000000000000
 40
4.650000572204590
 41
0.0000000000000000
 71
     1
 72
     1
  1
{\H0.96x;{把握径}}
 11
1.000000000000000
 21
0.0000000000000000
 31
0.0000000000000000
  7
KNJYOKO
  0
MTEXT
  5
497
100
AcDbEntity
  8
A0
  6
CONTINUOUS
 62
3
100
AcDbMText
 10
320.4219718303069
 20
68.66882284306335
 30
0.0000000000000000
 40
3.750000000000000
 41
0.0000000000000000
 71
     1
 72
     1
  1
{\H0.63x;{慣性モーメント\PMOMENT OF INERTIA\P}
 11
1.000000000000000
 21
0.0000000000000000
 31
0.0000000000000000
  7
KNJYOKO
  0
MTEXT
  5
498
100
AcDbEntity
  8
A0
  6
CONTINUOUS
 62
3
100
AcDbMText
 10
320.4219718303069
 20
82.13199814202058
 30
0.0000000000000000
 40
3.750000000000000
 41
0.0000000000000000
 71
     1
 72
     1
  1
{\H0.63x;{質量\PMASS}}
 11
1.000000000000000
 21
0.0000000000000000
 31
0.0000000000000000
  7
KNJYOKO
  0
MTEXT
  5
499
100
AcDbEntity
  8
A0
  6
CONTINUOUS
 62
3
100
AcDbMText
 10
320.9271120866467
 20
88.98686465818646
 30
0.0000000000000000
 40
3.750000000000000
 41
0.0000000000000000
 71
     1
 72
     1
  1
{\H0.63x;{MAX STATIC GRIPPING FORCE}}
 11
1.000000000000000
 21
0.0000000000000000
 31
0.0000000000000000
  7
STANDARD
  0
MTEXT
  5
49A
100
AcDbEntity
  8
A0
  6
CONTINUOUS
 62
3
100
AcDbMText
 10
320.9271120866488
 20
96.63686523040100
 30
0.0000000000000000
 40
4.650000572204590
 41
0.0000000000000000
 71
     1
 72
     1
  1
{\H0.94x;{最大静的把握力}}
 11
1.000000000000000
 21
0.0000000000000000
 31
0.0000000000000000
  7
KNJYOKO
  0
MTEXT
  5
49B
100
AcDbEntity
  8
A0
  6
CONTINUOUS
 62
3
100
AcDbMText
 10
320.9271120866489
 20
111.6368652304054
 30
0.0000000000000000
 40
4.650000572204590
 41
0.0000000000000000
 71
     1
 72
     1
  1
{\H0.94x;{許容最大ハンドルトルク}}
 11
1.000000000000000
 21
0.0000000000000000
 31
0.0000000000000000
  7
KNJYOKO
  0
MTEXT
  5
49C
100
AcDbEntity
  8
A0
  6
CONTINUOUS
 62
3
100
AcDbMText
 10
320.9271120866467
 20
103.9868646581909
 30
0.0000000000000000
 40
3.750000000000000
 41
0.0000000000000000
 71
     1
 72
     1
  1
{\H0.62x;{MAX.PERMISSIBLE HANDLE TORQUE}}
 11
1.000000000000000
 21
0.0000000000000000
 31
0.0000000000000000
  7
STANDARD
  0
LINE
  5
49D
100
AcDbEntity
  8
A0
  6
CONTINUOUS
 62
3
100
AcDbLine
 10
317.1771120866471
 20
98.36186465819084
 30
0.0000000000000000
 11
437.1771120866471
 21
98.36186465821812
 31
0.0000000000000000
  0
LINE
  5
49E
100
AcDbEntity
  8
A0
  6
CONTINUOUS
 62
3
100
AcDbLine
 10
317.1771120866470
 20
83.36186465818649
 30
0.0000000000000000
 11
437.1771120866470
 21
83.36186465821075
 31
0.0000000000000000
  0
LINE
  5
49F
100
AcDbEntity
  8
A0
  6
CONTINUOUS
 62
3
100
AcDbLine
 10
317.1771120866470
 20
71.86186465818049
 30
0.0000000000000000
 11
437.1771120866472
 21
71.86186465820062
 31
0.0000000000000000
  0
LINE
  5
4A0
100
AcDbEntity
  8
A0
  6
CONTINUOUS
 62
3
100
AcDbLine
 10
317.1771120866472
 20
56.86186465814620
 30
0.0000000000000000
 11
437.1771120866471
 21
56.86186465814625
 31
0.0000000000000000
  0
MTEXT
  5
4A1
100
AcDbEntity
  8
A0
  6
CONTINUOUS
 62
3
100
AcDbMText
 10
347.6407822026522
 20
56.33847478293002
 30
0.0000000000000000
 40
3.750000000000000
 41
0.0000000000000000
 71
     1
 72
     1
  1
{\H0.60x;{OUTER DIA.\PGRIPPING}}
 11
1.000000000000000
 21
0.0000000000000000
 31
0.0000000000000000
  7
STANDARD
  0
LINE
  5
4A2
100
AcDbEntity
  8
A0
  6
CONTINUOUS
 62
3
100
AcDbLine
 10
346.4271120866472
 20
35.86186465814622
 30
0.0000000000000000
 11
346.4271120866472
 21
56.86186465814616
 31
0.0000000000000000
  0
LINE
  5
4A3
100
AcDbEntity
  8
A0
  6
CONTINUOUS
 62
3
100
AcDbLine
 10
317.1771120866472
 20
35.86186465814610
 30
0.0000000000000000
 11
437.1771120866472
 21
35.86186465814619
 31
0.0000000000000000
  0
MTEXT
  5
4A4
100
AcDbEntity
  8
A0
  6
CONTINUOUS
 62
3
100
AcDbMText
 10
347.5631680598759
 20
45.70539615959218
 30
0.0000000000000000
 40
3.750000000000000
 41
0.0000000000000000
 71
     1
 72
     1
  1
{\H0.60x;{INNER DIA.\PGRIPPING}}
 11
1.000000000000000
 21
0.0000000000000000
 31
0.0000000000000000
  7
STANDARD
  0
LINE
  5
4A5
100
AcDbEntity
  8
A0
  6
CONTINUOUS
 62
3
100
AcDbLine
 10
346.4271120866473
 20
46.36186465814609
 30
0.0000000000000000
 11
437.1771120866471
 21
46.36186465814618
 31
0.0000000000000000
  0
MTEXT
  5
4A6
100
AcDbEntity
  8
A0
  6
CONTINUOUS
 62
3
100
AcDbMText
 10
371.0025124637351
 20
43.34561970104114
 30
0.0000000000000000
 40
4.649999856948853
 41
0.0000000000000000
 71
     1
 72
     1
  1
{\H0.92x;{内径把握}}
 11
1.000000000000000
 21
0.0000000000000000
 31
0.0000000000000000
  7
KNJYOKO
  0
MTEXT
  5
4A7
100
AcDbEntity
  8
A0
  6
CONTINUOUS
 62
3
100
AcDbMText
 10
371.0025124637351
 20
54.05631246715514
 30
0.0000000000000000
 40
4.649999856948853
 41
0.0000000000000000
 71
     1
 72
     1
  1
{\H0.92x;{外径把握}}
 11
1.000000000000000
 21
0.0000000000000000
 31
0.0000000000000000
  7
KNJYOKO
  0
LINE
  5
4A8
100
AcDbEntity
  8
A0
  6
CONTINUOUS
 62
3
100
AcDbLine
 10
392.1771120866472
 20
35.86186465814616
 30
0.0000000000000000
 11
392.1771120866472
 21
113.3618646582218
 31
0.0000000000000000
  0
LINE
  5
4A9
100
AcDbEntity
  8
A0
  6
CONTINUOUS
 62
3
100
AcDbLine
 10
437.1771120866472
 20
35.86186465814619
 30
0.0000000000000000
 11
437.1771120866472
 21
133.8618646581512
 31
0.0000000000000000
  0
MTEXT
  5
4AA
100
AcDbEntity
  8
A0
  6
CONTINUOUS
 62
3
100
AcDbMText
 10
414.6771120866472
 20
77.56186351374181
 30
0.0000000000000000
 40
4.199998855590820
 41
0.0000000000000000
 71
     1
 72
     1
  1
{\H0.58x;{　　　　ｋｇ}}
 11
1.000000000000000
 21
0.0000000000000000
 31
0.0000000000000000
  7
KNJYOKO
  0
MTEXT
  5
4AB
100
AcDbEntity
  8
A0
  6
CONTINUOUS
 62
3
100
AcDbMText
 10
395.1771120866472
 20
88.31186351374187
 30
0.0000000000000000
 40
4.199998855590820
 41
0.0000000000000000
 71
     1
 72
     1
  1
{\H0.48x;{（}}
 11
1.000000000000000
 21
0.0000000000000000
 31
0.0000000000000000
  7
KNJYOKO
  0
MTEXT
  5
4AC
100
AcDbEntity
  8
A0
  6
CONTINUOUS
 62
3
100
AcDbMText
 10
413.1771120866472
 20
88.31186351374187
 30
0.0000000000000000
 40
4.199998855590820
 41
0.0000000000000000
 71
     1
 72
     1
  1
{\H0.58x;{　　　ｋｇｆ）}}
 11
1.000000000000000
 21
0.0000000000000000
 31
0.0000000000000000
  7
KNJYOKO
  0
MTEXT
  5
4AD
100
AcDbEntity
  8
A0
  6
CONTINUOUS
 62
3
100
AcDbMText
 10
414.6771120866472
 20
94.31186351374187
 30
0.0000000000000000
 40
4.199998855590820
 41
0.0000000000000000
 71
     1
 72
     1
  1
{\H0.58x;{　　　　ｋＮ}}
 11
1.000000000000000
 21
0.0000000000000000
 31
0.0000000000000000
  7
KNJYOKO
  0
MTEXT
  5
4AE
100
AcDbEntity
  8
A0
  6
CONTINUOUS
 62
3
100
AcDbMText
 10
413.1771120866472
 20
103.3118635137420
 30
0.0000000000000000
 40
4.199998855590820
 41
0.0000000000000000
 71
     1
 72
     1
  1
{\H0.58x;{　ｋｇｆ・ｍ）}}
 11
1.000000000000000
 21
0.0000000000000000
 31
0.0000000000000000
  7
KNJYOKO
  0
MTEXT
  5
4AF
100
AcDbEntity
  8
A0
  6
CONTINUOUS
 62
3
100
AcDbMText
 10
414.6771120866472
 20
109.3118635137420
 30
0.0000000000000000
 40
4.199998855590820
 41
0.0000000000000000
 71
     1
 72
     1
  1
{\H0.58x;{　　　Ｎ・ｍ}}
 11
1.000000000000000
 21
0.0000000000000000
 31
0.0000000000000000
  7
KNJYOKO
  0
MTEXT
  5
4B0
100
AcDbEntity
  8
A0
  6
CONTINUOUS
 62
3
100
AcDbMText
 10
395.1771120866472
 20
103.3118635137420
 30
0.0000000000000000
 40
4.199998855590820
 41
0.0000000000000000
 71
     1
 72
     1
  1
{\H0.48x;{（}}
 11
1.000000000000000
 21
0.0000000000000000
 31
0.0000000000000000
  7
KNJYOKO
  0
MTEXT
  5
4B1
100
AcDbEntity
  8
A0
  6
CONTINUOUS
 62
3
100
AcDbMText
 10
342.6352002889399
 20
120.8524333538522
 30
0.0000000000000000
 40
4.649999856948853
 41
0.0000000000000000
 71
     1
 72
     1
  1
{\H0.93x;{SPECIFICATIONS}}
 11
1.000000000000000
 21
0.0000000000000000
 31
0.0000000000000000
  7
STANDARD
  0
LINE
  5
4B2
100
AcDbEntity
  8
A0
  6
CONTINUOUS
 62
3
100
AcDbLine
 10
317.1771120866470
 20
113.3618646582008
 30
0.0000000000000000
 11
437.1771120866470
 21
113.3618646582351
 31
0.0000000000000000
  0
LINE
  5
4B3
100
AcDbEntity
  8
A0
  6
CONTINUOUS
 62
3
100
AcDbLine
 10
317.1771120866471
 20
133.8618646582037
 30
0.0000000000000000
 11
437.1771120866472
 21
133.8618646582401
 31
0.0000000000000000
  0
MTEXT
  5
4B4
100
AcDbEntity
  8
A0
  6
CONTINUOUS
 62
3
100
AcDbMText
 10
357.6171681615280
 20
132.1704982620496
 30
0.0000000000000000
 40
7.500000000000000
 41
0.0000000000000000
 71
     1
 72
     1
  1
{\H0.91x;{仕　様}}
 11
1.000000000000000
 21
0.0000000000000000
 31
0.0000000000000000
  7
KNJYOKO
  0
LINE
  5
4B5
100
AcDbEntity
  8
A0
  6
CONTINUOUS
 62
3
100
AcDbLine
 10
317.1771120866472
 20
35.86186465814610
 30
0.0000000000000000
 11
317.1771120866472
 21
133.8618646581512
 31
0.0000000000000000
  0
MTEXT
  5
4B6
100
AcDbEntity
  8
A0
  6
CONTINUOUS
 62
3
100
AcDbMText
 10
395.1771120866472
 20
67.76186451509985
 30
0.0000000000000000
 40
4.649999856948853
 41
0.0000000000000000
 71
     1
 72
     1
  1
{\H0.84x;{0.265}}
 11
1.000000000000000
 21
0.0000000000000000
 31
0.0000000000000000
  7
STANDARD
  0
MTEXT
  5
4B7
100
AcDbEntity
  8
A0
  6
CONTINUOUS
 62
3
100
AcDbMText
 10
467.6771120866472
 20
58.51186451504717
 30
0.0000000000000000
 40
4.649999856948853
 41
0.0000000000000000
 71
     1
 72
     1
  1
{\H0.71x;{This scroll chuck is suitable for}}
 11
1.000000000000000
 21
0.0000000000000000
 31
0.0000000000000000
  7
STANDARD
  0
MTEXT
  5
4B8
100
AcDbEntity
  8
A0
  6
CONTINUOUS
 62
3
100
AcDbMText
 10
467.6771120866472
 20
51.01186451504717
 30
0.0000000000000000
 40
4.649999856948853
 41
0.0000000000000000
 71
     1
 72
     1
  1
{\H0.71x;{gripping a workpiece on the rotary}}
 11
1.000000000000000
 21
0.0000000000000000
 31
0.0000000000000000
  7
STANDARD
  0
MTEXT
  5
4B9
100
AcDbEntity
  8
A0
  6
CONTINUOUS
 62
3
100
AcDbMText
 10
467.6771120866472
 20
43.51186451504725
 30
0.0000000000000000
 40
4.649999856948853
 41
0.0000000000000000
 71
     1
 72
     1
  1
{\H0.69x;{tables. For any other applications,}}
 11
1.000000000000000
 21
0.0000000000000000
 31
0.0000000000000000
  7
STANDARD
  0
INSERT
  5
4C6
100
AcDbEntity
  8
A0
  6
CONTINUOUS
 62
3
100
AcDbBlockReference
  2
M1
 10
0.0000000000000000
 20
0.0000000000000000
 30
0.0000000000000000
 50
0.0000000000000000
  0
MTEXT
  5
4C7
100
AcDbEntity
  8
A0
  6
CONTINUOUS
 62
3
100
AcDbMText
 10
467.6771120866472
 20
36.01186451504725
 30
0.0000000000000000
 40
4.649999856948853
 41
0.0000000000000000
 71
     1
 72
     1
  1
{\H0.69x;{please contact us.}}
 11
1.000000000000000
 21
0.0000000000000000
 31
0.0000000000000000
  7
STANDARD
  0
MTEXT
  5
4C8
100
AcDbEntity
  8
A0
  6
CONTINUOUS
 62
3
100
AcDbMText
 10
316.9869248158819
 20
26.33283602921689
 30
0.0000000000000000
 40
4.500000000000000
 41
0.0000000000000000
 71
     1
 72
     1
  1
{\H0.63x;{ABOVE SPECS :AT MAX PERMISSIBLE HANDLE TORQUE}}
 11
1.000000000000000
 21
0.0000000000000000
 31
0.0000000000000000
  7
STANDARD
  0
LINE
  5
4C9
100
AcDbEntity
  8
WAKU0
  6
CONTINUOUS
 62
3
100
AcDbLine
 10
437.3966502834185
 20
-25.64920936383356
 30
0.0000000000000000
 11
607.3966502834185
 21
-25.64920936383356
 31
0.0000000000000000
  0
LINE
  5
4CA
100
AcDbEntity
  8
WAKU0
  6
CONTINUOUS
 62
3
100
AcDbLine
 10
437.3966502834185
 20
-25.64920936383356
 30
0.0000000000000000
 11
437.3966502834185
 21
-64.64920936383356
 31
0.0000000000000000
  0
LINE
  5
4CB
100
AcDbEntity
  8
WAKU0
  6
CONTINUOUS
 62
3
100
AcDbLine
 10
509.3966502834185
 20
-25.64920936383356
 30
0.0000000000000000
 11
509.3966502834185
 21
-64.64920936383356
 31
0.0000000000000000
  0
LINE
  5
4CC
100
AcDbEntity
  8
WAKU0
  6
CONTINUOUS
 62
3
100
AcDbLine
 10
529.3966502834185
 20
-25.64920936383356
 30
0.0000000000000000
 11
529.3966502834185
 21
-64.64920936383356
 31
0.0000000000000000
  0
LINE
  5
4CD
100
AcDbEntity
  8
WAKU0
  6
CONTINUOUS
 62
3
100
AcDbLine
 10
541.3966502834185
 20
-25.64920936383356
 30
0.0000000000000000
 11
541.3966502834185
 21
-64.64920936383356
 31
0.0000000000000000
  0
LINE
  5
4CE
100
AcDbEntity
  8
WAKU0
  6
CONTINUOUS
 62
3
100
AcDbLine
 10
541.3966502834185
 20
-39.64920936383356
 30
0.0000000000000000
 11
607.3966502834185
 21
-39.64920936383356
 31
0.0000000000000000
  0
LINE
  5
4CF
100
AcDbEntity
  8
WAKU0
  6
CONTINUOUS
 62
3
100
AcDbLine
 10
529.3966502834185
 20
-53.64920936383356
 30
0.0000000000000000
 11
607.3966502834185
 21
-53.64920936383356
 31
0.0000000000000000
  0
LINE
  5
4D0
100
AcDbEntity
  8
WAKU0
  6
CONTINUOUS
 62
3
100
AcDbLine
 10
572.3966502834185
 20
-25.64920936383356
 30
0.0000000000000000
 11
572.3966502834185
 21
-32.64920936383356
 31
0.0000000000000000
  0
LINE
  5
4D1
100
AcDbEntity
  8
WAKU0
  6
CONTINUOUS
 62
3
100
AcDbLine
 10
584.3966502834185
 20
-25.64920936383356
 30
0.0000000000000000
 11
584.3966502834185
 21
-32.64920936383356
 31
0.0000000000000000
  0
LINE
  5
4D2
100
AcDbEntity
  8
WAKU0
  6
CONTINUOUS
 62
3
100
AcDbLine
 10
509.3966502834185
 20
-45.14920936383356
 30
0.0000000000000000
 11
529.3966502834185
 21
-45.14920936383356
 31
0.0000000000000000
  0
LINE
  5
4D3
100
AcDbEntity
  8
WAKU0
  6
CONTINUOUS
 62
3
100
AcDbLine
 10
529.3966502834185
 20
-32.64920936383356
 30
0.0000000000000000
 11
607.3966502834185
 21
-32.64920936383356
 31
0.0000000000000000
  0
LINE
  5
4D4
100
AcDbEntity
  8
WAKU0
  6
CONTINUOUS
 62
3
100
AcDbLine
 10
437.3966502834185
 20
-39.64920936383356
 30
0.0000000000000000
 11
509.3966502834185
 21
-39.64920936383356
 31
0.0000000000000000
  0
LINE
  5
4D5
100
AcDbEntity
  8
WAKU0
  6
CONTINUOUS
 62
3
100
AcDbLine
 10
437.3966502834185
 20
-53.64920936383356
 30
0.0000000000000000
 11
509.3966502834185
 21
-53.64920936383356
 31
0.0000000000000000
  0
LINE
  5
4D6
100
AcDbEntity
  8
WAKU0
  6
CONTINUOUS
 62
3
100
AcDbLine
 10
485.3966502834185
 20
-39.64920936383356
 30
0.0000000000000000
 11
485.3966502834185
 21
-64.64920936383356
 31
0.0000000000000000
  0
LINE
  5
4D7
100
AcDbEntity
  8
WAKU0
  6
CONTINUOUS
 62
3
100
AcDbLine
 10
461.3966502834185
 20
-39.64920936383356
 30
0.0000000000000000
 11
461.3966502834185
 21
-53.64920936383356
 31
0.0000000000000000
  0
LINE
  5
4D8
100
AcDbEntity
  8
WAKU0
  6
CONTINUOUS
 62
3
100
AcDbLine
 10
497.3966502834185
 20
-50.64920936383356
 30
0.0000000000000000
 11
497.3966502834185
 21
-53.64920936383356
 31
0.0000000000000000
  0
LINE
  5
4D9
100
AcDbEntity
  8
WAKU0
  6
CONTINUOUS
 62
3
100
AcDbLine
 10
473.3966502834185
 20
-50.64920936383356
 30
0.0000000000000000
 11
473.3966502834185
 21
-53.64920936383356
 31
0.0000000000000000
  0
LINE
  5
4DA
100
AcDbEntity
  8
WAKU0
  6
CONTINUOUS
 62
3
100
AcDbLine
 10
449.3966502834185
 20
-50.64920936383356
 30
0.0000000000000000
 11
449.3966502834185
 21
-53.64920936383356
 31
0.0000000000000000
  0
LINE
  5
4DB
100
AcDbEntity
  8
WAKU0
  6
CONTINUOUS
 62
3
100
AcDbLine
 10
455.3966502834185
 20
-25.64920936383356
 30
0.0000000000000000
 11
455.3966502834185
 21
-39.64920936383356
 31
0.0000000000000000
  0
LINE
  5
4DC
100
AcDbEntity
  8
WAKU0
  6
CONTINUOUS
 62
3
100
AcDbLine
 10
437.3966502834185
 20
-31.64920936383356
 30
0.0000000000000000
 11
509.3966502834185
 21
-31.64920936383356
 31
0.0000000000000000
  0
LINE
  5
4DD
100
AcDbEntity
  8
WAKU0
  6
HIDDEN
 62
3
100
AcDbLine
 10
557.8966502834185
 20
-53.64920936383356
 30
0.0000000000000000
 11
557.8966502834185
 21
-64.64920936383356
 31
0.0000000000000000
  0
LINE
  5
4DE
100
AcDbEntity
  8
WAKU0
  6
HIDDEN
 62
3
100
AcDbLine
 10
570.2966502834184
 20
-53.64920936383356
 30
0.0000000000000000
 11
570.2966502834184
 21
-64.64920936383356
 31
0.0000000000000000
  0
MTEXT
  5
4DF
100
AcDbEntity
  8
WAKU0
  6
CONTINUOUS
 62
3
100
AcDbMText
 10
541.8786503077670
 20
-27.59920941151728
 30
0.0000000000000000
 40
3.099999904632568
 41
0.0000000000000000
 71
     1
 72
     1
  1
{\H0.92x;{JN10TN}}
 11
1.000000000000000
 21
0.0000000000000000
 31
0.0000000000000000
  7
STANDARD
  0
MTEXT
  5
4E0
100
AcDbEntity
  8
WAKU0
  6
CONTINUOUS
 62
3
100
AcDbMText
 10
541.8626502751037
 20
-33.14920936383356
 30
0.0000000000000000
 40
3.000000000000000
 41
0.0000000000000000
 71
     1
 72
     1
  1
{\H0.94x;{スクロールチャック　１０\PＳＣＲＯＬＬ　ＣＨＵＣＫ　１０}}
 11
1.000000000000000
 21
0.0000000000000000
 31
0.0000000000000000
  7
KNJYOKO
  0
MTEXT
  5
4E1
100
AcDbEntity
  8
WAKU0
  6
CONTINUOUS
 62
3
100
AcDbMText
 10
541.7966502893789
 20
-42.41587609407852
 30
0.0000000000000000
 40
3.099999904632568
 41
0.0000000000000000
 71
     1
 72
     1
  1
{\H0.70x;{ＪＮ１０ＴＮ　ガイケイ\PＪＮ１０ＴＮ　ＯＵＴＳＩＤＥ　ＶＩＥＷ}}
 11
1.000000000000000
 21
0.0000000000000000
 31
0.0000000000000000
  7
KNJYOKO
  0
MTEXT
  5
4E2
100
AcDbEntity
  8
WAKU0
  6
CONTINUOUS
 62
3
100
AcDbMText
 10
515.4016501594408
 20
-37.34920941151728
 30
0.0000000000000000
 40
3.099999904632568
 41
0.0000000000000000
 71
     1
 72
     1
  1
{\H0.90x;{2:3}}
 11
1.000000000000000
 21
0.0000000000000000
 31
0.0000000000000000
  7
STANDARD
  0
MTEXT
  5
4E3
100
AcDbEntity
  8
WAKU0
  6
CONTINUOUS
 62
3
100
AcDbMText
 10
571.7966504383905
 20
-56.49920926846613
 30
0.0000000000000000
 40
5.300000190734863
 41
0.0000000000000000
 71
     1
 72
     1
  1
{\H0.90x;{6862}}
 11
1.000000000000000
 21
0.0000000000000000
 31
0.0000000000000000
  7
STANDARD
  0
MTEXT
  5
4E4
100
AcDbEntity
  8
WAKU0
  6
CONTINUOUS
 62
3
100
AcDbMText
 10
559.6966503668650
 20
-56.49920926846613
 30
0.0000000000000000
 40
5.300000190734863
 41
0.0000000000000000
 71
     1
 72
     1
  1
{\H0.87x;{28}}
 11
1.000000000000000
 21
0.0000000000000000
 31
0.0000000000000000
  7
STANDARD
  0
MTEXT
  5
4E5
100
AcDbEntity
  8
WAKU0
  6
CONTINUOUS
 62
3
100
AcDbMText
 10
542.8966504026278
 20
-56.49920926846613
 30
0.0000000000000000
 40
5.300000190734863
 41
0.0000000000000000
 71
     1
 72
     1
  1
{\H0.89x;{61S}}
 11
1.000000000000000
 21
0.0000000000000000
 31
0.0000000000000000
  7
STANDARD
  0
MTEXT
  5
4E6
100
AcDbEntity
  8
WAKU0
  6
CONTINUOUS
 62
3
100
AcDbMText
 10
597.3966503311021
 20
-56.49920926846613
 30
0.0000000000000000
 40
5.300000190734863
 41
0.0000000000000000
 71
     1
 72
     1
  1
{\H0.81x;{0}}
 11
1.000000000000000
 21
0.0000000000000000
 31
0.0000000000000000
  7
STANDARD
  0
MTEXT
  5
4E7
100
AcDbEntity
  8
WAKU0
  6
CONTINUOUS
 62
3
100
AcDbMText
 10
455.8786503077670
 20
-27.09920941151728
 30
0.0000000000000000
 40
3.099999904632568
 41
0.0000000000000000
 71
     1
 72
     1
  1
{\H0.93x;{61S2633880}}
 11
1.000000000000000
 21
0.0000000000000000
 31
0.0000000000000000
  7
STANDARD
  0
MTEXT
  5
4E8
100
AcDbEntity
  8
WAKU0
  6
CONTINUOUS
 62
3
100
AcDbMText
 10
597.3966503653749
 20
-31.79920945920100
 30
0.0000000000000000
 40
5.300000190734863
 41
0.0000000000000000
 71
     7
 72
     1
  1
{\H0.81x;{ }}
 11
1.000000000000000
 21
0.0000000000000000
 31
0.0000000000000000
  7
STANDARD
  0
MTEXT
  5
4E9
100
AcDbEntity
  8
WAKU0
  6
CONTINUOUS
 62
3
100
AcDbMText
 10
486.7816505719050
 20
-43.64920936383356
 30
0.0000000000000000
 40
3.000000000000000
 41
0.0000000000000000
 71
     7
 72
     1
  1
{\H0.93x;{DRAWN BY}}
 11
1.000000000000000
 21
0.0000000000000000
 31
0.0000000000000000
  7
STANDARD
  0
MTEXT
  5
4EA
100
AcDbEntity
  8
WAKU0
  6
CONTINUOUS
 62
3
100
AcDbMText
 10
466.6116500783785
 20
-43.69920931614985
 30
0.0000000000000000
 40
3.099999904632568
 41
0.0000000000000000
 71
     7
 72
     1
  1
{\H0.92x;{CHIEF}}
 11
1.000000000000000
 21
0.0000000000000000
 31
0.0000000000000000
  7
STANDARD
  0
MTEXT
  5
4EB
100
AcDbEntity
  8
WAKU0
  6
CONTINUOUS
 62
3
100
AcDbMText
 10
439.8216499973162
 20
-43.69920931614985
 30
0.0000000000000000
 40
3.099999904632568
 41
0.0000000000000000
 71
     7
 72
     1
  1
{\H0.92x;{MANAGER}}
 11
1.000000000000000
 21
0.0000000000000000
 31
0.0000000000000000
  7
STANDARD
  0
MTEXT
  5
4EC
100
AcDbEntity
  8
WAKU0
  6
CONTINUOUS
 62
3
100
AcDbMText
 10
438.4816505003794
 20
-30.14920936383356
 30
0.0000000000000000
 40
3.000000000000000
 41
0.0000000000000000
 71
     7
 72
     1
  1
{\H0.92x;{CAREER}}
 11
1.000000000000000
 21
0.0000000000000000
 31
0.0000000000000000
  7
STANDARD
  0
MTEXT
  5
4ED
100
AcDbEntity
  8
WAKU0
  6
CONTINUOUS
 62
3
100
AcDbMText
 10
492.0066501189097
 20
-57.69920931614985
 30
0.0000000000000000
 40
3.099999904632568
 41
0.0000000000000000
 71
     7
 72
     1
  1
{\H0.91x;{DATE}}
 11
1.000000000000000
 21
0.0000000000000000
 31
0.0000000000000000
  7
STANDARD
  0
MTEXT
  5
4EE
100
AcDbEntity
  8
WAKU0
  6
CONTINUOUS
 62
3
100
AcDbMText
 10
511.2966504979952
 20
-50.14920936383356
 30
0.0000000000000000
 40
3.000000000000000
 41
0.0000000000000000
 71
     7
 72
     1
  1
{\H0.63x;{3RD ANGLE}}
 11
1.000000000000000
 21
0.0000000000000000
 31
0.0000000000000000
  7
STANDARD
  0
MTEXT
  5
4EF
100
AcDbEntity
  8
WAKU0
  6
CONTINUOUS
 62
3
100
AcDbMText
 10
512.6116500783785
 20
-30.69920931614985
 30
0.0000000000000000
 40
3.099999904632568
 41
0.0000000000000000
 71
     7
 72
     1
  1
{\H0.92x;{SCALE}}
 11
1.000000000000000
 21
0.0000000000000000
 31
0.0000000000000000
  7
STANDARD
  0
MTEXT
  5
4F0
100
AcDbEntity
  8
WAKU0
  6
CONTINUOUS
 62
3
100
AcDbMText
 10
603.0966503311022
 20
-30.64920936383356
 30
0.0000000000000000
 40
3.000000000000000
 41
0.0000000000000000
 71
     7
 72
     1
  1
{\H0.63x;{kg}}
 11
1.000000000000000
 21
0.0000000000000000
 31
0.0000000000000000
  7
STANDARD
  0
MTEXT
  5
4F1
100
AcDbEntity
  8
WAKU0
  6
CONTINUOUS
 62
3
100
AcDbMText
 10
572.9966504264696
 20
-30.64920936383356
 30
0.0000000000000000
 40
3.000000000000000
 41
0.0000000000000000
 71
     7
 72
     1
  1
{\H0.63x;{WEIGHT}}
 11
1.000000000000000
 21
0.0000000000000000
 31
0.0000000000000000
  7
STANDARD
  0
MTEXT
  5
4F2
100
AcDbEntity
  8
WAKU0
  6
CONTINUOUS
 62
3
100
AcDbMText
 10
531.4016501594408
 20
-58.51587599871109
 30
0.0000000000000000
 40
3.099999904632568
 41
0.0000000000000000
 71
     7
 72
     1
  1
{\H0.90x;{DRW\PNO.}}
 11
1.000000000000000
 21
0.0000000000000000
 31
0.0000000000000000
  7
STANDARD
  0
MTEXT
  5
4F3
100
AcDbEntity
  8
WAKU0
  6
CONTINUOUS
 62
3
100
AcDbMText
 10
530.0066501189097
 20
-44.69920931614985
 30
0.0000000000000000
 40
3.099999904632568
 41
0.0000000000000000
 71
     7
 72
     1
  1
{\H0.91x;{NAME}}
 11
1.000000000000000
 21
0.0000000000000000
 31
0.0000000000000000
  7
STANDARD
  0
MTEXT
  5
4F4
100
AcDbEntity
  8
WAKU0
  6
CONTINUOUS
 62
3
100
AcDbMText
 10
530.0066501189097
 20
-30.69920931614985
 30
0.0000000000000000
 40
3.099999904632568
 41
0.0000000000000000
 71
     7
 72
     1
  1
{\H0.91x;{TYPE}}
 11
1.000000000000000
 21
0.0000000000000000
 31
0.0000000000000000
  7
STANDARD
  0
LINE
  5
4F5
100
AcDbEntity
  8
WAKU0
  6
HIDDEN
 62
3
100
AcDbLine
 10
604.5566067578070
 20
-62.79920945920100
 30
0.0000000000000000
 11
594.3366939043974
 21
-62.79920945920100
 31
0.0000000000000000
  0
LINE
  5
4F6
100
AcDbEntity
  8
WAKU0
  6
HIDDEN
 62
3
100
AcDbLine
 10
604.5566067578070
 20
-62.79920945920107
 30
0.0000000000000000
 11
599.4466503311036
 21
-53.94850530368456
 31
0.0000000000000000
  0
LINE
  5
4F7
100
AcDbEntity
  8
WAKU0
  6
HIDDEN
 62
3
100
AcDbLine
 10
599.4466503311036
 20
-53.94850530368455
 30
0.0000000000000000
 11
594.3366939043974
 21
-62.79920945920108
 31
0.0000000000000000
  0
MTEXT
  5
4F8
100
AcDbEntity
  8
WAKU0
  6
CONTINUOUS
 62
3
100
AcDbMText
 10
444.3966512449057
 20
-56.01449414685142
 30
0.0000000000000000
 40
3.140094041824341
 41
0.0000000000000000
 71
     1
 72
     1
  1
{\H0.83x;{Ｋｉｔａｇａｗａ\PＣｏｒｐｏｒａｔｉｏｎ}}
 11
1.000000000000000
 21
0.0000000000000000
 31
0.0000000000000000
  7
KNJYOKO
  0
LINE
  5
4F9
100
AcDbEntity
  8
WAKU0
  6
CONTINUOUS
 62
3
100
AcDbLine
 10
527.8680380587985
 20
-60.86879515120544
 30
0.0000000000000000
 11
527.8680380587985
 21
-54.86879515120542
 31
0.0000000000000000
  0
LINE
  5
4FA
100
AcDbEntity
  8
WAKU0
  6
CONTINUOUS
 62
3
100
AcDbLine
 10
521.3303444062410
 20
-59.36879515120545
 30
0.0000000000000000
 11
521.3303444062410
 21
-56.36879515120532
 31
0.0000000000000000
  0
LINE
  5
4FB
100
AcDbEntity
  8
WAKU0
  6
CENTER
 62
12
100
AcDbLine
 10
510.8288308349180
 20
-57.86879515120543
 30
0.0000000000000000
 11
528.6732291798878
 21
-57.86879515120543
 31
0.0000000000000000
  0
LINE
  5
4FC
100
AcDbEntity
  8
WAKU0
  6
CENTER
 62
12
100
AcDbLine
 10
514.8441068692171
 20
-62.08999273464908
 30
0.0000000000000000
 11
514.8441068692171
 21
-53.75055834233413
 31
0.0000000000000000
  0
LINE
  5
4FD
100
AcDbEntity
  8
WAKU0
  6
CONTINUOUS
 62
3
100
AcDbLine
 10
521.3303444062410
 20
-56.36879515120559
 30
0.0000000000000000
 11
527.8680380587985
 21
-54.86879515120562
 31
0.0000000000000000
  0
LINE
  5
4FE
100
AcDbEntity
  8
WAKU0
  6
CONTINUOUS
 62
3
100
AcDbLine
 10
521.3303444062410
 20
-59.36879515120545
 30
0.0000000000000000
 11
527.8680380587985
 21
-60.86879515120545
 31
0.0000000000000000
  0
CIRCLE
  5
4FF
100
AcDbEntity
  8
WAKU0
  6
CONTINUOUS
 62
3
100
AcDbCircle
 10
514.8441068692171
 20
-57.86879515120543
 30
0.0000000000000000
 40
1.499999999999972
  0
CIRCLE
  5
500
100
AcDbEntity
  8
WAKU0
  6
CONTINUOUS
 62
3
100
AcDbCircle
 10
514.8441068692171
 20
-57.86879515120543
 30
0.0000000000000000
 40
2.999999999999979
  0
ENDSEC
  0
SECTION
  2
OBJECTS
  0
DICTIONARY
  5
55C
100
AcDbDictionary
  3
ACAD_GROUP
350
55D
  3
ACAD_MLINESTYLE
350
55E
  0
DICTIONARY
  5
55D
102
{ACAD_REACTORS
330
55C
102
}
100
AcDbDictionary
  0
DICTIONARY
  5
55E
102
{ACAD_REACTORS
330
55C
102
}
100
AcDbDictionary
  3
STANDARD
350
55F
  0
MLINESTYLE
  5
55F
102
{ACAD_REACTORS
330
55E
102
}
100
AcDbMlineStyle
  2
STANDARD
 70
     0
  3

 62
   256
 51
90.00
 52
90.00
 71
     2
 49
0.50
 62
   256
  6
BYLAYER
 49
-0.50
 62
   256
  6
BYLAYER
  0
ENDSEC
  0
EOF
