  0
SECTION
  2
HEADER
  9
$ACADVER
  1
AC1014
  9
$DWGCODEPAGE
  3
ANSI_932
  9
$LTSCALE
 40
20.0
  9
$FILLMODE
 70
     1
  9
$CLAYER
  8
0
  9
$PDMODE
 70
     0
  9
$SPLFRAME
 70
     0
  9
$SPLINETYPE
 70
     6
  9
$SPLINESEGS
 70
     8
  9
$DIMASZ
 40
2.000000
  9
$DIMEXE
 40
2.000000
  9
$DIMEXO
 40
0.800000
  9
$DIMTAD
 70
     1
  9
$DIMTIH
 70
     0
  9
$DIMTOH
 70
     0
  9
$DIMTVP
 40
0.500000
  9
$DIMTXT
 40
3.100000
  9
$EXTMIN
 10
0.000000
 20
0.000000
 30
0.000000
  9
$EXTMAX
 10
420.000000
 20
594.000000
 30
0.000000
  9
$MEASUREMENT
 70
  1
  9
$LIMMIN
 10
0.000000
 20
0.000000
  9
$LIMMAX
 10
420.000000
 20
594.000000
  9
$HANDLING
 70
     1
  9
$HANDSEED
  5
3CB
  9
$DIMBLK
  1
_OPEN
  9
$DIMDEC
 70
     3
  9
$DIMAUNIT
 70
     1
  9
$DIMZIN
 70
     8
  9
$DIMTOFL
 70
     1
  0
ENDSEC
  0
SECTION
  2
CLASSES
  0
ENDSEC
  0
SECTION
  2
TABLES
  0
TABLE
  2
VPORT
  5
383
100
AcDbSymbolTable
 70
     1
  0
VPORT
  5
384
100
AcDbSymbolTableRecord
100
AcDbViewportTableRecord
  2
*ACTIVE
 70
     0
 12
434.857563
 22
270.327503
 40
669.378613
 41
1.299287
  0
ENDTAB
  0
TABLE
  2
LTYPE
  5
385
100
AcDbSymbolTable
 70
     4
  0
LTYPE
  5
386
100
AcDbSymbolTableRecord
100
AcDbLinetypeTableRecord
  2
BYBLOCK
 70
     0
  3

 72
    65
 73
     0
 40
0.0
  0
LTYPE
  5
387
100
AcDbSymbolTableRecord
100
AcDbLinetypeTableRecord
  2
BYLAYER
 70
     0
  3

 72
    65
 73
     0
 40
0.0
  0
LTYPE
  5
388
100
AcDbSymbolTableRecord
100
AcDbLinetypeTableRecord
  2
CONTINUOUS
 70
     0
  3
Solid line (NEC CAE2D for Win R14.2 : 2022.05.17)
 72
    65
 73
     0
 40
0.0
  0
LTYPE
  5
389
100
AcDbSymbolTableRecord
100
AcDbLinetypeTableRecord
  2
HIDDEN
 70
     0
  3
__ __ __ __ __ __ __ __ __ __ __ __ __ __
 72
    65
 73
     2
 40
0.375
 49
0.25
 74
     0
 49
-0.125
 74
     0
  0
LTYPE
  5
38A
100
AcDbSymbolTableRecord
100
AcDbLinetypeTableRecord
  2
CENTER
 70
     0
  3
____ _ ____ _ ____ _ ____ _ ____ _ ____
 72
    65
 73
     4
 40
2.0
 49
1.25
 74
     0
 49
-0.25
 74
     0
 49
0.25
 74
     0
 49
-0.25
 74
     0
  0
LTYPE
  5
38B
100
AcDbSymbolTableRecord
100
AcDbLinetypeTableRecord
  2
PHANTOM
 70
     0
  3
______  __  __  ______  __  __  ______ 
 72
    65
 73
     6
 40
2.5
 49
1.25
 74
     0
 49
-0.25
 74
     0
 49
0.25
 74
     0
 49
-0.25
 74
     0
 49
0.25
 74
     0
 49
-0.25
 74
     0
  0
ENDTAB
  0
TABLE
  2
LAYER
  5
38C
100
AcDbSymbolTable
 70
    11
  0
LAYER
  5
38D
100
AcDbSymbolTableRecord
100
AcDbLayerTableRecord
  2
0
 70
     0
 62
     7
  6
CONTINUOUS
  0
LAYER
  5
38E
100
AcDbSymbolTableRecord
100
AcDbLayerTableRecord
  2
MAIN0
 70
     0
 62
     7
  6
CONTINUOUS
  0
LAYER
  5
38F
100
AcDbSymbolTableRecord
100
AcDbLayerTableRecord
  2
MAIN1
 70
     0
 62
     7
  6
CONTINUOUS
  0
LAYER
  5
390
100
AcDbSymbolTableRecord
100
AcDbLayerTableRecord
  2
MAIN3
 70
     0
 62
     7
  6
CONTINUOUS
  0
LAYER
  5
391
100
AcDbSymbolTableRecord
100
AcDbLayerTableRecord
  2
MAIN4
 70
     0
 62
     7
  6
CONTINUOUS
  0
LAYER
  5
392
100
AcDbSymbolTableRecord
100
AcDbLayerTableRecord
  2
MAIN1023
 70
     0
 62
    16
  6
CONTINUOUS
  0
LAYER
  5
393
100
AcDbSymbolTableRecord
100
AcDbLayerTableRecord
  2
MIN0
 70
     0
 62
     7
  6
CONTINUOUS
  0
LAYER
  5
394
100
AcDbSymbolTableRecord
100
AcDbLayerTableRecord
  2
MIN5
 70
     0
 62
     7
  6
CONTINUOUS
  0
LAYER
  5
395
100
AcDbSymbolTableRecord
100
AcDbLayerTableRecord
  2
MIN1023
 70
     0
 62
    16
  6
CONTINUOUS
  0
LAYER
  5
396
100
AcDbSymbolTableRecord
100
AcDbLayerTableRecord
  2
WAKU0
 70
     0
 62
     7
  6
CONTINUOUS
  0
LAYER
  5
397
100
AcDbSymbolTableRecord
100
AcDbLayerTableRecord
  2
WAKU1023
 70
     0
 62
    16
  6
CONTINUOUS
  0
ENDTAB
  0
TABLE
  2
STYLE
  5
398
100
AcDbSymbolTable
 70
     4
  0
STYLE
  5
399
100
AcDbSymbolTableRecord
100
AcDbTextStyleTableRecord
  2
STANDARD
 70
    64
 40
0.0
 41
1.0
 50
0.0
 71
     0
 42
3.140094041824341
  3
TXT
  4

  0
STYLE
  5
39A
100
AcDbSymbolTableRecord
100
AcDbTextStyleTableRecord
  2
ANKTATE
 70
    68
 40
0.0
 41
1.0
 50
0.0
 71
     0
 42
3.140094041824341
  3
TXT
  4

  0
STYLE
  5
116
100
AcDbSymbolTableRecord
100
AcDbTextStyleTableRecord
  2
KNJYOKO
 70
    64
 40
0.0
 41
1.0
 50
0.0
 71
     0
 42
3.140094041824341
  3
TXT
  4
BIGFONT
  0
STYLE
  5
39B
100
AcDbSymbolTableRecord
100
AcDbTextStyleTableRecord
  2
KNJTATE
 70
    68
 40
0.0
 41
1.0
 50
0.0
 71
     0
 42
3.140094041824341
  3
TXT
  4
BIGFONT
  0
ENDTAB
  0
TABLE
  2
VIEW
  5
39C
100
AcDbSymbolTable
 70
     0
  0
ENDTAB
  0
TABLE
  2
UCS
  5
39D
100
AcDbSymbolTable
 70
     0
  0
ENDTAB
  0
TABLE
  2
APPID
  5
39E
100
AcDbSymbolTable
 70
     1
  0
APPID
  5
39F
100
AcDbSymbolTableRecord
100
AcDbRegAppTableRecord
  2
ACAD
 70
     0
  0
ENDTAB
  0
TABLE
  2
DIMSTYLE
  5
3A0
100
AcDbSymbolTable
 70
     1
  0
DIMSTYLE
105
3A1
100
AcDbSymbolTableRecord
100
AcDbDimStyleTableRecord
  2
STANDARD
 70
     0
 41
2.000000
 44
2.000000
 42
0.800000
145
0.661290
140
3.100000
144
1.000000
146
0.903226
340
399
  0
DIMSTYLE
105
3A2
100
AcDbSymbolTableRecord
100
AcDbDimStyleTableRecord
  2
MAIN001
 70
     0
 41
3.000000
 44
3.000000
 42
1.200000
145
0.607527
140
4.650000
144
1.000000
146
0.903226
 77
     1
 73
     0
 74
     0
271
     3
275
     1
 78
     8
172
     1
340
399
  0
DIMSTYLE
105
3A3
100
AcDbSymbolTableRecord
100
AcDbDimStyleTableRecord
  2
MIN002
 70
     0
 41
3.000000
 44
3.000000
 42
1.200000
145
0.607527
140
4.650000
144
1.000000
146
0.903226
 77
     1
 73
     0
 74
     0
271
     3
275
     1
 78
     8
172
     1
340
399
  0
DIMSTYLE
105
3A4
100
AcDbSymbolTableRecord
100
AcDbDimStyleTableRecord
  2
WAKU003
 70
     0
 41
2.000000
 44
2.000000
 42
0.800000
145
0.661290
140
3.100000
144
1.000000
146
0.903226
 77
     1
 73
     0
 74
     0
271
     3
275
     1
 78
     8
172
     1
340
399
  0
ENDTAB
  0
TABLE
  2
BLOCK_RECORD
  5
3A5
100
AcDbSymbolTable
 70
    38
  0
BLOCK_RECORD
  5
3A6
100
AcDbSymbolTableRecord
100
AcDbBlockTableRecord
  2
*MODEL_SPACE
  0
BLOCK_RECORD
  5
3A7
100
AcDbSymbolTableRecord
100
AcDbBlockTableRecord
  2
*PAPER_SPACE
  0
BLOCK_RECORD
  5
1
100
AcDbSymbolTableRecord
100
AcDbBlockTableRecord
  2
_NONE
  0
BLOCK_RECORD
  5
4
100
AcDbSymbolTableRecord
100
AcDbBlockTableRecord
  2
_CLOSED
  0
BLOCK_RECORD
  5
B
100
AcDbSymbolTableRecord
100
AcDbBlockTableRecord
  2
_DOT
  0
BLOCK_RECORD
  5
13
100
AcDbSymbolTableRecord
100
AcDbBlockTableRecord
  2
_OPEN
  0
BLOCK_RECORD
  5
19
100
AcDbSymbolTableRecord
100
AcDbBlockTableRecord
  2
_ORIGIN
  0
BLOCK_RECORD
  5
1E
100
AcDbSymbolTableRecord
100
AcDbBlockTableRecord
  2
_OPEN30
  0
BLOCK_RECORD
  5
24
100
AcDbSymbolTableRecord
100
AcDbBlockTableRecord
  2
_BOXFILLED
  0
BLOCK_RECORD
  5
29
100
AcDbSymbolTableRecord
100
AcDbBlockTableRecord
  2
_BOXBLANK
  0
BLOCK_RECORD
  5
31
100
AcDbSymbolTableRecord
100
AcDbBlockTableRecord
  2
_OBLIQUE
  0
BLOCK_RECORD
  5
35
100
AcDbSymbolTableRecord
100
AcDbBlockTableRecord
  2
_OPEN90
  0
BLOCK_RECORD
  5
3B
100
AcDbSymbolTableRecord
100
AcDbBlockTableRecord
  2
_CLOSEDBLANK
  0
BLOCK_RECORD
  5
41
100
AcDbSymbolTableRecord
100
AcDbBlockTableRecord
  2
_DOTBLANK
  0
BLOCK_RECORD
  5
3A8
100
AcDbSymbolTableRecord
100
AcDbBlockTableRecord
  2
*D0
  0
BLOCK_RECORD
  5
3A9
100
AcDbSymbolTableRecord
100
AcDbBlockTableRecord
  2
*D1
  0
BLOCK_RECORD
  5
3AA
100
AcDbSymbolTableRecord
100
AcDbBlockTableRecord
  2
*D2
  0
BLOCK_RECORD
  5
3AB
100
AcDbSymbolTableRecord
100
AcDbBlockTableRecord
  2
*D3
  0
BLOCK_RECORD
  5
3AC
100
AcDbSymbolTableRecord
100
AcDbBlockTableRecord
  2
*D4
  0
BLOCK_RECORD
  5
3AD
100
AcDbSymbolTableRecord
100
AcDbBlockTableRecord
  2
*D5
  0
BLOCK_RECORD
  5
3AE
100
AcDbSymbolTableRecord
100
AcDbBlockTableRecord
  2
*D6
  0
BLOCK_RECORD
  5
3AF
100
AcDbSymbolTableRecord
100
AcDbBlockTableRecord
  2
*D7
  0
BLOCK_RECORD
  5
3B0
100
AcDbSymbolTableRecord
100
AcDbBlockTableRecord
  2
*D8
  0
BLOCK_RECORD
  5
3B1
100
AcDbSymbolTableRecord
100
AcDbBlockTableRecord
  2
*D9
  0
BLOCK_RECORD
  5
3B2
100
AcDbSymbolTableRecord
100
AcDbBlockTableRecord
  2
*D10
  0
BLOCK_RECORD
  5
3B3
100
AcDbSymbolTableRecord
100
AcDbBlockTableRecord
  2
*D11
  0
BLOCK_RECORD
  5
3B4
100
AcDbSymbolTableRecord
100
AcDbBlockTableRecord
  2
*D12
  0
BLOCK_RECORD
  5
3B5
100
AcDbSymbolTableRecord
100
AcDbBlockTableRecord
  2
*D13
  0
BLOCK_RECORD
  5
3B6
100
AcDbSymbolTableRecord
100
AcDbBlockTableRecord
  2
*D14
  0
BLOCK_RECORD
  5
3B7
100
AcDbSymbolTableRecord
100
AcDbBlockTableRecord
  2
*D15
  0
BLOCK_RECORD
  5
3B8
100
AcDbSymbolTableRecord
100
AcDbBlockTableRecord
  2
*D16
  0
BLOCK_RECORD
  5
3B9
100
AcDbSymbolTableRecord
100
AcDbBlockTableRecord
  2
*D17
  0
BLOCK_RECORD
  5
3BA
100
AcDbSymbolTableRecord
100
AcDbBlockTableRecord
  2
*D18
  0
BLOCK_RECORD
  5
3BB
100
AcDbSymbolTableRecord
100
AcDbBlockTableRecord
  2
*D19
  0
BLOCK_RECORD
  5
3BC
100
AcDbSymbolTableRecord
100
AcDbBlockTableRecord
  2
*D20
  0
BLOCK_RECORD
  5
3BD
100
AcDbSymbolTableRecord
100
AcDbBlockTableRecord
  2
*D21
  0
BLOCK_RECORD
  5
3BE
100
AcDbSymbolTableRecord
100
AcDbBlockTableRecord
  2
*D22
  0
BLOCK_RECORD
  5
3BF
100
AcDbSymbolTableRecord
100
AcDbBlockTableRecord
  2
*D23
  0
BLOCK_RECORD
  5
3C0
100
AcDbSymbolTableRecord
100
AcDbBlockTableRecord
  2
*D24
  0
BLOCK_RECORD
  5
3C1
100
AcDbSymbolTableRecord
100
AcDbBlockTableRecord
  2
*D25
  0
ENDTAB
  0
ENDSEC
  0
SECTION
  2
BLOCKS
  0
BLOCK
  5
3C2
100
AcDbEntity
  8
0
100
AcDbBlockBegin
  2
*MODEL_SPACE
 70
     0
 10
0.0
 20
0.0
 30
0.0
  3
*MODEL_SPACE
  1

  0
ENDBLK
  5
3C3
100
AcDbEntity
  8
0
100
AcDbBlockEnd
  0
BLOCK
  5
3C4
100
AcDbEntity
  8
0
100
AcDbBlockBegin
  2
*PAPER_SPACE
 70
     0
 10
0.0
 20
0.0
 30
0.0
  3
*PAPER_SPACE
  1

  0
ENDBLK
  5
3C5
100
AcDbEntity
  8
0
100
AcDbBlockEnd
  0
BLOCK
  5
2
100
AcDbEntity
  8
0
100
AcDbBlockBegin
  2
_NONE
 70
     0
 10
0.0
 20
0.0
 30
0.0
  3
_NONE
  1

  0
ENDBLK
  5
3
100
AcDbEntity
  8
0
100
AcDbBlockEnd
  0
BLOCK
  5
5
100
AcDbEntity
  8
0
100
AcDbBlockBegin
  2
_CLOSED
 70
     0
 10
0.0
 20
0.0
 30
0.0
  3
_CLOSED
  1

  0
LINE
  5
6
100
AcDbEntity
  8
0
  6
BYBLOCK
 62
     0
100
AcDbLine
 10
-1.0
 20
0.166667
 30
0.0
 11
0.0
 21
0.0
 31
0.0
  0
LINE
  5
7
100
AcDbEntity
  8
0
  6
BYBLOCK
 62
     0
100
AcDbLine
 10
0.0
 20
0.0
 30
0.0
 11
-1.0
 21
-0.166667
 31
0.0
  0
LINE
  5
8
100
AcDbEntity
  8
0
  6
BYBLOCK
 62
     0
100
AcDbLine
 10
-1.0
 20
0.166667
 30
0.0
 11
-1.0
 21
-0.166667
 31
0.0
  0
LINE
  5
9
100
AcDbEntity
  8
0
  6
BYBLOCK
 62
     0
100
AcDbLine
 10
0.0
 20
0.0
 30
0.0
 11
-1.0
 21
0.0
 31
0.0
  0
ENDBLK
  5
A
100
AcDbEntity
  8
0
100
AcDbBlockEnd
  0
BLOCK
  5
C
100
AcDbEntity
  8
0
100
AcDbBlockBegin
  2
_DOT
 70
     0
 10
0.0
 20
0.0
 30
0.0
  3
_DOT
  1

  0
POLYLINE
  5
D
100
AcDbEntity
  8
0
  6
BYBLOCK
 62
     0
100
AcDb2dPolyline
 66
     1
 10
0.0
 20
0.0
 30
0.0
 70
     1
 40
0.5
 41
0.5
  0
VERTEX
  5
E
100
AcDbEntity
  8
0
  6
BYBLOCK
 62
     0
100
AcDbVertex
100
AcDb2dVertex
 10
-0.25
 20
0.0
 30
0.0
 42
1.0
  0
VERTEX
  5
F
100
AcDbEntity
  8
0
  6
BYBLOCK
 62
     0
100
AcDbVertex
100
AcDb2dVertex
 10
0.25
 20
0.0
 30
0.0
 42
1.0
  0
SEQEND
  5
10
100
AcDbEntity
  8
0
  6
BYBLOCK
 62
     0
  0
LINE
  5
11
100
AcDbEntity
  8
0
  6
BYBLOCK
 62
     0
100
AcDbLine
 10
-0.5
 20
0.0
 30
0.0
 11
-1.0
 21
0.0
 31
0.0
  0
ENDBLK
  5
12
100
AcDbEntity
  8
0
100
AcDbBlockEnd
  0
BLOCK
  5
14
100
AcDbEntity
  8
0
100
AcDbBlockBegin
  2
_OPEN
 70
     0
 10
0.0
 20
0.0
 30
0.0
  3
_OPEN
  1

  0
LINE
  5
15
100
AcDbEntity
  8
0
  6
BYBLOCK
 62
     0
100
AcDbLine
 10
-1.0
 20
0.166667
 30
0.0
 11
0.0
 21
0.0
 31
0.0
  0
LINE
  5
16
100
AcDbEntity
  8
0
  6
BYBLOCK
 62
     0
100
AcDbLine
 10
0.0
 20
0.0
 30
0.0
 11
-1.0
 21
-0.166667
 31
0.0
  0
LINE
  5
17
100
AcDbEntity
  8
0
  6
BYBLOCK
 62
     0
100
AcDbLine
 10
0.0
 20
0.0
 30
0.0
 11
-1.0
 21
0.0
 31
0.0
  0
ENDBLK
  5
18
100
AcDbEntity
  8
0
100
AcDbBlockEnd
  0
BLOCK
  5
1A
100
AcDbEntity
  8
0
100
AcDbBlockBegin
  2
_ORIGIN
 70
     0
 10
0.0
 20
0.0
 30
0.0
  3
_ORIGIN
  1

  0
CIRCLE
  5
1B
100
AcDbEntity
  8
0
  6
BYBLOCK
 62
     0
100
AcDbCircle
 10
0.0
 20
0.0
 30
0.0
 40
0.5
  0
LINE
  5
1C
100
AcDbEntity
  8
0
  6
BYBLOCK
 62
     0
100
AcDbLine
 10
0.0
 20
0.0
 30
0.0
 11
-1.0
 21
0.0
 31
0.0
  0
ENDBLK
  5
1D
100
AcDbEntity
  8
0
100
AcDbBlockEnd
  0
BLOCK
  5
1F
100
AcDbEntity
  8
0
100
AcDbBlockBegin
  2
_OPEN30
 70
     0
 10
0.0
 20
0.0
 30
0.0
  3
_OPEN30
  1

  0
LINE
  5
20
100
AcDbEntity
  8
0
  6
BYBLOCK
 62
     0
100
AcDbLine
 10
-1.0
 20
0.267949
 30
0.0
 11
0.0
 21
0.0
 31
0.0
  0
LINE
  5
21
100
AcDbEntity
  8
0
  6
BYBLOCK
 62
     0
100
AcDbLine
 10
0.0
 20
0.0
 30
0.0
 11
-1.0
 21
-0.267949
 31
0.0
  0
LINE
  5
22
100
AcDbEntity
  8
0
  6
BYBLOCK
 62
     0
100
AcDbLine
 10
0.0
 20
0.0
 30
0.0
 11
-1.0
 21
0.0
 31
0.0
  0
ENDBLK
  5
23
100
AcDbEntity
  8
0
100
AcDbBlockEnd
  0
BLOCK
  5
25
100
AcDbEntity
  8
0
100
AcDbBlockBegin
  2
_BOXFILLED
 70
     0
 10
0.0
 20
0.0
 30
0.0
  3
_BOXFILLED
  1

  0
SOLID
  5
26
100
AcDbEntity
  8
0
  6
BYBLOCK
 62
     0
100
AcDbTrace
 10
-0.5
 20
0.5
 30
0.0
 11
0.5
 21
0.5
 31
0.0
 12
-0.5
 22
-0.5
 32
0.0
 13
0.5
 23
-0.5
 33
0.0
  0
LINE
  5
27
100
AcDbEntity
  8
0
  6
BYBLOCK
 62
     0
100
AcDbLine
 10
-0.5
 20
0.0
 30
0.0
 11
-1.0
 21
0.0
 31
0.0
  0
ENDBLK
  5
28
100
AcDbEntity
  8
0
100
AcDbBlockEnd
  0
BLOCK
  5
2A
100
AcDbEntity
  8
0
100
AcDbBlockBegin
  2
_BOXBLANK
 70
     0
 10
0.0
 20
0.0
 30
0.0
  3
_BOXBLANK
  1

  0
LINE
  5
2B
100
AcDbEntity
  8
0
  6
BYBLOCK
 62
     0
100
AcDbLine
 10
-0.5
 20
-0.5
 30
0.0
 11
0.5
 21
-0.5
 31
0.0
  0
LINE
  5
2C
100
AcDbEntity
  8
0
  6
BYBLOCK
 62
     0
100
AcDbLine
 10
0.5
 20
-0.5
 30
0.0
 11
0.5
 21
0.5
 31
0.0
  0
LINE
  5
2D
100
AcDbEntity
  8
0
  6
BYBLOCK
 62
     0
100
AcDbLine
 10
0.5
 20
0.5
 30
0.0
 11
-0.5
 21
0.5
 31
0.0
  0
LINE
  5
2E
100
AcDbEntity
  8
0
  6
BYBLOCK
 62
     0
100
AcDbLine
 10
-0.5
 20
0.5
 30
0.0
 11
-0.5
 21
-0.5
 31
0.0
  0
LINE
  5
2F
100
AcDbEntity
  8
0
  6
BYBLOCK
 62
     0
100
AcDbLine
 10
-0.5
 20
0.0
 30
0.0
 11
-1.0
 21
0.0
 31
0.0
  0
ENDBLK
  5
30
100
AcDbEntity
  8
0
100
AcDbBlockEnd
  0
BLOCK
  5
32
100
AcDbEntity
  8
0
100
AcDbBlockBegin
  2
_OBLIQUE
 70
     0
 10
0.0
 20
0.0
 30
0.0
  3
_OBLIQUE
  1

  0
LINE
  5
33
100
AcDbEntity
  8
0
  6
BYBLOCK
 62
     0
100
AcDbLine
 10
-0.5
 20
-0.5
 30
0.0
 11
0.5
 21
0.5
 31
0.0
  0
ENDBLK
  5
34
100
AcDbEntity
  8
0
100
AcDbBlockEnd
  0
BLOCK
  5
36
100
AcDbEntity
  8
0
100
AcDbBlockBegin
  2
_OPEN90
 70
     0
 10
0.0
 20
0.0
 30
0.0
  3
_OPEN90
  1

  0
LINE
  5
37
100
AcDbEntity
  8
0
  6
BYBLOCK
 62
     0
100
AcDbLine
 10
-0.5
 20
0.5
 30
0.0
 11
0.0
 21
0.0
 31
0.0
  0
LINE
  5
38
100
AcDbEntity
  8
0
  6
BYBLOCK
 62
     0
100
AcDbLine
 10
0.0
 20
0.0
 30
0.0
 11
-0.5
 21
-0.5
 31
0.0
  0
LINE
  5
39
100
AcDbEntity
  8
0
  6
BYBLOCK
 62
     0
100
AcDbLine
 10
0.0
 20
0.0
 30
0.0
 11
-1.0
 21
0.0
 31
0.0
  0
ENDBLK
  5
3A
100
AcDbEntity
  8
0
100
AcDbBlockEnd
  0
BLOCK
  5
3C
100
AcDbEntity
  8
0
100
AcDbBlockBegin
  2
_CLOSEDBLANK
 70
     0
 10
0.0
 20
0.0
 30
0.0
  3
_CLOSEDBLANK
  1

  0
LINE
  5
3D
100
AcDbEntity
  8
0
  6
BYBLOCK
 62
     0
100
AcDbLine
 10
-1.0
 20
0.1666666666666666
 30
0.0
 11
0.0
 21
0.0
 31
0.0
  0
LINE
  5
3E
100
AcDbEntity
  8
0
  6
BYBLOCK
 62
     0
100
AcDbLine
 10
0.0
 20
0.0
 30
0.0
 11
-1.0
 21
-0.1666666666666666
 31
0.0
  0
LINE
  5
3F
100
AcDbEntity
  8
0
  6
BYBLOCK
 62
     0
100
AcDbLine
 10
-1.0
 20
0.1666666666666666
 30
0.0
 11
-1.0
 21
-0.1666666666666666
 31
0.0
  0
ENDBLK
  5
40
100
AcDbEntity
  8
0
100
AcDbBlockEnd
  0
BLOCK
  5
42
100
AcDbEntity
  8
0
100
AcDbBlockBegin
  2
_DOTBLANK
 70
     0
 10
0.0
 20
0.0
 30
0.0
  3
_DOTBLANK
  1

  0
CIRCLE
  5
43
100
AcDbEntity
  8
0
  6
BYBLOCK
 62
     0
100
AcDbCircle
 10
0.0
 20
0.0
 30
0.0
 40
0.5
  0
LINE
  5
44
100
AcDbEntity
  8
0
  6
BYBLOCK
 62
     0
100
AcDbLine
 10
-0.5
 20
0.0
 30
0.0
 11
-1.0
 21
0.0
 31
0.0
  0
ENDBLK
  5
45
100
AcDbEntity
  8
0
100
AcDbBlockEnd
  0
BLOCK
  5
46
100
AcDbEntity
  8
MAIN0
  6
CONTINUOUS
 62
3
100
AcDbBlockBegin
  2
*D0
 70
    65
 10
0.0
 20
0.0
 30
0.0
  0
LINE
  5
47
100
AcDbEntity
  8
MAIN0
  6
BYBLOCK
 62
0
100
AcDbLine
 10
144.7151266797266
 20
181.8627907818022
 30
0.0000000000000000
 11
144.7151266797266
 21
165.5627907996836
 31
0.0000000000000000
  0
LINE
  5
48
100
AcDbEntity
  8
MAIN0
  6
BYBLOCK
 62
0
100
AcDbLine
 10
141.7151266797266
 20
168.5627907996836
 30
0.0000000000000000
 11
120.7151266797266
 21
168.5627907996836
 31
0.0000000000000000
  0
INSERT
  5
49
100
AcDbEntity
  8
MAIN0
  6
BYBLOCK
 62
0
100
AcDbBlockReference
  2
_OPEN
 10
144.7151266797266
 20
168.5627907996836
 30
0.0000000000000000
 41
3.000000000000000
 42
3.000000000000000
 43
3.000000000000000
 50
360.0000000000000
  0
INSERT
  5
4A
100
AcDbEntity
  8
MAIN0
  6
BYBLOCK
 62
0
100
AcDbBlockReference
  2
_OPEN
 10
117.7151266797266
 20
168.5627907996836
 30
0.0000000000000000
 41
3.000000000000000
 42
3.000000000000000
 43
3.000000000000000
 50
180.0000000000000
  0
LINE
  5
4B
100
AcDbEntity
  8
MAIN0
  6
BYBLOCK
 62
0
100
AcDbLine
 10
117.7151266797266
 20
186.3627907818023
 30
0.0000000000000000
 11
117.7151266797266
 21
165.5627907996836
 31
0.0000000000000000
  0
MTEXT
  5
4C
100
AcDbEntity
  8
MAIN0
  6
BYBLOCK
 62
0
100
AcDbMText
 10
131.2151266797266
 20
171.3877907281581
 30
0.0000000000000000
 40
4.649999856948853
 41
0.0000000000000000
 71
     5
 72
     1
  1
\A1;27
 11
1.000000000000000
 21
0.0000000000000000
 31
0.0000000000000000
  7
STANDARD
  0
ENDBLK
  5
4D
100
AcDbEntity
  8
MAIN0
  6
CONTINUOUS
 62
3
100
AcDbBlockEnd
  0
BLOCK
  5
4F
100
AcDbEntity
  8
MAIN0
  6
CONTINUOUS
 62
3
100
AcDbBlockBegin
  2
*D1
 70
    65
 10
0.0
 20
0.0
 30
0.0
  0
LINE
  5
50
100
AcDbEntity
  8
MAIN0
  6
BYBLOCK
 62
0
100
AcDbLine
 10
255.3151266976080
 20
205.5627907996836
 30
0.0000000000000000
 11
282.7151266797266
 21
205.5627907996836
 31
0.0000000000000000
  0
LINE
  5
51
100
AcDbEntity
  8
MAIN0
  6
BYBLOCK
 62
0
100
AcDbLine
 10
279.7151266797266
 20
202.5627907996836
 30
0.0000000000000000
 11
279.7151266797266
 21
186.5627907996836
 31
0.0000000000000000
  0
INSERT
  5
52
100
AcDbEntity
  8
MAIN0
  6
BYBLOCK
 62
0
100
AcDbBlockReference
  2
_OPEN
 10
279.7151266797266
 20
205.5627907996836
 30
0.0000000000000000
 41
3.000000000000000
 42
3.000000000000000
 43
3.000000000000000
 50
90.00000000000000
  0
INSERT
  5
53
100
AcDbEntity
  8
MAIN0
  6
BYBLOCK
 62
0
100
AcDbBlockReference
  2
_OPEN
 10
279.7151266797266
 20
183.5627907996836
 30
0.0000000000000000
 41
3.000000000000000
 42
3.000000000000000
 43
3.000000000000000
 50
270.0000000000000
  0
LINE
  5
54
100
AcDbEntity
  8
MAIN0
  6
BYBLOCK
 62
0
100
AcDbLine
 10
255.3151266976080
 20
183.5627907996836
 30
0.0000000000000000
 11
282.7151266797266
 21
183.5627907996836
 31
0.0000000000000000
  0
MTEXT
  5
55
100
AcDbEntity
  8
MAIN0
  6
BYBLOCK
 62
0
100
AcDbMText
 10
276.6401267512521
 20
196.3896617440290
 30
0.0000000000000000
 40
4.649999856948853
 41
0.0000000000000000
 71
     5
 72
     1
  1
\A1;\U+220522
 11
6.123233995736766e-017
 21
1.000000000000000
 31
0.0000000000000000
  7
STANDARD
  0
ENDBLK
  5
56
100
AcDbEntity
  8
MAIN0
  6
CONTINUOUS
 62
3
100
AcDbBlockEnd
  0
BLOCK
  5
5D
100
AcDbEntity
  8
MAIN0
  6
CONTINUOUS
 62
3
100
AcDbBlockBegin
  2
*D2
 70
    65
 10
0.0
 20
0.0
 30
0.0
  0
LINE
  5
5E
100
AcDbEntity
  8
MAIN0
  6
BYBLOCK
 62
0
100
AcDbLine
 10
486.3901154084093
 20
178.2113934496531
 30
0.0000000000000000
 11
482.1748605262798
 21
162.4798480626904
 31
0.0000000000000000
  0
LINE
  5
5F
100
AcDbEntity
  8
MAIN0
  6
BYBLOCK
 62
0
100
AcDbLine
 10
534.7151266797265
 20
162.3627907818022
 30
0.0000000000000000
 11
534.7151266797259
 21
155.5627907996836
 31
0.0000000000000000
  0
ARC
  5
60
100
AcDbEntity
  8
MAIN0
  6
BYBLOCK
 62
0
100
AcDbCircle
 10
534.7151266797264
 20
358.5627907905742
 30
0.0000000000000000
 40
199.9999999908906
100
AcDbArc
 50
255.8594366927376
 51
269.1405633072645
  0
INSERT
  5
61
100
AcDbEntity
  8
MAIN0
  6
BYBLOCK
 62
0
100
AcDbBlockReference
  2
_OPEN
 10
482.9513176615872
 20
165.3776255415577
 30
0.0000000000000000
 41
3.000000000000000
 42
3.000000000000000
 43
3.000000000000000
 50
165.0000000000022
  0
INSERT
  5
62
100
AcDbEntity
  8
MAIN0
  6
BYBLOCK
 62
0
100
AcDbBlockReference
  2
_OPEN
 10
534.7151266797262
 20
158.5627907996836
 30
0.0000000000000000
 41
3.000000000000000
 42
3.000000000000000
 43
3.000000000000000
 50
359.9999999999999
  0
MTEXT
  5
63
100
AcDbEntity
  8
MAIN0
  6
BYBLOCK
 62
0
100
AcDbMText
 10
508.9786247205944
 20
163.0746501873105
 30
0.0000000000000000
 40
4.649999856948853
 41
0.0000000000000000
 71
     5
 72
     1
  1
\A1;15\U+00B0
 11
0.9914448613738128
 21
-0.1305261922200332
 31
0.0000000000000000
  7
STANDARD
  0
ENDBLK
  5
64
100
AcDbEntity
  8
MAIN0
  6
CONTINUOUS
 62
3
100
AcDbBlockEnd
  0
BLOCK
  5
68
100
AcDbEntity
  8
MAIN0
  6
CONTINUOUS
 62
3
100
AcDbBlockBegin
  2
*D3
 70
    65
 10
0.0
 20
0.0
 30
0.0
  0
LINE
  5
69
100
AcDbEntity
  8
MAIN0
  6
BYBLOCK
 62
0
100
AcDbLine
 10
237.7151266797266
 20
182.3627907818022
 30
0.0000000000000000
 11
237.7151266797266
 21
165.5627907996836
 31
0.0000000000000000
  0
LINE
  5
6A
100
AcDbEntity
  8
MAIN0
  6
BYBLOCK
 62
0
100
AcDbLine
 10
240.7151266797266
 20
168.5627907996836
 30
0.0000000000000000
 11
251.7151266797266
 21
168.5627907996836
 31
0.0000000000000000
  0
INSERT
  5
6B
100
AcDbEntity
  8
MAIN0
  6
BYBLOCK
 62
0
100
AcDbBlockReference
  2
_OPEN
 10
237.7151266797266
 20
168.5627907996836
 30
0.0000000000000000
 41
3.000000000000000
 42
3.000000000000000
 43
3.000000000000000
 50
180.0000000000000
  0
INSERT
  5
6C
100
AcDbEntity
  8
MAIN0
  6
BYBLOCK
 62
0
100
AcDbBlockReference
  2
_OPEN
 10
254.7151266797266
 20
168.5627907996836
 30
0.0000000000000000
 41
3.000000000000000
 42
3.000000000000000
 43
3.000000000000000
 50
0.0000000000000000
  0
LINE
  5
6D
100
AcDbEntity
  8
MAIN0
  6
BYBLOCK
 62
0
100
AcDbLine
 10
254.7151266797266
 20
181.8627907818022
 30
0.0000000000000000
 11
254.7151266797266
 21
165.5627907996836
 31
0.0000000000000000
  0
MTEXT
  5
6E
100
AcDbEntity
  8
MAIN0
  6
BYBLOCK
 62
0
100
AcDbMText
 10
246.2151266797266
 20
171.3877907281581
 30
0.0000000000000000
 40
4.649999856948853
 41
0.0000000000000000
 71
     5
 72
     1
  1
\A1;17
 11
1.000000000000000
 21
0.0000000000000000
 31
0.0000000000000000
  7
STANDARD
  0
ENDBLK
  5
6F
100
AcDbEntity
  8
MAIN0
  6
CONTINUOUS
 62
3
100
AcDbBlockEnd
  0
BLOCK
  5
73
100
AcDbEntity
  8
MAIN0
  6
CONTINUOUS
 62
3
100
AcDbBlockBegin
  2
*D4
 70
    65
 10
0.0
 20
0.0
 30
0.0
  0
LINE
  5
74
100
AcDbEntity
  8
MAIN0
  6
BYBLOCK
 62
0
100
AcDbLine
 10
534.7151266797266
 20
162.3627907818022
 30
0.0000000000000000
 11
534.7151266797264
 21
155.5627907996836
 31
0.0000000000000000
  0
LINE
  5
75
100
AcDbEntity
  8
MAIN0
  6
BYBLOCK
 62
0
100
AcDbLine
 10
625.3151266886673
 20
201.6389876184575
 30
0.0000000000000000
 11
636.2151266797264
 21
182.7596338314426
 31
0.0000000000000000
  0
ARC
  5
76
100
AcDbEntity
  8
MAIN0
  6
BYBLOCK
 62
0
100
AcDbCircle
 10
534.7151266797266
 20
358.5627907996828
 30
0.0000000000000000
 40
199.9999999999992
100
AcDbArc
 50
270.8594366926962
 51
299.1405633073039
  0
INSERT
  5
77
100
AcDbEntity
  8
MAIN0
  6
BYBLOCK
 62
0
100
AcDbBlockReference
  2
_OPEN
 10
534.7151266797266
 20
158.5627907996836
 30
0.0000000000000000
 41
3.000000000000000
 42
3.000000000000000
 43
3.000000000000000
 50
180.0000000000000
  0
INSERT
  5
78
100
AcDbEntity
  8
MAIN0
  6
BYBLOCK
 62
0
100
AcDbBlockReference
  2
_OPEN
 10
634.7151266797265
 20
185.3577100427960
 30
0.0000000000000000
 41
3.000000000000000
 42
3.000000000000000
 43
3.000000000000000
 50
30.00000000000011
  0
MTEXT
  5
79
100
AcDbEntity
  8
MAIN0
  6
BYBLOCK
 62
0
100
AcDbMText
 10
585.7477719163283
 20
168.1063659320482
 30
0.0000000000000000
 40
4.649999856948853
 41
0.0000000000000000
 71
     5
 72
     1
  1
\A1;30\U+00B0
 11
0.9659258262890679
 21
0.2588190451025222
 31
0.0000000000000000
  7
STANDARD
  0
ENDBLK
  5
7A
100
AcDbEntity
  8
MAIN0
  6
CONTINUOUS
 62
3
100
AcDbBlockEnd
  0
BLOCK
  5
7D
100
AcDbEntity
  8
MAIN0
  6
CONTINUOUS
 62
3
100
AcDbBlockBegin
  2
*D5
 70
    65
 10
0.0
 20
0.0
 30
0.0
  0
LINE
  5
7E
100
AcDbEntity
  8
MAIN0
  6
BYBLOCK
 62
0
100
AcDbLine
 10
226.7151266797266
 20
538.6627908175651
 30
0.0000000000000000
 11
226.7151266797266
 21
547.6168639829338
 31
0.0000000000000000
  0
LINE
  5
7F
100
AcDbEntity
  8
MAIN0
  6
BYBLOCK
 62
0
100
AcDbLine
 10
229.7151266797266
 20
544.6168639829338
 30
0.0000000000000000
 11
251.7151266797266
 21
544.6168639829338
 31
0.0000000000000000
  0
INSERT
  5
80
100
AcDbEntity
  8
MAIN0
  6
BYBLOCK
 62
0
100
AcDbBlockReference
  2
_OPEN
 10
226.7151266797266
 20
544.6168639829338
 30
0.0000000000000000
 41
3.000000000000000
 42
3.000000000000000
 43
3.000000000000000
 50
180.0000000000000
  0
INSERT
  5
81
100
AcDbEntity
  8
MAIN0
  6
BYBLOCK
 62
0
100
AcDbBlockReference
  2
_OPEN
 10
254.7151266797266
 20
544.6168639829338
 30
0.0000000000000000
 41
3.000000000000000
 42
3.000000000000000
 43
3.000000000000000
 50
0.0000000000000000
  0
LINE
  5
82
100
AcDbEntity
  8
MAIN0
  6
BYBLOCK
 62
0
100
AcDbLine
 10
254.7151266797266
 20
535.2627908175650
 30
0.0000000000000000
 11
254.7151266797266
 21
547.6168639829338
 31
0.0000000000000000
  0
MTEXT
  5
83
100
AcDbEntity
  8
MAIN0
  6
BYBLOCK
 62
0
100
AcDbMText
 10
244.0934814640533
 20
547.6918639114082
 30
0.0000000000000000
 40
4.649999856948853
 41
0.0000000000000000
 71
     5
 72
     1
  1
\A1;28
 11
1.000000000000000
 21
0.0000000000000000
 31
0.0000000000000000
  7
STANDARD
  0
ENDBLK
  5
84
100
AcDbEntity
  8
MAIN0
  6
CONTINUOUS
 62
3
100
AcDbBlockEnd
  0
BLOCK
  5
D6
100
AcDbEntity
  8
MAIN0
  6
CONTINUOUS
 62
3
100
AcDbBlockBegin
  2
*D6
 70
    65
 10
0.0
 20
0.0
 30
0.0
  0
LINE
  5
D7
100
AcDbEntity
  8
MAIN0
  6
BYBLOCK
 62
0
100
AcDbLine
 10
864.7151266797453
 20
494.7627908175807
 30
0.0000000000000000
 11
864.7151266797453
 21
536.5627907996836
 31
0.0000000000000000
  0
LINE
  5
D8
100
AcDbEntity
  8
MAIN0
  6
BYBLOCK
 62
0
100
AcDbLine
 10
861.7151266797453
 20
533.5627907996836
 30
0.0000000000000000
 11
697.7151266797492
 21
533.5627907996836
 31
0.0000000000000000
  0
INSERT
  5
D9
100
AcDbEntity
  8
MAIN0
  6
BYBLOCK
 62
0
100
AcDbBlockReference
  2
_OPEN
 10
864.7151266797453
 20
533.5627907996836
 30
0.0000000000000000
 41
3.000000000000000
 42
3.000000000000000
 43
3.000000000000000
 50
360.0000000000000
  0
INSERT
  5
DA
100
AcDbEntity
  8
MAIN0
  6
BYBLOCK
 62
0
100
AcDbBlockReference
  2
_OPEN
 10
694.7151266797492
 20
533.5627907996836
 30
0.0000000000000000
 41
3.000000000000000
 42
3.000000000000000
 43
3.000000000000000
 50
180.0000000000000
  0
LINE
  5
DB
100
AcDbEntity
  8
MAIN0
  6
BYBLOCK
 62
0
100
AcDbLine
 10
694.7151266797492
 20
494.7627908175493
 30
0.0000000000000000
 11
694.7151266797492
 21
536.5627907996836
 31
0.0000000000000000
  0
MTEXT
  5
DC
100
AcDbEntity
  8
MAIN0
  6
BYBLOCK
 62
0
100
AcDbMText
 10
779.7151266797473
 20
536.3877907281581
 30
0.0000000000000000
 40
4.649999856948853
 41
0.0000000000000000
 71
     5
 72
     1
  1
\A1;450
 11
1.000000000000000
 21
0.0000000000000000
 31
0.0000000000000000
  7
STANDARD
  0
ENDBLK
  5
DD
100
AcDbEntity
  8
MAIN0
  6
CONTINUOUS
 62
3
100
AcDbBlockEnd
  0
BLOCK
  5
DF
100
AcDbEntity
  8
MAIN0
  6
CONTINUOUS
 62
3
100
AcDbBlockBegin
  2
*D7
 70
    65
 10
0.0
 20
0.0
 30
0.0
  0
LINE
  5
E0
100
AcDbEntity
  8
MAIN0
  6
BYBLOCK
 62
0
100
AcDbLine
 10
794.7151266797648
 20
510.7627908175678
 30
0.0000000000000000
 11
794.7151266797741
 21
526.5627907996836
 31
0.0000000000000000
  0
LINE
  5
E1
100
AcDbEntity
  8
MAIN0
  6
BYBLOCK
 62
0
100
AcDbLine
 10
791.7151266797723
 20
523.5627907996836
 30
0.0000000000000000
 11
767.7151266797641
 21
523.5627907996836
 31
0.0000000000000000
  0
INSERT
  5
E2
100
AcDbEntity
  8
MAIN0
  6
BYBLOCK
 62
0
100
AcDbBlockReference
  2
_OPEN
 10
794.7151266797723
 20
523.5627907996836
 30
0.0000000000000000
 41
3.000000000000000
 42
3.000000000000000
 43
3.000000000000000
 50
360.0000000000000
  0
INSERT
  5
E3
100
AcDbEntity
  8
MAIN0
  6
BYBLOCK
 62
0
100
AcDbBlockReference
  2
_OPEN
 10
764.7151266797640
 20
523.5627907996836
 30
0.0000000000000000
 41
3.000000000000000
 42
3.000000000000000
 43
3.000000000000000
 50
180.0000000000000
  0
LINE
  5
E4
100
AcDbEntity
  8
MAIN0
  6
BYBLOCK
 62
0
100
AcDbLine
 10
764.7151266797641
 20
510.7627908175623
 30
0.0000000000000000
 11
764.7151266797640
 21
526.5627907996836
 31
0.0000000000000000
  0
MTEXT
  5
E5
100
AcDbEntity
  8
MAIN0
  6
BYBLOCK
 62
0
100
AcDbMText
 10
779.7151266797682
 20
526.3877907281581
 30
0.0000000000000000
 40
4.649999856948853
 41
0.0000000000000000
 71
     5
 72
     1
  1
\A1;\U+220530
 11
1.000000000000000
 21
0.0000000000000000
 31
0.0000000000000000
  7
STANDARD
  0
ENDBLK
  5
E6
100
AcDbEntity
  8
MAIN0
  6
CONTINUOUS
 62
3
100
AcDbBlockEnd
  0
BLOCK
  5
E8
100
AcDbEntity
  8
MAIN0
  6
CONTINUOUS
 62
3
100
AcDbBlockBegin
  2
*D8
 70
    65
 10
0.0
 20
0.0
 30
0.0
  0
LINE
  5
E9
100
AcDbEntity
  8
MAIN0
  6
BYBLOCK
 62
0
100
AcDbLine
 10
765.5151266618850
 20
511.5627907996812
 30
0.0000000000000000
 11
751.7151266797266
 21
511.5627907996813
 31
0.0000000000000000
  0
LINE
  5
EA
100
AcDbEntity
  8
MAIN0
  6
BYBLOCK
 62
0
100
AcDbLine
 10
754.7151266797266
 20
508.5627907996812
 30
0.0000000000000000
 11
754.7151266797266
 21
496.5627907996671
 31
0.0000000000000000
  0
INSERT
  5
EB
100
AcDbEntity
  8
MAIN0
  6
BYBLOCK
 62
0
100
AcDbBlockReference
  2
_OPEN
 10
754.7151266797266
 20
511.5627907996812
 30
0.0000000000000000
 41
3.000000000000000
 42
3.000000000000000
 43
3.000000000000000
 50
90.00000000000000
  0
INSERT
  5
EC
100
AcDbEntity
  8
MAIN0
  6
BYBLOCK
 62
0
100
AcDbBlockReference
  2
_OPEN
 10
754.7151266797266
 20
493.5627907996671
 30
0.0000000000000000
 41
3.000000000000000
 42
3.000000000000000
 43
3.000000000000000
 50
270.0000000000000
  0
MTEXT
  5
ED
100
AcDbEntity
  8
MAIN0
  6
BYBLOCK
 62
0
100
AcDbMText
 10
751.6401267512522
 20
506.4715126705263
 30
0.0000000000000000
 40
4.649999856948853
 41
0.0000000000000000
 71
     5
 72
     1
  1
\A1;18
 11
6.123233995736766e-017
 21
1.000000000000000
 31
0.0000000000000000
  7
STANDARD
  0
ENDBLK
  5
EE
100
AcDbEntity
  8
MAIN0
  6
CONTINUOUS
 62
3
100
AcDbBlockEnd
  0
BLOCK
  5
F0
100
AcDbEntity
  8
MAIN0
  6
CONTINUOUS
 62
3
100
AcDbBlockBegin
  2
*D9
 70
    65
 10
0.0
 20
0.0
 30
0.0
  0
LINE
  5
F1
100
AcDbEntity
  8
MAIN0
  6
BYBLOCK
 62
0
100
AcDbLine
 10
714.7968270665400
 20
501.5627907996744
 30
0.0000000000000000
 11
714.7968270665400
 21
485.5627907996744
 31
0.0000000000000000
  0
INSERT
  5
F2
100
AcDbEntity
  8
MAIN0
  6
BYBLOCK
 62
0
100
AcDbBlockReference
  2
_OPEN
 10
714.7968270665400
 20
501.5627907996744
 30
0.0000000000000000
 41
3.000000000000000
 42
3.000000000000000
 43
3.000000000000000
 50
270.0000000000000
  0
INSERT
  5
F3
100
AcDbEntity
  8
MAIN0
  6
BYBLOCK
 62
0
100
AcDbBlockReference
  2
_OPEN
 10
714.7968270665400
 20
485.5627907996744
 30
0.0000000000000000
 41
3.000000000000000
 42
3.000000000000000
 43
3.000000000000000
 50
90.00000000000000
  0
LINE
  5
F4
100
AcDbEntity
  8
MAIN0
  6
BYBLOCK
 62
0
100
AcDbLine
 10
714.7968270665400
 20
504.5627907996744
 30
0.0000000000000000
 11
714.7968270665400
 21
515.2133095067784
 31
0.0000000000000000
  0
LINE
  5
F5
100
AcDbEntity
  8
MAIN0
  6
BYBLOCK
 62
0
100
AcDbLine
 10
714.7968270665400
 20
482.5627907996744
 30
0.0000000000000000
 11
714.7968270665400
 21
481.0627907996744
 31
0.0000000000000000
  0
MTEXT
  5
F6
100
AcDbEntity
  8
MAIN0
  6
BYBLOCK
 62
0
100
AcDbMText
 10
711.7218271380656
 20
510.1883096498295
 30
0.0000000000000000
 40
4.649999856948853
 41
0.0000000000000000
 71
     5
 72
     1
  1
\A1;\U+220516
 11
6.123233995736766e-017
 21
1.000000000000000
 31
0.0000000000000000
  7
STANDARD
  0
ENDBLK
  5
F7
100
AcDbEntity
  8
MAIN0
  6
CONTINUOUS
 62
3
100
AcDbBlockEnd
  0
BLOCK
  5
F9
100
AcDbEntity
  8
MAIN0
  6
CONTINUOUS
 62
3
100
AcDbBlockBegin
  2
*D10
 70
    65
 10
0.0
 20
0.0
 30
0.0
  0
LINE
  5
FA
100
AcDbEntity
  8
MAIN0
  6
BYBLOCK
 62
0
100
AcDbLine
 10
793.9151266976476
 20
511.5627907996860
 30
0.0000000000000000
 11
822.7151266797266
 21
511.5627907996861
 31
0.0000000000000000
  0
LINE
  5
FB
100
AcDbEntity
  8
MAIN0
  6
BYBLOCK
 62
0
100
AcDbLine
 10
819.7151266797266
 20
508.5627907996861
 30
0.0000000000000000
 11
819.7151266797266
 21
374.5627907996853
 31
0.0000000000000000
  0
INSERT
  5
FC
100
AcDbEntity
  8
MAIN0
  6
BYBLOCK
 62
0
100
AcDbBlockReference
  2
_OPEN
 10
819.7151266797266
 20
511.5627907996861
 30
0.0000000000000000
 41
3.000000000000000
 42
3.000000000000000
 43
3.000000000000000
 50
90.00000000000000
  0
INSERT
  5
FD
100
AcDbEntity
  8
MAIN0
  6
BYBLOCK
 62
0
100
AcDbBlockReference
  2
_OPEN
 10
819.7151266797266
 20
371.5627907996853
 30
0.0000000000000000
 41
3.000000000000000
 42
3.000000000000000
 43
3.000000000000000
 50
270.0000000000000
  0
LINE
  5
FE
100
AcDbEntity
  8
MAIN0
  6
BYBLOCK
 62
0
100
AcDbLine
 10
789.6651266975014
 20
371.5627907996853
 30
0.0000000000000000
 11
822.7151266797266
 21
371.5627907996853
 31
0.0000000000000000
  0
MTEXT
  5
FF
100
AcDbEntity
  8
MAIN0
  6
BYBLOCK
 62
0
100
AcDbMText
 10
816.8901267512522
 20
441.5627907996857
 30
0.0000000000000000
 40
4.649999856948853
 41
0.0000000000000000
 71
     5
 72
     1
  1
\A1;220
 11
6.123233995736766e-017
 21
1.000000000000000
 31
0.0000000000000000
  7
STANDARD
  0
ENDBLK
  5
100
100
AcDbEntity
  8
MAIN0
  6
CONTINUOUS
 62
3
100
AcDbBlockEnd
  0
BLOCK
  5
102
100
AcDbEntity
  8
MAIN0
  6
CONTINUOUS
 62
3
100
AcDbBlockBegin
  2
*D11
 70
    65
 10
0.0
 20
0.0
 30
0.0
  0
LINE
  5
103
100
AcDbEntity
  8
MAIN0
  6
BYBLOCK
 62
0
100
AcDbLine
 10
789.6651266975014
 20
371.5627907996854
 30
0.0000000000000000
 11
807.7151266797266
 21
371.5627907996872
 31
0.0000000000000000
  0
LINE
  5
104
100
AcDbEntity
  8
MAIN0
  6
BYBLOCK
 62
0
100
AcDbLine
 10
804.7151266797266
 20
374.5627907996869
 30
0.0000000000000000
 11
804.7151266797266
 21
388.5627907996854
 31
0.0000000000000000
  0
INSERT
  5
105
100
AcDbEntity
  8
MAIN0
  6
BYBLOCK
 62
0
100
AcDbBlockReference
  2
_OPEN
 10
804.7151266797266
 20
371.5627907996869
 30
0.0000000000000000
 41
3.000000000000000
 42
3.000000000000000
 43
3.000000000000000
 50
270.0000000000000
  0
INSERT
  5
106
100
AcDbEntity
  8
MAIN0
  6
BYBLOCK
 62
0
100
AcDbBlockReference
  2
_OPEN
 10
804.7151266797266
 20
391.5627907996854
 30
0.0000000000000000
 41
3.000000000000000
 42
3.000000000000000
 43
3.000000000000000
 50
90.00000000000000
  0
LINE
  5
107
100
AcDbEntity
  8
MAIN0
  6
BYBLOCK
 62
0
100
AcDbLine
 10
790.6651266975223
 20
391.5627907996854
 30
0.0000000000000000
 11
807.7151266797266
 21
391.5627907996854
 31
0.0000000000000000
  0
MTEXT
  5
108
100
AcDbEntity
  8
MAIN0
  6
BYBLOCK
 62
0
100
AcDbMText
 10
801.8901267512522
 20
381.5627907996861
 30
0.0000000000000000
 40
4.649999856948853
 41
0.0000000000000000
 71
     5
 72
     1
  1
\A1;20
 11
6.123233995736766e-017
 21
1.000000000000000
 31
0.0000000000000000
  7
STANDARD
  0
ENDBLK
  5
109
100
AcDbEntity
  8
MAIN0
  6
CONTINUOUS
 62
3
100
AcDbBlockEnd
  0
BLOCK
  5
10B
100
AcDbEntity
  8
MAIN0
  6
CONTINUOUS
 62
3
100
AcDbBlockBegin
  2
*D12
 70
    65
 10
0.0
 20
0.0
 30
0.0
  0
LINE
  5
10C
100
AcDbEntity
  8
MAIN0
  6
BYBLOCK
 62
0
100
AcDbLine
 10
779.6656065174213
 20
328.0057092440413
 30
0.0000000000000000
 11
791.5331461643123
 21
316.1381695971501
 31
0.0000000000000000
  0
LINE
  5
10D
100
AcDbEntity
  8
MAIN0
  6
BYBLOCK
 62
0
100
AcDbLine
 10
789.4118258207525
 20
318.2594899407097
 30
0.0000000000000000
 11
800.0184275385500
 21
328.8660916585071
 31
0.0000000000000000
  0
INSERT
  5
10E
100
AcDbEntity
  8
MAIN0
  6
BYBLOCK
 62
0
100
AcDbBlockReference
  2
_OPEN
 10
789.4118258207525
 20
318.2594899407097
 30
0.0000000000000000
 41
3.000000000000000
 42
3.000000000000000
 43
3.000000000000000
 50
44.99999999999969
  0
INSERT
  5
10F
100
AcDbEntity
  8
MAIN0
  6
BYBLOCK
 62
0
100
AcDbBlockReference
  2
_OPEN
 10
800.0184275385500
 20
328.8660916585071
 30
0.0000000000000000
 41
3.000000000000000
 42
3.000000000000000
 43
3.000000000000000
 50
224.9999999999997
  0
LINE
  5
110
100
AcDbEntity
  8
MAIN0
  6
BYBLOCK
 62
0
100
AcDbLine
 10
787.2905054771929
 20
316.1381695971501
 30
0.0000000000000000
 11
786.2298453054132
 21
315.0775094253703
 31
0.0000000000000000
  0
LINE
  5
111
100
AcDbEntity
  8
MAIN0
  6
BYBLOCK
 62
0
100
AcDbLine
 10
802.1397478821098
 20
330.9874120020667
 30
0.0000000000000000
 11
817.7584663486509
 21
346.6061304686078
 31
0.0000000000000000
  0
LINE
  5
112
100
AcDbEntity
  8
MAIN0
  6
BYBLOCK
 62
0
100
AcDbLine
 10
790.2722082352298
 20
338.6123109618278
 30
0.0000000000000000
 11
802.1397478821095
 21
326.7447713149475
 31
0.0000000000000000
  0
MTEXT
  5
113
100
AcDbEntity
  8
MAIN0
  6
BYBLOCK
 62
0
100
AcDbMText
 10
808.6633054297713
 20
341.8596761528731
 30
0.0000000000000000
 40
4.649999856948853
 41
0.0000000000000000
 71
     5
 72
     1
  1
\A1;□15\H0.903226x;\S 0^ -0.1;
 11
0.7071067811865504
 21
0.7071067811865447
 31
0.0000000000000000
  7
KNJYOKO
  0
ENDBLK
  5
114
100
AcDbEntity
  8
MAIN0
  6
CONTINUOUS
 62
3
100
AcDbBlockEnd
  0
BLOCK
  5
187
100
AcDbEntity
  8
MAIN0
  6
CONTINUOUS
 62
3
100
AcDbBlockBegin
  2
*D13
 70
    65
 10
0.0
 20
0.0
 30
0.0
  0
LINE
  5
188
100
AcDbEntity
  8
MAIN0
  6
BYBLOCK
 62
0
100
AcDbLine
 10
144.7151266797265
 20
535.2627908175650
 30
0.0000000000000000
 11
144.7151266797266
 21
566.5627907996836
 31
0.0000000000000000
  0
LINE
  5
189
100
AcDbEntity
  8
MAIN0
  6
BYBLOCK
 62
0
100
AcDbLine
 10
147.7151266797266
 20
563.5627907996836
 30
0.0000000000000000
 11
251.7151266797266
 21
563.5627907996836
 31
0.0000000000000000
  0
INSERT
  5
18A
100
AcDbEntity
  8
MAIN0
  6
BYBLOCK
 62
0
100
AcDbBlockReference
  2
_OPEN
 10
144.7151266797266
 20
563.5627907996836
 30
0.0000000000000000
 41
3.000000000000000
 42
3.000000000000000
 43
3.000000000000000
 50
180.0000000000000
  0
INSERT
  5
18B
100
AcDbEntity
  8
MAIN0
  6
BYBLOCK
 62
0
100
AcDbBlockReference
  2
_OPEN
 10
254.7151266797266
 20
563.5627907996836
 30
0.0000000000000000
 41
3.000000000000000
 42
3.000000000000000
 43
3.000000000000000
 50
0.0000000000000000
  0
LINE
  5
18C
100
AcDbEntity
  8
MAIN0
  6
BYBLOCK
 62
0
100
AcDbLine
 10
254.7151266797266
 20
535.2627908175650
 30
0.0000000000000000
 11
254.7151266797266
 21
566.5627907996836
 31
0.0000000000000000
  0
MTEXT
  5
18D
100
AcDbEntity
  8
MAIN0
  6
BYBLOCK
 62
0
100
AcDbMText
 10
199.7151266797266
 20
566.3877907281581
 30
0.0000000000000000
 40
4.649999856948853
 41
0.0000000000000000
 71
     5
 72
     1
  1
\A1;110
 11
1.000000000000000
 21
0.0000000000000000
 31
0.0000000000000000
  7
STANDARD
  0
ENDBLK
  5
18E
100
AcDbEntity
  8
MAIN0
  6
CONTINUOUS
 62
3
100
AcDbBlockEnd
  0
BLOCK
  5
190
100
AcDbEntity
  8
MAIN0
  6
CONTINUOUS
 62
3
100
AcDbBlockBegin
  2
*D14
 70
    65
 10
0.0
 20
0.0
 30
0.0
  0
LINE
  5
191
100
AcDbEntity
  8
MAIN0
  6
BYBLOCK
 62
0
100
AcDbLine
 10
144.7151266797265
 20
535.2627908175650
 30
0.0000000000000000
 11
144.7151266797265
 21
556.5627907996836
 31
0.0000000000000000
  0
LINE
  5
192
100
AcDbEntity
  8
MAIN0
  6
BYBLOCK
 62
0
100
AcDbLine
 10
147.7151266797265
 20
553.5627907996836
 30
0.0000000000000000
 11
179.7151266797266
 21
553.5627907996836
 31
0.0000000000000000
  0
INSERT
  5
193
100
AcDbEntity
  8
MAIN0
  6
BYBLOCK
 62
0
100
AcDbBlockReference
  2
_OPEN
 10
144.7151266797265
 20
553.5627907996836
 30
0.0000000000000000
 41
3.000000000000000
 42
3.000000000000000
 43
3.000000000000000
 50
180.0000000000000
  0
INSERT
  5
194
100
AcDbEntity
  8
MAIN0
  6
BYBLOCK
 62
0
100
AcDbBlockReference
  2
_OPEN
 10
182.7151266797266
 20
553.5627907996836
 30
0.0000000000000000
 41
3.000000000000000
 42
3.000000000000000
 43
3.000000000000000
 50
0.0000000000000000
  0
LINE
  5
195
100
AcDbEntity
  8
MAIN0
  6
BYBLOCK
 62
0
100
AcDbLine
 10
182.7151266797266
 20
542.2627908175650
 30
0.0000000000000000
 11
182.7151266797266
 21
556.5627907996836
 31
0.0000000000000000
  0
MTEXT
  5
196
100
AcDbEntity
  8
MAIN0
  6
BYBLOCK
 62
0
100
AcDbMText
 10
163.7151266797265
 20
556.3877907281581
 30
0.0000000000000000
 40
4.649999856948853
 41
0.0000000000000000
 71
     5
 72
     1
  1
\A1;38
 11
1.000000000000000
 21
0.0000000000000000
 31
0.0000000000000000
  7
STANDARD
  0
ENDBLK
  5
197
100
AcDbEntity
  8
MAIN0
  6
CONTINUOUS
 62
3
100
AcDbBlockEnd
  0
BLOCK
  5
199
100
AcDbEntity
  8
MAIN0
  6
CONTINUOUS
 62
3
100
AcDbBlockBegin
  2
*D15
 70
    65
 10
0.0
 20
0.0
 30
0.0
  0
LINE
  5
19A
100
AcDbEntity
  8
MAIN0
  6
BYBLOCK
 62
0
100
AcDbLine
 10
182.7151266797266
 20
542.2627908175650
 30
0.0000000000000000
 11
182.7151266797266
 21
556.5627907996836
 31
0.0000000000000000
  0
LINE
  5
19B
100
AcDbEntity
  8
MAIN0
  6
BYBLOCK
 62
0
100
AcDbLine
 10
185.7151266797266
 20
553.5627907996836
 30
0.0000000000000000
 11
251.7151266797266
 21
553.5627907996836
 31
0.0000000000000000
  0
INSERT
  5
19C
100
AcDbEntity
  8
MAIN0
  6
BYBLOCK
 62
0
100
AcDbBlockReference
  2
_OPEN
 10
182.7151266797266
 20
553.5627907996836
 30
0.0000000000000000
 41
3.000000000000000
 42
3.000000000000000
 43
3.000000000000000
 50
180.0000000000000
  0
INSERT
  5
19D
100
AcDbEntity
  8
MAIN0
  6
BYBLOCK
 62
0
100
AcDbBlockReference
  2
_OPEN
 10
254.7151266797266
 20
553.5627907996836
 30
0.0000000000000000
 41
3.000000000000000
 42
3.000000000000000
 43
3.000000000000000
 50
0.0000000000000000
  0
LINE
  5
19E
100
AcDbEntity
  8
MAIN0
  6
BYBLOCK
 62
0
100
AcDbLine
 10
254.7151266797266
 20
535.2627908175650
 30
0.0000000000000000
 11
254.7151266797266
 21
556.5627907996836
 31
0.0000000000000000
  0
MTEXT
  5
19F
100
AcDbEntity
  8
MAIN0
  6
BYBLOCK
 62
0
100
AcDbMText
 10
218.7151266797266
 20
556.3877907281581
 30
0.0000000000000000
 40
4.649999856948853
 41
0.0000000000000000
 71
     5
 72
     1
  1
\A1;72
 11
1.000000000000000
 21
0.0000000000000000
 31
0.0000000000000000
  7
STANDARD
  0
ENDBLK
  5
1A0
100
AcDbEntity
  8
MAIN0
  6
CONTINUOUS
 62
3
100
AcDbBlockEnd
  0
BLOCK
  5
1A2
100
AcDbEntity
  8
MAIN0
  6
CONTINUOUS
 62
3
100
AcDbBlockBegin
  2
*D16
 70
    65
 10
0.0
 20
0.0
 30
0.0
  0
LINE
  5
1A3
100
AcDbEntity
  8
MAIN0
  6
BYBLOCK
 62
0
100
AcDbLine
 10
160.7151266797265
 20
535.2627908175650
 30
0.0000000000000000
 11
160.7151266797266
 21
546.5627907996836
 31
0.0000000000000000
  0
LINE
  5
1A4
100
AcDbEntity
  8
MAIN0
  6
BYBLOCK
 62
0
100
AcDbLine
 10
163.7151266797266
 20
543.5627907996836
 30
0.0000000000000000
 11
201.7151266797266
 21
543.5627907996836
 31
0.0000000000000000
  0
INSERT
  5
1A5
100
AcDbEntity
  8
MAIN0
  6
BYBLOCK
 62
0
100
AcDbBlockReference
  2
_OPEN
 10
160.7151266797266
 20
543.5627907996836
 30
0.0000000000000000
 41
3.000000000000000
 42
3.000000000000000
 43
3.000000000000000
 50
180.0000000000000
  0
INSERT
  5
1A6
100
AcDbEntity
  8
MAIN0
  6
BYBLOCK
 62
0
100
AcDbBlockReference
  2
_OPEN
 10
204.7151266797266
 20
543.5627907996836
 30
0.0000000000000000
 41
3.000000000000000
 42
3.000000000000000
 43
3.000000000000000
 50
0.0000000000000000
  0
LINE
  5
1A7
100
AcDbEntity
  8
MAIN0
  6
BYBLOCK
 62
0
100
AcDbLine
 10
204.7151266797265
 20
535.2627908175650
 30
0.0000000000000000
 11
204.7151266797266
 21
546.5627907996836
 31
0.0000000000000000
  0
MTEXT
  5
1A8
100
AcDbEntity
  8
MAIN0
  6
BYBLOCK
 62
0
100
AcDbMText
 10
174.5319743670403
 20
546.6377907281581
 30
0.0000000000000000
 40
4.649999856948853
 41
0.0000000000000000
 71
     5
 72
     1
  1
\A1;\U+220544
 11
1.000000000000000
 21
0.0000000000000000
 31
0.0000000000000000
  7
STANDARD
  0
ENDBLK
  5
1A9
100
AcDbEntity
  8
MAIN0
  6
CONTINUOUS
 62
3
100
AcDbBlockEnd
  0
BLOCK
  5
1AB
100
AcDbEntity
  8
MAIN0
  6
CONTINUOUS
 62
3
100
AcDbBlockBegin
  2
*D17
 70
    65
 10
0.0
 20
0.0
 30
0.0
  0
LINE
  5
1AC
100
AcDbEntity
  8
MAIN0
  6
BYBLOCK
 62
0
100
AcDbLine
 10
143.5151266618452
 20
208.5627907996836
 30
0.0000000000000000
 11
106.7151266797266
 21
208.5627907996836
 31
0.0000000000000000
  0
LINE
  5
1AD
100
AcDbEntity
  8
MAIN0
  6
BYBLOCK
 62
0
100
AcDbLine
 10
109.7151266797266
 20
211.5627907996836
 30
0.0000000000000000
 11
109.7151266797266
 21
505.5627907996836
 31
0.0000000000000000
  0
INSERT
  5
1AE
100
AcDbEntity
  8
MAIN0
  6
BYBLOCK
 62
0
100
AcDbBlockReference
  2
_OPEN
 10
109.7151266797266
 20
208.5627907996836
 30
0.0000000000000000
 41
3.000000000000000
 42
3.000000000000000
 43
3.000000000000000
 50
270.0000000000000
  0
INSERT
  5
1AF
100
AcDbEntity
  8
MAIN0
  6
BYBLOCK
 62
0
100
AcDbBlockReference
  2
_OPEN
 10
109.7151266797266
 20
508.5627907996836
 30
0.0000000000000000
 41
3.000000000000000
 42
3.000000000000000
 43
3.000000000000000
 50
90.00000000000000
  0
LINE
  5
1B0
100
AcDbEntity
  8
MAIN0
  6
BYBLOCK
 62
0
100
AcDbLine
 10
143.5151266618451
 20
508.5627907996836
 30
0.0000000000000000
 11
106.7151266797266
 21
508.5627907996836
 31
0.0000000000000000
  0
MTEXT
  5
1B1
100
AcDbEntity
  8
MAIN0
  6
BYBLOCK
 62
0
100
AcDbMText
 10
106.8901267512521
 20
358.5627907810572
 30
0.0000000000000000
 40
4.649999856948853
 41
0.0000000000000000
 71
     5
 72
     1
  1
\A1;\U+2205300H6\H0.903226x;\S＋0.032^ 　0;
 11
6.123233995736766e-017
 21
1.000000000000000
 31
0.0000000000000000
  7
KNJYOKO
  0
ENDBLK
  5
1B2
100
AcDbEntity
  8
MAIN0
  6
CONTINUOUS
 62
3
100
AcDbBlockEnd
  0
BLOCK
  5
1B4
100
AcDbEntity
  8
MAIN0
  6
CONTINUOUS
 62
3
100
AcDbBlockBegin
  2
*D18
 70
    65
 10
0.0
 20
0.0
 30
0.0
  0
LINE
  5
1B5
100
AcDbEntity
  8
MAIN0
  6
BYBLOCK
 62
0
100
AcDbLine
 10
151.5151266618452
 20
408.5627907996836
 30
0.0000000000000000
 11
121.8185012555396
 21
408.5627907996836
 31
0.0000000000000000
  0
LINE
  5
1B6
100
AcDbEntity
  8
MAIN0
  6
BYBLOCK
 62
0
100
AcDbLine
 10
124.8185012555396
 20
405.5627907996836
 30
0.0000000000000000
 11
124.8185012555396
 21
311.5627907996836
 31
0.0000000000000000
  0
INSERT
  5
1B7
100
AcDbEntity
  8
MAIN0
  6
BYBLOCK
 62
0
100
AcDbBlockReference
  2
_OPEN
 10
124.8185012555396
 20
408.5627907996836
 30
0.0000000000000000
 41
3.000000000000000
 42
3.000000000000000
 43
3.000000000000000
 50
90.00000000000000
  0
INSERT
  5
1B8
100
AcDbEntity
  8
MAIN0
  6
BYBLOCK
 62
0
100
AcDbBlockReference
  2
_OPEN
 10
124.8185012555396
 20
308.5627907996836
 30
0.0000000000000000
 41
3.000000000000000
 42
3.000000000000000
 43
3.000000000000000
 50
270.0000000000000
  0
LINE
  5
1B9
100
AcDbEntity
  8
MAIN0
  6
BYBLOCK
 62
0
100
AcDbLine
 10
151.5151266618452
 20
308.5627907996836
 30
0.0000000000000000
 11
121.8185012555396
 21
308.5627907996836
 31
0.0000000000000000
  0
MTEXT
  5
1BA
100
AcDbEntity
  8
MAIN0
  6
BYBLOCK
 62
0
100
AcDbMText
 10
121.7435013270652
 20
358.5627907996836
 30
0.0000000000000000
 40
4.649999856948853
 41
0.0000000000000000
 71
     5
 72
     1
  1
\A1;\U+2205100
 11
6.123233995736766e-017
 21
1.000000000000000
 31
0.0000000000000000
  7
STANDARD
  0
ENDBLK
  5
1BB
100
AcDbEntity
  8
MAIN0
  6
CONTINUOUS
 62
3
100
AcDbBlockEnd
  0
BLOCK
  5
1BD
100
AcDbEntity
  8
MAIN0
  6
CONTINUOUS
 62
3
100
AcDbBlockBegin
  2
*D19
 70
    65
 10
0.0
 20
0.0
 30
0.0
  0
LINE
  5
1BE
100
AcDbEntity
  8
MAIN0
  6
BYBLOCK
 62
0
100
AcDbLine
 10
145.5151266618451
 20
536.0627907996836
 30
0.0000000000000000
 11
91.71512667972655
 21
536.0627907996836
 31
0.0000000000000000
  0
LINE
  5
1BF
100
AcDbEntity
  8
MAIN0
  6
BYBLOCK
 62
0
100
AcDbLine
 10
94.71512667972655
 20
533.0627907996836
 30
0.0000000000000000
 11
94.71512667972655
 21
184.0627907996836
 31
0.0000000000000000
  0
INSERT
  5
1C0
100
AcDbEntity
  8
MAIN0
  6
BYBLOCK
 62
0
100
AcDbBlockReference
  2
_OPEN
 10
94.71512667972655
 20
536.0627907996836
 30
0.0000000000000000
 41
3.000000000000000
 42
3.000000000000000
 43
3.000000000000000
 50
90.00000000000000
  0
INSERT
  5
1C1
100
AcDbEntity
  8
MAIN0
  6
BYBLOCK
 62
0
100
AcDbBlockReference
  2
_OPEN
 10
94.71512667972655
 20
181.0627907996836
 30
0.0000000000000000
 41
3.000000000000000
 42
3.000000000000000
 43
3.000000000000000
 50
270.0000000000000
  0
LINE
  5
1C2
100
AcDbEntity
  8
MAIN0
  6
BYBLOCK
 62
0
100
AcDbLine
 10
145.5151266618452
 20
181.0627907996836
 30
0.0000000000000000
 11
91.71512667972655
 21
181.0627907996836
 31
0.0000000000000000
  0
MTEXT
  5
1C3
100
AcDbEntity
  8
MAIN0
  6
BYBLOCK
 62
0
100
AcDbMText
 10
91.89012675125213
 20
358.5627907996836
 30
0.0000000000000000
 40
4.649999856948853
 41
0.0000000000000000
 71
     5
 72
     1
  1
\A1;\U+2205355
 11
6.123233995736766e-017
 21
1.000000000000000
 31
0.0000000000000000
  7
STANDARD
  0
ENDBLK
  5
1C4
100
AcDbEntity
  8
MAIN0
  6
CONTINUOUS
 62
3
100
AcDbBlockEnd
  0
BLOCK
  5
1C6
100
AcDbEntity
  8
MAIN0
  6
CONTINUOUS
 62
3
100
AcDbBlockBegin
  2
*D20
 70
    65
 10
0.0
 20
0.0
 30
0.0
  0
LINE
  5
1C7
100
AcDbEntity
  8
MAIN0
  6
BYBLOCK
 62
0
100
AcDbLine
 10
144.7151266797266
 20
423.5627907996836
 30
0.0000000000000000
 11
151.7151266797266
 21
423.5627907996836
 31
0.0000000000000000
  0
INSERT
  5
1C8
100
AcDbEntity
  8
MAIN0
  6
BYBLOCK
 62
0
100
AcDbBlockReference
  2
_OPEN
 10
144.7151266797266
 20
423.5627907996836
 30
0.0000000000000000
 41
3.000000000000000
 42
3.000000000000000
 43
3.000000000000000
 50
0.0000000000000000
  0
INSERT
  5
1C9
100
AcDbEntity
  8
MAIN0
  6
BYBLOCK
 62
0
100
AcDbBlockReference
  2
_OPEN
 10
151.7151266797266
 20
423.5627907996836
 30
0.0000000000000000
 41
3.000000000000000
 42
3.000000000000000
 43
3.000000000000000
 50
180.0000000000000
  0
LINE
  5
1CA
100
AcDbEntity
  8
MAIN0
  6
BYBLOCK
 62
0
100
AcDbLine
 10
141.7151266797266
 20
423.5627907996836
 30
0.0000000000000000
 11
135.9445901446343
 21
423.5627907996836
 31
0.0000000000000000
  0
LINE
  5
1CB
100
AcDbEntity
  8
MAIN0
  6
BYBLOCK
 62
0
100
AcDbLine
 10
154.7151266797266
 20
423.5627907996836
 30
0.0000000000000000
 11
156.2151266797266
 21
423.5627907996836
 31
0.0000000000000000
  0
MTEXT
  5
1CC
100
AcDbEntity
  8
MAIN0
  6
BYBLOCK
 62
0
100
AcDbMText
 10
137.4445901446343
 20
426.6377907281581
 30
0.0000000000000000
 40
4.649999856948853
 41
0.0000000000000000
 71
     5
 72
     1
  1
\A1;7
 11
1.000000000000000
 21
0.0000000000000000
 31
0.0000000000000000
  7
STANDARD
  0
ENDBLK
  5
1CD
100
AcDbEntity
  8
MAIN0
  6
CONTINUOUS
 62
3
100
AcDbBlockEnd
  0
BLOCK
  5
1CF
100
AcDbEntity
  8
MAIN0
  6
CONTINUOUS
 62
3
100
AcDbBlockBegin
  2
*D21
 70
    65
 10
0.0
 20
0.0
 30
0.0
  0
LINE
  5
1D0
100
AcDbEntity
  8
MAIN0
  6
BYBLOCK
 62
0
100
AcDbLine
 10
306.4151266976080
 20
376.0627907996836
 30
0.0000000000000000
 11
322.7151266797266
 21
376.0627907996836
 31
0.0000000000000000
  0
LINE
  5
1D1
100
AcDbEntity
  8
MAIN0
  6
BYBLOCK
 62
0
100
AcDbLine
 10
319.7151266797266
 20
373.0627907996836
 30
0.0000000000000000
 11
319.7151266797266
 21
344.0627907996836
 31
0.0000000000000000
  0
INSERT
  5
1D2
100
AcDbEntity
  8
MAIN0
  6
BYBLOCK
 62
0
100
AcDbBlockReference
  2
_OPEN
 10
319.7151266797266
 20
376.0627907996836
 30
0.0000000000000000
 41
3.000000000000000
 42
3.000000000000000
 43
3.000000000000000
 50
90.00000000000000
  0
INSERT
  5
1D3
100
AcDbEntity
  8
MAIN0
  6
BYBLOCK
 62
0
100
AcDbBlockReference
  2
_OPEN
 10
319.7151266797266
 20
341.0627907996836
 30
0.0000000000000000
 41
3.000000000000000
 42
3.000000000000000
 43
3.000000000000000
 50
270.0000000000000
  0
LINE
  5
1D4
100
AcDbEntity
  8
MAIN0
  6
BYBLOCK
 62
0
100
AcDbLine
 10
306.4151266976080
 20
341.0627907996836
 30
0.0000000000000000
 11
322.7151266797266
 21
341.0627907996836
 31
0.0000000000000000
  0
MTEXT
  5
1D5
100
AcDbEntity
  8
MAIN0
  6
BYBLOCK
 62
0
100
AcDbMText
 10
316.8901267512521
 20
358.5627907996836
 30
0.0000000000000000
 40
4.649999856948853
 41
0.0000000000000000
 71
     5
 72
     1
  1
\A1;35
 11
6.123233995736766e-017
 21
1.000000000000000
 31
0.0000000000000000
  7
STANDARD
  0
ENDBLK
  5
1D6
100
AcDbEntity
  8
MAIN0
  6
CONTINUOUS
 62
3
100
AcDbBlockEnd
  0
BLOCK
  5
1D8
100
AcDbEntity
  8
MAIN0
  6
CONTINUOUS
 62
3
100
AcDbBlockBegin
  2
*D22
 70
    65
 10
0.0
 20
0.0
 30
0.0
  0
LINE
  5
1D9
100
AcDbEntity
  8
MAIN0
  6
BYBLOCK
 62
0
100
AcDbLine
 10
306.4151266976080
 20
320.6627907996837
 30
0.0000000000000000
 11
322.7151266797266
 21
320.6627907996837
 31
0.0000000000000000
  0
LINE
  5
1DA
100
AcDbEntity
  8
MAIN0
  6
BYBLOCK
 62
0
100
AcDbLine
 10
319.7151266797266
 20
317.6627907996837
 30
0.0000000000000000
 11
319.7151266797266
 21
191.6627907996839
 31
0.0000000000000000
  0
INSERT
  5
1DB
100
AcDbEntity
  8
MAIN0
  6
BYBLOCK
 62
0
100
AcDbBlockReference
  2
_OPEN
 10
319.7151266797266
 20
320.6627907996837
 30
0.0000000000000000
 41
3.000000000000000
 42
3.000000000000000
 43
3.000000000000000
 50
90.00000000000000
  0
INSERT
  5
1DC
100
AcDbEntity
  8
MAIN0
  6
BYBLOCK
 62
0
100
AcDbBlockReference
  2
_OPEN
 10
319.7151266797266
 20
188.6627907996839
 30
0.0000000000000000
 41
3.000000000000000
 42
3.000000000000000
 43
3.000000000000000
 50
270.0000000000000
  0
LINE
  5
1DD
100
AcDbEntity
  8
MAIN0
  6
BYBLOCK
 62
0
100
AcDbLine
 10
306.4151266976083
 20
188.6627907996839
 30
0.0000000000000000
 11
322.7151266797266
 21
188.6627907996839
 31
0.0000000000000000
  0
MTEXT
  5
1DE
100
AcDbEntity
  8
MAIN0
  6
BYBLOCK
 62
0
100
AcDbMText
 10
316.8901267512521
 20
254.6627907996838
 30
0.0000000000000000
 40
4.649999856948853
 41
0.0000000000000000
 71
     5
 72
     1
  1
\A1;132
 11
6.123233995736766e-017
 21
1.000000000000000
 31
0.0000000000000000
  7
STANDARD
  0
ENDBLK
  5
1DF
100
AcDbEntity
  8
MAIN0
  6
CONTINUOUS
 62
3
100
AcDbBlockEnd
  0
BLOCK
  5
1E1
100
AcDbEntity
  8
MAIN0
  6
CONTINUOUS
 62
3
100
AcDbBlockBegin
  2
*D23
 70
    65
 10
0.0
 20
0.0
 30
0.0
  0
LINE
  5
1E2
100
AcDbEntity
  8
MAIN0
  6
BYBLOCK
 62
0
100
AcDbLine
 10
257.7151266797266
 20
328.5742213884466
 30
0.0000000000000000
 11
303.7151266797266
 21
328.5742213884466
 31
0.0000000000000000
  0
INSERT
  5
1E3
100
AcDbEntity
  8
MAIN0
  6
BYBLOCK
 62
0
100
AcDbBlockReference
  2
_OPEN
 10
254.7151266797266
 20
328.5742213884466
 30
0.0000000000000000
 41
3.000000000000000
 42
3.000000000000000
 43
3.000000000000000
 50
180.0000000000000
  0
INSERT
  5
1E4
100
AcDbEntity
  8
MAIN0
  6
BYBLOCK
 62
0
100
AcDbBlockReference
  2
_OPEN
 10
306.7151266797266
 20
328.5742213884466
 30
0.0000000000000000
 41
3.000000000000000
 42
3.000000000000000
 43
3.000000000000000
 50
0.0000000000000000
  0
LINE
  5
1E5
100
AcDbEntity
  8
MAIN0
  6
BYBLOCK
 62
0
100
AcDbLine
 10
306.7151266797266
 20
341.3627907818022
 30
0.0000000000000000
 11
306.7151266797266
 21
325.5742213884466
 31
0.0000000000000000
  0
MTEXT
  5
1E6
100
AcDbEntity
  8
MAIN0
  6
BYBLOCK
 62
0
100
AcDbMText
 10
280.7151266797266
 20
331.6492213169211
 30
0.0000000000000000
 40
4.649999856948853
 41
0.0000000000000000
 71
     5
 72
     1
  1
\A1;52
 11
1.000000000000000
 21
0.0000000000000000
 31
0.0000000000000000
  7
STANDARD
  0
ENDBLK
  5
1E7
100
AcDbEntity
  8
MAIN0
  6
CONTINUOUS
 62
3
100
AcDbBlockEnd
  0
BLOCK
  5
216
100
AcDbEntity
  8
MAIN0
  6
CONTINUOUS
 62
3
100
AcDbBlockBegin
  2
*D24
 70
    65
 10
0.0
 20
0.0
 30
0.0
  0
LINE
  5
217
100
AcDbEntity
  8
MAIN0
  6
BYBLOCK
 62
0
100
AcDbLine
 10
374.9278310955045
 20
338.8391965562288
 30
0.0000000000000000
 11
694.5024222639486
 21
378.2863850431385
 31
0.0000000000000000
  0
INSERT
  5
218
100
AcDbEntity
  8
MAIN0
  6
BYBLOCK
 62
0
100
AcDbBlockReference
  2
_OPEN
 10
371.9504280721960
 20
338.4716761665992
 30
0.0000000000000000
 41
3.000000000000000
 42
3.000000000000000
 43
3.000000000000000
 50
187.0367991121395
  0
INSERT
  5
219
100
AcDbEntity
  8
MAIN0
  6
BYBLOCK
 62
0
100
AcDbBlockReference
  2
_OPEN
 10
697.4798252872572
 20
378.6539054327681
 30
0.0000000000000000
 41
3.000000000000000
 42
3.000000000000000
 43
3.000000000000000
 50
7.036799112139506
  0
MTEXT
  5
21A
100
AcDbEntity
  8
MAIN0
  6
BYBLOCK
 62
0
100
AcDbMText
 10
424.1715178701714
 20
348.0160055141525
 30
0.0000000000000000
 40
4.649999856948853
 41
0.0000000000000000
 71
     5
 72
     1
  1
\A1;\U+2205328
 11
0.9924676744361620
 21
0.1225067965431976
 31
0.0000000000000000
  7
STANDARD
  0
ENDBLK
  5
21B
100
AcDbEntity
  8
MAIN0
  6
CONTINUOUS
 62
3
100
AcDbBlockEnd
  0
BLOCK
  5
29B
100
AcDbEntity
  8
MAIN0
  6
CONTINUOUS
 62
3
100
AcDbBlockBegin
  2
*D25
 70
    65
 10
0.0
 20
0.0
 30
0.0
  0
LINE
  5
29C
100
AcDbEntity
  8
MAIN0
  6
BYBLOCK
 62
0
100
AcDbLine
 10
182.6656065175762
 20
578.0057092440434
 30
0.0000000000000000
 11
191.7831461643907
 21
568.8881695972286
 31
0.0000000000000000
  0
LINE
  5
29D
100
AcDbEntity
  8
MAIN0
  6
BYBLOCK
 62
0
100
AcDbLine
 10
189.6618258208311
 20
571.0094899407884
 30
0.0000000000000000
 11
200.2684275386287
 21
581.6160916585857
 31
0.0000000000000000
  0
INSERT
  5
29E
100
AcDbEntity
  8
MAIN0
  6
BYBLOCK
 62
0
100
AcDbBlockReference
  2
_OPEN
 10
189.6618258208311
 20
571.0094899407884
 30
0.0000000000000000
 41
3.000000000000000
 42
3.000000000000000
 43
3.000000000000000
 50
44.99999999999923
  0
INSERT
  5
29F
100
AcDbEntity
  8
MAIN0
  6
BYBLOCK
 62
0
100
AcDbBlockReference
  2
_OPEN
 10
200.2684275386287
 20
581.6160916585857
 30
0.0000000000000000
 41
3.000000000000000
 42
3.000000000000000
 43
3.000000000000000
 50
224.9999999999992
  0
LINE
  5
2A0
100
AcDbEntity
  8
MAIN0
  6
BYBLOCK
 62
0
100
AcDbLine
 10
187.5405054772714
 20
568.8881695972287
 30
0.0000000000000000
 11
186.4798453054916
 21
567.8275094254489
 31
0.0000000000000000
  0
LINE
  5
2A1
100
AcDbEntity
  8
MAIN0
  6
BYBLOCK
 62
0
100
AcDbLine
 10
202.3897478821883
 20
583.7374120021453
 30
0.0000000000000000
 11
218.6398481453849
 21
599.9875122653416
 31
0.0000000000000000
  0
LINE
  5
2A2
100
AcDbEntity
  8
MAIN0
  6
BYBLOCK
 62
0
100
AcDbLine
 10
193.2722082353846
 20
588.6123109618300
 30
0.0000000000000000
 11
202.3897478821883
 21
579.4947713150261
 31
0.0000000000000000
  0
MTEXT
  5
2A3
100
AcDbEntity
  8
MAIN0
  6
BYBLOCK
 62
0
100
AcDbMText
 10
208.5900930082880
 20
594.2864637313896
 30
0.0000000000000000
 40
4.649999856948853
 41
0.0000000000000000
 71
     5
 72
     1
  1
\A1;□15\H0.903226x;\S＋0.15^ ＋0.05;
 11
0.7071067811865537
 21
0.7071067811865414
 31
0.0000000000000000
  7
KNJYOKO
  0
ENDBLK
  5
2A4
100
AcDbEntity
  8
MAIN0
  6
CONTINUOUS
 62
3
100
AcDbBlockEnd
  0
ENDSEC
  0
SECTION
  2
ENTITIES
  0
DIMENSION
  5
4E
100
AcDbEntity
  8
MAIN0
  6
CONTINUOUS
 62
3
100
AcDbDimension
  2
*D0
 10
144.7151266797266
 20
168.5627907996836
 30
0.0000000000000000
 11
131.2151266797266
 21
169.0627907996836
 31
0.0000000000000000
 70
32
  3
MAIN001
100
AcDbAlignedDimension
 13
117.7151266797266
 23
187.5627907996837
 33
0.0000000000000000
 14
144.7151266797266
 24
183.0627907996836
 34
0.0000000000000000
100
AcDbRotatedDimension
1001
ACAD
1000
DSTYLE
1002
{
1070
   173
1070
     1
1070
     6
1000
_OPEN
1070
     7
1000
_OPEN
1070
    41
1040
3.000000
1002
}
  0
DIMENSION
  5
57
100
AcDbEntity
  8
MAIN0
  6
CONTINUOUS
 62
3
100
AcDbDimension
  2
*D1
 10
279.7151266797266
 20
205.5627907996836
 30
0.0000000000000000
 11
278.9651266797266
 21
196.3896617440290
 31
0.0000000000000000
 70
160
  1
\A1;\U+220522
  3
MAIN001
100
AcDbAlignedDimension
 13
254.1151266797266
 23
183.5627907996836
 33
0.0000000000000000
 14
254.1151266797266
 24
205.5627907996836
 34
0.0000000000000000
 50
90.00000000000000
100
AcDbRotatedDimension
1001
ACAD
1000
DSTYLE
1002
{
1070
   173
1070
     1
1070
     6
1000
_OPEN
1070
     7
1000
_OPEN
1070
    41
1040
3.000000
1002
}
  0
SPLINE
  5
58
100
AcDbEntity
  8
MAIN0
  6
CONTINUOUS
 62
3
100
AcDbSpline
210
0.0000000000000000
220
0.0000000000000000
230
1.000000000000000
 70
     8
 71
     3
 72
    11
 73
     7
 74
     0
 42
1.000000000000000e-007
 43
1.000000000000000e-007
 12
0.8943210394953098
 22
-0.6514621106815355
 32
0.0000000000000000
 13
0.9600978910204390
 23
-0.4786435128746689
 33
0.0000000000000000
 40
0.0000000000000000
 40
0.0000000000000000
 40
0.0000000000000000
 40
0.0000000000000000
 40
8.536995928478051
 40
14.12996900813882
 40
20.44741818959202
 40
27.88211077140187
 40
27.88211077140187
 40
27.88211077140187
 40
27.88211077140187
 10
766.7151266797021
 20
450.4342160287149
 30
0.0000000000000000
 10
769.2600650373433
 20
448.5803728998996
 30
0.0000000000000000
 10
773.4723078944751
 20
445.5119930885974
 30
0.0000000000000000
 10
779.9702280684969
 20
448.8096051982789
 30
0.0000000000000000
 10
785.9346483556656
 20
452.0956444429970
 30
0.0000000000000000
 10
790.3357824569735
 20
449.9015199619574
 30
0.0000000000000000
 10
792.7151266797005
 20
448.7153308371239
 30
0.0000000000000000
  0
SPLINE
  5
59
100
AcDbEntity
  8
MAIN0
  6
CONTINUOUS
 62
3
100
AcDbSpline
210
0.0000000000000000
220
0.0000000000000000
230
1.000000000000000
 70
     8
 71
     3
 72
    11
 73
     7
 74
     0
 42
1.000000000000000e-007
 43
1.000000000000000e-007
 12
0.8943210394953098
 22
-0.6514621106815355
 32
0.0000000000000000
 13
0.9600978910204390
 23
-0.4786435128746689
 33
0.0000000000000000
 40
0.0000000000000000
 40
0.0000000000000000
 40
0.0000000000000000
 40
0.0000000000000000
 40
8.536995928478051
 40
14.12996900813882
 40
20.44741818959202
 40
27.88211077140187
 40
27.88211077140187
 40
27.88211077140187
 40
27.88211077140187
 10
766.7151266797021
 20
447.4342160287149
 30
0.0000000000000000
 10
769.2600650373433
 20
445.5803728998996
 30
0.0000000000000000
 10
773.4723078944751
 20
442.5119930885974
 30
0.0000000000000000
 10
779.9702280684969
 20
445.8096051982789
 30
0.0000000000000000
 10
785.9346483556656
 20
449.0956444429970
 30
0.0000000000000000
 10
790.3357824569735
 20
446.9015199619574
 30
0.0000000000000000
 10
792.7151266797005
 20
445.7153308371239
 30
0.0000000000000000
  0
ARC
  5
5A
100
AcDbEntity
  8
MAIN0
  6
CONTINUOUS
 62
3
100
AcDbCircle
 10
252.7151266797266
 20
534.0627907996836
 30
0.0000000000000000
 40
2.000000000000000
100
AcDbArc
 50
0.0000000000000000
 51
90.00000000000000
  0
ARC
  5
5B
100
AcDbEntity
  8
MAIN0
  6
CONTINUOUS
 62
3
100
AcDbCircle
 10
252.7151266797266
 20
183.0627907996836
 30
0.0000000000000000
 40
2.000000000000000
100
AcDbArc
 50
270.0000000000000
 51
360.0000000000000
  0
SPLINE
  5
5C
100
AcDbEntity
  8
MAIN0
  6
CONTINUOUS
 62
3
100
AcDbSpline
210
0.0000000000000000
220
0.0000000000000000
230
1.000000000000000
 70
     8
 71
     3
 72
    18
 73
    14
 74
     0
 42
1.000000000000000e-007
 43
1.000000000000000e-007
 12
0.07973110951832751
 22
-0.9971392455707502
 32
0.0000000000000000
 13
-0.1672664824384142
 23
-0.9856670733067858
 33
0.0000000000000000
 40
0.0000000000000000
 40
0.0000000000000000
 40
0.0000000000000000
 40
0.0000000000000000
 40
27.61340254296815
 40
47.76904691371453
 40
65.44671644337822
 40
88.49557758661044
 40
128.5736264413139
 40
229.0723826525228
 40
239.7436349220552
 40
249.7436349220552
 40
275.0196240223852
 40
343.2563443421661
 40
358.4632506679116
 40
358.4632506679116
 40
358.4632506679116
 40
358.4632506679116
 10
152.2151266797266
 20
536.0627907996836
 30
0.0000000000000000
 10
152.9490090871689
 20
526.8846550065714
 30
0.0000000000000000
 10
154.2185687908567
 20
511.0071912061796
 30
0.0000000000000000
 10
157.1812251850915
 20
489.3951017949967
 30
0.0000000000000000
 10
159.4934627260745
 20
469.2108219627385
 30
0.0000000000000000
 10
167.0448485177844
 20
443.1720557224059
 30
0.0000000000000000
 10
167.9811274575273
 20
388.5623596081311
 30
0.0000000000000000
 10
163.2834737075960
 20
335.9016282875876
 30
0.0000000000000000
 10
181.8218261960815
 20
298.9638822298791
 30
0.0000000000000000
 10
180.6410735743384
 20
283.3185869164399
 30
0.0000000000000000
 10
174.5664949505651
 20
249.6290493445063
 30
0.0000000000000000
 10
170.2154358933196
 20
213.4749848376663
 30
0.0000000000000000
 10
165.5629952563525
 20
186.0591064170663
 30
0.0000000000000000
 10
164.7151266797266
 20
181.0627907996836
 30
0.0000000000000000
  0
DIMENSION
  5
65
100
AcDbEntity
  8
MAIN0
  6
CONTINUOUS
 62
3
100
AcDbDimension
  2
*D2
 10
534.7151266797266
 20
163.5627907996836
 30
0.0000000000000000
 11
508.6751513330189
 21
160.7695409555300
 31
0.0000000000000000
 70
162
  3
MAIN001
100
AcDb2LineAngularDimension
 13
486.7006982671603
 23
179.3705044584721
 33
0.0000000000000000
 14
486.9595173122627
 24
180.3364302847612
 34
0.0000000000000000
 15
534.7151266797266
 25
164.5627907996836
 35
0.0000000000000000
 16
508.6098882369088
 26
160.2738185248431
 36
0.0000000000000000
1001
ACAD
1000
DSTYLE
1002
{
1070
   173
1070
     1
1070
     6
1000
_OPEN
1070
     7
1000
_OPEN
1070
    41
1040
3.000000
1002
}
  0
LEADER
  5
66
100
AcDbEntity
  8
MAIN0
  6
CONTINUOUS
 62
3
100
AcDbLeader
  3
MAIN001
 73
     0
 75
     1
 40
4.649999856948853
 41
50.24900003352762
 76
     3
 10
131.2151266797266
 20
187.5627907996837
 30
0.0000000000000000
 10
109.7151266797265
 20
168.5627907996836
 30
0.0000000000000000
 10
107.0351267587176
 20
168.5627907996836
 30
0.0000000000000000
340
67
213
0.0000000000000000
223
-0.7500000000000000
233
0.0000000000000000
1001
ACAD
1000
DSTYLE
1002
{
1070
   147
1040
0.0
1070
    77
1070
     1
1070
   173
1070
     1
1070
     6
1000
_OPEN
1070
     7
1000
_OPEN
1002
}
  0
MTEXT
  5
67
102
{ACAD_REACTORS
330
66
102
}
100
AcDbEntity
  8
MAIN0
  6
CONTINUOUS
 62
3
100
AcDbMText
 10
56.78612672518995
 20
173.9627906566325
 30
0.0000000000000000
 40
4.649999856948853
 41
0.0000000000000000
 71
     1
 72
     1
  1
{\H0.71x;{6-M14 (等配)\P(EQUALLY SPACED)}}
 11
1.000000000000000
 21
0.0000000000000000
 31
0.0000000000000000
  7
KNJYOKO
  0
DIMENSION
  5
70
100
AcDbEntity
  8
MAIN0
  6
CONTINUOUS
 62
3
100
AcDbDimension
  2
*D3
 10
237.7151266797266
 20
168.5627907996836
 30
0.0000000000000000
 11
246.2151266797266
 21
169.0627907996836
 31
0.0000000000000000
 70
32
  3
MAIN001
100
AcDbAlignedDimension
 13
254.7151266797266
 23
183.0627907996836
 33
0.0000000000000000
 14
237.7151266797266
 24
183.5627907996836
 34
0.0000000000000000
100
AcDbRotatedDimension
1001
ACAD
1000
DSTYLE
1002
{
1070
   173
1070
     1
1070
     6
1000
_OPEN
1070
     7
1000
_OPEN
1070
    41
1040
3.000000
1002
}
  0
LINE
  5
71
100
AcDbEntity
  8
MAIN0
  6
HIDDEN
 62
3
100
AcDbLine
 10
254.7151266797266
 20
308.5627907996837
 30
0.0000000000000000
 11
177.2151266732192
 21
308.5627907996836
 31
0.0000000000000000
  0
LINE
  5
72
100
AcDbEntity
  8
MAIN0
  6
HIDDEN
 62
3
100
AcDbLine
 10
254.7151266797264
 20
408.5627907996836
 30
0.0000000000000000
 11
167.2151266797265
 21
408.5627907996836
 31
0.0000000000000000
  0
DIMENSION
  5
7B
100
AcDbEntity
  8
MAIN0
  6
CONTINUOUS
 62
3
100
AcDbDimension
  2
*D4
 10
624.7151266797266
 20
202.6782181184846
 30
0.0000000000000000
 11
586.3495261776795
 21
165.8605884550145
 31
0.0000000000000000
 70
162
  3
MAIN001
100
AcDb2LineAngularDimension
 13
534.7151266797266
 23
163.5627907996836
 33
0.0000000000000000
 14
534.7151266797266
 24
164.5627907996836
 34
0.0000000000000000
 15
624.2151266797266
 25
203.5442435222690
 35
0.0000000000000000
 16
586.4789357002308
 26
165.3776255418700
 36
0.0000000000000000
1001
ACAD
1000
DSTYLE
1002
{
1070
   173
1070
     1
1070
     6
1000
_OPEN
1070
     7
1000
_OPEN
1070
    41
1040
3.000000
1002
}
  0
LINE
  5
7C
100
AcDbEntity
  8
MAIN0
  6
CENTER
 62
3
100
AcDbLine
 10
226.7151266797266
 20
500.6636631211195
 30
0.0000000000000000
 11
226.7151266797266
 21
537.4627907996837
 31
0.0000000000000000
  0
DIMENSION
  5
85
100
AcDbEntity
  8
MAIN0
  6
CONTINUOUS
 62
3
100
AcDbDimension
  2
*D5
 10
226.7151266797266
 20
544.6168639829338
 30
0.0000000000000000
 11
244.0934814640533
 21
545.3668639829338
 31
0.0000000000000000
 70
160
  3
MAIN001
100
AcDbAlignedDimension
 13
254.7151266797266
 23
534.0627907996836
 33
0.0000000000000000
 14
226.7151266797266
 24
537.4627907996837
 34
0.0000000000000000
100
AcDbRotatedDimension
1001
ACAD
1000
DSTYLE
1002
{
1070
   173
1070
     1
1070
     6
1000
_OPEN
1070
     7
1000
_OPEN
1070
    41
1040
3.000000
1002
}
  0
LINE
  5
86
100
AcDbEntity
  8
MAIN0
  6
HIDDEN
 62
3
100
AcDbLine
 10
152.7151266797266
 20
302.6627907996836
 30
0.0000000000000000
 11
153.3151266797266
 21
302.0627907996836
 31
0.0000000000000000
  0
LINE
  5
87
100
AcDbEntity
  8
MAIN0
  6
HIDDEN
 62
3
100
AcDbLine
 10
153.3151266797266
 20
302.0627907996836
 30
0.0000000000000000
 11
163.2151266797266
 21
302.0627907996836
 31
0.0000000000000000
  0
LINE
  5
88
100
AcDbEntity
  8
MAIN0
  6
HIDDEN
 62
3
100
AcDbLine
 10
163.2151266797266
 20
302.0627907996836
 30
0.0000000000000000
 11
163.2151266797266
 21
285.0627907996836
 31
0.0000000000000000
  0
LINE
  5
89
100
AcDbEntity
  8
MAIN0
  6
HIDDEN
 62
3
100
AcDbLine
 10
163.2151266797266
 20
285.0627907996836
 30
0.0000000000000000
 11
153.3151266797266
 21
285.0627907996836
 31
0.0000000000000000
  0
LINE
  5
8A
100
AcDbEntity
  8
MAIN0
  6
HIDDEN
 62
3
100
AcDbLine
 10
153.3151266797266
 20
285.0627907996836
 30
0.0000000000000000
 11
152.7151266797266
 21
284.4627907996836
 31
0.0000000000000000
  0
LINE
  5
8B
100
AcDbEntity
  8
MAIN0
  6
HIDDEN
 62
3
100
AcDbLine
 10
163.2151266797266
 20
299.0627907996836
 30
0.0000000000000000
 11
169.3151266797266
 21
299.0627907996836
 31
0.0000000000000000
  0
LINE
  5
8C
100
AcDbEntity
  8
MAIN0
  6
HIDDEN
 62
3
100
AcDbLine
 10
169.3151266797266
 20
299.0627907996836
 30
0.0000000000000000
 11
169.7151266797266
 21
299.4627907996836
 31
0.0000000000000000
  0
LINE
  5
8D
100
AcDbEntity
  8
MAIN0
  6
HIDDEN
 62
3
100
AcDbLine
 10
163.2151266797266
 20
288.0627907996836
 30
0.0000000000000000
 11
169.3151266797266
 21
288.0627907996836
 31
0.0000000000000000
  0
LINE
  5
8E
100
AcDbEntity
  8
MAIN0
  6
HIDDEN
 62
3
100
AcDbLine
 10
169.3151266797266
 20
288.0627907996836
 30
0.0000000000000000
 11
169.7151266797266
 21
287.6627907996836
 31
0.0000000000000000
  0
CIRCLE
  5
8F
100
AcDbEntity
  8
MAIN0
  6
HIDDEN
 62
3
100
AcDbCircle
 10
567.2151266797262
 20
302.2711395536948
 30
0.0000000000000000
 40
8.000000000000000
  0
LINE
  5
90
100
AcDbEntity
  8
MAIN0
  6
HIDDEN
 62
3
100
AcDbLine
 10
571.8339288332433
 20
302.2711395536949
 30
0.0000000000000000
 11
569.5245277564848
 21
306.2711395536949
 31
0.0000000000000000
  0
LINE
  5
91
100
AcDbEntity
  8
MAIN0
  6
HIDDEN
 62
3
100
AcDbLine
 10
569.5245277564843
 20
306.2711395536948
 30
0.0000000000000000
 11
564.9057256029673
 21
306.2711395536948
 31
0.0000000000000000
  0
LINE
  5
92
100
AcDbEntity
  8
MAIN0
  6
HIDDEN
 62
3
100
AcDbLine
 10
564.9057256029674
 20
306.2711395536950
 30
0.0000000000000000
 11
562.5963245262090
 21
302.2711395536950
 31
0.0000000000000000
  0
LINE
  5
93
100
AcDbEntity
  8
MAIN0
  6
HIDDEN
 62
3
100
AcDbLine
 10
562.5963245262094
 20
302.2711395536948
 30
0.0000000000000000
 11
564.9057256029678
 21
298.2711395536948
 31
0.0000000000000000
  0
LINE
  5
94
100
AcDbEntity
  8
MAIN0
  6
HIDDEN
 62
3
100
AcDbLine
 10
564.9057256029673
 20
298.2711395536948
 30
0.0000000000000000
 11
569.5245277564843
 21
298.2711395536948
 31
0.0000000000000000
  0
LINE
  5
95
100
AcDbEntity
  8
MAIN0
  6
HIDDEN
 62
3
100
AcDbLine
 10
569.5245277564843
 20
298.2711395536948
 30
0.0000000000000000
 11
571.8339288332429
 21
302.2711395536948
 31
0.0000000000000000
  0
LINE
  5
96
100
AcDbEntity
  8
MAIN0
  6
CENTER
 62
3
100
AcDbLine
 10
779.7151266795488
 20
323.5627907996784
 30
0.0000000000000000
 11
779.7151266797525
 21
518.5627907996889
 31
0.0000000000000000
  0
ARC
  5
97
100
AcDbEntity
  8
MAIN0
  6
CONTINUOUS
 62
3
100
AcDbCircle
 10
856.7151266797473
 20
493.5627907996993
 30
0.0000000000000000
 40
7.999999999998572
100
AcDbArc
 50
270.0000000000000
 51
450.0000000000000
  0
ARC
  5
98
100
AcDbEntity
  8
MAIN0
  6
CONTINUOUS
 62
3
100
AcDbCircle
 10
702.7151266797478
 20
493.5627907996680
 30
0.0000000000000000
 40
7.999999999998542
100
AcDbArc
 50
90.00000000000000
 51
270.0000000000000
  0
LINE
  5
99
100
AcDbEntity
  8
MAIN0
  6
CONTINUOUS
 62
3
100
AcDbLine
 10
766.7151266797664
 20
511.5627907996812
 30
0.0000000000000000
 11
792.7151266797662
 21
511.5627907996860
 31
0.0000000000000000
  0
LINE
  5
9A
100
AcDbEntity
  8
MAIN0
  6
CONTINUOUS
 62
3
100
AcDbLine
 10
764.7151266797648
 20
509.5627907996811
 30
0.0000000000000000
 11
766.7151266797669
 21
511.5627907996814
 31
0.0000000000000000
  0
LINE
  5
9B
100
AcDbEntity
  8
MAIN0
  6
CONTINUOUS
 62
3
100
AcDbLine
 10
792.7151266797666
 20
511.5627907996863
 30
0.0000000000000000
 11
794.7151266797646
 21
509.5627907996866
 31
0.0000000000000000
  0
LINE
  5
9C
100
AcDbEntity
  8
MAIN0
  6
CONTINUOUS
 62
3
100
AcDbLine
 10
794.7151266797641
 20
509.5627907996728
 30
0.0000000000000000
 11
764.7151266797646
 21
509.5627907996673
 31
0.0000000000000000
  0
LINE
  5
9D
100
AcDbEntity
  8
MAIN0
  6
CONTINUOUS
 62
3
100
AcDbLine
 10
770.9651266796202
 20
371.5627907996820
 30
0.0000000000000000
 11
788.4651266796200
 21
371.5627907996853
 31
0.0000000000000000
  0
LINE
  5
9E
100
AcDbEntity
  8
MAIN0
  6
CONTINUOUS
 62
3
100
AcDbLine
 10
766.7151266796723
 20
421.5627907996812
 30
0.0000000000000000
 11
792.7151266796820
 21
421.5627907996861
 31
0.0000000000000000
  0
LINE
  5
9F
100
AcDbEntity
  8
MAIN0
  6
CONTINUOUS
 62
3
100
AcDbLine
 10
789.4651266796213
 20
372.5627907996854
 30
0.0000000000000000
 11
789.4651266796498
 21
399.7238920178962
 31
0.0000000000000000
  0
LINE
  5
A0
100
AcDbEntity
  8
MAIN0
  6
CONTINUOUS
 62
3
100
AcDbLine
 10
769.9651266796213
 20
372.5627907996818
 30
0.0000000000000000
 11
769.9651266796498
 21
399.7238920179163
 31
0.0000000000000000
  0
LINE
  5
A1
100
AcDbEntity
  8
MAIN0
  6
CONTINUOUS
 62
3
100
AcDbLine
 10
769.9651266796211
 20
372.5627907996817
 30
0.0000000000000000
 11
770.9651266796202
 21
371.5627907996819
 31
0.0000000000000000
  0
LINE
  5
A2
100
AcDbEntity
  8
MAIN0
  6
CONTINUOUS
 62
3
100
AcDbLine
 10
789.4651266796213
 20
372.5627907996855
 30
0.0000000000000000
 11
788.4651266796202
 21
371.5627907996853
 31
0.0000000000000000
  0
LINE
  5
A3
100
AcDbEntity
  8
MAIN0
  6
CONTINUOUS
 62
3
100
AcDbLine
 10
769.9651266796211
 20
372.5627907997110
 30
0.0000000000000000
 11
789.4651266796211
 21
372.5627907997110
 31
0.0000000000000000
  0
LINE
  5
A4
100
AcDbEntity
  8
MAIN0
  6
CONTINUOUS
 62
3
100
AcDbLine
 10
770.0065732740100
 20
339.4608391119060
 30
0.0000000000000000
 11
778.8170783673631
 21
348.2713442052590
 31
0.0000000000000000
  0
LINE
  5
A5
100
AcDbEntity
  8
MAIN0
  6
CONTINUOUS
 62
3
100
AcDbLine
 10
780.6131749918084
 20
328.8542373941079
 30
0.0000000000000000
 11
789.4236800851613
 21
337.6647424874607
 31
0.0000000000000000
  0
LINE
  5
A6
100
AcDbEntity
  8
MAIN0
  6
CONTINUOUS
 62
3
100
AcDbLine
 10
778.8170783673534
 20
328.8542373941093
 30
0.0000000000000000
 11
770.0065732740093
 21
337.6647424874719
 31
0.0000000000000000
  0
LINE
  5
A7
100
AcDbEntity
  8
MAIN0
  6
CONTINUOUS
 62
3
100
AcDbLine
 10
789.4236800851618
 20
339.4608391118957
 30
0.0000000000000000
 11
780.6131749918175
 21
348.2713442052583
 31
0.0000000000000000
  0
ARC
  5
A8
100
AcDbEntity
  8
MAIN0
  6
CONTINUOUS
 62
3
100
AcDbCircle
 10
779.7151266795856
 20
338.5627907996836
 30
0.0000000000000000
 40
9.750000000000000
100
AcDbArc
 50
174.7151372318268
 51
185.2848627681109
  0
ARC
  5
A9
100
AcDbEntity
  8
MAIN0
  6
CONTINUOUS
 62
3
100
AcDbCircle
 10
779.7151266795856
 20
338.5627907996836
 30
0.0000000000000000
 40
9.750000000000000
100
AcDbArc
 50
354.7151372318253
 51
365.2848627681119
  0
ARC
  5
AA
100
AcDbEntity
  8
MAIN0
  6
CONTINUOUS
 62
3
100
AcDbCircle
 10
779.7151266795856
 20
338.5627907996836
 30
0.0000000000000000
 40
9.750000000000000
100
AcDbArc
 50
84.71513723177098
 51
95.28486276817328
  0
ARC
  5
AB
100
AcDbEntity
  8
MAIN0
  6
CONTINUOUS
 62
3
100
AcDbCircle
 10
779.7151266795856
 20
338.5627907996836
 30
0.0000000000000000
 40
9.750000000000000
100
AcDbArc
 50
264.7151372317697
 51
275.2848627681740
  0
LINE
  5
AC
100
AcDbEntity
  8
MAIN0
  6
CONTINUOUS
 62
3
100
AcDbLine
 10
794.7151266797287
 20
475.5627907996863
 30
0.0000000000000000
 11
794.7151266797391
 21
485.5627907996864
 31
0.0000000000000000
  0
LINE
  5
AD
100
AcDbEntity
  8
MAIN0
  6
CONTINUOUS
 62
3
100
AcDbLine
 10
794.7151266797557
 20
501.5627907996864
 30
0.0000000000000000
 11
794.7151266797641
 21
509.5627907996864
 31
0.0000000000000000
  0
ARC
  5
AE
100
AcDbEntity
  8
MAIN0
  6
CONTINUOUS
 62
3
100
AcDbCircle
 10
803.8817933464140
 20
493.5627907996769
 30
0.0000000000000000
 40
12.16666666666651
100
AcDbArc
 50
138.8879095607734
 51
221.1120904391076
  0
ARC
  5
AF
100
AcDbEntity
  8
MAIN0
  6
CONTINUOUS
 62
3
100
AcDbCircle
 10
755.5484600130810
 20
493.5627907997274
 30
0.0000000000000000
 40
12.16666666666651
100
AcDbArc
 50
318.8879095607726
 51
401.1120904391069
  0
LINE
  5
B0
100
AcDbEntity
  8
MAIN0
  6
CONTINUOUS
 62
3
100
AcDbLine
 10
764.7151266797285
 20
475.5627907996808
 30
0.0000000000000000
 11
764.7151266797390
 21
485.5627907997178
 31
0.0000000000000000
  0
LINE
  5
B1
100
AcDbEntity
  8
MAIN0
  6
CONTINUOUS
 62
3
100
AcDbLine
 10
764.7151266797557
 20
501.5627907997177
 30
0.0000000000000000
 11
764.7151266797641
 21
509.5627907996809
 31
0.0000000000000000
  0
LINE
  5
B2
100
AcDbEntity
  8
MAIN0
  6
CONTINUOUS
 62
3
100
AcDbLine
 10
780.6131749916947
 20
391.5627907996837
 30
0.0000000000000000
 11
780.6131749917156
 21
371.5627907996839
 31
0.0000000000000000
  0
LINE
  5
B3
100
AcDbEntity
  8
MAIN0
  6
CONTINUOUS
 62
3
100
AcDbLine
 10
778.8170783675284
 20
391.5627907996835
 30
0.0000000000000000
 11
778.8170783675284
 21
371.5627907996835
 31
0.0000000000000000
  0
LINE
  5
B4
100
AcDbEntity
  8
MAIN0
  6
CONTINUOUS
 62
3
100
AcDbLine
 10
769.9651266796409
 20
391.5627907996818
 30
0.0000000000000000
 11
778.8170783675284
 21
391.5627907996834
 31
0.0000000000000000
  0
LINE
  5
B5
100
AcDbEntity
  8
MAIN0
  6
CONTINUOUS
 62
3
100
AcDbLine
 10
780.6131749916945
 20
391.5627907996837
 30
0.0000000000000000
 11
789.4651266796409
 21
391.5627907996854
 31
0.0000000000000000
  0
LINE
  5
B6
100
AcDbEntity
  8
MAIN0
  6
CONTINUOUS
 62
3
100
AcDbLine
 10
789.4651266796409
 20
391.5627907996853
 30
0.0000000000000000
 11
780.6131749917142
 21
372.5627907997109
 31
0.0000000000000000
  0
LINE
  5
B7
100
AcDbEntity
  8
MAIN0
  6
CONTINUOUS
 62
3
100
AcDbLine
 10
780.6131749916947
 20
391.5627907996838
 30
0.0000000000000000
 11
789.4651266796211
 21
372.5627907996856
 31
0.0000000000000000
  0
LINE
  5
B8
100
AcDbEntity
  8
MAIN0
  6
CONTINUOUS
 62
3
100
AcDbLine
 10
778.8170783675282
 20
391.5627907996834
 30
0.0000000000000000
 11
769.9651266796209
 21
372.5627907996818
 31
0.0000000000000000
  0
LINE
  5
B9
100
AcDbEntity
  8
MAIN0
  6
CONTINUOUS
 62
3
100
AcDbLine
 10
769.9651266796409
 20
391.5627907996819
 30
0.0000000000000000
 11
778.8170783675284
 21
372.5627907997110
 31
0.0000000000000000
  0
ARC
  5
BA
100
AcDbEntity
  8
MAIN0
  6
CONTINUOUS
 62
3
100
AcDbCircle
 10
832.0173430084926
 20
497.5627907996931
 30
0.0000000000000000
 40
6.000000000000000
100
AcDbArc
 50
138.1896851042212
 51
221.8103148957788
  0
ARC
  5
BB
100
AcDbEntity
  8
MAIN0
  6
CONTINUOUS
 62
3
100
AcDbCircle
 10
823.0730710984935
 20
497.5627907996931
 30
0.0000000000000000
 40
6.000000000000000
100
AcDbArc
 50
318.1896851042212
 51
401.8103148957788
  0
ARC
  5
BC
100
AcDbEntity
  8
MAIN0
  6
CONTINUOUS
 62
3
100
AcDbCircle
 10
838.0173430084926
 20
497.5627907996931
 30
0.0000000000000000
 40
6.000000000000000
100
AcDbArc
 50
138.1896851042212
 51
221.8103148957788
  0
ARC
  5
BD
100
AcDbEntity
  8
MAIN0
  6
CONTINUOUS
 62
3
100
AcDbCircle
 10
823.0730710984935
 20
489.5627907996931
 30
0.0000000000000000
 40
6.000000000000000
100
AcDbArc
 50
318.1896851042212
 51
401.8103148957788
  0
ARC
  5
BE
100
AcDbEntity
  8
MAIN0
  6
CONTINUOUS
 62
3
100
AcDbCircle
 10
838.0173430084926
 20
489.5627907996931
 30
0.0000000000000000
 40
6.000000000000000
100
AcDbArc
 50
138.1896851042212
 51
221.8103148957788
  0
ARC
  5
BF
100
AcDbEntity
  8
MAIN0
  6
CONTINUOUS
 62
3
100
AcDbCircle
 10
829.0730710984935
 20
489.5627907996931
 30
0.0000000000000000
 40
6.000000000000000
100
AcDbArc
 50
318.1896851042212
 51
401.8103148957788
  0
LINE
  5
C0
100
AcDbEntity
  8
MAIN0
  6
CONTINUOUS
 62
3
100
AcDbLine
 10
794.7151266797566
 20
501.5627907996865
 30
0.0000000000000000
 11
827.5452070534930
 21
501.5627907996926
 31
0.0000000000000000
  0
LINE
  5
C1
100
AcDbEntity
  8
MAIN0
  6
CONTINUOUS
 62
3
100
AcDbLine
 10
833.5452070534930
 20
501.5627907996936
 30
0.0000000000000000
 11
856.7151266797457
 21
501.5627907996979
 31
0.0000000000000000
  0
LINE
  5
C2
100
AcDbEntity
  8
MAIN0
  6
CONTINUOUS
 62
3
100
AcDbLine
 10
794.7151266797393
 20
485.5627907996865
 30
0.0000000000000000
 11
827.5452070534930
 21
485.5627907996925
 31
0.0000000000000000
  0
LINE
  5
C3
100
AcDbEntity
  8
MAIN0
  6
CONTINUOUS
 62
3
100
AcDbLine
 10
833.5452070534932
 20
485.5627907996937
 30
0.0000000000000000
 11
856.7151266797489
 21
485.5627907996980
 31
0.0000000000000000
  0
ARC
  5
C4
100
AcDbEntity
  8
MAIN0
  6
CONTINUOUS
 62
3
100
AcDbCircle
 10
733.7986326309117
 20
497.5627907996750
 30
0.0000000000000000
 40
6.000000000000000
100
AcDbArc
 50
138.1896851042212
 51
221.8103148957788
  0
ARC
  5
C5
100
AcDbEntity
  8
MAIN0
  6
CONTINUOUS
 62
3
100
AcDbCircle
 10
724.8543607209126
 20
497.5627907996750
 30
0.0000000000000000
 40
6.000000000000000
100
AcDbArc
 50
318.1896851042212
 51
401.8103148957788
  0
ARC
  5
C6
100
AcDbEntity
  8
MAIN0
  6
CONTINUOUS
 62
3
100
AcDbCircle
 10
739.7986326309117
 20
497.5627907996750
 30
0.0000000000000000
 40
6.000000000000000
100
AcDbArc
 50
138.1896851042212
 51
221.8103148957788
  0
ARC
  5
C7
100
AcDbEntity
  8
MAIN0
  6
CONTINUOUS
 62
3
100
AcDbCircle
 10
724.8543607209126
 20
489.5627907996749
 30
0.0000000000000000
 40
6.000000000000000
100
AcDbArc
 50
318.1896851042212
 51
401.8103148957788
  0
ARC
  5
C8
100
AcDbEntity
  8
MAIN0
  6
CONTINUOUS
 62
3
100
AcDbCircle
 10
739.7986326309117
 20
489.5627907996749
 30
0.0000000000000000
 40
6.000000000000000
100
AcDbArc
 50
138.1896851042212
 51
221.8103148957788
  0
ARC
  5
C9
100
AcDbEntity
  8
MAIN0
  6
CONTINUOUS
 62
3
100
AcDbCircle
 10
730.8543607209126
 20
489.5627907996749
 30
0.0000000000000000
 40
6.000000000000000
100
AcDbArc
 50
318.1896851042212
 51
401.8103148957788
  0
LINE
  5
CA
100
AcDbEntity
  8
MAIN0
  6
CONTINUOUS
 62
3
100
AcDbLine
 10
702.7151266797462
 20
501.5627907996694
 30
0.0000000000000000
 11
729.3264966759123
 21
501.5627907996743
 31
0.0000000000000000
  0
LINE
  5
CB
100
AcDbEntity
  8
MAIN0
  6
CONTINUOUS
 62
3
100
AcDbLine
 10
735.3264966759123
 20
501.5627907996756
 30
0.0000000000000000
 11
764.7151266797880
 21
501.5627907996810
 31
0.0000000000000000
  0
LINE
  5
CC
100
AcDbEntity
  8
MAIN0
  6
CONTINUOUS
 62
3
100
AcDbLine
 10
702.7151266797491
 20
485.5627907996694
 30
0.0000000000000000
 11
729.3264966759123
 21
485.5627907996744
 31
0.0000000000000000
  0
LINE
  5
CD
100
AcDbEntity
  8
MAIN0
  6
CONTINUOUS
 62
3
100
AcDbLine
 10
735.3264966759123
 20
485.5627907996756
 30
0.0000000000000000
 11
764.7151266797071
 21
485.5627907996810
 31
0.0000000000000000
  0
LINE
  5
CE
100
AcDbEntity
  8
MAIN0
  6
CONTINUOUS
 62
3
100
AcDbLine
 10
764.7151266797288
 20
475.5627907996808
 30
0.0000000000000000
 11
794.7151266797289
 21
475.5627907996864
 31
0.0000000000000000
  0
LINE
  5
CF
100
AcDbEntity
  8
MAIN0
  6
CONTINUOUS
 62
3
100
AcDbLine
 10
766.7151266797266
 20
473.5627907996812
 30
0.0000000000000000
 11
792.7151266797264
 21
473.5627907996860
 31
0.0000000000000000
  0
LINE
  5
D0
100
AcDbEntity
  8
MAIN0
  6
CONTINUOUS
 62
3
100
AcDbLine
 10
764.7151266797289
 20
475.5627907996810
 30
0.0000000000000000
 11
766.7151266797266
 21
473.5627907996814
 31
0.0000000000000000
  0
LINE
  5
D1
100
AcDbEntity
  8
MAIN0
  6
CONTINUOUS
 62
3
100
AcDbLine
 10
792.7151266797271
 20
473.5627907996861
 30
0.0000000000000000
 11
794.7151266797291
 21
475.5627907996865
 31
0.0000000000000000
  0
ARC
  5
D2
100
AcDbEntity
  8
MAIN0
  6
CONTINUOUS
 62
3
100
AcDbCircle
 10
694.9651266796495
 20
399.7238920179949
 30
0.0000000000000000
 40
75.00000000000000
100
AcDbArc
 50
0.0000000000000000
 51
16.92893255513184
  0
ARC
  5
D3
100
AcDbEntity
  8
MAIN0
  6
CONTINUOUS
 62
3
100
AcDbCircle
 10
864.4651266796495
 20
399.7238920178177
 30
0.0000000000000000
 40
75.00000000000000
100
AcDbArc
 50
163.0710674447484
 51
180.0000000000000
  0
LINE
  5
D4
100
AcDbEntity
  8
MAIN0
  6
CENTER
 62
3
100
AcDbLine
 10
764.7151266797266
 20
338.5627907996836
 30
0.0000000000000000
 11
794.7151266797266
 21
338.5627907996836
 31
0.0000000000000000
  0
LINE
  5
D5
100
AcDbEntity
  8
MAIN0
  6
CENTER
 62
3
100
AcDbLine
 10
869.7151266797266
 20
493.5627907997002
 30
0.0000000000000000
 11
689.7151266797257
 21
493.5627907996670
 31
0.0000000000000000
  0
DIMENSION
  5
DE
100
AcDbEntity
  8
MAIN0
  6
CONTINUOUS
 62
3
100
AcDbDimension
  2
*D6
 10
864.7151266797453
 20
533.5627907996836
 30
0.0000000000000000
 11
779.7151266797473
 21
534.0627907996836
 31
0.0000000000000000
 70
32
  1
\A1;450
  3
MAIN001
100
AcDbAlignedDimension
 13
694.7151266797492
 23
493.5627907996679
 33
0.0000000000000000
 14
864.7151266797453
 24
493.5627907996993
 34
0.0000000000000000
100
AcDbRotatedDimension
1001
ACAD
1000
DSTYLE
1002
{
1070
   173
1070
     1
1070
     6
1000
_OPEN
1070
     7
1000
_OPEN
1070
    41
1040
3.000000
1002
}
  0
DIMENSION
  5
E7
100
AcDbEntity
  8
MAIN0
  6
CONTINUOUS
 62
3
100
AcDbDimension
  2
*D7
 10
794.7151266797723
 20
523.5627907996836
 30
0.0000000000000000
 11
779.7151266797682
 21
524.0627907996836
 31
0.0000000000000000
 70
32
  1
\A1;\U+220530
  3
MAIN001
100
AcDbAlignedDimension
 13
764.7151266797641
 23
509.5627907996809
 33
0.0000000000000000
 14
794.7151266797641
 24
509.5627907996864
 34
0.0000000000000000
100
AcDbRotatedDimension
1001
ACAD
1000
DSTYLE
1002
{
1070
   173
1070
     1
1070
     6
1000
_OPEN
1070
     7
1000
_OPEN
1070
    41
1040
3.000000
1002
}
  0
DIMENSION
  5
EF
100
AcDbEntity
  8
MAIN0
  6
CONTINUOUS
 62
3
100
AcDbDimension
  2
*D8
 10
754.7151266797266
 20
511.5627907996812
 30
0.0000000000000000
 11
753.9651266797266
 21
506.4715126705263
 31
0.0000000000000000
 70
160
  3
MAIN001
100
AcDbAlignedDimension
 13
869.7151266797266
 23
493.5627907997002
 33
0.0000000000000000
 14
766.7151266797664
 24
511.5627907996812
 34
0.0000000000000000
 50
90.00000000000000
100
AcDbRotatedDimension
1001
ACAD
1000
DSTYLE
1002
{
1070
   173
1070
     1
1070
     6
1000
_OPEN
1070
     7
1000
_OPEN
1070
    41
1040
3.000000
1002
}
  0
DIMENSION
  5
F8
100
AcDbEntity
  8
MAIN0
  6
CONTINUOUS
 62
3
100
AcDbDimension
  2
*D9
 10
714.7968270665400
 20
501.5627907996744
 30
0.0000000000000000
 11
714.0468270665400
 21
510.1883096498295
 31
0.0000000000000000
 70
160
  1
\A1;\U+220516
  3
MAIN001
100
AcDbAlignedDimension
 13
729.3264966759123
 23
485.5627907996744
 33
0.0000000000000000
 14
729.3264966759123
 24
501.5627907996744
 34
0.0000000000000000
 50
90.00000000000000
100
AcDbRotatedDimension
1001
ACAD
1000
DSTYLE
1002
{
1070
   173
1070
     1
1070
     6
1000
_OPEN
1070
     7
1000
_OPEN
1070
    41
1040
3.000000
1070
   287
1070
     0
1002
}
  0
DIMENSION
  5
101
100
AcDbEntity
  8
MAIN0
  6
CONTINUOUS
 62
3
100
AcDbDimension
  2
*D10
 10
819.7151266797266
 20
511.5627907996861
 30
0.0000000000000000
 11
819.2151266797266
 21
441.5627907996857
 31
0.0000000000000000
 70
32
  1
\A1;220
  3
MAIN001
100
AcDbAlignedDimension
 13
788.4651266796200
 23
371.5627907996853
 33
0.0000000000000000
 14
792.7151266797662
 24
511.5627907996860
 34
0.0000000000000000
 50
90.00000000000000
100
AcDbRotatedDimension
1001
ACAD
1000
DSTYLE
1002
{
1070
   173
1070
     1
1070
     6
1000
_OPEN
1070
     7
1000
_OPEN
1070
    41
1040
3.000000
1002
}
  0
DIMENSION
  5
10A
100
AcDbEntity
  8
MAIN0
  6
CONTINUOUS
 62
3
100
AcDbDimension
  2
*D11
 10
804.7151266797266
 20
371.5627907996869
 30
0.0000000000000000
 11
804.2151266797266
 21
381.5627907996861
 31
0.0000000000000000
 70
32
  3
MAIN001
100
AcDbAlignedDimension
 13
789.4651266796409
 23
391.5627907996854
 33
0.0000000000000000
 14
788.4651266796200
 24
371.5627907996853
 34
0.0000000000000000
 50
90.00000000000000
100
AcDbRotatedDimension
1001
ACAD
1000
DSTYLE
1002
{
1070
   173
1070
     1
1070
     6
1000
_OPEN
1070
     7
1000
_OPEN
1070
    41
1040
3.000000
1002
}
  0
DIMENSION
  5
115
100
AcDbEntity
  8
MAIN0
  6
CONTINUOUS
 62
3
100
AcDbDimension
  2
*D12
 10
789.4118258207525
 20
318.2594899407097
 30
0.0000000000000000
 11
806.9397325024565
 21
336.8480567941933
 31
0.0000000000000000
 70
161
  1
\A1;□15\H0.903226x;\S 0^ -0.1;
  3
MAIN001
100
AcDbAlignedDimension
 13
789.4236800851618
 23
339.4608391118957
 33
0.0000000000000000
 14
778.8170783673534
 24
328.8542373941092
 34
0.0000000000000000
 50
44.99999999999969
1001
ACAD
1000
DSTYLE
1002
{
1070
   173
1070
     1
1070
     6
1000
_OPEN
1070
     7
1000
_OPEN
1070
    41
1040
3.000000
1070
   287
1070
     0
1070
   272
1070
     1
1070
    47
1040
0.000000
1070
    48
1040
0.100000
1070
    71
1070
     1
1070
   340
1005
116
1002
}
  0
LINE
  5
117
100
AcDbEntity
  8
MAIN0
  6
CONTINUOUS
 62
3
100
AcDbLine
 10
792.7151266796720
 20
421.5627907996860
 30
0.0000000000000000
 11
792.7151266796973
 21
445.7153308371239
 31
0.0000000000000000
  0
LINE
  5
118
100
AcDbEntity
  8
MAIN0
  6
CONTINUOUS
 62
3
100
AcDbLine
 10
792.7151266797002
 20
448.7153308371239
 30
0.0000000000000000
 11
792.7151266797262
 21
473.5627907996860
 31
0.0000000000000000
  0
LINE
  5
119
100
AcDbEntity
  8
MAIN0
  6
CONTINUOUS
 62
3
100
AcDbLine
 10
766.7151266796720
 20
421.5627907996812
 30
0.0000000000000000
 11
766.7151266796991
 21
447.4342160287149
 31
0.0000000000000000
  0
LINE
  5
11A
100
AcDbEntity
  8
MAIN0
  6
CONTINUOUS
 62
3
100
AcDbLine
 10
766.7151266797021
 20
450.4342160287148
 30
0.0000000000000000
 11
766.7151266797264
 21
473.5627907996812
 31
0.0000000000000000
  0
CIRCLE
  5
11B
100
AcDbEntity
  8
MAIN0
  6
CONTINUOUS
 62
3
100
AcDbCircle
 10
698.7151266797266
 20
358.5627907996836
 30
0.0000000000000000
 40
11.00000000000000
  0
CIRCLE
  5
11C
100
AcDbEntity
  8
MAIN0
  6
CONTINUOUS
 62
3
100
AcDbCircle
 10
698.7151266797266
 20
358.5627907996836
 30
0.0000000000000000
 40
7.500000000000000
  0
CIRCLE
  5
11D
100
AcDbEntity
  8
MAIN0
  6
CONTINUOUS
 62
3
100
AcDbCircle
 10
616.7151266797267
 20
500.5909570203315
 30
0.0000000000000000
 40
11.00000000000000
  0
CIRCLE
  5
11E
100
AcDbEntity
  8
MAIN0
  6
CONTINUOUS
 62
3
100
AcDbCircle
 10
616.7151266797267
 20
500.5909570203315
 30
0.0000000000000000
 40
7.500000000000000
  0
CIRCLE
  5
11F
100
AcDbEntity
  8
MAIN0
  6
CONTINUOUS
 62
3
100
AcDbCircle
 10
452.7151266797268
 20
500.5909570203318
 30
0.0000000000000000
 40
11.00000000000000
  0
CIRCLE
  5
120
100
AcDbEntity
  8
MAIN0
  6
CONTINUOUS
 62
3
100
AcDbCircle
 10
452.7151266797268
 20
500.5909570203318
 30
0.0000000000000000
 40
7.500000000000000
  0
CIRCLE
  5
121
100
AcDbEntity
  8
MAIN0
  6
CONTINUOUS
 62
3
100
AcDbCircle
 10
370.7151266797265
 20
358.5627907996841
 30
0.0000000000000000
 40
11.00000000000000
  0
CIRCLE
  5
122
100
AcDbEntity
  8
MAIN0
  6
CONTINUOUS
 62
3
100
AcDbCircle
 10
370.7151266797265
 20
358.5627907996841
 30
0.0000000000000000
 40
7.500000000000000
  0
CIRCLE
  5
123
100
AcDbEntity
  8
MAIN0
  6
CONTINUOUS
 62
3
100
AcDbCircle
 10
452.7151266797259
 20
216.5346245790360
 30
0.0000000000000000
 40
11.00000000000000
  0
CIRCLE
  5
124
100
AcDbEntity
  8
MAIN0
  6
CONTINUOUS
 62
3
100
AcDbCircle
 10
452.7151266797259
 20
216.5346245790360
 30
0.0000000000000000
 40
7.500000000000000
  0
CIRCLE
  5
125
100
AcDbEntity
  8
MAIN0
  6
CONTINUOUS
 62
3
100
AcDbCircle
 10
616.7151266797259
 20
216.5346245790352
 30
0.0000000000000000
 40
11.00000000000000
  0
CIRCLE
  5
126
100
AcDbEntity
  8
MAIN0
  6
CONTINUOUS
 62
3
100
AcDbCircle
 10
616.7151266797259
 20
216.5346245790352
 30
0.0000000000000000
 40
7.500000000000000
  0
LINE
  5
127
100
AcDbEntity
  8
MAIN0
  6
HIDDEN
 62
3
100
AcDbLine
 10
254.1151266797266
 20
183.5627907996837
 30
0.0000000000000000
 11
254.7151266797266
 21
182.9627907996837
 31
0.0000000000000000
  0
LINE
  5
128
100
AcDbEntity
  8
MAIN0
  6
HIDDEN
 62
3
100
AcDbLine
 10
254.1151266797266
 20
183.5627907996836
 30
0.0000000000000000
 11
237.7151266797266
 21
183.5627907996836
 31
0.0000000000000000
  0
LINE
  5
129
100
AcDbEntity
  8
MAIN0
  6
HIDDEN
 62
3
100
AcDbLine
 10
237.7151266797266
 20
183.5627907996836
 30
0.0000000000000000
 11
237.7151266797266
 21
205.5627907996836
 31
0.0000000000000000
  0
LINE
  5
12A
100
AcDbEntity
  8
MAIN0
  6
HIDDEN
 62
3
100
AcDbLine
 10
237.7151266797266
 20
205.5627907996836
 30
0.0000000000000000
 11
254.1151266797266
 21
205.5627907996836
 31
0.0000000000000000
  0
LINE
  5
12B
100
AcDbEntity
  8
MAIN0
  6
HIDDEN
 62
3
100
AcDbLine
 10
254.1151266797266
 20
205.5627907996837
 30
0.0000000000000000
 11
254.7151266797266
 21
206.1627907996837
 31
0.0000000000000000
  0
LINE
  5
12C
100
AcDbEntity
  8
MAIN0
  6
HIDDEN
 62
3
100
AcDbLine
 10
237.7151266797266
 20
187.0627907996836
 30
0.0000000000000000
 11
145.3151266797266
 21
187.0627907996836
 31
0.0000000000000000
  0
LINE
  5
12D
100
AcDbEntity
  8
MAIN0
  6
HIDDEN
 62
3
100
AcDbLine
 10
145.3151266797266
 20
187.0627907996836
 30
0.0000000000000000
 11
144.7151266797266
 21
186.4627907996836
 31
0.0000000000000000
  0
LINE
  5
12E
100
AcDbEntity
  8
MAIN0
  6
HIDDEN
 62
3
100
AcDbLine
 10
237.7151266797266
 20
202.0627907996836
 30
0.0000000000000000
 11
145.3151266797266
 21
202.0627907996836
 31
0.0000000000000000
  0
LINE
  5
12F
100
AcDbEntity
  8
MAIN0
  6
HIDDEN
 62
3
100
AcDbLine
 10
145.3151266797266
 20
202.0627907996836
 30
0.0000000000000000
 11
144.7151266797266
 21
202.6627907996836
 31
0.0000000000000000
  0
LINE
  5
130
100
AcDbEntity
  8
MAIN0
  6
HIDDEN
 62
3
100
AcDbLine
 10
237.7151266797266
 20
184.0627907996837
 30
0.0000000000000000
 11
250.3151266797266
 21
184.0627907996837
 31
0.0000000000000000
  0
LINE
  5
131
100
AcDbEntity
  8
MAIN0
  6
HIDDEN
 62
3
100
AcDbLine
 10
250.3151266797266
 20
184.0627907996836
 30
0.0000000000000000
 11
251.7151266797266
 21
186.4876619302801
 31
0.0000000000000000
  0
LINE
  5
132
100
AcDbEntity
  8
MAIN0
  6
HIDDEN
 62
3
100
AcDbLine
 10
251.7151266797266
 20
186.4876619302801
 30
0.0000000000000000
 11
251.7151266797266
 21
202.6379196690872
 31
0.0000000000000000
  0
LINE
  5
133
100
AcDbEntity
  8
MAIN0
  6
HIDDEN
 62
3
100
AcDbLine
 10
251.7151266797266
 20
202.6379196690872
 30
0.0000000000000000
 11
250.3151266797266
 21
205.0627907996836
 31
0.0000000000000000
  0
LINE
  5
134
100
AcDbEntity
  8
MAIN0
  6
HIDDEN
 62
3
100
AcDbLine
 10
250.3151266797266
 20
205.0627907996837
 30
0.0000000000000000
 11
237.7151266797266
 21
205.0627907996837
 31
0.0000000000000000
  0
LINE
  5
135
100
AcDbEntity
  8
MAIN0
  6
HIDDEN
 62
3
100
AcDbLine
 10
250.3151266797266
 20
184.0627907996837
 30
0.0000000000000000
 11
250.3151266797266
 21
205.0627907996837
 31
0.0000000000000000
  0
LINE
  5
136
100
AcDbEntity
  8
MAIN0
  6
CONTINUOUS
 62
3
100
AcDbLine
 10
117.7151266797266
 20
187.5627907996837
 30
0.0000000000000000
 11
117.7151266797266
 21
201.5627907996837
 31
0.0000000000000000
  0
LINE
  5
137
100
AcDbEntity
  8
MAIN0
  6
HIDDEN
 62
3
100
AcDbLine
 10
157.7151266797266
 20
187.5627907996837
 30
0.0000000000000000
 11
157.7151266797266
 21
201.5627907996837
 31
0.0000000000000000
  0
LINE
  5
138
100
AcDbEntity
  8
MAIN0
  6
CONTINUOUS
 62
3
100
AcDbLine
 10
117.7151266797266
 20
201.5627907996837
 30
0.0000000000000000
 11
144.7151266797266
 21
201.5627907996837
 31
0.0000000000000000
  0
LINE
  5
139
100
AcDbEntity
  8
MAIN0
  6
HIDDEN
 62
3
100
AcDbLine
 10
144.7151266797266
 20
201.5627907996837
 30
0.0000000000000000
 11
237.7151266797266
 21
201.5627907996837
 31
0.0000000000000000
  0
LINE
  5
13A
100
AcDbEntity
  8
MAIN0
  6
CONTINUOUS
 62
3
100
AcDbLine
 10
117.7151266797266
 20
200.4802587996837
 30
0.0000000000000000
 11
144.7151266797266
 21
200.4802587996836
 31
0.0000000000000000
  0
LINE
  5
13B
100
AcDbEntity
  8
MAIN0
  6
HIDDEN
 62
3
100
AcDbLine
 10
144.7151266797266
 20
200.4802587996836
 30
0.0000000000000000
 11
157.7151266797266
 21
200.4802587996836
 31
0.0000000000000000
  0
LINE
  5
13C
100
AcDbEntity
  8
MAIN0
  6
CONTINUOUS
 62
3
100
AcDbLine
 10
117.7151266797266
 20
188.6453227996837
 30
0.0000000000000000
 11
144.7151266797266
 21
188.6453227996837
 31
0.0000000000000000
  0
LINE
  5
13D
100
AcDbEntity
  8
MAIN0
  6
HIDDEN
 62
3
100
AcDbLine
 10
144.7151266797266
 20
188.6453227996837
 30
0.0000000000000000
 11
157.7151266797266
 21
188.6453227996837
 31
0.0000000000000000
  0
LINE
  5
13E
100
AcDbEntity
  8
MAIN0
  6
CONTINUOUS
 62
3
100
AcDbLine
 10
117.7151266797266
 20
187.5627907996837
 30
0.0000000000000000
 11
144.7151266797266
 21
187.5627907996837
 31
0.0000000000000000
  0
LINE
  5
13F
100
AcDbEntity
  8
MAIN0
  6
HIDDEN
 62
3
100
AcDbLine
 10
144.7151266797266
 20
187.5627907996837
 30
0.0000000000000000
 11
237.7151266797266
 21
187.5627907996837
 31
0.0000000000000000
  0
LINE
  5
140
100
AcDbEntity
  8
MAIN0
  6
PHANTOM
 62
3
100
AcDbLine
 10
675.1327959320787
 20
268.2550073505447
 30
0.0000000000000000
 11
683.1327959320788
 21
282.1114138110957
 31
0.0000000000000000
  0
LINE
  5
141
100
AcDbEntity
  8
MAIN0
  6
PHANTOM
 62
3
100
AcDbLine
 10
671.6686943169407
 20
270.2550073505447
 30
0.0000000000000000
 11
679.6686943169409
 21
284.1114138110956
 31
0.0000000000000000
  0
LINE
  5
142
100
AcDbEntity
  8
MAIN0
  6
PHANTOM
 62
3
100
AcDbLine
 10
671.6686943169409
 20
270.2550073505448
 30
0.0000000000000000
 11
675.1327959320787
 21
268.2550073505448
 31
0.0000000000000000
  0
LINE
  5
143
100
AcDbEntity
  8
MAIN0
  6
PHANTOM
 62
3
100
AcDbLine
 10
679.6686943169408
 20
284.1114138110958
 30
0.0000000000000000
 11
683.1327959320786
 21
282.1114138110956
 31
0.0000000000000000
  0
MTEXT
  5
144
100
AcDbEntity
  8
MAIN0
  6
CONTINUOUS
 62
3
100
AcDbMText
 10
664.5869706463170
 20
272.9130834844121
 30
0.0000000000000000
 40
4.199999928474426
 41
0.0000000000000000
 71
     1
 72
     1
  1
{\H0.92x;{JAPAN}}
 11
0.5000000000000009
 21
0.8660254037844382
 31
0.0000000000000000
  7
STANDARD
  0
MTEXT
  5
145
100
AcDbEntity
  8
MAIN0
  6
CONTINUOUS
 62
3
100
AcDbMText
 10
656.1647100161185
 20
269.9675421987195
 30
0.0000000000000000
 40
4.199999928474426
 41
0.0000000000000000
 71
     1
 72
     1
  1
{\H0.64x;{MAX.1500/min}}
 11
0.5000000000000009
 21
0.8660254037844382
 31
0.0000000000000000
  7
STANDARD
  0
LINE
  5
146
100
AcDbEntity
  8
MAIN0
  6
CONTINUOUS
 62
3
100
AcDbLine
 10
653.4130617381800
 20
268.4228782481804
 30
0.0000000000000000
 11
672.3234387846450
 21
301.1766120829489
 31
0.0000000000000000
  0
MTEXT
  5
147
100
AcDbEntity
  8
MAIN0
  6
CONTINUOUS
 62
3
100
AcDbMText
 10
646.3247621273542
 20
273.5367288942247
 30
0.0000000000000000
 40
7.500000000000000
 41
0.0000000000000000
 71
     1
 72
     1
  1
{\H0.63x;{KITAGAWA}}
 11
0.5000000000000009
 21
0.8660254037844382
 31
0.0000000000000000
  7
STANDARD
  0
MTEXT
  5
148
100
AcDbEntity
  8
MAIN0
  6
CONTINUOUS
 62
3
100
AcDbMText
 10
640.8985913648171
 20
280.5910374957829
 30
0.0000000000000000
 40
6.000000000000000
 41
0.0000000000000000
 71
     1
 72
     1
  1
{\H0.63x;{SC-14-103}}
 11
0.5000000000000009
 21
0.8660254037844382
 31
0.0000000000000000
  7
STANDARD
  0
LINE
  5
149
100
AcDbEntity
  8
MAIN0
  6
HIDDEN
 62
3
100
AcDbLine
 10
233.4151266797265
 20
536.0627907996837
 30
0.0000000000000000
 11
231.8151266797266
 21
534.4627907996837
 31
0.0000000000000000
  0
LINE
  5
14A
100
AcDbEntity
  8
MAIN0
  6
HIDDEN
 62
3
100
AcDbLine
 10
231.8151266797266
 20
534.4627907996837
 30
0.0000000000000000
 11
221.6151266797265
 21
534.4627907996837
 31
0.0000000000000000
  0
LINE
  5
14B
100
AcDbEntity
  8
MAIN0
  6
HIDDEN
 62
3
100
AcDbLine
 10
221.6151266797265
 20
534.4627907996837
 30
0.0000000000000000
 11
220.0151266797265
 21
536.0627907996837
 31
0.0000000000000000
  0
LINE
  5
14C
100
AcDbEntity
  8
MAIN0
  6
HIDDEN
 62
3
100
AcDbLine
 10
232.7151266797266
 20
535.3627907996838
 30
0.0000000000000000
 11
232.7151266797266
 21
514.0627907996837
 31
0.0000000000000000
  0
LINE
  5
14D
100
AcDbEntity
  8
MAIN0
  6
HIDDEN
 62
3
100
AcDbLine
 10
232.7151266797266
 20
514.0627907996837
 30
0.0000000000000000
 11
220.7151266797266
 21
514.0627907996837
 31
0.0000000000000000
  0
LINE
  5
14E
100
AcDbEntity
  8
MAIN0
  6
HIDDEN
 62
3
100
AcDbLine
 10
220.7151266797266
 20
514.0627907996837
 30
0.0000000000000000
 11
220.7151266797266
 21
535.3627907996838
 31
0.0000000000000000
  0
LINE
  5
14F
100
AcDbEntity
  8
MAIN0
  6
HIDDEN
 62
3
100
AcDbLine
 10
231.8151266797266
 20
534.4627907996837
 30
0.0000000000000000
 11
231.8151266797266
 21
506.0627907996837
 31
0.0000000000000000
  0
LINE
  5
150
100
AcDbEntity
  8
MAIN0
  6
HIDDEN
 62
3
100
AcDbLine
 10
231.8151266797266
 20
506.0627907996837
 30
0.0000000000000000
 11
221.6151266797265
 21
506.0627907996837
 31
0.0000000000000000
  0
LINE
  5
151
100
AcDbEntity
  8
MAIN0
  6
HIDDEN
 62
3
100
AcDbLine
 10
221.6151266797265
 20
506.0627907996837
 30
0.0000000000000000
 11
221.6151266797265
 21
534.4627907996837
 31
0.0000000000000000
  0
LINE
  5
152
100
AcDbEntity
  8
MAIN0
  6
HIDDEN
 62
3
100
AcDbLine
 10
231.8151266797266
 20
506.0627907996837
 30
0.0000000000000000
 11
226.7151266797266
 21
503.1183044268166
 31
0.0000000000000000
  0
LINE
  5
153
100
AcDbEntity
  8
MAIN0
  6
HIDDEN
 62
3
100
AcDbLine
 10
226.7151266797266
 20
503.1183044268166
 30
0.0000000000000000
 11
221.6151266797265
 21
506.0627907996837
 31
0.0000000000000000
  0
LINE
  5
154
100
AcDbEntity
  8
MAIN0
  6
CONTINUOUS
 62
3
100
AcDbLine
 10
146.7151266797266
 20
181.0627907996836
 30
0.0000000000000000
 11
252.7151266797266
 21
181.0627907996836
 31
0.0000000000000000
  0
LINE
  5
155
100
AcDbEntity
  8
MAIN0
  6
CONTINUOUS
 62
3
100
AcDbLine
 10
152.7151266797266
 20
308.5627907996836
 30
0.0000000000000000
 11
177.2151266732192
 21
308.5627907996836
 31
0.0000000000000000
  0
LINE
  5
156
100
AcDbEntity
  8
MAIN0
  6
CONTINUOUS
 62
3
100
AcDbLine
 10
164.7151266797266
 20
196.0627907996836
 30
0.0000000000000000
 11
167.2151266799497
 21
196.0627907996836
 31
0.0000000000000000
  0
LINE
  5
157
100
AcDbEntity
  8
MAIN0
  6
CONTINUOUS
 62
3
100
AcDbLine
 10
159.7151266797266
 20
201.0627907996836
 30
0.0000000000000000
 11
159.7151266797266
 21
208.5627907996836
 31
0.0000000000000000
  0
ARC
  5
158
100
AcDbEntity
  8
MAIN0
  6
CONTINUOUS
 62
3
100
AcDbCircle
 10
164.7151266797266
 20
201.0627907996836
 30
0.0000000000000000
 40
5.000000000000000
100
AcDbArc
 50
180.0000000000000
 51
270.0000000000000
  0
LINE
  5
159
100
AcDbEntity
  8
MAIN0
  6
CONTINUOUS
 62
3
100
AcDbLine
 10
144.7151266797266
 20
208.5627907996836
 30
0.0000000000000000
 11
159.7151266797266
 21
208.5627907996836
 31
0.0000000000000000
  0
LINE
  5
15A
100
AcDbEntity
  8
MAIN0
  6
CONTINUOUS
 62
3
100
AcDbLine
 10
169.7151266797266
 20
277.5627907996836
 30
0.0000000000000000
 11
169.7151266797266
 21
308.5627907996836
 31
0.0000000000000000
  0
LINE
  5
15B
100
AcDbEntity
  8
MAIN0
  6
CONTINUOUS
 62
3
100
AcDbLine
 10
170.1396079869345
 20
264.5627907996836
 30
0.0000000000000000
 11
177.3795824711916
 21
264.5627907996836
 31
0.0000000000000000
  0
LINE
  5
15C
100
AcDbEntity
  8
MAIN0
  6
CONTINUOUS
 62
3
100
AcDbLine
 10
157.7151266799660
 20
208.5627907996840
 30
0.0000000000000000
 11
160.1533126393884
 21
255.0861503621064
 31
0.0000000000000000
  0
LINE
  5
15D
100
AcDbEntity
  8
MAIN0
  6
CONTINUOUS
 62
3
100
AcDbLine
 10
159.6670409016375
 20
471.3180487327799
 30
0.0000000000000000
 11
160.1533126393883
 21
462.0394312372607
 31
0.0000000000000000
  0
LINE
  5
15E
100
AcDbEntity
  8
MAIN0
  6
CENTER
 62
3
100
AcDbLine
 10
109.9928719868063
 20
194.5627907996836
 30
0.0000000000000000
 11
259.7151266797266
 21
194.5627907996836
 31
0.0000000000000000
  0
LINE
  5
15F
100
AcDbEntity
  8
MAIN0
  6
HIDDEN
 62
3
100
AcDbLine
 10
161.2151266797265
 20
534.5627907996836
 30
0.0000000000000000
 11
204.2151266797265
 21
534.5627907996836
 31
0.0000000000000000
  0
LINE
  5
160
100
AcDbEntity
  8
MAIN0
  6
HIDDEN
 62
3
100
AcDbLine
 10
201.2151266797266
 20
524.9627907996836
 30
0.0000000000000000
 11
204.7151266797264
 21
524.9627907996836
 31
0.0000000000000000
  0
ARC
  5
161
100
AcDbEntity
  8
MAIN0
  6
HIDDEN
 62
3
100
AcDbCircle
 10
201.2151266797266
 20
521.4627907996836
 30
0.0000000000000000
 40
3.500000000000000
100
AcDbArc
 50
90.00000000000000
 51
143.1301023541555
  0
LINE
  5
162
100
AcDbEntity
  8
MAIN0
  6
HIDDEN
 62
3
100
AcDbLine
 10
204.7151266797265
 20
524.9627907996836
 30
0.0000000000000000
 11
204.7151266797265
 21
534.0627907996836
 31
0.0000000000000000
  0
LINE
  5
163
100
AcDbEntity
  8
MAIN0
  6
HIDDEN
 62
3
100
AcDbLine
 10
192.4236800853167
 20
523.5627907996836
 30
0.0000000000000000
 11
192.4236800853187
 21
533.5284986264043
 31
0.0000000000000000
  0
LINE
  5
164
100
AcDbEntity
  8
MAIN0
  6
HIDDEN
 62
3
100
AcDbLine
 10
173.0065732741587
 20
523.5627907996836
 30
0.0000000000000000
 11
173.0065732741571
 21
533.5284986258384
 31
0.0000000000000000
  0
LINE
  5
165
100
AcDbEntity
  8
MAIN0
  6
HIDDEN
 62
3
100
AcDbLine
 10
192.4236800853187
 20
533.5284986264044
 30
0.0000000000000000
 11
194.2151266797267
 21
534.5627907999236
 31
0.0000000000000000
  0
LINE
  5
166
100
AcDbEntity
  8
MAIN0
  6
HIDDEN
 62
3
100
AcDbLine
 10
171.2151266791918
 20
534.5627907996834
 30
0.0000000000000000
 11
173.0065732741571
 21
533.5284986258387
 31
0.0000000000000000
  0
LINE
  5
167
100
AcDbEntity
  8
MAIN0
  6
HIDDEN
 62
3
100
AcDbLine
 10
183.6131749913866
 20
523.5627907996836
 30
0.0000000000000000
 11
183.6131749913859
 21
533.5284986261476
 31
0.0000000000000000
  0
LINE
  5
168
100
AcDbEntity
  8
MAIN0
  6
HIDDEN
 62
3
100
AcDbLine
 10
181.8170783676550
 20
523.5627907996836
 30
0.0000000000000000
 11
181.8170783676527
 21
533.5284986260953
 31
0.0000000000000000
  0
LINE
  5
169
100
AcDbEntity
  8
MAIN0
  6
HIDDEN
 62
3
100
AcDbLine
 10
192.4236800853186
 20
533.5284986264043
 30
0.0000000000000000
 11
188.2357499520918
 21
523.5627907996836
 31
0.0000000000000000
  0
LINE
  5
16A
100
AcDbEntity
  8
MAIN0
  6
HIDDEN
 62
3
100
AcDbLine
 10
187.8011051245549
 20
523.5627907996836
 30
0.0000000000000000
 11
183.6131749913860
 21
533.5284986261474
 31
0.0000000000000000
  0
LINE
  5
16B
100
AcDbEntity
  8
MAIN0
  6
HIDDEN
 62
3
100
AcDbLine
 10
181.8170783676526
 20
533.5284986260951
 30
0.0000000000000000
 11
177.6291482347027
 21
523.5627907996836
 31
0.0000000000000000
  0
LINE
  5
16C
100
AcDbEntity
  8
MAIN0
  6
HIDDEN
 62
3
100
AcDbLine
 10
173.0065732741572
 20
533.5284986258384
 30
0.0000000000000000
 11
177.1945034070545
 21
523.5627907996836
 31
0.0000000000000000
  0
LINE
  5
16D
100
AcDbEntity
  8
MAIN0
  6
HIDDEN
 62
3
100
AcDbLine
 10
181.8170783676526
 20
533.5284986260953
 30
0.0000000000000000
 11
173.0065732741571
 21
533.5284986258386
 31
0.0000000000000000
  0
LINE
  5
16E
100
AcDbEntity
  8
MAIN0
  6
HIDDEN
 62
3
100
AcDbLine
 10
192.4236800853186
 20
533.5284986264041
 30
0.0000000000000000
 11
183.6131749913859
 21
533.5284986261476
 31
0.0000000000000000
  0
ARC
  5
16F
100
AcDbEntity
  8
MAIN0
  6
HIDDEN
 62
3
100
AcDbCircle
 10
164.2151266797265
 20
521.4627907996836
 30
0.0000000000000000
 40
3.500000000000000
100
AcDbArc
 50
36.86989764584422
 51
90.00000000000000
  0
LINE
  5
170
100
AcDbEntity
  8
MAIN0
  6
HIDDEN
 62
3
100
AcDbLine
 10
164.2151266797265
 20
524.9627907996836
 30
0.0000000000000000
 11
160.7151266797267
 21
524.9627907996836
 31
0.0000000000000000
  0
LINE
  5
171
100
AcDbEntity
  8
MAIN0
  6
HIDDEN
 62
3
100
AcDbLine
 10
160.7151266797265
 20
524.9627907996836
 30
0.0000000000000000
 11
160.7151266797265
 21
534.0627907996836
 31
0.0000000000000000
  0
ARC
  5
172
100
AcDbEntity
  8
MAIN0
  6
HIDDEN
 62
3
100
AcDbCircle
 10
182.7151266797265
 20
712.1941338366344
 30
0.0000000000000000
 40
177.5000000000000
100
AcDbArc
 50
262.8802423057578
 51
277.1197576942422
  0
LINE
  5
173
100
AcDbEntity
  8
MAIN0
  6
CONTINUOUS
 62
3
100
AcDbLine
 10
146.7151266797265
 20
536.0627907996836
 30
0.0000000000000000
 11
252.7151266797266
 21
536.0627907996839
 31
0.0000000000000000
  0
LINE
  5
174
100
AcDbEntity
  8
MAIN0
  6
CONTINUOUS
 62
3
100
AcDbLine
 10
144.7151266797265
 20
508.5627907996836
 30
0.0000000000000000
 11
154.7151266792288
 21
508.5627907996836
 31
0.0000000000000000
  0
LINE
  5
175
100
AcDbEntity
  8
MAIN0
  6
HIDDEN
 62
3
100
AcDbLine
 10
204.2151266797266
 20
534.5627907996835
 30
0.0000000000000000
 11
204.7151266797266
 21
534.0627907996835
 31
0.0000000000000000
  0
LINE
  5
176
100
AcDbEntity
  8
MAIN0
  6
HIDDEN
 62
3
100
AcDbLine
 10
161.2151266797266
 20
534.5627907996835
 30
0.0000000000000000
 11
160.7151266797266
 21
534.0627907996835
 31
0.0000000000000000
  0
LINE
  5
177
100
AcDbEntity
  8
MAIN0
  6
CONTINUOUS
 62
3
100
AcDbLine
 10
169.7151266797266
 20
278.5627907996836
 30
0.0000000000000000
 11
179.6499095106688
 21
278.5627907996836
 31
0.0000000000000000
  0
LINE
  5
178
100
AcDbEntity
  8
MAIN0
  6
PHANTOM
 62
3
100
AcDbLine
 10
254.7151266797266
 20
376.0627907996836
 30
0.0000000000000000
 11
305.2151266797266
 21
376.0627907996836
 31
0.0000000000000000
  0
LINE
  5
179
100
AcDbEntity
  8
MAIN0
  6
PHANTOM
 62
3
100
AcDbLine
 10
254.7151266797266
 20
341.0627907996836
 30
0.0000000000000000
 11
305.2151266797266
 21
341.0627907996836
 31
0.0000000000000000
  0
LINE
  5
17A
100
AcDbEntity
  8
MAIN0
  6
PHANTOM
 62
3
100
AcDbLine
 10
306.7151266797266
 20
342.5627907996836
 30
0.0000000000000000
 11
306.7151266797266
 21
374.5627907996836
 31
0.0000000000000000
  0
LINE
  5
17B
100
AcDbEntity
  8
MAIN0
  6
PHANTOM
 62
3
100
AcDbLine
 10
305.2151266797265
 20
376.0627907996836
 30
0.0000000000000000
 11
306.7151266797265
 21
374.5627907996836
 31
0.0000000000000000
  0
LINE
  5
17C
100
AcDbEntity
  8
MAIN0
  6
PHANTOM
 62
3
100
AcDbLine
 10
306.7151266797266
 20
342.5627907996836
 30
0.0000000000000000
 11
305.2151266797265
 21
341.0627907996836
 31
0.0000000000000000
  0
LINE
  5
17D
100
AcDbEntity
  8
MAIN0
  6
CONTINUOUS
 62
3
100
AcDbLine
 10
152.7151266797266
 20
408.5627907996836
 30
0.0000000000000000
 11
167.2151266797265
 21
408.5627907996836
 31
0.0000000000000000
  0
LINE
  5
17E
100
AcDbEntity
  8
MAIN0
  6
CONTINUOUS
 62
3
100
AcDbLine
 10
144.7151266797266
 20
183.0627907996836
 30
0.0000000000000000
 11
144.7151266797265
 21
534.0627907996836
 31
0.0000000000000000
  0
LINE
  5
17F
100
AcDbEntity
  8
MAIN0
  6
CENTER
 62
3
100
AcDbLine
 10
139.7151266797266
 20
293.5627907996836
 30
0.0000000000000000
 11
189.7151266797266
 21
293.5627907996836
 31
0.0000000000000000
  0
LINE
  5
180
100
AcDbEntity
  8
MAIN0
  6
CENTER
 62
3
100
AcDbLine
 10
182.7151266797266
 20
518.5627907996836
 30
0.0000000000000000
 11
182.7151266797266
 21
541.0627907996836
 31
0.0000000000000000
  0
LINE
  5
181
100
AcDbEntity
  8
MAIN0
  6
CENTER
 62
3
100
AcDbLine
 10
134.7151266797266
 20
358.5627907996836
 30
0.0000000000000000
 11
311.8772921050457
 21
358.5627907996836
 31
0.0000000000000000
  0
LINE
  5
182
100
AcDbEntity
  8
MAIN0
  6
CONTINUOUS
 62
3
100
AcDbLine
 10
152.7151266797266
 20
278.5627907996836
 30
0.0000000000000000
 11
152.7151266797266
 21
438.5627907996836
 31
0.0000000000000000
  0
ARC
  5
183
100
AcDbEntity
  8
MAIN0
  6
CONTINUOUS
 62
3
100
AcDbCircle
 10
151.7151266797266
 20
278.5627907996836
 30
0.0000000000000000
 40
1.000000000000000
100
AcDbArc
 50
270.0000000000000
 51
360.0000000000000
  0
ARC
  5
184
100
AcDbEntity
  8
MAIN0
  6
CONTINUOUS
 62
3
100
AcDbCircle
 10
151.7151266797266
 20
438.5627907996836
 30
0.0000000000000000
 40
1.000000000000000
100
AcDbArc
 50
0.0000000000000000
 51
90.00000000000000
  0
ARC
  5
185
100
AcDbEntity
  8
MAIN0
  6
CONTINUOUS
 62
3
100
AcDbCircle
 10
170.1396079869345
 20
462.5627907996836
 30
0.0000000000000000
 40
10.00000000000000
100
AcDbArc
 50
182.9999999999625
 51
226.7652902495854
  0
ARC
  5
186
100
AcDbEntity
  8
MAIN0
  6
CONTINUOUS
 62
3
100
AcDbCircle
 10
170.1396079869345
 20
254.5627907996836
 30
0.0000000000000000
 40
10.00000000000000
100
AcDbArc
 50
90.00000000000000
 51
177.0000000000376
  0
DIMENSION
  5
18F
100
AcDbEntity
  8
MAIN0
  6
CONTINUOUS
 62
3
100
AcDbDimension
  2
*D13
 10
144.7151266797266
 20
563.5627907996836
 30
0.0000000000000000
 11
199.7151266797266
 21
564.0627907996836
 31
0.0000000000000000
 70
32
  3
MAIN001
100
AcDbAlignedDimension
 13
254.7151266797266
 23
534.0627907996836
 33
0.0000000000000000
 14
144.7151266797265
 24
534.0627907996836
 34
0.0000000000000000
100
AcDbRotatedDimension
1001
ACAD
1000
DSTYLE
1002
{
1070
   173
1070
     1
1070
     6
1000
_OPEN
1070
     7
1000
_OPEN
1070
    41
1040
3.000000
1002
}
  0
DIMENSION
  5
198
100
AcDbEntity
  8
MAIN0
  6
CONTINUOUS
 62
3
100
AcDbDimension
  2
*D14
 10
144.7151266797265
 20
553.5627907996836
 30
0.0000000000000000
 11
163.7151266797265
 21
554.0627907996836
 31
0.0000000000000000
 70
32
  3
MAIN001
100
AcDbAlignedDimension
 13
182.7151266797266
 23
541.0627907996836
 33
0.0000000000000000
 14
144.7151266797265
 24
534.0627907996836
 34
0.0000000000000000
100
AcDbRotatedDimension
1001
ACAD
1000
DSTYLE
1002
{
1070
   173
1070
     1
1070
     6
1000
_OPEN
1070
     7
1000
_OPEN
1070
    41
1040
3.000000
1002
}
  0
DIMENSION
  5
1A1
100
AcDbEntity
  8
MAIN0
  6
CONTINUOUS
 62
3
100
AcDbDimension
  2
*D15
 10
182.7151266797266
 20
553.5627907996836
 30
0.0000000000000000
 11
218.7151266797266
 21
554.0627907996836
 31
0.0000000000000000
 70
32
  3
MAIN001
100
AcDbAlignedDimension
 13
254.7151266797266
 23
534.0627907996836
 33
0.0000000000000000
 14
182.7151266797266
 24
541.0627907996836
 34
0.0000000000000000
100
AcDbRotatedDimension
1001
ACAD
1000
DSTYLE
1002
{
1070
   173
1070
     1
1070
     6
1000
_OPEN
1070
     7
1000
_OPEN
1070
    41
1040
3.000000
1002
}
  0
DIMENSION
  5
1AA
100
AcDbEntity
  8
MAIN0
  6
CONTINUOUS
 62
3
100
AcDbDimension
  2
*D16
 10
160.7151266797266
 20
543.5627907996836
 30
0.0000000000000000
 11
174.5319743670403
 21
544.3127907996836
 31
0.0000000000000000
 70
160
  1
\A1;\U+220544
  3
MAIN001
100
AcDbAlignedDimension
 13
204.7151266797265
 23
534.0627907996836
 33
0.0000000000000000
 14
160.7151266797265
 24
534.0627907996836
 34
0.0000000000000000
100
AcDbRotatedDimension
1001
ACAD
1000
DSTYLE
1002
{
1070
   173
1070
     1
1070
     6
1000
_OPEN
1070
     7
1000
_OPEN
1070
    41
1040
3.000000
1002
}
  0
DIMENSION
  5
1B3
100
AcDbEntity
  8
MAIN0
  6
CONTINUOUS
 62
3
100
AcDbDimension
  2
*D17
 10
109.7151266797266
 20
208.5627907996836
 30
0.0000000000000000
 11
109.2151266797266
 21
351.4877906625929
 31
0.0000000000000000
 70
32
  1
\A1;\U+2205300H6\H0.903226x;\S＋0.032^ 　0;
  3
MAIN001
100
AcDbAlignedDimension
 13
144.7151266797265
 23
508.5627907996836
 33
0.0000000000000000
 14
144.7151266797266
 24
208.5627907996836
 34
0.0000000000000000
 50
90.00000000000000
100
AcDbRotatedDimension
1001
ACAD
1000
DSTYLE
1002
{
1070
   173
1070
     1
1070
     6
1000
_OPEN
1070
     7
1000
_OPEN
1070
    41
1040
3.000000
1070
   272
1070
     3
1070
    47
1040
0.032000
1070
    48
1040
0.000000
1070
    71
1070
     1
1070
   340
1005
116
1002
}
  0
DIMENSION
  5
1BC
100
AcDbEntity
  8
MAIN0
  6
CONTINUOUS
 62
3
100
AcDbDimension
  2
*D18
 10
124.8185012555396
 20
408.5627907996836
 30
0.0000000000000000
 11
124.0685012555396
 21
358.5627907996836
 31
0.0000000000000000
 70
32
  1
\A1;\U+2205100
  3
MAIN001
100
AcDbAlignedDimension
 13
152.7151266797266
 23
308.5627907996836
 33
0.0000000000000000
 14
152.7151266797266
 24
408.5627907996836
 34
0.0000000000000000
 50
90.00000000000000
100
AcDbRotatedDimension
1001
ACAD
1000
DSTYLE
1002
{
1070
   173
1070
     1
1070
     6
1000
_OPEN
1070
     7
1000
_OPEN
1070
    41
1040
3.000000
1002
}
  0
DIMENSION
  5
1C5
100
AcDbEntity
  8
MAIN0
  6
CONTINUOUS
 62
3
100
AcDbDimension
  2
*D19
 10
94.71512667972655
 20
536.0627907996836
 30
0.0000000000000000
 11
94.21512667972655
 21
358.5627907996836
 31
0.0000000000000000
 70
32
  1
\A1;\U+2205355
  3
MAIN001
100
AcDbAlignedDimension
 13
146.7151266797266
 23
181.0627907996836
 33
0.0000000000000000
 14
146.7151266797265
 24
536.0627907996836
 34
0.0000000000000000
 50
90.00000000000000
100
AcDbRotatedDimension
1001
ACAD
1000
DSTYLE
1002
{
1070
   173
1070
     1
1070
     6
1000
_OPEN
1070
     7
1000
_OPEN
1070
    41
1040
3.000000
1002
}
  0
DIMENSION
  5
1CE
100
AcDbEntity
  8
MAIN0
  6
CONTINUOUS
 62
3
100
AcDbDimension
  2
*D20
 10
144.7151266797266
 20
423.5627907996836
 30
0.0000000000000000
 11
137.4445901446343
 21
424.3127907996836
 31
0.0000000000000000
 70
160
  3
MAIN001
100
AcDbAlignedDimension
 13
151.7151266797266
 23
208.5627907996836
 33
0.0000000000000000
 14
144.7151266797266
 24
183.0627907996836
 34
0.0000000000000000
100
AcDbRotatedDimension
1001
ACAD
1000
DSTYLE
1002
{
1070
   173
1070
     1
1070
     6
1000
_OPEN
1070
     7
1000
_OPEN
1070
    41
1040
3.000000
1070
   287
1070
     0
1002
}
  0
DIMENSION
  5
1D7
100
AcDbEntity
  8
MAIN0
  6
CONTINUOUS
 62
3
100
AcDbDimension
  2
*D21
 10
319.7151266797266
 20
376.0627907996836
 30
0.0000000000000000
 11
319.2151266797266
 21
358.5627907996836
 31
0.0000000000000000
 70
32
  3
MAIN001
100
AcDbAlignedDimension
 13
305.2151266797266
 23
341.0627907996836
 33
0.0000000000000000
 14
305.2151266797266
 24
376.0627907996836
 34
0.0000000000000000
 50
90.00000000000000
100
AcDbRotatedDimension
1001
ACAD
1000
DSTYLE
1002
{
1070
   173
1070
     1
1070
     6
1000
_OPEN
1070
     7
1000
_OPEN
1070
    41
1040
3.000000
1002
}
  0
DIMENSION
  5
1E0
100
AcDbEntity
  8
MAIN0
  6
CONTINUOUS
 62
3
100
AcDbDimension
  2
*D22
 10
319.7151266797266
 20
320.6627907996837
 30
0.0000000000000000
 11
319.2151266797266
 21
254.6627907996838
 31
0.0000000000000000
 70
32
  3
MAIN001
100
AcDbAlignedDimension
 13
305.2151266797269
 23
188.6627907996839
 33
0.0000000000000000
 14
305.2151266797266
 24
320.6627907996837
 34
0.0000000000000000
 50
90.00000000000000
100
AcDbRotatedDimension
1001
ACAD
1000
DSTYLE
1002
{
1070
   173
1070
     1
1070
     6
1000
_OPEN
1070
     7
1000
_OPEN
1070
    41
1040
3.000000
1002
}
  0
DIMENSION
  5
1E8
100
AcDbEntity
  8
MAIN0
  6
CONTINUOUS
 62
3
100
AcDbDimension
  2
*D23
 10
254.7151266797266
 20
328.5742213884466
 30
0.0000000000000000
 11
280.7151266797266
 21
329.3242213884466
 31
0.0000000000000000
 70
32
  3
MAIN001
100
AcDbAlignedDimension
 13
306.7151266797266
 23
342.5627907996836
 33
0.0000000000000000
 14
254.7151266797266
 24
183.0627907996836
 34
0.0000000000000000
100
AcDbRotatedDimension
1001
ACAD
1000
DSTYLE
1002
{
1070
   173
1070
     1
1070
     6
1000
_OPEN
1070
     7
1000
_OPEN
1070
    41
1040
3.000000
1002
}
  0
ARC
  5
1E9
100
AcDbEntity
  8
MAIN0
  6
CONTINUOUS
 62
3
100
AcDbCircle
 10
146.7151266797266
 20
183.0627907996836
 30
0.0000000000000000
 40
2.000000000000000
100
AcDbArc
 50
180.0000000000000
 51
270.0000000000000
  0
ARC
  5
1EA
100
AcDbEntity
  8
MAIN0
  6
CONTINUOUS
 62
3
100
AcDbCircle
 10
146.7151266797265
 20
534.0627907996836
 30
0.0000000000000000
 40
2.000000000000000
100
AcDbArc
 50
90.00000000000000
 51
180.0000000000000
  0
CIRCLE
  5
1EB
100
AcDbEntity
  8
MAIN0
  6
CONTINUOUS
 62
3
100
AcDbCircle
 10
534.7151266797266
 20
358.5627907996836
 30
0.0000000000000000
 40
177.5000000000000
  0
LINE
  5
1EC
100
AcDbEntity
  8
MAIN0
  6
HIDDEN
 62
3
100
AcDbLine
 10
512.7151266797266
 20
508.9622588838494
 30
0.0000000000000000
 11
512.7151266797266
 21
534.6941338366344
 31
0.0000000000000000
  0
LINE
  5
1ED
100
AcDbEntity
  8
MAIN0
  6
HIDDEN
 62
3
100
AcDbLine
 10
556.7151266797266
 20
508.9622588838494
 30
0.0000000000000000
 11
556.7151266797266
 21
534.6941338366344
 31
0.0000000000000000
  0
LINE
  5
1EE
100
AcDbEntity
  8
MAIN0
  6
CONTINUOUS
 62
3
100
AcDbLine
 10
386.2397622071183
 20
455.8320878297648
 30
0.0000000000000000
 11
392.5774105767507
 21
452.1730448375283
 31
0.0000000000000000
  0
LINE
  5
1EF
100
AcDbEntity
  8
MAIN0
  6
CONTINUOUS
 62
3
100
AcDbLine
 10
376.2397622071185
 20
438.5115797540763
 30
0.0000000000000000
 11
382.5774105767507
 21
434.8525367618399
 31
0.0000000000000000
  0
LINE
  5
1F0
100
AcDbEntity
  8
MAIN0
  6
CONTINUOUS
 62
3
100
AcDbLine
 10
693.1904911523352
 20
438.5115797540755
 30
0.0000000000000000
 11
686.8528427827027
 21
434.8525367618390
 31
0.0000000000000000
  0
LINE
  5
1F1
100
AcDbEntity
  8
MAIN0
  6
CONTINUOUS
 62
3
100
AcDbLine
 10
683.1904911523359
 20
455.8320878297629
 30
0.0000000000000000
 11
676.8528427827034
 21
452.1730448375266
 31
0.0000000000000000
  0
CIRCLE
  5
1F2
100
AcDbEntity
  8
MAIN0
  6
CONTINUOUS
 62
3
100
AcDbCircle
 10
534.7151266797266
 20
439.5627907996836
 30
0.0000000000000000
 40
1.500000000000000
  0
CIRCLE
  5
1F3
100
AcDbEntity
  8
MAIN0
  6
CONTINUOUS
 62
3
100
AcDbCircle
 10
534.7151266797266
 20
439.5627907996836
 30
0.0000000000000000
 40
4.500000000000000
  0
LINE
  5
1F4
100
AcDbEntity
  8
MAIN0
  6
CENTER
 62
3
100
AcDbLine
 10
570.8096821112167
 20
493.2695055557448
 30
0.0000000000000000
 11
582.3946186017540
 21
536.5050771408953
 31
0.0000000000000000
  0
LINE
  5
1F5
100
AcDbEntity
  8
MAIN0
  6
CENTER
 62
3
100
AcDbLine
 10
498.6205712482364
 20
223.8560760436225
 30
0.0000000000000000
 11
486.7006982671603
 21
179.3705044584721
 31
0.0000000000000000
  0
LINE
  5
1F6
100
AcDbEntity
  8
MAIN0
  6
HIDDEN
 62
3
100
AcDbLine
 10
393.4653666031719
 20
302.4156156408585
 30
0.0000000000000000
 11
371.1809092070556
 21
289.5496781644660
 31
0.0000000000000000
  0
LINE
  5
1F7
100
AcDbEntity
  8
MAIN0
  6
HIDDEN
 62
3
100
AcDbLine
 10
415.4653666031720
 20
264.3104978743432
 30
0.0000000000000000
 11
393.1809092070556
 21
251.4445603979507
 31
0.0000000000000000
  0
LINE
  5
1F8
100
AcDbEntity
  8
MAIN0
  6
HIDDEN
 62
3
100
AcDbLine
 10
653.9648867562810
 20
264.3104978743430
 30
0.0000000000000000
 11
676.2493441523973
 21
251.4445603979505
 31
0.0000000000000000
  0
LINE
  5
1F9
100
AcDbEntity
  8
MAIN0
  6
HIDDEN
 62
3
100
AcDbLine
 10
675.9648867562811
 20
302.4156156408583
 30
0.0000000000000000
 11
698.2493441523974
 21
289.5496781644657
 31
0.0000000000000000
  0
LINE
  5
1FA
100
AcDbEntity
  8
MAIN0
  6
CENTER
 62
3
100
AcDbLine
 10
369.8289199999656
 20
453.7598866118996
 30
0.0000000000000000
 11
509.4699361513433
 21
373.1381083469891
 31
0.0000000000000000
  0
MTEXT
  5
1FB
100
AcDbEntity
  8
MAIN0
  6
CONTINUOUS
 62
3
100
AcDbMText
 10
378.9298778372656
 20
423.2348250208837
 30
0.0000000000000000
 40
4.649999856948853
 41
0.0000000000000000
 71
     1
 72
     1
  1
{\H0.81x;{3}}
 11
-0.4999999999999981
 21
-0.8660254037844397
 31
0.0000000000000000
  7
STANDARD
  0
MTEXT
  5
1FC
100
AcDbEntity
  8
MAIN0
  6
CONTINUOUS
 62
3
100
AcDbMText
 10
668.6153756509327
 20
461.1407567215343
 30
0.0000000000000000
 40
4.649999856948853
 41
0.0000000000000000
 71
     1
 72
     1
  1
{\H0.81x;{2}}
 11
-0.4999999999999979
 21
0.8660254037844398
 31
0.0000000000000000
  7
STANDARD
  0
LINE
  5
1FD
100
AcDbEntity
  8
MAIN0
  6
CENTER
 62
3
100
AcDbLine
 10
699.6013333594874
 20
453.7598866118995
 30
0.0000000000000000
 11
559.9603172081098
 21
373.1381083469890
 31
0.0000000000000000
  0
LINE
  5
1FE
100
AcDbEntity
  8
MAIN0
  6
CENTER
 62
3
100
AcDbLine
 10
368.2103568149547
 20
262.4312170966191
 30
0.0000000000000000
 11
417.4625763474778
 21
290.8669993019162
 31
0.0000000000000000
  0
LEADER
  5
1FF
100
AcDbEntity
  8
MAIN0
  6
CONTINUOUS
 62
3
100
AcDbLeader
  3
MAIN001
 73
     0
 75
     1
 40
4.649999856948853
 41
50.24900003352758
 76
     3
 10
488.7747461763127
 20
187.1109566327622
 30
0.0000000000000000
 10
457.2242083986046
 20
175.5446414122097
 30
0.0000000000000000
 10
454.5442084775956
 20
175.5446414122097
 30
0.0000000000000000
340
200
213
0.0000000000000000
223
-0.7500000000000000
233
0.0000000000000000
1001
ACAD
1000
DSTYLE
1002
{
1070
   147
1040
0.0
1070
    77
1070
     1
1070
   173
1070
     1
1070
     6
1000
_OPEN
1070
     7
1000
_OPEN
1002
}
  0
MTEXT
  5
200
102
{ACAD_REACTORS
330
1FF
102
}
100
AcDbEntity
  8
MAIN0
  6
CONTINUOUS
 62
3
100
AcDbMText
 10
404.2952084440680
 20
180.9446412691586
 30
0.0000000000000000
 40
4.649999856948853
 41
0.0000000000000000
 71
     1
 72
     1
  1
{\H0.71x;{2-M12 ねじ深22\P(等配)\PDEPTH 22\P(EQUALLY SPACED)}}
 11
1.000000000000000
 21
0.0000000000000000
 31
0.0000000000000000
  7
KNJYOKO
  0
LINE
  5
201
100
AcDbEntity
  8
MAIN0
  6
CONTINUOUS
 62
3
100
AcDbLine
 10
372.9945412719434
 20
431.7249548967354
 30
0.0000000000000000
 11
378.8274105767508
 21
428.3573462334568
 31
0.0000000000000000
  0
LINE
  5
202
100
AcDbEntity
  8
MAIN0
  6
CONTINUOUS
 62
3
100
AcDbLine
 10
390.4945412719433
 20
462.0358440291902
 30
0.0000000000000000
 11
396.3274105767507
 21
458.6682353659117
 31
0.0000000000000000
  0
LINE
  5
203
100
AcDbEntity
  8
MAIN0
  6
CONTINUOUS
 62
3
100
AcDbLine
 10
678.9357120875097
 20
462.0358440291900
 30
0.0000000000000000
 11
673.1028427827025
 21
458.6682353659115
 31
0.0000000000000000
  0
LINE
  5
204
100
AcDbEntity
  8
MAIN0
  6
CONTINUOUS
 62
3
100
AcDbLine
 10
696.4357120875097
 20
431.7249548967354
 30
0.0000000000000000
 11
690.6028427827023
 21
428.3573462334568
 31
0.0000000000000000
  0
LINE
  5
205
100
AcDbEntity
  8
MAIN0
  6
CENTER
 62
3
100
AcDbLine
 10
729.7151266797266
 20
358.5627907996836
 30
0.0000000000000000
 11
339.7151266797266
 21
358.5627907996837
 31
0.0000000000000000
  0
LINE
  5
206
100
AcDbEntity
  8
MAIN0
  6
CENTER
 62
3
100
AcDbLine
 10
534.7151266797266
 20
553.5627907996836
 30
0.0000000000000000
 11
534.7151266797266
 21
163.5627907996836
 31
0.0000000000000000
  0
LINE
  5
207
100
AcDbEntity
  8
MAIN0
  6
CONTINUOUS
 62
3
100
AcDbLine
 10
552.2151266797270
 20
311.7253058116957
 30
0.0000000000000000
 11
552.2151266797270
 21
312.0690732204003
 31
0.0000000000000000
  0
LINE
  5
208
100
AcDbEntity
  8
MAIN0
  6
CONTINUOUS
 62
3
100
AcDbLine
 10
517.2151266797271
 20
311.7253058116954
 30
0.0000000000000000
 11
517.2151266797271
 21
312.0690732204009
 31
0.0000000000000000
  0
LINE
  5
209
100
AcDbEntity
  8
MAIN0
  6
CENTER
 62
3
100
AcDbLine
 10
525.2151266797266
 20
439.5627907996836
 30
0.0000000000000000
 11
544.2151266797266
 21
439.5627907996836
 31
0.0000000000000000
  0
ARC
  5
20A
100
AcDbEntity
  8
MAIN0
  6
HIDDEN
 62
3
100
AcDbCircle
 10
534.7151266797266
 20
358.5627907996837
 30
0.0000000000000000
 40
152.0000000000000
100
AcDbArc
 50
199.8474711242056
 51
220.5843890800860
  0
ARC
  5
20B
100
AcDbEntity
  8
MAIN0
  6
HIDDEN
 62
3
100
AcDbCircle
 10
534.7151266797265
 20
358.5627907996837
 30
0.0000000000000000
 40
152.0000000000000
100
AcDbArc
 50
79.50803428531698
 51
100.1525288757944
  0
ARC
  5
20C
100
AcDbEntity
  8
MAIN0
  6
HIDDEN
 62
3
100
AcDbCircle
 10
534.7151266797266
 20
358.5627907996836
 30
0.0000000000000000
 40
152.0000000000000
100
AcDbArc
 50
319.8474711242058
 51
340.9757434933978
  0
CIRCLE
  5
20D
100
AcDbEntity
  8
MAIN0
  6
HIDDEN
 62
3
100
AcDbCircle
 10
534.7151266797266
 20
358.5627907996836
 30
0.0000000000000000
 40
150.0000000000000
  0
LINE
  5
20E
100
AcDbEntity
  8
MAIN0
  6
CONTINUOUS
 62
3
100
AcDbLine
 10
517.2151266797279
 20
181.9275734731265
 30
0.0000000000000000
 11
517.2151266797278
 21
188.6627907996836
 31
0.0000000000000000
  0
LINE
  5
20F
100
AcDbEntity
  8
MAIN0
  6
CONTINUOUS
 62
3
100
AcDbLine
 10
524.7151266797266
 20
181.3447048152107
 30
0.0000000000000000
 11
524.7151266797265
 21
188.6627907996836
 31
0.0000000000000000
  0
LINE
  5
210
100
AcDbEntity
  8
MAIN0
  6
CONTINUOUS
 62
3
100
AcDbLine
 10
544.7151266797250
 20
181.3447048152108
 30
0.0000000000000000
 11
544.7151266797250
 21
188.6627907996837
 31
0.0000000000000000
  0
LINE
  5
211
100
AcDbEntity
  8
MAIN0
  6
CONTINUOUS
 62
3
100
AcDbLine
 10
552.2151266797271
 20
181.9275734731269
 30
0.0000000000000000
 11
552.2151266797271
 21
188.6627907996837
 31
0.0000000000000000
  0
MTEXT
  5
212
100
AcDbEntity
  8
MAIN0
  6
CONTINUOUS
 62
3
100
AcDbMText
 10
556.6001265509808
 20
191.3127906566327
 30
0.0000000000000000
 40
4.649999856948853
 41
0.0000000000000000
 71
     1
 72
     1
  1
{\H0.81x;{1}}
 11
1.000000000000000
 21
0.0000000000000000
 31
0.0000000000000000
  7
STANDARD
  0
ARC
  5
213
100
AcDbEntity
  8
MAIN0
  6
CONTINUOUS
 62
3
100
AcDbCircle
 10
534.7151266797266
 20
358.5627907996836
 30
0.0000000000000000
 40
50.00000000000000
100
AcDbArc
 50
290.4873151147224
 51
369.5126848852771
  0
ARC
  5
214
100
AcDbEntity
  8
MAIN0
  6
CONTINUOUS
 62
3
100
AcDbCircle
 10
534.7151266797266
 20
358.5627907996836
 30
0.0000000000000000
 40
50.00000000000000
100
AcDbArc
 50
50.48731511472232
 51
129.5126848852770
  0
ARC
  5
215
100
AcDbEntity
  8
MAIN0
  6
CONTINUOUS
 62
3
100
AcDbCircle
 10
534.7151266797266
 20
358.5627907996836
 30
0.0000000000000000
 40
50.00000000000000
100
AcDbArc
 50
170.4873151147221
 51
249.5126848852772
  0
DIMENSION
  5
21C
100
AcDbEntity
  8
MAIN0
  6
CONTINUOUS
 62
3
100
AcDbDimension
  2
*D24
 10
371.9504280721960
 20
338.4716761665992
 30
0.0000000000000000
 11
424.4563461633720
 21
345.7085182420752
 31
0.0000000000000000
 70
163
  3
MAIN001
100
AcDbDiametricDimension
 15
697.4798252872572
 25
378.6539054327681
 35
0.0000000000000000
1001
ACAD
1000
DSTYLE
1002
{
1070
   287
1070
     2
1070
   173
1070
     1
1070
     6
1000
_OPEN
1070
     7
1000
_OPEN
1070
    41
1040
3.000000
1002
}
  0
LINE
  5
21D
100
AcDbEntity
  8
MAIN0
  6
CENTER
 62
3
100
AcDbLine
 10
674.3561428309839
 20
277.9410125345650
 30
0.0000000000000000
 11
695.8513333593660
 21
265.5307584967176
 31
0.0000000000000000
  0
LINE
  5
21E
100
AcDbEntity
  8
MAIN0
  6
CENTER
 62
3
100
AcDbLine
 10
639.4458887931422
 20
298.0964571007971
 30
0.0000000000000000
 11
647.1636010789573
 21
293.6406338350523
 31
0.0000000000000000
  0
LINE
  5
21F
100
AcDbEntity
  8
MAIN0
  6
CONTINUOUS
 62
3
100
AcDbLine
 10
151.7151266797266
 20
208.5627907996836
 30
0.0000000000000000
 11
151.7151266797266
 21
508.5627907996836
 31
0.0000000000000000
  0
LINE
  5
220
100
AcDbEntity
  8
MAIN0
  6
CONTINUOUS
 62
3
100
AcDbLine
 10
254.7151266797266
 20
183.0627907996836
 30
0.0000000000000000
 11
254.7151266797266
 21
534.0627907996836
 31
0.0000000000000000
  0
LINE
  5
221
100
AcDbEntity
  8
MAIN0
  6
HIDDEN
 62
3
100
AcDbLine
 10
169.7151266797265
 20
288.1127907996836
 30
0.0000000000000000
 11
170.1651266797265
 21
288.5627907996836
 31
0.0000000000000000
  0
LINE
  5
222
100
AcDbEntity
  8
MAIN0
  6
HIDDEN
 62
3
100
AcDbLine
 10
170.1651266797256
 20
298.5627907996845
 30
0.0000000000000000
 11
169.7151266797265
 21
299.0127907996837
 31
0.0000000000000000
  0
LINE
  5
223
100
AcDbEntity
  8
MAIN0
  6
HIDDEN
 62
3
100
AcDbLine
 10
170.1651266797265
 20
288.5627907996836
 30
0.0000000000000000
 11
180.9401267429243
 21
288.5627907996836
 31
0.0000000000000000
  0
LINE
  5
224
100
AcDbEntity
  8
MAIN0
  6
HIDDEN
 62
3
100
AcDbLine
 10
180.9401321410563
 20
298.5627907996836
 30
0.0000000000000000
 11
170.1651266797265
 21
298.5627907996836
 31
0.0000000000000000
  0
LINE
  5
225
100
AcDbEntity
  8
MAIN0
  6
CONTINUOUS
 62
3
100
AcDbLine
 10
254.7151266797266
 20
188.6627907996838
 30
0.0000000000000000
 11
268.7151266797266
 21
188.6627907996838
 31
0.0000000000000000
  0
LINE
  5
226
100
AcDbEntity
  8
MAIN0
  6
CONTINUOUS
 62
3
100
AcDbLine
 10
254.7151266797266
 20
312.8685621654454
 30
0.0000000000000000
 11
306.7151266797266
 21
312.8685621654454
 31
0.0000000000000000
  0
LINE
  5
227
100
AcDbEntity
  8
MAIN0
  6
CONTINUOUS
 62
3
100
AcDbLine
 10
288.7151266797266
 20
252.6627907996951
 30
0.0000000000000000
 11
288.7151266797266
 21
276.6627907998662
 31
0.0000000000000000
  0
LINE
  5
228
100
AcDbEntity
  8
MAIN0
  6
CONTINUOUS
 62
3
100
AcDbLine
 10
270.7151266797266
 20
203.6627907994840
 30
0.0000000000000000
 11
270.7151266797266
 21
234.6627907998665
 31
0.0000000000000000
  0
LINE
  5
229
100
AcDbEntity
  8
MAIN0
  6
CENTER
 62
3
100
AcDbLine
 10
297.7151266797266
 20
317.8353517713304
 30
0.0000000000000000
 11
297.7151266797266
 21
321.2012354556874
 31
0.0000000000000000
  0
LINE
  5
22A
100
AcDbEntity
  8
MAIN0
  6
CONTINUOUS
 62
3
100
AcDbLine
 10
298.1481393815586
 20
318.8147145880945
 30
0.0000000000000000
 11
299.2151266798018
 21
320.6627907996837
 31
0.0000000000000000
  0
LINE
  5
22B
100
AcDbEntity
  8
MAIN0
  6
CONTINUOUS
 62
3
100
AcDbLine
 10
296.2151266797265
 20
320.6627907993447
 30
0.0000000000000000
 11
297.2821139777748
 21
318.8147145880938
 31
0.0000000000000000
  0
ARC
  5
22C
100
AcDbEntity
  8
MAIN0
  6
CONTINUOUS
 62
3
100
AcDbCircle
 10
297.7151266796670
 20
319.0647145880939
 30
0.0000000000000000
 40
0.5000000000000000
100
AcDbArc
 50
210.0000000000006
 51
330.0000000000266
  0
LINE
  5
22D
100
AcDbEntity
  8
MAIN0
  6
CENTER
 62
3
100
AcDbLine
 10
288.7151266797266
 20
317.8353517713304
 30
0.0000000000000000
 11
288.7151266797266
 21
321.2012354556874
 31
0.0000000000000000
  0
LINE
  5
22E
100
AcDbEntity
  8
MAIN0
  6
CONTINUOUS
 62
3
100
AcDbLine
 10
289.1481393815586
 20
318.8147145880945
 30
0.0000000000000000
 11
290.2151266798018
 21
320.6627907996837
 31
0.0000000000000000
  0
LINE
  5
22F
100
AcDbEntity
  8
MAIN0
  6
CONTINUOUS
 62
3
100
AcDbLine
 10
287.2151266797264
 20
320.6627907993447
 30
0.0000000000000000
 11
288.2821139777747
 21
318.8147145880938
 31
0.0000000000000000
  0
ARC
  5
230
100
AcDbEntity
  8
MAIN0
  6
CONTINUOUS
 62
3
100
AcDbCircle
 10
288.7151266796670
 20
319.0647145880939
 30
0.0000000000000000
 40
0.5000000000000000
100
AcDbArc
 50
210.0000000000006
 51
330.0000000000266
  0
LINE
  5
231
100
AcDbEntity
  8
MAIN0
  6
CENTER
 62
3
100
AcDbLine
 10
279.7151266797266
 20
317.8353517713304
 30
0.0000000000000000
 11
279.7151266797266
 21
321.2012354556874
 31
0.0000000000000000
  0
LINE
  5
232
100
AcDbEntity
  8
MAIN0
  6
CONTINUOUS
 62
3
100
AcDbLine
 10
280.1481393815587
 20
318.8147145880945
 30
0.0000000000000000
 11
281.2151266798018
 21
320.6627907996837
 31
0.0000000000000000
  0
LINE
  5
233
100
AcDbEntity
  8
MAIN0
  6
CONTINUOUS
 62
3
100
AcDbLine
 10
278.2151266797264
 20
320.6627907993446
 30
0.0000000000000000
 11
279.2821139777747
 21
318.8147145880938
 31
0.0000000000000000
  0
ARC
  5
234
100
AcDbEntity
  8
MAIN0
  6
CONTINUOUS
 62
3
100
AcDbCircle
 10
279.7151266796670
 20
319.0647145880939
 30
0.0000000000000000
 40
0.5000000000000000
100
AcDbArc
 50
210.0000000000006
 51
330.0000000000266
  0
LINE
  5
235
100
AcDbEntity
  8
MAIN0
  6
CENTER
 62
3
100
AcDbLine
 10
270.7151266797266
 20
317.8353517713304
 30
0.0000000000000000
 11
270.7151266797266
 21
321.2012354556874
 31
0.0000000000000000
  0
LINE
  5
236
100
AcDbEntity
  8
MAIN0
  6
CONTINUOUS
 62
3
100
AcDbLine
 10
271.1481393815586
 20
318.8147145880945
 30
0.0000000000000000
 11
272.2151266798018
 21
320.6627907996837
 31
0.0000000000000000
  0
LINE
  5
237
100
AcDbEntity
  8
MAIN0
  6
CONTINUOUS
 62
3
100
AcDbLine
 10
269.2151266797264
 20
320.6627907993447
 30
0.0000000000000000
 11
270.2821139777747
 21
318.8147145880938
 31
0.0000000000000000
  0
ARC
  5
238
100
AcDbEntity
  8
MAIN0
  6
CONTINUOUS
 62
3
100
AcDbCircle
 10
270.7151266796670
 20
319.0647145880939
 30
0.0000000000000000
 40
0.5000000000000000
100
AcDbArc
 50
210.0000000000006
 51
330.0000000000266
  0
LINE
  5
239
100
AcDbEntity
  8
MAIN0
  6
CENTER
 62
3
100
AcDbLine
 10
261.7151266797266
 20
317.8353517713304
 30
0.0000000000000000
 11
261.7151266797266
 21
321.2012354556874
 31
0.0000000000000000
  0
LINE
  5
23A
100
AcDbEntity
  8
MAIN0
  6
CONTINUOUS
 62
3
100
AcDbLine
 10
262.1481393815586
 20
318.8147145880945
 30
0.0000000000000000
 11
263.2151266798018
 21
320.6627907996837
 31
0.0000000000000000
  0
LINE
  5
23B
100
AcDbEntity
  8
MAIN0
  6
CONTINUOUS
 62
3
100
AcDbLine
 10
260.2151266797264
 20
320.6627907993447
 30
0.0000000000000000
 11
261.2821139777747
 21
318.8147145880937
 31
0.0000000000000000
  0
ARC
  5
23C
100
AcDbEntity
  8
MAIN0
  6
CONTINUOUS
 62
3
100
AcDbCircle
 10
261.7151266796670
 20
319.0647145880939
 30
0.0000000000000000
 40
0.5000000000000000
100
AcDbArc
 50
210.0000000000006
 51
330.0000000000266
  0
LINE
  5
23D
100
AcDbEntity
  8
MAIN0
  6
CONTINUOUS
 62
3
100
AcDbLine
 10
305.2151266797266
 20
320.6627907996837
 30
0.0000000000000000
 11
299.2151266798018
 21
320.6627907996837
 31
0.0000000000000000
  0
LINE
  5
23E
100
AcDbEntity
  8
MAIN0
  6
CONTINUOUS
 62
3
100
AcDbLine
 10
296.2151266797266
 20
320.6627907996837
 30
0.0000000000000000
 11
290.2151266798018
 21
320.6627907996837
 31
0.0000000000000000
  0
LINE
  5
23F
100
AcDbEntity
  8
MAIN0
  6
CONTINUOUS
 62
3
100
AcDbLine
 10
287.2151266797266
 20
320.6627907996837
 30
0.0000000000000000
 11
281.2151266798018
 21
320.6627907996837
 31
0.0000000000000000
  0
LINE
  5
240
100
AcDbEntity
  8
MAIN0
  6
CONTINUOUS
 62
3
100
AcDbLine
 10
278.2151266797266
 20
320.6627907996837
 30
0.0000000000000000
 11
272.2151266798018
 21
320.6627907996837
 31
0.0000000000000000
  0
LINE
  5
241
100
AcDbEntity
  8
MAIN0
  6
CONTINUOUS
 62
3
100
AcDbLine
 10
269.2151266797266
 20
320.6627907996837
 30
0.0000000000000000
 11
263.2151266798018
 21
320.6627907996837
 31
0.0000000000000000
  0
LINE
  5
242
100
AcDbEntity
  8
MAIN0
  6
CONTINUOUS
 62
3
100
AcDbLine
 10
260.2151266797266
 20
320.6627907996837
 30
0.0000000000000000
 11
254.7151266797266
 21
320.6627907996837
 31
0.0000000000000000
  0
LINE
  5
243
100
AcDbEntity
  8
MAIN0
  6
CONTINUOUS
 62
3
100
AcDbLine
 10
305.2151266797266
 20
320.6627907996837
 30
0.0000000000000000
 11
306.7151266797266
 21
319.1627907996837
 31
0.0000000000000000
  0
LINE
  5
244
100
AcDbEntity
  8
MAIN0
  6
CENTER
 62
3
100
AcDbLine
 10
301.2151266797266
 20
279.0170240870633
 30
0.0000000000000000
 11
301.2151266797266
 21
282.5829081939874
 31
0.0000000000000000
  0
LINE
  5
245
100
AcDbEntity
  8
MAIN0
  6
CONTINUOUS
 62
3
100
AcDbLine
 10
301.6481393815207
 20
281.5108670108775
 30
0.0000000000000000
 11
302.7151266795364
 21
279.6627907996837
 31
0.0000000000000000
  0
LINE
  5
246
100
AcDbEntity
  8
MAIN0
  6
CONTINUOUS
 62
3
100
AcDbLine
 10
299.7151266797194
 20
279.6627907996838
 30
0.0000000000000000
 11
300.7821139777364
 21
281.5108670108779
 31
0.0000000000000000
  0
ARC
  5
247
100
AcDbEntity
  8
MAIN0
  6
CONTINUOUS
 62
3
100
AcDbCircle
 10
301.2151266796286
 20
281.2608670108776
 30
0.0000000000000000
 40
0.5000000000000000
100
AcDbArc
 50
30.00000000000383
 51
149.9999999999704
  0
LINE
  5
248
100
AcDbEntity
  8
MAIN0
  6
CONTINUOUS
 62
3
100
AcDbLine
 10
291.7151266802320
 20
279.6627907996837
 30
0.0000000000000000
 11
286.2330758720606
 21
282.8278543094926
 31
0.0000000000000000
  0
LINE
  5
249
100
AcDbEntity
  8
MAIN0
  6
CONTINUOUS
 62
3
100
AcDbLine
 10
288.7151266797267
 20
276.6627907998662
 30
0.0000000000000000
 11
285.5500631701683
 21
282.1448416076009
 31
0.0000000000000000
  0
ARC
  5
24A
100
AcDbEntity
  8
MAIN0
  6
CONTINUOUS
 62
3
100
AcDbCircle
 10
285.9830758720605
 20
282.3948416076008
 30
0.0000000000000000
 40
0.5000000000000000
100
AcDbArc
 50
59.99999999998039
 51
209.9999999999886
  0
LINE
  5
24B
100
AcDbEntity
  8
MAIN0
  6
CENTER
 62
3
100
AcDbLine
 10
295.7151266797266
 20
279.0170240870633
 30
0.0000000000000000
 11
295.7151266797266
 21
282.5829081939874
 31
0.0000000000000000
  0
LINE
  5
24C
100
AcDbEntity
  8
MAIN0
  6
CONTINUOUS
 62
3
100
AcDbLine
 10
296.1481393815207
 20
281.5108670108776
 30
0.0000000000000000
 11
297.2151266795364
 21
279.6627907996837
 31
0.0000000000000000
  0
LINE
  5
24D
100
AcDbEntity
  8
MAIN0
  6
CONTINUOUS
 62
3
100
AcDbLine
 10
294.2151266797194
 20
279.6627907996838
 30
0.0000000000000000
 11
295.2821139777364
 21
281.5108670108779
 31
0.0000000000000000
  0
ARC
  5
24E
100
AcDbEntity
  8
MAIN0
  6
CONTINUOUS
 62
3
100
AcDbCircle
 10
295.7151266796286
 20
281.2608670108776
 30
0.0000000000000000
 40
0.5000000000000000
100
AcDbArc
 50
30.00000000000383
 51
149.9999999999704
  0
LINE
  5
24F
100
AcDbEntity
  8
MAIN0
  6
CONTINUOUS
 62
3
100
AcDbLine
 10
305.2151266797266
 20
279.6627907996837
 30
0.0000000000000000
 11
302.7151266795364
 21
279.6627907996837
 31
0.0000000000000000
  0
LINE
  5
250
100
AcDbEntity
  8
MAIN0
  6
CONTINUOUS
 62
3
100
AcDbLine
 10
294.2151266797194
 20
279.6627907996837
 30
0.0000000000000000
 11
291.7151266802319
 21
279.6627907996837
 31
0.0000000000000000
  0
LINE
  5
251
100
AcDbEntity
  8
MAIN0
  6
CONTINUOUS
 62
3
100
AcDbLine
 10
299.7151266797194
 20
279.6627907996837
 30
0.0000000000000000
 11
297.2151266795364
 21
279.6627907996837
 31
0.0000000000000000
  0
LINE
  5
252
100
AcDbEntity
  8
MAIN0
  6
CENTER
 62
3
100
AcDbLine
 10
283.2151266797266
 20
237.0170240870633
 30
0.0000000000000000
 11
283.2151266797266
 21
240.5829081939873
 31
0.0000000000000000
  0
LINE
  5
253
100
AcDbEntity
  8
MAIN0
  6
CONTINUOUS
 62
3
100
AcDbLine
 10
283.6481393815206
 20
239.5108670108776
 30
0.0000000000000000
 11
284.7151266795362
 21
237.6627907996838
 31
0.0000000000000000
  0
LINE
  5
254
100
AcDbEntity
  8
MAIN0
  6
CONTINUOUS
 62
3
100
AcDbLine
 10
281.7151266797195
 20
237.6627907996837
 30
0.0000000000000000
 11
282.7821139777365
 21
239.5108670108778
 31
0.0000000000000000
  0
ARC
  5
255
100
AcDbEntity
  8
MAIN0
  6
CONTINUOUS
 62
3
100
AcDbCircle
 10
283.2151266796286
 20
239.2608670108776
 30
0.0000000000000000
 40
0.5000000000000000
100
AcDbArc
 50
30.00000000000383
 51
149.9999999999704
  0
LINE
  5
256
100
AcDbEntity
  8
MAIN0
  6
CONTINUOUS
 62
3
100
AcDbLine
 10
273.7151266802319
 20
237.6627907996837
 30
0.0000000000000000
 11
268.2330758720607
 21
240.8278543094926
 31
0.0000000000000000
  0
LINE
  5
257
100
AcDbEntity
  8
MAIN0
  6
CONTINUOUS
 62
3
100
AcDbLine
 10
270.7151266797267
 20
234.6627907998662
 30
0.0000000000000000
 11
267.5500631701683
 21
240.1448416076010
 31
0.0000000000000000
  0
ARC
  5
258
100
AcDbEntity
  8
MAIN0
  6
CONTINUOUS
 62
3
100
AcDbCircle
 10
267.9830758720605
 20
240.3948416076008
 30
0.0000000000000000
 40
0.5000000000000000
100
AcDbArc
 50
59.99999999998039
 51
209.9999999999886
  0
LINE
  5
259
100
AcDbEntity
  8
MAIN0
  6
CENTER
 62
3
100
AcDbLine
 10
277.7151266797266
 20
237.0170240870633
 30
0.0000000000000000
 11
277.7151266797266
 21
240.5829081939873
 31
0.0000000000000000
  0
LINE
  5
25A
100
AcDbEntity
  8
MAIN0
  6
CONTINUOUS
 62
3
100
AcDbLine
 10
278.1481393815208
 20
239.5108670108776
 30
0.0000000000000000
 11
279.2151266795364
 21
237.6627907996838
 31
0.0000000000000000
  0
LINE
  5
25B
100
AcDbEntity
  8
MAIN0
  6
CONTINUOUS
 62
3
100
AcDbLine
 10
276.2151266797195
 20
237.6627907996838
 30
0.0000000000000000
 11
277.2821139777365
 21
239.5108670108778
 31
0.0000000000000000
  0
ARC
  5
25C
100
AcDbEntity
  8
MAIN0
  6
CONTINUOUS
 62
3
100
AcDbCircle
 10
277.7151266796286
 20
239.2608670108776
 30
0.0000000000000000
 40
0.5000000000000000
100
AcDbArc
 50
30.00000000000383
 51
149.9999999999704
  0
LINE
  5
25D
100
AcDbEntity
  8
MAIN0
  6
CONTINUOUS
 62
3
100
AcDbLine
 10
286.7151266797266
 20
237.6627907996837
 30
0.0000000000000000
 11
284.7151266795364
 21
237.6627907996837
 31
0.0000000000000000
  0
LINE
  5
25E
100
AcDbEntity
  8
MAIN0
  6
CONTINUOUS
 62
3
100
AcDbLine
 10
276.2151266797194
 20
237.6627907996837
 30
0.0000000000000000
 11
273.7151266802319
 21
237.6627907996837
 31
0.0000000000000000
  0
LINE
  5
25F
100
AcDbEntity
  8
MAIN0
  6
CONTINUOUS
 62
3
100
AcDbLine
 10
281.7151266797194
 20
237.6627907996837
 30
0.0000000000000000
 11
279.2151266795364
 21
237.6627907996837
 31
0.0000000000000000
  0
LINE
  5
260
100
AcDbEntity
  8
MAIN0
  6
CONTINUOUS
 62
3
100
AcDbLine
 10
288.2151266797266
 20
239.1627907996837
 30
0.0000000000000000
 11
288.2151266797266
 21
252.1627907996949
 31
0.0000000000000000
  0
LINE
  5
261
100
AcDbEntity
  8
MAIN0
  6
CONTINUOUS
 62
3
100
AcDbLine
 10
288.2151266797267
 20
252.1627907996950
 30
0.0000000000000000
 11
288.7151266797267
 21
252.6627907996951
 31
0.0000000000000000
  0
LINE
  5
262
100
AcDbEntity
  8
MAIN0
  6
CONTINUOUS
 62
3
100
AcDbLine
 10
270.2151266797266
 20
190.1627907996837
 30
0.0000000000000000
 11
270.2151266797266
 21
203.1627907994829
 31
0.0000000000000000
  0
LINE
  5
263
100
AcDbEntity
  8
MAIN0
  6
CONTINUOUS
 62
3
100
AcDbLine
 10
270.2151266797265
 20
203.1627907994829
 30
0.0000000000000000
 11
270.7151266797267
 21
203.6627907994838
 31
0.0000000000000000
  0
LINE
  5
264
100
AcDbEntity
  8
MAIN0
  6
CONTINUOUS
 62
3
100
AcDbLine
 10
268.7151266797266
 20
188.6627907996837
 30
0.0000000000000000
 11
270.2151266797266
 21
190.1627907996836
 31
0.0000000000000000
  0
LINE
  5
265
100
AcDbEntity
  8
MAIN0
  6
CONTINUOUS
 62
3
100
AcDbLine
 10
286.7151266797266
 20
237.6627907996836
 30
0.0000000000000000
 11
288.2151266797266
 21
239.1627907996836
 31
0.0000000000000000
  0
LINE
  5
266
100
AcDbEntity
  8
MAIN0
  6
CONTINUOUS
 62
3
100
AcDbLine
 10
305.2151266797266
 20
279.6627907996837
 30
0.0000000000000000
 11
306.7151266797266
 21
281.1627907996837
 31
0.0000000000000000
  0
LINE
  5
267
100
AcDbEntity
  8
MAIN0
  6
CONTINUOUS
 62
3
100
AcDbLine
 10
306.7151266797266
 20
281.1627907996837
 30
0.0000000000000000
 11
306.7151266797266
 21
319.1627907996837
 31
0.0000000000000000
  0
LINE
  5
268
100
AcDbEntity
  8
MAIN0
  6
CONTINUOUS
 62
3
100
AcDbLine
 10
179.4988843257178
 20
277.5627907996836
 30
0.0000000000000000
 11
169.7151266797266
 21
277.5627907996836
 31
0.0000000000000000
  0
LINE
  5
269
100
AcDbEntity
  8
MAIN0
  6
PHANTOM
 62
3
100
AcDbLine
 10
268.7151266797269
 20
188.6627907996839
 30
0.0000000000000000
 11
305.2151266797269
 21
188.6627907996839
 31
0.0000000000000000
  0
LINE
  5
26A
100
AcDbEntity
  8
MAIN0
  6
PHANTOM
 62
3
100
AcDbLine
 10
306.7151266797267
 20
190.1627907996839
 30
0.0000000000000000
 11
306.7151266797267
 21
227.1627907996839
 31
0.0000000000000000
  0
LINE
  5
26B
100
AcDbEntity
  8
MAIN0
  6
PHANTOM
 62
3
100
AcDbLine
 10
288.7151266797268
 20
231.6627907994119
 30
0.0000000000000000
 11
288.7151266797268
 21
254.6627907993708
 31
0.0000000000000000
  0
LINE
  5
26C
100
AcDbEntity
  8
MAIN0
  6
PHANTOM
 62
3
100
AcDbLine
 10
270.7151266797268
 20
272.6627907994109
 30
0.0000000000000000
 11
270.7151266797268
 21
300.6627907996971
 31
0.0000000000000000
  0
LINE
  5
26D
100
AcDbEntity
  8
MAIN0
  6
PHANTOM
 62
3
100
AcDbLine
 10
288.2151266797268
 20
255.1627907993716
 30
0.0000000000000000
 11
288.2151266797268
 21
268.1627907996838
 31
0.0000000000000000
  0
LINE
  5
26E
100
AcDbEntity
  8
MAIN0
  6
PHANTOM
 62
3
100
AcDbLine
 10
270.2151266797268
 20
301.1627907996967
 30
0.0000000000000000
 11
270.2151266797268
 21
319.1627907996839
 31
0.0000000000000000
  0
LINE
  5
26F
100
AcDbEntity
  8
MAIN0
  6
PHANTOM
 62
3
100
AcDbLine
 10
288.2151266797267
 20
255.1627907993716
 30
0.0000000000000000
 11
288.7151266797270
 21
254.6627907993708
 31
0.0000000000000000
  0
LINE
  5
270
100
AcDbEntity
  8
MAIN0
  6
PHANTOM
 62
3
100
AcDbLine
 10
270.2151266797268
 20
301.1627907996968
 30
0.0000000000000000
 11
270.7151266797267
 21
300.6627907996970
 31
0.0000000000000000
  0
LINE
  5
271
100
AcDbEntity
  8
MAIN0
  6
CENTER
 62
3
100
AcDbLine
 10
301.2151266797268
 20
225.7507954627372
 30
0.0000000000000000
 11
301.2151266797268
 21
229.4633299835330
 31
0.0000000000000000
  0
LINE
  5
272
100
AcDbEntity
  8
MAIN0
  6
PHANTOM
 62
3
100
AcDbLine
 10
299.7151266796367
 20
228.6627907996839
 30
0.0000000000000000
 11
300.7821139777477
 21
226.8147145883261
 31
0.0000000000000000
  0
LINE
  5
273
100
AcDbEntity
  8
MAIN0
  6
PHANTOM
 62
3
100
AcDbLine
 10
301.6481393815314
 20
226.8147145883272
 30
0.0000000000000000
 11
302.7151266796415
 21
228.6627907996839
 31
0.0000000000000000
  0
ARC
  5
274
100
AcDbEntity
  8
MAIN0
  6
PHANTOM
 62
3
100
AcDbCircle
 10
301.2151266796397
 20
227.0647145883266
 30
0.0000000000000000
 40
0.5000000000000000
100
AcDbArc
 50
210.0000000000385
 51
330.0000000000096
  0
LINE
  5
275
100
AcDbEntity
  8
MAIN0
  6
CENTER
 62
3
100
AcDbLine
 10
295.7151266797268
 20
225.7507954627372
 30
0.0000000000000000
 11
295.7151266797268
 21
229.4633299835330
 31
0.0000000000000000
  0
LINE
  5
276
100
AcDbEntity
  8
MAIN0
  6
PHANTOM
 62
3
100
AcDbLine
 10
294.2151266796366
 20
228.6627907996839
 30
0.0000000000000000
 11
295.2821139777477
 21
226.8147145883260
 31
0.0000000000000000
  0
LINE
  5
277
100
AcDbEntity
  8
MAIN0
  6
PHANTOM
 62
3
100
AcDbLine
 10
296.1481393815314
 20
226.8147145883273
 30
0.0000000000000000
 11
297.2151266796415
 21
228.6627907996839
 31
0.0000000000000000
  0
ARC
  5
278
100
AcDbEntity
  8
MAIN0
  6
PHANTOM
 62
3
100
AcDbCircle
 10
295.7151266796397
 20
227.0647145883266
 30
0.0000000000000000
 40
0.5000000000000000
100
AcDbArc
 50
210.0000000000385
 51
330.0000000000096
  0
LINE
  5
279
100
AcDbEntity
  8
MAIN0
  6
PHANTOM
 62
3
100
AcDbLine
 10
285.5500631705859
 20
226.1807399924018
 30
0.0000000000000000
 11
288.7151266797274
 21
231.6627907994118
 31
0.0000000000000000
  0
LINE
  5
27A
100
AcDbEntity
  8
MAIN0
  6
PHANTOM
 62
3
100
AcDbLine
 10
286.2330758724776
 20
225.4977272905098
 30
0.0000000000000000
 11
291.7151266795546
 21
228.6627907996833
 31
0.0000000000000000
  0
ARC
  5
27B
100
AcDbEntity
  8
MAIN0
  6
PHANTOM
 62
3
100
AcDbCircle
 10
285.9830758724781
 20
225.9307399924018
 30
0.0000000000000000
 40
0.5000000000000000
100
AcDbArc
 50
149.9999999999898
 51
299.9999999999778
  0
LINE
  5
27C
100
AcDbEntity
  8
MAIN0
  6
CENTER
 62
3
100
AcDbLine
 10
283.2151266797268
 20
266.7507954627371
 30
0.0000000000000000
 11
283.2151266797268
 21
270.4633299835329
 31
0.0000000000000000
  0
LINE
  5
27D
100
AcDbEntity
  8
MAIN0
  6
PHANTOM
 62
3
100
AcDbLine
 10
281.7151266796367
 20
269.6627907996839
 30
0.0000000000000000
 11
282.7821139777477
 21
267.8147145883261
 31
0.0000000000000000
  0
LINE
  5
27E
100
AcDbEntity
  8
MAIN0
  6
PHANTOM
 62
3
100
AcDbLine
 10
283.6481393815314
 20
267.8147145883273
 30
0.0000000000000000
 11
284.7151266796415
 21
269.6627907996838
 31
0.0000000000000000
  0
ARC
  5
27F
100
AcDbEntity
  8
MAIN0
  6
PHANTOM
 62
3
100
AcDbCircle
 10
283.2151266796397
 20
268.0647145883266
 30
0.0000000000000000
 40
0.5000000000000000
100
AcDbArc
 50
210.0000000000385
 51
330.0000000000096
  0
LINE
  5
280
100
AcDbEntity
  8
MAIN0
  6
CENTER
 62
3
100
AcDbLine
 10
277.7151266797268
 20
266.7507954627371
 30
0.0000000000000000
 11
277.7151266797268
 21
270.4633299835329
 31
0.0000000000000000
  0
LINE
  5
281
100
AcDbEntity
  8
MAIN0
  6
PHANTOM
 62
3
100
AcDbLine
 10
276.2151266796366
 20
269.6627907996839
 30
0.0000000000000000
 11
277.2821139777477
 21
267.8147145883260
 31
0.0000000000000000
  0
LINE
  5
282
100
AcDbEntity
  8
MAIN0
  6
PHANTOM
 62
3
100
AcDbLine
 10
278.1481393815314
 20
267.8147145883272
 30
0.0000000000000000
 11
279.2151266796415
 21
269.6627907996839
 31
0.0000000000000000
  0
ARC
  5
283
100
AcDbEntity
  8
MAIN0
  6
PHANTOM
 62
3
100
AcDbCircle
 10
277.7151266796397
 20
268.0647145883266
 30
0.0000000000000000
 40
0.5000000000000000
100
AcDbArc
 50
210.0000000000385
 51
330.0000000000096
  0
LINE
  5
284
100
AcDbEntity
  8
MAIN0
  6
PHANTOM
 62
3
100
AcDbLine
 10
267.5500631705859
 20
267.1807399924018
 30
0.0000000000000000
 11
270.7151266797275
 21
272.6627907994118
 31
0.0000000000000000
  0
LINE
  5
285
100
AcDbEntity
  8
MAIN0
  6
PHANTOM
 62
3
100
AcDbLine
 10
268.2330758724776
 20
266.4977272905098
 30
0.0000000000000000
 11
273.7151266795546
 21
269.6627907996833
 31
0.0000000000000000
  0
ARC
  5
286
100
AcDbEntity
  8
MAIN0
  6
PHANTOM
 62
3
100
AcDbCircle
 10
267.9830758724782
 20
266.9307399924018
 30
0.0000000000000000
 40
0.5000000000000000
100
AcDbArc
 50
149.9999999999898
 51
299.9999999999778
  0
LINE
  5
287
100
AcDbEntity
  8
MAIN0
  6
PHANTOM
 62
3
100
AcDbLine
 10
268.7151266797269
 20
320.6627907996838
 30
0.0000000000000000
 11
270.2151266797268
 21
319.1627907996839
 31
0.0000000000000000
  0
LINE
  5
288
100
AcDbEntity
  8
MAIN0
  6
PHANTOM
 62
3
100
AcDbLine
 10
286.7151266797268
 20
269.6627907996839
 30
0.0000000000000000
 11
288.2151266797268
 21
268.1627907996839
 31
0.0000000000000000
  0
LINE
  5
289
100
AcDbEntity
  8
MAIN0
  6
PHANTOM
 62
3
100
AcDbLine
 10
305.2151266797268
 20
228.6627907996839
 30
0.0000000000000000
 11
306.7151266797268
 21
227.1627907996839
 31
0.0000000000000000
  0
LINE
  5
28A
100
AcDbEntity
  8
MAIN0
  6
PHANTOM
 62
3
100
AcDbLine
 10
305.2151266797267
 20
188.6627907996839
 30
0.0000000000000000
 11
306.7151266797267
 21
190.1627907996839
 31
0.0000000000000000
  0
LINE
  5
28B
100
AcDbEntity
  8
MAIN0
  6
PHANTOM
 62
3
100
AcDbLine
 10
305.2151266797268
 20
228.6627907996840
 30
0.0000000000000000
 11
302.7151266796416
 21
228.6627907996840
 31
0.0000000000000000
  0
LINE
  5
28C
100
AcDbEntity
  8
MAIN0
  6
PHANTOM
 62
3
100
AcDbLine
 10
299.7151266796366
 20
228.6627907996839
 30
0.0000000000000000
 11
297.2151266796416
 21
228.6627907996839
 31
0.0000000000000000
  0
LINE
  5
28D
100
AcDbEntity
  8
MAIN0
  6
PHANTOM
 62
3
100
AcDbLine
 10
294.2151266796366
 20
228.6627907996839
 30
0.0000000000000000
 11
291.7151266795547
 21
228.6627907996839
 31
0.0000000000000000
  0
LINE
  5
28E
100
AcDbEntity
  8
MAIN0
  6
PHANTOM
 62
3
100
AcDbLine
 10
286.7151266797268
 20
269.6627907996839
 30
0.0000000000000000
 11
284.7151266796416
 21
269.6627907996839
 31
0.0000000000000000
  0
LINE
  5
28F
100
AcDbEntity
  8
MAIN0
  6
PHANTOM
 62
3
100
AcDbLine
 10
281.7151266796366
 20
269.6627907996839
 30
0.0000000000000000
 11
279.2151266796416
 21
269.6627907996839
 31
0.0000000000000000
  0
LINE
  5
290
100
AcDbEntity
  8
MAIN0
  6
PHANTOM
 62
3
100
AcDbLine
 10
276.2151266796366
 20
269.6627907996839
 30
0.0000000000000000
 11
273.7151266795547
 21
269.6627907996839
 31
0.0000000000000000
  0
LINE
  5
291
100
AcDbEntity
  8
MAIN0
  6
CENTER
 62
3
100
AcDbLine
 10
182.7151266797064
 20
576.0627907996804
 30
0.0000000000000000
 11
182.7151266797326
 21
601.0627907996804
 31
0.0000000000000000
  0
LINE
  5
292
100
AcDbEntity
  8
MAIN0
  6
CONTINUOUS
 62
3
100
AcDbLine
 10
173.0065732741649
 20
589.4608391119079
 30
0.0000000000000000
 11
181.8170783675180
 21
598.2713442052610
 31
0.0000000000000000
  0
LINE
  5
293
100
AcDbEntity
  8
MAIN0
  6
CONTINUOUS
 62
3
100
AcDbLine
 10
183.6131749919630
 20
578.8542373941100
 30
0.0000000000000000
 11
192.4236800853160
 21
587.6647424874628
 31
0.0000000000000000
  0
LINE
  5
294
100
AcDbEntity
  8
MAIN0
  6
CONTINUOUS
 62
3
100
AcDbLine
 10
181.8170783675083
 20
578.8542373941114
 30
0.0000000000000000
 11
173.0065732741642
 21
587.6647424874740
 31
0.0000000000000000
  0
LINE
  5
295
100
AcDbEntity
  8
MAIN0
  6
CONTINUOUS
 62
3
100
AcDbLine
 10
192.4236800853167
 20
589.4608391118978
 30
0.0000000000000000
 11
183.6131749919725
 21
598.2713442052605
 31
0.0000000000000000
  0
ARC
  5
296
100
AcDbEntity
  8
MAIN0
  6
CONTINUOUS
 62
3
100
AcDbCircle
 10
182.7151266797405
 20
588.5627907996857
 30
0.0000000000000000
 40
9.750000000000000
100
AcDbArc
 50
174.7151372318268
 51
185.2848627681109
  0
ARC
  5
297
100
AcDbEntity
  8
MAIN0
  6
CONTINUOUS
 62
3
100
AcDbCircle
 10
182.7151266797405
 20
588.5627907996857
 30
0.0000000000000000
 40
9.750000000000000
100
AcDbArc
 50
354.7151372318253
 51
365.2848627681119
  0
ARC
  5
298
100
AcDbEntity
  8
MAIN0
  6
CONTINUOUS
 62
3
100
AcDbCircle
 10
182.7151266797405
 20
588.5627907996857
 30
0.0000000000000000
 40
9.750000000000000
100
AcDbArc
 50
84.71513723177098
 51
95.28486276817328
  0
ARC
  5
299
100
AcDbEntity
  8
MAIN0
  6
CONTINUOUS
 62
3
100
AcDbCircle
 10
182.7151266797405
 20
588.5627907996857
 30
0.0000000000000000
 40
9.750000000000000
100
AcDbArc
 50
264.7151372317697
 51
275.2848627681740
  0
LINE
  5
29A
100
AcDbEntity
  8
MAIN0
  6
CENTER
 62
3
100
AcDbLine
 10
169.7151266797266
 20
588.5627907996857
 30
0.0000000000000000
 11
197.2151266797266
 21
588.5627907996857
 31
0.0000000000000000
  0
DIMENSION
  5
2A5
100
AcDbEntity
  8
MAIN0
  6
CONTINUOUS
 62
3
100
AcDbDimension
  2
*D25
 10
189.6618258208311
 20
571.0094899407884
 30
0.0000000000000000
 11
205.9119258627560
 21
588.3202501544927
 31
0.0000000000000000
 70
161
  1
\A1;□15\H0.903226x;\S＋0.15^ ＋0.05;
  3
MAIN001
100
AcDbAlignedDimension
 13
192.4236800853167
 23
589.4608391118979
 33
0.0000000000000000
 14
181.8170783675083
 24
578.8542373941114
 34
0.0000000000000000
 50
44.99999999999923
1001
ACAD
1000
DSTYLE
1002
{
1070
   173
1070
     1
1070
     6
1000
_OPEN
1070
     7
1000
_OPEN
1070
    41
1040
3.000000
1070
   287
1070
     0
1070
   272
1070
     2
1070
    47
1040
0.150000
1070
    48
1040
-0.050000
1070
    71
1070
     1
1070
   340
1005
116
1002
}
  0
LINE
  5
2A6
100
AcDbEntity
  8
MAIN0
  6
HIDDEN
 62
3
100
AcDbLine
 10
163.2151266797266
 20
301.5627907996836
 30
0.0000000000000000
 11
154.2151266797266
 21
301.5627907996836
 31
0.0000000000000000
  0
LINE
  5
2A7
100
AcDbEntity
  8
MAIN0
  6
HIDDEN
 62
3
100
AcDbLine
 10
154.2151266797266
 20
301.5627907996836
 30
0.0000000000000000
 11
153.2151266797266
 21
299.8307399921147
 31
0.0000000000000000
  0
LINE
  5
2A8
100
AcDbEntity
  8
MAIN0
  6
HIDDEN
 62
3
100
AcDbLine
 10
153.2151266797266
 20
299.8307399921147
 30
0.0000000000000000
 11
153.2151266797266
 21
287.2948416072525
 31
0.0000000000000000
  0
LINE
  5
2A9
100
AcDbEntity
  8
MAIN0
  6
HIDDEN
 62
3
100
AcDbLine
 10
153.2151266797266
 20
287.2948416072525
 30
0.0000000000000000
 11
154.2151266797266
 21
285.5627907996836
 31
0.0000000000000000
  0
LINE
  5
2AA
100
AcDbEntity
  8
MAIN0
  6
HIDDEN
 62
3
100
AcDbLine
 10
154.2151266797266
 20
285.5627907996836
 30
0.0000000000000000
 11
163.2151266797266
 21
285.5627907996836
 31
0.0000000000000000
  0
LINE
  5
2AB
100
AcDbEntity
  8
MAIN0
  6
HIDDEN
 62
3
100
AcDbLine
 10
154.2151266797266
 20
301.5627907996836
 30
0.0000000000000000
 11
154.2151266797266
 21
285.5627907996836
 31
0.0000000000000000
  0
LINE
  5
2AC
100
AcDbEntity
  8
MAIN0
  6
HIDDEN
 62
3
100
AcDbLine
 10
163.2151266797266
 20
298.5627907996836
 30
0.0000000000000000
 11
180.9401321410563
 21
298.5627907996836
 31
0.0000000000000000
  0
LINE
  5
2AD
100
AcDbEntity
  8
MAIN0
  6
HIDDEN
 62
3
100
AcDbLine
 10
180.9401267429243
 20
288.5627907996836
 30
0.0000000000000000
 11
163.2151266797266
 21
288.5627907996836
 31
0.0000000000000000
  0
LINE
  5
2AE
100
AcDbEntity
  8
MAIN0
  6
HIDDEN
 62
3
100
AcDbLine
 10
163.2151266797266
 20
297.7508917996836
 30
0.0000000000000000
 11
181.0744751090954
 21
297.7508917996836
 31
0.0000000000000000
  0
LINE
  5
2AF
100
AcDbEntity
  8
MAIN0
  6
HIDDEN
 62
3
100
AcDbLine
 10
163.2151266797266
 20
289.3746897996836
 30
0.0000000000000000
 11
181.0224673799432
 21
289.3746897996836
 31
0.0000000000000000
  0
LINE
  5
2B0
100
AcDbEntity
  8
MAIN0
  6
HIDDEN
 62
3
100
AcDbLine
 10
574.1838041470041
 20
531.7487125687941
 30
0.0000000000000000
 11
575.3151749969027
 21
529.7891207745676
 31
0.0000000000000000
  0
LINE
  5
2B1
100
AcDbEntity
  8
MAIN0
  6
HIDDEN
 62
3
100
AcDbLine
 10
575.3151749969027
 20
529.7891207745676
 30
0.0000000000000000
 11
585.1676184250512
 21
527.1491665145222
 31
0.0000000000000000
  0
LINE
  5
2B2
100
AcDbEntity
  8
MAIN0
  6
HIDDEN
 62
3
100
AcDbLine
 10
585.1676184250512
 20
527.1491665145222
 30
0.0000000000000000
 11
587.1272102192777
 21
528.2805373644208
 31
0.0000000000000000
  0
LINE
  5
2B3
100
AcDbEntity
  8
MAIN0
  6
HIDDEN
 62
3
100
AcDbLine
 10
574.6787788938348
 20
530.8913911588201
 30
0.0000000000000000
 11
569.1659332331518
 21
510.3171710588626
 31
0.0000000000000000
  0
LINE
  5
2B4
100
AcDbEntity
  8
MAIN0
  6
HIDDEN
 62
3
100
AcDbLine
 10
569.1659332331519
 20
510.3171710588627
 30
0.0000000000000000
 11
580.7570431486206
 21
507.2113425176328
 31
0.0000000000000000
  0
LINE
  5
2B5
100
AcDbEntity
  8
MAIN0
  6
HIDDEN
 62
3
100
AcDbLine
 10
580.7570431486207
 20
507.2113425176328
 30
0.0000000000000000
 11
586.2698888093037
 21
527.7855626175901
 31
0.0000000000000000
  0
LINE
  5
2B6
100
AcDbEntity
  8
MAIN0
  6
HIDDEN
 62
3
100
AcDbLine
 10
575.3151749969027
 20
529.7891207745677
 30
0.0000000000000000
 11
567.9647141159919
 21
502.3568273079578
 31
0.0000000000000000
  0
LINE
  5
2B7
100
AcDbEntity
  8
MAIN0
  6
HIDDEN
 62
3
100
AcDbLine
 10
567.9647141159919
 20
502.3568273079578
 30
0.0000000000000000
 11
577.8171575441406
 21
499.7168730479124
 31
0.0000000000000000
  0
LINE
  5
2B8
100
AcDbEntity
  8
MAIN0
  6
HIDDEN
 62
3
100
AcDbLine
 10
577.8171575441406
 20
499.7168730479124
 30
0.0000000000000000
 11
585.1676184250512
 21
527.1491665145222
 31
0.0000000000000000
  0
LINE
  5
2B9
100
AcDbEntity
  8
MAIN0
  6
HIDDEN
 62
3
100
AcDbLine
 10
567.9647141159920
 20
502.3568273079577
 30
0.0000000000000000
 11
572.1288466787235
 21
498.1926947452265
 31
0.0000000000000000
  0
LINE
  5
2BA
100
AcDbEntity
  8
MAIN0
  6
HIDDEN
 62
3
100
AcDbLine
 10
572.1288466787237
 20
498.1926947452266
 30
0.0000000000000000
 11
577.8171575441406
 21
499.7168730479125
 31
0.0000000000000000
  0
ARC
  5
2BB
100
AcDbEntity
  8
MAIN0
  6
CENTER
 62
3
100
AcDbCircle
 10
534.7151266797266
 20
358.5627907996836
 30
0.0000000000000000
 40
164.0000000000000
100
AcDbArc
 50
80.30149591616566
 51
86.53104719214780
  0
CIRCLE
  5
2BC
100
AcDbEntity
  8
MAIN0
  6
HIDDEN
 62
3
100
AcDbCircle
 10
553.7151266797266
 20
521.4584629337217
 30
0.0000000000000000
 40
4.999999999999997
  0
LINE
  5
2BD
100
AcDbEntity
  8
MAIN0
  6
CENTER
 62
3
100
AcDbLine
 10
553.7151266797265
 20
510.6598039714140
 30
0.0000000000000000
 11
553.7151266797265
 21
531.4688643466837
 31
0.0000000000000000
  0
ARC
  5
2BE
100
AcDbEntity
  8
MAIN0
  6
CENTER
 62
3
100
AcDbCircle
 10
534.7151266799458
 20
358.5627908000635
 30
0.0000000000000000
 40
164.0000000000000
100
AcDbArc
 50
320.3014959161801
 51
326.5310471921622
  0
CIRCLE
  5
2BF
100
AcDbEntity
  8
MAIN0
  6
HIDDEN
 62
3
100
AcDbCircle
 10
666.2869169145884
 20
260.6604720611732
 30
0.0000000000000000
 40
4.999999999999997
  0
LINE
  5
2C0
100
AcDbEntity
  8
MAIN0
  6
CENTER
 62
3
100
AcDbLine
 10
656.9350039264199
 20
266.0598015423271
 30
0.0000000000000000
 11
674.9561788402903
 21
255.6552713546968
 31
0.0000000000000000
  0
ARC
  5
2C1
100
AcDbEntity
  8
MAIN0
  6
CENTER
 62
3
100
AcDbCircle
 10
534.7151266799460
 20
358.5627907993034
 30
0.0000000000000000
 40
164.0000000000000
100
AcDbArc
 50
200.3014959161801
 51
206.5310471921623
  0
CIRCLE
  5
2C2
100
AcDbEntity
  8
MAIN0
  6
HIDDEN
 62
3
100
AcDbCircle
 10
384.1433364453447
 20
293.5694374041509
 30
0.0000000000000000
 40
4.999999999999997
  0
LINE
  5
2C3
100
AcDbEntity
  8
MAIN0
  6
CENTER
 62
3
100
AcDbLine
 10
393.4952494335102
 20
298.9687668853092
 30
0.0000000000000000
 11
375.4740745196450
 21
288.5642366976698
 31
0.0000000000000000
  0
CIRCLE
  5
2C4
100
AcDbEntity
  8
MAIN0
  6
HIDDEN
 62
3
100
AcDbCircle
 10
553.7151266797266
 20
521.4584629337217
 30
0.0000000000000000
 40
3.500000000000000
  0
CIRCLE
  5
2C5
100
AcDbEntity
  8
MAIN0
  6
HIDDEN
 62
3
100
AcDbCircle
 10
384.1433364453447
 20
293.5694374041509
 30
0.0000000000000000
 40
3.500000000000000
  0
CIRCLE
  5
2C6
100
AcDbEntity
  8
MAIN0
  6
HIDDEN
 62
3
100
AcDbCircle
 10
666.2869169145884
 20
260.6604720611732
 30
0.0000000000000000
 40
3.500000000000000
  0
ARC
  5
2C7
100
AcDbEntity
  8
MAIN0
  6
CENTER
 62
3
100
AcDbCircle
 10
534.7151266797266
 20
358.5627907996836
 30
0.0000000000000000
 40
164.0000000000000
100
AcDbArc
 50
354.4079486074160
 51
368.6401127902523
  0
LINE
  5
2C8
100
AcDbEntity
  8
MAIN0
  6
CENTER
 62
3
100
AcDbLine
 10
444.7151266797264
 20
202.6782181184848
 30
0.0000000000000000
 11
460.7151266797264
 21
230.3910310395868
 31
0.0000000000000000
  0
ARC
  5
2C9
100
AcDbEntity
  8
MAIN0
  6
CENTER
 62
3
100
AcDbCircle
 10
534.7151266797266
 20
358.5627907996836
 30
0.0000000000000000
 40
164.0000000000000
100
AcDbArc
 50
234.4079486074158
 51
245.5920513925837
  0
LINE
  5
2CA
100
AcDbEntity
  8
MAIN0
  6
CENTER
 62
3
100
AcDbLine
 10
624.7151266797266
 20
202.6782181184846
 30
0.0000000000000000
 11
608.7151266797266
 21
230.3910310395866
 31
0.0000000000000000
  0
ARC
  5
2CB
100
AcDbEntity
  8
MAIN0
  6
CENTER
 62
3
100
AcDbCircle
 10
534.7151266797266
 20
358.5627907996836
 30
0.0000000000000000
 40
164.0000000000000
100
AcDbArc
 50
294.4079486074157
 51
305.5920513925837
  0
ARC
  5
2CC
100
AcDbEntity
  8
MAIN0
  6
CENTER
 62
3
100
AcDbCircle
 10
534.7151266797266
 20
358.5627907996836
 30
0.0000000000000000
 40
164.0000000000000
100
AcDbArc
 50
174.4079486074158
 51
188.4950274511649
  0
LINE
  5
2CD
100
AcDbEntity
  8
MAIN0
  6
CENTER
 62
3
100
AcDbLine
 10
624.7151266797266
 20
514.4473634808825
 30
0.0000000000000000
 11
608.7151266797266
 21
486.7345505597805
 31
0.0000000000000000
  0
ARC
  5
2CE
100
AcDbEntity
  8
MAIN0
  6
CENTER
 62
3
100
AcDbCircle
 10
534.7151266797266
 20
358.5627907996836
 30
0.0000000000000000
 40
164.0000000000000
100
AcDbArc
 50
54.40794860741593
 51
65.59205139258394
  0
LINE
  5
2CF
100
AcDbEntity
  8
MAIN0
  6
CENTER
 62
3
100
AcDbLine
 10
444.7151266797264
 20
514.4473634808826
 30
0.0000000000000000
 11
460.7151266797265
 21
486.7345505597805
 31
0.0000000000000000
  0
ARC
  5
2D0
100
AcDbEntity
  8
MAIN0
  6
CENTER
 62
3
100
AcDbCircle
 10
534.7151266797266
 20
358.5627907996836
 30
0.0000000000000000
 40
164.0000000000000
100
AcDbArc
 50
114.4079486074159
 51
125.5920513925839
  0
LINE
  5
2D1
100
AcDbEntity
  8
MAIN0
  6
CONTINUOUS
 62
3
100
AcDbLine
 10
673.1028427827030
 20
458.6682353659109
 30
0.0000000000000000
 11
690.6028427827030
 21
428.3573462334555
 31
0.0000000000000000
  0
ARC
  5
2D2
100
AcDbEntity
  8
MAIN0
  6
CONTINUOUS
 62
3
100
AcDbCircle
 10
526.8919177686230
 20
354.0460590289313
 30
0.0000000000000000
 40
163.9334635412384
100
AcDbArc
 50
23.87196294327076
 51
36.12803705672898
  0
ARC
  5
2D3
100
AcDbEntity
  8
MAIN0
  6
CONTINUOUS
 62
3
100
AcDbCircle
 10
526.8919177686230
 20
354.0460590289313
 30
0.0000000000000000
 40
87.93346354120327
100
AcDbArc
 50
18.52068719398683
 51
41.47931280601280
  0
ARC
  5
2D4
100
AcDbEntity
  8
MAIN0
  6
CONTINUOUS
 62
3
100
AcDbCircle
 10
526.8919177686230
 20
354.0460590289313
 30
0.0000000000000000
 40
114.9334635418054
100
AcDbArc
 50
21.24196391439589
 51
38.75803608560374
  0
ARC
  5
2D5
100
AcDbEntity
  8
MAIN0
  6
CONTINUOUS
 62
3
100
AcDbCircle
 10
526.8919177686230
 20
354.0460590289313
 30
0.0000000000000000
 40
129.9334635411653
100
AcDbArc
 50
22.25963403497437
 51
37.74036596502526
  0
LINE
  5
2D6
100
AcDbEntity
  8
MAIN0
  6
CONTINUOUS
 62
3
100
AcDbLine
 10
673.1028427827030
 20
458.6682353659109
 30
0.0000000000000000
 11
566.2298672197647
 21
396.9650941555525
 31
0.0000000000000000
  0
LINE
  5
2D7
100
AcDbEntity
  8
MAIN0
  6
CONTINUOUS
 62
3
100
AcDbLine
 10
690.6028427827027
 20
428.3573462334555
 30
0.0000000000000000
 11
583.7298672197651
 21
366.6542050230974
 31
0.0000000000000000
  0
LINE
  5
2D8
100
AcDbEntity
  8
MAIN0
  6
CONTINUOUS
 62
3
100
AcDbLine
 10
566.2298672197649
 20
396.9650941555523
 30
0.0000000000000000
 11
566.2298672197649
 21
379.6445860798640
 31
0.0000000000000000
  0
ARC
  5
2D9
100
AcDbEntity
  8
MAIN0
  6
CONTINUOUS
 62
3
100
AcDbCircle
 10
526.8342955052472
 20
354.0127907996600
 30
0.0000000000000000
 40
47.00000000000000
100
AcDbArc
 50
26.95091318482303
 51
33.04908681517660
  0
LINE
  5
2DA
100
AcDbEntity
  8
MAIN0
  6
CONTINUOUS
 62
3
100
AcDbLine
 10
583.7298672197655
 20
366.6542050230972
 30
0.0000000000000000
 11
568.7298672197649
 21
375.3144590609419
 31
0.0000000000000000
  0
ARC
  5
2DB
100
AcDbEntity
  8
MAIN0
  6
CONTINUOUS
 62
3
100
AcDbCircle
 10
526.8919177686230
 20
354.0460590289313
 30
0.0000000000000000
 40
90.93346354136556
100
AcDbArc
 50
18.90429509617485
 51
41.09570490382480
  0
ARC
  5
2DC
100
AcDbEntity
  8
MAIN0
  6
CONTINUOUS
 62
3
100
AcDbCircle
 10
526.8919177686230
 20
354.0460590289313
 30
0.0000000000000000
 40
132.9334635411290
100
AcDbArc
 50
22.43535029805544
 51
37.56464970194424
  0
LINE
  5
2DD
100
AcDbEntity
  8
MAIN0
  6
HIDDEN
 62
3
100
AcDbLine
 10
495.2464492124495
 20
185.3768690305755
 30
0.0000000000000000
 11
494.1150783625509
 21
187.3364608248020
 31
0.0000000000000000
  0
LINE
  5
2DE
100
AcDbEntity
  8
MAIN0
  6
HIDDEN
 62
3
100
AcDbLine
 10
494.1150783625508
 20
187.3364608248020
 30
0.0000000000000000
 11
484.2626349344022
 21
189.9764150848474
 31
0.0000000000000000
  0
LINE
  5
2DF
100
AcDbEntity
  8
MAIN0
  6
HIDDEN
 62
3
100
AcDbLine
 10
484.2626349344022
 20
189.9764150848474
 30
0.0000000000000000
 11
482.3030431401758
 21
188.8450442349488
 31
0.0000000000000000
  0
LINE
  5
2E0
100
AcDbEntity
  8
MAIN0
  6
HIDDEN
 62
3
100
AcDbLine
 10
494.7514744656188
 20
186.2341904405496
 30
0.0000000000000000
 11
500.2643201263016
 21
206.8084105405071
 31
0.0000000000000000
  0
LINE
  5
2E1
100
AcDbEntity
  8
MAIN0
  6
HIDDEN
 62
3
100
AcDbLine
 10
500.2643201263018
 20
206.8084105405070
 30
0.0000000000000000
 11
488.6732102108329
 21
209.9142390817368
 31
0.0000000000000000
  0
LINE
  5
2E2
100
AcDbEntity
  8
MAIN0
  6
HIDDEN
 62
3
100
AcDbLine
 10
488.6732102108327
 20
209.9142390817368
 30
0.0000000000000000
 11
483.1603645501499
 21
189.3400189817794
 31
0.0000000000000000
  0
LINE
  5
2E3
100
AcDbEntity
  8
MAIN0
  6
HIDDEN
 62
3
100
AcDbLine
 10
494.1150783625508
 20
187.3364608248020
 30
0.0000000000000000
 11
501.4655392434613
 21
214.7687542914119
 31
0.0000000000000000
  0
LINE
  5
2E4
100
AcDbEntity
  8
MAIN0
  6
HIDDEN
 62
3
100
AcDbLine
 10
501.4655392434613
 20
214.7687542914119
 30
0.0000000000000000
 11
491.6130958153127
 21
217.4087085514572
 31
0.0000000000000000
  0
LINE
  5
2E5
100
AcDbEntity
  8
MAIN0
  6
HIDDEN
 62
3
100
AcDbLine
 10
491.6130958153127
 20
217.4087085514572
 30
0.0000000000000000
 11
484.2626349344022
 21
189.9764150848474
 31
0.0000000000000000
  0
LINE
  5
2E6
100
AcDbEntity
  8
MAIN0
  6
HIDDEN
 62
3
100
AcDbLine
 10
501.4655392434614
 20
214.7687542914119
 30
0.0000000000000000
 11
497.3014066807298
 21
218.9328868541431
 31
0.0000000000000000
  0
LINE
  5
2E7
100
AcDbEntity
  8
MAIN0
  6
HIDDEN
 62
3
100
AcDbLine
 10
497.3014066807300
 20
218.9328868541431
 30
0.0000000000000000
 11
491.6130958153130
 21
217.4087085514572
 31
0.0000000000000000
  0
LINE
  5
2E8
100
AcDbEntity
  8
MAIN0
  6
CONTINUOUS
 62
3
100
AcDbLine
 10
378.8274105767507
 20
428.3573462334569
 30
0.0000000000000000
 11
396.3274105767508
 21
458.6682353659121
 31
0.0000000000000000
  0
ARC
  5
2E9
100
AcDbEntity
  8
MAIN0
  6
CONTINUOUS
 62
3
100
AcDbCircle
 10
542.5383355908302
 20
354.0460590289313
 30
0.0000000000000000
 40
163.9334635412384
100
AcDbArc
 50
143.8719629432707
 51
156.1280370567289
  0
ARC
  5
2EA
100
AcDbEntity
  8
MAIN0
  6
CONTINUOUS
 62
3
100
AcDbCircle
 10
542.5383355908302
 20
354.0460590289313
 30
0.0000000000000000
 40
87.93346354120327
100
AcDbArc
 50
138.5206871939867
 51
161.4793128060127
  0
ARC
  5
2EB
100
AcDbEntity
  8
MAIN0
  6
CONTINUOUS
 62
3
100
AcDbCircle
 10
542.5383355908302
 20
354.0460590289313
 30
0.0000000000000000
 40
114.9334635418054
100
AcDbArc
 50
141.2419639143958
 51
158.7580360856036
  0
ARC
  5
2EC
100
AcDbEntity
  8
MAIN0
  6
CONTINUOUS
 62
3
100
AcDbCircle
 10
542.5383355908302
 20
354.0460590289313
 30
0.0000000000000000
 40
129.9334635411653
100
AcDbArc
 50
142.2596340349743
 51
157.7403659650252
  0
LINE
  5
2ED
100
AcDbEntity
  8
MAIN0
  6
CONTINUOUS
 62
3
100
AcDbLine
 10
378.8274105767508
 20
428.3573462334568
 30
0.0000000000000000
 11
485.7003861396886
 21
366.6542050230978
 31
0.0000000000000000
  0
LINE
  5
2EE
100
AcDbEntity
  8
MAIN0
  6
CONTINUOUS
 62
3
100
AcDbLine
 10
396.3274105767510
 20
458.6682353659119
 30
0.0000000000000000
 11
503.2003861396883
 21
396.9650941555532
 31
0.0000000000000000
  0
LINE
  5
2EF
100
AcDbEntity
  8
MAIN0
  6
CONTINUOUS
 62
3
100
AcDbLine
 10
485.7003861396888
 20
366.6542050230979
 30
0.0000000000000000
 11
500.7003861396884
 21
375.3144590609420
 31
0.0000000000000000
  0
ARC
  5
2F0
100
AcDbEntity
  8
MAIN0
  6
CONTINUOUS
 62
3
100
AcDbCircle
 10
542.5959578542058
 20
354.0127907996599
 30
0.0000000000000000
 40
47.00000000000000
100
AcDbArc
 50
146.9509131848229
 51
153.0490868151765
  0
LINE
  5
2F1
100
AcDbEntity
  8
MAIN0
  6
CONTINUOUS
 62
3
100
AcDbLine
 10
503.2003861396883
 20
396.9650941555537
 30
0.0000000000000000
 11
503.2003861396883
 21
379.6445860798642
 31
0.0000000000000000
  0
ARC
  5
2F2
100
AcDbEntity
  8
MAIN0
  6
CONTINUOUS
 62
3
100
AcDbCircle
 10
542.5383355908302
 20
354.0460590289313
 30
0.0000000000000000
 40
90.93346354136556
100
AcDbArc
 50
138.9042950961747
 51
161.0957049038247
  0
ARC
  5
2F3
100
AcDbEntity
  8
MAIN0
  6
CONTINUOUS
 62
3
100
AcDbCircle
 10
542.5383355908302
 20
354.0460590289313
 30
0.0000000000000000
 40
132.9334635411290
100
AcDbArc
 50
142.4353502980553
 51
157.5646497019441
  0
LINE
  5
2F4
100
AcDbEntity
  8
MAIN0
  6
CONTINUOUS
 62
3
100
AcDbLine
 10
552.2151266797263
 20
188.6627907996836
 30
0.0000000000000000
 11
517.2151266797264
 21
188.6627907996836
 31
0.0000000000000000
  0
ARC
  5
2F5
100
AcDbEntity
  8
MAIN0
  6
CONTINUOUS
 62
3
100
AcDbCircle
 10
534.7151266797265
 20
367.5962543411883
 30
0.0000000000000000
 40
163.9334635412384
100
AcDbArc
 50
263.8719629432709
 51
276.1280370567291
  0
ARC
  5
2F6
100
AcDbEntity
  8
MAIN0
  6
CONTINUOUS
 62
3
100
AcDbCircle
 10
534.7151266797265
 20
367.5962543411883
 30
0.0000000000000000
 40
87.93346354120327
100
AcDbArc
 50
258.5206871939870
 51
281.4793128060130
  0
ARC
  5
2F7
100
AcDbEntity
  8
MAIN0
  6
CONTINUOUS
 62
3
100
AcDbCircle
 10
534.7151266797265
 20
367.5962543411883
 30
0.0000000000000000
 40
114.9334635418054
100
AcDbArc
 50
261.2419639143960
 51
278.7580360856039
  0
ARC
  5
2F8
100
AcDbEntity
  8
MAIN0
  6
CONTINUOUS
 62
3
100
AcDbCircle
 10
534.7151266797265
 20
367.5962543411883
 30
0.0000000000000000
 40
129.9334635411653
100
AcDbArc
 50
262.2596340349745
 51
277.7403659650254
  0
LINE
  5
2F9
100
AcDbEntity
  8
MAIN0
  6
CONTINUOUS
 62
3
100
AcDbLine
 10
552.2151266797264
 20
188.6627907996837
 30
0.0000000000000000
 11
552.2151266797264
 21
312.0690732204009
 31
0.0000000000000000
  0
LINE
  5
2FA
100
AcDbEntity
  8
MAIN0
  6
CONTINUOUS
 62
3
100
AcDbLine
 10
517.2151266797264
 20
188.6627907996838
 30
0.0000000000000000
 11
517.2151266797264
 21
312.0690732204004
 31
0.0000000000000000
  0
LINE
  5
2FB
100
AcDbEntity
  8
MAIN0
  6
CONTINUOUS
 62
3
100
AcDbLine
 10
552.2151266797262
 20
312.0690732204009
 30
0.0000000000000000
 11
537.2151266797266
 21
320.7293272582450
 31
0.0000000000000000
  0
ARC
  5
2FC
100
AcDbEntity
  8
MAIN0
  6
CONTINUOUS
 62
3
100
AcDbCircle
 10
534.7151266797266
 20
367.6627907997310
 30
0.0000000000000000
 40
47.00000000000000
100
AcDbArc
 50
266.9509131848232
 51
273.0490868151767
  0
LINE
  5
2FD
100
AcDbEntity
  8
MAIN0
  6
CONTINUOUS
 62
3
100
AcDbLine
 10
517.2151266797262
 20
312.0690732204001
 30
0.0000000000000000
 11
532.2151266797266
 21
320.7293272582450
 31
0.0000000000000000
  0
ARC
  5
2FE
100
AcDbEntity
  8
MAIN0
  6
CONTINUOUS
 62
3
100
AcDbCircle
 10
534.7151266797265
 20
367.5962543411883
 30
0.0000000000000000
 40
90.93346354136556
100
AcDbArc
 50
258.9042950961750
 51
281.0957049038249
  0
ARC
  5
2FF
100
AcDbEntity
  8
MAIN0
  6
CONTINUOUS
 62
3
100
AcDbCircle
 10
534.7151266797265
 20
367.5962543411883
 30
0.0000000000000000
 40
132.9334635411290
100
AcDbArc
 50
262.4353502980555
 51
277.5646497019443
  0
LINE
  5
300
100
AcDbEntity
  8
MAIN0
  6
CENTER
 62
3
100
AcDbLine
 10
573.9651266797268
 20
426.5457849967620
 30
0.0000000000000000
 11
560.4651266797266
 21
403.1630990945822
 31
0.0000000000000000
  0
ARC
  5
301
100
AcDbEntity
  8
MAIN0
  6
CENTER
 62
3
100
AcDbCircle
 10
534.7151266797266
 20
358.5627907996836
 30
0.0000000000000000
 40
65.00000000000000
100
AcDbArc
 50
48.07861474752101
 51
71.92138525247860
  0
LINE
  5
302
100
AcDbEntity
  8
MAIN0
  6
CENTER
 62
3
100
AcDbLine
 10
573.9651266797264
 20
290.5797966026050
 30
0.0000000000000000
 11
560.4651266797265
 21
313.9624825047849
 31
0.0000000000000000
  0
ARC
  5
303
100
AcDbEntity
  8
MAIN0
  6
CENTER
 62
3
100
AcDbCircle
 10
534.7151266797266
 20
358.5627907996836
 30
0.0000000000000000
 40
65.00000000000000
100
AcDbArc
 50
288.0786147475208
 51
311.9213852524783
  0
ARC
  5
304
100
AcDbEntity
  8
MAIN0
  6
CENTER
 62
3
100
AcDbCircle
 10
534.7151266797266
 20
358.5627907996836
 30
0.0000000000000000
 40
65.00000000000000
100
AcDbArc
 50
168.0786147475209
 51
191.9213852524785
  0
CIRCLE
  5
305
100
AcDbEntity
  8
MAIN0
  6
HIDDEN
 62
3
100
AcDbCircle
 10
567.2151266797268
 20
414.8544420456720
 30
0.0000000000000000
 40
8.500000000000000
  0
CIRCLE
  5
306
100
AcDbEntity
  8
MAIN0
  6
HIDDEN
 62
3
100
AcDbCircle
 10
469.7151266797266
 20
358.5627907996840
 30
0.0000000000000000
 40
8.500000000000000
  0
CIRCLE
  5
307
100
AcDbEntity
  8
MAIN0
  6
HIDDEN
 62
3
100
AcDbCircle
 10
567.2151266797262
 20
302.2711395536948
 30
0.0000000000000000
 40
8.500000000000000
  0
CIRCLE
  5
308
100
AcDbEntity
  8
MAIN0
  6
HIDDEN
 62
3
100
AcDbCircle
 10
567.2151266797268
 20
414.8544420456720
 30
0.0000000000000000
 40
8.000000000000000
  0
LINE
  5
309
100
AcDbEntity
  8
MAIN0
  6
HIDDEN
 62
3
100
AcDbLine
 10
564.9057256029682
 20
418.8544420456720
 30
0.0000000000000000
 11
562.5963245262099
 21
414.8544420456720
 31
0.0000000000000000
  0
LINE
  5
30A
100
AcDbEntity
  8
MAIN0
  6
HIDDEN
 62
3
100
AcDbLine
 10
562.5963245262097
 20
414.8544420456720
 30
0.0000000000000000
 11
564.9057256029682
 21
410.8544420456720
 31
0.0000000000000000
  0
LINE
  5
30B
100
AcDbEntity
  8
MAIN0
  6
HIDDEN
 62
3
100
AcDbLine
 10
564.9057256029682
 20
410.8544420456719
 30
0.0000000000000000
 11
569.5245277564852
 21
410.8544420456719
 31
0.0000000000000000
  0
LINE
  5
30C
100
AcDbEntity
  8
MAIN0
  6
HIDDEN
 62
3
100
AcDbLine
 10
569.5245277564854
 20
410.8544420456723
 30
0.0000000000000000
 11
571.8339288332438
 21
414.8544420456722
 31
0.0000000000000000
  0
LINE
  5
30D
100
AcDbEntity
  8
MAIN0
  6
HIDDEN
 62
3
100
AcDbLine
 10
571.8339288332438
 20
414.8544420456720
 30
0.0000000000000000
 11
569.5245277564852
 21
418.8544420456720
 31
0.0000000000000000
  0
LINE
  5
30E
100
AcDbEntity
  8
MAIN0
  6
HIDDEN
 62
3
100
AcDbLine
 10
569.5245277564852
 20
418.8544420456719
 30
0.0000000000000000
 11
564.9057256029682
 21
418.8544420456719
 31
0.0000000000000000
  0
CIRCLE
  5
30F
100
AcDbEntity
  8
MAIN0
  6
HIDDEN
 62
3
100
AcDbCircle
 10
469.7151266797266
 20
358.5627907996840
 30
0.0000000000000000
 40
8.000000000000000
  0
LINE
  5
310
100
AcDbEntity
  8
MAIN0
  6
HIDDEN
 62
3
100
AcDbLine
 10
467.4057256029680
 20
354.5627907996840
 30
0.0000000000000000
 11
472.0245277564850
 21
354.5627907996840
 31
0.0000000000000000
  0
LINE
  5
311
100
AcDbEntity
  8
MAIN0
  6
HIDDEN
 62
3
100
AcDbLine
 10
472.0245277564850
 20
354.5627907996841
 30
0.0000000000000000
 11
474.3339288332435
 21
358.5627907996841
 31
0.0000000000000000
  0
LINE
  5
312
100
AcDbEntity
  8
MAIN0
  6
HIDDEN
 62
3
100
AcDbLine
 10
474.3339288332435
 20
358.5627907996839
 30
0.0000000000000000
 11
472.0245277564850
 21
362.5627907996839
 31
0.0000000000000000
  0
LINE
  5
313
100
AcDbEntity
  8
MAIN0
  6
HIDDEN
 62
3
100
AcDbLine
 10
472.0245277564849
 20
362.5627907996839
 30
0.0000000000000000
 11
467.4057256029679
 21
362.5627907996839
 31
0.0000000000000000
  0
LINE
  5
314
100
AcDbEntity
  8
MAIN0
  6
HIDDEN
 62
3
100
AcDbLine
 10
467.4057256029680
 20
362.5627907996841
 30
0.0000000000000000
 11
465.0963245262095
 21
358.5627907996841
 31
0.0000000000000000
  0
LINE
  5
315
100
AcDbEntity
  8
MAIN0
  6
HIDDEN
 62
3
100
AcDbLine
 10
465.0963245262094
 20
358.5627907996840
 30
0.0000000000000000
 11
467.4057256029679
 21
354.5627907996840
 31
0.0000000000000000
  0
MTEXT
  5
316
100
AcDbEntity
  8
MIN0
  6
CONTINUOUS
 62
3
100
AcDbMText
 10
301.6718363767883
 20
-34.58427405108746
 30
0.0000000000000000
 40
3.750000000000000
 41
0.0000000000000000
 71
     1
 72
     1
  1
{\H0.63x;{EXTERNAL\PGRIPPING}}
 11
1.000000000000000
 21
0.0000000000000000
 31
0.0000000000000000
  7
STANDARD
  0
MTEXT
  5
317
100
AcDbEntity
  8
MIN0
  6
CONTINUOUS
 62
3
100
AcDbMText
 10
301.5855984403703
 20
-46.39880585479610
 30
0.0000000000000000
 40
3.750000000000000
 41
0.0000000000000000
 71
     1
 72
     1
  1
{\H0.63x;{INTERNALLY\PGRIPPING}}
 11
1.000000000000000
 21
0.0000000000000000
 31
0.0000000000000000
  7
STANDARD
  0
MTEXT
  5
318
100
AcDbEntity
  8
MIN0
  6
CONTINUOUS
 62
3
100
AcDbMText
 10
320.3218818805236
 20
53.08394831649331
 30
0.0000000000000000
 40
4.649999856948853
 41
0.0000000000000000
 71
     1
 72
     1
  1
{\H0.93x;{SPECIFICATIONS}}
 11
1.000000000000000
 21
0.0000000000000000
 31
0.0000000000000000
  7
STANDARD
  0
MTEXT
  5
319
100
AcDbEntity
  8
MIN0
  6
CONTINUOUS
 62
3
100
AcDbMText
 10
271.9899806923379
 20
34.46949247698022
 30
0.0000000000000000
 40
3.750000000000000
 41
0.0000000000000000
 71
     1
 72
     1
  1
{\H0.62x;{MAX.PERMISSIBLE HANDLE TORQUE}}
 11
1.000000000000000
 21
0.0000000000000000
 31
0.0000000000000000
  7
STANDARD
  0
MTEXT
  5
31A
100
AcDbEntity
  8
MIN0
  6
CONTINUOUS
 62
3
100
AcDbMText
 10
271.9899806923378
 20
17.80282581030870
 30
0.0000000000000000
 40
3.750000000000000
 41
0.0000000000000000
 71
     1
 72
     1
  1
{\H0.63x;{MAX STATIC GRIPPING FORCE}}
 11
1.000000000000000
 21
0.0000000000000000
 31
0.0000000000000000
  7
STANDARD
  0
MTEXT
  5
31B
100
AcDbEntity
  8
MIN0
  6
CONTINUOUS
 62
3
100
AcDbMText
 10
271.9899806923378
 20
0.5806035880831217
 30
0.0000000000000000
 40
3.750000000000000
 41
0.0000000000000000
 71
     1
 72
     1
  1
{\H0.63x;{MAX PREMISSIBLE SPEED}}
 11
1.000000000000000
 21
0.0000000000000000
 31
0.0000000000000000
  7
STANDARD
  0
MTEXT
  5
31C
100
AcDbEntity
  8
MIN0
  6
CONTINUOUS
 62
3
100
AcDbMText
 10
268.9932866149762
 20
-44.39485519964474
 30
0.0000000000000000
 40
3.750000000000000
 41
0.0000000000000000
 71
     1
 72
     1
  1
{\H0.54x;{GRIPPING RANGE}}
 11
1.000000000000000
 21
0.0000000000000000
 31
0.0000000000000000
  7
STANDARD
  0
MTEXT
  5
31D
100
AcDbEntity
  8
MIN0
  6
CONTINUOUS
 62
3
100
AcDbMText
 10
299.3271883401702
 20
-8.854749435200759
 30
0.0000000000000000
 40
4.650000572204590
 41
0.0000000000000000
 71
     1
 72
     1
  1
{\H0.91x;{MASS}}
 11
1.000000000000000
 21
0.0000000000000000
 31
0.0000000000000000
  7
STANDARD
  0
MTEXT
  5
31E
100
AcDbEntity
  8
MIN0
  6
CONTINUOUS
 62
3
100
AcDbMText
 10
359.6284949715692
 20
34.38509383543031
 30
0.0000000000000000
 40
4.649999856948853
 41
0.0000000000000000
 71
     1
 72
     1
  1
{\H0.81x;{23.0}}
 11
1.000000000000000
 21
0.0000000000000000
 31
0.0000000000000000
  7
STANDARD
  0
MTEXT
  5
31F
100
AcDbEntity
  8
MIN0
  6
CONTINUOUS
 62
3
100
AcDbMText
 10
354.4899806923382
 20
25.78615900055148
 30
0.0000000000000000
 40
4.649999856948853
 41
0.0000000000000000
 71
     1
 72
     1
  1
{\H0.81x;{40.5}}
 11
1.000000000000000
 21
0.0000000000000000
 31
0.0000000000000000
  7
STANDARD
  0
MTEXT
  5
320
100
AcDbEntity
  8
MIN0
  6
CONTINUOUS
 62
3
100
AcDbMText
 10
359.4899806923382
 20
18.28615900055148
 30
0.0000000000000000
 40
4.649999856948853
 41
0.0000000000000000
 71
     1
 72
     1
  1
{\H0.91x;{4130}}
 11
1.000000000000000
 21
0.0000000000000000
 31
0.0000000000000000
  7
STANDARD
  0
MTEXT
  5
321
100
AcDbEntity
  8
MIN0
  6
CONTINUOUS
 62
3
100
AcDbMText
 10
354.4899806923382
 20
-8.936063221670750
 30
0.0000000000000000
 40
4.649999856948853
 41
0.0000000000000000
 71
     1
 72
     1
  1
{\H0.88x;{54}}
 11
1.000000000000000
 21
0.0000000000000000
 31
0.0000000000000000
  7
STANDARD
  0
MTEXT
  5
322
100
AcDbEntity
  8
MIN0
  6
CONTINUOUS
 62
3
100
AcDbMText
 10
354.8510206222865
 20
-22.79844035805031
 30
0.0000000000000000
 40
4.649999856948853
 41
0.0000000000000000
 71
     1
 72
     1
  1
{\H0.81x;{0.95}}
 11
1.000000000000000
 21
0.0000000000000000
 31
0.0000000000000000
  7
STANDARD
  0
MTEXT
  5
323
100
AcDbEntity
  8
MIN0
  6
CONTINUOUS
 62
3
100
AcDbMText
 10
354.4899806923382
 20
42.45282566721834
 30
0.0000000000000000
 40
4.649999856948853
 41
0.0000000000000000
 71
     1
 72
     1
  1
{\H0.84x;{225.6}}
 11
1.000000000000000
 21
0.0000000000000000
 31
0.0000000000000000
  7
STANDARD
  0
LINE
  5
324
100
AcDbEntity
  8
MIN0
  6
CONTINUOUS
 62
3
100
AcDbLine
 10
267.8233140256717
 20
-56.91939641195854
 30
0.0000000000000000
 11
401.1566473590051
 21
-56.91939641195832
 31
0.0000000000000000
  0
LINE
  5
325
100
AcDbEntity
  8
MIN0
  6
CONTINUOUS
 62
3
100
AcDbLine
 10
300.3233140256716
 20
-56.91939641195832
 30
0.0000000000000000
 11
300.3233140256716
 21
-33.58606307862506
 31
0.0000000000000000
  0
MTEXT
  5
326
100
AcDbEntity
  8
MIN0
  6
CONTINUOUS
 62
3
100
AcDbMText
 10
327.6293144446584
 20
-37.22000994160926
 30
0.0000000000000000
 40
4.649999856948853
 41
0.0000000000000000
 71
     1
 72
     1
  1
{\H0.92x;{外径把握}}
 11
1.000000000000000
 21
0.0000000000000000
 31
0.0000000000000000
  7
KNJYOKO
  0
MTEXT
  5
327
100
AcDbEntity
  8
MIN0
  6
CONTINUOUS
 62
3
100
AcDbMText
 10
327.6293144446584
 20
-49.12077968173612
 30
0.0000000000000000
 40
4.649999856948853
 41
0.0000000000000000
 71
     1
 72
     1
  1
{\H0.92x;{内径把握}}
 11
1.000000000000000
 21
0.0000000000000000
 31
0.0000000000000000
  7
KNJYOKO
  0
MTEXT
  5
328
100
AcDbEntity
  8
MIN0
  6
CONTINUOUS
 62
3
100
AcDbMText
 10
281.9234553510968
 20
-51.25424225346542
 30
0.0000000000000000
 40
4.500000000000000
 41
0.0000000000000000
 71
     1
 72
     1
  1
{\H0.63x;{(mm)}}
 11
1.000000000000000
 21
0.0000000000000000
 31
0.0000000000000000
  7
STANDARD
  0
MTEXT
  5
329
100
AcDbEntity
  8
MIN0
  6
CONTINUOUS
 62
3
100
AcDbMText
 10
354.4899806922903
 20
-48.93606322167621
 30
0.0000000000000000
 40
4.649999856948853
 41
0.0000000000000000
 71
     1
 72
     1
  1
{\H0.93x;{\U+2205107～\U+2205290}}
 11
1.000000000000000
 21
0.0000000000000000
 31
0.0000000000000000
  7
KNJYOKO
  0
MTEXT
  5
32A
100
AcDbEntity
  8
MIN0
  6
CONTINUOUS
 62
3
100
AcDbMText
 10
271.9899806923401
 20
8.980603445043002
 30
0.0000000000000000
 40
4.649999856948853
 41
0.0000000000000000
 71
     1
 72
     1
  1
{\H0.94x;{許容最高回転速度　}}
 11
1.000000000000000
 21
0.0000000000000000
 31
0.0000000000000000
  7
KNJYOKO
  0
MTEXT
  5
32B
100
AcDbEntity
  8
MIN0
  6
CONTINUOUS
 62
3
100
AcDbMText
 10
354.4899806923382
 20
3.636159143602626
 30
0.0000000000000000
 40
4.649999856948853
 41
0.0000000000000000
 71
     7
 72
     1
  1
{1500 min}
 11
1.000000000000000
 21
0.0000000000000000
 31
0.0000000000000000
  7
STANDARD
  0
MTEXT
  5
32C
100
AcDbEntity
  8
MIN0
  6
CONTINUOUS
 62
3
100
AcDbMText
 10
387.7799816674702
 20
5.961159072077052
 30
0.0000000000000000
 40
2.324999928474426
 41
0.0000000000000000
 71
     7
 72
     1
  1
{-1}
 11
1.000000000000000
 21
0.0000000000000000
 31
0.0000000000000000
  7
STANDARD
  0
MTEXT
  5
32D
100
AcDbEntity
  8
MIN0
  6
CONTINUOUS
 62
3
100
AcDbMText
 10
375.9854542799027
 20
2.108300443679454
 30
0.0000000000000000
 40
4.649999856948853
 41
0.0000000000000000
 71
     1
 72
     1
  1
{\H0.92x;{(rpm)}}
 11
1.000000000000000
 21
0.0000000000000000
 31
0.0000000000000000
  7
STANDARD
  0
MTEXT
  5
32E
100
AcDbEntity
  8
MIN0
  6
CONTINUOUS
 62
3
100
AcDbMText
 10
354.4899806922903
 20
-37.26939655500947
 30
0.0000000000000000
 40
4.649999856948853
 41
0.0000000000000000
 71
     1
 72
     1
  1
{\H0.93x;{\U+220525～\U+2205315}}
 11
1.000000000000000
 21
0.0000000000000000
 31
0.0000000000000000
  7
KNJYOKO
  0
LINE
  5
32F
100
AcDbEntity
  8
MIN0
  6
CONTINUOUS
 62
3
100
AcDbLine
 10
300.3233140256717
 20
-45.25272974529158
 30
0.0000000000000000
 11
401.1566473590048
 21
-45.25272974529158
 31
0.0000000000000000
  0
LINE
  5
330
100
AcDbEntity
  8
MIN0
  6
CONTINUOUS
 62
3
100
AcDbLine
 10
267.8233140256716
 20
56.96949247699460
 30
0.0000000000000000
 11
401.1566473590048
 21
56.96949247703508
 31
0.0000000000000000
  0
LINE
  5
331
100
AcDbEntity
  8
MIN0
  6
CONTINUOUS
 62
3
100
AcDbLine
 10
267.8233140256715
 20
45.30282581032468
 30
0.0000000000000000
 11
401.1566473590050
 21
45.30282581036276
 31
0.0000000000000000
  0
LINE
  5
332
100
AcDbEntity
  8
MIN0
  6
CONTINUOUS
 62
3
100
AcDbLine
 10
267.8233140256717
 20
28.63615914364696
 30
0.0000000000000000
 11
401.1566473590051
 21
28.63615914367720
 31
0.0000000000000000
  0
LINE
  5
333
100
AcDbEntity
  8
MIN0
  6
CONTINUOUS
 62
3
100
AcDbLine
 10
267.8233140256715
 20
11.96949247697545
 30
0.0000000000000000
 11
401.1566473590048
 21
11.96949247700228
 31
0.0000000000000000
  0
LINE
  5
334
100
AcDbEntity
  8
MIN0
  6
CONTINUOUS
 62
3
100
AcDbLine
 10
267.8233140256715
 20
-5.252729745250136
 30
0.0000000000000000
 11
401.1566473590048
 21
-5.252729745225352
 31
0.0000000000000000
  0
LINE
  5
335
100
AcDbEntity
  8
MIN0
  6
CONTINUOUS
 62
3
100
AcDbLine
 10
267.8233140256717
 20
-16.91939641192035
 30
0.0000000000000000
 11
401.1566473590050
 21
-16.91939641189806
 31
0.0000000000000000
  0
LINE
  5
336
100
AcDbEntity
  8
MIN0
  6
CONTINUOUS
 62
3
100
AcDbLine
 10
267.8233140256717
 20
-33.58606307862483
 30
0.0000000000000000
 11
401.1566473590051
 21
-33.58606307862483
 31
0.0000000000000000
  0
LINE
  5
337
100
AcDbEntity
  8
MIN0
  6
CONTINUOUS
 62
3
100
AcDbLine
 10
267.8233140256717
 20
-56.91939641195832
 30
0.0000000000000000
 11
267.8233140256717
 21
56.96949247693611
 31
0.0000000000000000
  0
LINE
  5
338
100
AcDbEntity
  8
MIN0
  6
CONTINUOUS
 62
3
100
AcDbLine
 10
351.1566473590050
 20
-56.91939641195832
 30
0.0000000000000000
 11
351.1566473590050
 21
45.30282581034804
 31
0.0000000000000000
  0
LINE
  5
339
100
AcDbEntity
  8
MIN0
  6
CONTINUOUS
 62
3
100
AcDbLine
 10
401.1566473590050
 20
-56.91939641195832
 30
0.0000000000000000
 11
401.1566473590050
 21
56.96949247693611
 31
0.0000000000000000
  0
MTEXT
  5
33A
100
AcDbEntity
  8
MIN0
  6
CONTINUOUS
 62
3
100
AcDbMText
 10
271.9899806923403
 20
42.86949304919595
 30
0.0000000000000000
 40
4.650000572204590
 41
0.0000000000000000
 71
     1
 72
     1
  1
{\H0.94x;{許容最大ハンドルトルク}}
 11
1.000000000000000
 21
0.0000000000000000
 31
0.0000000000000000
  7
KNJYOKO
  0
MTEXT
  5
33B
100
AcDbEntity
  8
MIN0
  6
CONTINUOUS
 62
3
100
AcDbMText
 10
271.9899806923401
 20
26.20282638252421
 30
0.0000000000000000
 40
4.650000572204590
 41
0.0000000000000000
 71
     1
 72
     1
  1
{\H0.94x;{最大静的把握力}}
 11
1.000000000000000
 21
0.0000000000000000
 31
0.0000000000000000
  7
KNJYOKO
  0
MTEXT
  5
33C
100
AcDbEntity
  8
MIN0
  6
CONTINUOUS
 62
3
100
AcDbMText
 10
271.1566473590051
 20
-8.936062506382271
 30
0.0000000000000000
 40
4.650000572204590
 41
0.0000000000000000
 71
     1
 72
     1
  1
{\H0.90x;{質量}}
 11
1.000000000000000
 21
0.0000000000000000
 31
0.0000000000000000
  7
KNJYOKO
  0
MTEXT
  5
33D
100
AcDbEntity
  8
MIN0
  6
CONTINUOUS
 62
3
100
AcDbMText
 10
271.6248226751119
 20
-18.74850446214778
 30
0.0000000000000000
 40
4.650000572204590
 41
0.0000000000000000
 71
     1
 72
     1
  1
{\H0.94x;{慣性モーメント\P}
 11
1.000000000000000
 21
0.0000000000000000
 31
0.0000000000000000
  7
KNJYOKO
  0
MTEXT
  5
33E
100
AcDbEntity
  8
MIN0
  6
CONTINUOUS
 62
3
100
AcDbMText
 10
273.2143884312801
 20
-36.06571440503372
 30
0.0000000000000000
 40
4.650000572204590
 41
0.0000000000000000
 71
     1
 72
     1
  1
{\H0.96x;{把握径}}
 11
1.000000000000000
 21
0.0000000000000000
 31
0.0000000000000000
  7
KNJYOKO
  0
MTEXT
  5
33F
100
AcDbEntity
  8
MIN0
  6
CONTINUOUS
 62
3
100
AcDbMText
 10
277.2666484827831
 20
54.24551157944187
 30
0.0000000000000000
 40
7.500000000000000
 41
0.0000000000000000
 71
     1
 72
     1
  1
{\H0.91x;{仕　様}}
 11
1.000000000000000
 21
0.0000000000000000
 31
0.0000000000000000
  7
KNJYOKO
  0
MTEXT
  5
340
100
AcDbEntity
  8
MIN0
  6
CONTINUOUS
 62
3
100
AcDbMText
 10
376.1566473590050
 20
40.33615799919367
 30
0.0000000000000000
 40
4.199998855590820
 41
0.0000000000000000
 71
     1
 72
     1
  1
{\H0.58x;{　　　Ｎ・ｍ}}
 11
1.000000000000000
 21
0.0000000000000000
 31
0.0000000000000000
  7
KNJYOKO
  0
MTEXT
  5
341
100
AcDbEntity
  8
MIN0
  6
CONTINUOUS
 62
3
100
AcDbMText
 10
354.4899806923382
 20
33.66949133252693
 30
0.0000000000000000
 40
4.199998855590820
 41
0.0000000000000000
 71
     1
 72
     1
  1
{\H0.48x;{（}}
 11
1.000000000000000
 21
0.0000000000000000
 31
0.0000000000000000
  7
KNJYOKO
  0
MTEXT
  5
342
100
AcDbEntity
  8
MIN0
  6
CONTINUOUS
 62
3
100
AcDbMText
 10
374.4899806923382
 20
33.66949133252693
 30
0.0000000000000000
 40
4.199998855590820
 41
0.0000000000000000
 71
     1
 72
     1
  1
{\H0.58x;{　ｋｇｆ・ｍ）}}
 11
1.000000000000000
 21
0.0000000000000000
 31
0.0000000000000000
  7
KNJYOKO
  0
MTEXT
  5
343
100
AcDbEntity
  8
MIN0
  6
CONTINUOUS
 62
3
100
AcDbMText
 10
376.1566473590050
 20
-11.05273088969530
 30
0.0000000000000000
 40
4.199998855590820
 41
0.0000000000000000
 71
     1
 72
     1
  1
{\H0.58x;{　　　　ｋｇ}}
 11
1.000000000000000
 21
0.0000000000000000
 31
0.0000000000000000
  7
KNJYOKO
  0
MTEXT
  5
344
100
AcDbEntity
  8
MIN0
  6
CONTINUOUS
 62
3
100
AcDbMText
 10
373.0757250909815
 20
-27.44844021499917
 30
0.0000000000000000
 40
4.199998855590820
 41
0.0000000000000000
 71
     7
 72
     1
  1
{　ｋｇ・ｍ}
 11
1.000000000000000
 21
0.0000000000000000
 31
0.0000000000000000
  7
KNJYOKO
  0
MTEXT
  5
345
100
AcDbEntity
  8
MIN0
  6
CONTINUOUS
 62
3
100
AcDbMText
 10
387.8757248048792
 20
-25.34844078720376
 30
0.0000000000000000
 40
2.099999427795410
 41
0.0000000000000000
 71
     7
 72
     1
  1
{2}
 11
1.000000000000000
 21
0.0000000000000000
 31
0.0000000000000000
  7
STANDARD
  0
MTEXT
  5
346
100
AcDbEntity
  8
MIN0
  6
CONTINUOUS
 62
3
100
AcDbMText
 10
389.8757255201349
 20
-27.44844021499917
 30
0.0000000000000000
 40
4.199998855590820
 41
0.0000000000000000
 71
     7
 72
     1
  1
{　}
 11
1.000000000000000
 21
0.0000000000000000
 31
0.0000000000000000
  7
KNJYOKO
  0
MTEXT
  5
347
100
AcDbEntity
  8
MIN0
  6
CONTINUOUS
 62
3
100
AcDbMText
 10
376.1566473590050
 20
23.66949133252682
 30
0.0000000000000000
 40
4.199998855590820
 41
0.0000000000000000
 71
     1
 72
     1
  1
{\H0.58x;{　　　　ｋＮ}}
 11
1.000000000000000
 21
0.0000000000000000
 31
0.0000000000000000
  7
KNJYOKO
  0
MTEXT
  5
348
100
AcDbEntity
  8
MIN0
  6
CONTINUOUS
 62
3
100
AcDbMText
 10
354.4899806923382
 20
17.00282466586019
 30
0.0000000000000000
 40
4.199998855590820
 41
0.0000000000000000
 71
     1
 72
     1
  1
{\H0.48x;{（}}
 11
1.000000000000000
 21
0.0000000000000000
 31
0.0000000000000000
  7
KNJYOKO
  0
MTEXT
  5
349
100
AcDbEntity
  8
MIN0
  6
CONTINUOUS
 62
3
100
AcDbMText
 10
374.4899806923382
 20
17.00282466586019
 30
0.0000000000000000
 40
4.199998855590820
 41
0.0000000000000000
 71
     1
 72
     1
  1
{\H0.58x;{　　　ｋｇｆ）}}
 11
1.000000000000000
 21
0.0000000000000000
 31
0.0000000000000000
  7
KNJYOKO
  0
MTEXT
  5
34A
100
AcDbEntity
  8
MIN0
  6
CONTINUOUS
 62
3
100
AcDbMText
 10
271.4223266849227
 20
-26.73589352259201
 30
0.0000000000000000
 40
3.750000000000000
 41
0.0000000000000000
 71
     1
 72
     1
  1
{\H0.63x;{MOMENT OF INERTIA}}
 11
1.000000000000000
 21
0.0000000000000000
 31
0.0000000000000000
  7
STANDARD
  0
MTEXT
  5
34B
100
AcDbEntity
  8
MIN0
  6
CONTINUOUS
 62
3
100
AcDbMText
 10
272.3817911805722
 20
-59.71180343753822
 30
0.0000000000000000
 40
4.650000572204590
 41
0.0000000000000000
 71
     1
 72
     1
  1
{\H0.95x;{○上記仕様は許容最大ハンドルトルク締込時の場合}}
 11
1.000000000000000
 21
0.0000000000000000
 31
0.0000000000000000
  7
KNJYOKO
  0
LINE
  5
34C
100
AcDbEntity
  8
WAKU0
  6
CONTINUOUS
 62
3
100
AcDbLine
 10
412.0000000000000
 20
51.00000000000000
 30
0.0000000000000000
 11
582.0000000000000
 21
51.00000000000000
 31
0.0000000000000000
  0
LINE
  5
34D
100
AcDbEntity
  8
WAKU0
  6
CONTINUOUS
 62
3
100
AcDbLine
 10
412.0000000000000
 20
51.00000000000000
 30
0.0000000000000000
 11
412.0000000000000
 21
12.00000000000000
 31
0.0000000000000000
  0
LINE
  5
34E
100
AcDbEntity
  8
WAKU0
  6
CONTINUOUS
 62
3
100
AcDbLine
 10
484.0000000000000
 20
51.00000000000000
 30
0.0000000000000000
 11
484.0000000000000
 21
12.00000000000000
 31
0.0000000000000000
  0
LINE
  5
34F
100
AcDbEntity
  8
WAKU0
  6
CONTINUOUS
 62
3
100
AcDbLine
 10
504.0000000000000
 20
51.00000000000000
 30
0.0000000000000000
 11
504.0000000000000
 21
12.00000000000000
 31
0.0000000000000000
  0
LINE
  5
350
100
AcDbEntity
  8
WAKU0
  6
CONTINUOUS
 62
3
100
AcDbLine
 10
516.0000000000000
 20
51.00000000000000
 30
0.0000000000000000
 11
516.0000000000000
 21
12.00000000000000
 31
0.0000000000000000
  0
LINE
  5
351
100
AcDbEntity
  8
WAKU0
  6
CONTINUOUS
 62
3
100
AcDbLine
 10
516.0000000000000
 20
37.00000000000000
 30
0.0000000000000000
 11
582.0000000000000
 21
37.00000000000000
 31
0.0000000000000000
  0
LINE
  5
352
100
AcDbEntity
  8
WAKU0
  6
CONTINUOUS
 62
3
100
AcDbLine
 10
504.0000000000000
 20
23.00000000000000
 30
0.0000000000000000
 11
582.0000000000000
 21
23.00000000000000
 31
0.0000000000000000
  0
LINE
  5
353
100
AcDbEntity
  8
WAKU0
  6
CONTINUOUS
 62
3
100
AcDbLine
 10
547.0000000000000
 20
51.00000000000000
 30
0.0000000000000000
 11
547.0000000000000
 21
44.00000000000000
 31
0.0000000000000000
  0
LINE
  5
354
100
AcDbEntity
  8
WAKU0
  6
CONTINUOUS
 62
3
100
AcDbLine
 10
559.0000000000000
 20
51.00000000000000
 30
0.0000000000000000
 11
559.0000000000000
 21
44.00000000000000
 31
0.0000000000000000
  0
LINE
  5
355
100
AcDbEntity
  8
WAKU0
  6
CONTINUOUS
 62
3
100
AcDbLine
 10
484.0000000000000
 20
31.50000000000000
 30
0.0000000000000000
 11
504.0000000000000
 21
31.50000000000000
 31
0.0000000000000000
  0
LINE
  5
356
100
AcDbEntity
  8
WAKU0
  6
CONTINUOUS
 62
3
100
AcDbLine
 10
504.0000000000000
 20
44.00000000000000
 30
0.0000000000000000
 11
582.0000000000000
 21
44.00000000000000
 31
0.0000000000000000
  0
LINE
  5
357
100
AcDbEntity
  8
WAKU0
  6
CONTINUOUS
 62
3
100
AcDbLine
 10
412.0000000000000
 20
37.00000000000000
 30
0.0000000000000000
 11
484.0000000000000
 21
37.00000000000000
 31
0.0000000000000000
  0
LINE
  5
358
100
AcDbEntity
  8
WAKU0
  6
CONTINUOUS
 62
3
100
AcDbLine
 10
412.0000000000000
 20
23.00000000000000
 30
0.0000000000000000
 11
484.0000000000000
 21
23.00000000000000
 31
0.0000000000000000
  0
LINE
  5
359
100
AcDbEntity
  8
WAKU0
  6
CONTINUOUS
 62
3
100
AcDbLine
 10
460.0000000000000
 20
37.00000000000000
 30
0.0000000000000000
 11
460.0000000000000
 21
12.00000000000000
 31
0.0000000000000000
  0
LINE
  5
35A
100
AcDbEntity
  8
WAKU0
  6
CONTINUOUS
 62
3
100
AcDbLine
 10
436.0000000000000
 20
37.00000000000000
 30
0.0000000000000000
 11
436.0000000000000
 21
23.00000000000000
 31
0.0000000000000000
  0
LINE
  5
35B
100
AcDbEntity
  8
WAKU0
  6
CONTINUOUS
 62
3
100
AcDbLine
 10
472.0000000000000
 20
26.00000000000000
 30
0.0000000000000000
 11
472.0000000000000
 21
23.00000000000000
 31
0.0000000000000000
  0
LINE
  5
35C
100
AcDbEntity
  8
WAKU0
  6
CONTINUOUS
 62
3
100
AcDbLine
 10
448.0000000000000
 20
26.00000000000000
 30
0.0000000000000000
 11
448.0000000000000
 21
23.00000000000000
 31
0.0000000000000000
  0
LINE
  5
35D
100
AcDbEntity
  8
WAKU0
  6
CONTINUOUS
 62
3
100
AcDbLine
 10
424.0000000000000
 20
26.00000000000000
 30
0.0000000000000000
 11
424.0000000000000
 21
23.00000000000000
 31
0.0000000000000000
  0
LINE
  5
35E
100
AcDbEntity
  8
WAKU0
  6
CONTINUOUS
 62
3
100
AcDbLine
 10
430.0000000000000
 20
51.00000000000000
 30
0.0000000000000000
 11
430.0000000000000
 21
37.00000000000000
 31
0.0000000000000000
  0
LINE
  5
35F
100
AcDbEntity
  8
WAKU0
  6
CONTINUOUS
 62
3
100
AcDbLine
 10
412.0000000000000
 20
45.00000000000000
 30
0.0000000000000000
 11
484.0000000000000
 21
45.00000000000000
 31
0.0000000000000000
  0
LINE
  5
360
100
AcDbEntity
  8
WAKU0
  6
HIDDEN
 62
3
100
AcDbLine
 10
532.5000000000000
 20
23.00000000000000
 30
0.0000000000000000
 11
532.5000000000000
 21
12.00000000000000
 31
0.0000000000000000
  0
LINE
  5
361
100
AcDbEntity
  8
WAKU0
  6
HIDDEN
 62
3
100
AcDbLine
 10
544.9000000000000
 20
23.00000000000000
 30
0.0000000000000000
 11
544.9000000000000
 21
12.00000000000000
 31
0.0000000000000000
  0
MTEXT
  5
362
100
AcDbEntity
  8
WAKU0
  6
CONTINUOUS
 62
3
100
AcDbMText
 10
516.4820000243485
 20
49.04999995231628
 30
0.0000000000000000
 40
3.099999904632568
 41
0.0000000000000000
 71
     1
 72
     1
  1
{\H0.93x;{SC-14-103}}
 11
1.000000000000000
 21
0.0000000000000000
 31
0.0000000000000000
  7
STANDARD
  0
MTEXT
  5
363
100
AcDbEntity
  8
WAKU0
  6
CONTINUOUS
 62
3
100
AcDbMText
 10
516.4659999916852
 20
43.50000000000000
 30
0.0000000000000000
 40
3.000000000000000
 41
0.0000000000000000
 71
     1
 72
     1
  1
{\H0.94x;{スクロールチャック　１４\PＳＣＲＯＬＬ　ＣＨＵＣＫ　１４}}
 11
1.000000000000000
 21
0.0000000000000000
 31
0.0000000000000000
  7
KNJYOKO
  0
MTEXT
  5
364
100
AcDbEntity
  8
WAKU0
  6
CONTINUOUS
 62
3
100
AcDbMText
 10
516.4000000059605
 20
34.23333326975504
 30
0.0000000000000000
 40
3.099999904632568
 41
0.0000000000000000
 71
     1
 72
     1
  1
{\H0.71x;{ＳＣ－１４－１０３　ガイケイ\PＳＣ－１４－１０３　ＯＵＴＳＩＤＥ　ＶＩＥＷ}}
 11
1.000000000000000
 21
0.0000000000000000
 31
0.0000000000000000
  7
KNJYOKO
  0
MTEXT
  5
365
100
AcDbEntity
  8
WAKU0
  6
CONTINUOUS
 62
3
100
AcDbMText
 10
490.0049998760223
 20
39.29999995231628
 30
0.0000000000000000
 40
3.099999904632568
 41
0.0000000000000000
 71
     1
 72
     1
  1
{\H0.90x;{2:3}}
 11
1.000000000000000
 21
0.0000000000000000
 31
0.0000000000000000
  7
STANDARD
  0
MTEXT
  5
366
100
AcDbEntity
  8
WAKU0
  6
CONTINUOUS
 62
3
100
AcDbMText
 10
546.4000001549721
 20
20.15000009536743
 30
0.0000000000000000
 40
5.300000190734863
 41
0.0000000000000000
 71
     1
 72
     1
  1
{\H0.90x;{6864}}
 11
1.000000000000000
 21
0.0000000000000000
 31
0.0000000000000000
  7
STANDARD
  0
MTEXT
  5
367
100
AcDbEntity
  8
WAKU0
  6
CONTINUOUS
 62
3
100
AcDbMText
 10
534.3000000834466
 20
20.15000009536743
 30
0.0000000000000000
 40
5.300000190734863
 41
0.0000000000000000
 71
     1
 72
     1
  1
{\H0.87x;{28}}
 11
1.000000000000000
 21
0.0000000000000000
 31
0.0000000000000000
  7
STANDARD
  0
MTEXT
  5
368
100
AcDbEntity
  8
WAKU0
  6
CONTINUOUS
 62
3
100
AcDbMText
 10
517.5000001192093
 20
20.15000009536743
 30
0.0000000000000000
 40
5.300000190734863
 41
0.0000000000000000
 71
     1
 72
     1
  1
{\H0.89x;{61S}}
 11
1.000000000000000
 21
0.0000000000000000
 31
0.0000000000000000
  7
STANDARD
  0
MTEXT
  5
369
100
AcDbEntity
  8
WAKU0
  6
CONTINUOUS
 62
3
100
AcDbMText
 10
572.0000000476837
 20
20.15000009536743
 30
0.0000000000000000
 40
5.300000190734863
 41
0.0000000000000000
 71
     1
 72
     1
  1
{\H0.81x;{1}}
 11
1.000000000000000
 21
0.0000000000000000
 31
0.0000000000000000
  7
STANDARD
  0
MTEXT
  5
36A
100
AcDbEntity
  8
WAKU0
  6
CONTINUOUS
 62
3
100
AcDbMText
 10
572.0000000819564
 20
44.84999990463257
 30
0.0000000000000000
 40
5.300000190734863
 41
0.0000000000000000
 71
     7
 72
     1
  1
{\H0.81x;{ }}
 11
1.000000000000000
 21
0.0000000000000000
 31
0.0000000000000000
  7
STANDARD
  0
MTEXT
  5
36B
100
AcDbEntity
  8
WAKU0
  6
CONTINUOUS
 62
3
100
AcDbMText
 10
461.3850002884865
 20
33.00000000000000
 30
0.0000000000000000
 40
3.000000000000000
 41
0.0000000000000000
 71
     7
 72
     1
  1
{\H0.93x;{DRAWN BY}}
 11
1.000000000000000
 21
0.0000000000000000
 31
0.0000000000000000
  7
STANDARD
  0
MTEXT
  5
36C
100
AcDbEntity
  8
WAKU0
  6
CONTINUOUS
 62
3
100
AcDbMText
 10
441.2149997949600
 20
32.95000004768372
 30
0.0000000000000000
 40
3.099999904632568
 41
0.0000000000000000
 71
     7
 72
     1
  1
{\H0.92x;{CHIEF}}
 11
1.000000000000000
 21
0.0000000000000000
 31
0.0000000000000000
  7
STANDARD
  0
MTEXT
  5
36D
100
AcDbEntity
  8
WAKU0
  6
CONTINUOUS
 62
3
100
AcDbMText
 10
414.4249997138977
 20
32.95000004768372
 30
0.0000000000000000
 40
3.099999904632568
 41
0.0000000000000000
 71
     7
 72
     1
  1
{\H0.92x;{MANAGER}}
 11
1.000000000000000
 21
0.0000000000000000
 31
0.0000000000000000
  7
STANDARD
  0
MTEXT
  5
36E
100
AcDbEntity
  8
WAKU0
  6
CONTINUOUS
 62
3
100
AcDbMText
 10
413.0850002169609
 20
46.50000000000000
 30
0.0000000000000000
 40
3.000000000000000
 41
0.0000000000000000
 71
     7
 72
     1
  1
{\H0.92x;{CAREER}}
 11
1.000000000000000
 21
0.0000000000000000
 31
0.0000000000000000
  7
STANDARD
  0
MTEXT
  5
36F
100
AcDbEntity
  8
WAKU0
  6
CONTINUOUS
 62
3
100
AcDbMText
 10
466.6099998354912
 20
18.95000004768372
 30
0.0000000000000000
 40
3.099999904632568
 41
0.0000000000000000
 71
     7
 72
     1
  1
{\H0.91x;{DATE}}
 11
1.000000000000000
 21
0.0000000000000000
 31
0.0000000000000000
  7
STANDARD
  0
MTEXT
  5
370
100
AcDbEntity
  8
WAKU0
  6
CONTINUOUS
 62
3
100
AcDbMText
 10
485.9000002145767
 20
26.50000000000000
 30
0.0000000000000000
 40
3.000000000000000
 41
0.0000000000000000
 71
     7
 72
     1
  1
{\H0.63x;{3RD ANGLE}}
 11
1.000000000000000
 21
0.0000000000000000
 31
0.0000000000000000
  7
STANDARD
  0
MTEXT
  5
371
100
AcDbEntity
  8
WAKU0
  6
CONTINUOUS
 62
3
100
AcDbMText
 10
487.2149997949600
 20
45.95000004768372
 30
0.0000000000000000
 40
3.099999904632568
 41
0.0000000000000000
 71
     7
 72
     1
  1
{\H0.92x;{SCALE}}
 11
1.000000000000000
 21
0.0000000000000000
 31
0.0000000000000000
  7
STANDARD
  0
MTEXT
  5
372
100
AcDbEntity
  8
WAKU0
  6
CONTINUOUS
 62
3
100
AcDbMText
 10
577.7000000476837
 20
46.00000000000000
 30
0.0000000000000000
 40
3.000000000000000
 41
0.0000000000000000
 71
     7
 72
     1
  1
{\H0.63x;{kg}}
 11
1.000000000000000
 21
0.0000000000000000
 31
0.0000000000000000
  7
STANDARD
  0
MTEXT
  5
373
100
AcDbEntity
  8
WAKU0
  6
CONTINUOUS
 62
3
100
AcDbMText
 10
547.6000001430512
 20
46.00000000000000
 30
0.0000000000000000
 40
3.000000000000000
 41
0.0000000000000000
 71
     7
 72
     1
  1
{\H0.63x;{WEIGHT}}
 11
1.000000000000000
 21
0.0000000000000000
 31
0.0000000000000000
  7
STANDARD
  0
MTEXT
  5
374
100
AcDbEntity
  8
WAKU0
  6
CONTINUOUS
 62
3
100
AcDbMText
 10
506.0049998760223
 20
18.13333336512248
 30
0.0000000000000000
 40
3.099999904632568
 41
0.0000000000000000
 71
     7
 72
     1
  1
{\H0.90x;{DRW\PNO.}}
 11
1.000000000000000
 21
0.0000000000000000
 31
0.0000000000000000
  7
STANDARD
  0
MTEXT
  5
375
100
AcDbEntity
  8
WAKU0
  6
CONTINUOUS
 62
3
100
AcDbMText
 10
504.6099998354912
 20
31.95000004768372
 30
0.0000000000000000
 40
3.099999904632568
 41
0.0000000000000000
 71
     7
 72
     1
  1
{\H0.91x;{NAME}}
 11
1.000000000000000
 21
0.0000000000000000
 31
0.0000000000000000
  7
STANDARD
  0
MTEXT
  5
376
100
AcDbEntity
  8
WAKU0
  6
CONTINUOUS
 62
3
100
AcDbMText
 10
504.6099998354912
 20
45.95000004768372
 30
0.0000000000000000
 40
3.099999904632568
 41
0.0000000000000000
 71
     7
 72
     1
  1
{\H0.91x;{TYPE}}
 11
1.000000000000000
 21
0.0000000000000000
 31
0.0000000000000000
  7
STANDARD
  0
LINE
  5
377
100
AcDbEntity
  8
WAKU0
  6
HIDDEN
 62
3
100
AcDbLine
 10
579.1599564743885
 20
13.84999990463257
 30
0.0000000000000000
 11
568.9400436209789
 21
13.84999990463257
 31
0.0000000000000000
  0
LINE
  5
378
100
AcDbEntity
  8
WAKU0
  6
HIDDEN
 62
3
100
AcDbLine
 10
579.1599564743885
 20
13.84999990463250
 30
0.0000000000000000
 11
574.0500000476851
 21
22.70070406014901
 31
0.0000000000000000
  0
LINE
  5
379
100
AcDbEntity
  8
WAKU0
  6
HIDDEN
 62
3
100
AcDbLine
 10
574.0500000476851
 20
22.70070406014902
 30
0.0000000000000000
 11
568.9400436209789
 21
13.84999990463248
 31
0.0000000000000000
  0
MTEXT
  5
37A
100
AcDbEntity
  8
WAKU0
  6
CONTINUOUS
 62
3
100
AcDbMText
 10
419.0000009614873
 20
20.63471521698214
 30
0.0000000000000000
 40
3.140094041824341
 41
0.0000000000000000
 71
     1
 72
     1
  1
{\H0.83x;{Ｋｉｔａｇａｗａ\PＣｏｒｐｏｒａｔｉｏｎ}}
 11
1.000000000000000
 21
0.0000000000000000
 31
0.0000000000000000
  7
KNJYOKO
  0
LINE
  5
37B
100
AcDbEntity
  8
WAKU0
  6
CONTINUOUS
 62
3
100
AcDbLine
 10
502.4713877753800
 20
15.78041421262812
 30
0.0000000000000000
 11
502.4713877753800
 21
21.78041421262815
 31
0.0000000000000000
  0
LINE
  5
37C
100
AcDbEntity
  8
WAKU0
  6
CONTINUOUS
 62
3
100
AcDbLine
 10
495.9336941228225
 20
17.28041421262811
 30
0.0000000000000000
 11
495.9336941228225
 21
20.28041421262824
 31
0.0000000000000000
  0
LINE
  5
37D
100
AcDbEntity
  8
WAKU0
  6
CENTER
 62
12
100
AcDbLine
 10
485.4321805514995
 20
18.78041421262813
 30
0.0000000000000000
 11
503.2765788964694
 21
18.78041421262813
 31
0.0000000000000000
  0
LINE
  5
37E
100
AcDbEntity
  8
WAKU0
  6
CENTER
 62
12
100
AcDbLine
 10
489.4474565857986
 20
14.55921662918448
 30
0.0000000000000000
 11
489.4474565857986
 21
22.89865102149943
 31
0.0000000000000000
  0
LINE
  5
37F
100
AcDbEntity
  8
WAKU0
  6
CONTINUOUS
 62
3
100
AcDbLine
 10
495.9336941228225
 20
20.28041421262797
 30
0.0000000000000000
 11
502.4713877753800
 21
21.78041421262795
 31
0.0000000000000000
  0
LINE
  5
380
100
AcDbEntity
  8
WAKU0
  6
CONTINUOUS
 62
3
100
AcDbLine
 10
495.9336941228225
 20
17.28041421262811
 30
0.0000000000000000
 11
502.4713877753799
 21
15.78041421262812
 31
0.0000000000000000
  0
CIRCLE
  5
381
100
AcDbEntity
  8
WAKU0
  6
CONTINUOUS
 62
3
100
AcDbCircle
 10
489.4474565857986
 20
18.78041421262813
 30
0.0000000000000000
 40
1.499999999999972
  0
CIRCLE
  5
382
100
AcDbEntity
  8
WAKU0
  6
CONTINUOUS
 62
3
100
AcDbCircle
 10
489.4474565857986
 20
18.78041421262813
 30
0.0000000000000000
 40
2.999999999999979
  0
ENDSEC
  0
SECTION
  2
OBJECTS
  0
DICTIONARY
  5
3C6
100
AcDbDictionary
  3
ACAD_GROUP
350
3C7
  3
ACAD_MLINESTYLE
350
3C8
  3
DWGPROPS
350
3C9
  0
DICTIONARY
  5
3C7
102
{ACAD_REACTORS
330
3C6
102
}
100
AcDbDictionary
  0
DICTIONARY
  5
3C8
102
{ACAD_REACTORS
330
3C6
102
}
100
AcDbDictionary
  3
STANDARD
350
3CA
  0
MLINESTYLE
  5
3CA
102
{ACAD_REACTORS
330
3C8
102
}
100
AcDbMlineStyle
  2
STANDARD
 70
     0
  3

 62
   256
 51
90.00
 52
90.00
 71
     2
 49
0.50
 62
   256
  6
BYLAYER
 49
-0.50
 62
   256
  6
BYLAYER
  0
XRECORD
  5
3C9
102
{ACAD_REACTORS
330
3C6
102
}
100
AcDbXrecord
280
     1
  1
DWGPROPS COOKIE
  2
ＳＣ－１４－１０３　クミタテ
  3

  4

  6
スクロールチャック　１４
  7

  8

  9

300
=
301
=
302
=
303
=
304
=
305
=
306
=
307
=
308
=
309
=
 40
0.000000
 41
0.000000
 42
0.000000
  1

 90
        0
  0
ENDSEC
  0
EOF
