  0
SECTION
  2
HEADER
  9
$ACADVER
  1
AC1014
  9
$DWGCODEPAGE
  3
ANSI_932
  9
$LTSCALE
 40
20.0
  9
$FILLMODE
 70
     1
  9
$CLAYER
  8
0
  9
$PDMODE
 70
     0
  9
$SPLFRAME
 70
     0
  9
$SPLINETYPE
 70
     6
  9
$SPLINESEGS
 70
     8
  9
$DIMASZ
 40
2.000000
  9
$DIMEXE
 40
2.000000
  9
$DIMEXO
 40
0.800000
  9
$DIMTAD
 70
     1
  9
$DIMTIH
 70
     0
  9
$DIMTOH
 70
     0
  9
$DIMTVP
 40
0.500000
  9
$DIMTXT
 40
3.100000
  9
$EXTMIN
 10
0.000000
 20
0.000000
 30
0.000000
  9
$EXTMAX
 10
297.000000
 20
420.000000
 30
0.000000
  9
$MEASUREMENT
 70
  1
  9
$LIMMIN
 10
0.000000
 20
0.000000
  9
$LIMMAX
 10
297.000000
 20
420.000000
  9
$HANDLING
 70
     1
  9
$HANDSEED
  5
33B
  9
$DIMBLK
  1
_OPEN
  9
$DIMDEC
 70
     3
  9
$DIMAUNIT
 70
     1
  9
$DIMZIN
 70
     8
  9
$DIMTOFL
 70
     1
  0
ENDSEC
  0
SECTION
  2
CLASSES
  0
ENDSEC
  0
SECTION
  2
TABLES
  0
TABLE
  2
VPORT
  5
2E8
100
AcDbSymbolTable
 70
     1
  0
VPORT
  5
2E9
100
AcDbSymbolTableRecord
100
AcDbViewportTableRecord
  2
*ACTIVE
 70
     0
 12
290.099831
 22
206.275555
 40
412.551110
 41
1.406370
  0
ENDTAB
  0
TABLE
  2
LTYPE
  5
2EA
100
AcDbSymbolTable
 70
     4
  0
LTYPE
  5
2EB
100
AcDbSymbolTableRecord
100
AcDbLinetypeTableRecord
  2
BYBLOCK
 70
     0
  3

 72
    65
 73
     0
 40
0.0
  0
LTYPE
  5
2EC
100
AcDbSymbolTableRecord
100
AcDbLinetypeTableRecord
  2
BYLAYER
 70
     0
  3

 72
    65
 73
     0
 40
0.0
  0
LTYPE
  5
2ED
100
AcDbSymbolTableRecord
100
AcDbLinetypeTableRecord
  2
CONTINUOUS
 70
     0
  3
Solid line (NEC CAE2D for Win R12.1 : 2019.02.25)
 72
    65
 73
     0
 40
0.0
  0
LTYPE
  5
2EE
100
AcDbSymbolTableRecord
100
AcDbLinetypeTableRecord
  2
HIDDEN
 70
     0
  3
__ __ __ __ __ __ __ __ __ __ __ __ __ __
 72
    65
 73
     2
 40
0.375
 49
0.25
 74
     0
 49
-0.125
 74
     0
  0
LTYPE
  5
2EF
100
AcDbSymbolTableRecord
100
AcDbLinetypeTableRecord
  2
CENTER
 70
     0
  3
____ _ ____ _ ____ _ ____ _ ____ _ ____
 72
    65
 73
     4
 40
2.0
 49
1.25
 74
     0
 49
-0.25
 74
     0
 49
0.25
 74
     0
 49
-0.25
 74
     0
  0
LTYPE
  5
2F0
100
AcDbSymbolTableRecord
100
AcDbLinetypeTableRecord
  2
PHANTOM
 70
     0
  3
______  __  __  ______  __  __  ______ 
 72
    65
 73
     6
 40
2.5
 49
1.25
 74
     0
 49
-0.25
 74
     0
 49
0.25
 74
     0
 49
-0.25
 74
     0
 49
0.25
 74
     0
 49
-0.25
 74
     0
  0
ENDTAB
  0
TABLE
  2
LAYER
  5
2F1
100
AcDbSymbolTable
 70
    19
  0
LAYER
  5
2F2
100
AcDbSymbolTableRecord
100
AcDbLayerTableRecord
  2
0
 70
     0
 62
     7
  6
CONTINUOUS
  0
LAYER
  5
2F3
100
AcDbSymbolTableRecord
100
AcDbLayerTableRecord
  2
MAIN0
 70
     0
 62
     7
  6
CONTINUOUS
  0
LAYER
  5
2F4
100
AcDbSymbolTableRecord
100
AcDbLayerTableRecord
  2
MAIN1
 70
     0
 62
     7
  6
CONTINUOUS
  0
LAYER
  5
2F5
100
AcDbSymbolTableRecord
100
AcDbLayerTableRecord
  2
MAIN2
 70
     0
 62
     7
  6
CONTINUOUS
  0
LAYER
  5
2F6
100
AcDbSymbolTableRecord
100
AcDbLayerTableRecord
  2
MAIN3
 70
     0
 62
     7
  6
CONTINUOUS
  0
LAYER
  5
2F7
100
AcDbSymbolTableRecord
100
AcDbLayerTableRecord
  2
MAIN4
 70
     0
 62
     7
  6
CONTINUOUS
  0
LAYER
  5
2F8
100
AcDbSymbolTableRecord
100
AcDbLayerTableRecord
  2
MAIN5
 70
     0
 62
     7
  6
CONTINUOUS
  0
LAYER
  5
2F9
100
AcDbSymbolTableRecord
100
AcDbLayerTableRecord
  2
MAIN6
 70
     0
 62
     7
  6
CONTINUOUS
  0
LAYER
  5
2FA
100
AcDbSymbolTableRecord
100
AcDbLayerTableRecord
  2
MAIN7
 70
     0
 62
     7
  6
CONTINUOUS
  0
LAYER
  5
2FB
100
AcDbSymbolTableRecord
100
AcDbLayerTableRecord
  2
MAIN1023
 70
     0
 62
    16
  6
CONTINUOUS
  0
LAYER
  5
2FC
100
AcDbSymbolTableRecord
100
AcDbLayerTableRecord
  2
H0
 70
     0
 62
     7
  6
CONTINUOUS
  0
LAYER
  5
2FD
100
AcDbSymbolTableRecord
100
AcDbLayerTableRecord
  2
H1023
 70
     0
 62
    16
  6
CONTINUOUS
  0
LAYER
  5
2FE
100
AcDbSymbolTableRecord
100
AcDbLayerTableRecord
  2
A0
 70
     0
 62
     7
  6
CONTINUOUS
  0
LAYER
  5
2FF
100
AcDbSymbolTableRecord
100
AcDbLayerTableRecord
  2
A1
 70
     0
 62
     7
  6
CONTINUOUS
  0
LAYER
  5
300
100
AcDbSymbolTableRecord
100
AcDbLayerTableRecord
  2
A2
 70
     0
 62
     7
  6
CONTINUOUS
  0
LAYER
  5
301
100
AcDbSymbolTableRecord
100
AcDbLayerTableRecord
  2
A7
 70
     0
 62
     7
  6
CONTINUOUS
  0
LAYER
  5
302
100
AcDbSymbolTableRecord
100
AcDbLayerTableRecord
  2
A1023
 70
     0
 62
    16
  6
CONTINUOUS
  0
LAYER
  5
303
100
AcDbSymbolTableRecord
100
AcDbLayerTableRecord
  2
WAKU0
 70
     0
 62
     7
  6
CONTINUOUS
  0
LAYER
  5
304
100
AcDbSymbolTableRecord
100
AcDbLayerTableRecord
  2
WAKU1023
 70
     0
 62
    16
  6
CONTINUOUS
  0
ENDTAB
  0
TABLE
  2
STYLE
  5
305
100
AcDbSymbolTable
 70
     4
  0
STYLE
  5
306
100
AcDbSymbolTableRecord
100
AcDbTextStyleTableRecord
  2
STANDARD
 70
    64
 40
0.0
 41
1.0
 50
0.0
 71
     0
 42
3.140094041824341
  3
TXT
  4

  0
STYLE
  5
307
100
AcDbSymbolTableRecord
100
AcDbTextStyleTableRecord
  2
ANKTATE
 70
    68
 40
0.0
 41
1.0
 50
0.0
 71
     0
 42
3.140094041824341
  3
TXT
  4

  0
STYLE
  5
A4
100
AcDbSymbolTableRecord
100
AcDbTextStyleTableRecord
  2
KNJYOKO
 70
    64
 40
0.0
 41
1.0
 50
0.0
 71
     0
 42
3.140094041824341
  3
TXT
  4
BIGFONT
  0
STYLE
  5
308
100
AcDbSymbolTableRecord
100
AcDbTextStyleTableRecord
  2
KNJTATE
 70
    68
 40
0.0
 41
1.0
 50
0.0
 71
     0
 42
3.140094041824341
  3
TXT
  4
BIGFONT
  0
ENDTAB
  0
TABLE
  2
VIEW
  5
309
100
AcDbSymbolTable
 70
     0
  0
ENDTAB
  0
TABLE
  2
UCS
  5
30A
100
AcDbSymbolTable
 70
     0
  0
ENDTAB
  0
TABLE
  2
APPID
  5
30B
100
AcDbSymbolTable
 70
     1
  0
APPID
  5
30C
100
AcDbSymbolTableRecord
100
AcDbRegAppTableRecord
  2
ACAD
 70
     0
  0
ENDTAB
  0
TABLE
  2
DIMSTYLE
  5
30D
100
AcDbSymbolTable
 70
     1
  0
DIMSTYLE
105
30E
100
AcDbSymbolTableRecord
100
AcDbDimStyleTableRecord
  2
STANDARD
 70
     0
 41
2.000000
 44
2.000000
 42
0.800000
145
0.661290
140
3.100000
144
1.000000
146
0.903226
340
306
  0
DIMSTYLE
105
30F
100
AcDbSymbolTableRecord
100
AcDbDimStyleTableRecord
  2
MAIN001
 70
     0
 41
3.000000
 44
3.000000
 42
1.200000
145
0.607527
140
4.650000
144
1.000000
146
0.903226
 77
     1
 73
     0
 74
     0
271
     3
275
     1
 78
     8
172
     1
340
306
  0
DIMSTYLE
105
310
100
AcDbSymbolTableRecord
100
AcDbDimStyleTableRecord
  2
H002
 70
     0
 41
3.000000
 44
3.000000
 42
1.200000
145
0.607527
140
4.650000
144
1.000000
146
0.903226
 77
     1
 73
     0
 74
     0
271
     3
275
     1
 78
     8
172
     1
340
306
  0
DIMSTYLE
105
311
100
AcDbSymbolTableRecord
100
AcDbDimStyleTableRecord
  2
A003
 70
     0
 41
3.000000
 44
3.000000
 42
1.200000
145
0.607527
140
4.650000
144
1.000000
146
0.903226
 77
     1
 73
     0
 74
     0
271
     3
275
     1
 78
     8
172
     1
340
306
  0
DIMSTYLE
105
312
100
AcDbSymbolTableRecord
100
AcDbDimStyleTableRecord
  2
WAKU004
 70
     0
 41
2.000000
 44
2.000000
 42
0.800000
145
0.661290
140
3.100000
144
1.000000
146
0.903226
 77
     1
 73
     0
 74
     0
271
     3
275
     1
 78
     8
172
     1
340
306
  0
ENDTAB
  0
TABLE
  2
BLOCK_RECORD
  5
313
100
AcDbSymbolTable
 70
    40
  0
BLOCK_RECORD
  5
314
100
AcDbSymbolTableRecord
100
AcDbBlockTableRecord
  2
*MODEL_SPACE
  0
BLOCK_RECORD
  5
315
100
AcDbSymbolTableRecord
100
AcDbBlockTableRecord
  2
*PAPER_SPACE
  0
BLOCK_RECORD
  5
1
100
AcDbSymbolTableRecord
100
AcDbBlockTableRecord
  2
_NONE
  0
BLOCK_RECORD
  5
4
100
AcDbSymbolTableRecord
100
AcDbBlockTableRecord
  2
_CLOSED
  0
BLOCK_RECORD
  5
B
100
AcDbSymbolTableRecord
100
AcDbBlockTableRecord
  2
_DOT
  0
BLOCK_RECORD
  5
13
100
AcDbSymbolTableRecord
100
AcDbBlockTableRecord
  2
_OPEN
  0
BLOCK_RECORD
  5
19
100
AcDbSymbolTableRecord
100
AcDbBlockTableRecord
  2
_ORIGIN
  0
BLOCK_RECORD
  5
1E
100
AcDbSymbolTableRecord
100
AcDbBlockTableRecord
  2
_OPEN30
  0
BLOCK_RECORD
  5
24
100
AcDbSymbolTableRecord
100
AcDbBlockTableRecord
  2
_BOXFILLED
  0
BLOCK_RECORD
  5
29
100
AcDbSymbolTableRecord
100
AcDbBlockTableRecord
  2
_BOXBLANK
  0
BLOCK_RECORD
  5
31
100
AcDbSymbolTableRecord
100
AcDbBlockTableRecord
  2
_OBLIQUE
  0
BLOCK_RECORD
  5
35
100
AcDbSymbolTableRecord
100
AcDbBlockTableRecord
  2
_OPEN90
  0
BLOCK_RECORD
  5
3B
100
AcDbSymbolTableRecord
100
AcDbBlockTableRecord
  2
_CLOSEDBLANK
  0
BLOCK_RECORD
  5
41
100
AcDbSymbolTableRecord
100
AcDbBlockTableRecord
  2
_DOTBLANK
  0
BLOCK_RECORD
  5
316
100
AcDbSymbolTableRecord
100
AcDbBlockTableRecord
  2
*D0
  0
BLOCK_RECORD
  5
317
100
AcDbSymbolTableRecord
100
AcDbBlockTableRecord
  2
*D1
  0
BLOCK_RECORD
  5
318
100
AcDbSymbolTableRecord
100
AcDbBlockTableRecord
  2
*D2
  0
BLOCK_RECORD
  5
319
100
AcDbSymbolTableRecord
100
AcDbBlockTableRecord
  2
*D3
  0
BLOCK_RECORD
  5
31A
100
AcDbSymbolTableRecord
100
AcDbBlockTableRecord
  2
*D4
  0
BLOCK_RECORD
  5
31B
100
AcDbSymbolTableRecord
100
AcDbBlockTableRecord
  2
*D5
  0
BLOCK_RECORD
  5
31C
100
AcDbSymbolTableRecord
100
AcDbBlockTableRecord
  2
*D6
  0
BLOCK_RECORD
  5
31D
100
AcDbSymbolTableRecord
100
AcDbBlockTableRecord
  2
*D7
  0
BLOCK_RECORD
  5
31E
100
AcDbSymbolTableRecord
100
AcDbBlockTableRecord
  2
*D8
  0
BLOCK_RECORD
  5
31F
100
AcDbSymbolTableRecord
100
AcDbBlockTableRecord
  2
*D9
  0
BLOCK_RECORD
  5
320
100
AcDbSymbolTableRecord
100
AcDbBlockTableRecord
  2
*D10
  0
BLOCK_RECORD
  5
321
100
AcDbSymbolTableRecord
100
AcDbBlockTableRecord
  2
*D11
  0
BLOCK_RECORD
  5
322
100
AcDbSymbolTableRecord
100
AcDbBlockTableRecord
  2
*D12
  0
BLOCK_RECORD
  5
323
100
AcDbSymbolTableRecord
100
AcDbBlockTableRecord
  2
*D13
  0
BLOCK_RECORD
  5
324
100
AcDbSymbolTableRecord
100
AcDbBlockTableRecord
  2
*D14
  0
BLOCK_RECORD
  5
325
100
AcDbSymbolTableRecord
100
AcDbBlockTableRecord
  2
*D15
  0
BLOCK_RECORD
  5
326
100
AcDbSymbolTableRecord
100
AcDbBlockTableRecord
  2
*D16
  0
BLOCK_RECORD
  5
327
100
AcDbSymbolTableRecord
100
AcDbBlockTableRecord
  2
*D17
  0
BLOCK_RECORD
  5
328
100
AcDbSymbolTableRecord
100
AcDbBlockTableRecord
  2
*D18
  0
BLOCK_RECORD
  5
329
100
AcDbSymbolTableRecord
100
AcDbBlockTableRecord
  2
*D19
  0
BLOCK_RECORD
  5
32A
100
AcDbSymbolTableRecord
100
AcDbBlockTableRecord
  2
*D20
  0
BLOCK_RECORD
  5
32B
100
AcDbSymbolTableRecord
100
AcDbBlockTableRecord
  2
*D21
  0
BLOCK_RECORD
  5
32C
100
AcDbSymbolTableRecord
100
AcDbBlockTableRecord
  2
*D22
  0
BLOCK_RECORD
  5
32D
100
AcDbSymbolTableRecord
100
AcDbBlockTableRecord
  2
*D23
  0
BLOCK_RECORD
  5
32E
100
AcDbSymbolTableRecord
100
AcDbBlockTableRecord
  2
*D24
  0
BLOCK_RECORD
  5
32F
100
AcDbSymbolTableRecord
100
AcDbBlockTableRecord
  2
*D25
  0
BLOCK_RECORD
  5
330
100
AcDbSymbolTableRecord
100
AcDbBlockTableRecord
  2
*D26
  0
BLOCK_RECORD
  5
331
100
AcDbSymbolTableRecord
100
AcDbBlockTableRecord
  2
*D27
  0
ENDTAB
  0
ENDSEC
  0
SECTION
  2
BLOCKS
  0
BLOCK
  5
332
100
AcDbEntity
  8
0
100
AcDbBlockBegin
  2
*MODEL_SPACE
 70
     0
 10
0.0
 20
0.0
 30
0.0
  3
*MODEL_SPACE
  1

  0
ENDBLK
  5
333
100
AcDbEntity
  8
0
100
AcDbBlockEnd
  0
BLOCK
  5
334
100
AcDbEntity
  8
0
100
AcDbBlockBegin
  2
*PAPER_SPACE
 70
     0
 10
0.0
 20
0.0
 30
0.0
  3
*PAPER_SPACE
  1

  0
ENDBLK
  5
335
100
AcDbEntity
  8
0
100
AcDbBlockEnd
  0
BLOCK
  5
2
100
AcDbEntity
  8
0
100
AcDbBlockBegin
  2
_NONE
 70
     0
 10
0.0
 20
0.0
 30
0.0
  3
_NONE
  1

  0
ENDBLK
  5
3
100
AcDbEntity
  8
0
100
AcDbBlockEnd
  0
BLOCK
  5
5
100
AcDbEntity
  8
0
100
AcDbBlockBegin
  2
_CLOSED
 70
     0
 10
0.0
 20
0.0
 30
0.0
  3
_CLOSED
  1

  0
LINE
  5
6
100
AcDbEntity
  8
0
  6
BYBLOCK
 62
     0
100
AcDbLine
 10
-1.0
 20
0.166667
 30
0.0
 11
0.0
 21
0.0
 31
0.0
  0
LINE
  5
7
100
AcDbEntity
  8
0
  6
BYBLOCK
 62
     0
100
AcDbLine
 10
0.0
 20
0.0
 30
0.0
 11
-1.0
 21
-0.166667
 31
0.0
  0
LINE
  5
8
100
AcDbEntity
  8
0
  6
BYBLOCK
 62
     0
100
AcDbLine
 10
-1.0
 20
0.166667
 30
0.0
 11
-1.0
 21
-0.166667
 31
0.0
  0
LINE
  5
9
100
AcDbEntity
  8
0
  6
BYBLOCK
 62
     0
100
AcDbLine
 10
0.0
 20
0.0
 30
0.0
 11
-1.0
 21
0.0
 31
0.0
  0
ENDBLK
  5
A
100
AcDbEntity
  8
0
100
AcDbBlockEnd
  0
BLOCK
  5
C
100
AcDbEntity
  8
0
100
AcDbBlockBegin
  2
_DOT
 70
     0
 10
0.0
 20
0.0
 30
0.0
  3
_DOT
  1

  0
POLYLINE
  5
D
100
AcDbEntity
  8
0
  6
BYBLOCK
 62
     0
100
AcDb2dPolyline
 66
     1
 10
0.0
 20
0.0
 30
0.0
 70
     1
 40
0.5
 41
0.5
  0
VERTEX
  5
E
100
AcDbEntity
  8
0
  6
BYBLOCK
 62
     0
100
AcDbVertex
100
AcDb2dVertex
 10
-0.25
 20
0.0
 30
0.0
 42
1.0
  0
VERTEX
  5
F
100
AcDbEntity
  8
0
  6
BYBLOCK
 62
     0
100
AcDbVertex
100
AcDb2dVertex
 10
0.25
 20
0.0
 30
0.0
 42
1.0
  0
SEQEND
  5
10
100
AcDbEntity
  8
0
  6
BYBLOCK
 62
     0
  0
LINE
  5
11
100
AcDbEntity
  8
0
  6
BYBLOCK
 62
     0
100
AcDbLine
 10
-0.5
 20
0.0
 30
0.0
 11
-1.0
 21
0.0
 31
0.0
  0
ENDBLK
  5
12
100
AcDbEntity
  8
0
100
AcDbBlockEnd
  0
BLOCK
  5
14
100
AcDbEntity
  8
0
100
AcDbBlockBegin
  2
_OPEN
 70
     0
 10
0.0
 20
0.0
 30
0.0
  3
_OPEN
  1

  0
LINE
  5
15
100
AcDbEntity
  8
0
  6
BYBLOCK
 62
     0
100
AcDbLine
 10
-1.0
 20
0.166667
 30
0.0
 11
0.0
 21
0.0
 31
0.0
  0
LINE
  5
16
100
AcDbEntity
  8
0
  6
BYBLOCK
 62
     0
100
AcDbLine
 10
0.0
 20
0.0
 30
0.0
 11
-1.0
 21
-0.166667
 31
0.0
  0
LINE
  5
17
100
AcDbEntity
  8
0
  6
BYBLOCK
 62
     0
100
AcDbLine
 10
0.0
 20
0.0
 30
0.0
 11
-1.0
 21
0.0
 31
0.0
  0
ENDBLK
  5
18
100
AcDbEntity
  8
0
100
AcDbBlockEnd
  0
BLOCK
  5
1A
100
AcDbEntity
  8
0
100
AcDbBlockBegin
  2
_ORIGIN
 70
     0
 10
0.0
 20
0.0
 30
0.0
  3
_ORIGIN
  1

  0
CIRCLE
  5
1B
100
AcDbEntity
  8
0
  6
BYBLOCK
 62
     0
100
AcDbCircle
 10
0.0
 20
0.0
 30
0.0
 40
0.5
  0
LINE
  5
1C
100
AcDbEntity
  8
0
  6
BYBLOCK
 62
     0
100
AcDbLine
 10
0.0
 20
0.0
 30
0.0
 11
-1.0
 21
0.0
 31
0.0
  0
ENDBLK
  5
1D
100
AcDbEntity
  8
0
100
AcDbBlockEnd
  0
BLOCK
  5
1F
100
AcDbEntity
  8
0
100
AcDbBlockBegin
  2
_OPEN30
 70
     0
 10
0.0
 20
0.0
 30
0.0
  3
_OPEN30
  1

  0
LINE
  5
20
100
AcDbEntity
  8
0
  6
BYBLOCK
 62
     0
100
AcDbLine
 10
-1.0
 20
0.267949
 30
0.0
 11
0.0
 21
0.0
 31
0.0
  0
LINE
  5
21
100
AcDbEntity
  8
0
  6
BYBLOCK
 62
     0
100
AcDbLine
 10
0.0
 20
0.0
 30
0.0
 11
-1.0
 21
-0.267949
 31
0.0
  0
LINE
  5
22
100
AcDbEntity
  8
0
  6
BYBLOCK
 62
     0
100
AcDbLine
 10
0.0
 20
0.0
 30
0.0
 11
-1.0
 21
0.0
 31
0.0
  0
ENDBLK
  5
23
100
AcDbEntity
  8
0
100
AcDbBlockEnd
  0
BLOCK
  5
25
100
AcDbEntity
  8
0
100
AcDbBlockBegin
  2
_BOXFILLED
 70
     0
 10
0.0
 20
0.0
 30
0.0
  3
_BOXFILLED
  1

  0
SOLID
  5
26
100
AcDbEntity
  8
0
  6
BYBLOCK
 62
     0
100
AcDbTrace
 10
-0.5
 20
0.5
 30
0.0
 11
0.5
 21
0.5
 31
0.0
 12
-0.5
 22
-0.5
 32
0.0
 13
0.5
 23
-0.5
 33
0.0
  0
LINE
  5
27
100
AcDbEntity
  8
0
  6
BYBLOCK
 62
     0
100
AcDbLine
 10
-0.5
 20
0.0
 30
0.0
 11
-1.0
 21
0.0
 31
0.0
  0
ENDBLK
  5
28
100
AcDbEntity
  8
0
100
AcDbBlockEnd
  0
BLOCK
  5
2A
100
AcDbEntity
  8
0
100
AcDbBlockBegin
  2
_BOXBLANK
 70
     0
 10
0.0
 20
0.0
 30
0.0
  3
_BOXBLANK
  1

  0
LINE
  5
2B
100
AcDbEntity
  8
0
  6
BYBLOCK
 62
     0
100
AcDbLine
 10
-0.5
 20
-0.5
 30
0.0
 11
0.5
 21
-0.5
 31
0.0
  0
LINE
  5
2C
100
AcDbEntity
  8
0
  6
BYBLOCK
 62
     0
100
AcDbLine
 10
0.5
 20
-0.5
 30
0.0
 11
0.5
 21
0.5
 31
0.0
  0
LINE
  5
2D
100
AcDbEntity
  8
0
  6
BYBLOCK
 62
     0
100
AcDbLine
 10
0.5
 20
0.5
 30
0.0
 11
-0.5
 21
0.5
 31
0.0
  0
LINE
  5
2E
100
AcDbEntity
  8
0
  6
BYBLOCK
 62
     0
100
AcDbLine
 10
-0.5
 20
0.5
 30
0.0
 11
-0.5
 21
-0.5
 31
0.0
  0
LINE
  5
2F
100
AcDbEntity
  8
0
  6
BYBLOCK
 62
     0
100
AcDbLine
 10
-0.5
 20
0.0
 30
0.0
 11
-1.0
 21
0.0
 31
0.0
  0
ENDBLK
  5
30
100
AcDbEntity
  8
0
100
AcDbBlockEnd
  0
BLOCK
  5
32
100
AcDbEntity
  8
0
100
AcDbBlockBegin
  2
_OBLIQUE
 70
     0
 10
0.0
 20
0.0
 30
0.0
  3
_OBLIQUE
  1

  0
LINE
  5
33
100
AcDbEntity
  8
0
  6
BYBLOCK
 62
     0
100
AcDbLine
 10
-0.5
 20
-0.5
 30
0.0
 11
0.5
 21
0.5
 31
0.0
  0
ENDBLK
  5
34
100
AcDbEntity
  8
0
100
AcDbBlockEnd
  0
BLOCK
  5
36
100
AcDbEntity
  8
0
100
AcDbBlockBegin
  2
_OPEN90
 70
     0
 10
0.0
 20
0.0
 30
0.0
  3
_OPEN90
  1

  0
LINE
  5
37
100
AcDbEntity
  8
0
  6
BYBLOCK
 62
     0
100
AcDbLine
 10
-0.5
 20
0.5
 30
0.0
 11
0.0
 21
0.0
 31
0.0
  0
LINE
  5
38
100
AcDbEntity
  8
0
  6
BYBLOCK
 62
     0
100
AcDbLine
 10
0.0
 20
0.0
 30
0.0
 11
-0.5
 21
-0.5
 31
0.0
  0
LINE
  5
39
100
AcDbEntity
  8
0
  6
BYBLOCK
 62
     0
100
AcDbLine
 10
0.0
 20
0.0
 30
0.0
 11
-1.0
 21
0.0
 31
0.0
  0
ENDBLK
  5
3A
100
AcDbEntity
  8
0
100
AcDbBlockEnd
  0
BLOCK
  5
3C
100
AcDbEntity
  8
0
100
AcDbBlockBegin
  2
_CLOSEDBLANK
 70
     0
 10
0.0
 20
0.0
 30
0.0
  3
_CLOSEDBLANK
  1

  0
LINE
  5
3D
100
AcDbEntity
  8
0
  6
BYBLOCK
 62
     0
100
AcDbLine
 10
-1.0
 20
0.1666666666666666
 30
0.0
 11
0.0
 21
0.0
 31
0.0
  0
LINE
  5
3E
100
AcDbEntity
  8
0
  6
BYBLOCK
 62
     0
100
AcDbLine
 10
0.0
 20
0.0
 30
0.0
 11
-1.0
 21
-0.1666666666666666
 31
0.0
  0
LINE
  5
3F
100
AcDbEntity
  8
0
  6
BYBLOCK
 62
     0
100
AcDbLine
 10
-1.0
 20
0.1666666666666666
 30
0.0
 11
-1.0
 21
-0.1666666666666666
 31
0.0
  0
ENDBLK
  5
40
100
AcDbEntity
  8
0
100
AcDbBlockEnd
  0
BLOCK
  5
42
100
AcDbEntity
  8
0
100
AcDbBlockBegin
  2
_DOTBLANK
 70
     0
 10
0.0
 20
0.0
 30
0.0
  3
_DOTBLANK
  1

  0
CIRCLE
  5
43
100
AcDbEntity
  8
0
  6
BYBLOCK
 62
     0
100
AcDbCircle
 10
0.0
 20
0.0
 30
0.0
 40
0.5
  0
LINE
  5
44
100
AcDbEntity
  8
0
  6
BYBLOCK
 62
     0
100
AcDbLine
 10
-0.5
 20
0.0
 30
0.0
 11
-1.0
 21
0.0
 31
0.0
  0
ENDBLK
  5
45
100
AcDbEntity
  8
0
100
AcDbBlockEnd
  0
BLOCK
  5
9A
100
AcDbEntity
  8
MAIN0
  6
CONTINUOUS
 62
3
100
AcDbBlockBegin
  2
*D0
 70
    65
 10
0.0
 20
0.0
 30
0.0
  0
LINE
  5
9B
100
AcDbEntity
  8
MAIN0
  6
BYBLOCK
 62
0
100
AcDbLine
 10
144.4832708460207
 20
398.4066312142122
 30
0.0000000000000000
 11
154.0349773017738
 21
388.8549247584531
 31
0.0000000000000000
  0
LINE
  5
9C
100
AcDbEntity
  8
MAIN0
  6
BYBLOCK
 62
0
100
AcDbLine
 10
149.7923366146539
 20
388.8549247584551
 30
0.0000000000000000
 11
146.9639094899050
 21
386.0264976337095
 31
0.0000000000000000
  0
INSERT
  5
9D
100
AcDbEntity
  8
MAIN0
  6
BYBLOCK
 62
0
100
AcDbBlockReference
  2
_OPEN
 10
151.9136569582148
 20
390.9762451020134
 30
0.0000000000000000
 41
3.000000000000000
 42
3.000000000000000
 43
3.000000000000000
 50
44.99999999996601
  0
INSERT
  5
9E
100
AcDbEntity
  8
MAIN0
  6
BYBLOCK
 62
0
100
AcDbBlockReference
  2
_OPEN
 10
144.8425891463440
 20
383.9051772901511
 30
0.0000000000000000
 41
3.000000000000000
 42
3.000000000000000
 43
3.000000000000000
 50
224.9999999999660
  0
LINE
  5
9F
100
AcDbEntity
  8
MAIN0
  6
BYBLOCK
 62
0
100
AcDbLine
 10
151.9136569582148
 20
390.9762451020134
 30
0.0000000000000000
 11
168.4592254367396
 21
407.5218135805185
 31
0.0000000000000000
  0
LINE
  5
A0
100
AcDbEntity
  8
MAIN0
  6
BYBLOCK
 62
0
100
AcDbLine
 10
137.4122030341599
 20
391.3355634023441
 30
0.0000000000000000
 11
146.9639094899024
 21
381.7838569465902
 31
0.0000000000000000
  0
MTEXT
  5
A1
100
AcDbEntity
  8
MAIN0
  6
BYBLOCK
 62
0
100
AcDbMText
 10
159.7883284980609
 20
403.1996232449925
 30
0.0000000000000000
 40
4.649999856948853
 41
0.0000000000000000
 71
     5
 72
     1
  1
\A1;10\H0.903226x;\S＋0.15^ ＋0.05;
 11
0.7071067811869687
 21
0.7071067811861264
 31
0.0000000000000000
  7
KNJYOKO
  0
ENDBLK
  5
A2
100
AcDbEntity
  8
MAIN0
  6
CONTINUOUS
 62
3
100
AcDbBlockEnd
  0
BLOCK
  5
BB
100
AcDbEntity
  8
MAIN0
  6
CONTINUOUS
 62
3
100
AcDbBlockBegin
  2
*D1
 70
    65
 10
0.0
 20
0.0
 30
0.0
  0
LINE
  5
BC
100
AcDbEntity
  8
MAIN0
  6
BYBLOCK
 62
0
100
AcDbLine
 10
206.3073448404027
 20
272.8533825484250
 30
0.0000000000000000
 11
225.0162281561407
 21
272.8533825484250
 31
0.0000000000000000
  0
LINE
  5
BD
100
AcDbEntity
  8
MAIN0
  6
BYBLOCK
 62
0
100
AcDbLine
 10
222.0162281561407
 20
269.8533825484250
 30
0.0000000000000000
 11
222.0162281561407
 21
255.3533825484250
 31
0.0000000000000000
  0
INSERT
  5
BE
100
AcDbEntity
  8
MAIN0
  6
BYBLOCK
 62
0
100
AcDbBlockReference
  2
_OPEN
 10
222.0162281561407
 20
272.8533825484250
 30
0.0000000000000000
 41
3.000000000000000
 42
3.000000000000000
 43
3.000000000000000
 50
90.00000000000000
  0
INSERT
  5
BF
100
AcDbEntity
  8
MAIN0
  6
BYBLOCK
 62
0
100
AcDbBlockReference
  2
_OPEN
 10
222.0162281561407
 20
252.3533825484250
 30
0.0000000000000000
 41
3.000000000000000
 42
3.000000000000000
 43
3.000000000000000
 50
270.0000000000000
  0
LINE
  5
C0
100
AcDbEntity
  8
MAIN0
  6
BYBLOCK
 62
0
100
AcDbLine
 10
206.3073448404027
 20
252.3533825484250
 30
0.0000000000000000
 11
225.0162281561407
 21
252.3533825484250
 31
0.0000000000000000
  0
MTEXT
  5
C1
100
AcDbEntity
  8
MAIN0
  6
BYBLOCK
 62
0
100
AcDbMText
 10
219.1912282276662
 20
262.6033825484250
 30
0.0000000000000000
 40
4.649999856948853
 41
0.0000000000000000
 71
     5
 72
     1
  1
\A1;20.5
 11
6.123233995736766e-017
 21
1.000000000000000
 31
0.0000000000000000
  7
STANDARD
  0
ENDBLK
  5
C2
100
AcDbEntity
  8
MAIN0
  6
CONTINUOUS
 62
3
100
AcDbBlockEnd
  0
BLOCK
  5
C4
100
AcDbEntity
  8
MAIN0
  6
CONTINUOUS
 62
3
100
AcDbBlockBegin
  2
*D2
 70
    65
 10
0.0
 20
0.0
 30
0.0
  0
LINE
  5
C5
100
AcDbEntity
  8
MAIN0
  6
BYBLOCK
 62
0
100
AcDbLine
 10
205.1073448225213
 20
276.8033825663064
 30
0.0000000000000000
 11
205.1073448225213
 21
290.6033825484250
 31
0.0000000000000000
  0
LINE
  5
C6
100
AcDbEntity
  8
MAIN0
  6
BYBLOCK
 62
0
100
AcDbLine
 10
202.1073448225213
 20
287.6033825484250
 30
0.0000000000000000
 11
181.1073448225213
 21
287.6033825484250
 31
0.0000000000000000
  0
INSERT
  5
C7
100
AcDbEntity
  8
MAIN0
  6
BYBLOCK
 62
0
100
AcDbBlockReference
  2
_OPEN
 10
205.1073448225213
 20
287.6033825484250
 30
0.0000000000000000
 41
3.000000000000000
 42
3.000000000000000
 43
3.000000000000000
 50
360.0000000000000
  0
INSERT
  5
C8
100
AcDbEntity
  8
MAIN0
  6
BYBLOCK
 62
0
100
AcDbBlockReference
  2
_OPEN
 10
178.1073448225213
 20
287.6033825484250
 30
0.0000000000000000
 41
3.000000000000000
 42
3.000000000000000
 43
3.000000000000000
 50
180.0000000000000
  0
MTEXT
  5
C9
100
AcDbEntity
  8
MAIN0
  6
BYBLOCK
 62
0
100
AcDbMText
 10
195.6624976428888
 20
290.6783824768995
 30
0.0000000000000000
 40
4.649999856948853
 41
0.0000000000000000
 71
     5
 72
     1
  1
\A1;27
 11
1.000000000000000
 21
0.0000000000000000
 31
0.0000000000000000
  7
STANDARD
  0
ENDBLK
  5
CA
100
AcDbEntity
  8
MAIN0
  6
CONTINUOUS
 62
3
100
AcDbBlockEnd
  0
BLOCK
  5
123
100
AcDbEntity
  8
MAIN0
  6
CONTINUOUS
 62
3
100
AcDbBlockBegin
  2
*D3
 70
    65
 10
0.0
 20
0.0
 30
0.0
  0
LINE
  5
124
100
AcDbEntity
  8
MAIN0
  6
BYBLOCK
 62
0
100
AcDbLine
 10
125.4073448046399
 20
240.1033825484250
 30
0.0000000000000000
 11
95.10734482252130
 21
240.1033825484250
 31
0.0000000000000000
  0
LINE
  5
125
100
AcDbEntity
  8
MAIN0
  6
BYBLOCK
 62
0
100
AcDbLine
 10
98.10734482252130
 20
243.1033825484250
 30
0.0000000000000000
 11
98.10734482252130
 21
282.1033825484250
 31
0.0000000000000000
  0
INSERT
  5
126
100
AcDbEntity
  8
MAIN0
  6
BYBLOCK
 62
0
100
AcDbBlockReference
  2
_OPEN
 10
98.10734482252130
 20
240.1033825484250
 30
0.0000000000000000
 41
3.000000000000000
 42
3.000000000000000
 43
3.000000000000000
 50
270.0000000000000
  0
INSERT
  5
127
100
AcDbEntity
  8
MAIN0
  6
BYBLOCK
 62
0
100
AcDbBlockReference
  2
_OPEN
 10
98.10734482252130
 20
285.1033825484250
 30
0.0000000000000000
 41
3.000000000000000
 42
3.000000000000000
 43
3.000000000000000
 50
90.00000000000000
  0
LINE
  5
128
100
AcDbEntity
  8
MAIN0
  6
BYBLOCK
 62
0
100
AcDbLine
 10
125.4073448046399
 20
285.1033825484250
 30
0.0000000000000000
 11
95.10734482252130
 21
285.1033825484250
 31
0.0000000000000000
  0
MTEXT
  5
129
100
AcDbEntity
  8
MAIN0
  6
BYBLOCK
 62
0
100
AcDbMText
 10
95.28234489404687
 20
260.1281412128178
 30
0.0000000000000000
 40
4.649999856948853
 41
0.0000000000000000
 71
     5
 72
     1
  1
\A1;\U+220545
 11
6.123233995736766e-017
 21
1.000000000000000
 31
0.0000000000000000
  7
STANDARD
  0
ENDBLK
  5
12A
100
AcDbEntity
  8
MAIN0
  6
CONTINUOUS
 62
3
100
AcDbBlockEnd
  0
BLOCK
  5
12C
100
AcDbEntity
  8
MAIN0
  6
CONTINUOUS
 62
3
100
AcDbBlockBegin
  2
*D4
 70
    65
 10
0.0
 20
0.0
 30
0.0
  0
LINE
  5
12D
100
AcDbEntity
  8
MAIN0
  6
BYBLOCK
 62
0
100
AcDbLine
 10
111.9073448046399
 20
327.6033825484250
 30
0.0000000000000000
 11
80.10734482252130
 21
327.6033825484250
 31
0.0000000000000000
  0
LINE
  5
12E
100
AcDbEntity
  8
MAIN0
  6
BYBLOCK
 62
0
100
AcDbLine
 10
83.10734482252130
 20
324.6033825484250
 30
0.0000000000000000
 11
83.10734482252130
 21
200.6033825484250
 31
0.0000000000000000
  0
INSERT
  5
12F
100
AcDbEntity
  8
MAIN0
  6
BYBLOCK
 62
0
100
AcDbBlockReference
  2
_OPEN
 10
83.10734482252130
 20
327.6033825484250
 30
0.0000000000000000
 41
3.000000000000000
 42
3.000000000000000
 43
3.000000000000000
 50
90.00000000000000
  0
INSERT
  5
130
100
AcDbEntity
  8
MAIN0
  6
BYBLOCK
 62
0
100
AcDbBlockReference
  2
_OPEN
 10
83.10734482252130
 20
197.6033825484250
 30
0.0000000000000000
 41
3.000000000000000
 42
3.000000000000000
 43
3.000000000000000
 50
270.0000000000000
  0
LINE
  5
131
100
AcDbEntity
  8
MAIN0
  6
BYBLOCK
 62
0
100
AcDbLine
 10
111.9073448046399
 20
197.6033825484250
 30
0.0000000000000000
 11
80.10734482252130
 21
197.6033825484250
 31
0.0000000000000000
  0
MTEXT
  5
132
100
AcDbEntity
  8
MAIN0
  6
BYBLOCK
 62
0
100
AcDbMText
 10
80.28234489404687
 20
275.4819440985198
 30
0.0000000000000000
 40
4.649999856948853
 41
0.0000000000000000
 71
     5
 72
     1
  1
\A1;\U+2205130H6\H0.903226x;\S＋0.025^ 　0;
 11
6.123233995736766e-017
 21
1.000000000000000
 31
0.0000000000000000
  7
KNJYOKO
  0
ENDBLK
  5
133
100
AcDbEntity
  8
MAIN0
  6
CONTINUOUS
 62
3
100
AcDbBlockEnd
  0
BLOCK
  5
135
100
AcDbEntity
  8
MAIN0
  6
CONTINUOUS
 62
3
100
AcDbBlockBegin
  2
*D5
 70
    65
 10
0.0
 20
0.0
 30
0.0
  0
LINE
  5
136
100
AcDbEntity
  8
MAIN0
  6
BYBLOCK
 62
0
100
AcDbLine
 10
113.5073448046403
 20
345.1033825484250
 30
0.0000000000000000
 11
65.10734482252130
 21
345.1033825484250
 31
0.0000000000000000
  0
LINE
  5
137
100
AcDbEntity
  8
MAIN0
  6
BYBLOCK
 62
0
100
AcDbLine
 10
68.10734482252130
 20
342.1033825484250
 30
0.0000000000000000
 11
68.10734482252130
 21
183.1033825484250
 31
0.0000000000000000
  0
INSERT
  5
138
100
AcDbEntity
  8
MAIN0
  6
BYBLOCK
 62
0
100
AcDbBlockReference
  2
_OPEN
 10
68.10734482252130
 20
345.1033825484250
 30
0.0000000000000000
 41
3.000000000000000
 42
3.000000000000000
 43
3.000000000000000
 50
90.00000000000000
  0
INSERT
  5
139
100
AcDbEntity
  8
MAIN0
  6
BYBLOCK
 62
0
100
AcDbBlockReference
  2
_OPEN
 10
68.10734482252130
 20
180.1033825484250
 30
0.0000000000000000
 41
3.000000000000000
 42
3.000000000000000
 43
3.000000000000000
 50
270.0000000000000
  0
LINE
  5
13A
100
AcDbEntity
  8
MAIN0
  6
BYBLOCK
 62
0
100
AcDbLine
 10
113.5073448046402
 20
180.1033825484250
 30
0.0000000000000000
 11
65.10734482252130
 21
180.1033825484250
 31
0.0000000000000000
  0
MTEXT
  5
13B
100
AcDbEntity
  8
MAIN0
  6
BYBLOCK
 62
0
100
AcDbMText
 10
65.28234489404687
 20
262.6033825484250
 30
0.0000000000000000
 40
4.649999856948853
 41
0.0000000000000000
 71
     5
 72
     1
  1
\A1;\U+2205165
 11
6.123233995736766e-017
 21
1.000000000000000
 31
0.0000000000000000
  7
STANDARD
  0
ENDBLK
  5
13C
100
AcDbEntity
  8
MAIN0
  6
CONTINUOUS
 62
3
100
AcDbBlockEnd
  0
BLOCK
  5
13E
100
AcDbEntity
  8
MAIN0
  6
CONTINUOUS
 62
3
100
AcDbBlockBegin
  2
*D6
 70
    65
 10
0.0
 20
0.0
 30
0.0
  0
LINE
  5
13F
100
AcDbEntity
  8
MAIN0
  6
BYBLOCK
 62
0
100
AcDbLine
 10
178.7073448404027
 20
343.6033825484250
 30
0.0000000000000000
 11
196.1073448225213
 21
343.6033825484250
 31
0.0000000000000000
  0
LINE
  5
140
100
AcDbEntity
  8
MAIN0
  6
BYBLOCK
 62
0
100
AcDbLine
 10
193.1073448225213
 20
340.6033825484250
 30
0.0000000000000000
 11
193.1073448225213
 21
329.6033825484250
 31
0.0000000000000000
  0
INSERT
  5
141
100
AcDbEntity
  8
MAIN0
  6
BYBLOCK
 62
0
100
AcDbBlockReference
  2
_OPEN
 10
193.1073448225213
 20
343.6033825484250
 30
0.0000000000000000
 41
3.000000000000000
 42
3.000000000000000
 43
3.000000000000000
 50
90.00000000000000
  0
INSERT
  5
142
100
AcDbEntity
  8
MAIN0
  6
BYBLOCK
 62
0
100
AcDbBlockReference
  2
_OPEN
 10
193.1073448225213
 20
326.6033825484250
 30
0.0000000000000000
 41
3.000000000000000
 42
3.000000000000000
 43
3.000000000000000
 50
270.0000000000000
  0
LINE
  5
143
100
AcDbEntity
  8
MAIN0
  6
BYBLOCK
 62
0
100
AcDbLine
 10
178.7073448404027
 20
326.6033825484250
 30
0.0000000000000000
 11
196.1073448225213
 21
326.6033825484250
 31
0.0000000000000000
  0
MTEXT
  5
144
100
AcDbEntity
  8
MAIN0
  6
BYBLOCK
 62
0
100
AcDbMText
 10
190.2823448940469
 20
335.1033825484250
 30
0.0000000000000000
 40
4.649999856948853
 41
0.0000000000000000
 71
     5
 72
     1
  1
\A1;\U+220517
 11
6.123233995736766e-017
 21
1.000000000000000
 31
0.0000000000000000
  7
STANDARD
  0
ENDBLK
  5
145
100
AcDbEntity
  8
MAIN0
  6
CONTINUOUS
 62
3
100
AcDbBlockEnd
  0
BLOCK
  5
147
100
AcDbEntity
  8
MAIN0
  6
CONTINUOUS
 62
3
100
AcDbBlockBegin
  2
*D7
 70
    65
 10
0.0
 20
0.0
 30
0.0
  0
LINE
  5
148
100
AcDbEntity
  8
MAIN0
  6
BYBLOCK
 62
0
100
AcDbLine
 10
178.1073448225213
 20
344.7033825663062
 30
0.0000000000000000
 11
178.1073448225213
 21
355.6033825484250
 31
0.0000000000000000
  0
LINE
  5
149
100
AcDbEntity
  8
MAIN0
  6
BYBLOCK
 62
0
100
AcDbLine
 10
175.1073448225213
 20
352.6033825484250
 30
0.0000000000000000
 11
169.1073448225213
 21
352.6033825484250
 31
0.0000000000000000
  0
INSERT
  5
14A
100
AcDbEntity
  8
MAIN0
  6
BYBLOCK
 62
0
100
AcDbBlockReference
  2
_OPEN
 10
178.1073448225213
 20
352.6033825484250
 30
0.0000000000000000
 41
3.000000000000000
 42
3.000000000000000
 43
3.000000000000000
 50
360.0000000000000
  0
INSERT
  5
14B
100
AcDbEntity
  8
MAIN0
  6
BYBLOCK
 62
0
100
AcDbBlockReference
  2
_OPEN
 10
166.1073448225213
 20
352.6033825484250
 30
0.0000000000000000
 41
3.000000000000000
 42
3.000000000000000
 43
3.000000000000000
 50
180.0000000000000
  0
LINE
  5
14C
100
AcDbEntity
  8
MAIN0
  6
BYBLOCK
 62
0
100
AcDbLine
 10
166.1073448225213
 20
344.8033825663064
 30
0.0000000000000000
 11
166.1073448225213
 21
355.6033825484250
 31
0.0000000000000000
  0
MTEXT
  5
14D
100
AcDbEntity
  8
MAIN0
  6
BYBLOCK
 62
0
100
AcDbMText
 10
172.1073448225213
 20
355.4283824768995
 30
0.0000000000000000
 40
4.649999856948853
 41
0.0000000000000000
 71
     5
 72
     1
  1
\A1;12
 11
1.000000000000000
 21
0.0000000000000000
 31
0.0000000000000000
  7
STANDARD
  0
ENDBLK
  5
14E
100
AcDbEntity
  8
MAIN0
  6
CONTINUOUS
 62
3
100
AcDbBlockEnd
  0
BLOCK
  5
154
100
AcDbEntity
  8
MAIN0
  6
CONTINUOUS
 62
3
100
AcDbBlockBegin
  2
*D8
 70
    65
 10
0.0
 20
0.0
 30
0.0
  0
LINE
  5
155
100
AcDbEntity
  8
MAIN0
  6
BYBLOCK
 62
0
100
AcDbLine
 10
112.3073448046399
 20
341.1033825484250
 30
0.0000000000000000
 11
95.10734482252130
 21
341.1033825484250
 31
0.0000000000000000
  0
LINE
  5
156
100
AcDbEntity
  8
MAIN0
  6
BYBLOCK
 62
0
100
AcDbLine
 10
98.10734482252130
 20
338.1033825484250
 30
0.0000000000000000
 11
98.10734482252130
 21
332.1033825484250
 31
0.0000000000000000
  0
INSERT
  5
157
100
AcDbEntity
  8
MAIN0
  6
BYBLOCK
 62
0
100
AcDbBlockReference
  2
_OPEN
 10
98.10734482252130
 20
341.1033825484250
 30
0.0000000000000000
 41
3.000000000000000
 42
3.000000000000000
 43
3.000000000000000
 50
90.00000000000000
  0
INSERT
  5
158
100
AcDbEntity
  8
MAIN0
  6
BYBLOCK
 62
0
100
AcDbBlockReference
  2
_OPEN
 10
98.10734482252130
 20
329.1033825484250
 30
0.0000000000000000
 41
3.000000000000000
 42
3.000000000000000
 43
3.000000000000000
 50
270.0000000000000
  0
LINE
  5
159
100
AcDbEntity
  8
MAIN0
  6
BYBLOCK
 62
0
100
AcDbLine
 10
112.3073448046399
 20
329.1033825484250
 30
0.0000000000000000
 11
95.10734482252130
 21
329.1033825484250
 31
0.0000000000000000
  0
MTEXT
  5
15A
100
AcDbEntity
  8
MAIN0
  6
BYBLOCK
 62
0
100
AcDbMText
 10
95.28234489404687
 20
335.1033825484250
 30
0.0000000000000000
 40
4.649999856948853
 41
0.0000000000000000
 71
     5
 72
     1
  1
\A1;\U+220512
 11
6.123233995736766e-017
 21
1.000000000000000
 31
0.0000000000000000
  7
STANDARD
  0
ENDBLK
  5
15B
100
AcDbEntity
  8
MAIN0
  6
CONTINUOUS
 62
3
100
AcDbBlockEnd
  0
BLOCK
  5
15D
100
AcDbEntity
  8
MAIN0
  6
CONTINUOUS
 62
3
100
AcDbBlockBegin
  2
*D9
 70
    65
 10
0.0
 20
0.0
 30
0.0
  0
LINE
  5
15E
100
AcDbEntity
  8
MAIN0
  6
BYBLOCK
 62
0
100
AcDbLine
 10
206.3073448404542
 20
245.6033825484250
 30
0.0000000000000000
 11
225.0162281561407
 21
245.6033825484250
 31
0.0000000000000000
  0
LINE
  5
15F
100
AcDbEntity
  8
MAIN0
  6
BYBLOCK
 62
0
100
AcDbLine
 10
222.0162281561407
 20
242.6033825484250
 30
0.0000000000000000
 11
222.0162281561407
 21
182.6033825484250
 31
0.0000000000000000
  0
INSERT
  5
160
100
AcDbEntity
  8
MAIN0
  6
BYBLOCK
 62
0
100
AcDbBlockReference
  2
_OPEN
 10
222.0162281561407
 20
245.6033825484250
 30
0.0000000000000000
 41
3.000000000000000
 42
3.000000000000000
 43
3.000000000000000
 50
90.00000000000000
  0
INSERT
  5
161
100
AcDbEntity
  8
MAIN0
  6
BYBLOCK
 62
0
100
AcDbBlockReference
  2
_OPEN
 10
222.0162281561407
 20
179.6033825484250
 30
0.0000000000000000
 41
3.000000000000000
 42
3.000000000000000
 43
3.000000000000000
 50
270.0000000000000
  0
LINE
  5
162
100
AcDbEntity
  8
MAIN0
  6
BYBLOCK
 62
0
100
AcDbLine
 10
188.7073448404040
 20
179.6033825484250
 30
0.0000000000000000
 11
225.0162281561407
 21
179.6033825484250
 31
0.0000000000000000
  0
MTEXT
  5
163
100
AcDbEntity
  8
MAIN0
  6
BYBLOCK
 62
0
100
AcDbMText
 10
219.1912282276662
 20
212.6033825484250
 30
0.0000000000000000
 40
4.649999856948853
 41
0.0000000000000000
 71
     5
 72
     1
  1
\A1;66
 11
6.123233995736766e-017
 21
1.000000000000000
 31
0.0000000000000000
  7
STANDARD
  0
ENDBLK
  5
164
100
AcDbEntity
  8
MAIN0
  6
CONTINUOUS
 62
3
100
AcDbBlockEnd
  0
BLOCK
  5
166
100
AcDbEntity
  8
MAIN0
  6
CONTINUOUS
 62
3
100
AcDbBlockBegin
  2
*D10
 70
    65
 10
0.0
 20
0.0
 30
0.0
  0
LINE
  5
167
100
AcDbEntity
  8
MAIN0
  6
BYBLOCK
 62
0
100
AcDbLine
 10
294.1858854964666
 20
212.9529010516365
 30
0.0000000000000000
 11
392.6649825979426
 21
315.2557232711533
 31
0.0000000000000000
  0
INSERT
  5
168
100
AcDbEntity
  8
MAIN0
  6
BYBLOCK
 62
0
100
AcDbBlockReference
  2
_OPEN
 10
292.1053411915058
 20
210.7915738216467
 30
0.0000000000000000
 41
3.000000000000000
 42
3.000000000000000
 43
3.000000000000000
 50
226.0910187134448
  0
MTEXT
  5
169
100
AcDbEntity
  8
MAIN0
  6
BYBLOCK
 62
0
100
AcDbMText
 10
304.7311876700912
 20
228.3415896969152
 30
0.0000000000000000
 40
4.649999856948853
 41
0.0000000000000000
 71
     5
 72
     1
  1
\A1;\U+2205145\H0.903226x;\U+00B10.2
 11
0.6935147683202537
 21
0.7204424099965970
 31
0.0000000000000000
  7
STANDARD
  0
ENDBLK
  5
16A
100
AcDbEntity
  8
MAIN0
  6
CONTINUOUS
 62
3
100
AcDbBlockEnd
  0
BLOCK
  5
171
100
AcDbEntity
  8
MAIN0
  6
CONTINUOUS
 62
3
100
AcDbBlockBegin
  2
*D11
 70
    65
 10
0.0
 20
0.0
 30
0.0
  0
LINE
  5
172
100
AcDbEntity
  8
MAIN0
  6
BYBLOCK
 62
0
100
AcDbLine
 10
418.0127737774216
 20
219.3600264677563
 30
0.0000000000000000
 11
426.0504569110901
 21
214.7194679468719
 31
0.0000000000000000
  0
ARC
  5
173
100
AcDbEntity
  8
MAIN0
  6
BYBLOCK
 62
0
100
AcDbCircle
 10
342.3851618947243
 20
263.0236485464001
 30
0.0000000000000000
 40
93.60836119905646
100
AcDbArc
 50
271.8362391600226
 51
328.1637608399774
  0
INSERT
  5
174
100
AcDbEntity
  8
MAIN0
  6
BYBLOCK
 62
0
100
AcDbBlockReference
  2
_OPEN
 10
342.3851618947243
 20
169.4152873473436
 30
0.0000000000000000
 41
3.000000000000000
 42
3.000000000000000
 43
3.000000000000000
 50
180.0000000000000
  0
INSERT
  5
175
100
AcDbEntity
  8
MAIN0
  6
BYBLOCK
 62
0
100
AcDbBlockReference
  2
_OPEN
 10
423.4523806997368
 20
216.2194679468719
 30
0.0000000000000000
 41
3.000000000000000
 42
3.000000000000000
 43
3.000000000000000
 50
60.00000000000000
  0
MTEXT
  5
176
100
AcDbEntity
  8
MAIN0
  6
BYBLOCK
 62
0
100
AcDbMText
 10
387.7768425300153
 20
184.4029514451357
 30
0.0000000000000000
 40
4.649999856948853
 41
0.0000000000000000
 71
     5
 72
     1
  1
\A1;60\U+00B0
 11
0.8660254037844385
 21
0.5000000000000002
 31
0.0000000000000000
  7
STANDARD
  0
ENDBLK
  5
177
100
AcDbEntity
  8
MAIN0
  6
CONTINUOUS
 62
3
100
AcDbBlockEnd
  0
BLOCK
  5
179
100
AcDbEntity
  8
MAIN0
  6
CONTINUOUS
 62
3
100
AcDbBlockBegin
  2
*D12
 70
    65
 10
0.0
 20
0.0
 30
0.0
  0
LINE
  5
17A
100
AcDbEntity
  8
MAIN0
  6
BYBLOCK
 62
0
100
AcDbLine
 10
418.0127737774216
 20
219.3600264677563
 30
0.0000000000000000
 11
426.0504569110901
 21
214.7194679468719
 31
0.0000000000000000
  0
LINE
  5
17B
100
AcDbEntity
  8
MAIN0
  6
BYBLOCK
 62
0
100
AcDbLine
 10
435.5023527001152
 20
263.0236485464001
 30
0.0000000000000000
 11
438.9935230937807
 21
263.0236485464002
 31
0.0000000000000000
  0
ARC
  5
17C
100
AcDbEntity
  8
MAIN0
  6
BYBLOCK
 62
0
100
AcDbCircle
 10
342.3851618947243
 20
263.0236485464001
 30
0.0000000000000000
 40
93.60836119905645
100
AcDbArc
 50
331.8362391600227
 51
358.1637608399774
  0
INSERT
  5
17D
100
AcDbEntity
  8
MAIN0
  6
BYBLOCK
 62
0
100
AcDbBlockReference
  2
_OPEN
 10
423.4523806997368
 20
216.2194679468719
 30
0.0000000000000000
 41
3.000000000000000
 42
3.000000000000000
 43
3.000000000000000
 50
240.0000000000000
  0
INSERT
  5
17E
100
AcDbEntity
  8
MAIN0
  6
BYBLOCK
 62
0
100
AcDbBlockReference
  2
_OPEN
 10
435.9935230937808
 20
263.0236485464001
 30
0.0000000000000000
 41
3.000000000000000
 42
3.000000000000000
 43
3.000000000000000
 50
90.00000000000000
  0
MTEXT
  5
17F
100
AcDbEntity
  8
MAIN0
  6
BYBLOCK
 62
0
100
AcDbMText
 10
430.0751551433102
 20
239.5271856711509
 30
0.0000000000000000
 40
4.649999856948853
 41
0.0000000000000000
 71
     5
 72
     1
  1
\A1;30\U+00B0
 11
0.2588190451025205
 21
0.9659258262890683
 31
0.0000000000000000
  7
STANDARD
  0
ENDBLK
  5
180
100
AcDbEntity
  8
MAIN0
  6
CONTINUOUS
 62
3
100
AcDbBlockEnd
  0
BLOCK
  5
182
100
AcDbEntity
  8
MAIN0
  6
CONTINUOUS
 62
3
100
AcDbBlockBegin
  2
*D13
 70
    65
 10
0.0
 20
0.0
 30
0.0
  0
LINE
  5
183
100
AcDbEntity
  8
MAIN0
  6
BYBLOCK
 62
0
100
AcDbLine
 10
435.5023527001152
 20
263.0236485464001
 30
0.0000000000000000
 11
438.9935230937807
 21
263.0236485464002
 31
0.0000000000000000
  0
ARC
  5
184
100
AcDbEntity
  8
MAIN0
  6
BYBLOCK
 62
0
100
AcDbCircle
 10
342.3851618947243
 20
263.0236485464001
 30
0.0000000000000000
 40
93.60836119905645
100
AcDbArc
 50
1.836239160022594
 51
28.16376083997737
  0
INSERT
  5
185
100
AcDbEntity
  8
MAIN0
  6
BYBLOCK
 62
0
100
AcDbBlockReference
  2
_OPEN
 10
435.9935230937808
 20
263.0236485464001
 30
0.0000000000000000
 41
3.000000000000000
 42
3.000000000000000
 43
3.000000000000000
 50
270.0000000000000
  0
INSERT
  5
186
100
AcDbEntity
  8
MAIN0
  6
BYBLOCK
 62
0
100
AcDbBlockReference
  2
_OPEN
 10
423.4523806997368
 20
309.8278291459283
 30
0.0000000000000000
 41
3.000000000000000
 42
3.000000000000000
 43
3.000000000000000
 50
120.0000000000000
  0
MTEXT
  5
187
100
AcDbEntity
  8
MAIN0
  6
BYBLOCK
 62
0
100
AcDbMText
 10
430.0751551433102
 20
286.5201114216492
 30
0.0000000000000000
 40
4.649999856948853
 41
0.0000000000000000
 71
     5
 72
     1
  1
\A1;30\U+00B0
 11
-0.2588190451025204
 21
0.9659258262890684
 31
0.0000000000000000
  7
STANDARD
  0
ENDBLK
  5
188
100
AcDbEntity
  8
MAIN0
  6
CONTINUOUS
 62
3
100
AcDbBlockEnd
  0
BLOCK
  5
18A
100
AcDbEntity
  8
MAIN0
  6
CONTINUOUS
 62
3
100
AcDbBlockBegin
  2
*D14
 70
    65
 10
0.0
 20
0.0
 30
0.0
  0
ARC
  5
18B
100
AcDbEntity
  8
MAIN0
  6
BYBLOCK
 62
0
100
AcDbCircle
 10
342.3851618947243
 20
263.0236485464001
 30
0.0000000000000000
 40
93.60836119905645
100
AcDbArc
 50
31.83623916002255
 51
88.16376083997741
  0
INSERT
  5
18C
100
AcDbEntity
  8
MAIN0
  6
BYBLOCK
 62
0
100
AcDbBlockReference
  2
_OPEN
 10
423.4523806997368
 20
309.8278291459283
 30
0.0000000000000000
 41
3.000000000000000
 42
3.000000000000000
 43
3.000000000000000
 50
300.0000000000000
  0
INSERT
  5
18D
100
AcDbEntity
  8
MAIN0
  6
BYBLOCK
 62
0
100
AcDbBlockReference
  2
_OPEN
 10
342.3851618947243
 20
356.6320097454565
 30
0.0000000000000000
 41
3.000000000000000
 42
3.000000000000000
 43
3.000000000000000
 50
180.0000000000000
  0
MTEXT
  5
18E
100
AcDbEntity
  8
MAIN0
  6
BYBLOCK
 62
0
100
AcDbMText
 10
390.6018424584897
 20
346.5373890551606
 30
0.0000000000000000
 40
4.649999856948853
 41
0.0000000000000000
 71
     5
 72
     1
  1
\A1;60\U+00B0
 11
0.8660254037844384
 21
-0.5000000000000004
 31
0.0000000000000000
  7
STANDARD
  0
ENDBLK
  5
18F
100
AcDbEntity
  8
MAIN0
  6
CONTINUOUS
 62
3
100
AcDbBlockEnd
  0
BLOCK
  5
191
100
AcDbEntity
  8
MAIN0
  6
CONTINUOUS
 62
3
100
AcDbBlockBegin
  2
*D15
 70
    65
 10
0.0
 20
0.0
 30
0.0
  0
LINE
  5
192
100
AcDbEntity
  8
MAIN0
  6
BYBLOCK
 62
0
100
AcDbLine
 10
323.2584480001743
 20
305.9829513175225
 30
0.0000000000000000
 11
303.0910013675799
 21
351.2797780901001
 31
0.0000000000000000
  0
ARC
  5
193
100
AcDbEntity
  8
MAIN0
  6
BYBLOCK
 62
0
100
AcDbCircle
 10
342.3851618947243
 20
263.0236485464001
 30
0.0000000000000000
 40
93.60836119905645
100
AcDbArc
 50
91.83623916002259
 51
112.1637608399682
  0
INSERT
  5
194
100
AcDbEntity
  8
MAIN0
  6
BYBLOCK
 62
0
100
AcDbBlockReference
  2
_OPEN
 10
342.3851618947243
 20
356.6320097454565
 30
0.0000000000000000
 41
3.000000000000000
 42
3.000000000000000
 43
3.000000000000000
 50
360.0000000000000
  0
INSERT
  5
195
100
AcDbEntity
  8
MAIN0
  6
BYBLOCK
 62
0
100
AcDbBlockReference
  2
_OPEN
 10
304.3112112968069
 20
348.5391417171721
 30
0.0000000000000000
 41
3.000000000000000
 42
3.000000000000000
 43
3.000000000000000
 50
203.9999999999908
  0
MTEXT
  5
196
100
AcDbEntity
  8
MAIN0
  6
BYBLOCK
 62
0
100
AcDbMText
 10
322.3355387314674
 20
357.3497093639926
 30
0.0000000000000000
 40
4.649999856948853
 41
0.0000000000000000
 71
     5
 72
     1
  1
\A1;24\U+00B0
 11
0.9781476007338223
 21
0.2079116908176806
 31
0.0000000000000000
  7
STANDARD
  0
ENDBLK
  5
197
100
AcDbEntity
  8
MAIN0
  6
CONTINUOUS
 62
3
100
AcDbBlockEnd
  0
BLOCK
  5
1A1
100
AcDbEntity
  8
MAIN0
  6
CONTINUOUS
 62
3
100
AcDbBlockBegin
  2
*D16
 70
    65
 10
0.0
 20
0.0
 30
0.0
  0
LINE
  5
1A2
100
AcDbEntity
  8
MAIN0
  6
BYBLOCK
 62
0
100
AcDbLine
 10
113.1073448225213
 20
217.6033825484250
 30
0.0000000000000000
 11
118.1073448225213
 21
217.6033825484250
 31
0.0000000000000000
  0
INSERT
  5
1A3
100
AcDbEntity
  8
MAIN0
  6
BYBLOCK
 62
0
100
AcDbBlockReference
  2
_OPEN
 10
113.1073448225213
 20
217.6033825484250
 30
0.0000000000000000
 41
3.000000000000000
 42
3.000000000000000
 43
3.000000000000000
 50
0.0000000000000000
  0
INSERT
  5
1A4
100
AcDbEntity
  8
MAIN0
  6
BYBLOCK
 62
0
100
AcDbBlockReference
  2
_OPEN
 10
118.1073448225213
 20
217.6033825484250
 30
0.0000000000000000
 41
3.000000000000000
 42
3.000000000000000
 43
3.000000000000000
 50
180.0000000000000
  0
LINE
  5
1A5
100
AcDbEntity
  8
MAIN0
  6
BYBLOCK
 62
0
100
AcDbLine
 10
110.1073448225213
 20
217.6033825484250
 30
0.0000000000000000
 11
104.1545644462276
 21
217.6033825484250
 31
0.0000000000000000
  0
LINE
  5
1A6
100
AcDbEntity
  8
MAIN0
  6
BYBLOCK
 62
0
100
AcDbLine
 10
121.1073448225213
 20
217.6033825484250
 30
0.0000000000000000
 11
122.6073448225213
 21
217.6033825484250
 31
0.0000000000000000
  0
MTEXT
  5
1A7
100
AcDbEntity
  8
MAIN0
  6
BYBLOCK
 62
0
100
AcDbMText
 10
105.6545644462276
 20
220.6783824768995
 30
0.0000000000000000
 40
4.649999856948853
 41
0.0000000000000000
 71
     5
 72
     1
  1
\A1;5
 11
1.000000000000000
 21
0.0000000000000000
 31
0.0000000000000000
  7
STANDARD
  0
ENDBLK
  5
1A8
100
AcDbEntity
  8
MAIN0
  6
CONTINUOUS
 62
3
100
AcDbBlockEnd
  0
BLOCK
  5
1AA
100
AcDbEntity
  8
MAIN0
  6
CONTINUOUS
 62
3
100
AcDbBlockBegin
  2
*D17
 70
    65
 10
0.0
 20
0.0
 30
0.0
  0
LINE
  5
1AB
100
AcDbEntity
  8
MAIN0
  6
BYBLOCK
 62
0
100
AcDbLine
 10
113.1073448225213
 20
344.7033825663060
 30
0.0000000000000000
 11
113.1073448225213
 21
365.6033825484250
 31
0.0000000000000000
  0
LINE
  5
1AC
100
AcDbEntity
  8
MAIN0
  6
BYBLOCK
 62
0
100
AcDbLine
 10
116.1073448225213
 20
362.6033825484250
 30
0.0000000000000000
 11
134.1073448225213
 21
362.6033825484250
 31
0.0000000000000000
  0
INSERT
  5
1AD
100
AcDbEntity
  8
MAIN0
  6
BYBLOCK
 62
0
100
AcDbBlockReference
  2
_OPEN
 10
113.1073448225213
 20
362.6033825484250
 30
0.0000000000000000
 41
3.000000000000000
 42
3.000000000000000
 43
3.000000000000000
 50
180.0000000000000
  0
INSERT
  5
1AE
100
AcDbEntity
  8
MAIN0
  6
BYBLOCK
 62
0
100
AcDbBlockReference
  2
_OPEN
 10
137.1073448225213
 20
362.6033825484250
 30
0.0000000000000000
 41
3.000000000000000
 42
3.000000000000000
 43
3.000000000000000
 50
0.0000000000000000
  0
LINE
  5
1AF
100
AcDbEntity
  8
MAIN0
  6
BYBLOCK
 62
0
100
AcDbLine
 10
137.1073448225213
 20
358.7838206292245
 30
0.0000000000000000
 11
137.1073448225213
 21
365.6033825484250
 31
0.0000000000000000
  0
MTEXT
  5
1B0
100
AcDbEntity
  8
MAIN0
  6
BYBLOCK
 62
0
100
AcDbMText
 10
125.1073448225213
 20
365.4283824768995
 30
0.0000000000000000
 40
4.649999856948853
 41
0.0000000000000000
 71
     5
 72
     1
  1
\A1;24
 11
1.000000000000000
 21
0.0000000000000000
 31
0.0000000000000000
  7
STANDARD
  0
ENDBLK
  5
1B1
100
AcDbEntity
  8
MAIN0
  6
CONTINUOUS
 62
3
100
AcDbBlockEnd
  0
BLOCK
  5
1B3
100
AcDbEntity
  8
MAIN0
  6
CONTINUOUS
 62
3
100
AcDbBlockBegin
  2
*D18
 70
    65
 10
0.0
 20
0.0
 30
0.0
  0
LINE
  5
1B4
100
AcDbEntity
  8
MAIN0
  6
BYBLOCK
 62
0
100
AcDbLine
 10
137.1073448225213
 20
358.7838206292245
 30
0.0000000000000000
 11
137.1073448225213
 21
365.6033825484250
 31
0.0000000000000000
  0
LINE
  5
1B5
100
AcDbEntity
  8
MAIN0
  6
BYBLOCK
 62
0
100
AcDbLine
 10
140.1073448225213
 20
362.6033825484250
 30
0.0000000000000000
 11
175.1073448225213
 21
362.6033825484250
 31
0.0000000000000000
  0
INSERT
  5
1B6
100
AcDbEntity
  8
MAIN0
  6
BYBLOCK
 62
0
100
AcDbBlockReference
  2
_OPEN
 10
137.1073448225213
 20
362.6033825484250
 30
0.0000000000000000
 41
3.000000000000000
 42
3.000000000000000
 43
3.000000000000000
 50
180.0000000000000
  0
INSERT
  5
1B7
100
AcDbEntity
  8
MAIN0
  6
BYBLOCK
 62
0
100
AcDbBlockReference
  2
_OPEN
 10
178.1073448225213
 20
362.6033825484250
 30
0.0000000000000000
 41
3.000000000000000
 42
3.000000000000000
 43
3.000000000000000
 50
0.0000000000000000
  0
LINE
  5
1B8
100
AcDbEntity
  8
MAIN0
  6
BYBLOCK
 62
0
100
AcDbLine
 10
178.1073448225213
 20
344.7033825663062
 30
0.0000000000000000
 11
178.1073448225213
 21
365.6033825484250
 31
0.0000000000000000
  0
MTEXT
  5
1B9
100
AcDbEntity
  8
MAIN0
  6
BYBLOCK
 62
0
100
AcDbMText
 10
157.6073448225213
 20
365.4283824768995
 30
0.0000000000000000
 40
4.649999856948853
 41
0.0000000000000000
 71
     5
 72
     1
  1
\A1;41
 11
1.000000000000000
 21
0.0000000000000000
 31
0.0000000000000000
  7
STANDARD
  0
ENDBLK
  5
1BA
100
AcDbEntity
  8
MAIN0
  6
CONTINUOUS
 62
3
100
AcDbBlockEnd
  0
BLOCK
  5
1BC
100
AcDbEntity
  8
MAIN0
  6
CONTINUOUS
 62
3
100
AcDbBlockBegin
  2
*D19
 70
    65
 10
0.0
 20
0.0
 30
0.0
  0
LINE
  5
1BD
100
AcDbEntity
  8
MAIN0
  6
BYBLOCK
 62
0
100
AcDbLine
 10
178.1073448225213
 20
344.7033825663062
 30
0.0000000000000000
 11
178.1073448225213
 21
375.6033825484250
 31
0.0000000000000000
  0
LINE
  5
1BE
100
AcDbEntity
  8
MAIN0
  6
BYBLOCK
 62
0
100
AcDbLine
 10
175.1073448225213
 20
372.6033825484250
 30
0.0000000000000000
 11
116.1073448225213
 21
372.6033825484250
 31
0.0000000000000000
  0
INSERT
  5
1BF
100
AcDbEntity
  8
MAIN0
  6
BYBLOCK
 62
0
100
AcDbBlockReference
  2
_OPEN
 10
178.1073448225213
 20
372.6033825484250
 30
0.0000000000000000
 41
3.000000000000000
 42
3.000000000000000
 43
3.000000000000000
 50
360.0000000000000
  0
INSERT
  5
1C0
100
AcDbEntity
  8
MAIN0
  6
BYBLOCK
 62
0
100
AcDbBlockReference
  2
_OPEN
 10
113.1073448225213
 20
372.6033825484250
 30
0.0000000000000000
 41
3.000000000000000
 42
3.000000000000000
 43
3.000000000000000
 50
180.0000000000000
  0
LINE
  5
1C1
100
AcDbEntity
  8
MAIN0
  6
BYBLOCK
 62
0
100
AcDbLine
 10
113.1073448225213
 20
344.7033825663060
 30
0.0000000000000000
 11
113.1073448225213
 21
375.6033825484250
 31
0.0000000000000000
  0
MTEXT
  5
1C2
100
AcDbEntity
  8
MAIN0
  6
BYBLOCK
 62
0
100
AcDbMText
 10
145.6073448225213
 20
375.4283824768995
 30
0.0000000000000000
 40
4.649999856948853
 41
0.0000000000000000
 71
     5
 72
     1
  1
\A1;65
 11
1.000000000000000
 21
0.0000000000000000
 31
0.0000000000000000
  7
STANDARD
  0
ENDBLK
  5
1C3
100
AcDbEntity
  8
MAIN0
  6
CONTINUOUS
 62
3
100
AcDbBlockEnd
  0
BLOCK
  5
217
100
AcDbEntity
  8
H0
  6
CONTINUOUS
 62
3
100
AcDbBlockBegin
  2
*D20
 70
    65
 10
0.0
 20
0.0
 30
0.0
  0
LINE
  5
218
100
AcDbEntity
  8
H0
  6
BYBLOCK
 62
0
100
AcDbLine
 10
577.0614715343867
 20
322.3333729929753
 30
0.0000000000000000
 11
577.0614715343867
 21
360.7681908524938
 31
0.0000000000000000
  0
LINE
  5
219
100
AcDbEntity
  8
H0
  6
BYBLOCK
 62
0
100
AcDbLine
 10
574.0614715343867
 20
357.7681908524938
 30
0.0000000000000000
 11
450.0614715343867
 21
357.7681908524938
 31
0.0000000000000000
  0
INSERT
  5
21A
100
AcDbEntity
  8
H0
  6
BYBLOCK
 62
0
100
AcDbBlockReference
  2
_OPEN
 10
577.0614715343867
 20
357.7681908524938
 30
0.0000000000000000
 41
3.000000000000000
 42
3.000000000000000
 43
3.000000000000000
 50
360.0000000000000
  0
INSERT
  5
21B
100
AcDbEntity
  8
H0
  6
BYBLOCK
 62
0
100
AcDbBlockReference
  2
_OPEN
 10
447.0614715343867
 20
357.7681908524938
 30
0.0000000000000000
 41
3.000000000000000
 42
3.000000000000000
 43
3.000000000000000
 50
180.0000000000000
  0
LINE
  5
21C
100
AcDbEntity
  8
H0
  6
BYBLOCK
 62
0
100
AcDbLine
 10
447.0614715343867
 20
322.3333729929753
 30
0.0000000000000000
 11
447.0614715343867
 21
360.7681908524938
 31
0.0000000000000000
  0
MTEXT
  5
21D
100
AcDbEntity
  8
H0
  6
BYBLOCK
 62
0
100
AcDbMText
 10
512.0614715343867
 20
360.5931907809683
 30
0.0000000000000000
 40
4.649999856948853
 41
0.0000000000000000
 71
     5
 72
     1
  1
\A1;210
 11
1.000000000000000
 21
0.0000000000000000
 31
0.0000000000000000
  7
STANDARD
  0
ENDBLK
  5
21E
100
AcDbEntity
  8
H0
  6
CONTINUOUS
 62
3
100
AcDbBlockEnd
  0
BLOCK
  5
220
100
AcDbEntity
  8
H0
  6
CONTINUOUS
 62
3
100
AcDbBlockBegin
  2
*D21
 70
    65
 10
0.0
 20
0.0
 30
0.0
  0
LINE
  5
221
100
AcDbEntity
  8
H0
  6
BYBLOCK
 62
0
100
AcDbLine
 10
524.0614715343867
 20
330.3333729929752
 30
0.0000000000000000
 11
524.0614715343867
 21
349.5826350430741
 31
0.0000000000000000
  0
LINE
  5
222
100
AcDbEntity
  8
H0
  6
BYBLOCK
 62
0
100
AcDbLine
 10
521.0614715343867
 20
346.5826350430741
 30
0.0000000000000000
 11
503.0614715343867
 21
346.5826350430741
 31
0.0000000000000000
  0
INSERT
  5
223
100
AcDbEntity
  8
H0
  6
BYBLOCK
 62
0
100
AcDbBlockReference
  2
_OPEN
 10
524.0614715343867
 20
346.5826350430741
 30
0.0000000000000000
 41
3.000000000000000
 42
3.000000000000000
 43
3.000000000000000
 50
360.0000000000000
  0
INSERT
  5
224
100
AcDbEntity
  8
H0
  6
BYBLOCK
 62
0
100
AcDbBlockReference
  2
_OPEN
 10
500.0614715343867
 20
346.5826350430741
 30
0.0000000000000000
 41
3.000000000000000
 42
3.000000000000000
 43
3.000000000000000
 50
180.0000000000000
  0
LINE
  5
225
100
AcDbEntity
  8
H0
  6
BYBLOCK
 62
0
100
AcDbLine
 10
500.0614715343867
 20
330.3333729929752
 30
0.0000000000000000
 11
500.0614715343867
 21
349.5826350430741
 31
0.0000000000000000
  0
MTEXT
  5
226
100
AcDbEntity
  8
H0
  6
BYBLOCK
 62
0
100
AcDbMText
 10
512.0614715343867
 20
349.4076349715485
 30
0.0000000000000000
 40
4.649999856948853
 41
0.0000000000000000
 71
     5
 72
     1
  1
\A1;\U+220524
 11
1.000000000000000
 21
0.0000000000000000
 31
0.0000000000000000
  7
STANDARD
  0
ENDBLK
  5
227
100
AcDbEntity
  8
H0
  6
CONTINUOUS
 62
3
100
AcDbBlockEnd
  0
BLOCK
  5
229
100
AcDbEntity
  8
H0
  6
CONTINUOUS
 62
3
100
AcDbBlockBegin
  2
*D22
 70
    65
 10
0.0
 20
0.0
 30
0.0
  0
LINE
  5
22A
100
AcDbEntity
  8
H0
  6
BYBLOCK
 62
0
100
AcDbLine
 10
524.2614715522680
 20
330.1333729750940
 30
0.0000000000000000
 11
537.9398365769359
 21
330.1333729750940
 31
0.0000000000000000
  0
LINE
  5
22B
100
AcDbEntity
  8
H0
  6
BYBLOCK
 62
0
100
AcDbLine
 10
534.9398365769359
 20
327.1333729750940
 30
0.0000000000000000
 11
534.9398365769359
 21
320.1333729750940
 31
0.0000000000000000
  0
INSERT
  5
22C
100
AcDbEntity
  8
H0
  6
BYBLOCK
 62
0
100
AcDbBlockReference
  2
_OPEN
 10
534.9398365769359
 20
330.1333729750940
 30
0.0000000000000000
 41
3.000000000000000
 42
3.000000000000000
 43
3.000000000000000
 50
90.00000000000000
  0
INSERT
  5
22D
100
AcDbEntity
  8
H0
  6
BYBLOCK
 62
0
100
AcDbBlockReference
  2
_OPEN
 10
534.9398365769359
 20
317.1333729750940
 30
0.0000000000000000
 41
3.000000000000000
 42
3.000000000000000
 43
3.000000000000000
 50
270.0000000000000
  0
LINE
  5
22E
100
AcDbEntity
  8
H0
  6
BYBLOCK
 62
0
100
AcDbLine
 10
534.9398365769359
 20
330.1333729750940
 30
0.0000000000000000
 11
534.9398365769359
 21
339.3627537824107
 31
0.0000000000000000
  0
MTEXT
  5
22F
100
AcDbEntity
  8
H0
  6
BYBLOCK
 62
0
100
AcDbMText
 10
531.8648366484615
 20
336.2877538539362
 30
0.0000000000000000
 40
4.649999856948853
 41
0.0000000000000000
 71
     5
 72
     1
  1
\A1;13
 11
6.123233995736766e-017
 21
1.000000000000000
 31
0.0000000000000000
  7
STANDARD
  0
ENDBLK
  5
230
100
AcDbEntity
  8
H0
  6
CONTINUOUS
 62
3
100
AcDbBlockEnd
  0
BLOCK
  5
232
100
AcDbEntity
  8
H0
  6
CONTINUOUS
 62
3
100
AcDbBlockBegin
  2
*D23
 70
    65
 10
0.0
 20
0.0
 30
0.0
  0
LINE
  5
233
100
AcDbEntity
  8
H0
  6
BYBLOCK
 62
0
100
AcDbLine
 10
505.0614715343867
 20
275.7086286601704
 30
0.0000000000000000
 11
519.0614715343867
 21
275.7086286601704
 31
0.0000000000000000
  0
INSERT
  5
234
100
AcDbEntity
  8
H0
  6
BYBLOCK
 62
0
100
AcDbBlockReference
  2
_OPEN
 10
502.0614715343867
 20
275.7086286601704
 30
0.0000000000000000
 41
3.000000000000000
 42
3.000000000000000
 43
3.000000000000000
 50
180.0000000000000
  0
INSERT
  5
235
100
AcDbEntity
  8
H0
  6
BYBLOCK
 62
0
100
AcDbBlockReference
  2
_OPEN
 10
522.0614715343867
 20
275.7086286601704
 30
0.0000000000000000
 41
3.000000000000000
 42
3.000000000000000
 43
3.000000000000000
 50
0.0000000000000000
  0
MTEXT
  5
236
100
AcDbEntity
  8
H0
  6
BYBLOCK
 62
0
100
AcDbMText
 10
512.0614715343867
 20
278.5336285886448
 30
0.0000000000000000
 40
4.649999856948853
 41
0.0000000000000000
 71
     5
 72
     1
  1
\A1;\U+220520
 11
1.000000000000000
 21
0.0000000000000000
 31
0.0000000000000000
  7
STANDARD
  0
ENDBLK
  5
237
100
AcDbEntity
  8
H0
  6
CONTINUOUS
 62
3
100
AcDbBlockEnd
  0
BLOCK
  5
239
100
AcDbEntity
  8
H0
  6
CONTINUOUS
 62
3
100
AcDbBlockBegin
  2
*D24
 70
    65
 10
0.0
 20
0.0
 30
0.0
  0
LINE
  5
23A
100
AcDbEntity
  8
H0
  6
BYBLOCK
 62
0
100
AcDbLine
 10
524.2614715522680
 20
330.1333729750940
 30
0.0000000000000000
 11
545.5468188524176
 21
330.1333729750940
 31
0.0000000000000000
  0
LINE
  5
23B
100
AcDbEntity
  8
H0
  6
BYBLOCK
 62
0
100
AcDbLine
 10
542.5468188524176
 20
327.1333729750940
 30
0.0000000000000000
 11
542.5468188524176
 21
213.1333729750940
 31
0.0000000000000000
  0
INSERT
  5
23C
100
AcDbEntity
  8
H0
  6
BYBLOCK
 62
0
100
AcDbBlockReference
  2
_OPEN
 10
542.5468188524176
 20
330.1333729750940
 30
0.0000000000000000
 41
3.000000000000000
 42
3.000000000000000
 43
3.000000000000000
 50
90.00000000000000
  0
INSERT
  5
23D
100
AcDbEntity
  8
H0
  6
BYBLOCK
 62
0
100
AcDbBlockReference
  2
_OPEN
 10
542.5468188524176
 20
210.1333729750940
 30
0.0000000000000000
 41
3.000000000000000
 42
3.000000000000000
 43
3.000000000000000
 50
270.0000000000000
  0
LINE
  5
23E
100
AcDbEntity
  8
H0
  6
BYBLOCK
 62
0
100
AcDbLine
 10
519.1114715522681
 20
210.1333729750940
 30
0.0000000000000000
 11
545.5468188524176
 21
210.1333729750940
 31
0.0000000000000000
  0
MTEXT
  5
23F
100
AcDbEntity
  8
H0
  6
BYBLOCK
 62
0
100
AcDbMText
 10
539.7218189239432
 20
270.1333729750940
 30
0.0000000000000000
 40
4.649999856948853
 41
0.0000000000000000
 71
     5
 72
     1
  1
\A1;120
 11
6.123233995736766e-017
 21
1.000000000000000
 31
0.0000000000000000
  7
STANDARD
  0
ENDBLK
  5
240
100
AcDbEntity
  8
H0
  6
CONTINUOUS
 62
3
100
AcDbBlockEnd
  0
BLOCK
  5
242
100
AcDbEntity
  8
H0
  6
CONTINUOUS
 62
3
100
AcDbBlockBegin
  2
*D25
 70
    65
 10
0.0
 20
0.0
 30
0.0
  0
LINE
  5
243
100
AcDbEntity
  8
H0
  6
BYBLOCK
 62
0
100
AcDbLine
 10
519.4373975578858
 20
174.8023212498178
 30
0.0000000000000000
 11
533.0564437516131
 21
161.1832750560744
 31
0.0000000000000000
  0
LINE
  5
244
100
AcDbEntity
  8
H0
  6
BYBLOCK
 62
0
100
AcDbLine
 10
528.8138030644938
 20
161.1832750560770
 30
0.0000000000000000
 11
525.9853759397448
 21
158.3548479313314
 31
0.0000000000000000
  0
INSERT
  5
245
100
AcDbEntity
  8
H0
  6
BYBLOCK
 62
0
100
AcDbBlockReference
  2
_OPEN
 10
530.9351234080547
 20
163.3045953996354
 30
0.0000000000000000
 41
3.000000000000000
 42
3.000000000000000
 43
3.000000000000000
 50
44.99999999996601
  0
INSERT
  5
246
100
AcDbEntity
  8
H0
  6
BYBLOCK
 62
0
100
AcDbBlockReference
  2
_OPEN
 10
523.8640555961839
 20
156.2335275877730
 30
0.0000000000000000
 41
3.000000000000000
 42
3.000000000000000
 43
3.000000000000000
 50
224.9999999999660
  0
LINE
  5
247
100
AcDbEntity
  8
H0
  6
BYBLOCK
 62
0
100
AcDbLine
 10
530.9351234080547
 20
163.3045953996354
 30
0.0000000000000000
 11
547.4692635282755
 21
179.8387355198365
 31
0.0000000000000000
  0
LINE
  5
248
100
AcDbEntity
  8
H0
  6
BYBLOCK
 62
0
100
AcDbLine
 10
512.3663297460251
 20
167.7312534379498
 30
0.0000000000000000
 11
525.9853759397419
 21
154.1122072442117
 31
0.0000000000000000
  0
MTEXT
  5
249
100
AcDbEntity
  8
H0
  6
BYBLOCK
 62
0
100
AcDbMText
 10
538.7983665895969
 20
175.5165451843104
 30
0.0000000000000000
 40
4.649999856948853
 41
0.0000000000000000
 71
     5
 72
     1
  1
\A1;10\H0.903226x;\S 0^ －0.15;
 11
0.7071067811869690
 21
0.7071067811861261
 31
0.0000000000000000
  7
KNJYOKO
  0
ENDBLK
  5
24A
100
AcDbEntity
  8
H0
  6
CONTINUOUS
 62
3
100
AcDbBlockEnd
  0
BLOCK
  5
24C
100
AcDbEntity
  8
H0
  6
CONTINUOUS
 62
3
100
AcDbBlockBegin
  2
*D26
 70
    65
 10
0.0
 20
0.0
 30
0.0
  0
LINE
  5
24D
100
AcDbEntity
  8
H0
  6
BYBLOCK
 62
0
100
AcDbLine
 10
488.9871174156392
 20
319.1333729750940
 30
0.0000000000000000
 11
488.9871174156392
 21
315.1333729750940
 31
0.0000000000000000
  0
INSERT
  5
24E
100
AcDbEntity
  8
H0
  6
BYBLOCK
 62
0
100
AcDbBlockReference
  2
_OPEN
 10
488.9871174156392
 20
322.1333729750940
 30
0.0000000000000000
 41
3.000000000000000
 42
3.000000000000000
 43
3.000000000000000
 50
90.00000000000000
  0
INSERT
  5
24F
100
AcDbEntity
  8
H0
  6
BYBLOCK
 62
0
100
AcDbBlockReference
  2
_OPEN
 10
488.9871174156392
 20
312.1333729750940
 30
0.0000000000000000
 41
3.000000000000000
 42
3.000000000000000
 43
3.000000000000000
 50
270.0000000000000
  0
LINE
  5
250
100
AcDbEntity
  8
H0
  6
BYBLOCK
 62
0
100
AcDbLine
 10
488.9871174156392
 20
312.1333729750940
 30
0.0000000000000000
 11
488.9871174156392
 21
300.3029143701211
 31
0.0000000000000000
  0
MTEXT
  5
251
100
AcDbEntity
  8
H0
  6
BYBLOCK
 62
0
100
AcDbMText
 10
486.1621174871648
 20
305.3279142270700
 30
0.0000000000000000
 40
4.649999856948853
 41
0.0000000000000000
 71
     5
 72
     1
  1
\A1;\U+220510
 11
6.123233995736766e-017
 21
1.000000000000000
 31
0.0000000000000000
  7
STANDARD
  0
ENDBLK
  5
252
100
AcDbEntity
  8
H0
  6
CONTINUOUS
 62
3
100
AcDbBlockEnd
  0
BLOCK
  5
255
100
AcDbEntity
  8
H0
  6
CONTINUOUS
 62
3
100
AcDbBlockBegin
  2
*D27
 70
    65
 10
0.0
 20
0.0
 30
0.0
  0
LINE
  5
256
100
AcDbEntity
  8
H0
  6
BYBLOCK
 62
0
100
AcDbLine
 10
519.8114715522680
 20
224.1333729750940
 30
0.0000000000000000
 11
535.3233064114922
 21
224.1333729750940
 31
0.0000000000000000
  0
LINE
  5
257
100
AcDbEntity
  8
H0
  6
BYBLOCK
 62
0
100
AcDbLine
 10
532.3233064114922
 20
221.1333729750940
 30
0.0000000000000000
 11
532.3233064114922
 21
213.1333729750940
 31
0.0000000000000000
  0
INSERT
  5
258
100
AcDbEntity
  8
H0
  6
BYBLOCK
 62
0
100
AcDbBlockReference
  2
_OPEN
 10
532.3233064114922
 20
224.1333729750940
 30
0.0000000000000000
 41
3.000000000000000
 42
3.000000000000000
 43
3.000000000000000
 50
90.00000000000000
  0
INSERT
  5
259
100
AcDbEntity
  8
H0
  6
BYBLOCK
 62
0
100
AcDbBlockReference
  2
_OPEN
 10
532.3233064114922
 20
210.1333729750940
 30
0.0000000000000000
 41
3.000000000000000
 42
3.000000000000000
 43
3.000000000000000
 50
270.0000000000000
  0
LINE
  5
25A
100
AcDbEntity
  8
H0
  6
BYBLOCK
 62
0
100
AcDbLine
 10
519.1114715522681
 20
210.1333729750940
 30
0.0000000000000000
 11
535.3233064114922
 21
210.1333729750940
 31
0.0000000000000000
  0
MTEXT
  5
25B
100
AcDbEntity
  8
H0
  6
BYBLOCK
 62
0
100
AcDbMText
 10
529.4983064830178
 20
217.1333729750940
 30
0.0000000000000000
 40
4.649999856948853
 41
0.0000000000000000
 71
     5
 72
     1
  1
\A1;14
 11
6.123233995736766e-017
 21
1.000000000000000
 31
0.0000000000000000
  7
STANDARD
  0
ENDBLK
  5
25C
100
AcDbEntity
  8
H0
  6
CONTINUOUS
 62
3
100
AcDbBlockEnd
  0
ENDSEC
  0
SECTION
  2
ENTITIES
  0
LINE
  5
46
100
AcDbEntity
  8
MAIN0
  6
CONTINUOUS
 62
3
100
AcDbLine
 10
178.1073448225213
 20
343.5033825484248
 30
0.0000000000000000
 11
178.1073448225213
 21
181.7033825484240
 31
0.0000000000000000
  0
LINE
  5
47
100
AcDbEntity
  8
MAIN0
  6
CENTER
 62
3
100
AcDbLine
 10
342.3851618947243
 20
360.0407080776268
 30
0.0000000000000000
 11
342.3851618947243
 21
162.6770854270557
 31
0.0000000000000000
  0
LINE
  5
48
100
AcDbEntity
  8
MAIN0
  6
CONTINUOUS
 62
3
100
AcDbLine
 10
114.7073448225217
 20
345.1033825484250
 30
0.0000000000000000
 11
176.5073448225211
 21
345.1033825484250
 31
0.0000000000000000
  0
LINE
  5
49
100
AcDbEntity
  8
MAIN0
  6
CONTINUOUS
 62
3
100
AcDbLine
 10
178.1073448225213
 20
343.5033825484248
 30
0.0000000000000000
 11
176.5073448225211
 21
345.1033825484250
 31
0.0000000000000000
  0
LINE
  5
4A
100
AcDbEntity
  8
MAIN0
  6
CONTINUOUS
 62
3
100
AcDbLine
 10
114.7073448225216
 20
180.1033825484250
 30
0.0000000000000000
 11
113.1073448225213
 21
181.7033825484253
 31
0.0000000000000000
  0
LINE
  5
4B
100
AcDbEntity
  8
MAIN0
  6
CONTINUOUS
 62
3
100
AcDbLine
 10
113.1073448225213
 20
343.5033825484246
 30
0.0000000000000000
 11
114.7073448225217
 21
345.1033825484250
 31
0.0000000000000000
  0
LINE
  5
4C
100
AcDbEntity
  8
MAIN0
  6
CONTINUOUS
 62
3
100
AcDbLine
 10
113.1073448225213
 20
327.6033825484250
 30
0.0000000000000000
 11
121.1073448225219
 21
327.6033825484250
 31
0.0000000000000000
  0
LINE
  5
4D
100
AcDbEntity
  8
MAIN0
  6
CONTINUOUS
 62
3
100
AcDbLine
 10
113.1073448225213
 20
197.6033825484250
 30
0.0000000000000000
 11
121.1073448225219
 21
197.6033825484250
 31
0.0000000000000000
  0
LINE
  5
4E
100
AcDbEntity
  8
MAIN0
  6
CONTINUOUS
 62
3
100
AcDbLine
 10
120.1073448225213
 20
328.1033825484250
 30
0.0000000000000000
 11
120.1073448225213
 21
327.6033825484250
 31
0.0000000000000000
  0
LINE
  5
4F
100
AcDbEntity
  8
MAIN0
  6
CENTER
 62
3
100
AcDbLine
 10
137.1073448225213
 20
357.5838206113431
 30
0.0000000000000000
 11
137.1073448225213
 21
323.5044222859993
 31
0.0000000000000000
  0
LINE
  5
50
100
AcDbEntity
  8
MAIN0
  6
CONTINUOUS
 62
3
100
AcDbLine
 10
122.0865461393793
 20
319.6284278011867
 30
0.0000000000000000
 11
121.1073448225219
 21
327.6033825484250
 31
0.0000000000000000
  0
ARC
  5
51
100
AcDbEntity
  8
MAIN0
  6
CONTINUOUS
 62
3
100
AcDbCircle
 10
130.0269153525102
 20
320.6033825484250
 30
0.0000000000000000
 40
8.000000000000000
100
AcDbArc
 50
186.9999999999797
 51
231.2335606463151
  0
LINE
  5
52
100
AcDbEntity
  8
MAIN0
  6
CONTINUOUS
 62
3
100
AcDbLine
 10
118.1073448225213
 20
302.6033825484250
 30
0.0000000000000000
 11
126.6073448225212
 21
302.6033825484250
 31
0.0000000000000000
  0
LINE
  5
53
100
AcDbEntity
  8
MAIN0
  6
CONTINUOUS
 62
3
100
AcDbLine
 10
126.6073448225213
 20
285.1033825484250
 30
0.0000000000000000
 11
132.2320376665626
 21
285.1033825484250
 31
0.0000000000000000
  0
LINE
  5
54
100
AcDbEntity
  8
MAIN0
  6
CONTINUOUS
 62
3
100
AcDbLine
 10
122.0865461393793
 20
205.5783372956634
 30
0.0000000000000000
 11
121.1073448225219
 21
197.6033825484250
 31
0.0000000000000000
  0
ARC
  5
55
100
AcDbEntity
  8
MAIN0
  6
CONTINUOUS
 62
3
100
AcDbCircle
 10
130.0269153525102
 20
204.6033825484250
 30
0.0000000000000000
 40
8.000000000000000
100
AcDbArc
 50
106.7373238626929
 51
173.0000000000203
  0
LINE
  5
56
100
AcDbEntity
  8
MAIN0
  6
CONTINUOUS
 62
3
100
AcDbLine
 10
120.1073448225213
 20
197.1033825484250
 30
0.0000000000000000
 11
125.1248041239790
 21
197.1033825484250
 31
0.0000000000000000
  0
LINE
  5
57
100
AcDbEntity
  8
MAIN0
  6
CONTINUOUS
 62
3
100
AcDbLine
 10
120.1073448225213
 20
197.6033825484250
 30
0.0000000000000000
 11
120.1073448225213
 21
197.1033825484250
 31
0.0000000000000000
  0
LINE
  5
58
100
AcDbEntity
  8
MAIN0
  6
CONTINUOUS
 62
3
100
AcDbLine
 10
118.1073448225213
 20
222.6033825484250
 30
0.0000000000000000
 11
126.6073448225212
 21
222.6033825484250
 31
0.0000000000000000
  0
LINE
  5
59
100
AcDbEntity
  8
MAIN0
  6
CONTINUOUS
 62
3
100
AcDbLine
 10
126.6073448225213
 20
240.1033825484250
 30
0.0000000000000000
 11
136.1630906190013
 21
240.1033825484250
 31
0.0000000000000000
  0
LINE
  5
5A
100
AcDbEntity
  8
MAIN0
  6
CENTER
 62
3
100
AcDbLine
 10
124.3302975200420
 20
232.6033825484250
 30
0.0000000000000000
 11
142.3552900209188
 21
232.6033825484250
 31
0.0000000000000000
  0
LINE
  5
5B
100
AcDbEntity
  8
MAIN0
  6
HIDDEN
 62
3
100
AcDbLine
 10
123.1073448225213
 20
345.1033825484251
 30
0.0000000000000000
 11
123.1073448225213
 21
337.2182972522185
 31
0.0000000000000000
  0
LINE
  5
5C
100
AcDbEntity
  8
MAIN0
  6
HIDDEN
 62
3
100
AcDbLine
 10
151.1073448225213
 20
345.1033825484251
 30
0.0000000000000000
 11
151.1073448225213
 21
337.2182972522240
 31
0.0000000000000000
  0
LINE
  5
5D
100
AcDbEntity
  8
MAIN0
  6
HIDDEN
 62
3
100
AcDbLine
 10
123.1073448225213
 20
337.8533825484250
 30
0.0000000000000000
 11
125.1073448225213
 21
337.8533825484250
 31
0.0000000000000000
  0
LINE
  5
5E
100
AcDbEntity
  8
MAIN0
  6
HIDDEN
 62
3
100
AcDbLine
 10
123.6073448225213
 20
344.8533825484250
 30
0.0000000000000000
 11
150.6073448225216
 21
344.8533825484250
 31
0.0000000000000000
  0
LINE
  5
5F
100
AcDbEntity
  8
MAIN0
  6
HIDDEN
 62
3
100
AcDbLine
 10
123.6073448225213
 20
344.8533825484250
 30
0.0000000000000000
 11
123.1073448225213
 21
344.3533825484250
 31
0.0000000000000000
  0
LINE
  5
60
100
AcDbEntity
  8
MAIN0
  6
HIDDEN
 62
3
100
AcDbLine
 10
150.6073448225216
 20
344.8533825484250
 30
0.0000000000000000
 11
151.1073448225213
 21
344.3533825484253
 31
0.0000000000000000
  0
LINE
  5
61
100
AcDbEntity
  8
MAIN0
  6
HIDDEN
 62
3
100
AcDbLine
 10
151.1073448225213
 20
337.8533825484250
 30
0.0000000000000000
 11
149.1073448225213
 21
337.8533825484250
 31
0.0000000000000000
  0
ARC
  5
62
100
AcDbEntity
  8
MAIN0
  6
HIDDEN
 62
3
100
AcDbCircle
 10
149.1073448225213
 20
335.1033825484251
 30
0.0000000000000000
 40
2.750000000000000
100
AcDbArc
 50
90.00000000000000
 51
129.7304570994315
  0
LINE
  5
63
100
AcDbEntity
  8
MAIN0
  6
CONTINUOUS
 62
3
100
AcDbLine
 10
120.1073448225213
 20
328.1033825484250
 30
0.0000000000000000
 11
121.9161814356161
 21
328.1033825484250
 31
0.0000000000000000
  0
LINE
  5
64
100
AcDbEntity
  8
MAIN0
  6
HIDDEN
 62
3
100
AcDbLine
 10
144.1573448225200
 20
344.4492373597008
 30
0.0000000000000000
 11
144.8573448230225
 21
344.8533825484252
 31
0.0000000000000000
  0
LINE
  5
65
100
AcDbEntity
  8
MAIN0
  6
HIDDEN
 62
3
100
AcDbLine
 10
143.6573448225213
 20
343.5832119559171
 30
0.0000000000000000
 11
143.6573448225213
 21
337.2182972522225
 31
0.0000000000000000
  0
LINE
  5
66
100
AcDbEntity
  8
MAIN0
  6
HIDDEN
 62
3
100
AcDbLine
 10
130.0573448225226
 20
344.4492373597008
 30
0.0000000000000000
 11
129.3573448220201
 21
344.8533825484251
 31
0.0000000000000000
  0
LINE
  5
67
100
AcDbEntity
  8
MAIN0
  6
HIDDEN
 62
3
100
AcDbLine
 10
130.5573448225213
 20
343.5832119559171
 30
0.0000000000000000
 11
130.5573448225213
 21
337.2182972522199
 31
0.0000000000000000
  0
ARC
  5
68
100
AcDbEntity
  8
MAIN0
  6
HIDDEN
 62
3
100
AcDbCircle
 10
144.6573448225213
 20
343.5832119559171
 30
0.0000000000000000
 40
1.000000000000000
100
AcDbArc
 50
120.0000000000873
 51
180.0000000000000
  0
ARC
  5
69
100
AcDbEntity
  8
MAIN0
  6
HIDDEN
 62
3
100
AcDbCircle
 10
129.5573448225213
 20
343.5832119559171
 30
0.0000000000000000
 40
1.000000000000000
100
AcDbArc
 50
0.0000000000000000
 51
59.99999999991231
  0
LINE
  5
6A
100
AcDbEntity
  8
MAIN0
  6
HIDDEN
 62
3
100
AcDbLine
 10
137.6510147609116
 20
343.5832119560158
 30
0.0000000000000000
 11
137.6510147609108
 21
337.2182972522214
 31
0.0000000000000000
  0
LINE
  5
6B
100
AcDbEntity
  8
MAIN0
  6
HIDDEN
 62
3
100
AcDbLine
 10
136.5636748841310
 20
343.5832119560154
 30
0.0000000000000000
 11
136.5636748841318
 21
337.2182972522211
 31
0.0000000000000000
  0
LINE
  5
6C
100
AcDbEntity
  8
MAIN0
  6
HIDDEN
 62
3
100
AcDbLine
 10
130.5573448225213
 20
343.5832119560130
 30
0.0000000000000000
 11
136.5636748841310
 21
343.5832119560154
 31
0.0000000000000000
  0
LINE
  5
6D
100
AcDbEntity
  8
MAIN0
  6
HIDDEN
 62
3
100
AcDbLine
 10
137.6510147609116
 20
343.5832119560158
 30
0.0000000000000000
 11
143.6573448225213
 21
343.5832119560182
 31
0.0000000000000000
  0
LINE
  5
6E
100
AcDbEntity
  8
MAIN0
  6
HIDDEN
 62
3
100
AcDbLine
 10
130.5573448225213
 20
343.5832119560130
 30
0.0000000000000000
 11
133.5605098533263
 21
337.2182972522205
 31
0.0000000000000000
  0
LINE
  5
6F
100
AcDbEntity
  8
MAIN0
  6
HIDDEN
 62
3
100
AcDbLine
 10
133.5605098533263
 20
337.2182972522205
 30
0.0000000000000000
 11
136.5636748841310
 21
343.5832119560154
 31
0.0000000000000000
  0
LINE
  5
70
100
AcDbEntity
  8
MAIN0
  6
HIDDEN
 62
3
100
AcDbLine
 10
137.6510147609116
 20
343.5832119560158
 30
0.0000000000000000
 11
140.6541797917158
 21
337.2182972522219
 31
0.0000000000000000
  0
LINE
  5
71
100
AcDbEntity
  8
MAIN0
  6
HIDDEN
 62
3
100
AcDbLine
 10
140.6541797917157
 20
337.2182972522219
 30
0.0000000000000000
 11
143.6573448225213
 21
343.5832119560182
 31
0.0000000000000000
  0
LINE
  5
72
100
AcDbEntity
  8
MAIN0
  6
CONTINUOUS
 62
3
100
AcDbLine
 10
178.1073448225226
 20
181.7033825484253
 30
0.0000000000000000
 11
176.5073448225223
 21
180.1033825484250
 31
0.0000000000000000
  0
LINE
  5
73
100
AcDbEntity
  8
MAIN0
  6
HIDDEN
 62
3
100
AcDbLine
 10
364.5348263204756
 20
259.0686054585682
 30
0.0000000000000000
 11
419.9700749891471
 21
291.0741612000195
 31
0.0000000000000000
  0
LINE
  5
74
100
AcDbEntity
  8
MAIN0
  6
HIDDEN
 62
3
100
AcDbLine
 10
350.0348263204756
 20
284.1833421683170
 30
0.0000000000000000
 11
405.4700749891471
 21
316.1888979097682
 31
0.0000000000000000
  0
LINE
  5
75
100
AcDbEntity
  8
MAIN0
  6
CENTER
 62
3
100
AcDbLine
 10
267.7343291535115
 20
219.9239701680311
 30
0.0000000000000000
 11
425.2935867954952
 21
310.8908499809480
 31
0.0000000000000000
  0
CIRCLE
  5
76
100
AcDbEntity
  8
MAIN0
  6
HIDDEN
 62
3
100
AcDbCircle
 10
342.3851618947243
 20
263.0236485464000
 30
0.0000000000000000
 40
65.49999999999997
  0
CIRCLE
  5
77
100
AcDbEntity
  8
MAIN0
  6
HIDDEN
 62
3
100
AcDbCircle
 10
342.3851618947243
 20
263.0236485464000
 30
0.0000000000000000
 40
39.00000000000003
  0
LINE
  5
78
100
AcDbEntity
  8
MAIN0
  6
CENTER
 62
3
100
AcDbLine
 10
332.0619941131430
 20
286.2098630070786
 30
0.0000000000000000
 11
323.7465319791382
 21
304.8866967520158
 31
0.0000000000000000
  0
ARC
  5
79
100
AcDbEntity
  8
MAIN0
  6
CENTER
 62
3
100
AcDbCircle
 10
342.3851618947243
 20
263.0236485464000
 30
0.0000000000000000
 40
35.49999999999997
100
AcDbArc
 50
97.04729142390642
 51
130.4787525085708
  0
CIRCLE
  5
7A
100
AcDbEntity
  8
MAIN0
  6
CONTINUOUS
 62
3
100
AcDbCircle
 10
327.9460110655489
 20
295.4545122927187
 30
0.0000000000000000
 40
7.500000000000000
  0
LINE
  5
7B
100
AcDbEntity
  8
MAIN0
  6
HIDDEN
 62
3
100
AcDbLine
 10
356.3851618947243
 20
344.3270925078953
 30
0.0000000000000000
 11
356.3851618947243
 21
327.0099752107741
 31
0.0000000000000000
  0
LINE
  5
7C
100
AcDbEntity
  8
MAIN0
  6
HIDDEN
 62
3
100
AcDbLine
 10
328.3851618947243
 20
344.3270925078953
 30
0.0000000000000000
 11
328.3851618947243
 21
327.0099752107741
 31
0.0000000000000000
  0
ARC
  5
7D
100
AcDbEntity
  8
MAIN0
  6
CENTER
 62
3
100
AcDbCircle
 10
342.3851618947243
 20
263.0236485464000
 30
0.0000000000000000
 40
72.50000000000000
100
AcDbArc
 50
94.01668862907040
 51
105.7716740475642
  0
LINE
  5
7E
100
AcDbEntity
  8
MAIN0
  6
CENTER
 62
3
100
AcDbLine
 10
329.8851618947243
 20
340.6592627810714
 30
0.0000000000000000
 11
329.8851618947243
 21
328.8131346081462
 31
0.0000000000000000
  0
LINE
  5
7F
100
AcDbEntity
  8
MAIN0
  6
HIDDEN
 62
3
100
AcDbLine
 10
264.9743140089048
 20
234.4962822186345
 30
0.0000000000000000
 11
279.9713775085267
 21
243.1548408671951
 31
0.0000000000000000
  0
LINE
  5
80
100
AcDbEntity
  8
MAIN0
  6
HIDDEN
 62
3
100
AcDbLine
 10
278.9743140089048
 20
210.2475709126702
 30
0.0000000000000000
 11
293.9713775085267
 21
218.9061295612308
 31
0.0000000000000000
  0
ARC
  5
81
100
AcDbEntity
  8
MAIN0
  6
CENTER
 62
3
100
AcDbCircle
 10
342.3851618947242
 20
263.0236485464000
 30
0.0000000000000000
 40
72.50000000000000
100
AcDbArc
 50
214.0166886290704
 51
229.6195312992333
  0
LINE
  5
82
100
AcDbEntity
  8
MAIN0
  6
CENTER
 62
3
100
AcDbLine
 10
281.4007477290901
 20
213.3805238817589
 30
0.0000000000000000
 11
291.6597956633298
 21
219.3035879682214
 31
0.0000000000000000
  0
CIRCLE
  5
83
100
AcDbEntity
  8
MAIN5
  6
HIDDEN
 62
3
100
AcDbCircle
 10
286.7885775104593
 20
216.4911888563803
 30
0.0000000000000000
 40
4.000000000000000
  0
CIRCLE
  5
84
100
AcDbEntity
  8
MAIN5
  6
HIDDEN
 62
3
100
AcDbCircle
 10
286.7885775104593
 20
216.4911888563803
 30
0.0000000000000000
 40
3.400000000000000
  0
LINE
  5
85
100
AcDbEntity
  8
MAIN0
  6
HIDDEN
 62
3
100
AcDbLine
 10
405.7960097805437
 20
210.2475709126703
 30
0.0000000000000000
 11
390.7989462809219
 21
218.9061295612308
 31
0.0000000000000000
  0
LINE
  5
86
100
AcDbEntity
  8
MAIN0
  6
HIDDEN
 62
3
100
AcDbLine
 10
419.7960097805437
 20
234.4962822186345
 30
0.0000000000000000
 11
404.7989462809219
 21
243.1548408671951
 31
0.0000000000000000
  0
ARC
  5
87
100
AcDbEntity
  8
MAIN0
  6
CENTER
 62
3
100
AcDbCircle
 10
342.3851618947243
 20
263.0236485464000
 30
0.0000000000000000
 40
72.50000000000000
100
AcDbArc
 50
334.0166886290704
 51
345.7716740475642
  0
LINE
  5
88
100
AcDbEntity
  8
MAIN0
  6
CENTER
 62
3
100
AcDbLine
 10
415.8695760603584
 20
235.0311589763698
 30
0.0000000000000000
 11
405.6105281261188
 21
240.9542230628324
 31
0.0000000000000000
  0
CIRCLE
  5
89
100
AcDbEntity
  8
MAIN0
  6
HIDDEN
 62
3
100
AcDbCircle
 10
410.4817462789893
 20
238.1418239509912
 30
0.0000000000000000
 40
4.000000000000000
  0
CIRCLE
  5
8A
100
AcDbEntity
  8
MAIN0
  6
HIDDEN
 62
3
100
AcDbCircle
 10
410.4817462789893
 20
238.1418239509912
 30
0.0000000000000000
 40
3.400000000000000
  0
LINE
  5
8B
100
AcDbEntity
  8
MAIN0
  6
CENTER
 62
3
100
AcDbLine
 10
374.0067995405183
 20
244.7668875393842
 30
0.0000000000000000
 11
257.7501500590809
 21
311.8876954125760
 31
0.0000000000000000
  0
LINE
  5
8C
100
AcDbEntity
  8
MAIN0
  6
CENTER
 62
3
100
AcDbLine
 10
416.9735432773945
 20
219.9600264766970
 30
0.0000000000000000
 11
394.4584501822161
 21
232.9591215360277
 31
0.0000000000000000
  0
MTEXT
  5
8D
100
AcDbEntity
  8
MAIN0
  6
CONTINUOUS
 62
3
100
AcDbMText
 10
359.9169444901645
 20
190.7053978623400
 30
0.0000000000000000
 40
4.649999856948853
 41
0.0000000000000000
 71
     1
 72
     1
  1
{\H0.67x;{1}}
 11
1.000000000000000
 21
0.0000000000000000
 31
0.0000000000000000
  7
STANDARD
  0
MTEXT
  5
8E
100
AcDbEntity
  8
MAIN0
  6
CONTINUOUS
 62
3
100
AcDbMText
 10
396.2487128466515
 20
314.3657429897071
 30
0.0000000000000000
 40
4.649999856948853
 41
0.0000000000000000
 71
     1
 72
     1
  1
{\H0.67x;{2}}
 11
-0.4999999999999998
 21
0.8660254037844387
 31
0.0000000000000000
  7
STANDARD
  0
MTEXT
  5
8F
100
AcDbEntity
  8
MAIN0
  6
CONTINUOUS
 62
3
100
AcDbMText
 10
270.9898283473569
 20
283.9998047871530
 30
0.0000000000000000
 40
4.649999856948853
 41
0.0000000000000000
 71
     1
 72
     1
  1
{\H0.67x;{3}}
 11
-0.5000000000000004
 21
-0.8660254037844384
 31
0.0000000000000000
  7
STANDARD
  0
LINE
  5
90
100
AcDbEntity
  8
MAIN0
  6
CENTER
 62
3
100
AcDbLine
 10
125.9283928907114
 20
398.7114894258525
 30
0.0000000000000000
 11
148.1477997999000
 21
398.7114894258481
 31
0.0000000000000000
  0
LINE
  5
91
100
AcDbEntity
  8
MAIN0
  6
CONTINUOUS
 62
3
100
AcDbLine
 10
143.6347426959530
 20
399.2551593642804
 30
0.0000000000000000
 11
137.6510147609526
 21
405.2388872992880
 31
0.0000000000000000
  0
LINE
  5
92
100
AcDbEntity
  8
MAIN0
  6
CONTINUOUS
 62
3
100
AcDbLine
 10
143.6347426959529
 20
398.1678194874177
 30
0.0000000000000000
 11
137.6510147609501
 21
392.1840915524125
 31
0.0000000000000000
  0
ARC
  5
93
100
AcDbEntity
  8
MAIN0
  6
CONTINUOUS
 62
3
100
AcDbCircle
 10
137.1073448225213
 20
398.7114894258503
 30
0.0000000000000000
 40
6.550000000000000
100
AcDbArc
 50
355.2387981259365
 51
364.7612018740410
  0
ARC
  5
94
100
AcDbEntity
  8
MAIN0
  6
CONTINUOUS
 62
3
100
AcDbCircle
 10
137.1073448225213
 20
398.7114894258503
 30
0.0000000000000000
 40
6.550000000000000
100
AcDbArc
 50
265.2387981259137
 51
274.7612018740863
  0
LINE
  5
95
100
AcDbEntity
  8
MAIN0
  6
CONTINUOUS
 62
3
100
AcDbLine
 10
130.5799469490897
 20
398.1678194874177
 30
0.0000000000000000
 11
136.5636748840925
 21
392.1840915524125
 31
0.0000000000000000
  0
ARC
  5
96
100
AcDbEntity
  8
MAIN0
  6
CONTINUOUS
 62
3
100
AcDbCircle
 10
137.1073448225213
 20
398.7114894258503
 30
0.0000000000000000
 40
6.550000000000000
100
AcDbArc
 50
175.2387981259133
 51
184.7612018740635
  0
LINE
  5
97
100
AcDbEntity
  8
MAIN0
  6
CONTINUOUS
 62
3
100
AcDbLine
 10
130.5799469490899
 20
399.2551593642855
 30
0.0000000000000000
 11
136.5636748840951
 21
405.2388872992883
 31
0.0000000000000000
  0
ARC
  5
98
100
AcDbEntity
  8
MAIN0
  6
CONTINUOUS
 62
3
100
AcDbCircle
 10
137.1073448225213
 20
398.7114894258503
 30
0.0000000000000000
 40
6.550000000000000
100
AcDbArc
 50
85.23879812589122
 51
94.76120187406400
  0
LINE
  5
99
100
AcDbEntity
  8
MAIN0
  6
CENTER
 62
3
100
AcDbLine
 10
137.1073448225213
 20
408.8932035653606
 30
0.0000000000000000
 11
137.1073448225213
 21
389.2878465582983
 31
0.0000000000000000
  0
DIMENSION
  5
A3
100
AcDbEntity
  8
MAIN0
  6
CONTINUOUS
 62
3
100
AcDbDimension
  2
*D0
 10
151.9136569582148
 20
390.9762451020134
 30
0.0000000000000000
 11
157.1101613782087
 21
397.2334096937804
 31
0.0000000000000000
 70
161
  3
MAIN001
100
AcDbAlignedDimension
 13
136.5636748840925
 23
392.1840915524126
 33
0.0000000000000000
 14
143.6347426959530
 24
399.2551593642804
 34
0.0000000000000000
 50
44.99999999996590
1001
ACAD
1000
DSTYLE
1002
{
1070
   173
1070
     1
1070
     6
1000
_OPEN
1070
     7
1000
_OPEN
1070
    41
1040
3.000000
1070
   272
1070
     2
1070
    47
1040
0.150000
1070
    48
1040
-0.050000
1070
    71
1070
     1
1070
   340
1005
A4
1002
}
  0
ARC
  5
A5
100
AcDbEntity
  8
MAIN0
  6
CONTINUOUS
 62
3
100
AcDbCircle
 10
342.3851618947243
 20
263.0236485464000
 30
0.0000000000000000
 40
22.50000000000000
100
AcDbArc
 50
57.81813928465380
 51
122.1818607153458
  0
ARC
  5
A6
100
AcDbEntity
  8
MAIN0
  6
CONTINUOUS
 62
3
100
AcDbCircle
 10
342.3851618947243
 20
263.0236485464000
 30
0.0000000000000000
 40
22.50000000000000
100
AcDbArc
 50
177.8181392846535
 51
242.1818607153459
  0
ARC
  5
A7
100
AcDbEntity
  8
MAIN0
  6
CONTINUOUS
 62
3
100
AcDbCircle
 10
342.3851618947243
 20
263.0236485464000
 30
0.0000000000000000
 40
22.50000000000000
100
AcDbArc
 50
297.8181392846535
 51
362.1818607153460
  0
LINE
  5
A8
100
AcDbEntity
  8
MAIN0
  6
CONTINUOUS
 62
3
100
AcDbLine
 10
205.1073448225226
 20
227.7033825484250
 30
0.0000000000000000
 11
205.1073448225226
 21
245.6033825484250
 31
0.0000000000000000
  0
LINE
  5
A9
100
AcDbEntity
  8
MAIN0
  6
CONTINUOUS
 62
3
100
AcDbLine
 10
356.6130839561344
 20
267.7740415632394
 30
0.0000000000000000
 11
364.1130839559638
 21
263.4439145444057
 31
0.0000000000000000
  0
LINE
  5
AA
100
AcDbEntity
  8
MAIN0
  6
CONTINUOUS
 62
3
100
AcDbLine
 10
353.6130839559104
 20
281.6304480238480
 30
0.0000000000000000
 11
353.6130839558825
 21
272.9701939863282
 31
0.0000000000000000
  0
LINE
  5
AB
100
AcDbEntity
  8
MAIN0
  6
HIDDEN
 62
3
100
AcDbLine
 10
334.7354974689731
 20
284.1833421683171
 30
0.0000000000000000
 11
279.3002488003016
 21
316.1888979097684
 31
0.0000000000000000
  0
LINE
  5
AC
100
AcDbEntity
  8
MAIN0
  6
HIDDEN
 62
3
100
AcDbLine
 10
320.2354974689729
 20
259.0686054585685
 30
0.0000000000000000
 11
264.8002488003016
 21
291.0741612000197
 31
0.0000000000000000
  0
LINE
  5
AD
100
AcDbEntity
  8
MAIN0
  6
CONTINUOUS
 62
3
100
AcDbLine
 10
331.1572398334761
 20
272.9701939862266
 30
0.0000000000000000
 11
331.1572398334848
 21
281.6304480238790
 31
0.0000000000000000
  0
LINE
  5
AE
100
AcDbEntity
  8
MAIN0
  6
CONTINUOUS
 62
3
100
AcDbLine
 10
320.6572398335383
 20
263.4439145443750
 30
0.0000000000000000
 11
328.1572398332711
 21
267.7740415631107
 31
0.0000000000000000
  0
LINE
  5
AF
100
AcDbEntity
  8
MAIN0
  6
HIDDEN
 62
3
100
AcDbLine
 10
327.8851618947243
 20
245.8189980123148
 30
0.0000000000000000
 11
327.8851618947242
 21
181.8078865294122
 31
0.0000000000000000
  0
LINE
  5
B0
100
AcDbEntity
  8
MAIN0
  6
HIDDEN
 62
3
100
AcDbLine
 10
356.8851618947242
 20
245.8189980123147
 30
0.0000000000000000
 11
356.8851618947242
 21
181.8078865294122
 31
0.0000000000000000
  0
LINE
  5
B1
100
AcDbEntity
  8
MAIN0
  6
CONTINUOUS
 62
3
100
AcDbLine
 10
339.3851618945623
 20
248.3267100897341
 30
0.0000000000000000
 11
331.8851618947242
 21
243.9965830709154
 31
0.0000000000000000
  0
LINE
  5
B2
100
AcDbEntity
  8
MAIN0
  6
CONTINUOUS
 62
3
100
AcDbLine
 10
352.8851618947241
 20
243.9965830709772
 30
0.0000000000000000
 11
345.3851618950192
 21
248.3267100897612
 31
0.0000000000000000
  0
ARC
  5
B3
100
AcDbEntity
  8
MAIN0
  6
CONTINUOUS
 62
3
100
AcDbCircle
 10
342.3851618947243
 20
263.0236485464000
 30
0.0000000000000000
 40
15.00000000000000
100
AcDbArc
 50
138.4630409665527
 51
161.5369590339651
  0
ARC
  5
B4
100
AcDbEntity
  8
MAIN0
  6
CONTINUOUS
 62
3
100
AcDbCircle
 10
342.3851618947243
 20
263.0236485464000
 30
0.0000000000000000
 40
15.00000000000000
100
AcDbArc
 50
258.4630409665526
 51
281.5369590339653
  0
ARC
  5
B5
100
AcDbEntity
  8
MAIN0
  6
CONTINUOUS
 62
3
100
AcDbCircle
 10
342.3851618947243
 20
263.0236485464000
 30
0.0000000000000000
 40
15.00000000000000
100
AcDbArc
 50
18.46304096655279
 51
41.53695903396534
  0
LINE
  5
B6
100
AcDbEntity
  8
MAIN0
  6
PHANTOM
 62
3
100
AcDbLine
 10
205.1073448225213
 20
272.8533825484250
 30
0.0000000000000000
 11
205.1073448225213
 21
252.3533825484250
 31
0.0000000000000000
  0
LINE
  5
B7
100
AcDbEntity
  8
MAIN0
  6
PHANTOM
 62
3
100
AcDbLine
 10
178.1073448225213
 20
272.8533825484250
 30
0.0000000000000000
 11
205.1073448225213
 21
272.8533825484250
 31
0.0000000000000000
  0
LINE
  5
B8
100
AcDbEntity
  8
MAIN0
  6
PHANTOM
 62
3
100
AcDbLine
 10
178.1073448225213
 20
252.3533825484250
 30
0.0000000000000000
 11
205.1073448225213
 21
252.3533825484250
 31
0.0000000000000000
  0
LINE
  5
B9
100
AcDbEntity
  8
MAIN0
  6
CONTINUOUS
 62
3
100
AcDbLine
 10
114.7073448225216
 20
180.1033825484250
 30
0.0000000000000000
 11
176.5073448225223
 21
180.1033825484250
 31
0.0000000000000000
  0
LINE
  5
BA
100
AcDbEntity
  8
MAIN0
  6
HIDDEN
 62
3
100
AcDbLine
 10
161.1073448225660
 20
180.1033825484250
 30
0.0000000000000000
 11
176.5073448225223
 21
180.1033825484250
 31
0.0000000000000000
  0
DIMENSION
  5
C3
100
AcDbEntity
  8
MAIN0
  6
CONTINUOUS
 62
3
100
AcDbDimension
  2
*D1
 10
222.0162281561407
 20
272.8533825484250
 30
0.0000000000000000
 11
221.5162281561407
 21
262.6033825484250
 31
0.0000000000000000
 70
32
  3
MAIN001
100
AcDbAlignedDimension
 13
205.1073448225213
 23
252.3533825484250
 33
0.0000000000000000
 14
205.1073448225213
 24
272.8533825484250
 34
0.0000000000000000
 50
90.00000000000000
100
AcDbRotatedDimension
1001
ACAD
1000
DSTYLE
1002
{
1070
   173
1070
     1
1070
     6
1000
_OPEN
1070
     7
1000
_OPEN
1070
    41
1040
3.000000
1002
}
  0
DIMENSION
  5
CB
100
AcDbEntity
  8
MAIN0
  6
CONTINUOUS
 62
3
100
AcDbDimension
  2
*D2
 10
205.1073448225213
 20
287.6033825484250
 30
0.0000000000000000
 11
195.6624976428888
 21
288.3533825484250
 31
0.0000000000000000
 70
160
  3
MAIN001
100
AcDbAlignedDimension
 13
178.1073448225213
 23
343.5033825484248
 33
0.0000000000000000
 14
205.1073448225213
 24
275.6033825484250
 34
0.0000000000000000
100
AcDbRotatedDimension
1001
ACAD
1000
DSTYLE
1002
{
1070
   173
1070
     1
1070
     6
1000
_OPEN
1070
     7
1000
_OPEN
1070
    41
1040
3.000000
1002
}
  0
LINE
  5
CC
100
AcDbEntity
  8
MAIN0
  6
CENTER
 62
3
100
AcDbLine
 10
109.1722866578323
 20
262.6033825484250
 30
0.0000000000000000
 11
192.4203864534158
 21
262.6033825484250
 31
0.0000000000000000
  0
LINE
  5
CD
100
AcDbEntity
  8
MAIN0
  6
CONTINUOUS
 62
3
100
AcDbLine
 10
196.6073448225226
 20
206.2033825484250
 30
0.0000000000000000
 11
196.6073448225226
 21
227.1033825484250
 31
0.0000000000000000
  0
LINE
  5
CE
100
AcDbEntity
  8
MAIN0
  6
CONTINUOUS
 62
3
100
AcDbLine
 10
188.1073448225226
 20
180.2033825484250
 30
0.0000000000000000
 11
188.1073448225226
 21
205.6033825484250
 31
0.0000000000000000
  0
LINE
  5
CF
100
AcDbEntity
  8
MAIN0
  6
CONTINUOUS
 62
3
100
AcDbLine
 10
205.1073448225226
 20
227.7033825484250
 30
0.0000000000000000
 11
204.5073448225226
 21
227.1033825484250
 31
0.0000000000000000
  0
LINE
  5
D0
100
AcDbEntity
  8
MAIN0
  6
CONTINUOUS
 62
3
100
AcDbLine
 10
196.6073448225226
 20
206.2033825484250
 30
0.0000000000000000
 11
196.0073448225226
 21
205.6033825484250
 31
0.0000000000000000
  0
LINE
  5
D1
100
AcDbEntity
  8
MAIN0
  6
CONTINUOUS
 62
3
100
AcDbLine
 10
188.1073448225226
 20
180.2033825484250
 30
0.0000000000000000
 11
187.5073448225226
 21
179.6033825484250
 31
0.0000000000000000
  0
LINE
  5
D2
100
AcDbEntity
  8
MAIN0
  6
CONTINUOUS
 62
3
100
AcDbLine
 10
179.1073448225728
 20
245.6033825484251
 30
0.0000000000000000
 11
180.1073448225968
 21
243.8713317408147
 31
0.0000000000000000
  0
LINE
  5
D3
100
AcDbEntity
  8
MAIN0
  6
CONTINUOUS
 62
3
100
AcDbLine
 10
180.1073448225968
 20
243.8713317408146
 30
0.0000000000000000
 11
181.1073448226209
 21
245.6033825484252
 31
0.0000000000000000
  0
LINE
  5
D4
100
AcDbEntity
  8
MAIN0
  6
CONTINUOUS
 62
3
100
AcDbLine
 10
185.6073448225728
 20
245.6033825484251
 30
0.0000000000000000
 11
186.6073448225968
 21
243.8713317408147
 31
0.0000000000000000
  0
LINE
  5
D5
100
AcDbEntity
  8
MAIN0
  6
CONTINUOUS
 62
3
100
AcDbLine
 10
186.6073448225968
 20
243.8713317408146
 30
0.0000000000000000
 11
187.6073448226209
 21
245.6033825484252
 31
0.0000000000000000
  0
LINE
  5
D6
100
AcDbEntity
  8
MAIN0
  6
CONTINUOUS
 62
3
100
AcDbLine
 10
192.1073448225728
 20
245.6033825484251
 30
0.0000000000000000
 11
193.1073448225968
 21
243.8713317408147
 31
0.0000000000000000
  0
LINE
  5
D7
100
AcDbEntity
  8
MAIN0
  6
CONTINUOUS
 62
3
100
AcDbLine
 10
193.1073448225968
 20
243.8713317408146
 30
0.0000000000000000
 11
194.1073448226209
 21
245.6033825484252
 31
0.0000000000000000
  0
LINE
  5
D8
100
AcDbEntity
  8
MAIN0
  6
CONTINUOUS
 62
3
100
AcDbLine
 10
181.1073448226208
 20
245.6033825484250
 30
0.0000000000000000
 11
185.6073448225728
 21
245.6033825484250
 31
0.0000000000000000
  0
LINE
  5
D9
100
AcDbEntity
  8
MAIN0
  6
CONTINUOUS
 62
3
100
AcDbLine
 10
188.1073448226208
 20
245.6033825484250
 30
0.0000000000000000
 11
192.1073448225728
 21
245.6033825484250
 31
0.0000000000000000
  0
LINE
  5
DA
100
AcDbEntity
  8
MAIN0
  6
CONTINUOUS
 62
3
100
AcDbLine
 10
192.1073448225728
 20
245.6033825484251
 30
0.0000000000000000
 11
193.1073448225968
 21
243.8713317408147
 31
0.0000000000000000
  0
LINE
  5
DB
100
AcDbEntity
  8
MAIN0
  6
CONTINUOUS
 62
3
100
AcDbLine
 10
193.1073448225968
 20
243.8713317408146
 30
0.0000000000000000
 11
194.1073448226209
 21
245.6033825484252
 31
0.0000000000000000
  0
LINE
  5
DC
100
AcDbEntity
  8
MAIN0
  6
CONTINUOUS
 62
3
100
AcDbLine
 10
187.6073448226208
 20
245.6033825484250
 30
0.0000000000000000
 11
192.1073448225728
 21
245.6033825484250
 31
0.0000000000000000
  0
LINE
  5
DD
100
AcDbEntity
  8
MAIN0
  6
CONTINUOUS
 62
3
100
AcDbLine
 10
192.1073448225728
 20
245.6033825484251
 30
0.0000000000000000
 11
193.1073448225968
 21
243.8713317408147
 31
0.0000000000000000
  0
LINE
  5
DE
100
AcDbEntity
  8
MAIN0
  6
CONTINUOUS
 62
3
100
AcDbLine
 10
193.1073448225968
 20
243.8713317408146
 30
0.0000000000000000
 11
194.1073448226209
 21
245.6033825484252
 31
0.0000000000000000
  0
LINE
  5
DF
100
AcDbEntity
  8
MAIN0
  6
CONTINUOUS
 62
3
100
AcDbLine
 10
198.6073448225728
 20
245.6033825484251
 30
0.0000000000000000
 11
199.6073448225968
 21
243.8713317408147
 31
0.0000000000000000
  0
LINE
  5
E0
100
AcDbEntity
  8
MAIN0
  6
CONTINUOUS
 62
3
100
AcDbLine
 10
199.6073448225968
 20
243.8713317408146
 30
0.0000000000000000
 11
200.6073448226209
 21
245.6033825484252
 31
0.0000000000000000
  0
LINE
  5
E1
100
AcDbEntity
  8
MAIN0
  6
CONTINUOUS
 62
3
100
AcDbLine
 10
194.1073448226208
 20
245.6033825484250
 30
0.0000000000000000
 11
198.6073448225728
 21
245.6033825484250
 31
0.0000000000000000
  0
LINE
  5
E2
100
AcDbEntity
  8
MAIN0
  6
CONTINUOUS
 62
3
100
AcDbLine
 10
200.6073448226208
 20
245.6033825484250
 30
0.0000000000000000
 11
205.1073448225728
 21
245.6033825484250
 31
0.0000000000000000
  0
LINE
  5
E3
100
AcDbEntity
  8
MAIN0
  6
CONTINUOUS
 62
3
100
AcDbLine
 10
364.1130839559638
 20
263.4439145444057
 30
0.0000000000000000
 11
418.5012327608305
 21
294.8449268976210
 31
0.0000000000000000
  0
LINE
  5
E4
100
AcDbEntity
  8
MAIN0
  6
CONTINUOUS
 62
3
100
AcDbLine
 10
353.6130839559104
 20
281.6304480238481
 30
0.0000000000000000
 11
408.0012327608307
 21
313.0314603770941
 31
0.0000000000000000
  0
LINE
  5
E5
100
AcDbEntity
  8
MAIN0
  6
CONTINUOUS
 62
3
100
AcDbLine
 10
352.8851618947241
 20
243.9965830709772
 30
0.0000000000000000
 11
352.8851618947241
 21
181.1945583644849
 31
0.0000000000000000
  0
LINE
  5
E6
100
AcDbEntity
  8
MAIN0
  6
CONTINUOUS
 62
3
100
AcDbLine
 10
331.8851618947242
 20
243.9965830709154
 30
0.0000000000000000
 11
331.8851618947242
 21
181.1945583644849
 31
0.0000000000000000
  0
LINE
  5
E7
100
AcDbEntity
  8
MAIN0
  6
CONTINUOUS
 62
3
100
AcDbLine
 10
331.1572398334848
 20
281.6304480238790
 30
0.0000000000000000
 11
276.7690910286181
 21
313.0314603770943
 31
0.0000000000000000
  0
LINE
  5
E8
100
AcDbEntity
  8
MAIN0
  6
CONTINUOUS
 62
3
100
AcDbLine
 10
320.6572398335383
 20
263.4439145443750
 30
0.0000000000000000
 11
266.2690910286181
 21
294.8449268976211
 31
0.0000000000000000
  0
LINE
  5
E9
100
AcDbEntity
  8
MAIN0
  6
CONTINUOUS
 62
3
100
AcDbLine
 10
417.7832196011882
 20
294.4303818066197
 30
0.0000000000000000
 11
407.2832196011915
 21
312.6169152860948
 31
0.0000000000000000
  0
CIRCLE
  5
EA
100
AcDbEntity
  8
MAIN0
  6
CONTINUOUS
 62
3
100
AcDbCircle
 10
342.3851618947243
 20
263.0236485464000
 30
0.0000000000000000
 40
82.50000000000000
  0
LINE
  5
EB
100
AcDbEntity
  8
MAIN0
  6
CONTINUOUS
 62
3
100
AcDbLine
 10
266.9871041882604
 20
294.4303818066198
 30
0.0000000000000000
 11
277.4871041882572
 21
312.6169152860948
 31
0.0000000000000000
  0
LINE
  5
EC
100
AcDbEntity
  8
MAIN0
  6
CONTINUOUS
 62
3
100
AcDbLine
 10
331.8851618947244
 20
182.0236485464874
 30
0.0000000000000000
 11
352.8851618947244
 21
182.0236485464836
 31
0.0000000000000000
  0
LINE
  5
ED
100
AcDbEntity
  8
MAIN0
  6
CONTINUOUS
 62
3
100
AcDbLine
 10
331.8851618947243
 20
243.9965830709155
 30
0.0000000000000000
 11
331.8851618947244
 21
181.1945583644850
 31
0.0000000000000000
  0
LINE
  5
EE
100
AcDbEntity
  8
MAIN0
  6
CONTINUOUS
 62
3
100
AcDbLine
 10
352.8851618947243
 20
243.9965830709771
 30
0.0000000000000000
 11
352.8851618947243
 21
181.1945583644849
 31
0.0000000000000000
  0
ARC
  5
EF
100
AcDbEntity
  8
MAIN0
  6
CONTINUOUS
 62
3
100
AcDbCircle
 10
342.3851618947243
 20
263.0236485464000
 30
0.0000000000000000
 40
57.00000000000000
100
AcDbArc
 50
139.3848921492919
 51
160.6151078507078
  0
ARC
  5
F0
100
AcDbEntity
  8
MAIN0
  6
CONTINUOUS
 62
3
100
AcDbCircle
 10
342.3851618947243
 20
263.0236485464000
 30
0.0000000000000000
 40
57.00000000000000
100
AcDbArc
 50
259.3848921492920
 51
280.6151078507077
  0
ARC
  5
F1
100
AcDbEntity
  8
MAIN0
  6
CONTINUOUS
 62
3
100
AcDbCircle
 10
342.3851618947243
 20
263.0236485464000
 30
0.0000000000000000
 40
57.00000000000000
100
AcDbArc
 50
19.38489214929206
 51
40.61510785070783
  0
ARC
  5
F2
100
AcDbEntity
  8
MAIN0
  6
CONTINUOUS
 62
3
100
AcDbCircle
 10
342.3851618947243
 20
263.0236485464000
 30
0.0000000000000000
 40
35.50000000000000
100
AcDbArc
 50
252.7960055449039
 51
287.2039944550961
  0
ARC
  5
F3
100
AcDbEntity
  8
MAIN0
  6
CONTINUOUS
 62
3
100
AcDbCircle
 10
342.3851618947243
 20
263.0236485464000
 30
0.0000000000000000
 40
35.50000000000000
100
AcDbArc
 50
12.79600554490384
 51
47.20399445509597
  0
ARC
  5
F4
100
AcDbEntity
  8
MAIN0
  6
CONTINUOUS
 62
3
100
AcDbCircle
 10
342.3851618947243
 20
263.0236485464000
 30
0.0000000000000000
 40
35.50000000000000
100
AcDbArc
 50
132.7960055449037
 51
167.2039944550959
  0
LINE
  5
F5
100
AcDbEntity
  8
MAIN0
  6
CENTER
 62
3
100
AcDbLine
 10
313.2979440980654
 20
313.4041876210351
 30
0.0000000000000000
 11
301.1351618947244
 21
334.4707443586163
 31
0.0000000000000000
  0
LINE
  5
F6
100
AcDbEntity
  8
MAIN0
  6
CENTER
 62
3
100
AcDbLine
 10
313.2311695076944
 20
212.5274524885876
 30
0.0000000000000000
 11
301.1351618947245
 21
191.5765527341836
 31
0.0000000000000000
  0
LINE
  5
F7
100
AcDbEntity
  8
MAIN0
  6
CENTER
 62
3
100
AcDbLine
 10
251.3794227613353
 20
263.0236485464000
 30
0.0000000000000000
 11
439.2046177866105
 21
263.0236485464000
 31
0.0000000000000000
  0
ARC
  5
F8
100
AcDbEntity
  8
MAIN0
  6
CENTER
 62
3
100
AcDbCircle
 10
342.3851618947243
 20
263.0236485464000
 30
0.0000000000000000
 40
72.50000000000000
100
AcDbArc
 50
110.5097817855557
 51
130.4873498942977
  0
ARC
  5
F9
100
AcDbEntity
  8
MAIN0
  6
CENTER
 62
3
100
AcDbCircle
 10
342.3851618947243
 20
263.0236485464000
 30
0.0000000000000000
 40
72.50000000000000
100
AcDbArc
 50
229.8094665017988
 51
250.1085641750385
  0
ARC
  5
FA
100
AcDbEntity
  8
MAIN0
  6
CENTER
 62
3
100
AcDbCircle
 10
342.3851618947243
 20
263.0236485464000
 30
0.0000000000000000
 40
72.50000000000000
100
AcDbArc
 50
349.6738907674655
 51
369.9267808078271
  0
LINE
  5
FB
100
AcDbEntity
  8
MAIN0
  6
CENTER
 62
3
100
AcDbLine
 10
100.7977241444702
 20
335.1033825484250
 30
0.0000000000000000
 11
183.1073448225213
 21
335.1033825484250
 31
0.0000000000000000
  0
LINE
  5
FC
100
AcDbEntity
  8
MAIN0
  6
CONTINUOUS
 62
3
100
AcDbLine
 10
199.6073448225728
 20
227.1033825484250
 30
0.0000000000000000
 11
200.6073448225968
 21
228.8354333560354
 31
0.0000000000000000
  0
LINE
  5
FD
100
AcDbEntity
  8
MAIN0
  6
CONTINUOUS
 62
3
100
AcDbLine
 10
200.6073448225968
 20
228.8354333560355
 30
0.0000000000000000
 11
201.6073448226209
 21
227.1033825484249
 31
0.0000000000000000
  0
LINE
  5
FE
100
AcDbEntity
  8
MAIN0
  6
CONTINUOUS
 62
3
100
AcDbLine
 10
196.6073448225226
 20
227.1033825484250
 30
0.0000000000000000
 11
199.6073448225728
 21
227.1033825484250
 31
0.0000000000000000
  0
LINE
  5
FF
100
AcDbEntity
  8
MAIN0
  6
CONTINUOUS
 62
3
100
AcDbLine
 10
201.6073448226208
 20
227.1033825484250
 30
0.0000000000000000
 11
204.5073448225226
 21
227.1033825484250
 31
0.0000000000000000
  0
LINE
  5
100
100
AcDbEntity
  8
MAIN0
  6
CONTINUOUS
 62
3
100
AcDbLine
 10
191.1073448225728
 20
205.6033825484250
 30
0.0000000000000000
 11
192.1073448225968
 21
207.3354333560354
 31
0.0000000000000000
  0
LINE
  5
101
100
AcDbEntity
  8
MAIN0
  6
CONTINUOUS
 62
3
100
AcDbLine
 10
192.1073448225968
 20
207.3354333560355
 30
0.0000000000000000
 11
193.1073448226209
 21
205.6033825484249
 31
0.0000000000000000
  0
LINE
  5
102
100
AcDbEntity
  8
MAIN0
  6
CONTINUOUS
 62
3
100
AcDbLine
 10
188.1073448225226
 20
205.6033825484250
 30
0.0000000000000000
 11
191.1073448225728
 21
205.6033825484250
 31
0.0000000000000000
  0
LINE
  5
103
100
AcDbEntity
  8
MAIN0
  6
CONTINUOUS
 62
3
100
AcDbLine
 10
193.1073448226208
 20
205.6033825484250
 30
0.0000000000000000
 11
196.0073448225226
 21
205.6033825484250
 31
0.0000000000000000
  0
LINE
  5
104
100
AcDbEntity
  8
MAIN0
  6
PHANTOM
 62
3
100
AcDbLine
 10
180.1073448225968
 20
281.3354333560355
 30
0.0000000000000000
 11
181.1073448226209
 21
279.6033825484249
 31
0.0000000000000000
  0
LINE
  5
105
100
AcDbEntity
  8
MAIN0
  6
PHANTOM
 62
3
100
AcDbLine
 10
179.1073448225728
 20
279.6033825484250
 30
0.0000000000000000
 11
180.1073448225968
 21
281.3354333560354
 31
0.0000000000000000
  0
LINE
  5
106
100
AcDbEntity
  8
MAIN0
  6
PHANTOM
 62
3
100
AcDbLine
 10
178.1073448225213
 20
345.6033825484250
 30
0.0000000000000000
 11
205.1073448225728
 21
345.6033825484250
 31
0.0000000000000000
  0
LINE
  5
107
100
AcDbEntity
  8
MAIN0
  6
PHANTOM
 62
3
100
AcDbLine
 10
205.1073448225226
 20
327.7033825484250
 30
0.0000000000000000
 11
205.1073448225226
 21
345.6033825484250
 31
0.0000000000000000
  0
LINE
  5
108
100
AcDbEntity
  8
MAIN0
  6
PHANTOM
 62
3
100
AcDbLine
 10
201.6073448226208
 20
327.1033825484250
 30
0.0000000000000000
 11
204.5073448225226
 21
327.1033825484250
 31
0.0000000000000000
  0
LINE
  5
109
100
AcDbEntity
  8
MAIN0
  6
PHANTOM
 62
3
100
AcDbLine
 10
200.6073448225968
 20
328.8354333560354
 30
0.0000000000000000
 11
201.6073448226209
 21
327.1033825484249
 31
0.0000000000000000
  0
LINE
  5
10A
100
AcDbEntity
  8
MAIN0
  6
PHANTOM
 62
3
100
AcDbLine
 10
199.6073448225728
 20
327.1033825484250
 30
0.0000000000000000
 11
200.6073448225968
 21
328.8354333560354
 31
0.0000000000000000
  0
LINE
  5
10B
100
AcDbEntity
  8
MAIN0
  6
PHANTOM
 62
3
100
AcDbLine
 10
196.6073448225226
 20
327.1033825484250
 30
0.0000000000000000
 11
199.6073448225728
 21
327.1033825484250
 31
0.0000000000000000
  0
LINE
  5
10C
100
AcDbEntity
  8
MAIN0
  6
PHANTOM
 62
3
100
AcDbLine
 10
205.1073448225226
 20
327.7033825484250
 30
0.0000000000000000
 11
204.5073448225226
 21
327.1033825484250
 31
0.0000000000000000
  0
LINE
  5
10D
100
AcDbEntity
  8
MAIN0
  6
PHANTOM
 62
3
100
AcDbLine
 10
196.6073448225226
 20
306.2033825484250
 30
0.0000000000000000
 11
196.6073448225226
 21
327.1033825484250
 31
0.0000000000000000
  0
LINE
  5
10E
100
AcDbEntity
  8
MAIN0
  6
PHANTOM
 62
3
100
AcDbLine
 10
196.6073448225226
 20
306.2033825484250
 30
0.0000000000000000
 11
196.0073448225226
 21
305.6033825484250
 31
0.0000000000000000
  0
LINE
  5
10F
100
AcDbEntity
  8
MAIN0
  6
PHANTOM
 62
3
100
AcDbLine
 10
193.1073448226208
 20
305.6033825484250
 30
0.0000000000000000
 11
196.0073448225226
 21
305.6033825484250
 31
0.0000000000000000
  0
LINE
  5
110
100
AcDbEntity
  8
MAIN0
  6
PHANTOM
 62
3
100
AcDbLine
 10
192.1073448225968
 20
307.3354333560354
 30
0.0000000000000000
 11
193.1073448226209
 21
305.6033825484249
 31
0.0000000000000000
  0
LINE
  5
111
100
AcDbEntity
  8
MAIN0
  6
PHANTOM
 62
3
100
AcDbLine
 10
191.1073448225728
 20
305.6033825484250
 30
0.0000000000000000
 11
192.1073448225968
 21
307.3354333560354
 31
0.0000000000000000
  0
LINE
  5
112
100
AcDbEntity
  8
MAIN0
  6
PHANTOM
 62
3
100
AcDbLine
 10
188.1073448225226
 20
305.6033825484250
 30
0.0000000000000000
 11
191.1073448225728
 21
305.6033825484250
 31
0.0000000000000000
  0
LINE
  5
113
100
AcDbEntity
  8
MAIN0
  6
PHANTOM
 62
3
100
AcDbLine
 10
188.1073448225226
 20
280.2033825484250
 30
0.0000000000000000
 11
188.1073448225226
 21
305.6033825484250
 31
0.0000000000000000
  0
LINE
  5
114
100
AcDbEntity
  8
MAIN0
  6
PHANTOM
 62
3
100
AcDbLine
 10
188.1073448225226
 20
280.2033825484251
 30
0.0000000000000000
 11
187.5073448225225
 21
279.6033825484250
 31
0.0000000000000000
  0
LINE
  5
115
100
AcDbEntity
  8
MAIN0
  6
PHANTOM
 62
3
100
AcDbLine
 10
181.1073448226208
 20
279.6033825484250
 30
0.0000000000000000
 11
187.5073448225226
 21
279.6033825484250
 31
0.0000000000000000
  0
LINE
  5
116
100
AcDbEntity
  8
MAIN0
  6
PHANTOM
 62
3
100
AcDbLine
 10
178.1073448225213
 20
279.6033825484250
 30
0.0000000000000000
 11
179.1073448225728
 21
279.6033825484250
 31
0.0000000000000000
  0
LINE
  5
117
100
AcDbEntity
  8
MAIN0
  6
CONTINUOUS
 62
3
100
AcDbLine
 10
113.1073448225213
 20
197.6033825484250
 30
0.0000000000000000
 11
113.1073448225213
 21
181.7033825484253
 31
0.0000000000000000
  0
LINE
  5
118
100
AcDbEntity
  8
MAIN0
  6
CONTINUOUS
 62
3
100
AcDbLine
 10
113.1073448225213
 20
343.5033825484246
 30
0.0000000000000000
 11
113.1073448225213
 21
197.6033825484250
 31
0.0000000000000000
  0
LINE
  5
119
100
AcDbEntity
  8
MAIN0
  6
CONTINUOUS
 62
3
100
AcDbLine
 10
126.6073448225213
 20
240.1033825484250
 30
0.0000000000000000
 11
126.6073448225213
 21
222.6033825484250
 31
0.0000000000000000
  0
LINE
  5
11A
100
AcDbEntity
  8
MAIN0
  6
CONTINUOUS
 62
3
100
AcDbLine
 10
126.6073448225213
 20
302.6033825484250
 30
0.0000000000000000
 11
126.6073448225213
 21
240.1033825484250
 31
0.0000000000000000
  0
LINE
  5
11B
100
AcDbEntity
  8
MAIN0
  6
CONTINUOUS
 62
3
100
AcDbLine
 10
118.1073448225213
 20
240.1033825484250
 30
0.0000000000000000
 11
118.1073448225213
 21
198.0033825484250
 31
0.0000000000000000
  0
LINE
  5
11C
100
AcDbEntity
  8
MAIN0
  6
CONTINUOUS
 62
3
100
AcDbLine
 10
118.1073448225213
 20
327.2033825484250
 30
0.0000000000000000
 11
118.1073448225213
 21
240.1033825484250
 31
0.0000000000000000
  0
CIRCLE
  5
11D
100
AcDbEntity
  8
MAIN0
  6
CONTINUOUS
 62
3
100
AcDbCircle
 10
306.1351618947244
 20
325.8104903207719
 30
0.0000000000000000
 40
8.500000000000000
  0
CIRCLE
  5
11E
100
AcDbEntity
  8
MAIN0
  6
CONTINUOUS
 62
3
100
AcDbCircle
 10
306.1351618947244
 20
325.8104903207719
 30
0.0000000000000000
 40
6.000000000000000
  0
CIRCLE
  5
11F
100
AcDbEntity
  8
MAIN0
  6
CONTINUOUS
 62
3
100
AcDbCircle
 10
306.1351618947245
 20
200.2368067720281
 30
0.0000000000000000
 40
6.000000000000000
  0
CIRCLE
  5
120
100
AcDbEntity
  8
MAIN0
  6
CONTINUOUS
 62
3
100
AcDbCircle
 10
306.1351618947245
 20
200.2368067720281
 30
0.0000000000000000
 40
8.500000000000000
  0
CIRCLE
  5
121
100
AcDbEntity
  8
MAIN0
  6
CONTINUOUS
 62
3
100
AcDbCircle
 10
414.8851618947243
 20
263.0236485464000
 30
0.0000000000000000
 40
6.000000000000000
  0
CIRCLE
  5
122
100
AcDbEntity
  8
MAIN0
  6
CONTINUOUS
 62
3
100
AcDbCircle
 10
414.8851618947243
 20
263.0236485464000
 30
0.0000000000000000
 40
8.500000000000000
  0
DIMENSION
  5
12B
100
AcDbEntity
  8
MAIN0
  6
CONTINUOUS
 62
3
100
AcDbDimension
  2
*D3
 10
98.10734482252130
 20
240.1033825484250
 30
0.0000000000000000
 11
97.60734482252130
 21
260.1281412128178
 31
0.0000000000000000
 70
160
  1
\A1;\U+220545
  3
MAIN001
100
AcDbAlignedDimension
 13
126.6073448225213
 23
285.1033825484250
 33
0.0000000000000000
 14
126.6073448225213
 24
240.1033825484250
 34
0.0000000000000000
 50
90.00000000000000
100
AcDbRotatedDimension
1001
ACAD
1000
DSTYLE
1002
{
1070
   173
1070
     1
1070
     6
1000
_OPEN
1070
     7
1000
_OPEN
1070
    41
1040
3.000000
1002
}
  0
DIMENSION
  5
134
100
AcDbEntity
  8
MAIN0
  6
CONTINUOUS
 62
3
100
AcDbDimension
  2
*D4
 10
83.10734482252130
 20
327.6033825484250
 30
0.0000000000000000
 11
82.60734482252130
 21
264.8694439208234
 31
0.0000000000000000
 70
160
  1
\A1;\U+2205130H6\H0.903226x;\S＋0.025^ 　0;
  3
MAIN001
100
AcDbAlignedDimension
 13
113.1073448225213
 23
197.6033825484250
 33
0.0000000000000000
 14
113.1073448225213
 24
327.6033825484250
 34
0.0000000000000000
 50
90.00000000000000
100
AcDbRotatedDimension
1001
ACAD
1000
DSTYLE
1002
{
1070
   173
1070
     1
1070
     6
1000
_OPEN
1070
     7
1000
_OPEN
1070
    41
1040
3.000000
1070
   272
1070
     3
1070
    47
1040
0.025000
1070
    48
1040
0.000000
1070
    71
1070
     1
1070
   340
1005
A4
1002
}
  0
DIMENSION
  5
13D
100
AcDbEntity
  8
MAIN0
  6
CONTINUOUS
 62
3
100
AcDbDimension
  2
*D5
 10
68.10734482252130
 20
345.1033825484250
 30
0.0000000000000000
 11
67.60734482252130
 21
262.6033825484250
 31
0.0000000000000000
 70
32
  1
\A1;\U+2205165
  3
MAIN001
100
AcDbAlignedDimension
 13
114.7073448225216
 23
180.1033825484250
 33
0.0000000000000000
 14
114.7073448225217
 24
345.1033825484250
 34
0.0000000000000000
 50
90.00000000000000
100
AcDbRotatedDimension
1001
ACAD
1000
DSTYLE
1002
{
1070
   173
1070
     1
1070
     6
1000
_OPEN
1070
     7
1000
_OPEN
1070
    41
1040
3.000000
1002
}
  0
DIMENSION
  5
146
100
AcDbEntity
  8
MAIN0
  6
CONTINUOUS
 62
3
100
AcDbDimension
  2
*D6
 10
193.1073448225213
 20
343.6033825484250
 30
0.0000000000000000
 11
192.6073448225213
 21
335.1033825484250
 31
0.0000000000000000
 70
32
  1
\A1;\U+220517
  3
MAIN001
100
AcDbAlignedDimension
 13
177.5073448225213
 23
326.6033825484250
 33
0.0000000000000000
 14
177.5073448225213
 24
343.6033825484250
 34
0.0000000000000000
 50
90.00000000000000
100
AcDbRotatedDimension
1001
ACAD
1000
DSTYLE
1002
{
1070
   173
1070
     1
1070
     6
1000
_OPEN
1070
     7
1000
_OPEN
1070
    41
1040
3.000000
1002
}
  0
DIMENSION
  5
14F
100
AcDbEntity
  8
MAIN0
  6
CONTINUOUS
 62
3
100
AcDbDimension
  2
*D7
 10
178.1073448225213
 20
352.6033825484250
 30
0.0000000000000000
 11
172.1073448225213
 21
353.1033825484250
 31
0.0000000000000000
 70
32
  3
MAIN001
100
AcDbAlignedDimension
 13
166.1073448225213
 23
343.6033825484250
 33
0.0000000000000000
 14
178.1073448225213
 24
343.5033825484248
 34
0.0000000000000000
100
AcDbRotatedDimension
1001
ACAD
1000
DSTYLE
1002
{
1070
   173
1070
     1
1070
     6
1000
_OPEN
1070
     7
1000
_OPEN
1070
    41
1040
3.000000
1002
}
  0
LINE
  5
150
100
AcDbEntity
  8
MAIN0
  6
HIDDEN
 62
3
100
AcDbLine
 10
113.5073448225213
 20
341.1033825484250
 30
0.0000000000000000
 11
166.1073448225213
 21
341.1033825484250
 31
0.0000000000000000
  0
LINE
  5
151
100
AcDbEntity
  8
MAIN0
  6
HIDDEN
 62
3
100
AcDbLine
 10
113.5073448225213
 20
329.1033825484250
 30
0.0000000000000000
 11
166.1073448225213
 21
329.1033825484250
 31
0.0000000000000000
  0
LINE
  5
152
100
AcDbEntity
  8
MAIN0
  6
HIDDEN
 62
3
100
AcDbLine
 10
113.5073448225213
 20
341.1033825484250
 30
0.0000000000000000
 11
113.1073448225213
 21
341.5033825484251
 31
0.0000000000000000
  0
LINE
  5
153
100
AcDbEntity
  8
MAIN0
  6
HIDDEN
 62
3
100
AcDbLine
 10
113.5073448225213
 20
329.1033825484250
 30
0.0000000000000000
 11
113.1073448225213
 21
328.7033825484250
 31
0.0000000000000000
  0
DIMENSION
  5
15C
100
AcDbEntity
  8
MAIN0
  6
CONTINUOUS
 62
3
100
AcDbDimension
  2
*D8
 10
98.10734482252130
 20
341.1033825484250
 30
0.0000000000000000
 11
97.60734482252130
 21
335.1033825484250
 31
0.0000000000000000
 70
32
  1
\A1;\U+220512
  3
MAIN001
100
AcDbAlignedDimension
 13
113.5073448225213
 23
329.1033825484250
 33
0.0000000000000000
 14
113.5073448225213
 24
341.1033825484250
 34
0.0000000000000000
 50
90.00000000000000
100
AcDbRotatedDimension
1001
ACAD
1000
DSTYLE
1002
{
1070
   173
1070
     1
1070
     6
1000
_OPEN
1070
     7
1000
_OPEN
1070
    41
1040
3.000000
1002
}
  0
DIMENSION
  5
165
100
AcDbEntity
  8
MAIN0
  6
CONTINUOUS
 62
3
100
AcDbDimension
  2
*D9
 10
222.0162281561407
 20
245.6033825484250
 30
0.0000000000000000
 11
221.5162281561407
 21
212.6033825484250
 31
0.0000000000000000
 70
32
  3
MAIN001
100
AcDbAlignedDimension
 13
187.5073448225226
 23
179.6033825484250
 33
0.0000000000000000
 14
205.1073448225728
 24
245.6033825484250
 34
0.0000000000000000
 50
90.00000000000000
100
AcDbRotatedDimension
1001
ACAD
1000
DSTYLE
1002
{
1070
   173
1070
     1
1070
     6
1000
_OPEN
1070
     7
1000
_OPEN
1070
    41
1040
3.000000
1002
}
  0
DIMENSION
  5
16B
100
AcDbEntity
  8
MAIN0
  6
CONTINUOUS
 62
3
100
AcDbDimension
  2
*D10
 10
292.1053411915058
 20
210.7915738216467
 30
0.0000000000000000
 11
303.1033521407783
 21
223.2980609357865
 31
0.0000000000000000
 70
163
  3
MAIN001
100
AcDbDiametricDimension
 15
392.6649825979426
 25
315.2557232711533
 35
0.0000000000000000
1001
ACAD
1000
DSTYLE
1002
{
1070
   287
1070
     2
1070
   173
1070
     1
1070
     6
1000
_OPEN
1070
     7
1000
_NONE
1070
    41
1040
3.000000
1070
   272
1070
     1
1070
    47
1040
0.200000
1070
    48
1040
0.200000
1070
    71
1070
     1
1002
}
  0
ARC
  5
16C
100
AcDbEntity
  8
MAIN0
  6
HIDDEN
 62
3
100
AcDbCircle
 10
185.9507535650436
 20
319.4446605316724
 30
0.0000000000000000
 40
41.00000000000000
100
AcDbArc
 50
148.1119326765750
 51
153.3208916846359
  0
ARC
  5
16D
100
AcDbEntity
  8
MAIN0
  6
HIDDEN
 62
3
100
AcDbCircle
 10
125.1073448225213
 20
335.1033825484251
 30
0.0000000000000000
 40
2.750000000000000
100
AcDbArc
 50
50.26954290043849
 51
90.00000000000000
  0
LINE
  5
16E
100
AcDbEntity
  8
MAIN0
  6
CONTINUOUS
 62
3
100
AcDbLine
 10
118.1073448225213
 20
327.2033825484250
 30
0.0000000000000000
 11
118.5073448225213
 21
327.6033825484250
 31
0.0000000000000000
  0
LINE
  5
16F
100
AcDbEntity
  8
MAIN0
  6
CONTINUOUS
 62
3
100
AcDbLine
 10
118.1073448225213
 20
198.0033825484250
 30
0.0000000000000000
 11
118.5073448225213
 21
197.6033825484250
 31
0.0000000000000000
  0
ARC
  5
170
100
AcDbEntity
  8
MAIN0
  6
HIDDEN
 62
3
100
AcDbCircle
 10
88.26393608062961
 20
319.4446605305577
 30
0.0000000000000000
 40
41.00000000000000
100
AcDbArc
 50
26.66718459689361
 51
31.88806732525942
  0
DIMENSION
  5
178
100
AcDbEntity
  8
MAIN0
  6
CONTINUOUS
 62
3
100
AcDbDimension
  2
*D11
 10
416.9735432773945
 20
219.9600264766970
 30
0.0000000000000000
 11
388.9393424942525
 21
182.3894424432799
 31
0.0000000000000000
 70
162
  3
MAIN001
100
AcDb2LineAngularDimension
 13
342.3851618947243
 23
169.4152873473436
 33
0.0000000000000000
 14
342.3851618947243
 24
263.0236485464001
 34
0.0000000000000000
 15
416.1075178736101
 25
220.4600264766970
 35
0.0000000000000000
 16
389.1893424942525
 26
181.9564297413876
 36
0.0000000000000000
1001
ACAD
1000
DSTYLE
1002
{
1070
   173
1070
     1
1070
     6
1000
_OPEN
1070
     7
1000
_OPEN
1070
    41
1040
3.000000
1002
}
  0
DIMENSION
  5
181
100
AcDbEntity
  8
MAIN0
  6
CONTINUOUS
 62
3
100
AcDbDimension
  2
*D12
 10
434.3023526822339
 20
263.0236485464000
 30
0.0000000000000000
 11
432.3209326203439
 21
238.9254314097997
 31
0.0000000000000000
 70
162
  3
MAIN001
100
AcDb2LineAngularDimension
 13
416.9735432773945
 23
219.9600264766970
 33
0.0000000000000000
 14
416.1075178736101
 24
220.4600264766970
 34
0.0000000000000000
 15
433.3023526822339
 25
263.0236485464000
 35
0.0000000000000000
 16
432.8038955334885
 26
238.7960218872484
 36
0.0000000000000000
1001
ACAD
1000
DSTYLE
1002
{
1070
   173
1070
     1
1070
     6
1000
_OPEN
1070
     7
1000
_OPEN
1070
    41
1040
3.000000
1002
}
  0
DIMENSION
  5
189
100
AcDbEntity
  8
MAIN0
  6
CONTINUOUS
 62
3
100
AcDbDimension
  2
*D13
 10
423.4523806997368
 20
309.8278291459283
 30
0.0000000000000000
 11
432.3209326203439
 21
287.1218656830004
 31
0.0000000000000000
 70
162
  3
MAIN001
100
AcDb2LineAngularDimension
 13
434.3023526822339
 23
263.0236485464000
 33
0.0000000000000000
 14
433.3023526822339
 24
263.0236485464000
 34
0.0000000000000000
 15
342.3851618947243
 25
263.0236485464001
 35
0.0000000000000000
 16
432.8038955334885
 26
287.2512752055517
 36
0.0000000000000000
1001
ACAD
1000
DSTYLE
1002
{
1070
   173
1070
     1
1070
     6
1000
_OPEN
1070
     7
1000
_OPEN
1070
    41
1040
3.000000
1002
}
  0
DIMENSION
  5
190
100
AcDbEntity
  8
MAIN0
  6
CONTINUOUS
 62
3
100
AcDbDimension
  2
*D14
 10
342.3851618947243
 20
356.6320097454565
 30
0.0000000000000000
 11
389.4393424942525
 21
344.5238800533047
 31
0.0000000000000000
 70
162
  3
MAIN001
100
AcDb2LineAngularDimension
 13
423.4523806997368
 23
309.8278291459283
 33
0.0000000000000000
 14
342.3851618947243
 24
263.0236485464001
 34
0.0000000000000000
 15
342.3851618947243
 25
263.0236485464001
 35
0.0000000000000000
 16
389.1893424942525
 26
344.0908673514125
 36
0.0000000000000000
1001
ACAD
1000
DSTYLE
1002
{
1070
   173
1070
     1
1070
     6
1000
_OPEN
1070
     7
1000
_OPEN
1070
    41
1040
3.000000
1002
}
  0
DIMENSION
  5
198
100
AcDbEntity
  8
MAIN0
  6
CONTINUOUS
 62
3
100
AcDbDimension
  2
*D15
 10
323.7465319791381
 20
304.8866967520158
 30
0.0000000000000000
 11
322.8189333977475
 21
355.0755162622490
 31
0.0000000000000000
 70
162
  3
MAIN001
100
AcDb2LineAngularDimension
 13
342.3851618947243
 23
356.6320097454565
 33
0.0000000000000000
 14
342.3851618947243
 24
263.0236485464001
 34
0.0000000000000000
 15
324.1532686222138
 25
303.9731512943732
 35
0.0000000000000000
 16
322.9228892431563
 26
354.5864424618821
 36
0.0000000000000000
1001
ACAD
1000
DSTYLE
1002
{
1070
   173
1070
     1
1070
     6
1000
_OPEN
1070
     7
1000
_OPEN
1070
    41
1040
3.000000
1002
}
  0
MTEXT
  5
199
100
AcDbEntity
  8
MAIN0
  6
CONTINUOUS
 62
3
100
AcDbMText
 10
393.0709484238155
 20
225.9140059410086
 30
0.0000000000000000
 40
3.099999904632568
 41
0.0000000000000000
 71
     1
 72
     1
  1
{\H0.92x;{JAPAN}}
 11
0.5000000000000009
 21
0.8660254037844382
 31
0.0000000000000000
  7
STANDARD
  0
MTEXT
  5
19A
100
AcDbEntity
  8
MAIN0
  6
CONTINUOUS
 62
3
100
AcDbMText
 10
371.7402796612396
 20
225.8682039801723
 30
0.0000000000000000
 40
5.000000000000000
 41
0.0000000000000000
 71
     1
 72
     1
  1
{\H0.93x;{KITAGAWA}}
 11
0.5000000000000009
 21
0.8660254037844382
 31
0.0000000000000000
  7
STANDARD
  0
LINE
  5
19B
100
AcDbEntity
  8
MAIN0
  6
CONTINUOUS
 62
3
100
AcDbLine
 10
376.9364320839462
 20
222.8682039801723
 30
0.0000000000000000
 11
394.4364320839464
 21
253.1790931126279
 31
0.0000000000000000
  0
MTEXT
  5
19C
100
AcDbEntity
  8
MAIN1
  6
CONTINUOUS
 62
3
100
AcDbMText
 10
397.5228000032222
 20
253.0855120369516
 30
0.0000000000000000
 40
4.199999928474426
 41
0.0000000000000000
 71
     1
 72
     1
  1
{\H0.66x;{PRM}}
 11
0.4999999999989656
 21
0.8660254037850359
 31
0.0000000000000000
  7
STANDARD
  0
LINE
  5
19D
100
AcDbEntity
  8
MAIN1
  6
CONTINUOUS
 62
3
100
AcDbLine
 10
398.5620304567928
 20
252.4855120548342
 30
0.0000000000000000
 11
402.5370305998357
 21
259.3704142626971
 31
0.0000000000000000
  0
LINE
  5
19E
100
AcDbEntity
  8
MAIN1
  6
CONTINUOUS
 62
3
100
AcDbLine
 10
400.1208761836059
 20
251.5855120548361
 30
0.0000000000000000
 11
404.0958763266488
 21
258.4704142626990
 31
0.0000000000000000
  0
MTEXT
  5
19F
100
AcDbEntity
  8
MAIN0
  6
CONTINUOUS
 62
3
100
AcDbMText
 10
366.9577917737212
 20
230.5846919724078
 30
0.0000000000000000
 40
4.500000000000000
 41
0.0000000000000000
 71
     1
 72
     1
  1
{\H0.93x;{JN06-101}}
 11
0.5000000000000009
 21
0.8660254037844382
 31
0.0000000000000000
  7
STANDARD
  0
SPLINE
  5
1A0
100
AcDbEntity
  8
MAIN0
  6
CONTINUOUS
 62
3
100
AcDbSpline
210
0.0000000000000000
220
0.0000000000000000
230
1.000000000000000
 70
     8
 71
     3
 72
    21
 73
    17
 74
     0
 42
1.000000000000000e-007
 43
1.000000000000000e-007
 12
-0.05045674953450430
 22
-1.017743673248347
 32
0.0000000000000000
 13
0.09764851267425101
 23
-0.9839316795414526
 33
0.0000000000000000
 40
0.0000000000000000
 40
0.0000000000000000
 40
0.0000000000000000
 40
0.0000000000000000
 40
12.87219257841174
 40
17.89447977838675
 40
23.95622478657147
 40
30.12288070526552
 40
33.81062778643055
 40
43.86873937144410
 40
61.59469425772971
 40
84.10012028189024
 40
106.8611001064820
 40
112.1681870704577
 40
118.7681870704577
 40
139.4284809798275
 40
154.8105874484801
 40
171.8501935172464
 40
171.8501935172464
 40
171.8501935172464
 40
171.8501935172464
 10
119.9261253044457
 20
345.1033825484250
 30
0.0000000000000000
 10
119.7096289721494
 20
340.7365183625874
 30
0.0000000000000000
 10
119.4086632107400
 20
334.6658538357461
 30
0.0000000000000000
 10
122.5317945517879
 20
327.1808585991339
 30
0.0000000000000000
 10
122.2791559805779
 20
321.2601949541877
 30
0.0000000000000000
 10
125.3188145110584
 20
316.5130280417351
 30
0.0000000000000000
 10
124.6200057131402
 20
309.7050557022220
 30
0.0000000000000000
 10
129.7236258416022
 20
300.1033162317796
 30
0.0000000000000000
 10
133.0433469672804
 20
283.4551443014844
 30
0.0000000000000000
 10
133.2026703158131
 20
263.1341355491749
 30
0.0000000000000000
 10
131.1799468856213
 20
244.0478443273470
 30
0.0000000000000000
 10
140.4643044005166
 20
235.9277329493316
 30
0.0000000000000000
 10
139.4009382596569
 20
223.7949544560922
 30
0.0000000000000000
 10
125.9283738856547
 20
215.1234060894402
 30
0.0000000000000000
 10
124.6759723992630
 20
196.3255686445979
 30
0.0000000000000000
 10
125.7312830684733
 20
185.6919852877470
 30
0.0000000000000000
 10
126.2859137981967
 20
180.1033825484250
 30
0.0000000000000000
  0
DIMENSION
  5
1A9
100
AcDbEntity
  8
MAIN0
  6
CONTINUOUS
 62
3
100
AcDbDimension
  2
*D16
 10
113.1073448225213
 20
217.6033825484250
 30
0.0000000000000000
 11
105.6545644462276
 21
218.3533825484250
 31
0.0000000000000000
 70
160
  3
MAIN001
100
AcDbAlignedDimension
 13
118.1073448225213
 23
240.1033825484250
 33
0.0000000000000000
 14
113.1073448225213
 24
343.5033825484246
 34
0.0000000000000000
100
AcDbRotatedDimension
1001
ACAD
1000
DSTYLE
1002
{
1070
   173
1070
     1
1070
     6
1000
_OPEN
1070
     7
1000
_OPEN
1070
    41
1040
3.000000
1070
   287
1070
     0
1002
}
  0
DIMENSION
  5
1B2
100
AcDbEntity
  8
MAIN0
  6
CONTINUOUS
 62
3
100
AcDbDimension
  2
*D17
 10
113.1073448225213
 20
362.6033825484250
 30
0.0000000000000000
 11
125.1073448225213
 21
363.1033825484250
 31
0.0000000000000000
 70
32
  3
MAIN001
100
AcDbAlignedDimension
 13
137.1073448225213
 23
357.5838206113431
 33
0.0000000000000000
 14
113.1073448225213
 24
343.5033825484246
 34
0.0000000000000000
100
AcDbRotatedDimension
1001
ACAD
1000
DSTYLE
1002
{
1070
   173
1070
     1
1070
     6
1000
_OPEN
1070
     7
1000
_OPEN
1070
    41
1040
3.000000
1002
}
  0
DIMENSION
  5
1BB
100
AcDbEntity
  8
MAIN0
  6
CONTINUOUS
 62
3
100
AcDbDimension
  2
*D18
 10
137.1073448225213
 20
362.6033825484250
 30
0.0000000000000000
 11
157.6073448225213
 21
363.1033825484250
 31
0.0000000000000000
 70
32
  3
MAIN001
100
AcDbAlignedDimension
 13
178.1073448225213
 23
343.5033825484248
 33
0.0000000000000000
 14
137.1073448225213
 24
357.5838206113431
 34
0.0000000000000000
100
AcDbRotatedDimension
1001
ACAD
1000
DSTYLE
1002
{
1070
   173
1070
     1
1070
     6
1000
_OPEN
1070
     7
1000
_OPEN
1070
    41
1040
3.000000
1002
}
  0
DIMENSION
  5
1C4
100
AcDbEntity
  8
MAIN0
  6
CONTINUOUS
 62
3
100
AcDbDimension
  2
*D19
 10
178.1073448225213
 20
372.6033825484250
 30
0.0000000000000000
 11
145.6073448225213
 21
373.1033825484250
 31
0.0000000000000000
 70
32
  3
MAIN001
100
AcDbAlignedDimension
 13
113.1073448225213
 23
343.5033825484246
 33
0.0000000000000000
 14
178.1073448225213
 24
343.5033825484248
 34
0.0000000000000000
100
AcDbRotatedDimension
1001
ACAD
1000
DSTYLE
1002
{
1070
   173
1070
     1
1070
     6
1000
_OPEN
1070
     7
1000
_OPEN
1070
    41
1040
3.000000
1002
}
  0
LINE
  5
1C5
100
AcDbEntity
  8
MAIN0
  6
HIDDEN
 62
3
100
AcDbLine
 10
178.1073448225213
 20
285.1033825484250
 30
0.0000000000000000
 11
132.2320376665626
 21
285.1033825484250
 31
0.0000000000000000
  0
LINE
  5
1C6
100
AcDbEntity
  8
MAIN0
  6
HIDDEN
 62
3
100
AcDbLine
 10
178.1073448225213
 20
240.1033825484250
 30
0.0000000000000000
 11
136.1630906190013
 21
240.1033825484250
 31
0.0000000000000000
  0
LINE
  5
1C7
100
AcDbEntity
  8
MAIN0
  6
HIDDEN
 62
3
100
AcDbLine
 10
126.6073448225213
 20
238.5033825484250
 30
0.0000000000000000
 11
127.0073448225213
 21
238.1033825484250
 31
0.0000000000000000
  0
LINE
  5
1C8
100
AcDbEntity
  8
MAIN0
  6
HIDDEN
 62
3
100
AcDbLine
 10
127.0073448225213
 20
238.1033825484250
 30
0.0000000000000000
 11
134.6073448225213
 21
238.1033825484250
 31
0.0000000000000000
  0
LINE
  5
1C9
100
AcDbEntity
  8
MAIN0
  6
HIDDEN
 62
3
100
AcDbLine
 10
134.6073448225213
 20
238.1033825484250
 30
0.0000000000000000
 11
134.6073448225213
 21
227.1033825484250
 31
0.0000000000000000
  0
LINE
  5
1CA
100
AcDbEntity
  8
MAIN0
  6
HIDDEN
 62
3
100
AcDbLine
 10
134.6073448225213
 20
227.1033825484250
 30
0.0000000000000000
 11
127.0073448225213
 21
227.1033825484250
 31
0.0000000000000000
  0
LINE
  5
1CB
100
AcDbEntity
  8
MAIN0
  6
HIDDEN
 62
3
100
AcDbLine
 10
127.0073448225213
 20
227.1033825484250
 30
0.0000000000000000
 11
126.6073448225213
 21
226.7033825484250
 31
0.0000000000000000
  0
LINE
  5
1CC
100
AcDbEntity
  8
MAIN0
  6
HIDDEN
 62
3
100
AcDbLine
 10
134.6073448225213
 20
235.9033825484250
 30
0.0000000000000000
 11
139.4073448415885
 21
235.9033825484250
 31
0.0000000000000000
  0
LINE
  5
1CD
100
AcDbEntity
  8
MAIN0
  6
HIDDEN
 62
3
100
AcDbLine
 10
134.6073448225213
 20
229.3033825484250
 30
0.0000000000000000
 11
139.4073452248137
 21
229.3033825484250
 31
0.0000000000000000
  0
LINE
  5
1CE
100
AcDbEntity
  8
MAIN0
  6
HIDDEN
 62
3
100
AcDbLine
 10
134.6073448225213
 20
237.6033825484250
 30
0.0000000000000000
 11
129.2073448225213
 21
237.6033825484250
 31
0.0000000000000000
  0
LINE
  5
1CF
100
AcDbEntity
  8
MAIN0
  6
HIDDEN
 62
3
100
AcDbLine
 10
129.2073448225213
 20
237.6033825484250
 30
0.0000000000000000
 11
128.6073448225213
 21
236.5641520638837
 31
0.0000000000000000
  0
LINE
  5
1D0
100
AcDbEntity
  8
MAIN0
  6
HIDDEN
 62
3
100
AcDbLine
 10
128.6073448225213
 20
236.5641520638837
 30
0.0000000000000000
 11
128.6073448225213
 21
228.6426130329664
 31
0.0000000000000000
  0
LINE
  5
1D1
100
AcDbEntity
  8
MAIN0
  6
HIDDEN
 62
3
100
AcDbLine
 10
128.6073448225213
 20
228.6426130329664
 30
0.0000000000000000
 11
129.2073448225213
 21
227.6033825484250
 31
0.0000000000000000
  0
LINE
  5
1D2
100
AcDbEntity
  8
MAIN0
  6
HIDDEN
 62
3
100
AcDbLine
 10
129.2073448225213
 20
227.6033825484250
 30
0.0000000000000000
 11
134.6073448225213
 21
227.6033825484250
 31
0.0000000000000000
  0
LINE
  5
1D3
100
AcDbEntity
  8
MAIN0
  6
HIDDEN
 62
3
100
AcDbLine
 10
129.2073448225213
 20
237.6033825484250
 30
0.0000000000000000
 11
129.2073448225213
 21
227.6033825484250
 31
0.0000000000000000
  0
LINE
  5
1D4
100
AcDbEntity
  8
MAIN0
  6
HIDDEN
 62
3
100
AcDbLine
 10
134.6073448225213
 20
235.6033825484250
 30
0.0000000000000000
 11
139.5330439042596
 21
235.6033825484250
 31
0.0000000000000000
  0
LINE
  5
1D5
100
AcDbEntity
  8
MAIN0
  6
HIDDEN
 62
3
100
AcDbLine
 10
139.4955860333535
 20
229.6033825484250
 30
0.0000000000000000
 11
134.6073448225213
 21
229.6033825484250
 31
0.0000000000000000
  0
LINE
  5
1D6
100
AcDbEntity
  8
MAIN0
  6
HIDDEN
 62
3
100
AcDbLine
 10
134.6073448225213
 20
235.0621165484250
 30
0.0000000000000000
 11
139.7137816014492
 21
235.0621165484250
 31
0.0000000000000000
  0
LINE
  5
1D7
100
AcDbEntity
  8
MAIN0
  6
HIDDEN
 62
3
100
AcDbLine
 10
134.6073448225213
 20
230.1446485484250
 30
0.0000000000000000
 11
139.6377200963257
 21
230.1446485484250
 31
0.0000000000000000
  0
LINE
  5
1D8
100
AcDbEntity
  8
MAIN0
  6
CONTINUOUS
 62
3
100
AcDbLine
 10
163.6073448225213
 20
180.1033825484250
 30
0.0000000000000000
 11
163.6073448225213
 21
179.6033825484251
 31
0.0000000000000000
  0
LINE
  5
1D9
100
AcDbEntity
  8
MAIN0
  6
CONTINUOUS
 62
3
100
AcDbLine
 10
170.1073448225213
 20
180.1033825484250
 30
0.0000000000000000
 11
170.1073448225213
 21
179.6033825484250
 31
0.0000000000000000
  0
LINE
  5
1DA
100
AcDbEntity
  8
MAIN0
  6
CONTINUOUS
 62
3
100
AcDbLine
 10
161.1073448225600
 20
179.6033825484250
 30
0.0000000000000000
 11
187.5073448225226
 21
179.6033825484250
 31
0.0000000000000000
  0
LINE
  5
1DB
100
AcDbEntity
  8
MAIN0
  6
CONTINUOUS
 62
3
100
AcDbLine
 10
161.1073448225660
 20
180.1033825484250
 30
0.0000000000000000
 11
161.1073448225661
 21
179.6033825484251
 31
0.0000000000000000
  0
LINE
  5
1DC
100
AcDbEntity
  8
MAIN0
  6
CONTINUOUS
 62
3
100
AcDbLine
 10
178.1073448225213
 20
240.1185549911444
 30
0.0000000000000000
 11
205.1073448225226
 21
240.1185549911444
 31
0.0000000000000000
  0
LINE
  5
1DD
100
AcDbEntity
  8
MAIN0
  6
CONTINUOUS
 62
3
100
AcDbLine
 10
179.1073448225728
 20
245.6033825484251
 30
0.0000000000000000
 11
180.1073448225968
 21
243.8713317408147
 31
0.0000000000000000
  0
LINE
  5
1DE
100
AcDbEntity
  8
MAIN0
  6
CONTINUOUS
 62
3
100
AcDbLine
 10
180.1073448225968
 20
243.8713317408146
 30
0.0000000000000000
 11
181.1073448226209
 21
245.6033825484252
 31
0.0000000000000000
  0
LINE
  5
1DF
100
AcDbEntity
  8
MAIN0
  6
CONTINUOUS
 62
3
100
AcDbLine
 10
178.1073448225213
 20
245.6033825484250
 30
0.0000000000000000
 11
179.1073448225728
 21
245.6033825484250
 31
0.0000000000000000
  0
LINE
  5
1E0
100
AcDbEntity
  8
MAIN0
  6
CONTINUOUS
 62
3
100
AcDbLine
 10
329.9667370077125
 20
298.9545122927192
 30
0.0000000000000000
 11
325.9252851233852
 21
298.9545122927192
 31
0.0000000000000000
  0
LINE
  5
1E1
100
AcDbEntity
  8
MAIN0
  6
CONTINUOUS
 62
3
100
AcDbLine
 10
325.9252851233849
 20
291.9545122927192
 30
0.0000000000000000
 11
329.9667370077125
 21
291.9545122927192
 31
0.0000000000000000
  0
LINE
  5
1E2
100
AcDbEntity
  8
MAIN0
  6
CONTINUOUS
 62
3
100
AcDbLine
 10
331.9874629498761
 20
295.4545122927192
 30
0.0000000000000000
 11
329.9667370077125
 21
298.9545122927191
 31
0.0000000000000000
  0
LINE
  5
1E3
100
AcDbEntity
  8
MAIN0
  6
CONTINUOUS
 62
3
100
AcDbLine
 10
325.9252851233852
 20
298.9545122927194
 30
0.0000000000000000
 11
323.9045591812213
 21
295.4545122927192
 31
0.0000000000000000
  0
LINE
  5
1E4
100
AcDbEntity
  8
MAIN0
  6
CONTINUOUS
 62
3
100
AcDbLine
 10
323.9045591812213
 20
295.4545122927192
 30
0.0000000000000000
 11
325.9252851233850
 21
291.9545122927192
 31
0.0000000000000000
  0
LINE
  5
1E5
100
AcDbEntity
  8
MAIN0
  6
CONTINUOUS
 62
3
100
AcDbLine
 10
329.9667370077125
 20
291.9545122927192
 30
0.0000000000000000
 11
331.9874629498761
 21
295.4545122927192
 31
0.0000000000000000
  0
CIRCLE
  5
1E6
100
AcDbEntity
  8
MAIN0
  6
CONTINUOUS
 62
3
100
AcDbCircle
 10
327.9460110655488
 20
295.4545122927191
 30
0.0000000000000000
 40
2.154065922853398
  0
CIRCLE
  5
1E7
100
AcDbEntity
  8
MAIN0
  6
CONTINUOUS
 62
3
100
AcDbCircle
 10
327.9460110655488
 20
295.4545122927191
 30
0.0000000000000000
 40
3.299999999999997
  0
CIRCLE
  5
1E8
100
AcDbEntity
  8
MAIN0
  6
CONTINUOUS
 62
3
100
AcDbCircle
 10
327.9460110655488
 20
295.4545122927191
 30
0.0000000000000000
 40
0.9914283891267653
  0
CIRCLE
  5
1E9
100
AcDbEntity
  8
MAIN0
  6
HIDDEN
 62
3
100
AcDbCircle
 10
329.8851618947243
 20
334.4379328318286
 30
0.0000000000000000
 40
4.000000000000000
  0
CIRCLE
  5
1EA
100
AcDbEntity
  8
MAIN0
  6
HIDDEN
 62
3
100
AcDbCircle
 10
329.8851618947243
 20
334.4379328318286
 30
0.0000000000000000
 40
3.400000000000000
  0
LINE
  5
1EB
100
AcDbEntity
  8
MAIN0
  6
HIDDEN
 62
3
100
AcDbLine
 10
178.1073448225213
 20
326.0033825484250
 30
0.0000000000000000
 11
177.5073448225213
 21
326.6033825484250
 31
0.0000000000000000
  0
LINE
  5
1EC
100
AcDbEntity
  8
MAIN0
  6
HIDDEN
 62
3
100
AcDbLine
 10
177.5073448225213
 20
326.6033825484250
 30
0.0000000000000000
 11
166.1073448225213
 21
326.6033825484250
 31
0.0000000000000000
  0
LINE
  5
1ED
100
AcDbEntity
  8
MAIN0
  6
HIDDEN
 62
3
100
AcDbLine
 10
166.1073448225213
 20
326.6033825484250
 30
0.0000000000000000
 11
166.1073448225213
 21
343.6033825484250
 31
0.0000000000000000
  0
LINE
  5
1EE
100
AcDbEntity
  8
MAIN0
  6
HIDDEN
 62
3
100
AcDbLine
 10
166.1073448225213
 20
343.6033825484250
 30
0.0000000000000000
 11
177.5073448225213
 21
343.6033825484250
 31
0.0000000000000000
  0
LINE
  5
1EF
100
AcDbEntity
  8
MAIN0
  6
HIDDEN
 62
3
100
AcDbLine
 10
177.5073448225213
 20
343.6033825484250
 30
0.0000000000000000
 11
177.7573448225212
 21
343.8533825484249
 31
0.0000000000000000
  0
MTEXT
  5
1F0
100
AcDbEntity
  8
MAIN0
  6
CONTINUOUS
 62
3
100
AcDbMText
 10
381.0917767792242
 20
224.2090532961194
 30
0.0000000000000000
 40
4.199999928474426
 41
0.0000000000000000
 71
     1
 72
     1
  1
{\H0.67x;{MAX.4000/min}}
 11
0.4999999999989656
 21
0.8660254037850359
 31
0.0000000000000000
  7
STANDARD
  0
LINE
  5
1F1
100
AcDbEntity
  8
H0
  6
CENTER
 62
3
100
AcDbLine
 10
442.7898244250180
 20
317.1333729750940
 30
0.0000000000000000
 11
580.1996627868302
 21
317.1333729750940
 31
0.0000000000000000
  0
LINE
  5
1F2
100
AcDbEntity
  8
H0
  6
CONTINUOUS
 62
3
100
AcDbLine
 10
501.0614715343867
 20
330.1333729750940
 30
0.0000000000000000
 11
523.0614715343866
 21
330.1333729750940
 31
0.0000000000000000
  0
LINE
  5
1F3
100
AcDbEntity
  8
H0
  6
CONTINUOUS
 62
3
100
AcDbLine
 10
500.0614715343867
 20
329.1333729750939
 30
0.0000000000000000
 11
501.0614715343867
 21
330.1333729750939
 31
0.0000000000000000
  0
LINE
  5
1F4
100
AcDbEntity
  8
H0
  6
CONTINUOUS
 62
3
100
AcDbLine
 10
500.0614715343867
 20
329.1333729750940
 30
0.0000000000000000
 11
524.0614715343867
 21
329.1333729750940
 31
0.0000000000000000
  0
LINE
  5
1F5
100
AcDbEntity
  8
H0
  6
CONTINUOUS
 62
3
100
AcDbLine
 10
501.0614715343867
 20
304.1333729750940
 30
0.0000000000000000
 11
523.0614715343867
 21
304.1333729750940
 31
0.0000000000000000
  0
LINE
  5
1F6
100
AcDbEntity
  8
H0
  6
CONTINUOUS
 62
3
100
AcDbLine
 10
500.0614715343867
 20
305.1333729750939
 30
0.0000000000000000
 11
501.0614715343867
 21
304.1333729750939
 31
0.0000000000000000
  0
LINE
  5
1F7
100
AcDbEntity
  8
H0
  6
CONTINUOUS
 62
3
100
AcDbLine
 10
500.0614715343867
 20
305.1333729750940
 30
0.0000000000000000
 11
524.0614715343867
 21
305.1333729750940
 31
0.0000000000000000
  0
LINE
  5
1F8
100
AcDbEntity
  8
H0
  6
CONTINUOUS
 62
3
100
AcDbLine
 10
502.0614715343867
 20
304.1333729750939
 30
0.0000000000000000
 11
502.0614715343867
 21
247.1333729750940
 31
0.0000000000000000
  0
LINE
  5
1F9
100
AcDbEntity
  8
H0
  6
CONTINUOUS
 62
3
100
AcDbLine
 10
506.2114715343867
 20
210.1333729750940
 30
0.0000000000000000
 11
517.9114715343867
 21
210.1333729750940
 31
0.0000000000000000
  0
LINE
  5
1FA
100
AcDbEntity
  8
H0
  6
CONTINUOUS
 62
3
100
AcDbLine
 10
505.5114715343867
 20
224.1333729750940
 30
0.0000000000000000
 11
511.5178015959604
 21
224.1333729750940
 31
0.0000000000000000
  0
LINE
  5
1FB
100
AcDbEntity
  8
H0
  6
CONTINUOUS
 62
3
100
AcDbLine
 10
502.0614715343867
 20
247.1333729750940
 30
0.0000000000000000
 11
522.0614715343867
 21
247.1333729750940
 31
0.0000000000000000
  0
LINE
  5
1FC
100
AcDbEntity
  8
H0
  6
CENTER
 62
3
100
AcDbLine
 10
500.8825196025767
 20
175.1071794614583
 30
0.0000000000000000
 11
523.1019265117653
 21
175.1071794614540
 31
0.0000000000000000
  0
LINE
  5
1FD
100
AcDbEntity
  8
H0
  6
CONTINUOUS
 62
3
100
AcDbLine
 10
505.5340736609553
 20
175.6508493998914
 30
0.0000000000000000
 11
511.5178015959605
 21
181.6345773348942
 31
0.0000000000000000
  0
LINE
  5
1FE
100
AcDbEntity
  8
H0
  6
CONTINUOUS
 62
3
100
AcDbLine
 10
505.5114715343867
 20
227.9605406334705
 30
0.0000000000000000
 11
505.5114715343867
 21
210.8333729750939
 31
0.0000000000000000
  0
LINE
  5
1FF
100
AcDbEntity
  8
H0
  6
CONTINUOUS
 62
3
100
AcDbLine
 10
505.5114715343867
 20
210.8333729750939
 30
0.0000000000000000
 11
506.2114715343867
 21
210.1333729750940
 31
0.0000000000000000
  0
LINE
  5
200
100
AcDbEntity
  8
H0
  6
CONTINUOUS
 62
3
100
AcDbLine
 10
511.5178015959604
 20
224.1333729750939
 30
0.0000000000000000
 11
511.5178015959604
 21
210.8333729751775
 31
0.0000000000000000
  0
LINE
  5
201
100
AcDbEntity
  8
H0
  6
CONTINUOUS
 62
3
100
AcDbLine
 10
505.5114715343867
 20
210.8333729751787
 30
0.0000000000000000
 11
518.6114715343866
 21
210.8333729751761
 31
0.0000000000000000
  0
LINE
  5
202
100
AcDbEntity
  8
H0
  6
CONTINUOUS
 62
3
100
AcDbLine
 10
511.5178015959604
 20
224.1333729750939
 30
0.0000000000000000
 11
505.5114715343867
 21
210.8333729751787
 31
0.0000000000000000
  0
LINE
  5
203
100
AcDbEntity
  8
H0
  6
CONTINUOUS
 62
3
100
AcDbLine
 10
505.5114715343867
 20
224.1333729750940
 30
0.0000000000000000
 11
511.5178015959604
 21
210.8333729751775
 31
0.0000000000000000
  0
LINE
  5
204
100
AcDbEntity
  8
H0
  6
CONTINUOUS
 62
3
100
AcDbLine
 10
505.5340736609551
 20
174.5635095230235
 30
0.0000000000000000
 11
511.5178015959579
 21
168.5797815880184
 31
0.0000000000000000
  0
LINE
  5
205
100
AcDbEntity
  8
H0
  6
CONTINUOUS
 62
3
100
AcDbLine
 10
518.5888694078183
 20
174.5635095230235
 30
0.0000000000000000
 11
512.6051414728155
 21
168.5797815880184
 31
0.0000000000000000
  0
LINE
  5
206
100
AcDbEntity
  8
H0
  6
CONTINUOUS
 62
3
100
AcDbLine
 10
518.5888694078185
 20
175.6508493998863
 30
0.0000000000000000
 11
512.6051414728180
 21
181.6345773348938
 31
0.0000000000000000
  0
ARC
  5
207
100
AcDbEntity
  8
H0
  6
CONTINUOUS
 62
3
100
AcDbCircle
 10
512.0614715343867
 20
175.1071794614562
 30
0.0000000000000000
 40
6.550000000000000
100
AcDbArc
 50
85.23879812589122
 51
94.76120187406400
  0
ARC
  5
208
100
AcDbEntity
  8
H0
  6
CONTINUOUS
 62
3
100
AcDbCircle
 10
512.0614715343867
 20
175.1071794614562
 30
0.0000000000000000
 40
6.550000000000000
100
AcDbArc
 50
175.2387981259133
 51
184.7612018740635
  0
ARC
  5
209
100
AcDbEntity
  8
H0
  6
CONTINUOUS
 62
3
100
AcDbCircle
 10
512.0614715343867
 20
175.1071794614562
 30
0.0000000000000000
 40
6.550000000000000
100
AcDbArc
 50
265.2387981259137
 51
274.7612018740863
  0
ARC
  5
20A
100
AcDbEntity
  8
H0
  6
CONTINUOUS
 62
3
100
AcDbCircle
 10
512.0614715343867
 20
175.1071794614562
 30
0.0000000000000000
 40
6.550000000000000
100
AcDbArc
 50
355.2387981259365
 51
364.7612018740410
  0
LINE
  5
20B
100
AcDbEntity
  8
H0
  6
CENTER
 62
3
100
AcDbLine
 10
512.0614715343867
 20
185.2888936009665
 30
0.0000000000000000
 11
512.0614715343867
 21
165.6835365939041
 31
0.0000000000000000
  0
ARC
  5
20C
100
AcDbEntity
  8
H0
  6
CONTINUOUS
 62
3
100
AcDbCircle
 10
450.5114715343867
 20
227.9605406334705
 30
0.0000000000000000
 40
55.00000000000000
100
AcDbArc
 50
0.0000000000000000
 51
20.40152240294039
  0
LINE
  5
20D
100
AcDbEntity
  8
H0
  6
CONTINUOUS
 62
3
100
AcDbLine
 10
524.0614715343867
 20
329.1333729750939
 30
0.0000000000000000
 11
523.0614715343867
 21
330.1333729750939
 31
0.0000000000000000
  0
LINE
  5
20E
100
AcDbEntity
  8
H0
  6
CONTINUOUS
 62
3
100
AcDbLine
 10
524.0614715343867
 20
305.1333729750939
 30
0.0000000000000000
 11
523.0614715343867
 21
304.1333729750939
 31
0.0000000000000000
  0
LINE
  5
20F
100
AcDbEntity
  8
H0
  6
CONTINUOUS
 62
3
100
AcDbLine
 10
522.0614715343867
 20
304.1333729750939
 30
0.0000000000000000
 11
522.0614715343867
 21
247.1333729750940
 31
0.0000000000000000
  0
LINE
  5
210
100
AcDbEntity
  8
H0
  6
CONTINUOUS
 62
3
100
AcDbLine
 10
518.6114715343866
 20
224.1333729750940
 30
0.0000000000000000
 11
512.6051414728130
 21
224.1333729750940
 31
0.0000000000000000
  0
LINE
  5
211
100
AcDbEntity
  8
H0
  6
CONTINUOUS
 62
3
100
AcDbLine
 10
518.6114715343866
 20
227.9605406334705
 30
0.0000000000000000
 11
518.6114715343866
 21
210.8333729750939
 31
0.0000000000000000
  0
LINE
  5
212
100
AcDbEntity
  8
H0
  6
CONTINUOUS
 62
3
100
AcDbLine
 10
518.6114715343866
 20
210.8333729750939
 30
0.0000000000000000
 11
517.9114715343867
 21
210.1333729750940
 31
0.0000000000000000
  0
LINE
  5
213
100
AcDbEntity
  8
H0
  6
CONTINUOUS
 62
3
100
AcDbLine
 10
512.6051414728130
 20
224.1333729750939
 30
0.0000000000000000
 11
512.6051414728130
 21
210.8333729751775
 31
0.0000000000000000
  0
LINE
  5
214
100
AcDbEntity
  8
H0
  6
CONTINUOUS
 62
3
100
AcDbLine
 10
512.6051414728130
 20
224.1333729750939
 30
0.0000000000000000
 11
518.6114715343866
 21
210.8333729751787
 31
0.0000000000000000
  0
LINE
  5
215
100
AcDbEntity
  8
H0
  6
CONTINUOUS
 62
3
100
AcDbLine
 10
518.6114715343866
 20
224.1333729750940
 30
0.0000000000000000
 11
512.6051414728130
 21
210.8333729751775
 31
0.0000000000000000
  0
ARC
  5
216
100
AcDbEntity
  8
H0
  6
CONTINUOUS
 62
3
100
AcDbCircle
 10
573.6114715343866
 20
227.9605406334705
 30
0.0000000000000000
 40
55.00000000000000
100
AcDbArc
 50
159.5984775970596
 51
180.0000000000000
  0
DIMENSION
  5
21F
100
AcDbEntity
  8
H0
  6
CONTINUOUS
 62
3
100
AcDbDimension
  2
*D20
 10
577.0614715343867
 20
357.7681908524938
 30
0.0000000000000000
 11
512.0614715343867
 21
358.2681908524938
 31
0.0000000000000000
 70
32
  1
\A1;210
  3
H002
100
AcDbAlignedDimension
 13
447.0614715343867
 23
321.1333729750940
 33
0.0000000000000000
 14
577.0614715343867
 24
321.1333729750940
 34
0.0000000000000000
100
AcDbRotatedDimension
1001
ACAD
1000
DSTYLE
1002
{
1070
   173
1070
     1
1070
     6
1000
_OPEN
1070
     7
1000
_OPEN
1070
    41
1040
3.000000
1002
}
  0
DIMENSION
  5
228
100
AcDbEntity
  8
H0
  6
CONTINUOUS
 62
3
100
AcDbDimension
  2
*D21
 10
524.0614715343867
 20
346.5826350430741
 30
0.0000000000000000
 11
512.0614715343867
 21
347.0826350430741
 31
0.0000000000000000
 70
32
  1
\A1;\U+220524
  3
H002
100
AcDbAlignedDimension
 13
500.0614715343867
 23
329.1333729750938
 33
0.0000000000000000
 14
524.0614715343867
 24
329.1333729750938
 34
0.0000000000000000
100
AcDbRotatedDimension
1001
ACAD
1000
DSTYLE
1002
{
1070
   173
1070
     1
1070
     6
1000
_OPEN
1070
     7
1000
_OPEN
1070
    41
1040
3.000000
1002
}
  0
DIMENSION
  5
231
100
AcDbEntity
  8
H0
  6
CONTINUOUS
 62
3
100
AcDbDimension
  2
*D22
 10
534.9398365769359
 20
330.1333729750940
 30
0.0000000000000000
 11
534.1898365769359
 21
336.2877538539362
 31
0.0000000000000000
 70
160
  3
H002
100
AcDbAlignedDimension
 13
442.7898244250180
 23
317.1333729750940
 33
0.0000000000000000
 14
523.0614715343866
 24
330.1333729750940
 34
0.0000000000000000
 50
90.00000000000000
100
AcDbRotatedDimension
1001
ACAD
1000
DSTYLE
1002
{
1070
   173
1070
     1
1070
     6
1000
_OPEN
1070
     7
1000
_OPEN
1070
    41
1040
3.000000
1002
}
  0
DIMENSION
  5
238
100
AcDbEntity
  8
H0
  6
CONTINUOUS
 62
3
100
AcDbDimension
  2
*D23
 10
502.0614715343867
 20
275.7086286601704
 30
0.0000000000000000
 11
512.0614715343867
 21
276.2086286601704
 31
0.0000000000000000
 70
32
  1
\A1;\U+220520
  3
H002
100
AcDbAlignedDimension
 13
522.0614715343867
 23
304.1333729750939
 33
0.0000000000000000
 14
502.0614715343867
 24
304.1333729750939
 34
0.0000000000000000
100
AcDbRotatedDimension
1001
ACAD
1000
DSTYLE
1002
{
1070
   173
1070
     1
1070
     6
1000
_OPEN
1070
     7
1000
_OPEN
1070
    41
1040
3.000000
1002
}
  0
DIMENSION
  5
241
100
AcDbEntity
  8
H0
  6
CONTINUOUS
 62
3
100
AcDbDimension
  2
*D24
 10
542.5468188524176
 20
330.1333729750940
 30
0.0000000000000000
 11
542.0468188524176
 21
270.1333729750940
 31
0.0000000000000000
 70
32
  3
H002
100
AcDbAlignedDimension
 13
517.9114715343867
 23
210.1333729750940
 33
0.0000000000000000
 14
523.0614715343866
 24
330.1333729750940
 34
0.0000000000000000
 50
90.00000000000000
100
AcDbRotatedDimension
1001
ACAD
1000
DSTYLE
1002
{
1070
   173
1070
     1
1070
     6
1000
_OPEN
1070
     7
1000
_OPEN
1070
    41
1040
3.000000
1002
}
  0
DIMENSION
  5
24B
100
AcDbEntity
  8
H0
  6
CONTINUOUS
 62
3
100
AcDbDimension
  2
*D25
 10
530.9351234080547
 20
163.3045953996354
 30
0.0000000000000000
 11
536.1201994697445
 21
169.5503316330983
 31
0.0000000000000000
 70
161
  3
H002
100
AcDbAlignedDimension
 13
511.5178015959579
 23
168.5797815880184
 33
0.0000000000000000
 14
518.5888694078185
 24
175.6508493998862
 34
0.0000000000000000
 50
44.99999999996580
1001
ACAD
1000
DSTYLE
1002
{
1070
   173
1070
     1
1070
     6
1000
_OPEN
1070
     7
1000
_OPEN
1070
    41
1040
3.000000
1070
   272
1070
     2
1070
    47
1040
0.000000
1070
    48
1040
0.150000
1070
    71
1070
     1
1070
   340
1005
A4
1002
}
  0
DIMENSION
  5
253
100
AcDbEntity
  8
H0
  6
CONTINUOUS
 62
3
100
AcDbDimension
  2
*D26
 10
488.9871174156392
 20
322.1333729750940
 30
0.0000000000000000
 11
488.4871174156392
 21
305.3279142270700
 31
0.0000000000000000
 70
160
  1
\A1;\U+220510
  3
H002
100
AcDbAlignedDimension
 13
478.8422111179740
 23
312.1333729750940
 33
0.0000000000000000
 14
482.4819134606356
 24
322.1333729750940
 34
0.0000000000000000
 50
90.00000000000000
100
AcDbRotatedDimension
1001
ACAD
1000
DSTYLE
1002
{
1070
   173
1070
     1
1070
     6
1000
_OPEN
1070
     7
1000
_OPEN
1070
    41
1040
3.000000
1002
}
  0
LINE
  5
254
100
AcDbEntity
  8
H0
  6
CENTER
 62
3
100
AcDbLine
 10
512.0614715343867
 20
206.4023549931875
 30
0.0000000000000000
 11
512.0614715343867
 21
274.7086286601704
 31
0.0000000000000000
  0
DIMENSION
  5
25D
100
AcDbEntity
  8
H0
  6
CONTINUOUS
 62
3
100
AcDbDimension
  2
*D27
 10
532.3233064114922
 20
224.1333729750940
 30
0.0000000000000000
 11
531.8233064114922
 21
217.1333729750940
 31
0.0000000000000000
 70
32
  3
H002
100
AcDbAlignedDimension
 13
517.9114715343867
 23
210.1333729750940
 33
0.0000000000000000
 14
518.6114715343866
 24
224.1333729750940
 34
0.0000000000000000
 50
90.00000000000000
100
AcDbRotatedDimension
1001
ACAD
1000
DSTYLE
1002
{
1070
   173
1070
     1
1070
     6
1000
_OPEN
1070
     7
1000
_OPEN
1070
    41
1040
3.000000
1002
}
  0
ARC
  5
25E
100
AcDbEntity
  8
H0
  6
CONTINUOUS
 62
3
100
AcDbCircle
 10
529.3114715343867
 20
317.1333729750940
 30
0.0000000000000000
 40
7.250000000000028
100
AcDbArc
 50
136.3971810272964
 51
223.6028189727036
  0
ARC
  5
25F
100
AcDbEntity
  8
H0
  6
CONTINUOUS
 62
3
100
AcDbCircle
 10
494.8114715343866
 20
317.1333729750940
 30
0.0000000000000000
 40
7.250000000000036
100
AcDbArc
 50
316.3971810272965
 51
403.6028189727035
  0
LINE
  5
260
100
AcDbEntity
  8
H0
  6
CONTINUOUS
 62
3
100
AcDbLine
 10
524.0614715343867
 20
312.1333729750940
 30
0.0000000000000000
 11
524.0614715343867
 21
305.1333729750939
 31
0.0000000000000000
  0
LINE
  5
261
100
AcDbEntity
  8
H0
  6
CONTINUOUS
 62
3
100
AcDbLine
 10
524.0614715343867
 20
329.1333729750938
 30
0.0000000000000000
 11
524.0614715343867
 21
322.1333729750940
 31
0.0000000000000000
  0
LINE
  5
262
100
AcDbEntity
  8
H0
  6
CONTINUOUS
 62
3
100
AcDbLine
 10
500.0614715343867
 20
312.1333729750940
 30
0.0000000000000000
 11
500.0614715343867
 21
305.1333729750939
 31
0.0000000000000000
  0
LINE
  5
263
100
AcDbEntity
  8
H0
  6
CONTINUOUS
 62
3
100
AcDbLine
 10
500.0614715343867
 20
329.1333729750938
 30
0.0000000000000000
 11
500.0614715343867
 21
322.1333729750940
 31
0.0000000000000000
  0
ARC
  5
264
100
AcDbEntity
  8
H0
  6
CONTINUOUS
 62
3
100
AcDbCircle
 10
555.9779359190036
 20
319.6333729750940
 30
0.0000000000000000
 40
3.750000000000000
100
AcDbArc
 50
138.1896851042214
 51
221.8103148957786
  0
ARC
  5
265
100
AcDbEntity
  8
H0
  6
CONTINUOUS
 62
3
100
AcDbCircle
 10
550.3877659752541
 20
319.6333729750940
 30
0.0000000000000000
 40
3.750000000000000
100
AcDbArc
 50
318.1896851042214
 51
401.8103148957786
  0
ARC
  5
266
100
AcDbEntity
  8
H0
  6
CONTINUOUS
 62
3
100
AcDbCircle
 10
559.7279359190036
 20
319.6333729750940
 30
0.0000000000000000
 40
3.750000000000000
100
AcDbArc
 50
138.1896851042214
 51
221.8103148957786
  0
ARC
  5
267
100
AcDbEntity
  8
H0
  6
CONTINUOUS
 62
3
100
AcDbCircle
 10
550.3877659752541
 20
314.6333729750940
 30
0.0000000000000000
 40
3.750000000000000
100
AcDbArc
 50
318.1896851042214
 51
401.8103148957786
  0
ARC
  5
268
100
AcDbEntity
  8
H0
  6
CONTINUOUS
 62
3
100
AcDbCircle
 10
559.7279359190036
 20
314.6333729750940
 30
0.0000000000000000
 40
3.750000000000000
100
AcDbArc
 50
138.1896851042214
 51
221.8103148957786
  0
ARC
  5
269
100
AcDbEntity
  8
H0
  6
CONTINUOUS
 62
3
100
AcDbCircle
 10
554.1377659752541
 20
314.6333729750940
 30
0.0000000000000000
 40
3.750000000000000
100
AcDbArc
 50
318.1896851042214
 51
401.8103148957786
  0
LINE
  5
26A
100
AcDbEntity
  8
H0
  6
CONTINUOUS
 62
3
100
AcDbLine
 10
524.0614715343867
 20
322.1333729750940
 30
0.0000000000000000
 11
553.1828509471288
 21
322.1333729750940
 31
0.0000000000000000
  0
LINE
  5
26B
100
AcDbEntity
  8
H0
  6
CONTINUOUS
 62
3
100
AcDbLine
 10
556.9328509471288
 20
322.1333729750940
 30
0.0000000000000000
 11
572.0614715343867
 21
322.1333729750940
 31
0.0000000000000000
  0
LINE
  5
26C
100
AcDbEntity
  8
H0
  6
CONTINUOUS
 62
3
100
AcDbLine
 10
524.0614715343867
 20
312.1333729750940
 30
0.0000000000000000
 11
553.1828509471288
 21
312.1333729750940
 31
0.0000000000000000
  0
LINE
  5
26D
100
AcDbEntity
  8
H0
  6
CONTINUOUS
 62
3
100
AcDbLine
 10
556.9328509471288
 20
312.1333729750940
 30
0.0000000000000000
 11
572.0614715343867
 21
312.1333729750940
 31
0.0000000000000000
  0
ARC
  5
26E
100
AcDbEntity
  8
H0
  6
CONTINUOUS
 62
3
100
AcDbCircle
 10
466.3629853369775
 20
319.6333729750940
 30
0.0000000000000000
 40
3.750000000000000
100
AcDbArc
 50
138.1896851042214
 51
221.8103148957786
  0
ARC
  5
26F
100
AcDbEntity
  8
H0
  6
CONTINUOUS
 62
3
100
AcDbCircle
 10
460.7728153932280
 20
319.6333729750940
 30
0.0000000000000000
 40
3.750000000000000
100
AcDbArc
 50
318.1896851042214
 51
401.8103148957786
  0
ARC
  5
270
100
AcDbEntity
  8
H0
  6
CONTINUOUS
 62
3
100
AcDbCircle
 10
470.1129853369775
 20
319.6333729750940
 30
0.0000000000000000
 40
3.750000000000000
100
AcDbArc
 50
138.1896851042214
 51
221.8103148957786
  0
ARC
  5
271
100
AcDbEntity
  8
H0
  6
CONTINUOUS
 62
3
100
AcDbCircle
 10
460.7728153932280
 20
314.6333729750940
 30
0.0000000000000000
 40
3.750000000000000
100
AcDbArc
 50
318.1896851042214
 51
401.8103148957786
  0
ARC
  5
272
100
AcDbEntity
  8
H0
  6
CONTINUOUS
 62
3
100
AcDbCircle
 10
470.1129853369775
 20
314.6333729750940
 30
0.0000000000000000
 40
3.750000000000000
100
AcDbArc
 50
138.1896851042214
 51
221.8103148957786
  0
ARC
  5
273
100
AcDbEntity
  8
H0
  6
CONTINUOUS
 62
3
100
AcDbCircle
 10
464.5228153932280
 20
314.6333729750940
 30
0.0000000000000000
 40
3.750000000000000
100
AcDbArc
 50
318.1896851042214
 51
401.8103148957786
  0
LINE
  5
274
100
AcDbEntity
  8
H0
  6
CONTINUOUS
 62
3
100
AcDbLine
 10
452.0614715343867
 20
322.1333729750940
 30
0.0000000000000000
 11
463.5679003651028
 21
322.1333729750940
 31
0.0000000000000000
  0
LINE
  5
275
100
AcDbEntity
  8
H0
  6
CONTINUOUS
 62
3
100
AcDbLine
 10
467.3179003651028
 20
322.1333729750940
 30
0.0000000000000000
 11
500.0614715343867
 21
322.1333729750940
 31
0.0000000000000000
  0
LINE
  5
276
100
AcDbEntity
  8
H0
  6
CONTINUOUS
 62
3
100
AcDbLine
 10
452.0614715343867
 20
312.1333729750940
 30
0.0000000000000000
 11
463.5679003651028
 21
312.1333729750940
 31
0.0000000000000000
  0
LINE
  5
277
100
AcDbEntity
  8
H0
  6
CONTINUOUS
 62
3
100
AcDbLine
 10
467.3179003651028
 20
312.1333729750940
 30
0.0000000000000000
 11
500.0614715343867
 21
312.1333729750940
 31
0.0000000000000000
  0
LINE
  5
278
100
AcDbEntity
  8
H0
  6
CENTER
 62
3
100
AcDbLine
 10
512.0614715343867
 20
283.3586285171193
 30
0.0000000000000000
 11
512.0614715343867
 21
336.5381274286173
 31
0.0000000000000000
  0
ARC
  5
279
100
AcDbEntity
  8
H0
  6
CONTINUOUS
 62
3
100
AcDbCircle
 10
572.0614715343867
 20
317.1333729750940
 30
0.0000000000000000
 40
5.000000000000000
100
AcDbArc
 50
270.0000000000000
 51
450.0000000000000
  0
ARC
  5
27A
100
AcDbEntity
  8
H0
  6
CONTINUOUS
 62
3
100
AcDbCircle
 10
452.0614715343867
 20
317.1333729750940
 30
0.0000000000000000
 40
5.000000000000000
100
AcDbArc
 50
90.00000000000000
 51
270.0000000000000
  0
MTEXT
  5
27B
100
AcDbEntity
  8
A0
  6
CONTINUOUS
 62
3
100
AcDbMText
 10
114.2710095655463
 20
49.40550865608893
 30
0.0000000000000000
 40
3.750000000000000
 41
0.0000000000000000
 71
     1
 72
     1
  1
{\H0.63x;{EXTERNAL\PGRIPPING}}
 11
1.000000000000000
 21
0.0000000000000000
 31
0.0000000000000000
  7
STANDARD
  0
MTEXT
  5
27C
100
AcDbEntity
  8
A0
  6
CONTINUOUS
 62
3
100
AcDbMText
 10
114.1933954227700
 20
38.77243003275109
 30
0.0000000000000000
 40
3.750000000000000
 41
0.0000000000000000
 71
     1
 72
     1
  1
{\H0.63x;{INTERNALLY\PGRIPPING}}
 11
1.000000000000000
 21
0.0000000000000000
 31
0.0000000000000000
  7
STANDARD
  0
MTEXT
  5
27D
100
AcDbEntity
  8
A0
  6
CONTINUOUS
 62
3
100
AcDbMText
 10
166.4320023008491
 20
111.5679397396497
 30
0.0000000000000000
 40
4.649999856948853
 41
0.0000000000000000
 71
     1
 72
     1
  1
{\H0.76x;{9.0}}
 11
1.000000000000000
 21
0.0000000000000000
 31
0.0000000000000000
  7
STANDARD
  0
MTEXT
  5
27E
100
AcDbEntity
  8
A0
  6
CONTINUOUS
 62
3
100
AcDbMText
 10
161.8073394495413
 20
103.8288983882588
 30
0.0000000000000000
 40
4.649999856948853
 41
0.0000000000000000
 71
     1
 72
     1
  1
{\H0.88x;{31}}
 11
1.000000000000000
 21
0.0000000000000000
 31
0.0000000000000000
  7
STANDARD
  0
MTEXT
  5
27F
100
AcDbEntity
  8
A0
  6
CONTINUOUS
 62
3
100
AcDbMText
 10
166.3073394495413
 20
97.07889838825881
 30
0.0000000000000000
 40
4.649999856948853
 41
0.0000000000000000
 71
     1
 72
     1
  1
{\H0.91x;{3161}}
 11
1.000000000000000
 21
0.0000000000000000
 31
0.0000000000000000
  7
STANDARD
  0
MTEXT
  5
280
100
AcDbEntity
  8
A0
  6
CONTINUOUS
 62
3
100
AcDbMText
 10
161.8073394495413
 20
72.57889838825881
 30
0.0000000000000000
 40
4.649999856948853
 41
0.0000000000000000
 71
     1
 72
     1
  1
{\H0.76x;{8.4}}
 11
1.000000000000000
 21
0.0000000000000000
 31
0.0000000000000000
  7
STANDARD
  0
MTEXT
  5
281
100
AcDbEntity
  8
A0
  6
CONTINUOUS
 62
3
100
AcDbMText
 10
161.8073394495413
 20
118.8288983882589
 30
0.0000000000000000
 40
4.649999856948853
 41
0.0000000000000000
 71
     1
 72
     1
  1
{\H0.81x;{88.3}}
 11
1.000000000000000
 21
0.0000000000000000
 31
0.0000000000000000
  7
STANDARD
  0
LINE
  5
282
100
AcDbEntity
  8
A0
  6
CONTINUOUS
 62
3
100
AcDbLine
 10
83.80733944954137
 20
28.92889853130507
 30
0.0000000000000000
 11
203.8073394495414
 21
28.92889853130515
 31
0.0000000000000000
  0
LINE
  5
283
100
AcDbEntity
  8
A0
  6
CONTINUOUS
 62
3
100
AcDbLine
 10
113.0573394495413
 20
28.92889853130507
 30
0.0000000000000000
 11
113.0573394495413
 21
49.92889853130507
 31
0.0000000000000000
  0
MTEXT
  5
284
100
AcDbEntity
  8
A0
  6
CONTINUOUS
 62
3
100
AcDbMText
 10
137.6327398266292
 20
47.12334634031410
 30
0.0000000000000000
 40
4.649999856948853
 41
0.0000000000000000
 71
     1
 72
     1
  1
{\H0.92x;{外径把握}}
 11
1.000000000000000
 21
0.0000000000000000
 31
0.0000000000000000
  7
KNJYOKO
  0
MTEXT
  5
285
100
AcDbEntity
  8
A0
  6
CONTINUOUS
 62
3
100
AcDbMText
 10
137.6327398266292
 20
36.41265357419999
 30
0.0000000000000000
 40
4.649999856948853
 41
0.0000000000000000
 71
     1
 72
     1
  1
{\H0.92x;{内径把握}}
 11
1.000000000000000
 21
0.0000000000000000
 31
0.0000000000000000
  7
KNJYOKO
  0
MTEXT
  5
286
100
AcDbEntity
  8
A0
  6
CONTINUOUS
 62
3
100
AcDbMText
 10
96.49746664242394
 20
34.47753727394874
 30
0.0000000000000000
 40
4.500000000000000
 41
0.0000000000000000
 71
     1
 72
     1
  1
{\H0.63x;{(mm)}}
 11
1.000000000000000
 21
0.0000000000000000
 31
0.0000000000000000
  7
STANDARD
  0
MTEXT
  5
287
100
AcDbEntity
  8
A0
  6
CONTINUOUS
 62
3
100
AcDbMText
 10
161.8073394494979
 20
36.57889838825392
 30
0.0000000000000000
 40
4.649999856948853
 41
0.0000000000000000
 71
     1
 72
     1
  1
{\H0.93x;{\U+220548～\U+2205150}}
 11
1.000000000000000
 21
0.0000000000000000
 31
0.0000000000000000
  7
KNJYOKO
  0
MTEXT
  5
288
100
AcDbEntity
  8
A0
  6
CONTINUOUS
 62
3
100
AcDbMText
 10
87.55733944954289
 20
88.70389838830110
 30
0.0000000000000000
 40
4.649999856948853
 41
0.0000000000000000
 71
     1
 72
     1
  1
{\H0.94x;{許容最高回転速度　}}
 11
1.000000000000000
 21
0.0000000000000000
 31
0.0000000000000000
  7
KNJYOKO
  0
MTEXT
  5
289
100
AcDbEntity
  8
A0
  6
CONTINUOUS
 62
3
100
AcDbMText
 10
161.8073394495413
 20
83.42889853130995
 30
0.0000000000000000
 40
4.649999856948853
 41
0.0000000000000000
 71
     7
 72
     1
  1
{4000 min}
 11
1.000000000000000
 21
0.0000000000000000
 31
0.0000000000000000
  7
STANDARD
  0
MTEXT
  5
28A
100
AcDbEntity
  8
A0
  6
CONTINUOUS
 62
3
100
AcDbMText
 10
195.0973404246733
 20
85.75389845978438
 30
0.0000000000000000
 40
2.324999928474426
 41
0.0000000000000000
 71
     7
 72
     1
  1
{-1}
 11
1.000000000000000
 21
0.0000000000000000
 31
0.0000000000000000
  7
STANDARD
  0
MTEXT
  5
28B
100
AcDbEntity
  8
A0
  6
CONTINUOUS
 62
3
100
AcDbMText
 10
181.1532656783494
 20
82.51882568707399
 30
0.0000000000000000
 40
4.649999856948853
 41
0.0000000000000000
 71
     1
 72
     1
  1
{\H0.92x;{(rpm)}}
 11
1.000000000000000
 21
0.0000000000000000
 31
0.0000000000000000
  7
STANDARD
  0
MTEXT
  5
28C
100
AcDbEntity
  8
A0
  6
CONTINUOUS
 62
3
100
AcDbMText
 10
161.8073394494979
 20
47.07889838825392
 30
0.0000000000000000
 40
4.649999856948853
 41
0.0000000000000000
 71
     1
 72
     1
  1
{\H0.93x;{\U+22053～\U+2205160}}
 11
1.000000000000000
 21
0.0000000000000000
 31
0.0000000000000000
  7
KNJYOKO
  0
LINE
  5
28D
100
AcDbEntity
  8
A0
  6
CONTINUOUS
 62
3
100
AcDbLine
 10
113.0573394495414
 20
39.42889853130512
 30
0.0000000000000000
 11
203.8073394495412
 21
39.42889853130521
 31
0.0000000000000000
  0
LINE
  5
28E
100
AcDbEntity
  8
A0
  6
CONTINUOUS
 62
3
100
AcDbLine
 10
83.80733944954119
 20
131.4288985313626
 30
0.0000000000000000
 11
203.8073394495413
 21
131.4288985313989
 31
0.0000000000000000
  0
LINE
  5
28F
100
AcDbEntity
  8
A0
  6
CONTINUOUS
 62
3
100
AcDbLine
 10
83.80733944954115
 20
120.9288985313598
 30
0.0000000000000000
 11
203.8073394495411
 21
120.9288985313940
 31
0.0000000000000000
  0
LINE
  5
290
100
AcDbEntity
  8
A0
  6
CONTINUOUS
 62
3
100
AcDbLine
 10
83.80733944954119
 20
105.9288985313497
 30
0.0000000000000000
 11
203.8073394495412
 21
105.9288985313770
 31
0.0000000000000000
  0
LINE
  5
291
100
AcDbEntity
  8
A0
  6
CONTINUOUS
 62
3
100
AcDbLine
 10
83.80733944954106
 20
90.92889853134534
 30
0.0000000000000000
 11
203.8073394495410
 21
90.92889853136960
 31
0.0000000000000000
  0
LINE
  5
292
100
AcDbEntity
  8
A0
  6
CONTINUOUS
 62
3
100
AcDbLine
 10
83.80733944954112
 20
75.42889853134233
 30
0.0000000000000000
 11
203.8073394495412
 21
75.42889853136458
 31
0.0000000000000000
  0
LINE
  5
293
100
AcDbEntity
  8
A0
  6
CONTINUOUS
 62
3
100
AcDbLine
 10
83.80733944954115
 20
64.92889853133940
 30
0.0000000000000000
 11
203.8073394495414
 21
64.92889853135952
 31
0.0000000000000000
  0
LINE
  5
294
100
AcDbEntity
  8
A0
  6
CONTINUOUS
 62
3
100
AcDbLine
 10
83.80733944954137
 20
49.92889853130515
 30
0.0000000000000000
 11
203.8073394495413
 21
49.92889853130519
 31
0.0000000000000000
  0
LINE
  5
295
100
AcDbEntity
  8
A0
  6
CONTINUOUS
 62
3
100
AcDbLine
 10
83.80733944954130
 20
28.92889853130507
 30
0.0000000000000000
 11
83.80733944954130
 21
131.4288985313101
 31
0.0000000000000000
  0
LINE
  5
296
100
AcDbEntity
  8
A0
  6
CONTINUOUS
 62
3
100
AcDbLine
 10
158.8073394495413
 20
28.92889853130507
 30
0.0000000000000000
 11
158.8073394495413
 21
120.9288985313807
 31
0.0000000000000000
  0
LINE
  5
297
100
AcDbEntity
  8
A0
  6
CONTINUOUS
 62
3
100
AcDbLine
 10
203.8073394495413
 20
28.92889853130507
 30
0.0000000000000000
 11
203.8073394495413
 21
131.4288985313101
 31
0.0000000000000000
  0
MTEXT
  5
298
100
AcDbEntity
  8
A0
  6
CONTINUOUS
 62
3
100
AcDbMText
 10
87.55733944954301
 20
119.2038991035642
 30
0.0000000000000000
 40
4.650000572204590
 41
0.0000000000000000
 71
     1
 72
     1
  1
{\H0.94x;{許容最大ハンドルトルク}}
 11
1.000000000000000
 21
0.0000000000000000
 31
0.0000000000000000
  7
KNJYOKO
  0
MTEXT
  5
299
100
AcDbEntity
  8
A0
  6
CONTINUOUS
 62
3
100
AcDbMText
 10
87.55733944954289
 20
104.2038991035599
 30
0.0000000000000000
 40
4.650000572204590
 41
0.0000000000000000
 71
     1
 72
     1
  1
{\H0.94x;{最大静的把握力}}
 11
1.000000000000000
 21
0.0000000000000000
 31
0.0000000000000000
  7
KNJYOKO
  0
MTEXT
  5
29A
100
AcDbEntity
  8
A0
  6
CONTINUOUS
 62
3
100
AcDbMText
 10
86.80733944954130
 20
72.57889910354399
 30
0.0000000000000000
 40
4.650000572204590
 41
0.0000000000000000
 71
     1
 72
     1
  1
{\H0.90x;{質量}}
 11
1.000000000000000
 21
0.0000000000000000
 31
0.0000000000000000
  7
KNJYOKO
  0
MTEXT
  5
29B
100
AcDbEntity
  8
A0
  6
CONTINUOUS
 62
3
100
AcDbMText
 10
88.65930641458891
 20
48.16221239475769
 30
0.0000000000000000
 40
4.650000572204590
 41
0.0000000000000000
 71
     1
 72
     1
  1
{\H0.96x;{把握径}}
 11
1.000000000000000
 21
0.0000000000000000
 31
0.0000000000000000
  7
KNJYOKO
  0
MTEXT
  5
29C
100
AcDbEntity
  8
A0
  6
CONTINUOUS
 62
3
100
AcDbMText
 10
92.30634046094150
 20
129.7273157235653
 30
0.0000000000000000
 40
7.500000000000000
 41
0.0000000000000000
 71
     1
 72
     1
  1
{\H0.91x;{仕　様}}
 11
1.000000000000000
 21
0.0000000000000000
 31
0.0000000000000000
  7
KNJYOKO
  0
MTEXT
  5
29D
100
AcDbEntity
  8
A0
  6
CONTINUOUS
 62
3
100
AcDbMText
 10
181.3073394495413
 20
116.8788973869009
 30
0.0000000000000000
 40
4.199998855590820
 41
0.0000000000000000
 71
     1
 72
     1
  1
{\H0.58x;{　　　Ｎ・ｍ}}
 11
1.000000000000000
 21
0.0000000000000000
 31
0.0000000000000000
  7
KNJYOKO
  0
MTEXT
  5
29E
100
AcDbEntity
  8
A0
  6
CONTINUOUS
 62
3
100
AcDbMText
 10
161.8073394495413
 20
110.8788973869009
 30
0.0000000000000000
 40
4.199998855590820
 41
0.0000000000000000
 71
     1
 72
     1
  1
{\H0.48x;{（}}
 11
1.000000000000000
 21
0.0000000000000000
 31
0.0000000000000000
  7
KNJYOKO
  0
MTEXT
  5
29F
100
AcDbEntity
  8
A0
  6
CONTINUOUS
 62
3
100
AcDbMText
 10
179.8073394495413
 20
110.8788973869009
 30
0.0000000000000000
 40
4.199998855590820
 41
0.0000000000000000
 71
     1
 72
     1
  1
{\H0.58x;{　ｋｇｆ・ｍ）}}
 11
1.000000000000000
 21
0.0000000000000000
 31
0.0000000000000000
  7
KNJYOKO
  0
MTEXT
  5
2A0
100
AcDbEntity
  8
A0
  6
CONTINUOUS
 62
3
100
AcDbMText
 10
181.3073394495413
 20
70.62889738690078
 30
0.0000000000000000
 40
4.199998855590820
 41
0.0000000000000000
 71
     1
 72
     1
  1
{\H0.58x;{　　　　ｋｇ}}
 11
1.000000000000000
 21
0.0000000000000000
 31
0.0000000000000000
  7
KNJYOKO
  0
MTEXT
  5
2A1
100
AcDbEntity
  8
A0
  6
CONTINUOUS
 62
3
100
AcDbMText
 10
181.3073394495413
 20
101.8788973869008
 30
0.0000000000000000
 40
4.199998855590820
 41
0.0000000000000000
 71
     1
 72
     1
  1
{\H0.58x;{　　　　ｋＮ}}
 11
1.000000000000000
 21
0.0000000000000000
 31
0.0000000000000000
  7
KNJYOKO
  0
MTEXT
  5
2A2
100
AcDbEntity
  8
A0
  6
CONTINUOUS
 62
3
100
AcDbMText
 10
161.8073394495413
 20
95.87889738690078
 30
0.0000000000000000
 40
4.199998855590820
 41
0.0000000000000000
 71
     1
 72
     1
  1
{\H0.48x;{（}}
 11
1.000000000000000
 21
0.0000000000000000
 31
0.0000000000000000
  7
KNJYOKO
  0
MTEXT
  5
2A3
100
AcDbEntity
  8
A0
  6
CONTINUOUS
 62
3
100
AcDbMText
 10
179.8073394495413
 20
95.87889738690078
 30
0.0000000000000000
 40
4.199998855590820
 41
0.0000000000000000
 71
     1
 72
     1
  1
{\H0.58x;{　　　ｋｇｆ）}}
 11
1.000000000000000
 21
0.0000000000000000
 31
0.0000000000000000
  7
KNJYOKO
  0
MTEXT
  5
2A4
100
AcDbEntity
  8
A0
  6
CONTINUOUS
 62
3
100
AcDbMText
 10
131.0560505189080
 20
128.3969087726063
 30
0.0000000000000000
 40
4.649999856948853
 41
0.0000000000000000
 71
     1
 72
     1
  1
{\H0.93x;{SPECIFICATIONS}}
 11
1.000000000000000
 21
0.0000000000000000
 31
0.0000000000000000
  7
STANDARD
  0
MTEXT
  5
2A5
100
AcDbEntity
  8
A0
  6
CONTINUOUS
 62
3
100
AcDbMText
 10
87.55733944954085
 20
111.5538985313499
 30
0.0000000000000000
 40
3.750000000000000
 41
0.0000000000000000
 71
     1
 72
     1
  1
{\H0.62x;{MAX.PERMISSIBLE HANDLE TORQUE}}
 11
1.000000000000000
 21
0.0000000000000000
 31
0.0000000000000000
  7
STANDARD
  0
MTEXT
  5
2A6
100
AcDbEntity
  8
A0
  6
CONTINUOUS
 62
3
100
AcDbMText
 10
87.55733944954085
 20
96.55389853134531
 30
0.0000000000000000
 40
3.750000000000000
 41
0.0000000000000000
 71
     1
 72
     1
  1
{\H0.63x;{MAX STATIC GRIPPING FORCE}}
 11
1.000000000000000
 21
0.0000000000000000
 31
0.0000000000000000
  7
STANDARD
  0
MTEXT
  5
2A7
100
AcDbEntity
  8
A0
  6
CONTINUOUS
 62
3
100
AcDbMText
 10
87.55733944954062
 20
81.05389853134236
 30
0.0000000000000000
 40
3.750000000000000
 41
0.0000000000000000
 71
     1
 72
     1
  1
{\H0.63x;{MAX PREMISSIBLE SPEED}}
 11
1.000000000000000
 21
0.0000000000000000
 31
0.0000000000000000
  7
STANDARD
  0
MTEXT
  5
2A8
100
AcDbEntity
  8
A0
  6
CONTINUOUS
 62
3
100
AcDbMText
 10
84.86031477991543
 20
40.57598562238738
 30
0.0000000000000000
 40
3.750000000000000
 41
0.0000000000000000
 71
     1
 72
     1
  1
{\H0.54x;{GRIPPING RANGE}}
 11
1.000000000000000
 21
0.0000000000000000
 31
0.0000000000000000
  7
STANDARD
  0
MTEXT
  5
2A9
100
AcDbEntity
  8
A0
  6
CONTINUOUS
 62
3
100
AcDbMText
 10
112.1608263325898
 20
72.65208086760728
 30
0.0000000000000000
 40
4.650000572204590
 41
0.0000000000000000
 71
     1
 72
     1
  1
{\H0.91x;{MASS}}
 11
1.000000000000000
 21
0.0000000000000000
 31
0.0000000000000000
  7
STANDARD
  0
MTEXT
  5
2AA
100
AcDbEntity
  8
A0
  6
CONTINUOUS
 62
3
100
AcDbMText
 10
87.55733944954315
 20
63.20389910351966
 30
0.0000000000000000
 40
4.650000572204590
 41
0.0000000000000000
 71
     1
 72
     1
  1
{\H0.94x;{慣性モーメント}}
 11
1.000000000000000
 21
0.0000000000000000
 31
0.0000000000000000
  7
KNJYOKO
  0
MTEXT
  5
2AB
100
AcDbEntity
  8
A0
  6
CONTINUOUS
 62
3
100
AcDbMText
 10
87.55733944954088
 20
55.55389710079371
 30
0.0000000000000000
 40
3.749998569488525
 41
0.0000000000000000
 71
     1
 72
     1
  1
{\H0.75x;{MOMENT OF INERTIA}}
 11
1.000000000000000
 21
0.0000000000000000
 31
0.0000000000000000
  7
STANDARD
  0
MTEXT
  5
2AC
100
AcDbEntity
  8
A0
  6
CONTINUOUS
 62
3
100
AcDbMText
 10
161.8073394495413
 20
59.57889838820776
 30
0.0000000000000000
 40
4.649999856948853
 41
0.0000000000000000
 71
     1
 72
     1
  1
{\H0.92x;{0.030　}}
 11
1.000000000000000
 21
0.0000000000000000
 31
0.0000000000000000
  7
KNJYOKO
  0
MTEXT
  5
2AD
100
AcDbEntity
  8
A0
  6
CONTINUOUS
 62
3
100
AcDbMText
 10
186.9192478492687
 20
57.98306805230763
 30
0.0000000000000000
 40
3.000000000000000
 41
0.0000000000000000
 71
     1
 72
     1
  1
{\H0.92x;{ｋｇ・ｍ}}
 11
1.000000000000000
 21
0.0000000000000000
 31
0.0000000000000000
  7
KNJYOKO
  0
MTEXT
  5
2AE
100
AcDbEntity
  8
A0
  6
CONTINUOUS
 62
3
100
AcDbMText
 10
199.8264108952005
 20
59.76507269864803
 30
0.0000000000000000
 40
2.099999964237213
 41
0.0000000000000000
 71
     1
 72
     1
  1
{\H0.82x;{2}}
 11
1.000000000000000
 21
0.0000000000000000
 31
0.0000000000000000
  7
STANDARD
  0
MTEXT
  5
2AF
100
AcDbEntity
  8
A0
  6
CONTINUOUS
 62
3
100
AcDbMText
 10
83.87525334100127
 20
27.29927603554503
 30
0.0000000000000000
 40
4.650000572204590
 41
0.0000000000000000
 71
     1
 72
     1
  1
{\H0.95x;{○上記仕様は許容最大ハンドルトルク締込時の場合}}
 11
1.000000000000000
 21
0.0000000000000000
 31
0.0000000000000000
  7
KNJYOKO
  0
MTEXT
  5
2B0
100
AcDbEntity
  8
A0
  6
CONTINUOUS
 62
3
100
AcDbMText
 10
89.64438095109006
 20
19.72049484339968
 30
0.0000000000000000
 40
4.649999856948853
 41
0.0000000000000000
 71
     1
 72
     1
  1
{\H0.69x;{AT MAX.PERMISSIBLE HANDLE TORQUE.}}
 11
1.000000000000000
 21
0.0000000000000000
 31
0.0000000000000000
  7
STANDARD
  0
LINE
  5
2B1
100
AcDbEntity
  8
WAKU0
  6
CONTINUOUS
 62
3
100
AcDbLine
 10
240.0000000000000
 20
51.00000000000000
 30
0.0000000000000000
 11
410.0000000000000
 21
51.00000000000000
 31
0.0000000000000000
  0
LINE
  5
2B2
100
AcDbEntity
  8
WAKU0
  6
CONTINUOUS
 62
3
100
AcDbLine
 10
240.0000000000000
 20
51.00000000000000
 30
0.0000000000000000
 11
240.0000000000000
 21
12.00000000000000
 31
0.0000000000000000
  0
LINE
  5
2B3
100
AcDbEntity
  8
WAKU0
  6
CONTINUOUS
 62
3
100
AcDbLine
 10
312.0000000000000
 20
51.00000000000000
 30
0.0000000000000000
 11
312.0000000000000
 21
12.00000000000000
 31
0.0000000000000000
  0
LINE
  5
2B4
100
AcDbEntity
  8
WAKU0
  6
CONTINUOUS
 62
3
100
AcDbLine
 10
332.0000000000000
 20
51.00000000000000
 30
0.0000000000000000
 11
332.0000000000000
 21
12.00000000000000
 31
0.0000000000000000
  0
LINE
  5
2B5
100
AcDbEntity
  8
WAKU0
  6
CONTINUOUS
 62
3
100
AcDbLine
 10
344.0000000000000
 20
51.00000000000000
 30
0.0000000000000000
 11
344.0000000000000
 21
12.00000000000000
 31
0.0000000000000000
  0
LINE
  5
2B6
100
AcDbEntity
  8
WAKU0
  6
CONTINUOUS
 62
3
100
AcDbLine
 10
344.0000000000000
 20
37.00000000000000
 30
0.0000000000000000
 11
410.0000000000000
 21
37.00000000000000
 31
0.0000000000000000
  0
LINE
  5
2B7
100
AcDbEntity
  8
WAKU0
  6
CONTINUOUS
 62
3
100
AcDbLine
 10
332.0000000000000
 20
23.00000000000000
 30
0.0000000000000000
 11
410.0000000000000
 21
23.00000000000000
 31
0.0000000000000000
  0
LINE
  5
2B8
100
AcDbEntity
  8
WAKU0
  6
CONTINUOUS
 62
3
100
AcDbLine
 10
375.0000000000000
 20
51.00000000000000
 30
0.0000000000000000
 11
375.0000000000000
 21
44.00000000000000
 31
0.0000000000000000
  0
LINE
  5
2B9
100
AcDbEntity
  8
WAKU0
  6
CONTINUOUS
 62
3
100
AcDbLine
 10
387.0000000000000
 20
51.00000000000000
 30
0.0000000000000000
 11
387.0000000000000
 21
44.00000000000000
 31
0.0000000000000000
  0
LINE
  5
2BA
100
AcDbEntity
  8
WAKU0
  6
CONTINUOUS
 62
3
100
AcDbLine
 10
312.0000000000000
 20
31.50000000000000
 30
0.0000000000000000
 11
332.0000000000000
 21
31.50000000000000
 31
0.0000000000000000
  0
LINE
  5
2BB
100
AcDbEntity
  8
WAKU0
  6
CONTINUOUS
 62
3
100
AcDbLine
 10
332.0000000000000
 20
44.00000000000000
 30
0.0000000000000000
 11
410.0000000000000
 21
44.00000000000000
 31
0.0000000000000000
  0
LINE
  5
2BC
100
AcDbEntity
  8
WAKU0
  6
CONTINUOUS
 62
3
100
AcDbLine
 10
240.0000000000000
 20
37.00000000000000
 30
0.0000000000000000
 11
312.0000000000000
 21
37.00000000000000
 31
0.0000000000000000
  0
LINE
  5
2BD
100
AcDbEntity
  8
WAKU0
  6
CONTINUOUS
 62
3
100
AcDbLine
 10
240.0000000000000
 20
23.00000000000000
 30
0.0000000000000000
 11
312.0000000000000
 21
23.00000000000000
 31
0.0000000000000000
  0
LINE
  5
2BE
100
AcDbEntity
  8
WAKU0
  6
CONTINUOUS
 62
3
100
AcDbLine
 10
288.0000000000000
 20
37.00000000000000
 30
0.0000000000000000
 11
288.0000000000000
 21
12.00000000000000
 31
0.0000000000000000
  0
LINE
  5
2BF
100
AcDbEntity
  8
WAKU0
  6
CONTINUOUS
 62
3
100
AcDbLine
 10
264.0000000000000
 20
37.00000000000000
 30
0.0000000000000000
 11
264.0000000000000
 21
23.00000000000000
 31
0.0000000000000000
  0
LINE
  5
2C0
100
AcDbEntity
  8
WAKU0
  6
CONTINUOUS
 62
3
100
AcDbLine
 10
300.0000000000000
 20
26.00000000000000
 30
0.0000000000000000
 11
300.0000000000000
 21
23.00000000000000
 31
0.0000000000000000
  0
LINE
  5
2C1
100
AcDbEntity
  8
WAKU0
  6
CONTINUOUS
 62
3
100
AcDbLine
 10
276.0000000000000
 20
26.00000000000000
 30
0.0000000000000000
 11
276.0000000000000
 21
23.00000000000000
 31
0.0000000000000000
  0
LINE
  5
2C2
100
AcDbEntity
  8
WAKU0
  6
CONTINUOUS
 62
3
100
AcDbLine
 10
252.0000000000000
 20
26.00000000000000
 30
0.0000000000000000
 11
252.0000000000000
 21
23.00000000000000
 31
0.0000000000000000
  0
LINE
  5
2C3
100
AcDbEntity
  8
WAKU0
  6
CONTINUOUS
 62
3
100
AcDbLine
 10
258.0000000000000
 20
51.00000000000000
 30
0.0000000000000000
 11
258.0000000000000
 21
37.00000000000000
 31
0.0000000000000000
  0
LINE
  5
2C4
100
AcDbEntity
  8
WAKU0
  6
CONTINUOUS
 62
3
100
AcDbLine
 10
240.0000000000000
 20
45.00000000000000
 30
0.0000000000000000
 11
312.0000000000000
 21
45.00000000000000
 31
0.0000000000000000
  0
LINE
  5
2C5
100
AcDbEntity
  8
WAKU0
  6
HIDDEN
 62
3
100
AcDbLine
 10
360.5000000000000
 20
23.00000000000000
 30
0.0000000000000000
 11
360.5000000000000
 21
12.00000000000000
 31
0.0000000000000000
  0
LINE
  5
2C6
100
AcDbEntity
  8
WAKU0
  6
HIDDEN
 62
3
100
AcDbLine
 10
372.9000000000000
 20
23.00000000000000
 30
0.0000000000000000
 11
372.9000000000000
 21
12.00000000000000
 31
0.0000000000000000
  0
MTEXT
  5
2C7
100
AcDbEntity
  8
WAKU0
  6
CONTINUOUS
 62
3
100
AcDbMText
 10
344.4820000243485
 20
49.04999995231628
 30
0.0000000000000000
 40
3.099999904632568
 41
0.0000000000000000
 71
     1
 72
     1
  1
{\H0.93x;{JN06-101}}
 11
1.000000000000000
 21
0.0000000000000000
 31
0.0000000000000000
  7
STANDARD
  0
MTEXT
  5
2C8
100
AcDbEntity
  8
WAKU0
  6
CONTINUOUS
 62
3
100
AcDbMText
 10
344.4659999916852
 20
43.50000000000000
 30
0.0000000000000000
 40
3.000000000000000
 41
0.0000000000000000
 71
     1
 72
     1
  1
{\H0.94x;{スクロールチャック　\PＳＣＲＯＬＬ　ＣＨＵＣＫ}}
 11
1.000000000000000
 21
0.0000000000000000
 31
0.0000000000000000
  7
KNJYOKO
  0
MTEXT
  5
2C9
100
AcDbEntity
  8
WAKU0
  6
CONTINUOUS
 62
3
100
AcDbMText
 10
344.4000000059605
 20
34.23333326975504
 30
0.0000000000000000
 40
3.099999904632568
 41
0.0000000000000000
 71
     1
 72
     1
  1
{\H0.70x;{ＪＮ０６－１０１ガイケイ\PＪＮ０６－１０１　ＯＵＴＳＩＤＥ　ＶＩＥＷ}}
 11
1.000000000000000
 21
0.0000000000000000
 31
0.0000000000000000
  7
KNJYOKO
  0
MTEXT
  5
2CA
100
AcDbEntity
  8
WAKU0
  6
CONTINUOUS
 62
3
100
AcDbMText
 10
318.0049998760223
 20
39.29999995231628
 30
0.0000000000000000
 40
3.099999904632568
 41
0.0000000000000000
 71
     1
 72
     1
  1
{\H0.90x;{2:3}}
 11
1.000000000000000
 21
0.0000000000000000
 31
0.0000000000000000
  7
STANDARD
  0
MTEXT
  5
2CB
100
AcDbEntity
  8
WAKU0
  6
CONTINUOUS
 62
3
100
AcDbMText
 10
374.4000001549721
 20
20.15000009536743
 30
0.0000000000000000
 40
5.300000190734863
 41
0.0000000000000000
 71
     1
 72
     1
  1
{\H0.90x;{1384}}
 11
1.000000000000000
 21
0.0000000000000000
 31
0.0000000000000000
  7
STANDARD
  0
MTEXT
  5
2CC
100
AcDbEntity
  8
WAKU0
  6
CONTINUOUS
 62
3
100
AcDbMText
 10
362.3000000834465
 20
20.15000009536743
 30
0.0000000000000000
 40
5.300000190734863
 41
0.0000000000000000
 71
     1
 72
     1
  1
{\H0.87x;{35}}
 11
1.000000000000000
 21
0.0000000000000000
 31
0.0000000000000000
  7
STANDARD
  0
MTEXT
  5
2CD
100
AcDbEntity
  8
WAKU0
  6
CONTINUOUS
 62
3
100
AcDbMText
 10
345.5000001192093
 20
20.15000009536743
 30
0.0000000000000000
 40
5.300000190734863
 41
0.0000000000000000
 71
     1
 72
     1
  1
{\H0.89x;{61S}}
 11
1.000000000000000
 21
0.0000000000000000
 31
0.0000000000000000
  7
STANDARD
  0
MTEXT
  5
2CE
100
AcDbEntity
  8
WAKU0
  6
CONTINUOUS
 62
3
100
AcDbMText
 10
400.0000000476837
 20
20.15000009536743
 30
0.0000000000000000
 40
5.300000190734863
 41
0.0000000000000000
 71
     1
 72
     1
  1
{\H0.81x;{2}}
 11
1.000000000000000
 21
0.0000000000000000
 31
0.0000000000000000
  7
STANDARD
  0
MTEXT
  5
2CF
100
AcDbEntity
  8
WAKU0
  6
CONTINUOUS
 62
3
100
AcDbMText
 10
400.0000000819564
 20
44.84999990463257
 30
0.0000000000000000
 40
5.300000190734863
 41
0.0000000000000000
 71
     7
 72
     1
  1
{\H0.81x;{ }}
 11
1.000000000000000
 21
0.0000000000000000
 31
0.0000000000000000
  7
STANDARD
  0
MTEXT
  5
2D0
100
AcDbEntity
  8
WAKU0
  6
CONTINUOUS
 62
3
100
AcDbMText
 10
289.3850002884865
 20
33.00000000000000
 30
0.0000000000000000
 40
3.000000000000000
 41
0.0000000000000000
 71
     7
 72
     1
  1
{\H0.93x;{DRAWN BY}}
 11
1.000000000000000
 21
0.0000000000000000
 31
0.0000000000000000
  7
STANDARD
  0
MTEXT
  5
2D1
100
AcDbEntity
  8
WAKU0
  6
CONTINUOUS
 62
3
100
AcDbMText
 10
269.2149997949600
 20
32.95000004768372
 30
0.0000000000000000
 40
3.099999904632568
 41
0.0000000000000000
 71
     7
 72
     1
  1
{\H0.92x;{CHIEF}}
 11
1.000000000000000
 21
0.0000000000000000
 31
0.0000000000000000
  7
STANDARD
  0
MTEXT
  5
2D2
100
AcDbEntity
  8
WAKU0
  6
CONTINUOUS
 62
3
100
AcDbMText
 10
242.4249997138977
 20
32.95000004768372
 30
0.0000000000000000
 40
3.099999904632568
 41
0.0000000000000000
 71
     7
 72
     1
  1
{\H0.92x;{MANAGER}}
 11
1.000000000000000
 21
0.0000000000000000
 31
0.0000000000000000
  7
STANDARD
  0
MTEXT
  5
2D3
100
AcDbEntity
  8
WAKU0
  6
CONTINUOUS
 62
3
100
AcDbMText
 10
241.0850002169609
 20
46.50000000000000
 30
0.0000000000000000
 40
3.000000000000000
 41
0.0000000000000000
 71
     7
 72
     1
  1
{\H0.92x;{CAREER}}
 11
1.000000000000000
 21
0.0000000000000000
 31
0.0000000000000000
  7
STANDARD
  0
MTEXT
  5
2D4
100
AcDbEntity
  8
WAKU0
  6
CONTINUOUS
 62
3
100
AcDbMText
 10
294.6099998354912
 20
18.95000004768372
 30
0.0000000000000000
 40
3.099999904632568
 41
0.0000000000000000
 71
     7
 72
     1
  1
{\H0.91x;{DATE}}
 11
1.000000000000000
 21
0.0000000000000000
 31
0.0000000000000000
  7
STANDARD
  0
MTEXT
  5
2D5
100
AcDbEntity
  8
WAKU0
  6
CONTINUOUS
 62
3
100
AcDbMText
 10
313.9000002145767
 20
26.50000000000000
 30
0.0000000000000000
 40
3.000000000000000
 41
0.0000000000000000
 71
     7
 72
     1
  1
{\H0.63x;{3RD ANGLE}}
 11
1.000000000000000
 21
0.0000000000000000
 31
0.0000000000000000
  7
STANDARD
  0
MTEXT
  5
2D6
100
AcDbEntity
  8
WAKU0
  6
CONTINUOUS
 62
3
100
AcDbMText
 10
315.2149997949600
 20
45.95000004768372
 30
0.0000000000000000
 40
3.099999904632568
 41
0.0000000000000000
 71
     7
 72
     1
  1
{\H0.92x;{SCALE}}
 11
1.000000000000000
 21
0.0000000000000000
 31
0.0000000000000000
  7
STANDARD
  0
MTEXT
  5
2D7
100
AcDbEntity
  8
WAKU0
  6
CONTINUOUS
 62
3
100
AcDbMText
 10
405.7000000476837
 20
46.00000000000000
 30
0.0000000000000000
 40
3.000000000000000
 41
0.0000000000000000
 71
     7
 72
     1
  1
{\H0.63x;{kg}}
 11
1.000000000000000
 21
0.0000000000000000
 31
0.0000000000000000
  7
STANDARD
  0
MTEXT
  5
2D8
100
AcDbEntity
  8
WAKU0
  6
CONTINUOUS
 62
3
100
AcDbMText
 10
375.6000001430512
 20
46.00000000000000
 30
0.0000000000000000
 40
3.000000000000000
 41
0.0000000000000000
 71
     7
 72
     1
  1
{\H0.63x;{WEIGHT}}
 11
1.000000000000000
 21
0.0000000000000000
 31
0.0000000000000000
  7
STANDARD
  0
MTEXT
  5
2D9
100
AcDbEntity
  8
WAKU0
  6
CONTINUOUS
 62
3
100
AcDbMText
 10
334.0049998760223
 20
18.13333336512248
 30
0.0000000000000000
 40
3.099999904632568
 41
0.0000000000000000
 71
     7
 72
     1
  1
{\H0.90x;{DRW\PNO.}}
 11
1.000000000000000
 21
0.0000000000000000
 31
0.0000000000000000
  7
STANDARD
  0
MTEXT
  5
2DA
100
AcDbEntity
  8
WAKU0
  6
CONTINUOUS
 62
3
100
AcDbMText
 10
332.6099998354912
 20
31.95000004768372
 30
0.0000000000000000
 40
3.099999904632568
 41
0.0000000000000000
 71
     7
 72
     1
  1
{\H0.91x;{NAME}}
 11
1.000000000000000
 21
0.0000000000000000
 31
0.0000000000000000
  7
STANDARD
  0
MTEXT
  5
2DB
100
AcDbEntity
  8
WAKU0
  6
CONTINUOUS
 62
3
100
AcDbMText
 10
332.6099998354912
 20
45.95000004768372
 30
0.0000000000000000
 40
3.099999904632568
 41
0.0000000000000000
 71
     7
 72
     1
  1
{\H0.91x;{TYPE}}
 11
1.000000000000000
 21
0.0000000000000000
 31
0.0000000000000000
  7
STANDARD
  0
LINE
  5
2DC
100
AcDbEntity
  8
WAKU0
  6
HIDDEN
 62
3
100
AcDbLine
 10
407.1599564743885
 20
13.84999990463257
 30
0.0000000000000000
 11
396.9400436209789
 21
13.84999990463257
 31
0.0000000000000000
  0
LINE
  5
2DD
100
AcDbEntity
  8
WAKU0
  6
HIDDEN
 62
3
100
AcDbLine
 10
407.1599564743885
 20
13.84999990463250
 30
0.0000000000000000
 11
402.0500000476852
 21
22.70070406014901
 31
0.0000000000000000
  0
LINE
  5
2DE
100
AcDbEntity
  8
WAKU0
  6
HIDDEN
 62
3
100
AcDbLine
 10
402.0500000476852
 20
22.70070406014902
 30
0.0000000000000000
 11
396.9400436209789
 21
13.84999990463248
 31
0.0000000000000000
  0
MTEXT
  5
2DF
100
AcDbEntity
  8
WAKU0
  6
CONTINUOUS
 62
3
100
AcDbMText
 10
247.0000009614873
 20
20.63471521698214
 30
0.0000000000000000
 40
3.140094041824341
 41
0.0000000000000000
 71
     1
 72
     1
  1
{\H0.83x;{Ｋｉｔａｇａｗａ\PＣｏｒｐｏｒａｔｉｏｎ}}
 11
1.000000000000000
 21
0.0000000000000000
 31
0.0000000000000000
  7
KNJYOKO
  0
LINE
  5
2E0
100
AcDbEntity
  8
WAKU0
  6
CONTINUOUS
 62
3
100
AcDbLine
 10
330.4713877753800
 20
15.78041421262812
 30
0.0000000000000000
 11
330.4713877753800
 21
21.78041421262815
 31
0.0000000000000000
  0
LINE
  5
2E1
100
AcDbEntity
  8
WAKU0
  6
CONTINUOUS
 62
3
100
AcDbLine
 10
323.9336941228225
 20
17.28041421262811
 30
0.0000000000000000
 11
323.9336941228225
 21
20.28041421262824
 31
0.0000000000000000
  0
LINE
  5
2E2
100
AcDbEntity
  8
WAKU0
  6
CENTER
 62
12
100
AcDbLine
 10
313.4321805514995
 20
18.78041421262813
 30
0.0000000000000000
 11
331.2765788964694
 21
18.78041421262813
 31
0.0000000000000000
  0
LINE
  5
2E3
100
AcDbEntity
  8
WAKU0
  6
CENTER
 62
12
100
AcDbLine
 10
317.4474565857986
 20
14.55921662918448
 30
0.0000000000000000
 11
317.4474565857986
 21
22.89865102149943
 31
0.0000000000000000
  0
LINE
  5
2E4
100
AcDbEntity
  8
WAKU0
  6
CONTINUOUS
 62
3
100
AcDbLine
 10
323.9336941228225
 20
20.28041421262797
 30
0.0000000000000000
 11
330.4713877753800
 21
21.78041421262795
 31
0.0000000000000000
  0
LINE
  5
2E5
100
AcDbEntity
  8
WAKU0
  6
CONTINUOUS
 62
3
100
AcDbLine
 10
323.9336941228225
 20
17.28041421262811
 30
0.0000000000000000
 11
330.4713877753799
 21
15.78041421262812
 31
0.0000000000000000
  0
CIRCLE
  5
2E6
100
AcDbEntity
  8
WAKU0
  6
CONTINUOUS
 62
3
100
AcDbCircle
 10
317.4474565857986
 20
18.78041421262813
 30
0.0000000000000000
 40
1.499999999999972
  0
CIRCLE
  5
2E7
100
AcDbEntity
  8
WAKU0
  6
CONTINUOUS
 62
3
100
AcDbCircle
 10
317.4474565857986
 20
18.78041421262813
 30
0.0000000000000000
 40
2.999999999999979
  0
ENDSEC
  0
SECTION
  2
OBJECTS
  0
DICTIONARY
  5
336
100
AcDbDictionary
  3
ACAD_GROUP
350
337
  3
ACAD_MLINESTYLE
350
338
  3
DWGPROPS
350
339
  0
DICTIONARY
  5
337
102
{ACAD_REACTORS
330
336
102
}
100
AcDbDictionary
  0
DICTIONARY
  5
338
102
{ACAD_REACTORS
330
336
102
}
100
AcDbDictionary
  3
STANDARD
350
33A
  0
MLINESTYLE
  5
33A
102
{ACAD_REACTORS
330
338
102
}
100
AcDbMlineStyle
  2
STANDARD
 70
     0
  3

 62
   256
 51
90.00
 52
90.00
 71
     2
 49
0.50
 62
   256
  6
BYLAYER
 49
-0.50
 62
   256
  6
BYLAYER
  0
XRECORD
  5
339
102
{ACAD_REACTORS
330
336
102
}
100
AcDbXrecord
280
     1
  1
DWGPROPS COOKIE
  2
ＪＮ０６－１０１　ガイケイ
  3

  4

  6
スクロールチャック
  7

  8

  9

300
=
301
=
302
=
303
=
304
=
305
=
306
=
307
=
308
=
309
=
 40
0.000000
 41
0.000000
 42
0.000000
  1

 90
        0
  0
ENDSEC
  0
EOF
