  0
SECTION
  2
HEADER
  9
$ACADVER
  1
AC1014
  9
$DWGCODEPAGE
  3
ANSI_932
  9
$LTSCALE
 40
20.0
  9
$FILLMODE
 70
     1
  9
$CLAYER
  8
0
  9
$PDMODE
 70
     0
  9
$SPLFRAME
 70
     0
  9
$SPLINETYPE
 70
     6
  9
$SPLINESEGS
 70
     8
  9
$DIMASZ
 40
2.000000
  9
$DIMEXE
 40
2.000000
  9
$DIMEXO
 40
0.800000
  9
$DIMTAD
 70
     1
  9
$DIMTIH
 70
     0
  9
$DIMTOH
 70
     0
  9
$DIMTVP
 40
0.500000
  9
$DIMTXT
 40
3.100000
  9
$EXTMIN
 10
0.000000
 20
0.000000
 30
0.000000
  9
$EXTMAX
 10
297.000000
 20
420.000000
 30
0.000000
  9
$MEASUREMENT
 70
  1
  9
$LIMMIN
 10
0.000000
 20
0.000000
  9
$LIMMAX
 10
297.000000
 20
420.000000
  9
$HANDLING
 70
     1
  9
$HANDSEED
  5
411
  9
$DIMBLK
  1
_OPEN
  9
$DIMDEC
 70
     3
  9
$DIMAUNIT
 70
     1
  9
$DIMZIN
 70
     8
  9
$DIMTOFL
 70
     1
  0
ENDSEC
  0
SECTION
  2
CLASSES
  0
ENDSEC
  0
SECTION
  2
TABLES
  0
TABLE
  2
VPORT
  5
3BE
100
AcDbSymbolTable
 70
     1
  0
VPORT
  5
3BF
100
AcDbSymbolTableRecord
100
AcDbViewportTableRecord
  2
*ACTIVE
 70
     0
 12
306.654882
 22
218.243594
 40
412.487189
 41
1.348462
  0
ENDTAB
  0
TABLE
  2
LTYPE
  5
3C0
100
AcDbSymbolTable
 70
     4
  0
LTYPE
  5
3C1
100
AcDbSymbolTableRecord
100
AcDbLinetypeTableRecord
  2
BYBLOCK
 70
     0
  3

 72
    65
 73
     0
 40
0.0
  0
LTYPE
  5
3C2
100
AcDbSymbolTableRecord
100
AcDbLinetypeTableRecord
  2
BYLAYER
 70
     0
  3

 72
    65
 73
     0
 40
0.0
  0
LTYPE
  5
3C3
100
AcDbSymbolTableRecord
100
AcDbLinetypeTableRecord
  2
CONTINUOUS
 70
     0
  3
Solid line (NEC CAE2D for Win R14.2 : 2020.11.24)
 72
    65
 73
     0
 40
0.0
  0
LTYPE
  5
3C4
100
AcDbSymbolTableRecord
100
AcDbLinetypeTableRecord
  2
HIDDEN
 70
     0
  3
__ __ __ __ __ __ __ __ __ __ __ __ __ __
 72
    65
 73
     2
 40
0.375
 49
0.25
 74
     0
 49
-0.125
 74
     0
  0
LTYPE
  5
3C5
100
AcDbSymbolTableRecord
100
AcDbLinetypeTableRecord
  2
CENTER
 70
     0
  3
____ _ ____ _ ____ _ ____ _ ____ _ ____
 72
    65
 73
     4
 40
2.0
 49
1.25
 74
     0
 49
-0.25
 74
     0
 49
0.25
 74
     0
 49
-0.25
 74
     0
  0
LTYPE
  5
3C6
100
AcDbSymbolTableRecord
100
AcDbLinetypeTableRecord
  2
PHANTOM
 70
     0
  3
______  __  __  ______  __  __  ______ 
 72
    65
 73
     6
 40
2.5
 49
1.25
 74
     0
 49
-0.25
 74
     0
 49
0.25
 74
     0
 49
-0.25
 74
     0
 49
0.25
 74
     0
 49
-0.25
 74
     0
  0
ENDTAB
  0
TABLE
  2
LAYER
  5
3C7
100
AcDbSymbolTable
 70
    16
  0
LAYER
  5
3C8
100
AcDbSymbolTableRecord
100
AcDbLayerTableRecord
  2
0
 70
     0
 62
     7
  6
CONTINUOUS
  0
LAYER
  5
3C9
100
AcDbSymbolTableRecord
100
AcDbLayerTableRecord
  2
MAIN0
 70
     0
 62
     7
  6
CONTINUOUS
  0
LAYER
  5
3CA
100
AcDbSymbolTableRecord
100
AcDbLayerTableRecord
  2
MAIN1
 70
     0
 62
     7
  6
CONTINUOUS
  0
LAYER
  5
3CB
100
AcDbSymbolTableRecord
100
AcDbLayerTableRecord
  2
MAIN2
 70
     0
 62
     7
  6
CONTINUOUS
  0
LAYER
  5
3CC
100
AcDbSymbolTableRecord
100
AcDbLayerTableRecord
  2
MAIN3
 70
     0
 62
     7
  6
CONTINUOUS
  0
LAYER
  5
3CD
100
AcDbSymbolTableRecord
100
AcDbLayerTableRecord
  2
MAIN4
 70
     0
 62
     7
  6
CONTINUOUS
  0
LAYER
  5
3CE
100
AcDbSymbolTableRecord
100
AcDbLayerTableRecord
  2
MAIN5
 70
     0
 62
     7
  6
CONTINUOUS
  0
LAYER
  5
3CF
100
AcDbSymbolTableRecord
100
AcDbLayerTableRecord
  2
MAIN9
 70
     0
 62
     7
  6
CONTINUOUS
  0
LAYER
  5
3D0
100
AcDbSymbolTableRecord
100
AcDbLayerTableRecord
  2
MAIN1023
 70
     0
 62
    16
  6
CONTINUOUS
  0
LAYER
  5
3D1
100
AcDbSymbolTableRecord
100
AcDbLayerTableRecord
  2
H0
 70
     0
 62
     7
  6
CONTINUOUS
  0
LAYER
  5
3D2
100
AcDbSymbolTableRecord
100
AcDbLayerTableRecord
  2
H2
 70
     0
 62
     7
  6
CONTINUOUS
  0
LAYER
  5
3D3
100
AcDbSymbolTableRecord
100
AcDbLayerTableRecord
  2
H1023
 70
     0
 62
    16
  6
CONTINUOUS
  0
LAYER
  5
3D4
100
AcDbSymbolTableRecord
100
AcDbLayerTableRecord
  2
WAKU0
 70
     0
 62
     7
  6
CONTINUOUS
  0
LAYER
  5
3D5
100
AcDbSymbolTableRecord
100
AcDbLayerTableRecord
  2
WAKU1
 70
     0
 62
     7
  6
CONTINUOUS
  0
LAYER
  5
3D6
100
AcDbSymbolTableRecord
100
AcDbLayerTableRecord
  2
WAKU3
 70
     0
 62
     7
  6
CONTINUOUS
  0
LAYER
  5
3D7
100
AcDbSymbolTableRecord
100
AcDbLayerTableRecord
  2
WAKU1023
 70
     0
 62
    16
  6
CONTINUOUS
  0
ENDTAB
  0
TABLE
  2
STYLE
  5
3D8
100
AcDbSymbolTable
 70
     4
  0
STYLE
  5
3D9
100
AcDbSymbolTableRecord
100
AcDbTextStyleTableRecord
  2
STANDARD
 70
    64
 40
0.0
 41
1.0
 50
0.0
 71
     0
 42
3.099999904632568
  3
TXT
  4

  0
STYLE
  5
3DA
100
AcDbSymbolTableRecord
100
AcDbTextStyleTableRecord
  2
ANKTATE
 70
    68
 40
0.0
 41
1.0
 50
0.0
 71
     0
 42
3.099999904632568
  3
TXT
  4

  0
STYLE
  5
A5
100
AcDbSymbolTableRecord
100
AcDbTextStyleTableRecord
  2
KNJYOKO
 70
    64
 40
0.0
 41
1.0
 50
0.0
 71
     0
 42
3.099999904632568
  3
TXT
  4
BIGFONT
  0
STYLE
  5
3DB
100
AcDbSymbolTableRecord
100
AcDbTextStyleTableRecord
  2
KNJTATE
 70
    68
 40
0.0
 41
1.0
 50
0.0
 71
     0
 42
3.099999904632568
  3
TXT
  4
BIGFONT
  0
ENDTAB
  0
TABLE
  2
VIEW
  5
3DC
100
AcDbSymbolTable
 70
     0
  0
ENDTAB
  0
TABLE
  2
UCS
  5
3DD
100
AcDbSymbolTable
 70
     0
  0
ENDTAB
  0
TABLE
  2
APPID
  5
3DE
100
AcDbSymbolTable
 70
     1
  0
APPID
  5
3DF
100
AcDbSymbolTableRecord
100
AcDbRegAppTableRecord
  2
ACAD
 70
     0
  0
ENDTAB
  0
TABLE
  2
DIMSTYLE
  5
3E0
100
AcDbSymbolTable
 70
     1
  0
DIMSTYLE
105
3E1
100
AcDbSymbolTableRecord
100
AcDbDimStyleTableRecord
  2
STANDARD
 70
     0
 41
2.000000
 44
2.000000
 42
0.800000
145
0.661290
140
3.100000
144
1.000000
146
0.903226
340
3D9
  0
DIMSTYLE
105
3E2
100
AcDbSymbolTableRecord
100
AcDbDimStyleTableRecord
  2
MAIN001
 70
     0
 41
3.000000
 44
3.000000
 42
1.200000
145
0.607527
140
4.650000
144
1.000000
146
0.903226
 77
     1
 73
     0
 74
     0
271
     3
275
     1
 78
     8
172
     1
340
3D9
  0
DIMSTYLE
105
3E3
100
AcDbSymbolTableRecord
100
AcDbDimStyleTableRecord
  2
H002
 70
     0
 41
3.000000
 44
3.000000
 42
1.200000
145
0.607527
140
4.650000
144
1.000000
146
0.903226
 77
     1
 73
     0
 74
     0
271
     3
275
     1
 78
     8
172
     1
340
3D9
  0
DIMSTYLE
105
3E4
100
AcDbSymbolTableRecord
100
AcDbDimStyleTableRecord
  2
WAKU003
 70
     0
 41
2.000000
 44
2.000000
 42
0.800000
145
0.661290
140
3.100000
144
1.000000
146
0.903226
 77
     1
 73
     0
 74
     0
271
     3
275
     1
 78
     8
172
     1
340
3D9
  0
ENDTAB
  0
TABLE
  2
BLOCK_RECORD
  5
3E5
100
AcDbSymbolTable
 70
    44
  0
BLOCK_RECORD
  5
3E6
100
AcDbSymbolTableRecord
100
AcDbBlockTableRecord
  2
*MODEL_SPACE
  0
BLOCK_RECORD
  5
3E7
100
AcDbSymbolTableRecord
100
AcDbBlockTableRecord
  2
*PAPER_SPACE
  0
BLOCK_RECORD
  5
1
100
AcDbSymbolTableRecord
100
AcDbBlockTableRecord
  2
_NONE
  0
BLOCK_RECORD
  5
4
100
AcDbSymbolTableRecord
100
AcDbBlockTableRecord
  2
_CLOSED
  0
BLOCK_RECORD
  5
B
100
AcDbSymbolTableRecord
100
AcDbBlockTableRecord
  2
_DOT
  0
BLOCK_RECORD
  5
13
100
AcDbSymbolTableRecord
100
AcDbBlockTableRecord
  2
_OPEN
  0
BLOCK_RECORD
  5
19
100
AcDbSymbolTableRecord
100
AcDbBlockTableRecord
  2
_ORIGIN
  0
BLOCK_RECORD
  5
1E
100
AcDbSymbolTableRecord
100
AcDbBlockTableRecord
  2
_OPEN30
  0
BLOCK_RECORD
  5
24
100
AcDbSymbolTableRecord
100
AcDbBlockTableRecord
  2
_BOXFILLED
  0
BLOCK_RECORD
  5
29
100
AcDbSymbolTableRecord
100
AcDbBlockTableRecord
  2
_BOXBLANK
  0
BLOCK_RECORD
  5
31
100
AcDbSymbolTableRecord
100
AcDbBlockTableRecord
  2
_OBLIQUE
  0
BLOCK_RECORD
  5
35
100
AcDbSymbolTableRecord
100
AcDbBlockTableRecord
  2
_OPEN90
  0
BLOCK_RECORD
  5
3B
100
AcDbSymbolTableRecord
100
AcDbBlockTableRecord
  2
_CLOSEDBLANK
  0
BLOCK_RECORD
  5
41
100
AcDbSymbolTableRecord
100
AcDbBlockTableRecord
  2
_DOTBLANK
  0
BLOCK_RECORD
  5
3E8
100
AcDbSymbolTableRecord
100
AcDbBlockTableRecord
  2
*D0
  0
BLOCK_RECORD
  5
3E9
100
AcDbSymbolTableRecord
100
AcDbBlockTableRecord
  2
*D1
  0
BLOCK_RECORD
  5
3EA
100
AcDbSymbolTableRecord
100
AcDbBlockTableRecord
  2
*D2
  0
BLOCK_RECORD
  5
3EB
100
AcDbSymbolTableRecord
100
AcDbBlockTableRecord
  2
*D3
  0
BLOCK_RECORD
  5
3EC
100
AcDbSymbolTableRecord
100
AcDbBlockTableRecord
  2
*D4
  0
BLOCK_RECORD
  5
3ED
100
AcDbSymbolTableRecord
100
AcDbBlockTableRecord
  2
*D5
  0
BLOCK_RECORD
  5
3EE
100
AcDbSymbolTableRecord
100
AcDbBlockTableRecord
  2
*D6
  0
BLOCK_RECORD
  5
3EF
100
AcDbSymbolTableRecord
100
AcDbBlockTableRecord
  2
*D7
  0
BLOCK_RECORD
  5
3F0
100
AcDbSymbolTableRecord
100
AcDbBlockTableRecord
  2
*D8
  0
BLOCK_RECORD
  5
3F1
100
AcDbSymbolTableRecord
100
AcDbBlockTableRecord
  2
*D9
  0
BLOCK_RECORD
  5
3F2
100
AcDbSymbolTableRecord
100
AcDbBlockTableRecord
  2
*D10
  0
BLOCK_RECORD
  5
3F3
100
AcDbSymbolTableRecord
100
AcDbBlockTableRecord
  2
*D11
  0
BLOCK_RECORD
  5
3F4
100
AcDbSymbolTableRecord
100
AcDbBlockTableRecord
  2
*D12
  0
BLOCK_RECORD
  5
3F5
100
AcDbSymbolTableRecord
100
AcDbBlockTableRecord
  2
*D13
  0
BLOCK_RECORD
  5
3F6
100
AcDbSymbolTableRecord
100
AcDbBlockTableRecord
  2
*D14
  0
BLOCK_RECORD
  5
3F7
100
AcDbSymbolTableRecord
100
AcDbBlockTableRecord
  2
*D15
  0
BLOCK_RECORD
  5
3F8
100
AcDbSymbolTableRecord
100
AcDbBlockTableRecord
  2
*D16
  0
BLOCK_RECORD
  5
3F9
100
AcDbSymbolTableRecord
100
AcDbBlockTableRecord
  2
*D17
  0
BLOCK_RECORD
  5
3FA
100
AcDbSymbolTableRecord
100
AcDbBlockTableRecord
  2
*D18
  0
BLOCK_RECORD
  5
3FB
100
AcDbSymbolTableRecord
100
AcDbBlockTableRecord
  2
*D19
  0
BLOCK_RECORD
  5
3FC
100
AcDbSymbolTableRecord
100
AcDbBlockTableRecord
  2
*D20
  0
BLOCK_RECORD
  5
3FD
100
AcDbSymbolTableRecord
100
AcDbBlockTableRecord
  2
*D21
  0
BLOCK_RECORD
  5
3FE
100
AcDbSymbolTableRecord
100
AcDbBlockTableRecord
  2
*D22
  0
BLOCK_RECORD
  5
3FF
100
AcDbSymbolTableRecord
100
AcDbBlockTableRecord
  2
*D23
  0
BLOCK_RECORD
  5
400
100
AcDbSymbolTableRecord
100
AcDbBlockTableRecord
  2
*D24
  0
BLOCK_RECORD
  5
401
100
AcDbSymbolTableRecord
100
AcDbBlockTableRecord
  2
*D25
  0
BLOCK_RECORD
  5
402
100
AcDbSymbolTableRecord
100
AcDbBlockTableRecord
  2
*D26
  0
BLOCK_RECORD
  5
403
100
AcDbSymbolTableRecord
100
AcDbBlockTableRecord
  2
*D27
  0
BLOCK_RECORD
  5
404
100
AcDbSymbolTableRecord
100
AcDbBlockTableRecord
  2
*D28
  0
BLOCK_RECORD
  5
405
100
AcDbSymbolTableRecord
100
AcDbBlockTableRecord
  2
*D29
  0
BLOCK_RECORD
  5
406
100
AcDbSymbolTableRecord
100
AcDbBlockTableRecord
  2
*D30
  0
BLOCK_RECORD
  5
407
100
AcDbSymbolTableRecord
100
AcDbBlockTableRecord
  2
*D31
  0
ENDTAB
  0
ENDSEC
  0
SECTION
  2
BLOCKS
  0
BLOCK
  5
408
100
AcDbEntity
  8
0
100
AcDbBlockBegin
  2
*MODEL_SPACE
 70
     0
 10
0.0
 20
0.0
 30
0.0
  3
*MODEL_SPACE
  1

  0
ENDBLK
  5
409
100
AcDbEntity
  8
0
100
AcDbBlockEnd
  0
BLOCK
  5
40A
100
AcDbEntity
  8
0
100
AcDbBlockBegin
  2
*PAPER_SPACE
 70
     0
 10
0.0
 20
0.0
 30
0.0
  3
*PAPER_SPACE
  1

  0
ENDBLK
  5
40B
100
AcDbEntity
  8
0
100
AcDbBlockEnd
  0
BLOCK
  5
2
100
AcDbEntity
  8
0
100
AcDbBlockBegin
  2
_NONE
 70
     0
 10
0.0
 20
0.0
 30
0.0
  3
_NONE
  1

  0
ENDBLK
  5
3
100
AcDbEntity
  8
0
100
AcDbBlockEnd
  0
BLOCK
  5
5
100
AcDbEntity
  8
0
100
AcDbBlockBegin
  2
_CLOSED
 70
     0
 10
0.0
 20
0.0
 30
0.0
  3
_CLOSED
  1

  0
LINE
  5
6
100
AcDbEntity
  8
0
  6
BYBLOCK
 62
     0
100
AcDbLine
 10
-1.0
 20
0.166667
 30
0.0
 11
0.0
 21
0.0
 31
0.0
  0
LINE
  5
7
100
AcDbEntity
  8
0
  6
BYBLOCK
 62
     0
100
AcDbLine
 10
0.0
 20
0.0
 30
0.0
 11
-1.0
 21
-0.166667
 31
0.0
  0
LINE
  5
8
100
AcDbEntity
  8
0
  6
BYBLOCK
 62
     0
100
AcDbLine
 10
-1.0
 20
0.166667
 30
0.0
 11
-1.0
 21
-0.166667
 31
0.0
  0
LINE
  5
9
100
AcDbEntity
  8
0
  6
BYBLOCK
 62
     0
100
AcDbLine
 10
0.0
 20
0.0
 30
0.0
 11
-1.0
 21
0.0
 31
0.0
  0
ENDBLK
  5
A
100
AcDbEntity
  8
0
100
AcDbBlockEnd
  0
BLOCK
  5
C
100
AcDbEntity
  8
0
100
AcDbBlockBegin
  2
_DOT
 70
     0
 10
0.0
 20
0.0
 30
0.0
  3
_DOT
  1

  0
POLYLINE
  5
D
100
AcDbEntity
  8
0
  6
BYBLOCK
 62
     0
100
AcDb2dPolyline
 66
     1
 10
0.0
 20
0.0
 30
0.0
 70
     1
 40
0.5
 41
0.5
  0
VERTEX
  5
E
100
AcDbEntity
  8
0
  6
BYBLOCK
 62
     0
100
AcDbVertex
100
AcDb2dVertex
 10
-0.25
 20
0.0
 30
0.0
 42
1.0
  0
VERTEX
  5
F
100
AcDbEntity
  8
0
  6
BYBLOCK
 62
     0
100
AcDbVertex
100
AcDb2dVertex
 10
0.25
 20
0.0
 30
0.0
 42
1.0
  0
SEQEND
  5
10
100
AcDbEntity
  8
0
  6
BYBLOCK
 62
     0
  0
LINE
  5
11
100
AcDbEntity
  8
0
  6
BYBLOCK
 62
     0
100
AcDbLine
 10
-0.5
 20
0.0
 30
0.0
 11
-1.0
 21
0.0
 31
0.0
  0
ENDBLK
  5
12
100
AcDbEntity
  8
0
100
AcDbBlockEnd
  0
BLOCK
  5
14
100
AcDbEntity
  8
0
100
AcDbBlockBegin
  2
_OPEN
 70
     0
 10
0.0
 20
0.0
 30
0.0
  3
_OPEN
  1

  0
LINE
  5
15
100
AcDbEntity
  8
0
  6
BYBLOCK
 62
     0
100
AcDbLine
 10
-1.0
 20
0.166667
 30
0.0
 11
0.0
 21
0.0
 31
0.0
  0
LINE
  5
16
100
AcDbEntity
  8
0
  6
BYBLOCK
 62
     0
100
AcDbLine
 10
0.0
 20
0.0
 30
0.0
 11
-1.0
 21
-0.166667
 31
0.0
  0
LINE
  5
17
100
AcDbEntity
  8
0
  6
BYBLOCK
 62
     0
100
AcDbLine
 10
0.0
 20
0.0
 30
0.0
 11
-1.0
 21
0.0
 31
0.0
  0
ENDBLK
  5
18
100
AcDbEntity
  8
0
100
AcDbBlockEnd
  0
BLOCK
  5
1A
100
AcDbEntity
  8
0
100
AcDbBlockBegin
  2
_ORIGIN
 70
     0
 10
0.0
 20
0.0
 30
0.0
  3
_ORIGIN
  1

  0
CIRCLE
  5
1B
100
AcDbEntity
  8
0
  6
BYBLOCK
 62
     0
100
AcDbCircle
 10
0.0
 20
0.0
 30
0.0
 40
0.5
  0
LINE
  5
1C
100
AcDbEntity
  8
0
  6
BYBLOCK
 62
     0
100
AcDbLine
 10
0.0
 20
0.0
 30
0.0
 11
-1.0
 21
0.0
 31
0.0
  0
ENDBLK
  5
1D
100
AcDbEntity
  8
0
100
AcDbBlockEnd
  0
BLOCK
  5
1F
100
AcDbEntity
  8
0
100
AcDbBlockBegin
  2
_OPEN30
 70
     0
 10
0.0
 20
0.0
 30
0.0
  3
_OPEN30
  1

  0
LINE
  5
20
100
AcDbEntity
  8
0
  6
BYBLOCK
 62
     0
100
AcDbLine
 10
-1.0
 20
0.267949
 30
0.0
 11
0.0
 21
0.0
 31
0.0
  0
LINE
  5
21
100
AcDbEntity
  8
0
  6
BYBLOCK
 62
     0
100
AcDbLine
 10
0.0
 20
0.0
 30
0.0
 11
-1.0
 21
-0.267949
 31
0.0
  0
LINE
  5
22
100
AcDbEntity
  8
0
  6
BYBLOCK
 62
     0
100
AcDbLine
 10
0.0
 20
0.0
 30
0.0
 11
-1.0
 21
0.0
 31
0.0
  0
ENDBLK
  5
23
100
AcDbEntity
  8
0
100
AcDbBlockEnd
  0
BLOCK
  5
25
100
AcDbEntity
  8
0
100
AcDbBlockBegin
  2
_BOXFILLED
 70
     0
 10
0.0
 20
0.0
 30
0.0
  3
_BOXFILLED
  1

  0
SOLID
  5
26
100
AcDbEntity
  8
0
  6
BYBLOCK
 62
     0
100
AcDbTrace
 10
-0.5
 20
0.5
 30
0.0
 11
0.5
 21
0.5
 31
0.0
 12
-0.5
 22
-0.5
 32
0.0
 13
0.5
 23
-0.5
 33
0.0
  0
LINE
  5
27
100
AcDbEntity
  8
0
  6
BYBLOCK
 62
     0
100
AcDbLine
 10
-0.5
 20
0.0
 30
0.0
 11
-1.0
 21
0.0
 31
0.0
  0
ENDBLK
  5
28
100
AcDbEntity
  8
0
100
AcDbBlockEnd
  0
BLOCK
  5
2A
100
AcDbEntity
  8
0
100
AcDbBlockBegin
  2
_BOXBLANK
 70
     0
 10
0.0
 20
0.0
 30
0.0
  3
_BOXBLANK
  1

  0
LINE
  5
2B
100
AcDbEntity
  8
0
  6
BYBLOCK
 62
     0
100
AcDbLine
 10
-0.5
 20
-0.5
 30
0.0
 11
0.5
 21
-0.5
 31
0.0
  0
LINE
  5
2C
100
AcDbEntity
  8
0
  6
BYBLOCK
 62
     0
100
AcDbLine
 10
0.5
 20
-0.5
 30
0.0
 11
0.5
 21
0.5
 31
0.0
  0
LINE
  5
2D
100
AcDbEntity
  8
0
  6
BYBLOCK
 62
     0
100
AcDbLine
 10
0.5
 20
0.5
 30
0.0
 11
-0.5
 21
0.5
 31
0.0
  0
LINE
  5
2E
100
AcDbEntity
  8
0
  6
BYBLOCK
 62
     0
100
AcDbLine
 10
-0.5
 20
0.5
 30
0.0
 11
-0.5
 21
-0.5
 31
0.0
  0
LINE
  5
2F
100
AcDbEntity
  8
0
  6
BYBLOCK
 62
     0
100
AcDbLine
 10
-0.5
 20
0.0
 30
0.0
 11
-1.0
 21
0.0
 31
0.0
  0
ENDBLK
  5
30
100
AcDbEntity
  8
0
100
AcDbBlockEnd
  0
BLOCK
  5
32
100
AcDbEntity
  8
0
100
AcDbBlockBegin
  2
_OBLIQUE
 70
     0
 10
0.0
 20
0.0
 30
0.0
  3
_OBLIQUE
  1

  0
LINE
  5
33
100
AcDbEntity
  8
0
  6
BYBLOCK
 62
     0
100
AcDbLine
 10
-0.5
 20
-0.5
 30
0.0
 11
0.5
 21
0.5
 31
0.0
  0
ENDBLK
  5
34
100
AcDbEntity
  8
0
100
AcDbBlockEnd
  0
BLOCK
  5
36
100
AcDbEntity
  8
0
100
AcDbBlockBegin
  2
_OPEN90
 70
     0
 10
0.0
 20
0.0
 30
0.0
  3
_OPEN90
  1

  0
LINE
  5
37
100
AcDbEntity
  8
0
  6
BYBLOCK
 62
     0
100
AcDbLine
 10
-0.5
 20
0.5
 30
0.0
 11
0.0
 21
0.0
 31
0.0
  0
LINE
  5
38
100
AcDbEntity
  8
0
  6
BYBLOCK
 62
     0
100
AcDbLine
 10
0.0
 20
0.0
 30
0.0
 11
-0.5
 21
-0.5
 31
0.0
  0
LINE
  5
39
100
AcDbEntity
  8
0
  6
BYBLOCK
 62
     0
100
AcDbLine
 10
0.0
 20
0.0
 30
0.0
 11
-1.0
 21
0.0
 31
0.0
  0
ENDBLK
  5
3A
100
AcDbEntity
  8
0
100
AcDbBlockEnd
  0
BLOCK
  5
3C
100
AcDbEntity
  8
0
100
AcDbBlockBegin
  2
_CLOSEDBLANK
 70
     0
 10
0.0
 20
0.0
 30
0.0
  3
_CLOSEDBLANK
  1

  0
LINE
  5
3D
100
AcDbEntity
  8
0
  6
BYBLOCK
 62
     0
100
AcDbLine
 10
-1.0
 20
0.1666666666666666
 30
0.0
 11
0.0
 21
0.0
 31
0.0
  0
LINE
  5
3E
100
AcDbEntity
  8
0
  6
BYBLOCK
 62
     0
100
AcDbLine
 10
0.0
 20
0.0
 30
0.0
 11
-1.0
 21
-0.1666666666666666
 31
0.0
  0
LINE
  5
3F
100
AcDbEntity
  8
0
  6
BYBLOCK
 62
     0
100
AcDbLine
 10
-1.0
 20
0.1666666666666666
 30
0.0
 11
-1.0
 21
-0.1666666666666666
 31
0.0
  0
ENDBLK
  5
40
100
AcDbEntity
  8
0
100
AcDbBlockEnd
  0
BLOCK
  5
42
100
AcDbEntity
  8
0
100
AcDbBlockBegin
  2
_DOTBLANK
 70
     0
 10
0.0
 20
0.0
 30
0.0
  3
_DOTBLANK
  1

  0
CIRCLE
  5
43
100
AcDbEntity
  8
0
  6
BYBLOCK
 62
     0
100
AcDbCircle
 10
0.0
 20
0.0
 30
0.0
 40
0.5
  0
LINE
  5
44
100
AcDbEntity
  8
0
  6
BYBLOCK
 62
     0
100
AcDbLine
 10
-0.5
 20
0.0
 30
0.0
 11
-1.0
 21
0.0
 31
0.0
  0
ENDBLK
  5
45
100
AcDbEntity
  8
0
100
AcDbBlockEnd
  0
BLOCK
  5
9B
100
AcDbEntity
  8
MAIN0
  6
CONTINUOUS
 62
3
100
AcDbBlockBegin
  2
*D0
 70
    65
 10
0.0
 20
0.0
 30
0.0
  0
LINE
  5
9C
100
AcDbEntity
  8
MAIN0
  6
BYBLOCK
 62
0
100
AcDbLine
 10
142.1998149662088
 20
408.7157601825483
 30
0.0000000000000000
 11
150.9807431921990
 21
399.9348319565530
 31
0.0000000000000000
  0
LINE
  5
9D
100
AcDbEntity
  8
MAIN0
  6
BYBLOCK
 62
0
100
AcDbLine
 10
146.7381025050791
 20
399.9348319565549
 30
0.0000000000000000
 11
143.9096753803301
 21
397.1064048318093
 31
0.0000000000000000
  0
INSERT
  5
9E
100
AcDbEntity
  8
MAIN0
  6
BYBLOCK
 62
0
100
AcDbBlockReference
  2
_OPEN
 10
148.8594228486400
 20
402.0561523001132
 30
0.0000000000000000
 41
3.000000000000000
 42
3.000000000000000
 43
3.000000000000000
 50
44.99999999996572
  0
INSERT
  5
9F
100
AcDbEntity
  8
MAIN0
  6
BYBLOCK
 62
0
100
AcDbBlockReference
  2
_OPEN
 10
141.7883550367692
 20
394.9850844882509
 30
0.0000000000000000
 41
3.000000000000000
 42
3.000000000000000
 43
3.000000000000000
 50
224.9999999999657
  0
LINE
  5
A0
100
AcDbEntity
  8
MAIN0
  6
BYBLOCK
 62
0
100
AcDbLine
 10
148.8594228486400
 20
402.0561523001132
 30
0.0000000000000000
 11
166.2611627035242
 21
419.4578921549768
 31
0.0000000000000000
  0
LINE
  5
A1
100
AcDbEntity
  8
MAIN0
  6
BYBLOCK
 62
0
100
AcDbLine
 10
135.1287471543480
 20
401.6446923706801
 30
0.0000000000000000
 11
143.9096753803276
 21
392.8637641446900
 31
0.0000000000000000
  0
MTEXT
  5
A2
100
AcDbEntity
  8
MAIN0
  6
BYBLOCK
 62
0
100
AcDbMText
 10
157.5902657648455
 20
415.1357018194508
 30
0.0000000000000000
 40
4.649999856948853
 41
0.0000000000000000
 71
     5
 72
     1
  1
\A1;10\H0.903226x;\S＋0.15^ ＋0.05;
 11
0.7071067811869677
 21
0.7071067811861274
 31
0.0000000000000000
  7
KNJYOKO
  0
ENDBLK
  5
A3
100
AcDbEntity
  8
MAIN0
  6
CONTINUOUS
 62
3
100
AcDbBlockEnd
  0
BLOCK
  5
C1
100
AcDbEntity
  8
MAIN0
  6
CONTINUOUS
 62
3
100
AcDbBlockBegin
  2
*D1
 70
    65
 10
0.0
 20
0.0
 30
0.0
  0
LINE
  5
C2
100
AcDbEntity
  8
MAIN0
  6
BYBLOCK
 62
0
100
AcDbLine
 10
123.1238889248280
 20
251.5206183941862
 30
0.0000000000000000
 11
92.82388894270937
 21
251.5206183941862
 31
0.0000000000000000
  0
LINE
  5
C3
100
AcDbEntity
  8
MAIN0
  6
BYBLOCK
 62
0
100
AcDbLine
 10
95.82388894270937
 20
254.5206183941862
 30
0.0000000000000000
 11
95.82388894270937
 21
293.5206183941862
 31
0.0000000000000000
  0
INSERT
  5
C4
100
AcDbEntity
  8
MAIN0
  6
BYBLOCK
 62
0
100
AcDbBlockReference
  2
_OPEN
 10
95.82388894270937
 20
251.5206183941862
 30
0.0000000000000000
 41
3.000000000000000
 42
3.000000000000000
 43
3.000000000000000
 50
270.0000000000000
  0
INSERT
  5
C5
100
AcDbEntity
  8
MAIN0
  6
BYBLOCK
 62
0
100
AcDbBlockReference
  2
_OPEN
 10
95.82388894270937
 20
296.5206183941862
 30
0.0000000000000000
 41
3.000000000000000
 42
3.000000000000000
 43
3.000000000000000
 50
90.00000000000000
  0
LINE
  5
C6
100
AcDbEntity
  8
MAIN0
  6
BYBLOCK
 62
0
100
AcDbLine
 10
123.1238889248280
 20
296.5206183941862
 30
0.0000000000000000
 11
92.82388894270937
 21
296.5206183941862
 31
0.0000000000000000
  0
MTEXT
  5
C7
100
AcDbEntity
  8
MAIN0
  6
BYBLOCK
 62
0
100
AcDbMText
 10
92.99888901423495
 20
271.5453770585790
 30
0.0000000000000000
 40
4.649999856948853
 41
0.0000000000000000
 71
     5
 72
     1
  1
\A1;\U+220545
 11
6.123233995736766e-017
 21
1.000000000000000
 31
0.0000000000000000
  7
STANDARD
  0
ENDBLK
  5
C8
100
AcDbEntity
  8
MAIN0
  6
CONTINUOUS
 62
3
100
AcDbBlockEnd
  0
BLOCK
  5
CA
100
AcDbEntity
  8
MAIN0
  6
CONTINUOUS
 62
3
100
AcDbBlockBegin
  2
*D2
 70
    65
 10
0.0
 20
0.0
 30
0.0
  0
LINE
  5
CB
100
AcDbEntity
  8
MAIN0
  6
BYBLOCK
 62
0
100
AcDbLine
 10
109.6238889248280
 20
339.0206183941862
 30
0.0000000000000000
 11
77.82388894270937
 21
339.0206183941862
 31
0.0000000000000000
  0
LINE
  5
CC
100
AcDbEntity
  8
MAIN0
  6
BYBLOCK
 62
0
100
AcDbLine
 10
80.82388894270937
 20
336.0206183941862
 30
0.0000000000000000
 11
80.82388894270937
 21
212.0206183941862
 31
0.0000000000000000
  0
INSERT
  5
CD
100
AcDbEntity
  8
MAIN0
  6
BYBLOCK
 62
0
100
AcDbBlockReference
  2
_OPEN
 10
80.82388894270937
 20
339.0206183941862
 30
0.0000000000000000
 41
3.000000000000000
 42
3.000000000000000
 43
3.000000000000000
 50
90.00000000000000
  0
INSERT
  5
CE
100
AcDbEntity
  8
MAIN0
  6
BYBLOCK
 62
0
100
AcDbBlockReference
  2
_OPEN
 10
80.82388894270937
 20
209.0206183941862
 30
0.0000000000000000
 41
3.000000000000000
 42
3.000000000000000
 43
3.000000000000000
 50
270.0000000000000
  0
LINE
  5
CF
100
AcDbEntity
  8
MAIN0
  6
BYBLOCK
 62
0
100
AcDbLine
 10
109.6238889248280
 20
209.0206183941862
 30
0.0000000000000000
 11
77.82388894270937
 21
209.0206183941862
 31
0.0000000000000000
  0
MTEXT
  5
D0
100
AcDbEntity
  8
MAIN0
  6
BYBLOCK
 62
0
100
AcDbMText
 10
77.99888901423495
 20
286.8991799442810
 30
0.0000000000000000
 40
4.649999856948853
 41
0.0000000000000000
 71
     5
 72
     1
  1
\A1;\U+2205130H6\H0.903226x;\S＋0.025^ 　0;
 11
6.123233995736766e-017
 21
1.000000000000000
 31
0.0000000000000000
  7
KNJYOKO
  0
ENDBLK
  5
D1
100
AcDbEntity
  8
MAIN0
  6
CONTINUOUS
 62
3
100
AcDbBlockEnd
  0
BLOCK
  5
D7
100
AcDbEntity
  8
MAIN0
  6
CONTINUOUS
 62
3
100
AcDbBlockBegin
  2
*D3
 70
    65
 10
0.0
 20
0.0
 30
0.0
  0
LINE
  5
D8
100
AcDbEntity
  8
MAIN0
  6
BYBLOCK
 62
0
100
AcDbLine
 10
292.6246125444517
 20
223.9498708994227
 30
0.0000000000000000
 11
391.1037096459277
 21
326.2526931189395
 31
0.0000000000000000
  0
INSERT
  5
D9
100
AcDbEntity
  8
MAIN0
  6
BYBLOCK
 62
0
100
AcDbBlockReference
  2
_OPEN
 10
290.5440682394909
 20
221.7885436694329
 30
0.0000000000000000
 41
3.000000000000000
 42
3.000000000000000
 43
3.000000000000000
 50
226.0910187134448
  0
MTEXT
  5
DA
100
AcDbEntity
  8
MAIN0
  6
BYBLOCK
 62
0
100
AcDbMText
 10
304.2603436227117
 20
240.1108447972314
 30
0.0000000000000000
 40
4.649999856948853
 41
0.0000000000000000
 71
     5
 72
     1
  1
\A1;\U+2205145\H0.903226x;\U+00B10.2
 11
0.6935147683202536
 21
0.7204424099965970
 31
0.0000000000000000
  7
STANDARD
  0
ENDBLK
  5
DB
100
AcDbEntity
  8
MAIN0
  6
CONTINUOUS
 62
3
100
AcDbBlockEnd
  0
BLOCK
  5
F9
100
AcDbEntity
  8
MAIN0
  6
CONTINUOUS
 62
3
100
AcDbBlockBegin
  2
*D4
 70
    65
 10
0.0
 20
0.0
 30
0.0
  0
LINE
  5
FA
100
AcDbEntity
  8
MAIN0
  6
BYBLOCK
 62
0
100
AcDbLine
 10
216.0238889605908
 20
287.0206183941862
 30
0.0000000000000000
 11
233.8238889427094
 21
287.0206183941862
 31
0.0000000000000000
  0
LINE
  5
FB
100
AcDbEntity
  8
MAIN0
  6
BYBLOCK
 62
0
100
AcDbLine
 10
230.8238889427094
 20
284.0206183941862
 30
0.0000000000000000
 11
230.8238889427094
 21
264.0206183941862
 31
0.0000000000000000
  0
INSERT
  5
FC
100
AcDbEntity
  8
MAIN0
  6
BYBLOCK
 62
0
100
AcDbBlockReference
  2
_OPEN
 10
230.8238889427094
 20
287.0206183941862
 30
0.0000000000000000
 41
3.000000000000000
 42
3.000000000000000
 43
3.000000000000000
 50
90.00000000000000
  0
INSERT
  5
FD
100
AcDbEntity
  8
MAIN0
  6
BYBLOCK
 62
0
100
AcDbBlockReference
  2
_OPEN
 10
230.8238889427094
 20
261.0206183941862
 30
0.0000000000000000
 41
3.000000000000000
 42
3.000000000000000
 43
3.000000000000000
 50
270.0000000000000
  0
LINE
  5
FE
100
AcDbEntity
  8
MAIN0
  6
BYBLOCK
 62
0
100
AcDbLine
 10
216.0238889605908
 20
261.0206183941862
 30
0.0000000000000000
 11
233.8238889427094
 21
261.0206183941862
 31
0.0000000000000000
  0
MTEXT
  5
FF
100
AcDbEntity
  8
MAIN0
  6
BYBLOCK
 62
0
100
AcDbMText
 10
227.9988890142350
 20
274.0206183941862
 30
0.0000000000000000
 40
4.649999856948853
 41
0.0000000000000000
 71
     5
 72
     1
  1
\A1;26
 11
6.123233995736766e-017
 21
1.000000000000000
 31
0.0000000000000000
  7
STANDARD
  0
ENDBLK
  5
100
100
AcDbEntity
  8
MAIN0
  6
CONTINUOUS
 62
3
100
AcDbBlockEnd
  0
BLOCK
  5
102
100
AcDbEntity
  8
MAIN0
  6
CONTINUOUS
 62
3
100
AcDbBlockBegin
  2
*D5
 70
    65
 10
0.0
 20
0.0
 30
0.0
  0
LINE
  5
103
100
AcDbEntity
  8
MAIN0
  6
BYBLOCK
 62
0
100
AcDbLine
 10
215.4238978064610
 20
257.0206561042251
 30
0.0000000000000000
 11
233.8238889427094
 21
257.0206561042217
 31
0.0000000000000000
  0
LINE
  5
104
100
AcDbEntity
  8
MAIN0
  6
BYBLOCK
 62
0
100
AcDbLine
 10
230.8238889427094
 20
254.0206561042223
 30
0.0000000000000000
 11
230.8238889427094
 21
192.0206561042302
 31
0.0000000000000000
  0
INSERT
  5
105
100
AcDbEntity
  8
MAIN0
  6
BYBLOCK
 62
0
100
AcDbBlockReference
  2
_OPEN
 10
230.8238889427094
 20
257.0206561042223
 30
0.0000000000000000
 41
3.000000000000000
 42
3.000000000000000
 43
3.000000000000000
 50
90.00000000000000
  0
INSERT
  5
106
100
AcDbEntity
  8
MAIN0
  6
BYBLOCK
 62
0
100
AcDbBlockReference
  2
_OPEN
 10
230.8238889427094
 20
189.0206561042302
 30
0.0000000000000000
 41
3.000000000000000
 42
3.000000000000000
 43
3.000000000000000
 50
270.0000000000000
  0
LINE
  5
107
100
AcDbEntity
  8
MAIN0
  6
BYBLOCK
 62
0
100
AcDbLine
 10
197.9238978064421
 20
189.0206561042302
 30
0.0000000000000000
 11
233.8238889427094
 21
189.0206561042302
 31
0.0000000000000000
  0
MTEXT
  5
108
100
AcDbEntity
  8
MAIN0
  6
BYBLOCK
 62
0
100
AcDbMText
 10
227.9988890142350
 20
223.0206561042262
 30
0.0000000000000000
 40
4.649999856948853
 41
0.0000000000000000
 71
     5
 72
     1
  1
\A1;68
 11
6.123233995736766e-017
 21
1.000000000000000
 31
0.0000000000000000
  7
STANDARD
  0
ENDBLK
  5
109
100
AcDbEntity
  8
MAIN0
  6
CONTINUOUS
 62
3
100
AcDbBlockEnd
  0
BLOCK
  5
119
100
AcDbEntity
  8
MAIN0
  6
CONTINUOUS
 62
3
100
AcDbBlockBegin
  2
*D6
 70
    65
 10
0.0
 20
0.0
 30
0.0
  0
LINE
  5
11A
100
AcDbEntity
  8
MAIN0
  6
BYBLOCK
 62
0
100
AcDbLine
 10
340.8238889427094
 20
177.8206183763048
 30
0.0000000000000000
 11
340.8238889427094
 21
173.5241024721437
 31
0.0000000000000000
  0
LINE
  5
11B
100
AcDbEntity
  8
MAIN0
  6
BYBLOCK
 62
0
100
AcDbLine
 10
417.6007518821255
 20
229.6982352475781
 30
0.0000000000000000
 11
427.8605464315036
 21
223.7747401026643
 31
0.0000000000000000
  0
ARC
  5
11C
100
AcDbEntity
  8
MAIN0
  6
BYBLOCK
 62
0
100
AcDbCircle
 10
340.8238889427094
 20
274.0253777331849
 30
0.0000000000000000
 40
97.50127526104120
100
AcDbArc
 50
271.7629240035995
 51
328.2370759964006
  0
INSERT
  5
11D
100
AcDbEntity
  8
MAIN0
  6
BYBLOCK
 62
0
100
AcDbBlockReference
  2
_OPEN
 10
340.8238889427094
 20
176.5241024721437
 30
0.0000000000000000
 41
3.000000000000000
 42
3.000000000000000
 43
3.000000000000000
 50
180.0000000000000
  0
INSERT
  5
11E
100
AcDbEntity
  8
MAIN0
  6
BYBLOCK
 62
0
100
AcDbBlockReference
  2
_OPEN
 10
425.2624702201503
 20
225.2747401026643
 30
0.0000000000000000
 41
3.000000000000000
 42
3.000000000000000
 43
3.000000000000000
 50
60.00000000000000
  0
MTEXT
  5
11F
100
AcDbEntity
  8
MAIN0
  6
BYBLOCK
 62
0
100
AcDbMText
 10
388.1620266089927
 20
192.0333181594920
 30
0.0000000000000000
 40
4.649999856948853
 41
0.0000000000000000
 71
     5
 72
     1
  1
\A1;60\U+00B0
 11
0.8660254037844385
 21
0.5000000000000002
 31
0.0000000000000000
  7
STANDARD
  0
ENDBLK
  5
120
100
AcDbEntity
  8
MAIN0
  6
CONTINUOUS
 62
3
100
AcDbBlockEnd
  0
BLOCK
  5
122
100
AcDbEntity
  8
MAIN0
  6
CONTINUOUS
 62
3
100
AcDbBlockBegin
  2
*D7
 70
    65
 10
0.0
 20
0.0
 30
0.0
  0
LINE
  5
123
100
AcDbEntity
  8
MAIN0
  6
BYBLOCK
 62
0
100
AcDbLine
 10
417.6007518821255
 20
229.6982352475781
 30
0.0000000000000000
 11
427.8605464315036
 21
223.7747401026643
 31
0.0000000000000000
  0
LINE
  5
124
100
AcDbEntity
  8
MAIN0
  6
BYBLOCK
 62
0
100
AcDbLine
 10
437.0238889605907
 20
274.0206183941862
 30
0.0000000000000000
 11
441.3238889427094
 21
274.0206183941860
 31
0.0000000000000000
  0
ARC
  5
125
100
AcDbEntity
  8
MAIN0
  6
BYBLOCK
 62
0
100
AcDbCircle
 10
340.8321323596655
 20
274.0206183941862
 30
0.0000000000000000
 40
97.49175658304387
100
AcDbArc
 50
331.7630961279565
 51
358.2369038720435
  0
INSERT
  5
126
100
AcDbEntity
  8
MAIN0
  6
BYBLOCK
 62
0
100
AcDbBlockReference
  2
_OPEN
 10
425.2624702201503
 20
225.2747401026643
 30
0.0000000000000000
 41
3.000000000000000
 42
3.000000000000000
 43
3.000000000000000
 50
240.0000000000000
  0
INSERT
  5
127
100
AcDbEntity
  8
MAIN0
  6
BYBLOCK
 62
0
100
AcDbBlockReference
  2
_OPEN
 10
438.3238889427094
 20
274.0206183941862
 30
0.0000000000000000
 41
3.000000000000000
 42
3.000000000000000
 43
3.000000000000000
 50
90.00000000000000
  0
MTEXT
  5
128
100
AcDbEntity
  8
MAIN0
  6
BYBLOCK
 62
0
100
AcDbMText
 10
432.2731975033366
 20
249.5190588338978
 30
0.0000000000000000
 40
4.649999856948853
 41
0.0000000000000000
 71
     5
 72
     1
  1
\A1;30\U+00B0
 11
0.2588190451025205
 21
0.9659258262890683
 31
0.0000000000000000
  7
STANDARD
  0
ENDBLK
  5
129
100
AcDbEntity
  8
MAIN0
  6
CONTINUOUS
 62
3
100
AcDbBlockEnd
  0
BLOCK
  5
12B
100
AcDbEntity
  8
MAIN0
  6
CONTINUOUS
 62
3
100
AcDbBlockBegin
  2
*D8
 70
    65
 10
0.0
 20
0.0
 30
0.0
  0
LINE
  5
12C
100
AcDbEntity
  8
MAIN0
  6
BYBLOCK
 62
0
100
AcDbLine
 10
437.0238889605907
 20
274.0206183941862
 30
0.0000000000000000
 11
441.3238889427094
 21
274.0206183941862
 31
0.0000000000000000
  0
LINE
  5
12D
100
AcDbEntity
  8
MAIN0
  6
BYBLOCK
 62
0
100
AcDbLine
 10
421.3486910278865
 20
320.5116345545045
 30
0.0000000000000000
 11
427.8594420230455
 21
324.2706183941862
 31
0.0000000000000000
  0
ARC
  5
12E
100
AcDbEntity
  8
MAIN0
  6
BYBLOCK
 62
0
100
AcDbCircle
 10
340.8238889427093
 20
274.0206183941862
 30
0.0000000000000000
 40
97.50000000000006
100
AcDbArc
 50
1.762947061940994
 51
28.23705293805897
  0
INSERT
  5
12F
100
AcDbEntity
  8
MAIN0
  6
BYBLOCK
 62
0
100
AcDbBlockReference
  2
_OPEN
 10
438.3238889427094
 20
274.0206183941862
 30
0.0000000000000000
 41
3.000000000000000
 42
3.000000000000000
 43
3.000000000000000
 50
270.0000000000000
  0
INSERT
  5
130
100
AcDbEntity
  8
MAIN0
  6
BYBLOCK
 62
0
100
AcDbBlockReference
  2
_OPEN
 10
425.2613658116921
 20
322.7706183941862
 30
0.0000000000000000
 41
3.000000000000000
 42
3.000000000000000
 43
3.000000000000000
 50
120.0000000000000
  0
MTEXT
  5
131
100
AcDbEntity
  8
MAIN0
  6
BYBLOCK
 62
0
100
AcDbMText
 10
432.2729166157153
 20
298.5243115077795
 30
0.0000000000000000
 40
4.649999856948853
 41
0.0000000000000000
 71
     5
 72
     1
  1
\A1;30\U+00B0
 11
-0.2588190451025204
 21
0.9659258262890684
 31
0.0000000000000000
  7
STANDARD
  0
ENDBLK
  5
132
100
AcDbEntity
  8
MAIN0
  6
CONTINUOUS
 62
3
100
AcDbBlockEnd
  0
BLOCK
  5
134
100
AcDbEntity
  8
MAIN0
  6
CONTINUOUS
 62
3
100
AcDbBlockBegin
  2
*D9
 70
    65
 10
0.0
 20
0.0
 30
0.0
  0
LINE
  5
135
100
AcDbEntity
  8
MAIN0
  6
BYBLOCK
 62
0
100
AcDbLine
 10
421.3486910278864
 20
320.5116345545045
 30
0.0000000000000000
 11
427.8594420230454
 21
324.2706183941862
 31
0.0000000000000000
  0
LINE
  5
136
100
AcDbEntity
  8
MAIN0
  6
BYBLOCK
 62
0
100
AcDbLine
 10
340.8238889427094
 20
370.2206184120676
 30
0.0000000000000000
 11
340.8238889427094
 21
374.5206183941862
 31
0.0000000000000000
  0
ARC
  5
137
100
AcDbEntity
  8
MAIN0
  6
BYBLOCK
 62
0
100
AcDbCircle
 10
340.8238889427094
 20
274.0206183941863
 30
0.0000000000000000
 40
97.49999999999997
100
AcDbArc
 50
31.76294706194097
 51
88.23705293805901
  0
INSERT
  5
138
100
AcDbEntity
  8
MAIN0
  6
BYBLOCK
 62
0
100
AcDbBlockReference
  2
_OPEN
 10
425.2613658116921
 20
322.7706183941862
 30
0.0000000000000000
 41
3.000000000000000
 42
3.000000000000000
 43
3.000000000000000
 50
300.0000000000000
  0
INSERT
  5
139
100
AcDbEntity
  8
MAIN0
  6
BYBLOCK
 62
0
100
AcDbBlockReference
  2
_OPEN
 10
340.8238889427094
 20
371.5206183941863
 30
0.0000000000000000
 41
3.000000000000000
 42
3.000000000000000
 43
3.000000000000000
 50
180.0000000000000
  0
MTEXT
  5
13A
100
AcDbEntity
  8
MAIN0
  6
BYBLOCK
 62
0
100
AcDbMText
 10
390.9863889069466
 20
360.9046169669171
 30
0.0000000000000000
 40
4.649999856948853
 41
0.0000000000000000
 71
     5
 72
     1
  1
\A1;60\U+00B0
 11
0.8660254037844384
 21
-0.5000000000000004
 31
0.0000000000000000
  7
STANDARD
  0
ENDBLK
  5
13B
100
AcDbEntity
  8
MAIN0
  6
CONTINUOUS
 62
3
100
AcDbBlockEnd
  0
BLOCK
  5
13D
100
AcDbEntity
  8
MAIN0
  6
CONTINUOUS
 62
3
100
AcDbBlockBegin
  2
*D10
 70
    65
 10
0.0
 20
0.0
 30
0.0
  0
LINE
  5
13E
100
AcDbEntity
  8
MAIN0
  6
BYBLOCK
 62
0
100
AcDbLine
 10
340.8238889427094
 20
370.2206184120676
 30
0.0000000000000000
 11
340.8238889427094
 21
374.5206183941862
 31
0.0000000000000000
  0
LINE
  5
13F
100
AcDbEntity
  8
MAIN0
  6
BYBLOCK
 62
0
100
AcDbLine
 10
321.6971750481583
 20
316.9799211653082
 30
0.0000000000000000
 11
299.9468563135571
 21
365.8319368872409
 31
0.0000000000000000
  0
ARC
  5
140
100
AcDbEntity
  8
MAIN0
  6
BYBLOCK
 62
0
100
AcDbCircle
 10
340.8238889427094
 20
274.0206183943066
 30
0.0000000000000000
 40
97.49999999987963
100
AcDbArc
 50
91.76294706194317
 51
112.2370529381089
  0
INSERT
  5
141
100
AcDbEntity
  8
MAIN0
  6
BYBLOCK
 62
0
100
AcDbBlockReference
  2
_OPEN
 10
340.8238889427094
 20
371.5206183941863
 30
0.0000000000000000
 41
3.000000000000000
 42
3.000000000000000
 43
3.000000000000000
 50
360.0000000000000
  0
INSERT
  5
142
100
AcDbEntity
  8
MAIN0
  6
BYBLOCK
 62
0
100
AcDbBlockReference
  2
_OPEN
 10
301.1670662427869
 20
363.0913005143142
 30
0.0000000000000000
 41
3.000000000000000
 42
3.000000000000000
 43
3.000000000000000
 50
204.0000000000520
  0
MTEXT
  5
143
100
AcDbEntity
  8
MAIN0
  6
BYBLOCK
 62
0
100
AcDbMText
 10
319.9651485762691
 20
372.1532763678359
 30
0.0000000000000000
 40
4.649999856948853
 41
0.0000000000000000
 71
     5
 72
     1
  1
\A1;24\U+00B0
 11
0.9781476007337112
 21
0.2079116908182034
 31
0.0000000000000000
  7
STANDARD
  0
ENDBLK
  5
144
100
AcDbEntity
  8
MAIN0
  6
CONTINUOUS
 62
3
100
AcDbBlockEnd
  0
BLOCK
  5
15F
100
AcDbEntity
  8
MAIN0
  6
CONTINUOUS
 62
3
100
AcDbBlockBegin
  2
*D11
 70
    65
 10
0.0
 20
0.0
 30
0.0
  0
LINE
  5
160
100
AcDbEntity
  8
MAIN0
  6
BYBLOCK
 62
0
100
AcDbLine
 10
176.4238889605908
 20
338.0206183941862
 30
0.0000000000000000
 11
193.8238889427094
 21
338.0206183941862
 31
0.0000000000000000
  0
LINE
  5
161
100
AcDbEntity
  8
MAIN0
  6
BYBLOCK
 62
0
100
AcDbLine
 10
190.8238889427094
 20
341.0206183941862
 30
0.0000000000000000
 11
190.8238889427094
 21
352.0206183941862
 31
0.0000000000000000
  0
INSERT
  5
162
100
AcDbEntity
  8
MAIN0
  6
BYBLOCK
 62
0
100
AcDbBlockReference
  2
_OPEN
 10
190.8238889427094
 20
338.0206183941862
 30
0.0000000000000000
 41
3.000000000000000
 42
3.000000000000000
 43
3.000000000000000
 50
270.0000000000000
  0
INSERT
  5
163
100
AcDbEntity
  8
MAIN0
  6
BYBLOCK
 62
0
100
AcDbBlockReference
  2
_OPEN
 10
190.8238889427094
 20
355.0206183941862
 30
0.0000000000000000
 41
3.000000000000000
 42
3.000000000000000
 43
3.000000000000000
 50
90.00000000000000
  0
LINE
  5
164
100
AcDbEntity
  8
MAIN0
  6
BYBLOCK
 62
0
100
AcDbLine
 10
176.4238889605908
 20
355.0206183941862
 30
0.0000000000000000
 11
193.8238889427094
 21
355.0206183941862
 31
0.0000000000000000
  0
MTEXT
  5
165
100
AcDbEntity
  8
MAIN0
  6
BYBLOCK
 62
0
100
AcDbMText
 10
187.9988890142350
 20
346.5206183941862
 30
0.0000000000000000
 40
4.649999856948853
 41
0.0000000000000000
 71
     5
 72
     1
  1
\A1;\U+220517
 11
6.123233995736766e-017
 21
1.000000000000000
 31
0.0000000000000000
  7
STANDARD
  0
ENDBLK
  5
166
100
AcDbEntity
  8
MAIN0
  6
CONTINUOUS
 62
3
100
AcDbBlockEnd
  0
BLOCK
  5
168
100
AcDbEntity
  8
MAIN0
  6
CONTINUOUS
 62
3
100
AcDbBlockBegin
  2
*D12
 70
    65
 10
0.0
 20
0.0
 30
0.0
  0
LINE
  5
169
100
AcDbEntity
  8
MAIN0
  6
BYBLOCK
 62
0
100
AcDbLine
 10
110.0238889248280
 20
352.5206183941862
 30
0.0000000000000000
 11
92.82388894270937
 21
352.5206183941862
 31
0.0000000000000000
  0
LINE
  5
16A
100
AcDbEntity
  8
MAIN0
  6
BYBLOCK
 62
0
100
AcDbLine
 10
95.82388894270937
 20
352.5206183941862
 30
0.0000000000000000
 11
95.82388894270937
 21
340.5206183941862
 31
0.0000000000000000
  0
INSERT
  5
16B
100
AcDbEntity
  8
MAIN0
  6
BYBLOCK
 62
0
100
AcDbBlockReference
  2
_OPEN
 10
95.82388894270937
 20
352.5206183941862
 30
0.0000000000000000
 41
3.000000000000000
 42
3.000000000000000
 43
3.000000000000000
 50
270.0000000000000
  0
INSERT
  5
16C
100
AcDbEntity
  8
MAIN0
  6
BYBLOCK
 62
0
100
AcDbBlockReference
  2
_OPEN
 10
95.82388894270937
 20
340.5206183941862
 30
0.0000000000000000
 41
3.000000000000000
 42
3.000000000000000
 43
3.000000000000000
 50
90.00000000000000
  0
LINE
  5
16D
100
AcDbEntity
  8
MAIN0
  6
BYBLOCK
 62
0
100
AcDbLine
 10
95.82388894270937
 20
355.5206183941862
 30
0.0000000000000000
 11
95.82388894270937
 21
357.0206183941862
 31
0.0000000000000000
  0
LINE
  5
16E
100
AcDbEntity
  8
MAIN0
  6
BYBLOCK
 62
0
100
AcDbLine
 10
95.82388894270937
 20
337.5206183941862
 30
0.0000000000000000
 11
95.82388894270937
 21
336.0206183941862
 31
0.0000000000000000
  0
LINE
  5
16F
100
AcDbEntity
  8
MAIN0
  6
BYBLOCK
 62
0
100
AcDbLine
 10
110.0238889248280
 20
340.5206183941862
 30
0.0000000000000000
 11
92.82388894270937
 21
340.5206183941862
 31
0.0000000000000000
  0
MTEXT
  5
170
100
AcDbEntity
  8
MAIN0
  6
BYBLOCK
 62
0
100
AcDbMText
 10
92.99888901423495
 20
346.5206183941862
 30
0.0000000000000000
 40
4.649999856948853
 41
0.0000000000000000
 71
     5
 72
     1
  1
\A1;\U+220512
 11
6.123233995736766e-017
 21
1.000000000000000
 31
0.0000000000000000
  7
STANDARD
  0
ENDBLK
  5
171
100
AcDbEntity
  8
MAIN0
  6
CONTINUOUS
 62
3
100
AcDbBlockEnd
  0
BLOCK
  5
173
100
AcDbEntity
  8
MAIN0
  6
CONTINUOUS
 62
3
100
AcDbBlockBegin
  2
*D13
 70
    65
 10
0.0
 20
0.0
 30
0.0
  0
LINE
  5
174
100
AcDbEntity
  8
MAIN0
  6
BYBLOCK
 62
0
100
AcDbLine
 10
175.8238889427095
 20
356.1206184120674
 30
0.0000000000000000
 11
175.8238889427111
 21
367.0206183941862
 31
0.0000000000000000
  0
LINE
  5
175
100
AcDbEntity
  8
MAIN0
  6
BYBLOCK
 62
0
100
AcDbLine
 10
175.8238889427106
 20
364.0206183941862
 30
0.0000000000000000
 11
163.8238889427094
 21
364.0206183941862
 31
0.0000000000000000
  0
INSERT
  5
176
100
AcDbEntity
  8
MAIN0
  6
BYBLOCK
 62
0
100
AcDbBlockReference
  2
_OPEN
 10
175.8238889427106
 20
364.0206183941862
 30
0.0000000000000000
 41
3.000000000000000
 42
3.000000000000000
 43
3.000000000000000
 50
180.0000000000000
  0
INSERT
  5
177
100
AcDbEntity
  8
MAIN0
  6
BYBLOCK
 62
0
100
AcDbBlockReference
  2
_OPEN
 10
163.8238889427094
 20
364.0206183941862
 30
0.0000000000000000
 41
3.000000000000000
 42
3.000000000000000
 43
3.000000000000000
 50
360.0000000000000
  0
LINE
  5
178
100
AcDbEntity
  8
MAIN0
  6
BYBLOCK
 62
0
100
AcDbLine
 10
178.8238889427106
 20
364.0206183941862
 30
0.0000000000000000
 11
180.3238889427106
 21
364.0206183941862
 31
0.0000000000000000
  0
LINE
  5
179
100
AcDbEntity
  8
MAIN0
  6
BYBLOCK
 62
0
100
AcDbLine
 10
160.8238889427094
 20
364.0206183941862
 30
0.0000000000000000
 11
159.3238889427094
 21
364.0206183941862
 31
0.0000000000000000
  0
LINE
  5
17A
100
AcDbEntity
  8
MAIN0
  6
BYBLOCK
 62
0
100
AcDbLine
 10
163.8238889427094
 20
356.2206184120676
 30
0.0000000000000000
 11
163.8238889427094
 21
367.0206183941862
 31
0.0000000000000000
  0
MTEXT
  5
17B
100
AcDbEntity
  8
MAIN0
  6
BYBLOCK
 62
0
100
AcDbMText
 10
169.8238889427100
 20
366.8456183226606
 30
0.0000000000000000
 40
4.649999856948853
 41
0.0000000000000000
 71
     5
 72
     1
  1
\A1;12
 11
1.000000000000000
 21
0.0000000000000000
 31
0.0000000000000000
  7
STANDARD
  0
ENDBLK
  5
17C
100
AcDbEntity
  8
MAIN0
  6
CONTINUOUS
 62
3
100
AcDbBlockEnd
  0
BLOCK
  5
17E
100
AcDbEntity
  8
MAIN0
  6
CONTINUOUS
 62
3
100
AcDbBlockBegin
  2
*D14
 70
    65
 10
0.0
 20
0.0
 30
0.0
  0
LINE
  5
17F
100
AcDbEntity
  8
MAIN0
  6
BYBLOCK
 62
0
100
AcDbLine
 10
175.8238889427095
 20
356.1206184120674
 30
0.0000000000000000
 11
175.8238889427108
 21
377.0206183941862
 31
0.0000000000000000
  0
LINE
  5
180
100
AcDbEntity
  8
MAIN0
  6
BYBLOCK
 62
0
100
AcDbLine
 10
172.8238889427106
 20
374.0206183941862
 30
0.0000000000000000
 11
137.8238889427094
 21
374.0206183941862
 31
0.0000000000000000
  0
INSERT
  5
181
100
AcDbEntity
  8
MAIN0
  6
BYBLOCK
 62
0
100
AcDbBlockReference
  2
_OPEN
 10
175.8238889427106
 20
374.0206183941862
 30
0.0000000000000000
 41
3.000000000000000
 42
3.000000000000000
 43
3.000000000000000
 50
360.0000000000000
  0
INSERT
  5
182
100
AcDbEntity
  8
MAIN0
  6
BYBLOCK
 62
0
100
AcDbBlockReference
  2
_OPEN
 10
134.8238889427094
 20
374.0206183941862
 30
0.0000000000000000
 41
3.000000000000000
 42
3.000000000000000
 43
3.000000000000000
 50
180.0000000000000
  0
LINE
  5
183
100
AcDbEntity
  8
MAIN0
  6
BYBLOCK
 62
0
100
AcDbLine
 10
134.8238889427094
 20
362.7206184120676
 30
0.0000000000000000
 11
134.8238889427094
 21
377.0206183941862
 31
0.0000000000000000
  0
MTEXT
  5
184
100
AcDbEntity
  8
MAIN0
  6
BYBLOCK
 62
0
100
AcDbMText
 10
155.3238889427100
 20
376.8456183226606
 30
0.0000000000000000
 40
4.649999856948853
 41
0.0000000000000000
 71
     5
 72
     1
  1
\A1;41
 11
1.000000000000000
 21
0.0000000000000000
 31
0.0000000000000000
  7
STANDARD
  0
ENDBLK
  5
185
100
AcDbEntity
  8
MAIN0
  6
CONTINUOUS
 62
3
100
AcDbBlockEnd
  0
BLOCK
  5
187
100
AcDbEntity
  8
MAIN0
  6
CONTINUOUS
 62
3
100
AcDbBlockBegin
  2
*D15
 70
    65
 10
0.0
 20
0.0
 30
0.0
  0
LINE
  5
188
100
AcDbEntity
  8
MAIN0
  6
BYBLOCK
 62
0
100
AcDbLine
 10
134.8238889427094
 20
362.7206184120676
 30
0.0000000000000000
 11
134.8238889427094
 21
377.0206183941862
 31
0.0000000000000000
  0
LINE
  5
189
100
AcDbEntity
  8
MAIN0
  6
BYBLOCK
 62
0
100
AcDbLine
 10
131.8238889427094
 20
374.0206183941862
 30
0.0000000000000000
 11
113.8238889427094
 21
374.0206183941862
 31
0.0000000000000000
  0
INSERT
  5
18A
100
AcDbEntity
  8
MAIN0
  6
BYBLOCK
 62
0
100
AcDbBlockReference
  2
_OPEN
 10
134.8238889427094
 20
374.0206183941862
 30
0.0000000000000000
 41
3.000000000000000
 42
3.000000000000000
 43
3.000000000000000
 50
360.0000000000000
  0
INSERT
  5
18B
100
AcDbEntity
  8
MAIN0
  6
BYBLOCK
 62
0
100
AcDbBlockReference
  2
_OPEN
 10
110.8238889427094
 20
374.0206183941862
 30
0.0000000000000000
 41
3.000000000000000
 42
3.000000000000000
 43
3.000000000000000
 50
180.0000000000000
  0
LINE
  5
18C
100
AcDbEntity
  8
MAIN0
  6
BYBLOCK
 62
0
100
AcDbLine
 10
110.8238889427094
 20
356.1206184120672
 30
0.0000000000000000
 11
110.8238889427094
 21
377.0206183941862
 31
0.0000000000000000
  0
MTEXT
  5
18D
100
AcDbEntity
  8
MAIN0
  6
BYBLOCK
 62
0
100
AcDbMText
 10
122.8238889427094
 20
376.8456183226606
 30
0.0000000000000000
 40
4.649999856948853
 41
0.0000000000000000
 71
     5
 72
     1
  1
\A1;24
 11
1.000000000000000
 21
0.0000000000000000
 31
0.0000000000000000
  7
STANDARD
  0
ENDBLK
  5
18E
100
AcDbEntity
  8
MAIN0
  6
CONTINUOUS
 62
3
100
AcDbBlockEnd
  0
BLOCK
  5
190
100
AcDbEntity
  8
MAIN0
  6
CONTINUOUS
 62
3
100
AcDbBlockBegin
  2
*D16
 70
    65
 10
0.0
 20
0.0
 30
0.0
  0
LINE
  5
191
100
AcDbEntity
  8
MAIN0
  6
BYBLOCK
 62
0
100
AcDbLine
 10
110.8238889427094
 20
356.1206184120672
 30
0.0000000000000000
 11
110.8238889427094
 21
387.0206183941862
 31
0.0000000000000000
  0
LINE
  5
192
100
AcDbEntity
  8
MAIN0
  6
BYBLOCK
 62
0
100
AcDbLine
 10
113.8238889427094
 20
384.0206183941862
 30
0.0000000000000000
 11
172.8238889427106
 21
384.0206183941862
 31
0.0000000000000000
  0
INSERT
  5
193
100
AcDbEntity
  8
MAIN0
  6
BYBLOCK
 62
0
100
AcDbBlockReference
  2
_OPEN
 10
110.8238889427094
 20
384.0206183941862
 30
0.0000000000000000
 41
3.000000000000000
 42
3.000000000000000
 43
3.000000000000000
 50
180.0000000000000
  0
INSERT
  5
194
100
AcDbEntity
  8
MAIN0
  6
BYBLOCK
 62
0
100
AcDbBlockReference
  2
_OPEN
 10
175.8238889427106
 20
384.0206183941862
 30
0.0000000000000000
 41
3.000000000000000
 42
3.000000000000000
 43
3.000000000000000
 50
0.0000000000000000
  0
LINE
  5
195
100
AcDbEntity
  8
MAIN0
  6
BYBLOCK
 62
0
100
AcDbLine
 10
175.8238889427094
 20
356.1206184120674
 30
0.0000000000000000
 11
175.8238889427108
 21
387.0206183941862
 31
0.0000000000000000
  0
MTEXT
  5
196
100
AcDbEntity
  8
MAIN0
  6
BYBLOCK
 62
0
100
AcDbMText
 10
143.3238889427100
 20
386.8456183226606
 30
0.0000000000000000
 40
4.649999856948853
 41
0.0000000000000000
 71
     5
 72
     1
  1
\A1;65
 11
1.000000000000000
 21
0.0000000000000000
 31
0.0000000000000000
  7
STANDARD
  0
ENDBLK
  5
197
100
AcDbEntity
  8
MAIN0
  6
CONTINUOUS
 62
3
100
AcDbBlockEnd
  0
BLOCK
  5
199
100
AcDbEntity
  8
MAIN0
  6
CONTINUOUS
 62
3
100
AcDbBlockBegin
  2
*D17
 70
    65
 10
0.0
 20
0.0
 30
0.0
  0
LINE
  5
19A
100
AcDbEntity
  8
MAIN0
  6
BYBLOCK
 62
0
100
AcDbLine
 10
214.8238889427094
 20
288.2206184120676
 30
0.0000000000000000
 11
214.8238889427094
 21
307.0206183941862
 31
0.0000000000000000
  0
LINE
  5
19B
100
AcDbEntity
  8
MAIN0
  6
BYBLOCK
 62
0
100
AcDbLine
 10
211.8238889427094
 20
304.0206183941862
 30
0.0000000000000000
 11
178.8238889427106
 21
304.0206183941862
 31
0.0000000000000000
  0
INSERT
  5
19C
100
AcDbEntity
  8
MAIN0
  6
BYBLOCK
 62
0
100
AcDbBlockReference
  2
_OPEN
 10
214.8238889427094
 20
304.0206183941862
 30
0.0000000000000000
 41
3.000000000000000
 42
3.000000000000000
 43
3.000000000000000
 50
360.0000000000000
  0
INSERT
  5
19D
100
AcDbEntity
  8
MAIN0
  6
BYBLOCK
 62
0
100
AcDbBlockReference
  2
_OPEN
 10
175.8238889427106
 20
304.0206183941862
 30
0.0000000000000000
 41
3.000000000000000
 42
3.000000000000000
 43
3.000000000000000
 50
180.0000000000000
  0
MTEXT
  5
19E
100
AcDbEntity
  8
MAIN0
  6
BYBLOCK
 62
0
100
AcDbMText
 10
195.3238889427100
 20
306.8456183226606
 30
0.0000000000000000
 40
4.649999856948853
 41
0.0000000000000000
 71
     5
 72
     1
  1
\A1;39
 11
1.000000000000000
 21
0.0000000000000000
 31
0.0000000000000000
  7
STANDARD
  0
ENDBLK
  5
19F
100
AcDbEntity
  8
MAIN0
  6
CONTINUOUS
 62
3
100
AcDbBlockEnd
  0
BLOCK
  5
1A2
100
AcDbEntity
  8
MAIN0
  6
CONTINUOUS
 62
3
100
AcDbBlockBegin
  2
*D18
 70
    65
 10
0.0
 20
0.0
 30
0.0
  0
LINE
  5
1A3
100
AcDbEntity
  8
MAIN0
  6
BYBLOCK
 62
0
100
AcDbLine
 10
115.8238889427094
 20
229.0206183941862
 30
0.0000000000000000
 11
110.8238889427094
 21
229.0206183941862
 31
0.0000000000000000
  0
INSERT
  5
1A4
100
AcDbEntity
  8
MAIN0
  6
BYBLOCK
 62
0
100
AcDbBlockReference
  2
_OPEN
 10
115.8238889427094
 20
229.0206183941862
 30
0.0000000000000000
 41
3.000000000000000
 42
3.000000000000000
 43
3.000000000000000
 50
180.0000000000000
  0
INSERT
  5
1A5
100
AcDbEntity
  8
MAIN0
  6
BYBLOCK
 62
0
100
AcDbBlockReference
  2
_OPEN
 10
110.8238889427094
 20
229.0206183941862
 30
0.0000000000000000
 41
3.000000000000000
 42
3.000000000000000
 43
3.000000000000000
 50
360.0000000000000
  0
LINE
  5
1A6
100
AcDbEntity
  8
MAIN0
  6
BYBLOCK
 62
0
100
AcDbLine
 10
118.8238889427094
 20
229.0206183941862
 30
0.0000000000000000
 11
120.3238889427094
 21
229.0206183941862
 31
0.0000000000000000
  0
LINE
  5
1A7
100
AcDbEntity
  8
MAIN0
  6
BYBLOCK
 62
0
100
AcDbLine
 10
107.8238889427094
 20
229.0206183941862
 30
0.0000000000000000
 11
104.3238889427094
 21
229.0206183941862
 31
0.0000000000000000
  0
MTEXT
  5
1A8
100
AcDbEntity
  8
MAIN0
  6
BYBLOCK
 62
0
100
AcDbMText
 10
105.8238889427094
 20
232.0956183226606
 30
0.0000000000000000
 40
4.649999856948853
 41
0.0000000000000000
 71
     5
 72
     1
  1
\A1;5
 11
1.000000000000000
 21
0.0000000000000000
 31
0.0000000000000000
  7
STANDARD
  0
ENDBLK
  5
1A9
100
AcDbEntity
  8
MAIN0
  6
CONTINUOUS
 62
3
100
AcDbBlockEnd
  0
BLOCK
  5
1AB
100
AcDbEntity
  8
MAIN0
  6
CONTINUOUS
 62
3
100
AcDbBlockBegin
  2
*D19
 70
    65
 10
0.0
 20
0.0
 30
0.0
  0
LINE
  5
1AC
100
AcDbEntity
  8
MAIN0
  6
BYBLOCK
 62
0
100
AcDbLine
 10
111.2238889248283
 20
191.5206183941862
 30
0.0000000000000000
 11
62.82388894270937
 21
191.5206183941862
 31
0.0000000000000000
  0
LINE
  5
1AD
100
AcDbEntity
  8
MAIN0
  6
BYBLOCK
 62
0
100
AcDbLine
 10
65.82388894270937
 20
194.5206183941862
 30
0.0000000000000000
 11
65.82388894270937
 21
353.5206183941862
 31
0.0000000000000000
  0
INSERT
  5
1AE
100
AcDbEntity
  8
MAIN0
  6
BYBLOCK
 62
0
100
AcDbBlockReference
  2
_OPEN
 10
65.82388894270937
 20
191.5206183941862
 30
0.0000000000000000
 41
3.000000000000000
 42
3.000000000000000
 43
3.000000000000000
 50
270.0000000000000
  0
INSERT
  5
1AF
100
AcDbEntity
  8
MAIN0
  6
BYBLOCK
 62
0
100
AcDbBlockReference
  2
_OPEN
 10
65.82388894270937
 20
356.5206183941862
 30
0.0000000000000000
 41
3.000000000000000
 42
3.000000000000000
 43
3.000000000000000
 50
90.00000000000000
  0
LINE
  5
1B0
100
AcDbEntity
  8
MAIN0
  6
BYBLOCK
 62
0
100
AcDbLine
 10
111.2238889248284
 20
356.5206183941862
 30
0.0000000000000000
 11
62.82388894270937
 21
356.5206183941862
 31
0.0000000000000000
  0
MTEXT
  5
1B1
100
AcDbEntity
  8
MAIN0
  6
BYBLOCK
 62
0
100
AcDbMText
 10
62.99888901423495
 20
274.0206183941862
 30
0.0000000000000000
 40
4.649999856948853
 41
0.0000000000000000
 71
     5
 72
     1
  1
\A1;\U+2205165
 11
6.123233995736766e-017
 21
1.000000000000000
 31
0.0000000000000000
  7
STANDARD
  0
ENDBLK
  5
1B2
100
AcDbEntity
  8
MAIN0
  6
CONTINUOUS
 62
3
100
AcDbBlockEnd
  0
BLOCK
  5
1DE
100
AcDbEntity
  8
MAIN0
  6
CONTINUOUS
 62
3
100
AcDbBlockBegin
  2
*D20
 70
    65
 10
0.0
 20
0.0
 30
0.0
  0
LINE
  5
1DF
100
AcDbEntity
  8
MAIN0
  6
BYBLOCK
 62
0
100
AcDbLine
 10
403.2079711265183
 20
166.2500344099925
 30
0.0000000000000000
 11
403.2079711264768
 21
184.1818529459856
 31
0.0000000000000000
  0
LINE
  5
1E0
100
AcDbEntity
  8
MAIN0
  6
BYBLOCK
 62
0
100
AcDbLine
 10
406.2079711264837
 20
181.1818529459856
 30
0.0000000000000000
 11
475.2079711264837
 21
181.1818529459856
 31
0.0000000000000000
  0
INSERT
  5
1E1
100
AcDbEntity
  8
MAIN0
  6
BYBLOCK
 62
0
100
AcDbBlockReference
  2
_OPEN
 10
403.2079711264837
 20
181.1818529459856
 30
0.0000000000000000
 41
3.000000000000000
 42
3.000000000000000
 43
3.000000000000000
 50
180.0000000000000
  0
INSERT
  5
1E2
100
AcDbEntity
  8
MAIN0
  6
BYBLOCK
 62
0
100
AcDbBlockReference
  2
_OPEN
 10
478.2079711264837
 20
181.1818529459856
 30
0.0000000000000000
 41
3.000000000000000
 42
3.000000000000000
 43
3.000000000000000
 50
0.0000000000000000
  0
LINE
  5
1E3
100
AcDbEntity
  8
MAIN0
  6
BYBLOCK
 62
0
100
AcDbLine
 10
478.2079711265182
 20
166.2500344099337
 30
0.0000000000000000
 11
478.2079711264767
 21
184.1818529459856
 31
0.0000000000000000
  0
MTEXT
  5
1E4
100
AcDbEntity
  8
MAIN0
  6
BYBLOCK
 62
0
100
AcDbMText
 10
440.7079711264837
 20
184.0068528744601
 30
0.0000000000000000
 40
4.649999856948853
 41
0.0000000000000000
 71
     5
 72
     1
  1
\A1;75
 11
1.000000000000000
 21
0.0000000000000000
 31
0.0000000000000000
  7
STANDARD
  0
ENDBLK
  5
1E5
100
AcDbEntity
  8
MAIN0
  6
CONTINUOUS
 62
3
100
AcDbBlockEnd
  0
BLOCK
  5
1E7
100
AcDbEntity
  8
MAIN0
  6
CONTINUOUS
 62
3
100
AcDbBlockBegin
  2
*D21
 70
    65
 10
0.0
 20
0.0
 30
0.0
  0
LINE
  5
1E8
100
AcDbEntity
  8
MAIN0
  6
BYBLOCK
 62
0
100
AcDbLine
 10
444.7479711443615
 20
128.0500343920797
 30
0.0000000000000000
 11
499.2158597985297
 21
128.0500343920904
 31
0.0000000000000000
  0
LINE
  5
1E9
100
AcDbEntity
  8
MAIN0
  6
BYBLOCK
 62
0
100
AcDbLine
 10
496.2158597985296
 20
131.0500343920898
 30
0.0000000000000000
 11
496.2158597985296
 21
163.0500343921107
 31
0.0000000000000000
  0
INSERT
  5
1EA
100
AcDbEntity
  8
MAIN0
  6
BYBLOCK
 62
0
100
AcDbBlockReference
  2
_OPEN
 10
496.2158597985296
 20
128.0500343920898
 30
0.0000000000000000
 41
3.000000000000000
 42
3.000000000000000
 43
3.000000000000000
 50
270.0000000000000
  0
INSERT
  5
1EB
100
AcDbEntity
  8
MAIN0
  6
BYBLOCK
 62
0
100
AcDbBlockReference
  2
_OPEN
 10
496.2158597985296
 20
166.0500343921107
 30
0.0000000000000000
 41
3.000000000000000
 42
3.000000000000000
 43
3.000000000000000
 50
90.00000000000000
  0
LINE
  5
1EC
100
AcDbEntity
  8
MAIN0
  6
BYBLOCK
 62
0
100
AcDbLine
 10
478.4079711444035
 20
166.0500343920567
 30
0.0000000000000000
 11
499.2158597985297
 21
166.0500343921198
 31
0.0000000000000000
  0
MTEXT
  5
1ED
100
AcDbEntity
  8
MAIN0
  6
BYBLOCK
 62
0
100
AcDbMText
 10
493.3908598700551
 20
147.0500343921002
 30
0.0000000000000000
 40
4.649999856948853
 41
0.0000000000000000
 71
     5
 72
     1
  1
\A1;38
 11
6.123233995736766e-017
 21
1.000000000000000
 31
0.0000000000000000
  7
STANDARD
  0
ENDBLK
  5
1EE
100
AcDbEntity
  8
MAIN0
  6
CONTINUOUS
 62
3
100
AcDbBlockEnd
  0
BLOCK
  5
1F0
100
AcDbEntity
  8
MAIN0
  6
CONTINUOUS
 62
3
100
AcDbBlockBegin
  2
*D22
 70
    65
 10
0.0
 20
0.0
 30
0.0
  0
LINE
  5
1F1
100
AcDbEntity
  8
MAIN0
  6
BYBLOCK
 62
0
100
AcDbLine
 10
437.2079711264742
 20
121.5896486530068
 30
0.0000000000000000
 11
437.2079711264742
 21
108.8912974110812
 31
0.0000000000000000
  0
LINE
  5
1F2
100
AcDbEntity
  8
MAIN0
  6
BYBLOCK
 62
0
100
AcDbLine
 10
440.2079711264742
 20
111.8912974110812
 30
0.0000000000000000
 11
453.2579711264772
 21
111.8912974110812
 31
0.0000000000000000
  0
INSERT
  5
1F3
100
AcDbEntity
  8
MAIN0
  6
BYBLOCK
 62
0
100
AcDbBlockReference
  2
_OPEN
 10
437.2079711264742
 20
111.8912974110812
 30
0.0000000000000000
 41
3.000000000000000
 42
3.000000000000000
 43
3.000000000000000
 50
180.0000000000000
  0
INSERT
  5
1F4
100
AcDbEntity
  8
MAIN0
  6
BYBLOCK
 62
0
100
AcDbBlockReference
  2
_OPEN
 10
456.2579711264772
 20
111.8912974110812
 30
0.0000000000000000
 41
3.000000000000000
 42
3.000000000000000
 43
3.000000000000000
 50
0.0000000000000000
  0
LINE
  5
1F5
100
AcDbEntity
  8
MAIN0
  6
BYBLOCK
 62
0
100
AcDbLine
 10
456.2579711264772
 20
124.1134730559697
 30
0.0000000000000000
 11
456.2579711264772
 21
108.8912974110812
 31
0.0000000000000000
  0
MTEXT
  5
1F6
100
AcDbEntity
  8
MAIN0
  6
BYBLOCK
 62
0
100
AcDbMText
 10
446.7329711264756
 20
114.7162973395557
 30
0.0000000000000000
 40
4.649999856948853
 41
0.0000000000000000
 71
     5
 72
     1
  1
\A1;19.05
 11
1.000000000000000
 21
0.0000000000000000
 31
0.0000000000000000
  7
STANDARD
  0
ENDBLK
  5
1F7
100
AcDbEntity
  8
MAIN0
  6
CONTINUOUS
 62
3
100
AcDbBlockEnd
  0
BLOCK
  5
1F9
100
AcDbEntity
  8
MAIN0
  6
CONTINUOUS
 62
3
100
AcDbBlockBegin
  2
*D23
 70
    65
 10
0.0
 20
0.0
 30
0.0
  0
LINE
  5
1FA
100
AcDbEntity
  8
MAIN0
  6
BYBLOCK
 62
0
100
AcDbLine
 10
437.2079711264742
 20
121.5896486530068
 30
0.0000000000000000
 11
437.2079711264742
 21
108.8912974110812
 31
0.0000000000000000
  0
LINE
  5
1FB
100
AcDbEntity
  8
MAIN0
  6
BYBLOCK
 62
0
100
AcDbLine
 10
434.2079711264742
 20
111.8912974110812
 30
0.0000000000000000
 11
421.1579711264743
 21
111.8912974110812
 31
0.0000000000000000
  0
INSERT
  5
1FC
100
AcDbEntity
  8
MAIN0
  6
BYBLOCK
 62
0
100
AcDbBlockReference
  2
_OPEN
 10
437.2079711264742
 20
111.8912974110812
 30
0.0000000000000000
 41
3.000000000000000
 42
3.000000000000000
 43
3.000000000000000
 50
360.0000000000000
  0
INSERT
  5
1FD
100
AcDbEntity
  8
MAIN0
  6
BYBLOCK
 62
0
100
AcDbBlockReference
  2
_OPEN
 10
418.1579711264743
 20
111.8912974110812
 30
0.0000000000000000
 41
3.000000000000000
 42
3.000000000000000
 43
3.000000000000000
 50
180.0000000000000
  0
LINE
  5
1FE
100
AcDbEntity
  8
MAIN0
  6
BYBLOCK
 62
0
100
AcDbLine
 10
418.1579711264743
 20
121.7043643803094
 30
0.0000000000000000
 11
418.1579711264743
 21
108.8912974110812
 31
0.0000000000000000
  0
MTEXT
  5
1FF
100
AcDbEntity
  8
MAIN0
  6
BYBLOCK
 62
0
100
AcDbMText
 10
427.6829711264742
 20
114.7162973395557
 30
0.0000000000000000
 40
4.649999856948853
 41
0.0000000000000000
 71
     5
 72
     1
  1
\A1;19.05
 11
1.000000000000000
 21
0.0000000000000000
 31
0.0000000000000000
  7
STANDARD
  0
ENDBLK
  5
200
100
AcDbEntity
  8
MAIN0
  6
CONTINUOUS
 62
3
100
AcDbBlockEnd
  0
BLOCK
  5
31C
100
AcDbEntity
  8
H0
  6
CONTINUOUS
 62
1
100
AcDbBlockBegin
  2
*D24
 70
    65
 10
0.0
 20
0.0
 30
0.0
  0
LINE
  5
31D
100
AcDbEntity
  8
H0
  6
BYBLOCK
 62
0
100
AcDbLine
 10
581.6283832940105
 20
328.5023515806555
 30
0.0000000000000000
 11
581.6283832940105
 21
369.1943667503942
 31
0.0000000000000000
  0
LINE
  5
31E
100
AcDbEntity
  8
H0
  6
BYBLOCK
 62
0
100
AcDbLine
 10
578.6283832940105
 20
366.1943667503942
 30
0.0000000000000000
 11
454.6283832940105
 21
366.1943667503942
 31
0.0000000000000000
  0
INSERT
  5
31F
100
AcDbEntity
  8
H0
  6
BYBLOCK
 62
0
100
AcDbBlockReference
  2
_OPEN
 10
581.6283832940105
 20
366.1943667503942
 30
0.0000000000000000
 41
3.000000000000000
 42
3.000000000000000
 43
3.000000000000000
 50
360.0000000000000
  0
INSERT
  5
320
100
AcDbEntity
  8
H0
  6
BYBLOCK
 62
0
100
AcDbBlockReference
  2
_OPEN
 10
451.6283832940105
 20
366.1943667503942
 30
0.0000000000000000
 41
3.000000000000000
 42
3.000000000000000
 43
3.000000000000000
 50
180.0000000000000
  0
LINE
  5
321
100
AcDbEntity
  8
H0
  6
BYBLOCK
 62
0
100
AcDbLine
 10
451.6283832940105
 20
328.5023515806555
 30
0.0000000000000000
 11
451.6283832940105
 21
369.1943667503942
 31
0.0000000000000000
  0
MTEXT
  5
322
100
AcDbEntity
  8
H0
  6
BYBLOCK
 62
0
100
AcDbMText
 10
516.6283832940105
 20
369.0193666788686
 30
0.0000000000000000
 40
4.649999856948853
 41
0.0000000000000000
 71
     5
 72
     1
  1
\A1;210
 11
1.000000000000000
 21
0.0000000000000000
 31
0.0000000000000000
  7
STANDARD
  0
ENDBLK
  5
323
100
AcDbEntity
  8
H0
  6
CONTINUOUS
 62
1
100
AcDbBlockEnd
  0
BLOCK
  5
325
100
AcDbEntity
  8
H0
  6
CONTINUOUS
 62
3
100
AcDbBlockBegin
  2
*D25
 70
    65
 10
0.0
 20
0.0
 30
0.0
  0
LINE
  5
326
100
AcDbEntity
  8
H0
  6
BYBLOCK
 62
0
100
AcDbLine
 10
528.8283833118918
 20
336.3023515627741
 30
0.0000000000000000
 11
542.5067483365598
 21
336.3023515627741
 31
0.0000000000000000
  0
LINE
  5
327
100
AcDbEntity
  8
H0
  6
BYBLOCK
 62
0
100
AcDbLine
 10
539.5067483365598
 20
333.3023515627741
 30
0.0000000000000000
 11
539.5067483365598
 21
326.3023515627741
 31
0.0000000000000000
  0
INSERT
  5
328
100
AcDbEntity
  8
H0
  6
BYBLOCK
 62
0
100
AcDbBlockReference
  2
_OPEN
 10
539.5067483365598
 20
336.3023515627741
 30
0.0000000000000000
 41
3.000000000000000
 42
3.000000000000000
 43
3.000000000000000
 50
90.00000000000000
  0
INSERT
  5
329
100
AcDbEntity
  8
H0
  6
BYBLOCK
 62
0
100
AcDbBlockReference
  2
_OPEN
 10
539.5067483365598
 20
323.3023515627741
 30
0.0000000000000000
 41
3.000000000000000
 42
3.000000000000000
 43
3.000000000000000
 50
270.0000000000000
  0
LINE
  5
32A
100
AcDbEntity
  8
H0
  6
BYBLOCK
 62
0
100
AcDbLine
 10
539.5067483365598
 20
336.3023515627741
 30
0.0000000000000000
 11
539.5067483365598
 21
344.8062911349504
 31
0.0000000000000000
  0
MTEXT
  5
32B
100
AcDbEntity
  8
H0
  6
BYBLOCK
 62
0
100
AcDbMText
 10
536.4317484080854
 20
341.7312912064760
 30
0.0000000000000000
 40
4.649999856948853
 41
0.0000000000000000
 71
     5
 72
     1
  1
\A1;13
 11
6.123233995736766e-017
 21
1.000000000000000
 31
0.0000000000000000
  7
STANDARD
  0
ENDBLK
  5
32C
100
AcDbEntity
  8
H0
  6
CONTINUOUS
 62
3
100
AcDbBlockEnd
  0
BLOCK
  5
32E
100
AcDbEntity
  8
H0
  6
CONTINUOUS
 62
3
100
AcDbBlockBegin
  2
*D26
 70
    65
 10
0.0
 20
0.0
 30
0.0
  0
LINE
  5
32F
100
AcDbEntity
  8
H0
  6
BYBLOCK
 62
0
100
AcDbLine
 10
509.6283832940105
 20
281.8776072478506
 30
0.0000000000000000
 11
523.6283832940105
 21
281.8776072478506
 31
0.0000000000000000
  0
INSERT
  5
330
100
AcDbEntity
  8
H0
  6
BYBLOCK
 62
0
100
AcDbBlockReference
  2
_OPEN
 10
506.6283832940105
 20
281.8776072478506
 30
0.0000000000000000
 41
3.000000000000000
 42
3.000000000000000
 43
3.000000000000000
 50
180.0000000000000
  0
INSERT
  5
331
100
AcDbEntity
  8
H0
  6
BYBLOCK
 62
0
100
AcDbBlockReference
  2
_OPEN
 10
526.6283832940105
 20
281.8776072478506
 30
0.0000000000000000
 41
3.000000000000000
 42
3.000000000000000
 43
3.000000000000000
 50
0.0000000000000000
  0
MTEXT
  5
332
100
AcDbEntity
  8
H0
  6
BYBLOCK
 62
0
100
AcDbMText
 10
516.6283832940105
 20
284.7026071763250
 30
0.0000000000000000
 40
4.649999856948853
 41
0.0000000000000000
 71
     5
 72
     1
  1
\A1;\U+220520
 11
1.000000000000000
 21
0.0000000000000000
 31
0.0000000000000000
  7
STANDARD
  0
ENDBLK
  5
333
100
AcDbEntity
  8
H0
  6
CONTINUOUS
 62
3
100
AcDbBlockEnd
  0
BLOCK
  5
335
100
AcDbEntity
  8
H0
  6
CONTINUOUS
 62
3
100
AcDbBlockBegin
  2
*D27
 70
    65
 10
0.0
 20
0.0
 30
0.0
  0
LINE
  5
336
100
AcDbEntity
  8
H0
  6
BYBLOCK
 62
0
100
AcDbLine
 10
528.8283833118918
 20
336.3023515627741
 30
0.0000000000000000
 11
550.1137306120414
 21
336.3023515627741
 31
0.0000000000000000
  0
LINE
  5
337
100
AcDbEntity
  8
H0
  6
BYBLOCK
 62
0
100
AcDbLine
 10
547.1137306120414
 20
333.3023515627741
 30
0.0000000000000000
 11
547.1137306120414
 21
219.3023515627741
 31
0.0000000000000000
  0
INSERT
  5
338
100
AcDbEntity
  8
H0
  6
BYBLOCK
 62
0
100
AcDbBlockReference
  2
_OPEN
 10
547.1137306120414
 20
336.3023515627741
 30
0.0000000000000000
 41
3.000000000000000
 42
3.000000000000000
 43
3.000000000000000
 50
90.00000000000000
  0
INSERT
  5
339
100
AcDbEntity
  8
H0
  6
BYBLOCK
 62
0
100
AcDbBlockReference
  2
_OPEN
 10
547.1137306120414
 20
216.3023515627741
 30
0.0000000000000000
 41
3.000000000000000
 42
3.000000000000000
 43
3.000000000000000
 50
270.0000000000000
  0
LINE
  5
33A
100
AcDbEntity
  8
H0
  6
BYBLOCK
 62
0
100
AcDbLine
 10
523.6783833118919
 20
216.3023515627741
 30
0.0000000000000000
 11
550.1137306120414
 21
216.3023515627741
 31
0.0000000000000000
  0
MTEXT
  5
33B
100
AcDbEntity
  8
H0
  6
BYBLOCK
 62
0
100
AcDbMText
 10
544.2887306835670
 20
276.3023515627741
 30
0.0000000000000000
 40
4.649999856948853
 41
0.0000000000000000
 71
     5
 72
     1
  1
\A1;120
 11
6.123233995736766e-017
 21
1.000000000000000
 31
0.0000000000000000
  7
STANDARD
  0
ENDBLK
  5
33C
100
AcDbEntity
  8
H0
  6
CONTINUOUS
 62
3
100
AcDbBlockEnd
  0
BLOCK
  5
33E
100
AcDbEntity
  8
H0
  6
CONTINUOUS
 62
3
100
AcDbBlockBegin
  2
*D28
 70
    65
 10
0.0
 20
0.0
 30
0.0
  0
LINE
  5
33F
100
AcDbEntity
  8
H0
  6
BYBLOCK
 62
0
100
AcDbLine
 10
524.0043093175099
 20
180.9712998374982
 30
0.0000000000000000
 11
534.7873991237319
 21
170.1882100312686
 31
0.0000000000000000
  0
LINE
  5
340
100
AcDbEntity
  8
H0
  6
BYBLOCK
 62
0
100
AcDbLine
 10
530.5447584366121
 20
170.1882100312706
 30
0.0000000000000000
 11
527.7163313118632
 21
167.3597829065250
 31
0.0000000000000000
  0
INSERT
  5
341
100
AcDbEntity
  8
H0
  6
BYBLOCK
 62
0
100
AcDbBlockReference
  2
_OPEN
 10
532.6660787801731
 20
172.3095303748290
 30
0.0000000000000000
 41
3.000000000000000
 42
3.000000000000000
 43
3.000000000000000
 50
44.99999999996572
  0
INSERT
  5
342
100
AcDbEntity
  8
H0
  6
BYBLOCK
 62
0
100
AcDbBlockReference
  2
_OPEN
 10
525.5950109683023
 20
165.2384625629667
 30
0.0000000000000000
 41
3.000000000000000
 42
3.000000000000000
 43
3.000000000000000
 50
224.9999999999657
  0
LINE
  5
343
100
AcDbEntity
  8
H0
  6
BYBLOCK
 62
0
100
AcDbLine
 10
532.6660787801731
 20
172.3095303748290
 30
0.0000000000000000
 11
548.0562042159602
 21
187.6996558105977
 31
0.0000000000000000
  0
LINE
  5
344
100
AcDbEntity
  8
H0
  6
BYBLOCK
 62
0
100
AcDbLine
 10
516.9332415056491
 20
173.9002320256301
 30
0.0000000000000000
 11
527.7163313118606
 21
163.1171422194058
 31
0.0000000000000000
  0
MTEXT
  5
345
100
AcDbEntity
  8
H0
  6
BYBLOCK
 62
0
100
AcDbMText
 10
539.5620839725780
 20
183.2006887797750
 30
0.0000000000000000
 40
4.649999856948853
 41
0.0000000000000000
 71
     5
 72
     1
  1
\A1;10\H0.903226x;\S 0^ －0.15;
 11
0.7071067811869696
 21
0.7071067811861255
 31
0.0000000000000000
  7
KNJYOKO
  0
ENDBLK
  5
346
100
AcDbEntity
  8
H0
  6
CONTINUOUS
 62
3
100
AcDbBlockEnd
  0
BLOCK
  5
348
100
AcDbEntity
  8
H0
  6
CONTINUOUS
 62
3
100
AcDbBlockBegin
  2
*D29
 70
    65
 10
0.0
 20
0.0
 30
0.0
  0
LINE
  5
349
100
AcDbEntity
  8
H0
  6
BYBLOCK
 62
0
100
AcDbLine
 10
524.3783833118919
 20
230.3023515627741
 30
0.0000000000000000
 11
539.8902181711162
 21
230.3023515627741
 31
0.0000000000000000
  0
LINE
  5
34A
100
AcDbEntity
  8
H0
  6
BYBLOCK
 62
0
100
AcDbLine
 10
536.8902181711162
 20
227.3023515627741
 30
0.0000000000000000
 11
536.8902181711162
 21
219.3023515627741
 31
0.0000000000000000
  0
INSERT
  5
34B
100
AcDbEntity
  8
H0
  6
BYBLOCK
 62
0
100
AcDbBlockReference
  2
_OPEN
 10
536.8902181711162
 20
230.3023515627741
 30
0.0000000000000000
 41
3.000000000000000
 42
3.000000000000000
 43
3.000000000000000
 50
90.00000000000000
  0
INSERT
  5
34C
100
AcDbEntity
  8
H0
  6
BYBLOCK
 62
0
100
AcDbBlockReference
  2
_OPEN
 10
536.8902181711162
 20
216.3023515627741
 30
0.0000000000000000
 41
3.000000000000000
 42
3.000000000000000
 43
3.000000000000000
 50
270.0000000000000
  0
LINE
  5
34D
100
AcDbEntity
  8
H0
  6
BYBLOCK
 62
0
100
AcDbLine
 10
523.6783833118919
 20
216.3023515627741
 30
0.0000000000000000
 11
539.8902181711162
 21
216.3023515627741
 31
0.0000000000000000
  0
MTEXT
  5
34E
100
AcDbEntity
  8
H0
  6
BYBLOCK
 62
0
100
AcDbMText
 10
534.0652182426418
 20
223.3023515627741
 30
0.0000000000000000
 40
4.649999856948853
 41
0.0000000000000000
 71
     5
 72
     1
  1
\A1;14
 11
6.123233995736766e-017
 21
1.000000000000000
 31
0.0000000000000000
  7
STANDARD
  0
ENDBLK
  5
34F
100
AcDbEntity
  8
H0
  6
CONTINUOUS
 62
3
100
AcDbBlockEnd
  0
BLOCK
  5
373
100
AcDbEntity
  8
H0
  6
CONTINUOUS
 62
3
100
AcDbBlockBegin
  2
*D30
 70
    65
 10
0.0
 20
0.0
 30
0.0
  0
LINE
  5
374
100
AcDbEntity
  8
H0
  6
BYBLOCK
 62
0
100
AcDbLine
 10
504.1283832940105
 20
336.5023515806554
 30
0.0000000000000000
 11
504.1283832940105
 21
357.8891931963869
 31
0.0000000000000000
  0
LINE
  5
375
100
AcDbEntity
  8
H0
  6
BYBLOCK
 62
0
100
AcDbLine
 10
507.1283832940105
 20
354.8891931963869
 30
0.0000000000000000
 11
526.1283832940105
 21
354.8891931963869
 31
0.0000000000000000
  0
INSERT
  5
376
100
AcDbEntity
  8
H0
  6
BYBLOCK
 62
0
100
AcDbBlockReference
  2
_OPEN
 10
504.1283832940105
 20
354.8891931963869
 30
0.0000000000000000
 41
3.000000000000000
 42
3.000000000000000
 43
3.000000000000000
 50
180.0000000000000
  0
INSERT
  5
377
100
AcDbEntity
  8
H0
  6
BYBLOCK
 62
0
100
AcDbBlockReference
  2
_OPEN
 10
529.1283832940105
 20
354.8891931963869
 30
0.0000000000000000
 41
3.000000000000000
 42
3.000000000000000
 43
3.000000000000000
 50
0.0000000000000000
  0
LINE
  5
378
100
AcDbEntity
  8
H0
  6
BYBLOCK
 62
0
100
AcDbLine
 10
529.1283832940105
 20
336.5023515806554
 30
0.0000000000000000
 11
529.1283832940105
 21
357.8891931963869
 31
0.0000000000000000
  0
MTEXT
  5
379
100
AcDbEntity
  8
H0
  6
BYBLOCK
 62
0
100
AcDbMText
 10
516.6283832940105
 20
357.7141931248613
 30
0.0000000000000000
 40
4.649999856948853
 41
0.0000000000000000
 71
     5
 72
     1
  1
\A1;\U+220525
 11
1.000000000000000
 21
0.0000000000000000
 31
0.0000000000000000
  7
STANDARD
  0
ENDBLK
  5
37A
100
AcDbEntity
  8
H0
  6
CONTINUOUS
 62
3
100
AcDbBlockEnd
  0
BLOCK
  5
37C
100
AcDbEntity
  8
H0
  6
CONTINUOUS
 62
3
100
AcDbBlockBegin
  2
*D31
 70
    65
 10
0.0
 20
0.0
 30
0.0
  0
LINE
  5
37D
100
AcDbEntity
  8
H0
  6
BYBLOCK
 62
0
100
AcDbLine
 10
491.6283832940105
 20
328.3023515627741
 30
0.0000000000000000
 11
491.6283832940105
 21
318.3023515627741
 31
0.0000000000000000
  0
INSERT
  5
37E
100
AcDbEntity
  8
H0
  6
BYBLOCK
 62
0
100
AcDbBlockReference
  2
_OPEN
 10
491.6283832940105
 20
328.3023515627741
 30
0.0000000000000000
 41
3.000000000000000
 42
3.000000000000000
 43
3.000000000000000
 50
270.0000000000000
  0
INSERT
  5
37F
100
AcDbEntity
  8
H0
  6
BYBLOCK
 62
0
100
AcDbBlockReference
  2
_OPEN
 10
491.6283832940105
 20
318.3023515627741
 30
0.0000000000000000
 41
3.000000000000000
 42
3.000000000000000
 43
3.000000000000000
 50
90.00000000000000
  0
LINE
  5
380
100
AcDbEntity
  8
H0
  6
BYBLOCK
 62
0
100
AcDbLine
 10
491.6283832940105
 20
331.3023515627741
 30
0.0000000000000000
 11
491.6283832940105
 21
332.8023515627741
 31
0.0000000000000000
  0
LINE
  5
381
100
AcDbEntity
  8
H0
  6
BYBLOCK
 62
0
100
AcDbLine
 10
491.6283832940105
 20
315.3023515627741
 30
0.0000000000000000
 11
491.6283832940105
 21
306.2468350317188
 31
0.0000000000000000
  0
MTEXT
  5
382
100
AcDbEntity
  8
H0
  6
BYBLOCK
 62
0
100
AcDbMText
 10
488.5533833655361
 20
311.2718348886677
 30
0.0000000000000000
 40
4.649999856948853
 41
0.0000000000000000
 71
     5
 72
     1
  1
\A1;\U+220510
 11
6.123233995736766e-017
 21
1.000000000000000
 31
0.0000000000000000
  7
STANDARD
  0
ENDBLK
  5
383
100
AcDbEntity
  8
H0
  6
CONTINUOUS
 62
3
100
AcDbBlockEnd
  0
ENDSEC
  0
SECTION
  2
ENTITIES
  0
LINE
  5
46
100
AcDbEntity
  8
MAIN0
  6
CENTER
 62
3
100
AcDbLine
 10
340.8238889427094
 20
369.0206183941862
 30
0.0000000000000000
 11
340.8238889427094
 21
179.0206183941862
 31
0.0000000000000000
  0
LINE
  5
47
100
AcDbEntity
  8
MAIN0
  6
CONTINUOUS
 62
3
100
AcDbLine
 10
112.4238889427098
 20
356.5206183941862
 30
0.0000000000000000
 11
174.2238889427092
 21
356.5206183941862
 31
0.0000000000000000
  0
LINE
  5
48
100
AcDbEntity
  8
MAIN0
  6
CONTINUOUS
 62
3
100
AcDbLine
 10
175.8238889427094
 20
354.9206183941860
 30
0.0000000000000000
 11
174.2238889427092
 21
356.5206183941862
 31
0.0000000000000000
  0
LINE
  5
49
100
AcDbEntity
  8
MAIN0
  6
CONTINUOUS
 62
3
100
AcDbLine
 10
112.4238889427097
 20
191.5206183941862
 30
0.0000000000000000
 11
110.8238889427094
 21
193.1206183941865
 31
0.0000000000000000
  0
LINE
  5
4A
100
AcDbEntity
  8
MAIN0
  6
CONTINUOUS
 62
3
100
AcDbLine
 10
110.8238889427094
 20
354.9206183941858
 30
0.0000000000000000
 11
112.4238889427098
 21
356.5206183941862
 31
0.0000000000000000
  0
LINE
  5
4B
100
AcDbEntity
  8
MAIN0
  6
CONTINUOUS
 62
3
100
AcDbLine
 10
110.8238889427094
 20
339.0206183941862
 30
0.0000000000000000
 11
118.8238889427100
 21
339.0206183941862
 31
0.0000000000000000
  0
LINE
  5
4C
100
AcDbEntity
  8
MAIN0
  6
CONTINUOUS
 62
3
100
AcDbLine
 10
110.8238889427094
 20
209.0206183941862
 30
0.0000000000000000
 11
118.8238889427100
 21
209.0206183941862
 31
0.0000000000000000
  0
LINE
  5
4D
100
AcDbEntity
  8
MAIN0
  6
CONTINUOUS
 62
3
100
AcDbLine
 10
117.8238889427094
 20
339.5206183941862
 30
0.0000000000000000
 11
117.8238889427094
 21
339.0206183941862
 31
0.0000000000000000
  0
LINE
  5
4E
100
AcDbEntity
  8
MAIN0
  6
PHANTOM
 62
3
100
AcDbLine
 10
175.8238889427099
 20
284.5206183941862
 30
0.0000000000000000
 11
180.8238889427094
 21
284.5206183941862
 31
0.0000000000000000
  0
LINE
  5
4F
100
AcDbEntity
  8
MAIN0
  6
PHANTOM
 62
3
100
AcDbLine
 10
175.8238889427101
 20
263.5206183941862
 30
0.0000000000000000
 11
180.8238889427094
 21
263.5206183941862
 31
0.0000000000000000
  0
LINE
  5
50
100
AcDbEntity
  8
MAIN0
  6
CENTER
 62
3
100
AcDbLine
 10
134.8238889427094
 20
361.5206183941862
 30
0.0000000000000000
 11
134.8238889427094
 21
344.0206183941862
 31
0.0000000000000000
  0
LINE
  5
51
100
AcDbEntity
  8
MAIN0
  6
CONTINUOUS
 62
3
100
AcDbLine
 10
119.8030902595674
 20
331.0456636469478
 30
0.0000000000000000
 11
118.8238889427100
 21
339.0206183941862
 31
0.0000000000000000
  0
ARC
  5
52
100
AcDbEntity
  8
MAIN0
  6
CONTINUOUS
 62
3
100
AcDbCircle
 10
127.7434594726983
 20
332.0206183941862
 30
0.0000000000000000
 40
8.000000000000000
100
AcDbArc
 50
186.9999999999797
 51
239.2023194793314
  0
LINE
  5
53
100
AcDbEntity
  8
MAIN0
  6
CONTINUOUS
 62
3
100
AcDbLine
 10
115.8238889427094
 20
314.0206183941862
 30
0.0000000000000000
 11
124.3238889427093
 21
314.0206183941862
 31
0.0000000000000000
  0
LINE
  5
54
100
AcDbEntity
  8
MAIN0
  6
CONTINUOUS
 62
3
100
AcDbLine
 10
124.3238889427094
 20
296.5206183941862
 30
0.0000000000000000
 11
128.3238889452099
 21
296.5206183941862
 31
0.0000000000000000
  0
LINE
  5
55
100
AcDbEntity
  8
MAIN0
  6
CONTINUOUS
 62
3
100
AcDbLine
 10
119.8030902595674
 20
216.9955731414246
 30
0.0000000000000000
 11
118.8238889427100
 21
209.0206183941862
 31
0.0000000000000000
  0
ARC
  5
56
100
AcDbEntity
  8
MAIN0
  6
CONTINUOUS
 62
3
100
AcDbCircle
 10
127.7434594726983
 20
216.0206183941862
 30
0.0000000000000000
 40
8.000000000000000
100
AcDbArc
 50
90.00000000000000
 51
173.0000000000203
  0
LINE
  5
57
100
AcDbEntity
  8
MAIN0
  6
CONTINUOUS
 62
3
100
AcDbLine
 10
127.7434594726983
 20
224.0206183941862
 30
0.0000000000000000
 11
133.3238889426777
 21
224.0206183941862
 31
0.0000000000000000
  0
LINE
  5
58
100
AcDbEntity
  8
MAIN0
  6
CONTINUOUS
 62
3
100
AcDbLine
 10
117.8238889427094
 20
208.5206183941862
 30
0.0000000000000000
 11
130.4340413343708
 21
208.5206183941862
 31
0.0000000000000000
  0
LINE
  5
59
100
AcDbEntity
  8
MAIN0
  6
CONTINUOUS
 62
3
100
AcDbLine
 10
117.8238889427094
 20
209.0206183941862
 30
0.0000000000000000
 11
117.8238889427094
 21
208.5206183941862
 31
0.0000000000000000
  0
LINE
  5
5A
100
AcDbEntity
  8
MAIN0
  6
CONTINUOUS
 62
3
100
AcDbLine
 10
115.8238889427094
 20
234.0206183941862
 30
0.0000000000000000
 11
124.3238889427093
 21
234.0206183941862
 31
0.0000000000000000
  0
LINE
  5
5B
100
AcDbEntity
  8
MAIN0
  6
CONTINUOUS
 62
3
100
AcDbLine
 10
124.3238889427094
 20
251.5206183941862
 30
0.0000000000000000
 11
135.8238889612555
 21
251.5206183941862
 31
0.0000000000000000
  0
LINE
  5
5C
100
AcDbEntity
  8
MAIN0
  6
CENTER
 62
3
100
AcDbLine
 10
120.8238889427094
 20
244.0206183941862
 30
0.0000000000000000
 11
145.8238889427094
 21
244.0206183941862
 31
0.0000000000000000
  0
LINE
  5
5D
100
AcDbEntity
  8
MAIN0
  6
HIDDEN
 62
3
100
AcDbLine
 10
120.8238889427094
 20
356.5206183941863
 30
0.0000000000000000
 11
120.8238889427094
 21
348.6355330979797
 31
0.0000000000000000
  0
LINE
  5
5E
100
AcDbEntity
  8
MAIN0
  6
HIDDEN
 62
3
100
AcDbLine
 10
148.8238889427094
 20
356.5206183941863
 30
0.0000000000000000
 11
148.8238889427094
 21
348.6355330979852
 31
0.0000000000000000
  0
LINE
  5
5F
100
AcDbEntity
  8
MAIN0
  6
HIDDEN
 62
3
100
AcDbLine
 10
120.8238889427094
 20
349.2706183941862
 30
0.0000000000000000
 11
122.8238889427094
 21
349.2706183941862
 31
0.0000000000000000
  0
ARC
  5
60
100
AcDbEntity
  8
MAIN0
  6
HIDDEN
 62
3
100
AcDbCircle
 10
122.8238889427094
 20
346.5206183941863
 30
0.0000000000000000
 40
2.750000000000000
100
AcDbArc
 50
50.26954290043742
 51
90.00000000000000
  0
LINE
  5
61
100
AcDbEntity
  8
MAIN0
  6
HIDDEN
 62
3
100
AcDbLine
 10
121.3238889427094
 20
356.2706183941862
 30
0.0000000000000000
 11
148.3238889427096
 21
356.2706183941862
 31
0.0000000000000000
  0
LINE
  5
62
100
AcDbEntity
  8
MAIN0
  6
HIDDEN
 62
3
100
AcDbLine
 10
121.3238889427094
 20
356.2706183941862
 30
0.0000000000000000
 11
120.8238889427094
 21
355.7706183941862
 31
0.0000000000000000
  0
LINE
  5
63
100
AcDbEntity
  8
MAIN0
  6
HIDDEN
 62
3
100
AcDbLine
 10
148.3238889427096
 20
356.2706183941862
 30
0.0000000000000000
 11
148.8238889427094
 21
355.7706183941864
 31
0.0000000000000000
  0
LINE
  5
64
100
AcDbEntity
  8
MAIN0
  6
HIDDEN
 62
3
100
AcDbLine
 10
148.8238889427094
 20
349.2706183941862
 30
0.0000000000000000
 11
146.8238889427094
 21
349.2706183941862
 31
0.0000000000000000
  0
ARC
  5
65
100
AcDbEntity
  8
MAIN0
  6
HIDDEN
 62
3
100
AcDbCircle
 10
146.8238889427094
 20
346.5206183941863
 30
0.0000000000000000
 40
2.750000000000000
100
AcDbArc
 50
90.00000000000000
 51
129.7304570994314
  0
LINE
  5
66
100
AcDbEntity
  8
MAIN0
  6
CONTINUOUS
 62
3
100
AcDbLine
 10
117.8238889427094
 20
339.5206183941862
 30
0.0000000000000000
 11
120.1495476532591
 21
339.5206183941862
 31
0.0000000000000000
  0
LINE
  5
67
100
AcDbEntity
  8
MAIN0
  6
HIDDEN
 62
3
100
AcDbLine
 10
141.8738889427081
 20
355.8664732054620
 30
0.0000000000000000
 11
142.5738889432106
 21
356.2706183941863
 31
0.0000000000000000
  0
LINE
  5
68
100
AcDbEntity
  8
MAIN0
  6
HIDDEN
 62
3
100
AcDbLine
 10
141.3738889427094
 20
355.0004478016783
 30
0.0000000000000000
 11
141.3738889427094
 21
348.6355330979837
 31
0.0000000000000000
  0
LINE
  5
69
100
AcDbEntity
  8
MAIN0
  6
HIDDEN
 62
3
100
AcDbLine
 10
127.7738889427107
 20
355.8664732054620
 30
0.0000000000000000
 11
127.0738889422081
 21
356.2706183941863
 31
0.0000000000000000
  0
LINE
  5
6A
100
AcDbEntity
  8
MAIN0
  6
HIDDEN
 62
3
100
AcDbLine
 10
128.2738889427094
 20
355.0004478016783
 30
0.0000000000000000
 11
128.2738889427094
 21
348.6355330979811
 31
0.0000000000000000
  0
ARC
  5
6B
100
AcDbEntity
  8
MAIN0
  6
HIDDEN
 62
3
100
AcDbCircle
 10
142.3738889427094
 20
355.0004478016783
 30
0.0000000000000000
 40
1.000000000000000
100
AcDbArc
 50
120.0000000000873
 51
180.0000000000000
  0
ARC
  5
6C
100
AcDbEntity
  8
MAIN0
  6
HIDDEN
 62
3
100
AcDbCircle
 10
127.2738889427094
 20
355.0004478016783
 30
0.0000000000000000
 40
1.000000000000000
100
AcDbArc
 50
0.0000000000000000
 51
59.99999999991231
  0
LINE
  5
6D
100
AcDbEntity
  8
MAIN0
  6
HIDDEN
 62
3
100
AcDbLine
 10
135.3675588810997
 20
355.0004478017770
 30
0.0000000000000000
 11
135.3675588810988
 21
348.6355330979826
 31
0.0000000000000000
  0
LINE
  5
6E
100
AcDbEntity
  8
MAIN0
  6
HIDDEN
 62
3
100
AcDbLine
 10
134.2802190043190
 20
355.0004478017766
 30
0.0000000000000000
 11
134.2802190043199
 21
348.6355330979823
 31
0.0000000000000000
  0
LINE
  5
6F
100
AcDbEntity
  8
MAIN0
  6
HIDDEN
 62
3
100
AcDbLine
 10
128.2738889427094
 20
355.0004478017742
 30
0.0000000000000000
 11
134.2802190043190
 21
355.0004478017766
 31
0.0000000000000000
  0
LINE
  5
70
100
AcDbEntity
  8
MAIN0
  6
HIDDEN
 62
3
100
AcDbLine
 10
135.3675588810997
 20
355.0004478017770
 30
0.0000000000000000
 11
141.3738889427094
 21
355.0004478017793
 31
0.0000000000000000
  0
LINE
  5
71
100
AcDbEntity
  8
MAIN0
  6
HIDDEN
 62
3
100
AcDbLine
 10
128.2738889427094
 20
355.0004478017742
 30
0.0000000000000000
 11
131.2770539735144
 21
348.6355330979817
 31
0.0000000000000000
  0
LINE
  5
72
100
AcDbEntity
  8
MAIN0
  6
HIDDEN
 62
3
100
AcDbLine
 10
131.2770539735144
 20
348.6355330979817
 30
0.0000000000000000
 11
134.2802190043191
 21
355.0004478017766
 31
0.0000000000000000
  0
LINE
  5
73
100
AcDbEntity
  8
MAIN0
  6
HIDDEN
 62
3
100
AcDbLine
 10
135.3675588810997
 20
355.0004478017770
 30
0.0000000000000000
 11
138.3707239119038
 21
348.6355330979831
 31
0.0000000000000000
  0
LINE
  5
74
100
AcDbEntity
  8
MAIN0
  6
HIDDEN
 62
3
100
AcDbLine
 10
138.3707239119038
 20
348.6355330979831
 30
0.0000000000000000
 11
141.3738889427094
 21
355.0004478017793
 31
0.0000000000000000
  0
LINE
  5
75
100
AcDbEntity
  8
MAIN0
  6
CONTINUOUS
 62
3
100
AcDbLine
 10
175.8238889427106
 20
193.1206183941865
 30
0.0000000000000000
 11
174.2238889427104
 21
191.5206183941862
 31
0.0000000000000000
  0
LINE
  5
76
100
AcDbEntity
  8
MAIN0
  6
HIDDEN
 62
3
100
AcDbLine
 10
362.9735533684607
 20
270.0655753063545
 30
0.0000000000000000
 11
418.4088020371322
 21
302.0711310478057
 31
0.0000000000000000
  0
LINE
  5
77
100
AcDbEntity
  8
MAIN0
  6
HIDDEN
 62
3
100
AcDbLine
 10
348.4735533684608
 20
295.1803120161032
 30
0.0000000000000000
 11
403.9088020371321
 21
327.1858677575544
 31
0.0000000000000000
  0
LINE
  5
78
100
AcDbEntity
  8
MAIN0
  6
CENTER
 62
3
100
AcDbLine
 10
265.0883173575595
 20
230.2946657522698
 30
0.0000000000000000
 11
420.3094605278594
 21
319.9116345455637
 31
0.0000000000000000
  0
CIRCLE
  5
79
100
AcDbEntity
  8
MAIN0
  6
HIDDEN
 62
3
100
AcDbCircle
 10
340.8238889427094
 20
274.0206183941862
 30
0.0000000000000000
 40
65.49999999999997
  0
CIRCLE
  5
7A
100
AcDbEntity
  8
MAIN0
  6
HIDDEN
 62
3
100
AcDbCircle
 10
340.8238889427094
 20
274.0206183941862
 30
0.0000000000000000
 40
39.00000000000003
  0
LINE
  5
7B
100
AcDbEntity
  8
MAIN0
  6
CENTER
 62
3
100
AcDbLine
 10
330.5007211611281
 20
297.2068328548647
 30
0.0000000000000000
 11
322.1852590271233
 21
315.8836665998020
 31
0.0000000000000000
  0
ARC
  5
7C
100
AcDbEntity
  8
MAIN0
  6
CENTER
 62
3
100
AcDbCircle
 10
340.8238889427094
 20
274.0206183941862
 30
0.0000000000000000
 40
35.49999999999997
100
AcDbArc
 50
97.04729142390643
 51
128.5187220194371
  0
CIRCLE
  5
7D
100
AcDbEntity
  8
MAIN0
  6
CONTINUOUS
 62
3
100
AcDbCircle
 10
326.3847381135340
 20
306.4514821405048
 30
0.0000000000000000
 40
7.500000000000000
  0
LINE
  5
7E
100
AcDbEntity
  8
MAIN0
  6
HIDDEN
 62
3
100
AcDbLine
 10
354.8238889427094
 20
355.3240623556815
 30
0.0000000000000000
 11
354.8238889427094
 21
338.0069450585604
 31
0.0000000000000000
  0
LINE
  5
7F
100
AcDbEntity
  8
MAIN0
  6
HIDDEN
 62
3
100
AcDbLine
 10
326.8238889427094
 20
355.3240623556815
 30
0.0000000000000000
 11
326.8238889427094
 21
338.0069450585604
 31
0.0000000000000000
  0
ARC
  5
80
100
AcDbEntity
  8
MAIN0
  6
CENTER
 62
3
100
AcDbCircle
 10
340.8238889427094
 20
274.0206183941862
 30
0.0000000000000000
 40
72.50000000000000
100
AcDbArc
 50
94.01668862907040
 51
105.7716740475642
  0
LINE
  5
81
100
AcDbEntity
  8
MAIN0
  6
CENTER
 62
3
100
AcDbLine
 10
328.3238889427094
 20
351.6562326288575
 30
0.0000000000000000
 11
328.3238889427094
 21
339.8101044559325
 31
0.0000000000000000
  0
LINE
  5
82
100
AcDbEntity
  8
MAIN0
  6
HIDDEN
 62
3
100
AcDbLine
 10
263.4130410568899
 20
245.4932520664207
 30
0.0000000000000000
 11
278.4101045565118
 21
254.1518107149813
 31
0.0000000000000000
  0
LINE
  5
83
100
AcDbEntity
  8
MAIN0
  6
HIDDEN
 62
3
100
AcDbLine
 10
277.4130410568899
 20
221.2445407604564
 30
0.0000000000000000
 11
292.4101045565118
 21
229.9030994090170
 31
0.0000000000000000
  0
ARC
  5
84
100
AcDbEntity
  8
MAIN0
  6
CENTER
 62
3
100
AcDbCircle
 10
340.8238889427094
 20
274.0206183941862
 30
0.0000000000000000
 40
72.50000000000000
100
AcDbArc
 50
214.0166886290704
 51
229.6195312992333
  0
LINE
  5
85
100
AcDbEntity
  8
MAIN0
  6
CENTER
 62
3
100
AcDbLine
 10
279.8394747770752
 20
224.3774937295451
 30
0.0000000000000000
 11
290.0985227113149
 21
230.3005578160076
 31
0.0000000000000000
  0
CIRCLE
  5
86
100
AcDbEntity
  8
MAIN0
  6
HIDDEN
 62
3
100
AcDbCircle
 10
285.2273045584444
 20
227.4881587041665
 30
0.0000000000000000
 40
4.000000000000000
  0
CIRCLE
  5
87
100
AcDbEntity
  8
MAIN0
  6
HIDDEN
 62
3
100
AcDbCircle
 10
285.2273045584444
 20
227.4881587041665
 30
0.0000000000000000
 40
3.400000000000000
  0
LINE
  5
88
100
AcDbEntity
  8
MAIN0
  6
HIDDEN
 62
3
100
AcDbLine
 10
404.2347368285288
 20
221.2445407604565
 30
0.0000000000000000
 11
389.2376733289069
 21
229.9030994090171
 31
0.0000000000000000
  0
LINE
  5
89
100
AcDbEntity
  8
MAIN0
  6
HIDDEN
 62
3
100
AcDbLine
 10
418.2347368285288
 20
245.4932520664207
 30
0.0000000000000000
 11
403.2376733289069
 21
254.1518107149813
 31
0.0000000000000000
  0
ARC
  5
8A
100
AcDbEntity
  8
MAIN0
  6
CENTER
 62
3
100
AcDbCircle
 10
340.8238889427095
 20
274.0206183941862
 30
0.0000000000000000
 40
72.50000000000000
100
AcDbArc
 50
334.0166886290704
 51
345.7716740475642
  0
LINE
  5
8B
100
AcDbEntity
  8
MAIN0
  6
CENTER
 62
3
100
AcDbLine
 10
414.3083031083436
 20
246.0281288241560
 30
0.0000000000000000
 11
404.0492551741038
 21
251.9511929106186
 31
0.0000000000000000
  0
CIRCLE
  5
8C
100
AcDbEntity
  8
MAIN0
  6
HIDDEN
 62
3
100
AcDbCircle
 10
408.9204733269743
 20
249.1387937987774
 30
0.0000000000000000
 40
4.000000000000000
  0
CIRCLE
  5
8D
100
AcDbEntity
  8
MAIN0
  6
HIDDEN
 62
3
100
AcDbCircle
 10
408.9204733269743
 20
249.1387937987774
 30
0.0000000000000000
 40
3.400000000000000
  0
MTEXT
  5
8E
100
AcDbEntity
  8
MAIN0
  6
CONTINUOUS
 62
3
100
AcDbMText
 10
358.3556715381495
 20
201.7023677101262
 30
0.0000000000000000
 40
4.649999856948853
 41
0.0000000000000000
 71
     1
 72
     1
  1
{\H0.67x;{1}}
 11
1.000000000000000
 21
0.0000000000000000
 31
0.0000000000000000
  7
STANDARD
  0
MTEXT
  5
8F
100
AcDbEntity
  8
MAIN0
  6
CONTINUOUS
 62
3
100
AcDbMText
 10
394.6874398946367
 20
325.3627128374933
 30
0.0000000000000000
 40
4.649999856948853
 41
0.0000000000000000
 71
     1
 72
     1
  1
{\H0.67x;{2}}
 11
-0.4999999999999998
 21
0.8660254037844387
 31
0.0000000000000000
  7
STANDARD
  0
MTEXT
  5
90
100
AcDbEntity
  8
MAIN0
  6
CONTINUOUS
 62
3
100
AcDbMText
 10
269.4285553953420
 20
294.9967746349392
 30
0.0000000000000000
 40
4.649999856948853
 41
0.0000000000000000
 71
     1
 72
     1
  1
{\H0.67x;{3}}
 11
-0.5000000000000004
 21
-0.8660254037844384
 31
0.0000000000000000
  7
STANDARD
  0
LINE
  5
91
100
AcDbEntity
  8
MAIN0
  6
CENTER
 62
3
100
AcDbLine
 10
123.6449370108994
 20
409.0206183941884
 30
0.0000000000000000
 11
145.8643439200880
 21
409.0206183941841
 31
0.0000000000000000
  0
LINE
  5
92
100
AcDbEntity
  8
MAIN0
  6
CONTINUOUS
 62
3
100
AcDbLine
 10
141.3512868161411
 20
409.5642883326163
 30
0.0000000000000000
 11
135.3675588811407
 21
415.5480162676238
 31
0.0000000000000000
  0
LINE
  5
93
100
AcDbEntity
  8
MAIN0
  6
CONTINUOUS
 62
3
100
AcDbLine
 10
141.3512868161409
 20
408.4769484557536
 30
0.0000000000000000
 11
135.3675588811382
 21
402.4932205207485
 31
0.0000000000000000
  0
ARC
  5
94
100
AcDbEntity
  8
MAIN0
  6
CONTINUOUS
 62
3
100
AcDbCircle
 10
134.8238889427094
 20
409.0206183941862
 30
0.0000000000000000
 40
6.550000000000000
100
AcDbArc
 50
355.2387981259365
 51
364.7612018740410
  0
ARC
  5
95
100
AcDbEntity
  8
MAIN0
  6
CONTINUOUS
 62
3
100
AcDbCircle
 10
134.8238889427094
 20
409.0206183941862
 30
0.0000000000000000
 40
6.550000000000000
100
AcDbArc
 50
265.2387981259137
 51
274.7612018740863
  0
LINE
  5
96
100
AcDbEntity
  8
MAIN0
  6
CONTINUOUS
 62
3
100
AcDbLine
 10
128.2964910692778
 20
408.4769484557536
 30
0.0000000000000000
 11
134.2802190042806
 21
402.4932205207485
 31
0.0000000000000000
  0
ARC
  5
97
100
AcDbEntity
  8
MAIN0
  6
CONTINUOUS
 62
3
100
AcDbCircle
 10
134.8238889427094
 20
409.0206183941862
 30
0.0000000000000000
 40
6.550000000000000
100
AcDbArc
 50
175.2387981259133
 51
184.7612018740635
  0
LINE
  5
98
100
AcDbEntity
  8
MAIN0
  6
CONTINUOUS
 62
3
100
AcDbLine
 10
128.2964910692780
 20
409.5642883326215
 30
0.0000000000000000
 11
134.2802190042831
 21
415.5480162676242
 31
0.0000000000000000
  0
ARC
  5
99
100
AcDbEntity
  8
MAIN0
  6
CONTINUOUS
 62
3
100
AcDbCircle
 10
134.8238889427094
 20
409.0206183941862
 30
0.0000000000000000
 40
6.550000000000000
100
AcDbArc
 50
85.23879812589122
 51
94.76120187406400
  0
LINE
  5
9A
100
AcDbEntity
  8
MAIN0
  6
CENTER
 62
3
100
AcDbLine
 10
134.8238889427094
 20
419.2023325336966
 30
0.0000000000000000
 11
134.8238889427094
 21
399.5969755266342
 31
0.0000000000000000
  0
DIMENSION
  5
A4
100
AcDbEntity
  8
MAIN0
  6
CONTINUOUS
 62
3
100
AcDbDimension
  2
*D0
 10
148.8594228486400
 20
402.0561523001132
 30
0.0000000000000000
 11
154.9120986449933
 21
409.1694882682386
 31
0.0000000000000000
 70
161
  3
MAIN001
100
AcDbAlignedDimension
 13
134.2802190042806
 23
402.4932205207485
 33
0.0000000000000000
 14
141.3512868161411
 24
409.5642883326163
 34
0.0000000000000000
 50
44.99999999996580
1001
ACAD
1000
DSTYLE
1002
{
1070
   173
1070
     1
1070
     6
1000
_OPEN
1070
     7
1000
_OPEN
1070
    41
1040
3.000000
1070
   272
1070
     2
1070
    47
1040
0.150000
1070
    48
1040
-0.050000
1070
    71
1070
     1
1070
   340
1005
A5
1002
}
  0
ARC
  5
A6
100
AcDbEntity
  8
MAIN0
  6
CONTINUOUS
 62
3
100
AcDbCircle
 10
340.8238889427094
 20
274.0206183941862
 30
0.0000000000000000
 40
22.50000000000000
100
AcDbArc
 50
43.33562463844756
 51
136.6643216646731
  0
ARC
  5
A7
100
AcDbEntity
  8
MAIN0
  6
CONTINUOUS
 62
3
100
AcDbCircle
 10
340.8238889427094
 20
274.0206183941862
 30
0.0000000000000000
 40
22.50000000000000
100
AcDbArc
 50
163.3356783346040
 51
256.6643236918291
  0
ARC
  5
A8
100
AcDbEntity
  8
MAIN0
  6
CONTINUOUS
 62
3
100
AcDbCircle
 10
340.8238889427094
 20
274.0206183941862
 30
0.0000000000000000
 40
22.50000000000000
100
AcDbArc
 50
283.3356246384475
 51
376.6643236918290
  0
LINE
  5
A9
100
AcDbEntity
  8
MAIN0
  6
HIDDEN
 62
3
100
AcDbLine
 10
333.1742245169581
 20
295.1803120161032
 30
0.0000000000000000
 11
277.7389758482867
 21
327.1858677575546
 31
0.0000000000000000
  0
LINE
  5
AA
100
AcDbEntity
  8
MAIN0
  6
HIDDEN
 62
3
100
AcDbLine
 10
318.6742245169580
 20
270.0655753063547
 30
0.0000000000000000
 11
263.2389758482867
 21
302.0711310478059
 31
0.0000000000000000
  0
LINE
  5
AB
100
AcDbEntity
  8
MAIN0
  6
HIDDEN
 62
3
100
AcDbLine
 10
326.3238889427094
 20
256.8159678601010
 30
0.0000000000000000
 11
326.3238889427093
 21
192.8048563771984
 31
0.0000000000000000
  0
LINE
  5
AC
100
AcDbEntity
  8
MAIN0
  6
HIDDEN
 62
3
100
AcDbLine
 10
355.3238889427093
 20
256.8159678601009
 30
0.0000000000000000
 11
355.3238889427092
 21
192.8048563771984
 31
0.0000000000000000
  0
LINE
  5
AD
100
AcDbEntity
  8
MAIN0
  6
CENTER
 62
3
100
AcDbLine
 10
100.8238889427094
 20
274.0206183941862
 30
0.0000000000000000
 11
220.8238889427094
 21
274.0206183941862
 31
0.0000000000000000
  0
LINE
  5
AE
100
AcDbEntity
  8
MAIN0
  6
CONTINUOUS
 62
3
100
AcDbLine
 10
330.3238889427094
 20
254.1208696520538
 30
0.0000000000000000
 11
330.3238889427094
 21
249.0614481120484
 31
0.0000000000000000
  0
LINE
  5
AF
100
AcDbEntity
  8
MAIN0
  6
CONTINUOUS
 62
3
100
AcDbLine
 10
351.3238889427094
 20
254.1208696520538
 30
0.0000000000000000
 11
351.3238889427094
 21
249.0614320329720
 31
0.0000000000000000
  0
LINE
  5
B0
100
AcDbEntity
  8
MAIN0
  6
CENTER
 62
3
100
AcDbLine
 10
311.7366711460505
 20
324.4011574688213
 30
0.0000000000000000
 11
299.5738889427096
 21
345.4677142064026
 31
0.0000000000000000
  0
LINE
  5
B1
100
AcDbEntity
  8
MAIN0
  6
CENTER
 62
3
100
AcDbLine
 10
311.6698965556795
 20
223.5244223363738
 30
0.0000000000000000
 11
299.5738889427096
 21
202.5735225819698
 31
0.0000000000000000
  0
LINE
  5
B2
100
AcDbEntity
  8
MAIN0
  6
CENTER
 62
3
100
AcDbLine
 10
245.8238889427094
 20
274.0206183941862
 30
0.0000000000000000
 11
435.8238889427094
 21
274.0206183941862
 31
0.0000000000000000
  0
ARC
  5
B3
100
AcDbEntity
  8
MAIN0
  6
CENTER
 62
3
100
AcDbCircle
 10
340.8238889427094
 20
274.0206183941862
 30
0.0000000000000000
 40
72.50000000000000
100
AcDbArc
 50
110.5097817855557
 51
130.4873498942977
  0
ARC
  5
B4
100
AcDbEntity
  8
MAIN0
  6
CENTER
 62
3
100
AcDbCircle
 10
340.8238889427094
 20
274.0206183941862
 30
0.0000000000000000
 40
72.50000000000000
100
AcDbArc
 50
229.8094665017988
 51
250.1085641750385
  0
ARC
  5
B5
100
AcDbEntity
  8
MAIN0
  6
CENTER
 62
3
100
AcDbCircle
 10
340.8238889427094
 20
274.0206183941862
 30
0.0000000000000000
 40
72.50000000000000
100
AcDbArc
 50
349.6738907674655
 51
369.9267808078271
  0
LINE
  5
B6
100
AcDbEntity
  8
MAIN0
  6
CENTER
 62
3
100
AcDbLine
 10
105.8238889427094
 20
346.5206183941862
 30
0.0000000000000000
 11
180.8238889427094
 21
346.5206183941862
 31
0.0000000000000000
  0
LINE
  5
B7
100
AcDbEntity
  8
MAIN0
  6
CONTINUOUS
 62
3
100
AcDbLine
 10
110.8238889427094
 20
209.0206183941862
 30
0.0000000000000000
 11
110.8238889427094
 21
193.1206183941865
 31
0.0000000000000000
  0
LINE
  5
B8
100
AcDbEntity
  8
MAIN0
  6
CONTINUOUS
 62
3
100
AcDbLine
 10
110.8238889427094
 20
354.9206183941858
 30
0.0000000000000000
 11
110.8238889427094
 21
209.0206183941862
 31
0.0000000000000000
  0
LINE
  5
B9
100
AcDbEntity
  8
MAIN0
  6
CONTINUOUS
 62
3
100
AcDbLine
 10
124.3238889427094
 20
251.5206183941862
 30
0.0000000000000000
 11
124.3238889427094
 21
234.0206183941862
 31
0.0000000000000000
  0
LINE
  5
BA
100
AcDbEntity
  8
MAIN0
  6
CONTINUOUS
 62
3
100
AcDbLine
 10
124.3238889427094
 20
314.0206183941862
 30
0.0000000000000000
 11
124.3238889427094
 21
251.5206183941862
 31
0.0000000000000000
  0
CIRCLE
  5
BB
100
AcDbEntity
  8
MAIN0
  6
CONTINUOUS
 62
3
100
AcDbCircle
 10
304.5738889427095
 20
336.8074601685581
 30
0.0000000000000000
 40
8.500000000000000
  0
CIRCLE
  5
BC
100
AcDbEntity
  8
MAIN0
  6
CONTINUOUS
 62
3
100
AcDbCircle
 10
304.5738889427095
 20
336.8074601685581
 30
0.0000000000000000
 40
6.000000000000000
  0
CIRCLE
  5
BD
100
AcDbEntity
  8
MAIN0
  6
CONTINUOUS
 62
3
100
AcDbCircle
 10
304.5738889427096
 20
211.2337766198143
 30
0.0000000000000000
 40
6.000000000000000
  0
CIRCLE
  5
BE
100
AcDbEntity
  8
MAIN0
  6
CONTINUOUS
 62
3
100
AcDbCircle
 10
304.5738889427096
 20
211.2337766198143
 30
0.0000000000000000
 40
8.500000000000000
  0
CIRCLE
  5
BF
100
AcDbEntity
  8
MAIN0
  6
CONTINUOUS
 62
3
100
AcDbCircle
 10
413.3238889427094
 20
274.0206183941862
 30
0.0000000000000000
 40
6.000000000000000
  0
CIRCLE
  5
C0
100
AcDbEntity
  8
MAIN0
  6
CONTINUOUS
 62
3
100
AcDbCircle
 10
413.3238889427094
 20
274.0206183941862
 30
0.0000000000000000
 40
8.500000000000000
  0
DIMENSION
  5
C9
100
AcDbEntity
  8
MAIN0
  6
CONTINUOUS
 62
3
100
AcDbDimension
  2
*D1
 10
95.82388894270937
 20
251.5206183941862
 30
0.0000000000000000
 11
95.32388894270937
 21
271.5453770585790
 31
0.0000000000000000
 70
160
  1
\A1;\U+220545
  3
MAIN001
100
AcDbAlignedDimension
 13
124.3238889427094
 23
296.5206183941862
 33
0.0000000000000000
 14
124.3238889427094
 24
251.5206183941862
 34
0.0000000000000000
 50
90.00000000000000
100
AcDbRotatedDimension
1001
ACAD
1000
DSTYLE
1002
{
1070
   173
1070
     1
1070
     6
1000
_OPEN
1070
     7
1000
_OPEN
1070
    41
1040
3.000000
1002
}
  0
DIMENSION
  5
D2
100
AcDbEntity
  8
MAIN0
  6
CONTINUOUS
 62
3
100
AcDbDimension
  2
*D2
 10
80.82388894270937
 20
339.0206183941862
 30
0.0000000000000000
 11
80.32388894270937
 21
276.2866797665846
 31
0.0000000000000000
 70
160
  1
\A1;\U+2205130H6\H0.903226x;\S＋0.025^ 　0;
  3
MAIN001
100
AcDbAlignedDimension
 13
110.8238889427094
 23
209.0206183941862
 33
0.0000000000000000
 14
110.8238889427094
 24
339.0206183941862
 34
0.0000000000000000
 50
90.00000000000000
100
AcDbRotatedDimension
1001
ACAD
1000
DSTYLE
1002
{
1070
   173
1070
     1
1070
     6
1000
_OPEN
1070
     7
1000
_OPEN
1070
    41
1040
3.000000
1070
   272
1070
     3
1070
    47
1040
0.025000
1070
    48
1040
0.000000
1070
    71
1070
     1
1070
   340
1005
A5
1002
}
  0
LINE
  5
D3
100
AcDbEntity
  8
MAIN0
  6
HIDDEN
 62
3
100
AcDbLine
 10
111.2238889427094
 20
352.5206183941862
 30
0.0000000000000000
 11
163.8238889427094
 21
352.5206183941862
 31
0.0000000000000000
  0
LINE
  5
D4
100
AcDbEntity
  8
MAIN0
  6
HIDDEN
 62
3
100
AcDbLine
 10
111.2238889427094
 20
340.5206183941862
 30
0.0000000000000000
 11
163.8238889427094
 21
340.5206183941862
 31
0.0000000000000000
  0
LINE
  5
D5
100
AcDbEntity
  8
MAIN0
  6
HIDDEN
 62
3
100
AcDbLine
 10
111.2238889427094
 20
352.5206183941862
 30
0.0000000000000000
 11
110.8238889427094
 21
352.9206183941863
 31
0.0000000000000000
  0
LINE
  5
D6
100
AcDbEntity
  8
MAIN0
  6
HIDDEN
 62
3
100
AcDbLine
 10
111.2238889427094
 20
340.5206183941862
 30
0.0000000000000000
 11
110.8238889427094
 21
340.1206183941862
 31
0.0000000000000000
  0
DIMENSION
  5
DC
100
AcDbEntity
  8
MAIN0
  6
CONTINUOUS
 62
3
100
AcDbDimension
  2
*D3
 10
290.5440682394909
 20
221.7885436694329
 30
0.0000000000000000
 11
302.6325080933988
 21
235.0673160361027
 31
0.0000000000000000
 70
163
  3
MAIN001
100
AcDbDiametricDimension
 15
391.1037096459277
 25
326.2526931189395
 35
0.0000000000000000
1001
ACAD
1000
DSTYLE
1002
{
1070
   287
1070
     2
1070
   173
1070
     1
1070
     6
1000
_OPEN
1070
     7
1000
_NONE
1070
    41
1040
3.000000
1070
   272
1070
     1
1070
    47
1040
0.200000
1070
    48
1040
0.200000
1070
    71
1070
     1
1002
}
  0
LINE
  5
DD
100
AcDbEntity
  8
MAIN0
  6
CONTINUOUS
 62
3
100
AcDbLine
 10
328.8402010030959
 20
293.0637595049887
 30
0.0000000000000000
 11
324.4586139673112
 21
295.5934699595768
 31
0.0000000000000000
  0
LINE
  5
DE
100
AcDbEntity
  8
MAIN0
  6
CONTINUOUS
 62
3
100
AcDbLine
 10
318.3402010030956
 20
274.8772260255156
 30
0.0000000000000000
 11
313.9586139671093
 21
277.4069364802201
 31
0.0000000000000000
  0
ARC
  5
DF
100
AcDbEntity
  8
MAIN0
  6
CONTINUOUS
 62
3
100
AcDbCircle
 10
340.8238889427094
 20
274.0206183941862
 30
0.0000000000000000
 40
82.50000000000000
100
AcDbArc
 50
37.60399079233688
 51
142.3960356606455
  0
ARC
  5
E0
100
AcDbEntity
  8
MAIN0
  6
CONTINUOUS
 62
3
100
AcDbCircle
 10
340.8238889427094
 20
274.0206183941862
 30
0.0000000000000000
 40
82.50000000000000
100
AcDbArc
 50
277.6039907923370
 51
382.3955892790765
  0
ARC
  5
E1
100
AcDbEntity
  8
MAIN0
  6
CONTINUOUS
 62
3
100
AcDbCircle
 10
340.8238889427094
 20
274.0206183941862
 30
0.0000000000000000
 40
82.50000000000000
100
AcDbArc
 50
157.6039643395495
 51
262.3955892790765
  0
LINE
  5
E2
100
AcDbEntity
  8
MAIN0
  6
CONTINUOUS
 62
3
100
AcDbLine
 10
357.1891783893108
 20
295.5934783145299
 30
0.0000000000000000
 11
352.8075768823234
 21
293.0637595049890
 31
0.0000000000000000
  0
LINE
  5
E3
100
AcDbEntity
  8
MAIN0
  6
CONTINUOUS
 62
3
100
AcDbLine
 10
367.6891644644222
 20
277.4069367955185
 30
0.0000000000000000
 11
363.3075768823234
 21
274.8772260255159
 31
0.0000000000000000
  0
LINE
  5
E4
100
AcDbEntity
  8
MAIN0
  6
PHANTOM
 62
3
100
AcDbLine
 10
214.8238889427094
 20
287.0206183941862
 30
0.0000000000000000
 11
177.8238889427094
 21
287.0206183941862
 31
0.0000000000000000
  0
LINE
  5
E5
100
AcDbEntity
  8
MAIN0
  6
PHANTOM
 62
3
100
AcDbLine
 10
214.8238889427094
 20
261.0206183941862
 30
0.0000000000000000
 11
177.8238889427094
 21
261.0206183941862
 31
0.0000000000000000
  0
LINE
  5
E6
100
AcDbEntity
  8
MAIN0
  6
PHANTOM
 62
3
100
AcDbLine
 10
214.8238889427094
 20
261.0206183941862
 30
0.0000000000000000
 11
214.8238889427094
 21
287.0206183941862
 31
0.0000000000000000
  0
LINE
  5
E7
100
AcDbEntity
  8
MAIN0
  6
PHANTOM
 62
3
100
AcDbLine
 10
177.8238889427094
 20
284.5206183941862
 30
0.0000000000000000
 11
177.8238889427094
 21
287.0206183941862
 31
0.0000000000000000
  0
LINE
  5
E8
100
AcDbEntity
  8
MAIN0
  6
PHANTOM
 62
3
100
AcDbLine
 10
177.8238889427094
 20
261.0206183941862
 30
0.0000000000000000
 11
177.8238889427094
 21
263.5206183941862
 31
0.0000000000000000
  0
LINE
  5
E9
100
AcDbEntity
  8
MAIN0
  6
PHANTOM
 62
3
100
AcDbLine
 10
183.8238889427094
 20
277.4906183941862
 30
0.0000000000000000
 11
180.8238889427094
 21
277.4906183941862
 31
0.0000000000000000
  0
LINE
  5
EA
100
AcDbEntity
  8
MAIN0
  6
PHANTOM
 62
3
100
AcDbLine
 10
183.8238889427094
 20
270.5506183941862
 30
0.0000000000000000
 11
180.8238889427093
 21
270.5506183941862
 31
0.0000000000000000
  0
LINE
  5
EB
100
AcDbEntity
  8
MAIN0
  6
PHANTOM
 62
3
100
AcDbLine
 10
183.8238889427094
 20
270.5506183941862
 30
0.0000000000000000
 11
183.8238889427094
 21
277.4906183941862
 31
0.0000000000000000
  0
LINE
  5
EC
100
AcDbEntity
  8
MAIN0
  6
PHANTOM
 62
3
100
AcDbLine
 10
180.8238889427094
 20
277.4906183941862
 30
0.0000000000000000
 11
180.8238889427094
 21
287.0206183941862
 31
0.0000000000000000
  0
LINE
  5
ED
100
AcDbEntity
  8
MAIN0
  6
PHANTOM
 62
3
100
AcDbLine
 10
180.8238889427094
 20
261.0206183941862
 30
0.0000000000000000
 11
180.8238889427094
 21
270.5506183941862
 31
0.0000000000000000
  0
LINE
  5
EE
100
AcDbEntity
  8
MAIN0
  6
CONTINUOUS
 62
3
100
AcDbLine
 10
178.3435041850706
 20
256.1885675866336
 30
0.0000000000000000
 11
178.8238889427906
 21
257.0206183941862
 31
0.0000000000000000
  0
LINE
  5
EF
100
AcDbEntity
  8
MAIN0
  6
CONTINUOUS
 62
3
100
AcDbLine
 10
176.8238889428095
 20
257.0206183941862
 30
0.0000000000000000
 11
177.3042737005293
 21
256.1885675866337
 31
0.0000000000000000
  0
ARC
  5
F0
100
AcDbEntity
  8
MAIN0
  6
CONTINUOUS
 62
3
100
AcDbCircle
 10
177.8238889427999
 20
256.4885675866336
 30
0.0000000000000000
 40
0.6000000000000000
100
AcDbArc
 50
209.9999999999958
 51
329.9999999999953
  0
LINE
  5
F1
100
AcDbEntity
  8
MAIN0
  6
CENTER
 62
3
100
AcDbLine
 10
170.8238889427094
 20
223.0206183941862
 30
0.0000000000000000
 11
185.8238889427094
 21
223.0206183941862
 31
0.0000000000000000
  0
LINE
  5
F2
100
AcDbEntity
  8
MAIN0
  6
CONTINUOUS
 62
3
100
AcDbLine
 10
180.8238889427519
 20
191.0206183941862
 30
0.0000000000000000
 11
180.8238889427504
 21
216.6806183941862
 31
0.0000000000000000
  0
LINE
  5
F3
100
AcDbEntity
  8
MAIN0
  6
CENTER
 62
3
100
AcDbLine
 10
165.8238889427094
 20
203.9706183941862
 30
0.0000000000000000
 11
200.8238889427094
 21
203.9706183941862
 31
0.0000000000000000
  0
LINE
  5
F4
100
AcDbEntity
  8
MAIN0
  6
CENTER
 62
3
100
AcDbLine
 10
165.8238889427094
 20
242.0706183941862
 30
0.0000000000000000
 11
220.8238889427094
 21
242.0706183941862
 31
0.0000000000000000
  0
LINE
  5
F5
100
AcDbEntity
  8
MAIN0
  6
CONTINUOUS
 62
3
100
AcDbLine
 10
180.8238889427497
 20
229.3606183941862
 30
0.0000000000000000
 11
180.8238889427481
 21
257.0206183941862
 31
0.0000000000000000
  0
LINE
  5
F6
100
AcDbEntity
  8
MAIN0
  6
CONTINUOUS
 62
3
100
AcDbLine
 10
180.8238889427519
 20
191.0206183941862
 30
0.0000000000000000
 11
180.8238889427504
 21
216.6806183941862
 31
0.0000000000000000
  0
LINE
  5
F7
100
AcDbEntity
  8
MAIN0
  6
CONTINUOUS
 62
3
100
AcDbLine
 10
177.3238889427497
 20
229.3606183941862
 30
0.0000000000000000
 11
177.3238889427504
 21
216.6806183941862
 31
0.0000000000000000
  0
LINE
  5
F8
100
AcDbEntity
  8
MAIN0
  6
CONTINUOUS
 62
3
100
AcDbLine
 10
178.8238889428089
 20
257.0206183941862
 30
0.0000000000000000
 11
180.8238889427481
 21
257.0206183941862
 31
0.0000000000000000
  0
DIMENSION
  5
101
100
AcDbEntity
  8
MAIN0
  6
CONTINUOUS
 62
3
100
AcDbDimension
  2
*D4
 10
230.8238889427094
 20
287.0206183941862
 30
0.0000000000000000
 11
230.3238889427094
 21
274.0206183941862
 31
0.0000000000000000
 70
32
  3
MAIN001
100
AcDbAlignedDimension
 13
214.8238889427094
 23
261.0206183941862
 33
0.0000000000000000
 14
214.8238889427094
 24
287.0206183941862
 34
0.0000000000000000
 50
90.00000000000000
100
AcDbRotatedDimension
1001
ACAD
1000
DSTYLE
1002
{
1070
   173
1070
     1
1070
     6
1000
_OPEN
1070
     7
1000
_OPEN
1070
    41
1040
3.000000
1002
}
  0
DIMENSION
  5
10A
100
AcDbEntity
  8
MAIN0
  6
CONTINUOUS
 62
3
100
AcDbDimension
  2
*D5
 10
230.8238889427094
 20
257.0206561042223
 30
0.0000000000000000
 11
230.3238889427094
 21
223.0206561042262
 31
0.0000000000000000
 70
32
  3
MAIN001
100
AcDbAlignedDimension
 13
196.7238977885608
 23
189.0206561042302
 33
0.0000000000000000
 14
214.2238977885796
 24
257.0206561042253
 34
0.0000000000000000
 50
90.00000000000000
100
AcDbRotatedDimension
1001
ACAD
1000
DSTYLE
1002
{
1070
   173
1070
     1
1070
     6
1000
_OPEN
1070
     7
1000
_OPEN
1070
    41
1040
3.000000
1002
}
  0
LINE
  5
10B
100
AcDbEntity
  8
MAIN0
  6
CENTER
 62
3
100
AcDbLine
 10
395.0583258802694
 20
242.7131109679368
 30
0.0000000000000000
 11
416.5615213820984
 21
230.2982352565188
 31
0.0000000000000000
  0
LINE
  5
10C
100
AcDbEntity
  8
MAIN0
  6
CENTER
 62
3
100
AcDbLine
 10
306.7609798114186
 20
283.9219464665345
 30
0.0000000000000000
 11
315.2360339795382
 21
298.6011708826372
 31
0.0000000000000000
  0
LINE
  5
10D
100
AcDbEntity
  8
MAIN0
  6
CENTER
 62
3
100
AcDbLine
 10
273.7784016899075
 20
302.9944453954126
 30
0.0000000000000000
 11
282.3154791407648
 21
317.7810972884274
 31
0.0000000000000000
  0
LINE
  5
10E
100
AcDbEntity
  8
MAIN0
  6
CENTER
 62
3
100
AcDbLine
 10
332.4746034539460
 20
201.4706097238811
 30
0.0000000000000000
 11
349.2810884704109
 21
201.4706097238745
 31
0.0000000000000000
  0
LINE
  5
10F
100
AcDbEntity
  8
MAIN0
  6
CENTER
 62
3
100
AcDbLine
 10
332.4746034539610
 20
239.5706097237019
 30
0.0000000000000000
 11
349.2810884704259
 21
239.5706097237052
 31
0.0000000000000000
  0
LINE
  5
110
100
AcDbEntity
  8
MAIN0
  6
CENTER
 62
3
100
AcDbLine
 10
399.2962084485471
 20
317.8436075141204
 30
0.0000000000000000
 11
407.9682946657351
 21
302.8231135783062
 31
0.0000000000000000
  0
LINE
  5
111
100
AcDbEntity
  8
MAIN0
  6
CENTER
 62
3
100
AcDbLine
 10
366.3006475266768
 20
298.7936115337374
 30
0.0000000000000000
 11
374.9727337439030
 21
283.7731175979455
 31
0.0000000000000000
  0
LINE
  5
112
100
AcDbEntity
  8
MAIN0
  6
CONTINUOUS
 62
3
100
AcDbLine
 10
183.8238977885613
 20
191.0206183941862
 30
0.0000000000000000
 11
183.8238977885684
 21
216.6806561042338
 31
0.0000000000000000
  0
LINE
  5
113
100
AcDbEntity
  8
MAIN0
  6
CONTINUOUS
 62
3
100
AcDbLine
 10
183.8238977885719
 20
229.3606561042338
 30
0.0000000000000000
 11
183.8238977885796
 21
257.0206561042338
 31
0.0000000000000000
  0
LINE
  5
114
100
AcDbEntity
  8
MAIN0
  6
CENTER
 62
3
100
AcDbLine
 10
261.3403782117985
 20
319.9152040498127
 30
0.0000000000000000
 11
378.7480835835843
 21
252.1298337484760
 31
0.0000000000000000
  0
LINE
  5
115
100
AcDbEntity
  8
MAIN0
  6
CONTINUOUS
 62
3
100
AcDbLine
 10
116.2238889427094
 20
339.0206183941862
 30
0.0000000000000000
 11
115.8238889427094
 21
338.6206183941862
 31
0.0000000000000000
  0
LINE
  5
116
100
AcDbEntity
  8
MAIN0
  6
CONTINUOUS
 62
3
100
AcDbLine
 10
115.8238889427094
 20
209.4206183941862
 30
0.0000000000000000
 11
116.2238889427094
 21
209.0206183941862
 31
0.0000000000000000
  0
ARC
  5
117
100
AcDbEntity
  8
MAIN0
  6
HIDDEN
 62
3
100
AcDbCircle
 10
183.5770179227289
 20
330.7169974059891
 30
0.0000000000000000
 40
41.00000000000000
100
AcDbArc
 50
147.9556106847829
 51
153.0940484756639
  0
ARC
  5
118
100
AcDbEntity
  8
MAIN0
  6
HIDDEN
 62
3
100
AcDbCircle
 10
86.07075996239715
 20
330.7169974064567
 30
0.0000000000000000
 40
41.00000000000000
100
AcDbArc
 50
26.90595152360332
 51
32.04438931444619
  0
DIMENSION
  5
121
100
AcDbEntity
  8
MAIN0
  6
CONTINUOUS
 62
3
100
AcDbDimension
  2
*D6
 10
416.5615213820984
 20
230.2982352565188
 30
0.0000000000000000
 11
389.3245265732300
 21
190.0198091576362
 31
0.0000000000000000
 70
162
  3
MAIN001
100
AcDb2LineAngularDimension
 13
340.8238889427094
 23
179.0206183941862
 33
0.0000000000000000
 14
340.8238889427094
 24
180.0206183941862
 34
0.0000000000000000
 15
415.6954959783139
 25
230.7982352565188
 35
0.0000000000000000
 16
389.5745265732300
 26
189.5867964557440
 36
0.0000000000000000
1001
ACAD
1000
DSTYLE
1002
{
1070
   173
1070
     1
1070
     6
1000
_OPEN
1070
     7
1000
_OPEN
1070
    41
1040
3.000000
1002
}
  0
DIMENSION
  5
12A
100
AcDbEntity
  8
MAIN0
  6
CONTINUOUS
 62
3
100
AcDbDimension
  2
*D7
 10
435.8238889427094
 20
274.0206183941862
 30
0.0000000000000000
 11
434.5189749803703
 21
248.9173045725466
 31
0.0000000000000000
 70
162
  3
MAIN001
100
AcDb2LineAngularDimension
 13
416.5615213820984
 23
230.2982352565188
 33
0.0000000000000000
 14
415.6954959783139
 24
230.7982352565188
 34
0.0000000000000000
 15
434.8238889427094
 25
274.0206183941862
 35
0.0000000000000000
 16
435.0019378935149
 26
248.7878950499954
 36
0.0000000000000000
1001
ACAD
1000
DSTYLE
1002
{
1070
   173
1070
     1
1070
     6
1000
_OPEN
1070
     7
1000
_OPEN
1070
    41
1040
3.000000
1002
}
  0
DIMENSION
  5
133
100
AcDbEntity
  8
MAIN0
  6
CONTINUOUS
 62
3
100
AcDbDimension
  2
*D8
 10
420.3094605278594
 20
319.9116345455638
 30
0.0000000000000000
 11
434.5186940927490
 21
299.1260657691307
 31
0.0000000000000000
 70
162
  3
MAIN001
100
AcDb2LineAngularDimension
 13
435.8238889427094
 23
274.0206183941862
 33
0.0000000000000000
 14
434.8238889427094
 24
274.0206183941862
 34
0.0000000000000000
 15
419.4434351240750
 25
319.4116345455638
 35
0.0000000000000000
 16
435.0016570058936
 26
299.2554752916819
 36
0.0000000000000000
1001
ACAD
1000
DSTYLE
1002
{
1070
   173
1070
     1
1070
     6
1000
_OPEN
1070
     7
1000
_OPEN
1070
    41
1040
3.000000
1002
}
  0
DIMENSION
  5
13C
100
AcDbEntity
  8
MAIN0
  6
CONTINUOUS
 62
3
100
AcDbDimension
  2
*D9
 10
340.8238889427094
 20
369.0206183941862
 30
0.0000000000000000
 11
389.8238889427094
 21
358.8911079650612
 31
0.0000000000000000
 70
162
  3
MAIN001
100
AcDb2LineAngularDimension
 13
420.3094605278594
 23
319.9116345455637
 33
0.0000000000000000
 14
419.4434351240749
 24
319.4116345455637
 34
0.0000000000000000
 15
340.8238889427094
 25
368.0206183941862
 35
0.0000000000000000
 16
389.5738889427094
 26
358.4580952631690
 36
0.0000000000000000
1001
ACAD
1000
DSTYLE
1002
{
1070
   173
1070
     1
1070
     6
1000
_OPEN
1070
     7
1000
_OPEN
1070
    41
1040
3.000000
1002
}
  0
DIMENSION
  5
145
100
AcDbEntity
  8
MAIN0
  6
CONTINUOUS
 62
3
100
AcDbDimension
  2
*D10
 10
322.1852590271233
 20
315.8836665998020
 30
0.0000000000000000
 11
320.4485432425504
 21
369.8790832660926
 31
0.0000000000000000
 70
162
  3
MAIN001
100
AcDb2LineAngularDimension
 13
340.8238889427094
 23
369.0206183941862
 33
0.0000000000000000
 14
340.8238889427094
 24
368.0206183941862
 34
0.0000000000000000
 15
322.5919956701999
 25
314.9701211421598
 35
0.0000000000000000
 16
320.5524990879596
 26
369.3900094657257
 36
0.0000000000000000
1001
ACAD
1000
DSTYLE
1002
{
1070
   173
1070
     1
1070
     6
1000
_OPEN
1070
     7
1000
_OPEN
1070
    41
1040
3.000000
1002
}
  0
ARC
  5
146
100
AcDbEntity
  8
MAIN0
  6
CONTINUOUS
 62
3
100
AcDbCircle
 10
340.8238889427094
 20
274.0206183941863
 30
0.0000000000000000
 40
64.20000000000000
100
AcDbArc
 50
138.3172525460618
 51
139.2600107555374
  0
ARC
  5
147
100
AcDbEntity
  8
MAIN0
  6
CONTINUOUS
 62
3
100
AcDbCircle
 10
340.8238889427094
 20
274.0206183941863
 30
0.0000000000000000
 40
64.20000000000000
100
AcDbArc
 50
160.7399743283827
 51
161.6827220739905
  0
ARC
  5
148
100
AcDbEntity
  8
MAIN0
  6
CONTINUOUS
 62
3
100
AcDbCircle
 10
340.8238889427094
 20
274.0206183941863
 30
0.0000000000000000
 40
42.80000000000000
100
AcDbArc
 50
166.3576243437718
 51
167.6822546147381
  0
ARC
  5
149
100
AcDbEntity
  8
MAIN0
  6
CONTINUOUS
 62
3
100
AcDbCircle
 10
340.8238889427094
 20
274.0206183941863
 30
0.0000000000000000
 40
42.80000000000000
100
AcDbArc
 50
132.3177062553272
 51
133.6423607401484
  0
ARC
  5
14A
100
AcDbEntity
  8
MAIN0
  6
CONTINUOUS
 62
3
100
AcDbCircle
 10
340.8238889427094
 20
274.0206183941863
 30
0.0000000000000000
 40
42.80000000000000
100
AcDbArc
 50
286.3576243437715
 51
287.6822546147380
  0
ARC
  5
14B
100
AcDbEntity
  8
MAIN0
  6
CONTINUOUS
 62
3
100
AcDbCircle
 10
340.8238889427094
 20
274.0206183941863
 30
0.0000000000000000
 40
42.80000000000000
100
AcDbArc
 50
252.3177062553271
 51
253.6423607401486
  0
ARC
  5
14C
100
AcDbEntity
  8
MAIN0
  6
CONTINUOUS
 62
3
100
AcDbCircle
 10
340.8238889427094
 20
274.0206183941863
 30
0.0000000000000000
 40
64.20000000000000
100
AcDbArc
 50
258.3172525460618
 51
259.2600107555375
  0
ARC
  5
14D
100
AcDbEntity
  8
MAIN0
  6
CONTINUOUS
 62
3
100
AcDbCircle
 10
340.8238889427094
 20
274.0206183941863
 30
0.0000000000000000
 40
64.20000000000000
100
AcDbArc
 50
280.7399743283826
 51
281.6827220739904
  0
ARC
  5
14E
100
AcDbEntity
  8
MAIN0
  6
CONTINUOUS
 62
3
100
AcDbCircle
 10
340.8238889427094
 20
274.0206183941863
 30
0.0000000000000000
 40
64.20000000000000
100
AcDbArc
 50
18.31725254606170
 51
19.26001075553732
  0
ARC
  5
14F
100
AcDbEntity
  8
MAIN0
  6
CONTINUOUS
 62
3
100
AcDbCircle
 10
340.8238889427094
 20
274.0206183941863
 30
0.0000000000000000
 40
64.20000000000000
100
AcDbArc
 50
40.73997432838281
 51
41.68272207399036
  0
MTEXT
  5
150
100
AcDbEntity
  8
MAIN0
  6
CONTINUOUS
 62
3
100
AcDbMText
 10
370.1790067092246
 20
236.8651738279584
 30
0.0000000000000000
 40
5.000000000000000
 41
0.0000000000000000
 71
     1
 72
     1
  1
{\H0.93x;{KITAGAWA}}
 11
0.5000000000000009
 21
0.8660254037844382
 31
0.0000000000000000
  7
STANDARD
  0
LINE
  5
151
100
AcDbEntity
  8
MAIN0
  6
CONTINUOUS
 62
3
100
AcDbLine
 10
375.3751591319313
 20
233.8651738279584
 30
0.0000000000000000
 11
392.8751591319315
 21
264.1760629604140
 31
0.0000000000000000
  0
MTEXT
  5
152
100
AcDbEntity
  8
MAIN0
  6
CONTINUOUS
 62
3
100
AcDbMText
 10
379.6355362110030
 20
232.5039428006670
 30
0.0000000000000000
 40
3.099999904632568
 41
0.0000000000000000
 71
     1
 72
     1
  1
{\H0.90x;{MAX.4000/min\P}
 11
0.5000000000000009
 21
0.8660254037844382
 31
0.0000000000000000
  7
STANDARD
  0
MTEXT
  5
153
100
AcDbEntity
  8
MAIN0
  6
CONTINUOUS
 62
3
100
AcDbMText
 10
390.1805633960670
 20
235.5161675987678
 30
0.0000000000000000
 40
4.000000000000000
 41
0.0000000000000000
 71
     1
 72
     1
  1
{\H0.92x;{JAPAN}}
 11
0.5000000000000009
 21
0.8660254037844382
 31
0.0000000000000000
  7
STANDARD
  0
MTEXT
  5
154
100
AcDbEntity
  8
MAIN0
  6
CONTINUOUS
 62
3
100
AcDbMText
 10
32.29318872789506
 20
78.49685480700015
 30
0.0000000000000000
 40
4.650000572204590
 41
0.0000000000000000
 71
     1
 72
     1
  1
{\H0.94x;{慣性モーメント}}
 11
1.000000000000000
 21
0.0000000000000000
 31
0.0000000000000000
  7
KNJYOKO
  0
MTEXT
  5
155
100
AcDbEntity
  8
MAIN0
  6
CONTINUOUS
 62
3
100
AcDbMText
 10
32.29318872789278
 20
70.84685280427419
 30
0.0000000000000000
 40
3.749998569488525
 41
0.0000000000000000
 71
     1
 72
     1
  1
{\H0.75x;{MOMENT OF INERTIA}}
 11
1.000000000000000
 21
0.0000000000000000
 31
0.0000000000000000
  7
STANDARD
  0
MTEXT
  5
156
100
AcDbEntity
  8
MAIN0
  6
CONTINUOUS
 62
3
100
AcDbMText
 10
106.5431887278932
 20
74.87185409168819
 30
0.0000000000000000
 40
4.649999856948853
 41
0.0000000000000000
 71
     1
 72
     1
  1
{\H0.92x;{0.033　}}
 11
1.000000000000000
 21
0.0000000000000000
 31
0.0000000000000000
  7
KNJYOKO
  0
MTEXT
  5
157
100
AcDbEntity
  8
MAIN0
  6
CONTINUOUS
 62
3
100
AcDbMText
 10
131.6550971276206
 20
73.27602375578806
 30
0.0000000000000000
 40
3.000000000000000
 41
0.0000000000000000
 71
     1
 72
     1
  1
{\H0.92x;{ｋｇ・ｍ}}
 11
1.000000000000000
 21
0.0000000000000000
 31
0.0000000000000000
  7
KNJYOKO
  0
MTEXT
  5
158
100
AcDbEntity
  8
MAIN0
  6
CONTINUOUS
 62
3
100
AcDbMText
 10
144.5622601735524
 20
75.05802840212846
 30
0.0000000000000000
 40
2.099999964237213
 41
0.0000000000000000
 71
     1
 72
     1
  1
{\H0.82x;{2}}
 11
1.000000000000000
 21
0.0000000000000000
 31
0.0000000000000000
  7
STANDARD
  0
MTEXT
  5
159
100
AcDbEntity
  8
MAIN0
  6
CONTINUOUS
 62
3
100
AcDbMText
 10
28.61110261935315
 20
42.59223173902547
 30
0.0000000000000000
 40
4.650000572204590
 41
0.0000000000000000
 71
     1
 72
     1
  1
{\H0.95x;{○上記仕様は許容最大ハンドルトルク締込時の場合}}
 11
1.000000000000000
 21
0.0000000000000000
 31
0.0000000000000000
  7
KNJYOKO
  0
MTEXT
  5
15A
100
AcDbEntity
  8
MAIN0
  6
CONTINUOUS
 62
3
100
AcDbMText
 10
34.38023022944194
 20
35.01345054688017
 30
0.0000000000000000
 40
4.649999856948853
 41
0.0000000000000000
 71
     1
 72
     1
  1
{\H0.69x;{AT MAX.PERMISSIBLE HANDLE TORQUE.}}
 11
1.000000000000000
 21
0.0000000000000000
 31
0.0000000000000000
  7
STANDARD
  0
MTEXT
  5
15B
100
AcDbEntity
  8
MAIN0
  6
CONTINUOUS
 62
3
100
AcDbMText
 10
365.4828542865180
 20
240.7311992317428
 30
0.0000000000000000
 40
4.000000000000000
 41
0.0000000000000000
 71
     1
 72
     1
  1
{JN06T102}
 11
0.5000000000000009
 21
0.8660254037844382
 31
0.0000000000000000
  7
STANDARD
  0
SPLINE
  5
15C
100
AcDbEntity
  8
MAIN0
  6
CONTINUOUS
 62
3
100
AcDbSpline
210
0.0000000000000000
220
0.0000000000000000
230
1.000000000000000
 70
     8
 71
     3
 72
    16
 73
    12
 74
     0
 42
1.000000000000000e-007
 43
1.000000000000000e-007
 12
0.06533898814197414
 22
-1.001699344595416
 32
0.0000000000000000
 13
0.05932645308728013
 23
-1.017598350881070
 33
0.0000000000000000
 40
0.0000000000000000
 40
0.0000000000000000
 40
0.0000000000000000
 40
0.0000000000000000
 40
17.09774925911028
 40
30.47969390934362
 40
43.22724269332559
 40
60.90491222298928
 40
83.54337506833282
 40
106.5922362115650
 40
119.3397849955470
 40
135.1511732963889
 40
167.7471853224021
 40
167.7471853224021
 40
167.7471853224021
 40
167.7471853224021
 10
118.3238889427094
 20
356.5206183941862
 30
0.0000000000000000
 10
118.6962721547412
 20
350.8116836518837
 30
0.0000000000000000
 10
119.3601096077124
 20
340.6345205143975
 30
0.0000000000000000
 10
123.4948545511448
 20
326.7724638134507
 30
0.0000000000000000
 10
126.2043825605972
 20
312.4150133830999
 30
0.0000000000000000
 10
128.7357375698254
 20
294.9224435274728
 30
0.0000000000000000
 10
130.3262913892375
 20
273.7302240917167
 30
0.0000000000000000
 10
134.4388580364489
 20
254.9845991110511
 30
0.0000000000000000
 10
140.3661690887109
 20
237.8748737645474
 30
0.0000000000000000
 10
129.2220072284220
 20
218.9969313361922
 30
0.0000000000000000
 10
130.1792870166115
 20
202.5771677551764
 30
0.0000000000000000
 10
130.8238889427094
 20
191.5206183941862
 30
0.0000000000000000
  0
LINE
  5
15D
100
AcDbEntity
  8
MAIN0
  6
CONTINUOUS
 62
3
100
AcDbLine
 10
112.4238889427097
 20
191.5206183941862
 30
0.0000000000000000
 11
174.2238889427104
 21
191.5206183941862
 31
0.0000000000000000
  0
LINE
  5
15E
100
AcDbEntity
  8
MAIN0
  6
CONTINUOUS
 62
3
100
AcDbLine
 10
175.8238889427106
 20
193.1206183941865
 30
0.0000000000000000
 11
175.8238889427094
 21
354.9206183941860
 31
0.0000000000000000
  0
DIMENSION
  5
167
100
AcDbEntity
  8
MAIN0
  6
CONTINUOUS
 62
3
100
AcDbDimension
  2
*D11
 10
190.8238889427094
 20
338.0206183941862
 30
0.0000000000000000
 11
190.3238889427094
 21
346.5206183941862
 31
0.0000000000000000
 70
32
  1
\A1;\U+220517
  3
MAIN001
100
AcDbAlignedDimension
 13
175.2238889427094
 23
355.0206183941862
 33
0.0000000000000000
 14
175.2238889427094
 24
338.0206183941862
 34
0.0000000000000000
 50
90.00000000000000
100
AcDbRotatedDimension
1001
ACAD
1000
DSTYLE
1002
{
1070
   173
1070
     1
1070
     6
1000
_OPEN
1070
     7
1000
_OPEN
1070
    41
1040
3.000000
1002
}
  0
DIMENSION
  5
172
100
AcDbEntity
  8
MAIN0
  6
CONTINUOUS
 62
3
100
AcDbDimension
  2
*D12
 10
95.82388894270937
 20
352.5206183941862
 30
0.0000000000000000
 11
95.32388894270937
 21
346.5206183941862
 31
0.0000000000000000
 70
32
  1
\A1;\U+220512
  3
MAIN001
100
AcDbAlignedDimension
 13
111.2238889427094
 23
340.5206183941862
 33
0.0000000000000000
 14
111.2238889427094
 24
352.5206183941862
 34
0.0000000000000000
 50
90.00000000000000
100
AcDbRotatedDimension
1001
ACAD
1000
DSTYLE
1002
{
1070
   173
1070
     1
1070
     6
1000
_OPEN
1070
     7
1000
_OPEN
1070
    41
1040
3.000000
1070
   287
1070
     0
1002
}
  0
DIMENSION
  5
17D
100
AcDbEntity
  8
MAIN0
  6
CONTINUOUS
 62
3
100
AcDbDimension
  2
*D13
 10
175.8238889427106
 20
364.0206183941862
 30
0.0000000000000000
 11
169.8238889427100
 21
364.5206183941862
 31
0.0000000000000000
 70
32
  3
MAIN001
100
AcDbAlignedDimension
 13
163.8238889427094
 23
355.0206183941862
 33
0.0000000000000000
 14
175.8238889427094
 24
354.9206183941860
 34
0.0000000000000000
100
AcDbRotatedDimension
1001
ACAD
1000
DSTYLE
1002
{
1070
   173
1070
     1
1070
     6
1000
_OPEN
1070
     7
1000
_OPEN
1070
    41
1040
3.000000
1070
   287
1070
     0
1002
}
  0
DIMENSION
  5
186
100
AcDbEntity
  8
MAIN0
  6
CONTINUOUS
 62
3
100
AcDbDimension
  2
*D14
 10
175.8238889427106
 20
374.0206183941862
 30
0.0000000000000000
 11
155.3238889427100
 21
374.5206183941862
 31
0.0000000000000000
 70
32
  3
MAIN001
100
AcDbAlignedDimension
 13
134.8238889427094
 23
361.5206183941862
 33
0.0000000000000000
 14
175.8238889427094
 24
354.9206183941860
 34
0.0000000000000000
100
AcDbRotatedDimension
1001
ACAD
1000
DSTYLE
1002
{
1070
   173
1070
     1
1070
     6
1000
_OPEN
1070
     7
1000
_OPEN
1070
    41
1040
3.000000
1002
}
  0
DIMENSION
  5
18F
100
AcDbEntity
  8
MAIN0
  6
CONTINUOUS
 62
3
100
AcDbDimension
  2
*D15
 10
134.8238889427094
 20
374.0206183941862
 30
0.0000000000000000
 11
122.8238889427094
 21
374.5206183941862
 31
0.0000000000000000
 70
32
  3
MAIN001
100
AcDbAlignedDimension
 13
110.8238889427094
 23
354.9206183941858
 33
0.0000000000000000
 14
134.8238889427094
 24
361.5206183941862
 34
0.0000000000000000
100
AcDbRotatedDimension
1001
ACAD
1000
DSTYLE
1002
{
1070
   173
1070
     1
1070
     6
1000
_OPEN
1070
     7
1000
_OPEN
1070
    41
1040
3.000000
1002
}
  0
DIMENSION
  5
198
100
AcDbEntity
  8
MAIN0
  6
CONTINUOUS
 62
3
100
AcDbDimension
  2
*D16
 10
110.8238889427094
 20
384.0206183941862
 30
0.0000000000000000
 11
143.3238889427100
 21
384.5206183941862
 31
0.0000000000000000
 70
32
  3
MAIN001
100
AcDbAlignedDimension
 13
175.8238889427094
 23
354.9206183941860
 33
0.0000000000000000
 14
110.8238889427094
 24
354.9206183941858
 34
0.0000000000000000
100
AcDbRotatedDimension
1001
ACAD
1000
DSTYLE
1002
{
1070
   173
1070
     1
1070
     6
1000
_OPEN
1070
     7
1000
_OPEN
1070
    41
1040
3.000000
1002
}
  0
DIMENSION
  5
1A0
100
AcDbEntity
  8
MAIN0
  6
CONTINUOUS
 62
3
100
AcDbDimension
  2
*D17
 10
214.8238889427094
 20
304.0206183941862
 30
0.0000000000000000
 11
195.3238889427100
 21
304.5206183941862
 31
0.0000000000000000
 70
32
  3
MAIN001
100
AcDbAlignedDimension
 13
175.8238889427106
 23
193.1206183941865
 33
0.0000000000000000
 14
214.8238889427094
 24
287.0206183941862
 34
0.0000000000000000
100
AcDbRotatedDimension
1001
ACAD
1000
DSTYLE
1002
{
1070
   173
1070
     1
1070
     6
1000
_OPEN
1070
     7
1000
_OPEN
1070
    41
1040
3.000000
1002
}
  0
LINE
  5
1A1
100
AcDbEntity
  8
MAIN0
  6
CONTINUOUS
 62
3
100
AcDbLine
 10
115.8238889427094
 20
209.4206183941862
 30
0.0000000000000000
 11
115.8238889427094
 21
338.6206183941862
 31
0.0000000000000000
  0
DIMENSION
  5
1AA
100
AcDbEntity
  8
MAIN0
  6
CONTINUOUS
 62
3
100
AcDbDimension
  2
*D18
 10
115.8238889427094
 20
229.0206183941862
 30
0.0000000000000000
 11
105.8238889427094
 21
229.7706183941862
 31
0.0000000000000000
 70
160
  3
MAIN001
100
AcDbAlignedDimension
 13
110.8238889427094
 23
354.9206183941858
 33
0.0000000000000000
 14
115.8238889427094
 24
209.4206183941862
 34
0.0000000000000000
100
AcDbRotatedDimension
1001
ACAD
1000
DSTYLE
1002
{
1070
   173
1070
     1
1070
     6
1000
_OPEN
1070
     7
1000
_OPEN
1070
    41
1040
3.000000
1070
   287
1070
     0
1002
}
  0
DIMENSION
  5
1B3
100
AcDbEntity
  8
MAIN0
  6
CONTINUOUS
 62
3
100
AcDbDimension
  2
*D19
 10
65.82388894270937
 20
191.5206183941862
 30
0.0000000000000000
 11
65.32388894270937
 21
274.0206183941862
 31
0.0000000000000000
 70
32
  1
\A1;\U+2205165
  3
MAIN001
100
AcDbAlignedDimension
 13
112.4238889427098
 23
356.5206183941862
 33
0.0000000000000000
 14
112.4238889427097
 24
191.5206183941862
 34
0.0000000000000000
 50
90.00000000000000
100
AcDbRotatedDimension
1001
ACAD
1000
DSTYLE
1002
{
1070
   173
1070
     1
1070
     6
1000
_OPEN
1070
     7
1000
_OPEN
1070
    41
1040
3.000000
1002
}
  0
LINE
  5
1B4
100
AcDbEntity
  8
MAIN0
  6
HIDDEN
 62
3
100
AcDbLine
 10
175.8238889427098
 20
296.5206183941862
 30
0.0000000000000000
 11
128.3238889452099
 21
296.5206183941862
 31
0.0000000000000000
  0
LINE
  5
1B5
100
AcDbEntity
  8
MAIN0
  6
HIDDEN
 62
3
100
AcDbLine
 10
175.8238889427102
 20
251.5206183941862
 30
0.0000000000000000
 11
135.8238889612555
 21
251.5206183941862
 31
0.0000000000000000
  0
LINE
  5
1B6
100
AcDbEntity
  8
MAIN0
  6
CONTINUOUS
 62
3
100
AcDbLine
 10
404.2079711265221
 20
166.0500343921103
 30
0.0000000000000000
 11
477.2079711265221
 21
166.0500343920531
 31
0.0000000000000000
  0
LINE
  5
1B7
100
AcDbEntity
  8
MAIN0
  6
CONTINUOUS
 62
3
100
AcDbLine
 10
430.8679711264800
 20
128.0500343920895
 30
0.0000000000000000
 11
443.5479711264800
 21
128.0500343920795
 31
0.0000000000000000
  0
LINE
  5
1B8
100
AcDbEntity
  8
MAIN0
  6
CONTINUOUS
 62
3
100
AcDbLine
 10
478.2079711264837
 20
131.3500343920523
 30
0.0000000000000000
 11
478.2079711265211
 21
165.0500343920523
 31
0.0000000000000000
  0
LINE
  5
1B9
100
AcDbEntity
  8
MAIN0
  6
CONTINUOUS
 62
3
100
AcDbLine
 10
403.2079711264837
 20
131.3500343921111
 30
0.0000000000000000
 11
403.2079711265210
 21
165.0500343921111
 31
0.0000000000000000
  0
LINE
  5
1BA
100
AcDbEntity
  8
MAIN0
  6
CENTER
 62
3
100
AcDbLine
 10
437.2079711264742
 20
122.7896486708882
 30
0.0000000000000000
 11
437.2079711264925
 21
139.3092491515539
 31
0.0000000000000000
  0
LINE
  5
1BB
100
AcDbEntity
  8
MAIN0
  6
CENTER
 62
3
100
AcDbLine
 10
456.2579711264772
 20
125.3134730738511
 30
0.0000000000000000
 11
456.2579711265252
 21
168.5627135084383
 31
0.0000000000000000
  0
LINE
  5
1BC
100
AcDbEntity
  8
MAIN0
  6
CENTER
 62
3
100
AcDbLine
 10
418.1579711264743
 20
122.9043643981908
 30
0.0000000000000000
 11
418.1579711265260
 21
169.5951855439433
 31
0.0000000000000000
  0
LINE
  5
1BD
100
AcDbEntity
  8
MAIN0
  6
CONTINUOUS
 62
3
100
AcDbLine
 10
411.1579711264922
 20
139.0500343921049
 30
0.0000000000000000
 11
425.1579711264922
 21
139.0500343920939
 31
0.0000000000000000
  0
LINE
  5
1BE
100
AcDbEntity
  8
MAIN0
  6
CONTINUOUS
 62
3
100
AcDbLine
 10
425.1579711264922
 20
139.0500343920939
 30
0.0000000000000000
 11
425.1579711265221
 21
166.0500343920869
 31
0.0000000000000000
  0
LINE
  5
1BF
100
AcDbEntity
  8
MAIN0
  6
CONTINUOUS
 62
3
100
AcDbLine
 10
411.1579711264922
 20
139.0500343921049
 30
0.0000000000000000
 11
411.1579711265221
 21
166.0500343921025
 31
0.0000000000000000
  0
LINE
  5
1C0
100
AcDbEntity
  8
MAIN0
  6
CONTINUOUS
 62
3
100
AcDbLine
 10
422.4079711264872
 20
134.5500343920961
 30
0.0000000000000000
 11
422.4079711264922
 21
139.0500343920961
 31
0.0000000000000000
  0
LINE
  5
1C1
100
AcDbEntity
  8
MAIN0
  6
CONTINUOUS
 62
3
100
AcDbLine
 10
413.9079711264872
 20
134.5500343921027
 30
0.0000000000000000
 11
413.9079711264922
 21
139.0500343921027
 31
0.0000000000000000
  0
LINE
  5
1C2
100
AcDbEntity
  8
MAIN0
  6
CONTINUOUS
 62
3
100
AcDbLine
 10
419.5941117879704
 20
131.0500343920983
 30
0.0000000000000000
 11
419.5941117879704
 21
134.5500343920983
 31
0.0000000000000000
  0
LINE
  5
1C3
100
AcDbEntity
  8
MAIN0
  6
CONTINUOUS
 62
3
100
AcDbLine
 10
416.7218304647834
 20
131.0500343921005
 30
0.0000000000000000
 11
416.7218304647834
 21
134.5500343921005
 31
0.0000000000000000
  0
LINE
  5
1C4
100
AcDbEntity
  8
MAIN0
  6
CONTINUOUS
 62
3
100
AcDbLine
 10
403.2079711264873
 20
134.5500343921111
 30
0.0000000000000000
 11
416.7218304647834
 21
134.5500343921005
 31
0.0000000000000000
  0
LINE
  5
1C5
100
AcDbEntity
  8
MAIN0
  6
CONTINUOUS
 62
3
100
AcDbLine
 10
443.5479711264800
 20
128.0500343920664
 30
0.0000000000000000
 11
443.5479711264841
 21
131.7500343920795
 31
0.0000000000000000
  0
LINE
  5
1C6
100
AcDbEntity
  8
MAIN0
  6
CONTINUOUS
 62
3
100
AcDbLine
 10
430.8679711264800
 20
128.0500343920804
 30
0.0000000000000000
 11
430.8679711264841
 21
131.7500343920894
 31
0.0000000000000000
  0
LINE
  5
1C7
100
AcDbEntity
  8
MAIN0
  6
CONTINUOUS
 62
3
100
AcDbLine
 10
446.5479711264834
 20
131.0500343920771
 30
0.0000000000000000
 11
446.5479711264841
 21
131.7500343920771
 31
0.0000000000000000
  0
LINE
  5
1C8
100
AcDbEntity
  8
MAIN0
  6
CONTINUOUS
 62
3
100
AcDbLine
 10
427.8679711264833
 20
131.0500343920918
 30
0.0000000000000000
 11
427.8679711264841
 21
131.7500343920918
 31
0.0000000000000000
  0
LINE
  5
1C9
100
AcDbEntity
  8
MAIN0
  6
CONTINUOUS
 62
3
100
AcDbLine
 10
427.8679711264841
 20
131.7500343920918
 30
0.0000000000000000
 11
430.8679711264841
 21
131.7500343920894
 31
0.0000000000000000
  0
LINE
  5
1CA
100
AcDbEntity
  8
MAIN0
  6
CONTINUOUS
 62
3
100
AcDbLine
 10
443.5479711264841
 20
131.7500343920795
 30
0.0000000000000000
 11
446.5479711264841
 21
131.7500343920771
 31
0.0000000000000000
  0
LINE
  5
1CB
100
AcDbEntity
  8
MAIN0
  6
CONTINUOUS
 62
3
100
AcDbLine
 10
403.5079711264833
 20
131.0500343921109
 30
0.0000000000000000
 11
427.8679711264836
 21
131.0500343920918
 31
0.0000000000000000
  0
LINE
  5
1CC
100
AcDbEntity
  8
MAIN0
  6
CONTINUOUS
 62
3
100
AcDbLine
 10
446.5479711264836
 20
131.0500343920771
 30
0.0000000000000000
 11
477.9079711264833
 21
131.0500343920525
 31
0.0000000000000000
  0
LINE
  5
1CD
100
AcDbEntity
  8
MAIN0
  6
CONTINUOUS
 62
3
100
AcDbLine
 10
449.2579711264923
 20
139.0500343920577
 30
0.0000000000000000
 11
463.2579711264923
 21
139.0500343920467
 31
0.0000000000000000
  0
LINE
  5
1CE
100
AcDbEntity
  8
MAIN0
  6
CONTINUOUS
 62
3
100
AcDbLine
 10
463.2579711264924
 20
139.0500343920467
 30
0.0000000000000000
 11
463.2579711265223
 21
166.0500343920397
 31
0.0000000000000000
  0
LINE
  5
1CF
100
AcDbEntity
  8
MAIN0
  6
CONTINUOUS
 62
3
100
AcDbLine
 10
449.2579711264924
 20
139.0500343920576
 30
0.0000000000000000
 11
449.2579711265223
 21
166.0500343920552
 31
0.0000000000000000
  0
LINE
  5
1D0
100
AcDbEntity
  8
MAIN0
  6
CONTINUOUS
 62
3
100
AcDbLine
 10
460.5079711264874
 20
134.5500343920488
 30
0.0000000000000000
 11
460.5079711264924
 21
139.0500343920488
 31
0.0000000000000000
  0
LINE
  5
1D1
100
AcDbEntity
  8
MAIN0
  6
CONTINUOUS
 62
3
100
AcDbLine
 10
452.0079711264874
 20
134.5500343920555
 30
0.0000000000000000
 11
452.0079711264924
 21
139.0500343920555
 31
0.0000000000000000
  0
LINE
  5
1D2
100
AcDbEntity
  8
MAIN0
  6
CONTINUOUS
 62
3
100
AcDbLine
 10
457.6941117879707
 20
131.0500343920510
 30
0.0000000000000000
 11
457.6941117879707
 21
134.5500343920510
 31
0.0000000000000000
  0
LINE
  5
1D3
100
AcDbEntity
  8
MAIN0
  6
CONTINUOUS
 62
3
100
AcDbLine
 10
454.8218304647836
 20
131.0500343920533
 30
0.0000000000000000
 11
454.8218304647836
 21
134.5500343920533
 31
0.0000000000000000
  0
LINE
  5
1D4
100
AcDbEntity
  8
MAIN0
  6
CONTINUOUS
 62
3
100
AcDbLine
 10
419.5941117879704
 20
134.5500343920982
 30
0.0000000000000000
 11
454.8218304647836
 21
134.5500343920706
 31
0.0000000000000000
  0
LINE
  5
1D5
100
AcDbEntity
  8
MAIN0
  6
CONTINUOUS
 62
3
100
AcDbLine
 10
457.6941117879705
 20
134.5500343920683
 30
0.0000000000000000
 11
478.2079711264871
 21
134.5500343920522
 31
0.0000000000000000
  0
LINE
  5
1D6
100
AcDbEntity
  8
MAIN0
  6
CONTINUOUS
 62
3
100
AcDbLine
 10
477.2079711265220
 20
166.0500343920532
 30
0.0000000000000000
 11
478.2079711265209
 21
165.0500343920524
 31
0.0000000000000000
  0
LINE
  5
1D7
100
AcDbEntity
  8
MAIN0
  6
CONTINUOUS
 62
3
100
AcDbLine
 10
404.2079711265221
 20
166.0500343921104
 30
0.0000000000000000
 11
403.2079711265210
 21
165.0500343921111
 31
0.0000000000000000
  0
LINE
  5
1D8
100
AcDbEntity
  8
MAIN0
  6
CONTINUOUS
 62
3
100
AcDbLine
 10
403.2079711264837
 20
131.3500343921111
 30
0.0000000000000000
 11
403.5079711264834
 21
131.0500343921108
 31
0.0000000000000000
  0
LINE
  5
1D9
100
AcDbEntity
  8
MAIN0
  6
CONTINUOUS
 62
3
100
AcDbLine
 10
477.9079711264833
 20
131.0500343920525
 30
0.0000000000000000
 11
478.2079711264837
 21
131.3500343920523
 31
0.0000000000000000
  0
LINE
  5
1DA
100
AcDbEntity
  8
MAIN0
  6
CONTINUOUS
 62
3
100
AcDbLine
 10
463.5579711265223
 20
166.0500343920638
 30
0.0000000000000000
 11
463.2579711265219
 21
165.7500343920640
 31
0.0000000000000000
  0
LINE
  5
1DB
100
AcDbEntity
  8
MAIN0
  6
CONTINUOUS
 62
3
100
AcDbLine
 10
448.9579711265224
 20
166.0500343920752
 30
0.0000000000000000
 11
449.2579711265221
 21
165.7500343920750
 31
0.0000000000000000
  0
LINE
  5
1DC
100
AcDbEntity
  8
MAIN0
  6
CONTINUOUS
 62
3
100
AcDbLine
 10
425.4579711265221
 20
166.0500343920937
 30
0.0000000000000000
 11
425.1579711265217
 21
165.7500343920939
 31
0.0000000000000000
  0
LINE
  5
1DD
100
AcDbEntity
  8
MAIN0
  6
CONTINUOUS
 62
3
100
AcDbLine
 10
410.8579711265221
 20
166.0500343921051
 30
0.0000000000000000
 11
411.1579711265218
 21
165.7500343921049
 31
0.0000000000000000
  0
DIMENSION
  5
1E6
100
AcDbEntity
  8
MAIN0
  6
CONTINUOUS
 62
3
100
AcDbDimension
  2
*D20
 10
403.2079711264837
 20
181.1818529459856
 30
0.0000000000000000
 11
440.7079711264837
 21
181.6818529459856
 31
0.0000000000000000
 70
32
  3
MAIN001
100
AcDbAlignedDimension
 13
478.2079711265210
 23
165.0500343920523
 33
0.0000000000000000
 14
403.2079711265210
 24
165.0500343921111
 34
0.0000000000000000
100
AcDbRotatedDimension
1001
ACAD
1000
DSTYLE
1002
{
1070
   173
1070
     1
1070
     6
1000
_OPEN
1070
     7
1000
_OPEN
1070
    41
1040
3.000000
1002
}
  0
DIMENSION
  5
1EF
100
AcDbEntity
  8
MAIN0
  6
CONTINUOUS
 62
3
100
AcDbDimension
  2
*D21
 10
496.2158597985296
 20
128.0500343920898
 30
0.0000000000000000
 11
495.7158597985296
 21
147.0500343921002
 31
0.0000000000000000
 70
32
  3
MAIN001
100
AcDbAlignedDimension
 13
477.2079711265221
 23
166.0500343920531
 33
0.0000000000000000
 14
443.5479711264801
 24
128.0500343920795
 34
0.0000000000000000
 50
90.00000000000000
100
AcDbRotatedDimension
1001
ACAD
1000
DSTYLE
1002
{
1070
   173
1070
     1
1070
     6
1000
_OPEN
1070
     7
1000
_OPEN
1070
    41
1040
3.000000
1002
}
  0
DIMENSION
  5
1F8
100
AcDbEntity
  8
MAIN0
  6
CONTINUOUS
 62
3
100
AcDbDimension
  2
*D22
 10
437.2079711264742
 20
111.8912974110812
 30
0.0000000000000000
 11
446.7329711264756
 21
112.3912974110812
 31
0.0000000000000000
 70
32
  3
MAIN001
100
AcDbAlignedDimension
 13
456.2579711264772
 23
125.3134730738511
 33
0.0000000000000000
 14
437.2079711264742
 24
122.7896486708882
 34
0.0000000000000000
100
AcDbRotatedDimension
1001
ACAD
1000
DSTYLE
1002
{
1070
   173
1070
     1
1070
     6
1000
_OPEN
1070
     7
1000
_OPEN
1070
    41
1040
3.000000
1002
}
  0
DIMENSION
  5
201
100
AcDbEntity
  8
MAIN0
  6
CONTINUOUS
 62
3
100
AcDbDimension
  2
*D23
 10
437.2079711264742
 20
111.8912974110812
 30
0.0000000000000000
 11
427.6829711264742
 21
112.3912974110812
 31
0.0000000000000000
 70
32
  3
MAIN001
100
AcDbAlignedDimension
 13
418.1579711264743
 23
122.9043643981908
 33
0.0000000000000000
 14
437.2079711264742
 24
122.7896486708882
 34
0.0000000000000000
100
AcDbRotatedDimension
1001
ACAD
1000
DSTYLE
1002
{
1070
   173
1070
     1
1070
     6
1000
_OPEN
1070
     7
1000
_OPEN
1070
    41
1040
3.000000
1002
}
  0
LINE
  5
202
100
AcDbEntity
  8
MAIN0
  6
HIDDEN
 62
3
100
AcDbLine
 10
124.3238889427094
 20
249.9206183941862
 30
0.0000000000000000
 11
124.7238889427094
 21
249.5206183941862
 31
0.0000000000000000
  0
LINE
  5
203
100
AcDbEntity
  8
MAIN0
  6
HIDDEN
 62
3
100
AcDbLine
 10
124.7238889427094
 20
249.5206183941862
 30
0.0000000000000000
 11
132.3238889427094
 21
249.5206183941862
 31
0.0000000000000000
  0
LINE
  5
204
100
AcDbEntity
  8
MAIN0
  6
HIDDEN
 62
3
100
AcDbLine
 10
132.3238889427094
 20
249.5206183941862
 30
0.0000000000000000
 11
132.3238889427094
 21
238.5206183941862
 31
0.0000000000000000
  0
LINE
  5
205
100
AcDbEntity
  8
MAIN0
  6
HIDDEN
 62
3
100
AcDbLine
 10
132.3238889427094
 20
238.5206183941862
 30
0.0000000000000000
 11
124.7238889427094
 21
238.5206183941862
 31
0.0000000000000000
  0
LINE
  5
206
100
AcDbEntity
  8
MAIN0
  6
HIDDEN
 62
3
100
AcDbLine
 10
124.7238889427094
 20
238.5206183941862
 30
0.0000000000000000
 11
124.3238889427094
 21
238.1206183941862
 31
0.0000000000000000
  0
LINE
  5
207
100
AcDbEntity
  8
MAIN0
  6
HIDDEN
 62
3
100
AcDbLine
 10
132.3238889427094
 20
247.3206183941862
 30
0.0000000000000000
 11
137.0869475008927
 21
247.3206183941862
 31
0.0000000000000000
  0
LINE
  5
208
100
AcDbEntity
  8
MAIN0
  6
HIDDEN
 62
3
100
AcDbLine
 10
132.3238889427094
 20
240.7206183941862
 30
0.0000000000000000
 11
138.3261113350022
 21
240.7206183941862
 31
0.0000000000000000
  0
LINE
  5
209
100
AcDbEntity
  8
MAIN0
  6
HIDDEN
 62
3
100
AcDbLine
 10
132.3238889427094
 20
249.0206183941862
 30
0.0000000000000000
 11
126.9238889427094
 21
249.0206183941862
 31
0.0000000000000000
  0
LINE
  5
20A
100
AcDbEntity
  8
MAIN0
  6
HIDDEN
 62
3
100
AcDbLine
 10
126.9238889427094
 20
249.0206183941862
 30
0.0000000000000000
 11
126.3238889427094
 21
247.9813879096449
 31
0.0000000000000000
  0
LINE
  5
20B
100
AcDbEntity
  8
MAIN0
  6
HIDDEN
 62
3
100
AcDbLine
 10
126.3238889427094
 20
247.9813879096449
 30
0.0000000000000000
 11
126.3238889427094
 21
240.0598488787275
 31
0.0000000000000000
  0
LINE
  5
20C
100
AcDbEntity
  8
MAIN0
  6
HIDDEN
 62
3
100
AcDbLine
 10
126.3238889427094
 20
240.0598488787275
 30
0.0000000000000000
 11
126.9238889427094
 21
239.0206183941862
 31
0.0000000000000000
  0
LINE
  5
20D
100
AcDbEntity
  8
MAIN0
  6
HIDDEN
 62
3
100
AcDbLine
 10
126.9238889427094
 20
239.0206183941862
 30
0.0000000000000000
 11
132.3238889427094
 21
239.0206183941862
 31
0.0000000000000000
  0
LINE
  5
20E
100
AcDbEntity
  8
MAIN0
  6
HIDDEN
 62
3
100
AcDbLine
 10
126.9238889427094
 20
249.0206183941862
 30
0.0000000000000000
 11
126.9238889427094
 21
239.0206183941862
 31
0.0000000000000000
  0
LINE
  5
20F
100
AcDbEntity
  8
MAIN0
  6
HIDDEN
 62
3
100
AcDbLine
 10
132.3238889427094
 20
247.0206183941862
 30
0.0000000000000000
 11
137.1710815606132
 21
247.0206183941862
 31
0.0000000000000000
  0
LINE
  5
210
100
AcDbEntity
  8
MAIN0
  6
HIDDEN
 62
3
100
AcDbLine
 10
138.3088423904301
 20
241.0206183941862
 30
0.0000000000000000
 11
132.3238889427094
 21
241.0206183941862
 31
0.0000000000000000
  0
LINE
  5
211
100
AcDbEntity
  8
MAIN0
  6
HIDDEN
 62
3
100
AcDbLine
 10
132.3238889427094
 20
246.4793523941862
 30
0.0000000000000000
 11
137.3186957847858
 21
246.4793523941862
 31
0.0000000000000000
  0
LINE
  5
212
100
AcDbEntity
  8
MAIN0
  6
HIDDEN
 62
3
100
AcDbLine
 10
132.3238889427094
 20
241.5618843941862
 30
0.0000000000000000
 11
138.2655705576672
 21
241.5618843941862
 31
0.0000000000000000
  0
LINE
  5
213
100
AcDbEntity
  8
MAIN0
  6
CONTINUOUS
 62
3
100
AcDbLine
 10
161.3238889427094
 20
191.5206183941862
 30
0.0000000000000000
 11
161.3238889427094
 21
191.0206183941863
 31
0.0000000000000000
  0
LINE
  5
214
100
AcDbEntity
  8
MAIN0
  6
CONTINUOUS
 62
3
100
AcDbLine
 10
167.8238889427094
 20
191.5206183941862
 30
0.0000000000000000
 11
167.8238889427094
 21
191.0206183941862
 31
0.0000000000000000
  0
LINE
  5
215
100
AcDbEntity
  8
MAIN0
  6
CONTINUOUS
 62
3
100
AcDbLine
 10
158.8238889427481
 20
191.0206183941862
 30
0.0000000000000000
 11
184.3238977885613
 21
191.0206183941862
 31
0.0000000000000000
  0
LINE
  5
216
100
AcDbEntity
  8
MAIN0
  6
CONTINUOUS
 62
3
100
AcDbLine
 10
158.8238889427541
 20
191.5206183941862
 30
0.0000000000000000
 11
158.8238889427541
 21
191.0206183941862
 31
0.0000000000000000
  0
LINE
  5
217
100
AcDbEntity
  8
MAIN0
  6
CONTINUOUS
 62
3
100
AcDbLine
 10
175.8238889427102
 20
251.5357908369056
 30
0.0000000000000000
 11
180.8238889427484
 21
251.5357908369056
 31
0.0000000000000000
  0
LINE
  5
218
100
AcDbEntity
  8
MAIN0
  6
CONTINUOUS
 62
3
100
AcDbLine
 10
175.8238889427101
 20
257.0206183941862
 30
0.0000000000000000
 11
176.8238889428095
 21
257.0206183941862
 31
0.0000000000000000
  0
LINE
  5
219
100
AcDbEntity
  8
MAIN0
  6
CONTINUOUS
 62
3
100
AcDbLine
 10
328.4054640556976
 20
309.9514821405054
 30
0.0000000000000000
 11
324.3640121713702
 21
309.9514821405055
 31
0.0000000000000000
  0
LINE
  5
21A
100
AcDbEntity
  8
MAIN0
  6
CONTINUOUS
 62
3
100
AcDbLine
 10
324.3640121713701
 20
302.9514821405055
 30
0.0000000000000000
 11
328.4054640556975
 21
302.9514821405055
 31
0.0000000000000000
  0
LINE
  5
21B
100
AcDbEntity
  8
MAIN0
  6
CONTINUOUS
 62
3
100
AcDbLine
 10
330.4261899978612
 20
306.4514821405054
 30
0.0000000000000000
 11
328.4054640556976
 21
309.9514821405053
 31
0.0000000000000000
  0
LINE
  5
21C
100
AcDbEntity
  8
MAIN0
  6
CONTINUOUS
 62
3
100
AcDbLine
 10
324.3640121713702
 20
309.9514821405056
 30
0.0000000000000000
 11
322.3432862292065
 21
306.4514821405055
 31
0.0000000000000000
  0
LINE
  5
21D
100
AcDbEntity
  8
MAIN0
  6
CONTINUOUS
 62
3
100
AcDbLine
 10
322.3432862292065
 20
306.4514821405053
 30
0.0000000000000000
 11
324.3640121713701
 21
302.9514821405054
 31
0.0000000000000000
  0
LINE
  5
21E
100
AcDbEntity
  8
MAIN0
  6
CONTINUOUS
 62
3
100
AcDbLine
 10
328.4054640556975
 20
302.9514821405055
 30
0.0000000000000000
 11
330.4261899978612
 21
306.4514821405054
 31
0.0000000000000000
  0
CIRCLE
  5
21F
100
AcDbEntity
  8
MAIN0
  6
CONTINUOUS
 62
3
100
AcDbCircle
 10
326.3847381135338
 20
306.4514821405053
 30
0.0000000000000000
 40
2.154065922853398
  0
CIRCLE
  5
220
100
AcDbEntity
  8
MAIN0
  6
CONTINUOUS
 62
3
100
AcDbCircle
 10
326.3847381135338
 20
306.4514821405053
 30
0.0000000000000000
 40
3.299999999999997
  0
CIRCLE
  5
221
100
AcDbEntity
  8
MAIN0
  6
CONTINUOUS
 62
3
100
AcDbCircle
 10
326.3847381135338
 20
306.4514821405053
 30
0.0000000000000000
 40
0.9914283891267653
  0
CIRCLE
  5
222
100
AcDbEntity
  8
MAIN0
  6
HIDDEN
 62
3
100
AcDbCircle
 10
328.3238889427094
 20
345.4349026796147
 30
0.0000000000000000
 40
4.000000000000000
  0
CIRCLE
  5
223
100
AcDbEntity
  8
MAIN0
  6
HIDDEN
 62
3
100
AcDbCircle
 10
328.3238889427094
 20
345.4349026796147
 30
0.0000000000000000
 40
3.400000000000000
  0
LINE
  5
224
100
AcDbEntity
  8
MAIN0
  6
HIDDEN
 62
3
100
AcDbLine
 10
175.8238889427094
 20
337.4206183941862
 30
0.0000000000000000
 11
175.2238889427094
 21
338.0206183941862
 31
0.0000000000000000
  0
LINE
  5
225
100
AcDbEntity
  8
MAIN0
  6
HIDDEN
 62
3
100
AcDbLine
 10
175.2238889427094
 20
338.0206183941862
 30
0.0000000000000000
 11
163.8238889427094
 21
338.0206183941862
 31
0.0000000000000000
  0
LINE
  5
226
100
AcDbEntity
  8
MAIN0
  6
HIDDEN
 62
3
100
AcDbLine
 10
163.8238889427094
 20
338.0206183941862
 30
0.0000000000000000
 11
163.8238889427094
 21
355.0206183941862
 31
0.0000000000000000
  0
LINE
  5
227
100
AcDbEntity
  8
MAIN0
  6
HIDDEN
 62
3
100
AcDbLine
 10
163.8238889427094
 20
355.0206183941862
 30
0.0000000000000000
 11
175.2238889427094
 21
355.0206183941862
 31
0.0000000000000000
  0
LINE
  5
228
100
AcDbEntity
  8
MAIN0
  6
HIDDEN
 62
3
100
AcDbLine
 10
175.2238889427094
 20
355.0206183941863
 30
0.0000000000000000
 11
175.4738889427093
 21
355.2706183941861
 31
0.0000000000000000
  0
LINE
  5
229
100
AcDbEntity
  8
MAIN0
  6
CONTINUOUS
 62
3
100
AcDbLine
 10
404.1011262450228
 20
325.5648393044769
 30
0.0000000000000000
 11
357.1891783893113
 21
298.4802135817722
 31
0.0000000000000000
  0
LINE
  5
22A
100
AcDbEntity
  8
MAIN0
  6
CONTINUOUS
 62
3
100
AcDbLine
 10
404.1013566611465
 20
325.5647223999728
 30
0.0000000000000000
 11
416.1013566611388
 21
318.6365191696928
 31
0.0000000000000000
  0
LINE
  5
22B
100
AcDbEntity
  8
MAIN0
  6
CONTINUOUS
 62
3
100
AcDbLine
 10
417.1013566608907
 20
316.9044683620820
 30
0.0000000000000000
 11
417.1013566608935
 21
303.0480619014311
 31
0.0000000000000000
  0
ARC
  5
22C
100
AcDbEntity
  8
MAIN0
  6
CONTINUOUS
 62
3
100
AcDbCircle
 10
433.4666316365901
 20
327.5076648129422
 30
0.0000000000000000
 40
26.50000000000000
100
AcDbArc
 50
188.1379921162947
 51
231.8620078830115
  0
ARC
  5
22D
100
AcDbEntity
  8
MAIN0
  6
CONTINUOUS
 62
3
100
AcDbCircle
 10
433.4666316365901
 20
327.5076648129422
 30
0.0000000000000000
 40
19.50000000000000
100
AcDbArc
 50
207.0604655135653
 51
212.9395344864339
  0
LINE
  5
22E
100
AcDbEntity
  8
MAIN0
  6
CONTINUOUS
 62
3
100
AcDbLine
 10
353.8238750181415
 20
193.4488129539411
 30
0.0000000000000000
 11
353.8238750181414
 21
247.6180643993505
 31
0.0000000000000000
  0
LINE
  5
22F
100
AcDbEntity
  8
MAIN0
  6
CONTINUOUS
 62
3
100
AcDbLine
 10
353.8236585678093
 20
193.4486718599766
 30
0.0000000000000000
 11
341.8236585678092
 21
186.5204686297099
 31
0.0000000000000000
  0
LINE
  5
230
100
AcDbEntity
  8
MAIN0
  6
CONTINUOUS
 62
3
100
AcDbLine
 10
339.8236585678969
 20
186.5204686299458
 30
0.0000000000000000
 11
327.8236585678092
 21
193.4486718602688
 31
0.0000000000000000
  0
ARC
  5
231
100
AcDbEntity
  8
MAIN0
  6
CONTINUOUS
 62
3
100
AcDbCircle
 10
340.8236585678091
 20
167.0461265356423
 30
0.0000000000000000
 40
26.50000000000000
100
AcDbArc
 50
68.13799211629475
 51
111.8620078830115
  0
ARC
  5
232
100
AcDbEntity
  8
MAIN0
  6
CONTINUOUS
 62
3
100
AcDbCircle
 10
340.8236585678091
 20
167.0461265356423
 30
0.0000000000000000
 40
19.50000000000000
100
AcDbArc
 50
87.06046551356519
 51
92.93953448643390
  0
LINE
  5
233
100
AcDbEntity
  8
MAIN0
  6
CONTINUOUS
 62
3
100
AcDbLine
 10
188.8238977885756
 20
235.5706183941862
 30
0.0000000000000000
 11
196.0238977885756
 21
235.5706183941862
 31
0.0000000000000000
  0
LINE
  5
234
100
AcDbEntity
  8
MAIN0
  6
CONTINUOUS
 62
3
100
AcDbLine
 10
196.0238977885756
 20
235.5706183941862
 30
0.0000000000000000
 11
196.8238977885756
 21
236.9562590402413
 31
0.0000000000000000
  0
LINE
  5
235
100
AcDbEntity
  8
MAIN0
  6
CONTINUOUS
 62
3
100
AcDbLine
 10
196.8238977885756
 20
236.9562590402413
 30
0.0000000000000000
 11
196.8238977885756
 21
247.1849777481311
 31
0.0000000000000000
  0
LINE
  5
236
100
AcDbEntity
  8
MAIN0
  6
CONTINUOUS
 62
3
100
AcDbLine
 10
196.8238977885756
 20
247.1849777481311
 30
0.0000000000000000
 11
196.0238977885756
 21
248.5706183941862
 31
0.0000000000000000
  0
LINE
  5
237
100
AcDbEntity
  8
MAIN0
  6
CONTINUOUS
 62
3
100
AcDbLine
 10
196.0238977885756
 20
248.5706183941862
 30
0.0000000000000000
 11
188.8238977885756
 21
248.5706183941862
 31
0.0000000000000000
  0
LINE
  5
238
100
AcDbEntity
  8
MAIN0
  6
CONTINUOUS
 62
3
100
AcDbLine
 10
196.0238977885756
 20
235.5706183941862
 30
0.0000000000000000
 11
196.0238977885756
 21
248.5706183941862
 31
0.0000000000000000
  0
LINE
  5
239
100
AcDbEntity
  8
MAIN0
  6
HIDDEN
 62
3
100
AcDbLine
 10
170.8238889427094
 20
246.0706183941862
 30
0.0000000000000000
 11
184.3238977885766
 21
246.0706183941862
 31
0.0000000000000000
  0
LINE
  5
23A
100
AcDbEntity
  8
MAIN0
  6
CONTINUOUS
 62
3
100
AcDbLine
 10
184.3238977885766
 20
246.0706183941862
 30
0.0000000000000000
 11
188.8238977885756
 21
246.0706183941862
 31
0.0000000000000000
  0
LINE
  5
23B
100
AcDbEntity
  8
MAIN0
  6
HIDDEN
 62
3
100
AcDbLine
 10
170.8238889427094
 20
238.0706183941862
 30
0.0000000000000000
 11
184.3238977885743
 21
238.0706183941862
 31
0.0000000000000000
  0
LINE
  5
23C
100
AcDbEntity
  8
MAIN0
  6
CONTINUOUS
 62
3
100
AcDbLine
 10
184.3238977885743
 20
238.0706183941862
 30
0.0000000000000000
 11
188.8238977885756
 21
238.0706183941862
 31
0.0000000000000000
  0
LINE
  5
23D
100
AcDbEntity
  8
MAIN0
  6
HIDDEN
 62
3
100
AcDbLine
 10
170.8238889427094
 20
238.7472008941862
 30
0.0000000000000000
 11
184.3238977885745
 21
238.7472008941862
 31
0.0000000000000000
  0
LINE
  5
23E
100
AcDbEntity
  8
MAIN0
  6
CONTINUOUS
 62
3
100
AcDbLine
 10
184.3238977885745
 20
238.7472008941862
 30
0.0000000000000000
 11
188.8238977885756
 21
238.7472008941862
 31
0.0000000000000000
  0
LINE
  5
23F
100
AcDbEntity
  8
MAIN0
  6
HIDDEN
 62
3
100
AcDbLine
 10
170.8238889427094
 20
245.3940358941862
 30
0.0000000000000000
 11
184.3238977885764
 21
245.3940358941862
 31
0.0000000000000000
  0
LINE
  5
240
100
AcDbEntity
  8
MAIN0
  6
CONTINUOUS
 62
3
100
AcDbLine
 10
184.3238977885764
 20
245.3940358941862
 30
0.0000000000000000
 11
188.8238977885756
 21
245.3940358941862
 31
0.0000000000000000
  0
LINE
  5
241
100
AcDbEntity
  8
MAIN0
  6
CONTINUOUS
 62
3
100
AcDbLine
 10
188.8238977885649
 20
197.4706183941862
 30
0.0000000000000000
 11
196.0238977885649
 21
197.4706183941862
 31
0.0000000000000000
  0
LINE
  5
242
100
AcDbEntity
  8
MAIN0
  6
CONTINUOUS
 62
3
100
AcDbLine
 10
196.0238977885649
 20
197.4706183941862
 30
0.0000000000000000
 11
196.8238977885649
 21
198.8562590402413
 31
0.0000000000000000
  0
LINE
  5
243
100
AcDbEntity
  8
MAIN0
  6
CONTINUOUS
 62
3
100
AcDbLine
 10
196.8238977885649
 20
198.8562590402413
 30
0.0000000000000000
 11
196.8238977885649
 21
209.0849777481311
 31
0.0000000000000000
  0
LINE
  5
244
100
AcDbEntity
  8
MAIN0
  6
CONTINUOUS
 62
3
100
AcDbLine
 10
196.8238977885649
 20
209.0849777481311
 30
0.0000000000000000
 11
196.0238977885649
 21
210.4706183941862
 31
0.0000000000000000
  0
LINE
  5
245
100
AcDbEntity
  8
MAIN0
  6
CONTINUOUS
 62
3
100
AcDbLine
 10
196.0238977885649
 20
210.4706183941862
 30
0.0000000000000000
 11
188.8238977885649
 21
210.4706183941862
 31
0.0000000000000000
  0
LINE
  5
246
100
AcDbEntity
  8
MAIN0
  6
CONTINUOUS
 62
3
100
AcDbLine
 10
196.0238977885649
 20
197.4706183941862
 30
0.0000000000000000
 11
196.0238977885649
 21
210.4706183941862
 31
0.0000000000000000
  0
LINE
  5
247
100
AcDbEntity
  8
MAIN0
  6
HIDDEN
 62
3
100
AcDbLine
 10
170.8238889427094
 20
207.9706183941862
 30
0.0000000000000000
 11
184.3238977885660
 21
207.9706183941862
 31
0.0000000000000000
  0
LINE
  5
248
100
AcDbEntity
  8
MAIN0
  6
CONTINUOUS
 62
3
100
AcDbLine
 10
184.3238977885660
 20
207.9706183941862
 30
0.0000000000000000
 11
188.8238977885649
 21
207.9706183941862
 31
0.0000000000000000
  0
LINE
  5
249
100
AcDbEntity
  8
MAIN0
  6
HIDDEN
 62
3
100
AcDbLine
 10
170.8238889427094
 20
207.2940358941862
 30
0.0000000000000000
 11
184.3238977885658
 21
207.2940358941862
 31
0.0000000000000000
  0
LINE
  5
24A
100
AcDbEntity
  8
MAIN0
  6
CONTINUOUS
 62
3
100
AcDbLine
 10
184.3238977885658
 20
207.2940358941862
 30
0.0000000000000000
 11
188.8238977885649
 21
207.2940358941862
 31
0.0000000000000000
  0
LINE
  5
24B
100
AcDbEntity
  8
MAIN0
  6
HIDDEN
 62
3
100
AcDbLine
 10
170.8238889427094
 20
200.6472008941862
 30
0.0000000000000000
 11
184.3238977885640
 21
200.6472008941862
 31
0.0000000000000000
  0
LINE
  5
24C
100
AcDbEntity
  8
MAIN0
  6
CONTINUOUS
 62
3
100
AcDbLine
 10
184.3238977885640
 20
200.6472008941862
 30
0.0000000000000000
 11
188.8238977885649
 21
200.6472008941862
 31
0.0000000000000000
  0
LINE
  5
24D
100
AcDbEntity
  8
MAIN0
  6
HIDDEN
 62
3
100
AcDbLine
 10
170.8238889427094
 20
199.9706183941862
 30
0.0000000000000000
 11
184.3238977885638
 21
199.9706183941862
 31
0.0000000000000000
  0
LINE
  5
24E
100
AcDbEntity
  8
MAIN0
  6
CONTINUOUS
 62
3
100
AcDbLine
 10
184.3238977885638
 20
199.9706183941862
 30
0.0000000000000000
 11
188.8238977885649
 21
199.9706183941862
 31
0.0000000000000000
  0
LINE
  5
24F
100
AcDbEntity
  8
MAIN0
  6
CONTINUOUS
 62
3
100
AcDbLine
 10
400.3663612063002
 20
94.71553620288620
 30
0.0000000000000000
 11
485.0239017073491
 21
94.71553620293315
 31
0.0000000000000000
  0
MTEXT
  5
250
100
AcDbEntity
  8
MAIN0
  6
CONTINUOUS
 62
3
100
AcDbMText
 10
404.3328259271800
 20
101.5691269487636
 30
0.0000000000000000
 40
4.649999856948853
 41
0.0000000000000000
 71
     1
 72
     1
  1
{\H0.94x;{ソフトジョー　ＳＯＦＴ　ＪＡＷ}}
 11
1.000000000000000
 21
0.0000000000000000
 31
0.0000000000000000
  7
KNJYOKO
  0
LINE
  5
251
100
AcDbEntity
  8
MAIN0
  6
CONTINUOUS
 62
3
100
AcDbLine
 10
400.3663612063002
 20
93.59053620288620
 30
0.0000000000000000
 11
485.0239017073496
 21
93.59053620293315
 31
0.0000000000000000
  0
MTEXT
  5
252
100
AcDbEntity
  8
MAIN0
  6
CONTINUOUS
 62
3
100
AcDbMText
 10
59.00685884389819
 20
64.69846435956936
 30
0.0000000000000000
 40
3.750000000000000
 41
0.0000000000000000
 71
     1
 72
     1
  1
{\H0.63x;{EXTERNAL\PGRIPPING}}
 11
1.000000000000000
 21
0.0000000000000000
 31
0.0000000000000000
  7
STANDARD
  0
MTEXT
  5
253
100
AcDbEntity
  8
MAIN0
  6
CONTINUOUS
 62
3
100
AcDbMText
 10
58.92924470112192
 20
54.06538573623152
 30
0.0000000000000000
 40
3.750000000000000
 41
0.0000000000000000
 71
     1
 72
     1
  1
{\H0.63x;{INTERNALLY\PGRIPPING}}
 11
1.000000000000000
 21
0.0000000000000000
 31
0.0000000000000000
  7
STANDARD
  0
MTEXT
  5
254
100
AcDbEntity
  8
MAIN0
  6
CONTINUOUS
 62
3
100
AcDbMText
 10
111.1678515792010
 20
126.8608954431302
 30
0.0000000000000000
 40
4.649999856948853
 41
0.0000000000000000
 71
     1
 72
     1
  1
{\H0.76x;{9.0}}
 11
1.000000000000000
 21
0.0000000000000000
 31
0.0000000000000000
  7
STANDARD
  0
MTEXT
  5
255
100
AcDbEntity
  8
MAIN0
  6
CONTINUOUS
 62
3
100
AcDbMText
 10
106.5431887278932
 20
119.1218540917392
 30
0.0000000000000000
 40
4.649999856948853
 41
0.0000000000000000
 71
     1
 72
     1
  1
{\H0.88x;{31}}
 11
1.000000000000000
 21
0.0000000000000000
 31
0.0000000000000000
  7
STANDARD
  0
MTEXT
  5
256
100
AcDbEntity
  8
MAIN0
  6
CONTINUOUS
 62
3
100
AcDbMText
 10
111.0431887278932
 20
112.3718540917392
 30
0.0000000000000000
 40
4.649999856948853
 41
0.0000000000000000
 71
     1
 72
     1
  1
{\H0.91x;{3161}}
 11
1.000000000000000
 21
0.0000000000000000
 31
0.0000000000000000
  7
STANDARD
  0
MTEXT
  5
257
100
AcDbEntity
  8
MAIN0
  6
CONTINUOUS
 62
3
100
AcDbMText
 10
106.5431887278932
 20
87.87185409173924
 30
0.0000000000000000
 40
4.649999856948853
 41
0.0000000000000000
 71
     1
 72
     1
  1
{\H0.76x;{9.0}}
 11
1.000000000000000
 21
0.0000000000000000
 31
0.0000000000000000
  7
STANDARD
  0
MTEXT
  5
258
100
AcDbEntity
  8
MAIN0
  6
CONTINUOUS
 62
3
100
AcDbMText
 10
106.5431887278932
 20
134.1218540917394
 30
0.0000000000000000
 40
4.649999856948853
 41
0.0000000000000000
 71
     1
 72
     1
  1
{\H0.81x;{88.3}}
 11
1.000000000000000
 21
0.0000000000000000
 31
0.0000000000000000
  7
STANDARD
  0
LINE
  5
259
100
AcDbEntity
  8
MAIN0
  6
CONTINUOUS
 62
3
100
AcDbLine
 10
28.54318872789327
 20
44.22185423478555
 30
0.0000000000000000
 11
148.5431887278933
 21
44.22185423478564
 31
0.0000000000000000
  0
LINE
  5
25A
100
AcDbEntity
  8
MAIN0
  6
CONTINUOUS
 62
3
100
AcDbLine
 10
57.79318872789318
 20
44.22185423478550
 30
0.0000000000000000
 11
57.79318872789318
 21
65.22185423478550
 31
0.0000000000000000
  0
MTEXT
  5
25B
100
AcDbEntity
  8
MAIN0
  6
CONTINUOUS
 62
3
100
AcDbMText
 10
82.36858910498111
 20
62.41630204379453
 30
0.0000000000000000
 40
4.649999856948853
 41
0.0000000000000000
 71
     1
 72
     1
  1
{\H0.92x;{外径把握}}
 11
1.000000000000000
 21
0.0000000000000000
 31
0.0000000000000000
  7
KNJYOKO
  0
MTEXT
  5
25C
100
AcDbEntity
  8
MAIN0
  6
CONTINUOUS
 62
3
100
AcDbMText
 10
82.36858910498111
 20
51.70560927768042
 30
0.0000000000000000
 40
4.649999856948853
 41
0.0000000000000000
 71
     1
 72
     1
  1
{\H0.92x;{内径把握}}
 11
1.000000000000000
 21
0.0000000000000000
 31
0.0000000000000000
  7
KNJYOKO
  0
MTEXT
  5
25D
100
AcDbEntity
  8
MAIN0
  6
CONTINUOUS
 62
3
100
AcDbMText
 10
41.23331592077582
 20
49.77049297742917
 30
0.0000000000000000
 40
4.500000000000000
 41
0.0000000000000000
 71
     1
 72
     1
  1
{\H0.63x;{(mm)}}
 11
1.000000000000000
 21
0.0000000000000000
 31
0.0000000000000000
  7
STANDARD
  0
MTEXT
  5
25E
100
AcDbEntity
  8
MAIN0
  6
CONTINUOUS
 62
3
100
AcDbMText
 10
106.5431887278498
 20
51.87185409173435
 30
0.0000000000000000
 40
4.649999856948853
 41
0.0000000000000000
 71
     1
 72
     1
  1
{\H0.93x;{\U+220555～\U+2205150}}
 11
1.000000000000000
 21
0.0000000000000000
 31
0.0000000000000000
  7
KNJYOKO
  0
MTEXT
  5
25F
100
AcDbEntity
  8
MAIN0
  6
CONTINUOUS
 62
3
100
AcDbMText
 10
32.29318872789477
 20
103.9968540917815
 30
0.0000000000000000
 40
4.649999856948853
 41
0.0000000000000000
 71
     1
 72
     1
  1
{\H0.94x;{許容最高回転速度　}}
 11
1.000000000000000
 21
0.0000000000000000
 31
0.0000000000000000
  7
KNJYOKO
  0
MTEXT
  5
260
100
AcDbEntity
  8
MAIN0
  6
CONTINUOUS
 62
3
100
AcDbMText
 10
106.5431887278932
 20
98.72185423479039
 30
0.0000000000000000
 40
4.649999856948853
 41
0.0000000000000000
 71
     7
 72
     1
  1
{4000 min}
 11
1.000000000000000
 21
0.0000000000000000
 31
0.0000000000000000
  7
STANDARD
  0
MTEXT
  5
261
100
AcDbEntity
  8
MAIN0
  6
CONTINUOUS
 62
3
100
AcDbMText
 10
139.8331897030252
 20
101.0468541632648
 30
0.0000000000000000
 40
2.324999928474426
 41
0.0000000000000000
 71
     7
 72
     1
  1
{-1}
 11
1.000000000000000
 21
0.0000000000000000
 31
0.0000000000000000
  7
STANDARD
  0
MTEXT
  5
262
100
AcDbEntity
  8
MAIN0
  6
CONTINUOUS
 62
3
100
AcDbMText
 10
125.8891149567012
 20
97.81178139055442
 30
0.0000000000000000
 40
4.649999856948853
 41
0.0000000000000000
 71
     1
 72
     1
  1
{\H0.92x;{(rpm)}}
 11
1.000000000000000
 21
0.0000000000000000
 31
0.0000000000000000
  7
STANDARD
  0
MTEXT
  5
263
100
AcDbEntity
  8
MAIN0
  6
CONTINUOUS
 62
3
100
AcDbMText
 10
106.5431887278498
 20
62.37185409173435
 30
0.0000000000000000
 40
4.649999856948853
 41
0.0000000000000000
 71
     1
 72
     1
  1
{\H0.93x;{\U+22053～\U+2205160}}
 11
1.000000000000000
 21
0.0000000000000000
 31
0.0000000000000000
  7
KNJYOKO
  0
LINE
  5
264
100
AcDbEntity
  8
MAIN0
  6
CONTINUOUS
 62
3
100
AcDbLine
 10
57.79318872789330
 20
54.72185423478555
 30
0.0000000000000000
 11
148.5431887278931
 21
54.72185423478564
 31
0.0000000000000000
  0
LINE
  5
265
100
AcDbEntity
  8
MAIN0
  6
CONTINUOUS
 62
3
100
AcDbLine
 10
28.54318872789307
 20
146.7218542348431
 30
0.0000000000000000
 11
148.5431887278932
 21
146.7218542348794
 31
0.0000000000000000
  0
LINE
  5
266
100
AcDbEntity
  8
MAIN0
  6
CONTINUOUS
 62
3
100
AcDbLine
 10
28.54318872789301
 20
136.2218542348402
 30
0.0000000000000000
 11
148.5431887278930
 21
136.2218542348745
 31
0.0000000000000000
  0
LINE
  5
267
100
AcDbEntity
  8
MAIN0
  6
CONTINUOUS
 62
3
100
AcDbLine
 10
28.54318872789307
 20
121.2218542348302
 30
0.0000000000000000
 11
148.5431887278931
 21
121.2218542348575
 31
0.0000000000000000
  0
LINE
  5
268
100
AcDbEntity
  8
MAIN0
  6
CONTINUOUS
 62
3
100
AcDbLine
 10
28.54318872789293
 20
106.2218542348257
 30
0.0000000000000000
 11
148.5431887278929
 21
106.2218542348500
 31
0.0000000000000000
  0
LINE
  5
269
100
AcDbEntity
  8
MAIN0
  6
CONTINUOUS
 62
3
100
AcDbLine
 10
28.54318872789298
 20
90.72185423482276
 30
0.0000000000000000
 11
148.5431887278931
 21
90.72185423484501
 31
0.0000000000000000
  0
LINE
  5
26A
100
AcDbEntity
  8
MAIN0
  6
CONTINUOUS
 62
3
100
AcDbLine
 10
28.54318872789301
 20
80.22185423481986
 30
0.0000000000000000
 11
148.5431887278932
 21
80.22185423483998
 31
0.0000000000000000
  0
LINE
  5
26B
100
AcDbEntity
  8
MAIN0
  6
CONTINUOUS
 62
3
100
AcDbLine
 10
28.54318872789327
 20
65.22185423478561
 30
0.0000000000000000
 11
148.5431887278931
 21
65.22185423478567
 31
0.0000000000000000
  0
LINE
  5
26C
100
AcDbEntity
  8
MAIN0
  6
CONTINUOUS
 62
3
100
AcDbLine
 10
28.54318872789318
 20
44.22185423478550
 30
0.0000000000000000
 11
28.54318872789318
 21
146.7218542347905
 31
0.0000000000000000
  0
LINE
  5
26D
100
AcDbEntity
  8
MAIN0
  6
CONTINUOUS
 62
3
100
AcDbLine
 10
103.5431887278932
 20
44.22185423478550
 30
0.0000000000000000
 11
103.5431887278932
 21
136.2218542348611
 31
0.0000000000000000
  0
LINE
  5
26E
100
AcDbEntity
  8
MAIN0
  6
CONTINUOUS
 62
3
100
AcDbLine
 10
148.5431887278932
 20
44.22185423478550
 30
0.0000000000000000
 11
148.5431887278932
 21
146.7218542347905
 31
0.0000000000000000
  0
MTEXT
  5
26F
100
AcDbEntity
  8
MAIN0
  6
CONTINUOUS
 62
3
100
AcDbMText
 10
32.29318872789489
 20
134.4968548070447
 30
0.0000000000000000
 40
4.650000572204590
 41
0.0000000000000000
 71
     1
 72
     1
  1
{\H0.94x;{許容最大ハンドルトルク}}
 11
1.000000000000000
 21
0.0000000000000000
 31
0.0000000000000000
  7
KNJYOKO
  0
MTEXT
  5
270
100
AcDbEntity
  8
MAIN0
  6
CONTINUOUS
 62
3
100
AcDbMText
 10
32.29318872789477
 20
119.4968548070403
 30
0.0000000000000000
 40
4.650000572204590
 41
0.0000000000000000
 71
     1
 72
     1
  1
{\H0.94x;{最大静的把握力}}
 11
1.000000000000000
 21
0.0000000000000000
 31
0.0000000000000000
  7
KNJYOKO
  0
MTEXT
  5
271
100
AcDbEntity
  8
MAIN0
  6
CONTINUOUS
 62
3
100
AcDbMText
 10
31.54318872789318
 20
87.87185480702442
 30
0.0000000000000000
 40
4.650000572204590
 41
0.0000000000000000
 71
     1
 72
     1
  1
{\H0.90x;{質量}}
 11
1.000000000000000
 21
0.0000000000000000
 31
0.0000000000000000
  7
KNJYOKO
  0
MTEXT
  5
272
100
AcDbEntity
  8
MAIN0
  6
CONTINUOUS
 62
3
100
AcDbMText
 10
33.39515569294079
 20
63.45516809823812
 30
0.0000000000000000
 40
4.650000572204590
 41
0.0000000000000000
 71
     1
 72
     1
  1
{\H0.96x;{把握径}}
 11
1.000000000000000
 21
0.0000000000000000
 31
0.0000000000000000
  7
KNJYOKO
  0
MTEXT
  5
273
100
AcDbEntity
  8
MAIN0
  6
CONTINUOUS
 62
3
100
AcDbMText
 10
37.04218973929338
 20
145.0202714270457
 30
0.0000000000000000
 40
7.500000000000000
 41
0.0000000000000000
 71
     1
 72
     1
  1
{\H0.91x;{仕　様}}
 11
1.000000000000000
 21
0.0000000000000000
 31
0.0000000000000000
  7
KNJYOKO
  0
MTEXT
  5
274
100
AcDbEntity
  8
MAIN0
  6
CONTINUOUS
 62
3
100
AcDbMText
 10
126.0431887278932
 20
132.1718530903813
 30
0.0000000000000000
 40
4.199998855590820
 41
0.0000000000000000
 71
     1
 72
     1
  1
{\H0.58x;{　　　Ｎ・ｍ}}
 11
1.000000000000000
 21
0.0000000000000000
 31
0.0000000000000000
  7
KNJYOKO
  0
MTEXT
  5
275
100
AcDbEntity
  8
MAIN0
  6
CONTINUOUS
 62
3
100
AcDbMText
 10
106.5431887278932
 20
126.1718530903813
 30
0.0000000000000000
 40
4.199998855590820
 41
0.0000000000000000
 71
     1
 72
     1
  1
{\H0.48x;{（}}
 11
1.000000000000000
 21
0.0000000000000000
 31
0.0000000000000000
  7
KNJYOKO
  0
MTEXT
  5
276
100
AcDbEntity
  8
MAIN0
  6
CONTINUOUS
 62
3
100
AcDbMText
 10
124.5431887278932
 20
126.1718530903813
 30
0.0000000000000000
 40
4.199998855590820
 41
0.0000000000000000
 71
     1
 72
     1
  1
{\H0.58x;{　ｋｇｆ・ｍ）}}
 11
1.000000000000000
 21
0.0000000000000000
 31
0.0000000000000000
  7
KNJYOKO
  0
MTEXT
  5
277
100
AcDbEntity
  8
MAIN0
  6
CONTINUOUS
 62
3
100
AcDbMText
 10
126.0431887278932
 20
85.92185309038121
 30
0.0000000000000000
 40
4.199998855590820
 41
0.0000000000000000
 71
     1
 72
     1
  1
{\H0.58x;{　　　　ｋｇ}}
 11
1.000000000000000
 21
0.0000000000000000
 31
0.0000000000000000
  7
KNJYOKO
  0
MTEXT
  5
278
100
AcDbEntity
  8
MAIN0
  6
CONTINUOUS
 62
3
100
AcDbMText
 10
126.0431887278932
 20
117.1718530903812
 30
0.0000000000000000
 40
4.199998855590820
 41
0.0000000000000000
 71
     1
 72
     1
  1
{\H0.58x;{　　　　ｋＮ}}
 11
1.000000000000000
 21
0.0000000000000000
 31
0.0000000000000000
  7
KNJYOKO
  0
MTEXT
  5
279
100
AcDbEntity
  8
MAIN0
  6
CONTINUOUS
 62
3
100
AcDbMText
 10
106.5431887278932
 20
111.1718530903812
 30
0.0000000000000000
 40
4.199998855590820
 41
0.0000000000000000
 71
     1
 72
     1
  1
{\H0.48x;{（}}
 11
1.000000000000000
 21
0.0000000000000000
 31
0.0000000000000000
  7
KNJYOKO
  0
MTEXT
  5
27A
100
AcDbEntity
  8
MAIN0
  6
CONTINUOUS
 62
3
100
AcDbMText
 10
124.5431887278932
 20
111.1718530903812
 30
0.0000000000000000
 40
4.199998855590820
 41
0.0000000000000000
 71
     1
 72
     1
  1
{\H0.58x;{　　　ｋｇｆ）}}
 11
1.000000000000000
 21
0.0000000000000000
 31
0.0000000000000000
  7
KNJYOKO
  0
MTEXT
  5
27B
100
AcDbEntity
  8
MAIN0
  6
CONTINUOUS
 62
3
100
AcDbMText
 10
75.79189979725985
 20
143.6898644760868
 30
0.0000000000000000
 40
4.649999856948853
 41
0.0000000000000000
 71
     1
 72
     1
  1
{\H0.93x;{SPECIFICATIONS}}
 11
1.000000000000000
 21
0.0000000000000000
 31
0.0000000000000000
  7
STANDARD
  0
MTEXT
  5
27C
100
AcDbEntity
  8
MAIN0
  6
CONTINUOUS
 62
3
100
AcDbMText
 10
32.29318872789273
 20
126.8468542348303
 30
0.0000000000000000
 40
3.750000000000000
 41
0.0000000000000000
 71
     1
 72
     1
  1
{\H0.62x;{MAX.PERMISSIBLE HANDLE TORQUE}}
 11
1.000000000000000
 21
0.0000000000000000
 31
0.0000000000000000
  7
STANDARD
  0
MTEXT
  5
27D
100
AcDbEntity
  8
MAIN0
  6
CONTINUOUS
 62
3
100
AcDbMText
 10
32.29318872789273
 20
111.8468542348257
 30
0.0000000000000000
 40
3.750000000000000
 41
0.0000000000000000
 71
     1
 72
     1
  1
{\H0.63x;{MAX STATIC GRIPPING FORCE}}
 11
1.000000000000000
 21
0.0000000000000000
 31
0.0000000000000000
  7
STANDARD
  0
MTEXT
  5
27E
100
AcDbEntity
  8
MAIN0
  6
CONTINUOUS
 62
3
100
AcDbMText
 10
32.29318872789250
 20
96.34685423482279
 30
0.0000000000000000
 40
3.750000000000000
 41
0.0000000000000000
 71
     1
 72
     1
  1
{\H0.63x;{MAX PREMISSIBLE SPEED}}
 11
1.000000000000000
 21
0.0000000000000000
 31
0.0000000000000000
  7
STANDARD
  0
MTEXT
  5
27F
100
AcDbEntity
  8
MAIN0
  6
CONTINUOUS
 62
3
100
AcDbMText
 10
29.59616405826731
 20
55.86894132586781
 30
0.0000000000000000
 40
3.750000000000000
 41
0.0000000000000000
 71
     1
 72
     1
  1
{\H0.54x;{GRIPPING RANGE}}
 11
1.000000000000000
 21
0.0000000000000000
 31
0.0000000000000000
  7
STANDARD
  0
MTEXT
  5
280
100
AcDbEntity
  8
MAIN0
  6
CONTINUOUS
 62
3
100
AcDbMText
 10
56.89667561094169
 20
87.94503657108771
 30
0.0000000000000000
 40
4.650000572204590
 41
0.0000000000000000
 71
     1
 72
     1
  1
{\H0.91x;{MASS}}
 11
1.000000000000000
 21
0.0000000000000000
 31
0.0000000000000000
  7
STANDARD
  0
LINE
  5
281
100
AcDbEntity
  8
MAIN0
  6
CENTER
 62
3
100
AcDbLine
 10
319.2879643667562
 20
286.4591495843588
 30
0.0000000000000000
 11
300.0869978678791
 21
297.5448327611865
 31
0.0000000000000000
  0
LINE
  5
282
100
AcDbEntity
  8
MAIN0
  6
CONTINUOUS
 62
3
100
AcDbLine
 10
417.1011262447699
 20
303.0481788059355
 30
0.0000000000000000
 11
370.1891783889902
 21
275.9635530831914
 31
0.0000000000000000
  0
LINE
  5
283
100
AcDbEntity
  8
MAIN0
  6
CONTINUOUS
 62
3
100
AcDbLine
 10
357.1891783893113
 20
298.4802135817722
 30
0.0000000000000000
 11
357.1891783893094
 21
284.6238071208077
 31
0.0000000000000000
  0
LINE
  5
284
100
AcDbEntity
  8
MAIN0
  6
CONTINUOUS
 62
3
100
AcDbLine
 10
358.1891783889903
 20
282.8917563134669
 30
0.0000000000000000
 11
370.1891783889903
 21
275.9635530831914
 31
0.0000000000000000
  0
ARC
  5
285
100
AcDbEntity
  8
MAIN0
  6
CONTINUOUS
 62
3
100
AcDbCircle
 10
433.4664012204665
 20
327.5077817174463
 30
0.0000000000000000
 40
42.00000000000000
100
AcDbArc
 50
191.9694646066618
 51
228.0305353933379
  0
ARC
  5
286
100
AcDbEntity
  8
MAIN0
  6
CONTINUOUS
 62
3
100
AcDbCircle
 10
433.4664012204665
 20
327.5077817174463
 30
0.0000000000000000
 40
63.50000000000000
100
AcDbArc
 50
198.1866332802399
 51
221.8133667197601
  0
ARC
  5
287
100
AcDbEntity
  8
MAIN0
  6
CONTINUOUS
 62
3
100
AcDbCircle
 10
340.8239034135921
 20
274.0206106702481
 30
0.0000000000000000
 40
19.50000000000000
100
AcDbArc
 50
27.06046551356567
 51
32.93953448643396
  0
ARC
  5
288
100
AcDbEntity
  8
MAIN0
  6
CONTINUOUS
 62
3
100
AcDbCircle
 10
433.4664012204665
 20
327.5077817174463
 30
0.0000000000000000
 40
67.00000000000000
100
AcDbArc
 50
213.5341297330781
 51
221.1880557513223
  0
ARC
  5
289
100
AcDbEntity
  8
MAIN0
  6
CONTINUOUS
 62
3
100
AcDbCircle
 10
433.4664012204665
 20
327.5077817174463
 30
0.0000000000000000
 40
67.00000000000000
100
AcDbArc
 50
198.8119442486775
 51
206.4658702669219
  0
ARC
  5
28A
100
AcDbEntity
  8
MAIN0
  6
CONTINUOUS
 62
3
100
AcDbCircle
 10
433.4664012204665
 20
327.5077817174463
 30
0.0000000000000000
 40
45.50000000000000
100
AcDbArc
 50
194.7553513297731
 51
225.2446337541470
  0
LINE
  5
28B
100
AcDbEntity
  8
MAIN0
  6
CONTINUOUS
 62
3
100
AcDbLine
 10
327.8238750181415
 20
193.4488129542331
 30
0.0000000000000000
 11
327.8238750181415
 21
247.6180643997213
 31
0.0000000000000000
  0
LINE
  5
28C
100
AcDbEntity
  8
MAIN0
  6
CONTINUOUS
 62
3
100
AcDbLine
 10
353.8238750181415
 20
247.6180643993505
 30
0.0000000000000000
 11
341.8238750177844
 21
254.5462676298345
 31
0.0000000000000000
  0
LINE
  5
28D
100
AcDbEntity
  8
MAIN0
  6
CONTINUOUS
 62
3
100
AcDbLine
 10
339.8238750181413
 20
254.5462676299968
 30
0.0000000000000000
 11
327.8238750181414
 21
247.6180643997213
 31
0.0000000000000000
  0
ARC
  5
28E
100
AcDbEntity
  8
MAIN0
  6
CONTINUOUS
 62
3
100
AcDbCircle
 10
340.8238750181414
 20
167.0462676296067
 30
0.0000000000000000
 40
42.00000000000000
100
AcDbArc
 50
71.96946460666182
 51
108.0305353933379
  0
ARC
  5
28F
100
AcDbEntity
  8
MAIN0
  6
CONTINUOUS
 62
3
100
AcDbCircle
 10
340.8238750181414
 20
167.0462676296067
 30
0.0000000000000000
 40
63.50000000000000
100
AcDbArc
 50
78.18663328023982
 51
101.8133667197601
  0
ARC
  5
290
100
AcDbEntity
  8
MAIN0
  6
CONTINUOUS
 62
3
100
AcDbCircle
 10
340.8238750181414
 20
274.0206097240032
 30
0.0000000000000000
 40
19.50000000000000
100
AcDbArc
 50
267.0604655135657
 51
272.9395344864340
  0
ARC
  5
291
100
AcDbEntity
  8
MAIN0
  6
CONTINUOUS
 62
3
100
AcDbCircle
 10
340.8238750181414
 20
167.0462676296067
 30
0.0000000000000000
 40
67.00000000000000
100
AcDbArc
 50
79.63557956722697
 51
86.46587026692178
  0
ARC
  5
292
100
AcDbEntity
  8
MAIN0
  6
CONTINUOUS
 62
3
100
AcDbCircle
 10
340.8238750181414
 20
167.0462676296067
 30
0.0000000000000000
 40
67.00000000000000
100
AcDbArc
 50
93.53412973307810
 51
100.3644055166932
  0
ARC
  5
293
100
AcDbEntity
  8
MAIN0
  6
CONTINUOUS
 62
3
100
AcDbCircle
 10
340.8238750181414
 20
167.0462676296067
 30
0.0000000000000000
 40
45.50000000000000
100
AcDbArc
 50
74.75535132977333
 51
105.2446337541468
  0
LINE
  5
294
100
AcDbEntity
  8
MAIN0
  6
CONTINUOUS
 62
3
100
AcDbLine
 10
197.8229003910137
 20
211.5216141934469
 30
0.0000000000000000
 11
197.0229003910141
 21
213.0583998950240
 31
0.0000000000000000
  0
LINE
  5
295
100
AcDbEntity
  8
MAIN0
  6
CONTINUOUS
 62
3
100
AcDbLine
 10
197.0229003910141
 20
213.0583998950240
 30
0.0000000000000000
 11
197.0229003910146
 21
214.8216141934471
 31
0.0000000000000000
  0
LINE
  5
296
100
AcDbEntity
  8
MAIN0
  6
CONTINUOUS
 62
3
100
AcDbLine
 10
198.2229003910150
 20
216.0216141934467
 30
0.0000000000000000
 11
198.5019182640438
 21
216.0216141934467
 31
0.0000000000000000
  0
LINE
  5
297
100
AcDbEntity
  8
MAIN0
  6
CONTINUOUS
 62
3
100
AcDbLine
 10
198.5019182640438
 20
216.0216141934467
 30
0.0000000000000000
 11
200.4229003910147
 21
215.0216141934461
 31
0.0000000000000000
  0
ARC
  5
298
100
AcDbEntity
  8
MAIN0
  6
CONTINUOUS
 62
3
100
AcDbCircle
 10
198.2229003910146
 20
214.8216141934467
 30
0.0000000000000000
 40
1.200000000000000
100
AcDbArc
 50
89.99999999998411
 51
179.9999999999841
  0
LINE
  5
299
100
AcDbEntity
  8
MAIN0
  6
CONTINUOUS
 62
3
100
AcDbLine
 10
264.5466655649639
 20
303.0482029241406
 30
0.0000000000000000
 11
311.4586134206753
 21
275.9635772014360
 31
0.0000000000000000
  0
LINE
  5
29A
100
AcDbEntity
  8
MAIN0
  6
CONTINUOUS
 62
3
100
AcDbLine
 10
264.5466515991724
 20
303.0484609226093
 30
0.0000000000000000
 11
264.5466515991801
 21
316.9048673831559
 31
0.0000000000000000
  0
LINE
  5
29B
100
AcDbEntity
  8
MAIN0
  6
CONTINUOUS
 62
3
100
AcDbLine
 10
265.5466515993405
 20
318.6369181905308
 30
0.0000000000000000
 11
277.5466515994255
 21
325.5651214208587
 31
0.0000000000000000
  0
ARC
  5
29C
100
AcDbEntity
  8
MAIN0
  6
CONTINUOUS
 62
3
100
AcDbCircle
 10
248.1813766237289
 20
327.5080638339742
 30
0.0000000000000000
 40
26.50000000000000
100
AcDbArc
 50
308.1379921162948
 51
351.8620078830116
  0
ARC
  5
29D
100
AcDbEntity
  8
MAIN0
  6
CONTINUOUS
 62
3
100
AcDbCircle
 10
248.1813766237289
 20
327.5080638339742
 30
0.0000000000000000
 40
19.50000000000000
100
AcDbArc
 50
327.0604655135652
 51
332.9395344864340
  0
CIRCLE
  5
29E
100
AcDbEntity
  8
MAIN0
  6
CONTINUOUS
 62
3
100
AcDbCircle
 10
370.6584785741707
 20
291.2456106703662
 30
0.0000000000000000
 40
7.000000000000000
  0
CIRCLE
  5
29F
100
AcDbEntity
  8
MAIN0
  6
CONTINUOUS
 62
3
100
AcDbCircle
 10
370.6584785741707
 20
291.2456106703662
 30
0.0000000000000000
 40
4.500000000000000
  0
CIRCLE
  5
2A0
100
AcDbEntity
  8
MAIN0
  6
CONTINUOUS
 62
3
100
AcDbCircle
 10
403.6540464583578
 20
310.2956106703663
 30
0.0000000000000000
 40
7.000000000000000
  0
CIRCLE
  5
2A1
100
AcDbEntity
  8
MAIN0
  6
CONTINUOUS
 62
3
100
AcDbCircle
 10
403.6540464583578
 20
310.2956106703663
 30
0.0000000000000000
 40
4.500000000000000
  0
CIRCLE
  5
2A2
100
AcDbEntity
  8
MAIN0
  6
CONTINUOUS
 62
3
100
AcDbCircle
 10
340.8238750181413
 20
239.5706097237669
 30
0.0000000000000000
 40
7.000000000000000
  0
CIRCLE
  5
2A3
100
AcDbEntity
  8
MAIN0
  6
CONTINUOUS
 62
3
100
AcDbCircle
 10
340.8238750181413
 20
239.5706097237669
 30
0.0000000000000000
 40
4.500000000000000
  0
CIRCLE
  5
2A4
100
AcDbEntity
  8
MAIN0
  6
CONTINUOUS
 62
3
100
AcDbCircle
 10
340.8238750181414
 20
201.4706097237669
 30
0.0000000000000000
 40
7.000000000000000
  0
CIRCLE
  5
2A5
100
AcDbEntity
  8
MAIN0
  6
CONTINUOUS
 62
3
100
AcDbCircle
 10
340.8238750181414
 20
201.4706097237669
 30
0.0000000000000000
 40
4.500000000000000
  0
LINE
  5
2A6
100
AcDbEntity
  8
MAIN0
  6
CONTINUOUS
 62
3
100
AcDbLine
 10
277.5466655652167
 20
325.5648634223900
 30
0.0000000000000000
 11
324.4586134209964
 21
298.4802376996460
 31
0.0000000000000000
  0
LINE
  5
2A7
100
AcDbEntity
  8
MAIN0
  6
CONTINUOUS
 62
3
100
AcDbLine
 10
311.4586134206753
 20
275.9635772014360
 30
0.0000000000000000
 11
323.4586134210343
 21
282.8917804319165
 31
0.0000000000000000
  0
LINE
  5
2A8
100
AcDbEntity
  8
MAIN0
  6
CONTINUOUS
 62
3
100
AcDbLine
 10
324.4586134209965
 20
284.6238312390950
 30
0.0000000000000000
 11
324.4586134209965
 21
298.4802376996460
 31
0.0000000000000000
  0
ARC
  5
2A9
100
AcDbEntity
  8
MAIN0
  6
CONTINUOUS
 62
3
100
AcDbCircle
 10
248.1813905895203
 20
327.5078058355056
 30
0.0000000000000000
 40
42.00000000000000
100
AcDbArc
 50
311.9694646066619
 51
348.0305353933379
  0
ARC
  5
2AA
100
AcDbEntity
  8
MAIN0
  6
CONTINUOUS
 62
3
100
AcDbCircle
 10
248.1813905895203
 20
327.5078058355056
 30
0.0000000000000000
 40
63.50000000000000
100
AcDbArc
 50
318.1866332802399
 51
341.8133667197601
  0
ARC
  5
2AB
100
AcDbEntity
  8
MAIN0
  6
CONTINUOUS
 62
3
100
AcDbCircle
 10
340.8238883963946
 20
274.0206347883073
 30
0.0000000000000000
 40
19.50000000000000
100
AcDbArc
 50
147.0604655135657
 51
152.9395344864340
  0
ARC
  5
2AC
100
AcDbEntity
  8
MAIN0
  6
CONTINUOUS
 62
3
100
AcDbCircle
 10
248.1813905895203
 20
327.5078058355056
 30
0.0000000000000000
 40
45.50000000000000
100
AcDbArc
 50
314.7553513297732
 51
345.2446337541470
  0
ARC
  5
2AD
100
AcDbEntity
  8
MAIN0
  6
CONTINUOUS
 62
3
100
AcDbCircle
 10
248.1813905895203
 20
327.5078058355056
 30
0.0000000000000000
 40
67.00000000000000
100
AcDbArc
 50
319.6355795672268
 51
326.4658702669218
  0
ARC
  5
2AE
100
AcDbEntity
  8
MAIN0
  6
CONTINUOUS
 62
3
100
AcDbCircle
 10
248.1813905895203
 20
327.5078058355056
 30
0.0000000000000000
 40
67.00000000000000
100
AcDbArc
 50
333.5341297330781
 51
340.3644055166934
  0
CIRCLE
  5
2AF
100
AcDbEntity
  8
MAIN0
  6
CONTINUOUS
 62
3
100
AcDbCircle
 10
310.9893132358161
 20
291.2456347884256
 30
0.0000000000000000
 40
7.000000000000000
  0
CIRCLE
  5
2B0
100
AcDbEntity
  8
MAIN0
  6
CONTINUOUS
 62
3
100
AcDbCircle
 10
310.9893132358161
 20
291.2456347884256
 30
0.0000000000000000
 40
4.500000000000000
  0
CIRCLE
  5
2B1
100
AcDbEntity
  8
MAIN0
  6
CONTINUOUS
 62
3
100
AcDbCircle
 10
277.9937453516290
 20
310.2956347884255
 30
0.0000000000000000
 40
7.000000000000000
  0
CIRCLE
  5
2B2
100
AcDbEntity
  8
MAIN0
  6
CONTINUOUS
 62
3
100
AcDbCircle
 10
277.9937453516290
 20
310.2956347884255
 30
0.0000000000000000
 40
4.500000000000000
  0
LINE
  5
2B3
100
AcDbEntity
  8
MAIN0
  6
CONTINUOUS
 62
3
100
AcDbLine
 10
184.3238977885607
 20
189.0206561042336
 30
0.0000000000000000
 11
196.7238977885608
 21
189.0206561042302
 31
0.0000000000000000
  0
LINE
  5
2B4
100
AcDbEntity
  8
MAIN0
  6
CONTINUOUS
 62
3
100
AcDbLine
 10
197.8238977885627
 20
196.0206561042299
 30
0.0000000000000000
 11
197.8238977885670
 21
211.5196982105736
 31
0.0000000000000000
  0
LINE
  5
2B5
100
AcDbEntity
  8
MAIN0
  6
CONTINUOUS
 62
3
100
AcDbLine
 10
206.3238977885693
 20
220.0206561042275
 30
0.0000000000000000
 11
206.3238977885729
 21
233.0206561042275
 31
0.0000000000000000
  0
LINE
  5
2B6
100
AcDbEntity
  8
MAIN0
  6
CONTINUOUS
 62
3
100
AcDbLine
 10
214.8238977885741
 20
237.1206561042251
 30
0.0000000000000000
 11
214.8238977885794
 21
256.4206561042252
 31
0.0000000000000000
  0
LINE
  5
2B7
100
AcDbEntity
  8
MAIN0
  6
CONTINUOUS
 62
3
100
AcDbLine
 10
214.2238977885739
 20
236.5206561042253
 30
0.0000000000000000
 11
214.8238977885741
 21
237.1206561042251
 31
0.0000000000000000
  0
LINE
  5
2B8
100
AcDbEntity
  8
MAIN0
  6
CONTINUOUS
 62
3
100
AcDbLine
 10
205.8238977885681
 20
215.6206561042276
 30
0.0000000000000000
 11
205.8238977885693
 21
220.0206561042276
 31
0.0000000000000000
  0
LINE
  5
2B9
100
AcDbEntity
  8
MAIN0
  6
CONTINUOUS
 62
3
100
AcDbLine
 10
197.3238977885609
 20
189.6206561042300
 30
0.0000000000000000
 11
197.3238977885627
 21
196.0206561042300
 31
0.0000000000000000
  0
LINE
  5
2BA
100
AcDbEntity
  8
MAIN0
  6
CONTINUOUS
 62
3
100
AcDbLine
 10
205.8238977885693
 20
220.0206561042276
 30
0.0000000000000000
 11
206.3238977885693
 21
220.0206561042275
 31
0.0000000000000000
  0
LINE
  5
2BB
100
AcDbEntity
  8
MAIN0
  6
CONTINUOUS
 62
3
100
AcDbLine
 10
197.3238977885627
 20
196.0206561042300
 30
0.0000000000000000
 11
197.8238977885627
 21
196.0206561042299
 31
0.0000000000000000
  0
LINE
  5
2BC
100
AcDbEntity
  8
MAIN0
  6
CONTINUOUS
 62
3
100
AcDbLine
 10
196.7238977885607
 20
189.0206561042302
 30
0.0000000000000000
 11
197.3238977885609
 21
189.6206561042300
 31
0.0000000000000000
  0
LINE
  5
2BD
100
AcDbEntity
  8
MAIN0
  6
CONTINUOUS
 62
3
100
AcDbLine
 10
205.2238977885679
 20
215.0206561042278
 30
0.0000000000000000
 11
205.8238977885681
 21
215.6206561042277
 31
0.0000000000000000
  0
LINE
  5
2BE
100
AcDbEntity
  8
MAIN0
  6
CONTINUOUS
 62
3
100
AcDbLine
 10
177.8238977885685
 20
217.0806561042354
 30
0.0000000000000000
 11
177.8238977885702
 21
223.0206561042354
 31
0.0000000000000000
  0
LINE
  5
2BF
100
AcDbEntity
  8
MAIN0
  6
CONTINUOUS
 62
3
100
AcDbLine
 10
177.3238889427504
 20
216.6806561042355
 30
0.0000000000000000
 11
184.3238977885684
 21
216.6806561042336
 31
0.0000000000000000
  0
LINE
  5
2C0
100
AcDbEntity
  8
MAIN0
  6
CONTINUOUS
 62
3
100
AcDbLine
 10
178.2238977885684
 20
216.6806561042352
 30
0.0000000000000000
 11
177.8238977885685
 21
217.0806561042354
 31
0.0000000000000000
  0
LINE
  5
2C1
100
AcDbEntity
  8
MAIN0
  6
CONTINUOUS
 62
3
100
AcDbLine
 10
180.8238977885615
 20
191.7127366729174
 30
0.0000000000000000
 11
180.8238977885676
 21
213.6806561042346
 31
0.0000000000000000
  0
LINE
  5
2C2
100
AcDbEntity
  8
MAIN0
  6
CONTINUOUS
 62
3
100
AcDbLine
 10
177.8238977885718
 20
228.9606561042354
 30
0.0000000000000000
 11
177.8238977885702
 21
223.0206561042354
 31
0.0000000000000000
  0
LINE
  5
2C3
100
AcDbEntity
  8
MAIN0
  6
CONTINUOUS
 62
3
100
AcDbLine
 10
177.3238889427497
 20
229.3606561042356
 30
0.0000000000000000
 11
184.3238977885719
 21
229.3606561042336
 31
0.0000000000000000
  0
LINE
  5
2C4
100
AcDbEntity
  8
MAIN0
  6
CONTINUOUS
 62
3
100
AcDbLine
 10
178.2238977885719
 20
229.3606561042353
 30
0.0000000000000000
 11
177.8238977885718
 21
228.9606561042354
 31
0.0000000000000000
  0
LINE
  5
2C5
100
AcDbEntity
  8
MAIN0
  6
CONTINUOUS
 62
3
100
AcDbLine
 10
180.8238977885789
 20
254.3285755355518
 30
0.0000000000000000
 11
180.8238977885728
 21
232.3606561042346
 31
0.0000000000000000
  0
LINE
  5
2C6
100
AcDbEntity
  8
MAIN0
  6
CONTINUOUS
 62
3
100
AcDbLine
 10
214.4238977885774
 20
249.0706561042253
 30
0.0000000000000000
 11
214.8238977885775
 21
249.4706561042252
 31
0.0000000000000000
  0
LINE
  5
2C7
100
AcDbEntity
  8
MAIN0
  6
CONTINUOUS
 62
3
100
AcDbLine
 10
188.8238977885735
 20
235.0706561042324
 30
0.0000000000000000
 11
188.8238977885774
 21
249.0706561042324
 31
0.0000000000000000
  0
LINE
  5
2C8
100
AcDbEntity
  8
MAIN0
  6
CONTINUOUS
 62
3
100
AcDbLine
 10
184.3238977885766
 20
246.3206561042336
 30
0.0000000000000000
 11
188.8238977885766
 21
246.3206561042324
 31
0.0000000000000000
  0
LINE
  5
2C9
100
AcDbEntity
  8
MAIN0
  6
CONTINUOUS
 62
3
100
AcDbLine
 10
184.3238977885743
 20
237.8206561042336
 30
0.0000000000000000
 11
188.8238977885743
 21
237.8206561042324
 31
0.0000000000000000
  0
LINE
  5
2CA
100
AcDbEntity
  8
MAIN0
  6
CONTINUOUS
 62
3
100
AcDbLine
 10
197.4238977885629
 20
196.9706561042300
 30
0.0000000000000000
 11
188.8238977885629
 21
196.9706561042324
 31
0.0000000000000000
  0
LINE
  5
2CB
100
AcDbEntity
  8
MAIN0
  6
CONTINUOUS
 62
3
100
AcDbLine
 10
197.2238977885668
 20
210.9706561042301
 30
0.0000000000000000
 11
188.8238977885668
 21
210.9706561042324
 31
0.0000000000000000
  0
LINE
  5
2CC
100
AcDbEntity
  8
MAIN0
  6
CONTINUOUS
 62
3
100
AcDbLine
 10
188.8238977885668
 20
210.9706561042324
 30
0.0000000000000000
 11
188.8238977885629
 21
196.9706561042324
 31
0.0000000000000000
  0
LINE
  5
2CD
100
AcDbEntity
  8
MAIN0
  6
CONTINUOUS
 62
3
100
AcDbLine
 10
184.3238977885661
 20
208.2206561042336
 30
0.0000000000000000
 11
188.8238977885661
 21
208.2206561042324
 31
0.0000000000000000
  0
LINE
  5
2CE
100
AcDbEntity
  8
MAIN0
  6
CONTINUOUS
 62
3
100
AcDbLine
 10
184.3238977885637
 20
199.7206561042336
 30
0.0000000000000000
 11
188.8238977885637
 21
199.7206561042324
 31
0.0000000000000000
  0
LINE
  5
2CF
100
AcDbEntity
  8
MAIN0
  6
CONTINUOUS
 62
3
100
AcDbLine
 10
197.4238977885630
 20
196.9706561042300
 30
0.0000000000000000
 11
197.8238977885629
 21
196.5706561042299
 31
0.0000000000000000
  0
LINE
  5
2D0
100
AcDbEntity
  8
MAIN0
  6
CONTINUOUS
 62
3
100
AcDbLine
 10
197.2238977885668
 20
210.9706561042300
 30
0.0000000000000000
 11
197.8064523228157
 21
211.5532106384785
 31
0.0000000000000000
  0
LINE
  5
2D1
100
AcDbEntity
  8
MAIN0
  6
CONTINUOUS
 62
3
100
AcDbLine
 10
214.8238977885794
 20
256.4206561042252
 30
0.0000000000000000
 11
214.2238977885796
 21
257.0206561042253
 31
0.0000000000000000
  0
LINE
  5
2D2
100
AcDbEntity
  8
MAIN0
  6
CONTINUOUS
 62
3
100
AcDbLine
 10
208.8435130308501
 20
256.1886052966435
 30
0.0000000000000000
 11
209.3238977885878
 21
257.0206561042267
 31
0.0000000000000000
  0
LINE
  5
2D3
100
AcDbEntity
  8
MAIN0
  6
CONTINUOUS
 62
3
100
AcDbLine
 10
207.8042825463087
 20
256.1886052966437
 30
0.0000000000000000
 11
207.3238977885714
 21
257.0206561042272
 31
0.0000000000000000
  0
ARC
  5
2D4
100
AcDbEntity
  8
MAIN0
  6
CONTINUOUS
 62
3
100
AcDbCircle
 10
208.3238977885794
 20
256.4886052966435
 30
0.0000000000000000
 40
0.6000000000000000
100
AcDbArc
 50
209.9999999999765
 51
329.9999999999982
  0
LINE
  5
2D5
100
AcDbEntity
  8
MAIN0
  6
CONTINUOUS
 62
3
100
AcDbLine
 10
202.8435130308501
 20
256.1886052966452
 30
0.0000000000000000
 11
203.3238977885878
 21
257.0206561042283
 31
0.0000000000000000
  0
LINE
  5
2D6
100
AcDbEntity
  8
MAIN0
  6
CONTINUOUS
 62
3
100
AcDbLine
 10
201.8042825463087
 20
256.1886052966454
 30
0.0000000000000000
 11
201.3238977885714
 21
257.0206561042289
 31
0.0000000000000000
  0
ARC
  5
2D7
100
AcDbEntity
  8
MAIN0
  6
CONTINUOUS
 62
3
100
AcDbCircle
 10
202.3238977885794
 20
256.4886052966452
 30
0.0000000000000000
 40
0.6000000000000000
100
AcDbArc
 50
209.9999999999765
 51
329.9999999999982
  0
LINE
  5
2D8
100
AcDbEntity
  8
MAIN0
  6
CONTINUOUS
 62
3
100
AcDbLine
 10
196.8435130308501
 20
256.1886052966469
 30
0.0000000000000000
 11
197.3238977885878
 21
257.0206561042299
 31
0.0000000000000000
  0
LINE
  5
2D9
100
AcDbEntity
  8
MAIN0
  6
CONTINUOUS
 62
3
100
AcDbLine
 10
195.8042825463087
 20
256.1886052966471
 30
0.0000000000000000
 11
195.3238977885714
 21
257.0206561042305
 31
0.0000000000000000
  0
ARC
  5
2DA
100
AcDbEntity
  8
MAIN0
  6
CONTINUOUS
 62
3
100
AcDbCircle
 10
196.3238977885794
 20
256.4886052966468
 30
0.0000000000000000
 40
0.6000000000000000
100
AcDbArc
 50
209.9999999999765
 51
329.9999999999982
  0
LINE
  5
2DB
100
AcDbEntity
  8
MAIN0
  6
CONTINUOUS
 62
3
100
AcDbLine
 10
190.8435130308501
 20
256.1886052966485
 30
0.0000000000000000
 11
191.3238977885878
 21
257.0206561042316
 31
0.0000000000000000
  0
LINE
  5
2DC
100
AcDbEntity
  8
MAIN0
  6
CONTINUOUS
 62
3
100
AcDbLine
 10
189.8042825463087
 20
256.1886052966488
 30
0.0000000000000000
 11
189.3238977885714
 21
257.0206561042322
 31
0.0000000000000000
  0
ARC
  5
2DD
100
AcDbEntity
  8
MAIN0
  6
CONTINUOUS
 62
3
100
AcDbCircle
 10
190.3238977885794
 20
256.4886052966485
 30
0.0000000000000000
 40
0.6000000000000000
100
AcDbArc
 50
209.9999999999765
 51
329.9999999999982
  0
LINE
  5
2DE
100
AcDbEntity
  8
MAIN0
  6
CONTINUOUS
 62
3
100
AcDbLine
 10
191.3238977885877
 20
257.0206561042317
 30
0.0000000000000000
 11
195.3238977885714
 21
257.0206561042306
 31
0.0000000000000000
  0
LINE
  5
2DF
100
AcDbEntity
  8
MAIN0
  6
CONTINUOUS
 62
3
100
AcDbLine
 10
197.3238977885877
 20
257.0206561042300
 30
0.0000000000000000
 11
201.3238977885714
 21
257.0206561042289
 31
0.0000000000000000
  0
LINE
  5
2E0
100
AcDbEntity
  8
MAIN0
  6
CONTINUOUS
 62
3
100
AcDbLine
 10
203.3238977885877
 20
257.0206561042284
 30
0.0000000000000000
 11
207.3238977885714
 21
257.0206561042272
 31
0.0000000000000000
  0
LINE
  5
2E1
100
AcDbEntity
  8
MAIN0
  6
CONTINUOUS
 62
3
100
AcDbLine
 10
209.3238977885877
 20
257.0206561042267
 30
0.0000000000000000
 11
214.2238977885796
 21
257.0206561042253
 31
0.0000000000000000
  0
LINE
  5
2E2
100
AcDbEntity
  8
MAIN0
  6
CONTINUOUS
 62
3
100
AcDbLine
 10
211.1042825463034
 20
237.3527069118094
 30
0.0000000000000000
 11
210.6238977885658
 21
236.5206561042264
 31
0.0000000000000000
  0
LINE
  5
2E3
100
AcDbEntity
  8
MAIN0
  6
CONTINUOUS
 62
3
100
AcDbLine
 10
212.1435130308448
 20
237.3527069118092
 30
0.0000000000000000
 11
212.6238977885821
 21
236.5206561042258
 31
0.0000000000000000
  0
ARC
  5
2E4
100
AcDbEntity
  8
MAIN0
  6
CONTINUOUS
 62
3
100
AcDbCircle
 10
211.6238977885741
 20
237.0527069118095
 30
0.0000000000000000
 40
0.6000000000000000
100
AcDbArc
 50
29.99999999997646
 51
149.9999999999982
  0
LINE
  5
2E5
100
AcDbEntity
  8
MAIN0
  6
CONTINUOUS
 62
3
100
AcDbLine
 10
202.3042825462975
 20
215.8527069118119
 30
0.0000000000000000
 11
201.8238977885598
 21
215.0206561042288
 31
0.0000000000000000
  0
LINE
  5
2E6
100
AcDbEntity
  8
MAIN0
  6
CONTINUOUS
 62
3
100
AcDbLine
 10
203.3435130308388
 20
215.8527069118117
 30
0.0000000000000000
 11
203.8238977885761
 21
215.0206561042282
 31
0.0000000000000000
  0
ARC
  5
2E7
100
AcDbEntity
  8
MAIN0
  6
CONTINUOUS
 62
3
100
AcDbCircle
 10
202.8238977885681
 20
215.5527069118119
 30
0.0000000000000000
 40
0.6000000000000000
100
AcDbArc
 50
29.99999999997646
 51
149.9999999999982
  0
LINE
  5
2E8
100
AcDbEntity
  8
MAIN0
  6
CONTINUOUS
 62
3
100
AcDbLine
 10
208.9238977885739
 20
236.5206561042268
 30
0.0000000000000000
 11
210.6238977885657
 21
236.5206561042263
 31
0.0000000000000000
  0
LINE
  5
2E9
100
AcDbEntity
  8
MAIN0
  6
CONTINUOUS
 62
3
100
AcDbLine
 10
212.6238977885821
 20
236.5206561042258
 30
0.0000000000000000
 11
214.2238977885739
 21
236.5206561042253
 31
0.0000000000000000
  0
LINE
  5
2EA
100
AcDbEntity
  8
MAIN0
  6
CONTINUOUS
 62
3
100
AcDbLine
 10
200.4238977885679
 20
215.0206561042292
 30
0.0000000000000000
 11
201.8238977885598
 21
215.0206561042288
 31
0.0000000000000000
  0
LINE
  5
2EB
100
AcDbEntity
  8
MAIN0
  6
CONTINUOUS
 62
3
100
AcDbLine
 10
203.8238977885761
 20
215.0206561042282
 30
0.0000000000000000
 11
205.2238977885679
 21
215.0206561042278
 31
0.0000000000000000
  0
LINE
  5
2EC
100
AcDbEntity
  8
MAIN0
  6
CONTINUOUS
 62
3
100
AcDbLine
 10
184.3238977885607
 20
189.0206561042336
 30
0.0000000000000000
 11
184.3238977885653
 21
205.4877586057146
 31
0.0000000000000000
  0
LINE
  5
2ED
100
AcDbEntity
  8
MAIN0
  6
CONTINUOUS
 62
3
100
AcDbLine
 10
184.3238977885750
 20
240.5535536027526
 30
0.0000000000000000
 11
184.3238977885796
 21
257.0206561042336
 31
0.0000000000000000
  0
LINE
  5
2EE
100
AcDbEntity
  8
MAIN0
  6
CONTINUOUS
 62
3
100
AcDbLine
 10
204.8567353349425
 20
235.0706561042279
 30
0.0000000000000000
 11
205.4414347802364
 21
234.7158517709565
 31
0.0000000000000000
  0
LINE
  5
2EF
100
AcDbEntity
  8
MAIN0
  6
CONTINUOUS
 62
3
100
AcDbLine
 10
184.9238977885796
 20
257.0206561042334
 30
0.0000000000000000
 11
189.3238977885714
 21
257.0206561042322
 31
0.0000000000000000
  0
LINE
  5
2F0
100
AcDbEntity
  8
MAIN0
  6
CONTINUOUS
 62
3
100
AcDbLine
 10
180.8238889427481
 20
257.0206561042346
 30
0.0000000000000000
 11
184.9238977885796
 21
257.0206561042334
 31
0.0000000000000000
  0
LINE
  5
2F1
100
AcDbEntity
  8
MAIN0
  6
CONTINUOUS
 62
3
100
AcDbLine
 10
184.3238977885719
 20
229.3606561042336
 30
0.0000000000000000
 11
184.3238977885750
 21
240.5535536027526
 31
0.0000000000000000
  0
LINE
  5
2F2
100
AcDbEntity
  8
MAIN0
  6
CONTINUOUS
 62
3
100
AcDbLine
 10
184.3238977885653
 20
205.4877586057146
 30
0.0000000000000000
 11
184.3238977885684
 21
216.6806561042336
 31
0.0000000000000000
  0
LINE
  5
2F3
100
AcDbEntity
  8
MAIN0
  6
CONTINUOUS
 62
3
100
AcDbLine
 10
214.4238977885774
 20
249.0706561042253
 30
0.0000000000000000
 11
188.8238977885774
 21
249.0706561042324
 31
0.0000000000000000
  0
LINE
  5
2F4
100
AcDbEntity
  8
MAIN0
  6
CONTINUOUS
 62
3
100
AcDbLine
 10
204.8567353349424
 20
235.0706561042279
 30
0.0000000000000000
 11
188.8238977885735
 21
235.0706561042324
 31
0.0000000000000000
  0
LINE
  5
2F5
100
AcDbEntity
  8
MAIN0
  6
CONTINUOUS
 62
3
100
AcDbLine
 10
206.3238977885729
 20
233.0206561042275
 30
0.0000000000000000
 11
205.4414347802364
 21
234.7158517709564
 31
0.0000000000000000
  0
LINE
  5
2F6
100
AcDbEntity
  8
MAIN0
  6
CONTINUOUS
 62
3
100
AcDbLine
 10
205.5238977885734
 20
234.5574418058047
 30
0.0000000000000000
 11
205.5238977885738
 21
236.3206561042277
 31
0.0000000000000000
  0
LINE
  5
2F7
100
AcDbEntity
  8
MAIN0
  6
CONTINUOUS
 62
3
100
AcDbLine
 10
206.7238977885742
 20
237.5206561042274
 30
0.0000000000000000
 11
207.0029156616030
 21
237.5206561042274
 31
0.0000000000000000
  0
LINE
  5
2F8
100
AcDbEntity
  8
MAIN0
  6
CONTINUOUS
 62
3
100
AcDbLine
 10
207.0029156616030
 20
237.5206561042273
 30
0.0000000000000000
 11
208.9238977885739
 21
236.5206561042268
 31
0.0000000000000000
  0
ARC
  5
2F9
100
AcDbEntity
  8
MAIN0
  6
CONTINUOUS
 62
3
100
AcDbCircle
 10
206.7238977885739
 20
236.3206561042274
 30
0.0000000000000000
 40
1.200000000000000
100
AcDbArc
 50
89.99999999998411
 51
179.9999999999841
  0
LINE
  5
2FA
100
AcDbEntity
  8
H0
  6
CENTER
 62
3
100
AcDbLine
 10
447.3567361846419
 20
323.3023515627741
 30
0.0000000000000000
 11
584.7665745464541
 21
323.3023515627741
 31
0.0000000000000000
  0
LINE
  5
2FB
100
AcDbEntity
  8
H0
  6
CONTINUOUS
 62
3
100
AcDbLine
 10
505.1283832940105
 20
336.3023515627741
 30
0.0000000000000000
 11
528.1283832940105
 21
336.3023515627741
 31
0.0000000000000000
  0
LINE
  5
2FC
100
AcDbEntity
  8
H0
  6
CONTINUOUS
 62
3
100
AcDbLine
 10
504.1283832940105
 20
335.3023515627741
 30
0.0000000000000000
 11
529.1283832940105
 21
335.3023515627741
 31
0.0000000000000000
  0
LINE
  5
2FD
100
AcDbEntity
  8
H0
  6
CONTINUOUS
 62
3
100
AcDbLine
 10
505.1283832940105
 20
310.3023515627741
 30
0.0000000000000000
 11
528.1283832940105
 21
310.3023515627741
 31
0.0000000000000000
  0
LINE
  5
2FE
100
AcDbEntity
  8
H0
  6
CONTINUOUS
 62
3
100
AcDbLine
 10
504.1283832940105
 20
311.3023515627741
 30
0.0000000000000000
 11
529.1283832940105
 21
311.3023515627741
 31
0.0000000000000000
  0
LINE
  5
2FF
100
AcDbEntity
  8
H0
  6
CONTINUOUS
 62
3
100
AcDbLine
 10
506.6283832940105
 20
310.3023515627741
 30
0.0000000000000000
 11
506.6283832940105
 21
253.3023515627741
 31
0.0000000000000000
  0
LINE
  5
300
100
AcDbEntity
  8
H0
  6
CONTINUOUS
 62
3
100
AcDbLine
 10
510.7783832940105
 20
216.3023515627741
 30
0.0000000000000000
 11
522.4783832940105
 21
216.3023515627741
 31
0.0000000000000000
  0
LINE
  5
301
100
AcDbEntity
  8
H0
  6
CONTINUOUS
 62
3
100
AcDbLine
 10
510.0783832940105
 20
230.3023515627741
 30
0.0000000000000000
 11
516.0847133555842
 21
230.3023515627741
 31
0.0000000000000000
  0
LINE
  5
302
100
AcDbEntity
  8
H0
  6
CONTINUOUS
 62
3
100
AcDbLine
 10
506.6283832940105
 20
253.3023515627741
 30
0.0000000000000000
 11
526.6283832940105
 21
253.3023515627741
 31
0.0000000000000000
  0
LINE
  5
303
100
AcDbEntity
  8
H0
  6
CENTER
 62
3
100
AcDbLine
 10
505.4494313622006
 20
181.2761580491385
 30
0.0000000000000000
 11
527.6688382713892
 21
181.2761580491342
 31
0.0000000000000000
  0
LINE
  5
304
100
AcDbEntity
  8
H0
  6
CONTINUOUS
 62
3
100
AcDbLine
 10
510.1009854205792
 20
181.8198279875715
 30
0.0000000000000000
 11
516.0847133555843
 21
187.8035559225743
 31
0.0000000000000000
  0
LINE
  5
305
100
AcDbEntity
  8
H0
  6
CONTINUOUS
 62
3
100
AcDbLine
 10
510.0783832940105
 20
234.1295192211506
 30
0.0000000000000000
 11
510.0783832940105
 21
217.0023515627741
 31
0.0000000000000000
  0
LINE
  5
306
100
AcDbEntity
  8
H0
  6
CONTINUOUS
 62
3
100
AcDbLine
 10
510.0783832940105
 20
217.0023515627741
 30
0.0000000000000000
 11
510.7783832940105
 21
216.3023515627741
 31
0.0000000000000000
  0
LINE
  5
307
100
AcDbEntity
  8
H0
  6
CONTINUOUS
 62
3
100
AcDbLine
 10
516.0847133555842
 20
230.3023515627741
 30
0.0000000000000000
 11
516.0847133555842
 21
217.0023515628577
 31
0.0000000000000000
  0
LINE
  5
308
100
AcDbEntity
  8
H0
  6
CONTINUOUS
 62
3
100
AcDbLine
 10
510.0783832940106
 20
217.0023515628588
 30
0.0000000000000000
 11
523.1783832940105
 21
217.0023515628563
 31
0.0000000000000000
  0
LINE
  5
309
100
AcDbEntity
  8
H0
  6
CONTINUOUS
 62
3
100
AcDbLine
 10
516.0847133555842
 20
230.3023515627741
 30
0.0000000000000000
 11
510.0783832940106
 21
217.0023515628588
 31
0.0000000000000000
  0
LINE
  5
30A
100
AcDbEntity
  8
H0
  6
CONTINUOUS
 62
3
100
AcDbLine
 10
510.0783832940105
 20
230.3023515627741
 30
0.0000000000000000
 11
516.0847133555842
 21
217.0023515628576
 31
0.0000000000000000
  0
LINE
  5
30B
100
AcDbEntity
  8
H0
  6
CONTINUOUS
 62
3
100
AcDbLine
 10
510.1009854205789
 20
180.7324881107037
 30
0.0000000000000000
 11
516.0847133555817
 21
174.7487601756985
 31
0.0000000000000000
  0
LINE
  5
30C
100
AcDbEntity
  8
H0
  6
CONTINUOUS
 62
3
100
AcDbLine
 10
523.1557811674421
 20
180.7324881107037
 30
0.0000000000000000
 11
517.1720532324393
 21
174.7487601756985
 31
0.0000000000000000
  0
LINE
  5
30D
100
AcDbEntity
  8
H0
  6
CONTINUOUS
 62
3
100
AcDbLine
 10
523.1557811674422
 20
181.8198279875664
 30
0.0000000000000000
 11
517.1720532324418
 21
187.8035559225739
 31
0.0000000000000000
  0
ARC
  5
30E
100
AcDbEntity
  8
H0
  6
CONTINUOUS
 62
3
100
AcDbCircle
 10
516.6283832940105
 20
181.2761580491363
 30
0.0000000000000000
 40
6.550000000000000
100
AcDbArc
 50
85.23879812589122
 51
94.76120187406400
  0
ARC
  5
30F
100
AcDbEntity
  8
H0
  6
CONTINUOUS
 62
3
100
AcDbCircle
 10
516.6283832940105
 20
181.2761580491363
 30
0.0000000000000000
 40
6.550000000000000
100
AcDbArc
 50
175.2387981259133
 51
184.7612018740635
  0
ARC
  5
310
100
AcDbEntity
  8
H0
  6
CONTINUOUS
 62
3
100
AcDbCircle
 10
516.6283832940105
 20
181.2761580491363
 30
0.0000000000000000
 40
6.550000000000000
100
AcDbArc
 50
265.2387981259137
 51
274.7612018740863
  0
ARC
  5
311
100
AcDbEntity
  8
H0
  6
CONTINUOUS
 62
3
100
AcDbCircle
 10
516.6283832940105
 20
181.2761580491363
 30
0.0000000000000000
 40
6.550000000000000
100
AcDbArc
 50
355.2387981259365
 51
364.7612018740410
  0
LINE
  5
312
100
AcDbEntity
  8
H0
  6
CENTER
 62
3
100
AcDbLine
 10
516.6283832940105
 20
191.4578721886466
 30
0.0000000000000000
 11
516.6283832940105
 21
171.8525151815843
 31
0.0000000000000000
  0
ARC
  5
313
100
AcDbEntity
  8
H0
  6
CONTINUOUS
 62
3
100
AcDbCircle
 10
455.0783832940105
 20
234.1295192211506
 30
0.0000000000000000
 40
55.00000000000000
100
AcDbArc
 50
0.0000000000000000
 51
20.40152240294039
  0
LINE
  5
314
100
AcDbEntity
  8
H0
  6
CONTINUOUS
 62
3
100
AcDbLine
 10
526.6283832940105
 20
310.3023515627741
 30
0.0000000000000000
 11
526.6283832940105
 21
253.3023515627741
 31
0.0000000000000000
  0
LINE
  5
315
100
AcDbEntity
  8
H0
  6
CONTINUOUS
 62
3
100
AcDbLine
 10
523.1783832940105
 20
230.3023515627741
 30
0.0000000000000000
 11
517.1720532324368
 21
230.3023515627741
 31
0.0000000000000000
  0
LINE
  5
316
100
AcDbEntity
  8
H0
  6
CONTINUOUS
 62
3
100
AcDbLine
 10
523.1783832940105
 20
234.1295192211506
 30
0.0000000000000000
 11
523.1783832940105
 21
217.0023515627741
 31
0.0000000000000000
  0
LINE
  5
317
100
AcDbEntity
  8
H0
  6
CONTINUOUS
 62
3
100
AcDbLine
 10
523.1783832940105
 20
217.0023515627741
 30
0.0000000000000000
 11
522.4783832940105
 21
216.3023515627741
 31
0.0000000000000000
  0
LINE
  5
318
100
AcDbEntity
  8
H0
  6
CONTINUOUS
 62
3
100
AcDbLine
 10
517.1720532324368
 20
230.3023515627741
 30
0.0000000000000000
 11
517.1720532324368
 21
217.0023515628577
 31
0.0000000000000000
  0
LINE
  5
319
100
AcDbEntity
  8
H0
  6
CONTINUOUS
 62
3
100
AcDbLine
 10
517.1720532324368
 20
230.3023515627741
 30
0.0000000000000000
 11
523.1783832940105
 21
217.0023515628588
 31
0.0000000000000000
  0
LINE
  5
31A
100
AcDbEntity
  8
H0
  6
CONTINUOUS
 62
3
100
AcDbLine
 10
523.1783832940105
 20
230.3023515627741
 30
0.0000000000000000
 11
517.1720532324368
 21
217.0023515628576
 31
0.0000000000000000
  0
ARC
  5
31B
100
AcDbEntity
  8
H0
  6
CONTINUOUS
 62
3
100
AcDbCircle
 10
578.1783832940105
 20
234.1295192211506
 30
0.0000000000000000
 40
55.00000000000000
100
AcDbArc
 50
159.5984775970596
 51
180.0000000000000
  0
DIMENSION
  5
324
100
AcDbEntity
  8
H0
  6
CONTINUOUS
 62
1
100
AcDbDimension
  2
*D24
 10
581.6283832940105
 20
366.1943667503942
 30
0.0000000000000000
 11
516.6283832940105
 21
366.6943667503942
 31
0.0000000000000000
 70
32
  1
\A1;210
  3
H002
100
AcDbAlignedDimension
 13
451.6283832940105
 23
327.3023515627741
 33
0.0000000000000000
 14
581.6283832940105
 24
327.3023515627741
 34
0.0000000000000000
100
AcDbRotatedDimension
1001
ACAD
1000
DSTYLE
1002
{
1070
   173
1070
     1
1070
     6
1000
_OPEN
1070
     7
1000
_OPEN
1070
    41
1040
3.000000
1002
}
  0
DIMENSION
  5
32D
100
AcDbEntity
  8
H0
  6
CONTINUOUS
 62
3
100
AcDbDimension
  2
*D25
 10
539.5067483365598
 20
336.3023515627741
 30
0.0000000000000000
 11
538.7567483365598
 21
341.7312912064760
 31
0.0000000000000000
 70
160
  3
H002
100
AcDbAlignedDimension
 13
447.3567361846419
 23
323.3023515627741
 33
0.0000000000000000
 14
527.6283832940104
 24
336.3023515627741
 34
0.0000000000000000
 50
90.00000000000000
100
AcDbRotatedDimension
1001
ACAD
1000
DSTYLE
1002
{
1070
   173
1070
     1
1070
     6
1000
_OPEN
1070
     7
1000
_OPEN
1070
    41
1040
3.000000
1002
}
  0
DIMENSION
  5
334
100
AcDbEntity
  8
H0
  6
CONTINUOUS
 62
3
100
AcDbDimension
  2
*D26
 10
506.6283832940105
 20
281.8776072478506
 30
0.0000000000000000
 11
516.6283832940105
 21
282.3776072478506
 31
0.0000000000000000
 70
32
  1
\A1;\U+220520
  3
H002
100
AcDbAlignedDimension
 13
526.6283832940105
 23
310.3023515627741
 33
0.0000000000000000
 14
506.6283832940105
 24
310.3023515627741
 34
0.0000000000000000
100
AcDbRotatedDimension
1001
ACAD
1000
DSTYLE
1002
{
1070
   173
1070
     1
1070
     6
1000
_OPEN
1070
     7
1000
_OPEN
1070
    41
1040
3.000000
1002
}
  0
DIMENSION
  5
33D
100
AcDbEntity
  8
H0
  6
CONTINUOUS
 62
3
100
AcDbDimension
  2
*D27
 10
547.1137306120414
 20
336.3023515627741
 30
0.0000000000000000
 11
546.6137306120414
 21
276.3023515627741
 31
0.0000000000000000
 70
32
  3
H002
100
AcDbAlignedDimension
 13
522.4783832940105
 23
216.3023515627741
 33
0.0000000000000000
 14
527.6283832940104
 24
336.3023515627741
 34
0.0000000000000000
 50
90.00000000000000
100
AcDbRotatedDimension
1001
ACAD
1000
DSTYLE
1002
{
1070
   173
1070
     1
1070
     6
1000
_OPEN
1070
     7
1000
_OPEN
1070
    41
1040
3.000000
1002
}
  0
DIMENSION
  5
347
100
AcDbEntity
  8
H0
  6
CONTINUOUS
 62
3
100
AcDbDimension
  2
*D28
 10
532.6660787801731
 20
172.3095303748290
 30
0.0000000000000000
 11
536.8839168527256
 21
177.2344752285628
 31
0.0000000000000000
 70
161
  3
H002
100
AcDbAlignedDimension
 13
516.0847133555817
 23
174.7487601756985
 33
0.0000000000000000
 14
523.1557811674422
 24
181.8198279875664
 34
0.0000000000000000
 50
44.99999999996580
1001
ACAD
1000
DSTYLE
1002
{
1070
   173
1070
     1
1070
     6
1000
_OPEN
1070
     7
1000
_OPEN
1070
    41
1040
3.000000
1070
   272
1070
     2
1070
    47
1040
0.000000
1070
    48
1040
0.150000
1070
    71
1070
     1
1070
   340
1005
A5
1002
}
  0
DIMENSION
  5
350
100
AcDbEntity
  8
H0
  6
CONTINUOUS
 62
3
100
AcDbDimension
  2
*D29
 10
536.8902181711162
 20
230.3023515627741
 30
0.0000000000000000
 11
536.3902181711162
 21
223.3023515627741
 31
0.0000000000000000
 70
32
  3
H002
100
AcDbAlignedDimension
 13
522.4783832940105
 23
216.3023515627741
 33
0.0000000000000000
 14
523.1783832940105
 24
230.3023515627741
 34
0.0000000000000000
 50
90.00000000000000
100
AcDbRotatedDimension
1001
ACAD
1000
DSTYLE
1002
{
1070
   173
1070
     1
1070
     6
1000
_OPEN
1070
     7
1000
_OPEN
1070
    41
1040
3.000000
1002
}
  0
ARC
  5
351
100
AcDbEntity
  8
H0
  6
CONTINUOUS
 62
3
100
AcDbCircle
 10
534.3783832940105
 20
323.3023515627741
 30
0.0000000000000000
 40
7.250000000000028
100
AcDbArc
 50
136.3971810272964
 51
223.6028189727036
  0
ARC
  5
352
100
AcDbEntity
  8
H0
  6
CONTINUOUS
 62
3
100
AcDbCircle
 10
498.8783832940105
 20
323.3023515627741
 30
0.0000000000000000
 40
7.250000000000036
100
AcDbArc
 50
316.3971810272965
 51
403.6028189727035
  0
LINE
  5
353
100
AcDbEntity
  8
H0
  6
CONTINUOUS
 62
3
100
AcDbLine
 10
529.1283832940105
 20
318.3023515627741
 30
0.0000000000000000
 11
529.1283832940105
 21
311.3023515627741
 31
0.0000000000000000
  0
LINE
  5
354
100
AcDbEntity
  8
H0
  6
CONTINUOUS
 62
3
100
AcDbLine
 10
529.1283832940105
 20
335.3023515627740
 30
0.0000000000000000
 11
529.1283832940105
 21
328.3023515627741
 31
0.0000000000000000
  0
LINE
  5
355
100
AcDbEntity
  8
H0
  6
CONTINUOUS
 62
3
100
AcDbLine
 10
504.1283832940105
 20
318.3023515627741
 30
0.0000000000000000
 11
504.1283832940105
 21
311.3023515627741
 31
0.0000000000000000
  0
LINE
  5
356
100
AcDbEntity
  8
H0
  6
CONTINUOUS
 62
3
100
AcDbLine
 10
504.1283832940105
 20
335.3023515627740
 30
0.0000000000000000
 11
504.1283832940105
 21
328.3023515627741
 31
0.0000000000000000
  0
ARC
  5
357
100
AcDbEntity
  8
H0
  6
CONTINUOUS
 62
3
100
AcDbCircle
 10
560.5448476786274
 20
325.8023515627741
 30
0.0000000000000000
 40
3.750000000000000
100
AcDbArc
 50
138.1896851042214
 51
221.8103148957786
  0
ARC
  5
358
100
AcDbEntity
  8
H0
  6
CONTINUOUS
 62
3
100
AcDbCircle
 10
554.9546777348779
 20
325.8023515627741
 30
0.0000000000000000
 40
3.750000000000000
100
AcDbArc
 50
318.1896851042214
 51
401.8103148957786
  0
ARC
  5
359
100
AcDbEntity
  8
H0
  6
CONTINUOUS
 62
3
100
AcDbCircle
 10
564.2948476786274
 20
325.8023515627741
 30
0.0000000000000000
 40
3.750000000000000
100
AcDbArc
 50
138.1896851042214
 51
221.8103148957786
  0
ARC
  5
35A
100
AcDbEntity
  8
H0
  6
CONTINUOUS
 62
3
100
AcDbCircle
 10
554.9546777348779
 20
320.8023515627741
 30
0.0000000000000000
 40
3.750000000000000
100
AcDbArc
 50
318.1896851042214
 51
401.8103148957786
  0
ARC
  5
35B
100
AcDbEntity
  8
H0
  6
CONTINUOUS
 62
3
100
AcDbCircle
 10
564.2948476786274
 20
320.8023515627741
 30
0.0000000000000000
 40
3.750000000000000
100
AcDbArc
 50
138.1896851042214
 51
221.8103148957786
  0
ARC
  5
35C
100
AcDbEntity
  8
H0
  6
CONTINUOUS
 62
3
100
AcDbCircle
 10
558.7046777348779
 20
320.8023515627741
 30
0.0000000000000000
 40
3.750000000000000
100
AcDbArc
 50
318.1896851042214
 51
401.8103148957786
  0
LINE
  5
35D
100
AcDbEntity
  8
H0
  6
CONTINUOUS
 62
3
100
AcDbLine
 10
529.1283832940105
 20
328.3023515627741
 30
0.0000000000000000
 11
557.7497627067527
 21
328.3023515627741
 31
0.0000000000000000
  0
LINE
  5
35E
100
AcDbEntity
  8
H0
  6
CONTINUOUS
 62
3
100
AcDbLine
 10
561.4997627067527
 20
328.3023515627741
 30
0.0000000000000000
 11
576.6283832940105
 21
328.3023515627741
 31
0.0000000000000000
  0
LINE
  5
35F
100
AcDbEntity
  8
H0
  6
CONTINUOUS
 62
3
100
AcDbLine
 10
529.1283832940105
 20
318.3023515627741
 30
0.0000000000000000
 11
557.7497627067527
 21
318.3023515627741
 31
0.0000000000000000
  0
LINE
  5
360
100
AcDbEntity
  8
H0
  6
CONTINUOUS
 62
3
100
AcDbLine
 10
561.4997627067527
 20
318.3023515627741
 30
0.0000000000000000
 11
576.6283832940105
 21
318.3023515627741
 31
0.0000000000000000
  0
ARC
  5
361
100
AcDbEntity
  8
H0
  6
CONTINUOUS
 62
3
100
AcDbCircle
 10
470.9298970966014
 20
325.8023515627741
 30
0.0000000000000000
 40
3.750000000000000
100
AcDbArc
 50
138.1896851042214
 51
221.8103148957786
  0
ARC
  5
362
100
AcDbEntity
  8
H0
  6
CONTINUOUS
 62
3
100
AcDbCircle
 10
465.3397271528519
 20
325.8023515627741
 30
0.0000000000000000
 40
3.750000000000000
100
AcDbArc
 50
318.1896851042214
 51
401.8103148957786
  0
ARC
  5
363
100
AcDbEntity
  8
H0
  6
CONTINUOUS
 62
3
100
AcDbCircle
 10
474.6798970966014
 20
325.8023515627741
 30
0.0000000000000000
 40
3.750000000000000
100
AcDbArc
 50
138.1896851042214
 51
221.8103148957786
  0
ARC
  5
364
100
AcDbEntity
  8
H0
  6
CONTINUOUS
 62
3
100
AcDbCircle
 10
465.3397271528519
 20
320.8023515627741
 30
0.0000000000000000
 40
3.750000000000000
100
AcDbArc
 50
318.1896851042214
 51
401.8103148957786
  0
ARC
  5
365
100
AcDbEntity
  8
H0
  6
CONTINUOUS
 62
3
100
AcDbCircle
 10
474.6798970966014
 20
320.8023515627741
 30
0.0000000000000000
 40
3.750000000000000
100
AcDbArc
 50
138.1896851042214
 51
221.8103148957786
  0
ARC
  5
366
100
AcDbEntity
  8
H0
  6
CONTINUOUS
 62
3
100
AcDbCircle
 10
469.0897271528519
 20
320.8023515627741
 30
0.0000000000000000
 40
3.750000000000000
100
AcDbArc
 50
318.1896851042214
 51
401.8103148957786
  0
LINE
  5
367
100
AcDbEntity
  8
H0
  6
CONTINUOUS
 62
3
100
AcDbLine
 10
456.6283832940105
 20
328.3023515627741
 30
0.0000000000000000
 11
468.1348121247266
 21
328.3023515627741
 31
0.0000000000000000
  0
LINE
  5
368
100
AcDbEntity
  8
H0
  6
CONTINUOUS
 62
3
100
AcDbLine
 10
471.8848121247266
 20
328.3023515627741
 30
0.0000000000000000
 11
504.1283832940105
 21
328.3023515627741
 31
0.0000000000000000
  0
LINE
  5
369
100
AcDbEntity
  8
H0
  6
CONTINUOUS
 62
3
100
AcDbLine
 10
456.6283832940105
 20
318.3023515627741
 30
0.0000000000000000
 11
468.1348121247266
 21
318.3023515627741
 31
0.0000000000000000
  0
LINE
  5
36A
100
AcDbEntity
  8
H0
  6
CONTINUOUS
 62
3
100
AcDbLine
 10
471.8848121247266
 20
318.3023515627741
 30
0.0000000000000000
 11
504.1283832940105
 21
318.3023515627741
 31
0.0000000000000000
  0
LINE
  5
36B
100
AcDbEntity
  8
H0
  6
CENTER
 62
3
100
AcDbLine
 10
516.6283832940105
 20
289.5276071047994
 30
0.0000000000000000
 11
516.6283832940105
 21
346.2718348886677
 31
0.0000000000000000
  0
LINE
  5
36C
100
AcDbEntity
  8
H0
  6
CENTER
 62
3
100
AcDbLine
 10
516.6283832940105
 20
211.2718348886677
 30
0.0000000000000000
 11
516.6283832940105
 21
280.3776072478506
 31
0.0000000000000000
  0
ARC
  5
36D
100
AcDbEntity
  8
H0
  6
CONTINUOUS
 62
3
100
AcDbCircle
 10
456.6283832940105
 20
323.3023515627741
 30
0.0000000000000000
 40
5.000000000000000
100
AcDbArc
 50
90.00000000000000
 51
270.0000000000000
  0
ARC
  5
36E
100
AcDbEntity
  8
H0
  6
CONTINUOUS
 62
3
100
AcDbCircle
 10
576.6283832940105
 20
323.3023515627741
 30
0.0000000000000000
 40
5.000000000000000
100
AcDbArc
 50
270.0000000000000
 51
450.0000000000000
  0
LINE
  5
36F
100
AcDbEntity
  8
H0
  6
CONTINUOUS
 62
3
100
AcDbLine
 10
529.1283832940105
 20
311.3023515627741
 30
0.0000000000000000
 11
528.1283832940105
 21
310.3023515627741
 31
0.0000000000000000
  0
LINE
  5
370
100
AcDbEntity
  8
H0
  6
CONTINUOUS
 62
3
100
AcDbLine
 10
505.1283832940105
 20
310.3023515627741
 30
0.0000000000000000
 11
504.1283832940105
 21
311.3023515627741
 31
0.0000000000000000
  0
LINE
  5
371
100
AcDbEntity
  8
H0
  6
CONTINUOUS
 62
3
100
AcDbLine
 10
504.1283832940105
 20
335.3023515627741
 30
0.0000000000000000
 11
505.1283832940105
 21
336.3023515627741
 31
0.0000000000000000
  0
LINE
  5
372
100
AcDbEntity
  8
H0
  6
CONTINUOUS
 62
3
100
AcDbLine
 10
529.1283832940105
 20
335.3023515627741
 30
0.0000000000000000
 11
528.1283832940105
 21
336.3023515627741
 31
0.0000000000000000
  0
DIMENSION
  5
37B
100
AcDbEntity
  8
H0
  6
CONTINUOUS
 62
3
100
AcDbDimension
  2
*D30
 10
504.1283832940105
 20
354.8891931963869
 30
0.0000000000000000
 11
516.6283832940105
 21
355.3891931963869
 31
0.0000000000000000
 70
32
  1
\A1;\U+220525
  3
H002
100
AcDbAlignedDimension
 13
529.1283832940105
 23
335.3023515627740
 33
0.0000000000000000
 14
504.1283832940105
 24
335.3023515627740
 34
0.0000000000000000
100
AcDbRotatedDimension
1001
ACAD
1000
DSTYLE
1002
{
1070
   173
1070
     1
1070
     6
1000
_OPEN
1070
     7
1000
_OPEN
1070
    41
1040
3.000000
1002
}
  0
DIMENSION
  5
384
100
AcDbEntity
  8
H0
  6
CONTINUOUS
 62
3
100
AcDbDimension
  2
*D31
 10
491.6283832940105
 20
328.3023515627741
 30
0.0000000000000000
 11
490.8783832940105
 21
311.2718348886677
 31
0.0000000000000000
 70
160
  1
\A1;\U+220510
  3
H002
100
AcDbAlignedDimension
 13
471.8848121247266
 23
318.3023515627741
 33
0.0000000000000000
 14
471.8848121247266
 24
328.3023515627741
 34
0.0000000000000000
 50
90.00000000000000
100
AcDbRotatedDimension
1001
ACAD
1000
DSTYLE
1002
{
1070
   173
1070
     1
1070
     6
1000
_OPEN
1070
     7
1000
_OPEN
1070
    41
1040
3.000000
1070
   287
1070
     0
1002
}
  0
LINE
  5
385
100
AcDbEntity
  8
WAKU0
  6
CONTINUOUS
 62
3
100
AcDbLine
 10
240.0000000000000
 20
51.00000000000000
 30
0.0000000000000000
 11
410.0000000000000
 21
51.00000000000000
 31
0.0000000000000000
  0
LINE
  5
386
100
AcDbEntity
  8
WAKU0
  6
CONTINUOUS
 62
3
100
AcDbLine
 10
240.0000000000000
 20
51.00000000000000
 30
0.0000000000000000
 11
240.0000000000000
 21
12.00000000000000
 31
0.0000000000000000
  0
LINE
  5
387
100
AcDbEntity
  8
WAKU0
  6
CONTINUOUS
 62
3
100
AcDbLine
 10
312.0000000000000
 20
51.00000000000000
 30
0.0000000000000000
 11
312.0000000000000
 21
12.00000000000000
 31
0.0000000000000000
  0
LINE
  5
388
100
AcDbEntity
  8
WAKU0
  6
CONTINUOUS
 62
3
100
AcDbLine
 10
332.0000000000000
 20
51.00000000000000
 30
0.0000000000000000
 11
332.0000000000000
 21
12.00000000000000
 31
0.0000000000000000
  0
LINE
  5
389
100
AcDbEntity
  8
WAKU0
  6
CONTINUOUS
 62
3
100
AcDbLine
 10
344.0000000000000
 20
51.00000000000000
 30
0.0000000000000000
 11
344.0000000000000
 21
12.00000000000000
 31
0.0000000000000000
  0
LINE
  5
38A
100
AcDbEntity
  8
WAKU0
  6
CONTINUOUS
 62
3
100
AcDbLine
 10
344.0000000000000
 20
37.00000000000000
 30
0.0000000000000000
 11
410.0000000000000
 21
37.00000000000000
 31
0.0000000000000000
  0
LINE
  5
38B
100
AcDbEntity
  8
WAKU0
  6
CONTINUOUS
 62
3
100
AcDbLine
 10
332.0000000000000
 20
23.00000000000000
 30
0.0000000000000000
 11
410.0000000000000
 21
23.00000000000000
 31
0.0000000000000000
  0
LINE
  5
38C
100
AcDbEntity
  8
WAKU0
  6
CONTINUOUS
 62
3
100
AcDbLine
 10
375.0000000000000
 20
51.00000000000000
 30
0.0000000000000000
 11
375.0000000000000
 21
44.00000000000000
 31
0.0000000000000000
  0
LINE
  5
38D
100
AcDbEntity
  8
WAKU0
  6
CONTINUOUS
 62
3
100
AcDbLine
 10
387.0000000000000
 20
51.00000000000000
 30
0.0000000000000000
 11
387.0000000000000
 21
44.00000000000000
 31
0.0000000000000000
  0
LINE
  5
38E
100
AcDbEntity
  8
WAKU0
  6
CONTINUOUS
 62
3
100
AcDbLine
 10
312.0000000000000
 20
31.50000000000000
 30
0.0000000000000000
 11
332.0000000000000
 21
31.50000000000000
 31
0.0000000000000000
  0
LINE
  5
38F
100
AcDbEntity
  8
WAKU0
  6
CONTINUOUS
 62
3
100
AcDbLine
 10
332.0000000000000
 20
44.00000000000000
 30
0.0000000000000000
 11
410.0000000000000
 21
44.00000000000000
 31
0.0000000000000000
  0
LINE
  5
390
100
AcDbEntity
  8
WAKU0
  6
CONTINUOUS
 62
3
100
AcDbLine
 10
240.0000000000000
 20
37.00000000000000
 30
0.0000000000000000
 11
312.0000000000000
 21
37.00000000000000
 31
0.0000000000000000
  0
LINE
  5
391
100
AcDbEntity
  8
WAKU0
  6
CONTINUOUS
 62
3
100
AcDbLine
 10
240.0000000000000
 20
23.00000000000000
 30
0.0000000000000000
 11
312.0000000000000
 21
23.00000000000000
 31
0.0000000000000000
  0
LINE
  5
392
100
AcDbEntity
  8
WAKU0
  6
CONTINUOUS
 62
3
100
AcDbLine
 10
288.0000000000000
 20
37.00000000000000
 30
0.0000000000000000
 11
288.0000000000000
 21
12.00000000000000
 31
0.0000000000000000
  0
LINE
  5
393
100
AcDbEntity
  8
WAKU0
  6
CONTINUOUS
 62
3
100
AcDbLine
 10
264.0000000000000
 20
37.00000000000000
 30
0.0000000000000000
 11
264.0000000000000
 21
23.00000000000000
 31
0.0000000000000000
  0
LINE
  5
394
100
AcDbEntity
  8
WAKU0
  6
CONTINUOUS
 62
3
100
AcDbLine
 10
300.0000000000000
 20
26.00000000000000
 30
0.0000000000000000
 11
300.0000000000000
 21
23.00000000000000
 31
0.0000000000000000
  0
LINE
  5
395
100
AcDbEntity
  8
WAKU0
  6
CONTINUOUS
 62
3
100
AcDbLine
 10
276.0000000000000
 20
26.00000000000000
 30
0.0000000000000000
 11
276.0000000000000
 21
23.00000000000000
 31
0.0000000000000000
  0
LINE
  5
396
100
AcDbEntity
  8
WAKU0
  6
CONTINUOUS
 62
3
100
AcDbLine
 10
252.0000000000000
 20
26.00000000000000
 30
0.0000000000000000
 11
252.0000000000000
 21
23.00000000000000
 31
0.0000000000000000
  0
LINE
  5
397
100
AcDbEntity
  8
WAKU0
  6
CONTINUOUS
 62
3
100
AcDbLine
 10
258.0000000000000
 20
51.00000000000000
 30
0.0000000000000000
 11
258.0000000000000
 21
37.00000000000000
 31
0.0000000000000000
  0
LINE
  5
398
100
AcDbEntity
  8
WAKU0
  6
CONTINUOUS
 62
3
100
AcDbLine
 10
240.0000000000000
 20
45.00000000000000
 30
0.0000000000000000
 11
312.0000000000000
 21
45.00000000000000
 31
0.0000000000000000
  0
LINE
  5
399
100
AcDbEntity
  8
WAKU0
  6
HIDDEN
 62
3
100
AcDbLine
 10
360.5000000000000
 20
23.00000000000000
 30
0.0000000000000000
 11
360.5000000000000
 21
12.00000000000000
 31
0.0000000000000000
  0
LINE
  5
39A
100
AcDbEntity
  8
WAKU0
  6
HIDDEN
 62
3
100
AcDbLine
 10
372.9000000000000
 20
23.00000000000000
 30
0.0000000000000000
 11
372.9000000000000
 21
12.00000000000000
 31
0.0000000000000000
  0
MTEXT
  5
39B
100
AcDbEntity
  8
WAKU0
  6
CONTINUOUS
 62
3
100
AcDbMText
 10
344.4820000231266
 20
49.04999995231628
 30
0.0000000000000000
 40
3.099999904632568
 41
0.0000000000000000
 71
     1
 72
     1
  1
{\H0.93x;{JN06T102}}
 11
1.000000000000000
 21
0.0000000000000000
 31
0.0000000000000000
  7
STANDARD
  0
MTEXT
  5
39C
100
AcDbEntity
  8
WAKU0
  6
CONTINUOUS
 62
3
100
AcDbMText
 10
346.8550015687943
 20
43.50000000000000
 30
0.0000000000000000
 40
3.000000000000000
 41
0.0000000000000000
 71
     1
 72
     1
  1
{\H0.94x;{スクロールチャック　６\PＳＣＲＯＬＬ　ＣＨＵＣＫ　６　　　　}}
 11
1.000000000000000
 21
0.0000000000000000
 31
0.0000000000000000
  7
KNJYOKO
  0
MTEXT
  5
39D
100
AcDbEntity
  8
WAKU0
  6
CONTINUOUS
 62
3
100
AcDbMText
 10
344.5500011928380
 20
34.23333326975504
 30
0.0000000000000000
 40
3.099999904632568
 41
0.0000000000000000
 71
     1
 72
     1
  1
{\H0.71x;{ＪＮ０６Ｔ１０２　ガイケイ\PＪＮ０６Ｔ１０２　ＯＵＴＳＩＤＥ　ＶＩＥＷ　　　　}}
 11
1.000000000000000
 21
0.0000000000000000
 31
0.0000000000000000
  7
KNJYOKO
  0
MTEXT
  5
39E
100
AcDbEntity
  8
WAKU0
  6
CONTINUOUS
 62
3
100
AcDbMText
 10
318.0049998760223
 20
39.29999995231628
 30
0.0000000000000000
 40
3.099999904632568
 41
0.0000000000000000
 71
     1
 72
     1
  1
{\H0.90x;{2:3}}
 11
1.000000000000000
 21
0.0000000000000000
 31
0.0000000000000000
  7
STANDARD
  0
MTEXT
  5
39F
100
AcDbEntity
  8
WAKU0
  6
CONTINUOUS
 62
3
100
AcDbMText
 10
309.1079998910427
 20
16.54999995231628
 30
0.0000000000000000
 40
3.099999904632568
 41
0.0000000000000000
 71
     1
 72
     1
  1
{\H0.81x;{ }}
 11
1.000000000000000
 21
0.0000000000000000
 31
0.0000000000000000
  7
STANDARD
  0
MTEXT
  5
3A0
100
AcDbEntity
  8
WAKU0
  6
CONTINUOUS
 62
3
100
AcDbMText
 10
374.4000001549721
 20
20.15000009536743
 30
0.0000000000000000
 40
5.300000190734863
 41
0.0000000000000000
 71
     1
 72
     1
  1
{\H0.90x;{1396}}
 11
1.000000000000000
 21
0.0000000000000000
 31
0.0000000000000000
  7
STANDARD
  0
MTEXT
  5
3A1
100
AcDbEntity
  8
WAKU0
  6
CONTINUOUS
 62
3
100
AcDbMText
 10
362.3000000834465
 20
20.15000009536743
 30
0.0000000000000000
 40
5.300000190734863
 41
0.0000000000000000
 71
     1
 72
     1
  1
{\H0.87x;{35}}
 11
1.000000000000000
 21
0.0000000000000000
 31
0.0000000000000000
  7
STANDARD
  0
MTEXT
  5
3A2
100
AcDbEntity
  8
WAKU0
  6
CONTINUOUS
 62
3
100
AcDbMText
 10
345.5000001192093
 20
20.15000009536743
 30
0.0000000000000000
 40
5.300000190734863
 41
0.0000000000000000
 71
     1
 72
     1
  1
{\H0.89x;{61S}}
 11
1.000000000000000
 21
0.0000000000000000
 31
0.0000000000000000
  7
STANDARD
  0
MTEXT
  5
3A3
100
AcDbEntity
  8
WAKU0
  6
CONTINUOUS
 62
3
100
AcDbMText
 10
400.0000000476837
 20
20.15000009536743
 30
0.0000000000000000
 40
5.300000190734863
 41
0.0000000000000000
 71
     1
 72
     1
  1
{\H0.81x;{5}}
 11
1.000000000000000
 21
0.0000000000000000
 31
0.0000000000000000
  7
STANDARD
  0
MTEXT
  5
3A4
100
AcDbEntity
  8
WAKU0
  6
CONTINUOUS
 62
3
100
AcDbMText
 10
309.1079998910427
 20
29.04999995231628
 30
0.0000000000000000
 40
3.099999904632568
 41
0.0000000000000000
 71
     1
 72
     1
  1
{\H0.81x;{ }}
 11
1.000000000000000
 21
0.0000000000000000
 31
0.0000000000000000
  7
STANDARD
  0
MTEXT
  5
3A5
100
AcDbEntity
  8
WAKU0
  6
CONTINUOUS
 62
3
100
AcDbMText
 10
400.0000000819564
 20
44.84999990463257
 30
0.0000000000000000
 40
5.300000190734863
 41
0.0000000000000000
 71
     7
 72
     1
  1
{\H0.81x;{ }}
 11
1.000000000000000
 21
0.0000000000000000
 31
0.0000000000000000
  7
STANDARD
  0
MTEXT
  5
3A6
100
AcDbEntity
  8
WAKU0
  6
CONTINUOUS
 62
3
100
AcDbMText
 10
289.3850002884865
 20
33.00000000000000
 30
0.0000000000000000
 40
3.000000000000000
 41
0.0000000000000000
 71
     7
 72
     1
  1
{\H0.93x;{DRAWN BY}}
 11
1.000000000000000
 21
0.0000000000000000
 31
0.0000000000000000
  7
STANDARD
  0
MTEXT
  5
3A7
100
AcDbEntity
  8
WAKU0
  6
CONTINUOUS
 62
3
100
AcDbMText
 10
269.2149997949600
 20
32.95000004768372
 30
0.0000000000000000
 40
3.099999904632568
 41
0.0000000000000000
 71
     7
 72
     1
  1
{\H0.92x;{CHIEF}}
 11
1.000000000000000
 21
0.0000000000000000
 31
0.0000000000000000
  7
STANDARD
  0
MTEXT
  5
3A8
100
AcDbEntity
  8
WAKU0
  6
CONTINUOUS
 62
3
100
AcDbMText
 10
242.4249997138977
 20
32.95000004768372
 30
0.0000000000000000
 40
3.099999904632568
 41
0.0000000000000000
 71
     7
 72
     1
  1
{\H0.92x;{MANAGER}}
 11
1.000000000000000
 21
0.0000000000000000
 31
0.0000000000000000
  7
STANDARD
  0
MTEXT
  5
3A9
100
AcDbEntity
  8
WAKU0
  6
CONTINUOUS
 62
3
100
AcDbMText
 10
244.6599994301796
 20
18.13333336512248
 30
0.0000000000000000
 40
3.099999904632568
 41
0.0000000000000000
 71
     7
 72
     1
  1
{\H0.93x;{KITAGAWA IRON\PWORKS CO.,LTD.}}
 11
1.000000000000000
 21
0.0000000000000000
 31
0.0000000000000000
  7
STANDARD
  0
MTEXT
  5
3AA
100
AcDbEntity
  8
WAKU0
  6
CONTINUOUS
 62
3
100
AcDbMText
 10
241.0850002169609
 20
46.50000000000000
 30
0.0000000000000000
 40
3.000000000000000
 41
0.0000000000000000
 71
     7
 72
     1
  1
{\H0.92x;{CAREER}}
 11
1.000000000000000
 21
0.0000000000000000
 31
0.0000000000000000
  7
STANDARD
  0
MTEXT
  5
3AB
100
AcDbEntity
  8
WAKU0
  6
CONTINUOUS
 62
3
100
AcDbMText
 10
294.6099998354912
 20
18.95000004768372
 30
0.0000000000000000
 40
3.099999904632568
 41
0.0000000000000000
 71
     7
 72
     1
  1
{\H0.91x;{DATE}}
 11
1.000000000000000
 21
0.0000000000000000
 31
0.0000000000000000
  7
STANDARD
  0
MTEXT
  5
3AC
100
AcDbEntity
  8
WAKU0
  6
CONTINUOUS
 62
3
100
AcDbMText
 10
313.9000002145767
 20
26.50000000000000
 30
0.0000000000000000
 40
3.000000000000000
 41
0.0000000000000000
 71
     7
 72
     1
  1
{\H0.63x;{3RD ANGLE}}
 11
1.000000000000000
 21
0.0000000000000000
 31
0.0000000000000000
  7
STANDARD
  0
MTEXT
  5
3AD
100
AcDbEntity
  8
WAKU0
  6
CONTINUOUS
 62
3
100
AcDbMText
 10
315.2149997949600
 20
45.95000004768372
 30
0.0000000000000000
 40
3.099999904632568
 41
0.0000000000000000
 71
     7
 72
     1
  1
{\H0.92x;{SCALE}}
 11
1.000000000000000
 21
0.0000000000000000
 31
0.0000000000000000
  7
STANDARD
  0
MTEXT
  5
3AE
100
AcDbEntity
  8
WAKU0
  6
CONTINUOUS
 62
3
100
AcDbMText
 10
405.7000000476837
 20
46.00000000000000
 30
0.0000000000000000
 40
3.000000000000000
 41
0.0000000000000000
 71
     7
 72
     1
  1
{\H0.63x;{kg}}
 11
1.000000000000000
 21
0.0000000000000000
 31
0.0000000000000000
  7
STANDARD
  0
MTEXT
  5
3AF
100
AcDbEntity
  8
WAKU0
  6
CONTINUOUS
 62
3
100
AcDbMText
 10
375.6000001430512
 20
46.00000000000000
 30
0.0000000000000000
 40
3.000000000000000
 41
0.0000000000000000
 71
     7
 72
     1
  1
{\H0.63x;{WEIGHT}}
 11
1.000000000000000
 21
0.0000000000000000
 31
0.0000000000000000
  7
STANDARD
  0
MTEXT
  5
3B0
100
AcDbEntity
  8
WAKU0
  6
CONTINUOUS
 62
3
100
AcDbMText
 10
334.0049998760223
 20
18.13333336512248
 30
0.0000000000000000
 40
3.099999904632568
 41
0.0000000000000000
 71
     7
 72
     1
  1
{\H0.90x;{DRW\PNO.}}
 11
1.000000000000000
 21
0.0000000000000000
 31
0.0000000000000000
  7
STANDARD
  0
MTEXT
  5
3B1
100
AcDbEntity
  8
WAKU0
  6
CONTINUOUS
 62
3
100
AcDbMText
 10
332.6099998354912
 20
31.95000004768372
 30
0.0000000000000000
 40
3.099999904632568
 41
0.0000000000000000
 71
     7
 72
     1
  1
{\H0.91x;{NAME}}
 11
1.000000000000000
 21
0.0000000000000000
 31
0.0000000000000000
  7
STANDARD
  0
MTEXT
  5
3B2
100
AcDbEntity
  8
WAKU0
  6
CONTINUOUS
 62
3
100
AcDbMText
 10
332.6099998354912
 20
45.95000004768372
 30
0.0000000000000000
 40
3.099999904632568
 41
0.0000000000000000
 71
     7
 72
     1
  1
{\H0.91x;{TYPE}}
 11
1.000000000000000
 21
0.0000000000000000
 31
0.0000000000000000
  7
STANDARD
  0
LINE
  5
3B3
100
AcDbEntity
  8
WAKU0
  6
HIDDEN
 62
3
100
AcDbLine
 10
407.1599564743885
 20
13.84999990463257
 30
0.0000000000000000
 11
396.9400436209789
 21
13.84999990463257
 31
0.0000000000000000
  0
LINE
  5
3B4
100
AcDbEntity
  8
WAKU0
  6
HIDDEN
 62
3
100
AcDbLine
 10
407.1599564743885
 20
13.84999990463250
 30
0.0000000000000000
 11
402.0500000476852
 21
22.70070406014901
 31
0.0000000000000000
  0
LINE
  5
3B5
100
AcDbEntity
  8
WAKU0
  6
HIDDEN
 62
3
100
AcDbLine
 10
402.0500000476852
 20
22.70070406014902
 30
0.0000000000000000
 11
396.9400436209789
 21
13.84999990463248
 31
0.0000000000000000
  0
LINE
  5
3B6
100
AcDbEntity
  8
WAKU0
  6
CONTINUOUS
 62
3
100
AcDbLine
 10
330.4713877753800
 20
15.78041421262812
 30
0.0000000000000000
 11
330.4713877753800
 21
21.78041421262815
 31
0.0000000000000000
  0
LINE
  5
3B7
100
AcDbEntity
  8
WAKU0
  6
CONTINUOUS
 62
3
100
AcDbLine
 10
323.9336941228225
 20
17.28041421262811
 30
0.0000000000000000
 11
323.9336941228225
 21
20.28041421262824
 31
0.0000000000000000
  0
LINE
  5
3B8
100
AcDbEntity
  8
WAKU0
  6
CENTER
 62
12
100
AcDbLine
 10
313.4321805514995
 20
18.78041421262813
 30
0.0000000000000000
 11
331.2765788964694
 21
18.78041421262813
 31
0.0000000000000000
  0
LINE
  5
3B9
100
AcDbEntity
  8
WAKU0
  6
CENTER
 62
12
100
AcDbLine
 10
317.4474565857986
 20
14.55921662918448
 30
0.0000000000000000
 11
317.4474565857986
 21
22.89865102149943
 31
0.0000000000000000
  0
LINE
  5
3BA
100
AcDbEntity
  8
WAKU0
  6
CONTINUOUS
 62
3
100
AcDbLine
 10
323.9336941228225
 20
20.28041421262797
 30
0.0000000000000000
 11
330.4713877753800
 21
21.78041421262795
 31
0.0000000000000000
  0
LINE
  5
3BB
100
AcDbEntity
  8
WAKU0
  6
CONTINUOUS
 62
3
100
AcDbLine
 10
323.9336941228225
 20
17.28041421262811
 30
0.0000000000000000
 11
330.4713877753799
 21
15.78041421262812
 31
0.0000000000000000
  0
CIRCLE
  5
3BC
100
AcDbEntity
  8
WAKU0
  6
CONTINUOUS
 62
3
100
AcDbCircle
 10
317.4474565857986
 20
18.78041421262813
 30
0.0000000000000000
 40
1.499999999999972
  0
CIRCLE
  5
3BD
100
AcDbEntity
  8
WAKU0
  6
CONTINUOUS
 62
3
100
AcDbCircle
 10
317.4474565857986
 20
18.78041421262813
 30
0.0000000000000000
 40
2.999999999999979
  0
ENDSEC
  0
SECTION
  2
OBJECTS
  0
DICTIONARY
  5
40C
100
AcDbDictionary
  3
ACAD_GROUP
350
40D
  3
ACAD_MLINESTYLE
350
40E
  3
DWGPROPS
350
40F
  0
DICTIONARY
  5
40D
102
{ACAD_REACTORS
330
40C
102
}
100
AcDbDictionary
  0
DICTIONARY
  5
40E
102
{ACAD_REACTORS
330
40C
102
}
100
AcDbDictionary
  3
STANDARD
350
410
  0
MLINESTYLE
  5
410
102
{ACAD_REACTORS
330
40E
102
}
100
AcDbMlineStyle
  2
STANDARD
 70
     0
  3

 62
   256
 51
90.00
 52
90.00
 71
     2
 49
0.50
 62
   256
  6
BYLAYER
 49
-0.50
 62
   256
  6
BYLAYER
  0
XRECORD
  5
40F
102
{ACAD_REACTORS
330
40C
102
}
100
AcDbXrecord
280
     1
  1
DWGPROPS COOKIE
  2
ＪＮ０６Ｔ－１０２　ＯＵＴＳＩＤＥ　ＶＩＥＷ
  3

  4

  6
ＳＣＲＯＬＬ　ＣＨＵＣＫ　６
  7

  8

  9

300
=
301
=
302
=
303
=
304
=
305
=
306
=
307
=
308
=
309
=
 40
0.000000
 41
0.000000
 42
0.000000
  1

 90
        0
  0
ENDSEC
  0
EOF
