  0
SECTION
  2
HEADER
  9
$ACADVER
  1
AC1014
  9
$DWGCODEPAGE
  3
ANSI_932
  9
$LTSCALE
 40
20.0
  9
$FILLMODE
 70
     1
  9
$CLAYER
  8
0
  9
$PDMODE
 70
     0
  9
$SPLFRAME
 70
     0
  9
$SPLINETYPE
 70
     6
  9
$SPLINESEGS
 70
     8
  9
$DIMASZ
 40
2.000000
  9
$DIMEXE
 40
2.000000
  9
$DIMEXO
 40
0.800000
  9
$DIMTAD
 70
     1
  9
$DIMTIH
 70
     0
  9
$DIMTOH
 70
     0
  9
$DIMTVP
 40
0.500000
  9
$DIMTXT
 40
3.100000
  9
$EXTMIN
 10
0.000000
 20
0.000000
 30
0.000000
  9
$EXTMAX
 10
297.000000
 20
420.000000
 30
0.000000
  9
$MEASUREMENT
 70
  1
  9
$LIMMIN
 10
0.000000
 20
0.000000
  9
$LIMMAX
 10
297.000000
 20
420.000000
  9
$HANDLING
 70
     1
  9
$HANDSEED
  5
363
  9
$DIMBLK
  1
_OPEN
  9
$DIMDEC
 70
     3
  9
$DIMAUNIT
 70
     1
  9
$DIMZIN
 70
     8
  9
$DIMTOFL
 70
     1
  0
ENDSEC
  0
SECTION
  2
CLASSES
  0
ENDSEC
  0
SECTION
  2
TABLES
  0
TABLE
  2
VPORT
  5
317
100
AcDbSymbolTable
 70
     1
  0
VPORT
  5
318
100
AcDbSymbolTableRecord
100
AcDbViewportTableRecord
  2
*ACTIVE
 70
     0
 12
301.917824
 22
207.037125
 40
429.015802
 41
1.407490
  0
ENDTAB
  0
TABLE
  2
LTYPE
  5
319
100
AcDbSymbolTable
 70
     4
  0
LTYPE
  5
31A
100
AcDbSymbolTableRecord
100
AcDbLinetypeTableRecord
  2
BYBLOCK
 70
     0
  3

 72
    65
 73
     0
 40
0.0
  0
LTYPE
  5
31B
100
AcDbSymbolTableRecord
100
AcDbLinetypeTableRecord
  2
BYLAYER
 70
     0
  3

 72
    65
 73
     0
 40
0.0
  0
LTYPE
  5
31C
100
AcDbSymbolTableRecord
100
AcDbLinetypeTableRecord
  2
CONTINUOUS
 70
     0
  3
Solid line (NEC CAE2D for Win R12.1 : 2019.02.25)
 72
    65
 73
     0
 40
0.0
  0
LTYPE
  5
31D
100
AcDbSymbolTableRecord
100
AcDbLinetypeTableRecord
  2
HIDDEN
 70
     0
  3
__ __ __ __ __ __ __ __ __ __ __ __ __ __
 72
    65
 73
     2
 40
0.375
 49
0.25
 74
     0
 49
-0.125
 74
     0
  0
LTYPE
  5
31E
100
AcDbSymbolTableRecord
100
AcDbLinetypeTableRecord
  2
CENTER
 70
     0
  3
____ _ ____ _ ____ _ ____ _ ____ _ ____
 72
    65
 73
     4
 40
2.0
 49
1.25
 74
     0
 49
-0.25
 74
     0
 49
0.25
 74
     0
 49
-0.25
 74
     0
  0
LTYPE
  5
31F
100
AcDbSymbolTableRecord
100
AcDbLinetypeTableRecord
  2
PHANTOM
 70
     0
  3
______  __  __  ______  __  __  ______ 
 72
    65
 73
     6
 40
2.5
 49
1.25
 74
     0
 49
-0.25
 74
     0
 49
0.25
 74
     0
 49
-0.25
 74
     0
 49
0.25
 74
     0
 49
-0.25
 74
     0
  0
ENDTAB
  0
TABLE
  2
LAYER
  5
320
100
AcDbSymbolTable
 70
    13
  0
LAYER
  5
321
100
AcDbSymbolTableRecord
100
AcDbLayerTableRecord
  2
0
 70
     0
 62
     7
  6
CONTINUOUS
  0
LAYER
  5
322
100
AcDbSymbolTableRecord
100
AcDbLayerTableRecord
  2
MAIN0
 70
     0
 62
     7
  6
CONTINUOUS
  0
LAYER
  5
323
100
AcDbSymbolTableRecord
100
AcDbLayerTableRecord
  2
MAIN1
 70
     0
 62
     7
  6
CONTINUOUS
  0
LAYER
  5
324
100
AcDbSymbolTableRecord
100
AcDbLayerTableRecord
  2
MAIN2
 70
     0
 62
     7
  6
CONTINUOUS
  0
LAYER
  5
325
100
AcDbSymbolTableRecord
100
AcDbLayerTableRecord
  2
MAIN3
 70
     0
 62
     7
  6
CONTINUOUS
  0
LAYER
  5
326
100
AcDbSymbolTableRecord
100
AcDbLayerTableRecord
  2
MAIN4
 70
     0
 62
     7
  6
CONTINUOUS
  0
LAYER
  5
327
100
AcDbSymbolTableRecord
100
AcDbLayerTableRecord
  2
MAIN5
 70
     0
 62
     7
  6
CONTINUOUS
  0
LAYER
  5
328
100
AcDbSymbolTableRecord
100
AcDbLayerTableRecord
  2
MAIN1023
 70
     0
 62
    16
  6
CONTINUOUS
  0
LAYER
  5
329
100
AcDbSymbolTableRecord
100
AcDbLayerTableRecord
  2
E0
 70
     0
 62
     7
  6
CONTINUOUS
  0
LAYER
  5
32A
100
AcDbSymbolTableRecord
100
AcDbLayerTableRecord
  2
E1
 70
     0
 62
     7
  6
CONTINUOUS
  0
LAYER
  5
32B
100
AcDbSymbolTableRecord
100
AcDbLayerTableRecord
  2
E1023
 70
     0
 62
    16
  6
CONTINUOUS
  0
LAYER
  5
32C
100
AcDbSymbolTableRecord
100
AcDbLayerTableRecord
  2
WAKU0
 70
     0
 62
     7
  6
CONTINUOUS
  0
LAYER
  5
32D
100
AcDbSymbolTableRecord
100
AcDbLayerTableRecord
  2
WAKU1023
 70
     0
 62
    16
  6
CONTINUOUS
  0
ENDTAB
  0
TABLE
  2
STYLE
  5
32E
100
AcDbSymbolTable
 70
     4
  0
STYLE
  5
32F
100
AcDbSymbolTableRecord
100
AcDbTextStyleTableRecord
  2
STANDARD
 70
    64
 40
0.0
 41
1.0
 50
0.0
 71
     0
 42
3.140094041824341
  3
TXT
  4

  0
STYLE
  5
330
100
AcDbSymbolTableRecord
100
AcDbTextStyleTableRecord
  2
ANKTATE
 70
    68
 40
0.0
 41
1.0
 50
0.0
 71
     0
 42
3.140094041824341
  3
TXT
  4

  0
STYLE
  5
C0
100
AcDbSymbolTableRecord
100
AcDbTextStyleTableRecord
  2
KNJYOKO
 70
    64
 40
0.0
 41
1.0
 50
0.0
 71
     0
 42
3.140094041824341
  3
TXT
  4
BIGFONT
  0
STYLE
  5
331
100
AcDbSymbolTableRecord
100
AcDbTextStyleTableRecord
  2
KNJTATE
 70
    68
 40
0.0
 41
1.0
 50
0.0
 71
     0
 42
3.140094041824341
  3
TXT
  4
BIGFONT
  0
ENDTAB
  0
TABLE
  2
VIEW
  5
332
100
AcDbSymbolTable
 70
     0
  0
ENDTAB
  0
TABLE
  2
UCS
  5
333
100
AcDbSymbolTable
 70
     0
  0
ENDTAB
  0
TABLE
  2
APPID
  5
334
100
AcDbSymbolTable
 70
     1
  0
APPID
  5
335
100
AcDbSymbolTableRecord
100
AcDbRegAppTableRecord
  2
ACAD
 70
     0
  0
ENDTAB
  0
TABLE
  2
DIMSTYLE
  5
336
100
AcDbSymbolTable
 70
     1
  0
DIMSTYLE
105
337
100
AcDbSymbolTableRecord
100
AcDbDimStyleTableRecord
  2
STANDARD
 70
     0
 41
2.000000
 44
2.000000
 42
0.800000
145
0.661290
140
3.100000
144
1.000000
146
0.903226
340
32F
  0
DIMSTYLE
105
338
100
AcDbSymbolTableRecord
100
AcDbDimStyleTableRecord
  2
MAIN001
 70
     0
 41
3.000000
 44
3.000000
 42
1.200000
145
0.607527
140
4.650000
144
1.000000
146
0.903226
 77
     1
 73
     0
 74
     0
271
     3
275
     1
 78
     8
172
     1
340
32F
  0
DIMSTYLE
105
339
100
AcDbSymbolTableRecord
100
AcDbDimStyleTableRecord
  2
E002
 70
     0
 41
3.000000
 44
3.000000
 42
1.200000
145
0.607527
140
4.650000
144
1.000000
146
0.903226
 77
     1
 73
     0
 74
     0
271
     3
275
     1
 78
     8
172
     1
340
32F
  0
DIMSTYLE
105
33A
100
AcDbSymbolTableRecord
100
AcDbDimStyleTableRecord
  2
WAKU003
 70
     0
 41
2.000000
 44
2.000000
 42
0.800000
145
0.661290
140
3.100000
144
1.000000
146
0.903226
 77
     1
 73
     0
 74
     0
271
     3
275
     1
 78
     8
172
     1
340
32F
  0
ENDTAB
  0
TABLE
  2
BLOCK_RECORD
  5
33B
100
AcDbSymbolTable
 70
    40
  0
BLOCK_RECORD
  5
33C
100
AcDbSymbolTableRecord
100
AcDbBlockTableRecord
  2
*MODEL_SPACE
  0
BLOCK_RECORD
  5
33D
100
AcDbSymbolTableRecord
100
AcDbBlockTableRecord
  2
*PAPER_SPACE
  0
BLOCK_RECORD
  5
1
100
AcDbSymbolTableRecord
100
AcDbBlockTableRecord
  2
_NONE
  0
BLOCK_RECORD
  5
4
100
AcDbSymbolTableRecord
100
AcDbBlockTableRecord
  2
_CLOSED
  0
BLOCK_RECORD
  5
B
100
AcDbSymbolTableRecord
100
AcDbBlockTableRecord
  2
_DOT
  0
BLOCK_RECORD
  5
13
100
AcDbSymbolTableRecord
100
AcDbBlockTableRecord
  2
_OPEN
  0
BLOCK_RECORD
  5
19
100
AcDbSymbolTableRecord
100
AcDbBlockTableRecord
  2
_ORIGIN
  0
BLOCK_RECORD
  5
1E
100
AcDbSymbolTableRecord
100
AcDbBlockTableRecord
  2
_OPEN30
  0
BLOCK_RECORD
  5
24
100
AcDbSymbolTableRecord
100
AcDbBlockTableRecord
  2
_BOXFILLED
  0
BLOCK_RECORD
  5
29
100
AcDbSymbolTableRecord
100
AcDbBlockTableRecord
  2
_BOXBLANK
  0
BLOCK_RECORD
  5
31
100
AcDbSymbolTableRecord
100
AcDbBlockTableRecord
  2
_OBLIQUE
  0
BLOCK_RECORD
  5
35
100
AcDbSymbolTableRecord
100
AcDbBlockTableRecord
  2
_OPEN90
  0
BLOCK_RECORD
  5
3B
100
AcDbSymbolTableRecord
100
AcDbBlockTableRecord
  2
_CLOSEDBLANK
  0
BLOCK_RECORD
  5
41
100
AcDbSymbolTableRecord
100
AcDbBlockTableRecord
  2
_DOTBLANK
  0
BLOCK_RECORD
  5
33E
100
AcDbSymbolTableRecord
100
AcDbBlockTableRecord
  2
*D0
  0
BLOCK_RECORD
  5
33F
100
AcDbSymbolTableRecord
100
AcDbBlockTableRecord
  2
*D1
  0
BLOCK_RECORD
  5
340
100
AcDbSymbolTableRecord
100
AcDbBlockTableRecord
  2
*D2
  0
BLOCK_RECORD
  5
341
100
AcDbSymbolTableRecord
100
AcDbBlockTableRecord
  2
*D3
  0
BLOCK_RECORD
  5
342
100
AcDbSymbolTableRecord
100
AcDbBlockTableRecord
  2
*D4
  0
BLOCK_RECORD
  5
343
100
AcDbSymbolTableRecord
100
AcDbBlockTableRecord
  2
*D5
  0
BLOCK_RECORD
  5
344
100
AcDbSymbolTableRecord
100
AcDbBlockTableRecord
  2
*D6
  0
BLOCK_RECORD
  5
345
100
AcDbSymbolTableRecord
100
AcDbBlockTableRecord
  2
*D7
  0
BLOCK_RECORD
  5
346
100
AcDbSymbolTableRecord
100
AcDbBlockTableRecord
  2
*D8
  0
BLOCK_RECORD
  5
347
100
AcDbSymbolTableRecord
100
AcDbBlockTableRecord
  2
*D9
  0
BLOCK_RECORD
  5
348
100
AcDbSymbolTableRecord
100
AcDbBlockTableRecord
  2
*D10
  0
BLOCK_RECORD
  5
349
100
AcDbSymbolTableRecord
100
AcDbBlockTableRecord
  2
*D11
  0
BLOCK_RECORD
  5
34A
100
AcDbSymbolTableRecord
100
AcDbBlockTableRecord
  2
*D12
  0
BLOCK_RECORD
  5
34B
100
AcDbSymbolTableRecord
100
AcDbBlockTableRecord
  2
*D13
  0
BLOCK_RECORD
  5
34C
100
AcDbSymbolTableRecord
100
AcDbBlockTableRecord
  2
*D14
  0
BLOCK_RECORD
  5
34D
100
AcDbSymbolTableRecord
100
AcDbBlockTableRecord
  2
*D15
  0
BLOCK_RECORD
  5
34E
100
AcDbSymbolTableRecord
100
AcDbBlockTableRecord
  2
*D16
  0
BLOCK_RECORD
  5
34F
100
AcDbSymbolTableRecord
100
AcDbBlockTableRecord
  2
*D17
  0
BLOCK_RECORD
  5
350
100
AcDbSymbolTableRecord
100
AcDbBlockTableRecord
  2
*D18
  0
BLOCK_RECORD
  5
351
100
AcDbSymbolTableRecord
100
AcDbBlockTableRecord
  2
*D19
  0
BLOCK_RECORD
  5
352
100
AcDbSymbolTableRecord
100
AcDbBlockTableRecord
  2
*D20
  0
BLOCK_RECORD
  5
353
100
AcDbSymbolTableRecord
100
AcDbBlockTableRecord
  2
*D21
  0
BLOCK_RECORD
  5
354
100
AcDbSymbolTableRecord
100
AcDbBlockTableRecord
  2
*D22
  0
BLOCK_RECORD
  5
355
100
AcDbSymbolTableRecord
100
AcDbBlockTableRecord
  2
*D23
  0
BLOCK_RECORD
  5
356
100
AcDbSymbolTableRecord
100
AcDbBlockTableRecord
  2
*D24
  0
BLOCK_RECORD
  5
357
100
AcDbSymbolTableRecord
100
AcDbBlockTableRecord
  2
*D25
  0
BLOCK_RECORD
  5
358
100
AcDbSymbolTableRecord
100
AcDbBlockTableRecord
  2
*D26
  0
BLOCK_RECORD
  5
359
100
AcDbSymbolTableRecord
100
AcDbBlockTableRecord
  2
*D27
  0
ENDTAB
  0
ENDSEC
  0
SECTION
  2
BLOCKS
  0
BLOCK
  5
35A
100
AcDbEntity
  8
0
100
AcDbBlockBegin
  2
*MODEL_SPACE
 70
     0
 10
0.0
 20
0.0
 30
0.0
  3
*MODEL_SPACE
  1

  0
ENDBLK
  5
35B
100
AcDbEntity
  8
0
100
AcDbBlockEnd
  0
BLOCK
  5
35C
100
AcDbEntity
  8
0
100
AcDbBlockBegin
  2
*PAPER_SPACE
 70
     0
 10
0.0
 20
0.0
 30
0.0
  3
*PAPER_SPACE
  1

  0
ENDBLK
  5
35D
100
AcDbEntity
  8
0
100
AcDbBlockEnd
  0
BLOCK
  5
2
100
AcDbEntity
  8
0
100
AcDbBlockBegin
  2
_NONE
 70
     0
 10
0.0
 20
0.0
 30
0.0
  3
_NONE
  1

  0
ENDBLK
  5
3
100
AcDbEntity
  8
0
100
AcDbBlockEnd
  0
BLOCK
  5
5
100
AcDbEntity
  8
0
100
AcDbBlockBegin
  2
_CLOSED
 70
     0
 10
0.0
 20
0.0
 30
0.0
  3
_CLOSED
  1

  0
LINE
  5
6
100
AcDbEntity
  8
0
  6
BYBLOCK
 62
     0
100
AcDbLine
 10
-1.0
 20
0.166667
 30
0.0
 11
0.0
 21
0.0
 31
0.0
  0
LINE
  5
7
100
AcDbEntity
  8
0
  6
BYBLOCK
 62
     0
100
AcDbLine
 10
0.0
 20
0.0
 30
0.0
 11
-1.0
 21
-0.166667
 31
0.0
  0
LINE
  5
8
100
AcDbEntity
  8
0
  6
BYBLOCK
 62
     0
100
AcDbLine
 10
-1.0
 20
0.166667
 30
0.0
 11
-1.0
 21
-0.166667
 31
0.0
  0
LINE
  5
9
100
AcDbEntity
  8
0
  6
BYBLOCK
 62
     0
100
AcDbLine
 10
0.0
 20
0.0
 30
0.0
 11
-1.0
 21
0.0
 31
0.0
  0
ENDBLK
  5
A
100
AcDbEntity
  8
0
100
AcDbBlockEnd
  0
BLOCK
  5
C
100
AcDbEntity
  8
0
100
AcDbBlockBegin
  2
_DOT
 70
     0
 10
0.0
 20
0.0
 30
0.0
  3
_DOT
  1

  0
POLYLINE
  5
D
100
AcDbEntity
  8
0
  6
BYBLOCK
 62
     0
100
AcDb2dPolyline
 66
     1
 10
0.0
 20
0.0
 30
0.0
 70
     1
 40
0.5
 41
0.5
  0
VERTEX
  5
E
100
AcDbEntity
  8
0
  6
BYBLOCK
 62
     0
100
AcDbVertex
100
AcDb2dVertex
 10
-0.25
 20
0.0
 30
0.0
 42
1.0
  0
VERTEX
  5
F
100
AcDbEntity
  8
0
  6
BYBLOCK
 62
     0
100
AcDbVertex
100
AcDb2dVertex
 10
0.25
 20
0.0
 30
0.0
 42
1.0
  0
SEQEND
  5
10
100
AcDbEntity
  8
0
  6
BYBLOCK
 62
     0
  0
LINE
  5
11
100
AcDbEntity
  8
0
  6
BYBLOCK
 62
     0
100
AcDbLine
 10
-0.5
 20
0.0
 30
0.0
 11
-1.0
 21
0.0
 31
0.0
  0
ENDBLK
  5
12
100
AcDbEntity
  8
0
100
AcDbBlockEnd
  0
BLOCK
  5
14
100
AcDbEntity
  8
0
100
AcDbBlockBegin
  2
_OPEN
 70
     0
 10
0.0
 20
0.0
 30
0.0
  3
_OPEN
  1

  0
LINE
  5
15
100
AcDbEntity
  8
0
  6
BYBLOCK
 62
     0
100
AcDbLine
 10
-1.0
 20
0.166667
 30
0.0
 11
0.0
 21
0.0
 31
0.0
  0
LINE
  5
16
100
AcDbEntity
  8
0
  6
BYBLOCK
 62
     0
100
AcDbLine
 10
0.0
 20
0.0
 30
0.0
 11
-1.0
 21
-0.166667
 31
0.0
  0
LINE
  5
17
100
AcDbEntity
  8
0
  6
BYBLOCK
 62
     0
100
AcDbLine
 10
0.0
 20
0.0
 30
0.0
 11
-1.0
 21
0.0
 31
0.0
  0
ENDBLK
  5
18
100
AcDbEntity
  8
0
100
AcDbBlockEnd
  0
BLOCK
  5
1A
100
AcDbEntity
  8
0
100
AcDbBlockBegin
  2
_ORIGIN
 70
     0
 10
0.0
 20
0.0
 30
0.0
  3
_ORIGIN
  1

  0
CIRCLE
  5
1B
100
AcDbEntity
  8
0
  6
BYBLOCK
 62
     0
100
AcDbCircle
 10
0.0
 20
0.0
 30
0.0
 40
0.5
  0
LINE
  5
1C
100
AcDbEntity
  8
0
  6
BYBLOCK
 62
     0
100
AcDbLine
 10
0.0
 20
0.0
 30
0.0
 11
-1.0
 21
0.0
 31
0.0
  0
ENDBLK
  5
1D
100
AcDbEntity
  8
0
100
AcDbBlockEnd
  0
BLOCK
  5
1F
100
AcDbEntity
  8
0
100
AcDbBlockBegin
  2
_OPEN30
 70
     0
 10
0.0
 20
0.0
 30
0.0
  3
_OPEN30
  1

  0
LINE
  5
20
100
AcDbEntity
  8
0
  6
BYBLOCK
 62
     0
100
AcDbLine
 10
-1.0
 20
0.267949
 30
0.0
 11
0.0
 21
0.0
 31
0.0
  0
LINE
  5
21
100
AcDbEntity
  8
0
  6
BYBLOCK
 62
     0
100
AcDbLine
 10
0.0
 20
0.0
 30
0.0
 11
-1.0
 21
-0.267949
 31
0.0
  0
LINE
  5
22
100
AcDbEntity
  8
0
  6
BYBLOCK
 62
     0
100
AcDbLine
 10
0.0
 20
0.0
 30
0.0
 11
-1.0
 21
0.0
 31
0.0
  0
ENDBLK
  5
23
100
AcDbEntity
  8
0
100
AcDbBlockEnd
  0
BLOCK
  5
25
100
AcDbEntity
  8
0
100
AcDbBlockBegin
  2
_BOXFILLED
 70
     0
 10
0.0
 20
0.0
 30
0.0
  3
_BOXFILLED
  1

  0
SOLID
  5
26
100
AcDbEntity
  8
0
  6
BYBLOCK
 62
     0
100
AcDbTrace
 10
-0.5
 20
0.5
 30
0.0
 11
0.5
 21
0.5
 31
0.0
 12
-0.5
 22
-0.5
 32
0.0
 13
0.5
 23
-0.5
 33
0.0
  0
LINE
  5
27
100
AcDbEntity
  8
0
  6
BYBLOCK
 62
     0
100
AcDbLine
 10
-0.5
 20
0.0
 30
0.0
 11
-1.0
 21
0.0
 31
0.0
  0
ENDBLK
  5
28
100
AcDbEntity
  8
0
100
AcDbBlockEnd
  0
BLOCK
  5
2A
100
AcDbEntity
  8
0
100
AcDbBlockBegin
  2
_BOXBLANK
 70
     0
 10
0.0
 20
0.0
 30
0.0
  3
_BOXBLANK
  1

  0
LINE
  5
2B
100
AcDbEntity
  8
0
  6
BYBLOCK
 62
     0
100
AcDbLine
 10
-0.5
 20
-0.5
 30
0.0
 11
0.5
 21
-0.5
 31
0.0
  0
LINE
  5
2C
100
AcDbEntity
  8
0
  6
BYBLOCK
 62
     0
100
AcDbLine
 10
0.5
 20
-0.5
 30
0.0
 11
0.5
 21
0.5
 31
0.0
  0
LINE
  5
2D
100
AcDbEntity
  8
0
  6
BYBLOCK
 62
     0
100
AcDbLine
 10
0.5
 20
0.5
 30
0.0
 11
-0.5
 21
0.5
 31
0.0
  0
LINE
  5
2E
100
AcDbEntity
  8
0
  6
BYBLOCK
 62
     0
100
AcDbLine
 10
-0.5
 20
0.5
 30
0.0
 11
-0.5
 21
-0.5
 31
0.0
  0
LINE
  5
2F
100
AcDbEntity
  8
0
  6
BYBLOCK
 62
     0
100
AcDbLine
 10
-0.5
 20
0.0
 30
0.0
 11
-1.0
 21
0.0
 31
0.0
  0
ENDBLK
  5
30
100
AcDbEntity
  8
0
100
AcDbBlockEnd
  0
BLOCK
  5
32
100
AcDbEntity
  8
0
100
AcDbBlockBegin
  2
_OBLIQUE
 70
     0
 10
0.0
 20
0.0
 30
0.0
  3
_OBLIQUE
  1

  0
LINE
  5
33
100
AcDbEntity
  8
0
  6
BYBLOCK
 62
     0
100
AcDbLine
 10
-0.5
 20
-0.5
 30
0.0
 11
0.5
 21
0.5
 31
0.0
  0
ENDBLK
  5
34
100
AcDbEntity
  8
0
100
AcDbBlockEnd
  0
BLOCK
  5
36
100
AcDbEntity
  8
0
100
AcDbBlockBegin
  2
_OPEN90
 70
     0
 10
0.0
 20
0.0
 30
0.0
  3
_OPEN90
  1

  0
LINE
  5
37
100
AcDbEntity
  8
0
  6
BYBLOCK
 62
     0
100
AcDbLine
 10
-0.5
 20
0.5
 30
0.0
 11
0.0
 21
0.0
 31
0.0
  0
LINE
  5
38
100
AcDbEntity
  8
0
  6
BYBLOCK
 62
     0
100
AcDbLine
 10
0.0
 20
0.0
 30
0.0
 11
-0.5
 21
-0.5
 31
0.0
  0
LINE
  5
39
100
AcDbEntity
  8
0
  6
BYBLOCK
 62
     0
100
AcDbLine
 10
0.0
 20
0.0
 30
0.0
 11
-1.0
 21
0.0
 31
0.0
  0
ENDBLK
  5
3A
100
AcDbEntity
  8
0
100
AcDbBlockEnd
  0
BLOCK
  5
3C
100
AcDbEntity
  8
0
100
AcDbBlockBegin
  2
_CLOSEDBLANK
 70
     0
 10
0.0
 20
0.0
 30
0.0
  3
_CLOSEDBLANK
  1

  0
LINE
  5
3D
100
AcDbEntity
  8
0
  6
BYBLOCK
 62
     0
100
AcDbLine
 10
-1.0
 20
0.1666666666666666
 30
0.0
 11
0.0
 21
0.0
 31
0.0
  0
LINE
  5
3E
100
AcDbEntity
  8
0
  6
BYBLOCK
 62
     0
100
AcDbLine
 10
0.0
 20
0.0
 30
0.0
 11
-1.0
 21
-0.1666666666666666
 31
0.0
  0
LINE
  5
3F
100
AcDbEntity
  8
0
  6
BYBLOCK
 62
     0
100
AcDbLine
 10
-1.0
 20
0.1666666666666666
 30
0.0
 11
-1.0
 21
-0.1666666666666666
 31
0.0
  0
ENDBLK
  5
40
100
AcDbEntity
  8
0
100
AcDbBlockEnd
  0
BLOCK
  5
42
100
AcDbEntity
  8
0
100
AcDbBlockBegin
  2
_DOTBLANK
 70
     0
 10
0.0
 20
0.0
 30
0.0
  3
_DOTBLANK
  1

  0
CIRCLE
  5
43
100
AcDbEntity
  8
0
  6
BYBLOCK
 62
     0
100
AcDbCircle
 10
0.0
 20
0.0
 30
0.0
 40
0.5
  0
LINE
  5
44
100
AcDbEntity
  8
0
  6
BYBLOCK
 62
     0
100
AcDbLine
 10
-0.5
 20
0.0
 30
0.0
 11
-1.0
 21
0.0
 31
0.0
  0
ENDBLK
  5
45
100
AcDbEntity
  8
0
100
AcDbBlockEnd
  0
BLOCK
  5
77
100
AcDbEntity
  8
MAIN0
  6
CONTINUOUS
 62
3
100
AcDbBlockBegin
  2
*D0
 70
    65
 10
0.0
 20
0.0
 30
0.0
  0
LINE
  5
78
100
AcDbEntity
  8
MAIN0
  6
BYBLOCK
 62
0
100
AcDbLine
 10
128.5741960801346
 20
283.2530366856385
 30
0.0000000000000000
 11
95.22415456903309
 21
283.2530366856385
 31
0.0000000000000000
  0
LINE
  5
79
100
AcDbEntity
  8
MAIN0
  6
BYBLOCK
 62
0
100
AcDbLine
 10
98.22415456903309
 20
280.2530366856385
 30
0.0000000000000000
 11
98.22415456903309
 21
231.2530366856385
 31
0.0000000000000000
  0
INSERT
  5
7A
100
AcDbEntity
  8
MAIN0
  6
BYBLOCK
 62
0
100
AcDbBlockReference
  2
_OPEN
 10
98.22415456903309
 20
283.2530366856385
 30
0.0000000000000000
 41
3.000000000000000
 42
3.000000000000000
 43
3.000000000000000
 50
90.00000000000000
  0
INSERT
  5
7B
100
AcDbEntity
  8
MAIN0
  6
BYBLOCK
 62
0
100
AcDbBlockReference
  2
_OPEN
 10
98.22415456903309
 20
228.2530366856385
 30
0.0000000000000000
 41
3.000000000000000
 42
3.000000000000000
 43
3.000000000000000
 50
270.0000000000000
  0
LINE
  5
7C
100
AcDbEntity
  8
MAIN0
  6
BYBLOCK
 62
0
100
AcDbLine
 10
128.5741960801580
 20
228.2530366856385
 30
0.0000000000000000
 11
95.22415456903309
 21
228.2530366856385
 31
0.0000000000000000
  0
MTEXT
  5
7D
100
AcDbEntity
  8
MAIN0
  6
BYBLOCK
 62
0
100
AcDbMText
 10
95.39915464055866
 20
254.7378668283079
 30
0.0000000000000000
 40
4.649999856948853
 41
0.0000000000000000
 71
     5
 72
     1
  1
\A1;\U+220555
 11
6.123233995736766e-017
 21
1.000000000000000
 31
0.0000000000000000
  7
STANDARD
  0
ENDBLK
  5
7E
100
AcDbEntity
  8
MAIN0
  6
CONTINUOUS
 62
3
100
AcDbBlockEnd
  0
BLOCK
  5
B6
100
AcDbEntity
  8
MAIN0
  6
CONTINUOUS
 62
3
100
AcDbBlockBegin
  2
*D1
 70
    65
 10
0.0
 20
0.0
 30
0.0
  0
LINE
  5
B7
100
AcDbEntity
  8
MAIN0
  6
BYBLOCK
 62
0
100
AcDbLine
 10
139.5445496555843
 20
400.2623237908335
 30
0.0000000000000000
 11
151.2186194481365
 21
388.5882539982807
 31
0.0000000000000000
  0
LINE
  5
B8
100
AcDbEntity
  8
MAIN0
  6
BYBLOCK
 62
0
100
AcDbLine
 10
151.2186194481367
 20
392.8308946853999
 30
0.0000000000000000
 11
154.7541533540695
 21
396.3664285913326
 31
0.0000000000000000
  0
INSERT
  5
B9
100
AcDbEntity
  8
MAIN0
  6
BYBLOCK
 62
0
100
AcDbBlockReference
  2
_OPEN
 10
149.0972991045769
 20
390.7095743418404
 30
0.0000000000000000
 41
3.000000000000000
 42
3.000000000000000
 43
3.000000000000000
 50
224.9999999999982
  0
INSERT
  5
BA
100
AcDbEntity
  8
MAIN0
  6
BYBLOCK
 62
0
100
AcDbBlockReference
  2
_OPEN
 10
156.8754736976293
 20
398.4877489348921
 30
0.0000000000000000
 41
3.000000000000000
 42
3.000000000000000
 43
3.000000000000000
 50
44.99999999999816
  0
LINE
  5
BB
100
AcDbEntity
  8
MAIN0
  6
BYBLOCK
 62
0
100
AcDbLine
 10
156.8754736976293
 20
398.4877489348921
 30
0.0000000000000000
 11
171.9680473598657
 21
413.5803225971275
 31
0.0000000000000000
  0
LINE
  5
BC
100
AcDbEntity
  8
MAIN0
  6
BYBLOCK
 62
0
100
AcDbLine
 10
147.3227242480305
 20
408.0404983844913
 30
0.0000000000000000
 11
158.9967940411889
 21
396.3664285913324
 31
0.0000000000000000
  0
MTEXT
  5
BD
100
AcDbEntity
  8
MAIN0
  6
BYBLOCK
 62
0
100
AcDbMText
 10
163.4739271164861
 20
409.0813555662999
 30
0.0000000000000000
 40
4.649999856948853
 41
0.0000000000000000
 71
     5
 72
     1
  1
\A1;11\H0.903226x;\S＋0.15^ ＋0.05;
 11
0.7071067811865733
 21
0.7071067811865217
 31
0.0000000000000000
  7
KNJYOKO
  0
ENDBLK
  5
BE
100
AcDbEntity
  8
MAIN0
  6
CONTINUOUS
 62
3
100
AcDbBlockEnd
  0
BLOCK
  5
FC
100
AcDbEntity
  8
MAIN0
  6
CONTINUOUS
 62
3
100
AcDbBlockBegin
  2
*D2
 70
    65
 10
0.0
 20
0.0
 30
0.0
  0
LINE
  5
FD
100
AcDbEntity
  8
MAIN0
  6
BYBLOCK
 62
0
100
AcDbLine
 10
218.3741961159658
 20
238.7530366856243
 30
0.0000000000000000
 11
236.2241545690331
 21
238.7530366856250
 31
0.0000000000000000
  0
LINE
  5
FE
100
AcDbEntity
  8
MAIN0
  6
BYBLOCK
 62
0
100
AcDbLine
 10
233.2241545690331
 20
235.7530366856249
 30
0.0000000000000000
 11
233.2241545690331
 21
163.7530366856278
 31
0.0000000000000000
  0
INSERT
  5
FF
100
AcDbEntity
  8
MAIN0
  6
BYBLOCK
 62
0
100
AcDbBlockReference
  2
_OPEN
 10
233.2241545690331
 20
238.7530366856249
 30
0.0000000000000000
 41
3.000000000000000
 42
3.000000000000000
 43
3.000000000000000
 50
90.00000000000000
  0
INSERT
  5
100
100
AcDbEntity
  8
MAIN0
  6
BYBLOCK
 62
0
100
AcDbBlockReference
  2
_OPEN
 10
233.2241545690331
 20
160.7530366856278
 30
0.0000000000000000
 41
3.000000000000000
 42
3.000000000000000
 43
3.000000000000000
 50
270.0000000000000
  0
LINE
  5
101
100
AcDbEntity
  8
MAIN0
  6
BYBLOCK
 62
0
100
AcDbLine
 10
199.3741961159495
 20
160.7530366856278
 30
0.0000000000000000
 11
236.2241545690331
 21
160.7530366856278
 31
0.0000000000000000
  0
MTEXT
  5
102
100
AcDbEntity
  8
MAIN0
  6
BYBLOCK
 62
0
100
AcDbMText
 10
230.3991546405587
 20
199.7530366856263
 30
0.0000000000000000
 40
4.649999856948853
 41
0.0000000000000000
 71
     5
 72
     1
  1
\A1;78
 11
6.123233995736766e-017
 21
1.000000000000000
 31
0.0000000000000000
  7
STANDARD
  0
ENDBLK
  5
103
100
AcDbEntity
  8
MAIN0
  6
CONTINUOUS
 62
3
100
AcDbBlockEnd
  0
BLOCK
  5
12D
100
AcDbEntity
  8
MAIN0
  6
CONTINUOUS
 62
3
100
AcDbBlockBegin
  2
*D3
 70
    65
 10
0.0
 20
0.0
 30
0.0
  0
LINE
  5
12E
100
AcDbEntity
  8
MAIN0
  6
BYBLOCK
 62
0
100
AcDbLine
 10
218.3741961159043
 20
267.0030366856385
 30
0.0000000000000000
 11
236.2241545690331
 21
267.0030366856385
 31
0.0000000000000000
  0
LINE
  5
12F
100
AcDbEntity
  8
MAIN0
  6
BYBLOCK
 62
0
100
AcDbLine
 10
233.2241545690331
 20
264.0030366856385
 30
0.0000000000000000
 11
233.2241545690331
 21
247.5030366856385
 31
0.0000000000000000
  0
INSERT
  5
130
100
AcDbEntity
  8
MAIN0
  6
BYBLOCK
 62
0
100
AcDbBlockReference
  2
_OPEN
 10
233.2241545690331
 20
267.0030366856385
 30
0.0000000000000000
 41
3.000000000000000
 42
3.000000000000000
 43
3.000000000000000
 50
90.00000000000000
  0
INSERT
  5
131
100
AcDbEntity
  8
MAIN0
  6
BYBLOCK
 62
0
100
AcDbBlockReference
  2
_OPEN
 10
233.2241545690331
 20
244.5030366856385
 30
0.0000000000000000
 41
3.000000000000000
 42
3.000000000000000
 43
3.000000000000000
 50
270.0000000000000
  0
LINE
  5
132
100
AcDbEntity
  8
MAIN0
  6
BYBLOCK
 62
0
100
AcDbLine
 10
218.3741961159139
 20
244.5030366856385
 30
0.0000000000000000
 11
236.2241545690331
 21
244.5030366856385
 31
0.0000000000000000
  0
MTEXT
  5
133
100
AcDbEntity
  8
MAIN0
  6
BYBLOCK
 62
0
100
AcDbMText
 10
230.3991546405587
 20
255.7530366856385
 30
0.0000000000000000
 40
4.649999856948853
 41
0.0000000000000000
 71
     5
 72
     1
  1
\A1;22.5
 11
6.123233995736766e-017
 21
1.000000000000000
 31
0.0000000000000000
  7
STANDARD
  0
ENDBLK
  5
134
100
AcDbEntity
  8
MAIN0
  6
CONTINUOUS
 62
3
100
AcDbBlockEnd
  0
BLOCK
  5
15C
100
AcDbEntity
  8
MAIN0
  6
CONTINUOUS
 62
3
100
AcDbBlockBegin
  2
*D4
 70
    65
 10
0.0
 20
0.0
 30
0.0
  0
LINE
  5
15D
100
AcDbEntity
  8
MAIN0
  6
BYBLOCK
 62
0
100
AcDbLine
 10
110.5741960801793
 20
178.2530366856385
 30
0.0000000000000000
 11
80.22415456903309
 21
178.2530366856385
 31
0.0000000000000000
  0
LINE
  5
15E
100
AcDbEntity
  8
MAIN0
  6
BYBLOCK
 62
0
100
AcDbLine
 10
83.22415456903309
 20
181.2530366856385
 30
0.0000000000000000
 11
83.22415456903309
 21
330.2530366856385
 31
0.0000000000000000
  0
INSERT
  5
15F
100
AcDbEntity
  8
MAIN0
  6
BYBLOCK
 62
0
100
AcDbBlockReference
  2
_OPEN
 10
83.22415456903309
 20
178.2530366856385
 30
0.0000000000000000
 41
3.000000000000000
 42
3.000000000000000
 43
3.000000000000000
 50
270.0000000000000
  0
INSERT
  5
160
100
AcDbEntity
  8
MAIN0
  6
BYBLOCK
 62
0
100
AcDbBlockReference
  2
_OPEN
 10
83.22415456903309
 20
333.2530366856385
 30
0.0000000000000000
 41
3.000000000000000
 42
3.000000000000000
 43
3.000000000000000
 50
90.00000000000000
  0
LINE
  5
161
100
AcDbEntity
  8
MAIN0
  6
BYBLOCK
 62
0
100
AcDbLine
 10
110.5741960801134
 20
333.2530366856385
 30
0.0000000000000000
 11
80.22415456903309
 21
333.2530366856385
 31
0.0000000000000000
  0
MTEXT
  5
162
100
AcDbEntity
  8
MAIN0
  6
BYBLOCK
 62
0
100
AcDbMText
 10
80.39915464055866
 20
269.6875338199188
 30
0.0000000000000000
 40
4.649999856948853
 41
0.0000000000000000
 71
     5
 72
     1
  1
\A1;\U+2205155H6\H0.903226x;\S＋0.025^ 　0;
 11
6.123233995736766e-017
 21
1.000000000000000
 31
0.0000000000000000
  7
KNJYOKO
  0
ENDBLK
  5
163
100
AcDbEntity
  8
MAIN0
  6
CONTINUOUS
 62
3
100
AcDbBlockEnd
  0
BLOCK
  5
165
100
AcDbEntity
  8
MAIN0
  6
CONTINUOUS
 62
3
100
AcDbBlockBegin
  2
*D5
 70
    65
 10
0.0
 20
0.0
 30
0.0
  0
LINE
  5
166
100
AcDbEntity
  8
MAIN0
  6
BYBLOCK
 62
0
100
AcDbLine
 10
112.1741960801059
 20
350.7530366856385
 30
0.0000000000000000
 11
65.22415456903309
 21
350.7530366856385
 31
0.0000000000000000
  0
LINE
  5
167
100
AcDbEntity
  8
MAIN0
  6
BYBLOCK
 62
0
100
AcDbLine
 10
68.22415456903309
 20
347.7530366856385
 30
0.0000000000000000
 11
68.22415456903309
 21
163.7530366856385
 31
0.0000000000000000
  0
INSERT
  5
168
100
AcDbEntity
  8
MAIN0
  6
BYBLOCK
 62
0
100
AcDbBlockReference
  2
_OPEN
 10
68.22415456903309
 20
350.7530366856385
 30
0.0000000000000000
 41
3.000000000000000
 42
3.000000000000000
 43
3.000000000000000
 50
90.00000000000000
  0
INSERT
  5
169
100
AcDbEntity
  8
MAIN0
  6
BYBLOCK
 62
0
100
AcDbBlockReference
  2
_OPEN
 10
68.22415456903309
 20
160.7530366856385
 30
0.0000000000000000
 41
3.000000000000000
 42
3.000000000000000
 43
3.000000000000000
 50
270.0000000000000
  0
LINE
  5
16A
100
AcDbEntity
  8
MAIN0
  6
BYBLOCK
 62
0
100
AcDbLine
 10
112.1741960801868
 20
160.7530366856385
 30
0.0000000000000000
 11
65.22415456903309
 21
160.7530366856385
 31
0.0000000000000000
  0
MTEXT
  5
16B
100
AcDbEntity
  8
MAIN0
  6
BYBLOCK
 62
0
100
AcDbMText
 10
65.39915464055866
 20
255.7530366856385
 30
0.0000000000000000
 40
4.649999856948853
 41
0.0000000000000000
 71
     5
 72
     1
  1
\A1;\U+2205190
 11
6.123233995736766e-017
 21
1.000000000000000
 31
0.0000000000000000
  7
STANDARD
  0
ENDBLK
  5
16C
100
AcDbEntity
  8
MAIN0
  6
CONTINUOUS
 62
3
100
AcDbBlockEnd
  0
BLOCK
  5
16E
100
AcDbEntity
  8
MAIN0
  6
CONTINUOUS
 62
3
100
AcDbBlockBegin
  2
*D6
 70
    65
 10
0.0
 20
0.0
 30
0.0
  0
LINE
  5
16F
100
AcDbEntity
  8
MAIN0
  6
BYBLOCK
 62
0
100
AcDbLine
 10
111.7741960979880
 20
350.3530367035199
 30
0.0000000000000000
 11
111.7741960979882
 21
378.7530366856385
 31
0.0000000000000000
  0
LINE
  5
170
100
AcDbEntity
  8
MAIN0
  6
BYBLOCK
 62
0
100
AcDbLine
 10
114.7741960979882
 20
375.7530366856385
 30
0.0000000000000000
 11
183.7741960980368
 21
375.7530366856385
 31
0.0000000000000000
  0
INSERT
  5
171
100
AcDbEntity
  8
MAIN0
  6
BYBLOCK
 62
0
100
AcDbBlockReference
  2
_OPEN
 10
111.7741960979882
 20
375.7530366856385
 30
0.0000000000000000
 41
3.000000000000000
 42
3.000000000000000
 43
3.000000000000000
 50
180.0000000000000
  0
INSERT
  5
172
100
AcDbEntity
  8
MAIN0
  6
BYBLOCK
 62
0
100
AcDbBlockReference
  2
_OPEN
 10
186.7741960980368
 20
375.7530366856385
 30
0.0000000000000000
 41
3.000000000000000
 42
3.000000000000000
 43
3.000000000000000
 50
0.0000000000000000
  0
LINE
  5
173
100
AcDbEntity
  8
MAIN0
  6
BYBLOCK
 62
0
100
AcDbLine
 10
186.7741960980368
 20
350.3530367034711
 30
0.0000000000000000
 11
186.7741960980368
 21
378.7530366856385
 31
0.0000000000000000
  0
MTEXT
  5
174
100
AcDbEntity
  8
MAIN0
  6
BYBLOCK
 62
0
100
AcDbMText
 10
149.2741960980125
 20
378.5780366141129
 30
0.0000000000000000
 40
4.649999856948853
 41
0.0000000000000000
 71
     5
 72
     1
  1
\A1;75
 11
1.000000000000000
 21
0.0000000000000000
 31
0.0000000000000000
  7
STANDARD
  0
ENDBLK
  5
175
100
AcDbEntity
  8
MAIN0
  6
CONTINUOUS
 62
3
100
AcDbBlockEnd
  0
BLOCK
  5
17B
100
AcDbEntity
  8
MAIN0
  6
CONTINUOUS
 62
3
100
AcDbBlockBegin
  2
*D7
 70
    65
 10
0.0
 20
0.0
 30
0.0
  0
LINE
  5
17C
100
AcDbEntity
  8
MAIN0
  6
BYBLOCK
 62
0
100
AcDbLine
 10
110.9741960801076
 20
346.7530366856385
 30
0.0000000000000000
 11
95.22415456903309
 21
346.7530366856385
 31
0.0000000000000000
  0
LINE
  5
17D
100
AcDbEntity
  8
MAIN0
  6
BYBLOCK
 62
0
100
AcDbLine
 10
98.22415456903309
 20
343.7530366856385
 30
0.0000000000000000
 11
98.22415456903309
 21
337.7530366856385
 31
0.0000000000000000
  0
INSERT
  5
17E
100
AcDbEntity
  8
MAIN0
  6
BYBLOCK
 62
0
100
AcDbBlockReference
  2
_OPEN
 10
98.22415456903309
 20
346.7530366856385
 30
0.0000000000000000
 41
3.000000000000000
 42
3.000000000000000
 43
3.000000000000000
 50
90.00000000000000
  0
INSERT
  5
17F
100
AcDbEntity
  8
MAIN0
  6
BYBLOCK
 62
0
100
AcDbBlockReference
  2
_OPEN
 10
98.22415456903309
 20
334.7530366856385
 30
0.0000000000000000
 41
3.000000000000000
 42
3.000000000000000
 43
3.000000000000000
 50
270.0000000000000
  0
LINE
  5
180
100
AcDbEntity
  8
MAIN0
  6
BYBLOCK
 62
0
100
AcDbLine
 10
110.9741960801127
 20
334.7530366856385
 30
0.0000000000000000
 11
95.22415456903309
 21
334.7530366856385
 31
0.0000000000000000
  0
MTEXT
  5
181
100
AcDbEntity
  8
MAIN0
  6
BYBLOCK
 62
0
100
AcDbMText
 10
95.39915464055866
 20
340.7530366856385
 30
0.0000000000000000
 40
4.649999856948853
 41
0.0000000000000000
 71
     5
 72
     1
  1
\A1;\U+220512
 11
6.123233995736766e-017
 21
1.000000000000000
 31
0.0000000000000000
  7
STANDARD
  0
ENDBLK
  5
182
100
AcDbEntity
  8
MAIN0
  6
CONTINUOUS
 62
3
100
AcDbBlockEnd
  0
BLOCK
  5
184
100
AcDbEntity
  8
MAIN0
  6
CONTINUOUS
 62
3
100
AcDbBlockBegin
  2
*D8
 70
    65
 10
0.0
 20
0.0
 30
0.0
  0
LINE
  5
185
100
AcDbEntity
  8
MAIN0
  6
BYBLOCK
 62
0
100
AcDbLine
 10
187.3741961159181
 20
349.2530366856385
 30
0.0000000000000000
 11
201.2241545690331
 21
349.2530366856385
 31
0.0000000000000000
  0
LINE
  5
186
100
AcDbEntity
  8
MAIN0
  6
BYBLOCK
 62
0
100
AcDbLine
 10
198.2241545690331
 20
346.2530366856385
 30
0.0000000000000000
 11
198.2241545690331
 21
335.2530366856385
 31
0.0000000000000000
  0
INSERT
  5
187
100
AcDbEntity
  8
MAIN0
  6
BYBLOCK
 62
0
100
AcDbBlockReference
  2
_OPEN
 10
198.2241545690331
 20
349.2530366856385
 30
0.0000000000000000
 41
3.000000000000000
 42
3.000000000000000
 43
3.000000000000000
 50
90.00000000000000
  0
INSERT
  5
188
100
AcDbEntity
  8
MAIN0
  6
BYBLOCK
 62
0
100
AcDbBlockReference
  2
_OPEN
 10
198.2241545690331
 20
332.2530366856385
 30
0.0000000000000000
 41
3.000000000000000
 42
3.000000000000000
 43
3.000000000000000
 50
270.0000000000000
  0
LINE
  5
189
100
AcDbEntity
  8
MAIN0
  6
BYBLOCK
 62
0
100
AcDbLine
 10
187.3741961159181
 20
332.2530366856385
 30
0.0000000000000000
 11
201.2241545690331
 21
332.2530366856385
 31
0.0000000000000000
  0
MTEXT
  5
18A
100
AcDbEntity
  8
MAIN0
  6
BYBLOCK
 62
0
100
AcDbMText
 10
195.3991546405587
 20
340.7530366856385
 30
0.0000000000000000
 40
4.649999856948853
 41
0.0000000000000000
 71
     5
 72
     1
  1
\A1;\U+220517
 11
6.123233995736766e-017
 21
1.000000000000000
 31
0.0000000000000000
  7
STANDARD
  0
ENDBLK
  5
18B
100
AcDbEntity
  8
MAIN0
  6
CONTINUOUS
 62
3
100
AcDbBlockEnd
  0
BLOCK
  5
18D
100
AcDbEntity
  8
MAIN0
  6
CONTINUOUS
 62
3
100
AcDbBlockBegin
  2
*D9
 70
    65
 10
0.0
 20
0.0
 30
0.0
  0
LINE
  5
18E
100
AcDbEntity
  8
MAIN0
  6
BYBLOCK
 62
0
100
AcDbLine
 10
174.7741960980368
 20
350.4530367035198
 30
0.0000000000000000
 11
174.7741960980370
 21
358.7530366856385
 31
0.0000000000000000
  0
LINE
  5
18F
100
AcDbEntity
  8
MAIN0
  6
BYBLOCK
 62
0
100
AcDbLine
 10
177.7741960980369
 20
355.7530366856385
 30
0.0000000000000000
 11
183.7741960980368
 21
355.7530366856385
 31
0.0000000000000000
  0
INSERT
  5
190
100
AcDbEntity
  8
MAIN0
  6
BYBLOCK
 62
0
100
AcDbBlockReference
  2
_OPEN
 10
174.7741960980369
 20
355.7530366856385
 30
0.0000000000000000
 41
3.000000000000000
 42
3.000000000000000
 43
3.000000000000000
 50
180.0000000000000
  0
INSERT
  5
191
100
AcDbEntity
  8
MAIN0
  6
BYBLOCK
 62
0
100
AcDbBlockReference
  2
_OPEN
 10
186.7741960980368
 20
355.7530366856385
 30
0.0000000000000000
 41
3.000000000000000
 42
3.000000000000000
 43
3.000000000000000
 50
0.0000000000000000
  0
LINE
  5
192
100
AcDbEntity
  8
MAIN0
  6
BYBLOCK
 62
0
100
AcDbLine
 10
186.7741960980368
 20
350.3530367034711
 30
0.0000000000000000
 11
186.7741960980368
 21
358.7530366856385
 31
0.0000000000000000
  0
MTEXT
  5
193
100
AcDbEntity
  8
MAIN0
  6
BYBLOCK
 62
0
100
AcDbMText
 10
180.6236119120119
 20
358.5780366141129
 30
0.0000000000000000
 40
4.649999856948853
 41
0.0000000000000000
 71
     5
 72
     1
  1
\A1;12
 11
1.000000000000000
 21
0.0000000000000000
 31
0.0000000000000000
  7
STANDARD
  0
ENDBLK
  5
194
100
AcDbEntity
  8
MAIN0
  6
CONTINUOUS
 62
3
100
AcDbBlockEnd
  0
BLOCK
  5
196
100
AcDbEntity
  8
MAIN0
  6
CONTINUOUS
 62
3
100
AcDbBlockBegin
  2
*D10
 70
    65
 10
0.0
 20
0.0
 30
0.0
  0
LINE
  5
197
100
AcDbEntity
  8
MAIN0
  6
BYBLOCK
 62
0
100
AcDbLine
 10
111.7741960980606
 20
196.5471655574896
 30
0.0000000000000000
 11
116.7741960980607
 21
196.5471655574896
 31
0.0000000000000000
  0
INSERT
  5
198
100
AcDbEntity
  8
MAIN0
  6
BYBLOCK
 62
0
100
AcDbBlockReference
  2
_OPEN
 10
111.7741960980606
 20
196.5471655574896
 30
0.0000000000000000
 41
3.000000000000000
 42
3.000000000000000
 43
3.000000000000000
 50
0.0000000000000000
  0
INSERT
  5
199
100
AcDbEntity
  8
MAIN0
  6
BYBLOCK
 62
0
100
AcDbBlockReference
  2
_OPEN
 10
116.7741960980607
 20
196.5471655574896
 30
0.0000000000000000
 41
3.000000000000000
 42
3.000000000000000
 43
3.000000000000000
 50
180.0000000000000
  0
LINE
  5
19A
100
AcDbEntity
  8
MAIN0
  6
BYBLOCK
 62
0
100
AcDbLine
 10
108.7741960980606
 20
196.5471655574896
 30
0.0000000000000000
 11
105.5388086123172
 21
196.5471655574896
 31
0.0000000000000000
  0
LINE
  5
19B
100
AcDbEntity
  8
MAIN0
  6
BYBLOCK
 62
0
100
AcDbLine
 10
119.7741960980607
 20
196.5471655574896
 30
0.0000000000000000
 11
121.2741960980607
 21
196.5471655574896
 31
0.0000000000000000
  0
MTEXT
  5
19C
100
AcDbEntity
  8
MAIN0
  6
BYBLOCK
 62
0
100
AcDbMText
 10
107.0388086123172
 20
199.3721654859640
 30
0.0000000000000000
 40
4.649999856948853
 41
0.0000000000000000
 71
     5
 72
     1
  1
\A1;5
 11
1.000000000000000
 21
0.0000000000000000
 31
0.0000000000000000
  7
STANDARD
  0
ENDBLK
  5
19D
100
AcDbEntity
  8
MAIN0
  6
CONTINUOUS
 62
3
100
AcDbBlockEnd
  0
BLOCK
  5
1A5
100
AcDbEntity
  8
MAIN0
  6
CONTINUOUS
 62
3
100
AcDbBlockBegin
  2
*D11
 70
    65
 10
0.0
 20
0.0
 30
0.0
  0
LINE
  5
1A6
100
AcDbEntity
  8
MAIN0
  6
BYBLOCK
 62
0
100
AcDbLine
 10
297.5450966627478
 20
191.2888366228796
 30
0.0000000000000000
 11
400.7573243499386
 21
322.5756830921565
 31
0.0000000000000000
  0
INSERT
  5
1A7
100
AcDbEntity
  8
MAIN0
  6
BYBLOCK
 62
0
100
AcDbBlockReference
  2
_OPEN
 10
295.6909847881277
 20
188.9303902791201
 30
0.0000000000000000
 41
3.000000000000000
 42
3.000000000000000
 43
3.000000000000000
 50
231.8270516607595
  0
MTEXT
  5
1A8
100
AcDbEntity
  8
MAIN0
  6
BYBLOCK
 62
0
100
AcDbMText
 10
306.0322545117856
 20
207.0600026370047
 30
0.0000000000000000
 40
4.649999856948853
 41
0.0000000000000000
 71
     5
 72
     1
  1
\A1;\U+2205170\H0.903226x;\U+00B10.2
 11
0.6180372915400643
 21
0.7861487812531554
 31
0.0000000000000000
  7
STANDARD
  0
ENDBLK
  5
1A9
100
AcDbEntity
  8
MAIN0
  6
CONTINUOUS
 62
3
100
AcDbBlockEnd
  0
BLOCK
  5
1B2
100
AcDbEntity
  8
MAIN0
  6
CONTINUOUS
 62
3
100
AcDbBlockBegin
  2
*D12
 70
    65
 10
0.0
 20
0.0
 30
0.0
  0
ARC
  5
1B3
100
AcDbEntity
  8
MAIN0
  6
BYBLOCK
 62
0
100
AcDbCircle
 10
348.2241545690331
 20
255.7530366856384
 30
0.0000000000000000
 40
108.3158326924612
100
AcDbArc
 50
271.5869087119266
 51
328.4130912880735
  0
INSERT
  5
1B4
100
AcDbEntity
  8
MAIN0
  6
BYBLOCK
 62
0
100
AcDbBlockReference
  2
_OPEN
 10
348.2241545690331
 20
147.4372039931772
 30
0.0000000000000000
 41
3.000000000000000
 42
3.000000000000000
 43
3.000000000000000
 50
180.0000000000000
  0
INSERT
  5
1B5
100
AcDbEntity
  8
MAIN0
  6
BYBLOCK
 62
0
100
AcDbBlockReference
  2
_OPEN
 10
442.0284173127695
 20
201.5951203394078
 30
0.0000000000000000
 41
3.000000000000000
 42
3.000000000000000
 43
3.000000000000000
 50
60.00000000000000
  0
MTEXT
  5
1B6
100
AcDbEntity
  8
MAIN0
  6
BYBLOCK
 62
0
100
AcDbMText
 10
400.9695709510265
 20
164.3952956456501
 30
0.0000000000000000
 40
4.649999856948853
 41
0.0000000000000000
 71
     5
 72
     1
  1
\A1;60\U+00B0
 11
0.8660254037844385
 21
0.5000000000000002
 31
0.0000000000000000
  7
STANDARD
  0
ENDBLK
  5
1B7
100
AcDbEntity
  8
MAIN0
  6
CONTINUOUS
 62
3
100
AcDbBlockEnd
  0
BLOCK
  5
1B9
100
AcDbEntity
  8
MAIN0
  6
CONTINUOUS
 62
3
100
AcDbBlockBegin
  2
*D13
 70
    65
 10
0.0
 20
0.0
 30
0.0
  0
ARC
  5
1BA
100
AcDbEntity
  8
MAIN0
  6
BYBLOCK
 62
0
100
AcDbCircle
 10
348.2241545690331
 20
255.7530366856384
 30
0.0000000000000000
 40
108.3158326924612
100
AcDbArc
 50
331.5869087119266
 51
358.4130912880735
  0
INSERT
  5
1BB
100
AcDbEntity
  8
MAIN0
  6
BYBLOCK
 62
0
100
AcDbBlockReference
  2
_OPEN
 10
442.0284173127695
 20
201.5951203394078
 30
0.0000000000000000
 41
3.000000000000000
 42
3.000000000000000
 43
3.000000000000000
 50
240.0000000000000
  0
INSERT
  5
1BC
100
AcDbEntity
  8
MAIN0
  6
BYBLOCK
 62
0
100
AcDbBlockReference
  2
_OPEN
 10
456.5399872614943
 20
255.7530366856384
 30
0.0000000000000000
 41
3.000000000000000
 42
3.000000000000000
 43
3.000000000000000
 50
90.00000000000000
  0
MTEXT
  5
1BD
100
AcDbEntity
  8
MAIN0
  6
BYBLOCK
 62
0
100
AcDbMText
 10
450.1204743725089
 20
228.4500000825937
 30
0.0000000000000000
 40
4.649999856948853
 41
0.0000000000000000
 71
     5
 72
     1
  1
\A1;30\U+00B0
 11
0.2588190451025205
 21
0.9659258262890683
 31
0.0000000000000000
  7
STANDARD
  0
ENDBLK
  5
1BE
100
AcDbEntity
  8
MAIN0
  6
CONTINUOUS
 62
3
100
AcDbBlockEnd
  0
BLOCK
  5
1C0
100
AcDbEntity
  8
MAIN0
  6
CONTINUOUS
 62
3
100
AcDbBlockBegin
  2
*D14
 70
    65
 10
0.0
 20
0.0
 30
0.0
  0
ARC
  5
1C1
100
AcDbEntity
  8
MAIN0
  6
BYBLOCK
 62
0
100
AcDbCircle
 10
348.2241545690331
 20
255.7530366856384
 30
0.0000000000000000
 40
108.3158326924612
100
AcDbArc
 50
1.586908711926566
 51
28.41309128807348
  0
INSERT
  5
1C2
100
AcDbEntity
  8
MAIN0
  6
BYBLOCK
 62
0
100
AcDbBlockReference
  2
_OPEN
 10
456.5399872614943
 20
255.7530366856384
 30
0.0000000000000000
 41
3.000000000000000
 42
3.000000000000000
 43
3.000000000000000
 50
270.0000000000000
  0
INSERT
  5
1C3
100
AcDbEntity
  8
MAIN0
  6
BYBLOCK
 62
0
100
AcDbBlockReference
  2
_OPEN
 10
442.0284173127694
 20
309.9109530318690
 30
0.0000000000000000
 41
3.000000000000000
 42
3.000000000000000
 43
3.000000000000000
 50
120.0000000000000
  0
MTEXT
  5
1C4
100
AcDbEntity
  8
MAIN0
  6
BYBLOCK
 62
0
100
AcDbMText
 10
450.1204743725089
 20
283.0560732886832
 30
0.0000000000000000
 40
4.649999856948853
 41
0.0000000000000000
 71
     5
 72
     1
  1
\A1;30\U+00B0
 11
-0.2588190451025211
 21
0.9659258262890682
 31
0.0000000000000000
  7
STANDARD
  0
ENDBLK
  5
1C5
100
AcDbEntity
  8
MAIN0
  6
CONTINUOUS
 62
3
100
AcDbBlockEnd
  0
BLOCK
  5
1C7
100
AcDbEntity
  8
MAIN0
  6
CONTINUOUS
 62
3
100
AcDbBlockBegin
  2
*D15
 70
    65
 10
0.0
 20
0.0
 30
0.0
  0
ARC
  5
1C8
100
AcDbEntity
  8
MAIN0
  6
BYBLOCK
 62
0
100
AcDbCircle
 10
348.2241545690331
 20
255.7530366856384
 30
0.0000000000000000
 40
108.3158326924612
100
AcDbArc
 50
31.58690871192661
 51
88.41309128807343
  0
INSERT
  5
1C9
100
AcDbEntity
  8
MAIN0
  6
BYBLOCK
 62
0
100
AcDbBlockReference
  2
_OPEN
 10
442.0284173127694
 20
309.9109530318690
 30
0.0000000000000000
 41
3.000000000000000
 42
3.000000000000000
 43
3.000000000000000
 50
300.0000000000000
  0
INSERT
  5
1CA
100
AcDbEntity
  8
MAIN0
  6
BYBLOCK
 62
0
100
AcDbBlockReference
  2
_OPEN
 10
348.2241545690331
 20
364.0688693780996
 30
0.0000000000000000
 41
3.000000000000000
 42
3.000000000000000
 43
3.000000000000000
 50
180.0000000000000
  0
MTEXT
  5
1CB
100
AcDbEntity
  8
MAIN0
  6
BYBLOCK
 62
0
100
AcDbMText
 10
403.7945708795008
 20
352.0038211331229
 30
0.0000000000000000
 40
4.649999856948853
 41
0.0000000000000000
 71
     5
 72
     1
  1
\A1;60\U+00B0
 11
0.8660254037844388
 21
-0.4999999999999997
 31
0.0000000000000000
  7
STANDARD
  0
ENDBLK
  5
1CC
100
AcDbEntity
  8
MAIN0
  6
CONTINUOUS
 62
3
100
AcDbBlockEnd
  0
BLOCK
  5
1CE
100
AcDbEntity
  8
MAIN0
  6
CONTINUOUS
 62
3
100
AcDbBlockBegin
  2
*D16
 70
    65
 10
0.0
 20
0.0
 30
0.0
  0
LINE
  5
1CF
100
AcDbEntity
  8
MAIN0
  6
BYBLOCK
 62
0
100
AcDbLine
 10
330.1882808367492
 20
305.3061925052232
 30
0.0000000000000000
 11
310.1518975171414
 21
360.3557032433830
 31
0.0000000000000000
  0
ARC
  5
1D0
100
AcDbEntity
  8
MAIN0
  6
BYBLOCK
 62
0
100
AcDbCircle
 10
348.2241545690331
 20
255.7530366856384
 30
0.0000000000000000
 40
108.3158326924612
100
AcDbArc
 50
91.58690871192657
 51
108.4130912880734
  0
INSERT
  5
1D1
100
AcDbEntity
  8
MAIN0
  6
BYBLOCK
 62
0
100
AcDbBlockReference
  2
_OPEN
 10
348.2241545690331
 20
364.0688693780996
 30
0.0000000000000000
 41
3.000000000000000
 42
3.000000000000000
 43
3.000000000000000
 50
360.0000000000000
  0
INSERT
  5
1D2
100
AcDbEntity
  8
MAIN0
  6
BYBLOCK
 62
0
100
AcDbBlockReference
  2
_OPEN
 10
311.1779579471184
 20
357.5366253810253
 30
0.0000000000000000
 41
3.000000000000000
 42
3.000000000000000
 43
3.000000000000000
 50
200.0000000000000
  0
MTEXT
  5
1D3
100
AcDbEntity
  8
MAIN0
  6
BYBLOCK
 62
0
100
AcDbMText
 10
328.9247515200223
 20
365.2053903269679
 30
0.0000000000000000
 40
4.649999856948853
 41
0.0000000000000000
 71
     5
 72
     1
  1
\A1;20\U+00B0
 11
0.9848077530122081
 21
0.1736481776669301
 31
0.0000000000000000
  7
STANDARD
  0
ENDBLK
  5
1D4
100
AcDbEntity
  8
MAIN0
  6
CONTINUOUS
 62
3
100
AcDbBlockEnd
  0
BLOCK
  5
21B
100
AcDbEntity
  8
MAIN0
  6
CONTINUOUS
 62
1
100
AcDbBlockBegin
  2
*D17
 70
    65
 10
0.0
 20
0.0
 30
0.0
  0
LINE
  5
21C
100
AcDbEntity
  8
MAIN0
  6
BYBLOCK
 62
0
100
AcDbLine
 10
468.1426731788362
 20
334.0531929255802
 30
0.0000000000000000
 11
468.1426731788362
 21
370.8370921738625
 31
0.0000000000000000
  0
LINE
  5
21D
100
AcDbEntity
  8
MAIN0
  6
BYBLOCK
 62
0
100
AcDbLine
 10
471.1426731788362
 20
367.8370921738625
 30
0.0000000000000000
 11
599.1426731788361
 21
367.8370921738625
 31
0.0000000000000000
  0
INSERT
  5
21E
100
AcDbEntity
  8
MAIN0
  6
BYBLOCK
 62
0
100
AcDbBlockReference
  2
_OPEN
 10
468.1426731788362
 20
367.8370921738625
 30
0.0000000000000000
 41
3.000000000000000
 42
3.000000000000000
 43
3.000000000000000
 50
180.0000000000000
  0
INSERT
  5
21F
100
AcDbEntity
  8
MAIN0
  6
BYBLOCK
 62
0
100
AcDbBlockReference
  2
_OPEN
 10
602.1426731788361
 20
367.8370921738625
 30
0.0000000000000000
 41
3.000000000000000
 42
3.000000000000000
 43
3.000000000000000
 50
0.0000000000000000
  0
LINE
  5
220
100
AcDbEntity
  8
MAIN0
  6
BYBLOCK
 62
0
100
AcDbLine
 10
602.1426731788361
 20
334.0531929255802
 30
0.0000000000000000
 11
602.1426731788361
 21
370.8370921738625
 31
0.0000000000000000
  0
MTEXT
  5
221
100
AcDbEntity
  8
MAIN0
  6
BYBLOCK
 62
0
100
AcDbMText
 10
535.1426731788361
 20
370.6620921023369
 30
0.0000000000000000
 40
4.649999856948853
 41
0.0000000000000000
 71
     5
 72
     1
  1
\A1;240
 11
1.000000000000000
 21
0.0000000000000000
 31
0.0000000000000000
  7
STANDARD
  0
ENDBLK
  5
222
100
AcDbEntity
  8
MAIN0
  6
CONTINUOUS
 62
1
100
AcDbBlockEnd
  0
BLOCK
  5
224
100
AcDbEntity
  8
MAIN0
  6
CONTINUOUS
 62
3
100
AcDbBlockBegin
  2
*D18
 70
    65
 10
0.0
 20
0.0
 30
0.0
  0
LINE
  5
225
100
AcDbEntity
  8
MAIN0
  6
BYBLOCK
 62
0
100
AcDbLine
 10
546.3426731967176
 20
345.8531929076988
 30
0.0000000000000000
 11
577.8911715988976
 21
345.8531929076988
 31
0.0000000000000000
  0
LINE
  5
226
100
AcDbEntity
  8
MAIN0
  6
BYBLOCK
 62
0
100
AcDbLine
 10
574.8911715988976
 20
342.8531929076988
 30
0.0000000000000000
 11
574.8911715988976
 21
188.8531929076988
 31
0.0000000000000000
  0
INSERT
  5
227
100
AcDbEntity
  8
MAIN0
  6
BYBLOCK
 62
0
100
AcDbBlockReference
  2
_OPEN
 10
574.8911715988976
 20
345.8531929076988
 30
0.0000000000000000
 41
3.000000000000000
 42
3.000000000000000
 43
3.000000000000000
 50
90.00000000000000
  0
INSERT
  5
228
100
AcDbEntity
  8
MAIN0
  6
BYBLOCK
 62
0
100
AcDbBlockReference
  2
_OPEN
 10
574.8911715988976
 20
185.8531929076988
 30
0.0000000000000000
 41
3.000000000000000
 42
3.000000000000000
 43
3.000000000000000
 50
270.0000000000000
  0
LINE
  5
229
100
AcDbEntity
  8
MAIN0
  6
BYBLOCK
 62
0
100
AcDbLine
 10
542.8426731968234
 20
185.8531929076988
 30
0.0000000000000000
 11
577.8911715988976
 21
185.8531929076988
 31
0.0000000000000000
  0
MTEXT
  5
22A
100
AcDbEntity
  8
MAIN0
  6
BYBLOCK
 62
0
100
AcDbMText
 10
572.0661716704232
 20
265.8531929076988
 30
0.0000000000000000
 40
4.649999856948853
 41
0.0000000000000000
 71
     5
 72
     1
  1
\A1;160
 11
6.123233995736766e-017
 21
1.000000000000000
 31
0.0000000000000000
  7
STANDARD
  0
ENDBLK
  5
22B
100
AcDbEntity
  8
MAIN0
  6
CONTINUOUS
 62
3
100
AcDbBlockEnd
  0
BLOCK
  5
22D
100
AcDbEntity
  8
MAIN0
  6
CONTINUOUS
 62
3
100
AcDbBlockBegin
  2
*D19
 70
    65
 10
0.0
 20
0.0
 30
0.0
  0
LINE
  5
22E
100
AcDbEntity
  8
MAIN0
  6
BYBLOCK
 62
0
100
AcDbLine
 10
522.6426731788362
 20
345.0531929255802
 30
0.0000000000000000
 11
522.6426731788362
 21
360.2876424968148
 31
0.0000000000000000
  0
LINE
  5
22F
100
AcDbEntity
  8
MAIN0
  6
BYBLOCK
 62
0
100
AcDbLine
 10
525.6426731788362
 20
357.2876424968148
 30
0.0000000000000000
 11
544.6426731788362
 21
357.2876424968148
 31
0.0000000000000000
  0
INSERT
  5
230
100
AcDbEntity
  8
MAIN0
  6
BYBLOCK
 62
0
100
AcDbBlockReference
  2
_OPEN
 10
522.6426731788362
 20
357.2876424968148
 30
0.0000000000000000
 41
3.000000000000000
 42
3.000000000000000
 43
3.000000000000000
 50
180.0000000000000
  0
INSERT
  5
231
100
AcDbEntity
  8
MAIN0
  6
BYBLOCK
 62
0
100
AcDbBlockReference
  2
_OPEN
 10
547.6426731788362
 20
357.2876424968148
 30
0.0000000000000000
 41
3.000000000000000
 42
3.000000000000000
 43
3.000000000000000
 50
0.0000000000000000
  0
LINE
  5
232
100
AcDbEntity
  8
MAIN0
  6
BYBLOCK
 62
0
100
AcDbLine
 10
547.6426731788362
 20
345.0531929255802
 30
0.0000000000000000
 11
547.6426731788362
 21
360.2876424968148
 31
0.0000000000000000
  0
MTEXT
  5
233
100
AcDbEntity
  8
MAIN0
  6
BYBLOCK
 62
0
100
AcDbMText
 10
535.1426731788362
 20
360.1126424252892
 30
0.0000000000000000
 40
4.649999856948853
 41
0.0000000000000000
 71
     5
 72
     1
  1
\A1;\U+220525
 11
1.000000000000000
 21
0.0000000000000000
 31
0.0000000000000000
  7
STANDARD
  0
ENDBLK
  5
234
100
AcDbEntity
  8
MAIN0
  6
CONTINUOUS
 62
3
100
AcDbBlockEnd
  0
BLOCK
  5
236
100
AcDbEntity
  8
MAIN0
  6
CONTINUOUS
 62
1
100
AcDbBlockBegin
  2
*D20
 70
    65
 10
0.0
 20
0.0
 30
0.0
  0
LINE
  5
237
100
AcDbEntity
  8
MAIN0
  6
BYBLOCK
 62
0
100
AcDbLine
 10
523.9426731609548
 20
345.8531929076988
 30
0.0000000000000000
 11
501.8911715988976
 21
345.8531929076988
 31
0.0000000000000000
  0
LINE
  5
238
100
AcDbEntity
  8
MAIN0
  6
BYBLOCK
 62
0
100
AcDbLine
 10
504.8911715988976
 20
342.8531929076988
 30
0.0000000000000000
 11
504.8911715988976
 21
335.8531929076988
 31
0.0000000000000000
  0
INSERT
  5
239
100
AcDbEntity
  8
MAIN0
  6
BYBLOCK
 62
0
100
AcDbBlockReference
  2
_OPEN
 10
504.8911715988976
 20
345.8531929076988
 30
0.0000000000000000
 41
3.000000000000000
 42
3.000000000000000
 43
3.000000000000000
 50
90.00000000000000
  0
INSERT
  5
23A
100
AcDbEntity
  8
MAIN0
  6
BYBLOCK
 62
0
100
AcDbBlockReference
  2
_OPEN
 10
504.8911715988976
 20
332.8531929076988
 30
0.0000000000000000
 41
3.000000000000000
 42
3.000000000000000
 43
3.000000000000000
 50
270.0000000000000
  0
LINE
  5
23B
100
AcDbEntity
  8
MAIN0
  6
BYBLOCK
 62
0
100
AcDbLine
 10
504.8911715988976
 20
345.8531929076988
 30
0.0000000000000000
 11
504.8911715988976
 21
353.6191965159730
 31
0.0000000000000000
  0
MTEXT
  5
23C
100
AcDbEntity
  8
MAIN0
  6
BYBLOCK
 62
0
100
AcDbMText
 10
502.0661716704232
 20
350.5441965874986
 30
0.0000000000000000
 40
4.649999856948853
 41
0.0000000000000000
 71
     5
 72
     1
  1
\A1;13
 11
6.123233995736766e-017
 21
1.000000000000000
 31
0.0000000000000000
  7
STANDARD
  0
ENDBLK
  5
23D
100
AcDbEntity
  8
MAIN0
  6
CONTINUOUS
 62
1
100
AcDbBlockEnd
  0
BLOCK
  5
23F
100
AcDbEntity
  8
MAIN0
  6
CONTINUOUS
 62
1
100
AcDbBlockBegin
  2
*D21
 70
    65
 10
0.0
 20
0.0
 30
0.0
  0
LINE
  5
240
100
AcDbEntity
  8
MAIN0
  6
BYBLOCK
 62
0
100
AcDbLine
 10
564.8911715988976
 20
338.8531929076988
 30
0.0000000000000000
 11
564.8911715988976
 21
326.8531929076988
 31
0.0000000000000000
  0
INSERT
  5
241
100
AcDbEntity
  8
MAIN0
  6
BYBLOCK
 62
0
100
AcDbBlockReference
  2
_OPEN
 10
564.8911715988976
 20
338.8531929076988
 30
0.0000000000000000
 41
3.000000000000000
 42
3.000000000000000
 43
3.000000000000000
 50
270.0000000000000
  0
INSERT
  5
242
100
AcDbEntity
  8
MAIN0
  6
BYBLOCK
 62
0
100
AcDbBlockReference
  2
_OPEN
 10
564.8911715988976
 20
326.8531929076988
 30
0.0000000000000000
 41
3.000000000000000
 42
3.000000000000000
 43
3.000000000000000
 50
90.00000000000000
  0
LINE
  5
243
100
AcDbEntity
  8
MAIN0
  6
BYBLOCK
 62
0
100
AcDbLine
 10
564.8911715988976
 20
341.8531929076988
 30
0.0000000000000000
 11
564.8911715988976
 21
343.3531929076988
 31
0.0000000000000000
  0
LINE
  5
244
100
AcDbEntity
  8
MAIN0
  6
BYBLOCK
 62
0
100
AcDbLine
 10
564.8911715988976
 20
323.8531929076988
 30
0.0000000000000000
 11
564.8911715988976
 21
322.3531929076988
 31
0.0000000000000000
  0
MTEXT
  5
245
100
AcDbEntity
  8
MAIN0
  6
BYBLOCK
 62
0
100
AcDbMText
 10
562.0661716704232
 20
332.8531929076988
 30
0.0000000000000000
 40
4.649999856948853
 41
0.0000000000000000
 71
     5
 72
     1
  1
\A1;\U+220512
 11
6.123233995736766e-017
 21
1.000000000000000
 31
0.0000000000000000
  7
STANDARD
  0
ENDBLK
  5
246
100
AcDbEntity
  8
MAIN0
  6
CONTINUOUS
 62
1
100
AcDbBlockEnd
  0
BLOCK
  5
248
100
AcDbEntity
  8
MAIN0
  6
CONTINUOUS
 62
3
100
AcDbBlockBegin
  2
*D22
 70
    65
 10
0.0
 20
0.0
 30
0.0
  0
LINE
  5
249
100
AcDbEntity
  8
MAIN0
  6
BYBLOCK
 62
0
100
AcDbLine
 10
528.1426731788362
 20
289.8946077490155
 30
0.0000000000000000
 11
542.1426731788362
 21
289.8946077490155
 31
0.0000000000000000
  0
INSERT
  5
24A
100
AcDbEntity
  8
MAIN0
  6
BYBLOCK
 62
0
100
AcDbBlockReference
  2
_OPEN
 10
525.1426731788362
 20
289.8946077490155
 30
0.0000000000000000
 41
3.000000000000000
 42
3.000000000000000
 43
3.000000000000000
 50
180.0000000000000
  0
INSERT
  5
24B
100
AcDbEntity
  8
MAIN0
  6
BYBLOCK
 62
0
100
AcDbBlockReference
  2
_OPEN
 10
545.1426731788362
 20
289.8946077490155
 30
0.0000000000000000
 41
3.000000000000000
 42
3.000000000000000
 43
3.000000000000000
 50
0.0000000000000000
  0
MTEXT
  5
24C
100
AcDbEntity
  8
MAIN0
  6
BYBLOCK
 62
0
100
AcDbMText
 10
535.1426731788362
 20
292.7196076774899
 30
0.0000000000000000
 40
4.649999856948853
 41
0.0000000000000000
 71
     5
 72
     1
  1
\A1;\U+220520
 11
1.000000000000000
 21
0.0000000000000000
 31
0.0000000000000000
  7
STANDARD
  0
ENDBLK
  5
24D
100
AcDbEntity
  8
MAIN0
  6
CONTINUOUS
 62
3
100
AcDbBlockEnd
  0
BLOCK
  5
24F
100
AcDbEntity
  8
MAIN0
  6
CONTINUOUS
 62
3
100
AcDbBlockBegin
  2
*D23
 70
    65
 10
0.0
 20
0.0
 30
0.0
  0
LINE
  5
250
100
AcDbEntity
  8
MAIN0
  6
BYBLOCK
 62
0
100
AcDbLine
 10
543.5426731968180
 20
200.8531929076988
 30
0.0000000000000000
 11
557.8911715988976
 21
200.8531929076988
 31
0.0000000000000000
  0
LINE
  5
251
100
AcDbEntity
  8
MAIN0
  6
BYBLOCK
 62
0
100
AcDbLine
 10
554.8911715988976
 20
197.8531929076988
 30
0.0000000000000000
 11
554.8911715988976
 21
188.8531929076988
 31
0.0000000000000000
  0
INSERT
  5
252
100
AcDbEntity
  8
MAIN0
  6
BYBLOCK
 62
0
100
AcDbBlockReference
  2
_OPEN
 10
554.8911715988976
 20
200.8531929076988
 30
0.0000000000000000
 41
3.000000000000000
 42
3.000000000000000
 43
3.000000000000000
 50
90.00000000000000
  0
INSERT
  5
253
100
AcDbEntity
  8
MAIN0
  6
BYBLOCK
 62
0
100
AcDbBlockReference
  2
_OPEN
 10
554.8911715988976
 20
185.8531929076988
 30
0.0000000000000000
 41
3.000000000000000
 42
3.000000000000000
 43
3.000000000000000
 50
270.0000000000000
  0
LINE
  5
254
100
AcDbEntity
  8
MAIN0
  6
BYBLOCK
 62
0
100
AcDbLine
 10
542.8426731968234
 20
185.8531929076988
 30
0.0000000000000000
 11
557.8911715988976
 21
185.8531929076988
 31
0.0000000000000000
  0
MTEXT
  5
255
100
AcDbEntity
  8
MAIN0
  6
BYBLOCK
 62
0
100
AcDbMText
 10
552.0661716704232
 20
193.3531929076988
 30
0.0000000000000000
 40
4.649999856948853
 41
0.0000000000000000
 71
     5
 72
     1
  1
\A1;15
 11
6.123233995736766e-017
 21
1.000000000000000
 31
0.0000000000000000
  7
STANDARD
  0
ENDBLK
  5
256
100
AcDbEntity
  8
MAIN0
  6
CONTINUOUS
 62
3
100
AcDbBlockEnd
  0
BLOCK
  5
258
100
AcDbEntity
  8
MAIN0
  6
CONTINUOUS
 62
3
100
AcDbBlockBegin
  2
*D24
 70
    65
 10
0.0
 20
0.0
 30
0.0
  0
LINE
  5
259
100
AcDbEntity
  8
MAIN0
  6
BYBLOCK
 62
0
100
AcDbLine
 10
535.4130267358546
 20
148.7591363091738
 30
0.0000000000000000
 11
548.6527795064594
 21
135.5193835385668
 31
0.0000000000000000
  0
LINE
  5
25A
100
AcDbEntity
  8
MAIN0
  6
BYBLOCK
 62
0
100
AcDbLine
 10
548.6527795064598
 20
139.7620242256861
 30
0.0000000000000000
 11
552.1883134123927
 21
143.2975581316185
 31
0.0000000000000000
  0
INSERT
  5
25B
100
AcDbEntity
  8
MAIN0
  6
BYBLOCK
 62
0
100
AcDbBlockReference
  2
_OPEN
 10
546.5314591628999
 20
137.6407038821266
 30
0.0000000000000000
 41
3.000000000000000
 42
3.000000000000000
 43
3.000000000000000
 50
224.9999999999956
  0
INSERT
  5
25C
100
AcDbEntity
  8
MAIN0
  6
BYBLOCK
 62
0
100
AcDbBlockReference
  2
_OPEN
 10
554.3096337559525
 20
145.4188784751780
 30
0.0000000000000000
 41
3.000000000000000
 42
3.000000000000000
 43
3.000000000000000
 50
44.99999999999562
  0
LINE
  5
25D
100
AcDbEntity
  8
MAIN0
  6
BYBLOCK
 62
0
100
AcDbLine
 10
554.3096337559525
 20
145.4188784751780
 30
0.0000000000000000
 11
568.8200234152981
 21
159.9292681345212
 31
0.0000000000000000
  0
LINE
  5
25E
100
AcDbEntity
  8
MAIN0
  6
BYBLOCK
 62
0
100
AcDbLine
 10
543.1912013289038
 20
156.5373109022285
 30
0.0000000000000000
 11
556.4309540995121
 21
143.2975581316182
 31
0.0000000000000000
  0
MTEXT
  5
25F
100
AcDbEntity
  8
MAIN0
  6
BYBLOCK
 62
0
100
AcDbMText
 10
560.3259031719184
 20
155.4303011036940
 30
0.0000000000000000
 40
4.649999856948853
 41
0.0000000000000000
 71
     5
 72
     1
  1
\A1;11\H0.903226x;\S　0^ －0.15;
 11
0.7071067811866044
 21
0.7071067811864906
 31
0.0000000000000000
  7
KNJYOKO
  0
ENDBLK
  5
260
100
AcDbEntity
  8
MAIN0
  6
CONTINUOUS
 62
3
100
AcDbBlockEnd
  0
BLOCK
  5
26E
100
AcDbEntity
  8
MAIN0
  6
CONTINUOUS
 62
3
100
AcDbBlockBegin
  2
*D25
 70
    65
 10
0.0
 20
0.0
 30
0.0
  0
LINE
  5
26F
100
AcDbEntity
  8
MAIN0
  6
BYBLOCK
 62
0
100
AcDbLine
 10
217.7741960980232
 20
267.6030367035199
 30
0.0000000000000000
 11
217.7741960980232
 21
278.7530366856385
 31
0.0000000000000000
  0
LINE
  5
270
100
AcDbEntity
  8
MAIN0
  6
BYBLOCK
 62
0
100
AcDbLine
 10
214.7741960980232
 20
275.7530366856385
 30
0.0000000000000000
 11
189.7741960980674
 21
275.7530366856385
 31
0.0000000000000000
  0
INSERT
  5
271
100
AcDbEntity
  8
MAIN0
  6
BYBLOCK
 62
0
100
AcDbBlockReference
  2
_OPEN
 10
217.7741960980232
 20
275.7530366856385
 30
0.0000000000000000
 41
3.000000000000000
 42
3.000000000000000
 43
3.000000000000000
 50
360.0000000000000
  0
INSERT
  5
272
100
AcDbEntity
  8
MAIN0
  6
BYBLOCK
 62
0
100
AcDbBlockReference
  2
_OPEN
 10
186.7741960980674
 20
275.7530366856385
 30
0.0000000000000000
 41
3.000000000000000
 42
3.000000000000000
 43
3.000000000000000
 50
180.0000000000000
  0
MTEXT
  5
273
100
AcDbEntity
  8
MAIN0
  6
BYBLOCK
 62
0
100
AcDbMText
 10
208.2241545690331
 20
278.8280366141129
 30
0.0000000000000000
 40
4.649999856948853
 41
0.0000000000000000
 71
     5
 72
     1
  1
\A1;31
 11
1.000000000000000
 21
0.0000000000000000
 31
0.0000000000000000
  7
STANDARD
  0
ENDBLK
  5
274
100
AcDbEntity
  8
MAIN0
  6
CONTINUOUS
 62
3
100
AcDbBlockEnd
  0
BLOCK
  5
276
100
AcDbEntity
  8
MAIN0
  6
CONTINUOUS
 62
3
100
AcDbBlockBegin
  2
*D26
 70
    65
 10
0.0
 20
0.0
 30
0.0
  0
LINE
  5
277
100
AcDbEntity
  8
MAIN0
  6
BYBLOCK
 62
0
100
AcDbLine
 10
186.7741960979937
 20
350.3530367035199
 30
0.0000000000000000
 11
186.7741960980818
 21
368.7530366856385
 31
0.0000000000000000
  0
LINE
  5
278
100
AcDbEntity
  8
MAIN0
  6
BYBLOCK
 62
0
100
AcDbLine
 10
183.7741960980674
 20
365.7530366856385
 30
0.0000000000000000
 11
142.2741960979852
 21
365.7530366856385
 31
0.0000000000000000
  0
INSERT
  5
279
100
AcDbEntity
  8
MAIN0
  6
BYBLOCK
 62
0
100
AcDbBlockReference
  2
_OPEN
 10
186.7741960980674
 20
365.7530366856385
 30
0.0000000000000000
 41
3.000000000000000
 42
3.000000000000000
 43
3.000000000000000
 50
360.0000000000000
  0
INSERT
  5
27A
100
AcDbEntity
  8
MAIN0
  6
BYBLOCK
 62
0
100
AcDbBlockReference
  2
_OPEN
 10
139.2741960979852
 20
365.7530366856385
 30
0.0000000000000000
 41
3.000000000000000
 42
3.000000000000000
 43
3.000000000000000
 50
180.0000000000000
  0
LINE
  5
27B
100
AcDbEntity
  8
MAIN0
  6
BYBLOCK
 62
0
100
AcDbLine
 10
139.2741960979852
 20
356.9530367035182
 30
0.0000000000000000
 11
139.2741960979852
 21
368.7530366856385
 31
0.0000000000000000
  0
MTEXT
  5
27C
100
AcDbEntity
  8
MAIN0
  6
BYBLOCK
 62
0
100
AcDbMText
 10
163.0241960980263
 20
368.5780366141129
 30
0.0000000000000000
 40
4.649999856948853
 41
0.0000000000000000
 71
     5
 72
     1
  1
\A1;47.5
 11
1.000000000000000
 21
0.0000000000000000
 31
0.0000000000000000
  7
STANDARD
  0
ENDBLK
  5
27D
100
AcDbEntity
  8
MAIN0
  6
CONTINUOUS
 62
3
100
AcDbBlockEnd
  0
BLOCK
  5
27F
100
AcDbEntity
  8
MAIN0
  6
CONTINUOUS
 62
3
100
AcDbBlockBegin
  2
*D27
 70
    65
 10
0.0
 20
0.0
 30
0.0
  0
LINE
  5
280
100
AcDbEntity
  8
MAIN0
  6
BYBLOCK
 62
0
100
AcDbLine
 10
139.2741960979852
 20
356.9530367035182
 30
0.0000000000000000
 11
139.2741960979852
 21
368.7530366856385
 31
0.0000000000000000
  0
LINE
  5
281
100
AcDbEntity
  8
MAIN0
  6
BYBLOCK
 62
0
100
AcDbLine
 10
136.2741960979852
 20
365.7530366856385
 30
0.0000000000000000
 11
114.7741960979880
 21
365.7530366856385
 31
0.0000000000000000
  0
INSERT
  5
282
100
AcDbEntity
  8
MAIN0
  6
BYBLOCK
 62
0
100
AcDbBlockReference
  2
_OPEN
 10
139.2741960979852
 20
365.7530366856385
 30
0.0000000000000000
 41
3.000000000000000
 42
3.000000000000000
 43
3.000000000000000
 50
360.0000000000000
  0
INSERT
  5
283
100
AcDbEntity
  8
MAIN0
  6
BYBLOCK
 62
0
100
AcDbBlockReference
  2
_OPEN
 10
111.7741960979880
 20
365.7530366856385
 30
0.0000000000000000
 41
3.000000000000000
 42
3.000000000000000
 43
3.000000000000000
 50
180.0000000000000
  0
LINE
  5
284
100
AcDbEntity
  8
MAIN0
  6
BYBLOCK
 62
0
100
AcDbLine
 10
111.7741960979880
 20
350.3530367035199
 30
0.0000000000000000
 11
111.7741960979880
 21
368.7530366856385
 31
0.0000000000000000
  0
MTEXT
  5
285
100
AcDbEntity
  8
MAIN0
  6
BYBLOCK
 62
0
100
AcDbMText
 10
125.5241960979866
 20
368.5780366141129
 30
0.0000000000000000
 40
4.649999856948853
 41
0.0000000000000000
 71
     5
 72
     1
  1
\A1;27.5
 11
1.000000000000000
 21
0.0000000000000000
 31
0.0000000000000000
  7
STANDARD
  0
ENDBLK
  5
286
100
AcDbEntity
  8
MAIN0
  6
CONTINUOUS
 62
3
100
AcDbBlockEnd
  0
ENDSEC
  0
SECTION
  2
ENTITIES
  0
LINE
  5
46
100
AcDbEntity
  8
MAIN0
  6
CENTER
 62
3
100
AcDbLine
 10
348.2241545690331
 20
366.3619784927699
 30
0.0000000000000000
 11
348.2241545690331
 21
146.0754356251179
 31
0.0000000000000000
  0
LINE
  5
47
100
AcDbEntity
  8
MAIN0
  6
CONTINUOUS
 62
3
100
AcDbLine
 10
113.3741960979873
 20
350.7530366856385
 30
0.0000000000000000
 11
185.1741960979873
 21
350.7530366856385
 31
0.0000000000000000
  0
LINE
  5
48
100
AcDbEntity
  8
MAIN0
  6
CONTINUOUS
 62
3
100
AcDbLine
 10
113.3741960980682
 20
160.7530366856385
 30
0.0000000000000000
 11
185.1741960980681
 21
160.7530366856385
 31
0.0000000000000000
  0
LINE
  5
49
100
AcDbEntity
  8
MAIN0
  6
CONTINUOUS
 62
3
100
AcDbLine
 10
113.3741960979873
 20
350.7530366856385
 30
0.0000000000000000
 11
111.7741960979880
 21
349.1530366856385
 31
0.0000000000000000
  0
LINE
  5
4A
100
AcDbEntity
  8
MAIN0
  6
CONTINUOUS
 62
3
100
AcDbLine
 10
185.1741960979873
 20
350.7530366856385
 30
0.0000000000000000
 11
186.7741960979879
 21
349.1530366856385
 31
0.0000000000000000
  0
LINE
  5
4B
100
AcDbEntity
  8
MAIN0
  6
CONTINUOUS
 62
3
100
AcDbLine
 10
111.7741960980675
 20
162.3530366856385
 30
0.0000000000000000
 11
113.3741960980682
 21
160.7530366856385
 31
0.0000000000000000
  0
LINE
  5
4C
100
AcDbEntity
  8
MAIN0
  6
CONTINUOUS
 62
3
100
AcDbLine
 10
111.7741960979948
 20
333.2530366856385
 30
0.0000000000000000
 11
121.7741961010248
 21
333.2530366856385
 31
0.0000000000000000
  0
LINE
  5
4D
100
AcDbEntity
  8
MAIN0
  6
CONTINUOUS
 62
3
100
AcDbLine
 10
111.7741960980607
 20
178.2530366856385
 30
0.0000000000000000
 11
121.7741961010249
 21
178.2530366856385
 31
0.0000000000000000
  0
LINE
  5
4E
100
AcDbEntity
  8
MAIN0
  6
CONTINUOUS
 62
3
100
AcDbLine
 10
116.7741960979948
 20
333.2530366856385
 30
0.0000000000000000
 11
116.7741960980607
 21
178.2530366856385
 31
0.0000000000000000
  0
LINE
  5
4F
100
AcDbEntity
  8
MAIN0
  6
CONTINUOUS
 62
3
100
AcDbLine
 10
121.7741961010248
 20
333.2530366856384
 30
0.0000000000000000
 11
123.7970661855702
 21
316.7780819383926
 31
0.0000000000000000
  0
ARC
  5
50
100
AcDbEntity
  8
MAIN0
  6
CONTINUOUS
 62
3
100
AcDbCircle
 10
131.7374353987002
 20
317.7530366856383
 30
0.0000000000000000
 40
8.000000000000000
100
AcDbArc
 50
187.0000000000327
 51
223.9246324428354
  0
LINE
  5
51
100
AcDbEntity
  8
MAIN0
  6
CONTINUOUS
 62
3
100
AcDbLine
 10
121.7741961010249
 20
178.2530366856386
 30
0.0000000000000000
 11
123.7970661855702
 21
194.7279914328843
 31
0.0000000000000000
  0
ARC
  5
52
100
AcDbEntity
  8
MAIN0
  6
CONTINUOUS
 62
3
100
AcDbCircle
 10
131.7374353987002
 20
193.7530366856386
 30
0.0000000000000000
 40
8.000000000000000
100
AcDbArc
 50
90.00000000000000
 51
172.9999999999673
  0
LINE
  5
53
100
AcDbEntity
  8
MAIN0
  6
CONTINUOUS
 62
3
100
AcDbLine
 10
131.7374353987002
 20
201.7530366856385
 30
0.0000000000000000
 11
139.6016389454930
 21
201.7530366856385
 31
0.0000000000000000
  0
LINE
  5
54
100
AcDbEntity
  8
MAIN0
  6
CONTINUOUS
 62
3
100
AcDbLine
 10
116.7741960980094
 20
298.7530366856385
 30
0.0000000000000000
 11
129.7741960980094
 21
298.7530366856385
 31
0.0000000000000000
  0
LINE
  5
55
100
AcDbEntity
  8
MAIN0
  6
CONTINUOUS
 62
3
100
AcDbLine
 10
116.7741960980460
 20
212.7530366856385
 30
0.0000000000000000
 11
129.7741960980460
 21
212.7530366856385
 31
0.0000000000000000
  0
LINE
  5
56
100
AcDbEntity
  8
MAIN0
  6
CONTINUOUS
 62
3
100
AcDbLine
 10
129.7741960980094
 20
298.7530366856385
 30
0.0000000000000000
 11
129.7741960980460
 21
212.7530366856385
 31
0.0000000000000000
  0
LINE
  5
57
100
AcDbEntity
  8
MAIN0
  6
CONTINUOUS
 62
3
100
AcDbLine
 10
129.7741960980160
 20
283.2530366856385
 30
0.0000000000000000
 11
138.2241545690332
 21
283.2530366856385
 31
0.0000000000000000
  0
LINE
  5
58
100
AcDbEntity
  8
MAIN0
  6
CONTINUOUS
 62
3
100
AcDbLine
 10
129.7741960980394
 20
228.2530366856385
 30
0.0000000000000000
 11
143.2241545690331
 21
228.2530366856385
 31
0.0000000000000000
  0
LINE
  5
59
100
AcDbEntity
  8
MAIN0
  6
CONTINUOUS
 62
3
100
AcDbLine
 10
121.7741960980609
 20
177.7530366856385
 30
0.0000000000000000
 11
131.9930285293646
 21
177.7530366856385
 31
0.0000000000000000
  0
LINE
  5
5A
100
AcDbEntity
  8
MAIN0
  6
CONTINUOUS
 62
3
100
AcDbLine
 10
121.7741960980607
 20
178.2530366856385
 30
0.0000000000000000
 11
121.7741960980609
 21
177.7530366856385
 31
0.0000000000000000
  0
LINE
  5
5B
100
AcDbEntity
  8
MAIN0
  6
CENTER
 62
3
100
AcDbLine
 10
244.3294052935126
 20
255.7530366856385
 30
0.0000000000000000
 11
457.8584202488527
 21
255.7530366856385
 31
0.0000000000000000
  0
LINE
  5
5C
100
AcDbEntity
  8
MAIN0
  6
CENTER
 62
3
100
AcDbLine
 10
126.1702571165691
 20
222.0030366856385
 30
0.0000000000000000
 11
148.2241545690331
 21
222.0030366856385
 31
0.0000000000000000
  0
LINE
  5
5D
100
AcDbEntity
  8
MAIN0
  6
HIDDEN
 62
3
100
AcDbLine
 10
123.2741960979878
 20
349.3130366856385
 30
0.0000000000000000
 11
155.2741960979879
 21
349.3130366856385
 31
0.0000000000000000
  0
ARC
  5
5E
100
AcDbEntity
  8
MAIN0
  6
HIDDEN
 62
3
100
AcDbCircle
 10
153.2741960979923
 20
339.0630366856385
 30
0.0000000000000000
 40
2.750000000000000
100
AcDbArc
 50
90.00000000000000
 51
123.1447227070916
  0
ARC
  5
5F
100
AcDbEntity
  8
MAIN0
  6
HIDDEN
 62
3
100
AcDbCircle
 10
125.2741960979923
 20
339.0630366856266
 30
0.0000000000000000
 40
2.750000000000000
100
AcDbArc
 50
56.85527729934776
 51
90.00000000004874
  0
LINE
  5
60
100
AcDbEntity
  8
MAIN0
  6
HIDDEN
 62
3
100
AcDbLine
 10
123.2741960979911
 20
341.8130366856385
 30
0.0000000000000000
 11
125.2741960979923
 21
341.8130366856385
 31
0.0000000000000000
  0
LINE
  5
61
100
AcDbEntity
  8
MAIN0
  6
HIDDEN
 62
3
100
AcDbLine
 10
153.2741960979923
 20
341.8130366856385
 30
0.0000000000000000
 11
155.2741960979911
 21
341.8130366856385
 31
0.0000000000000000
  0
LINE
  5
62
100
AcDbEntity
  8
MAIN0
  6
HIDDEN
 62
3
100
AcDbLine
 10
152.9539956072225
 20
341.7943315517616
 30
0.0000000000000000
 11
155.2741960980569
 21
345.8130366856385
 31
0.0000000000000000
  0
LINE
  5
63
100
AcDbEntity
  8
MAIN0
  6
HIDDEN
 62
3
100
AcDbLine
 10
125.5943965887597
 20
341.7943315517500
 30
0.0000000000000000
 11
123.2741960979218
 21
345.8130366856249
 31
0.0000000000000000
  0
LINE
  5
64
100
AcDbEntity
  8
MAIN0
  6
HIDDEN
 62
3
100
AcDbLine
 10
155.2741960983246
 20
349.3130366856385
 30
0.0000000000000000
 11
157.7683492612196
 21
350.7530366856385
 31
0.0000000000000000
  0
LINE
  5
65
100
AcDbEntity
  8
MAIN0
  6
HIDDEN
 62
3
100
AcDbLine
 10
120.7800429350909
 20
350.7530366856386
 30
0.0000000000000000
 11
123.2741960979973
 21
349.3130366856384
 31
0.0000000000000000
  0
LINE
  5
66
100
AcDbEntity
  8
MAIN0
  6
HIDDEN
 62
3
100
AcDbLine
 10
146.4741960977286
 20
348.4181437690140
 30
0.0000000000000000
 11
146.4741960977167
 21
341.3655902272651
 31
0.0000000000000000
  0
LINE
  5
67
100
AcDbEntity
  8
MAIN0
  6
HIDDEN
 62
3
100
AcDbLine
 10
132.0741960979845
 20
348.4181437690158
 30
0.0000000000000000
 11
132.0741960979780
 21
341.3655902273556
 31
0.0000000000000000
  0
LINE
  5
68
100
AcDbEntity
  8
MAIN0
  6
HIDDEN
 62
3
100
AcDbLine
 10
138.6706833338215
 20
348.4181437690151
 30
0.0000000000000000
 11
138.6706833338223
 21
341.3655902273141
 31
0.0000000000000000
  0
LINE
  5
69
100
AcDbEntity
  8
MAIN0
  6
HIDDEN
 62
3
100
AcDbLine
 10
139.8777088619234
 20
348.4181437690149
 30
0.0000000000000000
 11
139.8777088619143
 21
341.3655902273065
 31
0.0000000000000000
  0
LINE
  5
6A
100
AcDbEntity
  8
MAIN0
  6
HIDDEN
 62
3
100
AcDbLine
 10
130.5241960979938
 20
349.3130366856386
 30
0.0000000000000000
 11
132.0741960969180
 21
348.4181437690159
 31
0.0000000000000000
  0
LINE
  5
6B
100
AcDbEntity
  8
MAIN0
  6
HIDDEN
 62
3
100
AcDbLine
 10
146.4741960977990
 20
348.4181437690140
 30
0.0000000000000000
 11
148.0241960967260
 21
349.3130366856385
 31
0.0000000000000000
  0
LINE
  5
6C
100
AcDbEntity
  8
MAIN0
  6
HIDDEN
 62
3
100
AcDbLine
 10
132.0741960979845
 20
348.4181437690158
 30
0.0000000000000000
 11
146.4741960977286
 21
348.4181437690140
 31
0.0000000000000000
  0
LINE
  5
6D
100
AcDbEntity
  8
MAIN0
  6
HIDDEN
 62
3
100
AcDbLine
 10
146.4741960977990
 20
348.4181437690140
 30
0.0000000000000000
 11
143.1759524798332
 21
341.3655902272858
 31
0.0000000000000000
  0
LINE
  5
6E
100
AcDbEntity
  8
MAIN0
  6
HIDDEN
 62
3
100
AcDbLine
 10
139.8777088619233
 20
348.4181437690149
 30
0.0000000000000000
 11
143.1759524798331
 21
341.3655902272859
 31
0.0000000000000000
  0
LINE
  5
6F
100
AcDbEntity
  8
MAIN0
  6
HIDDEN
 62
3
100
AcDbLine
 10
138.6706833338215
 20
348.4181437690151
 30
0.0000000000000000
 11
135.3724397159003
 21
341.3655902273349
 31
0.0000000000000000
  0
LINE
  5
70
100
AcDbEntity
  8
MAIN0
  6
HIDDEN
 62
3
100
AcDbLine
 10
132.0741960979846
 20
348.4181437690158
 30
0.0000000000000000
 11
135.3724397159002
 21
341.3655902273349
 31
0.0000000000000000
  0
LINE
  5
71
100
AcDbEntity
  8
MAIN0
  6
CONTINUOUS
 62
3
100
AcDbLine
 10
347.2241545690073
 20
238.7530366856464
 30
0.0000000000000000
 11
349.2241545690590
 21
238.7530366856464
 31
0.0000000000000000
  0
LINE
  5
72
100
AcDbEntity
  8
MAIN0
  6
CENTER
 62
3
100
AcDbLine
 10
359.6634399435304
 20
262.3575111759415
 30
0.0000000000000000
 11
443.1325769251521
 21
310.5484398813065
 31
0.0000000000000000
  0
LINE
  5
73
100
AcDbEntity
  8
MAIN0
  6
CENTER
 62
3
100
AcDbLine
 10
261.9864102479199
 20
305.5424215837393
 30
0.0000000000000000
 11
327.1417608389828
 21
267.9249623808448
 31
0.0000000000000000
  0
ARC
  5
74
100
AcDbEntity
  8
MAIN0
  6
CONTINUOUS
 62
3
100
AcDbCircle
 10
348.2241545690331
 20
255.7530366856385
 30
0.0000000000000000
 40
95.00000000000001
100
AcDbArc
 50
36.80098579529597
 51
143.1990142047040
  0
ARC
  5
75
100
AcDbEntity
  8
MAIN0
  6
CONTINUOUS
 62
3
100
AcDbCircle
 10
348.2241545690331
 20
255.7530366856385
 30
0.0000000000000000
 40
95.00000000000001
100
AcDbArc
 50
156.8009857952960
 51
263.2039009457474
  0
ARC
  5
76
100
AcDbEntity
  8
MAIN0
  6
CONTINUOUS
 62
3
100
AcDbCircle
 10
348.2241545690331
 20
255.7530366856385
 30
0.0000000000000000
 40
95.00000000000001
100
AcDbArc
 50
276.8009857952960
 51
383.1990142047040
  0
DIMENSION
  5
7F
100
AcDbEntity
  8
MAIN0
  6
CONTINUOUS
 62
3
100
AcDbDimension
  2
*D0
 10
98.22415456903309
 20
283.2530366856385
 30
0.0000000000000000
 11
97.72415456903309
 21
254.7378668283079
 31
0.0000000000000000
 70
160
  1
\A1;\U+220555
  3
MAIN001
100
AcDbAlignedDimension
 13
129.7741960980394
 23
228.2530366856385
 33
0.0000000000000000
 14
129.7741960980160
 24
283.2530366856385
 34
0.0000000000000000
 50
90.00000000000000
100
AcDbRotatedDimension
1001
ACAD
1000
DSTYLE
1002
{
1070
   173
1070
     1
1070
     6
1000
_OPEN
1070
     7
1000
_OPEN
1070
    41
1040
3.000000
1002
}
  0
ARC
  5
80
100
AcDbEntity
  8
MAIN0
  6
CENTER
 62
3
100
AcDbCircle
 10
348.2241545690331
 20
255.7530366856385
 30
0.0000000000000000
 40
40.00000000000003
100
AcDbArc
 50
93.62056553902377
 51
126.1177564306748
  0
CIRCLE
  5
81
100
AcDbEntity
  8
MAIN0
  6
CONTINUOUS
 62
3
100
AcDbCircle
 10
334.5433488360075
 20
293.3407415170717
 30
0.0000000000000000
 40
7.500000000000000
  0
LINE
  5
82
100
AcDbEntity
  8
MAIN0
  6
CONTINUOUS
 62
3
100
AcDbLine
 10
337.1411440323974
 20
296.4366732751935
 30
0.0000000000000000
 11
338.5234019851188
 21
292.6389507622297
 31
0.0000000000000000
  0
LINE
  5
83
100
AcDbEntity
  8
MAIN0
  6
CONTINUOUS
 62
3
100
AcDbLine
 10
330.5632956868960
 20
294.0425322719138
 30
0.0000000000000000
 11
331.9455536396175
 21
290.2448097589501
 31
0.0000000000000000
  0
LINE
  5
84
100
AcDbEntity
  8
MAIN0
  6
CONTINUOUS
 62
3
100
AcDbLine
 10
335.9256067887289
 20
289.5430190041080
 30
0.0000000000000000
 11
338.5234019851189
 21
292.6389507622297
 31
0.0000000000000000
  0
LINE
  5
85
100
AcDbEntity
  8
MAIN0
  6
CONTINUOUS
 62
3
100
AcDbLine
 10
330.5632956868960
 20
294.0425322719138
 30
0.0000000000000000
 11
333.1610908832860
 21
297.1384640300355
 31
0.0000000000000000
  0
LINE
  5
86
100
AcDbEntity
  8
MAIN0
  6
CONTINUOUS
 62
3
100
AcDbLine
 10
337.1411440323974
 20
296.4366732751935
 30
0.0000000000000000
 11
333.1610908832860
 21
297.1384640300355
 31
0.0000000000000000
  0
LINE
  5
87
100
AcDbEntity
  8
MAIN0
  6
CONTINUOUS
 62
3
100
AcDbLine
 10
335.9256067887289
 20
289.5430190041080
 30
0.0000000000000000
 11
331.9455536396175
 21
290.2448097589501
 31
0.0000000000000000
  0
LINE
  5
88
100
AcDbEntity
  8
MAIN0
  6
CENTER
 62
3
100
AcDbLine
 10
330.5987050148558
 20
304.1785613434771
 30
0.0000000000000000
 11
337.9983105286419
 21
283.8483122814777
 31
0.0000000000000000
  0
CIRCLE
  5
89
100
AcDbEntity
  8
MAIN0
  6
CONTINUOUS
 62
3
100
AcDbCircle
 10
334.5433488360063
 20
293.3407415170748
 30
0.0000000000000000
 40
2.400000000000000
  0
CIRCLE
  5
8A
100
AcDbEntity
  8
MAIN0
  6
CONTINUOUS
 62
3
100
AcDbCircle
 10
334.5433488360063
 20
293.3407415170748
 30
0.0000000000000000
 40
0.4330000000000000
  0
LINE
  5
8B
100
AcDbEntity
  8
MAIN0
  6
HIDDEN
 62
3
100
AcDbLine
 10
364.2241545690331
 20
349.3959755545142
 30
0.0000000000000000
 11
364.2241545690331
 21
332.0943754216077
 31
0.0000000000000000
  0
LINE
  5
8C
100
AcDbEntity
  8
MAIN0
  6
HIDDEN
 62
3
100
AcDbLine
 10
332.2241545690331
 20
349.3959755545142
 30
0.0000000000000000
 11
332.2241545690331
 21
332.0943754216077
 31
0.0000000000000000
  0
ARC
  5
8D
100
AcDbEntity
  8
MAIN0
  6
HIDDEN
 62
3
100
AcDbCircle
 10
348.2241545690331
 20
255.7530366856385
 30
0.0000000000000000
 40
78.00000000000000
100
AcDbArc
 50
344.8571655449238
 51
464.8571655449238
  0
LINE
  5
8E
100
AcDbEntity
  8
MAIN0
  6
HIDDEN
 62
3
100
AcDbLine
 10
259.1269906235534
 20
222.7879737117516
 30
0.0000000000000000
 11
274.1106158647707
 21
231.4387737782049
 31
0.0000000000000000
  0
ARC
  5
8F
100
AcDbEntity
  8
MAIN0
  6
HIDDEN
 62
3
100
AcDbCircle
 10
348.2241545690331
 20
255.7530366856385
 30
0.0000000000000000
 40
78.00000000000000
100
AcDbArc
 50
104.8571655449238
 51
224.8571655449238
  0
LINE
  5
90
100
AcDbEntity
  8
MAIN0
  6
HIDDEN
 62
3
100
AcDbLine
 10
275.1269906235534
 20
195.0751607906496
 30
0.0000000000000000
 11
290.1106158647707
 21
203.7259608571028
 31
0.0000000000000000
  0
LINE
  5
91
100
AcDbEntity
  8
MAIN0
  6
HIDDEN
 62
3
100
AcDbLine
 10
421.3213185145127
 20
195.0751607906495
 30
0.0000000000000000
 11
406.3376932732954
 21
203.7259608571028
 31
0.0000000000000000
  0
ARC
  5
92
100
AcDbEntity
  8
MAIN0
  6
HIDDEN
 62
3
100
AcDbCircle
 10
348.2241545690331
 20
255.7530366856385
 30
0.0000000000000000
 40
78.00000000000000
100
AcDbArc
 50
224.8571655449238
 51
344.8571655449238
  0
LINE
  5
93
100
AcDbEntity
  8
MAIN0
  6
HIDDEN
 62
3
100
AcDbLine
 10
437.3213185145127
 20
222.7879737117515
 30
0.0000000000000000
 11
422.3376932732955
 21
231.4387737782048
 31
0.0000000000000000
  0
LINE
  5
94
100
AcDbEntity
  8
MAIN0
  6
CENTER
 62
3
100
AcDbLine
 10
257.8897997435420
 20
203.5984726100700
 30
0.0000000000000000
 11
359.6634399435304
 21
262.3575111759414
 31
0.0000000000000000
  0
LINE
  5
95
100
AcDbEntity
  8
MAIN0
  6
CENTER
 62
3
100
AcDbLine
 10
333.7241545690331
 20
345.3052781921032
 30
0.0000000000000000
 11
333.7241545690331
 21
333.9708853210381
 31
0.0000000000000000
  0
LINE
  5
96
100
AcDbEntity
  8
MAIN0
  6
HIDDEN
 62
3
100
AcDbLine
 10
334.5241545690331
 20
342.3549529221953
 30
0.0000000000000000
 11
334.5241545690331
 21
335.7458682654519
 31
0.0000000000000000
  0
LINE
  5
97
100
AcDbEntity
  8
MAIN0
  6
HIDDEN
 62
3
100
AcDbLine
 10
332.9241545690331
 20
342.3549529221953
 30
0.0000000000000000
 11
332.9241545690331
 21
335.7458682654519
 31
0.0000000000000000
  0
LINE
  5
98
100
AcDbEntity
  8
MAIN0
  6
CENTER
 62
3
100
AcDbLine
 10
277.9196384585956
 20
198.4195475775317
 30
0.0000000000000000
 11
287.7355106214112
 21
204.0867440130642
 31
0.0000000000000000
  0
CIRCLE
  5
99
100
AcDbEntity
  8
MAIN0
  6
HIDDEN
 62
3
100
AcDbCircle
 10
283.3365126960139
 20
201.5469813766715
 30
0.0000000000000000
 40
4.000000000000000
  0
LINE
  5
9A
100
AcDbEntity
  8
MAIN0
  6
HIDDEN
 62
3
100
AcDbLine
 10
280.0746950917631
 20
200.5875305355132
 30
0.0000000000000000
 11
285.7983303002648
 21
203.8920728638848
 31
0.0000000000000000
  0
LINE
  5
9B
100
AcDbEntity
  8
MAIN0
  6
HIDDEN
 62
3
100
AcDbLine
 10
280.8746950917631
 20
199.2018898894581
 30
0.0000000000000000
 11
286.5983303002648
 21
202.5064322178297
 31
0.0000000000000000
  0
CIRCLE
  5
9C
100
AcDbEntity
  8
MAIN0
  6
HIDDEN
 62
3
100
AcDbCircle
 10
283.3365126960139
 20
201.5469813766715
 30
0.0000000000000000
 40
3.400000000000000
  0
LINE
  5
9D
100
AcDbEntity
  8
MAIN0
  6
CENTER
 62
3
100
AcDbLine
 10
433.0286706794710
 20
223.5342842872806
 30
0.0000000000000000
 11
423.2127985166553
 21
229.2014807228131
 31
0.0000000000000000
  0
CIRCLE
  5
9E
100
AcDbEntity
  8
MAIN0
  6
HIDDEN
 62
3
100
AcDbCircle
 10
427.6117964420527
 20
226.6617180864204
 30
0.0000000000000000
 40
4.000000000000000
  0
LINE
  5
9F
100
AcDbEntity
  8
MAIN0
  6
HIDDEN
 62
3
100
AcDbLine
 10
430.0736140463035
 20
224.3166265992070
 30
0.0000000000000000
 11
424.3499788378018
 21
227.6211689275787
 31
0.0000000000000000
  0
LINE
  5
A0
100
AcDbEntity
  8
MAIN0
  6
HIDDEN
 62
3
100
AcDbLine
 10
430.8736140463035
 20
225.7022672452621
 30
0.0000000000000000
 11
425.1499788378018
 21
229.0068095736338
 31
0.0000000000000000
  0
CIRCLE
  5
A1
100
AcDbEntity
  8
MAIN0
  6
HIDDEN
 62
3
100
AcDbCircle
 10
427.6117964420527
 20
226.6617180864204
 30
0.0000000000000000
 40
3.400000000000000
  0
ARC
  5
A2
100
AcDbEntity
  8
MAIN0
  6
CENTER
 62
3
100
AcDbCircle
 10
348.2241545690332
 20
255.7530366856385
 30
0.0000000000000000
 40
84.55000000000000
100
AcDbArc
 50
213.4861641376090
 51
227.4263456246924
  0
ARC
  5
A3
100
AcDbEntity
  8
MAIN0
  6
CENTER
 62
3
100
AcDbCircle
 10
348.2241545690332
 20
255.7530366856385
 30
0.0000000000000000
 40
84.55000000000000
100
AcDbArc
 50
333.9390221154050
 51
347.1458922693644
  0
ARC
  5
A4
100
AcDbEntity
  8
MAIN0
  6
CENTER
 62
3
100
AcDbCircle
 10
348.2241545690332
 20
255.7530366856385
 30
0.0000000000000000
 40
84.55000000000000
100
AcDbArc
 50
92.56922883028894
 51
106.5570735759657
  0
MTEXT
  5
A5
100
AcDbEntity
  8
MAIN0
  6
CONTINUOUS
 62
3
100
AcDbMText
 10
367.9336441241871
 20
174.0386967716443
 30
0.0000000000000000
 40
7.500000000000000
 41
0.0000000000000000
 71
     1
 72
     1
  1
{\H0.82x;{1}}
 11
1.000000000000000
 21
0.0000000000000000
 31
0.0000000000000000
  7
STANDARD
  0
MTEXT
  5
A6
100
AcDbEntity
  8
MAIN0
  6
CONTINUOUS
 62
3
100
AcDbMText
 10
411.3180524020957
 20
312.4275306042472
 30
0.0000000000000000
 40
7.500000000000000
 41
0.0000000000000000
 71
     1
 72
     1
  1
{\H0.82x;{2}}
 11
-0.5000000000008740
 21
0.8660254037839340
 31
0.0000000000000000
  7
STANDARD
  0
MTEXT
  5
A7
100
AcDbEntity
  8
MAIN0
  6
CONTINUOUS
 62
3
100
AcDbMText
 10
267.1035943268836
 20
281.8832697660935
 30
0.0000000000000000
 40
7.500000000000000
 41
0.0000000000000000
 71
     1
 72
     1
  1
{\H0.82x;{3}}
 11
-0.4999999999996719
 21
-0.8660254037846280
 31
0.0000000000000000
  7
STANDARD
  0
LINE
  5
A8
100
AcDbEntity
  8
MAIN0
  6
CONTINUOUS
 62
3
100
AcDbLine
 10
359.4741545690331
 20
232.8351964264644
 30
0.0000000000000000
 11
349.2241545690590
 21
238.7530366856464
 31
0.0000000000000000
  0
LINE
  5
A9
100
AcDbEntity
  8
MAIN0
  6
CONTINUOUS
 62
3
100
AcDbLine
 10
336.9741545690331
 20
232.8351964264644
 30
0.0000000000000000
 11
347.2241545690072
 21
238.7530366856464
 31
0.0000000000000000
  0
LINE
  5
AA
100
AcDbEntity
  8
MAIN0
  6
CONTINUOUS
 62
3
100
AcDbLine
 10
186.7741960980375
 20
232.6908588591431
 30
0.0000000000000000
 11
187.7741960980408
 21
232.6908588591431
 31
0.0000000000000000
  0
LINE
  5
AB
100
AcDbEntity
  8
MAIN0
  6
CENTER
 62
3
100
AcDbLine
 10
126.2712249844779
 20
408.3108519408964
 30
0.0000000000000000
 11
151.3586146902138
 21
408.3108519409063
 31
0.0000000000000000
  0
LINE
  5
AC
100
AcDbEntity
  8
MAIN0
  6
CENTER
 62
3
100
AcDbLine
 10
139.2741960979852
 20
355.7530366856368
 30
0.0000000000000000
 11
139.2741960979926
 21
338.2530366856379
 31
0.0000000000000000
  0
LINE
  5
AD
100
AcDbEntity
  8
MAIN0
  6
CENTER
 62
3
100
AcDbLine
 10
139.2741960979572
 20
421.5450258725556
 30
0.0000000000000000
 11
139.2741960979679
 21
396.2274757421899
 31
0.0000000000000000
  0
LINE
  5
AE
100
AcDbEntity
  8
MAIN0
  6
CONTINUOUS
 62
3
100
AcDbLine
 10
139.8523706916209
 20
415.5108519409018
 30
0.0000000000000000
 11
146.4741960979626
 21
408.8890265345593
 31
0.0000000000000000
  0
LINE
  5
AF
100
AcDbEntity
  8
MAIN0
  6
CONTINUOUS
 62
3
100
AcDbLine
 10
132.0741960979632
 20
407.7326773484554
 30
0.0000000000000000
 11
138.6960215055164
 21
401.1108519409014
 31
0.0000000000000000
  0
LINE
  5
B0
100
AcDbEntity
  8
MAIN0
  6
CONTINUOUS
 62
3
100
AcDbLine
 10
132.0741960979625
 20
408.8890265346352
 30
0.0000000000000000
 11
138.6960215042267
 21
415.5108519409015
 31
0.0000000000000000
  0
LINE
  5
B1
100
AcDbEntity
  8
MAIN0
  6
CONTINUOUS
 62
3
100
AcDbLine
 10
139.8523706903333
 20
401.1108519409016
 30
0.0000000000000000
 11
146.4741960979632
 21
407.7326773485336
 31
0.0000000000000000
  0
LINE
  5
B2
100
AcDbEntity
  8
MAIN0
  6
CONTINUOUS
 62
3
100
AcDbLine
 10
146.4741960979626
 20
408.8890265345593
 30
0.0000000000000000
 11
146.4741960979631
 21
407.7326773485337
 31
0.0000000000000000
  0
LINE
  5
B3
100
AcDbEntity
  8
MAIN0
  6
CONTINUOUS
 62
3
100
AcDbLine
 10
132.0741960979626
 20
408.8890265346351
 30
0.0000000000000000
 11
132.0741960979631
 21
407.7326773484554
 31
0.0000000000000000
  0
LINE
  5
B4
100
AcDbEntity
  8
MAIN0
  6
CONTINUOUS
 62
3
100
AcDbLine
 10
138.6960215042268
 20
415.5108519409014
 30
0.0000000000000000
 11
139.8523706916208
 21
415.5108519409018
 31
0.0000000000000000
  0
LINE
  5
B5
100
AcDbEntity
  8
MAIN0
  6
CONTINUOUS
 62
3
100
AcDbLine
 10
138.6960215055164
 20
401.1108519409013
 30
0.0000000000000000
 11
139.8523706903331
 21
401.1108519409018
 31
0.0000000000000000
  0
DIMENSION
  5
BF
100
AcDbEntity
  8
MAIN0
  6
CONTINUOUS
 62
3
100
AcDbDimension
  2
*D1
 10
149.0972991045769
 20
390.7095743418404
 30
0.0000000000000000
 11
160.7957599966371
 21
403.1151420150862
 31
0.0000000000000000
 70
161
  3
MAIN001
100
AcDbAlignedDimension
 13
146.4741960979626
 23
408.8890265345592
 33
0.0000000000000000
 14
138.6960215055164
 24
401.1108519409014
 34
0.0000000000000000
 50
44.99999999999791
1001
ACAD
1000
DSTYLE
1002
{
1070
   173
1070
     1
1070
     6
1000
_OPEN
1070
     7
1000
_OPEN
1070
    41
1040
3.000000
1070
   272
1070
     2
1070
    47
1040
0.150000
1070
    48
1040
-0.050000
1070
    71
1070
     1
1070
   340
1005
C0
1002
}
  0
LINE
  5
C1
100
AcDbEntity
  8
MAIN0
  6
HIDDEN
 62
3
100
AcDbLine
 10
364.4741545690331
 20
233.5677374990149
 30
0.0000000000000000
 11
364.4741545690331
 21
162.1531568780233
 31
0.0000000000000000
  0
LINE
  5
C2
100
AcDbEntity
  8
MAIN0
  6
HIDDEN
 62
3
100
AcDbLine
 10
331.9741545690331
 20
233.5677374990149
 30
0.0000000000000000
 11
331.9741545690331
 21
162.1531568780233
 31
0.0000000000000000
  0
LINE
  5
C3
100
AcDbEntity
  8
MAIN0
  6
HIDDEN
 62
3
100
AcDbLine
 10
359.3121872552076
 20
280.9185990904473
 30
0.0000000000000000
 11
421.1590282735981
 21
316.6258894009431
 31
0.0000000000000000
  0
LINE
  5
C4
100
AcDbEntity
  8
MAIN0
  6
HIDDEN
 62
3
100
AcDbLine
 10
375.5621872552075
 20
252.7727734674531
 30
0.0000000000000000
 11
437.4090282735981
 21
288.4800637779488
 31
0.0000000000000000
  0
LINE
  5
C5
100
AcDbEntity
  8
MAIN0
  6
HIDDEN
 62
3
100
AcDbLine
 10
320.8861218828590
 20
252.7727734674533
 30
0.0000000000000000
 11
259.0392808644684
 21
288.4800637779491
 31
0.0000000000000000
  0
LINE
  5
C6
100
AcDbEntity
  8
MAIN0
  6
HIDDEN
 62
3
100
AcDbLine
 10
337.1361218828590
 20
280.9185990904475
 30
0.0000000000000000
 11
275.2892808644684
 21
316.6258894009433
 31
0.0000000000000000
  0
LINE
  5
C7
100
AcDbEntity
  8
MAIN0
  6
HIDDEN
 62
3
100
AcDbLine
 10
155.2741960979913
 20
341.3655902272099
 30
0.0000000000000000
 11
155.2741960979879
 21
349.3130366856385
 31
0.0000000000000000
  0
LINE
  5
C8
100
AcDbEntity
  8
MAIN0
  6
HIDDEN
 62
3
100
AcDbLine
 10
123.2741960979913
 20
341.3655902274109
 30
0.0000000000000000
 11
123.2741960979878
 21
349.3130366856384
 31
0.0000000000000000
  0
LINE
  5
C9
100
AcDbEntity
  8
MAIN0
  6
CENTER
 62
3
100
AcDbLine
 10
186.7741960980334
 20
235.1057239022781
 30
0.0000000000000000
 11
186.7741960980357
 21
240.5687206658825
 31
0.0000000000000000
  0
LINE
  5
CA
100
AcDbEntity
  8
MAIN0
  6
CONTINUOUS
 62
3
100
AcDbLine
 10
186.7741960982728
 20
237.0209858780699
 30
0.0000000000000000
 11
187.7741960982706
 21
238.7530366856384
 31
0.0000000000000000
  0
LINE
  5
CB
100
AcDbEntity
  8
MAIN0
  6
CONTINUOUS
 62
3
100
AcDbLine
 10
208.2741960980461
 20
212.6530366856272
 30
0.0000000000000000
 11
208.2741960980555
 21
190.3530366856272
 31
0.0000000000000000
  0
LINE
  5
CC
100
AcDbEntity
  8
MAIN0
  6
CONTINUOUS
 62
3
100
AcDbLine
 10
198.7741960980569
 20
187.1530366856258
 30
0.0000000000000000
 11
198.7741960980679
 21
161.3530366856278
 31
0.0000000000000000
  0
LINE
  5
CD
100
AcDbEntity
  8
MAIN0
  6
CENTER
 62
3
100
AcDbLine
 10
204.7741960980843
 20
239.1473008821171
 30
0.0000000000000000
 11
204.7741960980860
 21
235.1057239022893
 31
0.0000000000000000
  0
LINE
  5
CE
100
AcDbEntity
  8
MAIN0
  6
CENTER
 62
3
100
AcDbLine
 10
192.7741960980843
 20
239.1473008821120
 30
0.0000000000000000
 11
192.7741960980860
 21
235.1057239022831
 31
0.0000000000000000
  0
LINE
  5
CF
100
AcDbEntity
  8
MAIN0
  6
CONTINUOUS
 62
3
100
AcDbLine
 10
205.7741960981582
 20
238.7530366856242
 30
0.0000000000000000
 11
204.7741960982428
 21
237.0209858781977
 31
0.0000000000000000
  0
LINE
  5
D0
100
AcDbEntity
  8
MAIN0
  6
CONTINUOUS
 62
3
100
AcDbLine
 10
203.7741960983193
 20
238.7530366856241
 30
0.0000000000000000
 11
204.7741960982428
 21
237.0209858781975
 31
0.0000000000000000
  0
LINE
  5
D1
100
AcDbEntity
  8
MAIN0
  6
CONTINUOUS
 62
3
100
AcDbLine
 10
199.7741960981582
 20
238.7530366856242
 30
0.0000000000000000
 11
198.7741960982428
 21
237.0209858781977
 31
0.0000000000000000
  0
LINE
  5
D2
100
AcDbEntity
  8
MAIN0
  6
CONTINUOUS
 62
3
100
AcDbLine
 10
197.7741960983193
 20
238.7530366856242
 30
0.0000000000000000
 11
198.7741960982428
 21
237.0209858781976
 31
0.0000000000000000
  0
LINE
  5
D3
100
AcDbEntity
  8
MAIN0
  6
CONTINUOUS
 62
3
100
AcDbLine
 10
193.7741960981582
 20
238.7530366856243
 30
0.0000000000000000
 11
192.7741960982429
 21
237.0209858781978
 31
0.0000000000000000
  0
LINE
  5
D4
100
AcDbEntity
  8
MAIN0
  6
CONTINUOUS
 62
3
100
AcDbLine
 10
191.7741960983194
 20
238.7530366856242
 30
0.0000000000000000
 11
192.7741960982429
 21
237.0209858781977
 31
0.0000000000000000
  0
LINE
  5
D5
100
AcDbEntity
  8
MAIN0
  6
CENTER
 62
3
100
AcDbLine
 10
213.9741960980435
 20
218.6590221617540
 30
0.0000000000000000
 11
213.9741960980458
 21
213.2537614749761
 31
0.0000000000000000
  0
LINE
  5
D6
100
AcDbEntity
  8
MAIN0
  6
CONTINUOUS
 62
3
100
AcDbLine
 10
214.9741960982169
 20
215.2530366856267
 30
0.0000000000000000
 11
213.9741960980846
 21
216.9850874934296
 31
0.0000000000000000
  0
LINE
  5
D7
100
AcDbEntity
  8
MAIN0
  6
CONTINUOUS
 62
3
100
AcDbLine
 10
212.9741960979511
 20
215.2530366856269
 30
0.0000000000000000
 11
213.9741960980846
 21
216.9850874934296
 31
0.0000000000000000
  0
LINE
  5
D8
100
AcDbEntity
  8
MAIN0
  6
CONTINUOUS
 62
3
100
AcDbLine
 10
211.7741960980449
 20
215.2530366856269
 30
0.0000000000000000
 11
212.9741960979511
 21
215.2530366856269
 31
0.0000000000000000
  0
LINE
  5
D9
100
AcDbEntity
  8
MAIN0
  6
CONTINUOUS
 62
3
100
AcDbLine
 10
214.9741960982169
 20
215.2530366856267
 30
0.0000000000000000
 11
217.1741960980449
 21
215.2530366856266
 31
0.0000000000000000
  0
LINE
  5
DA
100
AcDbEntity
  8
MAIN0
  6
CONTINUOUS
 62
3
100
AcDbLine
 10
217.7741960980447
 20
215.8530366856266
 30
0.0000000000000000
 11
217.1741960980449
 21
215.2530366856266
 31
0.0000000000000000
  0
LINE
  5
DB
100
AcDbEntity
  8
MAIN0
  6
CONTINUOUS
 62
3
100
AcDbLine
 10
198.7741960980558
 20
187.1530366856278
 30
0.0000000000000000
 11
197.9741960980558
 21
188.6898223872047
 31
0.0000000000000000
  0
LINE
  5
DC
100
AcDbEntity
  8
MAIN0
  6
CONTINUOUS
 62
3
100
AcDbLine
 10
197.9741960980557
 20
188.6898223872047
 30
0.0000000000000000
 11
197.9741960980557
 21
189.5530366856278
 31
0.0000000000000000
  0
LINE
  5
DD
100
AcDbEntity
  8
MAIN0
  6
CONTINUOUS
 62
3
100
AcDbLine
 10
199.1741960980557
 20
190.7530366856278
 30
0.0000000000000000
 11
200.3532139710846
 21
190.7530366856278
 31
0.0000000000000000
  0
LINE
  5
DE
100
AcDbEntity
  8
MAIN0
  6
CONTINUOUS
 62
3
100
AcDbLine
 10
200.3532139710845
 20
190.7530366856278
 30
0.0000000000000000
 11
202.2741960980557
 21
189.7530366856278
 31
0.0000000000000000
  0
ARC
  5
DF
100
AcDbEntity
  8
MAIN0
  6
CONTINUOUS
 62
3
100
AcDbCircle
 10
199.1741960980558
 20
189.5530366856278
 30
0.0000000000000000
 40
1.200000000000000
100
AcDbArc
 50
90.00000000000000
 51
180.0000000000000
  0
LINE
  5
E0
100
AcDbEntity
  8
MAIN0
  6
CONTINUOUS
 62
3
100
AcDbLine
 10
208.2741960980555
 20
190.3530366856272
 30
0.0000000000000000
 11
207.6741960980558
 21
189.7530366856272
 31
0.0000000000000000
  0
LINE
  5
E1
100
AcDbEntity
  8
MAIN0
  6
CENTER
 62
3
100
AcDbLine
 10
204.2741960980546
 20
192.4565649476407
 30
0.0000000000000000
 11
204.2741960980572
 21
186.3543498820741
 31
0.0000000000000000
  0
LINE
  5
E2
100
AcDbEntity
  8
MAIN0
  6
CONTINUOUS
 62
3
100
AcDbLine
 10
204.2741960981895
 20
191.4850874933534
 30
0.0000000000000000
 11
205.2741960982808
 21
189.7530366856273
 31
0.0000000000000000
  0
LINE
  5
E3
100
AcDbEntity
  8
MAIN0
  6
CONTINUOUS
 62
3
100
AcDbLine
 10
203.2741960980557
 20
189.7530366857069
 30
0.0000000000000000
 11
204.2741960980551
 21
191.4850874932759
 31
0.0000000000000000
  0
LINE
  5
E4
100
AcDbEntity
  8
MAIN0
  6
CONTINUOUS
 62
3
100
AcDbLine
 10
202.2741960980557
 20
189.7530366856275
 30
0.0000000000000000
 11
203.2741960980099
 21
189.7530366856275
 31
0.0000000000000000
  0
LINE
  5
E5
100
AcDbEntity
  8
MAIN0
  6
CONTINUOUS
 62
3
100
AcDbLine
 10
205.2741960982808
 20
189.7530366856273
 30
0.0000000000000000
 11
207.6741960980558
 21
189.7530366856272
 31
0.0000000000000000
  0
ARC
  5
E6
100
AcDbEntity
  8
MAIN0
  6
CONTINUOUS
 62
3
100
AcDbCircle
 10
348.2241545690331
 20
255.7530366856385
 30
0.0000000000000000
 40
27.50000000000001
100
AcDbArc
 50
174.1477399170223
 51
245.8522600829778
  0
ARC
  5
E7
100
AcDbEntity
  8
MAIN0
  6
CONTINUOUS
 62
3
100
AcDbCircle
 10
348.2241545690331
 20
255.7530366856385
 30
0.0000000000000000
 40
27.50000000000001
100
AcDbArc
 50
294.1477399170223
 51
365.8522600829778
  0
ARC
  5
E8
100
AcDbEntity
  8
MAIN0
  6
CONTINUOUS
 62
3
100
AcDbCircle
 10
348.2241545690331
 20
255.7530366856385
 30
0.0000000000000000
 40
27.50000000000001
100
AcDbArc
 50
54.14773991702229
 51
125.8522600829777
  0
ARC
  5
E9
100
AcDbEntity
  8
MAIN0
  6
CONTINUOUS
 62
3
100
AcDbCircle
 10
348.2241545690331
 20
131.7530366856139
 30
0.0000000000000000
 40
54.89999999999215
100
AcDbArc
 50
78.17529919064265
 51
101.8247008093574
  0
ARC
  5
EA
100
AcDbEntity
  8
MAIN0
  6
CONTINUOUS
 62
3
100
AcDbCircle
 10
348.2241545690331
 20
131.7530366856139
 30
0.0000000000000000
 40
57.49999999985143
100
AcDbArc
 50
78.71717571200136
 51
101.2828242879986
  0
ARC
  5
EB
100
AcDbEntity
  8
MAIN0
  6
CONTINUOUS
 62
3
100
AcDbCircle
 10
348.2241545690331
 20
131.7530366856139
 30
0.0000000000000000
 40
80.90000000000026
100
AcDbArc
 50
82.00651094167080
 51
97.99348905832919
  0
LINE
  5
EC
100
AcDbEntity
  8
MAIN0
  6
CONTINUOUS
 62
3
100
AcDbLine
 10
111.7741960979880
 20
349.1530366856385
 30
0.0000000000000000
 11
111.7741960980606
 21
178.2530366856385
 31
0.0000000000000000
  0
LINE
  5
ED
100
AcDbEntity
  8
MAIN0
  6
CENTER
 62
3
100
AcDbLine
 10
103.2241545690331
 20
255.7530366856385
 30
0.0000000000000000
 11
223.2241545690331
 21
255.7530366856385
 31
0.0000000000000000
  0
LINE
  5
EE
100
AcDbEntity
  8
MAIN0
  6
PHANTOM
 62
3
100
AcDbLine
 10
217.7741960980232
 20
266.4030366856385
 30
0.0000000000000000
 11
217.7741960980322
 21
245.1030366856385
 31
0.0000000000000000
  0
LINE
  5
EF
100
AcDbEntity
  8
MAIN0
  6
CONTINUOUS
 62
3
100
AcDbLine
 10
217.7741960980842
 20
215.8530366856265
 30
0.0000000000000000
 11
217.7741960980845
 21
238.1530366856242
 31
0.0000000000000000
  0
LINE
  5
F0
100
AcDbEntity
  8
MAIN0
  6
CONTINUOUS
 62
3
100
AcDbLine
 10
198.7741960980679
 20
161.3530366856278
 30
0.0000000000000000
 11
198.1741960980681
 21
160.7530366856278
 31
0.0000000000000000
  0
LINE
  5
F1
100
AcDbEntity
  8
MAIN0
  6
CONTINUOUS
 62
3
100
AcDbLine
 10
185.1741960980612
 20
160.7530366856316
 30
0.0000000000000000
 11
198.1741960980681
 21
160.7530366856278
 31
0.0000000000000000
  0
LINE
  5
F2
100
AcDbEntity
  8
MAIN0
  6
CONTINUOUS
 62
3
100
AcDbLine
 10
187.7741960982706
 20
238.7530366856385
 30
0.0000000000000000
 11
191.7741960983135
 21
238.7530366856344
 31
0.0000000000000000
  0
LINE
  5
F3
100
AcDbEntity
  8
MAIN0
  6
CONTINUOUS
 62
3
100
AcDbLine
 10
193.7741960981629
 20
238.7530366856323
 30
0.0000000000000000
 11
197.7741960983170
 21
238.7530366856282
 31
0.0000000000000000
  0
LINE
  5
F4
100
AcDbEntity
  8
MAIN0
  6
CENTER
 62
3
100
AcDbLine
 10
210.7741960980843
 20
239.1473008821196
 30
0.0000000000000000
 11
210.7741960980860
 21
235.1057239022878
 31
0.0000000000000000
  0
LINE
  5
F5
100
AcDbEntity
  8
MAIN0
  6
CONTINUOUS
 62
3
100
AcDbLine
 10
211.7741960981581
 20
238.7530366856227
 30
0.0000000000000000
 11
210.7741960982428
 21
237.0209858781962
 31
0.0000000000000000
  0
LINE
  5
F6
100
AcDbEntity
  8
MAIN0
  6
CONTINUOUS
 62
3
100
AcDbLine
 10
209.7741960983193
 20
238.7530366856227
 30
0.0000000000000000
 11
210.7741960982428
 21
237.0209858781960
 31
0.0000000000000000
  0
LINE
  5
F7
100
AcDbEntity
  8
MAIN0
  6
CONTINUOUS
 62
3
100
AcDbLine
 10
199.7741960981593
 20
238.7530366856262
 30
0.0000000000000000
 11
203.7741960983193
 21
238.7530366856257
 31
0.0000000000000000
  0
LINE
  5
F8
100
AcDbEntity
  8
MAIN0
  6
CONTINUOUS
 62
3
100
AcDbLine
 10
205.7741960981589
 20
238.7530366856255
 30
0.0000000000000000
 11
209.7741960983179
 21
238.7530366856251
 31
0.0000000000000000
  0
LINE
  5
F9
100
AcDbEntity
  8
MAIN0
  6
CONTINUOUS
 62
3
100
AcDbLine
 10
211.7741960981594
 20
238.7530366856249
 30
0.0000000000000000
 11
217.1741960980845
 21
238.7530366856243
 31
0.0000000000000000
  0
LINE
  5
FA
100
AcDbEntity
  8
MAIN0
  6
CONTINUOUS
 62
3
100
AcDbLine
 10
217.1741960980845
 20
238.7530366856243
 30
0.0000000000000000
 11
217.7741960980845
 21
238.1530366856242
 31
0.0000000000000000
  0
LINE
  5
FB
100
AcDbEntity
  8
MAIN0
  6
CONTINUOUS
 62
3
100
AcDbLine
 10
111.7741960980607
 20
178.2530366856385
 30
0.0000000000000000
 11
111.7741960980674
 21
162.3530366856385
 31
0.0000000000000000
  0
DIMENSION
  5
104
100
AcDbEntity
  8
MAIN0
  6
CONTINUOUS
 62
3
100
AcDbDimension
  2
*D2
 10
233.2241545690331
 20
238.7530366856249
 30
0.0000000000000000
 11
232.7241545690331
 21
199.7530366856263
 31
0.0000000000000000
 70
32
  3
MAIN001
100
AcDbAlignedDimension
 13
198.1741960980681
 23
160.7530366856278
 33
0.0000000000000000
 14
217.1741960980845
 24
238.7530366856243
 34
0.0000000000000000
 50
90.00000000000000
100
AcDbRotatedDimension
1001
ACAD
1000
DSTYLE
1002
{
1070
   173
1070
     1
1070
     6
1000
_OPEN
1070
     7
1000
_OPEN
1070
    41
1040
3.000000
1002
}
  0
LINE
  5
105
100
AcDbEntity
  8
MAIN0
  6
PHANTOM
 62
3
100
AcDbLine
 10
208.2741960979984
 20
324.6530366856272
 30
0.0000000000000000
 11
208.2741960980079
 21
302.3530366856272
 31
0.0000000000000000
  0
LINE
  5
106
100
AcDbEntity
  8
MAIN0
  6
PHANTOM
 62
3
100
AcDbLine
 10
198.7741960980092
 20
299.1530366856258
 30
0.0000000000000000
 11
198.7741960980202
 21
273.3530366856277
 31
0.0000000000000000
  0
LINE
  5
107
100
AcDbEntity
  8
MAIN0
  6
CENTER
 62
3
100
AcDbLine
 10
213.9741960979958
 20
330.6590221617540
 30
0.0000000000000000
 11
213.9741960979982
 21
325.2537614749761
 31
0.0000000000000000
  0
LINE
  5
108
100
AcDbEntity
  8
MAIN0
  6
PHANTOM
 62
3
100
AcDbLine
 10
214.9741960981693
 20
327.2530366856267
 30
0.0000000000000000
 11
213.9741960980369
 21
328.9850874934296
 31
0.0000000000000000
  0
LINE
  5
109
100
AcDbEntity
  8
MAIN0
  6
PHANTOM
 62
3
100
AcDbLine
 10
212.9741960979034
 20
327.2530366856269
 30
0.0000000000000000
 11
213.9741960980370
 21
328.9850874934297
 31
0.0000000000000000
  0
LINE
  5
10A
100
AcDbEntity
  8
MAIN0
  6
PHANTOM
 62
3
100
AcDbLine
 10
211.7741960979972
 20
327.2530366856270
 30
0.0000000000000000
 11
212.9741960979034
 21
327.2530366856269
 31
0.0000000000000000
  0
LINE
  5
10B
100
AcDbEntity
  8
MAIN0
  6
PHANTOM
 62
3
100
AcDbLine
 10
214.9741960981692
 20
327.2530366856267
 30
0.0000000000000000
 11
217.1741960979973
 21
327.2530366856266
 31
0.0000000000000000
  0
LINE
  5
10C
100
AcDbEntity
  8
MAIN0
  6
PHANTOM
 62
3
100
AcDbLine
 10
217.7741960979971
 20
327.8530366856266
 30
0.0000000000000000
 11
217.1741960979973
 21
327.2530366856266
 31
0.0000000000000000
  0
LINE
  5
10D
100
AcDbEntity
  8
MAIN0
  6
PHANTOM
 62
3
100
AcDbLine
 10
208.2741960979973
 20
324.6530366856272
 30
0.0000000000000000
 11
207.4741960979973
 21
326.1898223872041
 31
0.0000000000000000
  0
LINE
  5
10E
100
AcDbEntity
  8
MAIN0
  6
PHANTOM
 62
3
100
AcDbLine
 10
207.4741960979972
 20
326.1898223872041
 30
0.0000000000000000
 11
207.4741960979972
 21
327.0530366856272
 31
0.0000000000000000
  0
LINE
  5
10F
100
AcDbEntity
  8
MAIN0
  6
PHANTOM
 62
3
100
AcDbLine
 10
208.6741960979972
 20
328.2530366856272
 30
0.0000000000000000
 11
209.8532139710261
 21
328.2530366856272
 31
0.0000000000000000
  0
LINE
  5
110
100
AcDbEntity
  8
MAIN0
  6
PHANTOM
 62
3
100
AcDbLine
 10
209.8532139710261
 20
328.2530366856273
 30
0.0000000000000000
 11
211.7741960979973
 21
327.2530366856273
 31
0.0000000000000000
  0
ARC
  5
111
100
AcDbEntity
  8
MAIN0
  6
PHANTOM
 62
3
100
AcDbCircle
 10
208.6741960979973
 20
327.0530366856272
 30
0.0000000000000000
 40
1.200000000000000
100
AcDbArc
 50
90.00000000000000
 51
180.0000000000000
  0
LINE
  5
112
100
AcDbEntity
  8
MAIN0
  6
PHANTOM
 62
3
100
AcDbLine
 10
198.7741960980081
 20
299.1530366856278
 30
0.0000000000000000
 11
197.9741960980081
 21
300.6898223872047
 31
0.0000000000000000
  0
LINE
  5
113
100
AcDbEntity
  8
MAIN0
  6
PHANTOM
 62
3
100
AcDbLine
 10
197.9741960980081
 20
300.6898223872047
 30
0.0000000000000000
 11
197.9741960980081
 21
301.5530366856278
 31
0.0000000000000000
  0
LINE
  5
114
100
AcDbEntity
  8
MAIN0
  6
PHANTOM
 62
3
100
AcDbLine
 10
199.1741960980081
 20
302.7530366856278
 30
0.0000000000000000
 11
200.3532139710370
 21
302.7530366856278
 31
0.0000000000000000
  0
LINE
  5
115
100
AcDbEntity
  8
MAIN0
  6
PHANTOM
 62
3
100
AcDbLine
 10
200.3532139710369
 20
302.7530366856278
 30
0.0000000000000000
 11
202.2741960980081
 21
301.7530366856278
 31
0.0000000000000000
  0
ARC
  5
116
100
AcDbEntity
  8
MAIN0
  6
PHANTOM
 62
3
100
AcDbCircle
 10
199.1741960980081
 20
301.5530366856278
 30
0.0000000000000000
 40
1.200000000000000
100
AcDbArc
 50
90.00000000000000
 51
180.0000000000000
  0
LINE
  5
117
100
AcDbEntity
  8
MAIN0
  6
PHANTOM
 62
3
100
AcDbLine
 10
208.2741960980079
 20
302.3530366856272
 30
0.0000000000000000
 11
207.6741960980082
 21
301.7530366856272
 31
0.0000000000000000
  0
LINE
  5
118
100
AcDbEntity
  8
MAIN0
  6
CENTER
 62
3
100
AcDbLine
 10
204.2741960980070
 20
304.4565649476407
 30
0.0000000000000000
 11
204.2741960980096
 21
298.3543498820741
 31
0.0000000000000000
  0
LINE
  5
119
100
AcDbEntity
  8
MAIN0
  6
PHANTOM
 62
3
100
AcDbLine
 10
204.2741960981418
 20
303.4850874933534
 30
0.0000000000000000
 11
205.2741960982332
 21
301.7530366856274
 31
0.0000000000000000
  0
LINE
  5
11A
100
AcDbEntity
  8
MAIN0
  6
PHANTOM
 62
3
100
AcDbLine
 10
203.2741960980081
 20
301.7530366857069
 30
0.0000000000000000
 11
204.2741960980075
 21
303.4850874932759
 31
0.0000000000000000
  0
LINE
  5
11B
100
AcDbEntity
  8
MAIN0
  6
PHANTOM
 62
3
100
AcDbLine
 10
202.2741960980081
 20
301.7530366856275
 30
0.0000000000000000
 11
203.2741960979623
 21
301.7530366856275
 31
0.0000000000000000
  0
LINE
  5
11C
100
AcDbEntity
  8
MAIN0
  6
PHANTOM
 62
3
100
AcDbLine
 10
205.2741960982332
 20
301.7530366856273
 30
0.0000000000000000
 11
207.6741960980081
 21
301.7530366856272
 31
0.0000000000000000
  0
LINE
  5
11D
100
AcDbEntity
  8
MAIN0
  6
PHANTOM
 62
3
100
AcDbLine
 10
217.7741960980366
 20
327.8530366856265
 30
0.0000000000000000
 11
217.7741960980368
 21
350.1530366856242
 31
0.0000000000000000
  0
LINE
  5
11E
100
AcDbEntity
  8
MAIN0
  6
PHANTOM
 62
3
100
AcDbLine
 10
198.7741960980202
 20
273.3530366856278
 30
0.0000000000000000
 11
198.1741960980205
 21
272.7530366856278
 31
0.0000000000000000
  0
LINE
  5
11F
100
AcDbEntity
  8
MAIN0
  6
PHANTOM
 62
3
100
AcDbLine
 10
217.1741960980369
 20
350.7530366856242
 30
0.0000000000000000
 11
217.7741960980368
 21
350.1530366856242
 31
0.0000000000000000
  0
LINE
  5
120
100
AcDbEntity
  8
MAIN0
  6
CONTINUOUS
 62
3
100
AcDbLine
 10
186.7741960980366
 20
327.8530366856269
 30
0.0000000000000000
 11
186.7741960980368
 21
349.1530366855897
 31
0.0000000000000000
  0
LINE
  5
121
100
AcDbEntity
  8
MAIN0
  6
PHANTOM
 62
3
100
AcDbLine
 10
185.1741960979925
 20
350.7530366856332
 30
0.0000000000000000
 11
217.1741960980368
 21
350.7530366856243
 31
0.0000000000000000
  0
LINE
  5
122
100
AcDbEntity
  8
MAIN0
  6
CONTINUOUS
 62
3
100
AcDbLine
 10
337.5741545690331
 20
160.7530366854521
 30
0.0000000000000000
 11
358.8741545690331
 21
160.7530366854398
 31
0.0000000000000000
  0
ARC
  5
123
100
AcDbEntity
  8
MAIN0
  6
CONTINUOUS
 62
3
100
AcDbCircle
 10
348.2241545690331
 20
131.7530366856139
 30
0.0000000000000000
 40
83.50000000005835
100
AcDbArc
 50
82.25696144588854
 51
97.74303855411147
  0
CIRCLE
  5
124
100
AcDbEntity
  8
MAIN0
  6
HIDDEN
 62
3
100
AcDbCircle
 10
348.2241545690331
 20
255.7530366856385
 30
0.0000000000000000
 40
54.00000000000000
  0
LINE
  5
125
100
AcDbEntity
  8
MAIN0
  6
PHANTOM
 62
3
100
AcDbLine
 10
187.7741960980229
 20
267.0030366856385
 30
0.0000000000000000
 11
217.1741960980230
 21
267.0030366856385
 31
0.0000000000000000
  0
LINE
  5
126
100
AcDbEntity
  8
MAIN0
  6
PHANTOM
 62
3
100
AcDbLine
 10
187.7741960980325
 20
244.5030366856385
 30
0.0000000000000000
 11
217.1741960980325
 21
244.5030366856385
 31
0.0000000000000000
  0
LINE
  5
127
100
AcDbEntity
  8
MAIN0
  6
PHANTOM
 62
3
100
AcDbLine
 10
217.1741960980230
 20
267.0030366856385
 30
0.0000000000000000
 11
217.7741960980232
 21
266.4030366856385
 31
0.0000000000000000
  0
LINE
  5
128
100
AcDbEntity
  8
MAIN0
  6
PHANTOM
 62
3
100
AcDbLine
 10
217.7741960980322
 20
245.1030366856385
 30
0.0000000000000000
 11
217.1741960980325
 21
244.5030366856385
 31
0.0000000000000000
  0
LINE
  5
129
100
AcDbEntity
  8
MAIN0
  6
PHANTOM
 62
3
100
AcDbLine
 10
187.7741960980325
 20
244.5030366856385
 30
0.0000000000000000
 11
187.7741960980326
 21
244.2530366856385
 31
0.0000000000000000
  0
LINE
  5
12A
100
AcDbEntity
  8
MAIN0
  6
PHANTOM
 62
3
100
AcDbLine
 10
187.7741960980229
 20
267.2530366856385
 30
0.0000000000000000
 11
187.7741960980230
 21
267.0030366856385
 31
0.0000000000000000
  0
LINE
  5
12B
100
AcDbEntity
  8
MAIN0
  6
PHANTOM
 62
3
100
AcDbLine
 10
186.7741960980228
 20
267.2530366856385
 30
0.0000000000000000
 11
187.7741960980228
 21
267.2530366856385
 31
0.0000000000000000
  0
LINE
  5
12C
100
AcDbEntity
  8
MAIN0
  6
PHANTOM
 62
3
100
AcDbLine
 10
186.7741960980326
 20
244.2530366856385
 30
0.0000000000000000
 11
187.7741960980326
 21
244.2530366856385
 31
0.0000000000000000
  0
DIMENSION
  5
135
100
AcDbEntity
  8
MAIN0
  6
CONTINUOUS
 62
3
100
AcDbDimension
  2
*D3
 10
233.2241545690331
 20
267.0030366856385
 30
0.0000000000000000
 11
232.7241545690331
 21
255.7530366856385
 31
0.0000000000000000
 70
32
  3
MAIN001
100
AcDbAlignedDimension
 13
217.1741960980325
 23
244.5030366856385
 33
0.0000000000000000
 14
217.1741960980230
 24
267.0030366856385
 34
0.0000000000000000
 50
90.00000000000000
100
AcDbRotatedDimension
1001
ACAD
1000
DSTYLE
1002
{
1070
   173
1070
     1
1070
     6
1000
_OPEN
1070
     7
1000
_OPEN
1070
    41
1040
3.000000
1002
}
  0
LINE
  5
136
100
AcDbEntity
  8
MAIN0
  6
CONTINUOUS
 62
3
100
AcDbLine
 10
359.4741545690331
 20
232.8351964264644
 30
0.0000000000000000
 11
359.4741545690331
 21
161.3530366854394
 31
0.0000000000000000
  0
LINE
  5
137
100
AcDbEntity
  8
MAIN0
  6
CONTINUOUS
 62
3
100
AcDbLine
 10
336.9741545690331
 20
232.8351964264644
 30
0.0000000000000000
 11
336.9741545690331
 21
161.3530366854525
 31
0.0000000000000000
  0
LINE
  5
138
100
AcDbEntity
  8
MAIN0
  6
CONTINUOUS
 62
3
100
AcDbLine
 10
336.9741545690331
 20
161.3530366854525
 30
0.0000000000000000
 11
337.5741545690331
 21
160.7530366854521
 31
0.0000000000000000
  0
LINE
  5
139
100
AcDbEntity
  8
MAIN0
  6
CONTINUOUS
 62
3
100
AcDbLine
 10
359.4741545690331
 20
161.3530366854394
 30
0.0000000000000000
 11
358.8741545690331
 21
160.7530366854398
 31
0.0000000000000000
  0
LINE
  5
13A
100
AcDbEntity
  8
MAIN0
  6
CONTINUOUS
 62
3
100
AcDbLine
 10
187.7741960980406
 20
232.8351964264302
 30
0.0000000000000000
 11
217.7741960980844
 21
232.8351964264346
 31
0.0000000000000000
  0
LINE
  5
13B
100
AcDbEntity
  8
MAIN0
  6
CONTINUOUS
 62
3
100
AcDbLine
 10
187.7741960980408
 20
232.6908588591431
 30
0.0000000000000000
 11
187.7741960980407
 21
232.8351964264302
 31
0.0000000000000000
  0
LINE
  5
13C
100
AcDbEntity
  8
MAIN0
  6
PHANTOM
 62
3
100
AcDbLine
 10
187.7741960979931
 20
344.6908588591431
 30
0.0000000000000000
 11
187.7741960979930
 21
344.8351964264301
 31
0.0000000000000000
  0
LINE
  5
13D
100
AcDbEntity
  8
MAIN0
  6
CONTINUOUS
 62
3
100
AcDbLine
 10
362.4465864333516
 20
276.9547426078004
 30
0.0000000000000000
 11
362.4465864333487
 21
265.1190620894413
 31
0.0000000000000000
  0
LINE
  5
13E
100
AcDbEntity
  8
MAIN0
  6
CONTINUOUS
 62
3
100
AcDbLine
 10
373.6965864333516
 20
257.4691710226506
 30
0.0000000000000000
 11
363.4465864333747
 21
263.3870112818277
 31
0.0000000000000000
  0
LINE
  5
13F
100
AcDbEntity
  8
MAIN0
  6
CONTINUOUS
 62
3
100
AcDbLine
 10
363.4465864333745
 20
263.3870112818277
 30
0.0000000000000000
 11
362.4465864333487
 21
265.1190620894413
 31
0.0000000000000000
  0
LINE
  5
140
100
AcDbEntity
  8
MAIN0
  6
CONTINUOUS
 62
3
100
AcDbLine
 10
373.6965864333516
 20
257.4691710226506
 30
0.0000000000000000
 11
435.6019526864452
 21
293.2102508931565
 31
0.0000000000000000
  0
LINE
  5
141
100
AcDbEntity
  8
MAIN0
  6
CONTINUOUS
 62
3
100
AcDbLine
 10
362.4465864333516
 20
276.9547426078004
 30
0.0000000000000000
 11
424.3519526864565
 21
312.6958224783130
 31
0.0000000000000000
  0
ARC
  5
142
100
AcDbEntity
  8
MAIN0
  6
CONTINUOUS
 62
3
100
AcDbCircle
 10
455.6113046383248
 20
317.7530366856507
 30
0.0000000000000000
 40
80.90000000000026
100
AcDbArc
 50
202.0065109416708
 51
217.9934890583292
  0
ARC
  5
143
100
AcDbEntity
  8
MAIN0
  6
CONTINUOUS
 62
3
100
AcDbCircle
 10
455.6113046383248
 20
317.7530366856507
 30
0.0000000000000000
 40
83.50000000005835
100
AcDbArc
 50
202.2569614458885
 51
217.7430385541115
  0
ARC
  5
144
100
AcDbEntity
  8
MAIN0
  6
CONTINUOUS
 62
3
100
AcDbCircle
 10
455.6113046383248
 20
317.7530366856507
 30
0.0000000000000000
 40
57.49999999985143
100
AcDbArc
 50
198.7171757120014
 51
221.2828242879986
  0
ARC
  5
145
100
AcDbEntity
  8
MAIN0
  6
CONTINUOUS
 62
3
100
AcDbCircle
 10
455.6113046383248
 20
317.7530366856507
 30
0.0000000000000000
 40
54.89999999999215
100
AcDbArc
 50
198.1752991906427
 51
221.8247008093574
  0
LINE
  5
146
100
AcDbEntity
  8
MAIN0
  6
CONTINUOUS
 62
3
100
AcDbLine
 10
435.8215679287162
 20
294.0298661354274
 30
0.0000000000000000
 11
425.1715679287269
 21
312.4762072360421
 31
0.0000000000000000
  0
LINE
  5
147
100
AcDbEntity
  8
MAIN0
  6
CONTINUOUS
 62
3
100
AcDbLine
 10
424.3519526864565
 20
312.6958224783130
 30
0.0000000000000000
 11
425.1715679287269
 21
312.4762072360421
 31
0.0000000000000000
  0
LINE
  5
148
100
AcDbEntity
  8
MAIN0
  6
CONTINUOUS
 62
3
100
AcDbLine
 10
435.6019526864452
 20
293.2102508931565
 30
0.0000000000000000
 11
435.8215679287162
 21
294.0298661354274
 31
0.0000000000000000
  0
LINE
  5
149
100
AcDbEntity
  8
MAIN0
  6
CONTINUOUS
 62
3
100
AcDbLine
 10
322.7517227047146
 20
257.4691710226506
 30
0.0000000000000000
 11
333.0017227046915
 21
263.3870112818277
 31
0.0000000000000000
  0
LINE
  5
14A
100
AcDbEntity
  8
MAIN0
  6
CONTINUOUS
 62
3
100
AcDbLine
 10
334.0017227047146
 20
276.9547426078004
 30
0.0000000000000000
 11
334.0017227047175
 21
265.1190620894414
 31
0.0000000000000000
  0
LINE
  5
14B
100
AcDbEntity
  8
MAIN0
  6
CONTINUOUS
 62
3
100
AcDbLine
 10
334.0017227047175
 20
265.1190620894413
 30
0.0000000000000000
 11
333.0017227046916
 21
263.3870112818277
 31
0.0000000000000000
  0
LINE
  5
14C
100
AcDbEntity
  8
MAIN0
  6
CONTINUOUS
 62
3
100
AcDbLine
 10
334.0017227047146
 20
276.9547426078004
 30
0.0000000000000000
 11
272.0963564516210
 21
312.6958224783065
 31
0.0000000000000000
  0
LINE
  5
14D
100
AcDbEntity
  8
MAIN0
  6
CONTINUOUS
 62
3
100
AcDbLine
 10
322.7517227047146
 20
257.4691710226506
 30
0.0000000000000000
 11
260.8463564516097
 21
293.2102508931631
 31
0.0000000000000000
  0
ARC
  5
14E
100
AcDbEntity
  8
MAIN0
  6
CONTINUOUS
 62
3
100
AcDbCircle
 10
240.8370044997414
 20
317.7530366856508
 30
0.0000000000000000
 40
80.90000000000026
100
AcDbArc
 50
322.0065109416708
 51
337.9934890583292
  0
ARC
  5
14F
100
AcDbEntity
  8
MAIN0
  6
CONTINUOUS
 62
3
100
AcDbCircle
 10
240.8370044997414
 20
317.7530366856508
 30
0.0000000000000000
 40
83.50000000005835
100
AcDbArc
 50
322.2569614458885
 51
337.7430385541115
  0
ARC
  5
150
100
AcDbEntity
  8
MAIN0
  6
CONTINUOUS
 62
3
100
AcDbCircle
 10
240.8370044997414
 20
317.7530366856508
 30
0.0000000000000000
 40
57.49999999985143
100
AcDbArc
 50
318.7171757120013
 51
341.2828242879987
  0
ARC
  5
151
100
AcDbEntity
  8
MAIN0
  6
CONTINUOUS
 62
3
100
AcDbCircle
 10
240.8370044997414
 20
317.7530366856508
 30
0.0000000000000000
 40
54.89999999999215
100
AcDbArc
 50
318.1752991906427
 51
341.8247008093574
  0
LINE
  5
152
100
AcDbEntity
  8
MAIN0
  6
CONTINUOUS
 62
3
100
AcDbLine
 10
271.2767412093501
 20
312.4762072360360
 30
0.0000000000000000
 11
260.6267412093393
 21
294.0298661354336
 31
0.0000000000000000
  0
LINE
  5
153
100
AcDbEntity
  8
MAIN0
  6
CONTINUOUS
 62
3
100
AcDbLine
 10
260.8463564516097
 20
293.2102508931631
 30
0.0000000000000000
 11
260.6267412093393
 21
294.0298661354336
 31
0.0000000000000000
  0
LINE
  5
154
100
AcDbEntity
  8
MAIN0
  6
CONTINUOUS
 62
3
100
AcDbLine
 10
272.0963564516210
 20
312.6958224783065
 30
0.0000000000000000
 11
271.2767412093501
 21
312.4762072360360
 31
0.0000000000000000
  0
LINE
  5
155
100
AcDbEntity
  8
MAIN0
  6
PHANTOM
 62
3
100
AcDbLine
 10
191.7741960984723
 20
272.7530366856296
 30
0.0000000000000000
 11
192.7741960984718
 21
274.4850874931987
 31
0.0000000000000000
  0
LINE
  5
156
100
AcDbEntity
  8
MAIN0
  6
PHANTOM
 62
3
100
AcDbLine
 10
186.7741960984288
 20
274.4850874931580
 30
0.0000000000000000
 11
187.7741960984032
 21
272.7530366856308
 31
0.0000000000000000
  0
LINE
  5
157
100
AcDbEntity
  8
MAIN0
  6
PHANTOM
 62
3
100
AcDbLine
 10
192.7741960984718
 20
274.4850874931988
 30
0.0000000000000000
 11
193.7741960984710
 21
272.7530366856289
 31
0.0000000000000000
  0
LINE
  5
158
100
AcDbEntity
  8
MAIN0
  6
PHANTOM
 62
3
100
AcDbLine
 10
187.7741960984032
 20
272.7530366856308
 30
0.0000000000000000
 11
191.7741960984723
 21
272.7530366856297
 31
0.0000000000000000
  0
LINE
  5
159
100
AcDbEntity
  8
MAIN0
  6
PHANTOM
 62
3
100
AcDbLine
 10
193.7741960984710
 20
272.7530366856291
 30
0.0000000000000000
 11
198.1741960980205
 21
272.7530366856278
 31
0.0000000000000000
  0
LINE
  5
15A
100
AcDbEntity
  8
MAIN0
  6
CENTER
 62
3
100
AcDbLine
 10
198.7741960980842
 20
239.1473008821145
 30
0.0000000000000000
 11
198.7741960980860
 21
235.1057239022830
 31
0.0000000000000000
  0
LINE
  5
15B
100
AcDbEntity
  8
MAIN0
  6
CENTER
 62
3
100
AcDbLine
 10
107.9733988980248
 20
340.7530366856385
 30
0.0000000000000000
 11
188.9244885669880
 21
340.7530366856385
 31
0.0000000000000000
  0
DIMENSION
  5
164
100
AcDbEntity
  8
MAIN0
  6
CONTINUOUS
 62
3
100
AcDbDimension
  2
*D4
 10
83.22415456903309
 20
178.2530366856385
 30
0.0000000000000000
 11
82.72415456903309
 21
259.0750336422225
 31
0.0000000000000000
 70
160
  1
\A1;\U+2205155H6\H0.903226x;\S＋0.025^ 　0;
  3
MAIN001
100
AcDbAlignedDimension
 13
111.7741960979948
 23
333.2530366856385
 33
0.0000000000000000
 14
111.7741960980607
 24
178.2530366856385
 34
0.0000000000000000
 50
90.00000000000000
100
AcDbRotatedDimension
1001
ACAD
1000
DSTYLE
1002
{
1070
   173
1070
     1
1070
     6
1000
_OPEN
1070
     7
1000
_OPEN
1070
    41
1040
3.000000
1070
   272
1070
     3
1070
    47
1040
0.025000
1070
    48
1040
0.000000
1070
    71
1070
     1
1070
   340
1005
C0
1002
}
  0
DIMENSION
  5
16D
100
AcDbEntity
  8
MAIN0
  6
CONTINUOUS
 62
3
100
AcDbDimension
  2
*D5
 10
68.22415456903309
 20
350.7530366856385
 30
0.0000000000000000
 11
67.72415456903309
 21
255.7530366856385
 31
0.0000000000000000
 70
32
  1
\A1;\U+2205190
  3
MAIN001
100
AcDbAlignedDimension
 13
113.3741960980682
 23
160.7530366856385
 33
0.0000000000000000
 14
113.3741960979873
 24
350.7530366856385
 34
0.0000000000000000
 50
90.00000000000000
100
AcDbRotatedDimension
1001
ACAD
1000
DSTYLE
1002
{
1070
   173
1070
     1
1070
     6
1000
_OPEN
1070
     7
1000
_OPEN
1070
    41
1040
3.000000
1002
}
  0
DIMENSION
  5
176
100
AcDbEntity
  8
MAIN0
  6
CONTINUOUS
 62
3
100
AcDbDimension
  2
*D6
 10
111.7741960979882
 20
375.7530366856385
 30
0.0000000000000000
 11
149.2741960980125
 21
376.2530366856385
 31
0.0000000000000000
 70
32
  3
MAIN001
100
AcDbAlignedDimension
 13
186.7741960980368
 23
349.1530366855897
 33
0.0000000000000000
 14
111.7741960979880
 24
349.1530366856385
 34
0.0000000000000000
100
AcDbRotatedDimension
1001
ACAD
1000
DSTYLE
1002
{
1070
   173
1070
     1
1070
     6
1000
_OPEN
1070
     7
1000
_OPEN
1070
    41
1040
3.000000
1002
}
  0
LINE
  5
177
100
AcDbEntity
  8
MAIN0
  6
HIDDEN
 62
3
100
AcDbLine
 10
112.1741960979890
 20
346.7530366856385
 30
0.0000000000000000
 11
174.7741960980366
 21
346.7530366856385
 31
0.0000000000000000
  0
LINE
  5
178
100
AcDbEntity
  8
MAIN0
  6
HIDDEN
 62
3
100
AcDbLine
 10
112.1741960979941
 20
334.7530366856385
 30
0.0000000000000000
 11
174.7741960980366
 21
334.7530366856385
 31
0.0000000000000000
  0
LINE
  5
179
100
AcDbEntity
  8
MAIN0
  6
HIDDEN
 62
3
100
AcDbLine
 10
112.1741960979889
 20
346.7530366856385
 30
0.0000000000000000
 11
111.7741960979887
 21
347.1530366856385
 31
0.0000000000000000
  0
LINE
  5
17A
100
AcDbEntity
  8
MAIN0
  6
HIDDEN
 62
3
100
AcDbLine
 10
112.1741960979942
 20
334.7530366856384
 30
0.0000000000000000
 11
111.7741960979944
 21
334.3530366856384
 31
0.0000000000000000
  0
DIMENSION
  5
183
100
AcDbEntity
  8
MAIN0
  6
CONTINUOUS
 62
3
100
AcDbDimension
  2
*D7
 10
98.22415456903309
 20
346.7530366856385
 30
0.0000000000000000
 11
97.72415456903309
 21
340.7530366856385
 31
0.0000000000000000
 70
32
  1
\A1;\U+220512
  3
MAIN001
100
AcDbAlignedDimension
 13
112.1741960979941
 23
334.7530366856385
 33
0.0000000000000000
 14
112.1741960979890
 24
346.7530366856385
 34
0.0000000000000000
 50
90.00000000000000
100
AcDbRotatedDimension
1001
ACAD
1000
DSTYLE
1002
{
1070
   173
1070
     1
1070
     6
1000
_OPEN
1070
     7
1000
_OPEN
1070
    41
1040
3.000000
1002
}
  0
DIMENSION
  5
18C
100
AcDbEntity
  8
MAIN0
  6
CONTINUOUS
 62
3
100
AcDbDimension
  2
*D8
 10
198.2241545690331
 20
349.2530366856385
 30
0.0000000000000000
 11
197.7241545690331
 21
340.7530366856385
 31
0.0000000000000000
 70
32
  1
\A1;\U+220517
  3
MAIN001
100
AcDbAlignedDimension
 13
186.1741960980367
 23
332.2530366856385
 33
0.0000000000000000
 14
186.1741960980367
 24
349.2530366856385
 34
0.0000000000000000
 50
90.00000000000000
100
AcDbRotatedDimension
1001
ACAD
1000
DSTYLE
1002
{
1070
   173
1070
     1
1070
     6
1000
_OPEN
1070
     7
1000
_OPEN
1070
    41
1040
3.000000
1002
}
  0
DIMENSION
  5
195
100
AcDbEntity
  8
MAIN0
  6
CONTINUOUS
 62
3
100
AcDbDimension
  2
*D9
 10
174.7741960980369
 20
355.7530366856385
 30
0.0000000000000000
 11
180.6236119120119
 21
356.2530366856385
 31
0.0000000000000000
 70
160
  3
MAIN001
100
AcDbAlignedDimension
 13
186.7741960980368
 23
349.1530366855897
 33
0.0000000000000000
 14
174.7741960980367
 24
349.2530366856385
 34
0.0000000000000000
100
AcDbRotatedDimension
1001
ACAD
1000
DSTYLE
1002
{
1070
   173
1070
     1
1070
     6
1000
_OPEN
1070
     7
1000
_OPEN
1070
    41
1040
3.000000
1002
}
  0
DIMENSION
  5
19E
100
AcDbEntity
  8
MAIN0
  6
CONTINUOUS
 62
3
100
AcDbDimension
  2
*D10
 10
111.7741960980606
 20
196.5471655574896
 30
0.0000000000000000
 11
107.0388086123172
 21
197.0471655574896
 31
0.0000000000000000
 70
160
  3
MAIN001
100
AcDbAlignedDimension
 13
116.7741960980607
 23
178.2530366856385
 33
0.0000000000000000
 14
111.7741960980606
 24
178.2530366856385
 34
0.0000000000000000
100
AcDbRotatedDimension
1001
ACAD
1000
DSTYLE
1002
{
1070
   173
1070
     1
1070
     6
1000
_OPEN
1070
     7
1000
_OPEN
1070
    41
1040
3.000000
1070
   287
1070
     0
1002
}
  0
LINE
  5
19F
100
AcDbEntity
  8
MAIN0
  6
CENTER
 62
3
100
AcDbLine
 10
299.2164229009573
 20
340.6369178984481
 30
0.0000000000000000
 11
312.1036071953536
 21
318.3156599340500
 31
0.0000000000000000
  0
LINE
  5
1A0
100
AcDbEntity
  8
MAIN0
  6
CENTER
 62
3
100
AcDbLine
 10
299.3102130074823
 20
171.0316047025775
 30
0.0000000000000000
 11
311.8630612402893
 21
192.7737756215004
 31
0.0000000000000000
  0
ARC
  5
1A1
100
AcDbEntity
  8
MAIN0
  6
CENTER
 62
3
100
AcDbCircle
 10
348.2241545690331
 20
255.7530366856383
 30
0.0000000000000000
 40
85.00000000000000
100
AcDbArc
 50
111.1626036410427
 51
128.1712183362752
  0
ARC
  5
1A2
100
AcDbEntity
  8
MAIN0
  6
CENTER
 62
3
100
AcDbCircle
 10
348.2241545690331
 20
255.7530366856383
 30
0.0000000000000000
 40
85.00000000000000
100
AcDbArc
 50
231.1549751269987
 51
248.8698071350549
  0
ARC
  5
1A3
100
AcDbEntity
  8
MAIN0
  6
CENTER
 62
3
100
AcDbCircle
 10
348.2241545690331
 20
255.7530366856383
 30
0.0000000000000000
 40
85.00000000000000
100
AcDbArc
 50
350.5404406892886
 51
368.6809517690318
  0
CIRCLE
  5
1A4
100
AcDbEntity
  8
MAIN0
  6
HIDDEN
 62
3
100
AcDbCircle
 10
348.2241545690334
 20
255.7530366856385
 30
0.0000000000000000
 40
43.50000000000000
  0
DIMENSION
  5
1AA
100
AcDbEntity
  8
MAIN0
  6
CONTINUOUS
 62
3
100
AcDbDimension
  2
*D11
 10
295.6909847881277
 20
188.9303902791201
 30
0.0000000000000000
 11
304.9166477737727
 21
201.8790324111757
 31
0.0000000000000000
 70
163
  3
MAIN001
100
AcDbDiametricDimension
 15
400.7573243499386
 25
322.5756830921565
 35
0.0000000000000000
1001
ACAD
1000
DSTYLE
1002
{
1070
   287
1070
     2
1070
   173
1070
     1
1070
     6
1000
_OPEN
1070
     7
1000
_NONE
1070
    41
1040
3.000000
1070
   272
1070
     1
1070
    47
1040
0.200000
1070
    48
1040
0.200000
1070
    71
1070
     1
1002
}
  0
CIRCLE
  5
1AB
100
AcDbEntity
  8
MAIN0
  6
CONTINUOUS
 62
3
100
AcDbCircle
 10
305.7241545690332
 20
329.3651960073157
 30
0.0000000000000000
 40
6.000000000000000
  0
CIRCLE
  5
1AC
100
AcDbEntity
  8
MAIN0
  6
CONTINUOUS
 62
3
100
AcDbCircle
 10
305.7241545690331
 20
182.1408773639611
 30
0.0000000000000000
 40
6.000000000000000
  0
CIRCLE
  5
1AD
100
AcDbEntity
  8
MAIN0
  6
CONTINUOUS
 62
3
100
AcDbCircle
 10
433.2241545690331
 20
255.7530366856385
 30
0.0000000000000000
 40
6.000000000000000
  0
LINE
  5
1AE
100
AcDbEntity
  8
MAIN0
  6
CENTER
 62
3
100
AcDbLine
 10
327.1417608389827
 20
267.9249623808447
 30
0.0000000000000000
 11
391.9004469785265
 21
230.5365175058126
 31
0.0000000000000000
  0
LINE
  5
1AF
100
AcDbEntity
  8
MAIN0
  6
CENTER
 62
3
100
AcDbLine
 10
415.6419496336520
 20
216.8293545569097
 30
0.0000000000000000
 11
443.6989542907244
 21
200.6306353654943
 31
0.0000000000000000
  0
LINE
  5
1B0
100
AcDbEntity
  8
MAIN0
  6
CONTINUOUS
 62
3
100
AcDbLine
 10
121.7741960979945
 20
333.7530366856385
 30
0.0000000000000000
 11
121.7741960979947
 21
333.2530366856385
 31
0.0000000000000000
  0
LINE
  5
1B1
100
AcDbEntity
  8
MAIN0
  6
CONTINUOUS
 62
3
100
AcDbLine
 10
121.7741960979946
 20
333.7530366856385
 30
0.0000000000000000
 11
122.5241960979946
 21
333.7530366856385
 31
0.0000000000000000
  0
DIMENSION
  5
1B8
100
AcDbEntity
  8
MAIN0
  6
CONTINUOUS
 62
3
100
AcDbDimension
  2
*D12
 10
442.0284173127695
 20
201.5951203394078
 30
0.0000000000000000
 11
402.1320709152637
 21
162.3817866437942
 31
0.0000000000000000
 70
162
  3
MAIN001
100
AcDb2LineAngularDimension
 13
348.2241545690331
 23
147.4372039931772
 33
0.0000000000000000
 14
348.2241545690331
 24
255.7530366856384
 34
0.0000000000000000
 15
443.6989542907245
 25
200.6306353654943
 35
0.0000000000000000
 16
402.3820709152637
 26
161.9487739419020
 36
0.0000000000000000
1001
ACAD
1000
DSTYLE
1002
{
1070
   173
1070
     1
1070
     6
1000
_OPEN
1070
     7
1000
_OPEN
1070
    41
1040
3.000000
1002
}
  0
DIMENSION
  5
1BF
100
AcDbEntity
  8
MAIN0
  6
CONTINUOUS
 62
3
100
AcDbDimension
  2
*D13
 10
456.5399872614943
 20
255.7530366856384
 30
0.0000000000000000
 11
452.3662518495426
 21
227.8482458212424
 31
0.0000000000000000
 70
162
  3
MAIN001
100
AcDb2LineAngularDimension
 13
442.0284173127695
 23
201.5951203394078
 33
0.0000000000000000
 14
443.6989542907245
 24
200.6306353654943
 34
0.0000000000000000
 15
348.2241545690331
 25
255.7530366856384
 35
0.0000000000000000
 16
452.8492147626872
 26
227.7188362986912
 36
0.0000000000000000
1001
ACAD
1000
DSTYLE
1002
{
1070
   173
1070
     1
1070
     6
1000
_OPEN
1070
     7
1000
_OPEN
1070
    41
1040
3.000000
1002
}
  0
DIMENSION
  5
1C6
100
AcDbEntity
  8
MAIN0
  6
CONTINUOUS
 62
3
100
AcDbDimension
  2
*D14
 10
442.0284173127695
 20
309.9109530318690
 30
0.0000000000000000
 11
452.3662518495426
 21
283.6578275500344
 31
0.0000000000000000
 70
162
  3
MAIN001
100
AcDb2LineAngularDimension
 13
456.5399872614943
 23
255.7530366856384
 33
0.0000000000000000
 14
348.2241545690331
 24
255.7530366856384
 34
0.0000000000000000
 15
443.1325769251521
 25
310.5484398813065
 35
0.0000000000000000
 16
452.8492147626871
 26
283.7872370725856
 36
0.0000000000000000
1001
ACAD
1000
DSTYLE
1002
{
1070
   173
1070
     1
1070
     6
1000
_OPEN
1070
     7
1000
_OPEN
1070
    41
1040
3.000000
1002
}
  0
DIMENSION
  5
1CD
100
AcDbEntity
  8
MAIN0
  6
CONTINUOUS
 62
3
100
AcDbDimension
  2
*D15
 10
348.2241545690331
 20
364.0688693780996
 30
0.0000000000000000
 11
402.6320709152636
 21
349.9903121312671
 31
0.0000000000000000
 70
162
  3
MAIN001
100
AcDb2LineAngularDimension
 13
442.0284173127695
 23
309.9109530318690
 33
0.0000000000000000
 14
443.1325769251521
 24
310.5484398813065
 34
0.0000000000000000
 15
348.2241545690331
 25
255.7530366856384
 35
0.0000000000000000
 16
402.3820709152636
 26
349.5572994293748
 36
0.0000000000000000
1001
ACAD
1000
DSTYLE
1002
{
1070
   173
1070
     1
1070
     6
1000
_OPEN
1070
     7
1000
_OPEN
1070
    41
1040
3.000000
1002
}
  0
DIMENSION
  5
1D5
100
AcDbEntity
  8
MAIN0
  6
CONTINUOUS
 62
3
100
AcDbDimension
  2
*D16
 10
330.5987050148558
 20
304.1785613434771
 30
0.0000000000000000
 11
329.3284835206777
 21
362.9157123716535
 31
0.0000000000000000
 70
162
  3
MAIN001
100
AcDb2LineAngularDimension
 13
348.2241545690331
 23
364.0688693780996
 33
0.0000000000000000
 14
348.2241545690331
 24
255.7530366856384
 34
0.0000000000000000
 15
330.9407251581815
 25
303.2388687226912
 35
0.0000000000000000
 16
329.4153076095111
 26
362.4233084951474
 36
0.0000000000000000
1001
ACAD
1000
DSTYLE
1002
{
1070
   173
1070
     1
1070
     6
1000
_OPEN
1070
     7
1000
_OPEN
1070
    41
1040
3.000000
1002
}
  0
LINE
  5
1D6
100
AcDbEntity
  8
MAIN0
  6
CONTINUOUS
 62
3
100
AcDbLine
 10
524.6426731788362
 20
345.8531929076988
 30
0.0000000000000000
 11
545.6426731788362
 21
345.8531929076988
 31
0.0000000000000000
  0
LINE
  5
1D7
100
AcDbEntity
  8
MAIN0
  6
CONTINUOUS
 62
3
100
AcDbLine
 10
522.6426731788362
 20
343.8531929076698
 30
0.0000000000000000
 11
547.6426731788362
 21
343.8531929076848
 31
0.0000000000000000
  0
LINE
  5
1D8
100
AcDbEntity
  8
MAIN0
  6
CONTINUOUS
 62
3
100
AcDbLine
 10
547.6426731788362
 20
343.8531929076988
 30
0.0000000000000000
 11
547.6426731788362
 21
338.8531929076988
 31
0.0000000000000000
  0
LINE
  5
1D9
100
AcDbEntity
  8
MAIN0
  6
CONTINUOUS
 62
3
100
AcDbLine
 10
522.6426731788362
 20
343.8531929076988
 30
0.0000000000000000
 11
522.6426731788362
 21
338.8531929076988
 31
0.0000000000000000
  0
LINE
  5
1DA
100
AcDbEntity
  8
MAIN0
  6
CONTINUOUS
 62
3
100
AcDbLine
 10
524.6426731788362
 20
319.8531929076988
 30
0.0000000000000000
 11
545.6426731788362
 21
319.8531929076988
 31
0.0000000000000000
  0
LINE
  5
1DB
100
AcDbEntity
  8
MAIN0
  6
CONTINUOUS
 62
3
100
AcDbLine
 10
522.6426731788362
 20
321.8531929076802
 30
0.0000000000000000
 11
547.6426731788362
 21
321.8531929076902
 31
0.0000000000000000
  0
LINE
  5
1DC
100
AcDbEntity
  8
MAIN0
  6
CONTINUOUS
 62
3
100
AcDbLine
 10
547.6426731788362
 20
326.8531929076988
 30
0.0000000000000000
 11
547.6426731788362
 21
321.8531929076900
 31
0.0000000000000000
  0
LINE
  5
1DD
100
AcDbEntity
  8
MAIN0
  6
CONTINUOUS
 62
3
100
AcDbLine
 10
522.6426731788362
 20
326.8531929076988
 30
0.0000000000000000
 11
522.6426731788362
 21
321.8531929076900
 31
0.0000000000000000
  0
LINE
  5
1DE
100
AcDbEntity
  8
MAIN0
  6
CONTINUOUS
 62
3
100
AcDbLine
 10
545.1426731788362
 20
319.8531929076988
 30
0.0000000000000000
 11
545.1426731788362
 21
225.8531929076988
 31
0.0000000000000000
  0
LINE
  5
1DF
100
AcDbEntity
  8
MAIN0
  6
CONTINUOUS
 62
3
100
AcDbLine
 10
525.1426731788362
 20
319.8531929076988
 30
0.0000000000000000
 11
525.1426731788362
 21
225.8531929076988
 31
0.0000000000000000
  0
LINE
  5
1E0
100
AcDbEntity
  8
MAIN0
  6
CONTINUOUS
 62
3
100
AcDbLine
 10
525.1426731788362
 20
225.8531929076988
 30
0.0000000000000000
 11
545.1426731788362
 21
225.8531929076988
 31
0.0000000000000000
  0
LINE
  5
1E1
100
AcDbEntity
  8
MAIN0
  6
CONTINUOUS
 62
3
100
AcDbLine
 10
528.6426731788566
 20
185.8531929076988
 30
0.0000000000000000
 11
541.6426731789420
 21
185.8531929076988
 31
0.0000000000000000
  0
LINE
  5
1E2
100
AcDbEntity
  8
MAIN0
  6
CENTER
 62
3
100
AcDbLine
 10
521.4936656291035
 20
156.8076644592380
 30
0.0000000000000000
 11
550.7447167204894
 21
156.8076644592466
 31
0.0000000000000000
  0
LINE
  5
1E3
100
AcDbEntity
  8
MAIN0
  6
CENTER
 62
3
100
AcDbLine
 10
535.1426731788362
 20
169.9033176770571
 30
0.0000000000000000
 11
535.1426731788362
 21
141.7340072155298
 31
0.0000000000000000
  0
LINE
  5
1E4
100
AcDbEntity
  8
MAIN0
  6
CONTINUOUS
 62
3
100
AcDbLine
 10
527.9426731788362
 20
157.3858390516937
 30
0.0000000000000000
 11
534.5644985863778
 21
164.0076644592419
 31
0.0000000000000000
  0
LINE
  5
1E5
100
AcDbEntity
  8
MAIN0
  6
CONTINUOUS
 62
3
100
AcDbLine
 10
535.7208477724887
 20
149.6076644592421
 30
0.0000000000000000
 11
542.3426731788361
 21
156.2294898655961
 31
0.0000000000000000
  0
LINE
  5
1E6
100
AcDbEntity
  8
MAIN0
  6
CONTINUOUS
 62
3
100
AcDbLine
 10
535.7208477718914
 20
164.0076644592422
 30
0.0000000000000000
 11
542.3426731788361
 21
157.3858390522965
 31
0.0000000000000000
  0
LINE
  5
1E7
100
AcDbEntity
  8
MAIN0
  6
CONTINUOUS
 62
3
100
AcDbLine
 10
527.9426731788362
 20
156.2294898661934
 30
0.0000000000000000
 11
534.5644985857867
 21
149.6076644592418
 31
0.0000000000000000
  0
LINE
  5
1E8
100
AcDbEntity
  8
MAIN0
  6
CONTINUOUS
 62
3
100
AcDbLine
 10
534.5644985863778
 20
164.0076644592418
 30
0.0000000000000000
 11
535.7208477718914
 21
164.0076644592422
 31
0.0000000000000000
  0
LINE
  5
1E9
100
AcDbEntity
  8
MAIN0
  6
CONTINUOUS
 62
3
100
AcDbLine
 10
534.5644985857867
 20
149.6076644592418
 30
0.0000000000000000
 11
535.7208477724887
 21
149.6076644592421
 31
0.0000000000000000
  0
LINE
  5
1EA
100
AcDbEntity
  8
MAIN0
  6
CONTINUOUS
 62
3
100
AcDbLine
 10
542.3426731788361
 20
157.3858390522964
 30
0.0000000000000000
 11
542.3426731788361
 21
156.2294898655961
 31
0.0000000000000000
  0
LINE
  5
1EB
100
AcDbEntity
  8
MAIN0
  6
CONTINUOUS
 62
3
100
AcDbLine
 10
527.9426731788361
 20
157.3858390516936
 30
0.0000000000000000
 11
527.9426731788361
 21
156.2294898661934
 31
0.0000000000000000
  0
LINE
  5
1EC
100
AcDbEntity
  8
MAIN0
  6
CONTINUOUS
 62
3
100
AcDbLine
 10
542.3426731789366
 20
200.8531929076988
 30
0.0000000000000000
 11
542.3426731789417
 21
186.5531929076988
 31
0.0000000000000000
  0
LINE
  5
1ED
100
AcDbEntity
  8
MAIN0
  6
CONTINUOUS
 62
3
100
AcDbLine
 10
527.9426731788713
 20
200.8531929076988
 30
0.0000000000000000
 11
527.9426731788573
 21
186.5531929076989
 31
0.0000000000000000
  0
LINE
  5
1EE
100
AcDbEntity
  8
MAIN0
  6
CONTINUOUS
 62
3
100
AcDbLine
 10
527.9426731788574
 20
186.5531929076989
 30
0.0000000000000000
 11
528.6426731788566
 21
185.8531929076989
 31
0.0000000000000000
  0
LINE
  5
1EF
100
AcDbEntity
  8
MAIN0
  6
CONTINUOUS
 62
3
100
AcDbLine
 10
541.6426731789420
 20
185.8531929076988
 30
0.0000000000000000
 11
542.3426731789417
 21
186.5531929076988
 31
0.0000000000000000
  0
ARC
  5
1F0
100
AcDbEntity
  8
MAIN0
  6
CONTINUOUS
 62
3
100
AcDbCircle
 10
607.1178116469476
 20
206.2551773995305
 30
0.0000000000000000
 40
65.00000000000000
100
AcDbArc
 50
162.4518045222165
 51
184.7672048489440
  0
ARC
  5
1F1
100
AcDbEntity
  8
MAIN0
  6
CONTINUOUS
 62
3
100
AcDbCircle
 10
463.1675347107247
 20
206.2551773995305
 30
0.0000000000000000
 40
65.00000000000000
100
AcDbArc
 50
355.2327951510559
 51
377.5481954777835
  0
LINE
  5
1F2
100
AcDbEntity
  8
MAIN0
  6
CONTINUOUS
 62
3
100
AcDbLine
 10
534.5644985863995
 20
200.8531929076988
 30
0.0000000000000000
 11
534.5644985863825
 21
186.5531929077161
 31
0.0000000000000000
  0
LINE
  5
1F3
100
AcDbEntity
  8
MAIN0
  6
CONTINUOUS
 62
3
100
AcDbLine
 10
535.7042960782450
 20
200.8531929076988
 30
0.0000000000000000
 11
535.7042960782354
 21
186.5531929077161
 31
0.0000000000000000
  0
LINE
  5
1F4
100
AcDbEntity
  8
MAIN0
  6
CONTINUOUS
 62
3
100
AcDbLine
 10
527.9426731788713
 20
200.8531929076988
 30
0.0000000000000000
 11
534.5644985863995
 21
200.8531929076988
 31
0.0000000000000000
  0
LINE
  5
1F5
100
AcDbEntity
  8
MAIN0
  6
CONTINUOUS
 62
3
100
AcDbLine
 10
535.7042960782449
 20
200.8531929076988
 30
0.0000000000000000
 11
542.3426731789366
 21
200.8531929076988
 31
0.0000000000000000
  0
LINE
  5
1F6
100
AcDbEntity
  8
MAIN0
  6
CONTINUOUS
 62
3
100
AcDbLine
 10
527.9426731788574
 20
186.5531929077166
 30
0.0000000000000000
 11
542.3426731789418
 21
186.5531929077157
 31
0.0000000000000000
  0
LINE
  5
1F7
100
AcDbEntity
  8
MAIN0
  6
CONTINUOUS
 62
3
100
AcDbLine
 10
542.3426731789366
 20
200.8531929076989
 30
0.0000000000000000
 11
535.7042960782354
 21
186.5531929077161
 31
0.0000000000000000
  0
LINE
  5
1F8
100
AcDbEntity
  8
MAIN0
  6
CONTINUOUS
 62
3
100
AcDbLine
 10
535.7042960782450
 20
200.8531929076988
 30
0.0000000000000000
 11
542.3426731789417
 21
186.5531929076988
 31
0.0000000000000000
  0
LINE
  5
1F9
100
AcDbEntity
  8
MAIN0
  6
CONTINUOUS
 62
3
100
AcDbLine
 10
534.5644985863995
 20
200.8531929076988
 30
0.0000000000000000
 11
527.9426731788574
 21
186.5531929077166
 31
0.0000000000000000
  0
LINE
  5
1FA
100
AcDbEntity
  8
MAIN0
  6
CONTINUOUS
 62
3
100
AcDbLine
 10
527.9426731788714
 20
200.8531929076988
 30
0.0000000000000000
 11
534.5644985863825
 21
186.5531929077161
 31
0.0000000000000000
  0
LINE
  5
1FB
100
AcDbEntity
  8
MAIN0
  6
CENTER
 62
3
100
AcDbLine
 10
462.8661389626739
 20
332.8531929076988
 30
0.0000000000000000
 11
559.7911716942650
 21
332.8531929076988
 31
0.0000000000000000
  0
LINE
  5
1FC
100
AcDbEntity
  8
MAIN0
  6
CENTER
 62
3
100
AcDbLine
 10
565.8911715988976
 20
332.8531929076988
 30
0.0000000000000000
 11
603.8356473817375
 21
332.8531929076988
 31
0.0000000000000000
  0
LINE
  5
1FD
100
AcDbEntity
  8
MAIN0
  6
CENTER
 62
3
100
AcDbLine
 10
535.1426731788362
 20
179.1721468574253
 30
0.0000000000000000
 11
535.1426731788362
 21
288.8946077490155
 31
0.0000000000000000
  0
LINE
  5
1FE
100
AcDbEntity
  8
MAIN0
  6
CENTER
 62
3
100
AcDbLine
 10
535.1426731788362
 20
294.9946076536480
 30
0.0000000000000000
 11
535.1426731788362
 21
349.5133346779005
 31
0.0000000000000000
  0
LINE
  5
1FF
100
AcDbEntity
  8
MAIN0
  6
CONTINUOUS
 62
3
100
AcDbLine
 10
522.6426731788362
 20
343.8531929076988
 30
0.0000000000000000
 11
524.6426731788362
 21
345.8531929076988
 31
0.0000000000000000
  0
LINE
  5
200
100
AcDbEntity
  8
MAIN0
  6
CONTINUOUS
 62
3
100
AcDbLine
 10
545.6426731788362
 20
345.8531929076988
 30
0.0000000000000000
 11
547.6426731788362
 21
343.8531929076988
 31
0.0000000000000000
  0
LINE
  5
201
100
AcDbEntity
  8
MAIN0
  6
CONTINUOUS
 62
3
100
AcDbLine
 10
522.6426731788362
 20
321.8531929076988
 30
0.0000000000000000
 11
524.6426731788362
 21
319.8531929076988
 31
0.0000000000000000
  0
LINE
  5
202
100
AcDbEntity
  8
MAIN0
  6
CONTINUOUS
 62
3
100
AcDbLine
 10
547.6426731788362
 20
321.8531929076988
 30
0.0000000000000000
 11
545.6426731788362
 21
319.8531929076988
 31
0.0000000000000000
  0
ARC
  5
203
100
AcDbEntity
  8
MAIN0
  6
CONTINUOUS
 62
3
100
AcDbCircle
 10
558.6085292786299
 20
332.8531929076988
 30
0.0000000000000000
 40
12.50000000005537
100
AcDbArc
 50
151.3145979860199
 51
208.6854020139801
  0
ARC
  5
204
100
AcDbEntity
  8
MAIN0
  6
CONTINUOUS
 62
3
100
AcDbCircle
 10
596.1426731787095
 20
332.8531929076988
 30
0.0000000000000000
 40
6.000000000126562
100
AcDbArc
 50
270.0000000000000
 51
450.0000000000000
  0
ARC
  5
205
100
AcDbEntity
  8
MAIN0
  6
CONTINUOUS
 62
3
100
AcDbCircle
 10
585.2499033522570
 20
335.8531929076988
 30
0.0000000000000000
 40
4.500000000000000
100
AcDbArc
 50
138.1896851042214
 51
221.8103148957786
  0
ARC
  5
206
100
AcDbEntity
  8
MAIN0
  6
CONTINUOUS
 62
3
100
AcDbCircle
 10
578.5416994197576
 20
335.8531929076988
 30
0.0000000000000000
 40
4.500000000000000
100
AcDbArc
 50
318.1896851042214
 51
401.8103148957786
  0
ARC
  5
207
100
AcDbEntity
  8
MAIN0
  6
CONTINUOUS
 62
3
100
AcDbCircle
 10
589.7499033522570
 20
335.8531929076988
 30
0.0000000000000000
 40
4.500000000000000
100
AcDbArc
 50
138.1896851042214
 51
221.8103148957786
  0
ARC
  5
208
100
AcDbEntity
  8
MAIN0
  6
CONTINUOUS
 62
3
100
AcDbCircle
 10
578.5416994197576
 20
329.8531929076988
 30
0.0000000000000000
 40
4.500000000000000
100
AcDbArc
 50
318.1896851042214
 51
401.8103148957786
  0
ARC
  5
209
100
AcDbEntity
  8
MAIN0
  6
CONTINUOUS
 62
3
100
AcDbCircle
 10
589.7499033522570
 20
329.8531929076988
 30
0.0000000000000000
 40
4.500000000000000
100
AcDbArc
 50
138.1896851042214
 51
221.8103148957786
  0
ARC
  5
20A
100
AcDbEntity
  8
MAIN0
  6
CONTINUOUS
 62
3
100
AcDbCircle
 10
583.0416994197576
 20
329.8531929076988
 30
0.0000000000000000
 40
4.500000000000000
100
AcDbArc
 50
318.1896851042214
 51
401.8103148957786
  0
LINE
  5
20B
100
AcDbEntity
  8
MAIN0
  6
CONTINUOUS
 62
3
100
AcDbLine
 10
547.6426731788362
 20
338.8531929076988
 30
0.0000000000000000
 11
581.8958013860073
 21
338.8531929076988
 31
0.0000000000000000
  0
LINE
  5
20C
100
AcDbEntity
  8
MAIN0
  6
CONTINUOUS
 62
3
100
AcDbLine
 10
586.3958013860073
 20
338.8531929076988
 30
0.0000000000000000
 11
596.1426731787095
 21
338.8531929076988
 31
0.0000000000000000
  0
LINE
  5
20D
100
AcDbEntity
  8
MAIN0
  6
CONTINUOUS
 62
3
100
AcDbLine
 10
547.6426731788362
 20
326.8531929076988
 30
0.0000000000000000
 11
581.8958013860073
 21
326.8531929076988
 31
0.0000000000000000
  0
LINE
  5
20E
100
AcDbEntity
  8
MAIN0
  6
CONTINUOUS
 62
3
100
AcDbLine
 10
586.3958013860073
 20
326.8531929076988
 30
0.0000000000000000
 11
596.1426731787095
 21
326.8531929076988
 31
0.0000000000000000
  0
ARC
  5
20F
100
AcDbEntity
  8
MAIN0
  6
CONTINUOUS
 62
3
100
AcDbCircle
 10
511.6768170790423
 20
332.8531929076988
 30
0.0000000000000000
 40
12.50000000005537
100
AcDbArc
 50
331.3145979860199
 51
388.6854020139801
  0
ARC
  5
210
100
AcDbEntity
  8
MAIN0
  6
CONTINUOUS
 62
3
100
AcDbCircle
 10
474.1426731789627
 20
332.8531929076988
 30
0.0000000000000000
 40
6.000000000126562
100
AcDbArc
 50
90.00000000000000
 51
270.0000000000000
  0
ARC
  5
211
100
AcDbEntity
  8
MAIN0
  6
CONTINUOUS
 62
3
100
AcDbCircle
 10
485.0354430054152
 20
335.8531929076988
 30
0.0000000000000000
 40
4.500000000000000
100
AcDbArc
 50
318.1896851042214
 51
401.8103148957786
  0
ARC
  5
212
100
AcDbEntity
  8
MAIN0
  6
CONTINUOUS
 62
3
100
AcDbCircle
 10
491.7436469379146
 20
335.8531929076988
 30
0.0000000000000000
 40
4.500000000000000
100
AcDbArc
 50
138.1896851042214
 51
221.8103148957786
  0
ARC
  5
213
100
AcDbEntity
  8
MAIN0
  6
CONTINUOUS
 62
3
100
AcDbCircle
 10
480.5354430054152
 20
335.8531929076988
 30
0.0000000000000000
 40
4.500000000000000
100
AcDbArc
 50
318.1896851042214
 51
401.8103148957786
  0
ARC
  5
214
100
AcDbEntity
  8
MAIN0
  6
CONTINUOUS
 62
3
100
AcDbCircle
 10
491.7436469379146
 20
329.8531929076988
 30
0.0000000000000000
 40
4.500000000000000
100
AcDbArc
 50
138.1896851042214
 51
221.8103148957786
  0
ARC
  5
215
100
AcDbEntity
  8
MAIN0
  6
CONTINUOUS
 62
3
100
AcDbCircle
 10
480.5354430054152
 20
329.8531929076988
 30
0.0000000000000000
 40
4.500000000000000
100
AcDbArc
 50
318.1896851042214
 51
401.8103148957786
  0
ARC
  5
216
100
AcDbEntity
  8
MAIN0
  6
CONTINUOUS
 62
3
100
AcDbCircle
 10
487.2436469379146
 20
329.8531929076988
 30
0.0000000000000000
 40
4.500000000000000
100
AcDbArc
 50
138.1896851042214
 51
221.8103148957786
  0
LINE
  5
217
100
AcDbEntity
  8
MAIN0
  6
CONTINUOUS
 62
3
100
AcDbLine
 10
522.6426731788361
 20
338.8531929076988
 30
0.0000000000000000
 11
488.3895449716649
 21
338.8531929076988
 31
0.0000000000000000
  0
LINE
  5
218
100
AcDbEntity
  8
MAIN0
  6
CONTINUOUS
 62
3
100
AcDbLine
 10
483.8895449716649
 20
338.8531929076988
 30
0.0000000000000000
 11
474.1426731789627
 21
338.8531929076988
 31
0.0000000000000000
  0
LINE
  5
219
100
AcDbEntity
  8
MAIN0
  6
CONTINUOUS
 62
3
100
AcDbLine
 10
522.6426731788361
 20
326.8531929076988
 30
0.0000000000000000
 11
488.3895449716649
 21
326.8531929076988
 31
0.0000000000000000
  0
LINE
  5
21A
100
AcDbEntity
  8
MAIN0
  6
CONTINUOUS
 62
3
100
AcDbLine
 10
483.8895449716649
 20
326.8531929076988
 30
0.0000000000000000
 11
474.1426731789627
 21
326.8531929076988
 31
0.0000000000000000
  0
DIMENSION
  5
223
100
AcDbEntity
  8
MAIN0
  6
CONTINUOUS
 62
1
100
AcDbDimension
  2
*D17
 10
468.1426731788362
 20
367.8370921738625
 30
0.0000000000000000
 11
535.1426731788361
 21
368.3370921738625
 31
0.0000000000000000
 70
32
  1
\A1;240
  3
MAIN001
100
AcDbAlignedDimension
 13
602.1426731788361
 23
332.8531929076988
 33
0.0000000000000000
 14
468.1426731788362
 24
332.8531929076988
 34
0.0000000000000000
100
AcDbRotatedDimension
1001
ACAD
1000
DSTYLE
1002
{
1070
   173
1070
     1
1070
     6
1000
_OPEN
1070
     7
1000
_OPEN
1070
    41
1040
3.000000
1002
}
  0
DIMENSION
  5
22C
100
AcDbEntity
  8
MAIN0
  6
CONTINUOUS
 62
3
100
AcDbDimension
  2
*D18
 10
574.8911715988976
 20
345.8531929076988
 30
0.0000000000000000
 11
574.3911715988976
 21
265.8531929076988
 31
0.0000000000000000
 70
32
  3
MAIN001
100
AcDbAlignedDimension
 13
541.6426731789420
 23
185.8531929076988
 33
0.0000000000000000
 14
545.1426731788362
 24
345.8531929076988
 34
0.0000000000000000
 50
90.00000000000000
100
AcDbRotatedDimension
1001
ACAD
1000
DSTYLE
1002
{
1070
   173
1070
     1
1070
     6
1000
_OPEN
1070
     7
1000
_OPEN
1070
    41
1040
3.000000
1002
}
  0
DIMENSION
  5
235
100
AcDbEntity
  8
MAIN0
  6
CONTINUOUS
 62
3
100
AcDbDimension
  2
*D19
 10
522.6426731788362
 20
357.2876424968148
 30
0.0000000000000000
 11
535.1426731788362
 21
357.7876424968148
 31
0.0000000000000000
 70
32
  1
\A1;\U+220525
  3
MAIN001
100
AcDbAlignedDimension
 13
547.6426731788362
 23
343.8531929076988
 33
0.0000000000000000
 14
522.6426731788362
 24
343.8531929076988
 34
0.0000000000000000
100
AcDbRotatedDimension
1001
ACAD
1000
DSTYLE
1002
{
1070
   173
1070
     1
1070
     6
1000
_OPEN
1070
     7
1000
_OPEN
1070
    41
1040
3.000000
1002
}
  0
DIMENSION
  5
23E
100
AcDbEntity
  8
MAIN0
  6
CONTINUOUS
 62
1
100
AcDbDimension
  2
*D20
 10
504.8911715988976
 20
345.8531929076988
 30
0.0000000000000000
 11
504.3911715988976
 21
350.5441965874986
 31
0.0000000000000000
 70
160
  3
MAIN001
100
AcDbAlignedDimension
 13
462.8661389626739
 23
332.8531929076988
 33
0.0000000000000000
 14
525.1426731788362
 24
345.8531929076988
 34
0.0000000000000000
 50
90.00000000000000
100
AcDbRotatedDimension
1001
ACAD
1000
DSTYLE
1002
{
1070
   173
1070
     1
1070
     6
1000
_OPEN
1070
     7
1000
_OPEN
1070
    41
1040
3.000000
1002
}
  0
DIMENSION
  5
247
100
AcDbEntity
  8
MAIN0
  6
CONTINUOUS
 62
1
100
AcDbDimension
  2
*D21
 10
564.8911715988976
 20
338.8531929076988
 30
0.0000000000000000
 11
564.3911715988976
 21
332.8531929076988
 31
0.0000000000000000
 70
32
  1
\A1;\U+220512
  3
MAIN001
100
AcDbAlignedDimension
 13
547.6426731788362
 23
326.8531929076988
 33
0.0000000000000000
 14
547.6426731788362
 24
338.8531929076988
 34
0.0000000000000000
 50
90.00000000000000
100
AcDbRotatedDimension
1001
ACAD
1000
DSTYLE
1002
{
1070
   173
1070
     1
1070
     6
1000
_OPEN
1070
     7
1000
_OPEN
1070
    41
1040
3.000000
1070
   287
1070
     0
1002
}
  0
DIMENSION
  5
24E
100
AcDbEntity
  8
MAIN0
  6
CONTINUOUS
 62
3
100
AcDbDimension
  2
*D22
 10
525.1426731788362
 20
289.8946077490155
 30
0.0000000000000000
 11
535.1426731788362
 21
290.3946077490155
 31
0.0000000000000000
 70
32
  1
\A1;\U+220520
  3
MAIN001
100
AcDbAlignedDimension
 13
545.1426731788362
 23
319.8531929076988
 33
0.0000000000000000
 14
525.1426731788362
 24
319.8531929076988
 34
0.0000000000000000
100
AcDbRotatedDimension
1001
ACAD
1000
DSTYLE
1002
{
1070
   173
1070
     1
1070
     6
1000
_OPEN
1070
     7
1000
_OPEN
1070
    41
1040
3.000000
1002
}
  0
DIMENSION
  5
257
100
AcDbEntity
  8
MAIN0
  6
CONTINUOUS
 62
3
100
AcDbDimension
  2
*D23
 10
554.8911715988976
 20
200.8531929076988
 30
0.0000000000000000
 11
554.3911715988976
 21
193.3531929076988
 31
0.0000000000000000
 70
32
  3
MAIN001
100
AcDbAlignedDimension
 13
541.6426731789420
 23
185.8531929076988
 33
0.0000000000000000
 14
542.3426731789366
 24
200.8531929076988
 34
0.0000000000000000
 50
90.00000000000000
100
AcDbRotatedDimension
1001
ACAD
1000
DSTYLE
1002
{
1070
   173
1070
     1
1070
     6
1000
_OPEN
1070
     7
1000
_OPEN
1070
    41
1040
3.000000
1002
}
  0
DIMENSION
  5
261
100
AcDbEntity
  8
MAIN0
  6
CONTINUOUS
 62
3
100
AcDbDimension
  2
*D24
 10
546.5314591628999
 20
137.6407038821266
 30
0.0000000000000000
 11
557.6477360520692
 21
149.4640875524805
 31
0.0000000000000000
 70
161
  3
MAIN001
100
AcDbAlignedDimension
 13
542.3426731788361
 23
157.3858390522965
 33
0.0000000000000000
 14
534.5644985857867
 24
149.6076644592418
 34
0.0000000000000000
 50
44.99999999999540
1001
ACAD
1000
DSTYLE
1002
{
1070
   173
1070
     1
1070
     6
1000
_OPEN
1070
     7
1000
_OPEN
1070
    41
1040
3.000000
1070
   272
1070
     2
1070
    47
1040
0.000000
1070
    48
1040
0.150000
1070
    71
1070
     1
1070
   340
1005
C0
1002
}
  0
MTEXT
  5
262
100
AcDbEntity
  8
MAIN0
  6
CONTINUOUS
 62
3
100
AcDbMText
 10
391.4356787960994
 20
210.5975921194105
 30
0.0000000000000000
 40
5.000000000000000
 41
0.0000000000000000
 71
     1
 72
     1
  1
{\H0.93x;{KITAGAWA}}
 11
0.5000000000000009
 21
0.8660254037844382
 31
0.0000000000000000
  7
STANDARD
  0
LINE
  5
263
100
AcDbEntity
  8
MAIN0
  6
CONTINUOUS
 62
3
100
AcDbLine
 10
396.6318312188059
 20
207.5975921194105
 30
0.0000000000000000
 11
414.1318312188060
 21
237.9084812518660
 31
0.0000000000000000
  0
MTEXT
  5
264
100
AcDbEntity
  8
MAIN0
  6
CONTINUOUS
 62
3
100
AcDbMText
 10
400.6135660737027
 20
205.4887635394959
 30
0.0000000000000000
 40
2.994604349136353
 41
0.0000000000000000
 71
     1
 72
     1
  1
{\H0.90x;{MAX.3500/min\P}
 11
0.5000000000000009
 21
0.8660254037844382
 31
0.0000000000000000
  7
STANDARD
  0
MTEXT
  5
265
100
AcDbEntity
  8
MAIN0
  6
CONTINUOUS
 62
3
100
AcDbMText
 10
411.7663475586753
 20
208.9113432726780
 30
0.0000000000000000
 40
3.099999904632568
 41
0.0000000000000000
 71
     1
 72
     1
  1
{\H0.92x;{JAPAN}}
 11
0.5000000000000009
 21
0.8660254037844382
 31
0.0000000000000000
  7
STANDARD
  0
LINE
  5
266
100
AcDbEntity
  8
MAIN0
  6
PHANTOM
 62
3
100
AcDbLine
 10
426.7172222356996
 20
224.2914493977669
 30
0.0000000000000000
 11
414.7172222356431
 21
203.5068397069729
 31
0.0000000000000000
  0
LINE
  5
267
100
AcDbEntity
  8
MAIN0
  6
PHANTOM
 62
3
100
AcDbLine
 10
414.7172222356430
 20
203.5068397069730
 30
0.0000000000000000
 11
419.0473492545630
 21
201.0068397069690
 31
0.0000000000000000
  0
LINE
  5
268
100
AcDbEntity
  8
MAIN0
  6
PHANTOM
 62
3
100
AcDbLine
 10
431.0473492546195
 20
221.7914493977629
 30
0.0000000000000000
 11
419.0473492545631
 21
201.0068397069690
 31
0.0000000000000000
  0
LINE
  5
269
100
AcDbEntity
  8
MAIN0
  6
PHANTOM
 62
3
100
AcDbLine
 10
426.7172222356992
 20
224.2914493977671
 30
0.0000000000000000
 11
431.0473492546194
 21
221.7914493977630
 31
0.0000000000000000
  0
MTEXT
  5
26A
100
AcDbEntity
  8
MAIN5
  6
CONTINUOUS
 62
3
100
AcDbMText
 10
386.0838848735332
 20
217.3280131338880
 30
0.0000000000000000
 40
6.000000000000000
 41
0.0000000000000000
 71
     1
 72
     1
  1
{\H0.63x;{JN07-101}}
 11
0.5000000000000009
 21
0.8660254037844382
 31
0.0000000000000000
  7
STANDARD
  0
SPLINE
  5
26B
100
AcDbEntity
  8
MAIN0
  6
CONTINUOUS
 62
3
100
AcDbSpline
210
0.0000000000000000
220
0.0000000000000000
230
1.000000000000000
 70
     8
 71
     3
 72
    16
 73
    12
 74
     0
 42
1.000000000000000e-007
 43
1.000000000000000e-007
 12
0.2786683433498389
 22
-0.9633024348684103
 32
0.0000000000000000
 13
-0.2058094552820542
 23
-0.9778272614550350
 33
0.0000000000000000
 40
0.0000000000000000
 40
0.0000000000000000
 40
0.0000000000000000
 40
0.0000000000000000
 40
17.53540296516716
 40
38.28364949870274
 40
46.18934364912369
 40
60.76672338623695
 40
71.07448745028110
 40
126.3012925362174
 40
141.3012925362174
 40
157.1126808370593
 40
195.9231175777094
 40
195.9231175777094
 40
195.9231175777094
 40
195.9231175777094
 10
118.2241545690331
 20
350.7530366856385
 30
0.0000000000000000
 10
119.8530084671248
 20
345.1224045613903
 30
0.0000000000000000
 10
123.4091555281880
 20
332.8294936354738
 30
0.0000000000000000
 10
124.3267340430499
 20
317.3763822074982
 30
0.0000000000000000
 10
128.4725412149588
 20
303.4114686525784
 30
0.0000000000000000
 10
136.2342001709568
 20
295.0182014566674
 30
0.0000000000000000
 10
140.9304704105258
 20
268.2051913599223
 30
0.0000000000000000
 10
142.0203296255851
 20
241.9312466955654
 30
0.0000000000000000
 10
144.4910549251413
 20
212.7633976472601
 30
0.0000000000000000
 10
134.6339022034173
 20
191.2065742422992
 30
0.0000000000000000
 10
130.8866728506504
 20
173.4030043769664
 30
0.0000000000000000
 10
128.2241545690331
 20
160.7530366856385
 30
0.0000000000000000
  0
LINE
  5
26C
100
AcDbEntity
  8
MAIN0
  6
CONTINUOUS
 62
3
100
AcDbLine
 10
186.7741960980674
 20
162.3530366856385
 30
0.0000000000000000
 11
186.7741960979880
 21
349.1530366856385
 31
0.0000000000000000
  0
LINE
  5
26D
100
AcDbEntity
  8
MAIN0
  6
CONTINUOUS
 62
3
100
AcDbLine
 10
186.7741960980674
 20
162.3530366856385
 30
0.0000000000000000
 11
185.1741960980681
 21
160.7530366856385
 31
0.0000000000000000
  0
DIMENSION
  5
275
100
AcDbEntity
  8
MAIN0
  6
CONTINUOUS
 62
3
100
AcDbDimension
  2
*D25
 10
217.7741960980232
 20
275.7530366856385
 30
0.0000000000000000
 11
208.2241545690331
 21
276.5030366856385
 31
0.0000000000000000
 70
160
  3
MAIN001
100
AcDbAlignedDimension
 13
186.7741960980674
 23
162.3530366856385
 33
0.0000000000000000
 14
217.7741960980232
 24
266.4030366856385
 34
0.0000000000000000
100
AcDbRotatedDimension
1001
ACAD
1000
DSTYLE
1002
{
1070
   173
1070
     1
1070
     6
1000
_OPEN
1070
     7
1000
_OPEN
1070
    41
1040
3.000000
1002
}
  0
DIMENSION
  5
27E
100
AcDbEntity
  8
MAIN0
  6
CONTINUOUS
 62
3
100
AcDbDimension
  2
*D26
 10
186.7741960980674
 20
365.7530366856385
 30
0.0000000000000000
 11
163.0241960980263
 21
366.2530366856385
 31
0.0000000000000000
 70
32
  3
MAIN001
100
AcDbAlignedDimension
 13
139.2741960979852
 23
355.7530366856368
 33
0.0000000000000000
 14
186.7741960979880
 24
349.1530366856385
 34
0.0000000000000000
100
AcDbRotatedDimension
1001
ACAD
1000
DSTYLE
1002
{
1070
   173
1070
     1
1070
     6
1000
_OPEN
1070
     7
1000
_OPEN
1070
    41
1040
3.000000
1002
}
  0
DIMENSION
  5
287
100
AcDbEntity
  8
MAIN0
  6
CONTINUOUS
 62
3
100
AcDbDimension
  2
*D27
 10
139.2741960979852
 20
365.7530366856385
 30
0.0000000000000000
 11
125.5241960979866
 21
366.2530366856385
 31
0.0000000000000000
 70
32
  3
MAIN001
100
AcDbAlignedDimension
 13
111.7741960979880
 23
349.1530366856385
 33
0.0000000000000000
 14
139.2741960979852
 24
355.7530366856368
 34
0.0000000000000000
100
AcDbRotatedDimension
1001
ACAD
1000
DSTYLE
1002
{
1070
   173
1070
     1
1070
     6
1000
_OPEN
1070
     7
1000
_OPEN
1070
    41
1040
3.000000
1002
}
  0
LINE
  5
288
100
AcDbEntity
  8
MAIN0
  6
HIDDEN
 62
3
100
AcDbLine
 10
186.7741960980159
 20
283.2530366856385
 30
0.0000000000000000
 11
138.2241545690332
 21
283.2530366856385
 31
0.0000000000000000
  0
LINE
  5
289
100
AcDbEntity
  8
MAIN0
  6
HIDDEN
 62
3
100
AcDbLine
 10
186.7741960980394
 20
228.2530366856385
 30
0.0000000000000000
 11
143.2241545690331
 21
228.2530366856385
 31
0.0000000000000000
  0
LINE
  5
28A
100
AcDbEntity
  8
MAIN0
  6
HIDDEN
 62
3
100
AcDbLine
 10
129.7741960980421
 20
227.9030366856385
 30
0.0000000000000000
 11
130.1741960980421
 21
227.5030366856385
 31
0.0000000000000000
  0
LINE
  5
28B
100
AcDbEntity
  8
MAIN0
  6
HIDDEN
 62
3
100
AcDbLine
 10
130.1741960980421
 20
227.5030366856385
 30
0.0000000000000000
 11
139.7741960980421
 21
227.5030366856385
 31
0.0000000000000000
  0
LINE
  5
28C
100
AcDbEntity
  8
MAIN0
  6
HIDDEN
 62
3
100
AcDbLine
 10
139.7741960980421
 20
227.5030366856385
 30
0.0000000000000000
 11
139.7741960980421
 21
216.5030366856385
 31
0.0000000000000000
  0
LINE
  5
28D
100
AcDbEntity
  8
MAIN0
  6
HIDDEN
 62
3
100
AcDbLine
 10
139.7741960980421
 20
216.5030366856385
 30
0.0000000000000000
 11
130.1741960980421
 21
216.5030366856385
 31
0.0000000000000000
  0
LINE
  5
28E
100
AcDbEntity
  8
MAIN0
  6
HIDDEN
 62
3
100
AcDbLine
 10
130.1741960980421
 20
216.5030366856385
 30
0.0000000000000000
 11
129.7741960980421
 21
216.1030366856385
 31
0.0000000000000000
  0
LINE
  5
28F
100
AcDbEntity
  8
MAIN0
  6
HIDDEN
 62
3
100
AcDbLine
 10
139.7741960980421
 20
225.3030366856385
 30
0.0000000000000000
 11
143.4433965218253
 21
225.3030366856385
 31
0.0000000000000000
  0
LINE
  5
290
100
AcDbEntity
  8
MAIN0
  6
HIDDEN
 62
3
100
AcDbLine
 10
139.7741960980421
 20
218.7030366856385
 30
0.0000000000000000
 11
143.6806797052652
 21
218.7030366856385
 31
0.0000000000000000
  0
LINE
  5
291
100
AcDbEntity
  8
MAIN0
  6
HIDDEN
 62
3
100
AcDbLine
 10
139.7741960980421
 20
227.0030366856385
 30
0.0000000000000000
 11
134.3741960980421
 21
227.0030366856385
 31
0.0000000000000000
  0
LINE
  5
292
100
AcDbEntity
  8
MAIN0
  6
HIDDEN
 62
3
100
AcDbLine
 10
134.3741960980421
 20
227.0030366856385
 30
0.0000000000000000
 11
133.7741960980421
 21
225.9638062010971
 31
0.0000000000000000
  0
LINE
  5
293
100
AcDbEntity
  8
MAIN0
  6
HIDDEN
 62
3
100
AcDbLine
 10
133.7741960980421
 20
225.9638062010972
 30
0.0000000000000000
 11
133.7741960980421
 21
218.0422671701798
 31
0.0000000000000000
  0
LINE
  5
294
100
AcDbEntity
  8
MAIN0
  6
HIDDEN
 62
3
100
AcDbLine
 10
133.7741960980421
 20
218.0422671701798
 30
0.0000000000000000
 11
134.3741960980421
 21
217.0030366856385
 31
0.0000000000000000
  0
LINE
  5
295
100
AcDbEntity
  8
MAIN0
  6
HIDDEN
 62
3
100
AcDbLine
 10
134.3741960980421
 20
217.0030366856385
 30
0.0000000000000000
 11
139.7741960980421
 21
217.0030366856385
 31
0.0000000000000000
  0
LINE
  5
296
100
AcDbEntity
  8
MAIN0
  6
HIDDEN
 62
3
100
AcDbLine
 10
134.3741960980421
 20
227.0030366856385
 30
0.0000000000000000
 11
134.3741960980421
 21
217.0030366856385
 31
0.0000000000000000
  0
LINE
  5
297
100
AcDbEntity
  8
MAIN0
  6
HIDDEN
 62
3
100
AcDbLine
 10
139.7741960980421
 20
225.0030366856385
 30
0.0000000000000000
 11
143.4640594404322
 21
225.0030366856385
 31
0.0000000000000000
  0
LINE
  5
298
100
AcDbEntity
  8
MAIN0
  6
HIDDEN
 62
3
100
AcDbLine
 10
143.6841335377669
 20
219.0030366856385
 30
0.0000000000000000
 11
139.7741960980421
 21
219.0030366856385
 31
0.0000000000000000
  0
LINE
  5
299
100
AcDbEntity
  8
MAIN0
  6
HIDDEN
 62
3
100
AcDbLine
 10
139.7741960980421
 20
224.4617706856385
 30
0.0000000000000000
 11
143.4999444340260
 21
224.4617706856385
 31
0.0000000000000000
  0
LINE
  5
29A
100
AcDbEntity
  8
MAIN0
  6
HIDDEN
 62
3
100
AcDbLine
 10
139.7741960980421
 20
219.5443026856385
 30
0.0000000000000000
 11
143.6858948536082
 21
219.5443026856385
 31
0.0000000000000000
  0
CIRCLE
  5
29B
100
AcDbEntity
  8
MAIN0
  6
HIDDEN
 62
3
100
AcDbCircle
 10
333.7241545690331
 20
339.0504105938236
 30
0.0000000000000000
 40
4.000000000000000
  0
CIRCLE
  5
29C
100
AcDbEntity
  8
MAIN0
  6
HIDDEN
 62
3
100
AcDbCircle
 10
333.7241545690331
 20
339.0504105938236
 30
0.0000000000000000
 40
3.400000000000000
  0
LINE
  5
29D
100
AcDbEntity
  8
MAIN0
  6
CONTINUOUS
 62
3
100
AcDbLine
 10
208.2741960980449
 20
212.6530366856272
 30
0.0000000000000000
 11
207.4741960980449
 21
214.1898223872042
 31
0.0000000000000000
  0
LINE
  5
29E
100
AcDbEntity
  8
MAIN0
  6
CONTINUOUS
 62
3
100
AcDbLine
 10
207.4741960980449
 20
214.1898223872041
 30
0.0000000000000000
 11
207.4741960980449
 21
215.0530366856272
 31
0.0000000000000000
  0
LINE
  5
29F
100
AcDbEntity
  8
MAIN0
  6
CONTINUOUS
 62
3
100
AcDbLine
 10
208.6741960980449
 20
216.2530366856272
 30
0.0000000000000000
 11
209.8532139710737
 21
216.2530366856272
 31
0.0000000000000000
  0
LINE
  5
2A0
100
AcDbEntity
  8
MAIN0
  6
CONTINUOUS
 62
3
100
AcDbLine
 10
209.8532139710737
 20
216.2530366856272
 30
0.0000000000000000
 11
211.7741960980449
 21
215.2530366856272
 31
0.0000000000000000
  0
ARC
  5
2A1
100
AcDbEntity
  8
MAIN0
  6
CONTINUOUS
 62
3
100
AcDbCircle
 10
208.6741960980449
 20
215.0530366856272
 30
0.0000000000000000
 40
1.200000000000000
100
AcDbArc
 50
90.00000000000000
 51
180.0000000000000
  0
LINE
  5
2A2
100
AcDbEntity
  8
MAIN0
  6
HIDDEN
 62
3
100
AcDbLine
 10
186.7741960980367
 20
331.6530366856385
 30
0.0000000000000000
 11
186.1741960980367
 21
332.2530366856385
 31
0.0000000000000000
  0
LINE
  5
2A3
100
AcDbEntity
  8
MAIN0
  6
HIDDEN
 62
3
100
AcDbLine
 10
186.1741960980367
 20
332.2530366856385
 30
0.0000000000000000
 11
174.7741960980367
 21
332.2530366856385
 31
0.0000000000000000
  0
LINE
  5
2A4
100
AcDbEntity
  8
MAIN0
  6
HIDDEN
 62
3
100
AcDbLine
 10
174.7741960980367
 20
332.2530366856385
 30
0.0000000000000000
 11
174.7741960980367
 21
349.2530366856385
 31
0.0000000000000000
  0
LINE
  5
2A5
100
AcDbEntity
  8
MAIN0
  6
HIDDEN
 62
3
100
AcDbLine
 10
174.7741960980367
 20
349.2530366856385
 30
0.0000000000000000
 11
186.1741960980367
 21
349.2530366856385
 31
0.0000000000000000
  0
LINE
  5
2A6
100
AcDbEntity
  8
MAIN0
  6
HIDDEN
 62
3
100
AcDbLine
 10
186.1741960980367
 20
349.2530366856385
 30
0.0000000000000000
 11
186.4241960980123
 21
349.5030366856140
 31
0.0000000000000000
  0
CIRCLE
  5
2A7
100
AcDbEntity
  8
MAIN0
  6
CONTINUOUS
 62
3
100
AcDbCircle
 10
433.2241545690331
 20
255.7530366856385
 30
0.0000000000000000
 40
8.500000000000000
  0
CIRCLE
  5
2A8
100
AcDbEntity
  8
MAIN0
  6
CONTINUOUS
 62
3
100
AcDbCircle
 10
305.7241545690331
 20
182.1408773639611
 30
0.0000000000000000
 40
8.500000000000000
  0
CIRCLE
  5
2A9
100
AcDbEntity
  8
MAIN0
  6
CONTINUOUS
 62
3
100
AcDbCircle
 10
305.7241545690332
 20
329.3651960073157
 30
0.0000000000000000
 40
8.500000000000000
  0
MTEXT
  5
2AA
100
AcDbEntity
  8
E0
  6
CONTINUOUS
 62
3
100
AcDbMText
 10
100.1468105877295
 20
96.28762721353454
 30
0.0000000000000000
 40
4.649999856948853
 41
0.0000000000000000
 71
     1
 72
     1
  1
{\H0.84x;{107.9}}
 11
1.000000000000000
 21
0.0000000000000000
 31
0.0000000000000000
  7
STANDARD
  0
MTEXT
  5
2AB
100
AcDbEntity
  8
E0
  6
CONTINUOUS
 62
3
100
AcDbMText
 10
104.6468105877295
 20
89.53762721353454
 30
0.0000000000000000
 40
4.649999856948853
 41
0.0000000000000000
 71
     1
 72
     1
  1
{\H0.81x;{11.0}}
 11
1.000000000000000
 21
0.0000000000000000
 31
0.0000000000000000
  7
STANDARD
  0
MTEXT
  5
2AC
100
AcDbEntity
  8
E0
  6
CONTINUOUS
 62
3
100
AcDbMText
 10
100.1468105877295
 20
81.28762721353442
 30
0.0000000000000000
 40
4.649999856948853
 41
0.0000000000000000
 71
     1
 72
     1
  1
{\H0.88x;{31}}
 11
1.000000000000000
 21
0.0000000000000000
 31
0.0000000000000000
  7
STANDARD
  0
MTEXT
  5
2AD
100
AcDbEntity
  8
E0
  6
CONTINUOUS
 62
3
100
AcDbMText
 10
104.6468105877295
 20
74.53762721353442
 30
0.0000000000000000
 40
4.649999856948853
 41
0.0000000000000000
 71
     1
 72
     1
  1
{\H0.91x;{3161}}
 11
1.000000000000000
 21
0.0000000000000000
 31
0.0000000000000000
  7
STANDARD
  0
MTEXT
  5
2AE
100
AcDbEntity
  8
E0
  6
CONTINUOUS
 62
3
100
AcDbMText
 10
100.1468105877295
 20
50.03762721353443
 30
0.0000000000000000
 40
4.649999856948853
 41
0.0000000000000000
 71
     1
 72
     1
  1
{\H0.81x;{12.2}}
 11
1.000000000000000
 21
0.0000000000000000
 31
0.0000000000000000
  7
STANDARD
  0
MTEXT
  5
2AF
100
AcDbEntity
  8
E0
  6
CONTINUOUS
 62
3
100
AcDbMText
 10
100.1468105877295
 20
37.03762721348338
 30
0.0000000000000000
 40
4.649999856948853
 41
0.0000000000000000
 71
     1
 72
     1
  1
{\H0.81x;{0.06}}
 11
1.000000000000000
 21
0.0000000000000000
 31
0.0000000000000000
  7
STANDARD
  0
MTEXT
  5
2B0
100
AcDbEntity
  8
E0
  6
CONTINUOUS
 62
3
100
AcDbMText
 10
100.1468105876861
 20
24.53762721352953
 30
0.0000000000000000
 40
4.649999856948853
 41
0.0000000000000000
 71
     1
 72
     1
  1
{\H0.93x;{\U+22054～\U+2205180}}
 11
1.000000000000000
 21
0.0000000000000000
 31
0.0000000000000000
  7
KNJYOKO
  0
MTEXT
  5
2B1
100
AcDbEntity
  8
E0
  6
CONTINUOUS
 62
3
100
AcDbMText
 10
100.1468105876861
 20
14.03762721352950
 30
0.0000000000000000
 40
4.649999856948853
 41
0.0000000000000000
 71
     1
 72
     1
  1
{\H0.93x;{\U+220556～\U+2205170}}
 11
1.000000000000000
 21
0.0000000000000000
 31
0.0000000000000000
  7
KNJYOKO
  0
MTEXT
  5
2B2
100
AcDbEntity
  8
E0
  6
CONTINUOUS
 62
3
100
AcDbMText
 10
25.89681058773134
 20
40.66262792879527
 30
0.0000000000000000
 40
4.650000572204590
 41
0.0000000000000000
 71
     1
 72
     1
  1
{\H0.94x;{慣性モーメント}}
 11
1.000000000000000
 21
0.0000000000000000
 31
0.0000000000000000
  7
KNJYOKO
  0
MTEXT
  5
2B3
100
AcDbEntity
  8
E0
  6
CONTINUOUS
 62
3
100
AcDbMText
 10
25.89681058772906
 20
33.01262592606932
 30
0.0000000000000000
 40
3.749998569488525
 41
0.0000000000000000
 71
     1
 72
     1
  1
{\H0.75x;{MOMENT OF INERTIA}}
 11
1.000000000000000
 21
0.0000000000000000
 31
0.0000000000000000
  7
STANDARD
  0
MTEXT
  5
2B4
100
AcDbEntity
  8
E0
  6
CONTINUOUS
 62
3
100
AcDbMText
 10
125.2587189874569
 20
35.44179687758324
 30
0.0000000000000000
 40
3.000000000000000
 41
0.0000000000000000
 71
     1
 72
     1
  1
{\H0.92x;{ｋｇ・ｍ}}
 11
1.000000000000000
 21
0.0000000000000000
 31
0.0000000000000000
  7
KNJYOKO
  0
MTEXT
  5
2B5
100
AcDbEntity
  8
E0
  6
CONTINUOUS
 62
3
100
AcDbMText
 10
138.1658820333887
 20
37.22380152392364
 30
0.0000000000000000
 40
2.099999964237213
 41
0.0000000000000000
 71
     1
 72
     1
  1
{\H0.82x;{2}}
 11
1.000000000000000
 21
0.0000000000000000
 31
0.0000000000000000
  7
STANDARD
  0
MTEXT
  5
2B6
100
AcDbEntity
  8
E0
  6
CONTINUOUS
 62
3
100
AcDbMText
 10
22.21472447918946
 20
4.758004860820620
 30
0.0000000000000000
 40
4.650000572204590
 41
0.0000000000000000
 71
     1
 72
     1
  1
{\H0.95x;{○上記仕様は許容最大ハンドルトルク締込時の場合}}
 11
1.000000000000000
 21
0.0000000000000000
 31
0.0000000000000000
  7
KNJYOKO
  0
MTEXT
  5
2B7
100
AcDbEntity
  8
E0
  6
CONTINUOUS
 62
3
100
AcDbMText
 10
27.98385208927824
 20
-2.820776331324737
 30
0.0000000000000000
 40
4.649999856948853
 41
0.0000000000000000
 71
     1
 72
     1
  1
{\H0.69x;{AT MAX.PERMISSIBLE HANDLE TORQUE.}}
 11
1.000000000000000
 21
0.0000000000000000
 31
0.0000000000000000
  7
STANDARD
  0
MTEXT
  5
2B8
100
AcDbEntity
  8
E0
  6
CONTINUOUS
 62
3
100
AcDbMText
 10
52.61048070373450
 20
26.86423748136454
 30
0.0000000000000000
 40
3.750000000000000
 41
0.0000000000000000
 71
     1
 72
     1
  1
{\H0.63x;{EXTERNAL\PGRIPPING}}
 11
1.000000000000000
 21
0.0000000000000000
 31
0.0000000000000000
  7
STANDARD
  0
MTEXT
  5
2B9
100
AcDbEntity
  8
E0
  6
CONTINUOUS
 62
3
100
AcDbMText
 10
52.53286656095823
 20
16.23115885802667
 30
0.0000000000000000
 40
3.750000000000000
 41
0.0000000000000000
 71
     1
 72
     1
  1
{\H0.63x;{INTERNALLY\PGRIPPING}}
 11
1.000000000000000
 21
0.0000000000000000
 31
0.0000000000000000
  7
STANDARD
  0
LINE
  5
2BA
100
AcDbEntity
  8
E0
  6
CONTINUOUS
 62
3
100
AcDbLine
 10
22.14681058772957
 20
6.387627356580651
 30
0.0000000000000000
 11
142.1468105877295
 21
6.387627356580737
 31
0.0000000000000000
  0
LINE
  5
2BB
100
AcDbEntity
  8
E0
  6
CONTINUOUS
 62
3
100
AcDbLine
 10
51.39681058772949
 20
6.387627356580651
 30
0.0000000000000000
 11
51.39681058772949
 21
27.38762735658068
 31
0.0000000000000000
  0
MTEXT
  5
2BC
100
AcDbEntity
  8
E0
  6
CONTINUOUS
 62
3
100
AcDbMText
 10
75.97221096481742
 20
24.58207516558971
 30
0.0000000000000000
 40
4.649999856948853
 41
0.0000000000000000
 71
     1
 72
     1
  1
{\H0.92x;{外径把握}}
 11
1.000000000000000
 21
0.0000000000000000
 31
0.0000000000000000
  7
KNJYOKO
  0
MTEXT
  5
2BD
100
AcDbEntity
  8
E0
  6
CONTINUOUS
 62
3
100
AcDbMText
 10
75.97221096481742
 20
13.87138239947558
 30
0.0000000000000000
 40
4.649999856948853
 41
0.0000000000000000
 71
     1
 72
     1
  1
{\H0.92x;{内径把握}}
 11
1.000000000000000
 21
0.0000000000000000
 31
0.0000000000000000
  7
KNJYOKO
  0
MTEXT
  5
2BE
100
AcDbEntity
  8
E0
  6
CONTINUOUS
 62
3
100
AcDbMText
 10
34.83693778061213
 20
11.93626609922433
 30
0.0000000000000000
 40
4.500000000000000
 41
0.0000000000000000
 71
     1
 72
     1
  1
{\H0.63x;{(mm)}}
 11
1.000000000000000
 21
0.0000000000000000
 31
0.0000000000000000
  7
STANDARD
  0
MTEXT
  5
2BF
100
AcDbEntity
  8
E0
  6
CONTINUOUS
 62
3
100
AcDbMText
 10
25.89681058773108
 20
66.16262721357671
 30
0.0000000000000000
 40
4.649999856948853
 41
0.0000000000000000
 71
     1
 72
     1
  1
{\H0.94x;{許容最高回転速度　}}
 11
1.000000000000000
 21
0.0000000000000000
 31
0.0000000000000000
  7
KNJYOKO
  0
MTEXT
  5
2C0
100
AcDbEntity
  8
E0
  6
CONTINUOUS
 62
3
100
AcDbMText
 10
100.1468105877295
 20
60.88762735658558
 30
0.0000000000000000
 40
4.649999856948853
 41
0.0000000000000000
 71
     7
 72
     1
  1
{3500 min}
 11
1.000000000000000
 21
0.0000000000000000
 31
0.0000000000000000
  7
STANDARD
  0
MTEXT
  5
2C1
100
AcDbEntity
  8
E0
  6
CONTINUOUS
 62
3
100
AcDbMText
 10
133.4368115628615
 20
63.21262728506000
 30
0.0000000000000000
 40
2.324999928474426
 41
0.0000000000000000
 71
     7
 72
     1
  1
{-1}
 11
1.000000000000000
 21
0.0000000000000000
 31
0.0000000000000000
  7
STANDARD
  0
MTEXT
  5
2C2
100
AcDbEntity
  8
E0
  6
CONTINUOUS
 62
3
100
AcDbMText
 10
119.4927368165375
 20
59.97755451234961
 30
0.0000000000000000
 40
4.649999856948853
 41
0.0000000000000000
 71
     1
 72
     1
  1
{\H0.92x;{(rpm)}}
 11
1.000000000000000
 21
0.0000000000000000
 31
0.0000000000000000
  7
STANDARD
  0
LINE
  5
2C3
100
AcDbEntity
  8
E0
  6
CONTINUOUS
 62
3
100
AcDbLine
 10
51.39681058772962
 20
16.88762735658074
 30
0.0000000000000000
 11
142.1468105877294
 21
16.88762735658082
 31
0.0000000000000000
  0
LINE
  5
2C4
100
AcDbEntity
  8
E0
  6
CONTINUOUS
 62
3
100
AcDbLine
 10
22.14681058772937
 20
108.8876273566382
 30
0.0000000000000000
 11
142.1468105877295
 21
108.8876273566746
 31
0.0000000000000000
  0
LINE
  5
2C5
100
AcDbEntity
  8
E0
  6
CONTINUOUS
 62
3
100
AcDbLine
 10
22.14681058772936
 20
98.38762735663536
 30
0.0000000000000000
 11
142.1468105877293
 21
98.38762735666964
 31
0.0000000000000000
  0
LINE
  5
2C6
100
AcDbEntity
  8
E0
  6
CONTINUOUS
 62
3
100
AcDbLine
 10
22.14681058772939
 20
83.38762735662530
 30
0.0000000000000000
 11
142.1468105877294
 21
83.38762735665259
 31
0.0000000000000000
  0
LINE
  5
2C7
100
AcDbEntity
  8
E0
  6
CONTINUOUS
 62
3
100
AcDbLine
 10
22.14681058772921
 20
68.38762735662095
 30
0.0000000000000000
 11
142.1468105877292
 21
68.38762735664523
 31
0.0000000000000000
  0
LINE
  5
2C8
100
AcDbEntity
  8
E0
  6
CONTINUOUS
 62
3
100
AcDbLine
 10
22.14681058772931
 20
52.88762735661795
 30
0.0000000000000000
 11
142.1468105877294
 21
52.88762735664020
 31
0.0000000000000000
  0
LINE
  5
2C9
100
AcDbEntity
  8
E0
  6
CONTINUOUS
 62
3
100
AcDbLine
 10
22.14681058772933
 20
42.38762735661501
 30
0.0000000000000000
 11
142.1468105877296
 21
42.38762735663514
 31
0.0000000000000000
  0
LINE
  5
2CA
100
AcDbEntity
  8
E0
  6
CONTINUOUS
 62
3
100
AcDbLine
 10
22.14681058772958
 20
27.38762735658079
 30
0.0000000000000000
 11
142.1468105877294
 21
27.38762735658084
 31
0.0000000000000000
  0
LINE
  5
2CB
100
AcDbEntity
  8
E0
  6
CONTINUOUS
 62
3
100
AcDbLine
 10
22.14681058772949
 20
6.387627356580651
 30
0.0000000000000000
 11
22.14681058772949
 21
108.8876273565857
 31
0.0000000000000000
  0
LINE
  5
2CC
100
AcDbEntity
  8
E0
  6
CONTINUOUS
 62
3
100
AcDbLine
 10
97.14681058772949
 20
6.387627356580651
 30
0.0000000000000000
 11
97.14681058772949
 21
98.38762735665628
 31
0.0000000000000000
  0
LINE
  5
2CD
100
AcDbEntity
  8
E0
  6
CONTINUOUS
 62
3
100
AcDbLine
 10
142.1468105877295
 20
6.387627356580651
 30
0.0000000000000000
 11
142.1468105877295
 21
108.8876273565857
 31
0.0000000000000000
  0
MTEXT
  5
2CE
100
AcDbEntity
  8
E0
  6
CONTINUOUS
 62
3
100
AcDbMText
 10
25.89681058773120
 20
96.66262792883984
 30
0.0000000000000000
 40
4.650000572204590
 41
0.0000000000000000
 71
     1
 72
     1
  1
{\H0.94x;{許容最大ハンドルトルク}}
 11
1.000000000000000
 21
0.0000000000000000
 31
0.0000000000000000
  7
KNJYOKO
  0
MTEXT
  5
2CF
100
AcDbEntity
  8
E0
  6
CONTINUOUS
 62
3
100
AcDbMText
 10
25.89681058773108
 20
81.66262792883552
 30
0.0000000000000000
 40
4.650000572204590
 41
0.0000000000000000
 71
     1
 72
     1
  1
{\H0.94x;{最大静的把握力}}
 11
1.000000000000000
 21
0.0000000000000000
 31
0.0000000000000000
  7
KNJYOKO
  0
MTEXT
  5
2D0
100
AcDbEntity
  8
E0
  6
CONTINUOUS
 62
3
100
AcDbMText
 10
25.14681058772949
 20
50.03762792881961
 30
0.0000000000000000
 40
4.650000572204590
 41
0.0000000000000000
 71
     1
 72
     1
  1
{\H0.90x;{質量}}
 11
1.000000000000000
 21
0.0000000000000000
 31
0.0000000000000000
  7
KNJYOKO
  0
MTEXT
  5
2D1
100
AcDbEntity
  8
E0
  6
CONTINUOUS
 62
3
100
AcDbMText
 10
26.99877755277710
 20
25.62094122003330
 30
0.0000000000000000
 40
4.650000572204590
 41
0.0000000000000000
 71
     1
 72
     1
  1
{\H0.96x;{把握径}}
 11
1.000000000000000
 21
0.0000000000000000
 31
0.0000000000000000
  7
KNJYOKO
  0
MTEXT
  5
2D2
100
AcDbEntity
  8
E0
  6
CONTINUOUS
 62
3
100
AcDbMText
 10
30.64581159912969
 20
107.1860445488409
 30
0.0000000000000000
 40
7.500000000000000
 41
0.0000000000000000
 71
     1
 72
     1
  1
{\H0.91x;{仕　様}}
 11
1.000000000000000
 21
0.0000000000000000
 31
0.0000000000000000
  7
KNJYOKO
  0
MTEXT
  5
2D3
100
AcDbEntity
  8
E0
  6
CONTINUOUS
 62
3
100
AcDbMText
 10
119.6468105877295
 20
94.33762621217650
 30
0.0000000000000000
 40
4.199998855590820
 41
0.0000000000000000
 71
     1
 72
     1
  1
{\H0.58x;{　　　Ｎ・ｍ}}
 11
1.000000000000000
 21
0.0000000000000000
 31
0.0000000000000000
  7
KNJYOKO
  0
MTEXT
  5
2D4
100
AcDbEntity
  8
E0
  6
CONTINUOUS
 62
3
100
AcDbMText
 10
100.1468105877295
 20
88.33762621217650
 30
0.0000000000000000
 40
4.199998855590820
 41
0.0000000000000000
 71
     1
 72
     1
  1
{\H0.48x;{（}}
 11
1.000000000000000
 21
0.0000000000000000
 31
0.0000000000000000
  7
KNJYOKO
  0
MTEXT
  5
2D5
100
AcDbEntity
  8
E0
  6
CONTINUOUS
 62
3
100
AcDbMText
 10
118.1468105877295
 20
88.33762621217650
 30
0.0000000000000000
 40
4.199998855590820
 41
0.0000000000000000
 71
     1
 72
     1
  1
{\H0.58x;{　ｋｇｆ・ｍ）}}
 11
1.000000000000000
 21
0.0000000000000000
 31
0.0000000000000000
  7
KNJYOKO
  0
MTEXT
  5
2D6
100
AcDbEntity
  8
E0
  6
CONTINUOUS
 62
3
100
AcDbMText
 10
119.6468105877295
 20
48.08762621217639
 30
0.0000000000000000
 40
4.199998855590820
 41
0.0000000000000000
 71
     1
 72
     1
  1
{\H0.58x;{　　　　ｋｇ}}
 11
1.000000000000000
 21
0.0000000000000000
 31
0.0000000000000000
  7
KNJYOKO
  0
MTEXT
  5
2D7
100
AcDbEntity
  8
E0
  6
CONTINUOUS
 62
3
100
AcDbMText
 10
119.6468105877295
 20
79.33762621217639
 30
0.0000000000000000
 40
4.199998855590820
 41
0.0000000000000000
 71
     1
 72
     1
  1
{\H0.58x;{　　　　ｋＮ}}
 11
1.000000000000000
 21
0.0000000000000000
 31
0.0000000000000000
  7
KNJYOKO
  0
MTEXT
  5
2D8
100
AcDbEntity
  8
E0
  6
CONTINUOUS
 62
3
100
AcDbMText
 10
100.1468105877295
 20
73.33762621217639
 30
0.0000000000000000
 40
4.199998855590820
 41
0.0000000000000000
 71
     1
 72
     1
  1
{\H0.48x;{（}}
 11
1.000000000000000
 21
0.0000000000000000
 31
0.0000000000000000
  7
KNJYOKO
  0
MTEXT
  5
2D9
100
AcDbEntity
  8
E0
  6
CONTINUOUS
 62
3
100
AcDbMText
 10
118.1468105877295
 20
73.33762621217639
 30
0.0000000000000000
 40
4.199998855590820
 41
0.0000000000000000
 71
     1
 72
     1
  1
{\H0.58x;{　　　ｋｇｆ）}}
 11
1.000000000000000
 21
0.0000000000000000
 31
0.0000000000000000
  7
KNJYOKO
  0
MTEXT
  5
2DA
100
AcDbEntity
  8
E0
  6
CONTINUOUS
 62
3
100
AcDbMText
 10
69.39552165709615
 20
105.8556375978820
 30
0.0000000000000000
 40
4.649999856948853
 41
0.0000000000000000
 71
     1
 72
     1
  1
{\H0.93x;{SPECIFICATIONS}}
 11
1.000000000000000
 21
0.0000000000000000
 31
0.0000000000000000
  7
STANDARD
  0
MTEXT
  5
2DB
100
AcDbEntity
  8
E0
  6
CONTINUOUS
 62
3
100
AcDbMText
 10
25.89681058772904
 20
89.01262735662547
 30
0.0000000000000000
 40
3.750000000000000
 41
0.0000000000000000
 71
     1
 72
     1
  1
{\H0.62x;{MAX.PERMISSIBLE HANDLE TORQUE}}
 11
1.000000000000000
 21
0.0000000000000000
 31
0.0000000000000000
  7
STANDARD
  0
MTEXT
  5
2DC
100
AcDbEntity
  8
E0
  6
CONTINUOUS
 62
3
100
AcDbMText
 10
25.89681058772904
 20
74.01262735662093
 30
0.0000000000000000
 40
3.750000000000000
 41
0.0000000000000000
 71
     1
 72
     1
  1
{\H0.63x;{MAX STATIC GRIPPING FORCE}}
 11
1.000000000000000
 21
0.0000000000000000
 31
0.0000000000000000
  7
STANDARD
  0
MTEXT
  5
2DD
100
AcDbEntity
  8
E0
  6
CONTINUOUS
 62
3
100
AcDbMText
 10
25.89681058772881
 20
58.51262735661798
 30
0.0000000000000000
 40
3.750000000000000
 41
0.0000000000000000
 71
     1
 72
     1
  1
{\H0.63x;{MAX PREMISSIBLE SPEED}}
 11
1.000000000000000
 21
0.0000000000000000
 31
0.0000000000000000
  7
STANDARD
  0
MTEXT
  5
2DE
100
AcDbEntity
  8
E0
  6
CONTINUOUS
 62
3
100
AcDbMText
 10
23.19978591810362
 20
18.03471444766299
 30
0.0000000000000000
 40
3.750000000000000
 41
0.0000000000000000
 71
     1
 72
     1
  1
{\H0.54x;{GRIPPING RANGE}}
 11
1.000000000000000
 21
0.0000000000000000
 31
0.0000000000000000
  7
STANDARD
  0
MTEXT
  5
2DF
100
AcDbEntity
  8
E0
  6
CONTINUOUS
 62
3
100
AcDbMText
 10
50.50029747077799
 20
50.11080969288290
 30
0.0000000000000000
 40
4.650000572204590
 41
0.0000000000000000
 71
     1
 72
     1
  1
{\H0.91x;{MASS}}
 11
1.000000000000000
 21
0.0000000000000000
 31
0.0000000000000000
  7
STANDARD
  0
LINE
  5
2E0
100
AcDbEntity
  8
WAKU0
  6
CONTINUOUS
 62
3
100
AcDbLine
 10
240.0000000000000
 20
51.00000000000000
 30
0.0000000000000000
 11
410.0000000000000
 21
51.00000000000000
 31
0.0000000000000000
  0
LINE
  5
2E1
100
AcDbEntity
  8
WAKU0
  6
CONTINUOUS
 62
3
100
AcDbLine
 10
240.0000000000000
 20
51.00000000000000
 30
0.0000000000000000
 11
240.0000000000000
 21
12.00000000000000
 31
0.0000000000000000
  0
LINE
  5
2E2
100
AcDbEntity
  8
WAKU0
  6
CONTINUOUS
 62
3
100
AcDbLine
 10
312.0000000000000
 20
51.00000000000000
 30
0.0000000000000000
 11
312.0000000000000
 21
12.00000000000000
 31
0.0000000000000000
  0
LINE
  5
2E3
100
AcDbEntity
  8
WAKU0
  6
CONTINUOUS
 62
3
100
AcDbLine
 10
332.0000000000000
 20
51.00000000000000
 30
0.0000000000000000
 11
332.0000000000000
 21
12.00000000000000
 31
0.0000000000000000
  0
LINE
  5
2E4
100
AcDbEntity
  8
WAKU0
  6
CONTINUOUS
 62
3
100
AcDbLine
 10
344.0000000000000
 20
51.00000000000000
 30
0.0000000000000000
 11
344.0000000000000
 21
12.00000000000000
 31
0.0000000000000000
  0
LINE
  5
2E5
100
AcDbEntity
  8
WAKU0
  6
CONTINUOUS
 62
3
100
AcDbLine
 10
344.0000000000000
 20
37.00000000000000
 30
0.0000000000000000
 11
410.0000000000000
 21
37.00000000000000
 31
0.0000000000000000
  0
LINE
  5
2E6
100
AcDbEntity
  8
WAKU0
  6
CONTINUOUS
 62
3
100
AcDbLine
 10
332.0000000000000
 20
23.00000000000000
 30
0.0000000000000000
 11
410.0000000000000
 21
23.00000000000000
 31
0.0000000000000000
  0
LINE
  5
2E7
100
AcDbEntity
  8
WAKU0
  6
CONTINUOUS
 62
3
100
AcDbLine
 10
375.0000000000000
 20
51.00000000000000
 30
0.0000000000000000
 11
375.0000000000000
 21
44.00000000000000
 31
0.0000000000000000
  0
LINE
  5
2E8
100
AcDbEntity
  8
WAKU0
  6
CONTINUOUS
 62
3
100
AcDbLine
 10
387.0000000000000
 20
51.00000000000000
 30
0.0000000000000000
 11
387.0000000000000
 21
44.00000000000000
 31
0.0000000000000000
  0
LINE
  5
2E9
100
AcDbEntity
  8
WAKU0
  6
CONTINUOUS
 62
3
100
AcDbLine
 10
312.0000000000000
 20
31.50000000000000
 30
0.0000000000000000
 11
332.0000000000000
 21
31.50000000000000
 31
0.0000000000000000
  0
LINE
  5
2EA
100
AcDbEntity
  8
WAKU0
  6
CONTINUOUS
 62
3
100
AcDbLine
 10
332.0000000000000
 20
44.00000000000000
 30
0.0000000000000000
 11
410.0000000000000
 21
44.00000000000000
 31
0.0000000000000000
  0
LINE
  5
2EB
100
AcDbEntity
  8
WAKU0
  6
CONTINUOUS
 62
3
100
AcDbLine
 10
240.0000000000000
 20
37.00000000000000
 30
0.0000000000000000
 11
312.0000000000000
 21
37.00000000000000
 31
0.0000000000000000
  0
LINE
  5
2EC
100
AcDbEntity
  8
WAKU0
  6
CONTINUOUS
 62
3
100
AcDbLine
 10
240.0000000000000
 20
23.00000000000000
 30
0.0000000000000000
 11
312.0000000000000
 21
23.00000000000000
 31
0.0000000000000000
  0
LINE
  5
2ED
100
AcDbEntity
  8
WAKU0
  6
CONTINUOUS
 62
3
100
AcDbLine
 10
288.0000000000000
 20
37.00000000000000
 30
0.0000000000000000
 11
288.0000000000000
 21
12.00000000000000
 31
0.0000000000000000
  0
LINE
  5
2EE
100
AcDbEntity
  8
WAKU0
  6
CONTINUOUS
 62
3
100
AcDbLine
 10
264.0000000000000
 20
37.00000000000000
 30
0.0000000000000000
 11
264.0000000000000
 21
23.00000000000000
 31
0.0000000000000000
  0
LINE
  5
2EF
100
AcDbEntity
  8
WAKU0
  6
CONTINUOUS
 62
3
100
AcDbLine
 10
300.0000000000000
 20
26.00000000000000
 30
0.0000000000000000
 11
300.0000000000000
 21
23.00000000000000
 31
0.0000000000000000
  0
LINE
  5
2F0
100
AcDbEntity
  8
WAKU0
  6
CONTINUOUS
 62
3
100
AcDbLine
 10
276.0000000000000
 20
26.00000000000000
 30
0.0000000000000000
 11
276.0000000000000
 21
23.00000000000000
 31
0.0000000000000000
  0
LINE
  5
2F1
100
AcDbEntity
  8
WAKU0
  6
CONTINUOUS
 62
3
100
AcDbLine
 10
252.0000000000000
 20
26.00000000000000
 30
0.0000000000000000
 11
252.0000000000000
 21
23.00000000000000
 31
0.0000000000000000
  0
LINE
  5
2F2
100
AcDbEntity
  8
WAKU0
  6
CONTINUOUS
 62
3
100
AcDbLine
 10
258.0000000000000
 20
51.00000000000000
 30
0.0000000000000000
 11
258.0000000000000
 21
37.00000000000000
 31
0.0000000000000000
  0
LINE
  5
2F3
100
AcDbEntity
  8
WAKU0
  6
CONTINUOUS
 62
3
100
AcDbLine
 10
240.0000000000000
 20
45.00000000000000
 30
0.0000000000000000
 11
312.0000000000000
 21
45.00000000000000
 31
0.0000000000000000
  0
LINE
  5
2F4
100
AcDbEntity
  8
WAKU0
  6
HIDDEN
 62
3
100
AcDbLine
 10
360.5000000000000
 20
23.00000000000000
 30
0.0000000000000000
 11
360.5000000000000
 21
12.00000000000000
 31
0.0000000000000000
  0
LINE
  5
2F5
100
AcDbEntity
  8
WAKU0
  6
HIDDEN
 62
3
100
AcDbLine
 10
372.9000000000000
 20
23.00000000000000
 30
0.0000000000000000
 11
372.9000000000000
 21
12.00000000000000
 31
0.0000000000000000
  0
MTEXT
  5
2F6
100
AcDbEntity
  8
WAKU0
  6
CONTINUOUS
 62
3
100
AcDbMText
 10
344.4820000243485
 20
49.04999995231628
 30
0.0000000000000000
 40
3.099999904632568
 41
0.0000000000000000
 71
     1
 72
     1
  1
{\H0.93x;{JN07-101}}
 11
1.000000000000000
 21
0.0000000000000000
 31
0.0000000000000000
  7
STANDARD
  0
MTEXT
  5
2F7
100
AcDbEntity
  8
WAKU0
  6
CONTINUOUS
 62
3
100
AcDbMText
 10
344.4659999916852
 20
43.50000000000000
 30
0.0000000000000000
 40
3.000000000000000
 41
0.0000000000000000
 71
     1
 72
     1
  1
{\H0.94x;{スクロールチャック　７　\PＳＣＲＯＬＬ　ＣＨＵＣＫ　７}}
 11
1.000000000000000
 21
0.0000000000000000
 31
0.0000000000000000
  7
KNJYOKO
  0
MTEXT
  5
2F8
100
AcDbEntity
  8
WAKU0
  6
CONTINUOUS
 62
3
100
AcDbMText
 10
344.4000000059605
 20
34.23333326975504
 30
0.0000000000000000
 40
3.099999904632568
 41
0.0000000000000000
 71
     1
 72
     1
  1
{\H0.70x;{ＪＮ０７－１０１　ガイケイ\PＪＮ０７－１０１　ＯＵＴＳＩＤＥ　ＶＩＥＷ}}
 11
1.000000000000000
 21
0.0000000000000000
 31
0.0000000000000000
  7
KNJYOKO
  0
MTEXT
  5
2F9
100
AcDbEntity
  8
WAKU0
  6
CONTINUOUS
 62
3
100
AcDbMText
 10
318.0049998760223
 20
39.29999995231628
 30
0.0000000000000000
 40
3.099999904632568
 41
0.0000000000000000
 71
     1
 72
     1
  1
{\H0.90x;{2:3}}
 11
1.000000000000000
 21
0.0000000000000000
 31
0.0000000000000000
  7
STANDARD
  0
MTEXT
  5
2FA
100
AcDbEntity
  8
WAKU0
  6
CONTINUOUS
 62
3
100
AcDbMText
 10
374.4000001549721
 20
20.15000009536743
 30
0.0000000000000000
 40
5.300000190734863
 41
0.0000000000000000
 71
     1
 72
     1
  1
{\H0.90x;{1397}}
 11
1.000000000000000
 21
0.0000000000000000
 31
0.0000000000000000
  7
STANDARD
  0
MTEXT
  5
2FB
100
AcDbEntity
  8
WAKU0
  6
CONTINUOUS
 62
3
100
AcDbMText
 10
362.3000000834465
 20
20.15000009536743
 30
0.0000000000000000
 40
5.300000190734863
 41
0.0000000000000000
 71
     1
 72
     1
  1
{\H0.87x;{35}}
 11
1.000000000000000
 21
0.0000000000000000
 31
0.0000000000000000
  7
STANDARD
  0
MTEXT
  5
2FC
100
AcDbEntity
  8
WAKU0
  6
CONTINUOUS
 62
3
100
AcDbMText
 10
345.5000001192093
 20
20.15000009536743
 30
0.0000000000000000
 40
5.300000190734863
 41
0.0000000000000000
 71
     1
 72
     1
  1
{\H0.89x;{61S}}
 11
1.000000000000000
 21
0.0000000000000000
 31
0.0000000000000000
  7
STANDARD
  0
MTEXT
  5
2FD
100
AcDbEntity
  8
WAKU0
  6
CONTINUOUS
 62
3
100
AcDbMText
 10
400.0000000476837
 20
20.15000009536743
 30
0.0000000000000000
 40
5.300000190734863
 41
0.0000000000000000
 71
     1
 72
     1
  1
{\H0.81x;{3}}
 11
1.000000000000000
 21
0.0000000000000000
 31
0.0000000000000000
  7
STANDARD
  0
MTEXT
  5
2FE
100
AcDbEntity
  8
WAKU0
  6
CONTINUOUS
 62
3
100
AcDbMText
 10
400.0000000819564
 20
44.84999990463257
 30
0.0000000000000000
 40
5.300000190734863
 41
0.0000000000000000
 71
     7
 72
     1
  1
{\H0.81x;{ }}
 11
1.000000000000000
 21
0.0000000000000000
 31
0.0000000000000000
  7
STANDARD
  0
MTEXT
  5
2FF
100
AcDbEntity
  8
WAKU0
  6
CONTINUOUS
 62
3
100
AcDbMText
 10
289.3850002884865
 20
33.00000000000000
 30
0.0000000000000000
 40
3.000000000000000
 41
0.0000000000000000
 71
     7
 72
     1
  1
{\H0.93x;{DRAWN BY}}
 11
1.000000000000000
 21
0.0000000000000000
 31
0.0000000000000000
  7
STANDARD
  0
MTEXT
  5
300
100
AcDbEntity
  8
WAKU0
  6
CONTINUOUS
 62
3
100
AcDbMText
 10
269.2149997949600
 20
32.95000004768372
 30
0.0000000000000000
 40
3.099999904632568
 41
0.0000000000000000
 71
     7
 72
     1
  1
{\H0.92x;{CHIEF}}
 11
1.000000000000000
 21
0.0000000000000000
 31
0.0000000000000000
  7
STANDARD
  0
MTEXT
  5
301
100
AcDbEntity
  8
WAKU0
  6
CONTINUOUS
 62
3
100
AcDbMText
 10
242.4249997138977
 20
32.95000004768372
 30
0.0000000000000000
 40
3.099999904632568
 41
0.0000000000000000
 71
     7
 72
     1
  1
{\H0.92x;{MANAGER}}
 11
1.000000000000000
 21
0.0000000000000000
 31
0.0000000000000000
  7
STANDARD
  0
MTEXT
  5
302
100
AcDbEntity
  8
WAKU0
  6
CONTINUOUS
 62
3
100
AcDbMText
 10
241.0850002169609
 20
46.50000000000000
 30
0.0000000000000000
 40
3.000000000000000
 41
0.0000000000000000
 71
     7
 72
     1
  1
{\H0.92x;{CAREER}}
 11
1.000000000000000
 21
0.0000000000000000
 31
0.0000000000000000
  7
STANDARD
  0
MTEXT
  5
303
100
AcDbEntity
  8
WAKU0
  6
CONTINUOUS
 62
3
100
AcDbMText
 10
294.6099998354912
 20
18.95000004768372
 30
0.0000000000000000
 40
3.099999904632568
 41
0.0000000000000000
 71
     7
 72
     1
  1
{\H0.91x;{DATE}}
 11
1.000000000000000
 21
0.0000000000000000
 31
0.0000000000000000
  7
STANDARD
  0
MTEXT
  5
304
100
AcDbEntity
  8
WAKU0
  6
CONTINUOUS
 62
3
100
AcDbMText
 10
313.9000002145767
 20
26.50000000000000
 30
0.0000000000000000
 40
3.000000000000000
 41
0.0000000000000000
 71
     7
 72
     1
  1
{\H0.63x;{3RD ANGLE}}
 11
1.000000000000000
 21
0.0000000000000000
 31
0.0000000000000000
  7
STANDARD
  0
MTEXT
  5
305
100
AcDbEntity
  8
WAKU0
  6
CONTINUOUS
 62
3
100
AcDbMText
 10
315.2149997949600
 20
45.95000004768372
 30
0.0000000000000000
 40
3.099999904632568
 41
0.0000000000000000
 71
     7
 72
     1
  1
{\H0.92x;{SCALE}}
 11
1.000000000000000
 21
0.0000000000000000
 31
0.0000000000000000
  7
STANDARD
  0
MTEXT
  5
306
100
AcDbEntity
  8
WAKU0
  6
CONTINUOUS
 62
3
100
AcDbMText
 10
405.7000000476837
 20
46.00000000000000
 30
0.0000000000000000
 40
3.000000000000000
 41
0.0000000000000000
 71
     7
 72
     1
  1
{\H0.63x;{kg}}
 11
1.000000000000000
 21
0.0000000000000000
 31
0.0000000000000000
  7
STANDARD
  0
MTEXT
  5
307
100
AcDbEntity
  8
WAKU0
  6
CONTINUOUS
 62
3
100
AcDbMText
 10
375.6000001430512
 20
46.00000000000000
 30
0.0000000000000000
 40
3.000000000000000
 41
0.0000000000000000
 71
     7
 72
     1
  1
{\H0.63x;{WEIGHT}}
 11
1.000000000000000
 21
0.0000000000000000
 31
0.0000000000000000
  7
STANDARD
  0
MTEXT
  5
308
100
AcDbEntity
  8
WAKU0
  6
CONTINUOUS
 62
3
100
AcDbMText
 10
334.0049998760223
 20
18.13333336512248
 30
0.0000000000000000
 40
3.099999904632568
 41
0.0000000000000000
 71
     7
 72
     1
  1
{\H0.90x;{DRW\PNO.}}
 11
1.000000000000000
 21
0.0000000000000000
 31
0.0000000000000000
  7
STANDARD
  0
MTEXT
  5
309
100
AcDbEntity
  8
WAKU0
  6
CONTINUOUS
 62
3
100
AcDbMText
 10
332.6099998354912
 20
31.95000004768372
 30
0.0000000000000000
 40
3.099999904632568
 41
0.0000000000000000
 71
     7
 72
     1
  1
{\H0.91x;{NAME}}
 11
1.000000000000000
 21
0.0000000000000000
 31
0.0000000000000000
  7
STANDARD
  0
MTEXT
  5
30A
100
AcDbEntity
  8
WAKU0
  6
CONTINUOUS
 62
3
100
AcDbMText
 10
332.6099998354912
 20
45.95000004768372
 30
0.0000000000000000
 40
3.099999904632568
 41
0.0000000000000000
 71
     7
 72
     1
  1
{\H0.91x;{TYPE}}
 11
1.000000000000000
 21
0.0000000000000000
 31
0.0000000000000000
  7
STANDARD
  0
LINE
  5
30B
100
AcDbEntity
  8
WAKU0
  6
HIDDEN
 62
3
100
AcDbLine
 10
407.1599564743885
 20
13.84999990463257
 30
0.0000000000000000
 11
396.9400436209789
 21
13.84999990463257
 31
0.0000000000000000
  0
LINE
  5
30C
100
AcDbEntity
  8
WAKU0
  6
HIDDEN
 62
3
100
AcDbLine
 10
407.1599564743885
 20
13.84999990463250
 30
0.0000000000000000
 11
402.0500000476852
 21
22.70070406014901
 31
0.0000000000000000
  0
LINE
  5
30D
100
AcDbEntity
  8
WAKU0
  6
HIDDEN
 62
3
100
AcDbLine
 10
402.0500000476852
 20
22.70070406014902
 30
0.0000000000000000
 11
396.9400436209789
 21
13.84999990463248
 31
0.0000000000000000
  0
MTEXT
  5
30E
100
AcDbEntity
  8
WAKU0
  6
CONTINUOUS
 62
3
100
AcDbMText
 10
247.0000009614873
 20
20.63471521698214
 30
0.0000000000000000
 40
3.140094041824341
 41
0.0000000000000000
 71
     1
 72
     1
  1
{\H0.83x;{Ｋｉｔａｇａｗａ\PＣｏｒｐｏｒａｔｉｏｎ}}
 11
1.000000000000000
 21
0.0000000000000000
 31
0.0000000000000000
  7
KNJYOKO
  0
LINE
  5
30F
100
AcDbEntity
  8
WAKU0
  6
CONTINUOUS
 62
3
100
AcDbLine
 10
330.4713877753800
 20
15.78041421262812
 30
0.0000000000000000
 11
330.4713877753800
 21
21.78041421262815
 31
0.0000000000000000
  0
LINE
  5
310
100
AcDbEntity
  8
WAKU0
  6
CONTINUOUS
 62
3
100
AcDbLine
 10
323.9336941228225
 20
17.28041421262811
 30
0.0000000000000000
 11
323.9336941228225
 21
20.28041421262824
 31
0.0000000000000000
  0
LINE
  5
311
100
AcDbEntity
  8
WAKU0
  6
CENTER
 62
12
100
AcDbLine
 10
313.4321805514995
 20
18.78041421262813
 30
0.0000000000000000
 11
331.2765788964694
 21
18.78041421262813
 31
0.0000000000000000
  0
LINE
  5
312
100
AcDbEntity
  8
WAKU0
  6
CENTER
 62
12
100
AcDbLine
 10
317.4474565857986
 20
14.55921662918448
 30
0.0000000000000000
 11
317.4474565857986
 21
22.89865102149943
 31
0.0000000000000000
  0
LINE
  5
313
100
AcDbEntity
  8
WAKU0
  6
CONTINUOUS
 62
3
100
AcDbLine
 10
323.9336941228225
 20
20.28041421262797
 30
0.0000000000000000
 11
330.4713877753800
 21
21.78041421262795
 31
0.0000000000000000
  0
LINE
  5
314
100
AcDbEntity
  8
WAKU0
  6
CONTINUOUS
 62
3
100
AcDbLine
 10
323.9336941228225
 20
17.28041421262811
 30
0.0000000000000000
 11
330.4713877753799
 21
15.78041421262812
 31
0.0000000000000000
  0
CIRCLE
  5
315
100
AcDbEntity
  8
WAKU0
  6
CONTINUOUS
 62
3
100
AcDbCircle
 10
317.4474565857986
 20
18.78041421262813
 30
0.0000000000000000
 40
1.499999999999972
  0
CIRCLE
  5
316
100
AcDbEntity
  8
WAKU0
  6
CONTINUOUS
 62
3
100
AcDbCircle
 10
317.4474565857986
 20
18.78041421262813
 30
0.0000000000000000
 40
2.999999999999979
  0
ENDSEC
  0
SECTION
  2
OBJECTS
  0
DICTIONARY
  5
35E
100
AcDbDictionary
  3
ACAD_GROUP
350
35F
  3
ACAD_MLINESTYLE
350
360
  3
DWGPROPS
350
361
  0
DICTIONARY
  5
35F
102
{ACAD_REACTORS
330
35E
102
}
100
AcDbDictionary
  0
DICTIONARY
  5
360
102
{ACAD_REACTORS
330
35E
102
}
100
AcDbDictionary
  3
STANDARD
350
362
  0
MLINESTYLE
  5
362
102
{ACAD_REACTORS
330
360
102
}
100
AcDbMlineStyle
  2
STANDARD
 70
     0
  3

 62
   256
 51
90.00
 52
90.00
 71
     2
 49
0.50
 62
   256
  6
BYLAYER
 49
-0.50
 62
   256
  6
BYLAYER
  0
XRECORD
  5
361
102
{ACAD_REACTORS
330
35E
102
}
100
AcDbXrecord
280
     1
  1
DWGPROPS COOKIE
  2
ＪＮ０７－１０１　ガイケイ
  3

  4

  6
スクロールチャック　７
  7

  8

  9

300
=
301
=
302
=
303
=
304
=
305
=
306
=
307
=
308
=
309
=
 40
0.000000
 41
0.000000
 42
0.000000
  1

 90
        0
  0
ENDSEC
  0
EOF
