  0
SECTION
  2
HEADER
  9
$ACADVER
  1
AC1014
  9
$DWGCODEPAGE
  3
ANSI_932
  9
$LTSCALE
 40
20.0
  9
$FILLMODE
 70
     1
  9
$CLAYER
  8
0
  9
$PDMODE
 70
     0
  9
$SPLFRAME
 70
     0
  9
$SPLINETYPE
 70
     6
  9
$SPLINESEGS
 70
     8
  9
$DIMASZ
 40
2.000000
  9
$DIMEXE
 40
2.000000
  9
$DIMEXO
 40
0.800000
  9
$DIMTAD
 70
     1
  9
$DIMTIH
 70
     0
  9
$DIMTOH
 70
     0
  9
$DIMTVP
 40
0.500000
  9
$DIMTXT
 40
3.100000
  9
$EXTMIN
 10
0.000000
 20
0.000000
 30
0.000000
  9
$EXTMAX
 10
297.000000
 20
420.000000
 30
0.000000
  9
$MEASUREMENT
 70
  1
  9
$LIMMIN
 10
0.000000
 20
0.000000
  9
$LIMMAX
 10
297.000000
 20
420.000000
  9
$HANDLING
 70
     1
  9
$HANDSEED
  5
427
  9
$DIMBLK
  1
_OPEN
  9
$DIMDEC
 70
     3
  9
$DIMAUNIT
 70
     1
  9
$DIMZIN
 70
     8
  9
$DIMTOFL
 70
     1
  0
ENDSEC
  0
SECTION
  2
CLASSES
  0
ENDSEC
  0
SECTION
  2
TABLES
  0
TABLE
  2
VPORT
  5
3DA
100
AcDbSymbolTable
 70
     1
  0
VPORT
  5
3DB
100
AcDbSymbolTableRecord
100
AcDbViewportTableRecord
  2
*ACTIVE
 70
     0
 12
318.632299
 22
196.308467
 40
458.272285
 41
1.212364
  0
ENDTAB
  0
TABLE
  2
LTYPE
  5
3DC
100
AcDbSymbolTable
 70
     4
  0
LTYPE
  5
3DD
100
AcDbSymbolTableRecord
100
AcDbLinetypeTableRecord
  2
BYBLOCK
 70
     0
  3

 72
    65
 73
     0
 40
0.0
  0
LTYPE
  5
3DE
100
AcDbSymbolTableRecord
100
AcDbLinetypeTableRecord
  2
BYLAYER
 70
     0
  3

 72
    65
 73
     0
 40
0.0
  0
LTYPE
  5
3DF
100
AcDbSymbolTableRecord
100
AcDbLinetypeTableRecord
  2
CONTINUOUS
 70
     0
  3
Solid line (NEC CAE2D for Win R12.1 : 2019.02.20)
 72
    65
 73
     0
 40
0.0
  0
LTYPE
  5
3E0
100
AcDbSymbolTableRecord
100
AcDbLinetypeTableRecord
  2
HIDDEN
 70
     0
  3
__ __ __ __ __ __ __ __ __ __ __ __ __ __
 72
    65
 73
     2
 40
0.375
 49
0.25
 74
     0
 49
-0.125
 74
     0
  0
LTYPE
  5
3E1
100
AcDbSymbolTableRecord
100
AcDbLinetypeTableRecord
  2
CENTER
 70
     0
  3
____ _ ____ _ ____ _ ____ _ ____ _ ____
 72
    65
 73
     4
 40
2.0
 49
1.25
 74
     0
 49
-0.25
 74
     0
 49
0.25
 74
     0
 49
-0.25
 74
     0
  0
LTYPE
  5
3E2
100
AcDbSymbolTableRecord
100
AcDbLinetypeTableRecord
  2
PHANTOM
 70
     0
  3
______  __  __  ______  __  __  ______ 
 72
    65
 73
     6
 40
2.5
 49
1.25
 74
     0
 49
-0.25
 74
     0
 49
0.25
 74
     0
 49
-0.25
 74
     0
 49
0.25
 74
     0
 49
-0.25
 74
     0
  0
ENDTAB
  0
TABLE
  2
LAYER
  5
3E3
100
AcDbSymbolTable
 70
    10
  0
LAYER
  5
3E4
100
AcDbSymbolTableRecord
100
AcDbLayerTableRecord
  2
0
 70
     0
 62
     7
  6
CONTINUOUS
  0
LAYER
  5
3E5
100
AcDbSymbolTableRecord
100
AcDbLayerTableRecord
  2
MAIN0
 70
     0
 62
     7
  6
CONTINUOUS
  0
LAYER
  5
3E6
100
AcDbSymbolTableRecord
100
AcDbLayerTableRecord
  2
MAIN1
 70
     0
 62
     7
  6
CONTINUOUS
  0
LAYER
  5
3E7
100
AcDbSymbolTableRecord
100
AcDbLayerTableRecord
  2
MAIN2
 70
     0
 62
     7
  6
CONTINUOUS
  0
LAYER
  5
3E8
100
AcDbSymbolTableRecord
100
AcDbLayerTableRecord
  2
MAIN3
 70
     0
 62
     7
  6
CONTINUOUS
  0
LAYER
  5
3E9
100
AcDbSymbolTableRecord
100
AcDbLayerTableRecord
  2
MAIN5
 70
     0
 62
     7
  6
CONTINUOUS
  0
LAYER
  5
3EA
100
AcDbSymbolTableRecord
100
AcDbLayerTableRecord
  2
MAIN1023
 70
     0
 62
    16
  6
CONTINUOUS
  0
LAYER
  5
3EB
100
AcDbSymbolTableRecord
100
AcDbLayerTableRecord
  2
WAKU0
 70
     0
 62
     7
  6
CONTINUOUS
  0
LAYER
  5
3EC
100
AcDbSymbolTableRecord
100
AcDbLayerTableRecord
  2
WAKU2
 70
     0
 62
     7
  6
CONTINUOUS
  0
LAYER
  5
3ED
100
AcDbSymbolTableRecord
100
AcDbLayerTableRecord
  2
WAKU1023
 70
     0
 62
    16
  6
CONTINUOUS
  0
ENDTAB
  0
TABLE
  2
STYLE
  5
3EE
100
AcDbSymbolTable
 70
     4
  0
STYLE
  5
3EF
100
AcDbSymbolTableRecord
100
AcDbTextStyleTableRecord
  2
STANDARD
 70
    64
 40
0.0
 41
1.0
 50
0.0
 71
     0
 42
3.099999904632568
  3
TXT
  4

  0
STYLE
  5
3F0
100
AcDbSymbolTableRecord
100
AcDbTextStyleTableRecord
  2
ANKTATE
 70
    68
 40
0.0
 41
1.0
 50
0.0
 71
     0
 42
3.099999904632568
  3
TXT
  4

  0
STYLE
  5
16D
100
AcDbSymbolTableRecord
100
AcDbTextStyleTableRecord
  2
KNJYOKO
 70
    64
 40
0.0
 41
1.0
 50
0.0
 71
     0
 42
3.099999904632568
  3
TXT
  4
BIGFONT
  0
STYLE
  5
3F1
100
AcDbSymbolTableRecord
100
AcDbTextStyleTableRecord
  2
KNJTATE
 70
    68
 40
0.0
 41
1.0
 50
0.0
 71
     0
 42
3.099999904632568
  3
TXT
  4
BIGFONT
  0
ENDTAB
  0
TABLE
  2
VIEW
  5
3F2
100
AcDbSymbolTable
 70
     0
  0
ENDTAB
  0
TABLE
  2
UCS
  5
3F3
100
AcDbSymbolTable
 70
     0
  0
ENDTAB
  0
TABLE
  2
APPID
  5
3F4
100
AcDbSymbolTable
 70
     1
  0
APPID
  5
3F5
100
AcDbSymbolTableRecord
100
AcDbRegAppTableRecord
  2
ACAD
 70
     0
  0
ENDTAB
  0
TABLE
  2
DIMSTYLE
  5
3F6
100
AcDbSymbolTable
 70
     1
  0
DIMSTYLE
105
3F7
100
AcDbSymbolTableRecord
100
AcDbDimStyleTableRecord
  2
STANDARD
 70
     0
 41
2.000000
 44
2.000000
 42
0.800000
145
0.661290
140
3.100000
144
1.000000
146
0.903226
340
3EF
  0
DIMSTYLE
105
3F8
100
AcDbSymbolTableRecord
100
AcDbDimStyleTableRecord
  2
MAIN001
 70
     0
 41
3.000000
 44
3.000000
 42
1.200000
145
0.607527
140
4.650000
144
1.000000
146
0.903226
 77
     1
 73
     0
 74
     0
271
     3
275
     1
 78
     8
172
     1
340
3EF
  0
DIMSTYLE
105
3F9
100
AcDbSymbolTableRecord
100
AcDbDimStyleTableRecord
  2
WAKU002
 70
     0
 41
2.000000
 44
2.000000
 42
0.800000
145
0.661290
140
3.100000
144
1.000000
146
0.903226
 77
     1
 73
     0
 74
     0
271
     3
275
     1
 78
     8
172
     1
340
3EF
  0
ENDTAB
  0
TABLE
  2
BLOCK_RECORD
  5
3FA
100
AcDbSymbolTable
 70
    45
  0
BLOCK_RECORD
  5
3FB
100
AcDbSymbolTableRecord
100
AcDbBlockTableRecord
  2
*MODEL_SPACE
  0
BLOCK_RECORD
  5
3FC
100
AcDbSymbolTableRecord
100
AcDbBlockTableRecord
  2
*PAPER_SPACE
  0
BLOCK_RECORD
  5
1
100
AcDbSymbolTableRecord
100
AcDbBlockTableRecord
  2
_NONE
  0
BLOCK_RECORD
  5
4
100
AcDbSymbolTableRecord
100
AcDbBlockTableRecord
  2
_CLOSED
  0
BLOCK_RECORD
  5
B
100
AcDbSymbolTableRecord
100
AcDbBlockTableRecord
  2
_DOT
  0
BLOCK_RECORD
  5
13
100
AcDbSymbolTableRecord
100
AcDbBlockTableRecord
  2
_OPEN
  0
BLOCK_RECORD
  5
19
100
AcDbSymbolTableRecord
100
AcDbBlockTableRecord
  2
_ORIGIN
  0
BLOCK_RECORD
  5
1E
100
AcDbSymbolTableRecord
100
AcDbBlockTableRecord
  2
_OPEN30
  0
BLOCK_RECORD
  5
24
100
AcDbSymbolTableRecord
100
AcDbBlockTableRecord
  2
_BOXFILLED
  0
BLOCK_RECORD
  5
29
100
AcDbSymbolTableRecord
100
AcDbBlockTableRecord
  2
_BOXBLANK
  0
BLOCK_RECORD
  5
31
100
AcDbSymbolTableRecord
100
AcDbBlockTableRecord
  2
_OBLIQUE
  0
BLOCK_RECORD
  5
35
100
AcDbSymbolTableRecord
100
AcDbBlockTableRecord
  2
_OPEN90
  0
BLOCK_RECORD
  5
3B
100
AcDbSymbolTableRecord
100
AcDbBlockTableRecord
  2
_CLOSEDBLANK
  0
BLOCK_RECORD
  5
41
100
AcDbSymbolTableRecord
100
AcDbBlockTableRecord
  2
_DOTBLANK
  0
BLOCK_RECORD
  5
3FD
100
AcDbSymbolTableRecord
100
AcDbBlockTableRecord
  2
*D0
  0
BLOCK_RECORD
  5
3FE
100
AcDbSymbolTableRecord
100
AcDbBlockTableRecord
  2
*D1
  0
BLOCK_RECORD
  5
3FF
100
AcDbSymbolTableRecord
100
AcDbBlockTableRecord
  2
*D2
  0
BLOCK_RECORD
  5
400
100
AcDbSymbolTableRecord
100
AcDbBlockTableRecord
  2
*D3
  0
BLOCK_RECORD
  5
401
100
AcDbSymbolTableRecord
100
AcDbBlockTableRecord
  2
*D4
  0
BLOCK_RECORD
  5
402
100
AcDbSymbolTableRecord
100
AcDbBlockTableRecord
  2
*D5
  0
BLOCK_RECORD
  5
403
100
AcDbSymbolTableRecord
100
AcDbBlockTableRecord
  2
*D6
  0
BLOCK_RECORD
  5
404
100
AcDbSymbolTableRecord
100
AcDbBlockTableRecord
  2
*D7
  0
BLOCK_RECORD
  5
405
100
AcDbSymbolTableRecord
100
AcDbBlockTableRecord
  2
*D8
  0
BLOCK_RECORD
  5
406
100
AcDbSymbolTableRecord
100
AcDbBlockTableRecord
  2
*D9
  0
BLOCK_RECORD
  5
407
100
AcDbSymbolTableRecord
100
AcDbBlockTableRecord
  2
*D10
  0
BLOCK_RECORD
  5
408
100
AcDbSymbolTableRecord
100
AcDbBlockTableRecord
  2
*D11
  0
BLOCK_RECORD
  5
409
100
AcDbSymbolTableRecord
100
AcDbBlockTableRecord
  2
*D12
  0
BLOCK_RECORD
  5
40A
100
AcDbSymbolTableRecord
100
AcDbBlockTableRecord
  2
*D13
  0
BLOCK_RECORD
  5
40B
100
AcDbSymbolTableRecord
100
AcDbBlockTableRecord
  2
*D14
  0
BLOCK_RECORD
  5
40C
100
AcDbSymbolTableRecord
100
AcDbBlockTableRecord
  2
*D15
  0
BLOCK_RECORD
  5
40D
100
AcDbSymbolTableRecord
100
AcDbBlockTableRecord
  2
*D16
  0
BLOCK_RECORD
  5
40E
100
AcDbSymbolTableRecord
100
AcDbBlockTableRecord
  2
*D17
  0
BLOCK_RECORD
  5
40F
100
AcDbSymbolTableRecord
100
AcDbBlockTableRecord
  2
*D18
  0
BLOCK_RECORD
  5
410
100
AcDbSymbolTableRecord
100
AcDbBlockTableRecord
  2
*D19
  0
BLOCK_RECORD
  5
411
100
AcDbSymbolTableRecord
100
AcDbBlockTableRecord
  2
*D20
  0
BLOCK_RECORD
  5
412
100
AcDbSymbolTableRecord
100
AcDbBlockTableRecord
  2
*D21
  0
BLOCK_RECORD
  5
413
100
AcDbSymbolTableRecord
100
AcDbBlockTableRecord
  2
*D22
  0
BLOCK_RECORD
  5
414
100
AcDbSymbolTableRecord
100
AcDbBlockTableRecord
  2
*D23
  0
BLOCK_RECORD
  5
415
100
AcDbSymbolTableRecord
100
AcDbBlockTableRecord
  2
*D24
  0
BLOCK_RECORD
  5
416
100
AcDbSymbolTableRecord
100
AcDbBlockTableRecord
  2
*D25
  0
BLOCK_RECORD
  5
417
100
AcDbSymbolTableRecord
100
AcDbBlockTableRecord
  2
*D26
  0
BLOCK_RECORD
  5
418
100
AcDbSymbolTableRecord
100
AcDbBlockTableRecord
  2
*D27
  0
BLOCK_RECORD
  5
419
100
AcDbSymbolTableRecord
100
AcDbBlockTableRecord
  2
*D28
  0
BLOCK_RECORD
  5
41A
100
AcDbSymbolTableRecord
100
AcDbBlockTableRecord
  2
*D29
  0
BLOCK_RECORD
  5
41B
100
AcDbSymbolTableRecord
100
AcDbBlockTableRecord
  2
*D30
  0
BLOCK_RECORD
  5
41C
100
AcDbSymbolTableRecord
100
AcDbBlockTableRecord
  2
*D31
  0
BLOCK_RECORD
  5
41D
100
AcDbSymbolTableRecord
100
AcDbBlockTableRecord
  2
*D32
  0
ENDTAB
  0
ENDSEC
  0
SECTION
  2
BLOCKS
  0
BLOCK
  5
41E
100
AcDbEntity
  8
0
100
AcDbBlockBegin
  2
*MODEL_SPACE
 70
     0
 10
0.0
 20
0.0
 30
0.0
  3
*MODEL_SPACE
  1

  0
ENDBLK
  5
41F
100
AcDbEntity
  8
0
100
AcDbBlockEnd
  0
BLOCK
  5
420
100
AcDbEntity
  8
0
100
AcDbBlockBegin
  2
*PAPER_SPACE
 70
     0
 10
0.0
 20
0.0
 30
0.0
  3
*PAPER_SPACE
  1

  0
ENDBLK
  5
421
100
AcDbEntity
  8
0
100
AcDbBlockEnd
  0
BLOCK
  5
2
100
AcDbEntity
  8
0
100
AcDbBlockBegin
  2
_NONE
 70
     0
 10
0.0
 20
0.0
 30
0.0
  3
_NONE
  1

  0
ENDBLK
  5
3
100
AcDbEntity
  8
0
100
AcDbBlockEnd
  0
BLOCK
  5
5
100
AcDbEntity
  8
0
100
AcDbBlockBegin
  2
_CLOSED
 70
     0
 10
0.0
 20
0.0
 30
0.0
  3
_CLOSED
  1

  0
LINE
  5
6
100
AcDbEntity
  8
0
  6
BYBLOCK
 62
     0
100
AcDbLine
 10
-1.0
 20
0.166667
 30
0.0
 11
0.0
 21
0.0
 31
0.0
  0
LINE
  5
7
100
AcDbEntity
  8
0
  6
BYBLOCK
 62
     0
100
AcDbLine
 10
0.0
 20
0.0
 30
0.0
 11
-1.0
 21
-0.166667
 31
0.0
  0
LINE
  5
8
100
AcDbEntity
  8
0
  6
BYBLOCK
 62
     0
100
AcDbLine
 10
-1.0
 20
0.166667
 30
0.0
 11
-1.0
 21
-0.166667
 31
0.0
  0
LINE
  5
9
100
AcDbEntity
  8
0
  6
BYBLOCK
 62
     0
100
AcDbLine
 10
0.0
 20
0.0
 30
0.0
 11
-1.0
 21
0.0
 31
0.0
  0
ENDBLK
  5
A
100
AcDbEntity
  8
0
100
AcDbBlockEnd
  0
BLOCK
  5
C
100
AcDbEntity
  8
0
100
AcDbBlockBegin
  2
_DOT
 70
     0
 10
0.0
 20
0.0
 30
0.0
  3
_DOT
  1

  0
POLYLINE
  5
D
100
AcDbEntity
  8
0
  6
BYBLOCK
 62
     0
100
AcDb2dPolyline
 66
     1
 10
0.0
 20
0.0
 30
0.0
 70
     1
 40
0.5
 41
0.5
  0
VERTEX
  5
E
100
AcDbEntity
  8
0
  6
BYBLOCK
 62
     0
100
AcDbVertex
100
AcDb2dVertex
 10
-0.25
 20
0.0
 30
0.0
 42
1.0
  0
VERTEX
  5
F
100
AcDbEntity
  8
0
  6
BYBLOCK
 62
     0
100
AcDbVertex
100
AcDb2dVertex
 10
0.25
 20
0.0
 30
0.0
 42
1.0
  0
SEQEND
  5
10
100
AcDbEntity
  8
0
  6
BYBLOCK
 62
     0
  0
LINE
  5
11
100
AcDbEntity
  8
0
  6
BYBLOCK
 62
     0
100
AcDbLine
 10
-0.5
 20
0.0
 30
0.0
 11
-1.0
 21
0.0
 31
0.0
  0
ENDBLK
  5
12
100
AcDbEntity
  8
0
100
AcDbBlockEnd
  0
BLOCK
  5
14
100
AcDbEntity
  8
0
100
AcDbBlockBegin
  2
_OPEN
 70
     0
 10
0.0
 20
0.0
 30
0.0
  3
_OPEN
  1

  0
LINE
  5
15
100
AcDbEntity
  8
0
  6
BYBLOCK
 62
     0
100
AcDbLine
 10
-1.0
 20
0.166667
 30
0.0
 11
0.0
 21
0.0
 31
0.0
  0
LINE
  5
16
100
AcDbEntity
  8
0
  6
BYBLOCK
 62
     0
100
AcDbLine
 10
0.0
 20
0.0
 30
0.0
 11
-1.0
 21
-0.166667
 31
0.0
  0
LINE
  5
17
100
AcDbEntity
  8
0
  6
BYBLOCK
 62
     0
100
AcDbLine
 10
0.0
 20
0.0
 30
0.0
 11
-1.0
 21
0.0
 31
0.0
  0
ENDBLK
  5
18
100
AcDbEntity
  8
0
100
AcDbBlockEnd
  0
BLOCK
  5
1A
100
AcDbEntity
  8
0
100
AcDbBlockBegin
  2
_ORIGIN
 70
     0
 10
0.0
 20
0.0
 30
0.0
  3
_ORIGIN
  1

  0
CIRCLE
  5
1B
100
AcDbEntity
  8
0
  6
BYBLOCK
 62
     0
100
AcDbCircle
 10
0.0
 20
0.0
 30
0.0
 40
0.5
  0
LINE
  5
1C
100
AcDbEntity
  8
0
  6
BYBLOCK
 62
     0
100
AcDbLine
 10
0.0
 20
0.0
 30
0.0
 11
-1.0
 21
0.0
 31
0.0
  0
ENDBLK
  5
1D
100
AcDbEntity
  8
0
100
AcDbBlockEnd
  0
BLOCK
  5
1F
100
AcDbEntity
  8
0
100
AcDbBlockBegin
  2
_OPEN30
 70
     0
 10
0.0
 20
0.0
 30
0.0
  3
_OPEN30
  1

  0
LINE
  5
20
100
AcDbEntity
  8
0
  6
BYBLOCK
 62
     0
100
AcDbLine
 10
-1.0
 20
0.267949
 30
0.0
 11
0.0
 21
0.0
 31
0.0
  0
LINE
  5
21
100
AcDbEntity
  8
0
  6
BYBLOCK
 62
     0
100
AcDbLine
 10
0.0
 20
0.0
 30
0.0
 11
-1.0
 21
-0.267949
 31
0.0
  0
LINE
  5
22
100
AcDbEntity
  8
0
  6
BYBLOCK
 62
     0
100
AcDbLine
 10
0.0
 20
0.0
 30
0.0
 11
-1.0
 21
0.0
 31
0.0
  0
ENDBLK
  5
23
100
AcDbEntity
  8
0
100
AcDbBlockEnd
  0
BLOCK
  5
25
100
AcDbEntity
  8
0
100
AcDbBlockBegin
  2
_BOXFILLED
 70
     0
 10
0.0
 20
0.0
 30
0.0
  3
_BOXFILLED
  1

  0
SOLID
  5
26
100
AcDbEntity
  8
0
  6
BYBLOCK
 62
     0
100
AcDbTrace
 10
-0.5
 20
0.5
 30
0.0
 11
0.5
 21
0.5
 31
0.0
 12
-0.5
 22
-0.5
 32
0.0
 13
0.5
 23
-0.5
 33
0.0
  0
LINE
  5
27
100
AcDbEntity
  8
0
  6
BYBLOCK
 62
     0
100
AcDbLine
 10
-0.5
 20
0.0
 30
0.0
 11
-1.0
 21
0.0
 31
0.0
  0
ENDBLK
  5
28
100
AcDbEntity
  8
0
100
AcDbBlockEnd
  0
BLOCK
  5
2A
100
AcDbEntity
  8
0
100
AcDbBlockBegin
  2
_BOXBLANK
 70
     0
 10
0.0
 20
0.0
 30
0.0
  3
_BOXBLANK
  1

  0
LINE
  5
2B
100
AcDbEntity
  8
0
  6
BYBLOCK
 62
     0
100
AcDbLine
 10
-0.5
 20
-0.5
 30
0.0
 11
0.5
 21
-0.5
 31
0.0
  0
LINE
  5
2C
100
AcDbEntity
  8
0
  6
BYBLOCK
 62
     0
100
AcDbLine
 10
0.5
 20
-0.5
 30
0.0
 11
0.5
 21
0.5
 31
0.0
  0
LINE
  5
2D
100
AcDbEntity
  8
0
  6
BYBLOCK
 62
     0
100
AcDbLine
 10
0.5
 20
0.5
 30
0.0
 11
-0.5
 21
0.5
 31
0.0
  0
LINE
  5
2E
100
AcDbEntity
  8
0
  6
BYBLOCK
 62
     0
100
AcDbLine
 10
-0.5
 20
0.5
 30
0.0
 11
-0.5
 21
-0.5
 31
0.0
  0
LINE
  5
2F
100
AcDbEntity
  8
0
  6
BYBLOCK
 62
     0
100
AcDbLine
 10
-0.5
 20
0.0
 30
0.0
 11
-1.0
 21
0.0
 31
0.0
  0
ENDBLK
  5
30
100
AcDbEntity
  8
0
100
AcDbBlockEnd
  0
BLOCK
  5
32
100
AcDbEntity
  8
0
100
AcDbBlockBegin
  2
_OBLIQUE
 70
     0
 10
0.0
 20
0.0
 30
0.0
  3
_OBLIQUE
  1

  0
LINE
  5
33
100
AcDbEntity
  8
0
  6
BYBLOCK
 62
     0
100
AcDbLine
 10
-0.5
 20
-0.5
 30
0.0
 11
0.5
 21
0.5
 31
0.0
  0
ENDBLK
  5
34
100
AcDbEntity
  8
0
100
AcDbBlockEnd
  0
BLOCK
  5
36
100
AcDbEntity
  8
0
100
AcDbBlockBegin
  2
_OPEN90
 70
     0
 10
0.0
 20
0.0
 30
0.0
  3
_OPEN90
  1

  0
LINE
  5
37
100
AcDbEntity
  8
0
  6
BYBLOCK
 62
     0
100
AcDbLine
 10
-0.5
 20
0.5
 30
0.0
 11
0.0
 21
0.0
 31
0.0
  0
LINE
  5
38
100
AcDbEntity
  8
0
  6
BYBLOCK
 62
     0
100
AcDbLine
 10
0.0
 20
0.0
 30
0.0
 11
-0.5
 21
-0.5
 31
0.0
  0
LINE
  5
39
100
AcDbEntity
  8
0
  6
BYBLOCK
 62
     0
100
AcDbLine
 10
0.0
 20
0.0
 30
0.0
 11
-1.0
 21
0.0
 31
0.0
  0
ENDBLK
  5
3A
100
AcDbEntity
  8
0
100
AcDbBlockEnd
  0
BLOCK
  5
3C
100
AcDbEntity
  8
0
100
AcDbBlockBegin
  2
_CLOSEDBLANK
 70
     0
 10
0.0
 20
0.0
 30
0.0
  3
_CLOSEDBLANK
  1

  0
LINE
  5
3D
100
AcDbEntity
  8
0
  6
BYBLOCK
 62
     0
100
AcDbLine
 10
-1.0
 20
0.1666666666666666
 30
0.0
 11
0.0
 21
0.0
 31
0.0
  0
LINE
  5
3E
100
AcDbEntity
  8
0
  6
BYBLOCK
 62
     0
100
AcDbLine
 10
0.0
 20
0.0
 30
0.0
 11
-1.0
 21
-0.1666666666666666
 31
0.0
  0
LINE
  5
3F
100
AcDbEntity
  8
0
  6
BYBLOCK
 62
     0
100
AcDbLine
 10
-1.0
 20
0.1666666666666666
 30
0.0
 11
-1.0
 21
-0.1666666666666666
 31
0.0
  0
ENDBLK
  5
40
100
AcDbEntity
  8
0
100
AcDbBlockEnd
  0
BLOCK
  5
42
100
AcDbEntity
  8
0
100
AcDbBlockBegin
  2
_DOTBLANK
 70
     0
 10
0.0
 20
0.0
 30
0.0
  3
_DOTBLANK
  1

  0
CIRCLE
  5
43
100
AcDbEntity
  8
0
  6
BYBLOCK
 62
     0
100
AcDbCircle
 10
0.0
 20
0.0
 30
0.0
 40
0.5
  0
LINE
  5
44
100
AcDbEntity
  8
0
  6
BYBLOCK
 62
     0
100
AcDbLine
 10
-0.5
 20
0.0
 30
0.0
 11
-1.0
 21
0.0
 31
0.0
  0
ENDBLK
  5
45
100
AcDbEntity
  8
0
100
AcDbBlockEnd
  0
BLOCK
  5
49
100
AcDbEntity
  8
MAIN0
  6
CONTINUOUS
 62
3
100
AcDbBlockBegin
  2
*D0
 70
    65
 10
0.0
 20
0.0
 30
0.0
  0
LINE
  5
4A
100
AcDbEntity
  8
MAIN0
  6
BYBLOCK
 62
0
100
AcDbLine
 10
72.80407711521184
 20
350.8526198293089
 30
0.0000000000000000
 11
72.80407711521184
 21
372.6526198114275
 31
0.0000000000000000
  0
LINE
  5
4B
100
AcDbEntity
  8
MAIN0
  6
BYBLOCK
 62
0
100
AcDbLine
 10
75.80407711521184
 20
369.6526198114275
 30
0.0000000000000000
 11
86.80407711516313
 21
369.6526198114275
 31
0.0000000000000000
  0
INSERT
  5
4C
100
AcDbEntity
  8
MAIN0
  6
BYBLOCK
 62
0
100
AcDbBlockReference
  2
_OPEN
 10
72.80407711521184
 20
369.6526198114275
 30
0.0000000000000000
 41
3.000000000000000
 42
3.000000000000000
 43
3.000000000000000
 50
180.0000000000000
  0
INSERT
  5
4D
100
AcDbEntity
  8
MAIN0
  6
BYBLOCK
 62
0
100
AcDbBlockReference
  2
_OPEN
 10
89.80407711516313
 20
369.6526198114275
 30
0.0000000000000000
 41
3.000000000000000
 42
3.000000000000000
 43
3.000000000000000
 50
0.0000000000000000
  0
LINE
  5
4E
100
AcDbEntity
  8
MAIN0
  6
BYBLOCK
 62
0
100
AcDbLine
 10
89.80407711516313
 20
354.2526198293089
 30
0.0000000000000000
 11
89.80407711516313
 21
372.6526198114275
 31
0.0000000000000000
  0
MTEXT
  5
4F
100
AcDbEntity
  8
MAIN0
  6
BYBLOCK
 62
0
100
AcDbMText
 10
81.30407711518751
 20
372.4776197399019
 30
0.0000000000000000
 40
4.649999856948853
 41
0.0000000000000000
 71
     5
 72
     1
  1
\A1;17
 11
1.000000000000000
 21
0.0000000000000000
 31
0.0000000000000000
  7
STANDARD
  0
ENDBLK
  5
50
100
AcDbEntity
  8
MAIN0
  6
CONTINUOUS
 62
3
100
AcDbBlockEnd
  0
BLOCK
  5
61
100
AcDbEntity
  8
MAIN0
  6
CONTINUOUS
 62
3
100
AcDbBlockBegin
  2
*D1
 70
    65
 10
0.0
 20
0.0
 30
0.0
  0
LINE
  5
62
100
AcDbEntity
  8
MAIN0
  6
BYBLOCK
 62
0
100
AcDbLine
 10
206.8040771151983
 20
274.4526198293090
 30
0.0000000000000000
 11
206.8040771152117
 21
287.6526198114275
 31
0.0000000000000000
  0
LINE
  5
63
100
AcDbEntity
  8
MAIN0
  6
BYBLOCK
 62
0
100
AcDbLine
 10
203.8040771152086
 20
284.6526198114275
 30
0.0000000000000000
 11
167.8040771152424
 21
284.6526198114275
 31
0.0000000000000000
  0
INSERT
  5
64
100
AcDbEntity
  8
MAIN0
  6
BYBLOCK
 62
0
100
AcDbBlockReference
  2
_OPEN
 10
206.8040771152086
 20
284.6526198114275
 30
0.0000000000000000
 41
3.000000000000000
 42
3.000000000000000
 43
3.000000000000000
 50
360.0000000000000
  0
INSERT
  5
65
100
AcDbEntity
  8
MAIN0
  6
BYBLOCK
 62
0
100
AcDbBlockReference
  2
_OPEN
 10
164.8040771152424
 20
284.6526198114275
 30
0.0000000000000000
 41
3.000000000000000
 42
3.000000000000000
 43
3.000000000000000
 50
180.0000000000000
  0
MTEXT
  5
66
100
AcDbEntity
  8
MAIN0
  6
BYBLOCK
 62
0
100
AcDbMText
 10
185.8040771152255
 20
287.4776197399019
 30
0.0000000000000000
 40
4.649999856948853
 41
0.0000000000000000
 71
     5
 72
     1
  1
\A1;42
 11
1.000000000000000
 21
0.0000000000000000
 31
0.0000000000000000
  7
STANDARD
  0
ENDBLK
  5
67
100
AcDbEntity
  8
MAIN0
  6
CONTINUOUS
 62
3
100
AcDbBlockEnd
  0
BLOCK
  5
69
100
AcDbEntity
  8
MAIN0
  6
CONTINUOUS
 62
3
100
AcDbBlockBegin
  2
*D2
 70
    65
 10
0.0
 20
0.0
 30
0.0
  0
LINE
  5
6A
100
AcDbEntity
  8
MAIN0
  6
BYBLOCK
 62
0
100
AcDbLine
 10
90.20407709736190
 20
164.6526198114275
 30
0.0000000000000000
 11
43.23596190722697
 21
164.6526198114275
 31
0.0000000000000000
  0
LINE
  5
6B
100
AcDbEntity
  8
MAIN0
  6
BYBLOCK
 62
0
100
AcDbLine
 10
46.23596190722697
 20
167.6526198114275
 30
0.0000000000000000
 11
46.23596190722697
 21
351.6526198114275
 31
0.0000000000000000
  0
INSERT
  5
6C
100
AcDbEntity
  8
MAIN0
  6
BYBLOCK
 62
0
100
AcDbBlockReference
  2
_OPEN
 10
46.23596190722697
 20
164.6526198114275
 30
0.0000000000000000
 41
3.000000000000000
 42
3.000000000000000
 43
3.000000000000000
 50
270.0000000000000
  0
INSERT
  5
6D
100
AcDbEntity
  8
MAIN0
  6
BYBLOCK
 62
0
100
AcDbBlockReference
  2
_OPEN
 10
46.23596190722697
 20
354.6526198114275
 30
0.0000000000000000
 41
3.000000000000000
 42
3.000000000000000
 43
3.000000000000000
 50
90.00000000000000
  0
LINE
  5
6E
100
AcDbEntity
  8
MAIN0
  6
BYBLOCK
 62
0
100
AcDbLine
 10
90.20407709728096
 20
354.6526198114275
 30
0.0000000000000000
 11
43.23596190722697
 21
354.6526198114275
 31
0.0000000000000000
  0
MTEXT
  5
6F
100
AcDbEntity
  8
MAIN0
  6
BYBLOCK
 62
0
100
AcDbMText
 10
43.41096197875254
 20
259.6526198114275
 30
0.0000000000000000
 40
4.649999856948853
 41
0.0000000000000000
 71
     5
 72
     1
  1
\A1;\U+2205190
 11
6.123233995736766e-017
 21
1.000000000000000
 31
0.0000000000000000
  7
STANDARD
  0
ENDBLK
  5
70
100
AcDbEntity
  8
MAIN0
  6
CONTINUOUS
 62
3
100
AcDbBlockEnd
  0
BLOCK
  5
72
100
AcDbEntity
  8
MAIN0
  6
CONTINUOUS
 62
3
100
AcDbBlockBegin
  2
*D3
 70
    65
 10
0.0
 20
0.0
 30
0.0
  0
LINE
  5
73
100
AcDbEntity
  8
MAIN0
  6
BYBLOCK
 62
0
100
AcDbLine
 10
164.8040771151689
 20
354.2526198293089
 30
0.0000000000000000
 11
164.8040771152567
 21
372.6526198114275
 31
0.0000000000000000
  0
LINE
  5
74
100
AcDbEntity
  8
MAIN0
  6
BYBLOCK
 62
0
100
AcDbLine
 10
161.8040771152424
 20
369.6526198114275
 30
0.0000000000000000
 11
120.3040771151592
 21
369.6526198114275
 31
0.0000000000000000
  0
INSERT
  5
75
100
AcDbEntity
  8
MAIN0
  6
BYBLOCK
 62
0
100
AcDbBlockReference
  2
_OPEN
 10
164.8040771152424
 20
369.6526198114275
 30
0.0000000000000000
 41
3.000000000000000
 42
3.000000000000000
 43
3.000000000000000
 50
360.0000000000000
  0
INSERT
  5
76
100
AcDbEntity
  8
MAIN0
  6
BYBLOCK
 62
0
100
AcDbBlockReference
  2
_OPEN
 10
117.3040771151592
 20
369.6526198114275
 30
0.0000000000000000
 41
3.000000000000000
 42
3.000000000000000
 43
3.000000000000000
 50
180.0000000000000
  0
LINE
  5
77
100
AcDbEntity
  8
MAIN0
  6
BYBLOCK
 62
0
100
AcDbLine
 10
117.3040771151592
 20
363.3526198293072
 30
0.0000000000000000
 11
117.3040771151592
 21
372.6526198114275
 31
0.0000000000000000
  0
MTEXT
  5
78
100
AcDbEntity
  8
MAIN0
  6
BYBLOCK
 62
0
100
AcDbMText
 10
141.0540771152008
 20
372.4776197399019
 30
0.0000000000000000
 40
4.649999856948853
 41
0.0000000000000000
 71
     5
 72
     1
  1
\A1;47.5
 11
1.000000000000000
 21
0.0000000000000000
 31
0.0000000000000000
  7
STANDARD
  0
ENDBLK
  5
79
100
AcDbEntity
  8
MAIN0
  6
CONTINUOUS
 62
3
100
AcDbBlockEnd
  0
BLOCK
  5
7B
100
AcDbEntity
  8
MAIN0
  6
CONTINUOUS
 62
3
100
AcDbBlockBegin
  2
*D4
 70
    65
 10
0.0
 20
0.0
 30
0.0
  0
LINE
  5
7C
100
AcDbEntity
  8
MAIN0
  6
BYBLOCK
 62
0
100
AcDbLine
 10
117.3040771151592
 20
363.3526198293072
 30
0.0000000000000000
 11
117.3040771151592
 21
372.6526198114275
 31
0.0000000000000000
  0
LINE
  5
7D
100
AcDbEntity
  8
MAIN0
  6
BYBLOCK
 62
0
100
AcDbLine
 10
114.3040771151592
 20
369.6526198114275
 30
0.0000000000000000
 11
92.80407711516313
 21
369.6526198114275
 31
0.0000000000000000
  0
INSERT
  5
7E
100
AcDbEntity
  8
MAIN0
  6
BYBLOCK
 62
0
100
AcDbBlockReference
  2
_OPEN
 10
117.3040771151592
 20
369.6526198114275
 30
0.0000000000000000
 41
3.000000000000000
 42
3.000000000000000
 43
3.000000000000000
 50
360.0000000000000
  0
INSERT
  5
7F
100
AcDbEntity
  8
MAIN0
  6
BYBLOCK
 62
0
100
AcDbBlockReference
  2
_OPEN
 10
89.80407711516313
 20
369.6526198114275
 30
0.0000000000000000
 41
3.000000000000000
 42
3.000000000000000
 43
3.000000000000000
 50
180.0000000000000
  0
LINE
  5
80
100
AcDbEntity
  8
MAIN0
  6
BYBLOCK
 62
0
100
AcDbLine
 10
89.80407711516313
 20
354.2526198293089
 30
0.0000000000000000
 11
89.80407711516313
 21
372.6526198114275
 31
0.0000000000000000
  0
MTEXT
  5
81
100
AcDbEntity
  8
MAIN0
  6
BYBLOCK
 62
0
100
AcDbMText
 10
103.5540771151612
 20
372.4776197399019
 30
0.0000000000000000
 40
4.649999856948853
 41
0.0000000000000000
 71
     5
 72
     1
  1
\A1;27.5
 11
1.000000000000000
 21
0.0000000000000000
 31
0.0000000000000000
  7
STANDARD
  0
ENDBLK
  5
82
100
AcDbEntity
  8
MAIN0
  6
CONTINUOUS
 62
3
100
AcDbBlockEnd
  0
BLOCK
  5
120
100
AcDbEntity
  8
MAIN0
  6
CONTINUOUS
 62
1
100
AcDbBlockBegin
  2
*D5
 70
    65
 10
0.0
 20
0.0
 30
0.0
  0
LINE
  5
121
100
AcDbEntity
  8
MAIN0
  6
BYBLOCK
 62
0
100
AcDbLine
 10
460.7356610638688
 20
345.8526198293089
 30
0.0000000000000000
 11
460.7356610638688
 21
382.6526198114275
 31
0.0000000000000000
  0
LINE
  5
122
100
AcDbEntity
  8
MAIN0
  6
BYBLOCK
 62
0
100
AcDbLine
 10
463.7356610638688
 20
379.6526198114275
 30
0.0000000000000000
 11
591.7356610638686
 21
379.6526198114275
 31
0.0000000000000000
  0
INSERT
  5
123
100
AcDbEntity
  8
MAIN0
  6
BYBLOCK
 62
0
100
AcDbBlockReference
  2
_OPEN
 10
460.7356610638688
 20
379.6526198114275
 30
0.0000000000000000
 41
3.000000000000000
 42
3.000000000000000
 43
3.000000000000000
 50
180.0000000000000
  0
INSERT
  5
124
100
AcDbEntity
  8
MAIN0
  6
BYBLOCK
 62
0
100
AcDbBlockReference
  2
_OPEN
 10
594.7356610638686
 20
379.6526198114275
 30
0.0000000000000000
 41
3.000000000000000
 42
3.000000000000000
 43
3.000000000000000
 50
0.0000000000000000
  0
LINE
  5
125
100
AcDbEntity
  8
MAIN0
  6
BYBLOCK
 62
0
100
AcDbLine
 10
594.7356610638686
 20
345.8526198293089
 30
0.0000000000000000
 11
594.7356610638686
 21
382.6526198114275
 31
0.0000000000000000
  0
MTEXT
  5
126
100
AcDbEntity
  8
MAIN0
  6
BYBLOCK
 62
0
100
AcDbMText
 10
527.7356610638688
 20
382.4776197399019
 30
0.0000000000000000
 40
4.649999856948853
 41
0.0000000000000000
 71
     5
 72
     1
  1
\A1;240
 11
1.000000000000000
 21
0.0000000000000000
 31
0.0000000000000000
  7
STANDARD
  0
ENDBLK
  5
127
100
AcDbEntity
  8
MAIN0
  6
CONTINUOUS
 62
1
100
AcDbBlockEnd
  0
BLOCK
  5
129
100
AcDbEntity
  8
MAIN0
  6
CONTINUOUS
 62
3
100
AcDbBlockBegin
  2
*D6
 70
    65
 10
0.0
 20
0.0
 30
0.0
  0
LINE
  5
12A
100
AcDbEntity
  8
MAIN0
  6
BYBLOCK
 62
0
100
AcDbLine
 10
538.9356610817501
 20
357.6526198114275
 30
0.0000000000000000
 11
569.2359619072270
 21
357.6526198114275
 31
0.0000000000000000
  0
LINE
  5
12B
100
AcDbEntity
  8
MAIN0
  6
BYBLOCK
 62
0
100
AcDbLine
 10
566.2359619072270
 20
354.6526198114275
 30
0.0000000000000000
 11
566.2359619072270
 21
200.6526198114275
 31
0.0000000000000000
  0
INSERT
  5
12C
100
AcDbEntity
  8
MAIN0
  6
BYBLOCK
 62
0
100
AcDbBlockReference
  2
_OPEN
 10
566.2359619072270
 20
357.6526198114275
 30
0.0000000000000000
 41
3.000000000000000
 42
3.000000000000000
 43
3.000000000000000
 50
90.00000000000000
  0
INSERT
  5
12D
100
AcDbEntity
  8
MAIN0
  6
BYBLOCK
 62
0
100
AcDbBlockReference
  2
_OPEN
 10
566.2359619072270
 20
197.6526198114275
 30
0.0000000000000000
 41
3.000000000000000
 42
3.000000000000000
 43
3.000000000000000
 50
270.0000000000000
  0
LINE
  5
12E
100
AcDbEntity
  8
MAIN0
  6
BYBLOCK
 62
0
100
AcDbLine
 10
535.4356610818560
 20
197.6526198114275
 30
0.0000000000000000
 11
569.2359619072270
 21
197.6526198114275
 31
0.0000000000000000
  0
MTEXT
  5
12F
100
AcDbEntity
  8
MAIN0
  6
BYBLOCK
 62
0
100
AcDbMText
 10
563.4109619787525
 20
277.6526198114275
 30
0.0000000000000000
 40
4.649999856948853
 41
0.0000000000000000
 71
     5
 72
     1
  1
\A1;160
 11
6.123233995736766e-017
 21
1.000000000000000
 31
0.0000000000000000
  7
STANDARD
  0
ENDBLK
  5
130
100
AcDbEntity
  8
MAIN0
  6
CONTINUOUS
 62
3
100
AcDbBlockEnd
  0
BLOCK
  5
132
100
AcDbEntity
  8
MAIN0
  6
CONTINUOUS
 62
3
100
AcDbBlockBegin
  2
*D7
 70
    65
 10
0.0
 20
0.0
 30
0.0
  0
LINE
  5
133
100
AcDbEntity
  8
MAIN0
  6
BYBLOCK
 62
0
100
AcDbLine
 10
515.7356610638688
 20
356.8526198293089
 30
0.0000000000000000
 11
515.7356610638688
 21
372.6526198114275
 31
0.0000000000000000
  0
LINE
  5
134
100
AcDbEntity
  8
MAIN0
  6
BYBLOCK
 62
0
100
AcDbLine
 10
518.7356610638688
 20
369.6526198114275
 30
0.0000000000000000
 11
536.7356610638688
 21
369.6526198114275
 31
0.0000000000000000
  0
INSERT
  5
135
100
AcDbEntity
  8
MAIN0
  6
BYBLOCK
 62
0
100
AcDbBlockReference
  2
_OPEN
 10
515.7356610638688
 20
369.6526198114275
 30
0.0000000000000000
 41
3.000000000000000
 42
3.000000000000000
 43
3.000000000000000
 50
180.0000000000000
  0
INSERT
  5
136
100
AcDbEntity
  8
MAIN0
  6
BYBLOCK
 62
0
100
AcDbBlockReference
  2
_OPEN
 10
539.7356610638688
 20
369.6526198114275
 30
0.0000000000000000
 41
3.000000000000000
 42
3.000000000000000
 43
3.000000000000000
 50
0.0000000000000000
  0
LINE
  5
137
100
AcDbEntity
  8
MAIN0
  6
BYBLOCK
 62
0
100
AcDbLine
 10
539.7356610638688
 20
356.8526198293089
 30
0.0000000000000000
 11
539.7356610638688
 21
372.6526198114275
 31
0.0000000000000000
  0
MTEXT
  5
138
100
AcDbEntity
  8
MAIN0
  6
BYBLOCK
 62
0
100
AcDbMText
 10
527.7356610638688
 20
372.4776197399019
 30
0.0000000000000000
 40
4.649999856948853
 41
0.0000000000000000
 71
     5
 72
     1
  1
\A1;\U+220524
 11
1.000000000000000
 21
0.0000000000000000
 31
0.0000000000000000
  7
STANDARD
  0
ENDBLK
  5
139
100
AcDbEntity
  8
MAIN0
  6
CONTINUOUS
 62
3
100
AcDbBlockEnd
  0
BLOCK
  5
13B
100
AcDbEntity
  8
MAIN0
  6
CONTINUOUS
 62
1
100
AcDbBlockBegin
  2
*D8
 70
    65
 10
0.0
 20
0.0
 30
0.0
  0
LINE
  5
13C
100
AcDbEntity
  8
MAIN0
  6
BYBLOCK
 62
0
100
AcDbLine
 10
516.5356610459874
 20
357.6526198114275
 30
0.0000000000000000
 11
493.2359619072270
 21
357.6526198114275
 31
0.0000000000000000
  0
LINE
  5
13D
100
AcDbEntity
  8
MAIN0
  6
BYBLOCK
 62
0
100
AcDbLine
 10
496.2359619072270
 20
354.6526198114275
 30
0.0000000000000000
 11
496.2359619072270
 21
347.6526198114275
 31
0.0000000000000000
  0
INSERT
  5
13E
100
AcDbEntity
  8
MAIN0
  6
BYBLOCK
 62
0
100
AcDbBlockReference
  2
_OPEN
 10
496.2359619072270
 20
357.6526198114275
 30
0.0000000000000000
 41
3.000000000000000
 42
3.000000000000000
 43
3.000000000000000
 50
90.00000000000000
  0
INSERT
  5
13F
100
AcDbEntity
  8
MAIN0
  6
BYBLOCK
 62
0
100
AcDbBlockReference
  2
_OPEN
 10
496.2359619072270
 20
344.6526198114275
 30
0.0000000000000000
 41
3.000000000000000
 42
3.000000000000000
 43
3.000000000000000
 50
270.0000000000000
  0
LINE
  5
140
100
AcDbEntity
  8
MAIN0
  6
BYBLOCK
 62
0
100
AcDbLine
 10
496.2359619072270
 20
357.6526198114275
 30
0.0000000000000000
 11
496.2359619072270
 21
365.4186234197017
 31
0.0000000000000000
  0
MTEXT
  5
141
100
AcDbEntity
  8
MAIN0
  6
BYBLOCK
 62
0
100
AcDbMText
 10
493.4109619787525
 20
362.3436234912273
 30
0.0000000000000000
 40
4.649999856948853
 41
0.0000000000000000
 71
     5
 72
     1
  1
\A1;13
 11
6.123233995736766e-017
 21
1.000000000000000
 31
0.0000000000000000
  7
STANDARD
  0
ENDBLK
  5
142
100
AcDbEntity
  8
MAIN0
  6
CONTINUOUS
 62
1
100
AcDbBlockEnd
  0
BLOCK
  5
144
100
AcDbEntity
  8
MAIN0
  6
CONTINUOUS
 62
3
100
AcDbBlockBegin
  2
*D9
 70
    65
 10
0.0
 20
0.0
 30
0.0
  0
LINE
  5
145
100
AcDbEntity
  8
MAIN0
  6
BYBLOCK
 62
0
100
AcDbLine
 10
556.2359619072270
 20
350.1526198114275
 30
0.0000000000000000
 11
556.2359619072270
 21
339.1526198114275
 31
0.0000000000000000
  0
INSERT
  5
146
100
AcDbEntity
  8
MAIN0
  6
BYBLOCK
 62
0
100
AcDbBlockReference
  2
_OPEN
 10
556.2359619072270
 20
350.1526198114275
 30
0.0000000000000000
 41
3.000000000000000
 42
3.000000000000000
 43
3.000000000000000
 50
270.0000000000000
  0
INSERT
  5
147
100
AcDbEntity
  8
MAIN0
  6
BYBLOCK
 62
0
100
AcDbBlockReference
  2
_OPEN
 10
556.2359619072270
 20
339.1526198114275
 30
0.0000000000000000
 41
3.000000000000000
 42
3.000000000000000
 43
3.000000000000000
 50
90.00000000000000
  0
LINE
  5
148
100
AcDbEntity
  8
MAIN0
  6
BYBLOCK
 62
0
100
AcDbLine
 10
556.2359619072270
 20
353.1526198114275
 30
0.0000000000000000
 11
556.2359619072270
 21
354.6526198114275
 31
0.0000000000000000
  0
LINE
  5
149
100
AcDbEntity
  8
MAIN0
  6
BYBLOCK
 62
0
100
AcDbLine
 10
556.2359619072270
 20
336.1526198114275
 30
0.0000000000000000
 11
556.2359619072270
 21
334.6526198114275
 31
0.0000000000000000
  0
MTEXT
  5
14A
100
AcDbEntity
  8
MAIN0
  6
BYBLOCK
 62
0
100
AcDbMText
 10
553.1609619787525
 20
344.7587114970095
 30
0.0000000000000000
 40
4.649999856948853
 41
0.0000000000000000
 71
     5
 72
     1
  1
\A1;\U+220511
 11
6.123233995736766e-017
 21
1.000000000000000
 31
0.0000000000000000
  7
STANDARD
  0
ENDBLK
  5
14B
100
AcDbEntity
  8
MAIN0
  6
CONTINUOUS
 62
3
100
AcDbBlockEnd
  0
BLOCK
  5
14D
100
AcDbEntity
  8
MAIN0
  6
CONTINUOUS
 62
3
100
AcDbBlockBegin
  2
*D10
 70
    65
 10
0.0
 20
0.0
 30
0.0
  0
LINE
  5
14E
100
AcDbEntity
  8
MAIN0
  6
BYBLOCK
 62
0
100
AcDbLine
 10
520.7356610638688
 20
301.6940346527441
 30
0.0000000000000000
 11
534.7356610638688
 21
301.6940346527441
 31
0.0000000000000000
  0
INSERT
  5
14F
100
AcDbEntity
  8
MAIN0
  6
BYBLOCK
 62
0
100
AcDbBlockReference
  2
_OPEN
 10
517.7356610638688
 20
301.6940346527441
 30
0.0000000000000000
 41
3.000000000000000
 42
3.000000000000000
 43
3.000000000000000
 50
180.0000000000000
  0
INSERT
  5
150
100
AcDbEntity
  8
MAIN0
  6
BYBLOCK
 62
0
100
AcDbBlockReference
  2
_OPEN
 10
537.7356610638688
 20
301.6940346527441
 30
0.0000000000000000
 41
3.000000000000000
 42
3.000000000000000
 43
3.000000000000000
 50
0.0000000000000000
  0
MTEXT
  5
151
100
AcDbEntity
  8
MAIN0
  6
BYBLOCK
 62
0
100
AcDbMText
 10
527.7356610638688
 20
304.5190345812185
 30
0.0000000000000000
 40
4.649999856948853
 41
0.0000000000000000
 71
     5
 72
     1
  1
\A1;\U+220520
 11
1.000000000000000
 21
0.0000000000000000
 31
0.0000000000000000
  7
STANDARD
  0
ENDBLK
  5
152
100
AcDbEntity
  8
MAIN0
  6
CONTINUOUS
 62
3
100
AcDbBlockEnd
  0
BLOCK
  5
154
100
AcDbEntity
  8
MAIN0
  6
CONTINUOUS
 62
3
100
AcDbBlockBegin
  2
*D11
 70
    65
 10
0.0
 20
0.0
 30
0.0
  0
LINE
  5
155
100
AcDbEntity
  8
MAIN0
  6
BYBLOCK
 62
0
100
AcDbLine
 10
536.1356610818506
 20
212.6526198114275
 30
0.0000000000000000
 11
550.4841594839302
 21
212.6526198114275
 31
0.0000000000000000
  0
LINE
  5
156
100
AcDbEntity
  8
MAIN0
  6
BYBLOCK
 62
0
100
AcDbLine
 10
547.4841594839302
 20
209.6526198114275
 30
0.0000000000000000
 11
547.4841594839302
 21
200.6526198114275
 31
0.0000000000000000
  0
INSERT
  5
157
100
AcDbEntity
  8
MAIN0
  6
BYBLOCK
 62
0
100
AcDbBlockReference
  2
_OPEN
 10
547.4841594839302
 20
212.6526198114275
 30
0.0000000000000000
 41
3.000000000000000
 42
3.000000000000000
 43
3.000000000000000
 50
90.00000000000000
  0
INSERT
  5
158
100
AcDbEntity
  8
MAIN0
  6
BYBLOCK
 62
0
100
AcDbBlockReference
  2
_OPEN
 10
547.4841594839302
 20
197.6526198114275
 30
0.0000000000000000
 41
3.000000000000000
 42
3.000000000000000
 43
3.000000000000000
 50
270.0000000000000
  0
LINE
  5
159
100
AcDbEntity
  8
MAIN0
  6
BYBLOCK
 62
0
100
AcDbLine
 10
535.4356610818560
 20
197.6526198114275
 30
0.0000000000000000
 11
550.4841594839302
 21
197.6526198114275
 31
0.0000000000000000
  0
MTEXT
  5
15A
100
AcDbEntity
  8
MAIN0
  6
BYBLOCK
 62
0
100
AcDbMText
 10
544.6591595554557
 20
205.1526198114275
 30
0.0000000000000000
 40
4.649999856948853
 41
0.0000000000000000
 71
     5
 72
     1
  1
\A1;15
 11
6.123233995736766e-017
 21
1.000000000000000
 31
0.0000000000000000
  7
STANDARD
  0
ENDBLK
  5
15B
100
AcDbEntity
  8
MAIN0
  6
CONTINUOUS
 62
3
100
AcDbBlockEnd
  0
BLOCK
  5
15D
100
AcDbEntity
  8
MAIN0
  6
CONTINUOUS
 62
3
100
AcDbBlockBegin
  2
*D12
 70
    65
 10
0.0
 20
0.0
 30
0.0
  0
LINE
  5
15E
100
AcDbEntity
  8
MAIN0
  6
BYBLOCK
 62
0
100
AcDbLine
 10
285.3814523302170
 20
195.3267396722337
 30
0.0000000000000000
 11
388.9510023224182
 21
326.3318858093720
 31
0.0000000000000000
  0
INSERT
  5
15F
100
AcDbEntity
  8
MAIN0
  6
BYBLOCK
 62
0
100
AcDbBlockReference
  2
_OPEN
 10
283.5209214920338
 20
192.9733538134827
 30
0.0000000000000000
 41
3.000000000000000
 42
3.000000000000000
 43
3.000000000000000
 50
231.6709428361297
  0
MTEXT
  5
160
100
AcDbEntity
  8
MAIN0
  6
BYBLOCK
 62
0
100
AcDbMText
 10
293.9455051487809
 20
211.1176741621540
 30
0.0000000000000000
 40
4.649999856948853
 41
0.0000000000000000
 71
     5
 72
     1
  1
\A1;\U+2205170\H0.903226x;\U+00B10.2
 11
0.6201769460610845
 21
0.7844619529169956
 31
0.0000000000000000
  7
STANDARD
  0
ENDBLK
  5
161
100
AcDbEntity
  8
MAIN0
  6
CONTINUOUS
 62
3
100
AcDbBlockEnd
  0
BLOCK
  5
163
100
AcDbEntity
  8
MAIN0
  6
CONTINUOUS
 62
3
100
AcDbBlockBegin
  2
*D13
 70
    65
 10
0.0
 20
0.0
 30
0.0
  0
LINE
  5
164
100
AcDbEntity
  8
MAIN0
  6
BYBLOCK
 62
0
100
AcDbLine
 10
528.0060146208873
 20
173.5200376940108
 30
0.0000000000000000
 11
541.2457673914921
 21
160.2802849234038
 31
0.0000000000000000
  0
LINE
  5
165
100
AcDbEntity
  8
MAIN0
  6
BYBLOCK
 62
0
100
AcDbLine
 10
541.2457673914925
 20
164.5229256105231
 30
0.0000000000000000
 11
544.7813012974254
 21
168.0584595164555
 31
0.0000000000000000
  0
INSERT
  5
166
100
AcDbEntity
  8
MAIN0
  6
BYBLOCK
 62
0
100
AcDbBlockReference
  2
_OPEN
 10
539.1244470479326
 20
162.4016052669637
 30
0.0000000000000000
 41
3.000000000000000
 42
3.000000000000000
 43
3.000000000000000
 50
224.9999999999952
  0
INSERT
  5
167
100
AcDbEntity
  8
MAIN0
  6
BYBLOCK
 62
0
100
AcDbBlockReference
  2
_OPEN
 10
546.9026216409852
 20
170.1797798600150
 30
0.0000000000000000
 41
3.000000000000000
 42
3.000000000000000
 43
3.000000000000000
 50
44.99999999999516
  0
LINE
  5
168
100
AcDbEntity
  8
MAIN0
  6
BYBLOCK
 62
0
100
AcDbLine
 10
546.9026216409852
 20
170.1797798600150
 30
0.0000000000000000
 11
562.8537414062478
 21
186.1308996252751
 31
0.0000000000000000
  0
LINE
  5
169
100
AcDbEntity
  8
MAIN0
  6
BYBLOCK
 62
0
100
AcDbLine
 10
535.7841892139365
 20
181.2982122870656
 30
0.0000000000000000
 11
549.0239419845447
 21
168.0584595164552
 31
0.0000000000000000
  0
MTEXT
  5
16A
100
AcDbEntity
  8
MAIN0
  6
BYBLOCK
 62
0
100
AcDbMText
 10
554.3596211628683
 20
181.6319325944476
 30
0.0000000000000000
 40
4.649999856948853
 41
0.0000000000000000
 71
     5
 72
     1
  1
\A1;11\H0.903226x;\S　0^ －0.15;
 11
0.7071067811866044
 21
0.7071067811864906
 31
0.0000000000000000
  7
KNJYOKO
  0
ENDBLK
  5
16B
100
AcDbEntity
  8
MAIN0
  6
CONTINUOUS
 62
3
100
AcDbBlockEnd
  0
BLOCK
  5
16E
100
AcDbEntity
  8
MAIN0
  6
CONTINUOUS
 62
3
100
AcDbBlockBegin
  2
*D14
 70
    65
 10
0.0
 20
0.0
 30
0.0
  0
LINE
  5
16F
100
AcDbEntity
  8
MAIN0
  6
BYBLOCK
 62
0
100
AcDbLine
 10
207.6040771330783
 20
273.6526198114275
 30
0.0000000000000000
 11
224.2359619072270
 21
273.6526198114275
 31
0.0000000000000000
  0
LINE
  5
170
100
AcDbEntity
  8
MAIN0
  6
BYBLOCK
 62
0
100
AcDbLine
 10
221.2359619072270
 20
270.6526198114275
 30
0.0000000000000000
 11
221.2359619072270
 21
248.6526198114275
 31
0.0000000000000000
  0
INSERT
  5
171
100
AcDbEntity
  8
MAIN0
  6
BYBLOCK
 62
0
100
AcDbBlockReference
  2
_OPEN
 10
221.2359619072270
 20
273.6526198114275
 30
0.0000000000000000
 41
3.000000000000000
 42
3.000000000000000
 43
3.000000000000000
 50
90.00000000000000
  0
INSERT
  5
172
100
AcDbEntity
  8
MAIN0
  6
BYBLOCK
 62
0
100
AcDbBlockReference
  2
_OPEN
 10
221.2359619072270
 20
245.6526198114275
 30
0.0000000000000000
 41
3.000000000000000
 42
3.000000000000000
 43
3.000000000000000
 50
270.0000000000000
  0
LINE
  5
173
100
AcDbEntity
  8
MAIN0
  6
BYBLOCK
 62
0
100
AcDbLine
 10
207.6040771330902
 20
245.6526198114275
 30
0.0000000000000000
 11
224.2359619072270
 21
245.6526198114275
 31
0.0000000000000000
  0
MTEXT
  5
174
100
AcDbEntity
  8
MAIN0
  6
BYBLOCK
 62
0
100
AcDbMText
 10
218.4109619787525
 20
259.6526198114275
 30
0.0000000000000000
 40
4.649999856948853
 41
0.0000000000000000
 71
     5
 72
     1
  1
\A1;28
 11
6.123233995736766e-017
 21
1.000000000000000
 31
0.0000000000000000
  7
STANDARD
  0
ENDBLK
  5
175
100
AcDbEntity
  8
MAIN0
  6
CONTINUOUS
 62
3
100
AcDbBlockEnd
  0
BLOCK
  5
177
100
AcDbEntity
  8
MAIN0
  6
CONTINUOUS
 62
3
100
AcDbBlockBegin
  2
*D15
 70
    65
 10
0.0
 20
0.0
 30
0.0
  0
LINE
  5
178
100
AcDbEntity
  8
MAIN0
  6
BYBLOCK
 62
0
100
AcDbLine
 10
207.4068374912602
 20
242.6521080202058
 30
0.0000000000000000
 11
224.2359619072270
 21
242.6521080201972
 31
0.0000000000000000
  0
LINE
  5
179
100
AcDbEntity
  8
MAIN0
  6
BYBLOCK
 62
0
100
AcDbLine
 10
221.2359619072270
 20
239.6521080201988
 30
0.0000000000000000
 11
221.2359619072270
 21
165.6521080202281
 31
0.0000000000000000
  0
INSERT
  5
17A
100
AcDbEntity
  8
MAIN0
  6
BYBLOCK
 62
0
100
AcDbBlockReference
  2
_OPEN
 10
221.2359619072270
 20
242.6521080201988
 30
0.0000000000000000
 41
3.000000000000000
 42
3.000000000000000
 43
3.000000000000000
 50
90.00000000000000
  0
INSERT
  5
17B
100
AcDbEntity
  8
MAIN0
  6
BYBLOCK
 62
0
100
AcDbBlockReference
  2
_OPEN
 10
221.2359619072270
 20
162.6521080202281
 30
0.0000000000000000
 41
3.000000000000000
 42
3.000000000000000
 43
3.000000000000000
 50
270.0000000000000
  0
LINE
  5
17C
100
AcDbEntity
  8
MAIN0
  6
BYBLOCK
 62
0
100
AcDbLine
 10
187.9068374911714
 20
162.6521080202280
 30
0.0000000000000000
 11
224.2359619072270
 21
162.6521080202281
 31
0.0000000000000000
  0
MTEXT
  5
17D
100
AcDbEntity
  8
MAIN0
  6
BYBLOCK
 62
0
100
AcDbMText
 10
218.4109619787525
 20
202.6521080202134
 30
0.0000000000000000
 40
4.649999856948853
 41
0.0000000000000000
 71
     5
 72
     1
  1
\A1;80
 11
6.123233995736766e-017
 21
1.000000000000000
 31
0.0000000000000000
  7
STANDARD
  0
ENDBLK
  5
17E
100
AcDbEntity
  8
MAIN0
  6
CONTINUOUS
 62
3
100
AcDbBlockEnd
  0
BLOCK
  5
180
100
AcDbEntity
  8
MAIN0
  6
CONTINUOUS
 62
3
100
AcDbBlockBegin
  2
*D16
 70
    65
 10
0.0
 20
0.0
 30
0.0
  0
LINE
  5
181
100
AcDbEntity
  8
MAIN0
  6
BYBLOCK
 62
0
100
AcDbLine
 10
416.2359375630513
 20
156.6914991188637
 30
0.0000000000000000
 11
416.2359375630513
 21
172.9475373281806
 31
0.0000000000000000
  0
LINE
  5
182
100
AcDbEntity
  8
MAIN0
  6
BYBLOCK
 62
0
100
AcDbLine
 10
419.2359375630513
 20
169.9475373281806
 30
0.0000000000000000
 11
501.2359375630513
 21
169.9475373281806
 31
0.0000000000000000
  0
INSERT
  5
183
100
AcDbEntity
  8
MAIN0
  6
BYBLOCK
 62
0
100
AcDbBlockReference
  2
_OPEN
 10
416.2359375630513
 20
169.9475373281806
 30
0.0000000000000000
 41
3.000000000000000
 42
3.000000000000000
 43
3.000000000000000
 50
180.0000000000000
  0
INSERT
  5
184
100
AcDbEntity
  8
MAIN0
  6
BYBLOCK
 62
0
100
AcDbBlockReference
  2
_OPEN
 10
504.2359375630513
 20
169.9475373281806
 30
0.0000000000000000
 41
3.000000000000000
 42
3.000000000000000
 43
3.000000000000000
 50
0.0000000000000000
  0
LINE
  5
185
100
AcDbEntity
  8
MAIN0
  6
BYBLOCK
 62
0
100
AcDbLine
 10
504.2359375630513
 20
156.6914991188637
 30
0.0000000000000000
 11
504.2359375630513
 21
172.9475373281806
 31
0.0000000000000000
  0
MTEXT
  5
186
100
AcDbEntity
  8
MAIN0
  6
BYBLOCK
 62
0
100
AcDbMText
 10
460.2359375630513
 20
172.7725372566550
 30
0.0000000000000000
 40
4.649999856948853
 41
0.0000000000000000
 71
     5
 72
     1
  1
\A1;88
 11
1.000000000000000
 21
0.0000000000000000
 31
0.0000000000000000
  7
STANDARD
  0
ENDBLK
  5
187
100
AcDbEntity
  8
MAIN0
  6
CONTINUOUS
 62
3
100
AcDbBlockEnd
  0
BLOCK
  5
189
100
AcDbEntity
  8
MAIN0
  6
CONTINUOUS
 62
3
100
AcDbBlockBegin
  2
*D17
 70
    65
 10
0.0
 20
0.0
 30
0.0
  0
LINE
  5
18A
100
AcDbEntity
  8
MAIN0
  6
BYBLOCK
 62
0
100
AcDbLine
 10
434.0109375630511
 20
110.0792471871015
 30
0.0000000000000000
 11
434.0109375630511
 21
98.64940325857518
 31
0.0000000000000000
  0
LINE
  5
18B
100
AcDbEntity
  8
MAIN0
  6
BYBLOCK
 62
0
100
AcDbLine
 10
437.0109375630511
 20
101.6494032585752
 30
0.0000000000000000
 11
453.2359375630513
 21
101.6494032585752
 31
0.0000000000000000
  0
INSERT
  5
18C
100
AcDbEntity
  8
MAIN0
  6
BYBLOCK
 62
0
100
AcDbBlockReference
  2
_OPEN
 10
434.0109375630511
 20
101.6494032585752
 30
0.0000000000000000
 41
3.000000000000000
 42
3.000000000000000
 43
3.000000000000000
 50
180.0000000000000
  0
INSERT
  5
18D
100
AcDbEntity
  8
MAIN0
  6
BYBLOCK
 62
0
100
AcDbBlockReference
  2
_OPEN
 10
456.2359375630513
 20
101.6494032585752
 30
0.0000000000000000
 41
3.000000000000000
 42
3.000000000000000
 43
3.000000000000000
 50
0.0000000000000000
  0
LINE
  5
18E
100
AcDbEntity
  8
MAIN0
  6
BYBLOCK
 62
0
100
AcDbLine
 10
456.2359375630513
 20
105.7733223460112
 30
0.0000000000000000
 11
456.2359375630513
 21
98.64940325857518
 31
0.0000000000000000
  0
MTEXT
  5
18F
100
AcDbEntity
  8
MAIN0
  6
BYBLOCK
 62
0
100
AcDbMText
 10
445.1234375630512
 20
104.4744031870496
 30
0.0000000000000000
 40
4.649999856948853
 41
0.0000000000000000
 71
     5
 72
     1
  1
\A1;22.225
 11
1.000000000000000
 21
0.0000000000000000
 31
0.0000000000000000
  7
STANDARD
  0
ENDBLK
  5
190
100
AcDbEntity
  8
MAIN0
  6
CONTINUOUS
 62
3
100
AcDbBlockEnd
  0
BLOCK
  5
192
100
AcDbEntity
  8
MAIN0
  6
CONTINUOUS
 62
3
100
AcDbBlockBegin
  2
*D18
 70
    65
 10
0.0
 20
0.0
 30
0.0
  0
LINE
  5
193
100
AcDbEntity
  8
MAIN0
  6
BYBLOCK
 62
0
100
AcDbLine
 10
456.2359375630513
 20
105.7733223460112
 30
0.0000000000000000
 11
456.2359375630513
 21
98.64940325857518
 31
0.0000000000000000
  0
LINE
  5
194
100
AcDbEntity
  8
MAIN0
  6
BYBLOCK
 62
0
100
AcDbLine
 10
459.2359375630513
 20
101.6494032585752
 30
0.0000000000000000
 11
475.4609375630512
 21
101.6494032585752
 31
0.0000000000000000
  0
INSERT
  5
195
100
AcDbEntity
  8
MAIN0
  6
BYBLOCK
 62
0
100
AcDbBlockReference
  2
_OPEN
 10
456.2359375630513
 20
101.6494032585752
 30
0.0000000000000000
 41
3.000000000000000
 42
3.000000000000000
 43
3.000000000000000
 50
180.0000000000000
  0
INSERT
  5
196
100
AcDbEntity
  8
MAIN0
  6
BYBLOCK
 62
0
100
AcDbBlockReference
  2
_OPEN
 10
478.4609375630512
 20
101.6494032585752
 30
0.0000000000000000
 41
3.000000000000000
 42
3.000000000000000
 43
3.000000000000000
 50
0.0000000000000000
  0
LINE
  5
197
100
AcDbEntity
  8
MAIN0
  6
BYBLOCK
 62
0
100
AcDbLine
 10
478.4609375630512
 20
110.0792471871015
 30
0.0000000000000000
 11
478.4609375630512
 21
98.64940325857518
 31
0.0000000000000000
  0
MTEXT
  5
198
100
AcDbEntity
  8
MAIN0
  6
BYBLOCK
 62
0
100
AcDbMText
 10
467.3484375630512
 20
104.4744031870496
 30
0.0000000000000000
 40
4.649999856948853
 41
0.0000000000000000
 71
     5
 72
     1
  1
\A1;22.225
 11
1.000000000000000
 21
0.0000000000000000
 31
0.0000000000000000
  7
STANDARD
  0
ENDBLK
  5
199
100
AcDbEntity
  8
MAIN0
  6
CONTINUOUS
 62
3
100
AcDbBlockEnd
  0
BLOCK
  5
19B
100
AcDbEntity
  8
MAIN0
  6
CONTINUOUS
 62
3
100
AcDbBlockBegin
  2
*D19
 70
    65
 10
0.0
 20
0.0
 30
0.0
  0
LINE
  5
19C
100
AcDbEntity
  8
MAIN0
  6
BYBLOCK
 62
0
100
AcDbLine
 10
504.4359375809327
 20
156.4914991009823
 30
0.0000000000000000
 11
520.0336236095870
 21
156.4914991009823
 31
0.0000000000000000
  0
LINE
  5
19D
100
AcDbEntity
  8
MAIN0
  6
BYBLOCK
 62
0
100
AcDbLine
 10
517.0336236095870
 20
153.4914991009823
 30
0.0000000000000000
 11
517.0336236095870
 21
118.4914991009823
 31
0.0000000000000000
  0
INSERT
  5
19E
100
AcDbEntity
  8
MAIN0
  6
BYBLOCK
 62
0
100
AcDbBlockReference
  2
_OPEN
 10
517.0336236095870
 20
156.4914991009823
 30
0.0000000000000000
 41
3.000000000000000
 42
3.000000000000000
 43
3.000000000000000
 50
90.00000000000000
  0
INSERT
  5
19F
100
AcDbEntity
  8
MAIN0
  6
BYBLOCK
 62
0
100
AcDbBlockReference
  2
_OPEN
 10
517.0336236095870
 20
115.4914991009823
 30
0.0000000000000000
 41
3.000000000000000
 42
3.000000000000000
 43
3.000000000000000
 50
270.0000000000000
  0
LINE
  5
1A0
100
AcDbEntity
  8
MAIN0
  6
BYBLOCK
 62
0
100
AcDbLine
 10
463.4759375809326
 20
115.4914991009823
 30
0.0000000000000000
 11
520.0336236095870
 21
115.4914991009823
 31
0.0000000000000000
  0
MTEXT
  5
1A1
100
AcDbEntity
  8
MAIN0
  6
BYBLOCK
 62
0
100
AcDbMText
 10
514.2086236811126
 20
135.9914991009823
 30
0.0000000000000000
 40
4.649999856948853
 41
0.0000000000000000
 71
     5
 72
     1
  1
\A1;41
 11
6.123233995736766e-017
 21
1.000000000000000
 31
0.0000000000000000
  7
STANDARD
  0
ENDBLK
  5
1A2
100
AcDbEntity
  8
MAIN0
  6
CONTINUOUS
 62
3
100
AcDbBlockEnd
  0
BLOCK
  5
1A4
100
AcDbEntity
  8
MAIN0
  6
CONTINUOUS
 62
3
100
AcDbBlockBegin
  2
*D20
 70
    65
 10
0.0
 20
0.0
 30
0.0
  0
ARC
  5
1A5
100
AcDbEntity
  8
MAIN0
  6
BYBLOCK
 62
0
100
AcDbCircle
 10
336.2359619072260
 20
259.6526198114274
 30
0.0000000000000000
 40
105.2402464915032
100
AcDbArc
 50
271.6332852142562
 51
328.3667147857439
  0
INSERT
  5
1A6
100
AcDbEntity
  8
MAIN0
  6
BYBLOCK
 62
0
100
AcDbBlockReference
  2
_OPEN
 10
336.2359619072260
 20
154.4123733199242
 30
0.0000000000000000
 41
3.000000000000000
 42
3.000000000000000
 43
3.000000000000000
 50
180.0000000000000
  0
INSERT
  5
1A7
100
AcDbEntity
  8
MAIN0
  6
BYBLOCK
 62
0
100
AcDbBlockReference
  2
_OPEN
 10
427.3766888694039
 20
207.0324965656758
 30
0.0000000000000000
 41
3.000000000000000
 42
3.000000000000000
 43
3.000000000000000
 50
59.99999999999994
  0
MTEXT
  5
1A8
100
AcDbEntity
  8
MAIN0
  6
BYBLOCK
 62
0
100
AcDbMText
 10
387.4435851887403
 20
170.9584145529976
 30
0.0000000000000000
 40
4.649999856948853
 41
0.0000000000000000
 71
     5
 72
     1
  1
\A1;60\U+00B0
 11
0.8660254037844389
 21
0.4999999999999994
 31
0.0000000000000000
  7
STANDARD
  0
ENDBLK
  5
1A9
100
AcDbEntity
  8
MAIN0
  6
CONTINUOUS
 62
3
100
AcDbBlockEnd
  0
BLOCK
  5
1AB
100
AcDbEntity
  8
MAIN0
  6
CONTINUOUS
 62
3
100
AcDbBlockBegin
  2
*D21
 70
    65
 10
0.0
 20
0.0
 30
0.0
  0
ARC
  5
1AC
100
AcDbEntity
  8
MAIN0
  6
BYBLOCK
 62
0
100
AcDbCircle
 10
336.2359619072260
 20
259.6526198114274
 30
0.0000000000000000
 40
105.2402464915032
100
AcDbArc
 50
331.6332852142561
 51
358.3667147857439
  0
INSERT
  5
1AD
100
AcDbEntity
  8
MAIN0
  6
BYBLOCK
 62
0
100
AcDbBlockReference
  2
_OPEN
 10
427.3766888694039
 20
207.0324965656758
 30
0.0000000000000000
 41
3.000000000000000
 42
3.000000000000000
 43
3.000000000000000
 50
240.0000000000000
  0
INSERT
  5
1AE
100
AcDbEntity
  8
MAIN0
  6
BYBLOCK
 62
0
100
AcDbBlockReference
  2
_OPEN
 10
441.4762083987292
 20
259.6526198114274
 30
0.0000000000000000
 41
3.000000000000000
 42
3.000000000000000
 43
3.000000000000000
 50
90.00000000000000
  0
MTEXT
  5
1AF
100
AcDbEntity
  8
MAIN0
  6
BYBLOCK
 62
0
100
AcDbMText
 10
435.1614935682181
 20
233.1456034920452
 30
0.0000000000000000
 40
4.649999856948853
 41
0.0000000000000000
 71
     5
 72
     1
  1
\A1;30\U+00B0
 11
0.2588190451025205
 21
0.9659258262890683
 31
0.0000000000000000
  7
STANDARD
  0
ENDBLK
  5
1B0
100
AcDbEntity
  8
MAIN0
  6
CONTINUOUS
 62
3
100
AcDbBlockEnd
  0
BLOCK
  5
1B2
100
AcDbEntity
  8
MAIN0
  6
CONTINUOUS
 62
3
100
AcDbBlockBegin
  2
*D22
 70
    65
 10
0.0
 20
0.0
 30
0.0
  0
ARC
  5
1B3
100
AcDbEntity
  8
MAIN0
  6
BYBLOCK
 62
0
100
AcDbCircle
 10
336.2359619072260
 20
259.6526198114274
 30
0.0000000000000000
 40
105.2402464915032
100
AcDbArc
 50
1.633285214256170
 51
28.36671478574383
  0
INSERT
  5
1B4
100
AcDbEntity
  8
MAIN0
  6
BYBLOCK
 62
0
100
AcDbBlockReference
  2
_OPEN
 10
441.4762083987292
 20
259.6526198114274
 30
0.0000000000000000
 41
3.000000000000000
 42
3.000000000000000
 43
3.000000000000000
 50
270.0000000000000
  0
INSERT
  5
1B5
100
AcDbEntity
  8
MAIN0
  6
BYBLOCK
 62
0
100
AcDbBlockReference
  2
_OPEN
 10
427.3766888694039
 20
312.2727430571790
 30
0.0000000000000000
 41
3.000000000000000
 42
3.000000000000000
 43
3.000000000000000
 50
120.0000000000000
  0
MTEXT
  5
1B6
100
AcDbEntity
  8
MAIN0
  6
BYBLOCK
 62
0
100
AcDbMText
 10
435.1614935682183
 20
286.1596361308098
 30
0.0000000000000000
 40
4.649999856948853
 41
0.0000000000000000
 71
     5
 72
     1
  1
\A1;30\U+00B0
 11
-0.2588190451025209
 21
0.9659258262890683
 31
0.0000000000000000
  7
STANDARD
  0
ENDBLK
  5
1B7
100
AcDbEntity
  8
MAIN0
  6
CONTINUOUS
 62
3
100
AcDbBlockEnd
  0
BLOCK
  5
1B9
100
AcDbEntity
  8
MAIN0
  6
CONTINUOUS
 62
3
100
AcDbBlockBegin
  2
*D23
 70
    65
 10
0.0
 20
0.0
 30
0.0
  0
ARC
  5
1BA
100
AcDbEntity
  8
MAIN0
  6
BYBLOCK
 62
0
100
AcDbCircle
 10
336.2359619072260
 20
259.6526198114274
 30
0.0000000000000000
 40
105.2402464915032
100
AcDbArc
 50
31.63328521425617
 51
88.36671478574384
  0
INSERT
  5
1BB
100
AcDbEntity
  8
MAIN0
  6
BYBLOCK
 62
0
100
AcDbBlockReference
  2
_OPEN
 10
427.3766888694039
 20
312.2727430571790
 30
0.0000000000000000
 41
3.000000000000000
 42
3.000000000000000
 43
3.000000000000000
 50
300.0000000000000
  0
INSERT
  5
1BC
100
AcDbEntity
  8
MAIN0
  6
BYBLOCK
 62
0
100
AcDbBlockReference
  2
_OPEN
 10
336.2359619072260
 20
364.8928663029307
 30
0.0000000000000000
 41
3.000000000000000
 42
3.000000000000000
 43
3.000000000000000
 50
180.0000000000000
  0
MTEXT
  5
1BD
100
AcDbEntity
  8
MAIN0
  6
BYBLOCK
 62
0
100
AcDbMText
 10
390.2685851172148
 20
353.2398684773535
 30
0.0000000000000000
 40
4.649999856948853
 41
0.0000000000000000
 71
     5
 72
     1
  1
\A1;60\U+00B0
 11
0.8660254037844388
 21
-0.4999999999999997
 31
0.0000000000000000
  7
STANDARD
  0
ENDBLK
  5
1BE
100
AcDbEntity
  8
MAIN0
  6
CONTINUOUS
 62
3
100
AcDbBlockEnd
  0
BLOCK
  5
1C0
100
AcDbEntity
  8
MAIN0
  6
CONTINUOUS
 62
3
100
AcDbBlockBegin
  2
*D24
 70
    65
 10
0.0
 20
0.0
 30
0.0
  0
LINE
  5
1C1
100
AcDbEntity
  8
MAIN0
  6
BYBLOCK
 62
0
100
AcDbLine
 10
318.2000881749421
 20
309.2057756310123
 30
0.0000000000000000
 11
299.2156172885964
 21
361.3651807115409
 31
0.0000000000000000
  0
ARC
  5
1C2
100
AcDbEntity
  8
MAIN0
  6
BYBLOCK
 62
0
100
AcDbCircle
 10
336.2359619072260
 20
259.6526198114274
 30
0.0000000000000000
 40
105.2402464915032
100
AcDbArc
 50
91.63328521425616
 51
108.3667147857438
  0
INSERT
  5
1C3
100
AcDbEntity
  8
MAIN0
  6
BYBLOCK
 62
0
100
AcDbBlockReference
  2
_OPEN
 10
336.2359619072260
 20
364.8928663029307
 30
0.0000000000000000
 41
3.000000000000000
 42
3.000000000000000
 43
3.000000000000000
 50
360.0000000000000
  0
INSERT
  5
1C4
100
AcDbEntity
  8
MAIN0
  6
BYBLOCK
 62
0
100
AcDbBlockReference
  2
_OPEN
 10
300.2416777185734
 20
358.5461028491831
 30
0.0000000000000000
 41
3.000000000000000
 42
3.000000000000000
 43
3.000000000000000
 50
200.0000000000000
  0
MTEXT
  5
1C5
100
AcDbEntity
  8
MAIN0
  6
BYBLOCK
 62
0
100
AcDbMText
 10
317.4706287972691
 20
366.0761123169962
 30
0.0000000000000000
 40
4.649999856948853
 41
0.0000000000000000
 71
     5
 72
     1
  1
\A1;20\U+00B0
 11
0.9848077530122081
 21
0.1736481776669301
 31
0.0000000000000000
  7
STANDARD
  0
ENDBLK
  5
1C6
100
AcDbEntity
  8
MAIN0
  6
CONTINUOUS
 62
3
100
AcDbBlockEnd
  0
BLOCK
  5
26B
100
AcDbEntity
  8
MAIN0
  6
CONTINUOUS
 62
3
100
AcDbBlockBegin
  2
*D25
 70
    65
 10
0.0
 20
0.0
 30
0.0
  0
LINE
  5
26C
100
AcDbEntity
  8
MAIN0
  6
BYBLOCK
 62
0
100
AcDbLine
 10
106.6040770973097
 20
287.1526198114275
 30
0.0000000000000000
 11
69.74246674631542
 21
287.1526198114275
 31
0.0000000000000000
  0
LINE
  5
26D
100
AcDbEntity
  8
MAIN0
  6
BYBLOCK
 62
0
100
AcDbLine
 10
72.74246674631542
 20
284.1526198114275
 30
0.0000000000000000
 11
72.74246674631542
 21
235.1526198114275
 31
0.0000000000000000
  0
INSERT
  5
26E
100
AcDbEntity
  8
MAIN0
  6
BYBLOCK
 62
0
100
AcDbBlockReference
  2
_OPEN
 10
72.74246674631542
 20
287.1526198114275
 30
0.0000000000000000
 41
3.000000000000000
 42
3.000000000000000
 43
3.000000000000000
 50
90.00000000000000
  0
INSERT
  5
26F
100
AcDbEntity
  8
MAIN0
  6
BYBLOCK
 62
0
100
AcDbBlockReference
  2
_OPEN
 10
72.74246674631542
 20
232.1526198114275
 30
0.0000000000000000
 41
3.000000000000000
 42
3.000000000000000
 43
3.000000000000000
 50
270.0000000000000
  0
LINE
  5
270
100
AcDbEntity
  8
MAIN0
  6
BYBLOCK
 62
0
100
AcDbLine
 10
106.6040770973331
 20
232.1526198114275
 30
0.0000000000000000
 11
69.74246674631542
 21
232.1526198114275
 31
0.0000000000000000
  0
MTEXT
  5
271
100
AcDbEntity
  8
MAIN0
  6
BYBLOCK
 62
0
100
AcDbMText
 10
69.91746681784099
 20
258.6374499540968
 30
0.0000000000000000
 40
4.649999856948853
 41
0.0000000000000000
 71
     5
 72
     1
  1
\A1;\U+220555
 11
6.123233995736766e-017
 21
1.000000000000000
 31
0.0000000000000000
  7
STANDARD
  0
ENDBLK
  5
272
100
AcDbEntity
  8
MAIN0
  6
CONTINUOUS
 62
3
100
AcDbBlockEnd
  0
BLOCK
  5
274
100
AcDbEntity
  8
MAIN0
  6
CONTINUOUS
 62
3
100
AcDbBlockBegin
  2
*D26
 70
    65
 10
0.0
 20
0.0
 30
0.0
  0
LINE
  5
275
100
AcDbEntity
  8
MAIN0
  6
BYBLOCK
 62
0
100
AcDbLine
 10
117.5744306727594
 20
404.1619069166225
 30
0.0000000000000000
 11
129.2485004653117
 21
392.4878371240696
 31
0.0000000000000000
  0
LINE
  5
276
100
AcDbEntity
  8
MAIN0
  6
BYBLOCK
 62
0
100
AcDbLine
 10
129.2485004653119
 20
396.7304778111889
 30
0.0000000000000000
 11
132.7840343712448
 21
400.2660117171215
 31
0.0000000000000000
  0
INSERT
  5
277
100
AcDbEntity
  8
MAIN0
  6
BYBLOCK
 62
0
100
AcDbBlockReference
  2
_OPEN
 10
127.1271801217522
 20
394.6091574676293
 30
0.0000000000000000
 41
3.000000000000000
 42
3.000000000000000
 43
3.000000000000000
 50
224.9999999999979
  0
INSERT
  5
278
100
AcDbEntity
  8
MAIN0
  6
BYBLOCK
 62
0
100
AcDbBlockReference
  2
_OPEN
 10
134.9053547148045
 20
402.3873320606811
 30
0.0000000000000000
 41
3.000000000000000
 42
3.000000000000000
 43
3.000000000000000
 50
44.99999999999793
  0
LINE
  5
279
100
AcDbEntity
  8
MAIN0
  6
BYBLOCK
 62
0
100
AcDbLine
 10
134.9053547148045
 20
402.3873320606811
 30
0.0000000000000000
 11
149.9979283770409
 21
417.4799057229164
 31
0.0000000000000000
  0
LINE
  5
27A
100
AcDbEntity
  8
MAIN0
  6
BYBLOCK
 62
0
100
AcDbLine
 10
125.3526052652056
 20
411.9400815102804
 30
0.0000000000000000
 11
137.0266750583641
 21
400.2660117171213
 31
0.0000000000000000
  0
MTEXT
  5
27B
100
AcDbEntity
  8
MAIN0
  6
BYBLOCK
 62
0
100
AcDbMText
 10
141.5038081336612
 20
412.9809386920889
 30
0.0000000000000000
 40
4.649999856948853
 41
0.0000000000000000
 71
     5
 72
     1
  1
\A1;11\H0.903226x;\S＋0.15^ ＋0.05;
 11
0.7071067811865733
 21
0.7071067811865217
 31
0.0000000000000000
  7
KNJYOKO
  0
ENDBLK
  5
27C
100
AcDbEntity
  8
MAIN0
  6
CONTINUOUS
 62
3
100
AcDbBlockEnd
  0
BLOCK
  5
27E
100
AcDbEntity
  8
MAIN0
  6
CONTINUOUS
 62
3
100
AcDbBlockBegin
  2
*D27
 70
    65
 10
0.0
 20
0.0
 30
0.0
  0
LINE
  5
27F
100
AcDbEntity
  8
MAIN0
  6
BYBLOCK
 62
0
100
AcDbLine
 10
88.60407709735438
 20
182.1526198114275
 30
0.0000000000000000
 11
58.23596190722697
 21
182.1526198114275
 31
0.0000000000000000
  0
LINE
  5
280
100
AcDbEntity
  8
MAIN0
  6
BYBLOCK
 62
0
100
AcDbLine
 10
61.23596190722697
 20
185.1526198114275
 30
0.0000000000000000
 11
61.23596190722697
 21
334.1526198114275
 31
0.0000000000000000
  0
INSERT
  5
281
100
AcDbEntity
  8
MAIN0
  6
BYBLOCK
 62
0
100
AcDbBlockReference
  2
_OPEN
 10
61.23596190722697
 20
182.1526198114275
 30
0.0000000000000000
 41
3.000000000000000
 42
3.000000000000000
 43
3.000000000000000
 50
270.0000000000000
  0
INSERT
  5
282
100
AcDbEntity
  8
MAIN0
  6
BYBLOCK
 62
0
100
AcDbBlockReference
  2
_OPEN
 10
61.23596190722697
 20
337.1526198114275
 30
0.0000000000000000
 41
3.000000000000000
 42
3.000000000000000
 43
3.000000000000000
 50
90.00000000000000
  0
LINE
  5
283
100
AcDbEntity
  8
MAIN0
  6
BYBLOCK
 62
0
100
AcDbLine
 10
88.60407709728844
 20
337.1526198114275
 30
0.0000000000000000
 11
58.23596190722697
 21
337.1526198114275
 31
0.0000000000000000
  0
MTEXT
  5
284
100
AcDbEntity
  8
MAIN0
  6
BYBLOCK
 62
0
100
AcDbMText
 10
58.41096197875254
 20
273.5871169457079
 30
0.0000000000000000
 40
4.649999856948853
 41
0.0000000000000000
 71
     5
 72
     1
  1
\A1;\U+2205155H6\H0.903226x;\S＋0.025^ 　0;
 11
6.123233995736766e-017
 21
1.000000000000000
 31
0.0000000000000000
  7
KNJYOKO
  0
ENDBLK
  5
285
100
AcDbEntity
  8
MAIN0
  6
CONTINUOUS
 62
3
100
AcDbBlockEnd
  0
BLOCK
  5
287
100
AcDbEntity
  8
MAIN0
  6
CONTINUOUS
 62
3
100
AcDbBlockBegin
  2
*D28
 70
    65
 10
0.0
 20
0.0
 30
0.0
  0
LINE
  5
288
100
AcDbEntity
  8
MAIN0
  6
BYBLOCK
 62
0
100
AcDbLine
 10
89.80407711516313
 20
354.2526198293089
 30
0.0000000000000000
 11
89.80407711516332
 21
382.6526198114275
 31
0.0000000000000000
  0
LINE
  5
289
100
AcDbEntity
  8
MAIN0
  6
BYBLOCK
 62
0
100
AcDbLine
 10
92.80407711516332
 20
379.6526198114275
 30
0.0000000000000000
 11
161.8040771152119
 21
379.6526198114275
 31
0.0000000000000000
  0
INSERT
  5
28A
100
AcDbEntity
  8
MAIN0
  6
BYBLOCK
 62
0
100
AcDbBlockReference
  2
_OPEN
 10
89.80407711516332
 20
379.6526198114275
 30
0.0000000000000000
 41
3.000000000000000
 42
3.000000000000000
 43
3.000000000000000
 50
180.0000000000000
  0
INSERT
  5
28B
100
AcDbEntity
  8
MAIN0
  6
BYBLOCK
 62
0
100
AcDbBlockReference
  2
_OPEN
 10
164.8040771152119
 20
379.6526198114275
 30
0.0000000000000000
 41
3.000000000000000
 42
3.000000000000000
 43
3.000000000000000
 50
0.0000000000000000
  0
LINE
  5
28C
100
AcDbEntity
  8
MAIN0
  6
BYBLOCK
 62
0
100
AcDbLine
 10
164.8040771152119
 20
354.2526198292601
 30
0.0000000000000000
 11
164.8040771152119
 21
382.6526198114275
 31
0.0000000000000000
  0
MTEXT
  5
28D
100
AcDbEntity
  8
MAIN0
  6
BYBLOCK
 62
0
100
AcDbMText
 10
127.3040771151876
 20
382.4776197399019
 30
0.0000000000000000
 40
4.649999856948853
 41
0.0000000000000000
 71
     5
 72
     1
  1
\A1;75
 11
1.000000000000000
 21
0.0000000000000000
 31
0.0000000000000000
  7
STANDARD
  0
ENDBLK
  5
28E
100
AcDbEntity
  8
MAIN0
  6
CONTINUOUS
 62
3
100
AcDbBlockEnd
  0
BLOCK
  5
290
100
AcDbEntity
  8
MAIN0
  6
CONTINUOUS
 62
3
100
AcDbBlockBegin
  2
*D29
 70
    65
 10
0.0
 20
0.0
 30
0.0
  0
LINE
  5
291
100
AcDbEntity
  8
MAIN0
  6
BYBLOCK
 62
0
100
AcDbLine
 10
89.00407709728273
 20
350.6526198114275
 30
0.0000000000000000
 11
58.23596190722697
 21
350.6526198114275
 31
0.0000000000000000
  0
LINE
  5
292
100
AcDbEntity
  8
MAIN0
  6
BYBLOCK
 62
0
100
AcDbLine
 10
61.23596190722697
 20
347.6526198114275
 30
0.0000000000000000
 11
61.23596190722697
 21
341.6526198114275
 31
0.0000000000000000
  0
INSERT
  5
293
100
AcDbEntity
  8
MAIN0
  6
BYBLOCK
 62
0
100
AcDbBlockReference
  2
_OPEN
 10
61.23596190722697
 20
350.6526198114275
 30
0.0000000000000000
 41
3.000000000000000
 42
3.000000000000000
 43
3.000000000000000
 50
90.00000000000000
  0
INSERT
  5
294
100
AcDbEntity
  8
MAIN0
  6
BYBLOCK
 62
0
100
AcDbBlockReference
  2
_OPEN
 10
61.23596190722697
 20
338.6526198114275
 30
0.0000000000000000
 41
3.000000000000000
 42
3.000000000000000
 43
3.000000000000000
 50
270.0000000000000
  0
LINE
  5
295
100
AcDbEntity
  8
MAIN0
  6
BYBLOCK
 62
0
100
AcDbLine
 10
89.00407709728785
 20
338.6526198114275
 30
0.0000000000000000
 11
58.23596190722697
 21
338.6526198114275
 31
0.0000000000000000
  0
MTEXT
  5
296
100
AcDbEntity
  8
MAIN0
  6
BYBLOCK
 62
0
100
AcDbMText
 10
58.41096197875254
 20
344.6526198114275
 30
0.0000000000000000
 40
4.649999856948853
 41
0.0000000000000000
 71
     5
 72
     1
  1
\A1;\U+220512
 11
6.123233995736766e-017
 21
1.000000000000000
 31
0.0000000000000000
  7
STANDARD
  0
ENDBLK
  5
297
100
AcDbEntity
  8
MAIN0
  6
CONTINUOUS
 62
3
100
AcDbBlockEnd
  0
BLOCK
  5
299
100
AcDbEntity
  8
MAIN0
  6
CONTINUOUS
 62
3
100
AcDbBlockBegin
  2
*D30
 70
    65
 10
0.0
 20
0.0
 30
0.0
  0
LINE
  5
29A
100
AcDbEntity
  8
MAIN0
  6
BYBLOCK
 62
0
100
AcDbLine
 10
165.4040771330932
 20
353.1526198114275
 30
0.0000000000000000
 11
181.7359619072270
 21
353.1526198114275
 31
0.0000000000000000
  0
LINE
  5
29B
100
AcDbEntity
  8
MAIN0
  6
BYBLOCK
 62
0
100
AcDbLine
 10
178.7359619072270
 20
350.1526198114275
 30
0.0000000000000000
 11
178.7359619072270
 21
339.1526198114275
 31
0.0000000000000000
  0
INSERT
  5
29C
100
AcDbEntity
  8
MAIN0
  6
BYBLOCK
 62
0
100
AcDbBlockReference
  2
_OPEN
 10
178.7359619072270
 20
353.1526198114275
 30
0.0000000000000000
 41
3.000000000000000
 42
3.000000000000000
 43
3.000000000000000
 50
90.00000000000000
  0
INSERT
  5
29D
100
AcDbEntity
  8
MAIN0
  6
BYBLOCK
 62
0
100
AcDbBlockReference
  2
_OPEN
 10
178.7359619072270
 20
336.1526198114275
 30
0.0000000000000000
 41
3.000000000000000
 42
3.000000000000000
 43
3.000000000000000
 50
270.0000000000000
  0
LINE
  5
29E
100
AcDbEntity
  8
MAIN0
  6
BYBLOCK
 62
0
100
AcDbLine
 10
165.4040771330932
 20
336.1526198114275
 30
0.0000000000000000
 11
181.7359619072270
 21
336.1526198114275
 31
0.0000000000000000
  0
MTEXT
  5
29F
100
AcDbEntity
  8
MAIN0
  6
BYBLOCK
 62
0
100
AcDbMText
 10
175.9109619787525
 20
344.6526198114275
 30
0.0000000000000000
 40
4.649999856948853
 41
0.0000000000000000
 71
     5
 72
     1
  1
\A1;\U+220517
 11
6.123233995736766e-017
 21
1.000000000000000
 31
0.0000000000000000
  7
STANDARD
  0
ENDBLK
  5
2A0
100
AcDbEntity
  8
MAIN0
  6
CONTINUOUS
 62
3
100
AcDbBlockEnd
  0
BLOCK
  5
2A2
100
AcDbEntity
  8
MAIN0
  6
CONTINUOUS
 62
3
100
AcDbBlockBegin
  2
*D31
 70
    65
 10
0.0
 20
0.0
 30
0.0
  0
LINE
  5
2A3
100
AcDbEntity
  8
MAIN0
  6
BYBLOCK
 62
0
100
AcDbLine
 10
152.8040771152119
 20
354.3526198293089
 30
0.0000000000000000
 11
152.8040771152122
 21
362.6526198114275
 31
0.0000000000000000
  0
LINE
  5
2A4
100
AcDbEntity
  8
MAIN0
  6
BYBLOCK
 62
0
100
AcDbLine
 10
155.8040771152121
 20
359.6526198114275
 30
0.0000000000000000
 11
161.8040771152119
 21
359.6526198114275
 31
0.0000000000000000
  0
INSERT
  5
2A5
100
AcDbEntity
  8
MAIN0
  6
BYBLOCK
 62
0
100
AcDbBlockReference
  2
_OPEN
 10
152.8040771152121
 20
359.6526198114275
 30
0.0000000000000000
 41
3.000000000000000
 42
3.000000000000000
 43
3.000000000000000
 50
180.0000000000000
  0
INSERT
  5
2A6
100
AcDbEntity
  8
MAIN0
  6
BYBLOCK
 62
0
100
AcDbBlockReference
  2
_OPEN
 10
164.8040771152119
 20
359.6526198114275
 30
0.0000000000000000
 41
3.000000000000000
 42
3.000000000000000
 43
3.000000000000000
 50
0.0000000000000000
  0
LINE
  5
2A7
100
AcDbEntity
  8
MAIN0
  6
BYBLOCK
 62
0
100
AcDbLine
 10
164.8040771152119
 20
354.2526198292601
 30
0.0000000000000000
 11
164.8040771152119
 21
362.6526198114275
 31
0.0000000000000000
  0
MTEXT
  5
2A8
100
AcDbEntity
  8
MAIN0
  6
BYBLOCK
 62
0
100
AcDbMText
 10
158.6534929291871
 20
362.4776197399019
 30
0.0000000000000000
 40
4.649999856948853
 41
0.0000000000000000
 71
     5
 72
     1
  1
\A1;12
 11
1.000000000000000
 21
0.0000000000000000
 31
0.0000000000000000
  7
STANDARD
  0
ENDBLK
  5
2A9
100
AcDbEntity
  8
MAIN0
  6
CONTINUOUS
 62
3
100
AcDbBlockEnd
  0
BLOCK
  5
2AB
100
AcDbEntity
  8
MAIN0
  6
CONTINUOUS
 62
3
100
AcDbBlockBegin
  2
*D32
 70
    65
 10
0.0
 20
0.0
 30
0.0
  0
LINE
  5
2AC
100
AcDbEntity
  8
MAIN0
  6
BYBLOCK
 62
0
100
AcDbLine
 10
89.80407711523571
 20
202.1526198114275
 30
0.0000000000000000
 11
94.80407711523583
 21
202.1526198114275
 31
0.0000000000000000
  0
INSERT
  5
2AD
100
AcDbEntity
  8
MAIN0
  6
BYBLOCK
 62
0
100
AcDbBlockReference
  2
_OPEN
 10
89.80407711523571
 20
202.1526198114275
 30
0.0000000000000000
 41
3.000000000000000
 42
3.000000000000000
 43
3.000000000000000
 50
0.0000000000000000
  0
INSERT
  5
2AE
100
AcDbEntity
  8
MAIN0
  6
BYBLOCK
 62
0
100
AcDbBlockReference
  2
_OPEN
 10
94.80407711523583
 20
202.1526198114275
 30
0.0000000000000000
 41
3.000000000000000
 42
3.000000000000000
 43
3.000000000000000
 50
180.0000000000000
  0
LINE
  5
2AF
100
AcDbEntity
  8
MAIN0
  6
BYBLOCK
 62
0
100
AcDbLine
 10
86.80407711523571
 20
202.1526198114275
 30
0.0000000000000000
 11
83.56868962949233
 21
202.1526198114275
 31
0.0000000000000000
  0
LINE
  5
2B0
100
AcDbEntity
  8
MAIN0
  6
BYBLOCK
 62
0
100
AcDbLine
 10
97.80407711523583
 20
202.1526198114275
 30
0.0000000000000000
 11
99.30407711523583
 21
202.1526198114275
 31
0.0000000000000000
  0
MTEXT
  5
2B1
100
AcDbEntity
  8
MAIN0
  6
BYBLOCK
 62
0
100
AcDbMText
 10
85.06868962949233
 20
204.9776197399019
 30
0.0000000000000000
 40
4.649999856948853
 41
0.0000000000000000
 71
     5
 72
     1
  1
\A1;5
 11
1.000000000000000
 21
0.0000000000000000
 31
0.0000000000000000
  7
STANDARD
  0
ENDBLK
  5
2B2
100
AcDbEntity
  8
MAIN0
  6
CONTINUOUS
 62
3
100
AcDbBlockEnd
  0
ENDSEC
  0
SECTION
  2
ENTITIES
  0
MTEXT
  5
46
100
AcDbEntity
  8
MAIN0
  6
CONTINUOUS
 62
3
100
AcDbMText
 10
411.5882137413286
 20
92.93878364690733
 30
0.0000000000000000
 40
6.000000000000000
 41
0.0000000000000000
 71
     1
 72
     1
  1
{\H0.94x;{ソフトジョー　 ＳＯＦＴ　ＪＡＷ}}
 11
1.000000000000000
 21
0.0000000000000000
 31
0.0000000000000000
  7
KNJYOKO
  0
LINE
  5
47
100
AcDbEntity
  8
MAIN0
  6
CONTINUOUS
 62
3
100
AcDbLine
 10
406.9845121238107
 20
86.24823016034179
 30
0.0000000000000000
 11
520.6233939799681
 21
86.24823016034179
 31
0.0000000000000000
  0
LINE
  5
48
100
AcDbEntity
  8
MAIN0
  6
CONTINUOUS
 62
3
100
AcDbLine
 10
406.9845121238107
 20
85.55767667399459
 30
0.0000000000000000
 11
520.6233939799681
 21
85.55767667399459
 31
0.0000000000000000
  0
DIMENSION
  5
51
100
AcDbEntity
  8
MAIN0
  6
CONTINUOUS
 62
3
100
AcDbDimension
  2
*D0
 10
72.80407711521184
 20
369.6526198114275
 30
0.0000000000000000
 11
81.30407711518751
 21
370.1526198114275
 31
0.0000000000000000
 70
32
  3
MAIN001
100
AcDbAlignedDimension
 13
89.80407711516313
 23
353.0526198114275
 33
0.0000000000000000
 14
72.80407711521184
 24
349.6526198114275
 34
0.0000000000000000
100
AcDbRotatedDimension
1001
ACAD
1000
DSTYLE
1002
{
1070
   173
1070
     1
1070
     6
1000
_OPEN
1070
     7
1000
_OPEN
1070
    41
1040
3.000000
1002
}
  0
LEADER
  5
52
100
AcDbEntity
  8
MAIN0
  6
CONTINUOUS
 62
3
100
AcDbLeader
  3
MAIN001
 73
     0
 75
     1
 40
4.649999856948853
 41
20.35400061511994
 76
     3
 10
81.23596190722697
 20
349.6526198114275
 30
0.0000000000000000
 10
68.73596190722697
 20
369.6526198114275
 30
0.0000000000000000
 10
65.84596199091189
 20
369.6526198114275
 30
0.0000000000000000
340
53
213
0.0000000000000000
223
-0.7500000000000000
233
0.0000000000000000
1001
ACAD
1000
DSTYLE
1002
{
1070
   147
1040
0.0
1070
    77
1070
     1
1070
   173
1070
     1
1070
     6
1000
_OPEN
1070
     7
1000
_OPEN
1002
}
  0
MTEXT
  5
53
102
{ACAD_REACTORS
330
52
102
}
100
AcDbEntity
  8
MAIN0
  6
CONTINUOUS
 62
3
100
AcDbMText
 10
45.49196137579195
 20
375.0526196683763
 30
0.0000000000000000
 40
4.649999856948853
 41
0.0000000000000000
 71
     1
 72
     1
  1
{\H0.92x;{3-M10}}
 11
1.000000000000000
 21
0.0000000000000000
 31
0.0000000000000000
  7
STANDARD
  0
MTEXT
  5
54
100
AcDbEntity
  8
MAIN0
  6
CONTINUOUS
 62
3
100
AcDbMText
 10
198.2262766026199
 20
63.00075770423103
 30
0.0000000000000000
 40
4.649999856948853
 41
0.0000000000000000
 71
     1
 72
     1
  1
{\H0.93x;{慣性モーメント}}
 11
1.000000000000000
 21
0.0000000000000000
 31
0.0000000000000000
  7
KNJYOKO
  0
MTEXT
  5
55
100
AcDbEntity
  8
MAIN0
  6
CONTINUOUS
 62
3
100
AcDbMText
 10
273.6936986548875
 20
59.49348968058283
 30
0.0000000000000000
 40
4.649999856948853
 41
0.0000000000000000
 71
     1
 72
     1
  1
{\H0.84x;{0.063}}
 11
1.000000000000000
 21
0.0000000000000000
 31
0.0000000000000000
  7
STANDARD
  0
MTEXT
  5
56
100
AcDbEntity
  8
MAIN0
  6
CONTINUOUS
 62
3
100
AcDbMText
 10
199.0612106383583
 20
56.78137710763593
 30
0.0000000000000000
 40
3.750000000000000
 41
0.0000000000000000
 71
     1
 72
     1
  1
{\H0.63x;{MOMENT OF INERTIA}}
 11
1.000000000000000
 21
0.0000000000000000
 31
0.0000000000000000
  7
STANDARD
  0
LINE
  5
57
100
AcDbEntity
  8
MAIN0
  6
PHANTOM
 62
3
100
AcDbLine
 10
404.8747716613542
 20
206.1675780624749
 30
0.0000000000000000
 11
416.8747716613461
 21
226.9521877533061
 31
0.0000000000000000
  0
LINE
  5
58
100
AcDbEntity
  8
MAIN0
  6
PHANTOM
 62
3
100
AcDbLine
 10
408.3388732764919
 20
204.1675780624750
 30
0.0000000000000000
 11
420.3388732764838
 21
224.9521877533062
 31
0.0000000000000000
  0
LINE
  5
59
100
AcDbEntity
  8
MAIN0
  6
PHANTOM
 62
3
100
AcDbLine
 10
404.8747716613542
 20
206.1675780624750
 30
0.0000000000000000
 11
408.3388732764919
 21
204.1675780624750
 31
0.0000000000000000
  0
LINE
  5
5A
100
AcDbEntity
  8
MAIN0
  6
PHANTOM
 62
3
100
AcDbLine
 10
416.8747716613461
 20
226.9521877533062
 30
0.0000000000000000
 11
420.3388732764839
 21
224.9521877533062
 31
0.0000000000000000
  0
MTEXT
  5
5B
100
AcDbEntity
  8
MAIN5
  6
CONTINUOUS
 62
3
100
AcDbMText
 10
374.7013337115858
 20
218.2765981086056
 30
0.0000000000000000
 40
4.000000000000000
 41
0.0000000000000000
 71
     1
 72
     1
  1
{JN07T102}
 11
0.5000000000000009
 21
0.8660254037844382
 31
0.0000000000000000
  7
STANDARD
  0
LINE
  5
5C
100
AcDbEntity
  8
MAIN0
  6
CONTINUOUS
 62
3
100
AcDbLine
 10
384.6436385569998
 20
211.4971752451996
 30
0.0000000000000000
 11
402.1436385569999
 21
241.8080643776552
 31
0.0000000000000000
  0
MTEXT
  5
5D
100
AcDbEntity
  8
MAIN0
  6
CONTINUOUS
 62
3
100
AcDbMText
 10
379.4474861342932
 20
214.4971752451997
 30
0.0000000000000000
 40
5.000000000000000
 41
0.0000000000000000
 71
     1
 72
     1
  1
{\H0.93x;{KITAGAWA}}
 11
0.5000000000000009
 21
0.8660254037844382
 31
0.0000000000000000
  7
STANDARD
  0
MTEXT
  5
5E
100
AcDbEntity
  8
MAIN0
  6
CONTINUOUS
 62
3
100
AcDbMText
 10
388.6253734118966
 20
209.3883466652850
 30
0.0000000000000000
 40
2.994604349136353
 41
0.0000000000000000
 71
     1
 72
     1
  1
{\H0.90x;{MAX.3500/min\P}
 11
0.5000000000000009
 21
0.8660254037844382
 31
0.0000000000000000
  7
STANDARD
  0
MTEXT
  5
5F
100
AcDbEntity
  8
MAIN0
  6
CONTINUOUS
 62
3
100
AcDbMText
 10
399.7781548968691
 20
212.8109263984672
 30
0.0000000000000000
 40
3.099999904632568
 41
0.0000000000000000
 71
     1
 72
     1
  1
{\H0.92x;{JAPAN}}
 11
0.5000000000000009
 21
0.8660254037844382
 31
0.0000000000000000
  7
STANDARD
  0
SPLINE
  5
60
100
AcDbEntity
  8
MAIN0
  6
CONTINUOUS
 62
3
100
AcDbSpline
210
0.0000000000000000
220
0.0000000000000000
230
1.000000000000000
 70
     8
 71
     3
 72
    19
 73
    15
 74
     0
 42
1.000000000000000e-007
 43
1.000000000000000e-007
 12
0.2962123177898910
 22
-0.9601296444402934
 32
0.0000000000000000
 13
-0.3024445510572136
 23
-0.9546609564394899
 33
0.0000000000000000
 40
0.0000000000000000
 40
0.0000000000000000
 40
0.0000000000000000
 40
0.0000000000000000
 40
17.53984375497869
 40
23.08195227697999
 40
35.82950106096195
 40
43.73519521138289
 40
51.64088936180384
 40
69.84116408500515
 40
97.45456662797329
 40
125.4054163467207
 40
137.9054163467207
 40
153.7168046475626
 40
176.7656657907948
 40
194.9659405139961
 40
194.9659405139961
 40
194.9659405139961
 40
194.9659405139961
 10
96.23596190722697
 20
354.6526198114275
 30
0.0000000000000000
 10
97.96780116467190
 20
349.0391118287589
 30
0.0000000000000000
 10
100.2468540256985
 20
341.6518896178640
 30
0.0000000000000000
 10
101.4259321064558
 20
329.7561971120023
 30
0.0000000000000000
 10
103.0233803958776
 20
321.1239582827413
 30
0.0000000000000000
 10
106.2797147077687
 20
312.1637037431184
 30
0.0000000000000000
 10
109.7813130660342
 20
301.3973078377176
 30
0.0000000000000000
 10
115.6373551976765
 20
284.3152755985051
 30
0.0000000000000000
 10
114.7492042223664
 20
259.2686286798747
 30
0.0000000000000000
 10
121.2837342233891
 20
237.4937615064139
 30
0.0000000000000000
 10
122.2248637166573
 20
218.3346672850129
 30
0.0000000000000000
 10
114.3966429028707
 20
202.6159846655337
 30
0.0000000000000000
 10
112.2293453393596
 20
183.5706302025158
 30
0.0000000000000000
 10
108.0708198798192
 20
170.4443170363318
 30
0.0000000000000000
 10
106.2359619072270
 20
164.6526198114275
 30
0.0000000000000000
  0
DIMENSION
  5
68
100
AcDbEntity
  8
MAIN0
  6
CONTINUOUS
 62
3
100
AcDbDimension
  2
*D1
 10
206.8040771152086
 20
284.6526198114275
 30
0.0000000000000000
 11
185.8040771152255
 21
285.1526198114275
 31
0.0000000000000000
 70
32
  3
MAIN001
100
AcDbAlignedDimension
 13
164.8040771152424
 23
166.6526284698084
 33
0.0000000000000000
 14
206.8040771151971
 24
273.2526198114276
 34
0.0000000000000000
100
AcDbRotatedDimension
1001
ACAD
1000
DSTYLE
1002
{
1070
   173
1070
     1
1070
     6
1000
_OPEN
1070
     7
1000
_OPEN
1070
    41
1040
3.000000
1002
}
  0
DIMENSION
  5
71
100
AcDbEntity
  8
MAIN0
  6
CONTINUOUS
 62
3
100
AcDbDimension
  2
*D2
 10
46.23596190722697
 20
164.6526198114275
 30
0.0000000000000000
 11
45.73596190722697
 21
259.6526198114275
 31
0.0000000000000000
 70
32
  1
\A1;\U+2205190
  3
MAIN001
100
AcDbAlignedDimension
 13
91.40407711516235
 23
354.6526198114275
 33
0.0000000000000000
 14
91.40407711524330
 24
164.6526198114275
 34
0.0000000000000000
 50
90.00000000000000
100
AcDbRotatedDimension
1001
ACAD
1000
DSTYLE
1002
{
1070
   173
1070
     1
1070
     6
1000
_OPEN
1070
     7
1000
_OPEN
1070
    41
1040
3.000000
1002
}
  0
DIMENSION
  5
7A
100
AcDbEntity
  8
MAIN0
  6
CONTINUOUS
 62
3
100
AcDbDimension
  2
*D3
 10
164.8040771152424
 20
369.6526198114275
 30
0.0000000000000000
 11
141.0540771152008
 21
370.1526198114275
 31
0.0000000000000000
 70
32
  3
MAIN001
100
AcDbAlignedDimension
 13
117.3040771151592
 23
362.1526198114258
 33
0.0000000000000000
 14
164.8040771151631
 24
353.0526198114275
 34
0.0000000000000000
100
AcDbRotatedDimension
1001
ACAD
1000
DSTYLE
1002
{
1070
   173
1070
     1
1070
     6
1000
_OPEN
1070
     7
1000
_OPEN
1070
    41
1040
3.000000
1002
}
  0
DIMENSION
  5
83
100
AcDbEntity
  8
MAIN0
  6
CONTINUOUS
 62
3
100
AcDbDimension
  2
*D4
 10
117.3040771151592
 20
369.6526198114275
 30
0.0000000000000000
 11
103.5540771151612
 21
370.1526198114275
 31
0.0000000000000000
 70
32
  3
MAIN001
100
AcDbAlignedDimension
 13
89.80407711516313
 23
353.0526198114275
 33
0.0000000000000000
 14
117.3040771151592
 24
362.1526198114258
 34
0.0000000000000000
100
AcDbRotatedDimension
1001
ACAD
1000
DSTYLE
1002
{
1070
   173
1070
     1
1070
     6
1000
_OPEN
1070
     7
1000
_OPEN
1070
    41
1040
3.000000
1002
}
  0
LINE
  5
84
100
AcDbEntity
  8
MAIN0
  6
HIDDEN
 62
3
100
AcDbLine
 10
164.8040771152147
 20
232.1526198114275
 30
0.0000000000000000
 11
121.2359619072274
 21
232.1526198114275
 31
0.0000000000000000
  0
LINE
  5
85
100
AcDbEntity
  8
MAIN0
  6
HIDDEN
 62
3
100
AcDbLine
 10
164.8040771151912
 20
287.1526198114275
 30
0.0000000000000000
 11
113.7359619072270
 21
287.1526198114275
 31
0.0000000000000000
  0
MTEXT
  5
86
100
AcDbEntity
  8
MAIN0
  6
CONTINUOUS
 62
3
100
AcDbMText
 10
225.8145646989010
 20
50.18388548098088
 30
0.0000000000000000
 40
3.750000000000000
 41
0.0000000000000000
 71
     1
 72
     1
  1
{\H0.63x;{EXTERNAL\PGRIPPING}}
 11
1.000000000000000
 21
0.0000000000000000
 31
0.0000000000000000
  7
STANDARD
  0
MTEXT
  5
87
100
AcDbEntity
  8
MAIN0
  6
CONTINUOUS
 62
3
100
AcDbMText
 10
225.7369505561247
 20
39.55080685764304
 30
0.0000000000000000
 40
3.750000000000000
 41
0.0000000000000000
 71
     1
 72
     1
  1
{\H0.63x;{INTERNALLY\PGRIPPING}}
 11
1.000000000000000
 21
0.0000000000000000
 31
0.0000000000000000
  7
STANDARD
  0
MTEXT
  5
88
100
AcDbEntity
  8
MAIN0
  6
CONTINUOUS
 62
3
100
AcDbMText
 10
242.5996056522627
 20
129.1752855974983
 30
0.0000000000000000
 40
4.649999856948853
 41
0.0000000000000000
 71
     1
 72
     1
  1
{\H0.93x;{SPECIFICATIONS}}
 11
1.000000000000000
 21
0.0000000000000000
 31
0.0000000000000000
  7
STANDARD
  0
MTEXT
  5
89
100
AcDbEntity
  8
MAIN0
  6
CONTINUOUS
 62
3
100
AcDbMText
 10
199.1008945828955
 20
112.3322753562417
 30
0.0000000000000000
 40
3.750000000000000
 41
0.0000000000000000
 71
     1
 72
     1
  1
{\H0.62x;{MAX.PERMISSIBLE HANDLE TORQUE}}
 11
1.000000000000000
 21
0.0000000000000000
 31
0.0000000000000000
  7
STANDARD
  0
MTEXT
  5
8A
100
AcDbEntity
  8
MAIN0
  6
CONTINUOUS
 62
3
100
AcDbMText
 10
199.1008945828955
 20
97.33227535623729
 30
0.0000000000000000
 40
3.750000000000000
 41
0.0000000000000000
 71
     1
 72
     1
  1
{\H0.63x;{MAX STATIC GRIPPING FORCE}}
 11
1.000000000000000
 21
0.0000000000000000
 31
0.0000000000000000
  7
STANDARD
  0
MTEXT
  5
8B
100
AcDbEntity
  8
MAIN0
  6
CONTINUOUS
 62
3
100
AcDbMText
 10
199.1008945828953
 20
81.83227535623425
 30
0.0000000000000000
 40
3.750000000000000
 41
0.0000000000000000
 71
     1
 72
     1
  1
{\H0.63x;{MAX PREMISSIBLE SPEED}}
 11
1.000000000000000
 21
0.0000000000000000
 31
0.0000000000000000
  7
STANDARD
  0
MTEXT
  5
8C
100
AcDbEntity
  8
MAIN0
  6
CONTINUOUS
 62
3
100
AcDbMText
 10
196.4038699132701
 20
41.35436244727924
 30
0.0000000000000000
 40
3.750000000000000
 41
0.0000000000000000
 71
     1
 72
     1
  1
{\H0.54x;{GRIPPING RANGE}}
 11
1.000000000000000
 21
0.0000000000000000
 31
0.0000000000000000
  7
STANDARD
  0
MTEXT
  5
8D
100
AcDbEntity
  8
MAIN0
  6
CONTINUOUS
 62
3
100
AcDbMText
 10
223.7043814659445
 20
73.43045769249923
 30
0.0000000000000000
 40
4.650000572204590
 41
0.0000000000000000
 71
     1
 72
     1
  1
{\H0.91x;{MASS}}
 11
1.000000000000000
 21
0.0000000000000000
 31
0.0000000000000000
  7
STANDARD
  0
LINE
  5
8E
100
AcDbEntity
  8
MAIN0
  6
CENTER
 62
3
100
AcDbLine
 10
336.2359619072260
 20
369.3379545303100
 30
0.0000000000000000
 11
336.2359619072260
 21
150.3090192301320
 31
0.0000000000000000
  0
LINE
  5
8F
100
AcDbEntity
  8
MAIN0
  6
CENTER
 62
3
100
AcDbLine
 10
232.3412126317055
 20
259.6526198114275
 30
0.0000000000000000
 11
449.3101281325979
 21
259.6526198114275
 31
0.0000000000000000
  0
LINE
  5
90
100
AcDbEntity
  8
MAIN0
  6
CENTER
 62
3
100
AcDbLine
 10
347.6752472817233
 20
266.2570943017305
 30
0.0000000000000000
 11
431.1443842633450
 21
314.4480230070955
 31
0.0000000000000000
  0
ARC
  5
91
100
AcDbEntity
  8
MAIN0
  6
CONTINUOUS
 62
3
100
AcDbCircle
 10
336.2359619072260
 20
259.6526198114275
 30
0.0000000000000000
 40
95.00000000000001
100
AcDbArc
 50
32.83377853041517
 51
147.1662411359983
  0
ARC
  5
92
100
AcDbEntity
  8
MAIN0
  6
CONTINUOUS
 62
3
100
AcDbCircle
 10
336.2359619072260
 20
259.6526198114275
 30
0.0000000000000000
 40
95.00000000000001
100
AcDbArc
 50
152.8337785304133
 51
267.1662411359982
  0
ARC
  5
93
100
AcDbEntity
  8
MAIN0
  6
CONTINUOUS
 62
3
100
AcDbCircle
 10
336.2359619072260
 20
259.6526198114275
 30
0.0000000000000000
 40
95.00000000000001
100
AcDbArc
 50
272.8337785304134
 51
387.1662411359964
  0
ARC
  5
94
100
AcDbEntity
  8
MAIN0
  6
CENTER
 62
3
100
AcDbCircle
 10
336.2359619072260
 20
259.6526198114275
 30
0.0000000000000000
 40
40.00000000000003
100
AcDbArc
 50
93.62056553902377
 51
126.1177564306748
  0
CIRCLE
  5
95
100
AcDbEntity
  8
MAIN0
  6
CONTINUOUS
 62
3
100
AcDbCircle
 10
322.5551561742004
 20
297.2403246428607
 30
0.0000000000000000
 40
7.500000000000000
  0
LINE
  5
96
100
AcDbEntity
  8
MAIN0
  6
CONTINUOUS
 62
3
100
AcDbLine
 10
325.1529513705903
 20
300.3362564009825
 30
0.0000000000000000
 11
326.5352093233117
 21
296.5385338880188
 31
0.0000000000000000
  0
LINE
  5
97
100
AcDbEntity
  8
MAIN0
  6
CONTINUOUS
 62
3
100
AcDbLine
 10
318.5751030250889
 20
297.9421153977029
 30
0.0000000000000000
 11
319.9573609778104
 21
294.1443928847391
 31
0.0000000000000000
  0
LINE
  5
98
100
AcDbEntity
  8
MAIN0
  6
CONTINUOUS
 62
3
100
AcDbLine
 10
323.9374141269218
 20
293.4426021298970
 30
0.0000000000000000
 11
326.5352093233118
 21
296.5385338880188
 31
0.0000000000000000
  0
LINE
  5
99
100
AcDbEntity
  8
MAIN0
  6
CONTINUOUS
 62
3
100
AcDbLine
 10
318.5751030250890
 20
297.9421153977028
 30
0.0000000000000000
 11
321.1728982214789
 21
301.0380471558245
 31
0.0000000000000000
  0
LINE
  5
9A
100
AcDbEntity
  8
MAIN0
  6
CONTINUOUS
 62
3
100
AcDbLine
 10
325.1529513705903
 20
300.3362564009825
 30
0.0000000000000000
 11
321.1728982214789
 21
301.0380471558245
 31
0.0000000000000000
  0
LINE
  5
9B
100
AcDbEntity
  8
MAIN0
  6
CONTINUOUS
 62
3
100
AcDbLine
 10
323.9374141269218
 20
293.4426021298971
 30
0.0000000000000000
 11
319.9573609778104
 21
294.1443928847391
 31
0.0000000000000000
  0
LINE
  5
9C
100
AcDbEntity
  8
MAIN0
  6
CENTER
 62
3
100
AcDbLine
 10
318.6105123530487
 20
308.0781444692662
 30
0.0000000000000000
 11
326.0101178668348
 21
287.7478954072668
 31
0.0000000000000000
  0
CIRCLE
  5
9D
100
AcDbEntity
  8
MAIN0
  6
CONTINUOUS
 62
3
100
AcDbCircle
 10
322.5551561741992
 20
297.2403246428638
 30
0.0000000000000000
 40
2.400000000000000
  0
CIRCLE
  5
9E
100
AcDbEntity
  8
MAIN0
  6
CONTINUOUS
 62
3
100
AcDbCircle
 10
322.5551561741992
 20
297.2403246428638
 30
0.0000000000000000
 40
0.4330000000000000
  0
LINE
  5
9F
100
AcDbEntity
  8
MAIN0
  6
HIDDEN
 62
3
100
AcDbLine
 10
352.2359619072260
 20
353.2955586803032
 30
0.0000000000000000
 11
352.2359619072260
 21
335.9939585473967
 31
0.0000000000000000
  0
LINE
  5
A0
100
AcDbEntity
  8
MAIN0
  6
HIDDEN
 62
3
100
AcDbLine
 10
320.2359619072260
 20
353.2955586803032
 30
0.0000000000000000
 11
320.2359619072260
 21
335.9939585473967
 31
0.0000000000000000
  0
ARC
  5
A1
100
AcDbEntity
  8
MAIN0
  6
HIDDEN
 62
3
100
AcDbCircle
 10
336.2359619072260
 20
259.6526198114275
 30
0.0000000000000000
 40
78.00000000000000
100
AcDbArc
 50
344.8571655449238
 51
464.8571655449238
  0
LINE
  5
A2
100
AcDbEntity
  8
MAIN0
  6
HIDDEN
 62
3
100
AcDbLine
 10
247.1387979617463
 20
226.6875568375406
 30
0.0000000000000000
 11
262.1224232029636
 21
235.3383569039939
 31
0.0000000000000000
  0
ARC
  5
A3
100
AcDbEntity
  8
MAIN0
  6
HIDDEN
 62
3
100
AcDbCircle
 10
336.2359619072260
 20
259.6526198114275
 30
0.0000000000000000
 40
78.00000000000000
100
AcDbArc
 50
104.8571655449238
 51
224.8571655449238
  0
LINE
  5
A4
100
AcDbEntity
  8
MAIN0
  6
HIDDEN
 62
3
100
AcDbLine
 10
263.1387979617463
 20
198.9747439164386
 30
0.0000000000000000
 11
278.1224232029636
 21
207.6255439828918
 31
0.0000000000000000
  0
LINE
  5
A5
100
AcDbEntity
  8
MAIN0
  6
HIDDEN
 62
3
100
AcDbLine
 10
409.3331258527056
 20
198.9747439164385
 30
0.0000000000000000
 11
394.3495006114883
 21
207.6255439828918
 31
0.0000000000000000
  0
ARC
  5
A6
100
AcDbEntity
  8
MAIN0
  6
HIDDEN
 62
3
100
AcDbCircle
 10
336.2359619072260
 20
259.6526198114275
 30
0.0000000000000000
 40
78.00000000000000
100
AcDbArc
 50
224.8571655449238
 51
344.8571655449238
  0
LINE
  5
A7
100
AcDbEntity
  8
MAIN0
  6
HIDDEN
 62
3
100
AcDbLine
 10
425.3331258527056
 20
226.6875568375406
 30
0.0000000000000000
 11
410.3495006114883
 21
235.3383569039938
 31
0.0000000000000000
  0
LINE
  5
A8
100
AcDbEntity
  8
MAIN0
  6
CENTER
 62
3
100
AcDbLine
 10
321.7359619072260
 20
349.2048613178922
 30
0.0000000000000000
 11
321.7359619072260
 21
337.8704684468271
 31
0.0000000000000000
  0
LINE
  5
A9
100
AcDbEntity
  8
MAIN0
  6
HIDDEN
 62
3
100
AcDbLine
 10
322.5359619072260
 20
346.2545360479843
 30
0.0000000000000000
 11
322.5359619072260
 21
339.6454513912410
 31
0.0000000000000000
  0
LINE
  5
AA
100
AcDbEntity
  8
MAIN0
  6
HIDDEN
 62
3
100
AcDbLine
 10
320.9359619072260
 20
346.2545360479843
 30
0.0000000000000000
 11
320.9359619072260
 21
339.6454513912410
 31
0.0000000000000000
  0
LINE
  5
AB
100
AcDbEntity
  8
MAIN0
  6
CENTER
 62
3
100
AcDbLine
 10
265.9314457967885
 20
202.3191307033207
 30
0.0000000000000000
 11
275.7473179596042
 21
207.9863271388533
 31
0.0000000000000000
  0
CIRCLE
  5
AC
100
AcDbEntity
  8
MAIN0
  6
HIDDEN
 62
3
100
AcDbCircle
 10
271.3483200342068
 20
205.4465645024605
 30
0.0000000000000000
 40
4.000000000000000
  0
LINE
  5
AD
100
AcDbEntity
  8
MAIN0
  6
HIDDEN
 62
3
100
AcDbLine
 10
268.0865024299560
 20
204.4871136613022
 30
0.0000000000000000
 11
273.8101376384577
 21
207.7916559896739
 31
0.0000000000000000
  0
LINE
  5
AE
100
AcDbEntity
  8
MAIN0
  6
HIDDEN
 62
3
100
AcDbLine
 10
268.8865024299560
 20
203.1014730152471
 30
0.0000000000000000
 11
274.6101376384577
 21
206.4060153436188
 31
0.0000000000000000
  0
CIRCLE
  5
AF
100
AcDbEntity
  8
MAIN0
  6
HIDDEN
 62
3
100
AcDbCircle
 10
271.3483200342068
 20
205.4465645024605
 30
0.0000000000000000
 40
3.400000000000000
  0
LINE
  5
B0
100
AcDbEntity
  8
MAIN0
  6
CENTER
 62
3
100
AcDbLine
 10
421.0404780176639
 20
227.4338674130696
 30
0.0000000000000000
 11
411.2246058548482
 21
233.1010638486022
 31
0.0000000000000000
  0
CIRCLE
  5
B1
100
AcDbEntity
  8
MAIN0
  6
HIDDEN
 62
3
100
AcDbCircle
 10
415.6236037802455
 20
230.5613012122094
 30
0.0000000000000000
 40
4.000000000000000
  0
LINE
  5
B2
100
AcDbEntity
  8
MAIN0
  6
HIDDEN
 62
3
100
AcDbLine
 10
418.0854213844964
 20
228.2162097249960
 30
0.0000000000000000
 11
412.3617861759947
 21
231.5207520533677
 31
0.0000000000000000
  0
LINE
  5
B3
100
AcDbEntity
  8
MAIN0
  6
HIDDEN
 62
3
100
AcDbLine
 10
418.8854213844964
 20
229.6018503710511
 30
0.0000000000000000
 11
413.1617861759947
 21
232.9063926994228
 31
0.0000000000000000
  0
CIRCLE
  5
B4
100
AcDbEntity
  8
MAIN0
  6
HIDDEN
 62
3
100
AcDbCircle
 10
415.6236037802455
 20
230.5613012122094
 30
0.0000000000000000
 40
3.400000000000000
  0
ARC
  5
B5
100
AcDbEntity
  8
MAIN0
  6
CENTER
 62
3
100
AcDbCircle
 10
336.2359619072261
 20
259.6526198114275
 30
0.0000000000000000
 40
84.55000000000000
100
AcDbArc
 50
213.4861641376090
 51
227.4263456246924
  0
ARC
  5
B6
100
AcDbEntity
  8
MAIN0
  6
CENTER
 62
3
100
AcDbCircle
 10
336.2359619072261
 20
259.6526198114275
 30
0.0000000000000000
 40
84.55000000000000
100
AcDbArc
 50
333.9390221154050
 51
347.1458922693644
  0
ARC
  5
B7
100
AcDbEntity
  8
MAIN0
  6
CENTER
 62
3
100
AcDbCircle
 10
336.2359619072261
 20
259.6526198114275
 30
0.0000000000000000
 40
84.55000000000000
100
AcDbArc
 50
92.56922883028894
 51
106.5570735759657
  0
MTEXT
  5
B8
100
AcDbEntity
  8
MAIN0
  6
CONTINUOUS
 62
3
100
AcDbMText
 10
355.9454514623801
 20
177.9382798974333
 30
0.0000000000000000
 40
7.500000000000000
 41
0.0000000000000000
 71
     1
 72
     1
  1
{\H0.82x;{1}}
 11
1.000000000000000
 21
0.0000000000000000
 31
0.0000000000000000
  7
STANDARD
  0
MTEXT
  5
B9
100
AcDbEntity
  8
MAIN0
  6
CONTINUOUS
 62
3
100
AcDbMText
 10
399.3298597402886
 20
316.3271137300363
 30
0.0000000000000000
 40
7.500000000000000
 41
0.0000000000000000
 71
     1
 72
     1
  1
{\H0.82x;{2}}
 11
-0.5000000000008740
 21
0.8660254037839340
 31
0.0000000000000000
  7
STANDARD
  0
MTEXT
  5
BA
100
AcDbEntity
  8
MAIN0
  6
CONTINUOUS
 62
3
100
AcDbMText
 10
255.1154016650764
 20
285.7828528918825
 30
0.0000000000000000
 40
7.500000000000000
 41
0.0000000000000000
 71
     1
 72
     1
  1
{\H0.82x;{3}}
 11
-0.4999999999996719
 21
-0.8660254037846280
 31
0.0000000000000000
  7
STANDARD
  0
LINE
  5
BB
100
AcDbEntity
  8
MAIN0
  6
CONTINUOUS
 62
3
100
AcDbLine
 10
517.7356610638688
 20
357.6526198114275
 30
0.0000000000000000
 11
537.7356610638688
 21
357.6526198114275
 31
0.0000000000000000
  0
LINE
  5
BC
100
AcDbEntity
  8
MAIN0
  6
CONTINUOUS
 62
3
100
AcDbLine
 10
537.7356610638688
 20
357.6526198114275
 30
0.0000000000000000
 11
539.7356610638688
 21
355.6526198114275
 31
0.0000000000000000
  0
LINE
  5
BD
100
AcDbEntity
  8
MAIN0
  6
CONTINUOUS
 62
3
100
AcDbLine
 10
517.7356610638688
 20
357.6526198114275
 30
0.0000000000000000
 11
515.7356610638689
 21
355.6526198114276
 31
0.0000000000000000
  0
LINE
  5
BE
100
AcDbEntity
  8
MAIN0
  6
CONTINUOUS
 62
3
100
AcDbLine
 10
515.7356610638401
 20
355.6526198113988
 30
0.0000000000000000
 11
539.7356610638832
 21
355.6526198114132
 31
0.0000000000000000
  0
ARC
  5
BF
100
AcDbEntity
  8
MAIN0
  6
CONTINUOUS
 62
3
100
AcDbCircle
 10
546.2981610638688
 20
344.6526198114275
 30
0.0000000000000000
 40
8.562499999999988
100
AcDbArc
 50
140.0337869561996
 51
219.9662130437999
  0
ARC
  5
C0
100
AcDbEntity
  8
MAIN0
  6
CONTINUOUS
 62
3
100
AcDbCircle
 10
509.1731610638688
 20
344.6526198114275
 30
0.0000000000000000
 40
8.562499999999988
100
AcDbArc
 50
320.0337869562001
 51
399.9662130438005
  0
LINE
  5
C1
100
AcDbEntity
  8
MAIN0
  6
CONTINUOUS
 62
3
100
AcDbLine
 10
539.7356610638688
 20
355.6526198114275
 30
0.0000000000000000
 11
539.7356610638688
 21
350.1526198114275
 31
0.0000000000000000
  0
LINE
  5
C2
100
AcDbEntity
  8
MAIN0
  6
CONTINUOUS
 62
3
100
AcDbLine
 10
515.7356610638688
 20
355.6526198114275
 30
0.0000000000000000
 11
515.7356610638688
 21
350.1526198114275
 31
0.0000000000000000
  0
ARC
  5
C3
100
AcDbEntity
  8
MAIN0
  6
CONTINUOUS
 62
3
100
AcDbCircle
 10
578.1099988966141
 20
347.4026198114298
 30
0.0000000000000000
 40
4.125000000003409
100
AcDbArc
 50
138.1896851042214
 51
221.8103148957786
  0
ARC
  5
C4
100
AcDbEntity
  8
MAIN0
  6
CONTINUOUS
 62
3
100
AcDbCircle
 10
571.9608119584846
 20
347.4026198114298
 30
0.0000000000000000
 40
4.125000000003409
100
AcDbArc
 50
318.1896851042214
 51
401.8103148957786
  0
ARC
  5
C5
100
AcDbEntity
  8
MAIN0
  6
CONTINUOUS
 62
3
100
AcDbCircle
 10
582.2349988966175
 20
347.4026198114298
 30
0.0000000000000000
 40
4.125000000003409
100
AcDbArc
 50
138.1896851042214
 51
221.8103148957786
  0
ARC
  5
C6
100
AcDbEntity
  8
MAIN0
  6
CONTINUOUS
 62
3
100
AcDbCircle
 10
571.9608119584846
 20
341.9026198114252
 30
0.0000000000000000
 40
4.125000000003409
100
AcDbArc
 50
318.1896851042214
 51
401.8103148957786
  0
ARC
  5
C7
100
AcDbEntity
  8
MAIN0
  6
CONTINUOUS
 62
3
100
AcDbCircle
 10
582.2349988966175
 20
341.9026198114252
 30
0.0000000000000000
 40
4.125000000003409
100
AcDbArc
 50
138.1896851042214
 51
221.8103148957786
  0
ARC
  5
C8
100
AcDbEntity
  8
MAIN0
  6
CONTINUOUS
 62
3
100
AcDbCircle
 10
576.0858119584880
 20
341.9026198114252
 30
0.0000000000000000
 40
4.125000000003409
100
AcDbArc
 50
318.1896851042214
 51
401.8103148957786
  0
LINE
  5
C9
100
AcDbEntity
  8
MAIN0
  6
CONTINUOUS
 62
3
100
AcDbLine
 10
539.7356610638689
 20
350.1526198114275
 30
0.0000000000000000
 11
575.0354054275493
 21
350.1526198114275
 31
0.0000000000000000
  0
LINE
  5
CA
100
AcDbEntity
  8
MAIN0
  6
CONTINUOUS
 62
3
100
AcDbLine
 10
579.1604054275528
 20
350.1526198114275
 30
0.0000000000000000
 11
589.2356610638688
 21
350.1526198114275
 31
0.0000000000000000
  0
LINE
  5
CB
100
AcDbEntity
  8
MAIN0
  6
CONTINUOUS
 62
3
100
AcDbLine
 10
539.7356610638688
 20
339.1526198114275
 30
0.0000000000000000
 11
575.0354054275493
 21
339.1526198114275
 31
0.0000000000000000
  0
LINE
  5
CC
100
AcDbEntity
  8
MAIN0
  6
CONTINUOUS
 62
3
100
AcDbLine
 10
579.1604054275528
 20
339.1526198114275
 30
0.0000000000000000
 11
589.2356610638688
 21
339.1526198114275
 31
0.0000000000000000
  0
ARC
  5
CD
100
AcDbEntity
  8
MAIN0
  6
CONTINUOUS
 62
3
100
AcDbCircle
 10
477.2806677238152
 20
347.4026198114298
 30
0.0000000000000000
 40
4.125000000003409
100
AcDbArc
 50
138.1896851042214
 51
221.8103148957786
  0
ARC
  5
CE
100
AcDbEntity
  8
MAIN0
  6
CONTINUOUS
 62
3
100
AcDbCircle
 10
471.1314807856857
 20
347.4026198114298
 30
0.0000000000000000
 40
4.125000000003409
100
AcDbArc
 50
318.1896851042214
 51
401.8103148957786
  0
ARC
  5
CF
100
AcDbEntity
  8
MAIN0
  6
CONTINUOUS
 62
3
100
AcDbCircle
 10
481.4056677238186
 20
347.4026198114298
 30
0.0000000000000000
 40
4.125000000003409
100
AcDbArc
 50
138.1896851042214
 51
221.8103148957786
  0
ARC
  5
D0
100
AcDbEntity
  8
MAIN0
  6
CONTINUOUS
 62
3
100
AcDbCircle
 10
471.1314807856857
 20
341.9026198114252
 30
0.0000000000000000
 40
4.125000000003409
100
AcDbArc
 50
318.1896851042214
 51
401.8103148957786
  0
ARC
  5
D1
100
AcDbEntity
  8
MAIN0
  6
CONTINUOUS
 62
3
100
AcDbCircle
 10
481.4056677238186
 20
341.9026198114252
 30
0.0000000000000000
 40
4.125000000003409
100
AcDbArc
 50
138.1896851042214
 51
221.8103148957786
  0
ARC
  5
D2
100
AcDbEntity
  8
MAIN0
  6
CONTINUOUS
 62
3
100
AcDbCircle
 10
475.2564807856891
 20
341.9026198114252
 30
0.0000000000000000
 40
4.125000000003409
100
AcDbArc
 50
318.1896851042214
 51
401.8103148957786
  0
LINE
  5
D3
100
AcDbEntity
  8
MAIN0
  6
CONTINUOUS
 62
3
100
AcDbLine
 10
466.2356610638688
 20
350.1526198114275
 30
0.0000000000000000
 11
474.2060742547505
 21
350.1526198114275
 31
0.0000000000000000
  0
LINE
  5
D4
100
AcDbEntity
  8
MAIN0
  6
CONTINUOUS
 62
3
100
AcDbLine
 10
478.3310742547539
 20
350.1526198114275
 30
0.0000000000000000
 11
515.7356610638688
 21
350.1526198114275
 31
0.0000000000000000
  0
LINE
  5
D5
100
AcDbEntity
  8
MAIN0
  6
CONTINUOUS
 62
3
100
AcDbLine
 10
466.2356610638688
 20
339.1526198114275
 30
0.0000000000000000
 11
474.2060742547505
 21
339.1526198114275
 31
0.0000000000000000
  0
LINE
  5
D6
100
AcDbEntity
  8
MAIN0
  6
CONTINUOUS
 62
3
100
AcDbLine
 10
478.3310742547539
 20
339.1526198114275
 30
0.0000000000000000
 11
515.7356610638688
 21
339.1526198114275
 31
0.0000000000000000
  0
LINE
  5
D7
100
AcDbEntity
  8
MAIN0
  6
CONTINUOUS
 62
3
100
AcDbLine
 10
517.7356610638688
 20
331.6526198114275
 30
0.0000000000000000
 11
537.7356610638688
 21
331.6526198114275
 31
0.0000000000000000
  0
LINE
  5
D8
100
AcDbEntity
  8
MAIN0
  6
CONTINUOUS
 62
3
100
AcDbLine
 10
515.7356610638688
 20
333.6526198114275
 30
0.0000000000000000
 11
517.7356610638688
 21
331.6526198114276
 31
0.0000000000000000
  0
LINE
  5
D9
100
AcDbEntity
  8
MAIN0
  6
CONTINUOUS
 62
3
100
AcDbLine
 10
537.7356610638688
 20
331.6526198114275
 30
0.0000000000000000
 11
539.7356610638689
 21
333.6526198114276
 31
0.0000000000000000
  0
LINE
  5
DA
100
AcDbEntity
  8
MAIN0
  6
CONTINUOUS
 62
3
100
AcDbLine
 10
515.7356610638688
 20
333.6526198114091
 30
0.0000000000000000
 11
539.7356610638688
 21
333.6526198114186
 31
0.0000000000000000
  0
LINE
  5
DB
100
AcDbEntity
  8
MAIN0
  6
CONTINUOUS
 62
3
100
AcDbLine
 10
539.7356610638688
 20
339.1526198114275
 30
0.0000000000000000
 11
539.7356610638688
 21
333.6526198114186
 31
0.0000000000000000
  0
LINE
  5
DC
100
AcDbEntity
  8
MAIN0
  6
CONTINUOUS
 62
3
100
AcDbLine
 10
515.7356610638688
 20
339.1526198114275
 30
0.0000000000000000
 11
515.7356610638688
 21
333.6526198114186
 31
0.0000000000000000
  0
LINE
  5
DD
100
AcDbEntity
  8
MAIN0
  6
CONTINUOUS
 62
3
100
AcDbLine
 10
537.7356610638688
 20
331.6526198114275
 30
0.0000000000000000
 11
537.7356610638688
 21
237.6526198114275
 31
0.0000000000000000
  0
LINE
  5
DE
100
AcDbEntity
  8
MAIN0
  6
CONTINUOUS
 62
3
100
AcDbLine
 10
517.7356610638688
 20
331.6526198114275
 30
0.0000000000000000
 11
517.7356610638688
 21
237.6526198114275
 31
0.0000000000000000
  0
LINE
  5
DF
100
AcDbEntity
  8
MAIN0
  6
CONTINUOUS
 62
3
100
AcDbLine
 10
517.7356610638688
 20
237.6526198114275
 30
0.0000000000000000
 11
537.7356610638688
 21
237.6526198114275
 31
0.0000000000000000
  0
LINE
  5
E0
100
AcDbEntity
  8
MAIN0
  6
CONTINUOUS
 62
3
100
AcDbLine
 10
521.2356610638892
 20
197.6526198114275
 30
0.0000000000000000
 11
534.2356610639746
 21
197.6526198114275
 31
0.0000000000000000
  0
LINE
  5
E1
100
AcDbEntity
  8
MAIN0
  6
CENTER
 62
3
100
AcDbLine
 10
516.4141735419619
 20
181.5685658440757
 30
0.0000000000000000
 11
540.4254218421137
 21
181.5685658440827
 31
0.0000000000000000
  0
LINE
  5
E2
100
AcDbEntity
  8
MAIN0
  6
CENTER
 62
3
100
AcDbLine
 10
527.7356610638688
 20
192.4290149450507
 30
0.0000000000000000
 11
527.7356610638688
 21
168.6167518499668
 31
0.0000000000000000
  0
LINE
  5
E3
100
AcDbEntity
  8
MAIN0
  6
CONTINUOUS
 62
3
100
AcDbLine
 10
520.5356610638688
 20
182.1467404365307
 30
0.0000000000000000
 11
527.1574864714105
 21
188.7685658440789
 31
0.0000000000000000
  0
LINE
  5
E4
100
AcDbEntity
  8
MAIN0
  6
CONTINUOUS
 62
3
100
AcDbLine
 10
528.3138356575212
 20
174.3685658440792
 30
0.0000000000000000
 11
534.9356610638688
 21
180.9903912504331
 31
0.0000000000000000
  0
LINE
  5
E5
100
AcDbEntity
  8
MAIN0
  6
CONTINUOUS
 62
3
100
AcDbLine
 10
528.3138356569241
 20
188.7685658440792
 30
0.0000000000000000
 11
534.9356610638687
 21
182.1467404371335
 31
0.0000000000000000
  0
LINE
  5
E6
100
AcDbEntity
  8
MAIN0
  6
CONTINUOUS
 62
3
100
AcDbLine
 10
520.5356610638688
 20
180.9903912510304
 30
0.0000000000000000
 11
527.1574864708193
 21
174.3685658440788
 31
0.0000000000000000
  0
LINE
  5
E7
100
AcDbEntity
  8
MAIN0
  6
CONTINUOUS
 62
3
100
AcDbLine
 10
527.1574864714104
 20
188.7685658440788
 30
0.0000000000000000
 11
528.3138356569241
 21
188.7685658440792
 31
0.0000000000000000
  0
LINE
  5
E8
100
AcDbEntity
  8
MAIN0
  6
CONTINUOUS
 62
3
100
AcDbLine
 10
527.1574864708193
 20
174.3685658440788
 30
0.0000000000000000
 11
528.3138356575213
 21
174.3685658440791
 31
0.0000000000000000
  0
LINE
  5
E9
100
AcDbEntity
  8
MAIN0
  6
CONTINUOUS
 62
3
100
AcDbLine
 10
534.9356610638688
 20
182.1467404371334
 30
0.0000000000000000
 11
534.9356610638688
 21
180.9903912504331
 31
0.0000000000000000
  0
LINE
  5
EA
100
AcDbEntity
  8
MAIN0
  6
CONTINUOUS
 62
3
100
AcDbLine
 10
520.5356610638687
 20
182.1467404365307
 30
0.0000000000000000
 11
520.5356610638687
 21
180.9903912510305
 31
0.0000000000000000
  0
LINE
  5
EB
100
AcDbEntity
  8
MAIN0
  6
CONTINUOUS
 62
3
100
AcDbLine
 10
534.9356610639693
 20
212.6526198114275
 30
0.0000000000000000
 11
534.9356610639743
 21
198.3526198114275
 31
0.0000000000000000
  0
LINE
  5
EC
100
AcDbEntity
  8
MAIN0
  6
CONTINUOUS
 62
3
100
AcDbLine
 10
520.5356610639039
 20
212.6526198114274
 30
0.0000000000000000
 11
520.5356610638899
 21
198.3526198114275
 31
0.0000000000000000
  0
LINE
  5
ED
100
AcDbEntity
  8
MAIN0
  6
CONTINUOUS
 62
3
100
AcDbLine
 10
520.5356610638900
 20
198.3526198114276
 30
0.0000000000000000
 11
521.2356610638892
 21
197.6526198114275
 31
0.0000000000000000
  0
LINE
  5
EE
100
AcDbEntity
  8
MAIN0
  6
CONTINUOUS
 62
3
100
AcDbLine
 10
534.2356610639746
 20
197.6526198114275
 30
0.0000000000000000
 11
534.9356610639743
 21
198.3526198114275
 31
0.0000000000000000
  0
ARC
  5
EF
100
AcDbEntity
  8
MAIN0
  6
CONTINUOUS
 62
3
100
AcDbCircle
 10
599.7107995319802
 20
218.0546043032592
 30
0.0000000000000000
 40
65.00000000000000
100
AcDbArc
 50
162.4518045222165
 51
184.7672048489440
  0
ARC
  5
F0
100
AcDbEntity
  8
MAIN0
  6
CONTINUOUS
 62
3
100
AcDbCircle
 10
455.7605225957574
 20
218.0546043032592
 30
0.0000000000000000
 40
65.00000000000000
100
AcDbArc
 50
355.2327951510559
 51
377.5481954777835
  0
LINE
  5
F1
100
AcDbEntity
  8
MAIN0
  6
CONTINUOUS
 62
3
100
AcDbLine
 10
527.1574864714321
 20
212.6526198114275
 30
0.0000000000000000
 11
527.1574864714150
 21
198.3526198114448
 31
0.0000000000000000
  0
LINE
  5
F2
100
AcDbEntity
  8
MAIN0
  6
CONTINUOUS
 62
3
100
AcDbLine
 10
528.2972839632776
 20
212.6526198114275
 30
0.0000000000000000
 11
528.2972839632680
 21
198.3526198114447
 31
0.0000000000000000
  0
LINE
  5
F3
100
AcDbEntity
  8
MAIN0
  6
CONTINUOUS
 62
3
100
AcDbLine
 10
520.5356610639039
 20
212.6526198114275
 30
0.0000000000000000
 11
527.1574864714321
 21
212.6526198114275
 31
0.0000000000000000
  0
LINE
  5
F4
100
AcDbEntity
  8
MAIN0
  6
CONTINUOUS
 62
3
100
AcDbLine
 10
528.2972839632776
 20
212.6526198114275
 30
0.0000000000000000
 11
534.9356610639692
 21
212.6526198114275
 31
0.0000000000000000
  0
LINE
  5
F5
100
AcDbEntity
  8
MAIN0
  6
CONTINUOUS
 62
3
100
AcDbLine
 10
520.5356610638901
 20
198.3526198114452
 30
0.0000000000000000
 11
534.9356610639744
 21
198.3526198114444
 31
0.0000000000000000
  0
LINE
  5
F6
100
AcDbEntity
  8
MAIN0
  6
CONTINUOUS
 62
3
100
AcDbLine
 10
534.9356610639691
 20
212.6526198114275
 30
0.0000000000000000
 11
528.2972839632680
 21
198.3526198114447
 31
0.0000000000000000
  0
LINE
  5
F7
100
AcDbEntity
  8
MAIN0
  6
CONTINUOUS
 62
3
100
AcDbLine
 10
528.2972839632776
 20
212.6526198114275
 30
0.0000000000000000
 11
534.9356610639743
 21
198.3526198114275
 31
0.0000000000000000
  0
LINE
  5
F8
100
AcDbEntity
  8
MAIN0
  6
CONTINUOUS
 62
3
100
AcDbLine
 10
527.1574864714322
 20
212.6526198114275
 30
0.0000000000000000
 11
520.5356610638901
 21
198.3526198114452
 31
0.0000000000000000
  0
LINE
  5
F9
100
AcDbEntity
  8
MAIN0
  6
CONTINUOUS
 62
3
100
AcDbLine
 10
520.5356610639039
 20
212.6526198114275
 30
0.0000000000000000
 11
527.1574864714152
 21
198.3526198114448
 31
0.0000000000000000
  0
LINE
  5
FA
100
AcDbEntity
  8
MAIN0
  6
CENTER
 62
3
100
AcDbLine
 10
558.4841594839302
 20
344.6526198114275
 30
0.0000000000000000
 11
596.4286352667701
 21
344.6526198114275
 31
0.0000000000000000
  0
LINE
  5
FB
100
AcDbEntity
  8
MAIN0
  6
CENTER
 62
3
100
AcDbLine
 10
527.7356610638688
 20
190.9715737611539
 30
0.0000000000000000
 11
527.7356610638688
 21
300.6940346527441
 31
0.0000000000000000
  0
LINE
  5
FC
100
AcDbEntity
  8
MAIN0
  6
HIDDEN
 62
3
100
AcDbLine
 10
352.4859619072260
 20
237.4673206248039
 30
0.0000000000000000
 11
352.4859619072260
 21
166.0527400038123
 31
0.0000000000000000
  0
LINE
  5
FD
100
AcDbEntity
  8
MAIN0
  6
HIDDEN
 62
3
100
AcDbLine
 10
319.9859619072260
 20
237.4673206248039
 30
0.0000000000000000
 11
319.9859619072260
 21
166.0527400038123
 31
0.0000000000000000
  0
LINE
  5
FE
100
AcDbEntity
  8
MAIN0
  6
HIDDEN
 62
3
100
AcDbLine
 10
347.3239945934005
 20
284.8181822162364
 30
0.0000000000000000
 11
409.1708356117911
 21
320.5254725267321
 31
0.0000000000000000
  0
LINE
  5
FF
100
AcDbEntity
  8
MAIN0
  6
HIDDEN
 62
3
100
AcDbLine
 10
363.5739945934005
 20
256.6723565932421
 30
0.0000000000000000
 11
425.4208356117910
 21
292.3796469037379
 31
0.0000000000000000
  0
LINE
  5
100
100
AcDbEntity
  8
MAIN0
  6
HIDDEN
 62
3
100
AcDbLine
 10
308.8979292210519
 20
256.6723565932423
 30
0.0000000000000000
 11
247.0510882026613
 21
292.3796469037381
 31
0.0000000000000000
  0
LINE
  5
101
100
AcDbEntity
  8
MAIN0
  6
HIDDEN
 62
3
100
AcDbLine
 10
325.1479292210519
 20
284.8181822162366
 30
0.0000000000000000
 11
263.3010882026613
 21
320.5254725267324
 31
0.0000000000000000
  0
ARC
  5
102
100
AcDbEntity
  8
MAIN0
  6
CONTINUOUS
 62
3
100
AcDbCircle
 10
336.2359619072260
 20
259.6526198114275
 30
0.0000000000000000
 40
27.50000000000001
100
AcDbArc
 50
178.8967353705700
 51
241.1033008564527
  0
ARC
  5
103
100
AcDbEntity
  8
MAIN0
  6
CONTINUOUS
 62
3
100
AcDbCircle
 10
336.2359619072260
 20
259.6526198114275
 30
0.0000000000000000
 40
27.50000000000001
100
AcDbArc
 50
298.8967353705697
 51
361.1033008564560
  0
ARC
  5
104
100
AcDbEntity
  8
MAIN0
  6
CONTINUOUS
 62
3
100
AcDbCircle
 10
336.2359619072260
 20
259.6526198114275
 30
0.0000000000000000
 40
27.50000000000001
100
AcDbArc
 50
58.89673537056662
 51
121.1033008564525
  0
ARC
  5
105
100
AcDbEntity
  8
MAIN0
  6
CONTINUOUS
 62
3
100
AcDbCircle
 10
589.2356610638686
 20
344.6526198114275
 30
0.0000000000000000
 40
5.500000000000000
100
AcDbArc
 50
270.0000000000000
 51
450.0000000000000
  0
ARC
  5
106
100
AcDbEntity
  8
MAIN0
  6
CONTINUOUS
 62
3
100
AcDbCircle
 10
466.2356610638844
 20
344.6526198114275
 30
0.0000000000000000
 40
5.500000000000000
100
AcDbArc
 50
90.00000000000000
 51
270.0000000000000
  0
CIRCLE
  5
107
100
AcDbEntity
  8
MAIN0
  6
HIDDEN
 62
3
100
AcDbCircle
 10
336.2359619072260
 20
259.6526198114275
 30
0.0000000000000000
 40
54.00000000000000
  0
LINE
  5
108
100
AcDbEntity
  8
MAIN0
  6
CENTER
 62
3
100
AcDbLine
 10
287.2282302391502
 20
344.5365010242371
 30
0.0000000000000000
 11
300.1154145335465
 21
322.2152430598391
 31
0.0000000000000000
  0
LINE
  5
109
100
AcDbEntity
  8
MAIN0
  6
CENTER
 62
3
100
AcDbLine
 10
287.3220203456752
 20
174.9311878283665
 30
0.0000000000000000
 11
299.8748685784822
 21
196.6733587472895
 31
0.0000000000000000
  0
ARC
  5
10A
100
AcDbEntity
  8
MAIN0
  6
CENTER
 62
3
100
AcDbCircle
 10
336.2359619072260
 20
259.6526198114274
 30
0.0000000000000000
 40
85.00000000000000
100
AcDbArc
 50
111.1626036410427
 51
128.1712183362752
  0
ARC
  5
10B
100
AcDbEntity
  8
MAIN0
  6
CENTER
 62
3
100
AcDbCircle
 10
336.2359619072260
 20
259.6526198114274
 30
0.0000000000000000
 40
85.00000000000000
100
AcDbArc
 50
231.1549751269987
 51
248.8698071350549
  0
ARC
  5
10C
100
AcDbEntity
  8
MAIN0
  6
CENTER
 62
3
100
AcDbCircle
 10
336.2359619072260
 20
259.6526198114274
 30
0.0000000000000000
 40
85.00000000000000
100
AcDbArc
 50
350.5404406892886
 51
368.6809517690318
  0
LINE
  5
10D
100
AcDbEntity
  8
MAIN0
  6
CENTER
 62
3
100
AcDbLine
 10
408.4056519682332
 20
217.9854298273731
 30
0.0000000000000000
 11
434.8602704953702
 21
202.7118486994217
 31
0.0000000000000000
  0
CIRCLE
  5
10E
100
AcDbEntity
  8
MAIN0
  6
HIDDEN
 62
3
100
AcDbCircle
 10
336.2359619072263
 20
259.6526198114275
 30
0.0000000000000000
 40
43.50000000000000
  0
CIRCLE
  5
10F
100
AcDbEntity
  8
MAIN0
  6
CONTINUOUS
 62
3
100
AcDbCircle
 10
293.7359619072261
 20
333.2647791331046
 30
0.0000000000000000
 40
6.000000000000000
  0
CIRCLE
  5
110
100
AcDbEntity
  8
MAIN0
  6
CONTINUOUS
 62
3
100
AcDbCircle
 10
293.7359619072259
 20
186.0404604897501
 30
0.0000000000000000
 40
6.000000000000000
  0
CIRCLE
  5
111
100
AcDbEntity
  8
MAIN0
  6
CONTINUOUS
 62
3
100
AcDbCircle
 10
421.2359619072259
 20
259.6526198114275
 30
0.0000000000000000
 40
6.000000000000000
  0
LINE
  5
112
100
AcDbEntity
  8
MAIN0
  6
CONTINUOUS
 62
3
100
AcDbLine
 10
248.8185724546419
 20
296.8440169523701
 30
0.0000000000000000
 11
251.7158204806857
 21
295.1712900246246
 31
0.0000000000000000
  0
LINE
  5
113
100
AcDbEntity
  8
MAIN0
  6
CONTINUOUS
 62
3
100
AcDbLine
 10
260.3185724546423
 20
316.7626012394120
 30
0.0000000000000000
 11
263.2158353687055
 21
315.0898657160645
 31
0.0000000000000000
  0
LINE
  5
114
100
AcDbEntity
  8
MAIN0
  6
CONTINUOUS
 62
3
100
AcDbLine
 10
324.7359619072260
 20
165.3512412425011
 30
0.0000000000000000
 11
324.7359619072260
 21
168.6967122891961
 31
0.0000000000000000
  0
LINE
  5
115
100
AcDbEntity
  8
MAIN0
  6
CONTINUOUS
 62
3
100
AcDbLine
 10
347.7359619072260
 20
165.3512412425010
 30
0.0000000000000000
 11
347.7359619072260
 21
168.6966950979916
 31
0.0000000000000000
  0
LINE
  5
116
100
AcDbEntity
  8
MAIN0
  6
CONTINUOUS
 62
3
100
AcDbLine
 10
409.2561033337674
 20
315.0898743116672
 30
0.0000000000000000
 11
412.1533513598097
 21
316.7626012394119
 31
0.0000000000000000
  0
LINE
  5
117
100
AcDbEntity
  8
MAIN0
  6
CONTINUOUS
 62
3
100
AcDbLine
 10
420.7560884457477
 20
295.1712814290229
 30
0.0000000000000000
 11
423.6533513598098
 21
296.8440169523698
 31
0.0000000000000000
  0
LINE
  5
118
100
AcDbEntity
  8
MAIN0
  6
CENTER
 62
3
100
AcDbLine
 10
242.9220362694862
 20
313.5274398975175
 30
0.0000000000000000
 11
377.1351893493178
 21
236.0394398380888
 31
0.0000000000000000
  0
LINE
  5
119
100
AcDbEntity
  8
MAIN0
  6
CENTER
 62
3
100
AcDbLine
 10
527.7356610638688
 20
309.3440345096930
 30
0.0000000000000000
 11
527.7356610638688
 21
364.6526198114275
 31
0.0000000000000000
  0
LINE
  5
11A
100
AcDbEntity
  8
MAIN0
  6
CONTINUOUS
 62
3
100
AcDbLine
 10
172.8038445149379
 20
208.9921080202435
 30
0.0000000000000000
 11
172.8038445149379
 21
242.6526284698084
 31
0.0000000000000000
  0
LINE
  5
11B
100
AcDbEntity
  8
MAIN0
  6
CONTINUOUS
 62
3
100
AcDbLine
 10
172.8038445149379
 20
164.6526284698084
 30
0.0000000000000000
 11
172.8038445149379
 21
196.3121080202435
 31
0.0000000000000000
  0
LINE
  5
11C
100
AcDbEntity
  8
MAIN0
  6
CONTINUOUS
 62
3
100
AcDbLine
 10
99.80407711516966
 20
337.6526198114275
 30
0.0000000000000000
 11
99.80407711516986
 21
337.1526198114275
 31
0.0000000000000000
  0
LINE
  5
11D
100
AcDbEntity
  8
MAIN0
  6
CONTINUOUS
 62
3
100
AcDbLine
 10
99.80407711516966
 20
337.6526198114275
 30
0.0000000000000000
 11
100.5540771151697
 21
337.6526198114275
 31
0.0000000000000000
  0
LINE
  5
11E
100
AcDbEntity
  8
MAIN0
  6
CENTER
 62
3
100
AcDbLine
 10
455.4591268477066
 20
344.6526198114275
 30
0.0000000000000000
 11
549.8341596269814
 21
344.6526198114275
 31
0.0000000000000000
  0
LINE
  5
11F
100
AcDbEntity
  8
MAIN0
  6
CONTINUOUS
 62
3
100
AcDbLine
 10
164.8040771152424
 20
166.6526284698084
 30
0.0000000000000000
 11
162.8040771152433
 21
164.6526284698084
 31
0.0000000000000000
  0
DIMENSION
  5
128
100
AcDbEntity
  8
MAIN0
  6
CONTINUOUS
 62
1
100
AcDbDimension
  2
*D5
 10
460.7356610638688
 20
379.6526198114275
 30
0.0000000000000000
 11
527.7356610638688
 21
380.1526198114275
 31
0.0000000000000000
 70
32
  1
\A1;240
  3
MAIN001
100
AcDbAlignedDimension
 13
594.7356610638686
 23
344.6526198114275
 33
0.0000000000000000
 14
460.7356610638688
 24
344.6526198114275
 34
0.0000000000000000
100
AcDbRotatedDimension
1001
ACAD
1000
DSTYLE
1002
{
1070
   173
1070
     1
1070
     6
1000
_OPEN
1070
     7
1000
_OPEN
1070
    41
1040
3.000000
1002
}
  0
DIMENSION
  5
131
100
AcDbEntity
  8
MAIN0
  6
CONTINUOUS
 62
3
100
AcDbDimension
  2
*D6
 10
566.2359619072270
 20
357.6526198114275
 30
0.0000000000000000
 11
565.7359619072270
 21
277.6526198114275
 31
0.0000000000000000
 70
32
  3
MAIN001
100
AcDbAlignedDimension
 13
534.2356610639746
 23
197.6526198114275
 33
0.0000000000000000
 14
537.7356610638688
 24
357.6526198114275
 34
0.0000000000000000
 50
90.00000000000000
100
AcDbRotatedDimension
1001
ACAD
1000
DSTYLE
1002
{
1070
   173
1070
     1
1070
     6
1000
_OPEN
1070
     7
1000
_OPEN
1070
    41
1040
3.000000
1002
}
  0
DIMENSION
  5
13A
100
AcDbEntity
  8
MAIN0
  6
CONTINUOUS
 62
3
100
AcDbDimension
  2
*D7
 10
515.7356610638688
 20
369.6526198114275
 30
0.0000000000000000
 11
527.7356610638688
 21
370.1526198114275
 31
0.0000000000000000
 70
32
  1
\A1;\U+220524
  3
MAIN001
100
AcDbAlignedDimension
 13
539.7356610638688
 23
355.6526198114275
 33
0.0000000000000000
 14
515.7356610638688
 24
355.6526198114275
 34
0.0000000000000000
100
AcDbRotatedDimension
1001
ACAD
1000
DSTYLE
1002
{
1070
   173
1070
     1
1070
     6
1000
_OPEN
1070
     7
1000
_OPEN
1070
    41
1040
3.000000
1002
}
  0
DIMENSION
  5
143
100
AcDbEntity
  8
MAIN0
  6
CONTINUOUS
 62
1
100
AcDbDimension
  2
*D8
 10
496.2359619072270
 20
357.6526198114275
 30
0.0000000000000000
 11
495.7359619072270
 21
362.3436234912273
 31
0.0000000000000000
 70
160
  3
MAIN001
100
AcDbAlignedDimension
 13
455.4591268477066
 23
344.6526198114275
 33
0.0000000000000000
 14
517.7356610638688
 24
357.6526198114275
 34
0.0000000000000000
 50
90.00000000000000
100
AcDbRotatedDimension
1001
ACAD
1000
DSTYLE
1002
{
1070
   173
1070
     1
1070
     6
1000
_OPEN
1070
     7
1000
_OPEN
1070
    41
1040
3.000000
1002
}
  0
DIMENSION
  5
14C
100
AcDbEntity
  8
MAIN0
  6
CONTINUOUS
 62
3
100
AcDbDimension
  2
*D9
 10
556.2359619072270
 20
350.1526198114275
 30
0.0000000000000000
 11
555.4859619072270
 21
344.7587114970095
 31
0.0000000000000000
 70
160
  1
\A1;\U+220511
  3
MAIN001
100
AcDbAlignedDimension
 13
539.7356610638688
 23
339.1526198114275
 33
0.0000000000000000
 14
539.7356610638689
 24
350.1526198114275
 34
0.0000000000000000
 50
90.00000000000000
100
AcDbRotatedDimension
1001
ACAD
1000
DSTYLE
1002
{
1070
   173
1070
     1
1070
     6
1000
_OPEN
1070
     7
1000
_OPEN
1070
    41
1040
3.000000
1070
   287
1070
     0
1002
}
  0
DIMENSION
  5
153
100
AcDbEntity
  8
MAIN0
  6
CONTINUOUS
 62
3
100
AcDbDimension
  2
*D10
 10
517.7356610638688
 20
301.6940346527441
 30
0.0000000000000000
 11
527.7356610638688
 21
302.1940346527441
 31
0.0000000000000000
 70
32
  1
\A1;\U+220520
  3
MAIN001
100
AcDbAlignedDimension
 13
537.7356610638688
 23
331.6526198114275
 33
0.0000000000000000
 14
517.7356610638688
 24
331.6526198114275
 34
0.0000000000000000
100
AcDbRotatedDimension
1001
ACAD
1000
DSTYLE
1002
{
1070
   173
1070
     1
1070
     6
1000
_OPEN
1070
     7
1000
_OPEN
1070
    41
1040
3.000000
1002
}
  0
DIMENSION
  5
15C
100
AcDbEntity
  8
MAIN0
  6
CONTINUOUS
 62
3
100
AcDbDimension
  2
*D11
 10
547.4841594839302
 20
212.6526198114275
 30
0.0000000000000000
 11
546.9841594839302
 21
205.1526198114275
 31
0.0000000000000000
 70
32
  3
MAIN001
100
AcDbAlignedDimension
 13
534.2356610639746
 23
197.6526198114275
 33
0.0000000000000000
 14
534.9356610639692
 24
212.6526198114275
 34
0.0000000000000000
 50
90.00000000000000
100
AcDbRotatedDimension
1001
ACAD
1000
DSTYLE
1002
{
1070
   173
1070
     1
1070
     6
1000
_OPEN
1070
     7
1000
_OPEN
1070
    41
1040
3.000000
1002
}
  0
DIMENSION
  5
162
100
AcDbEntity
  8
MAIN0
  6
CONTINUOUS
 62
3
100
AcDbDimension
  2
*D12
 10
283.5209214920338
 20
192.9733538134827
 30
0.0000000000000000
 11
292.8157864303603
 21
205.9397627596601
 31
0.0000000000000000
 70
163
  3
MAIN001
100
AcDbDiametricDimension
 15
388.9510023224182
 25
326.3318858093720
 35
0.0000000000000000
1001
ACAD
1000
DSTYLE
1002
{
1070
   287
1070
     2
1070
   173
1070
     1
1070
     6
1000
_OPEN
1070
     7
1000
_NONE
1070
    41
1040
3.000000
1070
   272
1070
     1
1070
    47
1040
0.200000
1070
    48
1040
0.200000
1070
    71
1070
     1
1002
}
  0
DIMENSION
  5
16C
100
AcDbEntity
  8
MAIN0
  6
CONTINUOUS
 62
3
100
AcDbDimension
  2
*D13
 10
539.1244470479326
 20
162.4016052669637
 30
0.0000000000000000
 11
551.6814540430191
 21
175.6657190432341
 31
0.0000000000000000
 70
161
  3
MAIN001
100
AcDbAlignedDimension
 13
534.9356610638687
 23
182.1467404371335
 33
0.0000000000000000
 14
527.1574864708194
 24
174.3685658440788
 34
0.0000000000000000
 50
44.99999999999519
1001
ACAD
1000
DSTYLE
1002
{
1070
   173
1070
     1
1070
     6
1000
_OPEN
1070
     7
1000
_OPEN
1070
    41
1040
3.000000
1070
   272
1070
     2
1070
    47
1040
0.000000
1070
    48
1040
0.150000
1070
    71
1070
     1
1070
   340
1005
16D
1002
}
  0
DIMENSION
  5
176
100
AcDbEntity
  8
MAIN0
  6
CONTINUOUS
 62
3
100
AcDbDimension
  2
*D14
 10
221.2359619072270
 20
273.6526198114275
 30
0.0000000000000000
 11
220.7359619072270
 21
259.6526198114275
 31
0.0000000000000000
 70
32
  3
MAIN001
100
AcDbAlignedDimension
 13
206.4040771152088
 23
245.6526198114275
 33
0.0000000000000000
 14
206.4040771151969
 24
273.6526198114275
 34
0.0000000000000000
 50
90.00000000000000
100
AcDbRotatedDimension
1001
ACAD
1000
DSTYLE
1002
{
1070
   173
1070
     1
1070
     6
1000
_OPEN
1070
     7
1000
_OPEN
1070
    41
1040
3.000000
1002
}
  0
DIMENSION
  5
17F
100
AcDbEntity
  8
MAIN0
  6
CONTINUOUS
 62
3
100
AcDbDimension
  2
*D15
 10
221.2359619072270
 20
242.6521080201988
 30
0.0000000000000000
 11
220.7359619072270
 21
202.6521080202134
 31
0.0000000000000000
 70
32
  3
MAIN001
100
AcDbAlignedDimension
 13
186.7068374732901
 23
162.6521080202280
 33
0.0000000000000000
 14
206.2068374733788
 24
242.6521080202064
 34
0.0000000000000000
 50
90.00000000000000
100
AcDbRotatedDimension
1001
ACAD
1000
DSTYLE
1002
{
1070
   173
1070
     1
1070
     6
1000
_OPEN
1070
     7
1000
_OPEN
1070
    41
1040
3.000000
1002
}
  0
DIMENSION
  5
188
100
AcDbEntity
  8
MAIN0
  6
CONTINUOUS
 62
3
100
AcDbDimension
  2
*D16
 10
416.2359375630513
 20
169.9475373281806
 30
0.0000000000000000
 11
460.2359375630513
 21
170.4475373281806
 31
0.0000000000000000
 70
32
  3
MAIN001
100
AcDbAlignedDimension
 13
504.2359375630513
 23
155.4914991009823
 33
0.0000000000000000
 14
416.2359375630513
 24
155.4914991009823
 34
0.0000000000000000
100
AcDbRotatedDimension
1001
ACAD
1000
DSTYLE
1002
{
1070
   173
1070
     1
1070
     6
1000
_OPEN
1070
     7
1000
_OPEN
1070
    41
1040
3.000000
1002
}
  0
DIMENSION
  5
191
100
AcDbEntity
  8
MAIN0
  6
CONTINUOUS
 62
3
100
AcDbDimension
  2
*D17
 10
434.0109375630511
 20
101.6494032585752
 30
0.0000000000000000
 11
445.1234375630512
 21
102.1494032585752
 31
0.0000000000000000
 70
32
  3
MAIN001
100
AcDbAlignedDimension
 13
456.2359375630513
 23
106.9733223638926
 33
0.0000000000000000
 14
434.0109375630511
 24
111.2792472049829
 34
0.0000000000000000
100
AcDbRotatedDimension
1001
ACAD
1000
DSTYLE
1002
{
1070
   173
1070
     1
1070
     6
1000
_OPEN
1070
     7
1000
_OPEN
1070
    41
1040
3.000000
1002
}
  0
DIMENSION
  5
19A
100
AcDbEntity
  8
MAIN0
  6
CONTINUOUS
 62
3
100
AcDbDimension
  2
*D18
 10
456.2359375630513
 20
101.6494032585752
 30
0.0000000000000000
 11
467.3484375630512
 21
102.1494032585752
 31
0.0000000000000000
 70
32
  3
MAIN001
100
AcDbAlignedDimension
 13
478.4609375630512
 23
111.2792472049829
 33
0.0000000000000000
 14
456.2359375630513
 24
106.9733223638926
 34
0.0000000000000000
100
AcDbRotatedDimension
1001
ACAD
1000
DSTYLE
1002
{
1070
   173
1070
     1
1070
     6
1000
_OPEN
1070
     7
1000
_OPEN
1070
    41
1040
3.000000
1002
}
  0
DIMENSION
  5
1A3
100
AcDbEntity
  8
MAIN0
  6
CONTINUOUS
 62
3
100
AcDbDimension
  2
*D19
 10
517.0336236095870
 20
156.4914991009823
 30
0.0000000000000000
 11
516.5336236095870
 21
135.9914991009823
 31
0.0000000000000000
 70
32
  3
MAIN001
100
AcDbAlignedDimension
 13
462.2759375630512
 23
115.4914991009823
 33
0.0000000000000000
 14
503.2359375630513
 24
156.4914991009823
 34
0.0000000000000000
 50
90.00000000000000
100
AcDbRotatedDimension
1001
ACAD
1000
DSTYLE
1002
{
1070
   173
1070
     1
1070
     6
1000
_OPEN
1070
     7
1000
_OPEN
1070
    41
1040
3.000000
1002
}
  0
DIMENSION
  5
1AA
100
AcDbEntity
  8
MAIN0
  6
CONTINUOUS
 62
3
100
AcDbDimension
  2
*D20
 10
427.3766888694039
 20
207.0324965656758
 30
0.0000000000000000
 11
388.6060851529775
 21
168.9449055511417
 31
0.0000000000000000
 70
162
  3
MAIN001
100
AcDb2LineAngularDimension
 13
336.2359619072260
 23
154.4123733199242
 33
0.0000000000000000
 14
336.2359619072260
 24
259.6526198114274
 34
0.0000000000000000
 15
434.8602704953702
 25
202.7118486994217
 35
0.0000000000000000
 16
388.8560851529775
 26
168.5118928492495
 36
0.0000000000000000
1001
ACAD
1000
DSTYLE
1002
{
1070
   173
1070
     1
1070
     6
1000
_OPEN
1070
     7
1000
_OPEN
1070
    41
1040
3.000000
1002
}
  0
DIMENSION
  5
1B1
100
AcDbEntity
  8
MAIN0
  6
CONTINUOUS
 62
3
100
AcDbDimension
  2
*D21
 10
441.4762083987292
 20
259.6526198114274
 30
0.0000000000000000
 11
437.4072710452518
 21
232.5438492306940
 31
0.0000000000000000
 70
162
  3
MAIN001
100
AcDb2LineAngularDimension
 13
427.3766888694039
 23
207.0324965656758
 33
0.0000000000000000
 14
434.8602704953702
 24
202.7118486994217
 34
0.0000000000000000
 15
336.2359619072260
 25
259.6526198114274
 35
0.0000000000000000
 16
437.8902339583964
 26
232.4144397081427
 36
0.0000000000000000
1001
ACAD
1000
DSTYLE
1002
{
1070
   173
1070
     1
1070
     6
1000
_OPEN
1070
     7
1000
_OPEN
1070
    41
1040
3.000000
1002
}
  0
DIMENSION
  5
1B8
100
AcDbEntity
  8
MAIN0
  6
CONTINUOUS
 62
3
100
AcDbDimension
  2
*D22
 10
427.3766888694039
 20
312.2727430571790
 30
0.0000000000000000
 11
437.4072710452519
 21
286.7613903921610
 31
0.0000000000000000
 70
162
  3
MAIN001
100
AcDb2LineAngularDimension
 13
441.4762083987292
 23
259.6526198114274
 33
0.0000000000000000
 14
336.2359619072260
 24
259.6526198114274
 34
0.0000000000000000
 15
431.1443842633451
 25
314.4480230070955
 35
0.0000000000000000
 16
437.8902339583964
 26
286.8907999147122
 36
0.0000000000000000
1001
ACAD
1000
DSTYLE
1002
{
1070
   173
1070
     1
1070
     6
1000
_OPEN
1070
     7
1000
_OPEN
1070
    41
1040
3.000000
1002
}
  0
DIMENSION
  5
1BF
100
AcDbEntity
  8
MAIN0
  6
CONTINUOUS
 62
3
100
AcDbDimension
  2
*D23
 10
336.2359619072260
 20
364.8928663029307
 30
0.0000000000000000
 11
389.1060851529776
 21
351.2263594754977
 31
0.0000000000000000
 70
162
  3
MAIN001
100
AcDb2LineAngularDimension
 13
427.3766888694039
 23
312.2727430571790
 33
0.0000000000000000
 14
431.1443842633451
 24
314.4480230070955
 34
0.0000000000000000
 15
336.2359619072260
 25
259.6526198114274
 35
0.0000000000000000
 16
388.8560851529776
 26
350.7933467736054
 36
0.0000000000000000
1001
ACAD
1000
DSTYLE
1002
{
1070
   173
1070
     1
1070
     6
1000
_OPEN
1070
     7
1000
_OPEN
1070
    41
1040
3.000000
1002
}
  0
DIMENSION
  5
1C7
100
AcDbEntity
  8
MAIN0
  6
CONTINUOUS
 62
3
100
AcDbDimension
  2
*D24
 10
318.6105123530487
 20
308.0781444692662
 30
0.0000000000000000
 11
317.8743607979245
 21
363.7864343616817
 31
0.0000000000000000
 70
162
  3
MAIN001
100
AcDb2LineAngularDimension
 13
336.2359619072260
 23
364.8928663029307
 33
0.0000000000000000
 14
336.2359619072260
 24
259.6526198114274
 34
0.0000000000000000
 15
318.9525324963744
 25
307.1384518484803
 35
0.0000000000000000
 16
317.9611848867579
 26
363.2940304851757
 36
0.0000000000000000
1001
ACAD
1000
DSTYLE
1002
{
1070
   173
1070
     1
1070
     6
1000
_OPEN
1070
     7
1000
_OPEN
1070
    41
1040
3.000000
1002
}
  0
LINE
  5
1C8
100
AcDbEntity
  8
MAIN0
  6
CENTER
 62
3
100
AcDbLine
 10
245.9016070817348
 20
207.4980557358590
 30
0.0000000000000000
 11
278.4576995207038
 21
226.2943244692601
 31
0.0000000000000000
  0
LINE
  5
1C9
100
AcDbEntity
  8
MAIN0
  6
CENTER
 62
3
100
AcDbLine
 10
326.6180737157822
 20
254.0997294750616
 30
0.0000000000000000
 11
347.6752472817233
 21
266.2570943017304
 31
0.0000000000000000
  0
LINE
  5
1CA
100
AcDbEntity
  8
MAIN0
  6
PHANTOM
 62
3
100
AcDbLine
 10
152.8040771152118
 20
336.6526198114275
 30
0.0000000000000000
 11
161.8040771152118
 21
336.6526198114275
 31
0.0000000000000000
  0
LINE
  5
1CB
100
AcDbEntity
  8
MAIN0
  6
PHANTOM
 62
3
100
AcDbLine
 10
161.8040771152118
 20
336.6526198114275
 30
0.0000000000000000
 11
162.8040771152118
 21
338.3846706189964
 31
0.0000000000000000
  0
LINE
  5
1CC
100
AcDbEntity
  8
MAIN0
  6
PHANTOM
 62
3
100
AcDbLine
 10
162.8040771152118
 20
338.3846706189964
 30
0.0000000000000000
 11
162.8040771152118
 21
350.9205690038587
 31
0.0000000000000000
  0
LINE
  5
1CD
100
AcDbEntity
  8
MAIN0
  6
PHANTOM
 62
3
100
AcDbLine
 10
162.8040771152118
 20
350.9205690038587
 30
0.0000000000000000
 11
161.8040771152118
 21
352.6526198114275
 31
0.0000000000000000
  0
LINE
  5
1CE
100
AcDbEntity
  8
MAIN0
  6
PHANTOM
 62
3
100
AcDbLine
 10
161.8040771152118
 20
352.6526198114275
 30
0.0000000000000000
 11
152.8040771152118
 21
352.6526198114275
 31
0.0000000000000000
  0
LINE
  5
1CF
100
AcDbEntity
  8
MAIN0
  6
PHANTOM
 62
3
100
AcDbLine
 10
161.8040771152118
 20
336.6526198114275
 30
0.0000000000000000
 11
161.8040771152118
 21
352.6526198114275
 31
0.0000000000000000
  0
LINE
  5
1D0
100
AcDbEntity
  8
MAIN0
  6
PHANTOM
 62
3
100
AcDbLine
 10
152.8040771152118
 20
339.6526198114275
 30
0.0000000000000000
 11
72.80407711521184
 21
339.6526198114275
 31
0.0000000000000000
  0
LINE
  5
1D1
100
AcDbEntity
  8
MAIN0
  6
PHANTOM
 62
3
100
AcDbLine
 10
72.80407711521184
 20
339.6526198114275
 30
0.0000000000000000
 11
72.80407711521184
 21
349.6526198114275
 31
0.0000000000000000
  0
LINE
  5
1D2
100
AcDbEntity
  8
MAIN0
  6
PHANTOM
 62
3
100
AcDbLine
 10
72.80407711521184
 20
349.6526198114275
 30
0.0000000000000000
 11
152.8040771152118
 21
349.6526198114275
 31
0.0000000000000000
  0
LINE
  5
1D3
100
AcDbEntity
  8
MAIN0
  6
PHANTOM
 62
3
100
AcDbLine
 10
104.8040771152118
 20
340.4645188114275
 30
0.0000000000000000
 11
72.80407711521184
 21
340.4645188114275
 31
0.0000000000000000
  0
LINE
  5
1D4
100
AcDbEntity
  8
MAIN0
  6
PHANTOM
 62
3
100
AcDbLine
 10
104.8040771152118
 20
348.8407208114275
 30
0.0000000000000000
 11
72.80407711521184
 21
348.8407208114276
 31
0.0000000000000000
  0
LINE
  5
1D5
100
AcDbEntity
  8
MAIN0
  6
PHANTOM
 62
3
100
AcDbLine
 10
104.8040771152118
 20
339.6526198114275
 30
0.0000000000000000
 11
104.8040771152118
 21
349.6526198114275
 31
0.0000000000000000
  0
MTEXT
  5
1D6
100
AcDbEntity
  8
MAIN0
  6
CONTINUOUS
 62
3
100
AcDbMText
 10
277.9755574342038
 20
112.3463165645416
 30
0.0000000000000000
 40
4.649999856948853
 41
0.0000000000000000
 71
     1
 72
     1
  1
{\H0.81x;{11.0}}
 11
1.000000000000000
 21
0.0000000000000000
 31
0.0000000000000000
  7
STANDARD
  0
MTEXT
  5
1D7
100
AcDbEntity
  8
MAIN0
  6
CONTINUOUS
 62
3
100
AcDbMText
 10
273.3508945828960
 20
104.6072752131507
 30
0.0000000000000000
 40
4.649999856948853
 41
0.0000000000000000
 71
     1
 72
     1
  1
{\H0.88x;{31}}
 11
1.000000000000000
 21
0.0000000000000000
 31
0.0000000000000000
  7
STANDARD
  0
MTEXT
  5
1D8
100
AcDbEntity
  8
MAIN0
  6
CONTINUOUS
 62
3
100
AcDbMText
 10
277.8508945828960
 20
97.85727521315073
 30
0.0000000000000000
 40
4.649999856948853
 41
0.0000000000000000
 71
     1
 72
     1
  1
{\H0.91x;{3161}}
 11
1.000000000000000
 21
0.0000000000000000
 31
0.0000000000000000
  7
STANDARD
  0
MTEXT
  5
1D9
100
AcDbEntity
  8
MAIN0
  6
CONTINUOUS
 62
3
100
AcDbMText
 10
273.3508945828960
 20
73.35727521315070
 30
0.0000000000000000
 40
4.649999856948853
 41
0.0000000000000000
 71
     1
 72
     1
  1
{\H0.88x;{13}}
 11
1.000000000000000
 21
0.0000000000000000
 31
0.0000000000000000
  7
STANDARD
  0
MTEXT
  5
1DA
100
AcDbEntity
  8
MAIN0
  6
CONTINUOUS
 62
3
100
AcDbMText
 10
273.3508945828960
 20
119.6072752131509
 30
0.0000000000000000
 40
4.649999856948853
 41
0.0000000000000000
 71
     1
 72
     1
  1
{\H0.84x;{107.9}}
 11
1.000000000000000
 21
0.0000000000000000
 31
0.0000000000000000
  7
STANDARD
  0
LINE
  5
1DB
100
AcDbEntity
  8
MAIN0
  6
CONTINUOUS
 62
3
100
AcDbLine
 10
195.3508945828961
 20
29.70727535619693
 30
0.0000000000000000
 11
315.3508945828961
 21
29.70727535619702
 31
0.0000000000000000
  0
LINE
  5
1DC
100
AcDbEntity
  8
MAIN0
  6
CONTINUOUS
 62
3
100
AcDbLine
 10
224.6008945828960
 20
29.70727535619704
 30
0.0000000000000000
 11
224.6008945828960
 21
50.70727535619699
 31
0.0000000000000000
  0
MTEXT
  5
1DD
100
AcDbEntity
  8
MAIN0
  6
CONTINUOUS
 62
3
100
AcDbMText
 10
249.1762949599839
 20
47.90172316520599
 30
0.0000000000000000
 40
4.649999856948853
 41
0.0000000000000000
 71
     1
 72
     1
  1
{\H0.92x;{外径把握}}
 11
1.000000000000000
 21
0.0000000000000000
 31
0.0000000000000000
  7
KNJYOKO
  0
MTEXT
  5
1DE
100
AcDbEntity
  8
MAIN0
  6
CONTINUOUS
 62
3
100
AcDbMText
 10
249.1762949599839
 20
37.19103039909197
 30
0.0000000000000000
 40
4.649999856948853
 41
0.0000000000000000
 71
     1
 72
     1
  1
{\H0.92x;{内径把握}}
 11
1.000000000000000
 21
0.0000000000000000
 31
0.0000000000000000
  7
KNJYOKO
  0
MTEXT
  5
1DF
100
AcDbEntity
  8
MAIN0
  6
CONTINUOUS
 62
3
100
AcDbMText
 10
208.0410217757786
 20
35.25591409884066
 30
0.0000000000000000
 40
4.500000000000000
 41
0.0000000000000000
 71
     1
 72
     1
  1
{\H0.63x;{(mm)}}
 11
1.000000000000000
 21
0.0000000000000000
 31
0.0000000000000000
  7
STANDARD
  0
MTEXT
  5
1E0
100
AcDbEntity
  8
MAIN0
  6
CONTINUOUS
 62
3
100
AcDbMText
 10
273.3508945828526
 20
37.35727521314581
 30
0.0000000000000000
 40
4.649999856948853
 41
0.0000000000000000
 71
     1
 72
     1
  1
{\H0.93x;{\U+220562～\U+2205170}}
 11
1.000000000000000
 21
0.0000000000000000
 31
0.0000000000000000
  7
KNJYOKO
  0
MTEXT
  5
1E1
100
AcDbEntity
  8
MAIN0
  6
CONTINUOUS
 62
3
100
AcDbMText
 10
199.1008945828976
 20
89.48227521319305
 30
0.0000000000000000
 40
4.649999856948853
 41
0.0000000000000000
 71
     1
 72
     1
  1
{\H0.94x;{許容最高回転速度　}}
 11
1.000000000000000
 21
0.0000000000000000
 31
0.0000000000000000
  7
KNJYOKO
  0
MTEXT
  5
1E2
100
AcDbEntity
  8
MAIN0
  6
CONTINUOUS
 62
3
100
AcDbMText
 10
273.3508945828960
 20
82.15038584393392
 30
0.0000000000000000
 40
4.649999856948853
 41
0.0000000000000000
 71
     7
 72
     1
  1
{3500 min}
 11
1.000000000000000
 21
0.0000000000000000
 31
0.0000000000000000
  7
STANDARD
  0
MTEXT
  5
1E3
100
AcDbEntity
  8
MAIN0
  6
CONTINUOUS
 62
3
100
AcDbMText
 10
306.6408955580280
 20
84.47538577240835
 30
0.0000000000000000
 40
2.324999928474426
 41
0.0000000000000000
 71
     7
 72
     1
  1
{-1}
 11
1.000000000000000
 21
0.0000000000000000
 31
0.0000000000000000
  7
STANDARD
  0
CIRCLE
  5
1E4
100
AcDbEntity
  8
MAIN0
  6
HIDDEN
 62
3
100
AcDbCircle
 10
321.7359619072260
 20
342.9499937196126
 30
0.0000000000000000
 40
4.000000000000000
  0
CIRCLE
  5
1E5
100
AcDbEntity
  8
MAIN0
  6
HIDDEN
 62
3
100
AcDbCircle
 10
321.7359619072260
 20
342.9499937196126
 30
0.0000000000000000
 40
3.400000000000000
  0
CIRCLE
  5
1E6
100
AcDbEntity
  8
MAIN0
  6
CONTINUOUS
 62
3
100
AcDbCircle
 10
421.2359619072259
 20
259.6526198114275
 30
0.0000000000000000
 40
8.500000000000000
  0
CIRCLE
  5
1E7
100
AcDbEntity
  8
MAIN0
  6
CONTINUOUS
 62
3
100
AcDbCircle
 10
293.7359619072259
 20
186.0404604897501
 30
0.0000000000000000
 40
8.500000000000000
  0
CIRCLE
  5
1E8
100
AcDbEntity
  8
MAIN0
  6
CONTINUOUS
 62
3
100
AcDbCircle
 10
293.7359619072261
 20
333.2647791331048
 30
0.0000000000000000
 40
8.500000000000000
  0
LINE
  5
1E9
100
AcDbEntity
  8
MAIN0
  6
CONTINUOUS
 62
3
100
AcDbLine
 10
350.2359767952459
 20
170.1400793665653
 30
0.0000000000000000
 11
350.2359767952459
 21
235.1660221143327
 31
0.0000000000000000
  0
LINE
  5
1EA
100
AcDbEntity
  8
MAIN0
  6
CONTINUOUS
 62
3
100
AcDbLine
 10
322.2359767952459
 20
170.1400793665654
 30
0.0000000000000000
 11
322.2359767952459
 21
235.1660221143327
 31
0.0000000000000000
  0
ARC
  5
1EB
100
AcDbEntity
  8
MAIN0
  6
CONTINUOUS
 62
3
100
AcDbCircle
 10
336.2359767952459
 20
269.6530507404490
 30
0.0000000000000000
 40
27.00000000000000
100
AcDbArc
 50
267.8774486378567
 51
272.1225513621434
  0
LINE
  5
1EC
100
AcDbEntity
  8
MAIN0
  6
CONTINUOUS
 62
3
100
AcDbLine
 10
350.2359767952459
 20
235.1660221143327
 30
0.0000000000000000
 11
337.2359767949195
 21
242.6715756139728
 31
0.0000000000000000
  0
LINE
  5
1ED
100
AcDbEntity
  8
MAIN0
  6
CONTINUOUS
 62
3
100
AcDbLine
 10
322.2359767952459
 20
235.1660221143327
 30
0.0000000000000000
 11
335.2359767955723
 21
242.6715756139728
 31
0.0000000000000000
  0
LINE
  5
1EE
100
AcDbEntity
  8
MAIN0
  6
CONTINUOUS
 62
3
100
AcDbLine
 10
350.2359767952458
 20
170.1400793665653
 30
0.0000000000000000
 11
337.2680628170663
 21
162.6530507404490
 31
0.0000000000000000
  0
LINE
  5
1EF
100
AcDbEntity
  8
MAIN0
  6
CONTINUOUS
 62
3
100
AcDbLine
 10
322.2359767952458
 20
170.1400793665654
 30
0.0000000000000000
 11
335.4811673925541
 21
162.4929650097552
 31
0.0000000000000000
  0
ARC
  5
1F0
100
AcDbEntity
  8
MAIN0
  6
CONTINUOUS
 62
3
100
AcDbCircle
 10
336.2359767952459
 20
269.6530507404490
 30
0.0000000000000000
 40
53.10000000000000
100
AcDbArc
 50
254.7130420561361
 51
255.8287389113720
  0
ARC
  5
1F1
100
AcDbEntity
  8
MAIN0
  6
CONTINUOUS
 62
3
100
AcDbCircle
 10
336.2359767952459
 20
269.6530507404490
 30
0.0000000000000000
 40
53.10000000000000
100
AcDbArc
 50
284.1712610886279
 51
285.2869579438639
  0
ARC
  5
1F2
100
AcDbEntity
  8
MAIN0
  6
CONTINUOUS
 62
3
100
AcDbCircle
 10
336.2359767952459
 20
135.6530507404490
 30
0.0000000000000000
 40
57.50000000000000
100
AcDbArc
 50
76.93319665865244
 51
103.0668033413476
  0
ARC
  5
1F3
100
AcDbEntity
  8
MAIN0
  6
CONTINUOUS
 62
3
100
AcDbCircle
 10
336.2359767952459
 20
135.6530507404490
 30
0.0000000000000000
 40
63.50000000000000
100
AcDbArc
 50
77.26321676955726
 51
102.7367832304427
  0
ARC
  5
1F4
100
AcDbEntity
  8
MAIN0
  6
CONTINUOUS
 62
3
100
AcDbCircle
 10
336.2359767952459
 20
135.6530507404490
 30
0.0000000000000000
 40
80.00000000000000
100
AcDbArc
 50
79.92134189221235
 51
100.0786581077877
  0
ARC
  5
1F5
100
AcDbEntity
  8
MAIN0
  6
CONTINUOUS
 62
3
100
AcDbCircle
 10
336.2359767952459
 20
269.6530507404490
 30
0.0000000000000000
 40
79.09999999999999
100
AcDbArc
 50
279.4594143199403
 51
280.1945516327704
  0
ARC
  5
1F6
100
AcDbEntity
  8
MAIN0
  6
CONTINUOUS
 62
3
100
AcDbCircle
 10
336.2359767952459
 20
269.6530507404490
 30
0.0000000000000000
 40
79.09999999999999
100
AcDbArc
 50
259.8054483672296
 51
260.5405856800597
  0
ARC
  5
1F7
100
AcDbEntity
  8
MAIN0
  6
CONTINUOUS
 62
3
100
AcDbCircle
 10
336.2359767952459
 20
135.6530507404490
 30
0.0000000000000000
 40
83.50000000000000
100
AcDbArc
 50
81.04326371208930
 51
85.82852474793361
  0
ARC
  5
1F8
100
AcDbEntity
  8
MAIN0
  6
CONTINUOUS
 62
3
100
AcDbCircle
 10
336.2359767952459
 20
135.6530507404490
 30
0.0000000000000000
 40
83.50000000000000
100
AcDbArc
 50
94.17147525206629
 51
98.95673628791072
  0
ARC
  5
1F9
100
AcDbEntity
  8
MAIN0
  6
CONTINUOUS
 62
3
100
AcDbCircle
 10
336.2359767952459
 20
135.6530507404490
 30
0.0000000000000000
 40
35.00000000000000
100
AcDbArc
 50
70.79334353837899
 51
109.2066564616210
  0
LINE
  5
1FA
100
AcDbEntity
  8
MAIN0
  6
CENTER
 62
3
100
AcDbLine
 10
323.7354136696870
 20
224.8780507404490
 30
0.0000000000000000
 11
347.9863661484321
 21
224.8780507404490
 31
0.0000000000000000
  0
LINE
  5
1FB
100
AcDbEntity
  8
MAIN0
  6
CENTER
 62
3
100
AcDbLine
 10
323.7354136696870
 20
180.4280507404490
 30
0.0000000000000000
 11
347.9863661484321
 21
180.4280507404490
 31
0.0000000000000000
  0
LINE
  5
1FC
100
AcDbEntity
  8
MAIN0
  6
CONTINUOUS
 62
3
100
AcDbLine
 10
337.2680628170663
 20
162.6530507404489
 30
0.0000000000000000
 11
335.2038907734252
 21
162.6530507404489
 31
0.0000000000000000
  0
LINE
  5
1FD
100
AcDbEntity
  8
MAIN0
  6
CONTINUOUS
 62
3
100
AcDbLine
 10
406.7560884457500
 20
316.5332585802449
 30
0.0000000000000000
 11
350.4419701211510
 21
284.0202872063612
 31
0.0000000000000000
  0
LINE
  5
1FE
100
AcDbEntity
  8
MAIN0
  6
CONTINUOUS
 62
3
100
AcDbLine
 10
420.7560884457500
 20
292.2845472742806
 30
0.0000000000000000
 11
364.4419701211510
 21
259.7715759003970
 31
0.0000000000000000
  0
ARC
  5
1FF
100
AcDbEntity
  8
MAIN0
  6
CONTINUOUS
 62
3
100
AcDbCircle
 10
327.5753272298931
 20
254.6524172403209
 30
0.0000000000000000
 40
27.00000000000000
100
AcDbArc
 50
27.87744863785661
 51
32.12255136214332
  0
LINE
  5
200
100
AcDbEntity
  8
MAIN0
  6
CONTINUOUS
 62
3
100
AcDbLine
 10
350.4419701211510
 20
284.0202872063613
 30
0.0000000000000000
 11
350.4419701211626
 21
269.0091802070609
 31
0.0000000000000000
  0
LINE
  5
201
100
AcDbEntity
  8
MAIN0
  6
CONTINUOUS
 62
3
100
AcDbLine
 10
364.4419701211510
 20
259.7715759003970
 30
0.0000000000000000
 11
351.4419701208362
 21
267.2771294000573
 31
0.0000000000000000
  0
LINE
  5
202
100
AcDbEntity
  8
MAIN0
  6
CONTINUOUS
 62
3
100
AcDbLine
 10
406.7560884457500
 20
316.5332585802449
 30
0.0000000000000000
 11
419.7240024239179
 21
309.0462299541084
 31
0.0000000000000000
  0
LINE
  5
203
100
AcDbEntity
  8
MAIN0
  6
CONTINUOUS
 62
3
100
AcDbLine
 10
420.7560884457500
 20
292.2845472742806
 30
0.0000000000000000
 11
420.7560884457384
 21
307.2586045265334
 31
0.0000000000000000
  0
ARC
  5
204
100
AcDbEntity
  8
MAIN0
  6
CONTINUOUS
 62
3
100
AcDbCircle
 10
327.5753272298931
 20
254.6524172403209
 30
0.0000000000000000
 40
53.10000000000000
100
AcDbArc
 50
14.71304205613605
 51
15.82873891137205
  0
ARC
  5
205
100
AcDbEntity
  8
MAIN0
  6
CONTINUOUS
 62
3
100
AcDbCircle
 10
327.5753272298931
 20
254.6524172403209
 30
0.0000000000000000
 40
53.10000000000000
100
AcDbArc
 50
44.17126108862799
 51
45.28695794386388
  0
ARC
  5
206
100
AcDbEntity
  8
MAIN0
  6
CONTINUOUS
 62
3
100
AcDbCircle
 10
443.6227313370079
 20
321.6524172403209
 30
0.0000000000000000
 40
57.50000000000000
100
AcDbArc
 50
196.9331966586524
 51
223.0668033413475
  0
ARC
  5
207
100
AcDbEntity
  8
MAIN0
  6
CONTINUOUS
 62
3
100
AcDbCircle
 10
443.6227313370079
 20
321.6524172403209
 30
0.0000000000000000
 40
63.50000000000000
100
AcDbArc
 50
197.2632167695573
 51
222.7367832304427
  0
ARC
  5
208
100
AcDbEntity
  8
MAIN0
  6
CONTINUOUS
 62
3
100
AcDbCircle
 10
443.6227313370079
 20
321.6524172403209
 30
0.0000000000000000
 40
80.00000000000000
100
AcDbArc
 50
199.9213418922123
 51
220.0786581077876
  0
ARC
  5
209
100
AcDbEntity
  8
MAIN0
  6
CONTINUOUS
 62
3
100
AcDbCircle
 10
327.5753272298931
 20
254.6524172403209
 30
0.0000000000000000
 40
79.09999999999999
100
AcDbArc
 50
39.45941431994036
 51
40.19455163277043
  0
ARC
  5
20A
100
AcDbEntity
  8
MAIN0
  6
CONTINUOUS
 62
3
100
AcDbCircle
 10
327.5753272298931
 20
254.6524172403209
 30
0.0000000000000000
 40
79.09999999999999
100
AcDbArc
 50
19.80544836722955
 51
20.54058568005968
  0
ARC
  5
20B
100
AcDbEntity
  8
MAIN0
  6
CONTINUOUS
 62
3
100
AcDbCircle
 10
443.6227313370079
 20
321.6524172403209
 30
0.0000000000000000
 40
83.50000000000000
100
AcDbArc
 50
201.0432637120893
 51
205.8285247479337
  0
ARC
  5
20C
100
AcDbEntity
  8
MAIN0
  6
CONTINUOUS
 62
3
100
AcDbCircle
 10
443.6227313370079
 20
321.6524172403209
 30
0.0000000000000000
 40
83.50000000000000
100
AcDbArc
 50
214.1714752520662
 51
218.9567362879107
  0
ARC
  5
20D
100
AcDbEntity
  8
MAIN0
  6
CONTINUOUS
 62
3
100
AcDbCircle
 10
443.6227313370079
 20
321.6524172403209
 30
0.0000000000000000
 40
35.00000000000000
100
AcDbArc
 50
190.7933435383790
 51
229.2066564616210
  0
LINE
  5
20E
100
AcDbEntity
  8
MAIN0
  6
CENTER
 62
3
100
AcDbLine
 10
372.2904679031628
 20
266.7535217266282
 30
0.0000000000000000
 11
360.1443715803628
 21
287.7911776713433
 31
0.0000000000000000
  0
LINE
  5
20F
100
AcDbEntity
  8
MAIN0
  6
CENTER
 62
3
100
AcDbLine
 10
410.7852971013811
 20
288.9785217266282
 30
0.0000000000000000
 11
398.6392007785811
 21
310.0161776713433
 31
0.0000000000000000
  0
LINE
  5
210
100
AcDbEntity
  8
MAIN0
  6
CONTINUOUS
 62
3
100
AcDbLine
 10
419.7240024239179
 20
309.0462299541084
 30
0.0000000000000000
 11
420.7560884457384
 21
307.2586045265335
 31
0.0000000000000000
  0
LINE
  5
211
100
AcDbEntity
  8
MAIN0
  6
CONTINUOUS
 62
3
100
AcDbLine
 10
91.40407711516235
 20
354.6526198114275
 30
0.0000000000000000
 11
163.2040771151624
 21
354.6526198114275
 31
0.0000000000000000
  0
LINE
  5
212
100
AcDbEntity
  8
MAIN0
  6
CONTINUOUS
 62
3
100
AcDbLine
 10
91.40407711516249
 20
354.6526198114274
 30
0.0000000000000000
 11
89.80407711516315
 21
353.0526198114275
 31
0.0000000000000000
  0
LINE
  5
213
100
AcDbEntity
  8
MAIN0
  6
CONTINUOUS
 62
3
100
AcDbLine
 10
163.2040771151624
 20
354.6526198114275
 30
0.0000000000000000
 11
164.8040771151630
 21
353.0526198114275
 31
0.0000000000000000
  0
LINE
  5
214
100
AcDbEntity
  8
MAIN0
  6
CONTINUOUS
 62
3
100
AcDbLine
 10
89.80407711524254
 20
166.2526198114275
 30
0.0000000000000000
 11
91.40407711524330
 21
164.6526198114275
 31
0.0000000000000000
  0
LINE
  5
215
100
AcDbEntity
  8
MAIN0
  6
CONTINUOUS
 62
3
100
AcDbLine
 10
89.80407711516983
 20
337.1526198114275
 30
0.0000000000000000
 11
99.80407711516966
 21
337.1526198114275
 31
0.0000000000000000
  0
LINE
  5
216
100
AcDbEntity
  8
MAIN0
  6
CONTINUOUS
 62
3
100
AcDbLine
 10
89.80407711523577
 20
182.1526198114275
 30
0.0000000000000000
 11
99.80407711820004
 21
182.1526198114275
 31
0.0000000000000000
  0
LINE
  5
217
100
AcDbEntity
  8
MAIN0
  6
CONTINUOUS
 62
3
100
AcDbLine
 10
94.80407711517006
 20
336.7526198114275
 30
0.0000000000000000
 11
94.80407711523566
 21
182.5526198114275
 31
0.0000000000000000
  0
LINE
  5
218
100
AcDbEntity
  8
MAIN0
  6
CONTINUOUS
 62
3
100
AcDbLine
 10
99.80407711819998
 20
337.1526198114275
 30
0.0000000000000000
 11
101.8269472027453
 21
320.6776650641816
 31
0.0000000000000000
  0
ARC
  5
219
100
AcDbEntity
  8
MAIN0
  6
CONTINUOUS
 62
3
100
AcDbCircle
 10
109.7673164158753
 20
321.6526198114274
 30
0.0000000000000000
 40
8.000000000000000
100
AcDbArc
 50
187.0000000000327
 51
235.3951409259146
  0
LINE
  5
21A
100
AcDbEntity
  8
MAIN0
  6
CONTINUOUS
 62
3
100
AcDbLine
 10
99.80407711820001
 20
182.1526198114276
 30
0.0000000000000000
 11
101.8269472027453
 21
198.6275745586734
 31
0.0000000000000000
  0
ARC
  5
21B
100
AcDbEntity
  8
MAIN0
  6
CONTINUOUS
 62
3
100
AcDbCircle
 10
109.7673164158754
 20
197.6526198114276
 30
0.0000000000000000
 40
8.000000000000000
100
AcDbArc
 50
90.00000000000000
 51
172.9999999999673
  0
LINE
  5
21C
100
AcDbEntity
  8
MAIN0
  6
CONTINUOUS
 62
3
100
AcDbLine
 10
109.7673164158754
 20
205.6526198114275
 30
0.0000000000000000
 11
116.5794251487854
 21
205.6526198114275
 31
0.0000000000000000
  0
LINE
  5
21D
100
AcDbEntity
  8
MAIN0
  6
CONTINUOUS
 62
3
100
AcDbLine
 10
94.80407711518456
 20
302.6526198114275
 30
0.0000000000000000
 11
107.8040771151846
 21
302.6526198114275
 31
0.0000000000000000
  0
LINE
  5
21E
100
AcDbEntity
  8
MAIN0
  6
CONTINUOUS
 62
3
100
AcDbLine
 10
94.80407711522116
 20
216.6526198114275
 30
0.0000000000000000
 11
107.8040771152212
 21
216.6526198114275
 31
0.0000000000000000
  0
LINE
  5
21F
100
AcDbEntity
  8
MAIN0
  6
CONTINUOUS
 62
3
100
AcDbLine
 10
107.8040771151846
 20
302.6526198114275
 30
0.0000000000000000
 11
107.8040771152212
 21
216.6526198114275
 31
0.0000000000000000
  0
LINE
  5
220
100
AcDbEntity
  8
MAIN0
  6
CONTINUOUS
 62
3
100
AcDbLine
 10
107.8040771151911
 20
287.1526198114275
 30
0.0000000000000000
 11
113.7359619072270
 21
287.1526198114275
 31
0.0000000000000000
  0
LINE
  5
221
100
AcDbEntity
  8
MAIN0
  6
CONTINUOUS
 62
3
100
AcDbLine
 10
107.8040771152145
 20
232.1526198114275
 30
0.0000000000000000
 11
121.2359619072274
 21
232.1526198114275
 31
0.0000000000000000
  0
LINE
  5
222
100
AcDbEntity
  8
MAIN0
  6
CONTINUOUS
 62
3
100
AcDbLine
 10
99.80407711523606
 20
181.6526198114275
 30
0.0000000000000000
 11
111.1222856241739
 21
181.6526198114275
 31
0.0000000000000000
  0
LINE
  5
223
100
AcDbEntity
  8
MAIN0
  6
CONTINUOUS
 62
3
100
AcDbLine
 10
99.80407711523586
 20
182.1526198114275
 30
0.0000000000000000
 11
99.80407711523606
 21
181.6526198114275
 31
0.0000000000000000
  0
LINE
  5
224
100
AcDbEntity
  8
MAIN0
  6
CENTER
 62
3
100
AcDbLine
 10
104.2001381337443
 20
225.9026198114275
 30
0.0000000000000000
 11
126.2359619072270
 21
225.9026198114275
 31
0.0000000000000000
  0
LINE
  5
225
100
AcDbEntity
  8
MAIN0
  6
HIDDEN
 62
3
100
AcDbLine
 10
101.3040771151631
 20
353.2126198114275
 30
0.0000000000000000
 11
133.3040771151631
 21
353.2126198114275
 31
0.0000000000000000
  0
ARC
  5
226
100
AcDbEntity
  8
MAIN0
  6
HIDDEN
 62
3
100
AcDbCircle
 10
131.3040771151674
 20
342.9626198114275
 30
0.0000000000000000
 40
2.750000000000000
100
AcDbArc
 50
90.00000000000000
 51
123.1447227070973
  0
ARC
  5
227
100
AcDbEntity
  8
MAIN0
  6
HIDDEN
 62
3
100
AcDbCircle
 10
103.3040771151674
 20
342.9626198114156
 30
0.0000000000000000
 40
2.750000000000000
100
AcDbArc
 50
56.85527729935350
 51
90.00000000004874
  0
LINE
  5
228
100
AcDbEntity
  8
MAIN0
  6
HIDDEN
 62
3
100
AcDbLine
 10
101.3040771151663
 20
345.7126198114275
 30
0.0000000000000000
 11
103.3040771151674
 21
345.7126198114275
 31
0.0000000000000000
  0
LINE
  5
229
100
AcDbEntity
  8
MAIN0
  6
HIDDEN
 62
3
100
AcDbLine
 10
131.3040771151674
 20
345.7126198114275
 30
0.0000000000000000
 11
133.3040771151663
 21
345.7126198114275
 31
0.0000000000000000
  0
LINE
  5
22A
100
AcDbEntity
  8
MAIN0
  6
HIDDEN
 62
3
100
AcDbLine
 10
130.9838766243977
 20
345.6939146775507
 30
0.0000000000000000
 11
133.3040771152321
 21
349.7126198114276
 31
0.0000000000000000
  0
LINE
  5
22B
100
AcDbEntity
  8
MAIN0
  6
HIDDEN
 62
3
100
AcDbLine
 10
103.6242776059348
 20
345.6939146775391
 30
0.0000000000000000
 11
101.3040771150970
 21
349.7126198114140
 31
0.0000000000000000
  0
LINE
  5
22C
100
AcDbEntity
  8
MAIN0
  6
HIDDEN
 62
3
100
AcDbLine
 10
133.3040771154998
 20
353.2126198114274
 30
0.0000000000000000
 11
135.7982302783947
 21
354.6526198114275
 31
0.0000000000000000
  0
LINE
  5
22D
100
AcDbEntity
  8
MAIN0
  6
HIDDEN
 62
3
100
AcDbLine
 10
98.80992395226602
 20
354.6526198114277
 30
0.0000000000000000
 11
101.3040771151723
 21
353.2126198114275
 31
0.0000000000000000
  0
LINE
  5
22E
100
AcDbEntity
  8
MAIN0
  6
HIDDEN
 62
3
100
AcDbLine
 10
124.5040771149037
 20
352.3177268948031
 30
0.0000000000000000
 11
124.5040771148919
 21
345.2651733530541
 31
0.0000000000000000
  0
LINE
  5
22F
100
AcDbEntity
  8
MAIN0
  6
HIDDEN
 62
3
100
AcDbLine
 10
110.1040771151597
 20
352.3177268948049
 30
0.0000000000000000
 11
110.1040771151531
 21
345.2651733531448
 31
0.0000000000000000
  0
LINE
  5
230
100
AcDbEntity
  8
MAIN0
  6
HIDDEN
 62
3
100
AcDbLine
 10
116.7005643509966
 20
352.3177268948040
 30
0.0000000000000000
 11
116.7005643509974
 21
345.2651733531032
 31
0.0000000000000000
  0
LINE
  5
231
100
AcDbEntity
  8
MAIN0
  6
HIDDEN
 62
3
100
AcDbLine
 10
117.9075898790985
 20
352.3177268948039
 30
0.0000000000000000
 11
117.9075898790894
 21
345.2651733530956
 31
0.0000000000000000
  0
LINE
  5
232
100
AcDbEntity
  8
MAIN0
  6
HIDDEN
 62
3
100
AcDbLine
 10
108.5540771151689
 20
353.2126198114277
 30
0.0000000000000000
 11
110.1040771140932
 21
352.3177268948049
 31
0.0000000000000000
  0
LINE
  5
233
100
AcDbEntity
  8
MAIN0
  6
HIDDEN
 62
3
100
AcDbLine
 10
124.5040771149741
 20
352.3177268948030
 30
0.0000000000000000
 11
126.0540771139011
 21
353.2126198114275
 31
0.0000000000000000
  0
LINE
  5
234
100
AcDbEntity
  8
MAIN0
  6
HIDDEN
 62
3
100
AcDbLine
 10
110.1040771151597
 20
352.3177268948048
 30
0.0000000000000000
 11
124.5040771149037
 21
352.3177268948030
 31
0.0000000000000000
  0
LINE
  5
235
100
AcDbEntity
  8
MAIN0
  6
HIDDEN
 62
3
100
AcDbLine
 10
124.5040771149741
 20
352.3177268948031
 30
0.0000000000000000
 11
121.2058334970083
 21
345.2651733530748
 31
0.0000000000000000
  0
LINE
  5
236
100
AcDbEntity
  8
MAIN0
  6
HIDDEN
 62
3
100
AcDbLine
 10
117.9075898790985
 20
352.3177268948040
 30
0.0000000000000000
 11
121.2058334970083
 21
345.2651733530748
 31
0.0000000000000000
  0
LINE
  5
237
100
AcDbEntity
  8
MAIN0
  6
HIDDEN
 62
3
100
AcDbLine
 10
116.7005643509966
 20
352.3177268948041
 30
0.0000000000000000
 11
113.4023207330754
 21
345.2651733531239
 31
0.0000000000000000
  0
LINE
  5
238
100
AcDbEntity
  8
MAIN0
  6
HIDDEN
 62
3
100
AcDbLine
 10
110.1040771151597
 20
352.3177268948048
 30
0.0000000000000000
 11
113.4023207330753
 21
345.2651733531240
 31
0.0000000000000000
  0
LINE
  5
239
100
AcDbEntity
  8
MAIN0
  6
CENTER
 62
3
100
AcDbLine
 10
104.3011060016530
 20
412.2104350666855
 30
0.0000000000000000
 11
129.3884957073889
 21
412.2104350666954
 31
0.0000000000000000
  0
LINE
  5
23A
100
AcDbEntity
  8
MAIN0
  6
CENTER
 62
3
100
AcDbLine
 10
117.3040771151592
 20
362.1526198114258
 30
0.0000000000000000
 11
117.3040771151677
 21
342.1526198114258
 31
0.0000000000000000
  0
LINE
  5
23B
100
AcDbEntity
  8
MAIN0
  6
CENTER
 62
3
100
AcDbLine
 10
117.3040771151323
 20
425.4446089983447
 30
0.0000000000000000
 11
117.3040771151431
 21
400.1270588679789
 31
0.0000000000000000
  0
LINE
  5
23C
100
AcDbEntity
  8
MAIN0
  6
CONTINUOUS
 62
3
100
AcDbLine
 10
117.8822517087961
 20
419.4104350666908
 30
0.0000000000000000
 11
124.5040771151377
 21
412.7886096603483
 31
0.0000000000000000
  0
LINE
  5
23D
100
AcDbEntity
  8
MAIN0
  6
CONTINUOUS
 62
3
100
AcDbLine
 10
110.1040771151384
 20
411.6322604742445
 30
0.0000000000000000
 11
116.7259025226915
 21
405.0104350666905
 31
0.0000000000000000
  0
LINE
  5
23E
100
AcDbEntity
  8
MAIN0
  6
CONTINUOUS
 62
3
100
AcDbLine
 10
110.1040771151377
 20
412.7886096604242
 30
0.0000000000000000
 11
116.7259025214019
 21
419.4104350666905
 31
0.0000000000000000
  0
LINE
  5
23F
100
AcDbEntity
  8
MAIN0
  6
CONTINUOUS
 62
3
100
AcDbLine
 10
117.8822517075084
 20
405.0104350666907
 30
0.0000000000000000
 11
124.5040771151382
 21
411.6322604743227
 31
0.0000000000000000
  0
LINE
  5
240
100
AcDbEntity
  8
MAIN0
  6
CONTINUOUS
 62
3
100
AcDbLine
 10
124.5040771151377
 20
412.7886096603484
 30
0.0000000000000000
 11
124.5040771151382
 21
411.6322604743227
 31
0.0000000000000000
  0
LINE
  5
241
100
AcDbEntity
  8
MAIN0
  6
CONTINUOUS
 62
3
100
AcDbLine
 10
110.1040771151377
 20
412.7886096604241
 30
0.0000000000000000
 11
110.1040771151382
 21
411.6322604742445
 31
0.0000000000000000
  0
LINE
  5
242
100
AcDbEntity
  8
MAIN0
  6
CONTINUOUS
 62
3
100
AcDbLine
 10
116.7259025214019
 20
419.4104350666904
 30
0.0000000000000000
 11
117.8822517087959
 21
419.4104350666909
 31
0.0000000000000000
  0
LINE
  5
243
100
AcDbEntity
  8
MAIN0
  6
CONTINUOUS
 62
3
100
AcDbLine
 10
116.7259025226916
 20
405.0104350666904
 30
0.0000000000000000
 11
117.8822517075083
 21
405.0104350666909
 31
0.0000000000000000
  0
LINE
  5
244
100
AcDbEntity
  8
MAIN0
  6
HIDDEN
 62
3
100
AcDbLine
 10
133.3040771151664
 20
345.2651733529987
 30
0.0000000000000000
 11
133.3040771151630
 21
353.2126198114275
 31
0.0000000000000000
  0
LINE
  5
245
100
AcDbEntity
  8
MAIN0
  6
HIDDEN
 62
3
100
AcDbLine
 10
101.3040771151664
 20
345.2651733532001
 30
0.0000000000000000
 11
101.3040771151630
 21
353.2126198114275
 31
0.0000000000000000
  0
LINE
  5
246
100
AcDbEntity
  8
MAIN0
  6
CENTER
 62
3
100
AcDbLine
 10
164.8040771152100
 20
242.6526284698084
 30
0.0000000000000000
 11
164.8040771152108
 21
244.4683037916715
 31
0.0000000000000000
  0
LINE
  5
247
100
AcDbEntity
  8
MAIN0
  6
CONTINUOUS
 62
3
100
AcDbLine
 10
89.80407711516313
 20
353.0526198114275
 30
0.0000000000000000
 11
89.80407711523574
 21
182.1526198114275
 31
0.0000000000000000
  0
LINE
  5
248
100
AcDbEntity
  8
MAIN0
  6
CENTER
 62
3
100
AcDbLine
 10
81.23596190722697
 20
259.6526198114275
 30
0.0000000000000000
 11
213.7359619072270
 21
259.6526198114275
 31
0.0000000000000000
  0
LINE
  5
249
100
AcDbEntity
  8
MAIN0
  6
CONTINUOUS
 62
3
100
AcDbLine
 10
89.80407711523586
 20
182.1526198114275
 30
0.0000000000000000
 11
89.80407711524256
 21
166.2526198114275
 31
0.0000000000000000
  0
LINE
  5
24A
100
AcDbEntity
  8
MAIN0
  6
CONTINUOUS
 62
3
100
AcDbLine
 10
164.8040771152117
 20
331.7526198114159
 30
0.0000000000000000
 11
164.8040771152119
 21
353.0526198113787
 31
0.0000000000000000
  0
LINE
  5
24B
100
AcDbEntity
  8
MAIN0
  6
PHANTOM
 62
3
100
AcDbLine
 10
164.8040771151980
 20
271.1526198114275
 30
0.0000000000000000
 11
169.8040771151980
 21
271.1526198114275
 31
0.0000000000000000
  0
LINE
  5
24C
100
AcDbEntity
  8
MAIN0
  6
PHANTOM
 62
3
100
AcDbLine
 10
164.8040771152078
 20
248.1526198114275
 30
0.0000000000000000
 11
169.8040771152077
 21
248.1526198114275
 31
0.0000000000000000
  0
LINE
  5
24D
100
AcDbEntity
  8
MAIN0
  6
CENTER
 62
3
100
AcDbLine
 10
68.73596190722697
 20
344.6526198114275
 30
0.0000000000000000
 11
171.2359619072270
 21
344.6526198114275
 31
0.0000000000000000
  0
LINE
  5
24E
100
AcDbEntity
  8
MAIN0
  6
HIDDEN
 62
3
100
AcDbLine
 10
90.20407711516413
 20
350.6526198114275
 30
0.0000000000000000
 11
152.8040771152118
 21
350.6526198114275
 31
0.0000000000000000
  0
LINE
  5
24F
100
AcDbEntity
  8
MAIN0
  6
HIDDEN
 62
3
100
AcDbLine
 10
90.20407711516924
 20
338.6526198114275
 30
0.0000000000000000
 11
152.8040771152118
 21
338.6526198114275
 31
0.0000000000000000
  0
LINE
  5
250
100
AcDbEntity
  8
MAIN0
  6
HIDDEN
 62
3
100
AcDbLine
 10
90.20407711516401
 20
350.6526198114276
 30
0.0000000000000000
 11
89.80407711516386
 21
351.0526198114276
 31
0.0000000000000000
  0
LINE
  5
251
100
AcDbEntity
  8
MAIN0
  6
HIDDEN
 62
3
100
AcDbLine
 10
90.20407711516936
 20
338.6526198114274
 30
0.0000000000000000
 11
89.80407711516952
 21
338.2526198114275
 31
0.0000000000000000
  0
LINE
  5
252
100
AcDbEntity
  8
MAIN0
  6
CONTINUOUS
 62
3
100
AcDbLine
 10
167.3068374733274
 20
196.3121080202496
 30
0.0000000000000000
 11
167.3068374733414
 21
208.9921080202495
 31
0.0000000000000000
  0
LINE
  5
253
100
AcDbEntity
  8
MAIN0
  6
PHANTOM
 62
3
100
AcDbLine
 10
173.3040771152011
 20
263.6226198114275
 30
0.0000000000000000
 11
173.3040771152045
 21
255.6826198114275
 31
0.0000000000000000
  0
LINE
  5
254
100
AcDbEntity
  8
MAIN0
  6
PHANTOM
 62
3
100
AcDbLine
 10
206.4040771151969
 20
273.6526198114275
 30
0.0000000000000000
 11
166.8040771151969
 21
273.6526198114275
 31
0.0000000000000000
  0
LINE
  5
255
100
AcDbEntity
  8
MAIN0
  6
PHANTOM
 62
3
100
AcDbLine
 10
206.4040771152088
 20
245.6526198114275
 30
0.0000000000000000
 11
166.8040771152088
 21
245.6526198114275
 31
0.0000000000000000
  0
LINE
  5
256
100
AcDbEntity
  8
MAIN0
  6
PHANTOM
 62
3
100
AcDbLine
 10
206.8040771152086
 20
246.0526198114275
 30
0.0000000000000000
 11
206.8040771151971
 21
273.2526198114276
 31
0.0000000000000000
  0
LINE
  5
257
100
AcDbEntity
  8
MAIN0
  6
PHANTOM
 62
3
100
AcDbLine
 10
166.8040771151979
 20
271.1526198114275
 30
0.0000000000000000
 11
166.8040771151968
 21
273.6526198114275
 31
0.0000000000000000
  0
LINE
  5
258
100
AcDbEntity
  8
MAIN0
  6
PHANTOM
 62
3
100
AcDbLine
 10
166.8040771152088
 20
245.6526198114275
 30
0.0000000000000000
 11
166.8040771152077
 21
248.1526198114275
 31
0.0000000000000000
  0
LINE
  5
259
100
AcDbEntity
  8
MAIN0
  6
PHANTOM
 62
3
100
AcDbLine
 10
173.3040771152011
 20
263.6226198114275
 30
0.0000000000000000
 11
169.8040771152011
 21
263.6226198114275
 31
0.0000000000000000
  0
LINE
  5
25A
100
AcDbEntity
  8
MAIN0
  6
PHANTOM
 62
3
100
AcDbLine
 10
173.3040771152045
 20
255.6826198114275
 30
0.0000000000000000
 11
169.8040771152045
 21
255.6826198114275
 31
0.0000000000000000
  0
LINE
  5
25B
100
AcDbEntity
  8
MAIN0
  6
PHANTOM
 62
3
100
AcDbLine
 10
169.8040771152011
 20
263.6226198114275
 30
0.0000000000000000
 11
169.8040771151968
 21
273.6526198114275
 31
0.0000000000000000
  0
LINE
  5
25C
100
AcDbEntity
  8
MAIN0
  6
PHANTOM
 62
3
100
AcDbLine
 10
169.8040771152087
 20
245.6526198114275
 30
0.0000000000000000
 11
169.8040771152045
 21
255.6826198114275
 31
0.0000000000000000
  0
LINE
  5
25D
100
AcDbEntity
  8
MAIN0
  6
PHANTOM
 62
3
100
AcDbLine
 10
206.4040771151969
 20
273.6526198114275
 30
0.0000000000000000
 11
206.8040771151971
 21
273.2526198114275
 31
0.0000000000000000
  0
LINE
  5
25E
100
AcDbEntity
  8
MAIN0
  6
PHANTOM
 62
3
100
AcDbLine
 10
206.4040771152088
 20
245.6526198114275
 30
0.0000000000000000
 11
206.8040771152086
 21
246.0526198114276
 31
0.0000000000000000
  0
LINE
  5
25F
100
AcDbEntity
  8
MAIN0
  6
CONTINUOUS
 62
3
100
AcDbLine
 10
173.3038445149379
 20
185.4276284698084
 30
0.0000000000000000
 11
173.3038445149379
 21
196.3121080202430
 31
0.0000000000000000
  0
LINE
  5
260
100
AcDbEntity
  8
MAIN0
  6
CONTINUOUS
 62
3
100
AcDbLine
 10
173.3038445149379
 20
184.6157294698084
 30
0.0000000000000000
 11
173.3038445149379
 21
185.4276284698084
 31
0.0000000000000000
  0
LINE
  5
261
100
AcDbEntity
  8
MAIN0
  6
CONTINUOUS
 62
3
100
AcDbLine
 10
173.3038445149379
 20
176.2395274698084
 30
0.0000000000000000
 11
173.3038445149379
 21
184.6157294698084
 31
0.0000000000000000
  0
LINE
  5
262
100
AcDbEntity
  8
MAIN0
  6
CONTINUOUS
 62
3
100
AcDbLine
 10
173.3038445149379
 20
162.6521080202429
 30
0.0000000000000000
 11
173.3038445149379
 21
175.4276284698084
 31
0.0000000000000000
  0
LINE
  5
263
100
AcDbEntity
  8
MAIN0
  6
CONTINUOUS
 62
3
100
AcDbLine
 10
173.3038445149379
 20
175.4276284698084
 30
0.0000000000000000
 11
173.3038445149379
 21
176.2395274698084
 31
0.0000000000000000
  0
LINE
  5
264
100
AcDbEntity
  8
MAIN0
  6
CONTINUOUS
 62
3
100
AcDbLine
 10
173.3038445149379
 20
229.8776284698083
 30
0.0000000000000000
 11
173.3038445149379
 21
242.6526284698084
 31
0.0000000000000000
  0
LINE
  5
265
100
AcDbEntity
  8
MAIN0
  6
CONTINUOUS
 62
3
100
AcDbLine
 10
173.3038445149379
 20
229.0657294698084
 30
0.0000000000000000
 11
173.3038445149379
 21
229.8776284698083
 31
0.0000000000000000
  0
LINE
  5
266
100
AcDbEntity
  8
MAIN0
  6
CONTINUOUS
 62
3
100
AcDbLine
 10
173.3038445149379
 20
220.6895274698083
 30
0.0000000000000000
 11
173.3038445149379
 21
229.0657294698084
 31
0.0000000000000000
  0
LINE
  5
267
100
AcDbEntity
  8
MAIN0
  6
CONTINUOUS
 62
3
100
AcDbLine
 10
173.3038445149379
 20
208.9921080202429
 30
0.0000000000000000
 11
173.3038445149379
 21
219.8776284698083
 31
0.0000000000000000
  0
LINE
  5
268
100
AcDbEntity
  8
MAIN0
  6
CONTINUOUS
 62
3
100
AcDbLine
 10
173.3038445149379
 20
219.8776284698083
 30
0.0000000000000000
 11
173.3038445149379
 21
220.6895274698083
 31
0.0000000000000000
  0
LINE
  5
269
100
AcDbEntity
  8
MAIN0
  6
CONTINUOUS
 62
3
100
AcDbLine
 10
95.20407711516992
 20
337.1526198114275
 30
0.0000000000000000
 11
94.80407711517006
 21
336.7526198114275
 31
0.0000000000000000
  0
LINE
  5
26A
100
AcDbEntity
  8
MAIN0
  6
CONTINUOUS
 62
3
100
AcDbLine
 10
95.20407711523575
 20
182.1526198114275
 30
0.0000000000000000
 11
94.80407711523554
 21
182.5526198114275
 31
0.0000000000000000
  0
DIMENSION
  5
273
100
AcDbEntity
  8
MAIN0
  6
CONTINUOUS
 62
3
100
AcDbDimension
  2
*D25
 10
72.74246674631542
 20
287.1526198114275
 30
0.0000000000000000
 11
72.24246674631542
 21
258.6374499540968
 31
0.0000000000000000
 70
160
  1
\A1;\U+220555
  3
MAIN001
100
AcDbAlignedDimension
 13
107.8040771152145
 23
232.1526198114275
 33
0.0000000000000000
 14
107.8040771151911
 24
287.1526198114275
 34
0.0000000000000000
 50
90.00000000000000
100
AcDbRotatedDimension
1001
ACAD
1000
DSTYLE
1002
{
1070
   173
1070
     1
1070
     6
1000
_OPEN
1070
     7
1000
_OPEN
1070
    41
1040
3.000000
1002
}
  0
DIMENSION
  5
27D
100
AcDbEntity
  8
MAIN0
  6
CONTINUOUS
 62
3
100
AcDbDimension
  2
*D26
 10
127.1271801217522
 20
394.6091574676293
 30
0.0000000000000000
 11
138.8256410138123
 21
407.0147251408753
 31
0.0000000000000000
 70
161
  3
MAIN001
100
AcDbAlignedDimension
 13
124.5040771151377
 23
412.7886096603483
 33
0.0000000000000000
 14
116.7259025226915
 24
405.0104350666904
 34
0.0000000000000000
 50
44.99999999999801
1001
ACAD
1000
DSTYLE
1002
{
1070
   173
1070
     1
1070
     6
1000
_OPEN
1070
     7
1000
_OPEN
1070
    41
1040
3.000000
1070
   272
1070
     2
1070
    47
1040
0.150000
1070
    48
1040
-0.050000
1070
    71
1070
     1
1070
   340
1005
16D
1002
}
  0
DIMENSION
  5
286
100
AcDbEntity
  8
MAIN0
  6
CONTINUOUS
 62
3
100
AcDbDimension
  2
*D27
 10
61.23596190722697
 20
182.1526198114275
 30
0.0000000000000000
 11
60.73596190722697
 21
262.9746167680115
 31
0.0000000000000000
 70
160
  1
\A1;\U+2205155H6\H0.903226x;\S＋0.025^ 　0;
  3
MAIN001
100
AcDbAlignedDimension
 13
89.80407711516983
 23
337.1526198114275
 33
0.0000000000000000
 14
89.80407711523577
 24
182.1526198114275
 34
0.0000000000000000
 50
90.00000000000000
100
AcDbRotatedDimension
1001
ACAD
1000
DSTYLE
1002
{
1070
   173
1070
     1
1070
     6
1000
_OPEN
1070
     7
1000
_OPEN
1070
    41
1040
3.000000
1070
   272
1070
     3
1070
    47
1040
0.025000
1070
    48
1040
0.000000
1070
    71
1070
     1
1070
   340
1005
16D
1002
}
  0
DIMENSION
  5
28F
100
AcDbEntity
  8
MAIN0
  6
CONTINUOUS
 62
3
100
AcDbDimension
  2
*D28
 10
89.80407711516332
 20
379.6526198114275
 30
0.0000000000000000
 11
127.3040771151876
 21
380.1526198114275
 31
0.0000000000000000
 70
32
  3
MAIN001
100
AcDbAlignedDimension
 13
164.8040771152119
 23
353.0526198113787
 33
0.0000000000000000
 14
89.80407711516313
 24
353.0526198114275
 34
0.0000000000000000
100
AcDbRotatedDimension
1001
ACAD
1000
DSTYLE
1002
{
1070
   173
1070
     1
1070
     6
1000
_OPEN
1070
     7
1000
_OPEN
1070
    41
1040
3.000000
1002
}
  0
DIMENSION
  5
298
100
AcDbEntity
  8
MAIN0
  6
CONTINUOUS
 62
3
100
AcDbDimension
  2
*D29
 10
61.23596190722697
 20
350.6526198114275
 30
0.0000000000000000
 11
60.73596190722697
 21
344.6526198114275
 31
0.0000000000000000
 70
32
  1
\A1;\U+220512
  3
MAIN001
100
AcDbAlignedDimension
 13
90.20407711516924
 23
338.6526198114275
 33
0.0000000000000000
 14
90.20407711516413
 24
350.6526198114275
 34
0.0000000000000000
 50
90.00000000000000
100
AcDbRotatedDimension
1001
ACAD
1000
DSTYLE
1002
{
1070
   173
1070
     1
1070
     6
1000
_OPEN
1070
     7
1000
_OPEN
1070
    41
1040
3.000000
1002
}
  0
DIMENSION
  5
2A1
100
AcDbEntity
  8
MAIN0
  6
CONTINUOUS
 62
3
100
AcDbDimension
  2
*D30
 10
178.7359619072270
 20
353.1526198114275
 30
0.0000000000000000
 11
178.2359619072270
 21
344.6526198114275
 31
0.0000000000000000
 70
32
  1
\A1;\U+220517
  3
MAIN001
100
AcDbAlignedDimension
 13
164.2040771152118
 23
336.1526198114275
 33
0.0000000000000000
 14
164.2040771152118
 24
353.1526198114275
 34
0.0000000000000000
 50
90.00000000000000
100
AcDbRotatedDimension
1001
ACAD
1000
DSTYLE
1002
{
1070
   173
1070
     1
1070
     6
1000
_OPEN
1070
     7
1000
_OPEN
1070
    41
1040
3.000000
1002
}
  0
DIMENSION
  5
2AA
100
AcDbEntity
  8
MAIN0
  6
CONTINUOUS
 62
3
100
AcDbDimension
  2
*D31
 10
152.8040771152121
 20
359.6526198114275
 30
0.0000000000000000
 11
158.6534929291871
 21
360.1526198114275
 31
0.0000000000000000
 70
160
  3
MAIN001
100
AcDbAlignedDimension
 13
164.8040771152119
 23
353.0526198113787
 33
0.0000000000000000
 14
152.8040771152118
 24
353.1526198114275
 34
0.0000000000000000
100
AcDbRotatedDimension
1001
ACAD
1000
DSTYLE
1002
{
1070
   173
1070
     1
1070
     6
1000
_OPEN
1070
     7
1000
_OPEN
1070
    41
1040
3.000000
1002
}
  0
DIMENSION
  5
2B3
100
AcDbEntity
  8
MAIN0
  6
CONTINUOUS
 62
3
100
AcDbDimension
  2
*D32
 10
89.80407711523571
 20
202.1526198114275
 30
0.0000000000000000
 11
85.06868962949233
 21
202.6526198114275
 31
0.0000000000000000
 70
160
  3
MAIN001
100
AcDbAlignedDimension
 13
94.80407711517006
 23
336.7526198114275
 33
0.0000000000000000
 14
89.80407711516313
 24
353.0526198114275
 34
0.0000000000000000
100
AcDbRotatedDimension
1001
ACAD
1000
DSTYLE
1002
{
1070
   173
1070
     1
1070
     6
1000
_OPEN
1070
     7
1000
_OPEN
1070
    41
1040
3.000000
1070
   287
1070
     0
1002
}
  0
LINE
  5
2B4
100
AcDbEntity
  8
MAIN0
  6
CONTINUOUS
 62
3
100
AcDbLine
 10
164.8040771152424
 20
166.6526284698084
 30
0.0000000000000000
 11
164.8040771151631
 21
353.0526198114275
 31
0.0000000000000000
  0
LINE
  5
2B5
100
AcDbEntity
  8
MAIN0
  6
CONTINUOUS
 62
3
100
AcDbLine
 10
91.40407711524330
 20
164.6526198114275
 30
0.0000000000000000
 11
173.3038445149379
 21
164.6526284698084
 31
0.0000000000000000
  0
ARC
  5
2B6
100
AcDbEntity
  8
MAIN0
  6
CONTINUOUS
 62
3
100
AcDbCircle
 10
336.2359767952459
 20
224.8780507404490
 30
0.0000000000000000
 40
8.500000000000000
100
AcDbArc
 50
210.3899424493274
 51
329.6100575506724
  0
ARC
  5
2B7
100
AcDbEntity
  8
MAIN0
  6
CONTINUOUS
 62
3
100
AcDbCircle
 10
336.2359767952459
 20
224.8780507404490
 30
0.0000000000000000
 40
8.500000000000000
100
AcDbArc
 50
329.6100575506724
 51
570.3899424493275
  0
ARC
  5
2B8
100
AcDbEntity
  8
MAIN0
  6
CONTINUOUS
 62
3
100
AcDbCircle
 10
336.2359767952459
 20
224.8780507404490
 30
0.0000000000000000
 40
5.500000000000000
100
AcDbArc
 50
195.8266201318720
 51
344.1733798681279
  0
ARC
  5
2B9
100
AcDbEntity
  8
MAIN0
  6
CONTINUOUS
 62
3
100
AcDbCircle
 10
336.2359767952459
 20
224.8780507404490
 30
0.0000000000000000
 40
5.500000000000000
100
AcDbArc
 50
344.1733798681279
 51
555.8266201318720
  0
CIRCLE
  5
2BA
100
AcDbEntity
  8
MAIN0
  6
CONTINUOUS
 62
3
100
AcDbCircle
 10
336.2359767952459
 20
180.4280507404490
 30
0.0000000000000000
 40
8.500000000000000
  0
CIRCLE
  5
2BB
100
AcDbEntity
  8
MAIN0
  6
CONTINUOUS
 62
3
100
AcDbCircle
 10
336.2359767952459
 20
180.4280507404490
 30
0.0000000000000000
 40
5.500000000000000
  0
ARC
  5
2BC
100
AcDbEntity
  8
MAIN0
  6
CONTINUOUS
 62
3
100
AcDbCircle
 10
366.3516146843413
 20
277.0399172403210
 30
0.0000000000000000
 40
8.500000000000000
100
AcDbArc
 50
330.3899424493274
 51
449.6100575506724
  0
ARC
  5
2BD
100
AcDbEntity
  8
MAIN0
  6
CONTINUOUS
 62
3
100
AcDbCircle
 10
366.3516146843413
 20
277.0399172403210
 30
0.0000000000000000
 40
8.500000000000000
100
AcDbArc
 50
89.61005755067235
 51
330.3899424493274
  0
ARC
  5
2BE
100
AcDbEntity
  8
MAIN0
  6
CONTINUOUS
 62
3
100
AcDbCircle
 10
366.3516146843413
 20
277.0399172403210
 30
0.0000000000000000
 40
5.500000000000000
100
AcDbArc
 50
315.8266201318720
 51
464.1733798681279
  0
ARC
  5
2BF
100
AcDbEntity
  8
MAIN0
  6
CONTINUOUS
 62
3
100
AcDbCircle
 10
366.3516146843413
 20
277.0399172403210
 30
0.0000000000000000
 40
5.500000000000000
100
AcDbArc
 50
104.1733798681279
 51
315.8266201318720
  0
CIRCLE
  5
2C0
100
AcDbEntity
  8
MAIN0
  6
CONTINUOUS
 62
3
100
AcDbCircle
 10
404.8464438825597
 20
299.2649172403209
 30
0.0000000000000000
 40
8.500000000000000
  0
CIRCLE
  5
2C1
100
AcDbEntity
  8
MAIN0
  6
CONTINUOUS
 62
3
100
AcDbCircle
 10
404.8464438825597
 20
299.2649172403209
 30
0.0000000000000000
 40
5.500000000000000
  0
LINE
  5
2C2
100
AcDbEntity
  8
MAIN0
  6
HIDDEN
 62
3
100
AcDbLine
 10
107.8040771152172
 20
231.8026198114275
 30
0.0000000000000000
 11
108.2040771152172
 21
231.4026198114275
 31
0.0000000000000000
  0
LINE
  5
2C3
100
AcDbEntity
  8
MAIN0
  6
HIDDEN
 62
3
100
AcDbLine
 10
108.2040771152172
 20
231.4026198114275
 30
0.0000000000000000
 11
117.8040771152172
 21
231.4026198114275
 31
0.0000000000000000
  0
LINE
  5
2C4
100
AcDbEntity
  8
MAIN0
  6
HIDDEN
 62
3
100
AcDbLine
 10
117.8040771152172
 20
231.4026198114275
 30
0.0000000000000000
 11
117.8040771152172
 21
220.4026198114275
 31
0.0000000000000000
  0
LINE
  5
2C5
100
AcDbEntity
  8
MAIN0
  6
HIDDEN
 62
3
100
AcDbLine
 10
117.8040771152172
 20
220.4026198114275
 30
0.0000000000000000
 11
108.2040771152172
 21
220.4026198114275
 31
0.0000000000000000
  0
LINE
  5
2C6
100
AcDbEntity
  8
MAIN0
  6
HIDDEN
 62
3
100
AcDbLine
 10
108.2040771152173
 20
220.4026198114275
 30
0.0000000000000000
 11
107.8040771152172
 21
220.0026198114275
 31
0.0000000000000000
  0
LINE
  5
2C7
100
AcDbEntity
  8
MAIN0
  6
HIDDEN
 62
3
100
AcDbLine
 10
117.8040771152172
 20
229.2026198114275
 30
0.0000000000000000
 11
121.5400286341906
 21
229.2026198114275
 31
0.0000000000000000
  0
LINE
  5
2C8
100
AcDbEntity
  8
MAIN0
  6
HIDDEN
 62
3
100
AcDbLine
 10
117.8040771152172
 20
222.6026198114275
 30
0.0000000000000000
 11
121.6043801376359
 21
222.6026198114275
 31
0.0000000000000000
  0
LINE
  5
2C9
100
AcDbEntity
  8
MAIN0
  6
HIDDEN
 62
3
100
AcDbLine
 10
117.8040771152172
 20
230.9026198114275
 30
0.0000000000000000
 11
112.4040771152172
 21
230.9026198114275
 31
0.0000000000000000
  0
LINE
  5
2CA
100
AcDbEntity
  8
MAIN0
  6
HIDDEN
 62
3
100
AcDbLine
 10
112.4040771152173
 20
230.9026198114275
 30
0.0000000000000000
 11
111.8040771152172
 21
229.8633893268861
 31
0.0000000000000000
  0
LINE
  5
2CB
100
AcDbEntity
  8
MAIN0
  6
HIDDEN
 62
3
100
AcDbLine
 10
111.8040771152172
 20
229.8633893268862
 30
0.0000000000000000
 11
111.8040771152172
 21
221.9418502959689
 31
0.0000000000000000
  0
LINE
  5
2CC
100
AcDbEntity
  8
MAIN0
  6
HIDDEN
 62
3
100
AcDbLine
 10
111.8040771152172
 20
221.9418502959688
 30
0.0000000000000000
 11
112.4040771152172
 21
220.9026198114275
 31
0.0000000000000000
  0
LINE
  5
2CD
100
AcDbEntity
  8
MAIN0
  6
HIDDEN
 62
3
100
AcDbLine
 10
112.4040771152172
 20
220.9026198114275
 30
0.0000000000000000
 11
117.8040771152172
 21
220.9026198114275
 31
0.0000000000000000
  0
LINE
  5
2CE
100
AcDbEntity
  8
MAIN0
  6
HIDDEN
 62
3
100
AcDbLine
 10
112.4040771152172
 20
230.9026198114275
 30
0.0000000000000000
 11
112.4040771152172
 21
220.9026198114275
 31
0.0000000000000000
  0
LINE
  5
2CF
100
AcDbEntity
  8
MAIN0
  6
HIDDEN
 62
3
100
AcDbLine
 10
117.8040771152172
 20
228.9026198114275
 30
0.0000000000000000
 11
121.5633266592112
 21
228.9026198114275
 31
0.0000000000000000
  0
LINE
  5
2D0
100
AcDbEntity
  8
MAIN0
  6
HIDDEN
 62
3
100
AcDbLine
 10
121.6256992670334
 20
222.9026198114275
 30
0.0000000000000000
 11
117.8040771152172
 21
222.9026198114275
 31
0.0000000000000000
  0
LINE
  5
2D1
100
AcDbEntity
  8
MAIN0
  6
HIDDEN
 62
3
100
AcDbLine
 10
117.8040771152172
 20
228.3613538114275
 30
0.0000000000000000
 11
121.6012922261841
 21
228.3613538114275
 31
0.0000000000000000
  0
LINE
  5
2D2
100
AcDbEntity
  8
MAIN0
  6
HIDDEN
 62
3
100
AcDbLine
 10
117.8040771152172
 20
223.4438858114275
 30
0.0000000000000000
 11
121.6573606441254
 21
223.4438858114275
 31
0.0000000000000000
  0
LINE
  5
2D3
100
AcDbEntity
  8
MAIN0
  6
HIDDEN
 62
3
100
AcDbLine
 10
164.8040771152118
 20
335.5526198114275
 30
0.0000000000000000
 11
164.2040771152118
 21
336.1526198114275
 31
0.0000000000000000
  0
LINE
  5
2D4
100
AcDbEntity
  8
MAIN0
  6
HIDDEN
 62
3
100
AcDbLine
 10
164.2040771152118
 20
336.1526198114275
 30
0.0000000000000000
 11
152.8040771152118
 21
336.1526198114275
 31
0.0000000000000000
  0
LINE
  5
2D5
100
AcDbEntity
  8
MAIN0
  6
HIDDEN
 62
3
100
AcDbLine
 10
152.8040771152118
 20
336.1526198114275
 30
0.0000000000000000
 11
152.8040771152118
 21
353.1526198114275
 31
0.0000000000000000
  0
LINE
  5
2D6
100
AcDbEntity
  8
MAIN0
  6
HIDDEN
 62
3
100
AcDbLine
 10
152.8040771152118
 20
353.1526198114275
 30
0.0000000000000000
 11
164.2040771152118
 21
353.1526198114275
 31
0.0000000000000000
  0
LINE
  5
2D7
100
AcDbEntity
  8
MAIN0
  6
HIDDEN
 62
3
100
AcDbLine
 10
164.2040771152118
 20
353.1526198114275
 30
0.0000000000000000
 11
164.4540771151873
 21
353.4026198114031
 31
0.0000000000000000
  0
LINE
  5
2D8
100
AcDbEntity
  8
MAIN0
  6
CONTINUOUS
 62
3
100
AcDbLine
 10
177.3068374733591
 20
216.8776284698083
 30
0.0000000000000000
 11
186.3068374733591
 21
216.8776284698083
 31
0.0000000000000000
  0
LINE
  5
2D9
100
AcDbEntity
  8
MAIN0
  6
CONTINUOUS
 62
3
100
AcDbLine
 10
186.3068374733591
 20
216.8776284698083
 30
0.0000000000000000
 11
187.3068374733591
 21
218.6096792773772
 31
0.0000000000000000
  0
LINE
  5
2DA
100
AcDbEntity
  8
MAIN0
  6
CONTINUOUS
 62
3
100
AcDbLine
 10
187.3068374733591
 20
218.6096792773772
 30
0.0000000000000000
 11
187.3068374733591
 21
231.1455776622395
 31
0.0000000000000000
  0
LINE
  5
2DB
100
AcDbEntity
  8
MAIN0
  6
CONTINUOUS
 62
3
100
AcDbLine
 10
187.3068374733590
 20
231.1455776622395
 30
0.0000000000000000
 11
186.3068374733590
 21
232.8776284698083
 31
0.0000000000000000
  0
LINE
  5
2DC
100
AcDbEntity
  8
MAIN0
  6
CONTINUOUS
 62
3
100
AcDbLine
 10
186.3068374733591
 20
232.8776284698083
 30
0.0000000000000000
 11
177.3068374733591
 21
232.8776284698083
 31
0.0000000000000000
  0
LINE
  5
2DD
100
AcDbEntity
  8
MAIN0
  6
CONTINUOUS
 62
3
100
AcDbLine
 10
186.3068374733591
 20
216.8776284698083
 30
0.0000000000000000
 11
186.3068374733591
 21
232.8776284698083
 31
0.0000000000000000
  0
LINE
  5
2DE
100
AcDbEntity
  8
MAIN0
  6
HIDDEN
 62
3
100
AcDbLine
 10
161.2359619072270
 20
229.8776284698083
 30
0.0000000000000000
 11
173.3038445149379
 21
229.8776284698083
 31
0.0000000000000000
  0
LINE
  5
2DF
100
AcDbEntity
  8
MAIN0
  6
CONTINUOUS
 62
3
100
AcDbLine
 10
173.3038445149379
 20
229.8776284698083
 30
0.0000000000000000
 11
177.3068374733591
 21
229.8776284698083
 31
0.0000000000000000
  0
LINE
  5
2E0
100
AcDbEntity
  8
MAIN0
  6
HIDDEN
 62
3
100
AcDbLine
 10
161.2359619072270
 20
229.0657294698084
 30
0.0000000000000000
 11
173.3038445149379
 21
229.0657294698084
 31
0.0000000000000000
  0
LINE
  5
2E1
100
AcDbEntity
  8
MAIN0
  6
CONTINUOUS
 62
3
100
AcDbLine
 10
173.3038445149379
 20
229.0657294698084
 30
0.0000000000000000
 11
177.3068374733591
 21
229.0657294698084
 31
0.0000000000000000
  0
LINE
  5
2E2
100
AcDbEntity
  8
MAIN0
  6
HIDDEN
 62
3
100
AcDbLine
 10
161.2359619072270
 20
220.6895274698083
 30
0.0000000000000000
 11
173.3038445149379
 21
220.6895274698083
 31
0.0000000000000000
  0
LINE
  5
2E3
100
AcDbEntity
  8
MAIN0
  6
CONTINUOUS
 62
3
100
AcDbLine
 10
173.3038445149379
 20
220.6895274698083
 30
0.0000000000000000
 11
177.3068374733591
 21
220.6895274698083
 31
0.0000000000000000
  0
LINE
  5
2E4
100
AcDbEntity
  8
MAIN0
  6
HIDDEN
 62
3
100
AcDbLine
 10
161.2359619072270
 20
219.8776284698083
 30
0.0000000000000000
 11
173.3038445149379
 21
219.8776284698083
 31
0.0000000000000000
  0
LINE
  5
2E5
100
AcDbEntity
  8
MAIN0
  6
CONTINUOUS
 62
3
100
AcDbLine
 10
173.3038445149379
 20
219.8776284698083
 30
0.0000000000000000
 11
177.3068374733591
 21
219.8776284698083
 31
0.0000000000000000
  0
LINE
  5
2E6
100
AcDbEntity
  8
MAIN0
  6
CONTINUOUS
 62
3
100
AcDbLine
 10
177.3068374733098
 20
172.4276284698084
 30
0.0000000000000000
 11
186.3068374733098
 21
172.4276284698084
 31
0.0000000000000000
  0
LINE
  5
2E7
100
AcDbEntity
  8
MAIN0
  6
CONTINUOUS
 62
3
100
AcDbLine
 10
186.3068374733098
 20
172.4276284698084
 30
0.0000000000000000
 11
187.3068374733098
 21
174.1596792773773
 31
0.0000000000000000
  0
LINE
  5
2E8
100
AcDbEntity
  8
MAIN0
  6
CONTINUOUS
 62
3
100
AcDbLine
 10
187.3068374733098
 20
174.1596792773773
 30
0.0000000000000000
 11
187.3068374733098
 21
186.6955776622395
 31
0.0000000000000000
  0
LINE
  5
2E9
100
AcDbEntity
  8
MAIN0
  6
CONTINUOUS
 62
3
100
AcDbLine
 10
187.3068374733098
 20
186.6955776622395
 30
0.0000000000000000
 11
186.3068374733098
 21
188.4276284698084
 31
0.0000000000000000
  0
LINE
  5
2EA
100
AcDbEntity
  8
MAIN0
  6
CONTINUOUS
 62
3
100
AcDbLine
 10
186.3068374733098
 20
188.4276284698084
 30
0.0000000000000000
 11
177.3068374733098
 21
188.4276284698084
 31
0.0000000000000000
  0
LINE
  5
2EB
100
AcDbEntity
  8
MAIN0
  6
CONTINUOUS
 62
3
100
AcDbLine
 10
186.3068374733098
 20
172.4276284698084
 30
0.0000000000000000
 11
186.3068374733098
 21
188.4276284698084
 31
0.0000000000000000
  0
LINE
  5
2EC
100
AcDbEntity
  8
MAIN0
  6
HIDDEN
 62
3
100
AcDbLine
 10
161.2359619072270
 20
185.4276284698084
 30
0.0000000000000000
 11
173.3038445149379
 21
185.4276284698084
 31
0.0000000000000000
  0
LINE
  5
2ED
100
AcDbEntity
  8
MAIN0
  6
CONTINUOUS
 62
3
100
AcDbLine
 10
173.3038445149379
 20
185.4276284698084
 30
0.0000000000000000
 11
177.3068374733098
 21
185.4276284698084
 31
0.0000000000000000
  0
LINE
  5
2EE
100
AcDbEntity
  8
MAIN0
  6
HIDDEN
 62
3
100
AcDbLine
 10
161.2359619072270
 20
184.6157294698084
 30
0.0000000000000000
 11
173.3038445149379
 21
184.6157294698084
 31
0.0000000000000000
  0
LINE
  5
2EF
100
AcDbEntity
  8
MAIN0
  6
CONTINUOUS
 62
3
100
AcDbLine
 10
173.3038445149379
 20
184.6157294698084
 30
0.0000000000000000
 11
177.3068374733098
 21
184.6157294698084
 31
0.0000000000000000
  0
LINE
  5
2F0
100
AcDbEntity
  8
MAIN0
  6
HIDDEN
 62
3
100
AcDbLine
 10
161.2359619072270
 20
176.2395274698084
 30
0.0000000000000000
 11
173.3038445149379
 21
176.2395274698084
 31
0.0000000000000000
  0
LINE
  5
2F1
100
AcDbEntity
  8
MAIN0
  6
CONTINUOUS
 62
3
100
AcDbLine
 10
173.3038445149379
 20
176.2395274698084
 30
0.0000000000000000
 11
177.3068374733098
 21
176.2395274698084
 31
0.0000000000000000
  0
LINE
  5
2F2
100
AcDbEntity
  8
MAIN0
  6
HIDDEN
 62
3
100
AcDbLine
 10
161.2359619072270
 20
175.4276284698084
 30
0.0000000000000000
 11
173.3038445149379
 21
175.4276284698084
 31
0.0000000000000000
  0
LINE
  5
2F3
100
AcDbEntity
  8
MAIN0
  6
CONTINUOUS
 62
3
100
AcDbLine
 10
173.3038445149379
 20
175.4276284698084
 30
0.0000000000000000
 11
177.3068374733098
 21
175.4276284698084
 31
0.0000000000000000
  0
LINE
  5
2F4
100
AcDbEntity
  8
MAIN0
  6
CENTER
 62
3
100
AcDbLine
 10
456.2359375630513
 20
106.9733223638926
 30
0.0000000000000000
 11
456.2359375630513
 21
139.2677792043395
 31
0.0000000000000000
  0
LINE
  5
2F5
100
AcDbEntity
  8
MAIN0
  6
CONTINUOUS
 62
3
100
AcDbLine
 10
504.2359375630513
 20
118.7914991009823
 30
0.0000000000000000
 11
504.2359375630513
 21
155.4914991009823
 31
0.0000000000000000
  0
LINE
  5
2F6
100
AcDbEntity
  8
MAIN0
  6
CONTINUOUS
 62
3
100
AcDbLine
 10
416.2359375630513
 20
118.7914991009823
 30
0.0000000000000000
 11
416.2359375630513
 21
155.4914991009823
 31
0.0000000000000000
  0
LINE
  5
2F7
100
AcDbEntity
  8
MAIN0
  6
CONTINUOUS
 62
3
100
AcDbLine
 10
417.2359375630513
 20
156.4914991009823
 30
0.0000000000000000
 11
503.2359375630513
 21
156.4914991009823
 31
0.0000000000000000
  0
LINE
  5
2F8
100
AcDbEntity
  8
MAIN0
  6
CONTINUOUS
 62
3
100
AcDbLine
 10
450.1959375630513
 20
115.4914991009823
 30
0.0000000000000000
 11
462.2759375630512
 21
115.4914991009823
 31
0.0000000000000000
  0
LINE
  5
2F9
100
AcDbEntity
  8
MAIN0
  6
CENTER
 62
3
100
AcDbLine
 10
434.0109375630511
 20
160.2086326753455
 30
0.0000000000000000
 11
434.0109375630511
 21
111.2792472049829
 31
0.0000000000000000
  0
LINE
  5
2FA
100
AcDbEntity
  8
MAIN0
  6
CENTER
 62
3
100
AcDbLine
 10
478.4609375630512
 20
160.2086326753455
 30
0.0000000000000000
 11
478.4609375630512
 21
111.2792472049829
 31
0.0000000000000000
  0
LINE
  5
2FB
100
AcDbEntity
  8
MAIN0
  6
CONTINUOUS
 62
3
100
AcDbLine
 10
486.9609375630512
 20
125.9914991009823
 30
0.0000000000000000
 11
486.9609375630512
 21
156.1914991009823
 31
0.0000000000000000
  0
LINE
  5
2FC
100
AcDbEntity
  8
MAIN0
  6
CONTINUOUS
 62
3
100
AcDbLine
 10
469.9609375630512
 20
125.9914991009823
 30
0.0000000000000000
 11
469.9609375630512
 21
156.1914991009823
 31
0.0000000000000000
  0
LINE
  5
2FD
100
AcDbEntity
  8
MAIN0
  6
CONTINUOUS
 62
3
100
AcDbLine
 10
442.5109375630511
 20
125.9914991009823
 30
0.0000000000000000
 11
442.5109375630511
 21
156.1914991009823
 31
0.0000000000000000
  0
LINE
  5
2FE
100
AcDbEntity
  8
MAIN0
  6
CONTINUOUS
 62
3
100
AcDbLine
 10
425.5109375630511
 20
125.9914991009823
 30
0.0000000000000000
 11
425.5109375630511
 21
156.1914991009823
 31
0.0000000000000000
  0
LINE
  5
2FF
100
AcDbEntity
  8
MAIN0
  6
CONTINUOUS
 62
3
100
AcDbLine
 10
425.5109375630511
 20
125.9914991009823
 30
0.0000000000000000
 11
442.5109375630511
 21
125.9914991009823
 31
0.0000000000000000
  0
LINE
  5
300
100
AcDbEntity
  8
MAIN0
  6
CONTINUOUS
 62
3
100
AcDbLine
 10
469.9609375630512
 20
125.9914991009823
 30
0.0000000000000000
 11
486.9609375630512
 21
125.9914991009823
 31
0.0000000000000000
  0
LINE
  5
301
100
AcDbEntity
  8
MAIN0
  6
CONTINUOUS
 62
3
100
AcDbLine
 10
428.5109375630511
 20
121.9914991009822
 30
0.0000000000000000
 11
428.5109375630511
 21
125.9914991009823
 31
0.0000000000000000
  0
LINE
  5
302
100
AcDbEntity
  8
MAIN0
  6
CONTINUOUS
 62
3
100
AcDbLine
 10
439.5109375630511
 20
121.9914991009823
 30
0.0000000000000000
 11
439.5109375630511
 21
125.9914991009823
 31
0.0000000000000000
  0
LINE
  5
303
100
AcDbEntity
  8
MAIN0
  6
CONTINUOUS
 62
3
100
AcDbLine
 10
472.9609375630512
 20
121.9914991009822
 30
0.0000000000000000
 11
472.9609375630512
 21
125.9914991009823
 31
0.0000000000000000
  0
LINE
  5
304
100
AcDbEntity
  8
MAIN0
  6
CONTINUOUS
 62
3
100
AcDbLine
 10
483.9609375630512
 20
121.9914991009822
 30
0.0000000000000000
 11
483.9609375630512
 21
125.9914991009823
 31
0.0000000000000000
  0
LINE
  5
305
100
AcDbEntity
  8
MAIN0
  6
CONTINUOUS
 62
3
100
AcDbLine
 10
449.8959375630512
 20
115.7914991009823
 30
0.0000000000000000
 11
449.8959375630512
 21
119.1914991009823
 31
0.0000000000000000
  0
LINE
  5
306
100
AcDbEntity
  8
MAIN0
  6
CONTINUOUS
 62
3
100
AcDbLine
 10
462.5759375630513
 20
115.7914991009823
 30
0.0000000000000000
 11
462.5759375630513
 21
119.1914991009823
 31
0.0000000000000000
  0
LINE
  5
307
100
AcDbEntity
  8
MAIN0
  6
CONTINUOUS
 62
3
100
AcDbLine
 10
465.5759375630514
 20
119.1914991009823
 30
0.0000000000000000
 11
465.5759375630514
 21
118.4914991009823
 31
0.0000000000000000
  0
LINE
  5
308
100
AcDbEntity
  8
MAIN0
  6
CONTINUOUS
 62
3
100
AcDbLine
 10
446.8959375630515
 20
118.4914991009823
 30
0.0000000000000000
 11
446.8959375630515
 21
119.1914991009823
 31
0.0000000000000000
  0
LINE
  5
309
100
AcDbEntity
  8
MAIN0
  6
CONTINUOUS
 62
3
100
AcDbLine
 10
416.5359375630513
 20
118.4914991009823
 30
0.0000000000000000
 11
446.8959375630515
 21
118.4914991009823
 31
0.0000000000000000
  0
LINE
  5
30A
100
AcDbEntity
  8
MAIN0
  6
CONTINUOUS
 62
3
100
AcDbLine
 10
465.5759375630514
 20
118.4914991009823
 30
0.0000000000000000
 11
503.9359375630513
 21
118.4914991009823
 31
0.0000000000000000
  0
LINE
  5
30B
100
AcDbEntity
  8
MAIN0
  6
CONTINUOUS
 62
3
100
AcDbLine
 10
446.8959375630515
 20
119.1914991009823
 30
0.0000000000000000
 11
449.8959375630512
 21
119.1914991009823
 31
0.0000000000000000
  0
LINE
  5
30C
100
AcDbEntity
  8
MAIN0
  6
CONTINUOUS
 62
3
100
AcDbLine
 10
462.5759375630513
 20
119.1914991009823
 30
0.0000000000000000
 11
465.5759375630514
 21
119.1914991009823
 31
0.0000000000000000
  0
LINE
  5
30D
100
AcDbEntity
  8
MAIN0
  6
CONTINUOUS
 62
3
100
AcDbLine
 10
430.2109375630512
 20
118.4914991009823
 30
0.0000000000000000
 11
430.2109375630512
 21
121.9914991009822
 31
0.0000000000000000
  0
LINE
  5
30E
100
AcDbEntity
  8
MAIN0
  6
CONTINUOUS
 62
3
100
AcDbLine
 10
437.8109375630511
 20
118.4914991009823
 30
0.0000000000000000
 11
437.8109375630511
 21
121.9914991009822
 31
0.0000000000000000
  0
LINE
  5
30F
100
AcDbEntity
  8
MAIN0
  6
CONTINUOUS
 62
3
100
AcDbLine
 10
474.6609375630512
 20
118.4914991009822
 30
0.0000000000000000
 11
474.6609375630512
 21
121.9914991009822
 31
0.0000000000000000
  0
LINE
  5
310
100
AcDbEntity
  8
MAIN0
  6
CONTINUOUS
 62
3
100
AcDbLine
 10
482.2609375630512
 20
118.4914991009822
 30
0.0000000000000000
 11
482.2609375630512
 21
121.9914991009822
 31
0.0000000000000000
  0
LINE
  5
311
100
AcDbEntity
  8
MAIN0
  6
CONTINUOUS
 62
3
100
AcDbLine
 10
482.2609375630512
 20
121.9914991009822
 30
0.0000000000000000
 11
504.2359375630513
 21
121.9914991009822
 31
0.0000000000000000
  0
LINE
  5
312
100
AcDbEntity
  8
MAIN0
  6
CONTINUOUS
 62
3
100
AcDbLine
 10
437.8109375630512
 20
121.9914991009823
 30
0.0000000000000000
 11
474.6609375630512
 21
121.9914991009823
 31
0.0000000000000000
  0
LINE
  5
313
100
AcDbEntity
  8
MAIN0
  6
CONTINUOUS
 62
3
100
AcDbLine
 10
416.2359375630513
 20
121.9914991009823
 30
0.0000000000000000
 11
430.2109375630512
 21
121.9914991009823
 31
0.0000000000000000
  0
LINE
  5
314
100
AcDbEntity
  8
MAIN0
  6
CONTINUOUS
 62
3
100
AcDbLine
 10
503.2359375630513
 20
156.4914991009823
 30
0.0000000000000000
 11
504.2359375630512
 21
155.4914991009824
 31
0.0000000000000000
  0
LINE
  5
315
100
AcDbEntity
  8
MAIN0
  6
CONTINUOUS
 62
3
100
AcDbLine
 10
417.2359375630513
 20
156.4914991009823
 30
0.0000000000000000
 11
416.2359375630513
 21
155.4914991009823
 31
0.0000000000000000
  0
LINE
  5
316
100
AcDbEntity
  8
MAIN0
  6
CONTINUOUS
 62
3
100
AcDbLine
 10
416.2359375630513
 20
118.7914991009824
 30
0.0000000000000000
 11
416.5359375630513
 21
118.4914991009824
 31
0.0000000000000000
  0
LINE
  5
317
100
AcDbEntity
  8
MAIN0
  6
CONTINUOUS
 62
3
100
AcDbLine
 10
503.9359375630512
 20
118.4914991009822
 30
0.0000000000000000
 11
504.2359375630512
 21
118.7914991009822
 31
0.0000000000000000
  0
LINE
  5
318
100
AcDbEntity
  8
MAIN0
  6
CONTINUOUS
 62
3
100
AcDbLine
 10
449.8959375630512
 20
115.7914991009824
 30
0.0000000000000000
 11
450.1959375630513
 21
115.4914991009824
 31
0.0000000000000000
  0
LINE
  5
319
100
AcDbEntity
  8
MAIN0
  6
CONTINUOUS
 62
3
100
AcDbLine
 10
462.2759375630512
 20
115.4914991009824
 30
0.0000000000000000
 11
462.5759375630512
 21
115.7914991009824
 31
0.0000000000000000
  0
LINE
  5
31A
100
AcDbEntity
  8
MAIN0
  6
CONTINUOUS
 62
3
100
AcDbLine
 10
425.2109375630511
 20
156.4914991009824
 30
0.0000000000000000
 11
425.5109375630511
 21
156.1914991009824
 31
0.0000000000000000
  0
LINE
  5
31B
100
AcDbEntity
  8
MAIN0
  6
CONTINUOUS
 62
3
100
AcDbLine
 10
442.8109375630512
 20
156.4914991009823
 30
0.0000000000000000
 11
442.5109375630512
 21
156.1914991009824
 31
0.0000000000000000
  0
LINE
  5
31C
100
AcDbEntity
  8
MAIN0
  6
CONTINUOUS
 62
3
100
AcDbLine
 10
469.6609375630512
 20
156.4914991009823
 30
0.0000000000000000
 11
469.9609375630512
 21
156.1914991009824
 31
0.0000000000000000
  0
LINE
  5
31D
100
AcDbEntity
  8
MAIN0
  6
CONTINUOUS
 62
3
100
AcDbLine
 10
487.2609375630511
 20
156.4914991009823
 30
0.0000000000000000
 11
486.9609375630512
 21
156.1914991009824
 31
0.0000000000000000
  0
MTEXT
  5
31E
100
AcDbEntity
  8
MAIN0
  6
CONTINUOUS
 62
3
100
AcDbMText
 10
273.3508945828526
 20
47.85727521314584
 30
0.0000000000000000
 40
4.649999856948853
 41
0.0000000000000000
 71
     1
 72
     1
  1
{\H0.93x;{\U+2205 4～\U+2205180}}
 11
1.000000000000000
 21
0.0000000000000000
 31
0.0000000000000000
  7
KNJYOKO
  0
LINE
  5
31F
100
AcDbEntity
  8
MAIN0
  6
CONTINUOUS
 62
3
100
AcDbLine
 10
224.6008945828961
 20
40.20727535619693
 30
0.0000000000000000
 11
315.3508945828959
 21
40.20727535619702
 31
0.0000000000000000
  0
LINE
  5
320
100
AcDbEntity
  8
MAIN0
  6
CONTINUOUS
 62
3
100
AcDbLine
 10
251.7158204806835
 20
292.2845214874730
 30
0.0000000000000000
 11
308.0299388052825
 21
259.7715501135893
 31
0.0000000000000000
  0
LINE
  5
321
100
AcDbEntity
  8
MAIN0
  6
CONTINUOUS
 62
3
100
AcDbLine
 10
265.7158204806835
 20
316.5332327934373
 30
0.0000000000000000
 11
322.0299388052825
 21
284.0202614195536
 31
0.0000000000000000
  0
ARC
  5
322
100
AcDbEntity
  8
MAIN0
  6
CONTINUOUS
 62
3
100
AcDbCircle
 10
344.8965816965404
 20
254.6523914535133
 30
0.0000000000000000
 40
27.00000000000000
100
AcDbArc
 50
147.8774486378567
 51
152.1225513621434
  0
LINE
  5
323
100
AcDbEntity
  8
MAIN0
  6
CONTINUOUS
 62
3
100
AcDbLine
 10
308.0299388052825
 20
259.7715501135893
 30
0.0000000000000000
 11
321.0299388055972
 21
267.2771036132496
 31
0.0000000000000000
  0
LINE
  5
324
100
AcDbEntity
  8
MAIN0
  6
CONTINUOUS
 62
3
100
AcDbLine
 10
322.0299388052825
 20
284.0202614195536
 30
0.0000000000000000
 11
322.0299388052708
 21
269.0091544202530
 31
0.0000000000000000
  0
LINE
  5
325
100
AcDbEntity
  8
MAIN0
  6
CONTINUOUS
 62
3
100
AcDbLine
 10
251.7158204806835
 20
292.2845214874730
 30
0.0000000000000000
 11
251.7158204806951
 21
307.2585787397259
 31
0.0000000000000000
  0
LINE
  5
326
100
AcDbEntity
  8
MAIN0
  6
CONTINUOUS
 62
3
100
AcDbLine
 10
265.7158204806835
 20
316.5332327934373
 30
0.0000000000000000
 11
252.7479065025158
 21
309.0462041673007
 31
0.0000000000000000
  0
ARC
  5
327
100
AcDbEntity
  8
MAIN0
  6
CONTINUOUS
 62
3
100
AcDbCircle
 10
344.8965816965404
 20
254.6523914535133
 30
0.0000000000000000
 40
53.10000000000000
100
AcDbArc
 50
134.7130420561361
 51
135.8287389113720
  0
ARC
  5
328
100
AcDbEntity
  8
MAIN0
  6
CONTINUOUS
 62
3
100
AcDbCircle
 10
344.8965816965404
 20
254.6523914535133
 30
0.0000000000000000
 40
53.10000000000000
100
AcDbArc
 50
164.1712610886280
 51
165.2869579438639
  0
ARC
  5
329
100
AcDbEntity
  8
MAIN0
  6
CONTINUOUS
 62
3
100
AcDbCircle
 10
228.8491775894256
 20
321.6523914535133
 30
0.0000000000000000
 40
57.50000000000000
100
AcDbArc
 50
316.9331966586525
 51
343.0668033413475
  0
ARC
  5
32A
100
AcDbEntity
  8
MAIN0
  6
CONTINUOUS
 62
3
100
AcDbCircle
 10
228.8491775894256
 20
321.6523914535133
 30
0.0000000000000000
 40
63.50000000000000
100
AcDbArc
 50
317.2632167695573
 51
342.7367832304427
  0
ARC
  5
32B
100
AcDbEntity
  8
MAIN0
  6
CONTINUOUS
 62
3
100
AcDbCircle
 10
228.8491775894256
 20
321.6523914535133
 30
0.0000000000000000
 40
80.00000000000000
100
AcDbArc
 50
319.9213418922123
 51
340.0786581077877
  0
ARC
  5
32C
100
AcDbEntity
  8
MAIN0
  6
CONTINUOUS
 62
3
100
AcDbCircle
 10
344.8965816965404
 20
254.6523914535133
 30
0.0000000000000000
 40
79.09999999999999
100
AcDbArc
 50
159.4594143199404
 51
160.1945516327704
  0
ARC
  5
32D
100
AcDbEntity
  8
MAIN0
  6
CONTINUOUS
 62
3
100
AcDbCircle
 10
344.8965816965404
 20
254.6523914535133
 30
0.0000000000000000
 40
79.09999999999999
100
AcDbArc
 50
139.8054483672296
 51
140.5405856800597
  0
ARC
  5
32E
100
AcDbEntity
  8
MAIN0
  6
CONTINUOUS
 62
3
100
AcDbCircle
 10
228.8491775894256
 20
321.6523914535133
 30
0.0000000000000000
 40
83.50000000000000
100
AcDbArc
 50
321.0432637120894
 51
325.8285247479337
  0
ARC
  5
32F
100
AcDbEntity
  8
MAIN0
  6
CONTINUOUS
 62
3
100
AcDbCircle
 10
228.8491775894256
 20
321.6523914535133
 30
0.0000000000000000
 40
83.50000000000000
100
AcDbArc
 50
334.1714752520663
 51
338.9567362879107
  0
ARC
  5
330
100
AcDbEntity
  8
MAIN0
  6
CONTINUOUS
 62
3
100
AcDbCircle
 10
228.8491775894256
 20
321.6523914535133
 30
0.0000000000000000
 40
35.00000000000000
100
AcDbArc
 50
310.7933435383790
 51
349.2066564616211
  0
LINE
  5
331
100
AcDbEntity
  8
MAIN0
  6
CENTER
 62
3
100
AcDbLine
 10
312.1161666274925
 20
287.4250470607258
 30
0.0000000000000000
 11
300.3774190616831
 21
267.0929398595184
 31
0.0000000000000000
  0
LINE
  5
332
100
AcDbEntity
  8
MAIN0
  6
CENTER
 62
3
100
AcDbLine
 10
273.9428489980577
 20
310.2069214330800
 30
0.0000000000000000
 11
261.7453820887869
 21
289.0802890225829
 31
0.0000000000000000
  0
LINE
  5
333
100
AcDbEntity
  8
MAIN0
  6
CONTINUOUS
 62
3
100
AcDbLine
 10
251.7158204806951
 20
307.2585787397259
 30
0.0000000000000000
 11
252.7479065025157
 21
309.0462041673008
 31
0.0000000000000000
  0
LINE
  5
334
100
AcDbEntity
  8
MAIN0
  6
CONTINUOUS
 62
3
100
AcDbLine
 10
173.3038445149379
 20
162.6521080202429
 30
0.0000000000000000
 11
186.7068374732901
 21
162.6521080202280
 31
0.0000000000000000
  0
LINE
  5
335
100
AcDbEntity
  8
MAIN0
  6
CONTINUOUS
 62
3
100
AcDbLine
 10
187.8068374732989
 20
170.6521080202269
 30
0.0000000000000000
 11
187.8068374733200
 21
189.6521080202272
 31
0.0000000000000000
  0
LINE
  5
336
100
AcDbEntity
  8
MAIN0
  6
CONTINUOUS
 62
3
100
AcDbLine
 10
187.3068374732907
 20
163.2521080202274
 30
0.0000000000000000
 11
187.3068374732989
 21
170.6521080202274
 31
0.0000000000000000
  0
LINE
  5
337
100
AcDbEntity
  8
MAIN0
  6
CONTINUOUS
 62
3
100
AcDbLine
 10
197.3068374733306
 20
199.1521080202164
 30
0.0000000000000000
 11
197.3068374733489
 21
215.6521080202164
 31
0.0000000000000000
  0
LINE
  5
338
100
AcDbEntity
  8
MAIN0
  6
CONTINUOUS
 62
3
100
AcDbLine
 10
196.8068374733246
 20
193.7521080202168
 30
0.0000000000000000
 11
196.8068374733306
 21
199.1521080202169
 31
0.0000000000000000
  0
LINE
  5
339
100
AcDbEntity
  8
MAIN0
  6
CONTINUOUS
 62
3
100
AcDbLine
 10
206.8068374733535
 20
219.7521080202058
 30
0.0000000000000000
 11
206.8068374733782
 21
242.0521080202058
 31
0.0000000000000000
  0
LINE
  5
33A
100
AcDbEntity
  8
MAIN0
  6
CONTINUOUS
 62
3
100
AcDbLine
 10
187.3068374732989
 20
170.6521080202274
 30
0.0000000000000000
 11
187.8068374732989
 21
170.6521080202268
 31
0.0000000000000000
  0
LINE
  5
33B
100
AcDbEntity
  8
MAIN0
  6
CONTINUOUS
 62
3
100
AcDbLine
 10
196.8068374733306
 20
199.1521080202169
 30
0.0000000000000000
 11
197.3068374733306
 21
199.1521080202163
 31
0.0000000000000000
  0
LINE
  5
33C
100
AcDbEntity
  8
MAIN0
  6
CONTINUOUS
 62
3
100
AcDbLine
 10
206.8068374733782
 20
242.0521080202058
 30
0.0000000000000000
 11
206.2068374733789
 21
242.6521080202064
 31
0.0000000000000000
  0
LINE
  5
33D
100
AcDbEntity
  8
MAIN0
  6
CONTINUOUS
 62
3
100
AcDbLine
 10
206.2068374733528
 20
219.1521080202063
 30
0.0000000000000000
 11
206.8068374733535
 21
219.7521080202057
 31
0.0000000000000000
  0
LINE
  5
33E
100
AcDbEntity
  8
MAIN0
  6
CONTINUOUS
 62
3
100
AcDbLine
 10
196.2068374733240
 20
193.1521080202174
 30
0.0000000000000000
 11
196.8068374733247
 21
193.7521080202167
 31
0.0000000000000000
  0
LINE
  5
33F
100
AcDbEntity
  8
MAIN0
  6
CONTINUOUS
 62
3
100
AcDbLine
 10
186.7068374732902
 20
162.6521080202280
 30
0.0000000000000000
 11
187.3068374732908
 21
163.2521080202274
 31
0.0000000000000000
  0
LINE
  5
340
100
AcDbEntity
  8
MAIN0
  6
CONTINUOUS
 62
3
100
AcDbLine
 10
166.8068374733274
 20
196.3121080202500
 30
0.0000000000000000
 11
166.8068374733415
 21
208.9926284698084
 31
0.0000000000000000
  0
LINE
  5
341
100
AcDbEntity
  8
MAIN0
  6
CONTINUOUS
 62
3
100
AcDbLine
 10
173.3068374733415
 20
208.9921080202429
 30
0.0000000000000000
 11
166.8068374733415
 21
208.9921080202501
 31
0.0000000000000000
  0
LINE
  5
342
100
AcDbEntity
  8
MAIN0
  6
CONTINUOUS
 62
3
100
AcDbLine
 10
173.3068374733274
 20
196.3121080202430
 30
0.0000000000000000
 11
166.8068374733274
 21
196.3121080202502
 31
0.0000000000000000
  0
LINE
  5
343
100
AcDbEntity
  8
MAIN0
  6
CENTER
 62
3
100
AcDbLine
 10
179.8068374733763
 20
240.3740260784880
 30
0.0000000000000000
 11
179.8068374733794
 21
243.1361992994233
 31
0.0000000000000000
  0
LINE
  5
344
100
AcDbEntity
  8
MAIN0
  6
CONTINUOUS
 62
3
100
AcDbLine
 10
180.3264527156483
 20
241.8200572125524
 30
0.0000000000000000
 11
180.8068374734454
 21
242.6521080202346
 31
0.0000000000000000
  0
LINE
  5
345
100
AcDbEntity
  8
MAIN0
  6
CONTINUOUS
 62
3
100
AcDbLine
 10
179.2872222311075
 20
241.8200572125537
 30
0.0000000000000000
 11
178.8068374733123
 21
242.6521080202367
 31
0.0000000000000000
  0
ARC
  5
346
100
AcDbEntity
  8
MAIN0
  6
CONTINUOUS
 62
3
100
AcDbCircle
 10
179.8068374733782
 20
242.1200572125535
 30
0.0000000000000000
 40
0.6000000000000000
100
AcDbArc
 50
209.9999999999878
 51
329.9999999998732
  0
LINE
  5
347
100
AcDbEntity
  8
MAIN0
  6
CENTER
 62
3
100
AcDbLine
 10
186.3068374733763
 20
240.3740260784808
 30
0.0000000000000000
 11
186.3068374733794
 21
243.1361992994161
 31
0.0000000000000000
  0
LINE
  5
348
100
AcDbEntity
  8
MAIN0
  6
CONTINUOUS
 62
3
100
AcDbLine
 10
186.8264527156483
 20
241.8200572125452
 30
0.0000000000000000
 11
187.3068374734454
 21
242.6521080202273
 31
0.0000000000000000
  0
LINE
  5
349
100
AcDbEntity
  8
MAIN0
  6
CONTINUOUS
 62
3
100
AcDbLine
 10
185.7872222311075
 20
241.8200572125465
 30
0.0000000000000000
 11
185.3068374733124
 21
242.6521080202295
 31
0.0000000000000000
  0
ARC
  5
34A
100
AcDbEntity
  8
MAIN0
  6
CONTINUOUS
 62
3
100
AcDbCircle
 10
186.3068374733782
 20
242.1200572125463
 30
0.0000000000000000
 40
0.6000000000000000
100
AcDbArc
 50
209.9999999999878
 51
329.9999999998732
  0
LINE
  5
34B
100
AcDbEntity
  8
MAIN0
  6
CENTER
 62
3
100
AcDbLine
 10
192.8068374733763
 20
240.3740260784736
 30
0.0000000000000000
 11
192.8068374733794
 21
243.1361992994089
 31
0.0000000000000000
  0
LINE
  5
34C
100
AcDbEntity
  8
MAIN0
  6
CONTINUOUS
 62
3
100
AcDbLine
 10
193.3264527156483
 20
241.8200572125380
 30
0.0000000000000000
 11
193.8068374734454
 21
242.6521080202201
 31
0.0000000000000000
  0
LINE
  5
34D
100
AcDbEntity
  8
MAIN0
  6
CONTINUOUS
 62
3
100
AcDbLine
 10
192.2872222311075
 20
241.8200572125392
 30
0.0000000000000000
 11
191.8068374733123
 21
242.6521080202223
 31
0.0000000000000000
  0
ARC
  5
34E
100
AcDbEntity
  8
MAIN0
  6
CONTINUOUS
 62
3
100
AcDbCircle
 10
192.8068374733782
 20
242.1200572125391
 30
0.0000000000000000
 40
0.6000000000000000
100
AcDbArc
 50
209.9999999999878
 51
329.9999999998732
  0
LINE
  5
34F
100
AcDbEntity
  8
MAIN0
  6
CENTER
 62
3
100
AcDbLine
 10
199.3068374733763
 20
240.3740260784664
 30
0.0000000000000000
 11
199.3068374733794
 21
243.1361992994017
 31
0.0000000000000000
  0
LINE
  5
350
100
AcDbEntity
  8
MAIN0
  6
CONTINUOUS
 62
3
100
AcDbLine
 10
199.8264527156483
 20
241.8200572125308
 30
0.0000000000000000
 11
200.3068374734454
 21
242.6521080202129
 31
0.0000000000000000
  0
LINE
  5
351
100
AcDbEntity
  8
MAIN0
  6
CONTINUOUS
 62
3
100
AcDbLine
 10
198.7872222311075
 20
241.8200572125321
 30
0.0000000000000000
 11
198.3068374733123
 21
242.6521080202152
 31
0.0000000000000000
  0
ARC
  5
352
100
AcDbEntity
  8
MAIN0
  6
CONTINUOUS
 62
3
100
AcDbCircle
 10
199.3068374733782
 20
242.1200572125319
 30
0.0000000000000000
 40
0.6000000000000000
100
AcDbArc
 50
209.9999999999878
 51
329.9999999998732
  0
LINE
  5
353
100
AcDbEntity
  8
MAIN0
  6
CENTER
 62
3
100
AcDbLine
 10
203.0068374733566
 20
222.6133399210021
 30
0.0000000000000000
 11
203.0068374733502
 21
216.8174541372088
 31
0.0000000000000000
  0
LINE
  5
354
100
AcDbEntity
  8
MAIN0
  6
CONTINUOUS
 62
3
100
AcDbLine
 10
202.4872222310833
 20
219.9841588278933
 30
0.0000000000000000
 11
202.0068374732862
 21
219.1521080202112
 31
0.0000000000000000
  0
LINE
  5
355
100
AcDbEntity
  8
MAIN0
  6
CONTINUOUS
 62
3
100
AcDbLine
 10
203.5264527156240
 20
219.9841588278921
 30
0.0000000000000000
 11
204.0068374734192
 21
219.1521080202090
 31
0.0000000000000000
  0
ARC
  5
356
100
AcDbEntity
  8
MAIN0
  6
CONTINUOUS
 62
3
100
AcDbCircle
 10
203.0068374733534
 20
219.6841588278921
 30
0.0000000000000000
 40
0.6000000000000000
100
AcDbArc
 50
29.99999999998775
 51
149.9999999998732
  0
LINE
  5
357
100
AcDbEntity
  8
MAIN0
  6
CONTINUOUS
 62
3
100
AcDbLine
 10
192.7872222310546
 20
193.9841588279041
 30
0.0000000000000000
 11
192.3068374732575
 21
193.1521080202220
 31
0.0000000000000000
  0
LINE
  5
358
100
AcDbEntity
  8
MAIN0
  6
CONTINUOUS
 62
3
100
AcDbLine
 10
193.8264527155953
 20
193.9841588279028
 30
0.0000000000000000
 11
194.3068374733904
 21
193.1521080202197
 31
0.0000000000000000
  0
ARC
  5
359
100
AcDbEntity
  8
MAIN0
  6
CONTINUOUS
 62
3
100
AcDbCircle
 10
193.3068374733246
 20
193.6841588279029
 30
0.0000000000000000
 40
0.6000000000000000
100
AcDbArc
 50
29.99999999998775
 51
149.9999999998732
  0
LINE
  5
35A
100
AcDbEntity
  8
MAIN0
  6
CONTINUOUS
 62
3
100
AcDbLine
 10
173.9068374733788
 20
242.6521080202423
 30
0.0000000000000000
 11
178.8068374733123
 21
242.6521080202368
 31
0.0000000000000000
  0
LINE
  5
35B
100
AcDbEntity
  8
MAIN0
  6
CONTINUOUS
 62
3
100
AcDbLine
 10
180.8068374734453
 20
242.6521080202346
 30
0.0000000000000000
 11
185.3068374733123
 21
242.6521080202296
 31
0.0000000000000000
  0
LINE
  5
35C
100
AcDbEntity
  8
MAIN0
  6
CONTINUOUS
 62
3
100
AcDbLine
 10
187.3068374734453
 20
242.6521080202274
 30
0.0000000000000000
 11
191.8068374733123
 21
242.6521080202224
 31
0.0000000000000000
  0
LINE
  5
35D
100
AcDbEntity
  8
MAIN0
  6
CONTINUOUS
 62
3
100
AcDbLine
 10
193.8068374734453
 20
242.6521080202202
 30
0.0000000000000000
 11
198.3068374733123
 21
242.6521080202152
 31
0.0000000000000000
  0
LINE
  5
35E
100
AcDbEntity
  8
MAIN0
  6
CONTINUOUS
 62
3
100
AcDbLine
 10
200.3068374734453
 20
242.6521080202130
 30
0.0000000000000000
 11
206.2068374733788
 21
242.6521080202064
 31
0.0000000000000000
  0
LINE
  5
35F
100
AcDbEntity
  8
MAIN0
  6
CONTINUOUS
 62
3
100
AcDbLine
 10
199.9068374733527
 20
219.1521080202134
 30
0.0000000000000000
 11
202.0068374732863
 21
219.1521080202111
 31
0.0000000000000000
  0
LINE
  5
360
100
AcDbEntity
  8
MAIN0
  6
CONTINUOUS
 62
3
100
AcDbLine
 10
204.0068374734193
 20
219.1521080202089
 30
0.0000000000000000
 11
206.2068374733528
 21
219.1521080202064
 31
0.0000000000000000
  0
LINE
  5
361
100
AcDbEntity
  8
MAIN0
  6
CONTINUOUS
 62
3
100
AcDbLine
 10
190.4068374733240
 20
193.1521080202240
 30
0.0000000000000000
 11
192.3068374732574
 21
193.1521080202219
 31
0.0000000000000000
  0
LINE
  5
362
100
AcDbEntity
  8
MAIN0
  6
CONTINUOUS
 62
3
100
AcDbLine
 10
194.3068374733905
 20
193.1521080202196
 30
0.0000000000000000
 11
196.2068374733239
 21
193.1521080202175
 31
0.0000000000000000
  0
LINE
  5
363
100
AcDbEntity
  8
MAIN0
  6
CONTINUOUS
 62
3
100
AcDbLine
 10
187.8068374733201
 20
189.6521080202268
 30
0.0000000000000000
 11
187.0068374733218
 21
191.1888937218046
 31
0.0000000000000000
  0
LINE
  5
364
100
AcDbEntity
  8
MAIN0
  6
CONTINUOUS
 62
3
100
AcDbLine
 10
187.0068374733217
 20
191.1888937218047
 30
0.0000000000000000
 11
187.0068374733234
 21
192.7521080202278
 31
0.0000000000000000
  0
LINE
  5
365
100
AcDbEntity
  8
MAIN0
  6
CONTINUOUS
 62
3
100
AcDbLine
 10
188.2068374733248
 20
193.9521080202264
 30
0.0000000000000000
 11
188.8700517717479
 21
193.9521080202257
 31
0.0000000000000000
  0
LINE
  5
366
100
AcDbEntity
  8
MAIN0
  6
CONTINUOUS
 62
3
100
AcDbLine
 10
188.8700517717479
 20
193.9521080202257
 30
0.0000000000000000
 11
190.4068374733240
 21
193.1521080202240
 31
0.0000000000000000
  0
ARC
  5
367
100
AcDbEntity
  8
MAIN0
  6
CONTINUOUS
 62
3
100
AcDbCircle
 10
188.2068374733235
 20
192.7521080202264
 30
0.0000000000000000
 40
1.200000000000000
100
AcDbArc
 50
89.99999999993646
 51
179.9999999999365
  0
LINE
  5
368
100
AcDbEntity
  8
MAIN0
  6
CONTINUOUS
 62
3
100
AcDbLine
 10
197.3068374733489
 20
215.6521080202163
 30
0.0000000000000000
 11
196.5068374733505
 21
217.1888937217941
 31
0.0000000000000000
  0
LINE
  5
369
100
AcDbEntity
  8
MAIN0
  6
CONTINUOUS
 62
3
100
AcDbLine
 10
196.5068374733506
 20
217.1888937217941
 30
0.0000000000000000
 11
196.5068374733523
 21
218.7521080202172
 31
0.0000000000000000
  0
LINE
  5
36A
100
AcDbEntity
  8
MAIN0
  6
CONTINUOUS
 62
3
100
AcDbLine
 10
197.7068374733536
 20
219.9521080202158
 30
0.0000000000000000
 11
198.3700517717767
 21
219.9521080202151
 31
0.0000000000000000
  0
LINE
  5
36B
100
AcDbEntity
  8
MAIN0
  6
CONTINUOUS
 62
3
100
AcDbLine
 10
198.3700517717768
 20
219.9521080202151
 30
0.0000000000000000
 11
199.9068374733529
 21
219.1521080202134
 31
0.0000000000000000
  0
ARC
  5
36C
100
AcDbEntity
  8
MAIN0
  6
CONTINUOUS
 62
3
100
AcDbCircle
 10
197.7068374733523
 20
218.7521080202158
 30
0.0000000000000000
 40
1.200000000000000
100
AcDbArc
 50
89.99999999993646
 51
179.9999999999365
  0
LINE
  5
36D
100
AcDbEntity
  8
MAIN0
  6
CONTINUOUS
 62
3
100
AcDbLine
 10
206.8068374733692
 20
233.9771080202057
 30
0.0000000000000000
 11
206.2068374733686
 21
233.3771080202064
 31
0.0000000000000000
  0
LINE
  5
36E
100
AcDbEntity
  8
MAIN0
  6
CONTINUOUS
 62
3
100
AcDbLine
 10
206.2068374733685
 20
233.3771080202064
 30
0.0000000000000000
 11
177.3068374733685
 21
233.3771080202384
 31
0.0000000000000000
  0
LINE
  5
36F
100
AcDbEntity
  8
MAIN0
  6
CONTINUOUS
 62
3
100
AcDbLine
 10
177.3068374733685
 20
233.3771080202384
 30
0.0000000000000000
 11
177.3068374733497
 21
216.3771080202384
 31
0.0000000000000000
  0
LINE
  5
370
100
AcDbEntity
  8
MAIN0
  6
CONTINUOUS
 62
3
100
AcDbLine
 10
177.3068374733497
 20
216.3771080202384
 30
0.0000000000000000
 11
196.9294263616996
 21
216.3771080202167
 31
0.0000000000000000
  0
LINE
  5
371
100
AcDbEntity
  8
MAIN0
  6
CONTINUOUS
 62
3
100
AcDbLine
 10
177.3068374733652
 20
230.3771080202384
 30
0.0000000000000000
 11
173.3068374733652
 21
230.3771080202429
 31
0.0000000000000000
  0
LINE
  5
372
100
AcDbEntity
  8
MAIN0
  6
CONTINUOUS
 62
3
100
AcDbLine
 10
177.3068374733530
 20
219.3771080202384
 30
0.0000000000000000
 11
173.3068374733530
 21
219.3771080202429
 31
0.0000000000000000
  0
LINE
  5
373
100
AcDbEntity
  8
MAIN0
  6
CONTINUOUS
 62
3
100
AcDbLine
 10
187.8068374733199
 20
189.5271080202267
 30
0.0000000000000000
 11
187.2068374733193
 21
188.9271080202274
 31
0.0000000000000000
  0
LINE
  5
374
100
AcDbEntity
  8
MAIN0
  6
CONTINUOUS
 62
3
100
AcDbLine
 10
187.2068374733192
 20
188.9271080202275
 30
0.0000000000000000
 11
177.3068374733192
 21
188.9271080202385
 31
0.0000000000000000
  0
LINE
  5
375
100
AcDbEntity
  8
MAIN0
  6
CONTINUOUS
 62
3
100
AcDbLine
 10
177.3068374733192
 20
188.9271080202385
 30
0.0000000000000000
 11
177.3068374733004
 21
171.9271080202385
 31
0.0000000000000000
  0
LINE
  5
376
100
AcDbEntity
  8
MAIN0
  6
CONTINUOUS
 62
3
100
AcDbLine
 10
177.3068374733004
 20
171.9271080202385
 30
0.0000000000000000
 11
187.2068374733004
 21
171.9271080202275
 31
0.0000000000000000
  0
LINE
  5
377
100
AcDbEntity
  8
MAIN0
  6
CONTINUOUS
 62
3
100
AcDbLine
 10
187.2068374733005
 20
171.9271080202275
 30
0.0000000000000000
 11
187.8068374732998
 21
171.3271080202268
 31
0.0000000000000000
  0
LINE
  5
378
100
AcDbEntity
  8
MAIN0
  6
CONTINUOUS
 62
3
100
AcDbLine
 10
177.3068374733159
 20
185.9271080202385
 30
0.0000000000000000
 11
173.3068374733159
 21
185.9271080202429
 31
0.0000000000000000
  0
LINE
  5
379
100
AcDbEntity
  8
MAIN0
  6
CONTINUOUS
 62
3
100
AcDbLine
 10
177.3068374733037
 20
174.9271080202385
 30
0.0000000000000000
 11
173.3068374733037
 21
174.9271080202429
 31
0.0000000000000000
  0
ARC
  5
37A
100
AcDbEntity
  8
MAIN0
  6
CONTINUOUS
 62
3
100
AcDbCircle
 10
306.1202942420921
 20
277.0398914535132
 30
0.0000000000000000
 40
8.500000000000000
100
AcDbArc
 50
90.38994244932738
 51
209.6100575506724
  0
ARC
  5
37B
100
AcDbEntity
  8
MAIN0
  6
CONTINUOUS
 62
3
100
AcDbCircle
 10
306.1202942420921
 20
277.0398914535132
 30
0.0000000000000000
 40
8.500000000000000
100
AcDbArc
 50
209.6100575506724
 51
450.3899424493274
  0
ARC
  5
37C
100
AcDbEntity
  8
MAIN0
  6
CONTINUOUS
 62
3
100
AcDbCircle
 10
306.1202942420921
 20
277.0398914535132
 30
0.0000000000000000
 40
5.500000000000000
100
AcDbArc
 50
75.82662013187196
 51
224.1733798681279
  0
ARC
  5
37D
100
AcDbEntity
  8
MAIN0
  6
CONTINUOUS
 62
3
100
AcDbCircle
 10
306.1202942420921
 20
277.0398914535132
 30
0.0000000000000000
 40
5.500000000000000
100
AcDbArc
 50
224.1733798681279
 51
435.8266201318720
  0
CIRCLE
  5
37E
100
AcDbEntity
  8
MAIN0
  6
CONTINUOUS
 62
3
100
AcDbCircle
 10
267.6254650438738
 20
299.2648914535132
 30
0.0000000000000000
 40
8.500000000000000
  0
CIRCLE
  5
37F
100
AcDbEntity
  8
MAIN0
  6
CONTINUOUS
 62
3
100
AcDbCircle
 10
267.6254650438738
 20
299.2648914535132
 30
0.0000000000000000
 40
5.500000000000000
  0
LINE
  5
380
100
AcDbEntity
  8
MAIN0
  6
CONTINUOUS
 62
3
100
AcDbLine
 10
195.3508945828959
 20
132.2072753562545
 30
0.0000000000000000
 11
315.3508945828960
 21
132.2072753562909
 31
0.0000000000000000
  0
LINE
  5
381
100
AcDbEntity
  8
MAIN0
  6
CONTINUOUS
 62
3
100
AcDbLine
 10
195.3508945828958
 20
121.7072753562516
 30
0.0000000000000000
 11
315.3508945828958
 21
121.7072753562859
 31
0.0000000000000000
  0
LINE
  5
382
100
AcDbEntity
  8
MAIN0
  6
CONTINUOUS
 62
3
100
AcDbLine
 10
195.3508945828959
 20
106.7072753562417
 30
0.0000000000000000
 11
315.3508945828959
 21
106.7072753562690
 31
0.0000000000000000
  0
LINE
  5
383
100
AcDbEntity
  8
MAIN0
  6
CONTINUOUS
 62
3
100
AcDbLine
 10
195.3508945828958
 20
91.70727535623732
 30
0.0000000000000000
 11
315.3508945828958
 21
91.70727535626156
 31
0.0000000000000000
  0
LINE
  5
384
100
AcDbEntity
  8
MAIN0
  6
CONTINUOUS
 62
3
100
AcDbLine
 10
195.3508945828958
 20
76.20727535623428
 30
0.0000000000000000
 11
315.3508945828959
 21
76.20727535625653
 31
0.0000000000000000
  0
LINE
  5
385
100
AcDbEntity
  8
MAIN0
  6
CONTINUOUS
 62
3
100
AcDbLine
 10
195.3508945828958
 20
65.70727535623132
 30
0.0000000000000000
 11
315.3508945828961
 21
65.70727535625144
 31
0.0000000000000000
  0
LINE
  5
386
100
AcDbEntity
  8
MAIN0
  6
CONTINUOUS
 62
3
100
AcDbLine
 10
195.3508945828961
 20
50.70727535619702
 30
0.0000000000000000
 11
315.3508945828959
 21
50.70727535619707
 31
0.0000000000000000
  0
LINE
  5
387
100
AcDbEntity
  8
MAIN0
  6
CONTINUOUS
 62
3
100
AcDbLine
 10
195.3508945828960
 20
29.70727535619696
 30
0.0000000000000000
 11
195.3508945828960
 21
132.2072753562021
 31
0.0000000000000000
  0
LINE
  5
388
100
AcDbEntity
  8
MAIN0
  6
CONTINUOUS
 62
3
100
AcDbLine
 10
270.3508945828960
 20
29.70727535619704
 30
0.0000000000000000
 11
270.3508945828960
 21
121.7072753562726
 31
0.0000000000000000
  0
LINE
  5
389
100
AcDbEntity
  8
MAIN0
  6
CONTINUOUS
 62
3
100
AcDbLine
 10
315.3508945828960
 20
29.70727535619704
 30
0.0000000000000000
 11
315.3508945828960
 21
132.2072753562021
 31
0.0000000000000000
  0
MTEXT
  5
38A
100
AcDbEntity
  8
MAIN0
  6
CONTINUOUS
 62
3
100
AcDbMText
 10
199.1008945828977
 20
119.9822759284562
 30
0.0000000000000000
 40
4.650000572204590
 41
0.0000000000000000
 71
     1
 72
     1
  1
{\H0.94x;{許容最大ハンドルトルク}}
 11
1.000000000000000
 21
0.0000000000000000
 31
0.0000000000000000
  7
KNJYOKO
  0
MTEXT
  5
38B
100
AcDbEntity
  8
MAIN0
  6
CONTINUOUS
 62
3
100
AcDbMText
 10
199.1008945828976
 20
104.9822759284518
 30
0.0000000000000000
 40
4.650000572204590
 41
0.0000000000000000
 71
     1
 72
     1
  1
{\H0.94x;{最大静的把握力}}
 11
1.000000000000000
 21
0.0000000000000000
 31
0.0000000000000000
  7
KNJYOKO
  0
MTEXT
  5
38C
100
AcDbEntity
  8
MAIN0
  6
CONTINUOUS
 62
3
100
AcDbMText
 10
198.3508945828960
 20
73.35727592843591
 30
0.0000000000000000
 40
4.650000572204590
 41
0.0000000000000000
 71
     1
 72
     1
  1
{\H0.90x;{質量}}
 11
1.000000000000000
 21
0.0000000000000000
 31
0.0000000000000000
  7
KNJYOKO
  0
MTEXT
  5
38D
100
AcDbEntity
  8
MAIN0
  6
CONTINUOUS
 62
3
100
AcDbMText
 10
200.2028615479436
 20
48.94058921964964
 30
0.0000000000000000
 40
4.650000572204590
 41
0.0000000000000000
 71
     1
 72
     1
  1
{\H0.96x;{把握径}}
 11
1.000000000000000
 21
0.0000000000000000
 31
0.0000000000000000
  7
KNJYOKO
  0
MTEXT
  5
38E
100
AcDbEntity
  8
MAIN0
  6
CONTINUOUS
 62
3
100
AcDbMText
 10
203.8498955942962
 20
130.5056925484572
 30
0.0000000000000000
 40
7.500000000000000
 41
0.0000000000000000
 71
     1
 72
     1
  1
{\H0.91x;{仕　様}}
 11
1.000000000000000
 21
0.0000000000000000
 31
0.0000000000000000
  7
KNJYOKO
  0
MTEXT
  5
38F
100
AcDbEntity
  8
MAIN0
  6
CONTINUOUS
 62
3
100
AcDbMText
 10
292.8508945828960
 20
117.6572742117929
 30
0.0000000000000000
 40
4.199998855590820
 41
0.0000000000000000
 71
     1
 72
     1
  1
{\H0.58x;{　　　Ｎ・ｍ}}
 11
1.000000000000000
 21
0.0000000000000000
 31
0.0000000000000000
  7
KNJYOKO
  0
MTEXT
  5
390
100
AcDbEntity
  8
MAIN0
  6
CONTINUOUS
 62
3
100
AcDbMText
 10
273.3508945828960
 20
111.6572742117929
 30
0.0000000000000000
 40
4.199998855590820
 41
0.0000000000000000
 71
     1
 72
     1
  1
{\H0.48x;{（}}
 11
1.000000000000000
 21
0.0000000000000000
 31
0.0000000000000000
  7
KNJYOKO
  0
MTEXT
  5
391
100
AcDbEntity
  8
MAIN0
  6
CONTINUOUS
 62
3
100
AcDbMText
 10
291.3508945828960
 20
111.6572742117929
 30
0.0000000000000000
 40
4.199998855590820
 41
0.0000000000000000
 71
     1
 72
     1
  1
{\H0.58x;{　ｋｇｆ・ｍ）}}
 11
1.000000000000000
 21
0.0000000000000000
 31
0.0000000000000000
  7
KNJYOKO
  0
MTEXT
  5
392
100
AcDbEntity
  8
MAIN0
  6
CONTINUOUS
 62
3
100
AcDbMText
 10
292.8508945828960
 20
71.40727421179267
 30
0.0000000000000000
 40
4.199998855590820
 41
0.0000000000000000
 71
     1
 72
     1
  1
{\H0.58x;{　　　　ｋｇ}}
 11
1.000000000000000
 21
0.0000000000000000
 31
0.0000000000000000
  7
KNJYOKO
  0
MTEXT
  5
393
100
AcDbEntity
  8
MAIN0
  6
CONTINUOUS
 62
3
100
AcDbMText
 10
293.5791926391917
 20
55.39965234474207
 30
0.0000000000000000
 40
4.199998855590820
 41
0.0000000000000000
 71
     7
 72
     1
  1
{　ｋｇ・ｍ}
 11
1.000000000000000
 21
0.0000000000000000
 31
0.0000000000000000
  7
KNJYOKO
  0
MTEXT
  5
394
100
AcDbEntity
  8
MAIN0
  6
CONTINUOUS
 62
3
100
AcDbMText
 10
308.3791923530894
 20
57.49965177253748
 30
0.0000000000000000
 40
2.099999427795410
 41
0.0000000000000000
 71
     7
 72
     1
  1
{2}
 11
1.000000000000000
 21
0.0000000000000000
 31
0.0000000000000000
  7
STANDARD
  0
MTEXT
  5
395
100
AcDbEntity
  8
MAIN0
  6
CONTINUOUS
 62
3
100
AcDbMText
 10
292.8508945828960
 20
102.6572742117927
 30
0.0000000000000000
 40
4.199998855590820
 41
0.0000000000000000
 71
     1
 72
     1
  1
{\H0.58x;{　　　　ｋＮ}}
 11
1.000000000000000
 21
0.0000000000000000
 31
0.0000000000000000
  7
KNJYOKO
  0
MTEXT
  5
396
100
AcDbEntity
  8
MAIN0
  6
CONTINUOUS
 62
3
100
AcDbMText
 10
273.3508945828960
 20
96.65727421179270
 30
0.0000000000000000
 40
4.199998855590820
 41
0.0000000000000000
 71
     1
 72
     1
  1
{\H0.48x;{（}}
 11
1.000000000000000
 21
0.0000000000000000
 31
0.0000000000000000
  7
KNJYOKO
  0
MTEXT
  5
397
100
AcDbEntity
  8
MAIN0
  6
CONTINUOUS
 62
3
100
AcDbMText
 10
291.3508945828960
 20
96.65727421179270
 30
0.0000000000000000
 40
4.199998855590820
 41
0.0000000000000000
 71
     1
 72
     1
  1
{\H0.58x;{　　　ｋｇｆ）}}
 11
1.000000000000000
 21
0.0000000000000000
 31
0.0000000000000000
  7
KNJYOKO
  0
LINE
  5
398
100
AcDbEntity
  8
MAIN0
  6
CENTER
 62
3
100
AcDbLine
 10
156.2359619072270
 20
202.6526284698084
 30
0.0000000000000000
 11
176.2359619072270
 21
202.6526284698084
 31
0.0000000000000000
  0
LINE
  5
399
100
AcDbEntity
  8
MAIN0
  6
CENTER
 62
3
100
AcDbLine
 10
156.2359619072270
 20
224.8776284698083
 30
0.0000000000000000
 11
211.2359619072270
 21
224.8776284698083
 31
0.0000000000000000
  0
LINE
  5
39A
100
AcDbEntity
  8
MAIN0
  6
CENTER
 62
3
100
AcDbLine
 10
156.2359619072270
 20
180.4276284698084
 30
0.0000000000000000
 11
191.2359619072270
 21
180.4276284698084
 31
0.0000000000000000
  0
LINE
  5
39B
100
AcDbEntity
  8
MAIN0
  6
CONTINUOUS
 62
3
100
AcDbLine
 10
169.8038445149380
 20
164.6526284698084
 30
0.0000000000000000
 11
169.8038445149380
 21
196.3121080202463
 31
0.0000000000000000
  0
LINE
  5
39C
100
AcDbEntity
  8
MAIN0
  6
CONTINUOUS
 62
3
100
AcDbLine
 10
169.8038445149380
 20
208.9921080202462
 30
0.0000000000000000
 11
169.8038445149380
 21
242.6526284698084
 31
0.0000000000000000
  0
LINE
  5
39D
100
AcDbEntity
  8
MAIN0
  6
CONTINUOUS
 62
3
100
AcDbLine
 10
164.8040771152126
 20
236.6089284698084
 30
0.0000000000000000
 11
169.8038445149380
 21
236.6089284698084
 31
0.0000000000000000
  0
LINE
  5
39E
100
AcDbEntity
  8
MAIN0
  6
CENTER
 62
3
100
AcDbLine
 10
166.3038445149380
 20
240.3740260785030
 30
0.0000000000000000
 11
166.3038445149380
 21
243.1361992994383
 31
0.0000000000000000
  0
LINE
  5
39F
100
AcDbEntity
  8
MAIN0
  6
CONTINUOUS
 62
3
100
AcDbLine
 10
166.8234597572133
 20
241.8205776623301
 30
0.0000000000000000
 11
167.3038445148904
 21
242.6526284698084
 31
0.0000000000000000
  0
LINE
  5
3A0
100
AcDbEntity
  8
MAIN0
  6
CONTINUOUS
 62
3
100
AcDbLine
 10
165.7842292726718
 20
241.8205776623305
 30
0.0000000000000000
 11
165.3038445149957
 21
242.6526284698084
 31
0.0000000000000000
  0
ARC
  5
3A1
100
AcDbEntity
  8
MAIN0
  6
CONTINUOUS
 62
3
100
AcDbCircle
 10
166.3038445149427
 20
242.1205776623301
 30
0.0000000000000000
 40
0.6000000000000000
100
AcDbArc
 50
209.9999999999597
 51
329.9999999999945
  0
LINE
  5
3A2
100
AcDbEntity
  8
MAIN0
  6
CONTINUOUS
 62
3
100
AcDbLine
 10
167.3038445148905
 20
242.6526284698084
 30
0.0000000000000000
 11
173.9068374733788
 21
242.6526284698084
 31
0.0000000000000000
  0
LINE
  5
3A3
100
AcDbEntity
  8
MAIN0
  6
CONTINUOUS
 62
3
100
AcDbLine
 10
164.8040771152101
 20
242.6526284698084
 30
0.0000000000000000
 11
165.3038445149958
 21
242.6526284698084
 31
0.0000000000000000
  0
LINE
  5
3A4
100
AcDbEntity
  8
WAKU0
  6
CONTINUOUS
 62
3
100
AcDbLine
 10
246.1440728183262
 20
6.172324084894370
 30
0.0000000000000000
 11
416.1440728183262
 21
6.172324084894370
 31
0.0000000000000000
  0
LINE
  5
3A5
100
AcDbEntity
  8
WAKU0
  6
CONTINUOUS
 62
3
100
AcDbLine
 10
246.1440728183262
 20
6.172324084894370
 30
0.0000000000000000
 11
246.1440728183262
 21
-32.82767591510563
 31
0.0000000000000000
  0
LINE
  5
3A6
100
AcDbEntity
  8
WAKU0
  6
CONTINUOUS
 62
3
100
AcDbLine
 10
318.1440728183262
 20
6.172324084894370
 30
0.0000000000000000
 11
318.1440728183262
 21
-32.82767591510563
 31
0.0000000000000000
  0
LINE
  5
3A7
100
AcDbEntity
  8
WAKU0
  6
CONTINUOUS
 62
3
100
AcDbLine
 10
338.1440728183262
 20
6.172324084894370
 30
0.0000000000000000
 11
338.1440728183262
 21
-32.82767591510563
 31
0.0000000000000000
  0
LINE
  5
3A8
100
AcDbEntity
  8
WAKU0
  6
CONTINUOUS
 62
3
100
AcDbLine
 10
350.1440728183262
 20
6.172324084894370
 30
0.0000000000000000
 11
350.1440728183262
 21
-32.82767591510563
 31
0.0000000000000000
  0
LINE
  5
3A9
100
AcDbEntity
  8
WAKU0
  6
CONTINUOUS
 62
3
100
AcDbLine
 10
350.1440728183262
 20
-7.827675915105630
 30
0.0000000000000000
 11
416.1440728183262
 21
-7.827675915105630
 31
0.0000000000000000
  0
LINE
  5
3AA
100
AcDbEntity
  8
WAKU0
  6
CONTINUOUS
 62
3
100
AcDbLine
 10
338.1440728183262
 20
-21.82767591510563
 30
0.0000000000000000
 11
416.1440728183262
 21
-21.82767591510563
 31
0.0000000000000000
  0
LINE
  5
3AB
100
AcDbEntity
  8
WAKU0
  6
CONTINUOUS
 62
3
100
AcDbLine
 10
381.1440728183262
 20
6.172324084894370
 30
0.0000000000000000
 11
381.1440728183262
 21
-0.8276759151056297
 31
0.0000000000000000
  0
LINE
  5
3AC
100
AcDbEntity
  8
WAKU0
  6
CONTINUOUS
 62
3
100
AcDbLine
 10
393.1440728183262
 20
6.172324084894370
 30
0.0000000000000000
 11
393.1440728183262
 21
-0.8276759151056297
 31
0.0000000000000000
  0
LINE
  5
3AD
100
AcDbEntity
  8
WAKU0
  6
CONTINUOUS
 62
3
100
AcDbLine
 10
318.1440728183262
 20
-13.32767591510563
 30
0.0000000000000000
 11
338.1440728183262
 21
-13.32767591510563
 31
0.0000000000000000
  0
LINE
  5
3AE
100
AcDbEntity
  8
WAKU0
  6
CONTINUOUS
 62
3
100
AcDbLine
 10
338.1440728183262
 20
-0.8276759151056297
 30
0.0000000000000000
 11
416.1440728183262
 21
-0.8276759151056297
 31
0.0000000000000000
  0
LINE
  5
3AF
100
AcDbEntity
  8
WAKU0
  6
CONTINUOUS
 62
3
100
AcDbLine
 10
246.1440728183262
 20
-7.827675915105630
 30
0.0000000000000000
 11
318.1440728183262
 21
-7.827675915105630
 31
0.0000000000000000
  0
LINE
  5
3B0
100
AcDbEntity
  8
WAKU0
  6
CONTINUOUS
 62
3
100
AcDbLine
 10
246.1440728183262
 20
-21.82767591510563
 30
0.0000000000000000
 11
318.1440728183262
 21
-21.82767591510563
 31
0.0000000000000000
  0
LINE
  5
3B1
100
AcDbEntity
  8
WAKU0
  6
CONTINUOUS
 62
3
100
AcDbLine
 10
294.1440728183262
 20
-7.827675915105630
 30
0.0000000000000000
 11
294.1440728183262
 21
-32.82767591510563
 31
0.0000000000000000
  0
LINE
  5
3B2
100
AcDbEntity
  8
WAKU0
  6
CONTINUOUS
 62
3
100
AcDbLine
 10
270.1440728183262
 20
-7.827675915105630
 30
0.0000000000000000
 11
270.1440728183262
 21
-21.82767591510563
 31
0.0000000000000000
  0
LINE
  5
3B3
100
AcDbEntity
  8
WAKU0
  6
CONTINUOUS
 62
3
100
AcDbLine
 10
306.1440728183262
 20
-18.82767591510563
 30
0.0000000000000000
 11
306.1440728183262
 21
-21.82767591510563
 31
0.0000000000000000
  0
LINE
  5
3B4
100
AcDbEntity
  8
WAKU0
  6
CONTINUOUS
 62
3
100
AcDbLine
 10
282.1440728183262
 20
-18.82767591510563
 30
0.0000000000000000
 11
282.1440728183262
 21
-21.82767591510563
 31
0.0000000000000000
  0
LINE
  5
3B5
100
AcDbEntity
  8
WAKU0
  6
CONTINUOUS
 62
3
100
AcDbLine
 10
258.1440728183262
 20
-18.82767591510563
 30
0.0000000000000000
 11
258.1440728183262
 21
-21.82767591510563
 31
0.0000000000000000
  0
LINE
  5
3B6
100
AcDbEntity
  8
WAKU0
  6
CONTINUOUS
 62
3
100
AcDbLine
 10
264.1440728183262
 20
6.172324084894370
 30
0.0000000000000000
 11
264.1440728183262
 21
-7.827675915105630
 31
0.0000000000000000
  0
LINE
  5
3B7
100
AcDbEntity
  8
WAKU0
  6
CONTINUOUS
 62
3
100
AcDbLine
 10
246.1440728183262
 20
0.1723240848943703
 30
0.0000000000000000
 11
318.1440728183262
 21
0.1723240848943703
 31
0.0000000000000000
  0
LINE
  5
3B8
100
AcDbEntity
  8
WAKU0
  6
HIDDEN
 62
3
100
AcDbLine
 10
366.6440728183262
 20
-21.82767591510563
 30
0.0000000000000000
 11
366.6440728183262
 21
-32.82767591510563
 31
0.0000000000000000
  0
LINE
  5
3B9
100
AcDbEntity
  8
WAKU0
  6
HIDDEN
 62
3
100
AcDbLine
 10
379.0440728183261
 20
-21.82767591510563
 30
0.0000000000000000
 11
379.0440728183261
 21
-32.82767591510563
 31
0.0000000000000000
  0
MTEXT
  5
3BA
100
AcDbEntity
  8
WAKU0
  6
CONTINUOUS
 62
3
100
AcDbMText
 10
350.6260728426747
 20
4.222324037210655
 30
0.0000000000000000
 40
3.099999904632568
 41
0.0000000000000000
 71
     1
 72
     1
  1
{\H0.93x;{JN07T102}}
 11
1.000000000000000
 21
0.0000000000000000
 31
0.0000000000000000
  7
STANDARD
  0
MTEXT
  5
3BB
100
AcDbEntity
  8
WAKU0
  6
CONTINUOUS
 62
3
100
AcDbMText
 10
350.7640728084914
 20
-2.327675915105630
 30
0.0000000000000000
 40
4.000000000000000
 41
0.0000000000000000
 71
     1
 72
     1
  1
{\H0.94x;{スクロールチャック　７}}
 11
1.000000000000000
 21
0.0000000000000000
 31
0.0000000000000000
  7
KNJYOKO
  0
MTEXT
  5
3BC
100
AcDbEntity
  8
WAKU0
  6
CONTINUOUS
 62
3
100
AcDbMText
 10
350.6260728426747
 20
-10.59434264535059
 30
0.0000000000000000
 40
3.099999904632568
 41
0.0000000000000000
 71
     1
 72
     1
  1
{\H0.94x;{ＪＮ０７Ｔ１０２　ガイケイ\P　　　　　ＯＵＴＳＩＤＥ　ＶＩＥＷ}}
 11
1.000000000000000
 21
0.0000000000000000
 31
0.0000000000000000
  7
KNJYOKO
  0
MTEXT
  5
3BD
100
AcDbEntity
  8
WAKU0
  6
CONTINUOUS
 62
3
100
AcDbMText
 10
324.1490726943485
 20
-5.527675962789346
 30
0.0000000000000000
 40
3.099999904632568
 41
0.0000000000000000
 71
     1
 72
     1
  1
{\H0.90x;{2:3}}
 11
1.000000000000000
 21
0.0000000000000000
 31
0.0000000000000000
  7
STANDARD
  0
MTEXT
  5
3BE
100
AcDbEntity
  8
WAKU0
  6
CONTINUOUS
 62
3
100
AcDbMText
 10
380.5440729732982
 20
-24.67767581973820
 30
0.0000000000000000
 40
5.300000190734863
 41
0.0000000000000000
 71
     1
 72
     1
  1
{\H0.90x;{1398}}
 11
1.000000000000000
 21
0.0000000000000000
 31
0.0000000000000000
  7
STANDARD
  0
MTEXT
  5
3BF
100
AcDbEntity
  8
WAKU0
  6
CONTINUOUS
 62
3
100
AcDbMText
 10
368.4440729017726
 20
-24.67767581973820
 30
0.0000000000000000
 40
5.300000190734863
 41
0.0000000000000000
 71
     1
 72
     1
  1
{\H0.87x;{35}}
 11
1.000000000000000
 21
0.0000000000000000
 31
0.0000000000000000
  7
STANDARD
  0
MTEXT
  5
3C0
100
AcDbEntity
  8
WAKU0
  6
CONTINUOUS
 62
3
100
AcDbMText
 10
351.6440729375354
 20
-24.67767581973820
 30
0.0000000000000000
 40
5.300000190734863
 41
0.0000000000000000
 71
     1
 72
     1
  1
{\H0.89x;{61S}}
 11
1.000000000000000
 21
0.0000000000000000
 31
0.0000000000000000
  7
STANDARD
  0
MTEXT
  5
3C1
100
AcDbEntity
  8
WAKU0
  6
CONTINUOUS
 62
3
100
AcDbMText
 10
406.1440728660099
 20
-24.67767581973820
 30
0.0000000000000000
 40
5.300000190734863
 41
0.0000000000000000
 71
     1
 72
     1
  1
{\H0.81x;{3}}
 11
1.000000000000000
 21
0.0000000000000000
 31
0.0000000000000000
  7
STANDARD
  0
MTEXT
  5
3C2
100
AcDbEntity
  8
WAKU0
  6
CONTINUOUS
 62
3
100
AcDbMText
 10
295.5290731068126
 20
-11.82767591510563
 30
0.0000000000000000
 40
3.000000000000000
 41
0.0000000000000000
 71
     7
 72
     1
  1
{\H0.93x;{DRAWN BY}}
 11
1.000000000000000
 21
0.0000000000000000
 31
0.0000000000000000
  7
STANDARD
  0
MTEXT
  5
3C3
100
AcDbEntity
  8
WAKU0
  6
CONTINUOUS
 62
3
100
AcDbMText
 10
275.3590726132862
 20
-11.87767586742191
 30
0.0000000000000000
 40
3.099999904632568
 41
0.0000000000000000
 71
     7
 72
     1
  1
{\H0.92x;{CHIEF}}
 11
1.000000000000000
 21
0.0000000000000000
 31
0.0000000000000000
  7
STANDARD
  0
MTEXT
  5
3C4
100
AcDbEntity
  8
WAKU0
  6
CONTINUOUS
 62
3
100
AcDbMText
 10
248.5690725322239
 20
-11.87767586742191
 30
0.0000000000000000
 40
3.099999904632568
 41
0.0000000000000000
 71
     7
 72
     1
  1
{\H0.92x;{MANAGER}}
 11
1.000000000000000
 21
0.0000000000000000
 31
0.0000000000000000
  7
STANDARD
  0
MTEXT
  5
3C5
100
AcDbEntity
  8
WAKU0
  6
CONTINUOUS
 62
3
100
AcDbMText
 10
250.8040722485058
 20
-26.69434254998315
 30
0.0000000000000000
 40
3.099999904632568
 41
0.0000000000000000
 71
     7
 72
     1
  1
{\H0.93x;{KITAGAWA IRON\PWORKS CO.,LTD.}}
 11
1.000000000000000
 21
0.0000000000000000
 31
0.0000000000000000
  7
STANDARD
  0
MTEXT
  5
3C6
100
AcDbEntity
  8
WAKU0
  6
CONTINUOUS
 62
3
100
AcDbMText
 10
247.2290730352871
 20
1.672324084894370
 30
0.0000000000000000
 40
3.000000000000000
 41
0.0000000000000000
 71
     7
 72
     1
  1
{\H0.92x;{CAREER}}
 11
1.000000000000000
 21
0.0000000000000000
 31
0.0000000000000000
  7
STANDARD
  0
MTEXT
  5
3C7
100
AcDbEntity
  8
WAKU0
  6
CONTINUOUS
 62
3
100
AcDbMText
 10
300.7540726538173
 20
-25.87767586742191
 30
0.0000000000000000
 40
3.099999904632568
 41
0.0000000000000000
 71
     7
 72
     1
  1
{\H0.91x;{DATE}}
 11
1.000000000000000
 21
0.0000000000000000
 31
0.0000000000000000
  7
STANDARD
  0
MTEXT
  5
3C8
100
AcDbEntity
  8
WAKU0
  6
CONTINUOUS
 62
3
100
AcDbMText
 10
320.0440730329029
 20
-18.32767591510563
 30
0.0000000000000000
 40
3.000000000000000
 41
0.0000000000000000
 71
     7
 72
     1
  1
{\H0.63x;{3RD ANGLE}}
 11
1.000000000000000
 21
0.0000000000000000
 31
0.0000000000000000
  7
STANDARD
  0
MTEXT
  5
3C9
100
AcDbEntity
  8
WAKU0
  6
CONTINUOUS
 62
3
100
AcDbMText
 10
321.3590726132862
 20
1.122324132578086
 30
0.0000000000000000
 40
3.099999904632568
 41
0.0000000000000000
 71
     7
 72
     1
  1
{\H0.92x;{SCALE}}
 11
1.000000000000000
 21
0.0000000000000000
 31
0.0000000000000000
  7
STANDARD
  0
MTEXT
  5
3CA
100
AcDbEntity
  8
WAKU0
  6
CONTINUOUS
 62
3
100
AcDbMText
 10
411.8440728660099
 20
1.172324084894370
 30
0.0000000000000000
 40
3.000000000000000
 41
0.0000000000000000
 71
     7
 72
     1
  1
{\H0.63x;{kg}}
 11
1.000000000000000
 21
0.0000000000000000
 31
0.0000000000000000
  7
STANDARD
  0
MTEXT
  5
3CB
100
AcDbEntity
  8
WAKU0
  6
CONTINUOUS
 62
3
100
AcDbMText
 10
381.7440729613773
 20
1.172324084894370
 30
0.0000000000000000
 40
3.000000000000000
 41
0.0000000000000000
 71
     7
 72
     1
  1
{\H0.63x;{WEIGHT}}
 11
1.000000000000000
 21
0.0000000000000000
 31
0.0000000000000000
  7
STANDARD
  0
MTEXT
  5
3CC
100
AcDbEntity
  8
WAKU0
  6
CONTINUOUS
 62
3
100
AcDbMText
 10
340.1490726943485
 20
-26.69434254998315
 30
0.0000000000000000
 40
3.099999904632568
 41
0.0000000000000000
 71
     7
 72
     1
  1
{\H0.90x;{DRW\PNO.}}
 11
1.000000000000000
 21
0.0000000000000000
 31
0.0000000000000000
  7
STANDARD
  0
MTEXT
  5
3CD
100
AcDbEntity
  8
WAKU0
  6
CONTINUOUS
 62
3
100
AcDbMText
 10
338.7540726538173
 20
-12.87767586742191
 30
0.0000000000000000
 40
3.099999904632568
 41
0.0000000000000000
 71
     7
 72
     1
  1
{\H0.91x;{NAME}}
 11
1.000000000000000
 21
0.0000000000000000
 31
0.0000000000000000
  7
STANDARD
  0
MTEXT
  5
3CE
100
AcDbEntity
  8
WAKU0
  6
CONTINUOUS
 62
3
100
AcDbMText
 10
338.7540726538173
 20
1.122324132578086
 30
0.0000000000000000
 40
3.099999904632568
 41
0.0000000000000000
 71
     7
 72
     1
  1
{\H0.91x;{TYPE}}
 11
1.000000000000000
 21
0.0000000000000000
 31
0.0000000000000000
  7
STANDARD
  0
LINE
  5
3CF
100
AcDbEntity
  8
WAKU0
  6
HIDDEN
 62
3
100
AcDbLine
 10
413.3040292927146
 20
-30.97767601047306
 30
0.0000000000000000
 11
403.0841164393051
 21
-30.97767601047306
 31
0.0000000000000000
  0
LINE
  5
3D0
100
AcDbEntity
  8
WAKU0
  6
HIDDEN
 62
3
100
AcDbLine
 10
413.3040292927146
 20
-30.97767601047313
 30
0.0000000000000000
 11
408.1940728660113
 21
-22.12697185495662
 31
0.0000000000000000
  0
LINE
  5
3D1
100
AcDbEntity
  8
WAKU0
  6
HIDDEN
 62
3
100
AcDbLine
 10
408.1940728660113
 20
-22.12697185495662
 30
0.0000000000000000
 11
403.0841164393050
 21
-30.97767601047315
 31
0.0000000000000000
  0
LINE
  5
3D2
100
AcDbEntity
  8
WAKU0
  6
CONTINUOUS
 62
3
100
AcDbLine
 10
336.6154605937061
 20
-29.04726170247751
 30
0.0000000000000000
 11
336.6154605937061
 21
-23.04726170247749
 31
0.0000000000000000
  0
LINE
  5
3D3
100
AcDbEntity
  8
WAKU0
  6
CONTINUOUS
 62
3
100
AcDbLine
 10
330.0777669411486
 20
-27.54726170247752
 30
0.0000000000000000
 11
330.0777669411486
 21
-24.54726170247739
 31
0.0000000000000000
  0
LINE
  5
3D4
100
AcDbEntity
  8
WAKU0
  6
CENTER
 62
12
100
AcDbLine
 10
319.5762533698257
 20
-26.04726170247750
 30
0.0000000000000000
 11
337.4206517147956
 21
-26.04726170247750
 31
0.0000000000000000
  0
LINE
  5
3D5
100
AcDbEntity
  8
WAKU0
  6
CENTER
 62
12
100
AcDbLine
 10
323.5915294041247
 20
-30.26845928592115
 30
0.0000000000000000
 11
323.5915294041247
 21
-21.92902489360620
 31
0.0000000000000000
  0
LINE
  5
3D6
100
AcDbEntity
  8
WAKU0
  6
CONTINUOUS
 62
3
100
AcDbLine
 10
330.0777669411487
 20
-24.54726170247766
 30
0.0000000000000000
 11
336.6154605937062
 21
-23.04726170247768
 31
0.0000000000000000
  0
LINE
  5
3D7
100
AcDbEntity
  8
WAKU0
  6
CONTINUOUS
 62
3
100
AcDbLine
 10
330.0777669411486
 20
-27.54726170247752
 30
0.0000000000000000
 11
336.6154605937061
 21
-29.04726170247751
 31
0.0000000000000000
  0
CIRCLE
  5
3D8
100
AcDbEntity
  8
WAKU0
  6
CONTINUOUS
 62
3
100
AcDbCircle
 10
323.5915294041247
 20
-26.04726170247750
 30
0.0000000000000000
 40
1.499999999999972
  0
CIRCLE
  5
3D9
100
AcDbEntity
  8
WAKU0
  6
CONTINUOUS
 62
3
100
AcDbCircle
 10
323.5915294041247
 20
-26.04726170247750
 30
0.0000000000000000
 40
2.999999999999979
  0
ENDSEC
  0
SECTION
  2
OBJECTS
  0
DICTIONARY
  5
422
100
AcDbDictionary
  3
ACAD_GROUP
350
423
  3
ACAD_MLINESTYLE
350
424
  3
DWGPROPS
350
425
  0
DICTIONARY
  5
423
102
{ACAD_REACTORS
330
422
102
}
100
AcDbDictionary
  0
DICTIONARY
  5
424
102
{ACAD_REACTORS
330
422
102
}
100
AcDbDictionary
  3
STANDARD
350
426
  0
MLINESTYLE
  5
426
102
{ACAD_REACTORS
330
424
102
}
100
AcDbMlineStyle
  2
STANDARD
 70
     0
  3

 62
   256
 51
90.00
 52
90.00
 71
     2
 49
0.50
 62
   256
  6
BYLAYER
 49
-0.50
 62
   256
  6
BYLAYER
  0
XRECORD
  5
425
102
{ACAD_REACTORS
330
422
102
}
100
AcDbXrecord
280
     1
  1
DWGPROPS COOKIE
  2
ＪＮ０７Ｔ１０２　ガイケイ
  3

  4

  6
スクロールチャック　７
  7

  8

  9

300
=
301
=
302
=
303
=
304
=
305
=
306
=
307
=
308
=
309
=
 40
0.000000
 41
0.000000
 42
0.000000
  1

 90
        0
  0
ENDSEC
  0
EOF
