  0
SECTION
  2
HEADER
  9
$ACADVER
  1
AC1014
  9
$DWGCODEPAGE
  3
ANSI_932
  9
$LTSCALE
 40
20.0
  9
$FILLMODE
 70
     1
  9
$CLAYER
  8
0
  9
$PDMODE
 70
     0
  9
$SPLFRAME
 70
     0
  9
$SPLINETYPE
 70
     6
  9
$SPLINESEGS
 70
     8
  9
$DIMASZ
 40
2.000000
  9
$DIMEXE
 40
2.000000
  9
$DIMEXO
 40
0.800000
  9
$DIMTAD
 70
     1
  9
$DIMTIH
 70
     0
  9
$DIMTOH
 70
     0
  9
$DIMTVP
 40
0.500000
  9
$DIMTXT
 40
3.100000
  9
$EXTMIN
 10
0.000000
 20
0.000000
 30
0.000000
  9
$EXTMAX
 10
297.000000
 20
420.000000
 30
0.000000
  9
$MEASUREMENT
 70
  1
  9
$LIMMIN
 10
0.000000
 20
0.000000
  9
$LIMMAX
 10
297.000000
 20
420.000000
  9
$HANDLING
 70
     1
  9
$HANDSEED
  5
3AD
  9
$DIMBLK
  1
_OPEN
  9
$DIMDEC
 70
     3
  9
$DIMAUNIT
 70
     1
  9
$DIMZIN
 70
     8
  9
$DIMTOFL
 70
     1
  0
ENDSEC
  0
SECTION
  2
CLASSES
  0
ENDSEC
  0
SECTION
  2
TABLES
  0
TABLE
  2
VPORT
  5
35B
100
AcDbSymbolTable
 70
     1
  0
VPORT
  5
35C
100
AcDbSymbolTableRecord
100
AcDbViewportTableRecord
  2
*ACTIVE
 70
     0
 12
307.571482
 22
201.613187
 40
458.094545
 41
1.342830
  0
ENDTAB
  0
TABLE
  2
LTYPE
  5
35D
100
AcDbSymbolTable
 70
     4
  0
LTYPE
  5
35E
100
AcDbSymbolTableRecord
100
AcDbLinetypeTableRecord
  2
BYBLOCK
 70
     0
  3

 72
    65
 73
     0
 40
0.0
  0
LTYPE
  5
35F
100
AcDbSymbolTableRecord
100
AcDbLinetypeTableRecord
  2
BYLAYER
 70
     0
  3

 72
    65
 73
     0
 40
0.0
  0
LTYPE
  5
360
100
AcDbSymbolTableRecord
100
AcDbLinetypeTableRecord
  2
CONTINUOUS
 70
     0
  3
Solid line (NEC CAE2D for Win R12.1 : 2019.02.25)
 72
    65
 73
     0
 40
0.0
  0
LTYPE
  5
361
100
AcDbSymbolTableRecord
100
AcDbLinetypeTableRecord
  2
HIDDEN
 70
     0
  3
__ __ __ __ __ __ __ __ __ __ __ __ __ __
 72
    65
 73
     2
 40
0.375
 49
0.25
 74
     0
 49
-0.125
 74
     0
  0
LTYPE
  5
362
100
AcDbSymbolTableRecord
100
AcDbLinetypeTableRecord
  2
CENTER
 70
     0
  3
____ _ ____ _ ____ _ ____ _ ____ _ ____
 72
    65
 73
     4
 40
2.0
 49
1.25
 74
     0
 49
-0.25
 74
     0
 49
0.25
 74
     0
 49
-0.25
 74
     0
  0
LTYPE
  5
363
100
AcDbSymbolTableRecord
100
AcDbLinetypeTableRecord
  2
PHANTOM
 70
     0
  3
______  __  __  ______  __  __  ______ 
 72
    65
 73
     6
 40
2.5
 49
1.25
 74
     0
 49
-0.25
 74
     0
 49
0.25
 74
     0
 49
-0.25
 74
     0
 49
0.25
 74
     0
 49
-0.25
 74
     0
  0
ENDTAB
  0
TABLE
  2
LAYER
  5
364
100
AcDbSymbolTable
 70
    16
  0
LAYER
  5
365
100
AcDbSymbolTableRecord
100
AcDbLayerTableRecord
  2
0
 70
     0
 62
     7
  6
CONTINUOUS
  0
LAYER
  5
366
100
AcDbSymbolTableRecord
100
AcDbLayerTableRecord
  2
MAIN0
 70
     0
 62
     7
  6
CONTINUOUS
  0
LAYER
  5
367
100
AcDbSymbolTableRecord
100
AcDbLayerTableRecord
  2
MAIN1
 70
     0
 62
     7
  6
CONTINUOUS
  0
LAYER
  5
368
100
AcDbSymbolTableRecord
100
AcDbLayerTableRecord
  2
MAIN2
 70
     0
 62
     7
  6
CONTINUOUS
  0
LAYER
  5
369
100
AcDbSymbolTableRecord
100
AcDbLayerTableRecord
  2
MAIN3
 70
     0
 62
     7
  6
CONTINUOUS
  0
LAYER
  5
36A
100
AcDbSymbolTableRecord
100
AcDbLayerTableRecord
  2
MAIN4
 70
     0
 62
     7
  6
CONTINUOUS
  0
LAYER
  5
36B
100
AcDbSymbolTableRecord
100
AcDbLayerTableRecord
  2
MAIN5
 70
     0
 62
     7
  6
CONTINUOUS
  0
LAYER
  5
36C
100
AcDbSymbolTableRecord
100
AcDbLayerTableRecord
  2
MAIN7
 70
     0
 62
     7
  6
CONTINUOUS
  0
LAYER
  5
36D
100
AcDbSymbolTableRecord
100
AcDbLayerTableRecord
  2
MAIN1023
 70
     0
 62
    16
  6
CONTINUOUS
  0
LAYER
  5
36E
100
AcDbSymbolTableRecord
100
AcDbLayerTableRecord
  2
B0
 70
     0
 62
     7
  6
CONTINUOUS
  0
LAYER
  5
36F
100
AcDbSymbolTableRecord
100
AcDbLayerTableRecord
  2
B1
 70
     0
 62
     7
  6
CONTINUOUS
  0
LAYER
  5
370
100
AcDbSymbolTableRecord
100
AcDbLayerTableRecord
  2
B1023
 70
     0
 62
    16
  6
CONTINUOUS
  0
LAYER
  5
371
100
AcDbSymbolTableRecord
100
AcDbLayerTableRecord
  2
A0
 70
     0
 62
     7
  6
CONTINUOUS
  0
LAYER
  5
372
100
AcDbSymbolTableRecord
100
AcDbLayerTableRecord
  2
A1023
 70
     0
 62
    16
  6
CONTINUOUS
  0
LAYER
  5
373
100
AcDbSymbolTableRecord
100
AcDbLayerTableRecord
  2
WAKU0
 70
     0
 62
     7
  6
CONTINUOUS
  0
LAYER
  5
374
100
AcDbSymbolTableRecord
100
AcDbLayerTableRecord
  2
WAKU1023
 70
     0
 62
    16
  6
CONTINUOUS
  0
ENDTAB
  0
TABLE
  2
STYLE
  5
375
100
AcDbSymbolTable
 70
     4
  0
STYLE
  5
376
100
AcDbSymbolTableRecord
100
AcDbTextStyleTableRecord
  2
STANDARD
 70
    64
 40
0.0
 41
1.0
 50
0.0
 71
     0
 42
3.140094041824341
  3
TXT
  4

  0
STYLE
  5
377
100
AcDbSymbolTableRecord
100
AcDbTextStyleTableRecord
  2
ANKTATE
 70
    68
 40
0.0
 41
1.0
 50
0.0
 71
     0
 42
3.140094041824341
  3
TXT
  4

  0
STYLE
  5
7B
100
AcDbSymbolTableRecord
100
AcDbTextStyleTableRecord
  2
KNJYOKO
 70
    64
 40
0.0
 41
1.0
 50
0.0
 71
     0
 42
3.140094041824341
  3
TXT
  4
BIGFONT
  0
STYLE
  5
378
100
AcDbSymbolTableRecord
100
AcDbTextStyleTableRecord
  2
KNJTATE
 70
    68
 40
0.0
 41
1.0
 50
0.0
 71
     0
 42
3.140094041824341
  3
TXT
  4
BIGFONT
  0
ENDTAB
  0
TABLE
  2
VIEW
  5
379
100
AcDbSymbolTable
 70
     0
  0
ENDTAB
  0
TABLE
  2
UCS
  5
37A
100
AcDbSymbolTable
 70
     0
  0
ENDTAB
  0
TABLE
  2
APPID
  5
37B
100
AcDbSymbolTable
 70
     1
  0
APPID
  5
37C
100
AcDbSymbolTableRecord
100
AcDbRegAppTableRecord
  2
ACAD
 70
     0
  0
ENDTAB
  0
TABLE
  2
DIMSTYLE
  5
37D
100
AcDbSymbolTable
 70
     1
  0
DIMSTYLE
105
37E
100
AcDbSymbolTableRecord
100
AcDbDimStyleTableRecord
  2
STANDARD
 70
     0
 41
2.000000
 44
2.000000
 42
0.800000
145
0.661290
140
3.100000
144
1.000000
146
0.903226
340
376
  0
DIMSTYLE
105
37F
100
AcDbSymbolTableRecord
100
AcDbDimStyleTableRecord
  2
MAIN001
 70
     0
 41
3.000000
 44
3.000000
 42
1.200000
145
0.607527
140
4.650000
144
1.000000
146
0.903226
 77
     1
 73
     0
 74
     0
271
     3
275
     1
 78
     8
172
     1
340
376
  0
DIMSTYLE
105
380
100
AcDbSymbolTableRecord
100
AcDbDimStyleTableRecord
  2
B002
 70
     0
 41
3.000000
 44
3.000000
 42
1.200000
145
0.607527
140
4.650000
144
1.000000
146
0.903226
 77
     1
 73
     0
 74
     0
271
     3
275
     1
 78
     8
172
     1
340
376
  0
DIMSTYLE
105
381
100
AcDbSymbolTableRecord
100
AcDbDimStyleTableRecord
  2
A003
 70
     0
 41
3.000000
 44
3.000000
 42
1.200000
145
0.607527
140
4.650000
144
1.000000
146
0.903226
 77
     1
 73
     0
 74
     0
271
     3
275
     1
 78
     8
172
     1
340
376
  0
DIMSTYLE
105
382
100
AcDbSymbolTableRecord
100
AcDbDimStyleTableRecord
  2
WAKU004
 70
     0
 41
2.000000
 44
2.000000
 42
0.800000
145
0.661290
140
3.100000
144
1.000000
146
0.903226
 77
     1
 73
     0
 74
     0
271
     3
275
     1
 78
     8
172
     1
340
376
  0
ENDTAB
  0
TABLE
  2
BLOCK_RECORD
  5
383
100
AcDbSymbolTable
 70
    42
  0
BLOCK_RECORD
  5
384
100
AcDbSymbolTableRecord
100
AcDbBlockTableRecord
  2
*MODEL_SPACE
  0
BLOCK_RECORD
  5
385
100
AcDbSymbolTableRecord
100
AcDbBlockTableRecord
  2
*PAPER_SPACE
  0
BLOCK_RECORD
  5
1
100
AcDbSymbolTableRecord
100
AcDbBlockTableRecord
  2
_NONE
  0
BLOCK_RECORD
  5
4
100
AcDbSymbolTableRecord
100
AcDbBlockTableRecord
  2
_CLOSED
  0
BLOCK_RECORD
  5
B
100
AcDbSymbolTableRecord
100
AcDbBlockTableRecord
  2
_DOT
  0
BLOCK_RECORD
  5
13
100
AcDbSymbolTableRecord
100
AcDbBlockTableRecord
  2
_OPEN
  0
BLOCK_RECORD
  5
19
100
AcDbSymbolTableRecord
100
AcDbBlockTableRecord
  2
_ORIGIN
  0
BLOCK_RECORD
  5
1E
100
AcDbSymbolTableRecord
100
AcDbBlockTableRecord
  2
_OPEN30
  0
BLOCK_RECORD
  5
24
100
AcDbSymbolTableRecord
100
AcDbBlockTableRecord
  2
_BOXFILLED
  0
BLOCK_RECORD
  5
29
100
AcDbSymbolTableRecord
100
AcDbBlockTableRecord
  2
_BOXBLANK
  0
BLOCK_RECORD
  5
31
100
AcDbSymbolTableRecord
100
AcDbBlockTableRecord
  2
_OBLIQUE
  0
BLOCK_RECORD
  5
35
100
AcDbSymbolTableRecord
100
AcDbBlockTableRecord
  2
_OPEN90
  0
BLOCK_RECORD
  5
3B
100
AcDbSymbolTableRecord
100
AcDbBlockTableRecord
  2
_CLOSEDBLANK
  0
BLOCK_RECORD
  5
41
100
AcDbSymbolTableRecord
100
AcDbBlockTableRecord
  2
_DOTBLANK
  0
BLOCK_RECORD
  5
386
100
AcDbSymbolTableRecord
100
AcDbBlockTableRecord
  2
*D0
  0
BLOCK_RECORD
  5
387
100
AcDbSymbolTableRecord
100
AcDbBlockTableRecord
  2
*D1
  0
BLOCK_RECORD
  5
388
100
AcDbSymbolTableRecord
100
AcDbBlockTableRecord
  2
*D2
  0
BLOCK_RECORD
  5
389
100
AcDbSymbolTableRecord
100
AcDbBlockTableRecord
  2
*D3
  0
BLOCK_RECORD
  5
38A
100
AcDbSymbolTableRecord
100
AcDbBlockTableRecord
  2
*D4
  0
BLOCK_RECORD
  5
38B
100
AcDbSymbolTableRecord
100
AcDbBlockTableRecord
  2
*D5
  0
BLOCK_RECORD
  5
38C
100
AcDbSymbolTableRecord
100
AcDbBlockTableRecord
  2
*D6
  0
BLOCK_RECORD
  5
38D
100
AcDbSymbolTableRecord
100
AcDbBlockTableRecord
  2
*D7
  0
BLOCK_RECORD
  5
38E
100
AcDbSymbolTableRecord
100
AcDbBlockTableRecord
  2
*D8
  0
BLOCK_RECORD
  5
38F
100
AcDbSymbolTableRecord
100
AcDbBlockTableRecord
  2
*D9
  0
BLOCK_RECORD
  5
390
100
AcDbSymbolTableRecord
100
AcDbBlockTableRecord
  2
*D10
  0
BLOCK_RECORD
  5
391
100
AcDbSymbolTableRecord
100
AcDbBlockTableRecord
  2
*D11
  0
BLOCK_RECORD
  5
392
100
AcDbSymbolTableRecord
100
AcDbBlockTableRecord
  2
*D12
  0
BLOCK_RECORD
  5
393
100
AcDbSymbolTableRecord
100
AcDbBlockTableRecord
  2
*D13
  0
BLOCK_RECORD
  5
394
100
AcDbSymbolTableRecord
100
AcDbBlockTableRecord
  2
*D14
  0
BLOCK_RECORD
  5
395
100
AcDbSymbolTableRecord
100
AcDbBlockTableRecord
  2
*D15
  0
BLOCK_RECORD
  5
396
100
AcDbSymbolTableRecord
100
AcDbBlockTableRecord
  2
*D16
  0
BLOCK_RECORD
  5
397
100
AcDbSymbolTableRecord
100
AcDbBlockTableRecord
  2
*D17
  0
BLOCK_RECORD
  5
398
100
AcDbSymbolTableRecord
100
AcDbBlockTableRecord
  2
*D18
  0
BLOCK_RECORD
  5
399
100
AcDbSymbolTableRecord
100
AcDbBlockTableRecord
  2
*D19
  0
BLOCK_RECORD
  5
39A
100
AcDbSymbolTableRecord
100
AcDbBlockTableRecord
  2
*D20
  0
BLOCK_RECORD
  5
39B
100
AcDbSymbolTableRecord
100
AcDbBlockTableRecord
  2
*D21
  0
BLOCK_RECORD
  5
39C
100
AcDbSymbolTableRecord
100
AcDbBlockTableRecord
  2
*D22
  0
BLOCK_RECORD
  5
39D
100
AcDbSymbolTableRecord
100
AcDbBlockTableRecord
  2
*D23
  0
BLOCK_RECORD
  5
39E
100
AcDbSymbolTableRecord
100
AcDbBlockTableRecord
  2
*D24
  0
BLOCK_RECORD
  5
39F
100
AcDbSymbolTableRecord
100
AcDbBlockTableRecord
  2
*D25
  0
BLOCK_RECORD
  5
3A0
100
AcDbSymbolTableRecord
100
AcDbBlockTableRecord
  2
*D26
  0
BLOCK_RECORD
  5
3A1
100
AcDbSymbolTableRecord
100
AcDbBlockTableRecord
  2
*D27
  0
BLOCK_RECORD
  5
3A2
100
AcDbSymbolTableRecord
100
AcDbBlockTableRecord
  2
*D28
  0
BLOCK_RECORD
  5
3A3
100
AcDbSymbolTableRecord
100
AcDbBlockTableRecord
  2
*D29
  0
ENDTAB
  0
ENDSEC
  0
SECTION
  2
BLOCKS
  0
BLOCK
  5
3A4
100
AcDbEntity
  8
0
100
AcDbBlockBegin
  2
*MODEL_SPACE
 70
     0
 10
0.0
 20
0.0
 30
0.0
  3
*MODEL_SPACE
  1

  0
ENDBLK
  5
3A5
100
AcDbEntity
  8
0
100
AcDbBlockEnd
  0
BLOCK
  5
3A6
100
AcDbEntity
  8
0
100
AcDbBlockBegin
  2
*PAPER_SPACE
 70
     0
 10
0.0
 20
0.0
 30
0.0
  3
*PAPER_SPACE
  1

  0
ENDBLK
  5
3A7
100
AcDbEntity
  8
0
100
AcDbBlockEnd
  0
BLOCK
  5
2
100
AcDbEntity
  8
0
100
AcDbBlockBegin
  2
_NONE
 70
     0
 10
0.0
 20
0.0
 30
0.0
  3
_NONE
  1

  0
ENDBLK
  5
3
100
AcDbEntity
  8
0
100
AcDbBlockEnd
  0
BLOCK
  5
5
100
AcDbEntity
  8
0
100
AcDbBlockBegin
  2
_CLOSED
 70
     0
 10
0.0
 20
0.0
 30
0.0
  3
_CLOSED
  1

  0
LINE
  5
6
100
AcDbEntity
  8
0
  6
BYBLOCK
 62
     0
100
AcDbLine
 10
-1.0
 20
0.166667
 30
0.0
 11
0.0
 21
0.0
 31
0.0
  0
LINE
  5
7
100
AcDbEntity
  8
0
  6
BYBLOCK
 62
     0
100
AcDbLine
 10
0.0
 20
0.0
 30
0.0
 11
-1.0
 21
-0.166667
 31
0.0
  0
LINE
  5
8
100
AcDbEntity
  8
0
  6
BYBLOCK
 62
     0
100
AcDbLine
 10
-1.0
 20
0.166667
 30
0.0
 11
-1.0
 21
-0.166667
 31
0.0
  0
LINE
  5
9
100
AcDbEntity
  8
0
  6
BYBLOCK
 62
     0
100
AcDbLine
 10
0.0
 20
0.0
 30
0.0
 11
-1.0
 21
0.0
 31
0.0
  0
ENDBLK
  5
A
100
AcDbEntity
  8
0
100
AcDbBlockEnd
  0
BLOCK
  5
C
100
AcDbEntity
  8
0
100
AcDbBlockBegin
  2
_DOT
 70
     0
 10
0.0
 20
0.0
 30
0.0
  3
_DOT
  1

  0
POLYLINE
  5
D
100
AcDbEntity
  8
0
  6
BYBLOCK
 62
     0
100
AcDb2dPolyline
 66
     1
 10
0.0
 20
0.0
 30
0.0
 70
     1
 40
0.5
 41
0.5
  0
VERTEX
  5
E
100
AcDbEntity
  8
0
  6
BYBLOCK
 62
     0
100
AcDbVertex
100
AcDb2dVertex
 10
-0.25
 20
0.0
 30
0.0
 42
1.0
  0
VERTEX
  5
F
100
AcDbEntity
  8
0
  6
BYBLOCK
 62
     0
100
AcDbVertex
100
AcDb2dVertex
 10
0.25
 20
0.0
 30
0.0
 42
1.0
  0
SEQEND
  5
10
100
AcDbEntity
  8
0
  6
BYBLOCK
 62
     0
  0
LINE
  5
11
100
AcDbEntity
  8
0
  6
BYBLOCK
 62
     0
100
AcDbLine
 10
-0.5
 20
0.0
 30
0.0
 11
-1.0
 21
0.0
 31
0.0
  0
ENDBLK
  5
12
100
AcDbEntity
  8
0
100
AcDbBlockEnd
  0
BLOCK
  5
14
100
AcDbEntity
  8
0
100
AcDbBlockBegin
  2
_OPEN
 70
     0
 10
0.0
 20
0.0
 30
0.0
  3
_OPEN
  1

  0
LINE
  5
15
100
AcDbEntity
  8
0
  6
BYBLOCK
 62
     0
100
AcDbLine
 10
-1.0
 20
0.166667
 30
0.0
 11
0.0
 21
0.0
 31
0.0
  0
LINE
  5
16
100
AcDbEntity
  8
0
  6
BYBLOCK
 62
     0
100
AcDbLine
 10
0.0
 20
0.0
 30
0.0
 11
-1.0
 21
-0.166667
 31
0.0
  0
LINE
  5
17
100
AcDbEntity
  8
0
  6
BYBLOCK
 62
     0
100
AcDbLine
 10
0.0
 20
0.0
 30
0.0
 11
-1.0
 21
0.0
 31
0.0
  0
ENDBLK
  5
18
100
AcDbEntity
  8
0
100
AcDbBlockEnd
  0
BLOCK
  5
1A
100
AcDbEntity
  8
0
100
AcDbBlockBegin
  2
_ORIGIN
 70
     0
 10
0.0
 20
0.0
 30
0.0
  3
_ORIGIN
  1

  0
CIRCLE
  5
1B
100
AcDbEntity
  8
0
  6
BYBLOCK
 62
     0
100
AcDbCircle
 10
0.0
 20
0.0
 30
0.0
 40
0.5
  0
LINE
  5
1C
100
AcDbEntity
  8
0
  6
BYBLOCK
 62
     0
100
AcDbLine
 10
0.0
 20
0.0
 30
0.0
 11
-1.0
 21
0.0
 31
0.0
  0
ENDBLK
  5
1D
100
AcDbEntity
  8
0
100
AcDbBlockEnd
  0
BLOCK
  5
1F
100
AcDbEntity
  8
0
100
AcDbBlockBegin
  2
_OPEN30
 70
     0
 10
0.0
 20
0.0
 30
0.0
  3
_OPEN30
  1

  0
LINE
  5
20
100
AcDbEntity
  8
0
  6
BYBLOCK
 62
     0
100
AcDbLine
 10
-1.0
 20
0.267949
 30
0.0
 11
0.0
 21
0.0
 31
0.0
  0
LINE
  5
21
100
AcDbEntity
  8
0
  6
BYBLOCK
 62
     0
100
AcDbLine
 10
0.0
 20
0.0
 30
0.0
 11
-1.0
 21
-0.267949
 31
0.0
  0
LINE
  5
22
100
AcDbEntity
  8
0
  6
BYBLOCK
 62
     0
100
AcDbLine
 10
0.0
 20
0.0
 30
0.0
 11
-1.0
 21
0.0
 31
0.0
  0
ENDBLK
  5
23
100
AcDbEntity
  8
0
100
AcDbBlockEnd
  0
BLOCK
  5
25
100
AcDbEntity
  8
0
100
AcDbBlockBegin
  2
_BOXFILLED
 70
     0
 10
0.0
 20
0.0
 30
0.0
  3
_BOXFILLED
  1

  0
SOLID
  5
26
100
AcDbEntity
  8
0
  6
BYBLOCK
 62
     0
100
AcDbTrace
 10
-0.5
 20
0.5
 30
0.0
 11
0.5
 21
0.5
 31
0.0
 12
-0.5
 22
-0.5
 32
0.0
 13
0.5
 23
-0.5
 33
0.0
  0
LINE
  5
27
100
AcDbEntity
  8
0
  6
BYBLOCK
 62
     0
100
AcDbLine
 10
-0.5
 20
0.0
 30
0.0
 11
-1.0
 21
0.0
 31
0.0
  0
ENDBLK
  5
28
100
AcDbEntity
  8
0
100
AcDbBlockEnd
  0
BLOCK
  5
2A
100
AcDbEntity
  8
0
100
AcDbBlockBegin
  2
_BOXBLANK
 70
     0
 10
0.0
 20
0.0
 30
0.0
  3
_BOXBLANK
  1

  0
LINE
  5
2B
100
AcDbEntity
  8
0
  6
BYBLOCK
 62
     0
100
AcDbLine
 10
-0.5
 20
-0.5
 30
0.0
 11
0.5
 21
-0.5
 31
0.0
  0
LINE
  5
2C
100
AcDbEntity
  8
0
  6
BYBLOCK
 62
     0
100
AcDbLine
 10
0.5
 20
-0.5
 30
0.0
 11
0.5
 21
0.5
 31
0.0
  0
LINE
  5
2D
100
AcDbEntity
  8
0
  6
BYBLOCK
 62
     0
100
AcDbLine
 10
0.5
 20
0.5
 30
0.0
 11
-0.5
 21
0.5
 31
0.0
  0
LINE
  5
2E
100
AcDbEntity
  8
0
  6
BYBLOCK
 62
     0
100
AcDbLine
 10
-0.5
 20
0.5
 30
0.0
 11
-0.5
 21
-0.5
 31
0.0
  0
LINE
  5
2F
100
AcDbEntity
  8
0
  6
BYBLOCK
 62
     0
100
AcDbLine
 10
-0.5
 20
0.0
 30
0.0
 11
-1.0
 21
0.0
 31
0.0
  0
ENDBLK
  5
30
100
AcDbEntity
  8
0
100
AcDbBlockEnd
  0
BLOCK
  5
32
100
AcDbEntity
  8
0
100
AcDbBlockBegin
  2
_OBLIQUE
 70
     0
 10
0.0
 20
0.0
 30
0.0
  3
_OBLIQUE
  1

  0
LINE
  5
33
100
AcDbEntity
  8
0
  6
BYBLOCK
 62
     0
100
AcDbLine
 10
-0.5
 20
-0.5
 30
0.0
 11
0.5
 21
0.5
 31
0.0
  0
ENDBLK
  5
34
100
AcDbEntity
  8
0
100
AcDbBlockEnd
  0
BLOCK
  5
36
100
AcDbEntity
  8
0
100
AcDbBlockBegin
  2
_OPEN90
 70
     0
 10
0.0
 20
0.0
 30
0.0
  3
_OPEN90
  1

  0
LINE
  5
37
100
AcDbEntity
  8
0
  6
BYBLOCK
 62
     0
100
AcDbLine
 10
-0.5
 20
0.5
 30
0.0
 11
0.0
 21
0.0
 31
0.0
  0
LINE
  5
38
100
AcDbEntity
  8
0
  6
BYBLOCK
 62
     0
100
AcDbLine
 10
0.0
 20
0.0
 30
0.0
 11
-0.5
 21
-0.5
 31
0.0
  0
LINE
  5
39
100
AcDbEntity
  8
0
  6
BYBLOCK
 62
     0
100
AcDbLine
 10
0.0
 20
0.0
 30
0.0
 11
-1.0
 21
0.0
 31
0.0
  0
ENDBLK
  5
3A
100
AcDbEntity
  8
0
100
AcDbBlockEnd
  0
BLOCK
  5
3C
100
AcDbEntity
  8
0
100
AcDbBlockBegin
  2
_CLOSEDBLANK
 70
     0
 10
0.0
 20
0.0
 30
0.0
  3
_CLOSEDBLANK
  1

  0
LINE
  5
3D
100
AcDbEntity
  8
0
  6
BYBLOCK
 62
     0
100
AcDbLine
 10
-1.0
 20
0.1666666666666666
 30
0.0
 11
0.0
 21
0.0
 31
0.0
  0
LINE
  5
3E
100
AcDbEntity
  8
0
  6
BYBLOCK
 62
     0
100
AcDbLine
 10
0.0
 20
0.0
 30
0.0
 11
-1.0
 21
-0.1666666666666666
 31
0.0
  0
LINE
  5
3F
100
AcDbEntity
  8
0
  6
BYBLOCK
 62
     0
100
AcDbLine
 10
-1.0
 20
0.1666666666666666
 30
0.0
 11
-1.0
 21
-0.1666666666666666
 31
0.0
  0
ENDBLK
  5
40
100
AcDbEntity
  8
0
100
AcDbBlockEnd
  0
BLOCK
  5
42
100
AcDbEntity
  8
0
100
AcDbBlockBegin
  2
_DOTBLANK
 70
     0
 10
0.0
 20
0.0
 30
0.0
  3
_DOTBLANK
  1

  0
CIRCLE
  5
43
100
AcDbEntity
  8
0
  6
BYBLOCK
 62
     0
100
AcDbCircle
 10
0.0
 20
0.0
 30
0.0
 40
0.5
  0
LINE
  5
44
100
AcDbEntity
  8
0
  6
BYBLOCK
 62
     0
100
AcDbLine
 10
-0.5
 20
0.0
 30
0.0
 11
-1.0
 21
0.0
 31
0.0
  0
ENDBLK
  5
45
100
AcDbEntity
  8
0
100
AcDbBlockEnd
  0
BLOCK
  5
69
100
AcDbEntity
  8
MAIN0
  6
CONTINUOUS
 62
3
100
AcDbBlockBegin
  2
*D0
 70
    65
 10
0.0
 20
0.0
 30
0.0
  0
LINE
  5
6A
100
AcDbEntity
  8
MAIN0
  6
BYBLOCK
 62
0
100
AcDbLine
 10
115.3573107960489
 20
285.5000000000000
 30
0.0000000000000000
 11
77.00000000000000
 21
285.5000000000000
 31
0.0000000000000000
  0
LINE
  5
6B
100
AcDbEntity
  8
MAIN0
  6
BYBLOCK
 62
0
100
AcDbLine
 10
80.00000000000000
 20
282.5000000000000
 30
0.0000000000000000
 11
80.00000000000000
 21
218.5000000000000
 31
0.0000000000000000
  0
INSERT
  5
6C
100
AcDbEntity
  8
MAIN0
  6
BYBLOCK
 62
0
100
AcDbBlockReference
  2
_OPEN
 10
80.00000000000000
 20
285.5000000000000
 30
0.0000000000000000
 41
3.000000000000000
 42
3.000000000000000
 43
3.000000000000000
 50
90.00000000000000
  0
INSERT
  5
6D
100
AcDbEntity
  8
MAIN0
  6
BYBLOCK
 62
0
100
AcDbBlockReference
  2
_OPEN
 10
80.00000000000000
 20
215.5000000000000
 30
0.0000000000000000
 41
3.000000000000000
 42
3.000000000000000
 43
3.000000000000000
 50
270.0000000000000
  0
LINE
  5
6E
100
AcDbEntity
  8
MAIN0
  6
BYBLOCK
 62
0
100
AcDbLine
 10
115.3573107960489
 20
215.5000000000000
 30
0.0000000000000000
 11
77.00000000000000
 21
215.5000000000000
 31
0.0000000000000000
  0
MTEXT
  5
6F
100
AcDbEntity
  8
MAIN0
  6
BYBLOCK
 62
0
100
AcDbMText
 10
77.17500007152557
 20
250.5000000000000
 30
0.0000000000000000
 40
4.649999856948853
 41
0.0000000000000000
 71
     5
 72
     1
  1
\A1;\U+220570
 11
6.123233995736766e-017
 21
1.000000000000000
 31
0.0000000000000000
  7
STANDARD
  0
ENDBLK
  5
70
100
AcDbEntity
  8
MAIN0
  6
CONTINUOUS
 62
3
100
AcDbBlockEnd
  0
BLOCK
  5
72
100
AcDbEntity
  8
MAIN0
  6
CONTINUOUS
 62
3
100
AcDbBlockBegin
  2
*D1
 70
    65
 10
0.0
 20
0.0
 30
0.0
  0
LINE
  5
73
100
AcDbEntity
  8
MAIN0
  6
BYBLOCK
 62
0
100
AcDbLine
 10
95.15731079604888
 20
345.5000000000000
 30
0.0000000000000000
 11
67.00000000000000
 21
345.5000000000000
 31
0.0000000000000000
  0
LINE
  5
74
100
AcDbEntity
  8
MAIN0
  6
BYBLOCK
 62
0
100
AcDbLine
 10
70.00000000000000
 20
342.5000000000000
 30
0.0000000000000000
 11
70.00000000000000
 21
158.5000000000000
 31
0.0000000000000000
  0
INSERT
  5
75
100
AcDbEntity
  8
MAIN0
  6
BYBLOCK
 62
0
100
AcDbBlockReference
  2
_OPEN
 10
70.00000000000000
 20
345.5000000000000
 30
0.0000000000000000
 41
3.000000000000000
 42
3.000000000000000
 43
3.000000000000000
 50
90.00000000000000
  0
INSERT
  5
76
100
AcDbEntity
  8
MAIN0
  6
BYBLOCK
 62
0
100
AcDbBlockReference
  2
_OPEN
 10
70.00000000000000
 20
155.5000000000000
 30
0.0000000000000000
 41
3.000000000000000
 42
3.000000000000000
 43
3.000000000000000
 50
270.0000000000000
  0
LINE
  5
77
100
AcDbEntity
  8
MAIN0
  6
BYBLOCK
 62
0
100
AcDbLine
 10
95.15731079604888
 20
155.5000000000000
 30
0.0000000000000000
 11
67.00000000000000
 21
155.5000000000000
 31
0.0000000000000000
  0
MTEXT
  5
78
100
AcDbEntity
  8
MAIN0
  6
BYBLOCK
 62
0
100
AcDbMText
 10
67.17500007152557
 20
264.4865693048024
 30
0.0000000000000000
 40
4.649999856948853
 41
0.0000000000000000
 71
     5
 72
     1
  1
\A1;\U+2205190H6\H0.903226x;\S＋0.029^ 　0;
 11
6.123233995736766e-017
 21
1.000000000000000
 31
0.0000000000000000
  7
KNJYOKO
  0
ENDBLK
  5
79
100
AcDbEntity
  8
MAIN0
  6
CONTINUOUS
 62
3
100
AcDbBlockEnd
  0
BLOCK
  5
7C
100
AcDbEntity
  8
MAIN0
  6
CONTINUOUS
 62
3
100
AcDbBlockBegin
  2
*D2
 70
    65
 10
0.0
 20
0.0
 30
0.0
  0
LINE
  5
7D
100
AcDbEntity
  8
MAIN0
  6
BYBLOCK
 62
0
100
AcDbLine
 10
97.15731079604888
 20
366.5000000000000
 30
0.0000000000000000
 11
55.22017362249390
 21
366.5000000000000
 31
0.0000000000000000
  0
LINE
  5
7E
100
AcDbEntity
  8
MAIN0
  6
BYBLOCK
 62
0
100
AcDbLine
 10
58.22017362249390
 20
363.5000000000000
 30
0.0000000000000000
 11
58.22017362249390
 21
137.5000000000000
 31
0.0000000000000000
  0
INSERT
  5
7F
100
AcDbEntity
  8
MAIN0
  6
BYBLOCK
 62
0
100
AcDbBlockReference
  2
_OPEN
 10
58.22017362249390
 20
366.5000000000000
 30
0.0000000000000000
 41
3.000000000000000
 42
3.000000000000000
 43
3.000000000000000
 50
90.00000000000000
  0
INSERT
  5
80
100
AcDbEntity
  8
MAIN0
  6
BYBLOCK
 62
0
100
AcDbBlockReference
  2
_OPEN
 10
58.22017362249390
 20
134.5000000000000
 30
0.0000000000000000
 41
3.000000000000000
 42
3.000000000000000
 43
3.000000000000000
 50
270.0000000000000
  0
LINE
  5
81
100
AcDbEntity
  8
MAIN0
  6
BYBLOCK
 62
0
100
AcDbLine
 10
97.15731079604890
 20
134.5000000000000
 30
0.0000000000000000
 11
55.22017362249390
 21
134.5000000000000
 31
0.0000000000000000
  0
MTEXT
  5
82
100
AcDbEntity
  8
MAIN0
  6
BYBLOCK
 62
0
100
AcDbMText
 10
55.39517369401948
 20
250.5000000000000
 30
0.0000000000000000
 40
4.649999856948853
 41
0.0000000000000000
 71
     5
 72
     1
  1
\A1;\U+2205232
 11
6.123233995736766e-017
 21
1.000000000000000
 31
0.0000000000000000
  7
STANDARD
  0
ENDBLK
  5
83
100
AcDbEntity
  8
MAIN0
  6
CONTINUOUS
 62
3
100
AcDbBlockEnd
  0
BLOCK
  5
85
100
AcDbEntity
  8
MAIN0
  6
CONTINUOUS
 62
3
100
AcDbBlockBegin
  2
*D3
 70
    65
 10
0.0
 20
0.0
 30
0.0
  0
LINE
  5
86
100
AcDbEntity
  8
MAIN0
  6
BYBLOCK
 62
0
100
AcDbLine
 10
96.35731081393030
 20
365.7000000178814
 30
0.0000000000000000
 11
96.35731081393030
 21
399.5000000000000
 31
0.0000000000000000
  0
LINE
  5
87
100
AcDbEntity
  8
MAIN0
  6
BYBLOCK
 62
0
100
AcDbLine
 10
99.35731081393030
 20
396.5000000000000
 30
0.0000000000000000
 11
177.3573108139303
 21
396.5000000000000
 31
0.0000000000000000
  0
INSERT
  5
88
100
AcDbEntity
  8
MAIN0
  6
BYBLOCK
 62
0
100
AcDbBlockReference
  2
_OPEN
 10
96.35731081393030
 20
396.5000000000000
 30
0.0000000000000000
 41
3.000000000000000
 42
3.000000000000000
 43
3.000000000000000
 50
180.0000000000000
  0
INSERT
  5
89
100
AcDbEntity
  8
MAIN0
  6
BYBLOCK
 62
0
100
AcDbBlockReference
  2
_OPEN
 10
180.3573108139303
 20
396.5000000000000
 30
0.0000000000000000
 41
3.000000000000000
 42
3.000000000000000
 43
3.000000000000000
 50
0.0000000000000000
  0
LINE
  5
8A
100
AcDbEntity
  8
MAIN0
  6
BYBLOCK
 62
0
100
AcDbLine
 10
180.3573108139303
 20
365.7000000178814
 30
0.0000000000000000
 11
180.3573108139303
 21
399.5000000000000
 31
0.0000000000000000
  0
MTEXT
  5
8B
100
AcDbEntity
  8
MAIN0
  6
BYBLOCK
 62
0
100
AcDbMText
 10
143.7250000096924
 20
399.5749999284744
 30
0.0000000000000000
 40
4.649999856948853
 41
0.0000000000000000
 71
     5
 72
     1
  1
\A1;84
 11
1.000000000000000
 21
0.0000000000000000
 31
0.0000000000000000
  7
STANDARD
  0
ENDBLK
  5
8C
100
AcDbEntity
  8
MAIN0
  6
CONTINUOUS
 62
3
100
AcDbBlockEnd
  0
BLOCK
  5
8E
100
AcDbEntity
  8
MAIN0
  6
CONTINUOUS
 62
3
100
AcDbBlockBegin
  2
*D4
 70
    65
 10
0.0
 20
0.0
 30
0.0
  0
LINE
  5
8F
100
AcDbEntity
  8
MAIN0
  6
BYBLOCK
 62
0
100
AcDbLine
 10
167.3573108139303
 20
365.7000000178815
 30
0.0000000000000000
 11
167.3573108139303
 21
375.5000000000000
 31
0.0000000000000000
  0
LINE
  5
90
100
AcDbEntity
  8
MAIN0
  6
BYBLOCK
 62
0
100
AcDbLine
 10
170.3573108139303
 20
372.5000000000000
 30
0.0000000000000000
 11
177.3573108139303
 21
372.5000000000000
 31
0.0000000000000000
  0
INSERT
  5
91
100
AcDbEntity
  8
MAIN0
  6
BYBLOCK
 62
0
100
AcDbBlockReference
  2
_OPEN
 10
167.3573108139303
 20
372.5000000000000
 30
0.0000000000000000
 41
3.000000000000000
 42
3.000000000000000
 43
3.000000000000000
 50
180.0000000000000
  0
INSERT
  5
92
100
AcDbEntity
  8
MAIN0
  6
BYBLOCK
 62
0
100
AcDbBlockReference
  2
_OPEN
 10
180.3573108139303
 20
372.5000000000000
 30
0.0000000000000000
 41
3.000000000000000
 42
3.000000000000000
 43
3.000000000000000
 50
0.0000000000000000
  0
LINE
  5
93
100
AcDbEntity
  8
MAIN0
  6
BYBLOCK
 62
0
100
AcDbLine
 10
180.3573108139303
 20
365.7000000178814
 30
0.0000000000000000
 11
180.3573108139303
 21
375.5000000000000
 31
0.0000000000000000
  0
MTEXT
  5
94
100
AcDbEntity
  8
MAIN0
  6
BYBLOCK
 62
0
100
AcDbMText
 10
173.8573108139303
 20
375.3249999284744
 30
0.0000000000000000
 40
4.649999856948853
 41
0.0000000000000000
 71
     5
 72
     1
  1
\A1;13
 11
1.000000000000000
 21
0.0000000000000000
 31
0.0000000000000000
  7
STANDARD
  0
ENDBLK
  5
95
100
AcDbEntity
  8
MAIN0
  6
CONTINUOUS
 62
3
100
AcDbBlockEnd
  0
BLOCK
  5
97
100
AcDbEntity
  8
MAIN0
  6
CONTINUOUS
 62
3
100
AcDbBlockBegin
  2
*D5
 70
    65
 10
0.0
 20
0.0
 30
0.0
  0
LINE
  5
98
100
AcDbEntity
  8
MAIN0
  6
BYBLOCK
 62
0
100
AcDbLine
 10
95.75731079604890
 20
361.2500000000001
 30
0.0000000000000000
 11
77.00000000000000
 21
361.2500000000001
 31
0.0000000000000000
  0
LINE
  5
99
100
AcDbEntity
  8
MAIN0
  6
BYBLOCK
 62
0
100
AcDbLine
 10
80.00000000000000
 20
358.2500000000001
 30
0.0000000000000000
 11
80.00000000000000
 21
350.7500000000000
 31
0.0000000000000000
  0
INSERT
  5
9A
100
AcDbEntity
  8
MAIN0
  6
BYBLOCK
 62
0
100
AcDbBlockReference
  2
_OPEN
 10
80.00000000000000
 20
361.2500000000001
 30
0.0000000000000000
 41
3.000000000000000
 42
3.000000000000000
 43
3.000000000000000
 50
90.00000000000000
  0
INSERT
  5
9B
100
AcDbEntity
  8
MAIN0
  6
BYBLOCK
 62
0
100
AcDbBlockReference
  2
_OPEN
 10
80.00000000000000
 20
347.7500000000000
 30
0.0000000000000000
 41
3.000000000000000
 42
3.000000000000000
 43
3.000000000000000
 50
270.0000000000000
  0
LINE
  5
9C
100
AcDbEntity
  8
MAIN0
  6
BYBLOCK
 62
0
100
AcDbLine
 10
80.00000000000000
 20
361.2500000000001
 30
0.0000000000000000
 11
80.00000000000000
 21
383.0009519862243
 31
0.0000000000000000
  0
LINE
  5
9D
100
AcDbEntity
  8
MAIN0
  6
BYBLOCK
 62
0
100
AcDbLine
 10
95.75731079604890
 20
347.7500000000000
 30
0.0000000000000000
 11
77.00000000000000
 21
347.7500000000000
 31
0.0000000000000000
  0
MTEXT
  5
9E
100
AcDbEntity
  8
MAIN0
  6
BYBLOCK
 62
0
100
AcDbMText
 10
76.92500007152557
 20
375.5759522723266
 30
0.0000000000000000
 40
4.649999856948853
 41
0.0000000000000000
 71
     5
 72
     1
  1
\A1;\U+220513.5
 11
6.123233995736766e-017
 21
1.000000000000000
 31
0.0000000000000000
  7
STANDARD
  0
ENDBLK
  5
9F
100
AcDbEntity
  8
MAIN0
  6
CONTINUOUS
 62
3
100
AcDbBlockEnd
  0
BLOCK
  5
A1
100
AcDbEntity
  8
MAIN0
  6
CONTINUOUS
 62
3
100
AcDbBlockBegin
  2
*D6
 70
    65
 10
0.0
 20
0.0
 30
0.0
  0
LINE
  5
A2
100
AcDbEntity
  8
MAIN0
  6
BYBLOCK
 62
0
100
AcDbLine
 10
180.9573108318117
 20
364.5000000000000
 30
0.0000000000000000
 11
195.0000000000000
 21
364.5000000000000
 31
0.0000000000000000
  0
LINE
  5
A3
100
AcDbEntity
  8
MAIN0
  6
BYBLOCK
 62
0
100
AcDbLine
 10
192.0000000000000
 20
361.5000000000000
 30
0.0000000000000000
 11
192.0000000000000
 21
347.5000000000000
 31
0.0000000000000000
  0
INSERT
  5
A4
100
AcDbEntity
  8
MAIN0
  6
BYBLOCK
 62
0
100
AcDbBlockReference
  2
_OPEN
 10
192.0000000000000
 20
364.5000000000000
 30
0.0000000000000000
 41
3.000000000000000
 42
3.000000000000000
 43
3.000000000000000
 50
90.00000000000000
  0
INSERT
  5
A5
100
AcDbEntity
  8
MAIN0
  6
BYBLOCK
 62
0
100
AcDbBlockReference
  2
_OPEN
 10
192.0000000000000
 20
344.5000000000000
 30
0.0000000000000000
 41
3.000000000000000
 42
3.000000000000000
 43
3.000000000000000
 50
270.0000000000000
  0
LINE
  5
A6
100
AcDbEntity
  8
MAIN0
  6
BYBLOCK
 62
0
100
AcDbLine
 10
180.9573108318117
 20
344.5000000000000
 30
0.0000000000000000
 11
195.0000000000000
 21
344.5000000000000
 31
0.0000000000000000
  0
MTEXT
  5
A7
100
AcDbEntity
  8
MAIN0
  6
BYBLOCK
 62
0
100
AcDbMText
 10
189.1750000715256
 20
354.5000000000000
 30
0.0000000000000000
 40
4.649999856948853
 41
0.0000000000000000
 71
     5
 72
     1
  1
\A1;\U+220520
 11
6.123233995736766e-017
 21
1.000000000000000
 31
0.0000000000000000
  7
STANDARD
  0
ENDBLK
  5
A8
100
AcDbEntity
  8
MAIN0
  6
CONTINUOUS
 62
3
100
AcDbBlockEnd
  0
BLOCK
  5
AA
100
AcDbEntity
  8
MAIN0
  6
CONTINUOUS
 62
3
100
AcDbBlockBegin
  2
*D7
 70
    65
 10
0.0
 20
0.0
 30
0.0
  0
LINE
  5
AB
100
AcDbEntity
  8
MAIN0
  6
BYBLOCK
 62
0
100
AcDbLine
 10
183.3573108139303
 20
271.4914118321858
 30
0.0000000000000000
 11
210.3573108139303
 21
271.4914118321858
 31
0.0000000000000000
  0
INSERT
  5
AC
100
AcDbEntity
  8
MAIN0
  6
BYBLOCK
 62
0
100
AcDbBlockReference
  2
_OPEN
 10
180.3573108139303
 20
271.4914118321858
 30
0.0000000000000000
 41
3.000000000000000
 42
3.000000000000000
 43
3.000000000000000
 50
180.0000000000000
  0
INSERT
  5
AD
100
AcDbEntity
  8
MAIN0
  6
BYBLOCK
 62
0
100
AcDbBlockReference
  2
_OPEN
 10
213.3573108139303
 20
271.4914118321858
 30
0.0000000000000000
 41
3.000000000000000
 42
3.000000000000000
 43
3.000000000000000
 50
0.0000000000000000
  0
LINE
  5
AE
100
AcDbEntity
  8
MAIN0
  6
BYBLOCK
 62
0
100
AcDbLine
 10
213.3573108139303
 20
264.9500000178814
 30
0.0000000000000000
 11
213.3573108139303
 21
274.4914118321858
 31
0.0000000000000000
  0
MTEXT
  5
AF
100
AcDbEntity
  8
MAIN0
  6
BYBLOCK
 62
0
100
AcDbMText
 10
196.8573108139303
 20
274.3164117606602
 30
0.0000000000000000
 40
4.649999856948853
 41
0.0000000000000000
 71
     5
 72
     1
  1
\A1;33
 11
1.000000000000000
 21
0.0000000000000000
 31
0.0000000000000000
  7
STANDARD
  0
ENDBLK
  5
B0
100
AcDbEntity
  8
MAIN0
  6
CONTINUOUS
 62
3
100
AcDbBlockEnd
  0
BLOCK
  5
B2
100
AcDbEntity
  8
MAIN0
  6
CONTINUOUS
 62
3
100
AcDbBlockBegin
  2
*D8
 70
    65
 10
0.0
 20
0.0
 30
0.0
  0
LINE
  5
B3
100
AcDbEntity
  8
MAIN0
  6
BYBLOCK
 62
0
100
AcDbLine
 10
214.5573108318117
 20
263.7500000000000
 30
0.0000000000000000
 11
231.8662095849145
 21
263.7500000000000
 31
0.0000000000000000
  0
LINE
  5
B4
100
AcDbEntity
  8
MAIN0
  6
BYBLOCK
 62
0
100
AcDbLine
 10
228.8662095849145
 20
260.7500000000000
 30
0.0000000000000000
 11
228.8662095849145
 21
240.2500000000001
 31
0.0000000000000000
  0
INSERT
  5
B5
100
AcDbEntity
  8
MAIN0
  6
BYBLOCK
 62
0
100
AcDbBlockReference
  2
_OPEN
 10
228.8662095849145
 20
263.7500000000000
 30
0.0000000000000000
 41
3.000000000000000
 42
3.000000000000000
 43
3.000000000000000
 50
90.00000000000000
  0
INSERT
  5
B6
100
AcDbEntity
  8
MAIN0
  6
BYBLOCK
 62
0
100
AcDbBlockReference
  2
_OPEN
 10
228.8662095849145
 20
237.2500000000001
 30
0.0000000000000000
 41
3.000000000000000
 42
3.000000000000000
 43
3.000000000000000
 50
270.0000000000000
  0
LINE
  5
B7
100
AcDbEntity
  8
MAIN0
  6
BYBLOCK
 62
0
100
AcDbLine
 10
214.5573108318117
 20
237.2500000000001
 30
0.0000000000000000
 11
231.8662095849145
 21
237.2500000000001
 31
0.0000000000000000
  0
MTEXT
  5
B8
100
AcDbEntity
  8
MAIN0
  6
BYBLOCK
 62
0
100
AcDbMText
 10
226.0412096564401
 20
250.5000000000000
 30
0.0000000000000000
 40
4.649999856948853
 41
0.0000000000000000
 71
     5
 72
     1
  1
\A1;26.5
 11
6.123233995736766e-017
 21
1.000000000000000
 31
0.0000000000000000
  7
STANDARD
  0
ENDBLK
  5
B9
100
AcDbEntity
  8
MAIN0
  6
CONTINUOUS
 62
3
100
AcDbBlockEnd
  0
BLOCK
  5
BB
100
AcDbEntity
  8
MAIN0
  6
CONTINUOUS
 62
3
100
AcDbBlockBegin
  2
*D9
 70
    65
 10
0.0
 20
0.0
 30
0.0
  0
LINE
  5
BC
100
AcDbEntity
  8
MAIN0
  6
BYBLOCK
 62
0
100
AcDbLine
 10
213.8520253806516
 20
222.4999888765850
 30
0.0000000000000000
 11
231.8662095849145
 21
222.4999888765631
 31
0.0000000000000000
  0
LINE
  5
BD
100
AcDbEntity
  8
MAIN0
  6
BYBLOCK
 62
0
100
AcDbLine
 10
228.8662095849145
 20
219.4999888765667
 30
0.0000000000000000
 11
228.8662095849145
 21
137.4999888763350
 31
0.0000000000000000
  0
INSERT
  5
BE
100
AcDbEntity
  8
MAIN0
  6
BYBLOCK
 62
0
100
AcDbBlockReference
  2
_OPEN
 10
228.8662095849145
 20
222.4999888765667
 30
0.0000000000000000
 41
3.000000000000000
 42
3.000000000000000
 43
3.000000000000000
 50
90.00000000000000
  0
INSERT
  5
BF
100
AcDbEntity
  8
MAIN0
  6
BYBLOCK
 62
0
100
AcDbBlockReference
  2
_OPEN
 10
228.8662095849145
 20
134.4999888763350
 30
0.0000000000000000
 41
3.000000000000000
 42
3.000000000000000
 43
3.000000000000000
 50
270.0000000000000
  0
LINE
  5
C0
100
AcDbEntity
  8
MAIN0
  6
BYBLOCK
 62
0
100
AcDbLine
 10
187.5520253810419
 20
134.4999888764660
 30
0.0000000000000000
 11
231.8662095849145
 21
134.4999888763255
 31
0.0000000000000000
  0
MTEXT
  5
C1
100
AcDbEntity
  8
MAIN0
  6
BYBLOCK
 62
0
100
AcDbMText
 10
226.0412096564401
 20
178.4999888764509
 30
0.0000000000000000
 40
4.649999856948853
 41
0.0000000000000000
 71
     5
 72
     1
  1
\A1;88
 11
6.123233995736766e-017
 21
1.000000000000000
 31
0.0000000000000000
  7
STANDARD
  0
ENDBLK
  5
C2
100
AcDbEntity
  8
MAIN0
  6
CONTINUOUS
 62
3
100
AcDbBlockEnd
  0
BLOCK
  5
C4
100
AcDbEntity
  8
MAIN0
  6
CONTINUOUS
 62
3
100
AcDbBlockBegin
  2
*D10
 70
    65
 10
0.0
 20
0.0
 30
0.0
  0
LINE
  5
C5
100
AcDbEntity
  8
MAIN0
  6
BYBLOCK
 62
0
100
AcDbLine
 10
96.35731081393030
 20
184.1710726684284
 30
0.0000000000000000
 11
102.3573108139303
 21
184.1710726684284
 31
0.0000000000000000
  0
INSERT
  5
C6
100
AcDbEntity
  8
MAIN0
  6
BYBLOCK
 62
0
100
AcDbBlockReference
  2
_OPEN
 10
96.35731081393030
 20
184.1710726684284
 30
0.0000000000000000
 41
3.000000000000000
 42
3.000000000000000
 43
3.000000000000000
 50
0.0000000000000000
  0
INSERT
  5
C7
100
AcDbEntity
  8
MAIN0
  6
BYBLOCK
 62
0
100
AcDbBlockReference
  2
_OPEN
 10
102.3573108139303
 20
184.1710726684284
 30
0.0000000000000000
 41
3.000000000000000
 42
3.000000000000000
 43
3.000000000000000
 50
180.0000000000000
  0
LINE
  5
C8
100
AcDbEntity
  8
MAIN0
  6
BYBLOCK
 62
0
100
AcDbLine
 10
93.35731081393030
 20
184.1710726684284
 30
0.0000000000000000
 11
90.06463048477023
 21
184.1710726684284
 31
0.0000000000000000
  0
LINE
  5
C9
100
AcDbEntity
  8
MAIN0
  6
BYBLOCK
 62
0
100
AcDbLine
 10
105.3573108139303
 20
184.1710726684284
 30
0.0000000000000000
 11
106.8573108139303
 21
184.1710726684284
 31
0.0000000000000000
  0
MTEXT
  5
CA
100
AcDbEntity
  8
MAIN0
  6
BYBLOCK
 62
0
100
AcDbMText
 10
91.56463048477023
 20
186.9960725969028
 30
0.0000000000000000
 40
4.649999856948853
 41
0.0000000000000000
 71
     5
 72
     1
  1
\A1;6
 11
1.000000000000000
 21
0.0000000000000000
 31
0.0000000000000000
  7
STANDARD
  0
ENDBLK
  5
CB
100
AcDbEntity
  8
MAIN0
  6
CONTINUOUS
 62
3
100
AcDbBlockEnd
  0
BLOCK
  5
CD
100
AcDbEntity
  8
MAIN0
  6
CONTINUOUS
 62
3
100
AcDbBlockBegin
  2
*D11
 70
    65
 10
0.0
 20
0.0
 30
0.0
  0
LINE
  5
CE
100
AcDbEntity
  8
MAIN0
  6
BYBLOCK
 62
0
100
AcDbLine
 10
125.9705575898511
 20
407.9014718499225
 30
0.0000000000000000
 11
134.3590049335154
 21
399.5130245062633
 31
0.0000000000000000
  0
LINE
  5
CF
100
AcDbEntity
  8
MAIN0
  6
BYBLOCK
 62
0
100
AcDbLine
 10
134.3590049335141
 20
403.7556651933826
 30
0.0000000000000000
 11
138.6016456206321
 21
407.9983058805030
 31
0.0000000000000000
  0
INSERT
  5
D0
100
AcDbEntity
  8
MAIN0
  6
BYBLOCK
 62
0
100
AcDbBlockReference
  2
_OPEN
 10
132.2376845899551
 20
401.6343448498223
 30
0.0000000000000000
 41
3.000000000000000
 42
3.000000000000000
 43
3.000000000000000
 50
225.0000000000169
  0
INSERT
  5
D1
100
AcDbEntity
  8
MAIN0
  6
BYBLOCK
 62
0
100
AcDbBlockReference
  2
_OPEN
 10
140.7229659641911
 20
410.1196262240633
 30
0.0000000000000000
 41
3.000000000000000
 42
3.000000000000000
 43
3.000000000000000
 50
45.00000000001689
  0
LINE
  5
D2
100
AcDbEntity
  8
MAIN0
  6
BYBLOCK
 62
0
100
AcDbLine
 10
140.7229659641911
 20
410.1196262240633
 30
0.0000000000000000
 11
156.4112790330920
 21
425.8079392929733
 31
0.0000000000000000
  0
LINE
  5
D3
100
AcDbEntity
  8
MAIN0
  6
BYBLOCK
 62
0
100
AcDbLine
 10
134.4558389639984
 20
416.3867532242524
 30
0.0000000000000000
 11
142.8442863077514
 21
407.9983058805042
 31
0.0000000000000000
  0
MTEXT
  5
D4
100
AcDbEntity
  8
MAIN0
  6
BYBLOCK
 62
0
100
AcDbMText
 10
147.9171587897139
 20
421.3089722621430
 30
0.0000000000000000
 40
4.649999856948853
 41
0.0000000000000000
 71
     5
 72
     1
  1
\A1;12\H0.903226x;\S＋0.15^ ＋0.05;
 11
0.7071067811863403
 21
0.7071067811867547
 31
0.0000000000000000
  7
KNJYOKO
  0
ENDBLK
  5
D5
100
AcDbEntity
  8
MAIN0
  6
CONTINUOUS
 62
3
100
AcDbBlockEnd
  0
BLOCK
  5
DC
100
AcDbEntity
  8
MAIN0
  6
CONTINUOUS
 62
3
100
AcDbBlockBegin
  2
*D12
 70
    65
 10
0.0
 20
0.0
 30
0.0
  0
LINE
  5
DD
100
AcDbEntity
  8
MAIN0
  6
BYBLOCK
 62
0
100
AcDbLine
 10
96.35731081393030
 20
365.7000000178814
 30
0.0000000000000000
 11
96.35731081393030
 21
391.5000000000000
 31
0.0000000000000000
  0
LINE
  5
DE
100
AcDbEntity
  8
MAIN0
  6
BYBLOCK
 62
0
100
AcDbLine
 10
99.35731081393030
 20
388.5000000000000
 30
0.0000000000000000
 11
122.8573108139303
 21
388.5000000000000
 31
0.0000000000000000
  0
INSERT
  5
DF
100
AcDbEntity
  8
MAIN0
  6
BYBLOCK
 62
0
100
AcDbBlockReference
  2
_OPEN
 10
96.35731081393030
 20
388.5000000000000
 30
0.0000000000000000
 41
3.000000000000000
 42
3.000000000000000
 43
3.000000000000000
 50
180.0000000000000
  0
INSERT
  5
E0
100
AcDbEntity
  8
MAIN0
  6
BYBLOCK
 62
0
100
AcDbBlockReference
  2
_OPEN
 10
125.8573108139303
 20
388.5000000000000
 30
0.0000000000000000
 41
3.000000000000000
 42
3.000000000000000
 43
3.000000000000000
 50
0.0000000000000000
  0
LINE
  5
E1
100
AcDbEntity
  8
MAIN0
  6
BYBLOCK
 62
0
100
AcDbLine
 10
125.8573108139303
 20
379.2631491953327
 30
0.0000000000000000
 11
125.8573108139303
 21
391.5000000000000
 31
0.0000000000000000
  0
MTEXT
  5
E2
100
AcDbEntity
  8
MAIN0
  6
BYBLOCK
 62
0
100
AcDbMText
 10
111.1073108139303
 20
391.3249999284744
 30
0.0000000000000000
 40
4.649999856948853
 41
0.0000000000000000
 71
     5
 72
     1
  1
\A1;29.5
 11
1.000000000000000
 21
0.0000000000000000
 31
0.0000000000000000
  7
STANDARD
  0
ENDBLK
  5
E3
100
AcDbEntity
  8
MAIN0
  6
CONTINUOUS
 62
3
100
AcDbBlockEnd
  0
BLOCK
  5
E5
100
AcDbEntity
  8
MAIN0
  6
CONTINUOUS
 62
3
100
AcDbBlockBegin
  2
*D13
 70
    65
 10
0.0
 20
0.0
 30
0.0
  0
LINE
  5
E6
100
AcDbEntity
  8
MAIN0
  6
BYBLOCK
 62
0
100
AcDbLine
 10
125.8573108139303
 20
379.2631491953327
 30
0.0000000000000000
 11
125.8573108139303
 21
391.5000000000000
 31
0.0000000000000000
  0
LINE
  5
E7
100
AcDbEntity
  8
MAIN0
  6
BYBLOCK
 62
0
100
AcDbLine
 10
128.8573108139303
 20
388.5000000000000
 30
0.0000000000000000
 11
177.3573108139303
 21
388.5000000000000
 31
0.0000000000000000
  0
INSERT
  5
E8
100
AcDbEntity
  8
MAIN0
  6
BYBLOCK
 62
0
100
AcDbBlockReference
  2
_OPEN
 10
125.8573108139303
 20
388.5000000000000
 30
0.0000000000000000
 41
3.000000000000000
 42
3.000000000000000
 43
3.000000000000000
 50
180.0000000000000
  0
INSERT
  5
E9
100
AcDbEntity
  8
MAIN0
  6
BYBLOCK
 62
0
100
AcDbBlockReference
  2
_OPEN
 10
180.3573108139303
 20
388.5000000000000
 30
0.0000000000000000
 41
3.000000000000000
 42
3.000000000000000
 43
3.000000000000000
 50
0.0000000000000000
  0
LINE
  5
EA
100
AcDbEntity
  8
MAIN0
  6
BYBLOCK
 62
0
100
AcDbLine
 10
180.3573108139303
 20
365.7000000178814
 30
0.0000000000000000
 11
180.3573108139303
 21
391.5000000000000
 31
0.0000000000000000
  0
MTEXT
  5
EB
100
AcDbEntity
  8
MAIN0
  6
BYBLOCK
 62
0
100
AcDbMText
 10
153.1073108139303
 20
391.3249999284744
 30
0.0000000000000000
 40
4.649999856948853
 41
0.0000000000000000
 71
     5
 72
     1
  1
\A1;54.5
 11
1.000000000000000
 21
0.0000000000000000
 31
0.0000000000000000
  7
STANDARD
  0
ENDBLK
  5
EC
100
AcDbEntity
  8
MAIN0
  6
CONTINUOUS
 62
3
100
AcDbBlockEnd
  0
BLOCK
  5
FE
100
AcDbEntity
  8
MAIN0
  6
CONTINUOUS
 62
3
100
AcDbBlockBegin
  2
*D14
 70
    65
 10
0.0
 20
0.0
 30
0.0
  0
ARC
  5
FF
100
AcDbEntity
  8
MAIN0
  6
BYBLOCK
 62
0
100
AcDbCircle
 10
362.3500182516873
 20
250.4999999990862
 30
0.0000000000000000
 40
125.3763238879459
100
AcDbArc
 50
271.3709712743921
 51
328.6290287255357
  0
INSERT
  5
100
100
AcDbEntity
  8
MAIN0
  6
BYBLOCK
 62
0
100
AcDbBlockReference
  2
_OPEN
 10
362.3500182516873
 20
125.1236761111403
 30
0.0000000000000000
 41
3.000000000000000
 42
3.000000000000000
 43
3.000000000000000
 50
180.0000000000000
  0
INSERT
  5
101
100
AcDbEntity
  8
MAIN0
  6
BYBLOCK
 62
0
100
AcDbBlockReference
  2
_OPEN
 10
470.9290997716752
 20
187.8118380549764
 30
0.0000000000000000
 41
3.000000000000000
 42
3.000000000000000
 43
3.000000000000000
 50
59.99999999992775
  0
MTEXT
  5
102
100
AcDbEntity
  8
MAIN0
  6
BYBLOCK
 62
0
100
AcDbMText
 10
423.6256802313561
 20
144.3674401827288
 30
0.0000000000000000
 40
4.649999856948853
 41
0.0000000000000000
 71
     5
 72
     1
  1
\A1;60\U+00B0
 11
0.8660254037847538
 21
0.4999999999994541
 31
0.0000000000000000
  7
STANDARD
  0
ENDBLK
  5
103
100
AcDbEntity
  8
MAIN0
  6
CONTINUOUS
 62
3
100
AcDbBlockEnd
  0
BLOCK
  5
105
100
AcDbEntity
  8
MAIN0
  6
CONTINUOUS
 62
3
100
AcDbBlockBegin
  2
*D15
 70
    65
 10
0.0
 20
0.0
 30
0.0
  0
ARC
  5
106
100
AcDbEntity
  8
MAIN0
  6
BYBLOCK
 62
0
100
AcDbCircle
 10
362.3500182516873
 20
250.4999999990862
 30
0.0000000000000000
 40
125.3763238879459
100
AcDbArc
 50
331.3709712743199
 51
358.6290287256080
  0
INSERT
  5
107
100
AcDbEntity
  8
MAIN0
  6
BYBLOCK
 62
0
100
AcDbBlockReference
  2
_OPEN
 10
470.9290997716752
 20
187.8118380549764
 30
0.0000000000000000
 41
3.000000000000000
 42
3.000000000000000
 43
3.000000000000000
 50
239.9999999999277
  0
INSERT
  5
108
100
AcDbEntity
  8
MAIN0
  6
BYBLOCK
 62
0
100
AcDbBlockReference
  2
_OPEN
 10
487.7263421396332
 20
250.4999999990862
 30
0.0000000000000000
 41
3.000000000000000
 42
3.000000000000000
 43
3.000000000000000
 50
90.00000000000000
  0
MTEXT
  5
109
100
AcDbEntity
  8
MAIN0
  6
BYBLOCK
 62
0
100
AcDbMText
 10
480.7255071100390
 20
218.7813833557715
 30
0.0000000000000000
 40
4.649999856948853
 41
0.0000000000000000
 71
     5
 72
     1
  1
\A1;30\U+00B0
 11
0.2588190451031296
 21
0.9659258262889051
 31
0.0000000000000000
  7
STANDARD
  0
ENDBLK
  5
10A
100
AcDbEntity
  8
MAIN0
  6
CONTINUOUS
 62
3
100
AcDbBlockEnd
  0
BLOCK
  5
10C
100
AcDbEntity
  8
MAIN0
  6
CONTINUOUS
 62
3
100
AcDbBlockBegin
  2
*D16
 70
    65
 10
0.0
 20
0.0
 30
0.0
  0
ARC
  5
10D
100
AcDbEntity
  8
MAIN0
  6
BYBLOCK
 62
0
100
AcDbCircle
 10
362.3500182516873
 20
250.4999999990862
 30
0.0000000000000000
 40
125.3763238879459
100
AcDbArc
 50
1.370971274392045
 51
28.62902872588358
  0
INSERT
  5
10E
100
AcDbEntity
  8
MAIN0
  6
BYBLOCK
 62
0
100
AcDbBlockReference
  2
_OPEN
 10
487.7263421396332
 20
250.4999999990862
 30
0.0000000000000000
 41
3.000000000000000
 42
3.000000000000000
 43
3.000000000000000
 50
270.0000000000000
  0
INSERT
  5
10F
100
AcDbEntity
  8
MAIN0
  6
BYBLOCK
 62
0
100
AcDbBlockReference
  2
_OPEN
 10
470.9290997714526
 20
313.1881619435815
 30
0.0000000000000000
 41
3.000000000000000
 42
3.000000000000000
 43
3.000000000000000
 50
120.0000000002756
  0
MTEXT
  5
110
100
AcDbEntity
  8
MAIN0
  6
BYBLOCK
 62
0
100
AcDbMText
 10
480.7255071099828
 20
282.2186166426110
 30
0.0000000000000000
 40
4.649999856948853
 41
0.0000000000000000
 71
     5
 72
     1
  1
\A1;30\U+00B0
 11
-0.2588190451048441
 21
0.9659258262884458
 31
0.0000000000000000
  7
STANDARD
  0
ENDBLK
  5
111
100
AcDbEntity
  8
MAIN0
  6
CONTINUOUS
 62
3
100
AcDbBlockEnd
  0
BLOCK
  5
113
100
AcDbEntity
  8
MAIN0
  6
CONTINUOUS
 62
3
100
AcDbBlockBegin
  2
*D17
 70
    65
 10
0.0
 20
0.0
 30
0.0
  0
LINE
  5
114
100
AcDbEntity
  8
MAIN0
  6
BYBLOCK
 62
0
100
AcDbLine
 10
441.5680086788710
 20
344.9083246875734
 30
0.0000000000000000
 11
444.8687286245819
 21
348.8419695409717
 31
0.0000000000000000
  0
ARC
  5
115
100
AcDbEntity
  8
MAIN0
  6
BYBLOCK
 62
0
100
AcDbCircle
 10
362.3500182516873
 20
250.4999999990862
 30
0.0000000000000000
 40
125.3763238879459
100
AcDbArc
 50
31.37097127466767
 51
48.62902872524854
  0
INSERT
  5
116
100
AcDbEntity
  8
MAIN0
  6
BYBLOCK
 62
0
100
AcDbBlockReference
  2
_OPEN
 10
470.9290997714526
 20
313.1881619435815
 30
0.0000000000000000
 41
3.000000000000000
 42
3.000000000000000
 43
3.000000000000000
 50
300.0000000002756
  0
INSERT
  5
117
100
AcDbEntity
  8
MAIN0
  6
BYBLOCK
 62
0
100
AcDbBlockReference
  2
_OPEN
 10
442.9403657955079
 20
346.5438362116268
 30
0.0000000000000000
 41
3.000000000000000
 42
3.000000000000000
 43
3.000000000000000
 50
139.9999999996406
  0
MTEXT
  5
118
100
AcDbEntity
  8
MAIN0
  6
BYBLOCK
 62
0
100
AcDbMText
 10
460.5579299618130
 20
332.9062224936213
 30
0.0000000000000000
 40
4.649999856948853
 41
0.0000000000000000
 71
     5
 72
     1
  1
\A1;20\U+00B0
 11
0.6427876096859793
 21
-0.7660444431194480
 31
0.0000000000000000
  7
STANDARD
  0
ENDBLK
  5
119
100
AcDbEntity
  8
MAIN0
  6
CONTINUOUS
 62
3
100
AcDbBlockEnd
  0
BLOCK
  5
11B
100
AcDbEntity
  8
MAIN0
  6
CONTINUOUS
 62
3
100
AcDbBlockBegin
  2
*D18
 70
    65
 10
0.0
 20
0.0
 30
0.0
  0
LINE
  5
11C
100
AcDbEntity
  8
MAIN0
  6
BYBLOCK
 62
0
100
AcDbLine
 10
441.5680086788710
 20
344.9083246875734
 30
0.0000000000000000
 11
444.8687286245819
 21
348.8419695409717
 31
0.0000000000000000
  0
ARC
  5
11D
100
AcDbEntity
  8
MAIN0
  6
BYBLOCK
 62
0
100
AcDbCircle
 10
362.3500182516873
 20
250.4999999990862
 30
0.0000000000000000
 40
125.3763238879459
100
AcDbArc
 50
51.37097127403263
 51
88.62902872560795
  0
INSERT
  5
11E
100
AcDbEntity
  8
MAIN0
  6
BYBLOCK
 62
0
100
AcDbBlockReference
  2
_OPEN
 10
442.9403657955079
 20
346.5438362116268
 30
0.0000000000000000
 41
3.000000000000000
 42
3.000000000000000
 43
3.000000000000000
 50
319.9999999996406
  0
INSERT
  5
11F
100
AcDbEntity
  8
MAIN0
  6
BYBLOCK
 62
0
100
AcDbBlockReference
  2
_OPEN
 10
362.3500182516873
 20
375.8763238870321
 30
0.0000000000000000
 41
3.000000000000000
 42
3.000000000000000
 43
3.000000000000000
 50
180.0000000000000
  0
MTEXT
  5
120
100
AcDbEntity
  8
MAIN0
  6
BYBLOCK
 62
0
100
AcDbMText
 10
406.1974533982977
 20
370.9698379642235
 30
0.0000000000000000
 40
4.649999856948853
 41
0.0000000000000000
 71
     5
 72
     1
  1
\A1;40\U+00B0
 11
0.9396926207848355
 21
-0.3420201433286165
 31
0.0000000000000000
  7
STANDARD
  0
ENDBLK
  5
121
100
AcDbEntity
  8
MAIN0
  6
CONTINUOUS
 62
3
100
AcDbBlockEnd
  0
BLOCK
  5
123
100
AcDbEntity
  8
MAIN0
  6
CONTINUOUS
 62
3
100
AcDbBlockBegin
  2
*D19
 70
    65
 10
0.0
 20
0.0
 30
0.0
  0
LINE
  5
124
100
AcDbEntity
  8
MAIN0
  6
BYBLOCK
 62
0
100
AcDbLine
 10
341.2359632295604
 20
308.5103894047087
 30
0.0000000000000000
 11
318.4427295550945
 21
371.1342842399141
 31
0.0000000000000000
  0
ARC
  5
125
100
AcDbEntity
  8
MAIN0
  6
BYBLOCK
 62
0
100
AcDbCircle
 10
362.3500182516873
 20
250.4999999990862
 30
0.0000000000000000
 40
125.3763238879459
100
AcDbArc
 50
91.37097127439203
 51
108.6290287259921
  0
INSERT
  5
126
100
AcDbEntity
  8
MAIN0
  6
BYBLOCK
 62
0
100
AcDbBlockReference
  2
_OPEN
 10
362.3500182516873
 20
375.8763238870321
 30
0.0000000000000000
 41
3.000000000000000
 42
3.000000000000000
 43
3.000000000000000
 50
360.0000000000000
  0
INSERT
  5
127
100
AcDbEntity
  8
MAIN0
  6
BYBLOCK
 62
0
100
AcDbBlockReference
  2
_OPEN
 10
319.4687899850967
 20
368.3152063775655
 30
0.0000000000000000
 41
3.000000000000000
 42
3.000000000000000
 43
3.000000000000000
 50
200.0000000003842
  0
MTEXT
  5
128
100
AcDbEntity
  8
MAIN0
  6
BYBLOCK
 62
0
100
AcDbMText
 10
340.0880919960546
 20
376.7536576398510
 30
0.0000000000000000
 40
4.649999856948853
 41
0.0000000000000000
 71
     5
 72
     1
  1
\A1;20\U+00B0
 11
0.9848077530116259
 21
0.1736481776702316
 31
0.0000000000000000
  7
STANDARD
  0
ENDBLK
  5
129
100
AcDbEntity
  8
MAIN0
  6
CONTINUOUS
 62
3
100
AcDbBlockEnd
  0
BLOCK
  5
12B
100
AcDbEntity
  8
MAIN0
  6
CONTINUOUS
 62
3
100
AcDbBlockBegin
  2
*D20
 70
    65
 10
0.0
 20
0.0
 30
0.0
  0
LINE
  5
12C
100
AcDbEntity
  8
MAIN0
  6
BYBLOCK
 62
0
100
AcDbLine
 10
180.3573108139303
 20
365.7000000178814
 30
0.0000000000000000
 11
180.3573108139303
 21
383.5000000000000
 31
0.0000000000000000
  0
LINE
  5
12D
100
AcDbEntity
  8
MAIN0
  6
BYBLOCK
 62
0
100
AcDbLine
 10
177.3573108139303
 20
380.5000000000000
 30
0.0000000000000000
 11
166.3573108138199
 21
380.5000000000000
 31
0.0000000000000000
  0
INSERT
  5
12E
100
AcDbEntity
  8
MAIN0
  6
BYBLOCK
 62
0
100
AcDbBlockReference
  2
_OPEN
 10
180.3573108139303
 20
380.5000000000000
 30
0.0000000000000000
 41
3.000000000000000
 42
3.000000000000000
 43
3.000000000000000
 50
360.0000000000000
  0
INSERT
  5
12F
100
AcDbEntity
  8
MAIN0
  6
BYBLOCK
 62
0
100
AcDbBlockReference
  2
_OPEN
 10
163.3573108138199
 20
380.5000000000000
 30
0.0000000000000000
 41
3.000000000000000
 42
3.000000000000000
 43
3.000000000000000
 50
180.0000000000000
  0
LINE
  5
130
100
AcDbEntity
  8
MAIN0
  6
BYBLOCK
 62
0
100
AcDbLine
 10
163.3573108138199
 20
371.3466953313597
 30
0.0000000000000000
 11
163.3573108138199
 21
383.5000000000000
 31
0.0000000000000000
  0
MTEXT
  5
131
100
AcDbEntity
  8
MAIN0
  6
BYBLOCK
 62
0
100
AcDbMText
 10
176.0000000000000
 20
383.5749999284744
 30
0.0000000000000000
 40
4.649999856948853
 41
0.0000000000000000
 71
     5
 72
     1
  1
\A1;17
 11
1.000000000000000
 21
0.0000000000000000
 31
0.0000000000000000
  7
STANDARD
  0
ENDBLK
  5
132
100
AcDbEntity
  8
MAIN0
  6
CONTINUOUS
 62
3
100
AcDbBlockEnd
  0
BLOCK
  5
134
100
AcDbEntity
  8
MAIN0
  6
CONTINUOUS
 62
3
100
AcDbBlockBegin
  2
*D21
 70
    65
 10
0.0
 20
0.0
 30
0.0
  0
LINE
  5
135
100
AcDbEntity
  8
MAIN0
  6
BYBLOCK
 62
0
100
AcDbLine
 10
308.9051750183425
 20
164.7990739158306
 30
0.0000000000000000
 11
417.3823320776204
 21
338.7464981460755
 31
0.0000000000000000
  0
INSERT
  5
136
100
AcDbEntity
  8
MAIN0
  6
BYBLOCK
 62
0
100
AcDbBlockReference
  2
_OPEN
 10
307.3177044272311
 20
162.2535018539246
 30
0.0000000000000000
 41
3.000000000000000
 42
3.000000000000000
 43
3.000000000000000
 50
238.0514948103426
  0
MTEXT
  5
137
100
AcDbEntity
  8
MAIN0
  6
BYBLOCK
 62
0
100
AcDbMText
 10
320.7612261793719
 20
189.6218533777672
 30
0.0000000000000000
 40
4.649999856948853
 41
0.0000000000000000
 71
     5
 72
     1
  1
\A1;\U+2205208\H0.903226x;\U+00B10.2
 11
0.5291568637037944
 21
0.8485240206353406
 31
0.0000000000000000
  7
STANDARD
  0
ENDBLK
  5
138
100
AcDbEntity
  8
MAIN0
  6
CONTINUOUS
 62
3
100
AcDbBlockEnd
  0
BLOCK
  5
2CE
100
AcDbEntity
  8
A0
  6
CONTINUOUS
 62
3
100
AcDbBlockBegin
  2
*D22
 70
    65
 10
0.0
 20
0.0
 30
0.0
  0
LINE
  5
2CF
100
AcDbEntity
  8
A0
  6
BYBLOCK
 62
0
100
AcDbLine
 10
519.5000000000000
 20
366.7000000178814
 30
0.0000000000000000
 11
519.5000000000000
 21
378.0000000000000
 31
0.0000000000000000
  0
LINE
  5
2D0
100
AcDbEntity
  8
A0
  6
BYBLOCK
 62
0
100
AcDbLine
 10
522.5000000000000
 20
375.0000000000000
 30
0.0000000000000000
 11
542.5000000000000
 21
375.0000000000000
 31
0.0000000000000000
  0
INSERT
  5
2D1
100
AcDbEntity
  8
A0
  6
BYBLOCK
 62
0
100
AcDbBlockReference
  2
_OPEN
 10
519.5000000000000
 20
375.0000000000000
 30
0.0000000000000000
 41
3.000000000000000
 42
3.000000000000000
 43
3.000000000000000
 50
180.0000000000000
  0
INSERT
  5
2D2
100
AcDbEntity
  8
A0
  6
BYBLOCK
 62
0
100
AcDbBlockReference
  2
_OPEN
 10
545.5000000000000
 20
375.0000000000000
 30
0.0000000000000000
 41
3.000000000000000
 42
3.000000000000000
 43
3.000000000000000
 50
0.0000000000000000
  0
LINE
  5
2D3
100
AcDbEntity
  8
A0
  6
BYBLOCK
 62
0
100
AcDbLine
 10
545.5000000000000
 20
366.7000000178814
 30
0.0000000000000000
 11
545.5000000000000
 21
378.0000000000000
 31
0.0000000000000000
  0
MTEXT
  5
2D4
100
AcDbEntity
  8
A0
  6
BYBLOCK
 62
0
100
AcDbMText
 10
532.5000000000000
 20
377.8249999284744
 30
0.0000000000000000
 40
4.649999856948853
 41
0.0000000000000000
 71
     5
 72
     1
  1
\A1;\U+220526
 11
1.000000000000000
 21
0.0000000000000000
 31
0.0000000000000000
  7
STANDARD
  0
ENDBLK
  5
2D5
100
AcDbEntity
  8
A0
  6
CONTINUOUS
 62
3
100
AcDbBlockEnd
  0
BLOCK
  5
2D7
100
AcDbEntity
  8
A0
  6
CONTINUOUS
 62
3
100
AcDbBlockBegin
  2
*D23
 70
    65
 10
0.0
 20
0.0
 30
0.0
  0
LINE
  5
2D8
100
AcDbEntity
  8
A0
  6
BYBLOCK
 62
0
100
AcDbLine
 10
510.0000000000000
 20
355.5000000000000
 30
0.0000000000000000
 11
510.0000000000000
 21
349.5000000000000
 31
0.0000000000000000
  0
INSERT
  5
2D9
100
AcDbEntity
  8
A0
  6
BYBLOCK
 62
0
100
AcDbBlockReference
  2
_OPEN
 10
510.0000000000000
 20
358.5000000000000
 30
0.0000000000000000
 41
3.000000000000000
 42
3.000000000000000
 43
3.000000000000000
 50
90.00000000000000
  0
INSERT
  5
2DA
100
AcDbEntity
  8
A0
  6
BYBLOCK
 62
0
100
AcDbBlockReference
  2
_OPEN
 10
510.0000000000000
 20
346.5000000000000
 30
0.0000000000000000
 41
3.000000000000000
 42
3.000000000000000
 43
3.000000000000000
 50
270.0000000000000
  0
LINE
  5
2DB
100
AcDbEntity
  8
A0
  6
BYBLOCK
 62
0
100
AcDbLine
 10
510.0000000000000
 20
358.5000000000000
 30
0.0000000000000000
 11
510.0000000000000
 21
370.4302133234245
 31
0.0000000000000000
  0
MTEXT
  5
2DC
100
AcDbEntity
  8
A0
  6
BYBLOCK
 62
0
100
AcDbMText
 10
507.1750000715256
 20
365.4052134664756
 30
0.0000000000000000
 40
4.649999856948853
 41
0.0000000000000000
 71
     5
 72
     1
  1
\A1;\U+220512
 11
6.123233995736766e-017
 21
1.000000000000000
 31
0.0000000000000000
  7
STANDARD
  0
ENDBLK
  5
2DD
100
AcDbEntity
  8
A0
  6
CONTINUOUS
 62
3
100
AcDbBlockEnd
  0
BLOCK
  5
2DF
100
AcDbEntity
  8
A0
  6
CONTINUOUS
 62
3
100
AcDbBlockBegin
  2
*D24
 70
    65
 10
0.0
 20
0.0
 30
0.0
  0
LINE
  5
2E0
100
AcDbEntity
  8
A0
  6
BYBLOCK
 62
0
100
AcDbLine
 10
544.7000000178814
 20
367.5000000000000
 30
0.0000000000000000
 11
563.0000000000000
 21
367.5000000000000
 31
0.0000000000000000
  0
LINE
  5
2E1
100
AcDbEntity
  8
A0
  6
BYBLOCK
 62
0
100
AcDbLine
 10
560.0000000000000
 20
364.5000000000000
 30
0.0000000000000000
 11
560.0000000000000
 21
355.5000000000000
 31
0.0000000000000000
  0
INSERT
  5
2E2
100
AcDbEntity
  8
A0
  6
BYBLOCK
 62
0
100
AcDbBlockReference
  2
_OPEN
 10
560.0000000000000
 20
367.5000000000000
 30
0.0000000000000000
 41
3.000000000000000
 42
3.000000000000000
 43
3.000000000000000
 50
90.00000000000000
  0
INSERT
  5
2E3
100
AcDbEntity
  8
A0
  6
BYBLOCK
 62
0
100
AcDbBlockReference
  2
_OPEN
 10
560.0000000000000
 20
352.5000000000000
 30
0.0000000000000000
 41
3.000000000000000
 42
3.000000000000000
 43
3.000000000000000
 50
270.0000000000000
  0
MTEXT
  5
2E4
100
AcDbEntity
  8
A0
  6
BYBLOCK
 62
0
100
AcDbMText
 10
557.1750000715256
 20
362.0689996083236
 30
0.0000000000000000
 40
4.649999856948853
 41
0.0000000000000000
 71
     5
 72
     1
  1
\A1;15
 11
6.123233995736766e-017
 21
1.000000000000000
 31
0.0000000000000000
  7
STANDARD
  0
ENDBLK
  5
2E5
100
AcDbEntity
  8
A0
  6
CONTINUOUS
 62
3
100
AcDbBlockEnd
  0
BLOCK
  5
2E7
100
AcDbEntity
  8
A0
  6
CONTINUOUS
 62
3
100
AcDbBlockBegin
  2
*D25
 70
    65
 10
0.0
 20
0.0
 30
0.0
  0
LINE
  5
2E8
100
AcDbEntity
  8
A0
  6
BYBLOCK
 62
0
100
AcDbLine
 10
544.7000000178814
 20
367.5000000000000
 30
0.0000000000000000
 11
575.5000000000000
 21
367.5000000000000
 31
0.0000000000000000
  0
LINE
  5
2E9
100
AcDbEntity
  8
A0
  6
BYBLOCK
 62
0
100
AcDbLine
 10
572.5000000000000
 20
364.5000000000000
 30
0.0000000000000000
 11
572.5000000000000
 21
210.5000000000000
 31
0.0000000000000000
  0
INSERT
  5
2EA
100
AcDbEntity
  8
A0
  6
BYBLOCK
 62
0
100
AcDbBlockReference
  2
_OPEN
 10
572.5000000000000
 20
367.5000000000000
 30
0.0000000000000000
 41
3.000000000000000
 42
3.000000000000000
 43
3.000000000000000
 50
90.00000000000000
  0
INSERT
  5
2EB
100
AcDbEntity
  8
A0
  6
BYBLOCK
 62
0
100
AcDbBlockReference
  2
_OPEN
 10
572.5000000000000
 20
207.5000000000000
 30
0.0000000000000000
 41
3.000000000000000
 42
3.000000000000000
 43
3.000000000000000
 50
270.0000000000000
  0
LINE
  5
2EC
100
AcDbEntity
  8
A0
  6
BYBLOCK
 62
0
100
AcDbLine
 10
540.8500000178797
 20
207.5000000000000
 30
0.0000000000000000
 11
575.5000000000000
 21
207.5000000000000
 31
0.0000000000000000
  0
MTEXT
  5
2ED
100
AcDbEntity
  8
A0
  6
BYBLOCK
 62
0
100
AcDbMText
 10
569.6750000715256
 20
287.5000000000000
 30
0.0000000000000000
 40
4.649999856948853
 41
0.0000000000000000
 71
     5
 72
     1
  1
\A1;160
 11
6.123233995736766e-017
 21
1.000000000000000
 31
0.0000000000000000
  7
STANDARD
  0
ENDBLK
  5
2EE
100
AcDbEntity
  8
A0
  6
CONTINUOUS
 62
3
100
AcDbBlockEnd
  0
BLOCK
  5
2F0
100
AcDbEntity
  8
A0
  6
CONTINUOUS
 62
3
100
AcDbBlockBegin
  2
*D26
 70
    65
 10
0.0
 20
0.0
 30
0.0
  0
LINE
  5
2F1
100
AcDbEntity
  8
A0
  6
BYBLOCK
 62
0
100
AcDbLine
 10
524.5000000000000
 20
301.4104816805120
 30
0.0000000000000000
 11
540.5000000000000
 21
301.4104816805120
 31
0.0000000000000000
  0
INSERT
  5
2F2
100
AcDbEntity
  8
A0
  6
BYBLOCK
 62
0
100
AcDbBlockReference
  2
_OPEN
 10
521.5000000000000
 20
301.4104816805120
 30
0.0000000000000000
 41
3.000000000000000
 42
3.000000000000000
 43
3.000000000000000
 50
180.0000000000000
  0
INSERT
  5
2F3
100
AcDbEntity
  8
A0
  6
BYBLOCK
 62
0
100
AcDbBlockReference
  2
_OPEN
 10
543.5000000000000
 20
301.4104816805120
 30
0.0000000000000000
 41
3.000000000000000
 42
3.000000000000000
 43
3.000000000000000
 50
0.0000000000000000
  0
MTEXT
  5
2F4
100
AcDbEntity
  8
A0
  6
BYBLOCK
 62
0
100
AcDbMText
 10
532.5000000000000
 20
304.2354816089864
 30
0.0000000000000000
 40
4.649999856948853
 41
0.0000000000000000
 71
     5
 72
     1
  1
\A1;\U+220522
 11
1.000000000000000
 21
0.0000000000000000
 31
0.0000000000000000
  7
STANDARD
  0
ENDBLK
  5
2F5
100
AcDbEntity
  8
A0
  6
CONTINUOUS
 62
3
100
AcDbBlockEnd
  0
BLOCK
  5
2F9
100
AcDbEntity
  8
A0
  6
CONTINUOUS
 62
3
100
AcDbBlockBegin
  2
*D27
 70
    65
 10
0.0
 20
0.0
 30
0.0
  0
LINE
  5
2FA
100
AcDbEntity
  8
A0
  6
BYBLOCK
 62
0
100
AcDbLine
 10
532.7132467759682
 20
178.6576554950292
 30
0.0000000000000000
 11
541.5567714790404
 21
169.8141307919350
 31
0.0000000000000000
  0
LINE
  5
2FB
100
AcDbEntity
  8
A0
  6
BYBLOCK
 62
0
100
AcDbLine
 10
541.5567714790457
 20
174.0567714790543
 30
0.0000000000000000
 11
545.7994121661702
 21
178.2994121661683
 31
0.0000000000000000
  0
INSERT
  5
2FC
100
AcDbEntity
  8
A0
  6
BYBLOCK
 62
0
100
AcDbBlockReference
  2
_OPEN
 10
539.4354511354834
 20
171.9354511354972
 30
0.0000000000000000
 41
3.000000000000000
 42
3.000000000000000
 43
3.000000000000000
 50
224.9999999999290
  0
INSERT
  5
2FD
100
AcDbEntity
  8
A0
  6
BYBLOCK
 62
0
100
AcDbBlockReference
  2
_OPEN
 10
547.9207325097325
 20
180.4207325097253
 30
0.0000000000000000
 41
3.000000000000000
 42
3.000000000000000
 43
3.000000000000000
 50
44.99999999992899
  0
LINE
  5
2FE
100
AcDbEntity
  8
A0
  6
BYBLOCK
 62
0
100
AcDbLine
 10
547.9207325097325
 20
180.4207325097253
 30
0.0000000000000000
 11
562.9372737608234
 21
195.4372737607790
 31
0.0000000000000000
  0
LINE
  5
2FF
100
AcDbEntity
  8
A0
  6
BYBLOCK
 62
0
100
AcDbLine
 10
541.1985281500669
 20
187.1429368694077
 30
0.0000000000000000
 11
550.0420528532895
 21
178.2994121661631
 31
0.0000000000000000
  0
MTEXT
  5
300
100
AcDbEntity
  8
A0
  6
BYBLOCK
 62
0
100
AcDbMText
 10
554.2663768221420
 20
191.1150834252585
 30
0.0000000000000000
 40
4.649999856948853
 41
0.0000000000000000
 71
     5
 72
     1
  1
\A1;12\H0.903226x;\S 0^ -0.15;
 11
0.7071067811874227
 21
0.7071067811856724
 31
0.0000000000000000
  7
STANDARD
  0
ENDBLK
  5
301
100
AcDbEntity
  8
A0
  6
CONTINUOUS
 62
3
100
AcDbBlockEnd
  0
BLOCK
  5
312
100
AcDbEntity
  8
A0
  6
CONTINUOUS
 62
3
100
AcDbBlockBegin
  2
*D28
 70
    65
 10
0.0
 20
0.0
 30
0.0
  0
LINE
  5
313
100
AcDbEntity
  8
A0
  6
BYBLOCK
 62
0
100
AcDbLine
 10
612.5000000000000
 20
353.7000000178814
 30
0.0000000000000000
 11
612.5000000000000
 21
388.0000000000000
 31
0.0000000000000000
  0
LINE
  5
314
100
AcDbEntity
  8
A0
  6
BYBLOCK
 62
0
100
AcDbLine
 10
609.5000000000000
 20
385.0000000000000
 30
0.0000000000000000
 11
455.5000000000000
 21
385.0000000000000
 31
0.0000000000000000
  0
INSERT
  5
315
100
AcDbEntity
  8
A0
  6
BYBLOCK
 62
0
100
AcDbBlockReference
  2
_OPEN
 10
612.5000000000000
 20
385.0000000000000
 30
0.0000000000000000
 41
3.000000000000000
 42
3.000000000000000
 43
3.000000000000000
 50
360.0000000000000
  0
INSERT
  5
316
100
AcDbEntity
  8
A0
  6
BYBLOCK
 62
0
100
AcDbBlockReference
  2
_OPEN
 10
452.5000000000000
 20
385.0000000000000
 30
0.0000000000000000
 41
3.000000000000000
 42
3.000000000000000
 43
3.000000000000000
 50
180.0000000000000
  0
LINE
  5
317
100
AcDbEntity
  8
A0
  6
BYBLOCK
 62
0
100
AcDbLine
 10
452.5000000000000
 20
353.7000000178814
 30
0.0000000000000000
 11
452.5000000000000
 21
388.0000000000000
 31
0.0000000000000000
  0
MTEXT
  5
318
100
AcDbEntity
  8
A0
  6
BYBLOCK
 62
0
100
AcDbMText
 10
532.5000000000000
 20
387.8249999284744
 30
0.0000000000000000
 40
4.649999856948853
 41
0.0000000000000000
 71
     5
 72
     1
  1
\A1;290
 11
1.000000000000000
 21
0.0000000000000000
 31
0.0000000000000000
  7
STANDARD
  0
ENDBLK
  5
319
100
AcDbEntity
  8
A0
  6
CONTINUOUS
 62
3
100
AcDbBlockEnd
  0
BLOCK
  5
31B
100
AcDbEntity
  8
A0
  6
CONTINUOUS
 62
3
100
AcDbBlockBegin
  2
*D29
 70
    65
 10
0.0
 20
0.0
 30
0.0
  0
LINE
  5
31C
100
AcDbEntity
  8
A0
  6
BYBLOCK
 62
0
100
AcDbLine
 10
541.5500000178796
 20
223.5000000000000
 30
0.0000000000000000
 11
563.0000000000000
 21
223.5000000000000
 31
0.0000000000000000
  0
LINE
  5
31D
100
AcDbEntity
  8
A0
  6
BYBLOCK
 62
0
100
AcDbLine
 10
560.0000000000000
 20
220.5000000000000
 30
0.0000000000000000
 11
560.0000000000000
 21
210.5000000000000
 31
0.0000000000000000
  0
INSERT
  5
31E
100
AcDbEntity
  8
A0
  6
BYBLOCK
 62
0
100
AcDbBlockReference
  2
_OPEN
 10
560.0000000000000
 20
223.5000000000000
 30
0.0000000000000000
 41
3.000000000000000
 42
3.000000000000000
 43
3.000000000000000
 50
90.00000000000000
  0
INSERT
  5
31F
100
AcDbEntity
  8
A0
  6
BYBLOCK
 62
0
100
AcDbBlockReference
  2
_OPEN
 10
560.0000000000000
 20
207.5000000000000
 30
0.0000000000000000
 41
3.000000000000000
 42
3.000000000000000
 43
3.000000000000000
 50
270.0000000000000
  0
LINE
  5
320
100
AcDbEntity
  8
A0
  6
BYBLOCK
 62
0
100
AcDbLine
 10
540.8500000178797
 20
207.5000000000000
 30
0.0000000000000000
 11
563.0000000000000
 21
207.5000000000000
 31
0.0000000000000000
  0
MTEXT
  5
321
100
AcDbEntity
  8
A0
  6
BYBLOCK
 62
0
100
AcDbMText
 10
557.1750000715256
 20
215.5000000000000
 30
0.0000000000000000
 40
4.649999856948853
 41
0.0000000000000000
 71
     5
 72
     1
  1
\A1;16
 11
6.123233995736766e-017
 21
1.000000000000000
 31
0.0000000000000000
  7
STANDARD
  0
ENDBLK
  5
322
100
AcDbEntity
  8
A0
  6
CONTINUOUS
 62
3
100
AcDbBlockEnd
  0
ENDSEC
  0
SECTION
  2
ENTITIES
  0
LINE
  5
46
100
AcDbEntity
  8
MAIN0
  6
CENTER
 62
3
100
AcDbLine
 10
362.3500182516873
 20
121.0181101052198
 30
0.0000000000000000
 11
362.3500182516873
 21
380.6712742833703
 31
0.0000000000000000
  0
CIRCLE
  5
47
100
AcDbEntity
  8
MAIN0
  6
HIDDEN
 62
3
100
AcDbCircle
 10
362.3500182516872
 20
250.5000000000000
 30
0.0000000000000000
 40
95.50000000000000
  0
CIRCLE
  5
48
100
AcDbEntity
  8
MAIN0
  6
HIDDEN
 62
3
100
AcDbCircle
 10
362.3500182516872
 20
250.5000000000000
 30
0.0000000000000000
 40
52.50000000000000
  0
LINE
  5
49
100
AcDbEntity
  8
MAIN0
  6
CENTER
 62
3
100
AcDbLine
 10
254.8737899559801
 20
188.4485706613353
 30
0.0000000000000000
 11
475.4056449454764
 21
315.7726965048724
 31
0.0000000000000000
  0
LINE
  5
4A
100
AcDbEntity
  8
MAIN0
  6
HIDDEN
 62
3
100
AcDbLine
 10
272.7477982963173
 20
324.1711760396797
 30
0.0000000000000000
 11
346.3941741281725
 21
281.6514211281939
 31
0.0000000000000000
  0
LINE
  5
4B
100
AcDbEntity
  8
MAIN0
  6
HIDDEN
 62
3
100
AcDbLine
 10
253.7477982965032
 20
291.2622106957635
 30
0.0000000000000000
 11
327.3941741290169
 21
248.7424557838975
 31
0.0000000000000000
  0
LINE
  5
4C
100
AcDbEntity
  8
MAIN0
  6
HIDDEN
 62
3
100
AcDbLine
 10
378.3058623747455
 20
281.6514211284281
 30
0.0000000000000000
 11
451.9522382067625
 21
324.1711760400385
 31
0.0000000000000000
  0
LINE
  5
4D
100
AcDbEntity
  8
MAIN0
  6
HIDDEN
 62
3
100
AcDbLine
 10
397.3058623743840
 20
248.7424557844108
 30
0.0000000000000000
 11
470.9522382067081
 21
291.2622106961984
 31
0.0000000000000000
  0
LINE
  5
4E
100
AcDbEntity
  8
MAIN0
  6
HIDDEN
 62
3
100
AcDbLine
 10
343.3500182516873
 20
136.0666132634362
 30
0.0000000000000000
 11
343.3500182516873
 21
221.1061230866018
 31
0.0000000000000000
  0
LINE
  5
4F
100
AcDbEntity
  8
MAIN0
  6
HIDDEN
 62
3
100
AcDbLine
 10
381.3500182516873
 20
136.0666132634361
 30
0.0000000000000000
 11
381.3500182516873
 21
221.1061230866019
 31
0.0000000000000000
  0
LINE
  5
50
100
AcDbEntity
  8
MAIN0
  6
HIDDEN
 62
3
100
AcDbLine
 10
254.1991242745489
 20
208.5549868047969
 30
0.0000000000000000
 11
272.2106925917042
 21
218.9539706212718
 31
0.0000000000000000
  0
LINE
  5
51
100
AcDbEntity
  8
MAIN0
  6
HIDDEN
 62
3
100
AcDbLine
 10
271.9491242746964
 20
177.8110849705344
 30
0.0000000000000000
 11
289.9606925918743
 21
188.2100687870223
 31
0.0000000000000000
  0
LINE
  5
52
100
AcDbEntity
  8
MAIN0
  6
HIDDEN
 62
3
100
AcDbLine
 10
452.7509122284334
 20
177.8110849702302
 30
0.0000000000000000
 11
434.7393439112399
 21
188.2100687867196
 31
0.0000000000000000
  0
LINE
  5
53
100
AcDbEntity
  8
MAIN0
  6
HIDDEN
 62
3
100
AcDbLine
 10
470.5009122286847
 20
208.5549868044327
 30
0.0000000000000000
 11
452.4893439115380
 21
218.9539706208949
 31
0.0000000000000000
  0
LINE
  5
54
100
AcDbEntity
  8
MAIN0
  6
HIDDEN
 62
3
100
AcDbLine
 10
344.6000182516873
 20
365.1339282237157
 30
0.0000000000000000
 11
344.6000182516873
 21
344.3359605908098
 31
0.0000000000000000
  0
LINE
  5
55
100
AcDbEntity
  8
MAIN0
  6
HIDDEN
 62
3
100
AcDbLine
 10
380.1000182516873
 20
365.1339282237157
 30
0.0000000000000000
 11
380.1000182516873
 21
344.3359605908098
 31
0.0000000000000000
  0
LINE
  5
56
100
AcDbEntity
  8
MAIN0
  6
CENTER
 62
3
100
AcDbLine
 10
239.0927836490378
 20
250.5000000000000
 30
0.0000000000000000
 11
491.4090942647323
 21
250.5000000000000
 31
0.0000000000000000
  0
LINE
  5
57
100
AcDbEntity
  8
MAIN0
  6
CENTER
 62
3
100
AcDbLine
 10
300.4956033463922
 20
357.6349892905924
 30
0.0000000000000000
 11
319.3236909501675
 21
325.0237849513987
 31
0.0000000000000000
  0
LINE
  5
58
100
AcDbEntity
  8
MAIN0
  6
CENTER
 62
3
100
AcDbLine
 10
301.3293606484820
 20
144.8091207226903
 30
0.0000000000000000
 11
319.3236820573853
 21
175.9761996505836
 31
0.0000000000000000
  0
ARC
  5
59
100
AcDbEntity
  8
MAIN0
  6
CENTER
 62
3
100
AcDbCircle
 10
362.3500182524257
 20
250.5000000000000
 30
0.0000000000000000
 40
104.0000000000000
100
AcDbArc
 50
230.3096256393978
 51
249.7602930167696
  0
ARC
  5
5A
100
AcDbEntity
  8
MAIN0
  6
CENTER
 62
3
100
AcDbCircle
 10
362.3500182524257
 20
250.5000000000000
 30
0.0000000000000000
 40
104.0000000000000
100
AcDbArc
 50
351.6167537707907
 51
368.9264086284535
  0
ARC
  5
5B
100
AcDbEntity
  8
MAIN0
  6
CENTER
 62
3
100
AcDbCircle
 10
362.3500182524257
 20
250.5000000000000
 30
0.0000000000000000
 40
104.0000000000000
100
AcDbArc
 50
111.5264925010217
 51
129.5794010234508
  0
LINE
  5
5C
100
AcDbEntity
  8
MAIN0
  6
CENTER
 62
3
100
AcDbLine
 10
274.6194196879852
 20
181.0848315537887
 30
0.0000000000000000
 11
287.3935248220893
 21
188.4599645916472
 31
0.0000000000000000
  0
LINE
  5
5D
100
AcDbEntity
  8
MAIN0
  6
CENTER
 62
3
100
AcDbLine
 10
346.1000182516873
 20
362.0670834746341
 30
0.0000000000000000
 11
346.1000182516873
 21
346.3108161927789
 31
0.0000000000000000
  0
LINE
  5
5E
100
AcDbEntity
  8
MAIN0
  6
CENTER
 62
3
100
AcDbLine
 10
466.7707785427422
 20
208.9765296845611
 30
0.0000000000000000
 11
453.7271933462633
 21
216.5072471089680
 31
0.0000000000000000
  0
ARC
  5
5F
100
AcDbEntity
  8
MAIN0
  6
CENTER
 62
3
100
AcDbCircle
 10
362.3500182516873
 20
250.4999999995736
 30
0.0000000000000000
 40
104.0000000000000
100
AcDbArc
 50
214.3192672555574
 51
224.0947987703929
  0
ARC
  5
60
100
AcDbEntity
  8
MAIN0
  6
CENTER
 62
3
100
AcDbCircle
 10
362.3500182516873
 20
250.4999999995736
 30
0.0000000000000000
 40
104.0000000000000
100
AcDbArc
 50
333.4349488230950
 51
344.3908996878355
  0
ARC
  5
61
100
AcDbEntity
  8
MAIN0
  6
CENTER
 62
3
100
AcDbCircle
 10
362.3500182516873
 20
250.4999999995736
 30
0.0000000000000000
 40
104.0000000000000
100
AcDbArc
 50
94.99201459152539
 51
102.8560238172958
  0
ARC
  5
62
100
AcDbEntity
  8
MAIN0
  6
CONTINUOUS
 62
3
100
AcDbCircle
 10
362.3500182516872
 20
250.5000000000000
 30
0.0000000000000000
 40
35.00000000000000
100
AcDbArc
 50
287.8877650527563
 51
372.1122397370675
  0
ARC
  5
63
100
AcDbEntity
  8
MAIN0
  6
CONTINUOUS
 62
3
100
AcDbCircle
 10
362.3500182516872
 20
250.5000000000000
 30
0.0000000000000000
 40
35.00000000000000
100
AcDbArc
 50
167.8877650527561
 51
252.1122397326426
  0
ARC
  5
64
100
AcDbEntity
  8
MAIN0
  6
CONTINUOUS
 62
3
100
AcDbCircle
 10
362.3500182516872
 20
250.5000000000000
 30
0.0000000000000000
 40
35.00000000000000
100
AcDbArc
 50
47.88776505194117
 51
132.1122397378823
  0
ARC
  5
65
100
AcDbEntity
  8
MAIN0
  6
CONTINUOUS
 62
3
100
AcDbCircle
 10
362.3500182516872
 20
250.5000000000000
 30
0.0000000000000000
 40
116.0000000000000
100
AcDbArc
 50
36.68318794866457
 51
143.3416779202478
  0
ARC
  5
66
100
AcDbEntity
  8
MAIN0
  6
CONTINUOUS
 62
3
100
AcDbCircle
 10
362.3500182516872
 20
250.5000000000000
 30
0.0000000000000000
 40
116.0000000000000
100
AcDbArc
 50
156.6583242388807
 51
263.3168120501196
  0
ARC
  5
67
100
AcDbEntity
  8
MAIN0
  6
CONTINUOUS
 62
3
100
AcDbCircle
 10
362.3500182516872
 20
250.5000000000000
 30
0.0000000000000000
 40
116.0000000000000
100
AcDbArc
 50
276.6831879482711
 51
383.3168120505131
  0
ARC
  5
68
100
AcDbEntity
  8
MAIN0
  6
CENTER
 62
3
100
AcDbCircle
 10
362.3500182516873
 20
250.4999999980187
 30
0.0000000000000000
 40
49.00000000000000
100
AcDbArc
 50
95.02409306856703
 51
122.9977025070904
  0
DIMENSION
  5
71
100
AcDbEntity
  8
MAIN0
  6
CONTINUOUS
 62
3
100
AcDbDimension
  2
*D0
 10
80.00000000000000
 20
285.5000000000000
 30
0.0000000000000000
 11
79.50000000000000
 21
250.5000000000000
 31
0.0000000000000000
 70
32
  1
\A1;\U+220570
  3
MAIN001
100
AcDbAlignedDimension
 13
116.5573108139303
 23
215.5000000000000
 33
0.0000000000000000
 14
116.5573108139303
 24
285.5000000000000
 34
0.0000000000000000
 50
90.00000000000000
100
AcDbRotatedDimension
1001
ACAD
1000
DSTYLE
1002
{
1070
   173
1070
     1
1070
     6
1000
_OPEN
1070
     7
1000
_OPEN
1070
    41
1040
3.000000
1002
}
  0
DIMENSION
  5
7A
100
AcDbEntity
  8
MAIN0
  6
CONTINUOUS
 62
3
100
AcDbDimension
  2
*D1
 10
70.00000000000000
 20
345.5000000000000
 30
0.0000000000000000
 11
69.50000000000000
 21
253.8740691271061
 31
0.0000000000000000
 70
160
  1
\A1;\U+2205190H6\H0.903226x;\S＋0.029^ 　0;
  3
MAIN001
100
AcDbAlignedDimension
 13
96.35731081393027
 23
155.5000000000000
 33
0.0000000000000000
 14
96.35731081393027
 24
345.5000000000000
 34
0.0000000000000000
 50
90.00000000000000
100
AcDbRotatedDimension
1001
ACAD
1000
DSTYLE
1002
{
1070
   173
1070
     1
1070
     6
1000
_OPEN
1070
     7
1000
_OPEN
1070
    41
1040
3.000000
1070
   272
1070
     3
1070
    47
1040
0.029000
1070
    48
1040
0.000000
1070
    71
1070
     1
1070
   340
1005
7B
1002
}
  0
DIMENSION
  5
84
100
AcDbEntity
  8
MAIN0
  6
CONTINUOUS
 62
3
100
AcDbDimension
  2
*D2
 10
58.22017362249390
 20
366.5000000000000
 30
0.0000000000000000
 11
57.72017362249390
 21
250.5000000000000
 31
0.0000000000000000
 70
32
  1
\A1;\U+2205232
  3
MAIN001
100
AcDbAlignedDimension
 13
98.35731081393030
 23
134.5000000000000
 33
0.0000000000000000
 14
98.35731081393027
 24
366.5000000000000
 34
0.0000000000000000
 50
90.00000000000000
100
AcDbRotatedDimension
1001
ACAD
1000
DSTYLE
1002
{
1070
   173
1070
     1
1070
     6
1000
_OPEN
1070
     7
1000
_OPEN
1070
    41
1040
3.000000
1002
}
  0
DIMENSION
  5
8D
100
AcDbEntity
  8
MAIN0
  6
CONTINUOUS
 62
3
100
AcDbDimension
  2
*D3
 10
96.35731081393030
 20
396.5000000000000
 30
0.0000000000000000
 11
143.7250000096924
 21
397.2500000000000
 31
0.0000000000000000
 70
160
  3
MAIN001
100
AcDbAlignedDimension
 13
180.3573108139303
 23
364.5000000000000
 33
0.0000000000000000
 14
96.35731081393030
 24
364.5000000000000
 34
0.0000000000000000
100
AcDbRotatedDimension
1001
ACAD
1000
DSTYLE
1002
{
1070
   173
1070
     1
1070
     6
1000
_OPEN
1070
     7
1000
_OPEN
1070
    41
1040
3.000000
1002
}
  0
DIMENSION
  5
96
100
AcDbEntity
  8
MAIN0
  6
CONTINUOUS
 62
3
100
AcDbDimension
  2
*D4
 10
167.3573108139303
 20
372.5000000000000
 30
0.0000000000000000
 11
173.8573108139303
 21
373.0000000000000
 31
0.0000000000000000
 70
32
  3
MAIN001
100
AcDbAlignedDimension
 13
180.3573108139303
 23
364.5000000000000
 33
0.0000000000000000
 14
167.3573108139303
 24
364.5000000000001
 34
0.0000000000000000
100
AcDbRotatedDimension
1001
ACAD
1000
DSTYLE
1002
{
1070
   173
1070
     1
1070
     6
1000
_OPEN
1070
     7
1000
_OPEN
1070
    41
1040
3.000000
1002
}
  0
DIMENSION
  5
A0
100
AcDbEntity
  8
MAIN0
  6
CONTINUOUS
 62
3
100
AcDbDimension
  2
*D5
 10
80.00000000000000
 20
361.2500000000001
 30
0.0000000000000000
 11
79.25000000000000
 21
375.5759522723266
 31
0.0000000000000000
 70
160
  1
\A1;\U+220513.5
  3
MAIN001
100
AcDbAlignedDimension
 13
96.95731081393029
 23
347.7500000000000
 33
0.0000000000000000
 14
96.95731081393029
 24
361.2500000000001
 34
0.0000000000000000
 50
90.00000000000000
100
AcDbRotatedDimension
1001
ACAD
1000
DSTYLE
1002
{
1070
   173
1070
     1
1070
     6
1000
_OPEN
1070
     7
1000
_OPEN
1070
    41
1040
3.000000
1002
}
  0
DIMENSION
  5
A9
100
AcDbEntity
  8
MAIN0
  6
CONTINUOUS
 62
3
100
AcDbDimension
  2
*D6
 10
192.0000000000000
 20
364.5000000000000
 30
0.0000000000000000
 11
191.5000000000000
 21
354.5000000000000
 31
0.0000000000000000
 70
32
  1
\A1;\U+220520
  3
MAIN001
100
AcDbAlignedDimension
 13
179.7573108139303
 23
344.5000000000000
 33
0.0000000000000000
 14
179.7573108139303
 24
364.5000000000000
 34
0.0000000000000000
 50
90.00000000000000
100
AcDbRotatedDimension
1001
ACAD
1000
DSTYLE
1002
{
1070
   173
1070
     1
1070
     6
1000
_OPEN
1070
     7
1000
_OPEN
1070
    41
1040
3.000000
1002
}
  0
DIMENSION
  5
B1
100
AcDbEntity
  8
MAIN0
  6
CONTINUOUS
 62
3
100
AcDbDimension
  2
*D7
 10
180.3573108139303
 20
271.4914118321858
 30
0.0000000000000000
 11
196.8573108139303
 21
271.9914118321858
 31
0.0000000000000000
 70
32
  3
MAIN001
100
AcDbAlignedDimension
 13
213.3573108139303
 23
263.7500000000000
 33
0.0000000000000000
 14
180.3573108139303
 24
222.4999888764447
 34
0.0000000000000000
100
AcDbRotatedDimension
1001
ACAD
1000
DSTYLE
1002
{
1070
   173
1070
     1
1070
     6
1000
_OPEN
1070
     7
1000
_OPEN
1070
    41
1040
3.000000
1002
}
  0
DIMENSION
  5
BA
100
AcDbEntity
  8
MAIN0
  6
CONTINUOUS
 62
3
100
AcDbDimension
  2
*D8
 10
228.8662095849145
 20
263.7500000000000
 30
0.0000000000000000
 11
228.3662095849145
 21
250.5000000000000
 31
0.0000000000000000
 70
32
  3
MAIN001
100
AcDbAlignedDimension
 13
213.3573108139303
 23
237.2500000000001
 33
0.0000000000000000
 14
213.3573108139303
 24
263.7500000000000
 34
0.0000000000000000
 50
90.00000000000000
100
AcDbRotatedDimension
1001
ACAD
1000
DSTYLE
1002
{
1070
   173
1070
     1
1070
     6
1000
_OPEN
1070
     7
1000
_OPEN
1070
    41
1040
3.000000
1002
}
  0
DIMENSION
  5
C3
100
AcDbEntity
  8
MAIN0
  6
CONTINUOUS
 62
3
100
AcDbDimension
  2
*D9
 10
228.8662095849145
 20
222.4999888765667
 30
0.0000000000000000
 11
228.3662095849145
 21
178.4999888764509
 31
0.0000000000000000
 70
32
  3
MAIN001
100
AcDbAlignedDimension
 13
186.3520253631605
 23
134.4999888764698
 33
0.0000000000000000
 14
212.6520253627702
 24
222.4999888765864
 34
0.0000000000000000
 50
90.00000000000000
100
AcDbRotatedDimension
1001
ACAD
1000
DSTYLE
1002
{
1070
   173
1070
     1
1070
     6
1000
_OPEN
1070
     7
1000
_OPEN
1070
    41
1040
3.000000
1002
}
  0
DIMENSION
  5
CC
100
AcDbEntity
  8
MAIN0
  6
CONTINUOUS
 62
3
100
AcDbDimension
  2
*D10
 10
96.35731081393030
 20
184.1710726684284
 30
0.0000000000000000
 11
91.56463048477023
 21
184.6710726684284
 31
0.0000000000000000
 70
160
  3
MAIN001
100
AcDbAlignedDimension
 13
102.3573108139303
 23
155.9000000000000
 33
0.0000000000000000
 14
96.35731081393030
 24
136.5000000000000
 34
0.0000000000000000
100
AcDbRotatedDimension
1001
ACAD
1000
DSTYLE
1002
{
1070
   173
1070
     1
1070
     6
1000
_OPEN
1070
     7
1000
_OPEN
1070
    41
1040
3.000000
1070
   287
1070
     0
1002
}
  0
DIMENSION
  5
D6
100
AcDbEntity
  8
MAIN0
  6
CONTINUOUS
 62
3
100
AcDbDimension
  2
*D11
 10
132.2376845899551
 20
401.6343448498223
 30
0.0000000000000000
 11
145.2389916698669
 21
415.3427587109285
 31
0.0000000000000000
 70
161
  3
MAIN001
100
AcDbAlignedDimension
 13
133.6073108139303
 23
417.2352813743200
 33
0.0000000000000000
 14
125.1220294397830
 24
408.7499999999901
 34
0.0000000000000000
 50
45.00000000001671
1001
ACAD
1000
DSTYLE
1002
{
1070
   173
1070
     1
1070
     6
1000
_OPEN
1070
     7
1000
_OPEN
1070
    41
1040
3.000000
1070
   272
1070
     2
1070
    47
1040
0.150000
1070
    48
1040
-0.050000
1070
    71
1070
     1
1070
   340
1005
7B
1002
}
  0
MTEXT
  5
D7
100
AcDbEntity
  8
MAIN0
  6
CONTINUOUS
 62
3
100
AcDbMText
 10
385.1511096150475
 20
155.7234011836247
 30
0.0000000000000000
 40
6.000000000000000
 41
0.0000000000000000
 71
     1
 72
     1
  1
{\H0.84x;{１}}
 11
1.000000000000000
 21
0.0000000000000000
 31
0.0000000000000000
  7
KNJYOKO
  0
MTEXT
  5
D8
100
AcDbEntity
  8
MAIN0
  6
CONTINUOUS
 62
3
100
AcDbMText
 10
267.1898454875405
 20
278.2176500480992
 30
0.0000000000000000
 40
4.649999856948853
 41
0.0000000000000000
 71
     1
 72
     1
  1
{\H0.84x;{３}}
 11
-0.5000000000000004
 21
-0.8660254037844384
 31
0.0000000000000000
  7
KNJYOKO
  0
MTEXT
  5
D9
100
AcDbEntity
  8
MAIN0
  6
CONTINUOUS
 62
3
100
AcDbMText
 10
433.8775037738042
 20
319.2181743046307
 30
0.0000000000000000
 40
4.649999856948853
 41
0.0000000000000000
 71
     1
 72
     1
  1
{\H0.84x;{２}}
 11
-0.4999999999999998
 21
0.8660254037844387
 31
0.0000000000000000
  7
KNJYOKO
  0
ARC
  5
DA
100
AcDbEntity
  8
MAIN0
  6
HIDDEN
 62
3
100
AcDbCircle
 10
160.4811804846029
 20
344.6463673003814
 30
0.0000000000000000
 40
22.50000000000000
100
AcDbArc
 50
138.5860264068159
 51
147.9725542049656
  0
ARC
  5
DB
100
AcDbEntity
  8
MAIN0
  6
HIDDEN
 62
3
100
AcDbCircle
 10
91.23344114335336
 20
344.6463673002731
 30
0.0000000000000000
 40
22.50000000000000
100
AcDbArc
 50
32.02744580075608
 51
41.41397359355194
  0
DIMENSION
  5
E4
100
AcDbEntity
  8
MAIN0
  6
CONTINUOUS
 62
3
100
AcDbDimension
  2
*D12
 10
96.35731081393030
 20
388.5000000000000
 30
0.0000000000000000
 11
111.1073108139303
 21
389.0000000000000
 31
0.0000000000000000
 70
32
  3
MAIN001
100
AcDbAlignedDimension
 13
125.8573108139303
 23
378.0631491774513
 33
0.0000000000000000
 14
96.35731081393030
 24
364.5000000000000
 34
0.0000000000000000
100
AcDbRotatedDimension
1001
ACAD
1000
DSTYLE
1002
{
1070
   173
1070
     1
1070
     6
1000
_OPEN
1070
     7
1000
_OPEN
1070
    41
1040
3.000000
1002
}
  0
DIMENSION
  5
ED
100
AcDbEntity
  8
MAIN0
  6
CONTINUOUS
 62
3
100
AcDbDimension
  2
*D13
 10
125.8573108139303
 20
388.5000000000000
 30
0.0000000000000000
 11
153.1073108139303
 21
389.0000000000000
 31
0.0000000000000000
 70
32
  3
MAIN001
100
AcDbAlignedDimension
 13
180.3573108139303
 23
364.5000000000000
 33
0.0000000000000000
 14
125.8573108139303
 24
378.0631491774513
 34
0.0000000000000000
100
AcDbRotatedDimension
1001
ACAD
1000
DSTYLE
1002
{
1070
   173
1070
     1
1070
     6
1000
_OPEN
1070
     7
1000
_OPEN
1070
    41
1040
3.000000
1002
}
  0
CIRCLE
  5
EE
100
AcDbEntity
  8
MAIN0
  6
CONTINUOUS
 62
3
100
AcDbCircle
 10
310.3500182527920
 20
340.5666419937930
 30
0.0000000000000000
 40
6.750000000000000
  0
CIRCLE
  5
EF
100
AcDbEntity
  8
MAIN0
  6
CONTINUOUS
 62
3
100
AcDbCircle
 10
310.3500182507114
 20
160.4333580074082
 30
0.0000000000000000
 40
6.750000000000000
  0
CIRCLE
  5
F0
100
AcDbEntity
  8
MAIN0
  6
CONTINUOUS
 62
3
100
AcDbCircle
 10
466.3500182524257
 20
250.5000000000000
 30
0.0000000000000000
 40
6.750000000000000
  0
LINE
  5
F1
100
AcDbEntity
  8
MAIN0
  6
CENTER
 62
3
100
AcDbLine
 10
254.1745871198927
 20
312.9551142829135
 30
0.0000000000000000
 11
422.2963252336910
 21
215.8899835260015
 31
0.0000000000000000
  0
LINE
  5
F2
100
AcDbEntity
  8
MAIN0
  6
CENTER
 62
3
100
AcDbLine
 10
444.6837969467895
 20
202.9645707059314
 30
0.0000000000000000
 11
475.0287466557110
 21
185.4449058228889
 31
0.0000000000000000
  0
LINE
  5
F3
100
AcDbEntity
  8
MAIN0
  6
CONTINUOUS
 62
3
100
AcDbLine
 10
178.3573108139303
 20
134.4999888764344
 30
0.0000000000000000
 11
180.3573108139303
 21
136.4999888764433
 31
0.0000000000000000
  0
LINE
  5
F4
100
AcDbEntity
  8
MAIN0
  6
CONTINUOUS
 62
3
100
AcDbLine
 10
107.3573108139303
 20
155.4999999999999
 30
0.0000000000000000
 11
107.3573108139303
 21
154.5000000000001
 31
0.0000000000000000
  0
LINE
  5
F5
100
AcDbEntity
  8
MAIN0
  6
CONTINUOUS
 62
3
100
AcDbLine
 10
107.3573108139303
 20
154.5000000000000
 30
0.0000000000000000
 11
119.8277884008697
 21
154.5000000000000
 31
0.0000000000000000
  0
LINE
  5
F6
100
AcDbEntity
  8
MAIN0
  6
HIDDEN
 62
3
100
AcDbLine
 10
143.6073108152308
 20
365.0300000000000
 30
0.0000000000000000
 11
146.1534255023587
 21
366.5000000000000
 31
0.0000000000000000
  0
LINE
  5
F7
100
AcDbEntity
  8
MAIN0
  6
HIDDEN
 62
3
100
AcDbLine
 10
105.5611961268776
 20
366.5000000000003
 30
0.0000000000000000
 11
108.1073108140040
 21
365.0299999999997
 31
0.0000000000000000
  0
LINE
  5
F8
100
AcDbEntity
  8
MAIN0
  6
PHANTOM
 62
3
100
AcDbLine
 10
181.8573108139303
 20
263.7500000000000
 30
0.0000000000000000
 11
181.8573108139303
 21
264.0000000000000
 31
0.0000000000000000
  0
LINE
  5
F9
100
AcDbEntity
  8
MAIN0
  6
PHANTOM
 62
3
100
AcDbLine
 10
181.8573108139303
 20
237.0000000000000
 30
0.0000000000000000
 11
181.8573108139303
 21
237.2500000000001
 31
0.0000000000000000
  0
MTEXT
  5
FA
100
AcDbEntity
  8
MAIN0
  6
CONTINUOUS
 62
3
100
AcDbMText
 10
437.5835541945947
 20
196.9083065870396
 30
0.0000000000000000
 40
3.099999904632568
 41
0.0000000000000000
 71
     1
 72
     1
  1
{\H0.92x;{JAPAN}}
 11
0.5000000000000009
 21
0.8660254037844382
 31
0.0000000000000000
  7
STANDARD
  0
MTEXT
  5
FB
100
AcDbEntity
  8
MAIN0
  6
CONTINUOUS
 62
3
100
AcDbMText
 10
427.7298108213412
 20
192.7357268969128
 30
0.0000000000000000
 40
2.994604349136353
 41
0.0000000000000000
 71
     1
 72
     1
  1
{\H0.90x;{MAX.2900/min\P}
 11
0.5000000000000009
 21
0.8660254037844382
 31
0.0000000000000000
  7
STANDARD
  0
MTEXT
  5
FC
100
AcDbEntity
  8
MAIN0
  6
CONTINUOUS
 62
3
100
AcDbMText
 10
420.3639447202488
 20
196.3683540826546
 30
0.0000000000000000
 40
4.000000000000000
 41
0.0000000000000000
 71
     1
 72
     1
  1
{\H0.94x;{ＫＩＴＡＧＡＷＡ}}
 11
0.5000000000000949
 21
0.8660254037843839
 31
0.0000000000000000
  7
KNJYOKO
  0
LINE
  5
FD
100
AcDbEntity
  8
MAIN0
  6
CONTINUOUS
 62
3
100
AcDbLine
 10
443.6113476620084
 20
224.2487512320797
 30
0.0000000000000000
 11
424.9654678266073
 21
191.9531400053942
 31
0.0000000000000000
  0
DIMENSION
  5
104
100
AcDbEntity
  8
MAIN0
  6
CONTINUOUS
 62
3
100
AcDbDimension
  2
*D14
 10
470.9290997716752
 20
187.8118380549764
 30
0.0000000000000000
 11
424.7881801955921
 21
142.3539311808722
 31
0.0000000000000000
 70
162
  3
MAIN001
100
AcDb2LineAngularDimension
 13
362.3500182516873
 23
125.1236761111403
 33
0.0000000000000000
 14
362.3500182516873
 24
250.4999999990862
 34
0.0000000000000000
 15
444.6837969467895
 25
202.9645707059314
 35
0.0000000000000000
 16
425.0381801955918
 26
141.9209184789798
 36
0.0000000000000000
1001
ACAD
1000
DSTYLE
1002
{
1070
   173
1070
     1
1070
     6
1000
_OPEN
1070
     7
1000
_OPEN
1070
    41
1040
3.000000
1002
}
  0
DIMENSION
  5
10B
100
AcDbEntity
  8
MAIN0
  6
CONTINUOUS
 62
3
100
AcDbDimension
  2
*D15
 10
487.7263421396332
 20
250.4999999990862
 30
0.0000000000000000
 11
482.9712845870723
 21
218.1796290944189
 31
0.0000000000000000
 70
162
  3
MAIN001
100
AcDb2LineAngularDimension
 13
470.9290997716752
 23
187.8118380549764
 33
0.0000000000000000
 14
444.6837969467895
 24
202.9645707059314
 34
0.0000000000000000
 15
362.3500182516873
 25
250.4999999990862
 35
0.0000000000000000
 16
483.4542475002169
 26
218.0502195718673
 36
0.0000000000000000
1001
ACAD
1000
DSTYLE
1002
{
1070
   173
1070
     1
1070
     6
1000
_OPEN
1070
     7
1000
_OPEN
1070
    41
1040
3.000000
1002
}
  0
DIMENSION
  5
112
100
AcDbEntity
  8
MAIN0
  6
CONTINUOUS
 62
3
100
AcDbDimension
  2
*D16
 10
470.9290997714527
 20
313.1881619435815
 30
0.0000000000000000
 11
482.9712845870150
 21
282.8203709039676
 31
0.0000000000000000
 70
162
  3
MAIN001
100
AcDb2LineAngularDimension
 13
487.7263421396332
 23
250.4999999990862
 33
0.0000000000000000
 14
362.3500182516873
 24
250.4999999990862
 34
0.0000000000000000
 15
362.3500182516873
 25
250.4999999990862
 35
0.0000000000000000
 16
483.4542475001592
 26
282.9497804265200
 36
0.0000000000000000
1001
ACAD
1000
DSTYLE
1002
{
1070
   173
1070
     1
1070
     6
1000
_OPEN
1070
     7
1000
_OPEN
1070
    41
1040
3.000000
1002
}
  0
DIMENSION
  5
11A
100
AcDbEntity
  8
MAIN0
  6
CONTINUOUS
 62
3
100
AcDbDimension
  2
*D17
 10
440.7966635357475
 20
343.9890713421376
 30
0.0000000000000000
 11
458.7768766863520
 21
331.4117413470771
 31
0.0000000000000000
 70
162
  3
MAIN001
100
AcDb2LineAngularDimension
 13
470.9290997714527
 23
313.1881619435815
 33
0.0000000000000000
 14
362.3500182516873
 24
250.4999999990862
 34
0.0000000000000000
 15
440.1538759260561
 25
343.2230268990226
 35
0.0000000000000000
 16
458.3938544647924
 26
331.0903475422341
 36
0.0000000000000000
1001
ACAD
1000
DSTYLE
1002
{
1070
   173
1070
     1
1070
     6
1000
_OPEN
1070
     7
1000
_OPEN
1070
    41
1040
3.000000
1002
}
  0
DIMENSION
  5
122
100
AcDbEntity
  8
MAIN0
  6
CONTINUOUS
 62
3
100
AcDbDimension
  2
*D18
 10
362.3500182516873
 20
375.8763238870321
 30
0.0000000000000000
 11
405.4022565895218
 21
368.7850526881109
 31
0.0000000000000000
 70
162
  3
MAIN001
100
AcDb2LineAngularDimension
 13
440.7966635357475
 23
343.9890713421376
 33
0.0000000000000000
 14
440.1538759260561
 24
343.2230268990226
 34
0.0000000000000000
 15
362.3500182516873
 25
250.4999999990862
 35
0.0000000000000000
 16
405.2312465178575
 26
368.3152063777185
 36
0.0000000000000000
1001
ACAD
1000
DSTYLE
1002
{
1070
   173
1070
     1
1070
     6
1000
_OPEN
1070
     7
1000
_OPEN
1070
    41
1040
3.000000
1002
}
  0
DIMENSION
  5
12A
100
AcDbEntity
  8
MAIN0
  6
CONTINUOUS
 62
3
100
AcDbDimension
  2
*D19
 10
341.6463874076770
 20
307.3827582429663
 30
0.0000000000000000
 11
340.4918239967176
 21
374.4639796845379
 31
0.0000000000000000
 70
162
  3
MAIN001
100
AcDb2LineAngularDimension
 13
362.3500182516873
 23
375.8763238870321
 33
0.0000000000000000
 14
362.3500182516873
 24
250.4999999990862
 34
0.0000000000000000
 15
341.9884075510068
 25
306.4430656221819
 35
0.0000000000000000
 16
340.5786480855527
 26
373.9715758080321
 36
0.0000000000000000
1001
ACAD
1000
DSTYLE
1002
{
1070
   173
1070
     1
1070
     6
1000
_OPEN
1070
     7
1000
_OPEN
1070
    41
1040
3.000000
1002
}
  0
DIMENSION
  5
133
100
AcDbEntity
  8
MAIN0
  6
CONTINUOUS
 62
3
100
AcDbDimension
  2
*D20
 10
180.3573108139303
 20
380.5000000000000
 30
0.0000000000000000
 11
176.0000000000000
 21
381.2500000000000
 31
0.0000000000000000
 70
160
  3
MAIN001
100
AcDbAlignedDimension
 13
163.3573108138199
 23
370.1466953134783
 33
0.0000000000000000
 14
180.3573108139303
 24
364.5000000000000
 34
0.0000000000000000
100
AcDbRotatedDimension
1001
ACAD
1000
DSTYLE
1002
{
1070
   173
1070
     1
1070
     6
1000
_OPEN
1070
     7
1000
_OPEN
1070
    41
1040
3.000000
1002
}
  0
DIMENSION
  5
139
100
AcDbEntity
  8
MAIN0
  6
CONTINUOUS
 62
3
100
AcDbDimension
  2
*D21
 10
307.3177044272311
 20
162.2535018539246
 30
0.0000000000000000
 11
320.2139349056341
 21
184.3504680630215
 31
0.0000000000000000
 70
163
  3
MAIN001
100
AcDbDiametricDimension
 15
417.3823320776204
 25
338.7464981460755
 35
0.0000000000000000
1001
ACAD
1000
DSTYLE
1002
{
1070
   287
1070
     2
1070
   173
1070
     1
1070
     6
1000
_OPEN
1070
     7
1000
_NONE
1070
    41
1040
3.000000
1070
   272
1070
     1
1070
    47
1040
0.200000
1070
    48
1040
0.200000
1070
    71
1070
     1
1002
}
  0
MTEXT
  5
13A
100
AcDbEntity
  8
MAIN2
  6
CONTINUOUS
 62
3
100
AcDbMText
 10
414.4947217216007
 20
199.8359863228397
 30
0.0000000000000000
 40
5.000000000000000
 41
0.0000000000000000
 71
     1
 72
     1
  1
{\H0.93x;{JN09-101}}
 11
0.5000000000000949
 21
0.8660254037843839
 31
0.0000000000000000
  7
STANDARD
  0
SPLINE
  5
13B
100
AcDbEntity
  8
MAIN0
  6
CONTINUOUS
 62
3
100
AcDbSpline
210
0.0000000000000000
220
0.0000000000000000
230
1.000000000000000
 70
     8
 71
     3
 72
    20
 73
    16
 74
     0
 42
1.000000000000000e-007
 43
1.000000000000000e-007
 12
0.02887654422259800
 22
-0.8121353781264702
 32
0.0000000000000000
 13
-0.2074275480804175
 23
-0.8317439694135373
 33
0.0000000000000000
 40
0.0000000000000000
 40
0.0000000000000000
 40
0.0000000000000000
 40
0.0000000000000000
 40
22.63846284534354
 40
38.44985114618544
 40
48.75761521022959
 40
56.66330936065054
 40
64.56900351107149
 40
77.31655229505344
 40
92.52345862079899
 40
122.9372712722901
 40
158.5365872876552
 40
167.5365872876552
 40
182.6338540356908
 40
216.6586459090015
 40
238.1631427354001
 40
238.1631427354001
 40
238.1631427354001
 40
238.1631427354001
 10
102.5539298215211
 20
366.5000000000000
 30
0.0000000000000000
 10
102.7718366793496
 20
360.3715011389650
 30
0.0000000000000000
 10
103.2335323310582
 20
347.4150275621394
 30
0.0000000000000000
 10
109.9808587516218
 20
332.3952844591414
 30
0.0000000000000000
 10
112.0500277752793
 20
321.2033626283854
 30
0.0000000000000000
 10
114.9990686913925
 20
313.0003440440156
 30
0.0000000000000000
 10
118.2303075352378
 20
304.0285974743053
 30
0.0000000000000000
 10
120.1251522289260
 20
292.1747275946935
 30
0.0000000000000000
 10
123.2575173098283
 20
273.0042300827571
 30
0.0000000000000000
 10
128.5546959570656
 20
246.3476357199505
 30
0.0000000000000000
 10
129.6113987965806
 20
221.4630136297166
 30
0.0000000000000000
 10
130.8120248079328
 20
201.3673547490060
 30
0.0000000000000000
 10
122.7806263424470
 20
183.1871381191296
 30
0.0000000000000000
 10
121.4682684656378
 20
158.9396978369079
 30
0.0000000000000000
 10
116.8607282018676
 20
140.4620785407212
 30
0.0000000000000000
 10
115.3738531854000
 20
134.5000000238447
 30
0.0000000000000000
  0
LINE
  5
13C
100
AcDbEntity
  8
MAIN0
  6
HIDDEN
 62
3
100
AcDbLine
 10
180.3573108139303
 20
215.5000000000000
 30
0.0000000000000000
 11
129.9911788624910
 21
215.5000000000000
 31
0.0000000000000000
  0
LINE
  5
13D
100
AcDbEntity
  8
MAIN0
  6
HIDDEN
 62
3
100
AcDbLine
 10
180.3573108139303
 20
285.5000000000000
 30
0.0000000000000000
 11
121.2243102215225
 21
285.5000000000000
 31
0.0000000000000000
  0
CIRCLE
  5
13E
100
AcDbEntity
  8
MAIN0
  6
CONTINUOUS
 62
3
100
AcDbCircle
 10
310.3500182527920
 20
340.5666419937931
 30
0.0000000000000000
 40
9.500000000000000
  0
CIRCLE
  5
13F
100
AcDbEntity
  8
MAIN0
  6
CONTINUOUS
 62
3
100
AcDbCircle
 10
466.3500182524257
 20
250.5000000000000
 30
0.0000000000000000
 40
9.500000000000000
  0
CIRCLE
  5
140
100
AcDbEntity
  8
MAIN0
  6
CONTINUOUS
 62
3
100
AcDbCircle
 10
310.3500182507114
 20
160.4333580074082
 30
0.0000000000000000
 40
9.500000000000000
  0
CIRCLE
  5
141
100
AcDbEntity
  8
MAIN0
  6
HIDDEN
 62
3
100
AcDbCircle
 10
281.5146162461792
 20
185.0657751427919
 30
0.0000000000000000
 40
4.000000000000000
  0
CIRCLE
  5
142
100
AcDbEntity
  8
MAIN0
  6
HIDDEN
 62
3
100
AcDbCircle
 10
281.5146162461792
 20
185.0657751427919
 30
0.0000000000000000
 40
3.400000000000000
  0
CIRCLE
  5
143
100
AcDbEntity
  8
MAIN0
  6
HIDDEN
 62
3
100
AcDbCircle
 10
346.1000182516873
 20
353.2226240898878
 30
0.0000000000000000
 40
4.000000000000000
  0
CIRCLE
  5
144
100
AcDbEntity
  8
MAIN0
  6
HIDDEN
 62
3
100
AcDbCircle
 10
346.1000182516873
 20
353.2226240898878
 30
0.0000000000000000
 40
3.400000000000000
  0
CIRCLE
  5
145
100
AcDbEntity
  8
MAIN0
  6
HIDDEN
 62
3
100
AcDbCircle
 10
459.4354202570984
 20
213.2116007653922
 30
0.0000000000000000
 40
4.000000000000000
  0
CIRCLE
  5
146
100
AcDbEntity
  8
MAIN0
  6
HIDDEN
 62
3
100
AcDbCircle
 10
459.4354202570984
 20
213.2116007653922
 30
0.0000000000000000
 40
3.400000000000000
  0
CIRCLE
  5
147
100
AcDbEntity
  8
MAIN0
  6
CONTINUOUS
 62
3
100
AcDbCircle
 10
345.5910312288287
 20
296.5449384165609
 30
0.0000000000000000
 40
7.500000000000000
  0
LINE
  5
148
100
AcDbEntity
  8
MAIN0
  6
CONTINUOUS
 62
3
100
AcDbLine
 10
348.1888264252186
 20
299.6408701746826
 30
0.0000000000000000
 11
349.5710843779401
 21
295.8431476617188
 31
0.0000000000000000
  0
LINE
  5
149
100
AcDbEntity
  8
MAIN0
  6
CONTINUOUS
 62
3
100
AcDbLine
 10
341.6109780797173
 20
297.2467291714029
 30
0.0000000000000000
 11
342.9932360324387
 21
293.4490066584392
 31
0.0000000000000000
  0
LINE
  5
14A
100
AcDbEntity
  8
MAIN0
  6
CONTINUOUS
 62
3
100
AcDbLine
 10
346.9732891815501
 20
292.7472159035971
 30
0.0000000000000000
 11
349.5710843779401
 21
295.8431476617189
 31
0.0000000000000000
  0
LINE
  5
14B
100
AcDbEntity
  8
MAIN0
  6
CONTINUOUS
 62
3
100
AcDbLine
 10
341.6109780797173
 20
297.2467291714029
 30
0.0000000000000000
 11
344.2087732761072
 21
300.3426609295246
 31
0.0000000000000000
  0
LINE
  5
14C
100
AcDbEntity
  8
MAIN0
  6
CONTINUOUS
 62
3
100
AcDbLine
 10
348.1888264252186
 20
299.6408701746826
 30
0.0000000000000000
 11
344.2087732761072
 21
300.3426609295246
 31
0.0000000000000000
  0
LINE
  5
14D
100
AcDbEntity
  8
MAIN0
  6
CONTINUOUS
 62
3
100
AcDbLine
 10
346.9732891815501
 20
292.7472159035971
 30
0.0000000000000000
 11
342.9932360324386
 21
293.4490066584392
 31
0.0000000000000000
  0
LINE
  5
14E
100
AcDbEntity
  8
MAIN0
  6
CENTER
 62
3
100
AcDbLine
 10
341.6463874076770
 20
307.3827582429663
 30
0.0000000000000000
 11
349.0459929214632
 21
287.0525091809668
 31
0.0000000000000000
  0
CIRCLE
  5
14F
100
AcDbEntity
  8
MAIN0
  6
CONTINUOUS
 62
3
100
AcDbCircle
 10
345.5910312288276
 20
296.5449384165639
 30
0.0000000000000000
 40
2.400000000000000
  0
CIRCLE
  5
150
100
AcDbEntity
  8
MAIN0
  6
CONTINUOUS
 62
3
100
AcDbCircle
 10
345.5910312288276
 20
296.5449384165639
 30
0.0000000000000000
 40
0.4330000000000000
  0
LINE
  5
151
100
AcDbEntity
  8
MAIN0
  6
CONTINUOUS
 62
3
100
AcDbLine
 10
375.8500182500692
 20
135.1000000020104
 30
0.0000000000000000
 11
375.8500182500692
 21
218.2083602143885
 31
0.0000000000000000
  0
LINE
  5
152
100
AcDbEntity
  8
MAIN0
  6
CONTINUOUS
 62
3
100
AcDbLine
 10
375.8500182500692
 20
135.1000000020104
 30
0.0000000000000000
 11
375.2500182500693
 21
134.5000000020104
 31
0.0000000000000000
  0
ARC
  5
153
100
AcDbEntity
  8
MAIN0
  6
CONTINUOUS
 62
3
100
AcDbCircle
 10
362.3500182500692
 20
257.0000000020104
 30
0.0000000000000000
 40
34.50000000000000
100
AcDbArc
 50
267.5080936310201
 51
272.4919063689679
  0
LINE
  5
154
100
AcDbEntity
  8
MAIN0
  6
CONTINUOUS
 62
3
100
AcDbLine
 10
348.8500182500692
 20
135.1000000020104
 30
0.0000000000000000
 11
348.8500182500692
 21
218.2083602157414
 31
0.0000000000000000
  0
LINE
  5
155
100
AcDbEntity
  8
MAIN0
  6
CONTINUOUS
 62
3
100
AcDbLine
 10
348.8500182500692
 20
135.1000000020105
 30
0.0000000000000000
 11
349.4500182500693
 21
134.5000000020105
 31
0.0000000000000000
  0
ARC
  5
156
100
AcDbEntity
  8
MAIN0
  6
CONTINUOUS
 62
3
100
AcDbCircle
 10
362.3500182500692
 20
257.0000000020104
 30
0.0000000000000000
 40
60.50000000000000
100
AcDbArc
 50
257.8546500497358
 51
282.1453499502641
  0
ARC
  5
157
100
AcDbEntity
  8
MAIN0
  6
CONTINUOUS
 62
3
100
AcDbCircle
 10
362.3500182500692
 20
257.0000000020104
 30
0.0000000000000000
 40
88.50000000000000
100
AcDbArc
 50
261.6879548316974
 51
278.3120451683027
  0
ARC
  5
158
100
AcDbEntity
  8
MAIN0
  6
CONTINUOUS
 62
3
100
AcDbCircle
 10
362.3500182500692
 20
257.0000000020104
 30
0.0000000000000000
 40
77.50000000000000
100
AcDbArc
 50
259.9682689664082
 51
280.0317310335917
  0
ARC
  5
159
100
AcDbEntity
  8
MAIN0
  6
CONTINUOUS
 62
3
100
AcDbCircle
 10
362.3500182500692
 20
257.0000000020104
 30
0.0000000000000000
 40
91.00000000000000
100
AcDbArc
 50
261.4685857629293
 51
278.5314142370707
  0
ARC
  5
15A
100
AcDbEntity
  8
MAIN0
  6
CONTINUOUS
 62
3
100
AcDbCircle
 10
362.3500182500692
 20
257.0000000020104
 30
0.0000000000000000
 40
62.00000000000000
100
AcDbArc
 50
257.4235594673761
 51
282.2925431781197
  0
ARC
  5
15B
100
AcDbEntity
  8
MAIN0
  6
CONTINUOUS
 62
3
100
AcDbCircle
 10
362.3500182500692
 20
257.0000000020104
 30
0.0000000000000000
 40
105.5000000000000
100
AcDbArc
 50
262.6481551536395
 51
277.3518448463606
  0
LINE
  5
15C
100
AcDbEntity
  8
MAIN0
  6
CONTINUOUS
 62
3
100
AcDbLine
 10
375.8500182500692
 20
215.6044208923232
 30
0.0000000000000000
 11
363.8500182499929
 21
222.5326241226622
 31
0.0000000000000000
  0
LINE
  5
15D
100
AcDbEntity
  8
MAIN0
  6
CONTINUOUS
 62
3
100
AcDbLine
 10
375.2500182500692
 20
134.5000000020104
 30
0.0000000000000000
 11
349.4500182500693
 21
134.5000000020104
 31
0.0000000000000000
  0
LINE
  5
15E
100
AcDbEntity
  8
MAIN0
  6
CONTINUOUS
 62
3
100
AcDbLine
 10
348.8500182500692
 20
215.6044208923233
 30
0.0000000000000000
 11
360.8500182501455
 21
222.5326241226624
 31
0.0000000000000000
  0
LINE
  5
15F
100
AcDbEntity
  8
MAIN0
  6
CONTINUOUS
 62
3
100
AcDbLine
 10
348.8500182500692
 20
198.6254292108629
 30
0.0000000000000000
 11
349.6212769363003
 21
197.8541705246318
 31
0.0000000000000000
  0
LINE
  5
160
100
AcDbEntity
  8
MAIN0
  6
CONTINUOUS
 62
3
100
AcDbLine
 10
375.8500182500692
 20
198.6254292108628
 30
0.0000000000000000
 11
375.0787595638382
 21
197.8541705246317
 31
0.0000000000000000
  0
LINE
  5
161
100
AcDbEntity
  8
MAIN0
  6
CONTINUOUS
 62
3
100
AcDbLine
 10
375.8500182500691
 20
170.1357215793307
 30
0.0000000000000000
 11
375.1439520461486
 21
169.4296553754102
 31
0.0000000000000000
  0
LINE
  5
162
100
AcDbEntity
  8
MAIN0
  6
CONTINUOUS
 62
3
100
AcDbLine
 10
348.8500182500692
 20
170.1357215793308
 30
0.0000000000000000
 11
349.5560844539899
 21
169.4296553754101
 31
0.0000000000000000
  0
LINE
  5
163
100
AcDbEntity
  8
MAIN0
  6
CONTINUOUS
 62
3
100
AcDbLine
 10
455.5393498482708
 20
319.8913429500541
 30
0.0000000000000000
 11
383.5653986360100
 21
278.3371628430143
 31
0.0000000000000000
  0
LINE
  5
164
100
AcDbEntity
  8
MAIN0
  6
CONTINUOUS
 62
3
100
AcDbLine
 10
455.5393498482709
 20
319.8913429500541
 30
0.0000000000000000
 11
456.3589650905416
 21
319.6717277077835
 31
0.0000000000000000
  0
ARC
  5
165
100
AcDbEntity
  8
MAIN0
  6
CONTINUOUS
 62
3
100
AcDbCircle
 10
356.7208531269478
 20
247.2499999989642
 30
0.0000000000000000
 40
34.50000000000000
100
AcDbArc
 50
27.50809363102010
 51
32.49190636896793
  0
LINE
  5
166
100
AcDbEntity
  8
MAIN0
  6
CONTINUOUS
 62
3
100
AcDbLine
 10
469.0393498482706
 20
296.5086570478742
 30
0.0000000000000000
 11
397.0653986354111
 21
254.9544769404888
 31
0.0000000000000000
  0
LINE
  5
167
100
AcDbEntity
  8
MAIN0
  6
CONTINUOUS
 62
3
100
AcDbLine
 10
469.0393498482707
 20
296.5086570478742
 30
0.0000000000000000
 11
469.2589650905414
 21
297.3282722901449
 31
0.0000000000000000
  0
ARC
  5
168
100
AcDbEntity
  8
MAIN0
  6
CONTINUOUS
 62
3
100
AcDbCircle
 10
356.7208531269478
 20
247.2499999989642
 30
0.0000000000000000
 40
60.50000000000000
100
AcDbArc
 50
17.85465004973586
 51
42.14534995026412
  0
ARC
  5
169
100
AcDbEntity
  8
MAIN0
  6
CONTINUOUS
 62
3
100
AcDbCircle
 10
356.7208531269478
 20
247.2499999989642
 30
0.0000000000000000
 40
88.50000000000000
100
AcDbArc
 50
21.68795483169716
 51
38.31204516830267
  0
ARC
  5
16A
100
AcDbEntity
  8
MAIN0
  6
CONTINUOUS
 62
3
100
AcDbCircle
 10
356.7208531269478
 20
247.2499999989642
 30
0.0000000000000000
 40
77.50000000000000
100
AcDbArc
 50
19.96826896640823
 51
40.03173103359170
  0
ARC
  5
16B
100
AcDbEntity
  8
MAIN0
  6
CONTINUOUS
 62
3
100
AcDbCircle
 10
356.7208531269478
 20
247.2499999989642
 30
0.0000000000000000
 40
91.00000000000000
100
AcDbArc
 50
21.46858576292929
 51
38.53141423707064
  0
ARC
  5
16C
100
AcDbEntity
  8
MAIN0
  6
CONTINUOUS
 62
3
100
AcDbCircle
 10
356.7208531269478
 20
247.2499999989642
 30
0.0000000000000000
 40
62.00000000000000
100
AcDbArc
 50
17.42355946737603
 51
42.29254317811969
  0
ARC
  5
16D
100
AcDbEntity
  8
MAIN0
  6
CONTINUOUS
 62
3
100
AcDbCircle
 10
356.7208531269478
 20
247.2499999989642
 30
0.0000000000000000
 40
105.5000000000000
100
AcDbArc
 50
22.64815515363944
 51
37.35184484636054
  0
LINE
  5
16E
100
AcDbEntity
  8
MAIN0
  6
CONTINUOUS
 62
3
100
AcDbLine
 10
385.8204762403053
 20
279.6391325048977
 30
0.0000000000000000
 11
385.8204762402884
 21
265.7827260442488
 31
0.0000000000000000
  0
LINE
  5
16F
100
AcDbEntity
  8
MAIN0
  6
CONTINUOUS
 62
3
100
AcDbLine
 10
456.3589650905415
 20
319.6717277077835
 30
0.0000000000000000
 11
469.2589650905414
 21
297.3282722901449
 31
0.0000000000000000
  0
LINE
  5
170
100
AcDbEntity
  8
MAIN0
  6
CONTINUOUS
 62
3
100
AcDbLine
 10
399.3204762403053
 20
256.2564466027177
 30
0.0000000000000000
 11
387.3204762402120
 21
263.1846498330276
 31
0.0000000000000000
  0
LINE
  5
171
100
AcDbEntity
  8
MAIN0
  6
CONTINUOUS
 62
3
100
AcDbLine
 10
414.0247143670948
 20
264.7459424434480
 30
0.0000000000000000
 11
414.3070146391447
 21
265.7995014017290
 31
0.0000000000000000
  0
LINE
  5
172
100
AcDbEntity
  8
MAIN0
  6
CONTINUOUS
 62
3
100
AcDbLine
 10
400.5247143670948
 20
288.1286283456279
 30
0.0000000000000000
 11
401.5782733253758
 21
287.8463280735779
 31
0.0000000000000000
  0
LINE
  5
173
100
AcDbEntity
  8
MAIN0
  6
CONTINUOUS
 62
3
100
AcDbLine
 10
425.1975249223929
 20
302.3734821613940
 30
0.0000000000000000
 11
426.1620292937019
 21
302.1150439940054
 31
0.0000000000000000
  0
LINE
  5
174
100
AcDbEntity
  8
MAIN0
  6
CONTINUOUS
 62
3
100
AcDbLine
 10
438.6975249223929
 20
278.9907962592142
 30
0.0000000000000000
 11
438.9559630897815
 21
279.9553006305231
 31
0.0000000000000000
  0
LINE
  5
175
100
AcDbEntity
  8
MAIN0
  6
CONTINUOUS
 62
3
100
AcDbLine
 10
96.35731081393030
 20
136.5000000000000
 30
0.0000000000000000
 11
96.35731081393030
 21
364.5000000000000
 31
0.0000000000000000
  0
LINE
  5
176
100
AcDbEntity
  8
MAIN0
  6
CONTINUOUS
 62
3
100
AcDbLine
 10
96.35731081393030
 20
136.5000000000000
 30
0.0000000000000000
 11
96.35731081393030
 21
364.5000000000000
 31
0.0000000000000000
  0
LINE
  5
177
100
AcDbEntity
  8
MAIN0
  6
CONTINUOUS
 62
3
100
AcDbLine
 10
98.35731081393027
 20
366.5000000000000
 30
0.0000000000000000
 11
178.3573108139303
 21
366.5000000000000
 31
0.0000000000000000
  0
LINE
  5
178
100
AcDbEntity
  8
MAIN0
  6
CONTINUOUS
 62
3
100
AcDbLine
 10
98.35731081393030
 20
134.5000000000000
 30
0.0000000000000000
 11
180.3573108139302
 21
134.5000000000000
 31
0.0000000000000000
  0
LINE
  5
179
100
AcDbEntity
  8
MAIN0
  6
CONTINUOUS
 62
3
100
AcDbLine
 10
102.3573108139303
 20
155.9000000000000
 30
0.0000000000000000
 11
102.3573108139303
 21
345.1000000000000
 31
0.0000000000000000
  0
LINE
  5
17A
100
AcDbEntity
  8
MAIN0
  6
PHANTOM
 62
3
100
AcDbLine
 10
181.8573108139303
 20
264.0000000000000
 30
0.0000000000000000
 11
180.3573108139303
 21
264.0000000000000
 31
0.0000000000000000
  0
LINE
  5
17B
100
AcDbEntity
  8
MAIN0
  6
PHANTOM
 62
3
100
AcDbLine
 10
180.3573108139303
 20
237.0000000000000
 30
0.0000000000000000
 11
181.8573108139303
 21
237.0000000000000
 31
0.0000000000000000
  0
LINE
  5
17C
100
AcDbEntity
  8
MAIN0
  6
PHANTOM
 62
3
100
AcDbLine
 10
212.7573108139303
 20
237.2500000000001
 30
0.0000000000000000
 11
181.8573108139303
 21
237.2500000000001
 31
0.0000000000000000
  0
LINE
  5
17D
100
AcDbEntity
  8
MAIN0
  6
PHANTOM
 62
3
100
AcDbLine
 10
212.7573108139303
 20
263.7500000000000
 30
0.0000000000000000
 11
181.8573108139303
 21
263.7500000000000
 31
0.0000000000000000
  0
LINE
  5
17E
100
AcDbEntity
  8
MAIN0
  6
PHANTOM
 62
3
100
AcDbLine
 10
213.3573108139303
 20
263.1500000000000
 30
0.0000000000000000
 11
213.3573108139303
 21
237.8500000000001
 31
0.0000000000000000
  0
LINE
  5
17F
100
AcDbEntity
  8
MAIN0
  6
CONTINUOUS
 62
3
100
AcDbLine
 10
116.5573108139303
 20
285.5000000000000
 30
0.0000000000000000
 11
121.2243102215225
 21
285.5000000000000
 31
0.0000000000000000
  0
LINE
  5
180
100
AcDbEntity
  8
MAIN0
  6
CONTINUOUS
 62
3
100
AcDbLine
 10
116.5573108139303
 20
215.5000000000000
 30
0.0000000000000000
 11
129.9911788624910
 21
215.5000000000000
 31
0.0000000000000000
  0
LINE
  5
181
100
AcDbEntity
  8
MAIN0
  6
CONTINUOUS
 62
3
100
AcDbLine
 10
102.3573108139303
 20
302.0000000000000
 30
0.0000000000000000
 11
116.3573108139303
 21
302.0000000000000
 31
0.0000000000000000
  0
LINE
  5
182
100
AcDbEntity
  8
MAIN0
  6
CONTINUOUS
 62
3
100
AcDbLine
 10
102.3573108139303
 20
199.0000000000000
 30
0.0000000000000000
 11
116.3573108139303
 21
199.0000000000000
 31
0.0000000000000000
  0
LINE
  5
183
100
AcDbEntity
  8
MAIN0
  6
CONTINUOUS
 62
3
100
AcDbLine
 10
116.3573108139303
 20
302.0000000000000
 30
0.0000000000000000
 11
116.3573108139303
 21
199.0000000000000
 31
0.0000000000000000
  0
LINE
  5
184
100
AcDbEntity
  8
MAIN0
  6
CONTINUOUS
 62
3
100
AcDbLine
 10
118.5483957206880
 20
189.0000000000000
 30
0.0000000000000000
 11
125.9528532673088
 21
189.0000000000000
 31
0.0000000000000000
  0
LINE
  5
185
100
AcDbEntity
  8
MAIN0
  6
CONTINUOUS
 62
3
100
AcDbLine
 10
107.3573108139959
 20
155.5000000000000
 30
0.0000000000000000
 11
110.6080265075573
 21
181.9749547472403
 31
0.0000000000000000
  0
LINE
  5
186
100
AcDbEntity
  8
MAIN0
  6
CONTINUOUS
 62
3
100
AcDbLine
 10
108.7001569013488
 20
334.5633962651385
 30
0.0000000000000000
 11
110.6080265075573
 21
319.0250452527596
 31
0.0000000000000000
  0
ARC
  5
187
100
AcDbEntity
  8
MAIN0
  6
CONTINUOUS
 62
3
100
AcDbCircle
 10
118.5483957206880
 20
320.0000000000000
 30
0.0000000000000000
 40
8.000000000000000
100
AcDbArc
 50
186.9999999999941
 51
244.2609705956532
  0
ARC
  5
188
100
AcDbEntity
  8
MAIN0
  6
CONTINUOUS
 62
3
100
AcDbCircle
 10
118.5483957206880
 20
181.0000000000000
 30
0.0000000000000000
 40
8.000000000000000
100
AcDbArc
 50
90.00000000000000
 51
173.0000000000059
  0
LINE
  5
189
100
AcDbEntity
  8
MAIN0
  6
CENTER
 62
3
100
AcDbLine
 10
109.3573108139303
 20
208.0000000000000
 30
0.0000000000000000
 11
134.3177657427048
 21
208.0000000000000
 31
0.0000000000000000
  0
LINE
  5
18A
100
AcDbEntity
  8
MAIN0
  6
CENTER
 62
3
100
AcDbLine
 10
92.05137570670530
 20
354.5000000000000
 30
0.0000000000000000
 11
183.6005693881630
 21
354.5000000000000
 31
0.0000000000000000
  0
LINE
  5
18B
100
AcDbEntity
  8
MAIN0
  6
CENTER
 62
3
100
AcDbLine
 10
167.3573108139302
 20
361.2500000000001
 30
0.0000000000000000
 11
96.95731081393029
 21
361.2500000000001
 31
0.0000000000000000
  0
LINE
  5
18C
100
AcDbEntity
  8
MAIN0
  6
CENTER
 62
3
100
AcDbLine
 10
167.3573108139302
 20
347.7500000000000
 30
0.0000000000000000
 11
96.95731081393029
 21
347.7500000000000
 31
0.0000000000000000
  0
LINE
  5
18D
100
AcDbEntity
  8
MAIN0
  6
CENTER
 62
3
100
AcDbLine
 10
96.95731081393029
 20
347.7500000000000
 30
0.0000000000000000
 11
96.35731081393030
 21
347.1500000000000
 31
0.0000000000000000
  0
LINE
  5
18E
100
AcDbEntity
  8
MAIN0
  6
CENTER
 62
3
100
AcDbLine
 10
96.95731081393029
 20
361.2500000000001
 30
0.0000000000000000
 11
96.35731081393030
 21
361.8500000000000
 31
0.0000000000000000
  0
LINE
  5
18F
100
AcDbEntity
  8
MAIN0
  6
CENTER
 62
3
100
AcDbLine
 10
179.7573108139303
 20
344.5000000000000
 30
0.0000000000000000
 11
167.3573108139303
 21
344.5000000000000
 31
0.0000000000000000
  0
LINE
  5
190
100
AcDbEntity
  8
MAIN0
  6
CENTER
 62
3
100
AcDbLine
 10
179.7573108139303
 20
364.5000000000000
 30
0.0000000000000000
 11
167.3573108139303
 21
364.5000000000000
 31
0.0000000000000000
  0
LINE
  5
191
100
AcDbEntity
  8
MAIN0
  6
CENTER
 62
3
100
AcDbLine
 10
179.7573108139303
 20
344.5000000000000
 30
0.0000000000000000
 11
180.3573108139303
 21
343.9000000000000
 31
0.0000000000000000
  0
LINE
  5
192
100
AcDbEntity
  8
MAIN0
  6
CENTER
 62
3
100
AcDbLine
 10
179.7573108139303
 20
364.5000000000001
 30
0.0000000000000000
 11
180.0573108139303
 21
364.8000000000000
 31
0.0000000000000000
  0
LINE
  5
193
100
AcDbEntity
  8
MAIN0
  6
CONTINUOUS
 62
3
100
AcDbLine
 10
178.3573108139303
 20
366.5000000000000
 30
0.0000000000000000
 11
180.3573108139303
 21
364.5000000000000
 31
0.0000000000000000
  0
LINE
  5
194
100
AcDbEntity
  8
MAIN0
  6
CONTINUOUS
 62
3
100
AcDbLine
 10
98.35731081393028
 20
366.5000000000000
 30
0.0000000000000000
 11
96.35731081393030
 21
364.5000000000000
 31
0.0000000000000000
  0
LINE
  5
195
100
AcDbEntity
  8
MAIN0
  6
CONTINUOUS
 62
3
100
AcDbLine
 10
96.35731081393031
 20
136.5000000000000
 30
0.0000000000000000
 11
98.35731081393030
 21
134.5000000000000
 31
0.0000000000000000
  0
LINE
  5
196
100
AcDbEntity
  8
MAIN0
  6
HIDDEN
 62
3
100
AcDbLine
 10
108.1073108139303
 20
365.0300000000000
 30
0.0000000000000000
 11
108.1073108139303
 21
356.5786895894888
 31
0.0000000000000000
  0
LINE
  5
197
100
AcDbEntity
  8
MAIN0
  6
HIDDEN
 62
3
100
AcDbLine
 10
143.6073108139303
 20
365.0300000000000
 30
0.0000000000000000
 11
143.6073108139303
 21
356.5786895874379
 31
0.0000000000000000
  0
LINE
  5
198
100
AcDbEntity
  8
MAIN0
  6
HIDDEN
 62
3
100
AcDbLine
 10
108.1073108139303
 20
365.0300000000000
 30
0.0000000000000000
 11
143.6073108139303
 21
365.0300000000000
 31
0.0000000000000000
  0
LINE
  5
199
100
AcDbEntity
  8
MAIN0
  6
HIDDEN
 62
3
100
AcDbLine
 10
116.6073108140923
 20
365.0300000000000
 30
0.0000000000000000
 11
118.1073108138294
 21
364.1639745963678
 31
0.0000000000000000
  0
LINE
  5
19A
100
AcDbEntity
  8
MAIN0
  6
HIDDEN
 62
3
100
AcDbLine
 10
133.6073108141470
 20
364.1639745963620
 30
0.0000000000000000
 11
135.1073108138877
 21
365.0299999999999
 31
0.0000000000000000
  0
LINE
  5
19B
100
AcDbEntity
  8
MAIN0
  6
HIDDEN
 62
3
100
AcDbLine
 10
118.1073108139303
 20
364.1639745963097
 30
0.0000000000000000
 11
118.1073108139303
 21
356.5786895889111
 31
0.0000000000000000
  0
LINE
  5
19C
100
AcDbEntity
  8
MAIN0
  6
HIDDEN
 62
3
100
AcDbLine
 10
133.6073108139303
 20
364.1639745962369
 30
0.0000000000000000
 11
133.6073108139303
 21
356.5786895880156
 31
0.0000000000000000
  0
LINE
  5
19D
100
AcDbEntity
  8
MAIN0
  6
HIDDEN
 62
3
100
AcDbLine
 10
118.1073108139303
 20
364.1639745963681
 30
0.0000000000000000
 11
133.6073108139303
 21
364.1639745963620
 31
0.0000000000000000
  0
LINE
  5
19E
100
AcDbEntity
  8
MAIN0
  6
CENTER
 62
3
100
AcDbLine
 10
114.3448570888854
 20
416.4999999999816
 30
0.0000000000000000
 11
137.7849554027488
 21
416.5000000000000
 31
0.0000000000000000
  0
LINE
  5
19F
100
AcDbEntity
  8
MAIN0
  6
CONTINUOUS
 62
3
100
AcDbLine
 10
118.1073108139304
 20
417.2352813742241
 30
0.0000000000000000
 11
125.1220294396943
 21
424.2499999999900
 31
0.0000000000000000
  0
LINE
  5
1A0
100
AcDbEntity
  8
MAIN0
  6
CONTINUOUS
 62
3
100
AcDbLine
 10
126.5925921881749
 20
408.7499999999913
 30
0.0000000000000000
 11
133.6073108139303
 21
415.7647186257486
 31
0.0000000000000000
  0
LINE
  5
1A1
100
AcDbEntity
  8
MAIN0
  6
CONTINUOUS
 62
3
100
AcDbLine
 10
118.1073108139303
 20
415.7647186258388
 30
0.0000000000000000
 11
125.1220294397830
 21
408.7499999999902
 31
0.0000000000000000
  0
LINE
  5
1A2
100
AcDbEntity
  8
MAIN0
  6
CONTINUOUS
 62
3
100
AcDbLine
 10
126.5925921882548
 20
424.2499999999912
 30
0.0000000000000000
 11
133.6073108139303
 21
417.2352813743200
 31
0.0000000000000000
  0
LINE
  5
1A3
100
AcDbEntity
  8
MAIN0
  6
HIDDEN
 62
3
100
AcDbLine
 10
130.1193265418363
 20
356.5786895882171
 30
0.0000000000000000
 11
133.6242202716892
 21
364.1639745963619
 31
0.0000000000000000
  0
LINE
  5
1A4
100
AcDbEntity
  8
MAIN0
  6
HIDDEN
 62
3
100
AcDbLine
 10
121.5952950859859
 20
356.5786895887096
 30
0.0000000000000000
 11
125.1001888156160
 21
364.1639745963653
 31
0.0000000000000000
  0
LINE
  5
1A5
100
AcDbEntity
  8
MAIN0
  6
HIDDEN
 62
3
100
AcDbLine
 10
126.6144328119753
 20
364.1639745963648
 30
0.0000000000000000
 11
130.1193265418363
 21
356.5786895882171
 31
0.0000000000000000
  0
LINE
  5
1A6
100
AcDbEntity
  8
MAIN0
  6
HIDDEN
 62
3
100
AcDbLine
 10
118.0904013563579
 20
364.1639745963682
 30
0.0000000000000000
 11
121.5952950859860
 21
356.5786895887096
 31
0.0000000000000000
  0
LINE
  5
1A7
100
AcDbEntity
  8
MAIN0
  6
CONTINUOUS
 62
3
100
AcDbLine
 10
102.7573108139303
 20
345.5000000000000
 30
0.0000000000000000
 11
102.3573108139303
 21
345.1000000000000
 31
0.0000000000000000
  0
LINE
  5
1A8
100
AcDbEntity
  8
MAIN0
  6
CONTINUOUS
 62
3
100
AcDbLine
 10
102.7573108139303
 20
155.5000000000000
 30
0.0000000000000000
 11
102.3573108139303
 21
155.9000000000000
 31
0.0000000000000000
  0
LINE
  5
1A9
100
AcDbEntity
  8
MAIN0
  6
CONTINUOUS
 62
3
100
AcDbLine
 10
96.35731081393027
 20
345.5000000000000
 30
0.0000000000000000
 11
105.0000000000000
 21
345.5000000000000
 31
0.0000000000000000
  0
LINE
  5
1AA
100
AcDbEntity
  8
MAIN0
  6
CENTER
 62
3
100
AcDbLine
 10
125.8573108139303
 20
350.5000000000000
 30
0.0000000000000000
 11
125.8573108139303
 21
378.0631491774513
 31
0.0000000000000000
  0
LINE
  5
1AB
100
AcDbEntity
  8
MAIN0
  6
CENTER
 62
3
100
AcDbLine
 10
125.8573108139303
 20
405.1062783892143
 30
0.0000000000000000
 11
125.8573108139303
 21
427.9335497713224
 31
0.0000000000000000
  0
LINE
  5
1AC
100
AcDbEntity
  8
MAIN0
  6
CENTER
 62
3
100
AcDbLine
 10
89.59168905444443
 20
250.5000000000000
 30
0.0000000000000000
 11
216.3355415083149
 21
250.5000000000000
 31
0.0000000000000000
  0
LINE
  5
1AD
100
AcDbEntity
  8
MAIN0
  6
CONTINUOUS
 62
3
100
AcDbLine
 10
118.1073108139303
 20
415.7647186258388
 30
0.0000000000000000
 11
118.1073108139303
 21
417.2352813742241
 31
0.0000000000000000
  0
LINE
  5
1AE
100
AcDbEntity
  8
MAIN0
  6
CONTINUOUS
 62
3
100
AcDbLine
 10
133.6073108139303
 20
415.7647186257486
 30
0.0000000000000000
 11
133.6073108139303
 21
417.2352813743199
 31
0.0000000000000000
  0
LINE
  5
1AF
100
AcDbEntity
  8
MAIN0
  6
CONTINUOUS
 62
3
100
AcDbLine
 10
126.5925921882549
 20
424.2499999999913
 30
0.0000000000000000
 11
125.1220294396944
 21
424.2499999999901
 31
0.0000000000000000
  0
LINE
  5
1B0
100
AcDbEntity
  8
MAIN0
  6
CONTINUOUS
 62
3
100
AcDbLine
 10
126.5925921881750
 20
408.7499999999914
 30
0.0000000000000000
 11
125.1220294397830
 21
408.7499999999902
 31
0.0000000000000000
  0
LINE
  5
1B1
100
AcDbEntity
  8
MAIN0
  6
HIDDEN
 62
3
100
AcDbLine
 10
125.1220294397412
 20
356.5786895885058
 30
0.0000000000000000
 11
125.1220294397412
 21
364.1639745963653
 31
0.0000000000000000
  0
LINE
  5
1B2
100
AcDbEntity
  8
MAIN0
  6
HIDDEN
 62
3
100
AcDbLine
 10
126.5925921881584
 20
356.5786895884208
 30
0.0000000000000000
 11
126.5925921881591
 21
364.1639745963648
 31
0.0000000000000000
  0
LINE
  5
1B3
100
AcDbEntity
  8
MAIN0
  6
CONTINUOUS
 62
3
100
AcDbLine
 10
116.5573108139303
 20
215.5000000000000
 30
0.0000000000000000
 11
116.3573108139303
 21
215.3000000000000
 31
0.0000000000000000
  0
LINE
  5
1B4
100
AcDbEntity
  8
MAIN0
  6
CONTINUOUS
 62
3
100
AcDbLine
 10
116.5573108139303
 20
285.5000000000000
 30
0.0000000000000000
 11
116.3573108139303
 21
285.7000000000000
 31
0.0000000000000000
  0
LINE
  5
1B5
100
AcDbEntity
  8
MAIN0
  6
CONTINUOUS
 62
3
100
AcDbLine
 10
96.35731081393027
 20
155.5000000000000
 30
0.0000000000000000
 11
107.3573108139303
 21
155.5000000000000
 31
0.0000000000000000
  0
LINE
  5
1B6
100
AcDbEntity
  8
MAIN0
  6
PHANTOM
 62
3
100
AcDbLine
 10
213.3573108139303
 20
263.1500000000000
 30
0.0000000000000000
 11
212.7573108139303
 21
263.7500000000000
 31
0.0000000000000000
  0
LINE
  5
1B7
100
AcDbEntity
  8
MAIN0
  6
PHANTOM
 62
3
100
AcDbLine
 10
213.3573108139303
 20
237.8500000000001
 30
0.0000000000000000
 11
212.7573108139303
 21
237.2500000000001
 31
0.0000000000000000
  0
LINE
  5
1B8
100
AcDbEntity
  8
MAIN0
  6
CONTINUOUS
 62
3
100
AcDbLine
 10
180.3573108139303
 20
136.4999888764433
 30
0.0000000000000000
 11
180.3573108139303
 21
364.5000000000000
 31
0.0000000000000000
  0
LINE
  5
1B9
100
AcDbEntity
  8
MAIN0
  6
HIDDEN
 62
3
100
AcDbLine
 10
168.8073108138232
 20
366.5000000000001
 30
0.0000000000000000
 11
167.6073108138232
 21
365.3000000000001
 31
0.0000000000000000
  0
LINE
  5
1BA
100
AcDbEntity
  8
MAIN0
  6
HIDDEN
 62
3
100
AcDbLine
 10
167.6073108138233
 20
365.3000000000001
 30
0.0000000000000000
 11
159.1073108138233
 21
365.3000000000001
 31
0.0000000000000000
  0
LINE
  5
1BB
100
AcDbEntity
  8
MAIN0
  6
HIDDEN
 62
3
100
AcDbLine
 10
159.1073108138232
 20
365.3000000000001
 30
0.0000000000000000
 11
157.9073108138232
 21
366.5000000000000
 31
0.0000000000000000
  0
LINE
  5
1BC
100
AcDbEntity
  8
MAIN0
  6
HIDDEN
 62
3
100
AcDbLine
 10
168.3573108138233
 20
366.0500000000001
 30
0.0000000000000000
 11
168.3573108138233
 21
343.5000000000001
 31
0.0000000000000000
  0
LINE
  5
1BD
100
AcDbEntity
  8
MAIN0
  6
HIDDEN
 62
3
100
AcDbLine
 10
168.3573108138233
 20
343.5000000000001
 30
0.0000000000000000
 11
158.3573108138233
 21
343.5000000000001
 31
0.0000000000000000
  0
LINE
  5
1BE
100
AcDbEntity
  8
MAIN0
  6
HIDDEN
 62
3
100
AcDbLine
 10
158.3573108138233
 20
343.5000000000001
 30
0.0000000000000000
 11
158.3573108138233
 21
366.0500000000001
 31
0.0000000000000000
  0
LINE
  5
1BF
100
AcDbEntity
  8
MAIN0
  6
HIDDEN
 62
3
100
AcDbLine
 10
167.6073108138233
 20
365.3000000000001
 30
0.0000000000000000
 11
167.6073108138233
 21
334.5000000000001
 31
0.0000000000000000
  0
LINE
  5
1C0
100
AcDbEntity
  8
MAIN0
  6
HIDDEN
 62
3
100
AcDbLine
 10
167.6073108138233
 20
334.5000000000001
 30
0.0000000000000000
 11
159.1073108138233
 21
334.5000000000001
 31
0.0000000000000000
  0
LINE
  5
1C1
100
AcDbEntity
  8
MAIN0
  6
HIDDEN
 62
3
100
AcDbLine
 10
159.1073108138233
 20
334.5000000000001
 30
0.0000000000000000
 11
159.1073108138233
 21
365.3000000000001
 31
0.0000000000000000
  0
LINE
  5
1C2
100
AcDbEntity
  8
MAIN0
  6
HIDDEN
 62
3
100
AcDbLine
 10
167.6073108138233
 20
334.5000000000001
 30
0.0000000000000000
 11
163.3573108138232
 21
332.0462613559442
 31
0.0000000000000000
  0
LINE
  5
1C3
100
AcDbEntity
  8
MAIN0
  6
HIDDEN
 62
3
100
AcDbLine
 10
163.3573108138232
 20
332.0462613559442
 30
0.0000000000000000
 11
159.1073108138232
 21
334.5000000000001
 31
0.0000000000000000
  0
LINE
  5
1C4
100
AcDbEntity
  8
MAIN0
  6
CENTER
 62
3
100
AcDbLine
 10
163.3573108138585
 20
328.2256942316644
 30
0.0000000000000000
 11
163.3573108138199
 21
370.1466953134783
 31
0.0000000000000000
  0
LEADER
  5
1C5
100
AcDbEntity
  8
MAIN0
  6
CONTINUOUS
 62
3
100
AcDbLeader
  3
MAIN001
 73
     0
 74
     0
 75
     1
 40
4.649999856948853
 41
43.95100002905727
 76
     3
 10
168.3573108138233
 20
350.0926529864731
 30
0.0000000000000000
 10
206.8887694278467
 20
381.9542083388099
 30
0.0000000000000000
 10
209.5667693488557
 20
381.9542083388099
 30
0.0000000000000000
340
1C6
213
-0.001000000000033197
223
-0.7500000000000000
233
0.0000000000000000
1001
ACAD
1000
DSTYLE
1002
{
1070
   147
1040
0.0
1070
    77
1070
     1
1070
   173
1070
     1
1070
     6
1000
_OPEN
1070
     7
1000
_OPEN
1002
}
  0
MTEXT
  5
1C6
102
{ACAD_REACTORS
330
1C5
102
}
100
AcDbEntity
  8
MAIN0
  6
CONTINUOUS
 62
3
100
AcDbMText
 10
209.5677693488557
 20
387.3542081957588
 30
0.0000000000000000
 40
4.649999856948853
 41
0.0000000000000000
 71
     1
 72
     1
  1
{\H0.71x;{2-M10 ねじ深23\P2-M10 DEPTH 23}}
 11
1.000000000000000
 21
0.0000000000000000
 31
0.0000000000000000
  7
KNJYOKO
  0
LINE
  5
1C7
100
AcDbEntity
  8
MAIN0
  6
HIDDEN
 62
3
100
AcDbLine
 10
441.0883231904223
 20
335.8579629289272
 30
0.0000000000000000
 11
439.3977247270557
 21
335.7100547288083
 31
0.0000000000000000
  0
LINE
  5
1C8
100
AcDbEntity
  8
MAIN0
  6
HIDDEN
 62
3
100
AcDbLine
 10
439.3977247270559
 20
335.7100547288083
 30
0.0000000000000000
 11
432.8863469605446
 21
341.1737494111439
 31
0.0000000000000000
  0
LINE
  5
1C9
100
AcDbEntity
  8
MAIN0
  6
HIDDEN
 62
3
100
AcDbLine
 10
432.8863469605446
 20
341.1737494111439
 30
0.0000000000000000
 11
432.7384387604257
 21
342.8643478745105
 31
0.0000000000000000
  0
LINE
  5
1CA
100
AcDbEntity
  8
MAIN0
  6
HIDDEN
 62
3
100
AcDbLine
 10
440.4543487666599
 20
335.8024973538826
 30
0.0000000000000000
 11
425.9594881682285
 21
318.5281951615497
 31
0.0000000000000000
  0
LINE
  5
1CB
100
AcDbEntity
  8
MAIN0
  6
HIDDEN
 62
3
100
AcDbLine
 10
425.9594881682285
 20
318.5281951615496
 30
0.0000000000000000
 11
418.2990437370388
 21
324.9560712584150
 31
0.0000000000000000
  0
LINE
  5
1CC
100
AcDbEntity
  8
MAIN0
  6
HIDDEN
 62
3
100
AcDbLine
 10
418.2990437370387
 20
324.9560712584150
 30
0.0000000000000000
 11
432.7939043354702
 21
342.2303734507480
 31
0.0000000000000000
  0
LINE
  5
1CD
100
AcDbEntity
  8
MAIN0
  6
HIDDEN
 62
3
100
AcDbLine
 10
439.3977247270559
 20
335.7100547288083
 30
0.0000000000000000
 11
419.5998663487104
 21
312.1158858807437
 31
0.0000000000000000
  0
LINE
  5
1CE
100
AcDbEntity
  8
MAIN0
  6
HIDDEN
 62
3
100
AcDbLine
 10
419.5998663487105
 20
312.1158858807438
 30
0.0000000000000000
 11
413.0884885821993
 21
317.5795805630794
 31
0.0000000000000000
  0
LINE
  5
1CF
100
AcDbEntity
  8
MAIN0
  6
HIDDEN
 62
3
100
AcDbLine
 10
413.0884885821992
 20
317.5795805630794
 30
0.0000000000000000
 11
432.8863469605445
 21
341.1737494111439
 31
0.0000000000000000
  0
LINE
  5
1D0
100
AcDbEntity
  8
MAIN0
  6
HIDDEN
 62
3
100
AcDbLine
 10
419.5998663487105
 20
312.1158858807438
 30
0.0000000000000000
 11
414.7669446676467
 21
312.9680603687662
 31
0.0000000000000000
  0
LINE
  5
1D1
100
AcDbEntity
  8
MAIN0
  6
HIDDEN
 62
3
100
AcDbLine
 10
414.7669446676466
 20
312.9680603687663
 30
0.0000000000000000
 11
413.0884885821992
 21
317.5795805630794
 31
0.0000000000000000
  0
LINE
  5
1D2
100
AcDbEntity
  8
MAIN0
  6
CENTER
 62
3
100
AcDbLine
 10
440.7966635357475
 20
343.9890713421376
 30
0.0000000000000000
 11
412.3105683127116
 21
310.0406650211533
 31
0.0000000000000000
  0
LINE
  5
1D3
100
AcDbEntity
  8
MAIN0
  6
HIDDEN
 62
3
100
AcDbLine
 10
283.6117133129523
 20
165.1420370710727
 30
0.0000000000000000
 11
285.3023117763190
 21
165.2899452711917
 31
0.0000000000000000
  0
LINE
  5
1D4
100
AcDbEntity
  8
MAIN0
  6
HIDDEN
 62
3
100
AcDbLine
 10
285.3023117763188
 20
165.2899452711917
 30
0.0000000000000000
 11
291.8136895428301
 21
159.8262505888561
 31
0.0000000000000000
  0
LINE
  5
1D5
100
AcDbEntity
  8
MAIN0
  6
HIDDEN
 62
3
100
AcDbLine
 10
291.8136895428302
 20
159.8262505888561
 30
0.0000000000000000
 11
291.9615977429490
 21
158.1356521254895
 31
0.0000000000000000
  0
LINE
  5
1D6
100
AcDbEntity
  8
MAIN0
  6
HIDDEN
 62
3
100
AcDbLine
 10
284.2456877367146
 20
165.1975026461174
 30
0.0000000000000000
 11
298.7405483351460
 21
182.4718048384503
 31
0.0000000000000000
  0
LINE
  5
1D7
100
AcDbEntity
  8
MAIN0
  6
HIDDEN
 62
3
100
AcDbLine
 10
298.7405483351461
 20
182.4718048384503
 30
0.0000000000000000
 11
306.4009927663359
 21
176.0439287415849
 31
0.0000000000000000
  0
LINE
  5
1D8
100
AcDbEntity
  8
MAIN0
  6
HIDDEN
 62
3
100
AcDbLine
 10
306.4009927663358
 20
176.0439287415849
 30
0.0000000000000000
 11
291.9061321679044
 21
158.7696265492520
 31
0.0000000000000000
  0
LINE
  5
1D9
100
AcDbEntity
  8
MAIN0
  6
HIDDEN
 62
3
100
AcDbLine
 10
285.3023117763188
 20
165.2899452711916
 30
0.0000000000000000
 11
305.1001701546642
 21
188.8841141192562
 31
0.0000000000000000
  0
LINE
  5
1DA
100
AcDbEntity
  8
MAIN0
  6
HIDDEN
 62
3
100
AcDbLine
 10
305.1001701546642
 20
188.8841141192562
 30
0.0000000000000000
 11
311.6115479211755
 21
183.4204194369206
 31
0.0000000000000000
  0
LINE
  5
1DB
100
AcDbEntity
  8
MAIN0
  6
HIDDEN
 62
3
100
AcDbLine
 10
311.6115479211755
 20
183.4204194369206
 30
0.0000000000000000
 11
291.8136895428302
 21
159.8262505888561
 31
0.0000000000000000
  0
LINE
  5
1DC
100
AcDbEntity
  8
MAIN0
  6
HIDDEN
 62
3
100
AcDbLine
 10
305.1001701546642
 20
188.8841141192562
 30
0.0000000000000000
 11
309.9330918357280
 21
188.0319396312338
 31
0.0000000000000000
  0
LINE
  5
1DD
100
AcDbEntity
  8
MAIN0
  6
HIDDEN
 62
3
100
AcDbLine
 10
309.9330918357280
 20
188.0319396312337
 30
0.0000000000000000
 11
311.6115479211754
 21
183.4204194369206
 31
0.0000000000000000
  0
LINE
  5
1DE
100
AcDbEntity
  8
MAIN0
  6
CENTER
 62
3
100
AcDbLine
 10
283.9033729676270
 20
157.0109286578623
 30
0.0000000000000000
 11
312.3894681906629
 21
190.9593349788467
 31
0.0000000000000000
  0
LINE
  5
1DF
100
AcDbEntity
  8
MAIN0
  6
CONTINUOUS
 62
3
100
AcDbLine
 10
255.6606866551390
 20
296.5086570479355
 30
0.0000000000000000
 11
327.6346378679729
 21
254.9544769405648
 31
0.0000000000000000
  0
LINE
  5
1E0
100
AcDbEntity
  8
MAIN0
  6
CONTINUOUS
 62
3
100
AcDbLine
 10
255.6606866551390
 20
296.5086570479355
 30
0.0000000000000000
 11
255.4410714128683
 21
297.3282722902061
 31
0.0000000000000000
  0
ARC
  5
1E1
100
AcDbEntity
  8
MAIN0
  6
CONTINUOUS
 62
3
100
AcDbCircle
 10
367.9791833764621
 20
247.2499999990254
 30
0.0000000000000000
 40
34.50000000000000
100
AcDbArc
 50
147.5080936310201
 51
152.4919063689679
  0
LINE
  5
1E2
100
AcDbEntity
  8
MAIN0
  6
CONTINUOUS
 62
3
100
AcDbLine
 10
269.1606866551390
 20
319.8913429501153
 30
0.0000000000000000
 11
341.1346378674254
 21
278.3371628430607
 31
0.0000000000000000
  0
LINE
  5
1E3
100
AcDbEntity
  8
MAIN0
  6
CONTINUOUS
 62
3
100
AcDbLine
 10
269.1606866551390
 20
319.8913429501152
 30
0.0000000000000000
 11
268.3410714128684
 21
319.6717277078445
 31
0.0000000000000000
  0
ARC
  5
1E4
100
AcDbEntity
  8
MAIN0
  6
CONTINUOUS
 62
3
100
AcDbCircle
 10
367.9791833764621
 20
247.2499999990254
 30
0.0000000000000000
 40
60.50000000000000
100
AcDbArc
 50
137.8546500497359
 51
162.1453499502642
  0
ARC
  5
1E5
100
AcDbEntity
  8
MAIN0
  6
CONTINUOUS
 62
3
100
AcDbCircle
 10
367.9791833764621
 20
247.2499999990254
 30
0.0000000000000000
 40
88.50000000000000
100
AcDbArc
 50
141.6879548316972
 51
158.3120451683027
  0
ARC
  5
1E6
100
AcDbEntity
  8
MAIN0
  6
CONTINUOUS
 62
3
100
AcDbCircle
 10
367.9791833764621
 20
247.2499999990254
 30
0.0000000000000000
 40
77.50000000000000
100
AcDbArc
 50
139.9682689664083
 51
160.0317310335917
  0
ARC
  5
1E7
100
AcDbEntity
  8
MAIN0
  6
CONTINUOUS
 62
3
100
AcDbCircle
 10
367.9791833764621
 20
247.2499999990254
 30
0.0000000000000000
 40
91.00000000000000
100
AcDbArc
 50
141.4685857629293
 51
158.5314142370707
  0
ARC
  5
1E8
100
AcDbEntity
  8
MAIN0
  6
CONTINUOUS
 62
3
100
AcDbCircle
 10
367.9791833764621
 20
247.2499999990254
 30
0.0000000000000000
 40
62.00000000000000
100
AcDbArc
 50
137.4235594673761
 51
162.2925431781197
  0
ARC
  5
1E9
100
AcDbEntity
  8
MAIN0
  6
CONTINUOUS
 62
3
100
AcDbCircle
 10
367.9791833764621
 20
247.2499999990254
 30
0.0000000000000000
 40
105.5000000000000
100
AcDbArc
 50
142.6481551536394
 51
157.3518448463606
  0
LINE
  5
1EA
100
AcDbEntity
  8
MAIN0
  6
CONTINUOUS
 62
3
100
AcDbLine
 10
325.3795602631046
 20
256.2564466027790
 30
0.0000000000000000
 11
337.3795602631977
 21
263.1846498330888
 31
0.0000000000000000
  0
LINE
  5
1EB
100
AcDbEntity
  8
MAIN0
  6
CONTINUOUS
 62
3
100
AcDbLine
 10
255.4410714128683
 20
297.3282722902061
 30
0.0000000000000000
 11
268.3410714128683
 21
319.6717277078446
 31
0.0000000000000000
  0
LINE
  5
1EC
100
AcDbEntity
  8
MAIN0
  6
CONTINUOUS
 62
3
100
AcDbLine
 10
338.8795602631046
 20
279.6391325049589
 30
0.0000000000000000
 11
338.8795602631216
 21
265.7827260443100
 31
0.0000000000000000
  0
LINE
  5
1ED
100
AcDbEntity
  8
MAIN0
  6
CONTINUOUS
 62
3
100
AcDbLine
 10
324.1753221363152
 20
288.1286283456891
 30
0.0000000000000000
 11
323.1217631780343
 21
287.8463280736391
 31
0.0000000000000000
  0
LINE
  5
1EE
100
AcDbEntity
  8
MAIN0
  6
CONTINUOUS
 62
3
100
AcDbLine
 10
310.6753221363152
 20
264.7459424435093
 30
0.0000000000000000
 11
310.3930218642653
 21
265.7995014017903
 31
0.0000000000000000
  0
LINE
  5
1EF
100
AcDbEntity
  8
MAIN0
  6
CONTINUOUS
 62
3
100
AcDbLine
 10
286.0025115810169
 20
278.9907962592753
 30
0.0000000000000000
 11
285.7440734136284
 21
279.9553006305844
 31
0.0000000000000000
  0
LINE
  5
1F0
100
AcDbEntity
  8
MAIN0
  6
CONTINUOUS
 62
3
100
AcDbLine
 10
299.5025115810169
 20
302.3734821614552
 30
0.0000000000000000
 11
298.5380072097079
 21
302.1150439940666
 31
0.0000000000000000
  0
LINE
  5
1F1
100
AcDbEntity
  8
MAIN0
  6
HIDDEN
 62
3
100
AcDbLine
 10
116.3573108139303
 20
215.4000000000000
 30
0.0000000000000000
 11
116.7573108139303
 21
215.0000000000000
 31
0.0000000000000000
  0
LINE
  5
1F2
100
AcDbEntity
  8
MAIN0
  6
HIDDEN
 62
3
100
AcDbLine
 10
116.7573108139303
 20
215.0000000000000
 30
0.0000000000000000
 11
126.3573108139303
 21
215.0000000000000
 31
0.0000000000000000
  0
LINE
  5
1F3
100
AcDbEntity
  8
MAIN0
  6
HIDDEN
 62
3
100
AcDbLine
 10
126.3573108139303
 20
215.0000000000000
 30
0.0000000000000000
 11
126.3573108139303
 21
201.0000000000000
 31
0.0000000000000000
  0
LINE
  5
1F4
100
AcDbEntity
  8
MAIN0
  6
HIDDEN
 62
3
100
AcDbLine
 10
126.3573108139303
 20
201.0000000000000
 30
0.0000000000000000
 11
116.7573108139303
 21
201.0000000000000
 31
0.0000000000000000
  0
LINE
  5
1F5
100
AcDbEntity
  8
MAIN0
  6
HIDDEN
 62
3
100
AcDbLine
 10
116.7573108139303
 20
201.0000000000000
 30
0.0000000000000000
 11
116.3573108139303
 21
200.6000000000000
 31
0.0000000000000000
  0
LINE
  5
1F6
100
AcDbEntity
  8
MAIN0
  6
HIDDEN
 62
3
100
AcDbLine
 10
126.3573108139303
 20
212.5000000000000
 30
0.0000000000000000
 11
130.1573108184609
 21
212.5000000000000
 31
0.0000000000000000
  0
LINE
  5
1F7
100
AcDbEntity
  8
MAIN0
  6
HIDDEN
 62
3
100
AcDbLine
 10
126.3573108139303
 20
203.5000000000000
 30
0.0000000000000000
 11
130.1573113155060
 21
203.5000000000000
 31
0.0000000000000000
  0
LINE
  5
1F8
100
AcDbEntity
  8
MAIN0
  6
HIDDEN
 62
3
100
AcDbLine
 10
126.3573108139303
 20
214.5000000000000
 30
0.0000000000000000
 11
119.1573108139303
 21
214.5000000000000
 31
0.0000000000000000
  0
LINE
  5
1F9
100
AcDbEntity
  8
MAIN0
  6
HIDDEN
 62
3
100
AcDbLine
 10
119.1573108139303
 20
214.5000000000000
 30
0.0000000000000000
 11
118.3573108139303
 21
213.1143593539449
 31
0.0000000000000000
  0
LINE
  5
1FA
100
AcDbEntity
  8
MAIN0
  6
HIDDEN
 62
3
100
AcDbLine
 10
118.3573108139303
 20
213.1143593539449
 30
0.0000000000000000
 11
118.3573108139303
 21
202.8856406460551
 31
0.0000000000000000
  0
LINE
  5
1FB
100
AcDbEntity
  8
MAIN0
  6
HIDDEN
 62
3
100
AcDbLine
 10
118.3573108139303
 20
202.8856406460551
 30
0.0000000000000000
 11
119.1573108139303
 21
201.5000000000000
 31
0.0000000000000000
  0
LINE
  5
1FC
100
AcDbEntity
  8
MAIN0
  6
HIDDEN
 62
3
100
AcDbLine
 10
119.1573108139303
 20
201.5000000000000
 30
0.0000000000000000
 11
126.3573108139303
 21
201.5000000000000
 31
0.0000000000000000
  0
LINE
  5
1FD
100
AcDbEntity
  8
MAIN0
  6
HIDDEN
 62
3
100
AcDbLine
 10
119.1573108139303
 20
214.5000000000000
 30
0.0000000000000000
 11
119.1573108139303
 21
201.5000000000000
 31
0.0000000000000000
  0
LINE
  5
1FE
100
AcDbEntity
  8
MAIN0
  6
HIDDEN
 62
3
100
AcDbLine
 10
126.3573108139303
 20
212.0000000000000
 30
0.0000000000000000
 11
130.1854652186324
 21
212.0000000000000
 31
0.0000000000000000
  0
LINE
  5
1FF
100
AcDbEntity
  8
MAIN0
  6
HIDDEN
 62
3
100
AcDbLine
 10
130.2117514454274
 20
204.0000000000000
 30
0.0000000000000000
 11
126.3573108139303
 21
204.0000000000000
 31
0.0000000000000000
  0
LINE
  5
200
100
AcDbEntity
  8
MAIN0
  6
HIDDEN
 62
3
100
AcDbLine
 10
126.3573108139303
 20
211.3234175000000
 30
0.0000000000000000
 11
130.2229021322003
 21
211.3234175000000
 31
0.0000000000000000
  0
LINE
  5
201
100
AcDbEntity
  8
MAIN0
  6
HIDDEN
 62
3
100
AcDbLine
 10
126.3573108139303
 20
204.6765825000000
 30
0.0000000000000000
 11
130.2701116131921
 21
204.6765825000000
 31
0.0000000000000000
  0
LINE
  5
202
100
AcDbEntity
  8
MAIN0
  6
CENTER
 62
3
100
AcDbLine
 10
167.3573108139303
 20
344.5000000000000
 30
0.0000000000000000
 11
167.3573108139303
 21
364.5000000000001
 31
0.0000000000000000
  0
LINE
  5
203
100
AcDbEntity
  8
MAIN0
  6
PHANTOM
 62
3
100
AcDbLine
 10
187.4543026905189
 20
311.9998985927535
 30
0.0000000000000000
 11
187.4543026905189
 21
297.4998985927534
 31
0.0000000000000000
  0
LINE
  5
204
100
AcDbEntity
  8
MAIN0
  6
PHANTOM
 62
3
100
AcDbLine
 10
186.9543026905189
 20
297.4998985927535
 30
0.0000000000000000
 11
186.9543026905189
 21
279.2998985927534
 31
0.0000000000000000
  0
LINE
  5
205
100
AcDbEntity
  8
MAIN0
  6
PHANTOM
 62
3
100
AcDbLine
 10
213.4543026905189
 20
365.8998985927535
 30
0.0000000000000000
 11
213.4543026905189
 21
343.2998985927535
 31
0.0000000000000000
  0
LINE
  5
206
100
AcDbEntity
  8
MAIN0
  6
PHANTOM
 62
3
100
AcDbLine
 10
200.4543026905189
 20
339.9998985927534
 30
0.0000000000000000
 11
200.4543026905189
 21
324.4998985927535
 31
0.0000000000000000
  0
LINE
  5
207
100
AcDbEntity
  8
MAIN0
  6
PHANTOM
 62
3
100
AcDbLine
 10
199.9543026905189
 20
324.4998985927535
 30
0.0000000000000000
 11
199.9543026905189
 21
315.2998985927535
 31
0.0000000000000000
  0
LINE
  5
208
100
AcDbEntity
  8
MAIN0
  6
PHANTOM
 62
3
100
AcDbLine
 10
199.9543026905189
 20
324.4998985927535
 30
0.0000000000000000
 11
200.4543026905189
 21
324.4998985927535
 31
0.0000000000000000
  0
LINE
  5
209
100
AcDbEntity
  8
MAIN0
  6
PHANTOM
 62
3
100
AcDbLine
 10
186.9543026905189
 20
297.4998985927535
 30
0.0000000000000000
 11
187.4543026905189
 21
297.4998985927535
 31
0.0000000000000000
  0
LINE
  5
20A
100
AcDbEntity
  8
MAIN0
  6
PHANTOM
 62
3
100
AcDbLine
 10
213.4543026905189
 20
343.2998985927536
 30
0.0000000000000000
 11
212.6543026905189
 21
342.4998985927535
 31
0.0000000000000000
  0
LINE
  5
20B
100
AcDbEntity
  8
MAIN0
  6
PHANTOM
 62
3
100
AcDbLine
 10
199.9543026905190
 20
315.2998985927536
 30
0.0000000000000000
 11
199.1543026905190
 21
314.4998985927535
 31
0.0000000000000000
  0
LINE
  5
20C
100
AcDbEntity
  8
MAIN0
  6
PHANTOM
 62
3
100
AcDbLine
 10
186.9543026905189
 20
279.2998985927534
 30
0.0000000000000000
 11
186.1543026905189
 21
278.4998985927534
 31
0.0000000000000000
  0
LINE
  5
20D
100
AcDbEntity
  8
MAIN0
  6
PHANTOM
 62
3
100
AcDbLine
 10
180.4739179327896
 20
280.6309875060932
 30
0.0000000000000000
 11
181.7043026905728
 21
278.4998985927535
 31
0.0000000000000000
  0
ARC
  5
20E
100
AcDbEntity
  8
MAIN0
  6
PHANTOM
 62
3
100
AcDbCircle
 10
179.9543026905189
 20
280.3309875060933
 30
0.0000000000000000
 40
0.6000000000000001
100
AcDbArc
 50
29.99999999998877
 51
47.80312329975271
  0
LINE
  5
20F
100
AcDbEntity
  8
MAIN0
  6
CENTER
 62
3
100
AcDbLine
 10
194.5543026905189
 20
318.7785949348072
 30
0.0000000000000000
 11
194.5543026905189
 21
312.4897250086047
 31
0.0000000000000000
  0
LINE
  5
210
100
AcDbEntity
  8
MAIN0
  6
PHANTOM
 62
3
100
AcDbLine
 10
195.0739179327896
 20
316.6309875060932
 30
0.0000000000000000
 11
196.3043026905728
 21
314.4998985927535
 31
0.0000000000000000
  0
LINE
  5
211
100
AcDbEntity
  8
MAIN0
  6
PHANTOM
 62
3
100
AcDbLine
 10
194.0346874482483
 20
316.6309875060933
 30
0.0000000000000000
 11
192.8043026904650
 21
314.4998985927535
 31
0.0000000000000000
  0
ARC
  5
212
100
AcDbEntity
  8
MAIN0
  6
PHANTOM
 62
3
100
AcDbCircle
 10
194.5543026905189
 20
316.3309875060933
 30
0.0000000000000000
 40
0.6000000000000001
100
AcDbArc
 50
29.99999999998880
 51
150.0000000000018
  0
LINE
  5
213
100
AcDbEntity
  8
MAIN0
  6
CENTER
 62
3
100
AcDbLine
 10
207.5543026905189
 20
346.7785949348072
 30
0.0000000000000000
 11
207.5543026905189
 21
340.4897250086047
 31
0.0000000000000000
  0
LINE
  5
214
100
AcDbEntity
  8
MAIN0
  6
PHANTOM
 62
3
100
AcDbLine
 10
208.0739179327896
 20
344.6309875060932
 30
0.0000000000000000
 11
209.3043026905728
 21
342.4998985927535
 31
0.0000000000000000
  0
LINE
  5
215
100
AcDbEntity
  8
MAIN0
  6
PHANTOM
 62
3
100
AcDbLine
 10
207.0346874482482
 20
344.6309875060933
 30
0.0000000000000000
 11
205.8043026904650
 21
342.4998985927535
 31
0.0000000000000000
  0
ARC
  5
216
100
AcDbEntity
  8
MAIN0
  6
PHANTOM
 62
3
100
AcDbCircle
 10
207.5543026905189
 20
344.3309875060933
 30
0.0000000000000000
 40
0.6000000000000001
100
AcDbArc
 50
29.99999999998880
 51
150.0000000000018
  0
LINE
  5
217
100
AcDbEntity
  8
MAIN0
  6
PHANTOM
 62
3
100
AcDbLine
 10
202.4543026905189
 20
342.4998985927535
 30
0.0000000000000000
 11
205.8043026904650
 21
342.4998985927535
 31
0.0000000000000000
  0
LINE
  5
218
100
AcDbEntity
  8
MAIN0
  6
PHANTOM
 62
3
100
AcDbLine
 10
209.3043026905728
 20
342.4998985927535
 30
0.0000000000000000
 11
212.6543026905189
 21
342.4998985927535
 31
0.0000000000000000
  0
LINE
  5
219
100
AcDbEntity
  8
MAIN0
  6
PHANTOM
 62
3
100
AcDbLine
 10
189.4543026905189
 20
314.4998985927535
 30
0.0000000000000000
 11
192.8043026904650
 21
314.4998985927535
 31
0.0000000000000000
  0
LINE
  5
21A
100
AcDbEntity
  8
MAIN0
  6
PHANTOM
 62
3
100
AcDbLine
 10
196.3043026905728
 20
314.4998985927535
 30
0.0000000000000000
 11
199.1543026905189
 21
314.4998985927535
 31
0.0000000000000000
  0
LINE
  5
21B
100
AcDbEntity
  8
MAIN0
  6
PHANTOM
 62
3
100
AcDbLine
 10
181.7043026905728
 20
278.4998985927535
 30
0.0000000000000000
 11
186.1543026905189
 21
278.4998985927535
 31
0.0000000000000000
  0
LINE
  5
21C
100
AcDbEntity
  8
MAIN0
  6
PHANTOM
 62
3
100
AcDbLine
 10
212.8543026905190
 20
366.4998985927535
 30
0.0000000000000000
 11
213.4543026905189
 21
365.8998985927536
 31
0.0000000000000000
  0
LINE
  5
21D
100
AcDbEntity
  8
MAIN0
  6
PHANTOM
 62
3
100
AcDbLine
 10
180.3573108139303
 20
366.4998985927535
 30
0.0000000000000000
 11
212.8543026905189
 21
366.4998985927535
 31
0.0000000000000000
  0
LINE
  5
21E
100
AcDbEntity
  8
MAIN0
  6
CONTINUOUS
 62
3
100
AcDbLine
 10
186.9520253630851
 20
151.4999888764725
 30
0.0000000000000000
 11
187.4520253630851
 21
151.4999888764747
 31
0.0000000000000000
  0
LINE
  5
21F
100
AcDbEntity
  8
MAIN0
  6
CONTINUOUS
 62
3
100
AcDbLine
 10
199.9520253629609
 20
179.4999888765302
 30
0.0000000000000000
 11
200.4520253629609
 21
179.4999888765324
 31
0.0000000000000000
  0
LINE
  5
220
100
AcDbEntity
  8
MAIN0
  6
CONTINUOUS
 62
3
100
AcDbLine
 10
187.4520253630851
 20
151.4999888764747
 30
0.0000000000000000
 11
187.4520253630208
 21
165.9999888764747
 31
0.0000000000000000
  0
LINE
  5
221
100
AcDbEntity
  8
MAIN0
  6
CONTINUOUS
 62
3
100
AcDbLine
 10
213.4520253628820
 20
197.2999888765900
 30
0.0000000000000000
 11
213.4520253627738
 21
221.6999888765900
 31
0.0000000000000000
  0
LINE
  5
222
100
AcDbEntity
  8
MAIN0
  6
CONTINUOUS
 62
3
100
AcDbLine
 10
200.4520253629609
 20
179.4999888765324
 30
0.0000000000000000
 11
200.4520253628966
 21
193.9999888765322
 31
0.0000000000000000
  0
LINE
  5
223
100
AcDbEntity
  8
MAIN0
  6
CONTINUOUS
 62
3
100
AcDbLine
 10
199.9520253630062
 20
169.2999888765301
 30
0.0000000000000000
 11
199.9520253629609
 21
179.4999888765302
 31
0.0000000000000000
  0
LINE
  5
224
100
AcDbEntity
  8
MAIN0
  6
CONTINUOUS
 62
3
100
AcDbLine
 10
186.9520253631578
 20
135.0999888764725
 30
0.0000000000000000
 11
186.9520253630851
 21
151.4999888764725
 31
0.0000000000000000
  0
LINE
  5
225
100
AcDbEntity
  8
MAIN0
  6
CONTINUOUS
 62
3
100
AcDbLine
 10
212.6520253627702
 20
222.4999888765865
 30
0.0000000000000000
 11
213.4520253627738
 21
221.6999888765900
 31
0.0000000000000000
  0
LINE
  5
226
100
AcDbEntity
  8
MAIN0
  6
CONTINUOUS
 62
3
100
AcDbLine
 10
213.4520253628820
 20
197.2999888765899
 30
0.0000000000000000
 11
212.6520253628856
 21
196.4999888765864
 31
0.0000000000000000
  0
LINE
  5
227
100
AcDbEntity
  8
MAIN0
  6
CONTINUOUS
 62
3
100
AcDbLine
 10
199.1520253630098
 20
168.4999888765266
 30
0.0000000000000000
 11
199.9520253630062
 21
169.2999888765301
 31
0.0000000000000000
  0
LINE
  5
228
100
AcDbEntity
  8
MAIN0
  6
CONTINUOUS
 62
3
100
AcDbLine
 10
180.3573108139303
 20
215.6043888764432
 30
0.0000000000000000
 11
213.4520253628008
 21
215.6043888765900
 31
0.0000000000000000
  0
LINE
  5
229
100
AcDbEntity
  8
MAIN0
  6
CENTER
 62
3
100
AcDbLine
 10
182.4520253627890
 20
218.2721243343216
 30
0.0000000000000000
 11
182.4520253627618
 21
224.3914829343625
 31
0.0000000000000000
  0
LINE
  5
22A
100
AcDbEntity
  8
MAIN0
  6
CONTINUOUS
 62
3
100
AcDbLine
 10
182.9716406050503
 20
220.3688999630082
 30
0.0000000000000000
 11
184.2020253628866
 21
222.4999888764602
 31
0.0000000000000000
  0
LINE
  5
22B
100
AcDbEntity
  8
MAIN0
  6
CONTINUOUS
 62
3
100
AcDbLine
 10
181.9324101205091
 20
220.3688999630035
 30
0.0000000000000000
 11
180.7020253626539
 21
222.4999888764447
 31
0.0000000000000000
  0
ARC
  5
22C
100
AcDbEntity
  8
MAIN0
  6
CONTINUOUS
 62
3
100
AcDbCircle
 10
182.4520253627784
 20
220.6688999630060
 30
0.0000000000000000
 40
0.6000000000000001
100
AcDbArc
 50
210.0000000002628
 51
330.0000000002449
  0
LINE
  5
22D
100
AcDbEntity
  8
MAIN0
  6
CENTER
 62
3
100
AcDbLine
 10
188.4520253627890
 20
218.2721243343482
 30
0.0000000000000000
 11
188.4520253627618
 21
224.3914829343891
 31
0.0000000000000000
  0
LINE
  5
22E
100
AcDbEntity
  8
MAIN0
  6
CONTINUOUS
 62
3
100
AcDbLine
 10
188.9716406050504
 20
220.3688999630349
 30
0.0000000000000000
 11
190.2020253628867
 21
222.4999888764869
 31
0.0000000000000000
  0
LINE
  5
22F
100
AcDbEntity
  8
MAIN0
  6
CONTINUOUS
 62
3
100
AcDbLine
 10
187.9324101205091
 20
220.3688999630302
 30
0.0000000000000000
 11
186.7020253626539
 21
222.4999888764713
 31
0.0000000000000000
  0
ARC
  5
230
100
AcDbEntity
  8
MAIN0
  6
CONTINUOUS
 62
3
100
AcDbCircle
 10
188.4520253627784
 20
220.6688999630326
 30
0.0000000000000000
 40
0.6000000000000001
100
AcDbArc
 50
210.0000000002628
 51
330.0000000002449
  0
LINE
  5
231
100
AcDbEntity
  8
MAIN0
  6
CENTER
 62
3
100
AcDbLine
 10
194.4520253627890
 20
218.2721243343748
 30
0.0000000000000000
 11
194.4520253627618
 21
224.3914829344157
 31
0.0000000000000000
  0
LINE
  5
232
100
AcDbEntity
  8
MAIN0
  6
CONTINUOUS
 62
3
100
AcDbLine
 10
194.9716406050503
 20
220.3688999630615
 30
0.0000000000000000
 11
196.2020253628866
 21
222.4999888765135
 31
0.0000000000000000
  0
LINE
  5
233
100
AcDbEntity
  8
MAIN0
  6
CONTINUOUS
 62
3
100
AcDbLine
 10
193.9324101205091
 20
220.3688999630568
 30
0.0000000000000000
 11
192.7020253626539
 21
222.4999888764979
 31
0.0000000000000000
  0
ARC
  5
234
100
AcDbEntity
  8
MAIN0
  6
CONTINUOUS
 62
3
100
AcDbCircle
 10
194.4520253627784
 20
220.6688999630592
 30
0.0000000000000000
 40
0.6000000000000001
100
AcDbArc
 50
210.0000000002628
 51
330.0000000002449
  0
LINE
  5
235
100
AcDbEntity
  8
MAIN0
  6
CENTER
 62
3
100
AcDbLine
 10
200.4520253627890
 20
218.2721243344014
 30
0.0000000000000000
 11
200.4520253627618
 21
224.3914829344423
 31
0.0000000000000000
  0
LINE
  5
236
100
AcDbEntity
  8
MAIN0
  6
CONTINUOUS
 62
3
100
AcDbLine
 10
200.9716406050503
 20
220.3688999630880
 30
0.0000000000000000
 11
202.2020253628866
 21
222.4999888765400
 31
0.0000000000000000
  0
LINE
  5
237
100
AcDbEntity
  8
MAIN0
  6
CONTINUOUS
 62
3
100
AcDbLine
 10
199.9324101205091
 20
220.3688999630834
 30
0.0000000000000000
 11
198.7020253626540
 21
222.4999888765245
 31
0.0000000000000000
  0
ARC
  5
238
100
AcDbEntity
  8
MAIN0
  6
CONTINUOUS
 62
3
100
AcDbCircle
 10
200.4520253627784
 20
220.6688999630858
 30
0.0000000000000000
 40
0.6000000000000001
100
AcDbArc
 50
210.0000000002628
 51
330.0000000002449
  0
LINE
  5
239
100
AcDbEntity
  8
MAIN0
  6
CENTER
 62
3
100
AcDbLine
 10
206.4520253627890
 20
218.2721243344280
 30
0.0000000000000000
 11
206.4520253627618
 21
224.3914829344689
 31
0.0000000000000000
  0
LINE
  5
23A
100
AcDbEntity
  8
MAIN0
  6
CONTINUOUS
 62
3
100
AcDbLine
 10
206.9716406050503
 20
220.3688999631146
 30
0.0000000000000000
 11
208.2020253628866
 21
222.4999888765667
 31
0.0000000000000000
  0
LINE
  5
23B
100
AcDbEntity
  8
MAIN0
  6
CONTINUOUS
 62
3
100
AcDbLine
 10
205.9324101205091
 20
220.3688999631100
 30
0.0000000000000000
 11
204.7020253626539
 21
222.4999888765511
 31
0.0000000000000000
  0
ARC
  5
23C
100
AcDbEntity
  8
MAIN0
  6
CONTINUOUS
 62
3
100
AcDbCircle
 10
206.4520253627784
 20
220.6688999631124
 30
0.0000000000000000
 40
0.6000000000000001
100
AcDbArc
 50
210.0000000002628
 51
330.0000000002449
  0
LINE
  5
23D
100
AcDbEntity
  8
MAIN0
  6
CENTER
 62
3
100
AcDbLine
 10
207.5520253628667
 20
200.7278534186948
 30
0.0000000000000000
 11
207.5520253628939
 21
194.6084948186539
 31
0.0000000000000000
  0
LINE
  5
23E
100
AcDbEntity
  8
MAIN0
  6
CONTINUOUS
 62
3
100
AcDbLine
 10
207.0324101206055
 20
198.6310777900081
 30
0.0000000000000000
 11
205.8020253627692
 21
196.4999888765561
 31
0.0000000000000000
  0
LINE
  5
23F
100
AcDbEntity
  8
MAIN0
  6
CONTINUOUS
 62
3
100
AcDbLine
 10
208.0716406051467
 20
198.6310777900126
 30
0.0000000000000000
 11
209.3020253630019
 21
196.4999888765714
 31
0.0000000000000000
  0
ARC
  5
240
100
AcDbEntity
  8
MAIN0
  6
CONTINUOUS
 62
3
100
AcDbCircle
 10
207.5520253628774
 20
198.3310777900103
 30
0.0000000000000000
 40
0.6000000000000001
100
AcDbArc
 50
30.00000000026296
 51
150.0000000002450
  0
LINE
  5
241
100
AcDbEntity
  8
MAIN0
  6
CENTER
 62
3
100
AcDbLine
 10
194.2520253629909
 20
172.7278534186359
 30
0.0000000000000000
 11
194.2520253630181
 21
166.6084948185949
 31
0.0000000000000000
  0
LINE
  5
242
100
AcDbEntity
  8
MAIN0
  6
CONTINUOUS
 62
3
100
AcDbLine
 10
193.7324101207296
 20
170.6310777899491
 30
0.0000000000000000
 11
192.5020253628933
 21
168.4999888764971
 31
0.0000000000000000
  0
LINE
  5
243
100
AcDbEntity
  8
MAIN0
  6
CONTINUOUS
 62
3
100
AcDbLine
 10
194.7716406052709
 20
170.6310777899536
 30
0.0000000000000000
 11
196.0020253631261
 21
168.4999888765125
 31
0.0000000000000000
  0
ARC
  5
244
100
AcDbEntity
  8
MAIN0
  6
CONTINUOUS
 62
3
100
AcDbCircle
 10
194.2520253630016
 20
170.3310777899513
 30
0.0000000000000000
 40
0.6000000000000001
100
AcDbArc
 50
30.00000000026296
 51
150.0000000002450
  0
LINE
  5
245
100
AcDbEntity
  8
MAIN0
  6
CONTINUOUS
 62
3
100
AcDbLine
 10
208.2020253628866
 20
222.4999888765667
 30
0.0000000000000000
 11
212.6520253627702
 21
222.4999888765864
 31
0.0000000000000000
  0
LINE
  5
246
100
AcDbEntity
  8
MAIN0
  6
CONTINUOUS
 62
3
100
AcDbLine
 10
202.2020253628866
 20
222.4999888765401
 30
0.0000000000000000
 11
204.7020253626539
 21
222.4999888765512
 31
0.0000000000000000
  0
LINE
  5
247
100
AcDbEntity
  8
MAIN0
  6
CONTINUOUS
 62
3
100
AcDbLine
 10
196.2020253628866
 20
222.4999888765135
 30
0.0000000000000000
 11
198.7020253626539
 21
222.4999888765246
 31
0.0000000000000000
  0
LINE
  5
248
100
AcDbEntity
  8
MAIN0
  6
CONTINUOUS
 62
3
100
AcDbLine
 10
190.2020253628866
 20
222.4999888764869
 30
0.0000000000000000
 11
192.7020253626539
 21
222.4999888764980
 31
0.0000000000000000
  0
LINE
  5
249
100
AcDbEntity
  8
MAIN0
  6
CONTINUOUS
 62
3
100
AcDbLine
 10
184.2020253628866
 20
222.4999888764603
 30
0.0000000000000000
 11
186.7020253626539
 21
222.4999888764714
 31
0.0000000000000000
  0
LINE
  5
24A
100
AcDbEntity
  8
MAIN0
  6
CONTINUOUS
 62
3
100
AcDbLine
 10
180.3573108139303
 20
222.4999888764432
 30
0.0000000000000000
 11
180.7020253626539
 21
222.4999888764448
 31
0.0000000000000000
  0
LINE
  5
24B
100
AcDbEntity
  8
MAIN0
  6
CONTINUOUS
 62
3
100
AcDbLine
 10
202.4520253628855
 20
196.4999888765412
 30
0.0000000000000000
 11
205.8020253627692
 21
196.4999888765561
 31
0.0000000000000000
  0
LINE
  5
24C
100
AcDbEntity
  8
MAIN0
  6
CONTINUOUS
 62
3
100
AcDbLine
 10
209.3020253630019
 20
196.4999888765716
 30
0.0000000000000000
 11
212.6520253628855
 21
196.4999888765865
 31
0.0000000000000000
  0
LINE
  5
24D
100
AcDbEntity
  8
MAIN0
  6
CONTINUOUS
 62
3
100
AcDbLine
 10
189.4520253630097
 20
168.4999888764836
 30
0.0000000000000000
 11
192.5020253628934
 21
168.4999888764971
 31
0.0000000000000000
  0
LINE
  5
24E
100
AcDbEntity
  8
MAIN0
  6
CONTINUOUS
 62
3
100
AcDbLine
 10
196.0020253631260
 20
168.4999888765127
 30
0.0000000000000000
 11
199.1520253630097
 21
168.4999888765266
 31
0.0000000000000000
  0
LINE
  5
24F
100
AcDbEntity
  8
MAIN0
  6
CONTINUOUS
 62
3
100
AcDbLine
 10
186.3520253631605
 20
134.4999888764698
 30
0.0000000000000000
 11
186.9520253631579
 21
135.0999888764725
 31
0.0000000000000000
  0
LINE
  5
250
100
AcDbEntity
  8
MAIN0
  6
CONTINUOUS
 62
3
100
AcDbLine
 10
200.4520253628966
 20
193.9999888765324
 30
0.0000000000000000
 11
199.6520253628897
 21
195.5367745781058
 31
0.0000000000000000
  0
LINE
  5
251
100
AcDbEntity
  8
MAIN0
  6
CONTINUOUS
 62
3
100
AcDbLine
 10
199.6520253628898
 20
195.5367745781058
 30
0.0000000000000000
 11
199.6520253628873
 21
196.0999888765288
 31
0.0000000000000000
  0
LINE
  5
252
100
AcDbEntity
  8
MAIN0
  6
CONTINUOUS
 62
3
100
AcDbLine
 10
200.8520253628820
 20
197.2999888765341
 30
0.0000000000000000
 11
200.9152396613050
 21
197.2999888765344
 31
0.0000000000000000
  0
LINE
  5
253
100
AcDbEntity
  8
MAIN0
  6
CONTINUOUS
 62
3
100
AcDbLine
 10
200.9152396613051
 20
197.2999888765344
 30
0.0000000000000000
 11
202.4520253628855
 21
196.4999888765412
 31
0.0000000000000000
  0
ARC
  5
254
100
AcDbEntity
  8
MAIN0
  6
CONTINUOUS
 62
3
100
AcDbCircle
 10
200.8520253628873
 20
196.0999888765341
 30
0.0000000000000000
 40
1.200000000000000
100
AcDbArc
 50
90.00000000025403
 51
180.0000000002541
  0
LINE
  5
255
100
AcDbEntity
  8
MAIN0
  6
CONTINUOUS
 62
3
100
AcDbLine
 10
187.4520253630207
 20
165.9999888764748
 30
0.0000000000000000
 11
186.6520253630139
 21
167.5367745780481
 31
0.0000000000000000
  0
LINE
  5
256
100
AcDbEntity
  8
MAIN0
  6
CONTINUOUS
 62
3
100
AcDbLine
 10
186.6520253630140
 20
167.5367745780481
 30
0.0000000000000000
 11
186.6520253630115
 21
168.0999888764711
 31
0.0000000000000000
  0
LINE
  5
257
100
AcDbEntity
  8
MAIN0
  6
CONTINUOUS
 62
3
100
AcDbLine
 10
187.8520253630062
 20
169.2999888764765
 30
0.0000000000000000
 11
187.9152396614292
 21
169.2999888764767
 31
0.0000000000000000
  0
LINE
  5
258
100
AcDbEntity
  8
MAIN0
  6
CONTINUOUS
 62
3
100
AcDbLine
 10
187.9152396614293
 20
169.2999888764768
 30
0.0000000000000000
 11
189.4520253630097
 21
168.4999888764836
 31
0.0000000000000000
  0
ARC
  5
259
100
AcDbEntity
  8
MAIN0
  6
CONTINUOUS
 62
3
100
AcDbCircle
 10
187.8520253630115
 20
168.0999888764765
 30
0.0000000000000000
 40
1.200000000000000
100
AcDbArc
 50
90.00000000025403
 51
180.0000000002541
  0
LINE
  5
25A
100
AcDbEntity
  8
MAIN0
  6
CONTINUOUS
 62
3
100
AcDbLine
 10
155.9520253631605
 20
134.4999888763350
 30
0.0000000000000000
 11
186.3520253631605
 21
134.4999888764698
 31
0.0000000000000000
  0
LINE
  5
25B
100
AcDbEntity
  8
MAIN0
  6
PHANTOM
 62
3
100
AcDbLine
 10
187.4543026905188
 20
311.9998985927535
 30
0.0000000000000000
 11
186.6543026905189
 21
313.5366842943304
 31
0.0000000000000000
  0
LINE
  5
25C
100
AcDbEntity
  8
MAIN0
  6
PHANTOM
 62
3
100
AcDbLine
 10
186.6543026905189
 20
313.5366842943304
 30
0.0000000000000000
 11
186.6543026905189
 21
314.0998985927535
 31
0.0000000000000000
  0
LINE
  5
25D
100
AcDbEntity
  8
MAIN0
  6
PHANTOM
 62
3
100
AcDbLine
 10
187.8543026905189
 20
315.2998985927535
 30
0.0000000000000000
 11
187.9175169889420
 21
315.2998985927535
 31
0.0000000000000000
  0
LINE
  5
25E
100
AcDbEntity
  8
MAIN0
  6
PHANTOM
 62
3
100
AcDbLine
 10
187.9175169889419
 20
315.2998985927535
 30
0.0000000000000000
 11
189.4543026905189
 21
314.4998985927535
 31
0.0000000000000000
  0
ARC
  5
25F
100
AcDbEntity
  8
MAIN0
  6
PHANTOM
 62
3
100
AcDbCircle
 10
187.8543026905189
 20
314.0998985927535
 30
0.0000000000000000
 40
1.200000000000000
100
AcDbArc
 50
90.00000000000000
 51
180.0000000000000
  0
LINE
  5
260
100
AcDbEntity
  8
MAIN0
  6
PHANTOM
 62
3
100
AcDbLine
 10
200.4543026905189
 20
339.9998985927534
 30
0.0000000000000000
 11
199.6543026905189
 21
341.5366842943304
 31
0.0000000000000000
  0
LINE
  5
261
100
AcDbEntity
  8
MAIN0
  6
PHANTOM
 62
3
100
AcDbLine
 10
199.6543026905189
 20
341.5366842943304
 30
0.0000000000000000
 11
199.6543026905189
 21
342.0998985927535
 31
0.0000000000000000
  0
LINE
  5
262
100
AcDbEntity
  8
MAIN0
  6
PHANTOM
 62
3
100
AcDbLine
 10
200.8543026905189
 20
343.2998985927535
 30
0.0000000000000000
 11
200.9175169889420
 21
343.2998985927535
 31
0.0000000000000000
  0
LINE
  5
263
100
AcDbEntity
  8
MAIN0
  6
PHANTOM
 62
3
100
AcDbLine
 10
200.9175169889419
 20
343.2998985927534
 30
0.0000000000000000
 11
202.4543026905188
 21
342.4998985927534
 31
0.0000000000000000
  0
ARC
  5
264
100
AcDbEntity
  8
MAIN0
  6
PHANTOM
 62
3
100
AcDbCircle
 10
200.8543026905189
 20
342.0998985927535
 30
0.0000000000000000
 40
1.200000000000000
100
AcDbArc
 50
90.00000000000000
 51
180.0000000000000
  0
MTEXT
  5
265
100
AcDbEntity
  8
B0
  6
CONTINUOUS
 62
3
100
AcDbMText
 10
122.5045860535509
 20
74.32431784677073
 30
0.0000000000000000
 40
4.649999856948853
 41
0.0000000000000000
 71
     1
 72
     1
  1
{\H0.90x;{147}}
 11
1.000000000000000
 21
0.0000000000000000
 31
0.0000000000000000
  7
STANDARD
  0
MTEXT
  5
266
100
AcDbEntity
  8
B0
  6
CONTINUOUS
 62
3
100
AcDbMText
 10
127.0045860535510
 20
67.57431784677073
 30
0.0000000000000000
 40
4.649999856948853
 41
0.0000000000000000
 71
     1
 72
     1
  1
{\H0.81x;{15.0}}
 11
1.000000000000000
 21
0.0000000000000000
 31
0.0000000000000000
  7
STANDARD
  0
MTEXT
  5
267
100
AcDbEntity
  8
B0
  6
CONTINUOUS
 62
3
100
AcDbMText
 10
122.5045860535509
 20
59.32431784677064
 30
0.0000000000000000
 40
4.649999856948853
 41
0.0000000000000000
 71
     1
 72
     1
  1
{\H0.88x;{37}}
 11
1.000000000000000
 21
0.0000000000000000
 31
0.0000000000000000
  7
STANDARD
  0
MTEXT
  5
268
100
AcDbEntity
  8
B0
  6
CONTINUOUS
 62
3
100
AcDbMText
 10
127.0045860535510
 20
52.57431784677064
 30
0.0000000000000000
 40
4.649999856948853
 41
0.0000000000000000
 71
     1
 72
     1
  1
{\H0.91x;{3773}}
 11
1.000000000000000
 21
0.0000000000000000
 31
0.0000000000000000
  7
STANDARD
  0
MTEXT
  5
269
100
AcDbEntity
  8
B0
  6
CONTINUOUS
 62
3
100
AcDbMText
 10
122.5045860535509
 20
28.07431784677064
 30
0.0000000000000000
 40
4.649999856948853
 41
0.0000000000000000
 71
     1
 72
     1
  1
{\H0.81x;{21.2}}
 11
1.000000000000000
 21
0.0000000000000000
 31
0.0000000000000000
  7
STANDARD
  0
MTEXT
  5
26A
100
AcDbEntity
  8
B0
  6
CONTINUOUS
 62
3
100
AcDbMText
 10
122.5045860535509
 20
15.07431784671954
 30
0.0000000000000000
 40
4.649999856948853
 41
0.0000000000000000
 71
     1
 72
     1
  1
{\H0.81x;{0.16}}
 11
1.000000000000000
 21
0.0000000000000000
 31
0.0000000000000000
  7
STANDARD
  0
MTEXT
  5
26B
100
AcDbEntity
  8
B0
  6
CONTINUOUS
 62
3
100
AcDbMText
 10
122.5045860535074
 20
2.574317846765695
 30
0.0000000000000000
 40
4.649999856948853
 41
0.0000000000000000
 71
     1
 72
     1
  1
{\H0.93x;{\U+22055～\U+2205220}}
 11
1.000000000000000
 21
0.0000000000000000
 31
0.0000000000000000
  7
KNJYOKO
  0
MTEXT
  5
26C
100
AcDbEntity
  8
B0
  6
CONTINUOUS
 62
3
100
AcDbMText
 10
122.5045860535074
 20
-7.925682153234305
 30
0.0000000000000000
 40
4.649999856948853
 41
0.0000000000000000
 71
     1
 72
     1
  1
{\H0.93x;{\U+220562～\U+2205210}}
 11
1.000000000000000
 21
0.0000000000000000
 31
0.0000000000000000
  7
KNJYOKO
  0
MTEXT
  5
26D
100
AcDbEntity
  8
B0
  6
CONTINUOUS
 62
3
100
AcDbMText
 10
74.96825616955593
 20
4.900928114600703
 30
0.0000000000000000
 40
3.750000000000000
 41
0.0000000000000000
 71
     1
 72
     1
  1
{\H0.63x;{EXTERNAL\PGRIPPING}}
 11
1.000000000000000
 21
0.0000000000000000
 31
0.0000000000000000
  7
STANDARD
  0
MTEXT
  5
26E
100
AcDbEntity
  8
B0
  6
CONTINUOUS
 62
3
100
AcDbMText
 10
74.89064202677966
 20
-5.732150508737135
 30
0.0000000000000000
 40
3.750000000000000
 41
0.0000000000000000
 71
     1
 72
     1
  1
{\H0.63x;{INTERNALLY\PGRIPPING}}
 11
1.000000000000000
 21
0.0000000000000000
 31
0.0000000000000000
  7
STANDARD
  0
LINE
  5
26F
100
AcDbEntity
  8
B0
  6
CONTINUOUS
 62
3
100
AcDbLine
 10
44.50458605355100
 20
-15.57568201018322
 30
0.0000000000000000
 11
164.5045860535510
 21
-15.57568201018313
 31
0.0000000000000000
  0
LINE
  5
270
100
AcDbEntity
  8
B0
  6
CONTINUOUS
 62
3
100
AcDbLine
 10
73.75458605355092
 20
-15.57568201018316
 30
0.0000000000000000
 11
73.75458605355092
 21
5.424317989816842
 31
0.0000000000000000
  0
MTEXT
  5
271
100
AcDbEntity
  8
B0
  6
CONTINUOUS
 62
3
100
AcDbMText
 10
98.32998643063883
 20
2.618765798825876
 30
0.0000000000000000
 40
4.649999856948853
 41
0.0000000000000000
 71
     1
 72
     1
  1
{\H0.92x;{外径把握}}
 11
1.000000000000000
 21
0.0000000000000000
 31
0.0000000000000000
  7
KNJYOKO
  0
MTEXT
  5
272
100
AcDbEntity
  8
B0
  6
CONTINUOUS
 62
3
100
AcDbMText
 10
98.32998643063883
 20
-8.091926967288231
 30
0.0000000000000000
 40
4.649999856948853
 41
0.0000000000000000
 71
     1
 72
     1
  1
{\H0.92x;{内径把握}}
 11
1.000000000000000
 21
0.0000000000000000
 31
0.0000000000000000
  7
KNJYOKO
  0
MTEXT
  5
273
100
AcDbEntity
  8
B0
  6
CONTINUOUS
 62
3
100
AcDbMText
 10
57.19471324643357
 20
-10.02704326753948
 30
0.0000000000000000
 40
4.500000000000000
 41
0.0000000000000000
 71
     1
 72
     1
  1
{\H0.63x;{(mm)}}
 11
1.000000000000000
 21
0.0000000000000000
 31
0.0000000000000000
  7
STANDARD
  0
MTEXT
  5
274
100
AcDbEntity
  8
B0
  6
CONTINUOUS
 62
3
100
AcDbMText
 10
48.25458605355252
 20
44.19931784681293
 30
0.0000000000000000
 40
4.649999856948853
 41
0.0000000000000000
 71
     1
 72
     1
  1
{\H0.94x;{許容最高回転速度　}}
 11
1.000000000000000
 21
0.0000000000000000
 31
0.0000000000000000
  7
KNJYOKO
  0
MTEXT
  5
275
100
AcDbEntity
  8
B0
  6
CONTINUOUS
 62
3
100
AcDbMText
 10
122.5045860535509
 20
38.92431798982179
 30
0.0000000000000000
 40
4.649999856948853
 41
0.0000000000000000
 71
     7
 72
     1
  1
{2900 min}
 11
1.000000000000000
 21
0.0000000000000000
 31
0.0000000000000000
  7
STANDARD
  0
MTEXT
  5
276
100
AcDbEntity
  8
B0
  6
CONTINUOUS
 62
3
100
AcDbMText
 10
155.7945870286829
 20
41.24931791829621
 30
0.0000000000000000
 40
2.324999928474426
 41
0.0000000000000000
 71
     7
 72
     1
  1
{-1}
 11
1.000000000000000
 21
0.0000000000000000
 31
0.0000000000000000
  7
STANDARD
  0
MTEXT
  5
277
100
AcDbEntity
  8
B0
  6
CONTINUOUS
 62
3
100
AcDbMText
 10
141.8505122823590
 20
38.01424514558582
 30
0.0000000000000000
 40
4.649999856948853
 41
0.0000000000000000
 71
     1
 72
     1
  1
{\H0.92x;{(rpm)}}
 11
1.000000000000000
 21
0.0000000000000000
 31
0.0000000000000000
  7
STANDARD
  0
LINE
  5
278
100
AcDbEntity
  8
B0
  6
CONTINUOUS
 62
3
100
AcDbLine
 10
73.75458605355102
 20
-5.075682010183016
 30
0.0000000000000000
 11
164.5045860535509
 21
-5.075682010182931
 31
0.0000000000000000
  0
LINE
  5
279
100
AcDbEntity
  8
B0
  6
CONTINUOUS
 62
3
100
AcDbLine
 10
44.50458605355079
 20
86.92431798987437
 30
0.0000000000000000
 11
164.5045860535510
 21
86.92431798991073
 31
0.0000000000000000
  0
LINE
  5
27A
100
AcDbEntity
  8
B0
  6
CONTINUOUS
 62
3
100
AcDbLine
 10
44.50458605355078
 20
76.42431798987155
 30
0.0000000000000000
 11
164.5045860535507
 21
76.42431798990583
 31
0.0000000000000000
  0
LINE
  5
27B
100
AcDbEntity
  8
B0
  6
CONTINUOUS
 62
3
100
AcDbLine
 10
44.50458605355083
 20
61.42431798986149
 30
0.0000000000000000
 11
164.5045860535508
 21
61.42431798988878
 31
0.0000000000000000
  0
LINE
  5
27C
100
AcDbEntity
  8
B0
  6
CONTINUOUS
 62
3
100
AcDbLine
 10
44.50458605355066
 20
46.42431798985714
 30
0.0000000000000000
 11
164.5045860535506
 21
46.42431798988140
 31
0.0000000000000000
  0
LINE
  5
27D
100
AcDbEntity
  8
B0
  6
CONTINUOUS
 62
3
100
AcDbLine
 10
44.50458605355073
 20
30.92431798985413
 30
0.0000000000000000
 11
164.5045860535508
 21
30.92431798987639
 31
0.0000000000000000
  0
LINE
  5
27E
100
AcDbEntity
  8
B0
  6
CONTINUOUS
 62
3
100
AcDbLine
 10
44.50458605355077
 20
20.42431798985123
 30
0.0000000000000000
 11
164.5045860535510
 21
20.42431798987136
 31
0.0000000000000000
  0
LINE
  5
27F
100
AcDbEntity
  8
B0
  6
CONTINUOUS
 62
3
100
AcDbLine
 10
44.50458605355100
 20
5.424317989816956
 30
0.0000000000000000
 11
164.5045860535509
 21
5.424317989816998
 31
0.0000000000000000
  0
LINE
  5
280
100
AcDbEntity
  8
B0
  6
CONTINUOUS
 62
3
100
AcDbLine
 10
44.50458605355093
 20
-15.57568201018316
 30
0.0000000000000000
 11
44.50458605355093
 21
86.92431798982187
 31
0.0000000000000000
  0
LINE
  5
281
100
AcDbEntity
  8
B0
  6
CONTINUOUS
 62
3
100
AcDbLine
 10
119.5045860535509
 20
-15.57568201018316
 30
0.0000000000000000
 11
119.5045860535509
 21
76.42431798989247
 31
0.0000000000000000
  0
LINE
  5
282
100
AcDbEntity
  8
B0
  6
CONTINUOUS
 62
3
100
AcDbLine
 10
164.5045860535510
 20
-15.57568201018316
 30
0.0000000000000000
 11
164.5045860535510
 21
86.92431798982187
 31
0.0000000000000000
  0
MTEXT
  5
283
100
AcDbEntity
  8
B0
  6
CONTINUOUS
 62
3
100
AcDbMText
 10
48.25458605355264
 20
74.69931856207603
 30
0.0000000000000000
 40
4.650000572204590
 41
0.0000000000000000
 71
     1
 72
     1
  1
{\H0.94x;{許容最大ハンドルトルク}}
 11
1.000000000000000
 21
0.0000000000000000
 31
0.0000000000000000
  7
KNJYOKO
  0
MTEXT
  5
284
100
AcDbEntity
  8
B0
  6
CONTINUOUS
 62
3
100
AcDbMText
 10
48.25458605355252
 20
59.69931856207174
 30
0.0000000000000000
 40
4.650000572204590
 41
0.0000000000000000
 71
     1
 72
     1
  1
{\H0.94x;{最大静的把握力}}
 11
1.000000000000000
 21
0.0000000000000000
 31
0.0000000000000000
  7
KNJYOKO
  0
MTEXT
  5
285
100
AcDbEntity
  8
B0
  6
CONTINUOUS
 62
3
100
AcDbMText
 10
47.50458605355093
 20
28.07431856205582
 30
0.0000000000000000
 40
4.650000572204590
 41
0.0000000000000000
 71
     1
 72
     1
  1
{\H0.90x;{質量}}
 11
1.000000000000000
 21
0.0000000000000000
 31
0.0000000000000000
  7
KNJYOKO
  0
MTEXT
  5
286
100
AcDbEntity
  8
B0
  6
CONTINUOUS
 62
3
100
AcDbMText
 10
49.35655301859854
 20
3.657631853269464
 30
0.0000000000000000
 40
4.650000572204590
 41
0.0000000000000000
 71
     1
 72
     1
  1
{\H0.96x;{把握径}}
 11
1.000000000000000
 21
0.0000000000000000
 31
0.0000000000000000
  7
KNJYOKO
  0
MTEXT
  5
287
100
AcDbEntity
  8
B0
  6
CONTINUOUS
 62
3
100
AcDbMText
 10
53.00358706495113
 20
85.22273518207709
 30
0.0000000000000000
 40
7.500000000000000
 41
0.0000000000000000
 71
     1
 72
     1
  1
{\H0.91x;{仕　様}}
 11
1.000000000000000
 21
0.0000000000000000
 31
0.0000000000000000
  7
KNJYOKO
  0
MTEXT
  5
288
100
AcDbEntity
  8
B0
  6
CONTINUOUS
 62
3
100
AcDbMText
 10
142.0045860535510
 20
72.37431684541269
 30
0.0000000000000000
 40
4.199998855590820
 41
0.0000000000000000
 71
     1
 72
     1
  1
{\H0.58x;{　　　Ｎ・ｍ}}
 11
1.000000000000000
 21
0.0000000000000000
 31
0.0000000000000000
  7
KNJYOKO
  0
MTEXT
  5
289
100
AcDbEntity
  8
B0
  6
CONTINUOUS
 62
3
100
AcDbMText
 10
122.5045860535509
 20
66.37431684541269
 30
0.0000000000000000
 40
4.199998855590820
 41
0.0000000000000000
 71
     1
 72
     1
  1
{\H0.48x;{（}}
 11
1.000000000000000
 21
0.0000000000000000
 31
0.0000000000000000
  7
KNJYOKO
  0
MTEXT
  5
28A
100
AcDbEntity
  8
B0
  6
CONTINUOUS
 62
3
100
AcDbMText
 10
140.5045860535510
 20
66.37431684541269
 30
0.0000000000000000
 40
4.199998855590820
 41
0.0000000000000000
 71
     1
 72
     1
  1
{\H0.58x;{　ｋｇｆ・ｍ）}}
 11
1.000000000000000
 21
0.0000000000000000
 31
0.0000000000000000
  7
KNJYOKO
  0
MTEXT
  5
28B
100
AcDbEntity
  8
B0
  6
CONTINUOUS
 62
3
100
AcDbMText
 10
142.0045860535510
 20
26.12431684541255
 30
0.0000000000000000
 40
4.199998855590820
 41
0.0000000000000000
 71
     1
 72
     1
  1
{\H0.58x;{　　　　ｋｇ}}
 11
1.000000000000000
 21
0.0000000000000000
 31
0.0000000000000000
  7
KNJYOKO
  0
MTEXT
  5
28C
100
AcDbEntity
  8
B0
  6
CONTINUOUS
 62
3
100
AcDbMText
 10
142.0045860535510
 20
57.37431684541261
 30
0.0000000000000000
 40
4.199998855590820
 41
0.0000000000000000
 71
     1
 72
     1
  1
{\H0.58x;{　　　　ｋＮ}}
 11
1.000000000000000
 21
0.0000000000000000
 31
0.0000000000000000
  7
KNJYOKO
  0
MTEXT
  5
28D
100
AcDbEntity
  8
B0
  6
CONTINUOUS
 62
3
100
AcDbMText
 10
122.5045860535509
 20
51.37431684541261
 30
0.0000000000000000
 40
4.199998855590820
 41
0.0000000000000000
 71
     1
 72
     1
  1
{\H0.48x;{（}}
 11
1.000000000000000
 21
0.0000000000000000
 31
0.0000000000000000
  7
KNJYOKO
  0
MTEXT
  5
28E
100
AcDbEntity
  8
B0
  6
CONTINUOUS
 62
3
100
AcDbMText
 10
140.5045860535510
 20
51.37431684541261
 30
0.0000000000000000
 40
4.199998855590820
 41
0.0000000000000000
 71
     1
 72
     1
  1
{\H0.58x;{　　　ｋｇｆ）}}
 11
1.000000000000000
 21
0.0000000000000000
 31
0.0000000000000000
  7
KNJYOKO
  0
MTEXT
  5
28F
100
AcDbEntity
  8
B0
  6
CONTINUOUS
 62
3
100
AcDbMText
 10
91.75329712291756
 20
83.89232823111814
 30
0.0000000000000000
 40
4.649999856948853
 41
0.0000000000000000
 71
     1
 72
     1
  1
{\H0.93x;{SPECIFICATIONS}}
 11
1.000000000000000
 21
0.0000000000000000
 31
0.0000000000000000
  7
STANDARD
  0
MTEXT
  5
290
100
AcDbEntity
  8
B0
  6
CONTINUOUS
 62
3
100
AcDbMText
 10
48.25458605355048
 20
67.04931798986166
 30
0.0000000000000000
 40
3.750000000000000
 41
0.0000000000000000
 71
     1
 72
     1
  1
{\H0.62x;{MAX.PERMISSIBLE HANDLE TORQUE}}
 11
1.000000000000000
 21
0.0000000000000000
 31
0.0000000000000000
  7
STANDARD
  0
MTEXT
  5
291
100
AcDbEntity
  8
B0
  6
CONTINUOUS
 62
3
100
AcDbMText
 10
48.25458605355048
 20
52.04931798985714
 30
0.0000000000000000
 40
3.750000000000000
 41
0.0000000000000000
 71
     1
 72
     1
  1
{\H0.63x;{MAX STATIC GRIPPING FORCE}}
 11
1.000000000000000
 21
0.0000000000000000
 31
0.0000000000000000
  7
STANDARD
  0
MTEXT
  5
292
100
AcDbEntity
  8
B0
  6
CONTINUOUS
 62
3
100
AcDbMText
 10
48.25458605355025
 20
36.54931798985419
 30
0.0000000000000000
 40
3.750000000000000
 41
0.0000000000000000
 71
     1
 72
     1
  1
{\H0.63x;{MAX PREMISSIBLE SPEED}}
 11
1.000000000000000
 21
0.0000000000000000
 31
0.0000000000000000
  7
STANDARD
  0
MTEXT
  5
293
100
AcDbEntity
  8
B0
  6
CONTINUOUS
 62
3
100
AcDbMText
 10
45.55756138392506
 20
-3.928594919100846
 30
0.0000000000000000
 40
3.750000000000000
 41
0.0000000000000000
 71
     1
 72
     1
  1
{\H0.54x;{GRIPPING RANGE}}
 11
1.000000000000000
 21
0.0000000000000000
 31
0.0000000000000000
  7
STANDARD
  0
MTEXT
  5
294
100
AcDbEntity
  8
B0
  6
CONTINUOUS
 62
3
100
AcDbMText
 10
72.85807293659943
 20
28.14750032611912
 30
0.0000000000000000
 40
4.650000572204590
 41
0.0000000000000000
 71
     1
 72
     1
  1
{\H0.91x;{MASS}}
 11
1.000000000000000
 21
0.0000000000000000
 31
0.0000000000000000
  7
STANDARD
  0
MTEXT
  5
295
100
AcDbEntity
  8
B0
  6
CONTINUOUS
 62
3
100
AcDbMText
 10
48.25458605355278
 20
18.69931856203144
 30
0.0000000000000000
 40
4.650000572204590
 41
0.0000000000000000
 71
     1
 72
     1
  1
{\H0.94x;{慣性モーメント}}
 11
1.000000000000000
 21
0.0000000000000000
 31
0.0000000000000000
  7
KNJYOKO
  0
MTEXT
  5
296
100
AcDbEntity
  8
B0
  6
CONTINUOUS
 62
3
100
AcDbMText
 10
48.25458605355050
 20
11.04931655930548
 30
0.0000000000000000
 40
3.749998569488525
 41
0.0000000000000000
 71
     1
 72
     1
  1
{\H0.75x;{MOMENT OF INERTIA}}
 11
1.000000000000000
 21
0.0000000000000000
 31
0.0000000000000000
  7
STANDARD
  0
MTEXT
  5
297
100
AcDbEntity
  8
B0
  6
CONTINUOUS
 62
3
100
AcDbMText
 10
147.6164944532783
 20
13.47848751081941
 30
0.0000000000000000
 40
3.000000000000000
 41
0.0000000000000000
 71
     1
 72
     1
  1
{\H0.92x;{ｋｇ・ｍ}}
 11
1.000000000000000
 21
0.0000000000000000
 31
0.0000000000000000
  7
KNJYOKO
  0
MTEXT
  5
298
100
AcDbEntity
  8
B0
  6
CONTINUOUS
 62
3
100
AcDbMText
 10
160.5236574992102
 20
15.26049215715980
 30
0.0000000000000000
 40
2.099999964237213
 41
0.0000000000000000
 71
     1
 72
     1
  1
{\H0.82x;{2}}
 11
1.000000000000000
 21
0.0000000000000000
 31
0.0000000000000000
  7
STANDARD
  0
MTEXT
  5
299
100
AcDbEntity
  8
B0
  6
CONTINUOUS
 62
3
100
AcDbMText
 10
44.57249994501090
 20
-17.20530450594319
 30
0.0000000000000000
 40
4.650000572204590
 41
0.0000000000000000
 71
     1
 72
     1
  1
{\H0.95x;{○上記仕様は許容最大ハンドルトルク締込時の場合}}
 11
1.000000000000000
 21
0.0000000000000000
 31
0.0000000000000000
  7
KNJYOKO
  0
MTEXT
  5
29A
100
AcDbEntity
  8
B0
  6
CONTINUOUS
 62
3
100
AcDbMText
 10
50.34162755509968
 20
-22.78408569808855
 30
0.0000000000000000
 40
4.649999856948853
 41
0.0000000000000000
 71
     1
 72
     1
  1
{\H0.69x;{AT MAX.PERMISSIBLE HANDLE TORQUE.}}
 11
1.000000000000000
 21
0.0000000000000000
 31
0.0000000000000000
  7
STANDARD
  0
LINE
  5
29B
100
AcDbEntity
  8
A0
  6
CENTER
 62
3
100
AcDbLine
 10
447.9961608302601
 20
352.5000000000000
 30
0.0000000000000000
 11
615.1429631124026
 21
352.5000000000000
 31
0.0000000000000000
  0
LINE
  5
29C
100
AcDbEntity
  8
A0
  6
CONTINUOUS
 62
3
100
AcDbLine
 10
543.5000000000000
 20
367.5000000000000
 30
0.0000000000000000
 11
521.5000000000000
 21
367.5000000000000
 31
0.0000000000000000
  0
LINE
  5
29D
100
AcDbEntity
  8
A0
  6
CONTINUOUS
 62
3
100
AcDbLine
 10
545.5000000000000
 20
365.5000000000000
 30
0.0000000000000000
 11
519.5000000000000
 21
365.5000000000000
 31
0.0000000000000000
  0
LINE
  5
29E
100
AcDbEntity
  8
A0
  6
CONTINUOUS
 62
3
100
AcDbLine
 10
545.5000000000000
 20
337.5000000000000
 30
0.0000000000000000
 11
519.5000000000000
 21
337.5000000000000
 31
0.0000000000000000
  0
LINE
  5
29F
100
AcDbEntity
  8
A0
  6
CONTINUOUS
 62
3
100
AcDbLine
 10
521.5000000000000
 20
335.5000000000000
 30
0.0000000000000000
 11
521.5000000000000
 21
248.4999999999999
 31
0.0000000000000000
  0
LINE
  5
2A0
100
AcDbEntity
  8
A0
  6
CONTINUOUS
 62
3
100
AcDbLine
 10
543.5000000000000
 20
335.5000000000000
 30
0.0000000000000000
 11
543.5000000000000
 21
248.4999999999999
 31
0.0000000000000000
  0
LINE
  5
2A1
100
AcDbEntity
  8
A0
  6
CONTINUOUS
 62
3
100
AcDbLine
 10
519.5000000000000
 20
365.5000000000000
 30
0.0000000000000000
 11
521.5000000000000
 21
367.5000000000000
 31
0.0000000000000000
  0
LINE
  5
2A2
100
AcDbEntity
  8
A0
  6
CONTINUOUS
 62
3
100
AcDbLine
 10
545.5000000000000
 20
365.5000000000000
 30
0.0000000000000000
 11
543.5000000000000
 21
367.5000000000000
 31
0.0000000000000000
  0
LINE
  5
2A3
100
AcDbEntity
  8
A0
  6
CONTINUOUS
 62
3
100
AcDbLine
 10
519.5000000000000
 20
358.5000000000000
 30
0.0000000000000000
 11
519.5000000000000
 21
365.5000000000000
 31
0.0000000000000000
  0
LINE
  5
2A4
100
AcDbEntity
  8
A0
  6
CONTINUOUS
 62
3
100
AcDbLine
 10
519.5000000000000
 20
337.5000000000000
 30
0.0000000000000000
 11
519.5000000000000
 21
346.5000000000000
 31
0.0000000000000000
  0
ARC
  5
2A5
100
AcDbEntity
  8
A0
  6
CONTINUOUS
 62
3
100
AcDbCircle
 10
512.7917960675006
 20
352.5000000000000
 30
0.0000000000000000
 40
9.000000000000000
100
AcDbArc
 50
318.1896851042215
 51
401.8103148957785
  0
ARC
  5
2A6
100
AcDbEntity
  8
A0
  6
CONTINUOUS
 62
3
100
AcDbCircle
 10
552.2081056127427
 20
352.5000000000000
 30
0.0000000000000000
 40
9.000000000000000
100
AcDbArc
 50
138.1892678188161
 51
221.8107321811840
  0
ARC
  5
2A7
100
AcDbEntity
  8
A0
  6
CONTINUOUS
 62
3
100
AcDbCircle
 10
493.6041019662497
 20
355.5000000000000
 30
0.0000000000000000
 40
4.500000000000000
100
AcDbArc
 50
138.1896851042214
 51
221.8103148957786
  0
ARC
  5
2A8
100
AcDbEntity
  8
A0
  6
CONTINUOUS
 62
3
100
AcDbCircle
 10
486.8958980337503
 20
355.5000000000000
 30
0.0000000000000000
 40
4.500000000000000
100
AcDbArc
 50
318.1896851042214
 51
401.8103148957786
  0
ARC
  5
2A9
100
AcDbEntity
  8
A0
  6
CONTINUOUS
 62
3
100
AcDbCircle
 10
498.1041019662497
 20
355.5000000000000
 30
0.0000000000000000
 40
4.500000000000000
100
AcDbArc
 50
138.1896851042214
 51
221.8103148957786
  0
ARC
  5
2AA
100
AcDbEntity
  8
A0
  6
CONTINUOUS
 62
3
100
AcDbCircle
 10
486.8958980337503
 20
349.5000000000000
 30
0.0000000000000000
 40
4.500000000000000
100
AcDbArc
 50
318.1896851042214
 51
401.8103148957786
  0
ARC
  5
2AB
100
AcDbEntity
  8
A0
  6
CONTINUOUS
 62
3
100
AcDbCircle
 10
498.1041019662497
 20
349.5000000000000
 30
0.0000000000000000
 40
4.500000000000000
100
AcDbArc
 50
138.1896851042214
 51
221.8103148957786
  0
ARC
  5
2AC
100
AcDbEntity
  8
A0
  6
CONTINUOUS
 62
3
100
AcDbCircle
 10
491.3958980337503
 20
349.5000000000000
 30
0.0000000000000000
 40
4.500000000000000
100
AcDbArc
 50
318.1896851042214
 51
401.8103148957786
  0
LINE
  5
2AD
100
AcDbEntity
  8
A0
  6
CONTINUOUS
 62
3
100
AcDbLine
 10
458.5000000000000
 20
358.5000000000000
 30
0.0000000000000000
 11
490.2500000000000
 21
358.5000000000000
 31
0.0000000000000000
  0
LINE
  5
2AE
100
AcDbEntity
  8
A0
  6
CONTINUOUS
 62
3
100
AcDbLine
 10
494.7500000000000
 20
358.5000000000000
 30
0.0000000000000000
 11
519.5000000000000
 21
358.5000000000000
 31
0.0000000000000000
  0
LINE
  5
2AF
100
AcDbEntity
  8
A0
  6
CONTINUOUS
 62
3
100
AcDbLine
 10
458.5000000000000
 20
346.5000000000000
 30
0.0000000000000000
 11
490.2500000000000
 21
346.5000000000000
 31
0.0000000000000000
  0
LINE
  5
2B0
100
AcDbEntity
  8
A0
  6
CONTINUOUS
 62
3
100
AcDbLine
 10
494.7500000000000
 20
346.5000000000000
 30
0.0000000000000000
 11
519.5000000000000
 21
346.5000000000000
 31
0.0000000000000000
  0
ARC
  5
2B1
100
AcDbEntity
  8
A0
  6
CONTINUOUS
 62
3
100
AcDbCircle
 10
573.6041019662497
 20
355.5000000000000
 30
0.0000000000000000
 40
4.500000000000000
100
AcDbArc
 50
138.1896851042214
 51
221.8103148957786
  0
ARC
  5
2B2
100
AcDbEntity
  8
A0
  6
CONTINUOUS
 62
3
100
AcDbCircle
 10
566.8958980337503
 20
355.5000000000000
 30
0.0000000000000000
 40
4.500000000000000
100
AcDbArc
 50
318.1896851042214
 51
401.8103148957786
  0
ARC
  5
2B3
100
AcDbEntity
  8
A0
  6
CONTINUOUS
 62
3
100
AcDbCircle
 10
578.1041019662497
 20
355.5000000000000
 30
0.0000000000000000
 40
4.500000000000000
100
AcDbArc
 50
138.1896851042214
 51
221.8103148957786
  0
ARC
  5
2B4
100
AcDbEntity
  8
A0
  6
CONTINUOUS
 62
3
100
AcDbCircle
 10
566.8958980337503
 20
349.5000000000000
 30
0.0000000000000000
 40
4.500000000000000
100
AcDbArc
 50
318.1896851042214
 51
401.8103148957786
  0
ARC
  5
2B5
100
AcDbEntity
  8
A0
  6
CONTINUOUS
 62
3
100
AcDbCircle
 10
578.1041019662497
 20
349.5000000000000
 30
0.0000000000000000
 40
4.500000000000000
100
AcDbArc
 50
138.1896851042214
 51
221.8103148957786
  0
ARC
  5
2B6
100
AcDbEntity
  8
A0
  6
CONTINUOUS
 62
3
100
AcDbCircle
 10
571.3958980337503
 20
349.5000000000000
 30
0.0000000000000000
 40
4.500000000000000
100
AcDbArc
 50
318.1896851042214
 51
401.8103148957786
  0
LINE
  5
2B7
100
AcDbEntity
  8
A0
  6
CONTINUOUS
 62
3
100
AcDbLine
 10
545.5000000000000
 20
358.5000000000000
 30
0.0000000000000000
 11
570.2500000000000
 21
358.5000000000000
 31
0.0000000000000000
  0
LINE
  5
2B8
100
AcDbEntity
  8
A0
  6
CONTINUOUS
 62
3
100
AcDbLine
 10
574.7500000000000
 20
358.5000000000000
 30
0.0000000000000000
 11
606.5000000000000
 21
358.5000000000000
 31
0.0000000000000000
  0
LINE
  5
2B9
100
AcDbEntity
  8
A0
  6
CONTINUOUS
 62
3
100
AcDbLine
 10
545.5000000000000
 20
346.5000000000000
 30
0.0000000000000000
 11
570.2500000000000
 21
346.5000000000000
 31
0.0000000000000000
  0
LINE
  5
2BA
100
AcDbEntity
  8
A0
  6
CONTINUOUS
 62
3
100
AcDbLine
 10
574.7500000000000
 20
346.5000000000000
 30
0.0000000000000000
 11
606.5000000000000
 21
346.5000000000000
 31
0.0000000000000000
  0
LINE
  5
2BB
100
AcDbEntity
  8
A0
  6
CONTINUOUS
 62
3
100
AcDbLine
 10
545.5000000000000
 20
358.5000488557186
 30
0.0000000000000000
 11
545.5000000000000
 21
365.5000000000000
 31
0.0000000000000000
  0
LINE
  5
2BC
100
AcDbEntity
  8
A0
  6
CONTINUOUS
 62
3
100
AcDbLine
 10
545.5000000000000
 20
337.5000000000000
 30
0.0000000000000000
 11
545.5000000000000
 21
346.4999511442814
 31
0.0000000000000000
  0
LINE
  5
2BD
100
AcDbEntity
  8
A0
  6
CONTINUOUS
 62
3
100
AcDbLine
 10
540.3499999999982
 20
208.2000000000000
 30
0.0000000000000000
 11
524.6500000000018
 21
208.2000000000000
 31
0.0000000000000000
  0
LINE
  5
2BE
100
AcDbEntity
  8
A0
  6
CONTINUOUS
 62
3
100
AcDbLine
 10
540.3499999999982
 20
208.2000000000000
 30
0.0000000000000000
 11
540.3499999999982
 21
223.5000000000000
 31
0.0000000000000000
  0
LINE
  5
2BF
100
AcDbEntity
  8
A0
  6
CONTINUOUS
 62
3
100
AcDbLine
 10
533.1352813743943
 20
208.2000000000000
 30
0.0000000000000000
 11
533.1352813743943
 21
223.5000000000000
 31
0.0000000000000000
  0
LINE
  5
2C0
100
AcDbEntity
  8
A0
  6
CONTINUOUS
 62
3
100
AcDbLine
 10
533.1352813743943
 20
223.5000000000000
 30
0.0000000000000000
 11
540.3499999999982
 21
223.5000000000000
 31
0.0000000000000000
  0
LINE
  5
2C1
100
AcDbEntity
  8
A0
  6
CENTER
 62
3
100
AcDbLine
 10
520.1356824776724
 20
187.3561836450843
 30
0.0000000000000000
 11
545.0031880328323
 21
187.3561836451135
 31
0.0000000000000000
  0
LINE
  5
2C2
100
AcDbEntity
  8
A0
  6
CONTINUOUS
 62
3
100
AcDbLine
 10
531.8647186255040
 20
195.2061836450981
 30
0.0000000000000000
 11
524.6500000000000
 21
187.9914650196080
 31
0.0000000000000000
  0
LINE
  5
2C3
100
AcDbEntity
  8
A0
  6
CONTINUOUS
 62
3
100
AcDbLine
 10
540.3500000000000
 20
186.7209022711168
 30
0.0000000000000000
 11
533.1352813739686
 21
179.5061836450995
 31
0.0000000000000000
  0
LINE
  5
2C4
100
AcDbEntity
  8
A0
  6
CONTINUOUS
 62
3
100
AcDbLine
 10
531.8647186259013
 20
179.5061836450981
 30
0.0000000000000000
 11
524.6500000000000
 21
186.7209022710170
 31
0.0000000000000000
  0
LINE
  5
2C5
100
AcDbEntity
  8
A0
  6
CONTINUOUS
 62
3
100
AcDbLine
 10
540.3500000000000
 20
187.9914650194766
 30
0.0000000000000000
 11
533.1352813743946
 21
195.2061836450996
 31
0.0000000000000000
  0
LINE
  5
2C6
100
AcDbEntity
  8
A0
  6
CENTER
 62
3
100
AcDbLine
 10
532.5000000000000
 20
174.1003674677708
 30
0.0000000000000000
 11
532.5000000000000
 21
198.1699107441707
 31
0.0000000000000000
  0
LINE
  5
2C7
100
AcDbEntity
  8
A0
  6
CONTINUOUS
 62
3
100
AcDbLine
 10
531.8647186255040
 20
195.2061836450981
 30
0.0000000000000000
 11
533.1352813743946
 21
195.2061836450996
 31
0.0000000000000000
  0
LINE
  5
2C8
100
AcDbEntity
  8
A0
  6
CONTINUOUS
 62
3
100
AcDbLine
 10
524.6500000000000
 20
186.7209022710170
 30
0.0000000000000000
 11
524.6500000000000
 21
187.9914650196080
 31
0.0000000000000000
  0
LINE
  5
2C9
100
AcDbEntity
  8
A0
  6
CONTINUOUS
 62
3
100
AcDbLine
 10
531.8647186259015
 20
179.5061836450980
 30
0.0000000000000000
 11
533.1352813739686
 21
179.5061836450995
 31
0.0000000000000000
  0
LINE
  5
2CA
100
AcDbEntity
  8
A0
  6
CONTINUOUS
 62
3
100
AcDbLine
 10
540.3500000000000
 20
186.7209022711169
 30
0.0000000000000000
 11
540.3500000000000
 21
187.9914650194766
 31
0.0000000000000000
  0
LINE
  5
2CB
100
AcDbEntity
  8
A0
  6
CONTINUOUS
 62
3
100
AcDbLine
 10
543.4999999999633
 20
335.5000000000000
 30
0.0000000000000000
 11
521.5000000000000
 21
335.5000000000000
 31
0.0000000000000000
  0
LINE
  5
2CC
100
AcDbEntity
  8
A0
  6
CONTINUOUS
 62
3
100
AcDbLine
 10
521.5000000000000
 20
248.4999999999999
 30
0.0000000000000000
 11
543.5000000000000
 21
248.4999999999999
 31
0.0000000000000000
  0
LINE
  5
2CD
100
AcDbEntity
  8
A0
  6
CONTINUOUS
 62
3
100
AcDbLine
 10
539.6499999999983
 20
207.5000000000000
 30
0.0000000000000000
 11
525.3500000000017
 21
207.5000000000000
 31
0.0000000000000000
  0
DIMENSION
  5
2D6
100
AcDbEntity
  8
A0
  6
CONTINUOUS
 62
3
100
AcDbDimension
  2
*D22
 10
519.5000000000000
 20
375.0000000000000
 30
0.0000000000000000
 11
532.5000000000000
 21
375.5000000000000
 31
0.0000000000000000
 70
32
  1
\A1;\U+220526
  3
A003
100
AcDbAlignedDimension
 13
545.5000000000000
 23
365.5000000000000
 33
0.0000000000000000
 14
519.5000000000000
 24
365.5000000000000
 34
0.0000000000000000
100
AcDbRotatedDimension
1001
ACAD
1000
DSTYLE
1002
{
1070
   173
1070
     1
1070
     6
1000
_OPEN
1070
     7
1000
_OPEN
1070
    41
1040
3.000000
1002
}
  0
DIMENSION
  5
2DE
100
AcDbEntity
  8
A0
  6
CONTINUOUS
 62
3
100
AcDbDimension
  2
*D23
 10
510.0000000000000
 20
358.5000000000000
 30
0.0000000000000000
 11
509.5000000000000
 21
365.4052134664756
 31
0.0000000000000000
 70
160
  1
\A1;\U+220512
  3
A003
100
AcDbAlignedDimension
 13
494.7500000000000
 23
346.5000000000000
 33
0.0000000000000000
 14
494.7500000000000
 24
358.5000000000000
 34
0.0000000000000000
 50
90.00000000000000
100
AcDbRotatedDimension
1001
ACAD
1000
DSTYLE
1002
{
1070
   173
1070
     1
1070
     6
1000
_OPEN
1070
     7
1000
_OPEN
1070
    41
1040
3.000000
1002
}
  0
DIMENSION
  5
2E6
100
AcDbEntity
  8
A0
  6
CONTINUOUS
 62
3
100
AcDbDimension
  2
*D24
 10
560.0000000000000
 20
367.5000000000000
 30
0.0000000000000000
 11
559.5000000000000
 21
362.0689996083236
 31
0.0000000000000000
 70
160
  3
A003
100
AcDbAlignedDimension
 13
447.9961608302601
 23
352.5000000000000
 33
0.0000000000000000
 14
543.5000000000000
 24
367.5000000000000
 34
0.0000000000000000
 50
90.00000000000000
100
AcDbRotatedDimension
1001
ACAD
1000
DSTYLE
1002
{
1070
   173
1070
     1
1070
     6
1000
_OPEN
1070
     7
1000
_OPEN
1070
    41
1040
3.000000
1002
}
  0
DIMENSION
  5
2EF
100
AcDbEntity
  8
A0
  6
CONTINUOUS
 62
3
100
AcDbDimension
  2
*D25
 10
572.5000000000000
 20
367.5000000000000
 30
0.0000000000000000
 11
572.0000000000000
 21
287.5000000000000
 31
0.0000000000000000
 70
32
  3
A003
100
AcDbAlignedDimension
 13
539.6499999999983
 23
207.5000000000000
 33
0.0000000000000000
 14
543.5000000000000
 24
367.5000000000000
 34
0.0000000000000000
 50
90.00000000000000
100
AcDbRotatedDimension
1001
ACAD
1000
DSTYLE
1002
{
1070
   173
1070
     1
1070
     6
1000
_OPEN
1070
     7
1000
_OPEN
1070
    41
1040
3.000000
1002
}
  0
DIMENSION
  5
2F6
100
AcDbEntity
  8
A0
  6
CONTINUOUS
 62
3
100
AcDbDimension
  2
*D26
 10
521.5000000000000
 20
301.4104816805120
 30
0.0000000000000000
 11
532.5000000000000
 21
301.9104816805120
 31
0.0000000000000000
 70
32
  1
\A1;\U+220522
  3
A003
100
AcDbAlignedDimension
 13
543.5000000000000
 23
335.5000000000000
 33
0.0000000000000000
 14
521.5000000000000
 24
335.5000000000000
 34
0.0000000000000000
100
AcDbRotatedDimension
1001
ACAD
1000
DSTYLE
1002
{
1070
   173
1070
     1
1070
     6
1000
_OPEN
1070
     7
1000
_OPEN
1070
    41
1040
3.000000
1002
}
  0
LINE
  5
2F7
100
AcDbEntity
  8
A0
  6
CENTER
 62
3
100
AcDbLine
 10
532.5000000000000
 20
202.2072455740795
 30
0.0000000000000000
 11
532.5000000000000
 21
300.4104816805120
 31
0.0000000000000000
  0
LINE
  5
2F8
100
AcDbEntity
  8
A0
  6
CENTER
 62
3
100
AcDbLine
 10
532.5000000000000
 20
306.5104815851445
 30
0.0000000000000000
 11
532.5000000000000
 21
372.5000000000000
 31
0.0000000000000000
  0
DIMENSION
  5
302
100
AcDbEntity
  8
A0
  6
CONTINUOUS
 62
3
100
AcDbDimension
  2
*D27
 10
539.4354511354834
 20
171.9354511354972
 30
0.0000000000000000
 11
551.5882097022859
 21
185.1488698740481
 31
0.0000000000000000
 70
161
  3
A003
100
AcDbAlignedDimension
 13
540.3500000000000
 23
187.9914650194766
 33
0.0000000000000000
 14
531.8647186259013
 24
179.5061836450982
 34
0.0000000000000000
 50
44.99999999992910
1001
ACAD
1000
DSTYLE
1002
{
1070
   173
1070
     1
1070
     6
1000
_OPEN
1070
     7
1000
_OPEN
1070
    41
1040
3.000000
1070
   272
1070
     2
1070
    47
1040
0.000000
1070
    48
1040
0.150000
1070
    71
1070
     1
1002
}
  0
ARC
  5
303
100
AcDbEntity
  8
A0
  6
CONTINUOUS
 62
3
100
AcDbCircle
 10
458.5000000000000
 20
352.5000000000000
 30
0.0000000000000000
 40
6.000000000000000
100
AcDbArc
 50
90.00000000000000
 51
270.0000000000000
  0
ARC
  5
304
100
AcDbEntity
  8
A0
  6
CONTINUOUS
 62
3
100
AcDbCircle
 10
606.5000000000000
 20
352.5000000000000
 30
0.0000000000000000
 40
6.000000000000000
100
AcDbArc
 50
270.0000000000000
 51
450.0000000000000
  0
LINE
  5
305
100
AcDbEntity
  8
A0
  6
CONTINUOUS
 62
3
100
AcDbLine
 10
545.5000000000000
 20
337.5000000000000
 30
0.0000000000000000
 11
543.4999999999633
 21
335.5000000000000
 31
0.0000000000000000
  0
LINE
  5
306
100
AcDbEntity
  8
A0
  6
CONTINUOUS
 62
3
100
AcDbLine
 10
519.5000000000000
 20
337.5000000000000
 30
0.0000000000000000
 11
521.5000000000000
 21
335.5000000000000
 31
0.0000000000000000
  0
LINE
  5
307
100
AcDbEntity
  8
A0
  6
CONTINUOUS
 62
3
100
AcDbLine
 10
540.3499999999982
 20
208.2000000000000
 30
0.0000000000000000
 11
539.6499999999983
 21
207.5000000000000
 31
0.0000000000000000
  0
LINE
  5
308
100
AcDbEntity
  8
A0
  6
CONTINUOUS
 62
3
100
AcDbLine
 10
540.3499999999982
 20
223.5000000000000
 30
0.0000000000000000
 11
533.1352813743943
 21
208.2000000000000
 31
0.0000000000000000
  0
LINE
  5
309
100
AcDbEntity
  8
A0
  6
CONTINUOUS
 62
3
100
AcDbLine
 10
533.1352813743943
 20
223.5000000000000
 30
0.0000000000000000
 11
540.3499999999982
 21
208.2000000000000
 31
0.0000000000000000
  0
LINE
  5
30A
100
AcDbEntity
  8
A0
  6
CONTINUOUS
 62
3
100
AcDbLine
 10
524.6500000000018
 20
208.2000000000000
 30
0.0000000000000000
 11
524.6500000000018
 21
223.5000000000000
 31
0.0000000000000000
  0
LINE
  5
30B
100
AcDbEntity
  8
A0
  6
CONTINUOUS
 62
3
100
AcDbLine
 10
531.8647186256058
 20
208.2000000000000
 30
0.0000000000000000
 11
531.8647186256058
 21
223.5000000000000
 31
0.0000000000000000
  0
LINE
  5
30C
100
AcDbEntity
  8
A0
  6
CONTINUOUS
 62
3
100
AcDbLine
 10
531.8647186256058
 20
223.5000000000000
 30
0.0000000000000000
 11
524.6500000000018
 21
223.5000000000000
 31
0.0000000000000000
  0
LINE
  5
30D
100
AcDbEntity
  8
A0
  6
CONTINUOUS
 62
3
100
AcDbLine
 10
524.6500000000018
 20
208.2000000000000
 30
0.0000000000000000
 11
525.3500000000017
 21
207.5000000000000
 31
0.0000000000000000
  0
LINE
  5
30E
100
AcDbEntity
  8
A0
  6
CONTINUOUS
 62
3
100
AcDbLine
 10
524.6500000000018
 20
223.5000000000000
 30
0.0000000000000000
 11
531.8647186256058
 21
208.2000000000000
 31
0.0000000000000000
  0
LINE
  5
30F
100
AcDbEntity
  8
A0
  6
CONTINUOUS
 62
3
100
AcDbLine
 10
531.8647186256058
 20
223.5000000000000
 30
0.0000000000000000
 11
524.6500000000018
 21
208.2000000000000
 31
0.0000000000000000
  0
ARC
  5
310
100
AcDbEntity
  8
A0
  6
CONTINUOUS
 62
3
100
AcDbCircle
 10
605.1920700919452
 20
228.0283491684103
 30
0.0000000000000000
 40
65.00000000000000
100
AcDbArc
 50
161.6422967345927
 51
183.9948558769688
  0
ARC
  5
311
100
AcDbEntity
  8
A0
  6
CONTINUOUS
 62
3
100
AcDbCircle
 10
459.8079299080548
 20
228.0283491684103
 30
0.0000000000000000
 40
65.00000000000000
100
AcDbArc
 50
356.0051441230312
 51
378.3577032654073
  0
DIMENSION
  5
31A
100
AcDbEntity
  8
A0
  6
CONTINUOUS
 62
3
100
AcDbDimension
  2
*D28
 10
612.5000000000000
 20
385.0000000000000
 30
0.0000000000000000
 11
532.5000000000000
 21
385.5000000000000
 31
0.0000000000000000
 70
32
  1
\A1;290
  3
A003
100
AcDbAlignedDimension
 13
452.5000000000000
 23
352.5000000000000
 33
0.0000000000000000
 14
612.5000000000000
 24
352.5000000000000
 34
0.0000000000000000
100
AcDbRotatedDimension
1001
ACAD
1000
DSTYLE
1002
{
1070
   173
1070
     1
1070
     6
1000
_OPEN
1070
     7
1000
_OPEN
1070
    41
1040
3.000000
1002
}
  0
DIMENSION
  5
323
100
AcDbEntity
  8
A0
  6
CONTINUOUS
 62
3
100
AcDbDimension
  2
*D29
 10
560.0000000000000
 20
223.5000000000000
 30
0.0000000000000000
 11
559.5000000000000
 21
215.5000000000000
 31
0.0000000000000000
 70
32
  3
A003
100
AcDbAlignedDimension
 13
539.6499999999983
 23
207.5000000000000
 33
0.0000000000000000
 14
540.3499999999982
 24
223.5000000000000
 34
0.0000000000000000
 50
90.00000000000000
100
AcDbRotatedDimension
1001
ACAD
1000
DSTYLE
1002
{
1070
   173
1070
     1
1070
     6
1000
_OPEN
1070
     7
1000
_OPEN
1070
    41
1040
3.000000
1002
}
  0
LINE
  5
324
100
AcDbEntity
  8
WAKU0
  6
CONTINUOUS
 62
3
100
AcDbLine
 10
240.0000000000000
 20
51.00000000000000
 30
0.0000000000000000
 11
410.0000000000000
 21
51.00000000000000
 31
0.0000000000000000
  0
LINE
  5
325
100
AcDbEntity
  8
WAKU0
  6
CONTINUOUS
 62
3
100
AcDbLine
 10
240.0000000000000
 20
51.00000000000000
 30
0.0000000000000000
 11
240.0000000000000
 21
12.00000000000000
 31
0.0000000000000000
  0
LINE
  5
326
100
AcDbEntity
  8
WAKU0
  6
CONTINUOUS
 62
3
100
AcDbLine
 10
312.0000000000000
 20
51.00000000000000
 30
0.0000000000000000
 11
312.0000000000000
 21
12.00000000000000
 31
0.0000000000000000
  0
LINE
  5
327
100
AcDbEntity
  8
WAKU0
  6
CONTINUOUS
 62
3
100
AcDbLine
 10
332.0000000000000
 20
51.00000000000000
 30
0.0000000000000000
 11
332.0000000000000
 21
12.00000000000000
 31
0.0000000000000000
  0
LINE
  5
328
100
AcDbEntity
  8
WAKU0
  6
CONTINUOUS
 62
3
100
AcDbLine
 10
344.0000000000000
 20
51.00000000000000
 30
0.0000000000000000
 11
344.0000000000000
 21
12.00000000000000
 31
0.0000000000000000
  0
LINE
  5
329
100
AcDbEntity
  8
WAKU0
  6
CONTINUOUS
 62
3
100
AcDbLine
 10
344.0000000000000
 20
37.00000000000000
 30
0.0000000000000000
 11
410.0000000000000
 21
37.00000000000000
 31
0.0000000000000000
  0
LINE
  5
32A
100
AcDbEntity
  8
WAKU0
  6
CONTINUOUS
 62
3
100
AcDbLine
 10
332.0000000000000
 20
23.00000000000000
 30
0.0000000000000000
 11
410.0000000000000
 21
23.00000000000000
 31
0.0000000000000000
  0
LINE
  5
32B
100
AcDbEntity
  8
WAKU0
  6
CONTINUOUS
 62
3
100
AcDbLine
 10
375.0000000000000
 20
51.00000000000000
 30
0.0000000000000000
 11
375.0000000000000
 21
44.00000000000000
 31
0.0000000000000000
  0
LINE
  5
32C
100
AcDbEntity
  8
WAKU0
  6
CONTINUOUS
 62
3
100
AcDbLine
 10
387.0000000000000
 20
51.00000000000000
 30
0.0000000000000000
 11
387.0000000000000
 21
44.00000000000000
 31
0.0000000000000000
  0
LINE
  5
32D
100
AcDbEntity
  8
WAKU0
  6
CONTINUOUS
 62
3
100
AcDbLine
 10
312.0000000000000
 20
31.50000000000000
 30
0.0000000000000000
 11
332.0000000000000
 21
31.50000000000000
 31
0.0000000000000000
  0
LINE
  5
32E
100
AcDbEntity
  8
WAKU0
  6
CONTINUOUS
 62
3
100
AcDbLine
 10
332.0000000000000
 20
44.00000000000000
 30
0.0000000000000000
 11
410.0000000000000
 21
44.00000000000000
 31
0.0000000000000000
  0
LINE
  5
32F
100
AcDbEntity
  8
WAKU0
  6
CONTINUOUS
 62
3
100
AcDbLine
 10
240.0000000000000
 20
37.00000000000000
 30
0.0000000000000000
 11
312.0000000000000
 21
37.00000000000000
 31
0.0000000000000000
  0
LINE
  5
330
100
AcDbEntity
  8
WAKU0
  6
CONTINUOUS
 62
3
100
AcDbLine
 10
240.0000000000000
 20
23.00000000000000
 30
0.0000000000000000
 11
312.0000000000000
 21
23.00000000000000
 31
0.0000000000000000
  0
LINE
  5
331
100
AcDbEntity
  8
WAKU0
  6
CONTINUOUS
 62
3
100
AcDbLine
 10
288.0000000000000
 20
37.00000000000000
 30
0.0000000000000000
 11
288.0000000000000
 21
12.00000000000000
 31
0.0000000000000000
  0
LINE
  5
332
100
AcDbEntity
  8
WAKU0
  6
CONTINUOUS
 62
3
100
AcDbLine
 10
264.0000000000000
 20
37.00000000000000
 30
0.0000000000000000
 11
264.0000000000000
 21
23.00000000000000
 31
0.0000000000000000
  0
LINE
  5
333
100
AcDbEntity
  8
WAKU0
  6
CONTINUOUS
 62
3
100
AcDbLine
 10
300.0000000000000
 20
26.00000000000000
 30
0.0000000000000000
 11
300.0000000000000
 21
23.00000000000000
 31
0.0000000000000000
  0
LINE
  5
334
100
AcDbEntity
  8
WAKU0
  6
CONTINUOUS
 62
3
100
AcDbLine
 10
276.0000000000000
 20
26.00000000000000
 30
0.0000000000000000
 11
276.0000000000000
 21
23.00000000000000
 31
0.0000000000000000
  0
LINE
  5
335
100
AcDbEntity
  8
WAKU0
  6
CONTINUOUS
 62
3
100
AcDbLine
 10
252.0000000000000
 20
26.00000000000000
 30
0.0000000000000000
 11
252.0000000000000
 21
23.00000000000000
 31
0.0000000000000000
  0
LINE
  5
336
100
AcDbEntity
  8
WAKU0
  6
CONTINUOUS
 62
3
100
AcDbLine
 10
258.0000000000000
 20
51.00000000000000
 30
0.0000000000000000
 11
258.0000000000000
 21
37.00000000000000
 31
0.0000000000000000
  0
LINE
  5
337
100
AcDbEntity
  8
WAKU0
  6
CONTINUOUS
 62
3
100
AcDbLine
 10
240.0000000000000
 20
45.00000000000000
 30
0.0000000000000000
 11
312.0000000000000
 21
45.00000000000000
 31
0.0000000000000000
  0
LINE
  5
338
100
AcDbEntity
  8
WAKU0
  6
HIDDEN
 62
3
100
AcDbLine
 10
360.5000000000000
 20
23.00000000000000
 30
0.0000000000000000
 11
360.5000000000000
 21
12.00000000000000
 31
0.0000000000000000
  0
LINE
  5
339
100
AcDbEntity
  8
WAKU0
  6
HIDDEN
 62
3
100
AcDbLine
 10
372.9000000000000
 20
23.00000000000000
 30
0.0000000000000000
 11
372.9000000000000
 21
12.00000000000000
 31
0.0000000000000000
  0
MTEXT
  5
33A
100
AcDbEntity
  8
WAKU0
  6
CONTINUOUS
 62
3
100
AcDbMText
 10
344.4820000243485
 20
49.04999995231628
 30
0.0000000000000000
 40
3.099999904632568
 41
0.0000000000000000
 71
     1
 72
     1
  1
{\H0.93x;{JN09-101}}
 11
1.000000000000000
 21
0.0000000000000000
 31
0.0000000000000000
  7
STANDARD
  0
MTEXT
  5
33B
100
AcDbEntity
  8
WAKU0
  6
CONTINUOUS
 62
3
100
AcDbMText
 10
344.4659999916852
 20
43.50000000000000
 30
0.0000000000000000
 40
3.000000000000000
 41
0.0000000000000000
 71
     1
 72
     1
  1
{\H0.94x;{スクロールチャック　９\PＳＣＲＯＬＬ　ＣＨＵＣＫ　９}}
 11
1.000000000000000
 21
0.0000000000000000
 31
0.0000000000000000
  7
KNJYOKO
  0
MTEXT
  5
33C
100
AcDbEntity
  8
WAKU0
  6
CONTINUOUS
 62
3
100
AcDbMText
 10
344.4000000059605
 20
34.23333326975504
 30
0.0000000000000000
 40
3.099999904632568
 41
0.0000000000000000
 71
     1
 72
     1
  1
{\H0.70x;{ＪＮ０９－１０１　ガイケイ\PＪＮ０９－１０１　ＯＵＴＳＩＤＥ　ＶＩＥＷ}}
 11
1.000000000000000
 21
0.0000000000000000
 31
0.0000000000000000
  7
KNJYOKO
  0
MTEXT
  5
33D
100
AcDbEntity
  8
WAKU0
  6
CONTINUOUS
 62
3
100
AcDbMText
 10
318.0049998760223
 20
39.29999995231628
 30
0.0000000000000000
 40
3.099999904632568
 41
0.0000000000000000
 71
     1
 72
     1
  1
{\H0.90x;{2:3}}
 11
1.000000000000000
 21
0.0000000000000000
 31
0.0000000000000000
  7
STANDARD
  0
MTEXT
  5
33E
100
AcDbEntity
  8
WAKU0
  6
CONTINUOUS
 62
3
100
AcDbMText
 10
374.4000001549721
 20
20.15000009536743
 30
0.0000000000000000
 40
5.300000190734863
 41
0.0000000000000000
 71
     1
 72
     1
  1
{\H0.90x;{1399}}
 11
1.000000000000000
 21
0.0000000000000000
 31
0.0000000000000000
  7
STANDARD
  0
MTEXT
  5
33F
100
AcDbEntity
  8
WAKU0
  6
CONTINUOUS
 62
3
100
AcDbMText
 10
362.3000000834465
 20
20.15000009536743
 30
0.0000000000000000
 40
5.300000190734863
 41
0.0000000000000000
 71
     1
 72
     1
  1
{\H0.87x;{35}}
 11
1.000000000000000
 21
0.0000000000000000
 31
0.0000000000000000
  7
STANDARD
  0
MTEXT
  5
340
100
AcDbEntity
  8
WAKU0
  6
CONTINUOUS
 62
3
100
AcDbMText
 10
345.5000001192093
 20
20.15000009536743
 30
0.0000000000000000
 40
5.300000190734863
 41
0.0000000000000000
 71
     1
 72
     1
  1
{\H0.89x;{61S}}
 11
1.000000000000000
 21
0.0000000000000000
 31
0.0000000000000000
  7
STANDARD
  0
MTEXT
  5
341
100
AcDbEntity
  8
WAKU0
  6
CONTINUOUS
 62
3
100
AcDbMText
 10
400.0000000476837
 20
20.15000009536743
 30
0.0000000000000000
 40
5.300000190734863
 41
0.0000000000000000
 71
     1
 72
     1
  1
{\H0.81x;{3}}
 11
1.000000000000000
 21
0.0000000000000000
 31
0.0000000000000000
  7
STANDARD
  0
MTEXT
  5
342
100
AcDbEntity
  8
WAKU0
  6
CONTINUOUS
 62
3
100
AcDbMText
 10
400.0000000819564
 20
44.84999990463257
 30
0.0000000000000000
 40
5.300000190734863
 41
0.0000000000000000
 71
     7
 72
     1
  1
{\H0.81x;{ }}
 11
1.000000000000000
 21
0.0000000000000000
 31
0.0000000000000000
  7
STANDARD
  0
MTEXT
  5
343
100
AcDbEntity
  8
WAKU0
  6
CONTINUOUS
 62
3
100
AcDbMText
 10
289.3850002884865
 20
33.00000000000000
 30
0.0000000000000000
 40
3.000000000000000
 41
0.0000000000000000
 71
     7
 72
     1
  1
{\H0.93x;{DRAWN BY}}
 11
1.000000000000000
 21
0.0000000000000000
 31
0.0000000000000000
  7
STANDARD
  0
MTEXT
  5
344
100
AcDbEntity
  8
WAKU0
  6
CONTINUOUS
 62
3
100
AcDbMText
 10
269.2149997949600
 20
32.95000004768372
 30
0.0000000000000000
 40
3.099999904632568
 41
0.0000000000000000
 71
     7
 72
     1
  1
{\H0.92x;{CHIEF}}
 11
1.000000000000000
 21
0.0000000000000000
 31
0.0000000000000000
  7
STANDARD
  0
MTEXT
  5
345
100
AcDbEntity
  8
WAKU0
  6
CONTINUOUS
 62
3
100
AcDbMText
 10
242.4249997138977
 20
32.95000004768372
 30
0.0000000000000000
 40
3.099999904632568
 41
0.0000000000000000
 71
     7
 72
     1
  1
{\H0.92x;{MANAGER}}
 11
1.000000000000000
 21
0.0000000000000000
 31
0.0000000000000000
  7
STANDARD
  0
MTEXT
  5
346
100
AcDbEntity
  8
WAKU0
  6
CONTINUOUS
 62
3
100
AcDbMText
 10
241.0850002169609
 20
46.50000000000000
 30
0.0000000000000000
 40
3.000000000000000
 41
0.0000000000000000
 71
     7
 72
     1
  1
{\H0.92x;{CAREER}}
 11
1.000000000000000
 21
0.0000000000000000
 31
0.0000000000000000
  7
STANDARD
  0
MTEXT
  5
347
100
AcDbEntity
  8
WAKU0
  6
CONTINUOUS
 62
3
100
AcDbMText
 10
294.6099998354912
 20
18.95000004768372
 30
0.0000000000000000
 40
3.099999904632568
 41
0.0000000000000000
 71
     7
 72
     1
  1
{\H0.91x;{DATE}}
 11
1.000000000000000
 21
0.0000000000000000
 31
0.0000000000000000
  7
STANDARD
  0
MTEXT
  5
348
100
AcDbEntity
  8
WAKU0
  6
CONTINUOUS
 62
3
100
AcDbMText
 10
313.9000002145767
 20
26.50000000000000
 30
0.0000000000000000
 40
3.000000000000000
 41
0.0000000000000000
 71
     7
 72
     1
  1
{\H0.63x;{3RD ANGLE}}
 11
1.000000000000000
 21
0.0000000000000000
 31
0.0000000000000000
  7
STANDARD
  0
MTEXT
  5
349
100
AcDbEntity
  8
WAKU0
  6
CONTINUOUS
 62
3
100
AcDbMText
 10
315.2149997949600
 20
45.95000004768372
 30
0.0000000000000000
 40
3.099999904632568
 41
0.0000000000000000
 71
     7
 72
     1
  1
{\H0.92x;{SCALE}}
 11
1.000000000000000
 21
0.0000000000000000
 31
0.0000000000000000
  7
STANDARD
  0
MTEXT
  5
34A
100
AcDbEntity
  8
WAKU0
  6
CONTINUOUS
 62
3
100
AcDbMText
 10
405.7000000476837
 20
46.00000000000000
 30
0.0000000000000000
 40
3.000000000000000
 41
0.0000000000000000
 71
     7
 72
     1
  1
{\H0.63x;{kg}}
 11
1.000000000000000
 21
0.0000000000000000
 31
0.0000000000000000
  7
STANDARD
  0
MTEXT
  5
34B
100
AcDbEntity
  8
WAKU0
  6
CONTINUOUS
 62
3
100
AcDbMText
 10
375.6000001430512
 20
46.00000000000000
 30
0.0000000000000000
 40
3.000000000000000
 41
0.0000000000000000
 71
     7
 72
     1
  1
{\H0.63x;{WEIGHT}}
 11
1.000000000000000
 21
0.0000000000000000
 31
0.0000000000000000
  7
STANDARD
  0
MTEXT
  5
34C
100
AcDbEntity
  8
WAKU0
  6
CONTINUOUS
 62
3
100
AcDbMText
 10
334.0049998760223
 20
18.13333336512248
 30
0.0000000000000000
 40
3.099999904632568
 41
0.0000000000000000
 71
     7
 72
     1
  1
{\H0.90x;{DRW\PNO.}}
 11
1.000000000000000
 21
0.0000000000000000
 31
0.0000000000000000
  7
STANDARD
  0
MTEXT
  5
34D
100
AcDbEntity
  8
WAKU0
  6
CONTINUOUS
 62
3
100
AcDbMText
 10
332.6099998354912
 20
31.95000004768372
 30
0.0000000000000000
 40
3.099999904632568
 41
0.0000000000000000
 71
     7
 72
     1
  1
{\H0.91x;{NAME}}
 11
1.000000000000000
 21
0.0000000000000000
 31
0.0000000000000000
  7
STANDARD
  0
MTEXT
  5
34E
100
AcDbEntity
  8
WAKU0
  6
CONTINUOUS
 62
3
100
AcDbMText
 10
332.6099998354912
 20
45.95000004768372
 30
0.0000000000000000
 40
3.099999904632568
 41
0.0000000000000000
 71
     7
 72
     1
  1
{\H0.91x;{TYPE}}
 11
1.000000000000000
 21
0.0000000000000000
 31
0.0000000000000000
  7
STANDARD
  0
LINE
  5
34F
100
AcDbEntity
  8
WAKU0
  6
HIDDEN
 62
3
100
AcDbLine
 10
407.1599564743885
 20
13.84999990463257
 30
0.0000000000000000
 11
396.9400436209789
 21
13.84999990463257
 31
0.0000000000000000
  0
LINE
  5
350
100
AcDbEntity
  8
WAKU0
  6
HIDDEN
 62
3
100
AcDbLine
 10
407.1599564743885
 20
13.84999990463250
 30
0.0000000000000000
 11
402.0500000476852
 21
22.70070406014901
 31
0.0000000000000000
  0
LINE
  5
351
100
AcDbEntity
  8
WAKU0
  6
HIDDEN
 62
3
100
AcDbLine
 10
402.0500000476852
 20
22.70070406014902
 30
0.0000000000000000
 11
396.9400436209789
 21
13.84999990463248
 31
0.0000000000000000
  0
MTEXT
  5
352
100
AcDbEntity
  8
WAKU0
  6
CONTINUOUS
 62
3
100
AcDbMText
 10
247.0000009614873
 20
20.63471521698214
 30
0.0000000000000000
 40
3.140094041824341
 41
0.0000000000000000
 71
     1
 72
     1
  1
{\H0.83x;{Ｋｉｔａｇａｗａ\PＣｏｒｐｏｒａｔｉｏｎ}}
 11
1.000000000000000
 21
0.0000000000000000
 31
0.0000000000000000
  7
KNJYOKO
  0
LINE
  5
353
100
AcDbEntity
  8
WAKU0
  6
CONTINUOUS
 62
3
100
AcDbLine
 10
330.4713877753800
 20
15.78041421262812
 30
0.0000000000000000
 11
330.4713877753800
 21
21.78041421262815
 31
0.0000000000000000
  0
LINE
  5
354
100
AcDbEntity
  8
WAKU0
  6
CONTINUOUS
 62
3
100
AcDbLine
 10
323.9336941228225
 20
17.28041421262811
 30
0.0000000000000000
 11
323.9336941228225
 21
20.28041421262824
 31
0.0000000000000000
  0
LINE
  5
355
100
AcDbEntity
  8
WAKU0
  6
CENTER
 62
12
100
AcDbLine
 10
313.4321805514995
 20
18.78041421262813
 30
0.0000000000000000
 11
331.2765788964694
 21
18.78041421262813
 31
0.0000000000000000
  0
LINE
  5
356
100
AcDbEntity
  8
WAKU0
  6
CENTER
 62
12
100
AcDbLine
 10
317.4474565857986
 20
14.55921662918448
 30
0.0000000000000000
 11
317.4474565857986
 21
22.89865102149943
 31
0.0000000000000000
  0
LINE
  5
357
100
AcDbEntity
  8
WAKU0
  6
CONTINUOUS
 62
3
100
AcDbLine
 10
323.9336941228225
 20
20.28041421262797
 30
0.0000000000000000
 11
330.4713877753800
 21
21.78041421262795
 31
0.0000000000000000
  0
LINE
  5
358
100
AcDbEntity
  8
WAKU0
  6
CONTINUOUS
 62
3
100
AcDbLine
 10
323.9336941228225
 20
17.28041421262811
 30
0.0000000000000000
 11
330.4713877753799
 21
15.78041421262812
 31
0.0000000000000000
  0
CIRCLE
  5
359
100
AcDbEntity
  8
WAKU0
  6
CONTINUOUS
 62
3
100
AcDbCircle
 10
317.4474565857986
 20
18.78041421262813
 30
0.0000000000000000
 40
1.499999999999972
  0
CIRCLE
  5
35A
100
AcDbEntity
  8
WAKU0
  6
CONTINUOUS
 62
3
100
AcDbCircle
 10
317.4474565857986
 20
18.78041421262813
 30
0.0000000000000000
 40
2.999999999999979
  0
ENDSEC
  0
SECTION
  2
OBJECTS
  0
DICTIONARY
  5
3A8
100
AcDbDictionary
  3
ACAD_GROUP
350
3A9
  3
ACAD_MLINESTYLE
350
3AA
  3
DWGPROPS
350
3AB
  0
DICTIONARY
  5
3A9
102
{ACAD_REACTORS
330
3A8
102
}
100
AcDbDictionary
  0
DICTIONARY
  5
3AA
102
{ACAD_REACTORS
330
3A8
102
}
100
AcDbDictionary
  3
STANDARD
350
3AC
  0
MLINESTYLE
  5
3AC
102
{ACAD_REACTORS
330
3AA
102
}
100
AcDbMlineStyle
  2
STANDARD
 70
     0
  3

 62
   256
 51
90.00
 52
90.00
 71
     2
 49
0.50
 62
   256
  6
BYLAYER
 49
-0.50
 62
   256
  6
BYLAYER
  0
XRECORD
  5
3AB
102
{ACAD_REACTORS
330
3A8
102
}
100
AcDbXrecord
280
     1
  1
DWGPROPS COOKIE
  2
ＪＮ０９－１０１　ガイケイ
  3

  4

  6
スクロールチャック　９
  7

  8

  9

300
=
301
=
302
=
303
=
304
=
305
=
306
=
307
=
308
=
309
=
 40
0.000000
 41
0.000000
 42
0.000000
  1

 90
        0
  0
ENDSEC
  0
EOF
