  0
SECTION
  2
HEADER
  9
$ACADVER
  1
AC1014
  9
$DWGCODEPAGE
  3
ANSI_932
  9
$LTSCALE
 40
20.0
  9
$FILLMODE
 70
     1
  9
$CLAYER
  8
0
  9
$PDMODE
 70
     0
  9
$SPLFRAME
 70
     0
  9
$SPLINETYPE
 70
     6
  9
$SPLINESEGS
 70
     8
  9
$DIMASZ
 40
2.000000
  9
$DIMEXE
 40
2.000000
  9
$DIMEXO
 40
0.800000
  9
$DIMTAD
 70
     1
  9
$DIMTIH
 70
     0
  9
$DIMTOH
 70
     0
  9
$DIMTVP
 40
0.500000
  9
$DIMTXT
 40
3.100000
  9
$EXTMIN
 10
0.000000
 20
0.000000
 30
0.000000
  9
$EXTMAX
 10
297.000000
 20
420.000000
 30
0.000000
  9
$MEASUREMENT
 70
  1
  9
$LIMMIN
 10
0.000000
 20
0.000000
  9
$LIMMAX
 10
297.000000
 20
420.000000
  9
$HANDLING
 70
     1
  9
$HANDSEED
  5
3D9
  9
$DIMBLK
  1
_OPEN
  9
$DIMDEC
 70
     3
  9
$DIMAUNIT
 70
     1
  9
$DIMZIN
 70
     8
  9
$DIMTOFL
 70
     1
  0
ENDSEC
  0
SECTION
  2
CLASSES
  0
ENDSEC
  0
SECTION
  2
TABLES
  0
TABLE
  2
VPORT
  5
38F
100
AcDbSymbolTable
 70
     1
  0
VPORT
  5
390
100
AcDbSymbolTableRecord
100
AcDbViewportTableRecord
  2
*ACTIVE
 70
     0
 12
431.122438
 22
281.936664
 40
559.587682
 41
1.348295
  0
ENDTAB
  0
TABLE
  2
LTYPE
  5
391
100
AcDbSymbolTable
 70
     4
  0
LTYPE
  5
392
100
AcDbSymbolTableRecord
100
AcDbLinetypeTableRecord
  2
BYBLOCK
 70
     0
  3

 72
    65
 73
     0
 40
0.0
  0
LTYPE
  5
393
100
AcDbSymbolTableRecord
100
AcDbLinetypeTableRecord
  2
BYLAYER
 70
     0
  3

 72
    65
 73
     0
 40
0.0
  0
LTYPE
  5
394
100
AcDbSymbolTableRecord
100
AcDbLinetypeTableRecord
  2
CONTINUOUS
 70
     0
  3
Solid line (NEC CAE2D for Win R12.1 : 2019.02.20)
 72
    65
 73
     0
 40
0.0
  0
LTYPE
  5
395
100
AcDbSymbolTableRecord
100
AcDbLinetypeTableRecord
  2
HIDDEN
 70
     0
  3
__ __ __ __ __ __ __ __ __ __ __ __ __ __
 72
    65
 73
     2
 40
0.375
 49
0.25
 74
     0
 49
-0.125
 74
     0
  0
LTYPE
  5
396
100
AcDbSymbolTableRecord
100
AcDbLinetypeTableRecord
  2
CENTER
 70
     0
  3
____ _ ____ _ ____ _ ____ _ ____ _ ____
 72
    65
 73
     4
 40
2.0
 49
1.25
 74
     0
 49
-0.25
 74
     0
 49
0.25
 74
     0
 49
-0.25
 74
     0
  0
LTYPE
  5
397
100
AcDbSymbolTableRecord
100
AcDbLinetypeTableRecord
  2
PHANTOM
 70
     0
  3
______  __  __  ______  __  __  ______ 
 72
    65
 73
     6
 40
2.5
 49
1.25
 74
     0
 49
-0.25
 74
     0
 49
0.25
 74
     0
 49
-0.25
 74
     0
 49
0.25
 74
     0
 49
-0.25
 74
     0
  0
ENDTAB
  0
TABLE
  2
LAYER
  5
398
100
AcDbSymbolTable
 70
    11
  0
LAYER
  5
399
100
AcDbSymbolTableRecord
100
AcDbLayerTableRecord
  2
0
 70
     0
 62
     7
  6
CONTINUOUS
  0
LAYER
  5
39A
100
AcDbSymbolTableRecord
100
AcDbLayerTableRecord
  2
MAIN0
 70
     0
 62
     7
  6
CONTINUOUS
  0
LAYER
  5
39B
100
AcDbSymbolTableRecord
100
AcDbLayerTableRecord
  2
MAIN1
 70
     0
 62
     7
  6
CONTINUOUS
  0
LAYER
  5
39C
100
AcDbSymbolTableRecord
100
AcDbLayerTableRecord
  2
MAIN2
 70
     0
 62
     7
  6
CONTINUOUS
  0
LAYER
  5
39D
100
AcDbSymbolTableRecord
100
AcDbLayerTableRecord
  2
MAIN3
 70
     0
 62
     7
  6
CONTINUOUS
  0
LAYER
  5
39E
100
AcDbSymbolTableRecord
100
AcDbLayerTableRecord
  2
MAIN6
 70
     0
 62
     7
  6
CONTINUOUS
  0
LAYER
  5
39F
100
AcDbSymbolTableRecord
100
AcDbLayerTableRecord
  2
MAIN7
 70
     0
 62
     7
  6
CONTINUOUS
  0
LAYER
  5
3A0
100
AcDbSymbolTableRecord
100
AcDbLayerTableRecord
  2
MAIN1023
 70
     0
 62
    16
  6
CONTINUOUS
  0
LAYER
  5
3A1
100
AcDbSymbolTableRecord
100
AcDbLayerTableRecord
  2
WAKU0
 70
     0
 62
     7
  6
CONTINUOUS
  0
LAYER
  5
3A2
100
AcDbSymbolTableRecord
100
AcDbLayerTableRecord
  2
WAKU3
 70
     0
 62
     7
  6
CONTINUOUS
  0
LAYER
  5
3A3
100
AcDbSymbolTableRecord
100
AcDbLayerTableRecord
  2
WAKU1023
 70
     0
 62
    16
  6
CONTINUOUS
  0
ENDTAB
  0
TABLE
  2
STYLE
  5
3A4
100
AcDbSymbolTable
 70
     4
  0
STYLE
  5
3A5
100
AcDbSymbolTableRecord
100
AcDbTextStyleTableRecord
  2
STANDARD
 70
    64
 40
0.0
 41
1.0
 50
0.0
 71
     0
 42
3.099999904632568
  3
TXT
  4

  0
STYLE
  5
3A6
100
AcDbSymbolTableRecord
100
AcDbTextStyleTableRecord
  2
ANKTATE
 70
    68
 40
0.0
 41
1.0
 50
0.0
 71
     0
 42
3.099999904632568
  3
TXT
  4

  0
STYLE
  5
ED
100
AcDbSymbolTableRecord
100
AcDbTextStyleTableRecord
  2
KNJYOKO
 70
    64
 40
0.0
 41
1.0
 50
0.0
 71
     0
 42
3.099999904632568
  3
TXT
  4
BIGFONT
  0
STYLE
  5
3A7
100
AcDbSymbolTableRecord
100
AcDbTextStyleTableRecord
  2
KNJTATE
 70
    68
 40
0.0
 41
1.0
 50
0.0
 71
     0
 42
3.099999904632568
  3
TXT
  4
BIGFONT
  0
ENDTAB
  0
TABLE
  2
VIEW
  5
3A8
100
AcDbSymbolTable
 70
     0
  0
ENDTAB
  0
TABLE
  2
UCS
  5
3A9
100
AcDbSymbolTable
 70
     0
  0
ENDTAB
  0
TABLE
  2
APPID
  5
3AA
100
AcDbSymbolTable
 70
     1
  0
APPID
  5
3AB
100
AcDbSymbolTableRecord
100
AcDbRegAppTableRecord
  2
ACAD
 70
     0
  0
ENDTAB
  0
TABLE
  2
DIMSTYLE
  5
3AC
100
AcDbSymbolTable
 70
     1
  0
DIMSTYLE
105
3AD
100
AcDbSymbolTableRecord
100
AcDbDimStyleTableRecord
  2
STANDARD
 70
     0
 41
2.000000
 44
2.000000
 42
0.800000
145
0.661290
140
3.100000
144
1.000000
146
0.903226
340
3A5
  0
DIMSTYLE
105
3AE
100
AcDbSymbolTableRecord
100
AcDbDimStyleTableRecord
  2
MAIN001
 70
     0
 41
4.000000
 44
4.000000
 42
1.600000
145
0.580645
140
6.200000
144
1.000000
146
0.903226
 77
     1
 73
     0
 74
     0
271
     3
275
     1
 78
     8
172
     1
340
3A5
  0
DIMSTYLE
105
3AF
100
AcDbSymbolTableRecord
100
AcDbDimStyleTableRecord
  2
WAKU002
 70
     0
 41
2.000000
 44
2.000000
 42
0.800000
145
0.661290
140
3.100000
144
1.000000
146
0.903226
 77
     1
 73
     0
 74
     0
271
     3
275
     1
 78
     8
172
     1
340
3A5
  0
ENDTAB
  0
TABLE
  2
BLOCK_RECORD
  5
3B0
100
AcDbSymbolTable
 70
    41
  0
BLOCK_RECORD
  5
3B1
100
AcDbSymbolTableRecord
100
AcDbBlockTableRecord
  2
*MODEL_SPACE
  0
BLOCK_RECORD
  5
3B2
100
AcDbSymbolTableRecord
100
AcDbBlockTableRecord
  2
*PAPER_SPACE
  0
BLOCK_RECORD
  5
1
100
AcDbSymbolTableRecord
100
AcDbBlockTableRecord
  2
_NONE
  0
BLOCK_RECORD
  5
4
100
AcDbSymbolTableRecord
100
AcDbBlockTableRecord
  2
_CLOSED
  0
BLOCK_RECORD
  5
B
100
AcDbSymbolTableRecord
100
AcDbBlockTableRecord
  2
_DOT
  0
BLOCK_RECORD
  5
13
100
AcDbSymbolTableRecord
100
AcDbBlockTableRecord
  2
_OPEN
  0
BLOCK_RECORD
  5
19
100
AcDbSymbolTableRecord
100
AcDbBlockTableRecord
  2
_ORIGIN
  0
BLOCK_RECORD
  5
1E
100
AcDbSymbolTableRecord
100
AcDbBlockTableRecord
  2
_OPEN30
  0
BLOCK_RECORD
  5
24
100
AcDbSymbolTableRecord
100
AcDbBlockTableRecord
  2
_BOXFILLED
  0
BLOCK_RECORD
  5
29
100
AcDbSymbolTableRecord
100
AcDbBlockTableRecord
  2
_BOXBLANK
  0
BLOCK_RECORD
  5
31
100
AcDbSymbolTableRecord
100
AcDbBlockTableRecord
  2
_OBLIQUE
  0
BLOCK_RECORD
  5
35
100
AcDbSymbolTableRecord
100
AcDbBlockTableRecord
  2
_OPEN90
  0
BLOCK_RECORD
  5
3B
100
AcDbSymbolTableRecord
100
AcDbBlockTableRecord
  2
_CLOSEDBLANK
  0
BLOCK_RECORD
  5
41
100
AcDbSymbolTableRecord
100
AcDbBlockTableRecord
  2
_DOTBLANK
  0
BLOCK_RECORD
  5
3B3
100
AcDbSymbolTableRecord
100
AcDbBlockTableRecord
  2
*D0
  0
BLOCK_RECORD
  5
3B4
100
AcDbSymbolTableRecord
100
AcDbBlockTableRecord
  2
*D1
  0
BLOCK_RECORD
  5
3B5
100
AcDbSymbolTableRecord
100
AcDbBlockTableRecord
  2
*D2
  0
BLOCK_RECORD
  5
3B6
100
AcDbSymbolTableRecord
100
AcDbBlockTableRecord
  2
*D3
  0
BLOCK_RECORD
  5
3B7
100
AcDbSymbolTableRecord
100
AcDbBlockTableRecord
  2
*D4
  0
BLOCK_RECORD
  5
3B8
100
AcDbSymbolTableRecord
100
AcDbBlockTableRecord
  2
*D5
  0
BLOCK_RECORD
  5
3B9
100
AcDbSymbolTableRecord
100
AcDbBlockTableRecord
  2
*D6
  0
BLOCK_RECORD
  5
3BA
100
AcDbSymbolTableRecord
100
AcDbBlockTableRecord
  2
*D7
  0
BLOCK_RECORD
  5
3BB
100
AcDbSymbolTableRecord
100
AcDbBlockTableRecord
  2
*D8
  0
BLOCK_RECORD
  5
3BC
100
AcDbSymbolTableRecord
100
AcDbBlockTableRecord
  2
*D9
  0
BLOCK_RECORD
  5
3BD
100
AcDbSymbolTableRecord
100
AcDbBlockTableRecord
  2
*D10
  0
BLOCK_RECORD
  5
3BE
100
AcDbSymbolTableRecord
100
AcDbBlockTableRecord
  2
*D11
  0
BLOCK_RECORD
  5
3BF
100
AcDbSymbolTableRecord
100
AcDbBlockTableRecord
  2
*D12
  0
BLOCK_RECORD
  5
3C0
100
AcDbSymbolTableRecord
100
AcDbBlockTableRecord
  2
*D13
  0
BLOCK_RECORD
  5
3C1
100
AcDbSymbolTableRecord
100
AcDbBlockTableRecord
  2
*D14
  0
BLOCK_RECORD
  5
3C2
100
AcDbSymbolTableRecord
100
AcDbBlockTableRecord
  2
*D15
  0
BLOCK_RECORD
  5
3C3
100
AcDbSymbolTableRecord
100
AcDbBlockTableRecord
  2
*D16
  0
BLOCK_RECORD
  5
3C4
100
AcDbSymbolTableRecord
100
AcDbBlockTableRecord
  2
*D17
  0
BLOCK_RECORD
  5
3C5
100
AcDbSymbolTableRecord
100
AcDbBlockTableRecord
  2
*D18
  0
BLOCK_RECORD
  5
3C6
100
AcDbSymbolTableRecord
100
AcDbBlockTableRecord
  2
*D19
  0
BLOCK_RECORD
  5
3C7
100
AcDbSymbolTableRecord
100
AcDbBlockTableRecord
  2
*D20
  0
BLOCK_RECORD
  5
3C8
100
AcDbSymbolTableRecord
100
AcDbBlockTableRecord
  2
*D21
  0
BLOCK_RECORD
  5
3C9
100
AcDbSymbolTableRecord
100
AcDbBlockTableRecord
  2
*D22
  0
BLOCK_RECORD
  5
3CA
100
AcDbSymbolTableRecord
100
AcDbBlockTableRecord
  2
*D23
  0
BLOCK_RECORD
  5
3CB
100
AcDbSymbolTableRecord
100
AcDbBlockTableRecord
  2
*D24
  0
BLOCK_RECORD
  5
3CC
100
AcDbSymbolTableRecord
100
AcDbBlockTableRecord
  2
*D25
  0
BLOCK_RECORD
  5
3CD
100
AcDbSymbolTableRecord
100
AcDbBlockTableRecord
  2
*D26
  0
BLOCK_RECORD
  5
3CE
100
AcDbSymbolTableRecord
100
AcDbBlockTableRecord
  2
*D27
  0
BLOCK_RECORD
  5
3CF
100
AcDbSymbolTableRecord
100
AcDbBlockTableRecord
  2
*D28
  0
ENDTAB
  0
ENDSEC
  0
SECTION
  2
BLOCKS
  0
BLOCK
  5
3D0
100
AcDbEntity
  8
0
100
AcDbBlockBegin
  2
*MODEL_SPACE
 70
     0
 10
0.0
 20
0.0
 30
0.0
  3
*MODEL_SPACE
  1

  0
ENDBLK
  5
3D1
100
AcDbEntity
  8
0
100
AcDbBlockEnd
  0
BLOCK
  5
3D2
100
AcDbEntity
  8
0
100
AcDbBlockBegin
  2
*PAPER_SPACE
 70
     0
 10
0.0
 20
0.0
 30
0.0
  3
*PAPER_SPACE
  1

  0
ENDBLK
  5
3D3
100
AcDbEntity
  8
0
100
AcDbBlockEnd
  0
BLOCK
  5
2
100
AcDbEntity
  8
0
100
AcDbBlockBegin
  2
_NONE
 70
     0
 10
0.0
 20
0.0
 30
0.0
  3
_NONE
  1

  0
ENDBLK
  5
3
100
AcDbEntity
  8
0
100
AcDbBlockEnd
  0
BLOCK
  5
5
100
AcDbEntity
  8
0
100
AcDbBlockBegin
  2
_CLOSED
 70
     0
 10
0.0
 20
0.0
 30
0.0
  3
_CLOSED
  1

  0
LINE
  5
6
100
AcDbEntity
  8
0
  6
BYBLOCK
 62
     0
100
AcDbLine
 10
-1.0
 20
0.166667
 30
0.0
 11
0.0
 21
0.0
 31
0.0
  0
LINE
  5
7
100
AcDbEntity
  8
0
  6
BYBLOCK
 62
     0
100
AcDbLine
 10
0.0
 20
0.0
 30
0.0
 11
-1.0
 21
-0.166667
 31
0.0
  0
LINE
  5
8
100
AcDbEntity
  8
0
  6
BYBLOCK
 62
     0
100
AcDbLine
 10
-1.0
 20
0.166667
 30
0.0
 11
-1.0
 21
-0.166667
 31
0.0
  0
LINE
  5
9
100
AcDbEntity
  8
0
  6
BYBLOCK
 62
     0
100
AcDbLine
 10
0.0
 20
0.0
 30
0.0
 11
-1.0
 21
0.0
 31
0.0
  0
ENDBLK
  5
A
100
AcDbEntity
  8
0
100
AcDbBlockEnd
  0
BLOCK
  5
C
100
AcDbEntity
  8
0
100
AcDbBlockBegin
  2
_DOT
 70
     0
 10
0.0
 20
0.0
 30
0.0
  3
_DOT
  1

  0
POLYLINE
  5
D
100
AcDbEntity
  8
0
  6
BYBLOCK
 62
     0
100
AcDb2dPolyline
 66
     1
 10
0.0
 20
0.0
 30
0.0
 70
     1
 40
0.5
 41
0.5
  0
VERTEX
  5
E
100
AcDbEntity
  8
0
  6
BYBLOCK
 62
     0
100
AcDbVertex
100
AcDb2dVertex
 10
-0.25
 20
0.0
 30
0.0
 42
1.0
  0
VERTEX
  5
F
100
AcDbEntity
  8
0
  6
BYBLOCK
 62
     0
100
AcDbVertex
100
AcDb2dVertex
 10
0.25
 20
0.0
 30
0.0
 42
1.0
  0
SEQEND
  5
10
100
AcDbEntity
  8
0
  6
BYBLOCK
 62
     0
  0
LINE
  5
11
100
AcDbEntity
  8
0
  6
BYBLOCK
 62
     0
100
AcDbLine
 10
-0.5
 20
0.0
 30
0.0
 11
-1.0
 21
0.0
 31
0.0
  0
ENDBLK
  5
12
100
AcDbEntity
  8
0
100
AcDbBlockEnd
  0
BLOCK
  5
14
100
AcDbEntity
  8
0
100
AcDbBlockBegin
  2
_OPEN
 70
     0
 10
0.0
 20
0.0
 30
0.0
  3
_OPEN
  1

  0
LINE
  5
15
100
AcDbEntity
  8
0
  6
BYBLOCK
 62
     0
100
AcDbLine
 10
-1.0
 20
0.166667
 30
0.0
 11
0.0
 21
0.0
 31
0.0
  0
LINE
  5
16
100
AcDbEntity
  8
0
  6
BYBLOCK
 62
     0
100
AcDbLine
 10
0.0
 20
0.0
 30
0.0
 11
-1.0
 21
-0.166667
 31
0.0
  0
LINE
  5
17
100
AcDbEntity
  8
0
  6
BYBLOCK
 62
     0
100
AcDbLine
 10
0.0
 20
0.0
 30
0.0
 11
-1.0
 21
0.0
 31
0.0
  0
ENDBLK
  5
18
100
AcDbEntity
  8
0
100
AcDbBlockEnd
  0
BLOCK
  5
1A
100
AcDbEntity
  8
0
100
AcDbBlockBegin
  2
_ORIGIN
 70
     0
 10
0.0
 20
0.0
 30
0.0
  3
_ORIGIN
  1

  0
CIRCLE
  5
1B
100
AcDbEntity
  8
0
  6
BYBLOCK
 62
     0
100
AcDbCircle
 10
0.0
 20
0.0
 30
0.0
 40
0.5
  0
LINE
  5
1C
100
AcDbEntity
  8
0
  6
BYBLOCK
 62
     0
100
AcDbLine
 10
0.0
 20
0.0
 30
0.0
 11
-1.0
 21
0.0
 31
0.0
  0
ENDBLK
  5
1D
100
AcDbEntity
  8
0
100
AcDbBlockEnd
  0
BLOCK
  5
1F
100
AcDbEntity
  8
0
100
AcDbBlockBegin
  2
_OPEN30
 70
     0
 10
0.0
 20
0.0
 30
0.0
  3
_OPEN30
  1

  0
LINE
  5
20
100
AcDbEntity
  8
0
  6
BYBLOCK
 62
     0
100
AcDbLine
 10
-1.0
 20
0.267949
 30
0.0
 11
0.0
 21
0.0
 31
0.0
  0
LINE
  5
21
100
AcDbEntity
  8
0
  6
BYBLOCK
 62
     0
100
AcDbLine
 10
0.0
 20
0.0
 30
0.0
 11
-1.0
 21
-0.267949
 31
0.0
  0
LINE
  5
22
100
AcDbEntity
  8
0
  6
BYBLOCK
 62
     0
100
AcDbLine
 10
0.0
 20
0.0
 30
0.0
 11
-1.0
 21
0.0
 31
0.0
  0
ENDBLK
  5
23
100
AcDbEntity
  8
0
100
AcDbBlockEnd
  0
BLOCK
  5
25
100
AcDbEntity
  8
0
100
AcDbBlockBegin
  2
_BOXFILLED
 70
     0
 10
0.0
 20
0.0
 30
0.0
  3
_BOXFILLED
  1

  0
SOLID
  5
26
100
AcDbEntity
  8
0
  6
BYBLOCK
 62
     0
100
AcDbTrace
 10
-0.5
 20
0.5
 30
0.0
 11
0.5
 21
0.5
 31
0.0
 12
-0.5
 22
-0.5
 32
0.0
 13
0.5
 23
-0.5
 33
0.0
  0
LINE
  5
27
100
AcDbEntity
  8
0
  6
BYBLOCK
 62
     0
100
AcDbLine
 10
-0.5
 20
0.0
 30
0.0
 11
-1.0
 21
0.0
 31
0.0
  0
ENDBLK
  5
28
100
AcDbEntity
  8
0
100
AcDbBlockEnd
  0
BLOCK
  5
2A
100
AcDbEntity
  8
0
100
AcDbBlockBegin
  2
_BOXBLANK
 70
     0
 10
0.0
 20
0.0
 30
0.0
  3
_BOXBLANK
  1

  0
LINE
  5
2B
100
AcDbEntity
  8
0
  6
BYBLOCK
 62
     0
100
AcDbLine
 10
-0.5
 20
-0.5
 30
0.0
 11
0.5
 21
-0.5
 31
0.0
  0
LINE
  5
2C
100
AcDbEntity
  8
0
  6
BYBLOCK
 62
     0
100
AcDbLine
 10
0.5
 20
-0.5
 30
0.0
 11
0.5
 21
0.5
 31
0.0
  0
LINE
  5
2D
100
AcDbEntity
  8
0
  6
BYBLOCK
 62
     0
100
AcDbLine
 10
0.5
 20
0.5
 30
0.0
 11
-0.5
 21
0.5
 31
0.0
  0
LINE
  5
2E
100
AcDbEntity
  8
0
  6
BYBLOCK
 62
     0
100
AcDbLine
 10
-0.5
 20
0.5
 30
0.0
 11
-0.5
 21
-0.5
 31
0.0
  0
LINE
  5
2F
100
AcDbEntity
  8
0
  6
BYBLOCK
 62
     0
100
AcDbLine
 10
-0.5
 20
0.0
 30
0.0
 11
-1.0
 21
0.0
 31
0.0
  0
ENDBLK
  5
30
100
AcDbEntity
  8
0
100
AcDbBlockEnd
  0
BLOCK
  5
32
100
AcDbEntity
  8
0
100
AcDbBlockBegin
  2
_OBLIQUE
 70
     0
 10
0.0
 20
0.0
 30
0.0
  3
_OBLIQUE
  1

  0
LINE
  5
33
100
AcDbEntity
  8
0
  6
BYBLOCK
 62
     0
100
AcDbLine
 10
-0.5
 20
-0.5
 30
0.0
 11
0.5
 21
0.5
 31
0.0
  0
ENDBLK
  5
34
100
AcDbEntity
  8
0
100
AcDbBlockEnd
  0
BLOCK
  5
36
100
AcDbEntity
  8
0
100
AcDbBlockBegin
  2
_OPEN90
 70
     0
 10
0.0
 20
0.0
 30
0.0
  3
_OPEN90
  1

  0
LINE
  5
37
100
AcDbEntity
  8
0
  6
BYBLOCK
 62
     0
100
AcDbLine
 10
-0.5
 20
0.5
 30
0.0
 11
0.0
 21
0.0
 31
0.0
  0
LINE
  5
38
100
AcDbEntity
  8
0
  6
BYBLOCK
 62
     0
100
AcDbLine
 10
0.0
 20
0.0
 30
0.0
 11
-0.5
 21
-0.5
 31
0.0
  0
LINE
  5
39
100
AcDbEntity
  8
0
  6
BYBLOCK
 62
     0
100
AcDbLine
 10
0.0
 20
0.0
 30
0.0
 11
-1.0
 21
0.0
 31
0.0
  0
ENDBLK
  5
3A
100
AcDbEntity
  8
0
100
AcDbBlockEnd
  0
BLOCK
  5
3C
100
AcDbEntity
  8
0
100
AcDbBlockBegin
  2
_CLOSEDBLANK
 70
     0
 10
0.0
 20
0.0
 30
0.0
  3
_CLOSEDBLANK
  1

  0
LINE
  5
3D
100
AcDbEntity
  8
0
  6
BYBLOCK
 62
     0
100
AcDbLine
 10
-1.0
 20
0.1666666666666666
 30
0.0
 11
0.0
 21
0.0
 31
0.0
  0
LINE
  5
3E
100
AcDbEntity
  8
0
  6
BYBLOCK
 62
     0
100
AcDbLine
 10
0.0
 20
0.0
 30
0.0
 11
-1.0
 21
-0.1666666666666666
 31
0.0
  0
LINE
  5
3F
100
AcDbEntity
  8
0
  6
BYBLOCK
 62
     0
100
AcDbLine
 10
-1.0
 20
0.1666666666666666
 30
0.0
 11
-1.0
 21
-0.1666666666666666
 31
0.0
  0
ENDBLK
  5
40
100
AcDbEntity
  8
0
100
AcDbBlockEnd
  0
BLOCK
  5
42
100
AcDbEntity
  8
0
100
AcDbBlockBegin
  2
_DOTBLANK
 70
     0
 10
0.0
 20
0.0
 30
0.0
  3
_DOTBLANK
  1

  0
CIRCLE
  5
43
100
AcDbEntity
  8
0
  6
BYBLOCK
 62
     0
100
AcDbCircle
 10
0.0
 20
0.0
 30
0.0
 40
0.5
  0
LINE
  5
44
100
AcDbEntity
  8
0
  6
BYBLOCK
 62
     0
100
AcDbLine
 10
-0.5
 20
0.0
 30
0.0
 11
-1.0
 21
0.0
 31
0.0
  0
ENDBLK
  5
45
100
AcDbEntity
  8
0
100
AcDbBlockEnd
  0
BLOCK
  5
9A
100
AcDbEntity
  8
MAIN0
  6
CONTINUOUS
 62
3
100
AcDbBlockBegin
  2
*D0
 70
    65
 10
0.0
 20
0.0
 30
0.0
  0
LINE
  5
9B
100
AcDbEntity
  8
MAIN0
  6
BYBLOCK
 62
0
100
AcDbLine
 10
329.8505067038433
 20
355.4655108718737
 30
0.0000000000000000
 11
528.2131805306550
 21
329.9263324928044
 31
0.0000000000000000
  0
INSERT
  5
9C
100
AcDbEntity
  8
MAIN0
  6
BYBLOCK
 62
0
100
AcDbBlockReference
  2
_OPEN
 10
325.8832532273071
 20
355.9762944394551
 30
0.0000000000000000
 41
4.000000000000000
 42
4.000000000000000
 43
4.000000000000000
 50
172.6635330697511
  0
INSERT
  5
9D
100
AcDbEntity
  8
MAIN0
  6
BYBLOCK
 62
0
100
AcDbBlockReference
  2
_OPEN
 10
532.1804340071913
 20
329.4155489252230
 30
0.0000000000000000
 41
4.000000000000000
 42
4.000000000000000
 43
4.000000000000000
 50
352.6635330697512
  0
MTEXT
  5
9E
100
AcDbEntity
  8
MAIN0
  6
BYBLOCK
 62
0
100
AcDbMText
 10
343.7304950209725
 20
357.8123056312667
 30
0.0000000000000000
 40
6.199999809265137
 41
0.0000000000000000
 71
     5
 72
     1
  1
\A1;\U+2205208
 11
0.9918133691340584
 21
-0.1276958918953468
 31
0.0000000000000000
  7
STANDARD
  0
ENDBLK
  5
9F
100
AcDbEntity
  8
MAIN0
  6
CONTINUOUS
 62
3
100
AcDbBlockEnd
  0
BLOCK
  5
A5
100
AcDbEntity
  8
MAIN0
  6
CONTINUOUS
 62
3
100
AcDbBlockBegin
  2
*D1
 70
    65
 10
0.0
 20
0.0
 30
0.0
  0
LINE
  5
A6
100
AcDbEntity
  8
MAIN0
  6
BYBLOCK
 62
0
100
AcDbLine
 10
217.0318436172492
 20
382.6959216823390
 30
0.0000000000000000
 11
259.0318436172492
 21
382.6959216823390
 31
0.0000000000000000
  0
INSERT
  5
A7
100
AcDbEntity
  8
MAIN0
  6
BYBLOCK
 62
0
100
AcDbBlockReference
  2
_OPEN
 10
213.0318436172492
 20
382.6959216823390
 30
0.0000000000000000
 41
4.000000000000000
 42
4.000000000000000
 43
4.000000000000000
 50
180.0000000000000
  0
INSERT
  5
A8
100
AcDbEntity
  8
MAIN0
  6
BYBLOCK
 62
0
100
AcDbBlockReference
  2
_OPEN
 10
263.0318436172492
 20
382.6959216823390
 30
0.0000000000000000
 41
4.000000000000000
 42
4.000000000000000
 43
4.000000000000000
 50
0.0000000000000000
  0
LINE
  5
A9
100
AcDbEntity
  8
MAIN0
  6
BYBLOCK
 62
0
100
AcDbLine
 10
263.0318436172492
 20
360.2959217061809
 30
0.0000000000000000
 11
263.0318436172492
 21
386.6959216823390
 31
0.0000000000000000
  0
MTEXT
  5
AA
100
AcDbEntity
  8
MAIN0
  6
BYBLOCK
 62
0
100
AcDbMText
 10
238.0318436172492
 20
386.2959215869716
 30
0.0000000000000000
 40
6.199999809265137
 41
0.0000000000000000
 71
     5
 72
     1
  1
\A1;50
 11
1.000000000000000
 21
0.0000000000000000
 31
0.0000000000000000
  7
STANDARD
  0
ENDBLK
  5
AB
100
AcDbEntity
  8
MAIN0
  6
CONTINUOUS
 62
3
100
AcDbBlockEnd
  0
BLOCK
  5
AD
100
AcDbEntity
  8
MAIN0
  6
CONTINUOUS
 62
3
100
AcDbBlockBegin
  2
*D2
 70
    65
 10
0.0
 20
0.0
 30
0.0
  0
LINE
  5
AE
100
AcDbEntity
  8
MAIN0
  6
BYBLOCK
 62
0
100
AcDbLine
 10
264.6318436410911
 20
358.6959216823390
 30
0.0000000000000000
 11
293.0318436172492
 21
358.6959216823390
 31
0.0000000000000000
  0
LINE
  5
AF
100
AcDbEntity
  8
MAIN0
  6
BYBLOCK
 62
0
100
AcDbLine
 10
289.0318436172492
 20
354.6959216823390
 30
0.0000000000000000
 11
289.0318436172492
 21
330.6959216823390
 31
0.0000000000000000
  0
INSERT
  5
B0
100
AcDbEntity
  8
MAIN0
  6
BYBLOCK
 62
0
100
AcDbBlockReference
  2
_OPEN
 10
289.0318436172492
 20
358.6959216823390
 30
0.0000000000000000
 41
4.000000000000000
 42
4.000000000000000
 43
4.000000000000000
 50
90.00000000000000
  0
INSERT
  5
B1
100
AcDbEntity
  8
MAIN0
  6
BYBLOCK
 62
0
100
AcDbBlockReference
  2
_OPEN
 10
289.0318436172492
 20
326.6959216823390
 30
0.0000000000000000
 41
4.000000000000000
 42
4.000000000000000
 43
4.000000000000000
 50
270.0000000000000
  0
LINE
  5
B2
100
AcDbEntity
  8
MAIN0
  6
BYBLOCK
 62
0
100
AcDbLine
 10
264.6318436410911
 20
326.6959216823390
 30
0.0000000000000000
 11
293.0318436172492
 21
326.6959216823390
 31
0.0000000000000000
  0
MTEXT
  5
B3
100
AcDbEntity
  8
MAIN0
  6
BYBLOCK
 62
0
100
AcDbMText
 10
285.4318437126166
 20
342.6959216823390
 30
0.0000000000000000
 40
6.199999809265137
 41
0.0000000000000000
 71
     5
 72
     1
  1
\A1;32
 11
6.123233995736766e-017
 21
1.000000000000000
 31
0.0000000000000000
  7
STANDARD
  0
ENDBLK
  5
B4
100
AcDbEntity
  8
MAIN0
  6
CONTINUOUS
 62
3
100
AcDbBlockEnd
  0
BLOCK
  5
B6
100
AcDbEntity
  8
MAIN0
  6
CONTINUOUS
 62
3
100
AcDbBlockBegin
  2
*D3
 70
    65
 10
0.0
 20
0.0
 30
0.0
  0
LINE
  5
B7
100
AcDbEntity
  8
MAIN0
  6
BYBLOCK
 62
0
100
AcDbLine
 10
264.6318436410911
 20
308.1959216823390
 30
0.0000000000000000
 11
293.0318436172492
 21
308.1959216823390
 31
0.0000000000000000
  0
LINE
  5
B8
100
AcDbEntity
  8
MAIN0
  6
BYBLOCK
 62
0
100
AcDbLine
 10
289.0318436172492
 20
304.1959216823390
 30
0.0000000000000000
 11
289.0318436172492
 21
222.1959216823390
 31
0.0000000000000000
  0
INSERT
  5
B9
100
AcDbEntity
  8
MAIN0
  6
BYBLOCK
 62
0
100
AcDbBlockReference
  2
_OPEN
 10
289.0318436172492
 20
308.1959216823390
 30
0.0000000000000000
 41
4.000000000000000
 42
4.000000000000000
 43
4.000000000000000
 50
90.00000000000000
  0
INSERT
  5
BA
100
AcDbEntity
  8
MAIN0
  6
BYBLOCK
 62
0
100
AcDbBlockReference
  2
_OPEN
 10
289.0318436172492
 20
218.1959216823390
 30
0.0000000000000000
 41
4.000000000000000
 42
4.000000000000000
 43
4.000000000000000
 50
270.0000000000000
  0
LINE
  5
BB
100
AcDbEntity
  8
MAIN0
  6
BYBLOCK
 62
0
100
AcDbLine
 10
240.6318436410911
 20
218.1959216823390
 30
0.0000000000000000
 11
293.0318436172492
 21
218.1959216823390
 31
0.0000000000000000
  0
MTEXT
  5
BC
100
AcDbEntity
  8
MAIN0
  6
BYBLOCK
 62
0
100
AcDbMText
 10
285.4318437126166
 20
263.1959216823390
 30
0.0000000000000000
 40
6.199999809265137
 41
0.0000000000000000
 71
     5
 72
     1
  1
\A1;90
 11
6.123233995736766e-017
 21
1.000000000000000
 31
0.0000000000000000
  7
STANDARD
  0
ENDBLK
  5
BD
100
AcDbEntity
  8
MAIN0
  6
CONTINUOUS
 62
3
100
AcDbBlockEnd
  0
BLOCK
  5
C0
100
AcDbEntity
  8
MAIN0
  6
CONTINUOUS
 62
3
100
AcDbBlockBegin
  2
*D4
 70
    65
 10
0.0
 20
0.0
 30
0.0
  0
LINE
  5
C1
100
AcDbEntity
  8
MAIN0
  6
BYBLOCK
 62
0
100
AcDbLine
 10
129.0318436172492
 20
458.2959217061809
 30
0.0000000000000000
 11
129.0318436172492
 21
512.6195990199652
 31
0.0000000000000000
  0
LINE
  5
C2
100
AcDbEntity
  8
MAIN0
  6
BYBLOCK
 62
0
100
AcDbLine
 10
133.0318436172492
 20
508.6195990199652
 30
0.0000000000000000
 11
209.0318436172492
 21
508.6195990199652
 31
0.0000000000000000
  0
INSERT
  5
C3
100
AcDbEntity
  8
MAIN0
  6
BYBLOCK
 62
0
100
AcDbBlockReference
  2
_OPEN
 10
129.0318436172492
 20
508.6195990199652
 30
0.0000000000000000
 41
4.000000000000000
 42
4.000000000000000
 43
4.000000000000000
 50
180.0000000000000
  0
INSERT
  5
C4
100
AcDbEntity
  8
MAIN0
  6
BYBLOCK
 62
0
100
AcDbBlockReference
  2
_OPEN
 10
213.0318436172492
 20
508.6195990199652
 30
0.0000000000000000
 41
4.000000000000000
 42
4.000000000000000
 43
4.000000000000000
 50
0.0000000000000000
  0
LINE
  5
C5
100
AcDbEntity
  8
MAIN0
  6
BYBLOCK
 62
0
100
AcDbLine
 10
213.0318436172492
 20
458.2959217061809
 30
0.0000000000000000
 11
213.0318436172492
 21
512.6195990199652
 31
0.0000000000000000
  0
MTEXT
  5
C6
100
AcDbEntity
  8
MAIN0
  6
BYBLOCK
 62
0
100
AcDbMText
 10
171.0318436172492
 20
512.2195989245978
 30
0.0000000000000000
 40
6.199999809265137
 41
0.0000000000000000
 71
     5
 72
     1
  1
\A1;84
 11
1.000000000000000
 21
0.0000000000000000
 31
0.0000000000000000
  7
STANDARD
  0
ENDBLK
  5
C7
100
AcDbEntity
  8
MAIN0
  6
CONTINUOUS
 62
3
100
AcDbBlockEnd
  0
BLOCK
  5
C9
100
AcDbEntity
  8
MAIN0
  6
CONTINUOUS
 62
3
100
AcDbBlockBegin
  2
*D5
 70
    65
 10
0.0
 20
0.0
 30
0.0
  0
LINE
  5
CA
100
AcDbEntity
  8
MAIN0
  6
BYBLOCK
 62
0
100
AcDbLine
 10
129.0318436172492
 20
458.2959217061809
 30
0.0000000000000000
 11
129.0318436172492
 21
498.5494426020899
 31
0.0000000000000000
  0
LINE
  5
CB
100
AcDbEntity
  8
MAIN0
  6
BYBLOCK
 62
0
100
AcDbLine
 10
133.0318436172492
 20
494.5494426020899
 30
0.0000000000000000
 11
154.5318436172492
 21
494.5494426020899
 31
0.0000000000000000
  0
INSERT
  5
CC
100
AcDbEntity
  8
MAIN0
  6
BYBLOCK
 62
0
100
AcDbBlockReference
  2
_OPEN
 10
129.0318436172492
 20
494.5494426020899
 30
0.0000000000000000
 41
4.000000000000000
 42
4.000000000000000
 43
4.000000000000000
 50
180.0000000000000
  0
INSERT
  5
CD
100
AcDbEntity
  8
MAIN0
  6
BYBLOCK
 62
0
100
AcDbBlockReference
  2
_OPEN
 10
158.5318436172492
 20
494.5494426020899
 30
0.0000000000000000
 41
4.000000000000000
 42
4.000000000000000
 43
4.000000000000000
 50
0.0000000000000000
  0
LINE
  5
CE
100
AcDbEntity
  8
MAIN0
  6
BYBLOCK
 62
0
100
AcDbLine
 10
158.5318436172492
 20
463.2790290869300
 30
0.0000000000000000
 11
158.5318436172492
 21
498.5494426020899
 31
0.0000000000000000
  0
MTEXT
  5
CF
100
AcDbEntity
  8
MAIN0
  6
BYBLOCK
 62
0
100
AcDbMText
 10
143.7818436172492
 20
498.1494425067224
 30
0.0000000000000000
 40
6.199999809265137
 41
0.0000000000000000
 71
     5
 72
     1
  1
\A1;29.5
 11
1.000000000000000
 21
0.0000000000000000
 31
0.0000000000000000
  7
STANDARD
  0
ENDBLK
  5
D0
100
AcDbEntity
  8
MAIN0
  6
CONTINUOUS
 62
3
100
AcDbBlockEnd
  0
BLOCK
  5
D2
100
AcDbEntity
  8
MAIN0
  6
CONTINUOUS
 62
3
100
AcDbBlockBegin
  2
*D6
 70
    65
 10
0.0
 20
0.0
 30
0.0
  0
LINE
  5
D3
100
AcDbEntity
  8
MAIN0
  6
BYBLOCK
 62
0
100
AcDbLine
 10
158.5318436172492
 20
463.2790290869300
 30
0.0000000000000000
 11
158.5318436172492
 21
498.5494426020899
 31
0.0000000000000000
  0
LINE
  5
D4
100
AcDbEntity
  8
MAIN0
  6
BYBLOCK
 62
0
100
AcDbLine
 10
162.5318436172492
 20
494.5494426020899
 30
0.0000000000000000
 11
209.0318436172492
 21
494.5494426020899
 31
0.0000000000000000
  0
INSERT
  5
D5
100
AcDbEntity
  8
MAIN0
  6
BYBLOCK
 62
0
100
AcDbBlockReference
  2
_OPEN
 10
158.5318436172492
 20
494.5494426020899
 30
0.0000000000000000
 41
4.000000000000000
 42
4.000000000000000
 43
4.000000000000000
 50
180.0000000000000
  0
INSERT
  5
D6
100
AcDbEntity
  8
MAIN0
  6
BYBLOCK
 62
0
100
AcDbBlockReference
  2
_OPEN
 10
213.0318436172492
 20
494.5494426020899
 30
0.0000000000000000
 41
4.000000000000000
 42
4.000000000000000
 43
4.000000000000000
 50
0.0000000000000000
  0
LINE
  5
D7
100
AcDbEntity
  8
MAIN0
  6
BYBLOCK
 62
0
100
AcDbLine
 10
213.0318436172492
 20
458.2959217061809
 30
0.0000000000000000
 11
213.0318436172492
 21
498.5494426020899
 31
0.0000000000000000
  0
MTEXT
  5
D8
100
AcDbEntity
  8
MAIN0
  6
BYBLOCK
 62
0
100
AcDbMText
 10
185.7818436172492
 20
498.1494425067224
 30
0.0000000000000000
 40
6.199999809265137
 41
0.0000000000000000
 71
     5
 72
     1
  1
\A1;54.5
 11
1.000000000000000
 21
0.0000000000000000
 31
0.0000000000000000
  7
STANDARD
  0
ENDBLK
  5
D9
100
AcDbEntity
  8
MAIN0
  6
CONTINUOUS
 62
3
100
AcDbBlockEnd
  0
BLOCK
  5
DB
100
AcDbEntity
  8
MAIN0
  6
CONTINUOUS
 62
3
100
AcDbBlockBegin
  2
*D7
 70
    65
 10
0.0
 20
0.0
 30
0.0
  0
LINE
  5
DC
100
AcDbEntity
  8
MAIN0
  6
BYBLOCK
 62
0
100
AcDbLine
 10
129.4318435934073
 20
458.6959216823390
 30
0.0000000000000000
 11
57.07770534138365
 21
458.6959216823390
 31
0.0000000000000000
  0
LINE
  5
DD
100
AcDbEntity
  8
MAIN0
  6
BYBLOCK
 62
0
100
AcDbLine
 10
61.07770534138365
 20
454.6959216823390
 30
0.0000000000000000
 11
61.07770534138365
 21
230.6959216823390
 31
0.0000000000000000
  0
INSERT
  5
DE
100
AcDbEntity
  8
MAIN0
  6
BYBLOCK
 62
0
100
AcDbBlockReference
  2
_OPEN
 10
61.07770534138365
 20
458.6959216823390
 30
0.0000000000000000
 41
4.000000000000000
 42
4.000000000000000
 43
4.000000000000000
 50
90.00000000000000
  0
INSERT
  5
DF
100
AcDbEntity
  8
MAIN0
  6
BYBLOCK
 62
0
100
AcDbBlockReference
  2
_OPEN
 10
61.07770534138365
 20
226.6959216823390
 30
0.0000000000000000
 41
4.000000000000000
 42
4.000000000000000
 43
4.000000000000000
 50
270.0000000000000
  0
LINE
  5
E0
100
AcDbEntity
  8
MAIN0
  6
BYBLOCK
 62
0
100
AcDbLine
 10
129.4318435934073
 20
226.6959216823390
 30
0.0000000000000000
 11
57.07770534138365
 21
226.6959216823390
 31
0.0000000000000000
  0
MTEXT
  5
E1
100
AcDbEntity
  8
MAIN0
  6
BYBLOCK
 62
0
100
AcDbMText
 10
57.47770543675108
 20
342.6959216823390
 30
0.0000000000000000
 40
6.199999809265137
 41
0.0000000000000000
 71
     5
 72
     1
  1
\A1;\U+2205232
 11
6.123233995736766e-017
 21
1.000000000000000
 31
0.0000000000000000
  7
STANDARD
  0
ENDBLK
  5
E2
100
AcDbEntity
  8
MAIN0
  6
CONTINUOUS
 62
3
100
AcDbBlockEnd
  0
BLOCK
  5
E4
100
AcDbEntity
  8
MAIN0
  6
CONTINUOUS
 62
3
100
AcDbBlockBegin
  2
*D8
 70
    65
 10
0.0
 20
0.0
 30
0.0
  0
LINE
  5
E5
100
AcDbEntity
  8
MAIN0
  6
BYBLOCK
 62
0
100
AcDbLine
 10
127.4318435934073
 20
437.6959216823390
 30
0.0000000000000000
 11
73.98992246010249
 21
437.6959216823390
 31
0.0000000000000000
  0
LINE
  5
E6
100
AcDbEntity
  8
MAIN0
  6
BYBLOCK
 62
0
100
AcDbLine
 10
77.98992246010249
 20
433.6959216823390
 30
0.0000000000000000
 11
77.98992246010249
 21
251.6959216823390
 31
0.0000000000000000
  0
INSERT
  5
E7
100
AcDbEntity
  8
MAIN0
  6
BYBLOCK
 62
0
100
AcDbBlockReference
  2
_OPEN
 10
77.98992246010249
 20
437.6959216823390
 30
0.0000000000000000
 41
4.000000000000000
 42
4.000000000000000
 43
4.000000000000000
 50
90.00000000000000
  0
INSERT
  5
E8
100
AcDbEntity
  8
MAIN0
  6
BYBLOCK
 62
0
100
AcDbBlockReference
  2
_OPEN
 10
77.98992246010249
 20
247.6959216823390
 30
0.0000000000000000
 41
4.000000000000000
 42
4.000000000000000
 43
4.000000000000000
 50
270.0000000000000
  0
LINE
  5
E9
100
AcDbEntity
  8
MAIN0
  6
BYBLOCK
 62
0
100
AcDbLine
 10
127.4318435934074
 20
247.6959216823390
 30
0.0000000000000000
 11
73.98992246010249
 21
247.6959216823390
 31
0.0000000000000000
  0
MTEXT
  5
EA
100
AcDbEntity
  8
MAIN0
  6
BYBLOCK
 62
0
100
AcDbMText
 10
74.38992255546992
 20
342.6959216637126
 30
0.0000000000000000
 40
6.199999809265137
 41
0.0000000000000000
 71
     5
 72
     1
  1
\A1;\U+2205190H6\H0.903226x;\S＋0.029^ 　0;
 11
6.123233995736766e-017
 21
1.000000000000000
 31
0.0000000000000000
  7
KNJYOKO
  0
ENDBLK
  5
EB
100
AcDbEntity
  8
MAIN0
  6
CONTINUOUS
 62
3
100
AcDbBlockEnd
  0
BLOCK
  5
EE
100
AcDbEntity
  8
MAIN0
  6
CONTINUOUS
 62
3
100
AcDbBlockBegin
  2
*D9
 70
    65
 10
0.0
 20
0.0
 30
0.0
  0
LINE
  5
EF
100
AcDbEntity
  8
MAIN0
  6
BYBLOCK
 62
0
100
AcDbLine
 10
147.4318435934073
 20
377.6959216823390
 30
0.0000000000000000
 11
105.1373068223762
 21
377.6959216823390
 31
0.0000000000000000
  0
LINE
  5
F0
100
AcDbEntity
  8
MAIN0
  6
BYBLOCK
 62
0
100
AcDbLine
 10
109.1373068223762
 20
373.6959216823390
 30
0.0000000000000000
 11
109.1373068223762
 21
311.6959216823390
 31
0.0000000000000000
  0
INSERT
  5
F1
100
AcDbEntity
  8
MAIN0
  6
BYBLOCK
 62
0
100
AcDbBlockReference
  2
_OPEN
 10
109.1373068223762
 20
377.6959216823390
 30
0.0000000000000000
 41
4.000000000000000
 42
4.000000000000000
 43
4.000000000000000
 50
90.00000000000000
  0
INSERT
  5
F2
100
AcDbEntity
  8
MAIN0
  6
BYBLOCK
 62
0
100
AcDbBlockReference
  2
_OPEN
 10
109.1373068223762
 20
307.6959216823390
 30
0.0000000000000000
 41
4.000000000000000
 42
4.000000000000000
 43
4.000000000000000
 50
270.0000000000000
  0
LINE
  5
F3
100
AcDbEntity
  8
MAIN0
  6
BYBLOCK
 62
0
100
AcDbLine
 10
147.4318435934073
 20
307.6959216823390
 30
0.0000000000000000
 11
105.1373068223762
 21
307.6959216823390
 31
0.0000000000000000
  0
MTEXT
  5
F4
100
AcDbEntity
  8
MAIN0
  6
BYBLOCK
 62
0
100
AcDbMText
 10
105.5373069177436
 20
342.6959216823390
 30
0.0000000000000000
 40
6.199999809265137
 41
0.0000000000000000
 71
     5
 72
     1
  1
\A1;\U+220570
 11
6.123233995736766e-017
 21
1.000000000000000
 31
0.0000000000000000
  7
STANDARD
  0
ENDBLK
  5
F5
100
AcDbEntity
  8
MAIN0
  6
CONTINUOUS
 62
3
100
AcDbBlockEnd
  0
BLOCK
  5
16A
100
AcDbEntity
  8
MAIN0
  6
CONTINUOUS
 62
3
100
AcDbBlockBegin
  2
*D10
 70
    65
 10
0.0
 20
0.0
 30
0.0
  0
LINE
  5
16B
100
AcDbEntity
  8
MAIN0
  6
BYBLOCK
 62
0
100
AcDbLine
 10
538.5993880442107
 20
218.3128383601830
 30
0.0000000000000000
 11
538.5993880442178
 21
243.7482023696018
 31
0.0000000000000000
  0
LINE
  5
16C
100
AcDbEntity
  8
MAIN0
  6
BYBLOCK
 62
0
100
AcDbLine
 10
542.5993880442168
 20
239.7482023696007
 30
0.0000000000000000
 11
634.5993880442168
 21
239.7482023695752
 31
0.0000000000000000
  0
INSERT
  5
16D
100
AcDbEntity
  8
MAIN0
  6
BYBLOCK
 62
0
100
AcDbBlockReference
  2
_OPEN
 10
538.5993880442168
 20
239.7482023696018
 30
0.0000000000000000
 41
4.000000000000000
 42
4.000000000000000
 43
4.000000000000000
 50
179.9999999999841
  0
INSERT
  5
16E
100
AcDbEntity
  8
MAIN0
  6
BYBLOCK
 62
0
100
AcDbBlockReference
  2
_OPEN
 10
638.5993880442168
 20
239.7482023695741
 30
0.0000000000000000
 41
4.000000000000000
 42
4.000000000000000
 43
4.000000000000000
 50
359.9999999999841
  0
LINE
  5
16F
100
AcDbEntity
  8
MAIN0
  6
BYBLOCK
 62
0
100
AcDbLine
 10
638.5993880442107
 20
218.3128383601552
 30
0.0000000000000000
 11
638.5993880442178
 21
243.7482023695741
 31
0.0000000000000000
  0
MTEXT
  5
170
100
AcDbEntity
  8
MAIN0
  6
BYBLOCK
 62
0
100
AcDbMText
 10
588.5993880442169
 20
243.3482022742205
 30
0.0000000000000000
 40
6.199999809265137
 41
0.0000000000000000
 71
     5
 72
     1
  1
\A1;100
 11
1.000000000000000
 21
0.0000000000000000
 31
0.0000000000000000
  7
STANDARD
  0
ENDBLK
  5
171
100
AcDbEntity
  8
MAIN0
  6
CONTINUOUS
 62
3
100
AcDbBlockEnd
  0
BLOCK
  5
173
100
AcDbEntity
  8
MAIN0
  6
CONTINUOUS
 62
3
100
AcDbBlockBegin
  2
*D11
 70
    65
 10
0.0
 20
0.0
 30
0.0
  0
LINE
  5
174
100
AcDbEntity
  8
MAIN0
  6
BYBLOCK
 62
0
100
AcDbLine
 10
640.1993880680523
 20
216.7128383363147
 30
0.0000000000000000
 11
664.5839589262843
 21
216.7128383363338
 31
0.0000000000000000
  0
LINE
  5
175
100
AcDbEntity
  8
MAIN0
  6
BYBLOCK
 62
0
100
AcDbLine
 10
660.5839589262874
 20
212.7128383363307
 30
0.0000000000000000
 11
660.5839589263164
 21
175.7128383363306
 31
0.0000000000000000
  0
INSERT
  5
176
100
AcDbEntity
  8
MAIN0
  6
BYBLOCK
 62
0
100
AcDbBlockReference
  2
_OPEN
 10
660.5839589262843
 20
216.7128383363307
 30
0.0000000000000000
 41
4.000000000000000
 42
4.000000000000000
 43
4.000000000000000
 50
90.00000000004491
  0
INSERT
  5
177
100
AcDbEntity
  8
MAIN0
  6
BYBLOCK
 62
0
100
AcDbBlockReference
  2
_OPEN
 10
660.5839589263195
 20
171.7128383363306
 30
0.0000000000000000
 41
4.000000000000000
 42
4.000000000000000
 43
4.000000000000000
 50
270.0000000000449
  0
LINE
  5
178
100
AcDbEntity
  8
MAIN0
  6
BYBLOCK
 62
0
100
AcDbLine
 10
640.1993880680906
 20
171.7128383363146
 30
0.0000000000000000
 11
664.5839589263195
 21
171.7128383363337
 31
0.0000000000000000
  0
MTEXT
  5
179
100
AcDbEntity
  8
MAIN0
  6
BYBLOCK
 62
0
100
AcDbMText
 10
656.9839590216693
 20
194.2128383363303
 30
0.0000000000000000
 40
6.199999809265137
 41
0.0000000000000000
 71
     5
 72
     1
  1
\A1;45
 11
6.123233995736766e-017
 21
1.000000000000000
 31
0.0000000000000000
  7
STANDARD
  0
ENDBLK
  5
17A
100
AcDbEntity
  8
MAIN0
  6
CONTINUOUS
 62
3
100
AcDbBlockEnd
  0
BLOCK
  5
17D
100
AcDbEntity
  8
MAIN0
  6
CONTINUOUS
 62
3
100
AcDbBlockBegin
  2
*D12
 70
    65
 10
0.0
 20
0.0
 30
0.0
  0
LINE
  5
17E
100
AcDbEntity
  8
MAIN0
  6
BYBLOCK
 62
0
100
AcDbLine
 10
556.6093880442509
 20
162.8758659506785
 30
0.0000000000000000
 11
556.6093880442462
 21
146.2619523518033
 31
0.0000000000000000
  0
LINE
  5
17F
100
AcDbEntity
  8
MAIN0
  6
BYBLOCK
 62
0
100
AcDbLine
 10
556.6093880442473
 20
150.2619523518033
 30
0.0000000000000000
 11
582.5993880442474
 21
150.2619523517961
 31
0.0000000000000000
  0
INSERT
  5
180
100
AcDbEntity
  8
MAIN0
  6
BYBLOCK
 62
0
100
AcDbBlockReference
  2
_OPEN
 10
556.6093880442473
 20
150.2619523518033
 30
0.0000000000000000
 41
4.000000000000000
 42
4.000000000000000
 43
4.000000000000000
 50
359.9999999999841
  0
INSERT
  5
181
100
AcDbEntity
  8
MAIN0
  6
BYBLOCK
 62
0
100
AcDbBlockReference
  2
_DOT
 10
583.5993880442474
 20
150.2619523517958
 30
0.0000000000000000
 41
2.000000000000000
 42
2.000000000000000
 43
2.000000000000000
 50
359.9999999999841
  0
LINE
  5
182
100
AcDbEntity
  8
MAIN0
  6
BYBLOCK
 62
0
100
AcDbLine
 10
552.6093880442473
 20
150.2619523518044
 30
0.0000000000000000
 11
550.6093880442473
 21
150.2619523518050
 31
0.0000000000000000
  0
LINE
  5
183
100
AcDbEntity
  8
MAIN0
  6
BYBLOCK
 62
0
100
AcDbLine
 10
583.5993880442509
 20
162.8758659506997
 30
0.0000000000000000
 11
583.5993880442462
 21
146.2619523517958
 31
0.0000000000000000
  0
MTEXT
  5
184
100
AcDbEntity
  8
MAIN0
  6
BYBLOCK
 62
0
100
AcDbMText
 10
570.1043880442475
 20
153.8619522564321
 30
0.0000000000000000
 40
6.199999809265137
 41
0.0000000000000000
 71
     5
 72
     1
  1
\A1;26.99
 11
1.000000000000000
 21
0.0000000000000000
 31
0.0000000000000000
  7
STANDARD
  0
ENDBLK
  5
185
100
AcDbEntity
  8
MAIN0
  6
CONTINUOUS
 62
3
100
AcDbBlockEnd
  0
BLOCK
  5
187
100
AcDbEntity
  8
MAIN0
  6
CONTINUOUS
 62
3
100
AcDbBlockBegin
  2
*D13
 70
    65
 10
0.0
 20
0.0
 30
0.0
  0
LINE
  5
188
100
AcDbEntity
  8
MAIN0
  6
BYBLOCK
 62
0
100
AcDbLine
 10
583.5993880442509
 20
162.8758659506997
 30
0.0000000000000000
 11
583.5993880442462
 21
146.2619523517958
 31
0.0000000000000000
  0
LINE
  5
189
100
AcDbEntity
  8
MAIN0
  6
BYBLOCK
 62
0
100
AcDbLine
 10
584.5993880442474
 20
150.2619523517955
 30
0.0000000000000000
 11
610.5893880442474
 21
150.2619523517883
 31
0.0000000000000000
  0
INSERT
  5
18A
100
AcDbEntity
  8
MAIN0
  6
BYBLOCK
 62
0
100
AcDbBlockReference
  2
_DOT
 10
583.5993880442474
 20
150.2619523517958
 30
0.0000000000000000
 41
2.000000000000000
 42
2.000000000000000
 43
2.000000000000000
 50
179.9999999999841
  0
INSERT
  5
18B
100
AcDbEntity
  8
MAIN0
  6
BYBLOCK
 62
0
100
AcDbBlockReference
  2
_OPEN
 10
610.5893880442474
 20
150.2619523517883
 30
0.0000000000000000
 41
4.000000000000000
 42
4.000000000000000
 43
4.000000000000000
 50
179.9999999999841
  0
LINE
  5
18C
100
AcDbEntity
  8
MAIN0
  6
BYBLOCK
 62
0
100
AcDbLine
 10
614.5893880442474
 20
150.2619523517872
 30
0.0000000000000000
 11
616.5893880442474
 21
150.2619523517866
 31
0.0000000000000000
  0
LINE
  5
18D
100
AcDbEntity
  8
MAIN0
  6
BYBLOCK
 62
0
100
AcDbLine
 10
610.5893880442509
 20
162.8758659507209
 30
0.0000000000000000
 11
610.5893880442462
 21
146.2619523517883
 31
0.0000000000000000
  0
MTEXT
  5
18E
100
AcDbEntity
  8
MAIN0
  6
BYBLOCK
 62
0
100
AcDbMText
 10
597.0943880442475
 20
153.8619522564246
 30
0.0000000000000000
 40
6.199999809265137
 41
0.0000000000000000
 71
     5
 72
     1
  1
\A1;26.99
 11
1.000000000000000
 21
0.0000000000000000
 31
0.0000000000000000
  7
STANDARD
  0
ENDBLK
  5
18F
100
AcDbEntity
  8
MAIN0
  6
CONTINUOUS
 62
3
100
AcDbBlockEnd
  0
BLOCK
  5
191
100
AcDbEntity
  8
MAIN0
  6
CONTINUOUS
 62
3
100
AcDbBlockBegin
  2
*D14
 70
    65
 10
0.0
 20
0.0
 30
0.0
  0
LINE
  5
192
100
AcDbEntity
  8
MAIN0
  6
BYBLOCK
 62
0
100
AcDbLine
 10
200.0318436172492
 20
458.2959217061809
 30
0.0000000000000000
 11
200.0318436172492
 21
484.6864994309832
 31
0.0000000000000000
  0
LINE
  5
193
100
AcDbEntity
  8
MAIN0
  6
BYBLOCK
 62
0
100
AcDbLine
 10
200.0318436172492
 20
480.6864994309832
 30
0.0000000000000000
 11
213.0318436172492
 21
480.6864994309832
 31
0.0000000000000000
  0
INSERT
  5
194
100
AcDbEntity
  8
MAIN0
  6
BYBLOCK
 62
0
100
AcDbBlockReference
  2
_OPEN
 10
200.0318436172492
 20
480.6864994309832
 30
0.0000000000000000
 41
4.000000000000000
 42
4.000000000000000
 43
4.000000000000000
 50
0.0000000000000000
  0
INSERT
  5
195
100
AcDbEntity
  8
MAIN0
  6
BYBLOCK
 62
0
100
AcDbBlockReference
  2
_OPEN
 10
213.0318436172492
 20
480.6864994309832
 30
0.0000000000000000
 41
4.000000000000000
 42
4.000000000000000
 43
4.000000000000000
 50
180.0000000000000
  0
LINE
  5
196
100
AcDbEntity
  8
MAIN0
  6
BYBLOCK
 62
0
100
AcDbLine
 10
196.0318436172492
 20
480.6864994309832
 30
0.0000000000000000
 11
194.0318436172492
 21
480.6864994309832
 31
0.0000000000000000
  0
LINE
  5
197
100
AcDbEntity
  8
MAIN0
  6
BYBLOCK
 62
0
100
AcDbLine
 10
217.0318436172492
 20
480.6864994309832
 30
0.0000000000000000
 11
219.0318436172492
 21
480.6864994309832
 31
0.0000000000000000
  0
LINE
  5
198
100
AcDbEntity
  8
MAIN0
  6
BYBLOCK
 62
0
100
AcDbLine
 10
213.0318436172492
 20
458.2959217061809
 30
0.0000000000000000
 11
213.0318436172492
 21
484.6864994309832
 31
0.0000000000000000
  0
MTEXT
  5
199
100
AcDbEntity
  8
MAIN0
  6
BYBLOCK
 62
0
100
AcDbMText
 10
206.5318436172492
 20
484.2864993356158
 30
0.0000000000000000
 40
6.199999809265137
 41
0.0000000000000000
 71
     5
 72
     1
  1
\A1;13
 11
1.000000000000000
 21
0.0000000000000000
 31
0.0000000000000000
  7
STANDARD
  0
ENDBLK
  5
19A
100
AcDbEntity
  8
MAIN0
  6
CONTINUOUS
 62
3
100
AcDbBlockEnd
  0
BLOCK
  5
19C
100
AcDbEntity
  8
MAIN0
  6
CONTINUOUS
 62
3
100
AcDbBlockBegin
  2
*D15
 70
    65
 10
0.0
 20
0.0
 30
0.0
  0
LINE
  5
19D
100
AcDbEntity
  8
MAIN0
  6
BYBLOCK
 62
0
100
AcDbLine
 10
214.6318436410911
 20
456.6959216823390
 30
0.0000000000000000
 11
243.0318436172492
 21
456.6959216823390
 31
0.0000000000000000
  0
LINE
  5
19E
100
AcDbEntity
  8
MAIN0
  6
BYBLOCK
 62
0
100
AcDbLine
 10
239.0318436172492
 20
456.6959216823390
 30
0.0000000000000000
 11
239.0318436172492
 21
436.6959216823390
 31
0.0000000000000000
  0
INSERT
  5
19F
100
AcDbEntity
  8
MAIN0
  6
BYBLOCK
 62
0
100
AcDbBlockReference
  2
_OPEN
 10
239.0318436172492
 20
456.6959216823390
 30
0.0000000000000000
 41
4.000000000000000
 42
4.000000000000000
 43
4.000000000000000
 50
270.0000000000000
  0
INSERT
  5
1A0
100
AcDbEntity
  8
MAIN0
  6
BYBLOCK
 62
0
100
AcDbBlockReference
  2
_OPEN
 10
239.0318436172492
 20
436.6959216823390
 30
0.0000000000000000
 41
4.000000000000000
 42
4.000000000000000
 43
4.000000000000000
 50
90.00000000000000
  0
LINE
  5
1A1
100
AcDbEntity
  8
MAIN0
  6
BYBLOCK
 62
0
100
AcDbLine
 10
239.0318436172492
 20
460.6959216823390
 30
0.0000000000000000
 11
239.0318436172492
 21
462.6959216823390
 31
0.0000000000000000
  0
LINE
  5
1A2
100
AcDbEntity
  8
MAIN0
  6
BYBLOCK
 62
0
100
AcDbLine
 10
239.0318436172492
 20
432.6959216823390
 30
0.0000000000000000
 11
239.0318436172492
 21
430.6959216823390
 31
0.0000000000000000
  0
LINE
  5
1A3
100
AcDbEntity
  8
MAIN0
  6
BYBLOCK
 62
0
100
AcDbLine
 10
214.6318436410911
 20
436.6959216823390
 30
0.0000000000000000
 11
243.0318436172492
 21
436.6959216823390
 31
0.0000000000000000
  0
MTEXT
  5
1A4
100
AcDbEntity
  8
MAIN0
  6
BYBLOCK
 62
0
100
AcDbMText
 10
235.4318437126166
 20
446.6959216823390
 30
0.0000000000000000
 40
6.199999809265137
 41
0.0000000000000000
 71
     5
 72
     1
  1
\A1;\U+220520
 11
6.123233995736766e-017
 21
1.000000000000000
 31
0.0000000000000000
  7
STANDARD
  0
ENDBLK
  5
1A5
100
AcDbEntity
  8
MAIN0
  6
CONTINUOUS
 62
3
100
AcDbBlockEnd
  0
BLOCK
  5
1A7
100
AcDbEntity
  8
MAIN0
  6
CONTINUOUS
 62
3
100
AcDbBlockBegin
  2
*D16
 70
    65
 10
0.0
 20
0.0
 30
0.0
  0
LINE
  5
1A8
100
AcDbEntity
  8
MAIN0
  6
BYBLOCK
 62
0
100
AcDbLine
 10
127.4318435934073
 20
453.4459216823390
 30
0.0000000000000000
 11
90.49946555855996
 21
453.4459216823390
 31
0.0000000000000000
  0
LINE
  5
1A9
100
AcDbEntity
  8
MAIN0
  6
BYBLOCK
 62
0
100
AcDbLine
 10
94.49946555855996
 20
449.4459216823390
 30
0.0000000000000000
 11
94.49946555855996
 21
443.9459216823390
 31
0.0000000000000000
  0
INSERT
  5
1AA
100
AcDbEntity
  8
MAIN0
  6
BYBLOCK
 62
0
100
AcDbBlockReference
  2
_OPEN
 10
94.49946555855996
 20
453.4459216823390
 30
0.0000000000000000
 41
4.000000000000000
 42
4.000000000000000
 43
4.000000000000000
 50
90.00000000000000
  0
INSERT
  5
1AB
100
AcDbEntity
  8
MAIN0
  6
BYBLOCK
 62
0
100
AcDbBlockReference
  2
_OPEN
 10
94.49946555855996
 20
439.9459216823390
 30
0.0000000000000000
 41
4.000000000000000
 42
4.000000000000000
 43
4.000000000000000
 50
270.0000000000000
  0
LINE
  5
1AC
100
AcDbEntity
  8
MAIN0
  6
BYBLOCK
 62
0
100
AcDbLine
 10
94.49946555855996
 20
453.4459216823390
 30
0.0000000000000000
 11
94.49946555855996
 21
480.8640206522727
 31
0.0000000000000000
  0
LINE
  5
1AD
100
AcDbEntity
  8
MAIN0
  6
BYBLOCK
 62
0
100
AcDbLine
 10
127.4318435934073
 20
439.9459216823390
 30
0.0000000000000000
 11
90.49946555855996
 21
439.9459216823390
 31
0.0000000000000000
  0
MTEXT
  5
1AE
100
AcDbEntity
  8
MAIN0
  6
BYBLOCK
 62
0
100
AcDbMText
 10
90.39946565392739
 20
470.9640210337424
 30
0.0000000000000000
 40
6.199999809265137
 41
0.0000000000000000
 71
     5
 72
     1
  1
\A1;\U+220513.5
 11
6.123233995736766e-017
 21
1.000000000000000
 31
0.0000000000000000
  7
STANDARD
  0
ENDBLK
  5
1AF
100
AcDbEntity
  8
MAIN0
  6
CONTINUOUS
 62
3
100
AcDbBlockEnd
  0
BLOCK
  5
1B9
100
AcDbEntity
  8
MAIN0
  6
CONTINUOUS
 62
3
100
AcDbBlockBegin
  2
*D17
 70
    65
 10
0.0
 20
0.0
 30
0.0
  0
LINE
  5
1BA
100
AcDbEntity
  8
MAIN0
  6
BYBLOCK
 62
0
100
AcDbLine
 10
133.4318435934073
 20
394.1959216823390
 30
0.0000000000000000
 11
90.49946555855996
 21
394.1959216823390
 31
0.0000000000000000
  0
LINE
  5
1BB
100
AcDbEntity
  8
MAIN0
  6
BYBLOCK
 62
0
100
AcDbLine
 10
94.49946555855996
 20
390.1959216823390
 30
0.0000000000000000
 11
94.49946555855996
 21
295.1959216823390
 31
0.0000000000000000
  0
INSERT
  5
1BC
100
AcDbEntity
  8
MAIN0
  6
BYBLOCK
 62
0
100
AcDbBlockReference
  2
_OPEN
 10
94.49946555855996
 20
394.1959216823390
 30
0.0000000000000000
 41
4.000000000000000
 42
4.000000000000000
 43
4.000000000000000
 50
90.00000000000000
  0
INSERT
  5
1BD
100
AcDbEntity
  8
MAIN0
  6
BYBLOCK
 62
0
100
AcDbBlockReference
  2
_OPEN
 10
94.49946555855996
 20
291.1959216823390
 30
0.0000000000000000
 41
4.000000000000000
 42
4.000000000000000
 43
4.000000000000000
 50
270.0000000000000
  0
LINE
  5
1BE
100
AcDbEntity
  8
MAIN0
  6
BYBLOCK
 62
0
100
AcDbLine
 10
133.4318435934073
 20
291.1959216823390
 30
0.0000000000000000
 11
90.49946555855996
 21
291.1959216823390
 31
0.0000000000000000
  0
MTEXT
  5
1BF
100
AcDbEntity
  8
MAIN0
  6
BYBLOCK
 62
0
100
AcDbMText
 10
90.89946565392739
 20
342.6959216823390
 30
0.0000000000000000
 40
6.199999809265137
 41
0.0000000000000000
 71
     5
 72
     1
  1
\A1;\U+2205103
 11
6.123233995736766e-017
 21
1.000000000000000
 31
0.0000000000000000
  7
STANDARD
  0
ENDBLK
  5
1C0
100
AcDbEntity
  8
MAIN0
  6
CONTINUOUS
 62
3
100
AcDbBlockEnd
  0
BLOCK
  5
1C2
100
AcDbEntity
  8
MAIN0
  6
CONTINUOUS
 62
3
100
AcDbBlockBegin
  2
*D18
 70
    65
 10
0.0
 20
0.0
 30
0.0
  0
LINE
  5
1C3
100
AcDbEntity
  8
MAIN0
  6
BYBLOCK
 62
0
100
AcDbLine
 10
135.0318436172492
 20
406.2259216823391
 30
0.0000000000000000
 11
129.0318436172492
 21
406.2259216823391
 31
0.0000000000000000
  0
INSERT
  5
1C4
100
AcDbEntity
  8
MAIN0
  6
BYBLOCK
 62
0
100
AcDbBlockReference
  2
_OPEN
 10
135.0318436172492
 20
406.2259216823391
 30
0.0000000000000000
 41
4.000000000000000
 42
4.000000000000000
 43
4.000000000000000
 50
180.0000000000000
  0
INSERT
  5
1C5
100
AcDbEntity
  8
MAIN0
  6
BYBLOCK
 62
0
100
AcDbBlockReference
  2
_OPEN
 10
129.0318436172492
 20
406.2259216823391
 30
0.0000000000000000
 41
4.000000000000000
 42
4.000000000000000
 43
4.000000000000000
 50
360.0000000000000
  0
LINE
  5
1C6
100
AcDbEntity
  8
MAIN0
  6
BYBLOCK
 62
0
100
AcDbLine
 10
139.0318436172492
 20
406.2259216823391
 30
0.0000000000000000
 11
141.0318436172492
 21
406.2259216823391
 31
0.0000000000000000
  0
LINE
  5
1C7
100
AcDbEntity
  8
MAIN0
  6
BYBLOCK
 62
0
100
AcDbLine
 10
125.0318436172492
 20
406.2259216823391
 30
0.0000000000000000
 11
118.4884055634285
 21
406.2259216823391
 31
0.0000000000000000
  0
MTEXT
  5
1C8
100
AcDbEntity
  8
MAIN0
  6
BYBLOCK
 62
0
100
AcDbMText
 10
120.4884055634285
 20
410.3259215869716
 30
0.0000000000000000
 40
6.199999809265137
 41
0.0000000000000000
 71
     5
 72
     1
  1
\A1;6
 11
1.000000000000000
 21
0.0000000000000000
 31
0.0000000000000000
  7
STANDARD
  0
ENDBLK
  5
1C9
100
AcDbEntity
  8
MAIN0
  6
CONTINUOUS
 62
3
100
AcDbBlockEnd
  0
BLOCK
  5
1F0
100
AcDbEntity
  8
MAIN0
  6
CONTINUOUS
 62
3
100
AcDbBlockBegin
  2
*D19
 70
    65
 10
0.0
 20
0.0
 30
0.0
  0
LINE
  5
1F1
100
AcDbEntity
  8
MAIN0
  6
BYBLOCK
 62
0
100
AcDbLine
 10
158.9279331098594
 20
530.6217296969996
 30
0.0000000000000000
 11
168.6310308350688
 21
520.9186319717962
 31
0.0000000000000000
  0
LINE
  5
1F2
100
AcDbEntity
  8
MAIN0
  6
BYBLOCK
 62
0
100
AcDbLine
 10
168.6310308350671
 20
526.5754862212884
 30
0.0000000000000000
 11
171.4594579598123
 21
529.4039133460354
 31
0.0000000000000000
  0
INSERT
  5
1F3
100
AcDbEntity
  8
MAIN0
  6
BYBLOCK
 62
0
100
AcDbBlockReference
  2
_OPEN
 10
165.8026037103217
 20
523.7470590965415
 30
0.0000000000000000
 41
4.000000000000000
 42
4.000000000000000
 43
4.000000000000000
 50
225.0000000000179
  0
INSERT
  5
1F4
100
AcDbEntity
  8
MAIN0
  6
BYBLOCK
 62
0
100
AcDbBlockReference
  2
_OPEN
 10
174.2878850845577
 20
532.2323404707825
 30
0.0000000000000000
 41
4.000000000000000
 42
4.000000000000000
 43
4.000000000000000
 50
45.00000000001785
  0
LINE
  5
1F5
100
AcDbEntity
  8
MAIN0
  6
BYBLOCK
 62
0
100
AcDbLine
 10
174.2878850845577
 20
532.2323404707825
 30
0.0000000000000000
 11
198.0408070407877
 21
555.9852624270264
 31
0.0000000000000000
  0
LINE
  5
1F6
100
AcDbEntity
  8
MAIN0
  6
BYBLOCK
 62
0
100
AcDbLine
 10
167.4132144840067
 20
539.1070110713295
 30
0.0000000000000000
 11
177.1163122093047
 21
529.4039133460371
 31
0.0000000000000000
  0
MTEXT
  5
1F7
100
AcDbEntity
  8
MAIN0
  6
BYBLOCK
 62
0
100
AcDbMText
 10
186.4796111225546
 20
550.2223419796482
 30
0.0000000000000000
 40
6.199999809265137
 41
0.0000000000000000
 71
     5
 72
     1
  1
\A1;12\H0.903226x;\S＋0.15^ ＋0.05;
 11
0.7071067811863391
 21
0.7071067811867560
 31
0.0000000000000000
  7
KNJYOKO
  0
ENDBLK
  5
1F8
100
AcDbEntity
  8
MAIN0
  6
CONTINUOUS
 62
3
100
AcDbBlockEnd
  0
BLOCK
  5
1FC
100
AcDbEntity
  8
MAIN0
  6
CONTINUOUS
 62
3
100
AcDbBlockBegin
  2
*D20
 70
    65
 10
0.0
 20
0.0
 30
0.0
  0
LINE
  5
1FD
100
AcDbEntity
  8
MAIN0
  6
BYBLOCK
 62
0
100
AcDbLine
 10
110.0318436172492
 20
454.2959217061809
 30
0.0000000000000000
 11
110.0318436172492
 21
498.5494426020899
 31
0.0000000000000000
  0
LINE
  5
1FE
100
AcDbEntity
  8
MAIN0
  6
BYBLOCK
 62
0
100
AcDbLine
 10
114.0318436172492
 20
494.5494426020899
 30
0.0000000000000000
 11
125.0318436172492
 21
494.5494426020899
 31
0.0000000000000000
  0
INSERT
  5
1FF
100
AcDbEntity
  8
MAIN0
  6
BYBLOCK
 62
0
100
AcDbBlockReference
  2
_OPEN
 10
110.0318436172492
 20
494.5494426020899
 30
0.0000000000000000
 41
4.000000000000000
 42
4.000000000000000
 43
4.000000000000000
 50
180.0000000000000
  0
INSERT
  5
200
100
AcDbEntity
  8
MAIN0
  6
BYBLOCK
 62
0
100
AcDbBlockReference
  2
_OPEN
 10
129.0318436172492
 20
494.5494426020899
 30
0.0000000000000000
 41
4.000000000000000
 42
4.000000000000000
 43
4.000000000000000
 50
0.0000000000000000
  0
LINE
  5
201
100
AcDbEntity
  8
MAIN0
  6
BYBLOCK
 62
0
100
AcDbLine
 10
129.0318436172492
 20
458.2959217061809
 30
0.0000000000000000
 11
129.0318436172492
 21
498.5494426020899
 31
0.0000000000000000
  0
MTEXT
  5
202
100
AcDbEntity
  8
MAIN0
  6
BYBLOCK
 62
0
100
AcDbMText
 10
119.5318436172492
 20
498.1494425067224
 30
0.0000000000000000
 40
6.199999809265137
 41
0.0000000000000000
 71
     5
 72
     1
  1
\A1;19
 11
1.000000000000000
 21
0.0000000000000000
 31
0.0000000000000000
  7
STANDARD
  0
ENDBLK
  5
203
100
AcDbEntity
  8
MAIN0
  6
CONTINUOUS
 62
3
100
AcDbBlockEnd
  0
BLOCK
  5
29D
100
AcDbEntity
  8
MAIN0
  6
CONTINUOUS
 62
3
100
AcDbBlockBegin
  2
*D21
 70
    65
 10
0.0
 20
0.0
 30
0.0
  0
LINE
  5
29E
100
AcDbEntity
  8
MAIN0
  6
BYBLOCK
 62
0
100
AcDbLine
 10
513.0798903917578
 20
470.8788792878391
 30
0.0000000000000000
 11
513.0798903917578
 21
522.6953132560927
 31
0.0000000000000000
  0
LINE
  5
29F
100
AcDbEntity
  8
MAIN0
  6
BYBLOCK
 62
0
100
AcDbLine
 10
517.0798903917578
 20
518.6953132560927
 30
0.0000000000000000
 11
799.0798903917565
 21
518.6953132560927
 31
0.0000000000000000
  0
INSERT
  5
2A0
100
AcDbEntity
  8
MAIN0
  6
BYBLOCK
 62
0
100
AcDbBlockReference
  2
_OPEN
 10
513.0798903917578
 20
518.6953132560927
 30
0.0000000000000000
 41
4.000000000000000
 42
4.000000000000000
 43
4.000000000000000
 50
180.0000000000000
  0
INSERT
  5
2A1
100
AcDbEntity
  8
MAIN0
  6
BYBLOCK
 62
0
100
AcDbBlockReference
  2
_OPEN
 10
803.0798903917565
 20
518.6953132560927
 30
0.0000000000000000
 41
4.000000000000000
 42
4.000000000000000
 43
4.000000000000000
 50
0.0000000000000000
  0
LINE
  5
2A2
100
AcDbEntity
  8
MAIN0
  6
BYBLOCK
 62
0
100
AcDbLine
 10
803.0798903917565
 20
470.8788792878391
 30
0.0000000000000000
 11
803.0798903917565
 21
522.6953132560927
 31
0.0000000000000000
  0
MTEXT
  5
2A3
100
AcDbEntity
  8
MAIN0
  6
BYBLOCK
 62
0
100
AcDbMText
 10
658.0798903917572
 20
522.2953131607253
 30
0.0000000000000000
 40
6.199999809265137
 41
0.0000000000000000
 71
     5
 72
     1
  1
\A1;290
 11
1.000000000000000
 21
0.0000000000000000
 31
0.0000000000000000
  7
STANDARD
  0
ENDBLK
  5
2A4
100
AcDbEntity
  8
MAIN0
  6
CONTINUOUS
 62
3
100
AcDbBlockEnd
  0
BLOCK
  5
2A6
100
AcDbEntity
  8
MAIN0
  6
CONTINUOUS
 62
3
100
AcDbBlockBegin
  2
*D22
 70
    65
 10
0.0
 20
0.0
 30
0.0
  0
LINE
  5
2A7
100
AcDbEntity
  8
MAIN0
  6
BYBLOCK
 62
0
100
AcDbLine
 10
645.0798903917575
 20
484.8788792878391
 30
0.0000000000000000
 11
645.0798903917575
 21
507.2452960132167
 31
0.0000000000000000
  0
LINE
  5
2A8
100
AcDbEntity
  8
MAIN0
  6
BYBLOCK
 62
0
100
AcDbLine
 10
649.0798903917575
 20
503.2452960132167
 30
0.0000000000000000
 11
667.0798903917575
 21
503.2452960132167
 31
0.0000000000000000
  0
INSERT
  5
2A9
100
AcDbEntity
  8
MAIN0
  6
BYBLOCK
 62
0
100
AcDbBlockReference
  2
_OPEN
 10
645.0798903917575
 20
503.2452960132167
 30
0.0000000000000000
 41
4.000000000000000
 42
4.000000000000000
 43
4.000000000000000
 50
180.0000000000000
  0
INSERT
  5
2AA
100
AcDbEntity
  8
MAIN0
  6
BYBLOCK
 62
0
100
AcDbBlockReference
  2
_OPEN
 10
671.0798903917575
 20
503.2452960132167
 30
0.0000000000000000
 41
4.000000000000000
 42
4.000000000000000
 43
4.000000000000000
 50
0.0000000000000000
  0
LINE
  5
2AB
100
AcDbEntity
  8
MAIN0
  6
BYBLOCK
 62
0
100
AcDbLine
 10
671.0798903917575
 20
484.8788792878391
 30
0.0000000000000000
 11
671.0798903917575
 21
507.2452960132167
 31
0.0000000000000000
  0
MTEXT
  5
2AC
100
AcDbEntity
  8
MAIN0
  6
BYBLOCK
 62
0
100
AcDbMText
 10
658.0798903917575
 20
506.8452959178492
 30
0.0000000000000000
 40
6.199999809265137
 41
0.0000000000000000
 71
     5
 72
     1
  1
\A1;\U+220526
 11
1.000000000000000
 21
0.0000000000000000
 31
0.0000000000000000
  7
STANDARD
  0
ENDBLK
  5
2AD
100
AcDbEntity
  8
MAIN0
  6
CONTINUOUS
 62
3
100
AcDbBlockEnd
  0
BLOCK
  5
2AF
100
AcDbEntity
  8
MAIN0
  6
CONTINUOUS
 62
3
100
AcDbBlockBegin
  2
*D23
 70
    65
 10
0.0
 20
0.0
 30
0.0
  0
LINE
  5
2B0
100
AcDbEntity
  8
MAIN0
  6
BYBLOCK
 62
0
100
AcDbLine
 10
606.7956337108981
 20
475.2788792639972
 30
0.0000000000000000
 11
606.7956337108981
 21
463.2788792639972
 31
0.0000000000000000
  0
INSERT
  5
2B1
100
AcDbEntity
  8
MAIN0
  6
BYBLOCK
 62
0
100
AcDbBlockReference
  2
_OPEN
 10
606.7956337108981
 20
475.2788792639972
 30
0.0000000000000000
 41
4.000000000000000
 42
4.000000000000000
 43
4.000000000000000
 50
270.0000000000000
  0
INSERT
  5
2B2
100
AcDbEntity
  8
MAIN0
  6
BYBLOCK
 62
0
100
AcDbBlockReference
  2
_OPEN
 10
606.7956337108981
 20
463.2788792639972
 30
0.0000000000000000
 41
4.000000000000000
 42
4.000000000000000
 43
4.000000000000000
 50
90.00000000000000
  0
LINE
  5
2B3
100
AcDbEntity
  8
MAIN0
  6
BYBLOCK
 62
0
100
AcDbLine
 10
606.7956337108981
 20
479.2788792639972
 30
0.0000000000000000
 11
606.7956337108981
 21
495.6758632032375
 31
0.0000000000000000
  0
LINE
  5
2B4
100
AcDbEntity
  8
MAIN0
  6
BYBLOCK
 62
0
100
AcDbLine
 10
606.7956337108981
 20
459.2788792639972
 30
0.0000000000000000
 11
606.7956337108981
 21
457.2788792639972
 31
0.0000000000000000
  0
MTEXT
  5
2B5
100
AcDbEntity
  8
MAIN0
  6
BYBLOCK
 62
0
100
AcDbMText
 10
602.6956338062655
 20
488.9758633939724
 30
0.0000000000000000
 40
6.199999809265137
 41
0.0000000000000000
 71
     5
 72
     1
  1
\A1;\U+220512
 11
6.123233995736766e-017
 21
1.000000000000000
 31
0.0000000000000000
  7
STANDARD
  0
ENDBLK
  5
2B6
100
AcDbEntity
  8
MAIN0
  6
CONTINUOUS
 62
3
100
AcDbBlockEnd
  0
BLOCK
  5
2B8
100
AcDbEntity
  8
MAIN0
  6
CONTINUOUS
 62
3
100
AcDbBlockBegin
  2
*D24
 70
    65
 10
0.0
 20
0.0
 30
0.0
  0
LINE
  5
2B9
100
AcDbEntity
  8
MAIN0
  6
BYBLOCK
 62
0
100
AcDbLine
 10
671.6798904155994
 20
484.2788792639972
 30
0.0000000000000000
 11
700.7956337108981
 21
484.2788792639972
 31
0.0000000000000000
  0
LINE
  5
2BA
100
AcDbEntity
  8
MAIN0
  6
BYBLOCK
 62
0
100
AcDbLine
 10
696.7956337108981
 20
484.2788792639972
 30
0.0000000000000000
 11
696.7956337108981
 21
469.2788792639972
 31
0.0000000000000000
  0
INSERT
  5
2BB
100
AcDbEntity
  8
MAIN0
  6
BYBLOCK
 62
0
100
AcDbBlockReference
  2
_OPEN
 10
696.7956337108981
 20
484.2788792639972
 30
0.0000000000000000
 41
4.000000000000000
 42
4.000000000000000
 43
4.000000000000000
 50
270.0000000000000
  0
INSERT
  5
2BC
100
AcDbEntity
  8
MAIN0
  6
BYBLOCK
 62
0
100
AcDbBlockReference
  2
_OPEN
 10
696.7956337108981
 20
469.2788792639972
 30
0.0000000000000000
 41
4.000000000000000
 42
4.000000000000000
 43
4.000000000000000
 50
90.00000000000000
  0
LINE
  5
2BD
100
AcDbEntity
  8
MAIN0
  6
BYBLOCK
 62
0
100
AcDbLine
 10
696.7956337108981
 20
488.2788792639972
 30
0.0000000000000000
 11
696.7956337108981
 21
498.8024229761612
 31
0.0000000000000000
  0
LINE
  5
2BE
100
AcDbEntity
  8
MAIN0
  6
BYBLOCK
 62
0
100
AcDbLine
 10
696.7956337108981
 20
465.2788792639972
 30
0.0000000000000000
 11
696.7956337108981
 21
463.2788792639972
 31
0.0000000000000000
  0
MTEXT
  5
2BF
100
AcDbEntity
  8
MAIN0
  6
BYBLOCK
 62
0
100
AcDbMText
 10
692.6956338062655
 20
494.7024230715286
 30
0.0000000000000000
 40
6.199999809265137
 41
0.0000000000000000
 71
     5
 72
     1
  1
\A1;15
 11
6.123233995736766e-017
 21
1.000000000000000
 31
0.0000000000000000
  7
STANDARD
  0
ENDBLK
  5
2C0
100
AcDbEntity
  8
MAIN0
  6
CONTINUOUS
 62
3
100
AcDbBlockEnd
  0
BLOCK
  5
2C2
100
AcDbEntity
  8
MAIN0
  6
CONTINUOUS
 62
3
100
AcDbBlockBegin
  2
*D25
 70
    65
 10
0.0
 20
0.0
 30
0.0
  0
LINE
  5
2C3
100
AcDbEntity
  8
MAIN0
  6
BYBLOCK
 62
0
100
AcDbLine
 10
671.6798904155994
 20
484.2788792639972
 30
0.0000000000000000
 11
717.5235642384482
 21
484.2788792639972
 31
0.0000000000000000
  0
LINE
  5
2C4
100
AcDbEntity
  8
MAIN0
  6
BYBLOCK
 62
0
100
AcDbLine
 10
713.5235642384482
 20
480.2788792639972
 30
0.0000000000000000
 11
713.5235642384482
 21
328.2788792639972
 31
0.0000000000000000
  0
INSERT
  5
2C5
100
AcDbEntity
  8
MAIN0
  6
BYBLOCK
 62
0
100
AcDbBlockReference
  2
_OPEN
 10
713.5235642384482
 20
484.2788792639972
 30
0.0000000000000000
 41
4.000000000000000
 42
4.000000000000000
 43
4.000000000000000
 50
90.00000000000000
  0
INSERT
  5
2C6
100
AcDbEntity
  8
MAIN0
  6
BYBLOCK
 62
0
100
AcDbBlockReference
  2
_OPEN
 10
713.5235642384482
 20
324.2788792639972
 30
0.0000000000000000
 41
4.000000000000000
 42
4.000000000000000
 43
4.000000000000000
 50
270.0000000000000
  0
LINE
  5
2C7
100
AcDbEntity
  8
MAIN0
  6
BYBLOCK
 62
0
100
AcDbLine
 10
665.5717158977094
 20
324.2788792639972
 30
0.0000000000000000
 11
717.5235642384482
 21
324.2788792639972
 31
0.0000000000000000
  0
MTEXT
  5
2C8
100
AcDbEntity
  8
MAIN0
  6
BYBLOCK
 62
0
100
AcDbMText
 10
709.9235643338157
 20
404.2788792639972
 30
0.0000000000000000
 40
6.199999809265137
 41
0.0000000000000000
 71
     5
 72
     1
  1
\A1;160
 11
6.123233995736766e-017
 21
1.000000000000000
 31
0.0000000000000000
  7
STANDARD
  0
ENDBLK
  5
2C9
100
AcDbEntity
  8
MAIN0
  6
CONTINUOUS
 62
3
100
AcDbBlockEnd
  0
BLOCK
  5
2CB
100
AcDbEntity
  8
MAIN0
  6
CONTINUOUS
 62
3
100
AcDbBlockBegin
  2
*D26
 70
    65
 10
0.0
 20
0.0
 30
0.0
  0
LINE
  5
2CC
100
AcDbEntity
  8
MAIN0
  6
BYBLOCK
 62
0
100
AcDbLine
 10
666.2717158977093
 20
340.2788792639972
 30
0.0000000000000000
 11
700.7956337108981
 21
340.2788792639972
 31
0.0000000000000000
  0
LINE
  5
2CD
100
AcDbEntity
  8
MAIN0
  6
BYBLOCK
 62
0
100
AcDbLine
 10
696.7956337108981
 20
340.2788792639972
 30
0.0000000000000000
 11
696.7956337108981
 21
324.2788792639972
 31
0.0000000000000000
  0
INSERT
  5
2CE
100
AcDbEntity
  8
MAIN0
  6
BYBLOCK
 62
0
100
AcDbBlockReference
  2
_OPEN
 10
696.7956337108981
 20
340.2788792639972
 30
0.0000000000000000
 41
4.000000000000000
 42
4.000000000000000
 43
4.000000000000000
 50
270.0000000000000
  0
INSERT
  5
2CF
100
AcDbEntity
  8
MAIN0
  6
BYBLOCK
 62
0
100
AcDbBlockReference
  2
_OPEN
 10
696.7956337108981
 20
324.2788792639972
 30
0.0000000000000000
 41
4.000000000000000
 42
4.000000000000000
 43
4.000000000000000
 50
90.00000000000000
  0
LINE
  5
2D0
100
AcDbEntity
  8
MAIN0
  6
BYBLOCK
 62
0
100
AcDbLine
 10
696.7956337108981
 20
344.2788792639972
 30
0.0000000000000000
 11
696.7956337108981
 21
346.2788792639972
 31
0.0000000000000000
  0
LINE
  5
2D1
100
AcDbEntity
  8
MAIN0
  6
BYBLOCK
 62
0
100
AcDbLine
 10
696.7956337108981
 20
320.2788792639972
 30
0.0000000000000000
 11
696.7956337108981
 21
318.2788792639972
 31
0.0000000000000000
  0
LINE
  5
2D2
100
AcDbEntity
  8
MAIN0
  6
BYBLOCK
 62
0
100
AcDbLine
 10
665.5717158977094
 20
324.2788792639972
 30
0.0000000000000000
 11
700.7956337108981
 21
324.2788792639972
 31
0.0000000000000000
  0
MTEXT
  5
2D3
100
AcDbEntity
  8
MAIN0
  6
BYBLOCK
 62
0
100
AcDbMText
 10
693.1956338062655
 20
332.2788792639972
 30
0.0000000000000000
 40
6.199999809265137
 41
0.0000000000000000
 71
     5
 72
     1
  1
\A1;16
 11
6.123233995736766e-017
 21
1.000000000000000
 31
0.0000000000000000
  7
STANDARD
  0
ENDBLK
  5
2D4
100
AcDbEntity
  8
MAIN0
  6
CONTINUOUS
 62
3
100
AcDbBlockEnd
  0
BLOCK
  5
2D6
100
AcDbEntity
  8
MAIN0
  6
CONTINUOUS
 62
3
100
AcDbBlockBegin
  2
*D27
 70
    65
 10
0.0
 20
0.0
 30
0.0
  0
LINE
  5
2D7
100
AcDbEntity
  8
MAIN0
  6
BYBLOCK
 62
0
100
AcDbLine
 10
649.0985195251399
 20
291.5451582871364
 30
0.0000000000000000
 11
635.2103257757123
 21
277.6569645377242
 31
0.0000000000000000
  0
LINE
  5
2D8
100
AcDbEntity
  8
MAIN0
  6
BYBLOCK
 62
0
100
AcDbLine
 10
638.0387529004599
 20
280.4853916624688
 30
0.0000000000000000
 11
646.5240342746940
 21
272.0001102882254
 31
0.0000000000000000
  0
INSERT
  5
2D9
100
AcDbEntity
  8
MAIN0
  6
BYBLOCK
 62
0
100
AcDbBlockReference
  2
_OPEN
 10
638.0387529004599
 20
280.4853916624688
 30
0.0000000000000000
 41
4.000000000000000
 42
4.000000000000000
 43
4.000000000000000
 50
314.9999999999687
  0
INSERT
  5
2DA
100
AcDbEntity
  8
MAIN0
  6
BYBLOCK
 62
0
100
AcDbBlockReference
  2
_OPEN
 10
646.5240342746940
 20
272.0001102882254
 30
0.0000000000000000
 41
4.000000000000000
 42
4.000000000000000
 43
4.000000000000000
 50
134.9999999999687
  0
LINE
  5
2DB
100
AcDbEntity
  8
MAIN0
  6
BYBLOCK
 62
0
100
AcDbLine
 10
635.2103257757153
 20
283.3138187872165
 30
0.0000000000000000
 11
633.7961122133430
 21
284.7280323495904
 31
0.0000000000000000
  0
LINE
  5
2DC
100
AcDbEntity
  8
MAIN0
  6
BYBLOCK
 62
0
100
AcDbLine
 10
649.3524613994387
 20
269.1716831634777
 30
0.0000000000000000
 11
670.6849472461296
 21
247.8391973167634
 31
0.0000000000000000
  0
LINE
  5
2DD
100
AcDbEntity
  8
MAIN0
  6
BYBLOCK
 62
0
100
AcDbLine
 10
657.5838008996818
 20
283.0598769132011
 30
0.0000000000000000
 11
643.6956071499462
 21
269.1716831634808
 31
0.0000000000000000
  0
MTEXT
  5
2DE
100
AcDbEntity
  8
MAIN0
  6
BYBLOCK
 62
0
100
AcDbMText
 10
664.9220267987612
 20
259.4003932350016
 30
0.0000000000000000
 40
6.199999809265137
 41
0.0000000000000000
 71
     5
 72
     1
  1
\A1;12\H0.903226x;\S 0^ -0.15;
 11
0.7071067811861599
 21
-0.7071067811869352
 31
0.0000000000000000
  7
STANDARD
  0
ENDBLK
  5
2DF
100
AcDbEntity
  8
MAIN0
  6
CONTINUOUS
 62
3
100
AcDbBlockEnd
  0
BLOCK
  5
2E1
100
AcDbEntity
  8
MAIN0
  6
CONTINUOUS
 62
3
100
AcDbBlockBegin
  2
*D28
 70
    65
 10
0.0
 20
0.0
 30
0.0
  0
LINE
  5
2E2
100
AcDbEntity
  8
MAIN0
  6
BYBLOCK
 62
0
100
AcDbLine
 10
651.0798903917575
 20
401.2531213585581
 30
0.0000000000000000
 11
665.0798903917575
 21
401.2531213585581
 31
0.0000000000000000
  0
INSERT
  5
2E3
100
AcDbEntity
  8
MAIN0
  6
BYBLOCK
 62
0
100
AcDbBlockReference
  2
_OPEN
 10
647.0798903917575
 20
401.2531213585581
 30
0.0000000000000000
 41
4.000000000000000
 42
4.000000000000000
 43
4.000000000000000
 50
180.0000000000000
  0
INSERT
  5
2E4
100
AcDbEntity
  8
MAIN0
  6
BYBLOCK
 62
0
100
AcDbBlockReference
  2
_OPEN
 10
669.0798903917575
 20
401.2531213585581
 30
0.0000000000000000
 41
4.000000000000000
 42
4.000000000000000
 43
4.000000000000000
 50
0.0000000000000000
  0
MTEXT
  5
2E5
100
AcDbEntity
  8
MAIN0
  6
BYBLOCK
 62
0
100
AcDbMText
 10
658.0798903917575
 20
404.8531212631906
 30
0.0000000000000000
 40
6.199999809265137
 41
0.0000000000000000
 71
     5
 72
     1
  1
\A1;\U+220522
 11
1.000000000000000
 21
0.0000000000000000
 31
0.0000000000000000
  7
STANDARD
  0
ENDBLK
  5
2E6
100
AcDbEntity
  8
MAIN0
  6
CONTINUOUS
 62
3
100
AcDbBlockEnd
  0
ENDSEC
  0
SECTION
  2
ENTITIES
  0
LINE
  5
46
100
AcDbEntity
  8
MAIN0
  6
CONTINUOUS
 62
3
100
AcDbLine
 10
129.0318436172492
 20
228.6959216823390
 30
0.0000000000000000
 11
129.0318436172492
 21
456.6959216823390
 31
0.0000000000000000
  0
LINE
  5
47
100
AcDbEntity
  8
MAIN0
  6
CONTINUOUS
 62
3
100
AcDbLine
 10
213.0318436172492
 20
228.6959216823390
 30
0.0000000000000000
 11
213.0318436172492
 21
456.6959216823390
 31
0.0000000000000000
  0
LINE
  5
48
100
AcDbEntity
  8
MAIN0
  6
CONTINUOUS
 62
3
100
AcDbLine
 10
131.0318436172491
 20
458.6959216823390
 30
0.0000000000000000
 11
211.0318436172492
 21
458.6959216823390
 31
0.0000000000000000
  0
LINE
  5
49
100
AcDbEntity
  8
MAIN0
  6
CONTINUOUS
 62
3
100
AcDbLine
 10
131.0318436172492
 20
226.6959216823390
 30
0.0000000000000000
 11
211.0318436172492
 21
226.6959216823390
 31
0.0000000000000000
  0
LINE
  5
4A
100
AcDbEntity
  8
MAIN0
  6
HIDDEN
 62
3
100
AcDbLine
 10
135.0318436172492
 20
247.6959216823390
 30
0.0000000000000000
 11
135.0318436172492
 21
437.6959216823390
 31
0.0000000000000000
  0
LINE
  5
4B
100
AcDbEntity
  8
MAIN0
  6
HIDDEN
 62
3
100
AcDbLine
 10
129.0318436172493
 20
247.6959216823390
 30
0.0000000000000000
 11
135.0318436172492
 21
247.6959216823390
 31
0.0000000000000000
  0
LINE
  5
4C
100
AcDbEntity
  8
MAIN0
  6
HIDDEN
 62
3
100
AcDbLine
 10
129.0318436172492
 20
437.6959216823390
 30
0.0000000000000000
 11
135.0318436172493
 21
437.6959216823390
 31
0.0000000000000000
  0
LINE
  5
4D
100
AcDbEntity
  8
MAIN0
  6
HIDDEN
 62
3
100
AcDbLine
 10
149.0318436172492
 20
377.6959216823390
 30
0.0000000000000000
 11
212.0318436172492
 21
377.6959216823390
 31
0.0000000000000000
  0
LINE
  5
4E
100
AcDbEntity
  8
MAIN0
  6
HIDDEN
 62
3
100
AcDbLine
 10
149.0318436172492
 20
307.6959216823390
 30
0.0000000000000000
 11
212.0318436172492
 21
307.6959216823390
 31
0.0000000000000000
  0
LINE
  5
4F
100
AcDbEntity
  8
MAIN0
  6
CENTER
 62
3
100
AcDbLine
 10
120.6711809772446
 20
342.6959216823390
 30
0.0000000000000000
 11
268.9546866339240
 21
342.6959216823390
 31
0.0000000000000000
  0
LINE
  5
50
100
AcDbEntity
  8
MAIN0
  6
CENTER
 62
3
100
AcDbLine
 10
304.8330243830191
 20
342.6959216823390
 30
0.0000000000000000
 11
555.6578856294109
 21
342.6959216823390
 31
0.0000000000000000
  0
LINE
  5
51
100
AcDbEntity
  8
MAIN0
  6
CONTINUOUS
 62
3
100
AcDbLine
 10
129.0318436172492
 20
456.6959216823390
 30
0.0000000000000000
 11
131.0318436172492
 21
458.6959216823390
 31
0.0000000000000000
  0
LINE
  5
52
100
AcDbEntity
  8
MAIN0
  6
CONTINUOUS
 62
3
100
AcDbLine
 10
211.0318436172492
 20
458.6959216823390
 30
0.0000000000000000
 11
213.0318436172492
 21
456.6959216823390
 31
0.0000000000000000
  0
LINE
  5
53
100
AcDbEntity
  8
MAIN0
  6
CONTINUOUS
 62
3
100
AcDbLine
 10
213.0318436172492
 20
228.6959216823390
 30
0.0000000000000000
 11
211.0318436172493
 21
226.6959216823390
 31
0.0000000000000000
  0
LINE
  5
54
100
AcDbEntity
  8
MAIN0
  6
CONTINUOUS
 62
3
100
AcDbLine
 10
131.0318436172493
 20
226.6959216823390
 30
0.0000000000000000
 11
129.0318436172493
 21
228.6959216823391
 31
0.0000000000000000
  0
LINE
  5
55
100
AcDbEntity
  8
MAIN0
  6
HIDDEN
 62
3
100
AcDbLine
 10
212.0318436172492
 20
377.6959216823390
 30
0.0000000000000000
 11
213.0318436172492
 21
378.6959216823390
 31
0.0000000000000000
  0
LINE
  5
56
100
AcDbEntity
  8
MAIN0
  6
HIDDEN
 62
3
100
AcDbLine
 10
212.0318436172493
 20
307.6959216823390
 30
0.0000000000000000
 11
213.0318436172493
 21
306.6959216823390
 31
0.0000000000000000
  0
LINE
  5
57
100
AcDbEntity
  8
MAIN0
  6
CONTINUOUS
 62
3
100
AcDbLine
 10
415.5318436172491
 20
301.3003425728335
 30
0.0000000000000000
 11
415.5318436172491
 21
310.4042818974040
 31
0.0000000000000000
  0
LINE
  5
58
100
AcDbEntity
  8
MAIN0
  6
CONTINUOUS
 62
3
100
AcDbLine
 10
442.5318436172491
 20
301.3003425728335
 30
0.0000000000000000
 11
442.5318436172491
 21
310.4042818974040
 31
0.0000000000000000
  0
CIRCLE
  5
59
100
AcDbEntity
  8
MAIN0
  6
CONTINUOUS
 62
3
100
AcDbCircle
 10
429.0318436172491
 20
342.6959216823390
 30
0.0000000000000000
 40
35.00000000000000
  0
LINE
  5
5A
100
AcDbEntity
  8
MAIN0
  6
CONTINUOUS
 62
3
100
AcDbLine
 10
413.0318436172491
 20
226.5348764646990
 30
0.0000000000000000
 11
413.0318436172491
 21
299.8569668998591
 31
0.0000000000000000
  0
LINE
  5
5B
100
AcDbEntity
  8
MAIN0
  6
CONTINUOUS
 62
3
100
AcDbLine
 10
445.0318436172491
 20
226.5348764646990
 30
0.0000000000000000
 11
445.0318436172491
 21
299.8569668998591
 31
0.0000000000000000
  0
LINE
  5
5C
100
AcDbEntity
  8
MAIN0
  6
CONTINUOUS
 62
3
100
AcDbLine
 10
263.0318436172492
 20
282.1959216823390
 30
0.0000000000000000
 11
263.0318436172492
 21
308.1959216823390
 31
0.0000000000000000
  0
ARC
  5
5D
100
AcDbEntity
  8
MAIN0
  6
CONTINUOUS
 62
3
100
AcDbCircle
 10
429.0318436172491
 20
342.6959216823390
 30
0.0000000000000000
 40
34.50000000000000
100
AcDbArc
 50
267.5080936310202
 51
272.4919063689799
  0
LINE
  5
5E
100
AcDbEntity
  8
MAIN0
  6
CONTINUOUS
 62
3
100
AcDbLine
 10
221.5318436172492
 20
218.1959216823390
 30
0.0000000000000000
 11
239.0318436172492
 21
218.1959216823390
 31
0.0000000000000000
  0
LINE
  5
5F
100
AcDbEntity
  8
MAIN0
  6
CONTINUOUS
 62
3
100
AcDbLine
 10
213.0318436172492
 20
308.1959216823390
 30
0.0000000000000000
 11
263.0318436172492
 21
308.1959216823390
 31
0.0000000000000000
  0
ARC
  5
60
100
AcDbEntity
  8
MAIN0
  6
CONTINUOUS
 62
3
100
AcDbCircle
 10
429.0318436172492
 20
183.6959216823391
 30
0.0000000000000000
 40
34.49999999999997
100
AcDbArc
 50
87.50809363073903
 51
92.49190636926092
  0
ARC
  5
61
100
AcDbEntity
  8
MAIN0
  6
CONTINUOUS
 62
3
100
AcDbCircle
 10
429.0318436172492
 20
183.6959216823390
 30
0.0000000000000000
 40
68.50000000000000
100
AcDbArc
 50
76.49226444112945
 51
103.5077355588707
  0
LINE
  5
62
100
AcDbEntity
  8
MAIN0
  6
CONTINUOUS
 62
3
100
AcDbLine
 10
251.0318436172492
 20
282.1959216823390
 30
0.0000000000000000
 11
263.0318436172492
 21
282.1959216823390
 31
0.0000000000000000
  0
LINE
  5
63
100
AcDbEntity
  8
MAIN0
  6
CONTINUOUS
 62
3
100
AcDbLine
 10
239.0318436172492
 20
252.1959216823390
 30
0.0000000000000000
 11
251.0318436172492
 21
252.1959216823390
 31
0.0000000000000000
  0
LINE
  5
64
100
AcDbEntity
  8
MAIN0
  6
CONTINUOUS
 62
3
100
AcDbLine
 10
251.0318436172492
 20
252.1959216823390
 30
0.0000000000000000
 11
251.0318436172492
 21
282.1959216823390
 31
0.0000000000000000
  0
LINE
  5
65
100
AcDbEntity
  8
MAIN0
  6
CONTINUOUS
 62
3
100
AcDbLine
 10
239.0318436172492
 20
218.1959216823390
 30
0.0000000000000000
 11
239.0318436172492
 21
252.1959216823390
 31
0.0000000000000000
  0
LINE
  5
66
100
AcDbEntity
  8
MAIN0
  6
CONTINUOUS
 62
3
100
AcDbLine
 10
215.0318436172492
 20
253.6809216823390
 30
0.0000000000000000
 11
215.0318436172492
 21
272.7109216823390
 31
0.0000000000000000
  0
LINE
  5
67
100
AcDbEntity
  8
MAIN0
  6
CENTER
 62
3
100
AcDbLine
 10
207.0423633788334
 20
263.1959216823390
 30
0.0000000000000000
 11
225.3144349636230
 21
263.1959216823390
 31
0.0000000000000000
  0
LINE
  5
68
100
AcDbEntity
  8
MAIN0
  6
CONTINUOUS
 62
3
100
AcDbLine
 10
215.0318436172492
 20
272.7109216823390
 30
0.0000000000000000
 11
218.0318436172492
 21
272.7109216823390
 31
0.0000000000000000
  0
LINE
  5
69
100
AcDbEntity
  8
MAIN0
  6
CONTINUOUS
 62
3
100
AcDbLine
 10
215.0318436172492
 20
253.6809216823390
 30
0.0000000000000000
 11
218.0318436172492
 21
253.6809216823390
 31
0.0000000000000000
  0
LINE
  5
6A
100
AcDbEntity
  8
MAIN0
  6
CONTINUOUS
 62
3
100
AcDbLine
 10
218.0318436172492
 20
220.9634463667747
 30
0.0000000000000000
 11
218.0318436172492
 21
253.6809216823390
 31
0.0000000000000000
  0
LINE
  5
6B
100
AcDbEntity
  8
MAIN0
  6
CONTINUOUS
 62
3
100
AcDbLine
 10
218.0318436172492
 20
272.7109216823391
 30
0.0000000000000000
 11
218.0318436172492
 21
305.4283969974433
 31
0.0000000000000000
  0
LINE
  5
6C
100
AcDbEntity
  8
MAIN0
  6
CONTINUOUS
 62
3
100
AcDbLine
 10
221.5318436172492
 20
218.1959216823390
 30
0.0000000000000000
 11
221.5318436172492
 21
220.9634463667766
 31
0.0000000000000000
  0
LINE
  5
6D
100
AcDbEntity
  8
MAIN0
  6
CONTINUOUS
 62
3
100
AcDbLine
 10
221.5318436172492
 20
305.4283969974433
 30
0.0000000000000000
 11
221.5318436172492
 21
308.1959216823390
 31
0.0000000000000000
  0
LINE
  5
6E
100
AcDbEntity
  8
MAIN0
  6
CONTINUOUS
 62
3
100
AcDbLine
 10
413.0318436172490
 20
226.5348764646991
 30
0.0000000000000000
 11
427.5318436170801
 21
218.1632975615598
 31
0.0000000000000000
  0
LINE
  5
6F
100
AcDbEntity
  8
MAIN0
  6
CONTINUOUS
 62
3
100
AcDbLine
 10
413.0318436172491
 20
299.8569668998591
 30
0.0000000000000000
 11
427.5318436172493
 21
308.2285458031108
 31
0.0000000000000000
  0
LINE
  5
70
100
AcDbEntity
  8
MAIN0
  6
CONTINUOUS
 62
3
100
AcDbLine
 10
445.0318436172493
 20
226.5348764646990
 30
0.0000000000000000
 11
430.5318436174183
 21
218.1632975615598
 31
0.0000000000000000
  0
LINE
  5
71
100
AcDbEntity
  8
MAIN0
  6
CONTINUOUS
 62
3
100
AcDbLine
 10
445.0318436172493
 20
299.8569668998591
 30
0.0000000000000000
 11
430.5318436172491
 21
308.2285458031108
 31
0.0000000000000000
  0
LINE
  5
72
100
AcDbEntity
  8
MAIN0
  6
CONTINUOUS
 62
3
100
AcDbLine
 10
218.0318436172492
 20
305.4283969974433
 30
0.0000000000000000
 11
221.5318436172493
 21
305.4283969974433
 31
0.0000000000000000
  0
LINE
  5
73
100
AcDbEntity
  8
MAIN0
  6
CONTINUOUS
 62
3
100
AcDbLine
 10
218.0318436172492
 20
220.9634463667747
 30
0.0000000000000000
 11
221.5318436172493
 21
220.9634463667767
 31
0.0000000000000000
  0
LINE
  5
74
100
AcDbEntity
  8
MAIN0
  6
CENTER
 62
3
100
AcDbLine
 10
211.5127702783368
 20
290.1859216823390
 30
0.0000000000000000
 11
266.7570061020848
 21
290.1859216823390
 31
0.0000000000000000
  0
LINE
  5
75
100
AcDbEntity
  8
MAIN0
  6
CENTER
 62
3
100
AcDbLine
 10
414.9688001030472
 20
290.1859216823390
 30
0.0000000000000000
 11
442.2205308951581
 21
290.1859216823390
 31
0.0000000000000000
  0
LINE
  5
76
100
AcDbEntity
  8
MAIN0
  6
CENTER
 62
3
100
AcDbLine
 10
211.3885941510789
 20
236.2059216823390
 30
0.0000000000000000
 11
242.9384369266899
 21
236.2059216823390
 31
0.0000000000000000
  0
LINE
  5
77
100
AcDbEntity
  8
MAIN0
  6
CENTER
 62
3
100
AcDbLine
 10
414.9688001030472
 20
236.2059216823390
 30
0.0000000000000000
 11
442.2205308951581
 21
236.2059216823390
 31
0.0000000000000000
  0
CIRCLE
  5
78
100
AcDbEntity
  8
MAIN0
  6
CONTINUOUS
 62
3
100
AcDbCircle
 10
429.0318436172492
 20
290.1859216823390
 30
0.0000000000000000
 40
9.500000000000000
  0
CIRCLE
  5
79
100
AcDbEntity
  8
MAIN0
  6
CONTINUOUS
 62
3
100
AcDbCircle
 10
429.0318436172491
 20
236.2059216823390
 30
0.0000000000000000
 40
9.500000000000000
  0
ARC
  5
7A
100
AcDbEntity
  8
MAIN0
  6
CONTINUOUS
 62
3
100
AcDbCircle
 10
429.0318436172492
 20
183.6959216823390
 30
0.0000000000000000
 40
98.50000000000000
100
AcDbArc
 50
80.65164941418880
 51
87.12472721486381
  0
ARC
  5
7B
100
AcDbEntity
  8
MAIN0
  6
CONTINUOUS
 62
3
100
AcDbCircle
 10
429.0318436172492
 20
183.6959216823390
 30
0.0000000000000000
 40
98.50000000000000
100
AcDbArc
 50
92.87527278513618
 51
99.34835058581126
  0
LINE
  5
7C
100
AcDbEntity
  8
MAIN0
  6
HIDDEN
 62
3
100
AcDbLine
 10
225.5118436172492
 20
226.7059216823390
 30
0.0000000000000000
 11
225.5118436172492
 21
245.7059216823390
 31
0.0000000000000000
  0
LINE
  5
7D
100
AcDbEntity
  8
MAIN0
  6
HIDDEN
 62
3
100
AcDbLine
 10
228.5318436172492
 20
280.6859216823390
 30
0.0000000000000000
 11
228.5318436172492
 21
299.6859216823390
 31
0.0000000000000000
  0
LINE
  5
7E
100
AcDbEntity
  8
MAIN0
  6
HIDDEN
 62
3
100
AcDbLine
 10
228.5318436172492
 20
280.6859216823390
 30
0.0000000000000000
 11
251.0318436172492
 21
280.6859216823390
 31
0.0000000000000000
  0
LINE
  5
7F
100
AcDbEntity
  8
MAIN0
  6
HIDDEN
 62
3
100
AcDbLine
 10
228.5318436172492
 20
299.6859216823390
 30
0.0000000000000000
 11
263.0318436172492
 21
299.6859216823390
 31
0.0000000000000000
  0
LINE
  5
80
100
AcDbEntity
  8
MAIN0
  6
HIDDEN
 62
3
100
AcDbLine
 10
225.5118436172492
 20
226.7059216823390
 30
0.0000000000000000
 11
239.0318436172492
 21
226.7059216823390
 31
0.0000000000000000
  0
LINE
  5
81
100
AcDbEntity
  8
MAIN0
  6
HIDDEN
 62
3
100
AcDbLine
 10
225.5118436172492
 20
245.7059216823390
 30
0.0000000000000000
 11
239.0318436172492
 21
245.7059216823390
 31
0.0000000000000000
  0
LINE
  5
82
100
AcDbEntity
  8
MAIN0
  6
HIDDEN
 62
3
100
AcDbLine
 10
218.0318436172492
 20
296.6859216823390
 30
0.0000000000000000
 11
228.5318436172492
 21
296.6859216823390
 31
0.0000000000000000
  0
LINE
  5
83
100
AcDbEntity
  8
MAIN0
  6
HIDDEN
 62
3
100
AcDbLine
 10
218.0318436172492
 20
283.6859216823390
 30
0.0000000000000000
 11
228.5318436172492
 21
283.6859216823390
 31
0.0000000000000000
  0
LINE
  5
84
100
AcDbEntity
  8
MAIN0
  6
HIDDEN
 62
3
100
AcDbLine
 10
218.0318436172491
 20
242.7059216823390
 30
0.0000000000000000
 11
225.5118436172492
 21
242.7059216823390
 31
0.0000000000000000
  0
LINE
  5
85
100
AcDbEntity
  8
MAIN0
  6
HIDDEN
 62
3
100
AcDbLine
 10
218.0318436172491
 20
229.7059216823390
 30
0.0000000000000000
 11
225.5118436172492
 21
229.7059216823390
 31
0.0000000000000000
  0
ARC
  5
86
100
AcDbEntity
  8
MAIN0
  6
CONTINUOUS
 62
3
100
AcDbCircle
 10
429.0318436172492
 20
183.6959216823390
 30
0.0000000000000000
 40
95.00000000000000
100
AcDbArc
 50
80.30397160185137
 51
99.69602839814874
  0
ARC
  5
87
100
AcDbEntity
  8
MAIN0
  6
CONTINUOUS
 62
3
100
AcDbCircle
 10
429.0318436172492
 20
183.6959216823390
 30
0.0000000000000000
 40
65.00000000000000
100
AcDbArc
 50
75.74996730219648
 51
104.2500326978036
  0
LINE
  5
88
100
AcDbEntity
  8
MAIN0
  6
HIDDEN
 62
3
100
AcDbLine
 10
409.7818436172491
 20
228.3043245259042
 30
0.0000000000000000
 11
409.7818436172491
 21
313.4651587774806
 31
0.0000000000000000
  0
LINE
  5
89
100
AcDbEntity
  8
MAIN0
  6
HIDDEN
 62
3
100
AcDbLine
 10
448.2818436172493
 20
228.3043245259042
 30
0.0000000000000000
 11
448.2818436172493
 21
313.4651587774806
 31
0.0000000000000000
  0
LINE
  5
8A
100
AcDbEntity
  8
MAIN0
  6
CONTINUOUS
 62
3
100
AcDbLine
 10
183.5318436172492
 20
220.1959216823390
 30
0.0000000000000000
 11
218.0318436172492
 21
220.1959216823390
 31
0.0000000000000000
  0
LINE
  5
8B
100
AcDbEntity
  8
MAIN0
  6
CONTINUOUS
 62
3
100
AcDbLine
 10
202.5318436172492
 20
220.1959216823390
 30
0.0000000000000000
 11
202.5318436172492
 21
226.6959216823390
 31
0.0000000000000000
  0
LINE
  5
8C
100
AcDbEntity
  8
MAIN0
  6
CONTINUOUS
 62
3
100
AcDbLine
 10
193.0318436172492
 20
220.1959216823390
 30
0.0000000000000000
 11
193.0318436172492
 21
226.6959216823390
 31
0.0000000000000000
  0
LINE
  5
8D
100
AcDbEntity
  8
MAIN0
  6
CONTINUOUS
 62
3
100
AcDbLine
 10
183.5318436172492
 20
220.1959216823391
 30
0.0000000000000000
 11
183.5318436172492
 21
226.6959216823390
 31
0.0000000000000000
  0
LINE
  5
8E
100
AcDbEntity
  8
MAIN0
  6
CONTINUOUS
 62
3
100
AcDbLine
 10
213.0318436172492
 20
299.8569668998763
 30
0.0000000000000000
 11
263.0318436172492
 21
299.8569668998763
 31
0.0000000000000000
  0
LINE
  5
8F
100
AcDbEntity
  8
MAIN0
  6
CONTINUOUS
 62
3
100
AcDbLine
 10
218.0318436172493
 20
226.5348764647684
 30
0.0000000000000000
 11
239.0318436172492
 21
226.5348764647568
 31
0.0000000000000000
  0
LINE
  5
90
100
AcDbEntity
  8
MAIN0
  6
CENTER
 62
3
100
AcDbLine
 10
105.4218202879903
 20
446.6959216823390
 30
0.0000000000000000
 11
218.2034100881659
 21
446.6959216823390
 31
0.0000000000000000
  0
LINE
  5
91
100
AcDbEntity
  8
MAIN0
  6
HIDDEN
 62
3
100
AcDbLine
 10
200.0318436172492
 20
436.6959216823390
 30
0.0000000000000000
 11
200.0318436172492
 21
456.6959216823390
 31
0.0000000000000000
  0
LINE
  5
92
100
AcDbEntity
  8
MAIN0
  6
HIDDEN
 62
3
100
AcDbLine
 10
200.0318436172492
 20
456.6959216823390
 30
0.0000000000000000
 11
213.0318436172492
 21
456.6959216823390
 31
0.0000000000000000
  0
LINE
  5
93
100
AcDbEntity
  8
MAIN0
  6
HIDDEN
 62
3
100
AcDbLine
 10
200.0318436172492
 20
436.6959216823390
 30
0.0000000000000000
 11
213.0318436172492
 21
436.6959216823390
 31
0.0000000000000000
  0
LINE
  5
94
100
AcDbEntity
  8
MAIN0
  6
HIDDEN
 62
3
100
AcDbLine
 10
213.0318436172492
 20
308.1959216823390
 30
0.0000000000000000
 11
183.5318436172492
 21
308.1959216823390
 31
0.0000000000000000
  0
LINE
  5
95
100
AcDbEntity
  8
MAIN0
  6
HIDDEN
 62
3
100
AcDbLine
 10
183.5318436172492
 20
303.8472968773306
 30
0.0000000000000000
 11
183.5318436172492
 21
308.1959216823390
 31
0.0000000000000000
  0
MTEXT
  5
96
100
AcDbEntity
  8
MAIN0
  6
CONTINUOUS
 62
3
100
AcDbMText
 10
452.5204994265696
 20
245.7319774378187
 30
0.0000000000000000
 40
4.000000000000000
 41
0.0000000000000000
 71
     1
 72
     1
  1
{\H0.81x;{1}}
 11
1.000000000000000
 21
0.0000000000000000
 31
0.0000000000000000
  7
STANDARD
  0
ARC
  5
97
100
AcDbEntity
  8
MAIN0
  6
CENTER
 62
3
100
AcDbCircle
 10
429.0318436172491
 20
342.6959216823390
 30
0.0000000000000000
 40
104.0000000000000
100
AcDbArc
 50
111.3527188550160
 51
175.2715619075794
  0
ARC
  5
98
100
AcDbEntity
  8
MAIN0
  6
CENTER
 62
3
100
AcDbCircle
 10
429.0318436172491
 20
342.6959216823390
 30
0.0000000000000000
 40
104.0000000000000
100
AcDbArc
 50
231.4200708566978
 51
248.1843627372334
  0
ARC
  5
99
100
AcDbEntity
  8
MAIN0
  6
CENTER
 62
3
100
AcDbCircle
 10
429.0318436172491
 20
342.6959216823390
 30
0.0000000000000000
 40
104.0000000000000
100
AcDbArc
 50
348.2222394631688
 51
368.3212082882643
  0
DIMENSION
  5
A0
100
AcDbEntity
  8
MAIN0
  6
CONTINUOUS
 62
3
100
AcDbDimension
  2
*D0
 10
325.8832532273071
 20
355.9762944394551
 30
0.0000000000000000
 11
343.3346377682750
 21
354.7376842815378
 31
0.0000000000000000
 70
163
  3
MAIN001
100
AcDbDiametricDimension
 15
532.1804340071913
 25
329.4155489252230
 35
0.0000000000000000
1001
ACAD
1000
DSTYLE
1002
{
1070
   287
1070
     2
1070
   173
1070
     1
1070
     6
1000
_OPEN
1070
     7
1000
_OPEN
1070
    41
1040
4.000000
1002
}
  0
LINE
  5
A1
100
AcDbEntity
  8
MAIN0
  6
CONTINUOUS
 62
3
100
AcDbLine
 10
410.0318436172492
 20
220.1959216823390
 30
0.0000000000000000
 11
410.0318436172492
 21
228.2625349457751
 31
0.0000000000000000
  0
LINE
  5
A2
100
AcDbEntity
  8
MAIN0
  6
CONTINUOUS
 62
3
100
AcDbLine
 10
448.0318436172492
 20
220.1959216823390
 30
0.0000000000000000
 11
448.0318436172492
 21
228.2625349457751
 31
0.0000000000000000
  0
LINE
  5
A3
100
AcDbEntity
  8
MAIN0
  6
CONTINUOUS
 62
3
100
AcDbLine
 10
410.0318436172492
 20
220.1959216823390
 30
0.0000000000000000
 11
424.0112353671952
 21
220.1959216823390
 31
0.0000000000000000
  0
LINE
  5
A4
100
AcDbEntity
  8
MAIN0
  6
CONTINUOUS
 62
3
100
AcDbLine
 10
434.0524518673033
 20
220.1959216823390
 30
0.0000000000000000
 11
448.0318436172492
 21
220.1959216823390
 31
0.0000000000000000
  0
DIMENSION
  5
AC
100
AcDbEntity
  8
MAIN0
  6
CONTINUOUS
 62
3
100
AcDbDimension
  2
*D1
 10
213.0318436172492
 20
382.6959216823390
 30
0.0000000000000000
 11
238.0318436172492
 21
383.1959216823390
 31
0.0000000000000000
 70
32
  3
MAIN001
100
AcDbAlignedDimension
 13
263.0318436172492
 23
358.6959216823390
 33
0.0000000000000000
 14
213.0318436172492
 24
228.6959216823390
 34
0.0000000000000000
100
AcDbRotatedDimension
1001
ACAD
1000
DSTYLE
1002
{
1070
   173
1070
     1
1070
     6
1000
_OPEN
1070
     7
1000
_OPEN
1070
    41
1040
4.000000
1002
}
  0
DIMENSION
  5
B5
100
AcDbEntity
  8
MAIN0
  6
CONTINUOUS
 62
3
100
AcDbDimension
  2
*D2
 10
289.0318436172492
 20
358.6959216823390
 30
0.0000000000000000
 11
288.5318436172492
 21
342.6959216823390
 31
0.0000000000000000
 70
32
  3
MAIN001
100
AcDbAlignedDimension
 13
263.0318436172492
 23
326.6959216823390
 33
0.0000000000000000
 14
263.0318436172492
 24
358.6959216823390
 34
0.0000000000000000
 50
90.00000000000000
100
AcDbRotatedDimension
1001
ACAD
1000
DSTYLE
1002
{
1070
   173
1070
     1
1070
     6
1000
_OPEN
1070
     7
1000
_OPEN
1070
    41
1040
4.000000
1002
}
  0
DIMENSION
  5
BE
100
AcDbEntity
  8
MAIN0
  6
CONTINUOUS
 62
3
100
AcDbDimension
  2
*D3
 10
289.0318436172492
 20
308.1959216823390
 30
0.0000000000000000
 11
288.5318436172492
 21
263.1959216823390
 31
0.0000000000000000
 70
32
  3
MAIN001
100
AcDbAlignedDimension
 13
239.0318436172492
 23
218.1959216823390
 33
0.0000000000000000
 14
263.0318436172492
 24
308.1959216823390
 34
0.0000000000000000
 50
90.00000000000000
100
AcDbRotatedDimension
1001
ACAD
1000
DSTYLE
1002
{
1070
   173
1070
     1
1070
     6
1000
_OPEN
1070
     7
1000
_OPEN
1070
    41
1040
4.000000
1002
}
  0
LINE
  5
BF
100
AcDbEntity
  8
MAIN0
  6
CENTER
 62
3
100
AcDbLine
 10
158.5318436172492
 20
343.9874578686675
 30
0.0000000000000000
 11
158.5318436172492
 21
461.6790290630881
 31
0.0000000000000000
  0
DIMENSION
  5
C8
100
AcDbEntity
  8
MAIN0
  6
CONTINUOUS
 62
3
100
AcDbDimension
  2
*D4
 10
129.0318436172492
 20
508.6195990199652
 30
0.0000000000000000
 11
171.0318436172492
 21
509.1195990199652
 31
0.0000000000000000
 70
32
  3
MAIN001
100
AcDbAlignedDimension
 13
213.0318436172492
 23
456.6959216823390
 33
0.0000000000000000
 14
129.0318436172492
 24
456.6959216823390
 34
0.0000000000000000
100
AcDbRotatedDimension
1001
ACAD
1000
DSTYLE
1002
{
1070
   173
1070
     1
1070
     6
1000
_OPEN
1070
     7
1000
_OPEN
1070
    41
1040
4.000000
1002
}
  0
DIMENSION
  5
D1
100
AcDbEntity
  8
MAIN0
  6
CONTINUOUS
 62
3
100
AcDbDimension
  2
*D5
 10
129.0318436172492
 20
494.5494426020899
 30
0.0000000000000000
 11
143.7818436172492
 21
495.0494426020899
 31
0.0000000000000000
 70
32
  3
MAIN001
100
AcDbAlignedDimension
 13
158.5318436172492
 23
461.6790290630881
 33
0.0000000000000000
 14
129.0318436172492
 24
456.6959216823390
 34
0.0000000000000000
100
AcDbRotatedDimension
1001
ACAD
1000
DSTYLE
1002
{
1070
   173
1070
     1
1070
     6
1000
_OPEN
1070
     7
1000
_OPEN
1070
    41
1040
4.000000
1002
}
  0
DIMENSION
  5
DA
100
AcDbEntity
  8
MAIN0
  6
CONTINUOUS
 62
3
100
AcDbDimension
  2
*D6
 10
158.5318436172492
 20
494.5494426020899
 30
0.0000000000000000
 11
185.7818436172492
 21
495.0494426020899
 31
0.0000000000000000
 70
32
  3
MAIN001
100
AcDbAlignedDimension
 13
213.0318436172492
 23
456.6959216823390
 33
0.0000000000000000
 14
158.5318436172492
 24
461.6790290630881
 34
0.0000000000000000
100
AcDbRotatedDimension
1001
ACAD
1000
DSTYLE
1002
{
1070
   173
1070
     1
1070
     6
1000
_OPEN
1070
     7
1000
_OPEN
1070
    41
1040
4.000000
1002
}
  0
DIMENSION
  5
E3
100
AcDbEntity
  8
MAIN0
  6
CONTINUOUS
 62
3
100
AcDbDimension
  2
*D7
 10
61.07770534138365
 20
458.6959216823390
 30
0.0000000000000000
 11
60.57770534138365
 21
342.6959216823390
 31
0.0000000000000000
 70
32
  1
\A1;\U+2205232
  3
MAIN001
100
AcDbAlignedDimension
 13
131.0318436172492
 23
226.6959216823390
 33
0.0000000000000000
 14
131.0318436172491
 24
458.6959216823390
 34
0.0000000000000000
 50
90.00000000000000
100
AcDbRotatedDimension
1001
ACAD
1000
DSTYLE
1002
{
1070
   173
1070
     1
1070
     6
1000
_OPEN
1070
     7
1000
_OPEN
1070
    41
1040
4.000000
1002
}
  0
DIMENSION
  5
EC
100
AcDbEntity
  8
MAIN0
  6
CONTINUOUS
 62
3
100
AcDbDimension
  2
*D8
 10
77.98992246010249
 20
437.6959216823390
 30
0.0000000000000000
 11
77.48992246010249
 21
335.6209215452483
 31
0.0000000000000000
 70
32
  1
\A1;\U+2205190H6\H0.903226x;\S＋0.029^ 　0;
  3
MAIN001
100
AcDbAlignedDimension
 13
129.0318436172493
 23
247.6959216823390
 33
0.0000000000000000
 14
129.0318436172492
 24
437.6959216823390
 34
0.0000000000000000
 50
90.00000000000000
100
AcDbRotatedDimension
1001
ACAD
1000
DSTYLE
1002
{
1070
   173
1070
     1
1070
     6
1000
_OPEN
1070
     7
1000
_OPEN
1070
    41
1040
4.000000
1070
   272
1070
     3
1070
    47
1040
0.029000
1070
    48
1040
0.000000
1070
    71
1070
     1
1070
   340
1005
ED
1002
}
  0
DIMENSION
  5
F6
100
AcDbEntity
  8
MAIN0
  6
CONTINUOUS
 62
3
100
AcDbDimension
  2
*D9
 10
109.1373068223762
 20
377.6959216823390
 30
0.0000000000000000
 11
108.6373068223762
 21
342.6959216823390
 31
0.0000000000000000
 70
32
  1
\A1;\U+220570
  3
MAIN001
100
AcDbAlignedDimension
 13
149.0318436172492
 23
307.6959216823390
 33
0.0000000000000000
 14
149.0318436172492
 24
377.6959216823390
 34
0.0000000000000000
 50
90.00000000000000
100
AcDbRotatedDimension
1001
ACAD
1000
DSTYLE
1002
{
1070
   173
1070
     1
1070
     6
1000
_OPEN
1070
     7
1000
_OPEN
1070
    41
1040
4.000000
1002
}
  0
LINE
  5
F7
100
AcDbEntity
  8
MAIN0
  6
CENTER
 62
3
100
AcDbLine
 10
429.0318436172492
 20
208.8243559948256
 30
0.0000000000000000
 11
429.0318436172492
 21
471.9026947615956
 31
0.0000000000000000
  0
LINE
  5
F8
100
AcDbEntity
  8
MAIN0
  6
CENTER
 62
3
100
AcDbLine
 10
544.6694297847034
 20
409.4593131845574
 30
0.0000000000000000
 11
429.0318436172491
 21
342.6959216823391
 31
0.0000000000000000
  0
LINE
  5
F9
100
AcDbEntity
  8
MAIN0
  6
CENTER
 62
3
100
AcDbLine
 10
312.7705929167912
 20
409.8193860705709
 30
0.0000000000000000
 11
429.0318436172491
 21
342.6959216823390
 31
0.0000000000000000
  0
LINE
  5
FA
100
AcDbEntity
  8
MAIN0
  6
CONTINUOUS
 62
3
100
AcDbLine
 10
471.6314667304494
 20
351.7023682860018
 30
0.0000000000000000
 11
463.7472240008592
 21
347.1503986237166
 31
0.0000000000000000
  0
LINE
  5
FB
100
AcDbEntity
  8
MAIN0
  6
CONTINUOUS
 62
3
100
AcDbLine
 10
458.1314667304493
 20
375.0850541881817
 30
0.0000000000000000
 11
450.2472240008592
 21
370.5330845258965
 31
0.0000000000000000
  0
LINE
  5
FC
100
AcDbEntity
  8
MAIN0
  6
CONTINUOUS
 62
3
100
AcDbLine
 10
537.6302597058782
 20
386.9200378306080
 30
0.0000000000000000
 11
474.1314667304497
 21
350.2589926130280
 31
0.0000000000000000
  0
LINE
  5
FD
100
AcDbEntity
  8
MAIN0
  6
CONTINUOUS
 62
3
100
AcDbLine
 10
521.6302597058782
 20
414.6328507517100
 30
0.0000000000000000
 11
458.1314667304496
 21
377.9718055341300
 31
0.0000000000000000
  0
ARC
  5
FE
100
AcDbEntity
  8
MAIN0
  6
CONTINUOUS
 62
3
100
AcDbCircle
 10
429.0318436172491
 20
342.6959216823390
 30
0.0000000000000000
 40
34.50000000000000
100
AcDbArc
 50
27.50809363102026
 51
32.49190636897988
  0
ARC
  5
FF
100
AcDbEntity
  8
MAIN0
  6
CONTINUOUS
 62
3
100
AcDbCircle
 10
566.7298828189748
 20
422.1959216823390
 30
0.0000000000000000
 40
34.49999999999997
100
AcDbArc
 50
207.5080936307390
 51
212.4919063692609
  0
ARC
  5
100
100
AcDbEntity
  8
MAIN0
  6
CONTINUOUS
 62
3
100
AcDbCircle
 10
566.7298828189748
 20
422.1959216823391
 30
0.0000000000000000
 40
68.50000000000000
100
AcDbArc
 50
196.4922644411294
 51
223.5077355588707
  0
LINE
  5
101
100
AcDbEntity
  8
MAIN0
  6
CONTINUOUS
 62
3
100
AcDbLine
 10
537.6302597058783
 20
386.9200378306078
 30
0.0000000000000000
 11
537.6302597058672
 21
403.6631956369056
 31
0.0000000000000000
  0
LINE
  5
102
100
AcDbEntity
  8
MAIN0
  6
CONTINUOUS
 62
3
100
AcDbLine
 10
474.1314667304497
 20
350.2589926130279
 30
0.0000000000000000
 11
459.6314667304477
 21
358.6305715162765
 31
0.0000000000000000
  0
LINE
  5
103
100
AcDbEntity
  8
MAIN0
  6
CONTINUOUS
 62
3
100
AcDbLine
 10
521.6302597058782
 20
414.6328507517102
 30
0.0000000000000000
 11
536.1302597056981
 21
406.2612718485518
 31
0.0000000000000000
  0
LINE
  5
104
100
AcDbEntity
  8
MAIN0
  6
CONTINUOUS
 62
3
100
AcDbLine
 10
458.1314667304496
 20
377.9718055341301
 30
0.0000000000000000
 11
458.1314667304478
 21
361.2286477276298
 31
0.0000000000000000
  0
LINE
  5
105
100
AcDbEntity
  8
MAIN0
  6
CENTER
 62
3
100
AcDbLine
 10
481.5383593270710
 20
356.7719687445141
 30
0.0000000000000000
 11
467.9124939310156
 21
380.3726599075768
 31
0.0000000000000000
  0
LINE
  5
106
100
AcDbEntity
  8
MAIN0
  6
CENTER
 62
3
100
AcDbLine
 10
528.2864106233550
 20
383.7619687445142
 30
0.0000000000000000
 11
514.6605452272995
 21
407.3626599075768
 31
0.0000000000000000
  0
CIRCLE
  5
107
100
AcDbEntity
  8
MAIN0
  6
CONTINUOUS
 62
3
100
AcDbCircle
 10
474.5068375699700
 20
368.9509216823391
 30
0.0000000000000000
 40
9.500000000000000
  0
CIRCLE
  5
108
100
AcDbEntity
  8
MAIN0
  6
CONTINUOUS
 62
3
100
AcDbCircle
 10
521.2548888662541
 20
395.9409216823390
 30
0.0000000000000000
 40
9.500000000000000
  0
ARC
  5
109
100
AcDbEntity
  8
MAIN0
  6
CONTINUOUS
 62
3
100
AcDbCircle
 10
566.7298828189748
 20
422.1959216823391
 30
0.0000000000000000
 40
98.50000000000000
100
AcDbArc
 50
200.6516494141888
 51
207.1247272148638
  0
ARC
  5
10A
100
AcDbEntity
  8
MAIN0
  6
CONTINUOUS
 62
3
100
AcDbCircle
 10
566.7298828189748
 20
422.1959216823391
 30
0.0000000000000000
 40
98.50000000000000
100
AcDbArc
 50
212.8752727851362
 51
219.3483505858113
  0
CIRCLE
  5
10B
100
AcDbEntity
  8
MAIN0
  6
CONTINUOUS
 62
3
100
AcDbCircle
 10
474.5068375699700
 20
368.9509216823391
 30
0.0000000000000000
 40
9.000000000000000
  0
LINE
  5
10C
100
AcDbEntity
  8
MAIN0
  6
CONTINUOUS
 62
3
100
AcDbLine
 10
469.5068375699700
 20
366.0641703363909
 30
0.0000000000000000
 11
474.5068375699700
 21
363.1774189904428
 31
0.0000000000000000
  0
LINE
  5
10D
100
AcDbEntity
  8
MAIN0
  6
CONTINUOUS
 62
3
100
AcDbLine
 10
474.5068375699700
 20
363.1774189904428
 30
0.0000000000000000
 11
479.5068375699700
 21
366.0641703363909
 31
0.0000000000000000
  0
LINE
  5
10E
100
AcDbEntity
  8
MAIN0
  6
CONTINUOUS
 62
3
100
AcDbLine
 10
479.5068375699700
 20
366.0641703363909
 30
0.0000000000000000
 11
479.5068375699700
 21
371.8376730282872
 31
0.0000000000000000
  0
LINE
  5
10F
100
AcDbEntity
  8
MAIN0
  6
CONTINUOUS
 62
3
100
AcDbLine
 10
479.5068375699700
 20
371.8376730282872
 30
0.0000000000000000
 11
474.5068375699700
 21
374.7244243742354
 31
0.0000000000000000
  0
LINE
  5
110
100
AcDbEntity
  8
MAIN0
  6
CONTINUOUS
 62
3
100
AcDbLine
 10
474.5068375699700
 20
374.7244243742354
 30
0.0000000000000000
 11
469.5068375699700
 21
371.8376730282872
 31
0.0000000000000000
  0
LINE
  5
111
100
AcDbEntity
  8
MAIN0
  6
CONTINUOUS
 62
3
100
AcDbLine
 10
469.5068375699700
 20
371.8376730282872
 30
0.0000000000000000
 11
469.5068375699700
 21
366.0641703363909
 31
0.0000000000000000
  0
CIRCLE
  5
112
100
AcDbEntity
  8
MAIN0
  6
CONTINUOUS
 62
3
100
AcDbCircle
 10
521.2548888662540
 20
395.9409216823391
 30
0.0000000000000000
 40
9.000000000000000
  0
LINE
  5
113
100
AcDbEntity
  8
MAIN0
  6
CONTINUOUS
 62
3
100
AcDbLine
 10
516.2548888662540
 20
393.0541703363909
 30
0.0000000000000000
 11
521.2548888662540
 21
390.1674189904428
 31
0.0000000000000000
  0
LINE
  5
114
100
AcDbEntity
  8
MAIN0
  6
CONTINUOUS
 62
3
100
AcDbLine
 10
521.2548888662540
 20
390.1674189904428
 30
0.0000000000000000
 11
526.2548888662540
 21
393.0541703363909
 31
0.0000000000000000
  0
LINE
  5
115
100
AcDbEntity
  8
MAIN0
  6
CONTINUOUS
 62
3
100
AcDbLine
 10
526.2548888662540
 20
393.0541703363909
 30
0.0000000000000000
 11
526.2548888662540
 21
398.8276730282872
 31
0.0000000000000000
  0
LINE
  5
116
100
AcDbEntity
  8
MAIN0
  6
CONTINUOUS
 62
3
100
AcDbLine
 10
526.2548888662540
 20
398.8276730282872
 30
0.0000000000000000
 11
521.2548888662540
 21
401.7144243742353
 31
0.0000000000000000
  0
LINE
  5
117
100
AcDbEntity
  8
MAIN0
  6
CONTINUOUS
 62
3
100
AcDbLine
 10
521.2548888662540
 20
401.7144243742353
 30
0.0000000000000000
 11
516.2548888662540
 21
398.8276730282872
 31
0.0000000000000000
  0
LINE
  5
118
100
AcDbEntity
  8
MAIN0
  6
CONTINUOUS
 62
3
100
AcDbLine
 10
516.2548888662540
 20
398.8276730282872
 30
0.0000000000000000
 11
516.2548888662540
 21
393.0541703363909
 31
0.0000000000000000
  0
ARC
  5
119
100
AcDbEntity
  8
MAIN0
  6
CONTINUOUS
 62
3
100
AcDbCircle
 10
566.7298828189748
 20
422.1959216823391
 30
0.0000000000000000
 40
95.00000000000000
100
AcDbArc
 50
200.3039716018514
 51
219.6960283981487
  0
ARC
  5
11A
100
AcDbEntity
  8
MAIN0
  6
CONTINUOUS
 62
3
100
AcDbCircle
 10
566.7298828189748
 20
422.1959216823391
 30
0.0000000000000000
 40
65.00000000000000
100
AcDbArc
 50
195.7499673021965
 51
224.2500326978036
  0
LINE
  5
11B
100
AcDbEntity
  8
MAIN0
  6
HIDDEN
 62
3
100
AcDbLine
 10
537.7228727341974
 20
383.2207312377059
 30
0.0000000000000000
 11
463.9714268648564
 21
340.6403141119178
 31
0.0000000000000000
  0
LINE
  5
11C
100
AcDbEntity
  8
MAIN0
  6
HIDDEN
 62
3
100
AcDbLine
 10
518.4728727341974
 20
416.5627092834070
 30
0.0000000000000000
 11
444.7214268648563
 21
373.9822921576188
 31
0.0000000000000000
  0
LINE
  5
11D
100
AcDbEntity
  8
MAIN0
  6
CONTINUOUS
 62
3
100
AcDbLine
 10
544.6199555808429
 20
387.4914390104348
 30
0.0000000000000000
 11
537.6340635722027
 21
383.4581323787166
 31
0.0000000000000000
  0
LINE
  5
11E
100
AcDbEntity
  8
MAIN0
  6
CONTINUOUS
 62
3
100
AcDbLine
 10
525.6199555808429
 20
420.4004043542434
 30
0.0000000000000000
 11
518.6340635722027
 21
416.3670977225253
 31
0.0000000000000000
  0
LINE
  5
11F
100
AcDbEntity
  8
MAIN0
  6
CONTINUOUS
 62
3
100
AcDbLine
 10
544.6199555808429
 20
387.4914390104347
 30
0.0000000000000000
 11
537.6302597058699
 21
399.5979473953425
 31
0.0000000000000000
  0
LINE
  5
120
100
AcDbEntity
  8
MAIN0
  6
CONTINUOUS
 62
3
100
AcDbLine
 10
532.6096514558158
 20
408.2938959693356
 30
0.0000000000000000
 11
525.6199555808429
 21
420.4004043542434
 31
0.0000000000000000
  0
LINE
  5
121
100
AcDbEntity
  8
MAIN0
  6
CONTINUOUS
 62
3
100
AcDbLine
 10
399.9322205040489
 20
375.0850541881817
 30
0.0000000000000000
 11
407.8164632336391
 21
370.5330845258965
 31
0.0000000000000000
  0
LINE
  5
122
100
AcDbEntity
  8
MAIN0
  6
CONTINUOUS
 62
3
100
AcDbLine
 10
386.4322205040490
 20
351.7023682860018
 30
0.0000000000000000
 11
394.3164632336391
 21
347.1503986237166
 31
0.0000000000000000
  0
LINE
  5
123
100
AcDbEntity
  8
MAIN0
  6
CONTINUOUS
 62
3
100
AcDbLine
 10
336.4334275286201
 20
414.6328507517101
 30
0.0000000000000000
 11
399.9322205040486
 21
377.9718055341300
 31
0.0000000000000000
  0
LINE
  5
124
100
AcDbEntity
  8
MAIN0
  6
CONTINUOUS
 62
3
100
AcDbLine
 10
320.4334275286200
 20
386.9200378306080
 30
0.0000000000000000
 11
383.9322205040487
 21
350.2589926130279
 31
0.0000000000000000
  0
ARC
  5
125
100
AcDbEntity
  8
MAIN0
  6
CONTINUOUS
 62
3
100
AcDbCircle
 10
429.0318436172491
 20
342.6959216823390
 30
0.0000000000000000
 40
34.50000000000000
100
AcDbArc
 50
147.5080936310202
 51
152.4919063689799
  0
ARC
  5
126
100
AcDbEntity
  8
MAIN0
  6
CONTINUOUS
 62
3
100
AcDbCircle
 10
291.3338044155235
 20
422.1959216823390
 30
0.0000000000000000
 40
34.49999999999997
100
AcDbArc
 50
327.5080936307390
 51
332.4919063692609
  0
ARC
  5
127
100
AcDbEntity
  8
MAIN0
  6
CONTINUOUS
 62
3
100
AcDbCircle
 10
291.3338044155234
 20
422.1959216823390
 30
0.0000000000000000
 40
68.50000000000000
100
AcDbArc
 50
316.4922644411294
 51
343.5077355588707
  0
LINE
  5
128
100
AcDbEntity
  8
MAIN0
  6
CONTINUOUS
 62
3
100
AcDbLine
 10
336.4334275286202
 20
414.6328507517102
 30
0.0000000000000000
 11
321.9334275288002
 21
406.2612718485516
 31
0.0000000000000000
  0
LINE
  5
129
100
AcDbEntity
  8
MAIN0
  6
CONTINUOUS
 62
3
100
AcDbLine
 10
399.9322205040486
 20
377.9718055341301
 30
0.0000000000000000
 11
399.9322205040505
 21
361.2286477276297
 31
0.0000000000000000
  0
LINE
  5
12A
100
AcDbEntity
  8
MAIN0
  6
CONTINUOUS
 62
3
100
AcDbLine
 10
320.4334275286199
 20
386.9200378306079
 30
0.0000000000000000
 11
320.4334275286311
 21
403.6631956369055
 31
0.0000000000000000
  0
LINE
  5
12B
100
AcDbEntity
  8
MAIN0
  6
CONTINUOUS
 62
3
100
AcDbLine
 10
383.9322205040486
 20
350.2589926130279
 30
0.0000000000000000
 11
398.4322205040505
 21
358.6305715162764
 31
0.0000000000000000
  0
LINE
  5
12C
100
AcDbEntity
  8
MAIN0
  6
CENTER
 62
3
100
AcDbLine
 10
390.5883714216292
 20
381.1298746201639
 30
0.0000000000000000
 11
376.9625060255738
 21
357.5291834571013
 31
0.0000000000000000
  0
LINE
  5
12D
100
AcDbEntity
  8
MAIN0
  6
CENTER
 62
3
100
AcDbLine
 10
343.8403201253452
 20
408.1198746201639
 30
0.0000000000000000
 11
330.2144547292898
 21
384.5191834571013
 31
0.0000000000000000
  0
CIRCLE
  5
12E
100
AcDbEntity
  8
MAIN0
  6
CONTINUOUS
 62
3
100
AcDbCircle
 10
383.5568496645282
 20
368.9509216823390
 30
0.0000000000000000
 40
9.500000000000000
  0
CIRCLE
  5
12F
100
AcDbEntity
  8
MAIN0
  6
CONTINUOUS
 62
3
100
AcDbCircle
 10
336.8087983682443
 20
395.9409216823391
 30
0.0000000000000000
 40
9.500000000000000
  0
ARC
  5
130
100
AcDbEntity
  8
MAIN0
  6
CONTINUOUS
 62
3
100
AcDbCircle
 10
291.3338044155234
 20
422.1959216823390
 30
0.0000000000000000
 40
98.50000000000000
100
AcDbArc
 50
320.6516494141888
 51
327.1247272148638
  0
ARC
  5
131
100
AcDbEntity
  8
MAIN0
  6
CONTINUOUS
 62
3
100
AcDbCircle
 10
291.3338044155234
 20
422.1959216823390
 30
0.0000000000000000
 40
98.50000000000000
100
AcDbArc
 50
332.8752727851362
 51
339.3483505858113
  0
CIRCLE
  5
132
100
AcDbEntity
  8
MAIN0
  6
CONTINUOUS
 62
3
100
AcDbCircle
 10
383.5568496645282
 20
368.9509216823390
 30
0.0000000000000000
 40
9.000000000000000
  0
LINE
  5
133
100
AcDbEntity
  8
MAIN0
  6
CONTINUOUS
 62
3
100
AcDbLine
 10
388.5568496645282
 20
366.0641703363909
 30
0.0000000000000000
 11
388.5568496645282
 21
371.8376730282871
 31
0.0000000000000000
  0
LINE
  5
134
100
AcDbEntity
  8
MAIN0
  6
CONTINUOUS
 62
3
100
AcDbLine
 10
388.5568496645282
 20
371.8376730282871
 30
0.0000000000000000
 11
383.5568496645283
 21
374.7244243742352
 31
0.0000000000000000
  0
LINE
  5
135
100
AcDbEntity
  8
MAIN0
  6
CONTINUOUS
 62
3
100
AcDbLine
 10
383.5568496645282
 20
374.7244243742352
 30
0.0000000000000000
 11
378.5568496645282
 21
371.8376730282871
 31
0.0000000000000000
  0
LINE
  5
136
100
AcDbEntity
  8
MAIN0
  6
CONTINUOUS
 62
3
100
AcDbLine
 10
378.5568496645282
 20
371.8376730282871
 30
0.0000000000000000
 11
378.5568496645282
 21
366.0641703363909
 31
0.0000000000000000
  0
LINE
  5
137
100
AcDbEntity
  8
MAIN0
  6
CONTINUOUS
 62
3
100
AcDbLine
 10
378.5568496645283
 20
366.0641703363909
 30
0.0000000000000000
 11
383.5568496645282
 21
363.1774189904427
 31
0.0000000000000000
  0
LINE
  5
138
100
AcDbEntity
  8
MAIN0
  6
CONTINUOUS
 62
3
100
AcDbLine
 10
383.5568496645282
 20
363.1774189904427
 30
0.0000000000000000
 11
388.5568496645282
 21
366.0641703363909
 31
0.0000000000000000
  0
CIRCLE
  5
139
100
AcDbEntity
  8
MAIN0
  6
CONTINUOUS
 62
3
100
AcDbCircle
 10
336.8087983682443
 20
395.9409216823390
 30
0.0000000000000000
 40
9.000000000000000
  0
LINE
  5
13A
100
AcDbEntity
  8
MAIN0
  6
CONTINUOUS
 62
3
100
AcDbLine
 10
341.8087983682443
 20
393.0541703363908
 30
0.0000000000000000
 11
341.8087983682443
 21
398.8276730282871
 31
0.0000000000000000
  0
LINE
  5
13B
100
AcDbEntity
  8
MAIN0
  6
CONTINUOUS
 62
3
100
AcDbLine
 10
341.8087983682442
 20
398.8276730282871
 30
0.0000000000000000
 11
336.8087983682443
 21
401.7144243742353
 31
0.0000000000000000
  0
LINE
  5
13C
100
AcDbEntity
  8
MAIN0
  6
CONTINUOUS
 62
3
100
AcDbLine
 10
336.8087983682443
 20
401.7144243742353
 30
0.0000000000000000
 11
331.8087983682443
 21
398.8276730282871
 31
0.0000000000000000
  0
LINE
  5
13D
100
AcDbEntity
  8
MAIN0
  6
CONTINUOUS
 62
3
100
AcDbLine
 10
331.8087983682443
 20
398.8276730282871
 30
0.0000000000000000
 11
331.8087983682443
 21
393.0541703363909
 31
0.0000000000000000
  0
LINE
  5
13E
100
AcDbEntity
  8
MAIN0
  6
CONTINUOUS
 62
3
100
AcDbLine
 10
331.8087983682443
 20
393.0541703363909
 30
0.0000000000000000
 11
336.8087983682442
 21
390.1674189904427
 31
0.0000000000000000
  0
LINE
  5
13F
100
AcDbEntity
  8
MAIN0
  6
CONTINUOUS
 62
3
100
AcDbLine
 10
336.8087983682443
 20
390.1674189904427
 30
0.0000000000000000
 11
341.8087983682443
 21
393.0541703363909
 31
0.0000000000000000
  0
ARC
  5
140
100
AcDbEntity
  8
MAIN0
  6
CONTINUOUS
 62
3
100
AcDbCircle
 10
291.3338044155234
 20
422.1959216823390
 30
0.0000000000000000
 40
95.00000000000000
100
AcDbArc
 50
320.3039716018513
 51
339.6960283981487
  0
ARC
  5
141
100
AcDbEntity
  8
MAIN0
  6
CONTINUOUS
 62
3
100
AcDbCircle
 10
291.3338044155234
 20
422.1959216823390
 30
0.0000000000000000
 40
65.00000000000000
100
AcDbArc
 50
315.7499673021965
 51
344.2500326978036
  0
LINE
  5
142
100
AcDbEntity
  8
MAIN0
  6
HIDDEN
 62
3
100
AcDbLine
 10
339.5908145003009
 20
416.5627092834069
 30
0.0000000000000000
 11
413.3422603696419
 21
373.9822921576187
 31
0.0000000000000000
  0
LINE
  5
143
100
AcDbEntity
  8
MAIN0
  6
HIDDEN
 62
3
100
AcDbLine
 10
320.3408145003008
 20
383.2207312377059
 30
0.0000000000000000
 11
394.0922603696419
 21
340.6403141119178
 31
0.0000000000000000
  0
LINE
  5
144
100
AcDbEntity
  8
MAIN0
  6
CONTINUOUS
 62
3
100
AcDbLine
 10
332.4437316536553
 20
420.4004043542434
 30
0.0000000000000000
 11
339.4296236622955
 21
416.3670977225253
 31
0.0000000000000000
  0
LINE
  5
145
100
AcDbEntity
  8
MAIN0
  6
CONTINUOUS
 62
3
100
AcDbLine
 10
313.4437316536554
 20
387.4914390104347
 30
0.0000000000000000
 11
320.4296236622955
 21
383.4581323787166
 31
0.0000000000000000
  0
LINE
  5
146
100
AcDbEntity
  8
MAIN0
  6
CONTINUOUS
 62
3
100
AcDbLine
 10
332.4437316536554
 20
420.4004043542433
 30
0.0000000000000000
 11
325.4540357786824
 21
408.2938959693355
 31
0.0000000000000000
  0
LINE
  5
147
100
AcDbEntity
  8
MAIN0
  6
CONTINUOUS
 62
3
100
AcDbLine
 10
320.4334275286283
 20
399.5979473953424
 30
0.0000000000000000
 11
313.4437316536554
 21
387.4914390104347
 31
0.0000000000000000
  0
ARC
  5
148
100
AcDbEntity
  8
MAIN0
  6
CONTINUOUS
 62
3
100
AcDbCircle
 10
429.0318436172491
 20
342.6959216823390
 30
0.0000000000000000
 40
116.0000000000000
100
AcDbArc
 50
277.9281417662022
 51
382.0718582337978
  0
ARC
  5
149
100
AcDbEntity
  8
MAIN0
  6
CONTINUOUS
 62
3
100
AcDbCircle
 10
429.0318436172491
 20
342.6959216823390
 30
0.0000000000000000
 40
116.0000000000000
100
AcDbArc
 50
37.92814176620220
 51
142.0718582337978
  0
ARC
  5
14A
100
AcDbEntity
  8
MAIN0
  6
CONTINUOUS
 62
3
100
AcDbCircle
 10
429.0318436172491
 20
342.6959216823390
 30
0.0000000000000000
 40
116.0000000000000
100
AcDbArc
 50
157.9281417662022
 51
262.0718582337979
  0
LINE
  5
14B
100
AcDbEntity
  8
MAIN0
  6
CONTINUOUS
 62
3
100
AcDbLine
 10
538.5993880442103
 20
216.7128383363411
 30
0.0000000000000000
 11
638.5993880442104
 21
216.7128383363134
 31
0.0000000000000000
  0
LINE
  5
14C
100
AcDbEntity
  8
MAIN0
  6
CONTINUOUS
 62
3
100
AcDbLine
 10
574.0843880442479
 20
168.7128383363313
 30
0.0000000000000000
 11
593.1143880442480
 21
168.7128383363260
 31
0.0000000000000000
  0
LINE
  5
14D
100
AcDbEntity
  8
MAIN0
  6
CONTINUOUS
 62
3
100
AcDbLine
 10
638.5993880442456
 20
171.7128383363134
 30
0.0000000000000000
 11
638.5993880442104
 21
216.7128383363134
 31
0.0000000000000000
  0
LINE
  5
14E
100
AcDbEntity
  8
MAIN0
  6
CONTINUOUS
 62
3
100
AcDbLine
 10
538.5993880442456
 20
171.7128383363411
 30
0.0000000000000000
 11
538.5993880442104
 21
216.7128383363412
 31
0.0000000000000000
  0
LINE
  5
14F
100
AcDbEntity
  8
MAIN0
  6
CENTER
 62
3
100
AcDbLine
 10
556.6093880442513
 20
164.4758659745204
 30
0.0000000000000000
 11
556.6093880442051
 21
223.4178039695543
 31
0.0000000000000000
  0
LINE
  5
150
100
AcDbEntity
  8
MAIN0
  6
CENTER
 62
3
100
AcDbLine
 10
610.5893880442513
 20
164.4758659745627
 30
0.0000000000000000
 11
610.5893880442051
 21
223.4178039695966
 31
0.0000000000000000
  0
LINE
  5
151
100
AcDbEntity
  8
MAIN0
  6
CONTINUOUS
 62
3
100
AcDbLine
 10
574.0843880442479
 20
168.7128383363689
 30
0.0000000000000000
 11
574.0843880442451
 21
172.4128383363313
 31
0.0000000000000000
  0
LINE
  5
152
100
AcDbEntity
  8
MAIN0
  6
CONTINUOUS
 62
3
100
AcDbLine
 10
593.1143880442480
 20
168.7128383363838
 30
0.0000000000000000
 11
593.1143880442451
 21
172.4128383363259
 31
0.0000000000000000
  0
LINE
  5
153
100
AcDbEntity
  8
MAIN0
  6
CONTINUOUS
 62
3
100
AcDbLine
 10
596.1143880442456
 20
171.7128383363252
 30
0.0000000000000000
 11
596.1143880442451
 21
172.4128383363252
 31
0.0000000000000000
  0
LINE
  5
154
100
AcDbEntity
  8
MAIN0
  6
CONTINUOUS
 62
3
100
AcDbLine
 10
571.0843880442455
 20
171.7128383363321
 30
0.0000000000000000
 11
571.0843880442451
 21
172.4128383363321
 31
0.0000000000000000
  0
LINE
  5
155
100
AcDbEntity
  8
MAIN0
  6
CONTINUOUS
 62
3
100
AcDbLine
 10
596.1143880442456
 20
171.7128383363252
 30
0.0000000000000000
 11
638.5993880442487
 21
171.7128383363134
 31
0.0000000000000000
  0
LINE
  5
156
100
AcDbEntity
  8
MAIN0
  6
CONTINUOUS
 62
3
100
AcDbLine
 10
538.5993880442488
 20
171.7128383363411
 30
0.0000000000000000
 11
571.0843880442455
 21
171.7128383363321
 31
0.0000000000000000
  0
LINE
  5
157
100
AcDbEntity
  8
MAIN0
  6
CONTINUOUS
 62
3
100
AcDbLine
 10
571.0843880442458
 20
172.4128383363321
 30
0.0000000000000000
 11
574.0843880442451
 21
172.4128383363313
 31
0.0000000000000000
  0
LINE
  5
158
100
AcDbEntity
  8
MAIN0
  6
CONTINUOUS
 62
3
100
AcDbLine
 10
593.1143880442451
 20
172.4128383363260
 30
0.0000000000000000
 11
596.1143880442451
 21
172.4128383363251
 31
0.0000000000000000
  0
LINE
  5
159
100
AcDbEntity
  8
MAIN0
  6
CONTINUOUS
 62
3
100
AcDbLine
 10
550.1093880442429
 20
175.2128383363379
 30
0.0000000000000000
 11
550.1093880442375
 21
182.2128383363379
 31
0.0000000000000000
  0
LINE
  5
15A
100
AcDbEntity
  8
MAIN0
  6
CONTINUOUS
 62
3
100
AcDbLine
 10
563.1093880442429
 20
175.2128383363343
 30
0.0000000000000000
 11
563.1093880442375
 21
182.2128383363343
 31
0.0000000000000000
  0
LINE
  5
15B
100
AcDbEntity
  8
MAIN0
  6
CONTINUOUS
 62
3
100
AcDbLine
 10
604.0893880442429
 20
175.2128383363230
 30
0.0000000000000000
 11
604.0893880442375
 21
182.2128383363230
 31
0.0000000000000000
  0
LINE
  5
15C
100
AcDbEntity
  8
MAIN0
  6
CONTINUOUS
 62
3
100
AcDbLine
 10
617.0893880442429
 20
175.2128383363194
 30
0.0000000000000000
 11
617.0893880442375
 21
182.2128383363194
 31
0.0000000000000000
  0
LINE
  5
15D
100
AcDbEntity
  8
MAIN0
  6
CONTINUOUS
 62
3
100
AcDbLine
 10
620.0893880442375
 20
182.2128383363185
 30
0.0000000000000000
 11
620.0893880442104
 21
216.7128383363186
 31
0.0000000000000000
  0
LINE
  5
15E
100
AcDbEntity
  8
MAIN0
  6
CONTINUOUS
 62
3
100
AcDbLine
 10
601.0893880442375
 20
182.2128383363238
 30
0.0000000000000000
 11
601.0893880442104
 21
216.7128383363238
 31
0.0000000000000000
  0
LINE
  5
15F
100
AcDbEntity
  8
MAIN0
  6
CONTINUOUS
 62
3
100
AcDbLine
 10
566.1093880442375
 20
182.2128383363335
 30
0.0000000000000000
 11
566.1093880442104
 21
216.7128383363335
 31
0.0000000000000000
  0
LINE
  5
160
100
AcDbEntity
  8
MAIN0
  6
CONTINUOUS
 62
3
100
AcDbLine
 10
547.1093880442375
 20
182.2128383363388
 30
0.0000000000000000
 11
547.1093880442104
 21
216.7128383363387
 31
0.0000000000000000
  0
LINE
  5
161
100
AcDbEntity
  8
MAIN0
  6
CONTINUOUS
 62
3
100
AcDbLine
 10
547.1093880442375
 20
182.2128383363388
 30
0.0000000000000000
 11
566.1093880442373
 21
182.2128383363335
 31
0.0000000000000000
  0
LINE
  5
162
100
AcDbEntity
  8
MAIN0
  6
CONTINUOUS
 62
3
100
AcDbLine
 10
601.0893880442374
 20
182.2128383363238
 30
0.0000000000000000
 11
620.0893880442374
 21
182.2128383363186
 31
0.0000000000000000
  0
LINE
  5
163
100
AcDbEntity
  8
MAIN0
  6
CONTINUOUS
 62
3
100
AcDbLine
 10
611.9777323819684
 20
171.7128383363208
 30
0.0000000000000000
 11
611.9777323819711
 21
175.2128383363208
 31
0.0000000000000000
  0
LINE
  5
164
100
AcDbEntity
  8
MAIN0
  6
CONTINUOUS
 62
3
100
AcDbLine
 10
609.2010437067384
 20
171.7128383363215
 30
0.0000000000000000
 11
609.2010437067397
 21
175.2128383363215
 31
0.0000000000000000
  0
LINE
  5
165
100
AcDbEntity
  8
MAIN0
  6
CONTINUOUS
 62
3
100
AcDbLine
 10
555.2210437067383
 20
171.7128383363365
 30
0.0000000000000000
 11
555.2210437067397
 21
175.2128383363364
 31
0.0000000000000000
  0
LINE
  5
166
100
AcDbEntity
  8
MAIN0
  6
CONTINUOUS
 62
3
100
AcDbLine
 10
557.9977323819684
 20
171.7128383363357
 30
0.0000000000000000
 11
557.9977323819711
 21
175.2128383363357
 31
0.0000000000000000
  0
LINE
  5
167
100
AcDbEntity
  8
MAIN0
  6
CONTINUOUS
 62
3
100
AcDbLine
 10
611.9777323819711
 20
175.2128383363208
 30
0.0000000000000000
 11
638.5993880442429
 21
175.2128383363134
 31
0.0000000000000000
  0
LINE
  5
168
100
AcDbEntity
  8
MAIN0
  6
CONTINUOUS
 62
3
100
AcDbLine
 10
538.5993880442428
 20
175.2128383363411
 30
0.0000000000000000
 11
555.2210437067397
 21
175.2128383363365
 31
0.0000000000000000
  0
LINE
  5
169
100
AcDbEntity
  8
MAIN0
  6
CONTINUOUS
 62
3
100
AcDbLine
 10
557.9977323819711
 20
175.2128383363357
 30
0.0000000000000000
 11
609.2010437067397
 21
175.2128383363216
 31
0.0000000000000000
  0
DIMENSION
  5
172
100
AcDbEntity
  8
MAIN0
  6
CONTINUOUS
 62
3
100
AcDbDimension
  2
*D10
 10
538.5993880442168
 20
239.7482023696018
 30
0.0000000000000000
 11
588.5993880442169
 21
240.2482023695879
 31
0.0000000000000000
 70
32
  3
MAIN001
100
AcDbAlignedDimension
 13
638.5993880442104
 23
216.7128383363134
 33
0.0000000000000000
 14
538.5993880442104
 24
216.7128383363411
 34
0.0000000000000000
 50
179.9999999999841
100
AcDbRotatedDimension
1001
ACAD
1000
DSTYLE
1002
{
1070
   173
1070
     1
1070
     6
1000
_OPEN
1070
     7
1000
_OPEN
1070
    41
1040
4.000000
1002
}
  0
DIMENSION
  5
17B
100
AcDbEntity
  8
MAIN0
  6
CONTINUOUS
 62
3
100
AcDbDimension
  2
*D11
 10
660.5839589262843
 20
216.7128383363307
 30
0.0000000000000000
 11
660.0839589263019
 21
194.2128383363303
 31
0.0000000000000000
 70
32
  3
MAIN001
100
AcDbAlignedDimension
 13
638.5993880442487
 23
171.7128383363134
 33
0.0000000000000000
 14
638.5993880442104
 24
216.7128383363134
 34
0.0000000000000000
 50
90.00000000004489
100
AcDbRotatedDimension
1001
ACAD
1000
DSTYLE
1002
{
1070
   173
1070
     1
1070
     6
1000
_OPEN
1070
     7
1000
_OPEN
1070
    41
1040
4.000000
1002
}
  0
LINE
  5
17C
100
AcDbEntity
  8
MAIN0
  6
CENTER
 62
3
100
AcDbLine
 10
583.5993880442513
 20
164.4758659745416
 30
0.0000000000000000
 11
583.5993880442051
 21
223.4178039695755
 31
0.0000000000000000
  0
DIMENSION
  5
186
100
AcDbEntity
  8
MAIN0
  6
CONTINUOUS
 62
3
100
AcDbDimension
  2
*D12
 10
556.6093880442473
 20
150.2619523518033
 30
0.0000000000000000
 11
570.1043880442475
 21
150.7619523517995
 31
0.0000000000000000
 70
32
  3
MAIN001
100
AcDbAlignedDimension
 13
583.5993880442513
 23
164.4758659745416
 33
0.0000000000000000
 14
556.6093880442513
 24
164.4758659745204
 34
0.0000000000000000
 50
179.9999999999841
100
AcDbRotatedDimension
1001
ACAD
1000
DSTYLE
1002
{
1070
   173
1070
     1
1070
     6
1000
_DOT
1070
     7
1000
_OPEN
1070
    41
1040
4.000000
1070
   287
1070
     0
1002
}
  0
DIMENSION
  5
190
100
AcDbEntity
  8
MAIN0
  6
CONTINUOUS
 62
3
100
AcDbDimension
  2
*D13
 10
583.5993880442474
 20
150.2619523517958
 30
0.0000000000000000
 11
597.0943880442475
 21
150.7619523517920
 31
0.0000000000000000
 70
32
  3
MAIN001
100
AcDbAlignedDimension
 13
610.5893880442513
 23
164.4758659745627
 33
0.0000000000000000
 14
583.5993880442513
 24
164.4758659745416
 34
0.0000000000000000
 50
179.9999999999841
100
AcDbRotatedDimension
1001
ACAD
1000
DSTYLE
1002
{
1070
   173
1070
     1
1070
     6
1000
_OPEN
1070
     7
1000
_DOT
1070
    41
1040
4.000000
1070
   287
1070
     0
1002
}
  0
DIMENSION
  5
19B
100
AcDbEntity
  8
MAIN0
  6
CONTINUOUS
 62
3
100
AcDbDimension
  2
*D14
 10
200.0318436172492
 20
480.6864994309832
 30
0.0000000000000000
 11
206.5318436172492
 21
481.1864994309832
 31
0.0000000000000000
 70
32
  3
MAIN001
100
AcDbAlignedDimension
 13
213.0318436172492
 23
456.6959216823390
 33
0.0000000000000000
 14
200.0318436172492
 24
456.6959216823390
 34
0.0000000000000000
100
AcDbRotatedDimension
1001
ACAD
1000
DSTYLE
1002
{
1070
   173
1070
     1
1070
     6
1000
_OPEN
1070
     7
1000
_OPEN
1070
    41
1040
4.000000
1070
   287
1070
     0
1002
}
  0
DIMENSION
  5
1A6
100
AcDbEntity
  8
MAIN0
  6
CONTINUOUS
 62
3
100
AcDbDimension
  2
*D15
 10
239.0318436172492
 20
456.6959216823390
 30
0.0000000000000000
 11
238.5318436172492
 21
446.6959216823390
 31
0.0000000000000000
 70
32
  1
\A1;\U+220520
  3
MAIN001
100
AcDbAlignedDimension
 13
213.0318436172492
 23
436.6959216823390
 33
0.0000000000000000
 14
213.0318436172492
 24
456.6959216823390
 34
0.0000000000000000
 50
90.00000000000000
100
AcDbRotatedDimension
1001
ACAD
1000
DSTYLE
1002
{
1070
   173
1070
     1
1070
     6
1000
_OPEN
1070
     7
1000
_OPEN
1070
    41
1040
4.000000
1070
   287
1070
     0
1002
}
  0
DIMENSION
  5
1B0
100
AcDbEntity
  8
MAIN0
  6
CONTINUOUS
 62
3
100
AcDbDimension
  2
*D16
 10
94.49946555855996
 20
453.4459216823390
 30
0.0000000000000000
 11
93.49946555855996
 21
470.9640210337424
 31
0.0000000000000000
 70
160
  1
\A1;\U+220513.5
  3
MAIN001
100
AcDbAlignedDimension
 13
129.0318436172492
 23
439.9459216823390
 33
0.0000000000000000
 14
129.0318436172492
 24
453.4459216823390
 34
0.0000000000000000
 50
90.00000000000000
100
AcDbRotatedDimension
1001
ACAD
1000
DSTYLE
1002
{
1070
   173
1070
     1
1070
     6
1000
_OPEN
1070
     7
1000
_OPEN
1070
    41
1040
4.000000
1002
}
  0
LINE
  5
1B1
100
AcDbEntity
  8
MAIN0
  6
CONTINUOUS
 62
3
100
AcDbLine
 10
532.1610277102474
 20
125.9453800233914
 30
0.0000000000000000
 11
645.0377483783121
 21
125.9453800234540
 31
0.0000000000000000
  0
MTEXT
  5
1B2
100
AcDbEntity
  8
MAIN0
  6
CONTINUOUS
 62
3
100
AcDbMText
 10
537.4496473380867
 20
135.0835010178948
 30
0.0000000000000000
 40
6.199999809265137
 41
0.0000000000000000
 71
     1
 72
     1
  1
{\H0.94x;{ソフトジョー　ＳＯＦＴ　ＪＡＷ}}
 11
1.000000000000000
 21
0.0000000000000000
 31
0.0000000000000000
  7
KNJYOKO
  0
LINE
  5
1B3
100
AcDbEntity
  8
MAIN0
  6
CONTINUOUS
 62
3
100
AcDbLine
 10
532.1610277102474
 20
124.4453800233914
 30
0.0000000000000000
 11
645.0377483783130
 21
124.4453800234540
 31
0.0000000000000000
  0
LINE
  5
1B4
100
AcDbEntity
  8
MAIN0
  6
CENTER
 62
3
100
AcDbLine
 10
356.7183982646317
 20
300.9457345419762
 30
0.0000000000000000
 11
324.5522444679425
 21
282.3745969886627
 31
0.0000000000000000
  0
LINE
  5
1B5
100
AcDbEntity
  8
MAIN0
  6
CENTER
 62
3
100
AcDbLine
 10
429.0318436172492
 20
342.6959216823388
 30
0.0000000000000000
 11
532.9857909678119
 21
282.6780821961673
 31
0.0000000000000000
  0
LINE
  5
1B6
100
AcDbEntity
  8
MAIN0
  6
HIDDEN
 62
3
100
AcDbLine
 10
149.0318436172492
 20
291.1959216823390
 30
0.0000000000000000
 11
149.0318436172492
 21
394.1959216823390
 31
0.0000000000000000
  0
LINE
  5
1B7
100
AcDbEntity
  8
MAIN0
  6
HIDDEN
 62
3
100
AcDbLine
 10
135.0318436172492
 20
394.1959216823390
 30
0.0000000000000000
 11
149.0318436172492
 21
394.1959216823390
 31
0.0000000000000000
  0
LINE
  5
1B8
100
AcDbEntity
  8
MAIN0
  6
HIDDEN
 62
3
100
AcDbLine
 10
135.0318436172492
 20
291.1959216823390
 30
0.0000000000000000
 11
149.0318436172492
 21
291.1959216823390
 31
0.0000000000000000
  0
DIMENSION
  5
1C1
100
AcDbEntity
  8
MAIN0
  6
CONTINUOUS
 62
3
100
AcDbDimension
  2
*D17
 10
94.49946555855996
 20
394.1959216823390
 30
0.0000000000000000
 11
93.99946555855996
 21
342.6959216823390
 31
0.0000000000000000
 70
32
  1
\A1;\U+2205103
  3
MAIN001
100
AcDbAlignedDimension
 13
135.0318436172492
 23
291.1959216823390
 33
0.0000000000000000
 14
135.0318436172492
 24
394.1959216823390
 34
0.0000000000000000
 50
90.00000000000000
100
AcDbRotatedDimension
1001
ACAD
1000
DSTYLE
1002
{
1070
   173
1070
     1
1070
     6
1000
_OPEN
1070
     7
1000
_OPEN
1070
    41
1040
4.000000
1002
}
  0
DIMENSION
  5
1CA
100
AcDbEntity
  8
MAIN0
  6
CONTINUOUS
 62
3
100
AcDbDimension
  2
*D18
 10
135.0318436172492
 20
406.2259216823391
 30
0.0000000000000000
 11
120.4884055634285
 21
407.2259216823391
 31
0.0000000000000000
 70
160
  3
MAIN001
100
AcDbAlignedDimension
 13
129.0318436172492
 23
228.6959216823390
 33
0.0000000000000000
 14
135.0318436172492
 24
247.6959216823390
 34
0.0000000000000000
100
AcDbRotatedDimension
1001
ACAD
1000
DSTYLE
1002
{
1070
   173
1070
     1
1070
     6
1000
_OPEN
1070
     7
1000
_OPEN
1070
    41
1040
4.000000
1070
   287
1070
     0
1002
}
  0
CIRCLE
  5
1CB
100
AcDbEntity
  8
MAIN0
  6
HIDDEN
 62
3
100
AcDbCircle
 10
412.7818436165106
 20
445.4185457722268
 30
0.0000000000000000
 40
4.000000000000000
  0
CIRCLE
  5
1CC
100
AcDbEntity
  8
MAIN0
  6
HIDDEN
 62
3
100
AcDbCircle
 10
412.7818436165106
 20
445.4185457722268
 30
0.0000000000000000
 40
3.400000000000000
  0
ARC
  5
1CD
100
AcDbEntity
  8
MAIN0
  6
CENTER
 62
3
100
AcDbCircle
 10
429.0318436165106
 20
342.6959216819126
 30
0.0000000000000000
 40
104.0000000000000
100
AcDbArc
 50
94.99201459152539
 51
102.8560238172958
  0
LINE
  5
1CE
100
AcDbEntity
  8
MAIN0
  6
CENTER
 62
3
100
AcDbLine
 10
412.7818436165106
 20
454.2630051569731
 30
0.0000000000000000
 11
412.7818436165106
 21
438.5067378751179
 31
0.0000000000000000
  0
LINE
  5
1CF
100
AcDbEntity
  8
MAIN0
  6
HIDDEN
 62
3
100
AcDbLine
 10
446.7818436172492
 20
436.5318822731488
 30
0.0000000000000000
 11
446.7818436172492
 21
457.3298499060547
 31
0.0000000000000000
  0
LINE
  5
1D0
100
AcDbEntity
  8
MAIN0
  6
HIDDEN
 62
3
100
AcDbLine
 10
411.2818436172492
 20
436.5318822731488
 30
0.0000000000000000
 11
411.2818436172492
 21
457.3298499060548
 31
0.0000000000000000
  0
CIRCLE
  5
1D1
100
AcDbEntity
  8
MAIN0
  6
HIDDEN
 62
3
100
AcDbCircle
 10
429.0318436172491
 20
342.6959216823390
 30
0.0000000000000000
 40
95.50000000000000
  0
LINE
  5
1D2
100
AcDbEntity
  8
MAIN0
  6
HIDDEN
 62
3
100
AcDbLine
 10
338.8925179570924
 20
311.1498923041080
 30
0.0000000000000000
 11
320.8809496399093
 21
300.7509084876550
 31
0.0000000000000000
  0
ARC
  5
1D3
100
AcDbEntity
  8
MAIN0
  6
CENTER
 62
3
100
AcDbCircle
 10
429.0318436179877
 20
342.6959216819126
 30
0.0000000000000000
 40
104.0000000000000
100
AcDbArc
 50
214.9920145915254
 51
222.8560238172958
  0
CIRCLE
  5
1D4
100
AcDbEntity
  8
MAIN0
  6
HIDDEN
 62
3
100
AcDbCircle
 10
348.1964416123763
 20
277.2616968252584
 30
0.0000000000000000
 40
4.000000000000000
  0
CIRCLE
  5
1D5
100
AcDbEntity
  8
MAIN0
  6
HIDDEN
 62
3
100
AcDbCircle
 10
348.1964416123763
 20
277.2616968252584
 30
0.0000000000000000
 40
3.400000000000000
  0
LINE
  5
1D6
100
AcDbEntity
  8
MAIN0
  6
CENTER
 62
3
100
AcDbLine
 10
340.5369151024462
 20
272.8394671328853
 30
0.0000000000000000
 11
354.1822428373504
 21
280.7176007738129
 31
0.0000000000000000
  0
LINE
  5
1D7
100
AcDbEntity
  8
MAIN0
  6
HIDDEN
 62
3
100
AcDbLine
 10
356.6425179570924
 20
280.4059904697604
 30
0.0000000000000000
 11
338.6309496399093
 21
270.0070066533074
 31
0.0000000000000000
  0
LINE
  5
1D8
100
AcDbEntity
  8
MAIN0
  6
HIDDEN
 62
3
100
AcDbLine
 10
501.4211692774057
 20
280.4059904697603
 30
0.0000000000000000
 11
519.4327375945888
 21
270.0070066533073
 31
0.0000000000000000
  0
ARC
  5
1D9
100
AcDbEntity
  8
MAIN0
  6
CENTER
 62
3
100
AcDbCircle
 10
429.0318436172491
 20
342.6959216831918
 30
0.0000000000000000
 40
104.0000000000000
100
AcDbArc
 50
334.9920145915254
 51
342.8560238172958
  0
CIRCLE
  5
1DA
100
AcDbEntity
  8
MAIN0
  6
HIDDEN
 62
3
100
AcDbCircle
 10
526.1172456228605
 20
305.4075224495318
 30
0.0000000000000000
 40
4.000000000000000
  0
CIRCLE
  5
1DB
100
AcDbEntity
  8
MAIN0
  6
HIDDEN
 62
3
100
AcDbCircle
 10
526.1172456228605
 20
305.4075224495318
 30
0.0000000000000000
 40
3.400000000000000
  0
LINE
  5
1DC
100
AcDbEntity
  8
MAIN0
  6
CENTER
 62
3
100
AcDbLine
 10
533.7767721327905
 20
300.9852927571586
 30
0.0000000000000000
 11
520.1314443978863
 21
308.8634263980862
 31
0.0000000000000000
  0
LINE
  5
1DD
100
AcDbEntity
  8
MAIN0
  6
HIDDEN
 62
3
100
AcDbLine
 10
519.1711692774059
 20
311.1498923041078
 30
0.0000000000000000
 11
537.1827375945888
 21
300.7509084876548
 31
0.0000000000000000
  0
MTEXT
  5
1DE
100
AcDbEntity
  8
MAIN0
  6
CONTINUOUS
 62
3
100
AcDbMText
 10
279.8939818873639
 20
88.44001545763928
 30
0.0000000000000000
 40
6.199999809265137
 41
0.0000000000000000
 71
     1
 72
     1
  1
{\H0.93x;{慣性モーメント}}
 11
1.000000000000000
 21
0.0000000000000000
 31
0.0000000000000000
  7
KNJYOKO
  0
MTEXT
  5
1DF
100
AcDbEntity
  8
MAIN0
  6
CONTINUOUS
 62
3
100
AcDbMText
 10
279.8939818873611
 20
78.24001564836095
 30
0.0000000000000000
 40
5.000000000000000
 41
0.0000000000000000
 71
     1
 72
     1
  1
{\H0.63x;{MOMENT OF INERTIA}}
 11
1.000000000000000
 21
0.0000000000000000
 31
0.0000000000000000
  7
STANDARD
  0
MTEXT
  5
1E0
100
AcDbEntity
  8
MAIN0
  6
CONTINUOUS
 62
3
100
AcDbMText
 10
408.5105863388028
 20
76.67202834558276
 30
0.0000000000000000
 40
5.599998474121094
 41
0.0000000000000000
 71
     7
 72
     1
  1
{　ｋｇ・ｍ}
 11
1.000000000000000
 21
0.0000000000000000
 31
0.0000000000000000
  7
KNJYOKO
  0
MTEXT
  5
1E1
100
AcDbEntity
  8
MAIN0
  6
CONTINUOUS
 62
3
100
AcDbMText
 10
428.1105857665982
 20
79.47202758264331
 30
0.0000000000000000
 40
2.799999237060547
 41
0.0000000000000000
 71
     7
 72
     1
  1
{2}
 11
1.000000000000000
 21
0.0000000000000000
 31
0.0000000000000000
  7
STANDARD
  0
LINE
  5
1E2
100
AcDbEntity
  8
MAIN0
  6
HIDDEN
 62
3
100
AcDbLine
 10
129.0318436172492
 20
439.9459216823390
 30
0.0000000000000000
 11
136.9569102590394
 21
439.9459216823390
 31
0.0000000000000000
  0
LINE
  5
1E3
100
AcDbEntity
  8
MAIN0
  6
HIDDEN
 62
3
100
AcDbLine
 10
179.5251072419901
 20
439.9459216823390
 30
0.0000000000000000
 11
200.0318436172492
 21
439.9459216823390
 31
0.0000000000000000
  0
LINE
  5
1E4
100
AcDbEntity
  8
MAIN0
  6
HIDDEN
 62
3
100
AcDbLine
 10
129.0318436172492
 20
453.4459216823390
 30
0.0000000000000000
 11
136.5354251943606
 21
453.4459216823390
 31
0.0000000000000000
  0
LINE
  5
1E5
100
AcDbEntity
  8
MAIN0
  6
HIDDEN
 62
3
100
AcDbLine
 10
178.5632025988956
 20
453.4459216823390
 30
0.0000000000000000
 11
200.0318436172492
 21
453.4459216823390
 31
0.0000000000000000
  0
LINE
  5
1E6
100
AcDbEntity
  8
MAIN0
  6
CENTER
 62
3
100
AcDbLine
 10
147.0193898922042
 20
539.5031005637479
 30
0.0000000000000000
 11
170.4594882060677
 21
539.5031005637663
 31
0.0000000000000000
  0
LINE
  5
1E7
100
AcDbEntity
  8
MAIN0
  6
CONTINUOUS
 62
3
100
AcDbLine
 10
150.7818436172493
 20
540.2383819379904
 30
0.0000000000000000
 11
157.7965622430132
 21
547.2531005637563
 31
0.0000000000000000
  0
LINE
  5
1E8
100
AcDbEntity
  8
MAIN0
  6
CONTINUOUS
 62
3
100
AcDbLine
 10
159.2671249914937
 20
531.7531005637576
 30
0.0000000000000000
 11
166.2818436172492
 21
538.7678191895150
 31
0.0000000000000000
  0
LINE
  5
1E9
100
AcDbEntity
  8
MAIN0
  6
CONTINUOUS
 62
3
100
AcDbLine
 10
150.7818436172491
 20
538.7678191896050
 30
0.0000000000000000
 11
157.7965622431018
 21
531.7531005637566
 31
0.0000000000000000
  0
LINE
  5
1EA
100
AcDbEntity
  8
MAIN0
  6
CONTINUOUS
 62
3
100
AcDbLine
 10
159.2671249915738
 20
547.2531005637575
 30
0.0000000000000000
 11
166.2818436172492
 21
540.2383819380863
 31
0.0000000000000000
  0
LINE
  5
1EB
100
AcDbEntity
  8
MAIN0
  6
CENTER
 62
3
100
AcDbLine
 10
158.5318436172492
 20
528.1093789529805
 30
0.0000000000000000
 11
158.5318436172492
 21
550.9366503350886
 31
0.0000000000000000
  0
LINE
  5
1EC
100
AcDbEntity
  8
MAIN0
  6
CONTINUOUS
 62
3
100
AcDbLine
 10
150.7818436172492
 20
538.7678191896050
 30
0.0000000000000000
 11
150.7818436172492
 21
540.2383819379904
 31
0.0000000000000000
  0
LINE
  5
1ED
100
AcDbEntity
  8
MAIN0
  6
CONTINUOUS
 62
3
100
AcDbLine
 10
166.2818436172492
 20
538.7678191895150
 30
0.0000000000000000
 11
166.2818436172492
 21
540.2383819380863
 31
0.0000000000000000
  0
LINE
  5
1EE
100
AcDbEntity
  8
MAIN0
  6
CONTINUOUS
 62
3
100
AcDbLine
 10
159.2671249915737
 20
547.2531005637575
 30
0.0000000000000000
 11
157.7965622430132
 21
547.2531005637563
 31
0.0000000000000000
  0
LINE
  5
1EF
100
AcDbEntity
  8
MAIN0
  6
CONTINUOUS
 62
3
100
AcDbLine
 10
159.2671249914938
 20
531.7531005637577
 30
0.0000000000000000
 11
157.7965622431018
 21
531.7531005637565
 31
0.0000000000000000
  0
DIMENSION
  5
1F9
100
AcDbEntity
  8
MAIN0
  6
CONTINUOUS
 62
3
100
AcDbDimension
  2
*D19
 10
165.8026037103217
 20
523.7470590965415
 30
0.0000000000000000
 11
182.9087216294253
 21
542.2673905780288
 31
0.0000000000000000
 70
161
  3
MAIN001
100
AcDbAlignedDimension
 13
166.2818436172491
 23
540.2383819380863
 33
0.0000000000000000
 14
157.7965622431018
 24
531.7531005637566
 34
0.0000000000000000
 50
45.00000000001671
1001
ACAD
1000
DSTYLE
1002
{
1070
   173
1070
     1
1070
     6
1000
_OPEN
1070
     7
1000
_OPEN
1070
    41
1040
4.000000
1070
   272
1070
     2
1070
    47
1040
0.150000
1070
    48
1040
-0.050000
1070
    71
1070
     1
1070
   340
1005
ED
1002
}
  0
LEADER
  5
1FA
100
AcDbEntity
  8
MAIN0
  6
CONTINUOUS
 62
3
100
AcDbLeader
  3
MAIN001
 73
     0
 75
     1
 40
6.199999809265137
 41
27.13900082015992
 76
     3
 10
118.2799544093007
 20
452.6959216823390
 30
0.0000000000000000
 10
98.29518784828895
 20
494.5494426020899
 30
0.0000000000000000
 10
94.44218795986885
 20
494.5494426020899
 30
0.0000000000000000
340
1FB
213
0.0000000000000000
223
-1.000000000000000
233
0.0000000000000000
1001
ACAD
1000
DSTYLE
1002
{
1070
   147
1040
0.0
1070
    77
1070
     1
1070
   173
1070
     1
1070
     6
1000
_OPEN
1070
     7
1000
_OPEN
1002
}
  0
MTEXT
  5
1FB
102
{ACAD_REACTORS
330
1FA
102
}
100
AcDbEntity
  8
MAIN0
  6
CONTINUOUS
 62
3
100
AcDbMText
 10
67.30318713970893
 20
501.7494424113550
 30
0.0000000000000000
 40
6.199999809265137
 41
0.0000000000000000
 71
     1
 72
     1
  1
{\H0.92x;{3-M12}}
 11
1.000000000000000
 21
0.0000000000000000
 31
0.0000000000000000
  7
STANDARD
  0
DIMENSION
  5
204
100
AcDbEntity
  8
MAIN0
  6
CONTINUOUS
 62
3
100
AcDbDimension
  2
*D20
 10
110.0318436172492
 20
494.5494426020899
 30
0.0000000000000000
 11
119.5318436172492
 21
495.0494426020899
 31
0.0000000000000000
 70
32
  3
MAIN001
100
AcDbAlignedDimension
 13
129.0318436172492
 23
456.6959216823390
 33
0.0000000000000000
 14
110.0318436172492
 24
452.6959216823390
 34
0.0000000000000000
100
AcDbRotatedDimension
1001
ACAD
1000
DSTYLE
1002
{
1070
   173
1070
     1
1070
     6
1000
_OPEN
1070
     7
1000
_OPEN
1070
    41
1040
4.000000
1002
}
  0
SPLINE
  5
205
100
AcDbEntity
  8
MAIN0
  6
CONTINUOUS
 62
3
100
AcDbSpline
210
0.0000000000000000
220
0.0000000000000000
230
1.000000000000000
 70
     8
 71
     3
 72
    21
 73
    17
 74
     0
 42
1.000000000000000e-007
 43
1.000000000000000e-007
 12
0.2187390993373697
 22
-0.9846972150196507
 32
0.0000000000000000
 13
0.3547068483147484
 23
0.9598366878945228
 33
0.0000000000000000
 40
0.0000000000000000
 40
0.0000000000000000
 40
0.0000000000000000
 40
0.0000000000000000
 40
2.652887634766653
 40
6.035912882738848
 40
11.56827001676008
 40
17.26095833388715
 40
24.59826126958010
 40
33.99274360905000
 40
43.77553397400929
 40
52.59003151399764
 40
63.42831816167808
 40
69.15572119209666
 40
75.89847414424898
 40
82.67522715478322
 40
87.85237208012696
 40
94.93457985602154
 40
94.93457985602154
 40
94.93457985602154
 40
94.93457985602154
 10
136.3044827077676
 20
458.6959216805345
 30
0.0000000000000000
 10
136.4979127917250
 20
457.8251579919629
 30
0.0000000000000000
 10
136.9380095076079
 20
455.8439757900516
 30
0.0000000000000000
 10
136.0527275871679
 20
451.9542460656779
 30
0.0000000000000000
 10
138.5297920196425
 20
447.2584100378307
 30
0.0000000000000000
 10
135.6817328483821
 20
441.0314469981757
 30
0.0000000000000000
 10
139.7801279708470
 20
434.0497292097660
 30
0.0000000000000000
 10
145.1407718352496
 20
426.8578387841330
 30
0.0000000000000000
 10
154.1954772244620
 20
423.8743487650698
 30
0.0000000000000000
 10
164.6986176632332
 20
422.2172079830134
 30
0.0000000000000000
 10
170.6211106053143
 20
429.5401193918716
 30
0.0000000000000000
 10
177.0954894649818
 20
433.7105668234411
 30
0.0000000000000000
 10
180.3427808576408
 20
439.9177397789113
 30
0.0000000000000000
 10
178.9831193568808
 20
446.1650981903401
 30
0.0000000000000000
 10
177.8799643596207
 20
452.5076752332354
 30
0.0000000000000000
 10
179.3294564792992
 20
456.4300007307311
 30
0.0000000000000000
 10
180.1668256790651
 20
458.6959216822629
 30
0.0000000000000000
  0
MTEXT
  5
206
100
AcDbEntity
  8
MAIN0
  6
CONTINUOUS
 62
3
100
AcDbMText
 10
482.4638622520882
 20
292.1363896983530
 30
0.0000000000000000
 40
4.000000000000000
 41
0.0000000000000000
 71
     1
 72
     1
  1
{\H0.94x;{ＪＮ０９Ｔ１０２}}
 11
0.5000000000000949
 21
0.8660254037843839
 31
0.0000000000000000
  7
KNJYOKO
  0
MTEXT
  5
207
100
AcDbEntity
  8
MAIN0
  6
CONTINUOUS
 62
3
100
AcDbMText
 10
487.0457700873934
 20
288.5642757649934
 30
0.0000000000000000
 40
4.000000000000000
 41
0.0000000000000000
 71
     1
 72
     1
  1
{\H0.94x;{ＫＩＴＡＧＡＷＡ}}
 11
0.5000000000000949
 21
0.8660254037843839
 31
0.0000000000000000
  7
KNJYOKO
  0
LINE
  5
208
100
AcDbEntity
  8
MAIN0
  6
CONTINUOUS
 62
3
100
AcDbLine
 10
510.6755941569265
 20
317.1070457376088
 30
0.0000000000000000
 11
491.9689953727792
 21
284.7062662067132
 31
0.0000000000000000
  0
MTEXT
  5
209
100
AcDbEntity
  8
MAIN0
  6
CONTINUOUS
 62
3
100
AcDbMText
 10
495.6616361884875
 20
287.0967120887119
 30
0.0000000000000000
 40
2.994604349136353
 41
0.0000000000000000
 71
     1
 72
     1
  1
{\H0.90x;{MAX.2900/min\P}
 11
0.5000000000000009
 21
0.8660254037844382
 31
0.0000000000000000
  7
STANDARD
  0
MTEXT
  5
20A
100
AcDbEntity
  8
MAIN0
  6
CONTINUOUS
 62
3
100
AcDbMText
 10
505.2653795617407
 20
290.8362790769466
 30
0.0000000000000000
 40
3.099999904632568
 41
0.0000000000000000
 71
     1
 72
     1
  1
{\H0.92x;{JAPAN}}
 11
0.5000000000000009
 21
0.8660254037844382
 31
0.0000000000000000
  7
STANDARD
  0
LINE
  5
20B
100
AcDbEntity
  8
MAIN0
  6
PHANTOM
 62
3
100
AcDbLine
 10
183.2318436172492
 20
328.9459216823390
 30
0.0000000000000000
 11
183.2318436172492
 21
356.4459216823390
 31
0.0000000000000000
  0
LINE
  5
20C
100
AcDbEntity
  8
MAIN0
  6
PHANTOM
 62
3
100
AcDbLine
 10
202.5318436172492
 20
356.1959216823390
 30
0.0000000000000000
 11
218.0318436172492
 21
356.1959216823390
 31
0.0000000000000000
  0
LINE
  5
20D
100
AcDbEntity
  8
MAIN0
  6
PHANTOM
 62
3
100
AcDbLine
 10
193.0318436172492
 20
361.9459216823390
 30
0.0000000000000000
 11
202.5318436172492
 21
361.9459216823390
 31
0.0000000000000000
  0
LINE
  5
20E
100
AcDbEntity
  8
MAIN0
  6
PHANTOM
 62
3
100
AcDbLine
 10
183.2318436172492
 20
356.4459216823390
 30
0.0000000000000000
 11
193.0318436172492
 21
356.4459216823390
 31
0.0000000000000000
  0
LINE
  5
20F
100
AcDbEntity
  8
MAIN0
  6
PHANTOM
 62
3
100
AcDbLine
 10
183.2318436172492
 20
328.9459216823390
 30
0.0000000000000000
 11
193.0318436172492
 21
328.9459216823390
 31
0.0000000000000000
  0
LINE
  5
210
100
AcDbEntity
  8
MAIN0
  6
PHANTOM
 62
3
100
AcDbLine
 10
193.0318436172492
 20
323.4459216823390
 30
0.0000000000000000
 11
202.5318436172492
 21
323.4459216823390
 31
0.0000000000000000
  0
LINE
  5
211
100
AcDbEntity
  8
MAIN0
  6
PHANTOM
 62
3
100
AcDbLine
 10
202.5318436172492
 20
329.1959216823390
 30
0.0000000000000000
 11
218.0318436172492
 21
329.1959216823390
 31
0.0000000000000000
  0
LINE
  5
212
100
AcDbEntity
  8
MAIN0
  6
PHANTOM
 62
3
100
AcDbLine
 10
263.0318436172492
 20
326.6959216823390
 30
0.0000000000000000
 11
263.0318436172492
 21
358.6959216823390
 31
0.0000000000000000
  0
LINE
  5
213
100
AcDbEntity
  8
MAIN0
  6
PHANTOM
 62
3
100
AcDbLine
 10
215.0318436172492
 20
358.6959216823390
 30
0.0000000000000000
 11
263.0318436172492
 21
358.6959216823390
 31
0.0000000000000000
  0
LINE
  5
214
100
AcDbEntity
  8
MAIN0
  6
PHANTOM
 62
3
100
AcDbLine
 10
215.0318436172492
 20
326.6959216823390
 30
0.0000000000000000
 11
263.0318436172492
 21
326.6959216823390
 31
0.0000000000000000
  0
LINE
  5
215
100
AcDbEntity
  8
MAIN0
  6
PHANTOM
 62
3
100
AcDbLine
 10
221.5318436172492
 20
336.3459216823391
 30
0.0000000000000000
 11
221.5318436172492
 21
349.0459216823390
 31
0.0000000000000000
  0
LINE
  5
216
100
AcDbEntity
  8
MAIN0
  6
PHANTOM
 62
3
100
AcDbLine
 10
218.0318436172492
 20
349.0459216823390
 30
0.0000000000000000
 11
221.5318436172492
 21
349.0459216823390
 31
0.0000000000000000
  0
LINE
  5
217
100
AcDbEntity
  8
MAIN0
  6
PHANTOM
 62
3
100
AcDbLine
 10
218.0318436172492
 20
336.3459216823390
 30
0.0000000000000000
 11
221.5318436172492
 21
336.3459216823390
 31
0.0000000000000000
  0
LINE
  5
218
100
AcDbEntity
  8
MAIN0
  6
PHANTOM
 62
3
100
AcDbLine
 10
218.0318436172492
 20
326.6959216823390
 30
0.0000000000000000
 11
218.0318436172492
 21
336.3459216823391
 31
0.0000000000000000
  0
LINE
  5
219
100
AcDbEntity
  8
MAIN0
  6
PHANTOM
 62
3
100
AcDbLine
 10
218.0318436172492
 20
349.0459216823390
 30
0.0000000000000000
 11
218.0318436172492
 21
358.6959216823390
 31
0.0000000000000000
  0
LINE
  5
21A
100
AcDbEntity
  8
MAIN0
  6
PHANTOM
 62
3
100
AcDbLine
 10
215.0318436172492
 20
326.6959216823390
 30
0.0000000000000000
 11
215.0318436172492
 21
329.1959216823390
 31
0.0000000000000000
  0
LINE
  5
21B
100
AcDbEntity
  8
MAIN0
  6
PHANTOM
 62
3
100
AcDbLine
 10
215.0318436172492
 20
356.1959216823390
 30
0.0000000000000000
 11
215.0318436172492
 21
358.6959216823390
 31
0.0000000000000000
  0
LINE
  5
21C
100
AcDbEntity
  8
MAIN0
  6
PHANTOM
 62
3
100
AcDbLine
 10
183.5318436172492
 20
329.1959216823390
 30
0.0000000000000000
 11
183.5318436172492
 21
356.1959216823390
 31
0.0000000000000000
  0
LINE
  5
21D
100
AcDbEntity
  8
MAIN0
  6
PHANTOM
 62
3
100
AcDbLine
 10
188.5318436172492
 20
329.1959216823390
 30
0.0000000000000000
 11
188.5318436172492
 21
356.1959216823390
 31
0.0000000000000000
  0
LINE
  5
21E
100
AcDbEntity
  8
MAIN0
  6
PHANTOM
 62
3
100
AcDbLine
 10
193.0318436172492
 20
356.1959216823390
 30
0.0000000000000000
 11
183.5318436172492
 21
356.1959216823390
 31
0.0000000000000000
  0
LINE
  5
21F
100
AcDbEntity
  8
MAIN0
  6
PHANTOM
 62
3
100
AcDbLine
 10
193.0318436172492
 20
329.1959216823390
 30
0.0000000000000000
 11
183.5318436172492
 21
329.1959216823390
 31
0.0000000000000000
  0
LINE
  5
220
100
AcDbEntity
  8
MAIN0
  6
PHANTOM
 62
3
100
AcDbLine
 10
193.0318436172492
 20
323.4459216823390
 30
0.0000000000000000
 11
193.0318436172492
 21
329.1959216823390
 31
0.0000000000000000
  0
LINE
  5
221
100
AcDbEntity
  8
MAIN0
  6
PHANTOM
 62
3
100
AcDbLine
 10
193.0318436172492
 20
356.1959216823390
 30
0.0000000000000000
 11
193.0318436172492
 21
361.9459216823390
 31
0.0000000000000000
  0
LINE
  5
222
100
AcDbEntity
  8
MAIN0
  6
PHANTOM
 62
3
100
AcDbLine
 10
202.5318436172492
 20
323.4459216823390
 30
0.0000000000000000
 11
202.5318436172492
 21
329.1959216823390
 31
0.0000000000000000
  0
LINE
  5
223
100
AcDbEntity
  8
MAIN0
  6
PHANTOM
 62
3
100
AcDbLine
 10
202.5318436172492
 20
356.1959216823390
 30
0.0000000000000000
 11
202.5318436172492
 21
361.9459216823390
 31
0.0000000000000000
  0
LINE
  5
224
100
AcDbEntity
  8
MAIN0
  6
PHANTOM
 62
3
100
AcDbLine
 10
193.0318436172492
 20
323.6959216823390
 30
0.0000000000000000
 11
202.5318436172492
 21
323.6959216823390
 31
0.0000000000000000
  0
LINE
  5
225
100
AcDbEntity
  8
MAIN0
  6
PHANTOM
 62
3
100
AcDbLine
 10
193.0318436172492
 20
361.6959216823390
 30
0.0000000000000000
 11
202.5318436172492
 21
361.6959216823390
 31
0.0000000000000000
  0
CIRCLE
  5
226
100
AcDbEntity
  8
MAIN0
  6
CONTINUOUS
 62
3
100
AcDbCircle
 10
429.0318436172492
 20
290.1859216823390
 30
0.0000000000000000
 40
9.000000000000000
  0
LINE
  5
227
100
AcDbEntity
  8
MAIN0
  6
CONTINUOUS
 62
3
100
AcDbLine
 10
429.0318436172492
 20
295.9594243742353
 30
0.0000000000000000
 11
424.0318436172492
 21
293.0726730282871
 31
0.0000000000000000
  0
LINE
  5
228
100
AcDbEntity
  8
MAIN0
  6
CONTINUOUS
 62
3
100
AcDbLine
 10
424.0318436172492
 20
293.0726730282871
 30
0.0000000000000000
 11
424.0318436172492
 21
287.2991703363909
 31
0.0000000000000000
  0
LINE
  5
229
100
AcDbEntity
  8
MAIN0
  6
CONTINUOUS
 62
3
100
AcDbLine
 10
424.0318436172492
 20
287.2991703363909
 30
0.0000000000000000
 11
429.0318436172492
 21
284.4124189904428
 31
0.0000000000000000
  0
LINE
  5
22A
100
AcDbEntity
  8
MAIN0
  6
CONTINUOUS
 62
3
100
AcDbLine
 10
429.0318436172492
 20
284.4124189904428
 30
0.0000000000000000
 11
434.0318436172492
 21
287.2991703363909
 31
0.0000000000000000
  0
LINE
  5
22B
100
AcDbEntity
  8
MAIN0
  6
CONTINUOUS
 62
3
100
AcDbLine
 10
434.0318436172492
 20
287.2991703363909
 30
0.0000000000000000
 11
434.0318436172492
 21
293.0726730282871
 31
0.0000000000000000
  0
LINE
  5
22C
100
AcDbEntity
  8
MAIN0
  6
CONTINUOUS
 62
3
100
AcDbLine
 10
434.0318436172492
 20
293.0726730282871
 30
0.0000000000000000
 11
429.0318436172492
 21
295.9594243742353
 31
0.0000000000000000
  0
CIRCLE
  5
22D
100
AcDbEntity
  8
MAIN0
  6
CONTINUOUS
 62
3
100
AcDbCircle
 10
429.0318436172492
 20
236.2059216823390
 30
0.0000000000000000
 40
9.000000000000000
  0
LINE
  5
22E
100
AcDbEntity
  8
MAIN0
  6
CONTINUOUS
 62
3
100
AcDbLine
 10
429.0318436172492
 20
241.9794243742353
 30
0.0000000000000000
 11
424.0318436172492
 21
239.0926730282872
 31
0.0000000000000000
  0
LINE
  5
22F
100
AcDbEntity
  8
MAIN0
  6
CONTINUOUS
 62
3
100
AcDbLine
 10
424.0318436172492
 20
239.0926730282872
 30
0.0000000000000000
 11
424.0318436172492
 21
233.3191703363909
 31
0.0000000000000000
  0
LINE
  5
230
100
AcDbEntity
  8
MAIN0
  6
CONTINUOUS
 62
3
100
AcDbLine
 10
424.0318436172492
 20
233.3191703363909
 30
0.0000000000000000
 11
429.0318436172492
 21
230.4324189904428
 31
0.0000000000000000
  0
LINE
  5
231
100
AcDbEntity
  8
MAIN0
  6
CONTINUOUS
 62
3
100
AcDbLine
 10
429.0318436172492
 20
230.4324189904428
 30
0.0000000000000000
 11
434.0318436172492
 21
233.3191703363909
 31
0.0000000000000000
  0
LINE
  5
232
100
AcDbEntity
  8
MAIN0
  6
CONTINUOUS
 62
3
100
AcDbLine
 10
434.0318436172492
 20
233.3191703363909
 30
0.0000000000000000
 11
434.0318436172492
 21
239.0926730282872
 31
0.0000000000000000
  0
LINE
  5
233
100
AcDbEntity
  8
MAIN0
  6
CONTINUOUS
 62
3
100
AcDbLine
 10
434.0318436172492
 20
239.0926730282872
 30
0.0000000000000000
 11
429.0318436172492
 21
241.9794243742353
 31
0.0000000000000000
  0
LINE
  5
234
100
AcDbEntity
  8
MAIN0
  6
HIDDEN
 62
3
100
AcDbLine
 10
225.5118436172492
 20
227.2059216823390
 30
0.0000000000000000
 11
236.3118436172492
 21
227.2059216823390
 31
0.0000000000000000
  0
LINE
  5
235
100
AcDbEntity
  8
MAIN0
  6
HIDDEN
 62
3
100
AcDbLine
 10
236.3118436172492
 20
227.2059216823390
 30
0.0000000000000000
 11
237.5118436172492
 21
229.2843826514217
 31
0.0000000000000000
  0
LINE
  5
236
100
AcDbEntity
  8
MAIN0
  6
HIDDEN
 62
3
100
AcDbLine
 10
237.5118436172492
 20
229.2843826514217
 30
0.0000000000000000
 11
237.5118436172492
 21
243.1274607132564
 31
0.0000000000000000
  0
LINE
  5
237
100
AcDbEntity
  8
MAIN0
  6
HIDDEN
 62
3
100
AcDbLine
 10
237.5118436172492
 20
243.1274607132563
 30
0.0000000000000000
 11
236.3118436172492
 21
245.2059216823390
 31
0.0000000000000000
  0
LINE
  5
238
100
AcDbEntity
  8
MAIN0
  6
HIDDEN
 62
3
100
AcDbLine
 10
236.3118436172492
 20
245.2059216823390
 30
0.0000000000000000
 11
225.5118436172492
 21
245.2059216823390
 31
0.0000000000000000
  0
LINE
  5
239
100
AcDbEntity
  8
MAIN0
  6
HIDDEN
 62
3
100
AcDbLine
 10
236.3118436172492
 20
227.2059216823390
 30
0.0000000000000000
 11
236.3118436172492
 21
245.2059216823390
 31
0.0000000000000000
  0
LINE
  5
23A
100
AcDbEntity
  8
MAIN0
  6
HIDDEN
 62
3
100
AcDbLine
 10
225.5118436172492
 20
230.2059216823390
 30
0.0000000000000000
 11
213.0318436172492
 21
230.2059216823390
 31
0.0000000000000000
  0
LINE
  5
23B
100
AcDbEntity
  8
MAIN0
  6
HIDDEN
 62
3
100
AcDbLine
 10
213.0318436172492
 20
242.2059216823390
 30
0.0000000000000000
 11
225.5118436172492
 21
242.2059216823390
 31
0.0000000000000000
  0
LINE
  5
23C
100
AcDbEntity
  8
MAIN0
  6
HIDDEN
 62
3
100
AcDbLine
 10
225.5118436172492
 20
231.1531371823390
 30
0.0000000000000000
 11
213.0318436172492
 21
231.1531371823390
 31
0.0000000000000000
  0
LINE
  5
23D
100
AcDbEntity
  8
MAIN0
  6
HIDDEN
 62
3
100
AcDbLine
 10
225.5118436172492
 20
241.2587061823390
 30
0.0000000000000000
 11
213.0318436172492
 21
241.2587061823390
 31
0.0000000000000000
  0
LINE
  5
23E
100
AcDbEntity
  8
MAIN0
  6
HIDDEN
 62
3
100
AcDbLine
 10
228.5318436172492
 20
281.1859216823390
 30
0.0000000000000000
 11
239.3318436172492
 21
281.1859216823390
 31
0.0000000000000000
  0
LINE
  5
23F
100
AcDbEntity
  8
MAIN0
  6
HIDDEN
 62
3
100
AcDbLine
 10
239.3318436172492
 20
281.1859216823390
 30
0.0000000000000000
 11
240.5318436172492
 21
283.2643826514217
 31
0.0000000000000000
  0
LINE
  5
240
100
AcDbEntity
  8
MAIN0
  6
HIDDEN
 62
3
100
AcDbLine
 10
240.5318436172492
 20
283.2643826514217
 30
0.0000000000000000
 11
240.5318436172492
 21
297.1074607132563
 31
0.0000000000000000
  0
LINE
  5
241
100
AcDbEntity
  8
MAIN0
  6
HIDDEN
 62
3
100
AcDbLine
 10
240.5318436172492
 20
297.1074607132563
 30
0.0000000000000000
 11
239.3318436172492
 21
299.1859216823390
 31
0.0000000000000000
  0
LINE
  5
242
100
AcDbEntity
  8
MAIN0
  6
HIDDEN
 62
3
100
AcDbLine
 10
239.3318436172492
 20
299.1859216823390
 30
0.0000000000000000
 11
228.5318436172492
 21
299.1859216823390
 31
0.0000000000000000
  0
LINE
  5
243
100
AcDbEntity
  8
MAIN0
  6
HIDDEN
 62
3
100
AcDbLine
 10
239.3318436172492
 20
281.1859216823390
 30
0.0000000000000000
 11
239.3318436172492
 21
299.1859216823390
 31
0.0000000000000000
  0
LINE
  5
244
100
AcDbEntity
  8
MAIN0
  6
HIDDEN
 62
3
100
AcDbLine
 10
228.5318436172492
 20
284.1859216823390
 30
0.0000000000000000
 11
213.0318436172492
 21
284.1859216823390
 31
0.0000000000000000
  0
LINE
  5
245
100
AcDbEntity
  8
MAIN0
  6
HIDDEN
 62
3
100
AcDbLine
 10
213.0318436172492
 20
296.1859216823390
 30
0.0000000000000000
 11
228.5318436172492
 21
296.1859216823390
 31
0.0000000000000000
  0
LINE
  5
246
100
AcDbEntity
  8
MAIN0
  6
HIDDEN
 62
3
100
AcDbLine
 10
228.5318436172492
 20
285.1331371823390
 30
0.0000000000000000
 11
213.0318436172492
 21
285.1331371823390
 31
0.0000000000000000
  0
LINE
  5
247
100
AcDbEntity
  8
MAIN0
  6
HIDDEN
 62
3
100
AcDbLine
 10
228.5318436172492
 20
295.2387061823390
 30
0.0000000000000000
 11
213.0318436172492
 21
295.2387061823390
 31
0.0000000000000000
  0
CIRCLE
  5
248
100
AcDbEntity
  8
MAIN0
  6
CONTINUOUS
 62
3
100
AcDbCircle
 10
533.0318436172491
 20
342.6959216823390
 30
0.0000000000000000
 40
10.00000000000000
  0
CIRCLE
  5
249
100
AcDbEntity
  8
MAIN0
  6
CONTINUOUS
 62
3
100
AcDbCircle
 10
533.0318436172491
 20
342.6959216823390
 30
0.0000000000000000
 40
9.000000000000000
  0
LINE
  5
24A
100
AcDbEntity
  8
MAIN0
  6
CONTINUOUS
 62
3
100
AcDbLine
 10
527.2583409253529
 20
342.6959216823390
 30
0.0000000000000000
 11
530.1450922713010
 21
337.6959216823390
 31
0.0000000000000000
  0
LINE
  5
24B
100
AcDbEntity
  8
MAIN0
  6
CONTINUOUS
 62
3
100
AcDbLine
 10
530.1450922713010
 20
337.6959216823390
 30
0.0000000000000000
 11
535.9185949631973
 21
337.6959216823390
 31
0.0000000000000000
  0
LINE
  5
24C
100
AcDbEntity
  8
MAIN0
  6
CONTINUOUS
 62
3
100
AcDbLine
 10
535.9185949631973
 20
337.6959216823390
 30
0.0000000000000000
 11
538.8053463091454
 21
342.6959216823390
 31
0.0000000000000000
  0
LINE
  5
24D
100
AcDbEntity
  8
MAIN0
  6
CONTINUOUS
 62
3
100
AcDbLine
 10
538.8053463091454
 20
342.6959216823390
 30
0.0000000000000000
 11
535.9185949631973
 21
347.6959216823390
 31
0.0000000000000000
  0
LINE
  5
24E
100
AcDbEntity
  8
MAIN0
  6
CONTINUOUS
 62
3
100
AcDbLine
 10
535.9185949631973
 20
347.6959216823390
 30
0.0000000000000000
 11
530.1450922713010
 21
347.6959216823390
 31
0.0000000000000000
  0
LINE
  5
24F
100
AcDbEntity
  8
MAIN0
  6
CONTINUOUS
 62
3
100
AcDbLine
 10
530.1450922713010
 20
347.6959216823390
 30
0.0000000000000000
 11
527.2583409253529
 21
342.6959216823390
 31
0.0000000000000000
  0
CIRCLE
  5
250
100
AcDbEntity
  8
MAIN0
  6
CONTINUOUS
 62
3
100
AcDbCircle
 10
377.0318436172491
 20
432.7625636759207
 30
0.0000000000000000
 40
10.00000000000000
  0
CIRCLE
  5
251
100
AcDbEntity
  8
MAIN0
  6
CONTINUOUS
 62
3
100
AcDbCircle
 10
377.0318436172491
 20
432.7625636759207
 30
0.0000000000000000
 40
9.000000000000000
  0
LINE
  5
252
100
AcDbEntity
  8
MAIN0
  6
CONTINUOUS
 62
3
100
AcDbLine
 10
379.9185949631973
 20
427.7625636759207
 30
0.0000000000000000
 11
382.8053463091454
 21
432.7625636759207
 31
0.0000000000000000
  0
LINE
  5
253
100
AcDbEntity
  8
MAIN0
  6
CONTINUOUS
 62
3
100
AcDbLine
 10
382.8053463091454
 20
432.7625636759207
 30
0.0000000000000000
 11
379.9185949631973
 21
437.7625636759207
 31
0.0000000000000000
  0
LINE
  5
254
100
AcDbEntity
  8
MAIN0
  6
CONTINUOUS
 62
3
100
AcDbLine
 10
379.9185949631973
 20
437.7625636759207
 30
0.0000000000000000
 11
374.1450922713011
 21
437.7625636759207
 31
0.0000000000000000
  0
LINE
  5
255
100
AcDbEntity
  8
MAIN0
  6
CONTINUOUS
 62
3
100
AcDbLine
 10
374.1450922713010
 20
437.7625636759207
 30
0.0000000000000000
 11
371.2583409253529
 21
432.7625636759207
 31
0.0000000000000000
  0
LINE
  5
256
100
AcDbEntity
  8
MAIN0
  6
CONTINUOUS
 62
3
100
AcDbLine
 10
371.2583409253529
 20
432.7625636759207
 30
0.0000000000000000
 11
374.1450922713010
 21
427.7625636759207
 31
0.0000000000000000
  0
LINE
  5
257
100
AcDbEntity
  8
MAIN0
  6
CONTINUOUS
 62
3
100
AcDbLine
 10
374.1450922713011
 20
427.7625636759207
 30
0.0000000000000000
 11
379.9185949631973
 21
427.7625636759207
 31
0.0000000000000000
  0
LINE
  5
258
100
AcDbEntity
  8
MAIN0
  6
CENTER
 62
3
100
AcDbLine
 10
369.5966593939579
 20
445.6406805142958
 30
0.0000000000000000
 11
383.9311492968001
 21
420.8126157019901
 31
0.0000000000000000
  0
CIRCLE
  5
259
100
AcDbEntity
  8
MAIN0
  6
CONTINUOUS
 62
3
100
AcDbCircle
 10
377.0318436172491
 20
252.6292796887574
 30
0.0000000000000000
 40
10.00000000000000
  0
CIRCLE
  5
25A
100
AcDbEntity
  8
MAIN0
  6
CONTINUOUS
 62
3
100
AcDbCircle
 10
377.0318436172491
 20
252.6292796887574
 30
0.0000000000000000
 40
9.000000000000000
  0
LINE
  5
25B
100
AcDbEntity
  8
MAIN0
  6
CONTINUOUS
 62
3
100
AcDbLine
 10
379.9185949631973
 20
257.6292796887574
 30
0.0000000000000000
 11
382.8053463091454
 21
252.6292796887574
 31
0.0000000000000000
  0
LINE
  5
25C
100
AcDbEntity
  8
MAIN0
  6
CONTINUOUS
 62
3
100
AcDbLine
 10
382.8053463091454
 20
252.6292796887574
 30
0.0000000000000000
 11
379.9185949631973
 21
247.6292796887574
 31
0.0000000000000000
  0
LINE
  5
25D
100
AcDbEntity
  8
MAIN0
  6
CONTINUOUS
 62
3
100
AcDbLine
 10
379.9185949631973
 20
247.6292796887574
 30
0.0000000000000000
 11
374.1450922713011
 21
247.6292796887574
 31
0.0000000000000000
  0
LINE
  5
25E
100
AcDbEntity
  8
MAIN0
  6
CONTINUOUS
 62
3
100
AcDbLine
 10
374.1450922713010
 20
247.6292796887574
 30
0.0000000000000000
 11
371.2583409253529
 21
252.6292796887574
 31
0.0000000000000000
  0
LINE
  5
25F
100
AcDbEntity
  8
MAIN0
  6
CONTINUOUS
 62
3
100
AcDbLine
 10
371.2583409253529
 20
252.6292796887574
 30
0.0000000000000000
 11
374.1450922713010
 21
257.6292796887574
 31
0.0000000000000000
  0
LINE
  5
260
100
AcDbEntity
  8
MAIN0
  6
CONTINUOUS
 62
3
100
AcDbLine
 10
374.1450922713011
 20
257.6292796887574
 30
0.0000000000000000
 11
379.9185949631973
 21
257.6292796887574
 31
0.0000000000000000
  0
LINE
  5
261
100
AcDbEntity
  8
MAIN0
  6
CENTER
 62
3
100
AcDbLine
 10
369.5966593939579
 20
239.7511628503823
 30
0.0000000000000000
 11
383.9311492968001
 21
264.5792276626880
 31
0.0000000000000000
  0
MTEXT
  5
262
100
AcDbEntity
  8
MAIN0
  6
CONTINUOUS
 62
3
100
AcDbMText
 10
315.5122087087015
 20
70.04216248140614
 30
0.0000000000000000
 40
5.000000000000000
 41
0.0000000000000000
 71
     1
 72
     1
  1
{\H0.63x;{EXTERNAL\PGRIPPING}}
 11
1.000000000000000
 21
0.0000000000000000
 31
0.0000000000000000
  7
STANDARD
  0
MTEXT
  5
263
100
AcDbEntity
  8
MAIN0
  6
CONTINUOUS
 62
3
100
AcDbMText
 10
315.4087231849999
 20
55.86472431695569
 30
0.0000000000000000
 40
5.000000000000000
 41
0.0000000000000000
 71
     1
 72
     1
  1
{\H0.63x;{INTERNALLY\PGRIPPING}}
 11
1.000000000000000
 21
0.0000000000000000
 31
0.0000000000000000
  7
STANDARD
  0
MTEXT
  5
264
100
AcDbEntity
  8
MAIN0
  6
CONTINUOUS
 62
3
100
AcDbMText
 10
337.8922633131838
 20
175.3640293034294
 30
0.0000000000000000
 40
6.199999809265137
 41
0.0000000000000000
 71
     1
 72
     1
  1
{\H0.93x;{SPECIFICATIONS}}
 11
1.000000000000000
 21
0.0000000000000000
 31
0.0000000000000000
  7
STANDARD
  0
MTEXT
  5
265
100
AcDbEntity
  8
MAIN0
  6
CONTINUOUS
 62
3
100
AcDbMText
 10
279.8939818873610
 20
152.9066823150872
 30
0.0000000000000000
 40
5.000000000000000
 41
0.0000000000000000
 71
     1
 72
     1
  1
{\H0.62x;{MAX.PERMISSIBLE HANDLE TORQUE}}
 11
1.000000000000000
 21
0.0000000000000000
 31
0.0000000000000000
  7
STANDARD
  0
MTEXT
  5
266
100
AcDbEntity
  8
MAIN0
  6
CONTINUOUS
 62
3
100
AcDbMText
 10
279.8939818873608
 20
132.9066823150814
 30
0.0000000000000000
 40
5.000000000000000
 41
0.0000000000000000
 71
     1
 72
     1
  1
{\H0.63x;{MAX STATIC GRIPPING FORCE}}
 11
1.000000000000000
 21
0.0000000000000000
 31
0.0000000000000000
  7
STANDARD
  0
MTEXT
  5
267
100
AcDbEntity
  8
MAIN0
  6
CONTINUOUS
 62
3
100
AcDbMText
 10
279.8939818873608
 20
112.2400156484106
 30
0.0000000000000000
 40
5.000000000000000
 41
0.0000000000000000
 71
     1
 72
     1
  1
{\H0.63x;{MAX PREMISSIBLE SPEED}}
 11
1.000000000000000
 21
0.0000000000000000
 31
0.0000000000000000
  7
STANDARD
  0
MTEXT
  5
268
100
AcDbEntity
  8
MAIN0
  6
CONTINUOUS
 62
3
100
AcDbMText
 10
276.2979489945271
 20
58.26946510313729
 30
0.0000000000000000
 40
5.000000000000000
 41
0.0000000000000000
 71
     1
 72
     1
  1
{\H0.54x;{GRIPPING RANGE}}
 11
1.000000000000000
 21
0.0000000000000000
 31
0.0000000000000000
  7
STANDARD
  0
MTEXT
  5
269
100
AcDbEntity
  8
MAIN0
  6
CONTINUOUS
 62
3
100
AcDbMText
 10
312.6986310647597
 20
101.0375920967639
 30
0.0000000000000000
 40
6.200000762939453
 41
0.0000000000000000
 71
     1
 72
     1
  1
{\H0.91x;{MASS}}
 11
1.000000000000000
 21
0.0000000000000000
 31
0.0000000000000000
  7
STANDARD
  0
LINE
  5
26A
100
AcDbEntity
  8
MAIN0
  6
CENTER
 62
3
100
AcDbLine
 10
509.0781246834685
 20
469.2788792639972
 30
0.0000000000000000
 11
808.3671706861740
 21
469.2788792639972
 31
0.0000000000000000
  0
ARC
  5
26B
100
AcDbEntity
  8
MAIN0
  6
CONTINUOUS
 62
3
100
AcDbCircle
 10
797.0798903917575
 20
469.2788792639972
 30
0.0000000000000000
 40
6.000000000000000
100
AcDbArc
 50
270.0000000000000
 51
450.0000000000000
  0
ARC
  5
26C
100
AcDbEntity
  8
MAIN0
  6
CONTINUOUS
 62
3
100
AcDbCircle
 10
519.0798903917578
 20
469.2788792639972
 30
0.0000000000000000
 40
6.000000000000000
100
AcDbArc
 50
90.00000000000000
 51
270.0000000000000
  0
LINE
  5
26D
100
AcDbEntity
  8
MAIN0
  6
CONTINUOUS
 62
3
100
AcDbLine
 10
646.0798903917575
 20
484.2788792639972
 30
0.0000000000000000
 11
670.0798903917575
 21
484.2788792639972
 31
0.0000000000000000
  0
LINE
  5
26E
100
AcDbEntity
  8
MAIN0
  6
CONTINUOUS
 62
3
100
AcDbLine
 10
652.1880649094621
 20
324.2788792639972
 30
0.0000000000000000
 11
663.9717158738675
 21
324.2788792639972
 31
0.0000000000000000
  0
LINE
  5
26F
100
AcDbEntity
  8
MAIN0
  6
CONTINUOUS
 62
3
100
AcDbLine
 10
646.0798903917575
 20
454.2788792639972
 30
0.0000000000000000
 11
670.0798903917575
 21
454.2788792639972
 31
0.0000000000000000
  0
LINE
  5
270
100
AcDbEntity
  8
MAIN0
  6
CONTINUOUS
 62
3
100
AcDbLine
 10
647.0798903917575
 20
365.2788792639972
 30
0.0000000000000000
 11
669.0798903917575
 21
365.2788792639972
 31
0.0000000000000000
  0
ARC
  5
271
100
AcDbEntity
  8
MAIN0
  6
CONTINUOUS
 62
3
100
AcDbCircle
 10
691.0798903917575
 20
469.2788792639972
 30
0.0000000000000000
 40
20.88061301782110
100
AcDbArc
 50
163.3007557660065
 51
196.6992442339936
  0
LINE
  5
272
100
AcDbEntity
  8
MAIN0
  6
CONTINUOUS
 62
3
100
AcDbLine
 10
671.0798903917575
 20
455.2788792639972
 30
0.0000000000000000
 11
671.0798903917575
 21
463.2788792639972
 31
0.0000000000000000
  0
LINE
  5
273
100
AcDbEntity
  8
MAIN0
  6
CONTINUOUS
 62
3
100
AcDbLine
 10
671.0798903917575
 20
475.2788792639972
 30
0.0000000000000000
 11
671.0798903917575
 21
483.2788792639972
 31
0.0000000000000000
  0
ARC
  5
274
100
AcDbEntity
  8
MAIN0
  6
CONTINUOUS
 62
3
100
AcDbCircle
 10
625.0798903917575
 20
469.2788792639972
 30
0.0000000000000000
 40
20.88061301782110
100
AcDbArc
 50
343.3007557660064
 51
376.6992442339936
  0
LINE
  5
275
100
AcDbEntity
  8
MAIN0
  6
CONTINUOUS
 62
3
100
AcDbLine
 10
645.0798903917575
 20
455.2788792639972
 30
0.0000000000000000
 11
645.0798903917575
 21
463.2788792639972
 31
0.0000000000000000
  0
LINE
  5
276
100
AcDbEntity
  8
MAIN0
  6
CONTINUOUS
 62
3
100
AcDbLine
 10
645.0798903917575
 20
475.2788792639972
 30
0.0000000000000000
 11
645.0798903917575
 21
483.2788792639972
 31
0.0000000000000000
  0
LINE
  5
277
100
AcDbEntity
  8
MAIN0
  6
CONTINUOUS
 62
3
100
AcDbLine
 10
519.0798903917578
 20
475.2788792639972
 30
0.0000000000000000
 11
645.0798903917575
 21
475.2788792639972
 31
0.0000000000000000
  0
LINE
  5
278
100
AcDbEntity
  8
MAIN0
  6
CONTINUOUS
 62
3
100
AcDbLine
 10
671.0798903917575
 20
475.2788792639972
 30
0.0000000000000000
 11
797.0798903917575
 21
475.2788792639972
 31
0.0000000000000000
  0
LINE
  5
279
100
AcDbEntity
  8
MAIN0
  6
CONTINUOUS
 62
3
100
AcDbLine
 10
519.0798903917578
 20
463.2788792639972
 30
0.0000000000000000
 11
645.0798903917575
 21
463.2788792639972
 31
0.0000000000000000
  0
LINE
  5
27A
100
AcDbEntity
  8
MAIN0
  6
CONTINUOUS
 62
3
100
AcDbLine
 10
671.0798903917575
 20
463.2788792639972
 30
0.0000000000000000
 11
797.0798903917575
 21
463.2788792639972
 31
0.0000000000000000
  0
LINE
  5
27B
100
AcDbEntity
  8
MAIN0
  6
CONTINUOUS
 62
3
100
AcDbLine
 10
671.0798903917575
 20
483.2788792639972
 30
0.0000000000000000
 11
670.0798903917575
 21
484.2788792639972
 31
0.0000000000000000
  0
LINE
  5
27C
100
AcDbEntity
  8
MAIN0
  6
CONTINUOUS
 62
3
100
AcDbLine
 10
646.0798903917575
 20
484.2788792639972
 30
0.0000000000000000
 11
645.0798903917575
 21
483.2788792639972
 31
0.0000000000000000
  0
LINE
  5
27D
100
AcDbEntity
  8
MAIN0
  6
CONTINUOUS
 62
3
100
AcDbLine
 10
645.0798903917574
 20
483.2788792640008
 30
0.0000000000000000
 11
671.0798903917575
 21
483.2788792639972
 31
0.0000000000000000
  0
LINE
  5
27E
100
AcDbEntity
  8
MAIN0
  6
CONTINUOUS
 62
3
100
AcDbLine
 10
647.0798903917575
 20
365.2788792639972
 30
0.0000000000000000
 11
647.0798903917575
 21
454.2788792639972
 31
0.0000000000000000
  0
LINE
  5
27F
100
AcDbEntity
  8
MAIN0
  6
CONTINUOUS
 62
3
100
AcDbLine
 10
669.0798903917575
 20
365.2788792639972
 30
0.0000000000000000
 11
669.0798903917575
 21
454.2788792639972
 31
0.0000000000000000
  0
LINE
  5
280
100
AcDbEntity
  8
MAIN0
  6
CONTINUOUS
 62
3
100
AcDbLine
 10
670.0798903917575
 20
454.2788792639972
 30
0.0000000000000000
 11
671.0798903917575
 21
455.2788792639972
 31
0.0000000000000000
  0
LINE
  5
281
100
AcDbEntity
  8
MAIN0
  6
CONTINUOUS
 62
3
100
AcDbLine
 10
646.0798903917575
 20
454.2788792639972
 30
0.0000000000000000
 11
645.0798903917575
 21
455.2788792639972
 31
0.0000000000000000
  0
LINE
  5
282
100
AcDbEntity
  8
MAIN0
  6
CONTINUOUS
 62
3
100
AcDbLine
 10
645.0798903917575
 20
455.2788792640286
 30
0.0000000000000000
 11
671.0798903917575
 21
455.2788792640214
 31
0.0000000000000000
  0
LINE
  5
283
100
AcDbEntity
  8
MAIN0
  6
CONTINUOUS
 62
3
100
AcDbLine
 10
664.6717158738675
 20
324.9788792639972
 30
0.0000000000000000
 11
664.6717158738675
 21
343.2788792639972
 31
0.0000000000000000
  0
LINE
  5
284
100
AcDbEntity
  8
MAIN0
  6
CONTINUOUS
 62
3
100
AcDbLine
 10
651.4880649094621
 20
324.9788792639972
 30
0.0000000000000000
 11
651.4880649094621
 21
343.2788792639972
 31
0.0000000000000000
  0
LINE
  5
285
100
AcDbEntity
  8
MAIN0
  6
CONTINUOUS
 62
3
100
AcDbLine
 10
651.4880649094621
 20
343.2788792639972
 30
0.0000000000000000
 11
664.6717158738675
 21
343.2788792639972
 31
0.0000000000000000
  0
LINE
  5
286
100
AcDbEntity
  8
MAIN0
  6
CONTINUOUS
 62
3
100
AcDbLine
 10
669.0798903917575
 20
365.2788792639973
 30
0.0000000000000000
 11
664.6717158738675
 21
343.2788792639972
 31
0.0000000000000000
  0
LINE
  5
287
100
AcDbEntity
  8
MAIN0
  6
CONTINUOUS
 62
3
100
AcDbLine
 10
651.4880649094621
 20
343.2788792639972
 30
0.0000000000000000
 11
647.0798903917575
 21
365.2788792639972
 31
0.0000000000000000
  0
LINE
  5
288
100
AcDbEntity
  8
MAIN0
  6
CENTER
 62
3
100
AcDbLine
 10
658.0798903918976
 20
279.8442927732531
 30
0.0000000000000000
 11
658.0798903918976
 21
303.6954769909873
 31
0.0000000000000000
  0
LINE
  5
289
100
AcDbEntity
  8
MAIN0
  6
CENTER
 62
3
100
AcDbLine
 10
645.3397065631353
 20
292.0412477799549
 30
0.0000000000000000
 11
669.4202255575824
 21
292.0412477799599
 31
0.0000000000000000
  0
LINE
  5
28A
100
AcDbEntity
  8
MAIN0
  6
CONTINUOUS
 62
3
100
AcDbLine
 10
650.2298903918977
 20
292.6765291538929
 30
0.0000000000000000
 11
657.4446090179688
 21
299.8912477799574
 31
0.0000000000000000
  0
LINE
  5
28B
100
AcDbEntity
  8
MAIN0
  6
CONTINUOUS
 62
3
100
AcDbLine
 10
658.7151717664398
 20
284.1912477799577
 30
0.0000000000000000
 11
665.9298903918976
 21
291.4059664054090
 31
0.0000000000000000
  0
LINE
  5
28C
100
AcDbEntity
  8
MAIN0
  6
CONTINUOUS
 62
3
100
AcDbLine
 10
658.7151717666382
 20
299.8912477799577
 30
0.0000000000000000
 11
665.9298903918976
 21
292.6765291546903
 31
0.0000000000000000
  0
LINE
  5
28D
100
AcDbEntity
  8
MAIN0
  6
CONTINUOUS
 62
3
100
AcDbLine
 10
650.2298903918977
 20
291.4059664062210
 30
0.0000000000000000
 11
657.4446090181534
 21
284.1912477799573
 31
0.0000000000000000
  0
LINE
  5
28E
100
AcDbEntity
  8
MAIN0
  6
CONTINUOUS
 62
3
100
AcDbLine
 10
657.4446090179688
 20
299.8912477799574
 30
0.0000000000000000
 11
658.7151717666382
 21
299.8912477799577
 31
0.0000000000000000
  0
LINE
  5
28F
100
AcDbEntity
  8
MAIN0
  6
CONTINUOUS
 62
3
100
AcDbLine
 10
657.4446090181534
 20
284.1912477799574
 30
0.0000000000000000
 11
658.7151717664397
 21
284.1912477799577
 31
0.0000000000000000
  0
LINE
  5
290
100
AcDbEntity
  8
MAIN0
  6
CONTINUOUS
 62
3
100
AcDbLine
 10
650.2298903918977
 20
291.4059664062211
 30
0.0000000000000000
 11
650.2298903918977
 21
292.6765291538930
 31
0.0000000000000000
  0
LINE
  5
291
100
AcDbEntity
  8
MAIN0
  6
CONTINUOUS
 62
3
100
AcDbLine
 10
665.9298903918976
 20
291.4059664054090
 30
0.0000000000000000
 11
665.9298903918976
 21
292.6765291546902
 31
0.0000000000000000
  0
LINE
  5
292
100
AcDbEntity
  8
MAIN0
  6
CONTINUOUS
 62
3
100
AcDbLine
 10
651.4880649094621
 20
324.9788792639973
 30
0.0000000000000000
 11
652.1880649094621
 21
324.2788792639973
 31
0.0000000000000000
  0
LINE
  5
293
100
AcDbEntity
  8
MAIN0
  6
CONTINUOUS
 62
3
100
AcDbLine
 10
663.9717158738675
 20
324.2788792639972
 30
0.0000000000000000
 11
664.6717158738675
 21
324.9788792639972
 31
0.0000000000000000
  0
LINE
  5
294
100
AcDbEntity
  8
MAIN0
  6
CONTINUOUS
 62
3
100
AcDbLine
 10
651.4880649094621
 20
324.9788792640052
 30
0.0000000000000000
 11
664.6717158738675
 21
324.9788792640043
 31
0.0000000000000000
  0
LINE
  5
295
100
AcDbEntity
  8
MAIN0
  6
CONTINUOUS
 62
3
100
AcDbLine
 10
657.4446090179501
 20
324.9788792640048
 30
0.0000000000000000
 11
657.4446090179621
 21
340.2788792639972
 31
0.0000000000000000
  0
LINE
  5
296
100
AcDbEntity
  8
MAIN0
  6
CONTINUOUS
 62
3
100
AcDbLine
 10
658.7151717668405
 20
324.9788792640047
 30
0.0000000000000000
 11
658.7151717668525
 21
340.2788792639972
 31
0.0000000000000000
  0
LINE
  5
297
100
AcDbEntity
  8
MAIN0
  6
CONTINUOUS
 62
3
100
AcDbLine
 10
651.4880649094621
 20
340.2788792639972
 30
0.0000000000000000
 11
657.4446090179621
 21
340.2788792639972
 31
0.0000000000000000
  0
LINE
  5
298
100
AcDbEntity
  8
MAIN0
  6
CONTINUOUS
 62
3
100
AcDbLine
 10
658.7151717668525
 20
340.2788792639972
 30
0.0000000000000000
 11
664.6717158738675
 21
340.2788792639972
 31
0.0000000000000000
  0
LINE
  5
299
100
AcDbEntity
  8
MAIN0
  6
CONTINUOUS
 62
3
100
AcDbLine
 10
658.7151717668404
 20
324.9788792640047
 30
0.0000000000000000
 11
664.6717158738675
 21
340.2788792639972
 31
0.0000000000000000
  0
LINE
  5
29A
100
AcDbEntity
  8
MAIN0
  6
CONTINUOUS
 62
3
100
AcDbLine
 10
658.7151717668525
 20
340.2788792639972
 30
0.0000000000000000
 11
664.6717158738675
 21
324.9788792639972
 31
0.0000000000000000
  0
LINE
  5
29B
100
AcDbEntity
  8
MAIN0
  6
CONTINUOUS
 62
3
100
AcDbLine
 10
657.4446090179621
 20
340.2788792639972
 30
0.0000000000000000
 11
651.4880649094621
 21
324.9788792639973
 31
0.0000000000000000
  0
LINE
  5
29C
100
AcDbEntity
  8
MAIN0
  6
CONTINUOUS
 62
3
100
AcDbLine
 10
657.4446090179501
 20
324.9788792640048
 30
0.0000000000000000
 11
651.4880649094622
 21
340.2788792639972
 31
0.0000000000000000
  0
DIMENSION
  5
2A5
100
AcDbEntity
  8
MAIN0
  6
CONTINUOUS
 62
3
100
AcDbDimension
  2
*D21
 10
513.0798903917578
 20
518.6953132560927
 30
0.0000000000000000
 11
658.0798903917572
 21
519.1953132560927
 31
0.0000000000000000
 70
32
  3
MAIN001
100
AcDbAlignedDimension
 13
803.0798903917565
 23
469.2788792639972
 33
0.0000000000000000
 14
513.0798903917578
 24
469.2788792639972
 34
0.0000000000000000
100
AcDbRotatedDimension
1001
ACAD
1000
DSTYLE
1002
{
1070
   173
1070
     1
1070
     6
1000
_OPEN
1070
     7
1000
_OPEN
1070
    41
1040
4.000000
1002
}
  0
DIMENSION
  5
2AE
100
AcDbEntity
  8
MAIN0
  6
CONTINUOUS
 62
3
100
AcDbDimension
  2
*D22
 10
645.0798903917575
 20
503.2452960132167
 30
0.0000000000000000
 11
658.0798903917575
 21
503.7452960132167
 31
0.0000000000000000
 70
32
  1
\A1;\U+220526
  3
MAIN001
100
AcDbAlignedDimension
 13
671.0798903917575
 23
483.2788792639972
 33
0.0000000000000000
 14
645.0798903917575
 24
483.2788792639972
 34
0.0000000000000000
100
AcDbRotatedDimension
1001
ACAD
1000
DSTYLE
1002
{
1070
   173
1070
     1
1070
     6
1000
_OPEN
1070
     7
1000
_OPEN
1070
    41
1040
4.000000
1002
}
  0
DIMENSION
  5
2B7
100
AcDbEntity
  8
MAIN0
  6
CONTINUOUS
 62
3
100
AcDbDimension
  2
*D23
 10
606.7956337108981
 20
475.2788792639972
 30
0.0000000000000000
 11
605.7956337108981
 21
488.9758633939724
 31
0.0000000000000000
 70
160
  1
\A1;\U+220512
  3
MAIN001
100
AcDbAlignedDimension
 13
645.0798903917575
 23
463.2788792639972
 33
0.0000000000000000
 14
645.0798903917575
 24
475.2788792639972
 34
0.0000000000000000
 50
90.00000000000000
100
AcDbRotatedDimension
1001
ACAD
1000
DSTYLE
1002
{
1070
   173
1070
     1
1070
     6
1000
_OPEN
1070
     7
1000
_OPEN
1070
    41
1040
4.000000
1070
   287
1070
     0
1002
}
  0
DIMENSION
  5
2C1
100
AcDbEntity
  8
MAIN0
  6
CONTINUOUS
 62
3
100
AcDbDimension
  2
*D24
 10
696.7956337108981
 20
484.2788792639972
 30
0.0000000000000000
 11
695.7956337108981
 21
494.7024230715286
 31
0.0000000000000000
 70
160
  3
MAIN001
100
AcDbAlignedDimension
 13
808.3671706861740
 23
469.2788792639972
 33
0.0000000000000000
 14
670.0798903917575
 24
484.2788792639972
 34
0.0000000000000000
 50
90.00000000000000
100
AcDbRotatedDimension
1001
ACAD
1000
DSTYLE
1002
{
1070
   173
1070
     1
1070
     6
1000
_OPEN
1070
     7
1000
_OPEN
1070
    41
1040
4.000000
1070
   287
1070
     0
1002
}
  0
DIMENSION
  5
2CA
100
AcDbEntity
  8
MAIN0
  6
CONTINUOUS
 62
3
100
AcDbDimension
  2
*D25
 10
713.5235642384482
 20
484.2788792639972
 30
0.0000000000000000
 11
713.0235642384482
 21
404.2788792639972
 31
0.0000000000000000
 70
32
  3
MAIN001
100
AcDbAlignedDimension
 13
663.9717158738675
 23
324.2788792639972
 33
0.0000000000000000
 14
670.0798903917575
 24
484.2788792639972
 34
0.0000000000000000
 50
90.00000000000000
100
AcDbRotatedDimension
1001
ACAD
1000
DSTYLE
1002
{
1070
   173
1070
     1
1070
     6
1000
_OPEN
1070
     7
1000
_OPEN
1070
    41
1040
4.000000
1002
}
  0
DIMENSION
  5
2D5
100
AcDbEntity
  8
MAIN0
  6
CONTINUOUS
 62
3
100
AcDbDimension
  2
*D26
 10
696.7956337108981
 20
340.2788792639972
 30
0.0000000000000000
 11
696.2956337108981
 21
332.2788792639972
 31
0.0000000000000000
 70
32
  3
MAIN001
100
AcDbAlignedDimension
 13
663.9717158738675
 23
324.2788792639972
 33
0.0000000000000000
 14
664.6717158738675
 24
340.2788792639972
 34
0.0000000000000000
 50
90.00000000000000
100
AcDbRotatedDimension
1001
ACAD
1000
DSTYLE
1002
{
1070
   173
1070
     1
1070
     6
1000
_OPEN
1070
     7
1000
_OPEN
1070
    41
1040
4.000000
1070
   287
1070
     0
1002
}
  0
DIMENSION
  5
2E0
100
AcDbEntity
  8
MAIN0
  6
CONTINUOUS
 62
3
100
AcDbDimension
  2
*D27
 10
638.0387529004599
 20
280.4853916624688
 30
0.0000000000000000
 11
656.9670753971448
 21
262.9712827281376
 31
0.0000000000000000
 70
161
  3
MAIN001
100
AcDbAlignedDimension
 13
658.7151717664397
 23
284.1912477799577
 33
0.0000000000000000
 14
650.2298903918977
 24
292.6765291538929
 34
0.0000000000000000
 50
134.9999999999687
1001
ACAD
1000
DSTYLE
1002
{
1070
   173
1070
     1
1070
     6
1000
_OPEN
1070
     7
1000
_OPEN
1070
    41
1040
4.000000
1070
   287
1070
     0
1070
   272
1070
     2
1070
    47
1040
0.000000
1070
    48
1040
0.150000
1070
    71
1070
     1
1002
}
  0
DIMENSION
  5
2E7
100
AcDbEntity
  8
MAIN0
  6
CONTINUOUS
 62
3
100
AcDbDimension
  2
*D28
 10
647.0798903917575
 20
401.2531213585581
 30
0.0000000000000000
 11
658.0798903917575
 21
401.7531213585581
 31
0.0000000000000000
 70
32
  1
\A1;\U+220522
  3
MAIN001
100
AcDbAlignedDimension
 13
669.0798903917575
 23
365.2788792639972
 33
0.0000000000000000
 14
647.0798903917575
 24
365.2788792639972
 34
0.0000000000000000
100
AcDbRotatedDimension
1001
ACAD
1000
DSTYLE
1002
{
1070
   173
1070
     1
1070
     6
1000
_OPEN
1070
     7
1000
_OPEN
1070
    41
1040
4.000000
1002
}
  0
LINE
  5
2E8
100
AcDbEntity
  8
MAIN0
  6
CENTER
 62
3
100
AcDbLine
 10
658.0798903917575
 20
319.4576775827659
 30
0.0000000000000000
 11
658.0798903917575
 21
397.8923820212390
 31
0.0000000000000000
  0
LINE
  5
2E9
100
AcDbEntity
  8
MAIN0
  6
CENTER
 62
3
100
AcDbLine
 10
658.0798903917575
 20
411.3353108812231
 30
0.0000000000000000
 11
658.0798903917575
 21
494.7348572861656
 31
0.0000000000000000
  0
LINE
  5
2EA
100
AcDbEntity
  8
MAIN0
  6
HIDDEN
 62
3
100
AcDbLine
 10
200.0318436172492
 20
437.6959216823390
 30
0.0000000000000000
 11
210.8318436172492
 21
437.6959216823390
 31
0.0000000000000000
  0
LINE
  5
2EB
100
AcDbEntity
  8
MAIN0
  6
HIDDEN
 62
3
100
AcDbLine
 10
210.8318436172492
 20
437.6959216823390
 30
0.0000000000000000
 11
212.0318436172492
 21
439.7743826514217
 31
0.0000000000000000
  0
LINE
  5
2EC
100
AcDbEntity
  8
MAIN0
  6
HIDDEN
 62
3
100
AcDbLine
 10
212.0318436172492
 20
439.7743826514217
 30
0.0000000000000000
 11
212.0318436172492
 21
453.6174607132564
 31
0.0000000000000000
  0
LINE
  5
2ED
100
AcDbEntity
  8
MAIN0
  6
HIDDEN
 62
3
100
AcDbLine
 10
212.0318436172492
 20
453.6174607132564
 30
0.0000000000000000
 11
210.8318436172492
 21
455.6959216823391
 31
0.0000000000000000
  0
LINE
  5
2EE
100
AcDbEntity
  8
MAIN0
  6
HIDDEN
 62
3
100
AcDbLine
 10
210.8318436172492
 20
455.6959216823390
 30
0.0000000000000000
 11
200.0318436172492
 21
455.6959216823390
 31
0.0000000000000000
  0
LINE
  5
2EF
100
AcDbEntity
  8
MAIN0
  6
HIDDEN
 62
3
100
AcDbLine
 10
210.8318436172492
 20
437.6959216823390
 30
0.0000000000000000
 11
210.8318436172492
 21
455.6959216823390
 31
0.0000000000000000
  0
LINE
  5
2F0
100
AcDbEntity
  8
MAIN0
  6
CONTINUOUS
 62
3
100
AcDbLine
 10
110.0318436172492
 20
440.6959216823390
 30
0.0000000000000000
 11
110.0318436172492
 21
452.6959216823390
 31
0.0000000000000000
  0
LINE
  5
2F1
100
AcDbEntity
  8
MAIN0
  6
CONTINUOUS
 62
3
100
AcDbLine
 10
110.0318436172492
 20
452.6959216823390
 30
0.0000000000000000
 11
129.0318436172492
 21
452.6959216823390
 31
0.0000000000000000
  0
LINE
  5
2F2
100
AcDbEntity
  8
MAIN0
  6
HIDDEN
 62
3
100
AcDbLine
 10
178.4497129996862
 20
452.6959216823390
 30
0.0000000000000000
 11
200.0318436172492
 21
452.6959216823390
 31
0.0000000000000000
  0
LINE
  5
2F3
100
AcDbEntity
  8
MAIN0
  6
CONTINUOUS
 62
3
100
AcDbLine
 10
110.0318436172492
 20
451.7487061823391
 30
0.0000000000000000
 11
129.0318436172492
 21
451.7487061823390
 31
0.0000000000000000
  0
LINE
  5
2F4
100
AcDbEntity
  8
MAIN0
  6
HIDDEN
 62
3
100
AcDbLine
 10
129.0318436172492
 20
451.7487061823390
 30
0.0000000000000000
 11
136.6488119443115
 21
451.7487061823390
 31
0.0000000000000000
  0
LINE
  5
2F5
100
AcDbEntity
  8
MAIN0
  6
CONTINUOUS
 62
3
100
AcDbLine
 10
110.0318436172492
 20
441.6431371823391
 30
0.0000000000000000
 11
129.0318436172492
 21
441.6431371823391
 31
0.0000000000000000
  0
LINE
  5
2F6
100
AcDbEntity
  8
MAIN0
  6
HIDDEN
 62
3
100
AcDbLine
 10
129.0318436172492
 20
441.6431371823391
 30
0.0000000000000000
 11
136.7702186678544
 21
441.6431371823391
 31
0.0000000000000000
  0
LINE
  5
2F7
100
AcDbEntity
  8
MAIN0
  6
CONTINUOUS
 62
3
100
AcDbLine
 10
110.0318436172492
 20
440.6959216823390
 30
0.0000000000000000
 11
129.0318436172492
 21
440.6959216823390
 31
0.0000000000000000
  0
LINE
  5
2F8
100
AcDbEntity
  8
MAIN0
  6
HIDDEN
 62
3
100
AcDbLine
 10
129.0318436172492
 20
440.6959216823390
 30
0.0000000000000000
 11
136.8218010376257
 21
440.6959216823390
 31
0.0000000000000000
  0
LINE
  5
2F9
100
AcDbEntity
  8
MAIN0
  6
HIDDEN
 62
3
100
AcDbLine
 10
179.6055274449577
 20
440.6959216823390
 30
0.0000000000000000
 11
200.0318436172492
 21
440.6959216823390
 31
0.0000000000000000
  0
LINE
  5
2FA
100
AcDbEntity
  8
MAIN0
  6
HIDDEN
 62
3
100
AcDbLine
 10
129.0318436172492
 20
452.6959216823391
 30
0.0000000000000000
 11
136.5331260828199
 21
452.6959216823391
 31
0.0000000000000000
  0
LINE
  5
2FB
100
AcDbEntity
  8
MAIN0
  6
CONTINUOUS
 62
3
100
AcDbLine
 10
138.2357289299455
 20
458.6959216823393
 30
0.0000000000000000
 11
140.7818436170663
 21
457.2259216823391
 31
0.0000000000000000
  0
LINE
  5
2FC
100
AcDbEntity
  8
MAIN0
  6
CONTINUOUS
 62
3
100
AcDbLine
 10
140.7818436172492
 20
457.2259216823390
 30
0.0000000000000000
 11
176.2818436172492
 21
457.2259216823390
 31
0.0000000000000000
  0
LINE
  5
2FD
100
AcDbEntity
  8
MAIN0
  6
CONTINUOUS
 62
3
100
AcDbLine
 10
149.2818436174113
 20
457.2259216823390
 30
0.0000000000000000
 11
150.7818436171484
 21
456.3598962787069
 31
0.0000000000000000
  0
LINE
  5
2FE
100
AcDbEntity
  8
MAIN0
  6
CONTINUOUS
 62
3
100
AcDbLine
 10
150.7818436172492
 20
456.3598962786487
 30
0.0000000000000000
 11
150.7818436172492
 21
441.2259216823391
 31
0.0000000000000000
  0
LINE
  5
2FF
100
AcDbEntity
  8
MAIN0
  6
CONTINUOUS
 62
3
100
AcDbLine
 10
150.7818436172491
 20
456.3598962787071
 30
0.0000000000000000
 11
166.2818436172491
 21
456.3598962787011
 31
0.0000000000000000
  0
LINE
  5
300
100
AcDbEntity
  8
MAIN0
  6
CONTINUOUS
 62
3
100
AcDbLine
 10
150.7818436171661
 20
441.2259216823389
 30
0.0000000000000000
 11
157.7747216189347
 21
456.3598962787042
 31
0.0000000000000000
  0
LINE
  5
301
100
AcDbEntity
  8
MAIN0
  6
CONTINUOUS
 62
3
100
AcDbLine
 10
150.7649341596769
 20
456.3598962787073
 30
0.0000000000000000
 11
157.7578121614401
 21
441.2259216823392
 31
0.0000000000000000
  0
LINE
  5
302
100
AcDbEntity
  8
MAIN0
  6
CONTINUOUS
 62
3
100
AcDbLine
 10
159.2671249914765
 20
441.2259216823391
 30
0.0000000000000000
 11
159.2671249914779
 21
456.3598962787038
 31
0.0000000000000000
  0
LINE
  5
303
100
AcDbEntity
  8
MAIN0
  6
CONTINUOUS
 62
3
100
AcDbLine
 10
157.7965622430601
 20
441.2259216823391
 30
0.0000000000000000
 11
157.7965622430601
 21
456.3598962787044
 31
0.0000000000000000
  0
LINE
  5
304
100
AcDbEntity
  8
MAIN0
  6
CONTINUOUS
 62
3
100
AcDbLine
 10
159.2889656152942
 20
456.3598962787038
 30
0.0000000000000000
 11
166.2818436170701
 21
441.2259216823387
 31
0.0000000000000000
  0
LINE
  5
305
100
AcDbEntity
  8
MAIN0
  6
CONTINUOUS
 62
3
100
AcDbLine
 10
159.3058750732473
 20
441.2259216823387
 30
0.0000000000000000
 11
166.2987530750082
 21
456.3598962787009
 31
0.0000000000000000
  0
LINE
  5
306
100
AcDbEntity
  8
MAIN0
  6
CONTINUOUS
 62
3
100
AcDbLine
 10
166.2818436172492
 20
456.3598962785759
 30
0.0000000000000000
 11
166.2818436172492
 21
441.2259216823391
 31
0.0000000000000000
  0
LINE
  5
307
100
AcDbEntity
  8
MAIN0
  6
CONTINUOUS
 62
3
100
AcDbLine
 10
166.2818436174659
 20
456.3598962787009
 30
0.0000000000000000
 11
167.7818436172066
 21
457.2259216823389
 31
0.0000000000000000
  0
LINE
  5
308
100
AcDbEntity
  8
MAIN0
  6
CONTINUOUS
 62
3
100
AcDbLine
 10
166.2818436172492
 20
441.2259216823391
 30
0.0000000000000000
 11
150.7818436172492
 21
441.2259216823391
 31
0.0000000000000000
  0
LINE
  5
309
100
AcDbEntity
  8
MAIN0
  6
CONTINUOUS
 62
3
100
AcDbLine
 10
152.5318436172492
 20
441.2259216823391
 30
0.0000000000000000
 11
152.5318436172492
 21
435.2259216823391
 31
0.0000000000000000
  0
LINE
  5
30A
100
AcDbEntity
  8
MAIN0
  6
CONTINUOUS
 62
3
100
AcDbLine
 10
164.5318436172492
 20
435.2259216823391
 30
0.0000000000000000
 11
152.5318436172492
 21
435.2259216823391
 31
0.0000000000000000
  0
LINE
  5
30B
100
AcDbEntity
  8
MAIN0
  6
CONTINUOUS
 62
3
100
AcDbLine
 10
152.5318436172490
 20
435.2259216824475
 30
0.0000000000000000
 11
158.5318436174579
 21
431.7618200671827
 31
0.0000000000000000
  0
LINE
  5
30C
100
AcDbEntity
  8
MAIN0
  6
CONTINUOUS
 62
3
100
AcDbLine
 10
158.5318436174580
 20
431.7618200671827
 30
0.0000000000000000
 11
164.5318436172491
 21
435.2259216822021
 31
0.0000000000000000
  0
LINE
  5
30D
100
AcDbEntity
  8
MAIN0
  6
CONTINUOUS
 62
3
100
AcDbLine
 10
164.5318436172492
 20
441.2259216823391
 30
0.0000000000000000
 11
164.5318436172492
 21
435.2259216823391
 31
0.0000000000000000
  0
LINE
  5
30E
100
AcDbEntity
  8
MAIN0
  6
CONTINUOUS
 62
3
100
AcDbLine
 10
176.2818436172908
 20
457.2259216823389
 30
0.0000000000000000
 11
178.8279583044213
 21
458.6959216823388
 31
0.0000000000000000
  0
LINE
  5
30F
100
AcDbEntity
  8
MAIN0
  6
CONTINUOUS
 62
3
100
AcDbLine
 10
176.2818436172492
 20
457.2259216823390
 30
0.0000000000000000
 11
176.2818436172492
 21
437.8559216823390
 31
0.0000000000000000
  0
LINE
  5
310
100
AcDbEntity
  8
MAIN0
  6
CONTINUOUS
 62
3
100
AcDbLine
 10
140.7818436172492
 20
457.2259216823390
 30
0.0000000000000000
 11
140.7818436172492
 21
437.8559216823390
 31
0.0000000000000000
  0
LINE
  5
311
100
AcDbEntity
  8
MAIN0
  6
HIDDEN
 62
3
100
AcDbLine
 10
144.8523812045642
 20
415.2101477762047
 30
0.0000000000000000
 11
146.4502714274288
 21
414.0991714908558
 31
0.0000000000000000
  0
ARC
  5
312
100
AcDbEntity
  8
MAIN0
  6
HIDDEN
 62
3
100
AcDbCircle
 10
145.0318436172492
 20
406.2259216823391
 30
0.0000000000000000
 40
8.000000000000000
100
AcDbArc
 50
0.0000000000000000
 51
79.78726584682811
  0
LINE
  5
313
100
AcDbEntity
  8
MAIN0
  6
HIDDEN
 62
3
100
AcDbLine
 10
153.0318436172492
 20
394.7259216823391
 30
0.0000000000000000
 11
153.0318436172492
 21
406.2259216823391
 31
0.0000000000000000
  0
LINE
  5
314
100
AcDbEntity
  8
MAIN0
  6
HIDDEN
 62
3
100
AcDbLine
 10
153.5318436172491
 20
394.2259216823391
 30
0.0000000000000000
 11
163.5318436172491
 21
394.2259216823391
 31
0.0000000000000000
  0
LINE
  5
315
100
AcDbEntity
  8
MAIN0
  6
HIDDEN
 62
3
100
AcDbLine
 10
163.5318436172493
 20
394.2259216823391
 30
0.0000000000000000
 11
164.0318436172493
 21
394.7259216823391
 31
0.0000000000000000
  0
LINE
  5
316
100
AcDbEntity
  8
MAIN0
  6
HIDDEN
 62
3
100
AcDbLine
 10
164.0318436172492
 20
394.7259216823391
 30
0.0000000000000000
 11
164.0318436172492
 21
406.2259216823391
 31
0.0000000000000000
  0
ARC
  5
317
100
AcDbEntity
  8
MAIN0
  6
HIDDEN
 62
3
100
AcDbCircle
 10
172.0318436172492
 20
406.2259216823391
 30
0.0000000000000000
 40
8.000000000000000
100
AcDbArc
 50
100.2127341520333
 51
180.0000000000000
  0
LINE
  5
318
100
AcDbEntity
  8
MAIN0
  6
HIDDEN
 62
3
100
AcDbLine
 10
172.2113060300499
 20
415.2101477762048
 30
0.0000000000000000
 11
170.6134158072260
 21
414.0991714908839
 31
0.0000000000000000
  0
ARC
  5
319
100
AcDbEntity
  8
MAIN0
  6
CONTINUOUS
 62
3
100
AcDbCircle
 10
193.1557132879219
 20
436.8422889827205
 30
0.0000000000000000
 40
22.50000000000000
100
AcDbArc
 50
161.9709379884912
 51
172.7700000000071
  0
ARC
  5
31A
100
AcDbEntity
  8
MAIN0
  6
CONTINUOUS
 62
3
100
AcDbCircle
 10
174.2817935476933
 20
444.9039467371815
 30
0.0000000000000000
 40
2.750000000000000
100
AcDbArc
 50
203.5309535943305
 51
270.0000000000000
  0
ARC
  5
31B
100
AcDbEntity
  8
MAIN0
  6
CONTINUOUS
 62
3
100
AcDbCircle
 10
174.2817935476933
 20
444.9039467371815
 30
0.0000000000000000
 40
2.750000000000000
100
AcDbArc
 50
90.00000000000000
 51
203.5309535943305
  0
LINE
  5
31C
100
AcDbEntity
  8
MAIN0
  6
CONTINUOUS
 62
3
100
AcDbLine
 10
174.2817935476740
 20
447.6559216823391
 30
0.0000000000000000
 11
176.2818436172492
 21
447.6559216823391
 31
0.0000000000000000
  0
LINE
  5
31D
100
AcDbEntity
  8
MAIN0
  6
CONTINUOUS
 62
3
100
AcDbLine
 10
174.2817935476933
 20
442.1559216823391
 30
0.0000000000000000
 11
176.2818436172492
 21
442.1559216823391
 31
0.0000000000000000
  0
ARC
  5
31E
100
AcDbEntity
  8
MAIN0
  6
CONTINUOUS
 62
3
100
AcDbCircle
 10
193.1557132879219
 20
436.8422889827205
 30
0.0000000000000000
 40
22.50000000000000
100
AcDbArc
 50
138.5860264068159
 51
151.7712911188179
  0
ARC
  5
31F
100
AcDbEntity
  8
MAIN0
  6
CONTINUOUS
 62
3
100
AcDbCircle
 10
142.7779856281097
 20
444.9058194475884
 30
0.0000000000000000
 40
2.750000000000000
100
AcDbArc
 50
336.5676191887323
 51
429.7083409982192
  0
ARC
  5
320
100
AcDbEntity
  8
MAIN0
  6
CONTINUOUS
 62
3
100
AcDbCircle
 10
123.9079739466723
 20
436.8422889826121
 30
0.0000000000000000
 40
22.50000000000000
100
AcDbArc
 50
7.229999999992935
 51
18.04569851288962
  0
LINE
  5
321
100
AcDbEntity
  8
MAIN0
  6
CONTINUOUS
 62
3
100
AcDbLine
 10
140.7818436172492
 20
442.1559216823391
 30
0.0000000000000000
 11
142.7779856281097
 21
442.1559216823391
 31
0.0000000000000000
  0
ARC
  5
322
100
AcDbEntity
  8
MAIN0
  6
CONTINUOUS
 62
3
100
AcDbCircle
 10
142.7779856281097
 20
444.9058194475884
 30
0.0000000000000000
 40
2.750000000000000
100
AcDbArc
 50
270.0000000000000
 51
336.5676191887323
  0
LINE
  5
323
100
AcDbEntity
  8
MAIN0
  6
CONTINUOUS
 62
3
100
AcDbLine
 10
140.7818436172492
 20
447.6559216823391
 30
0.0000000000000000
 11
142.7779856281097
 21
447.6559216823391
 31
0.0000000000000000
  0
ARC
  5
324
100
AcDbEntity
  8
MAIN0
  6
CONTINUOUS
 62
3
100
AcDbCircle
 10
123.9079739466723
 20
436.8422889826121
 30
0.0000000000000000
 40
22.50000000000000
100
AcDbArc
 50
28.23026167406189
 51
41.41397359355194
  0
ARC
  5
325
100
AcDbEntity
  8
MAIN0
  6
CONTINUOUS
 62
3
100
AcDbCircle
 10
142.7779856281097
 20
444.9058194475884
 30
0.0000000000000000
 40
2.750000000000000
100
AcDbArc
 50
69.70834099821921
 51
90.00000000000000
  0
LINE
  5
326
100
AcDbEntity
  8
MAIN0
  6
CENTER
 62
3
100
AcDbLine
 10
144.2776998541004
 20
442.6007473792159
 30
0.0000000000000000
 11
158.5318436172694
 21
342.6959216823382
 31
0.0000000000000000
  0
LINE
  5
327
100
AcDbEntity
  8
MAIN0
  6
CENTER
 62
3
100
AcDbLine
 10
158.5318436172697
 20
342.6959216823395
 30
0.0000000000000000
 11
173.8973820758759
 21
442.1809469537931
 31
0.0000000000000000
  0
LINE
  5
328
100
AcDbEntity
  8
MAIN0
  6
HIDDEN
 62
3
100
AcDbLine
 10
153.0318436172493
 20
394.7259216823391
 30
0.0000000000000000
 11
153.5318436172493
 21
394.2259216823391
 31
0.0000000000000000
  0
LINE
  5
329
100
AcDbEntity
  8
MAIN0
  6
CONTINUOUS
 62
3
100
AcDbLine
 10
140.7818436172411
 20
437.8559216823393
 30
0.0000000000000000
 11
141.9564199670277
 21
431.3214442274561
 31
0.0000000000000000
  0
LINE
  5
32A
100
AcDbEntity
  8
MAIN0
  6
HIDDEN
 62
3
100
AcDbLine
 10
141.9564131888066
 20
431.3214526768228
 30
0.0000000000000000
 11
144.8523812045643
 21
415.2101477762048
 31
0.0000000000000000
  0
LINE
  5
32B
100
AcDbEntity
  8
MAIN0
  6
CONTINUOUS
 62
3
100
AcDbLine
 10
146.2290751190128
 20
439.6739744266773
 30
0.0000000000000000
 11
147.9224221639748
 21
426.3259716275636
 31
0.0000000000000000
  0
LINE
  5
32C
100
AcDbEntity
  8
MAIN0
  6
HIDDEN
 62
3
100
AcDbLine
 10
147.9224216081078
 20
426.3259719078687
 30
0.0000000000000000
 11
149.6430009541593
 21
412.7632933265298
 31
0.0000000000000000
  0
LINE
  5
32D
100
AcDbEntity
  8
MAIN0
  6
HIDDEN
 62
3
100
AcDbLine
 10
167.4206862804238
 20
412.7632933265521
 30
0.0000000000000000
 11
169.3157435779506
 21
427.7013104546853
 31
0.0000000000000000
  0
LINE
  5
32E
100
AcDbEntity
  8
MAIN0
  6
CONTINUOUS
 62
3
100
AcDbLine
 10
169.3157435779753
 20
427.7013104547083
 30
0.0000000000000000
 11
170.8346121155811
 21
439.6739744267857
 31
0.0000000000000000
  0
LINE
  5
32F
100
AcDbEntity
  8
MAIN0
  6
HIDDEN
 62
3
100
AcDbLine
 10
172.2113060300499
 20
415.2101477762049
 30
0.0000000000000000
 11
175.3741592187731
 21
432.8061697361443
 31
0.0000000000000000
  0
LINE
  5
330
100
AcDbEntity
  8
MAIN0
  6
CONTINUOUS
 62
3
100
AcDbLine
 10
175.3741591548546
 20
432.8061696810071
 30
0.0000000000000000
 11
176.2818436173708
 21
437.8559216823385
 31
0.0000000000000000
  0
MTEXT
  5
331
100
AcDbEntity
  8
MAIN0
  6
CONTINUOUS
 62
3
100
AcDbMText
 10
385.0601990224386
 20
152.9254039261538
 30
0.0000000000000000
 40
6.199999809265137
 41
0.0000000000000000
 71
     1
 72
     1
  1
{\H0.81x;{15.0}}
 11
1.000000000000000
 21
0.0000000000000000
 31
0.0000000000000000
  7
STANDARD
  0
MTEXT
  5
332
100
AcDbEntity
  8
MAIN0
  6
CONTINUOUS
 62
3
100
AcDbMText
 10
378.8939818873615
 20
142.6066821242993
 30
0.0000000000000000
 40
6.199999809265137
 41
0.0000000000000000
 71
     1
 72
     1
  1
{\H0.88x;{37}}
 11
1.000000000000000
 21
0.0000000000000000
 31
0.0000000000000000
  7
STANDARD
  0
MTEXT
  5
333
100
AcDbEntity
  8
MAIN0
  6
CONTINUOUS
 62
3
100
AcDbMText
 10
384.8939818873615
 20
133.6066821242993
 30
0.0000000000000000
 40
6.199999809265137
 41
0.0000000000000000
 71
     1
 72
     1
  1
{\H0.91x;{3773}}
 11
1.000000000000000
 21
0.0000000000000000
 31
0.0000000000000000
  7
STANDARD
  0
MTEXT
  5
334
100
AcDbEntity
  8
MAIN0
  6
CONTINUOUS
 62
3
100
AcDbMText
 10
378.8939818873615
 20
100.9400154576326
 30
0.0000000000000000
 40
6.199999809265137
 41
0.0000000000000000
 71
     1
 72
     1
  1
{\H0.88x;{22}}
 11
1.000000000000000
 21
0.0000000000000000
 31
0.0000000000000000
  7
STANDARD
  0
MTEXT
  5
335
100
AcDbEntity
  8
MAIN0
  6
CONTINUOUS
 62
3
100
AcDbMText
 10
378.8939818873615
 20
82.87202815484790
 30
0.0000000000000000
 40
6.199999809265137
 41
0.0000000000000000
 71
     1
 72
     1
  1
{\H0.84x;{0.163\P}
 11
1.000000000000000
 21
0.0000000000000000
 31
0.0000000000000000
  7
STANDARD
  0
MTEXT
  5
336
100
AcDbEntity
  8
MAIN0
  6
CONTINUOUS
 62
3
100
AcDbMText
 10
378.8939818873615
 20
162.6066821242995
 30
0.0000000000000000
 40
6.199999809265137
 41
0.0000000000000000
 71
     1
 72
     1
  1
{\H0.90x;{147}}
 11
1.000000000000000
 21
0.0000000000000000
 31
0.0000000000000000
  7
STANDARD
  0
LINE
  5
337
100
AcDbEntity
  8
MAIN0
  6
CONTINUOUS
 62
3
100
AcDbLine
 10
274.8939818873616
 20
42.74001564836090
 30
0.0000000000000000
 11
434.8939818873616
 21
42.74001564836101
 31
0.0000000000000000
  0
LINE
  5
338
100
AcDbEntity
  8
MAIN0
  6
CONTINUOUS
 62
3
100
AcDbLine
 10
313.8939818873615
 20
42.74001564836101
 30
0.0000000000000000
 11
313.8939818873615
 21
70.74001564836095
 31
0.0000000000000000
  0
MTEXT
  5
339
100
AcDbEntity
  8
MAIN0
  6
CONTINUOUS
 62
3
100
AcDbMText
 10
346.6611823901455
 20
66.99927939370627
 30
0.0000000000000000
 40
6.199999809265137
 41
0.0000000000000000
 71
     1
 72
     1
  1
{\H0.92x;{外径把握}}
 11
1.000000000000000
 21
0.0000000000000000
 31
0.0000000000000000
  7
KNJYOKO
  0
MTEXT
  5
33A
100
AcDbEntity
  8
MAIN0
  6
CONTINUOUS
 62
3
100
AcDbMText
 10
346.6611823901455
 20
52.71835570555425
 30
0.0000000000000000
 40
6.199999809265137
 41
0.0000000000000000
 71
     1
 72
     1
  1
{\H0.92x;{内径把握}}
 11
1.000000000000000
 21
0.0000000000000000
 31
0.0000000000000000
  7
KNJYOKO
  0
MTEXT
  5
33B
100
AcDbEntity
  8
MAIN0
  6
CONTINUOUS
 62
3
100
AcDbMText
 10
291.8141514778716
 20
50.13820063855252
 30
0.0000000000000000
 40
6.000000000000000
 41
0.0000000000000000
 71
     1
 72
     1
  1
{\H0.63x;{(mm)}}
 11
1.000000000000000
 21
0.0000000000000000
 31
0.0000000000000000
  7
STANDARD
  0
MTEXT
  5
33C
100
AcDbEntity
  8
MAIN0
  6
CONTINUOUS
 62
3
100
AcDbMText
 10
378.8939818873037
 20
52.94001545762603
 30
0.0000000000000000
 40
6.199999809265137
 41
0.0000000000000000
 71
     1
 72
     1
  1
{\H0.93x;{\U+220570～\U+2205210}}
 11
1.000000000000000
 21
0.0000000000000000
 31
0.0000000000000000
  7
KNJYOKO
  0
MTEXT
  5
33D
100
AcDbEntity
  8
MAIN0
  6
CONTINUOUS
 62
3
100
AcDbMText
 10
279.8939818873636
 20
122.4400154576890
 30
0.0000000000000000
 40
6.199999809265137
 41
0.0000000000000000
 71
     1
 72
     1
  1
{\H0.94x;{許容最高回転速度　}}
 11
1.000000000000000
 21
0.0000000000000000
 31
0.0000000000000000
  7
KNJYOKO
  0
MTEXT
  5
33E
100
AcDbEntity
  8
MAIN0
  6
CONTINUOUS
 62
3
100
AcDbMText
 10
378.8939818873615
 20
115.4066823150341
 30
0.0000000000000000
 40
6.199999809265137
 41
0.0000000000000000
 71
     7
 72
     1
  1
{2900 min}
 11
1.000000000000000
 21
0.0000000000000000
 31
0.0000000000000000
  7
STANDARD
  0
MTEXT
  5
33F
100
AcDbEntity
  8
MAIN0
  6
CONTINUOUS
 62
3
100
AcDbMText
 10
423.1539831891270
 20
118.5066822196667
 30
0.0000000000000000
 40
3.099999904632568
 41
0.0000000000000000
 71
     7
 72
     1
  1
{-1}
 11
1.000000000000000
 21
0.0000000000000000
 31
0.0000000000000000
  7
STANDARD
  0
MTEXT
  5
340
100
AcDbEntity
  8
MAIN0
  6
CONTINUOUS
 62
3
100
AcDbMText
 10
404.6885501924388
 20
114.1932518560528
 30
0.0000000000000000
 40
6.199999809265137
 41
0.0000000000000000
 71
     1
 72
     1
  1
{\H0.92x;{(rpm)}}
 11
1.000000000000000
 21
0.0000000000000000
 31
0.0000000000000000
  7
STANDARD
  0
MTEXT
  5
341
100
AcDbEntity
  8
MAIN0
  6
CONTINUOUS
 62
3
100
AcDbMText
 10
378.8939818873037
 20
66.94001545762609
 30
0.0000000000000000
 40
6.199999809265137
 41
0.0000000000000000
 71
     1
 72
     1
  1
{\H0.93x;{\U+22055～\U+2205220}}
 11
1.000000000000000
 21
0.0000000000000000
 31
0.0000000000000000
  7
KNJYOKO
  0
LINE
  5
342
100
AcDbEntity
  8
MAIN0
  6
CONTINUOUS
 62
3
100
AcDbLine
 10
313.8939818873616
 20
56.74001564836090
 30
0.0000000000000000
 11
434.8939818873615
 21
56.74001564836101
 31
0.0000000000000000
  0
LINE
  5
343
100
AcDbEntity
  8
MAIN0
  6
CONTINUOUS
 62
3
100
AcDbLine
 10
274.8939818873615
 20
179.4066823151044
 30
0.0000000000000000
 11
434.8939818873616
 21
179.4066823151528
 31
0.0000000000000000
  0
LINE
  5
344
100
AcDbEntity
  8
MAIN0
  6
CONTINUOUS
 62
3
100
AcDbLine
 10
274.8939818873614
 20
165.4066823151005
 30
0.0000000000000000
 11
434.8939818873615
 21
165.4066823151462
 31
0.0000000000000000
  0
LINE
  5
345
100
AcDbEntity
  8
MAIN0
  6
CONTINUOUS
 62
3
100
AcDbLine
 10
274.8939818873615
 20
145.4066823150872
 30
0.0000000000000000
 11
434.8939818873616
 21
145.4066823151236
 31
0.0000000000000000
  0
LINE
  5
346
100
AcDbEntity
  8
MAIN0
  6
CONTINUOUS
 62
3
100
AcDbLine
 10
274.8939818873614
 20
125.4066823150814
 30
0.0000000000000000
 11
434.8939818873614
 21
125.4066823151137
 31
0.0000000000000000
  0
LINE
  5
347
100
AcDbEntity
  8
MAIN0
  6
CONTINUOUS
 62
3
100
AcDbLine
 10
274.8939818873614
 20
104.7400156484106
 30
0.0000000000000000
 11
434.8939818873615
 21
104.7400156484403
 31
0.0000000000000000
  0
LINE
  5
348
100
AcDbEntity
  8
MAIN0
  6
CONTINUOUS
 62
3
100
AcDbLine
 10
274.8939818873614
 20
90.74001564840668
 30
0.0000000000000000
 11
434.8939818873615
 21
90.74001564843351
 31
0.0000000000000000
  0
LINE
  5
349
100
AcDbEntity
  8
MAIN0
  6
CONTINUOUS
 62
3
100
AcDbLine
 10
274.8939818873616
 20
70.74001564836095
 30
0.0000000000000000
 11
434.8939818873616
 21
70.74001564836101
 31
0.0000000000000000
  0
LINE
  5
34A
100
AcDbEntity
  8
MAIN0
  6
CONTINUOUS
 62
3
100
AcDbLine
 10
274.8939818873615
 20
42.74001564836090
 30
0.0000000000000000
 11
274.8939818873615
 21
179.4066823150344
 31
0.0000000000000000
  0
LINE
  5
34B
100
AcDbEntity
  8
MAIN0
  6
CONTINUOUS
 62
3
100
AcDbLine
 10
374.8939818873615
 20
42.74001564836101
 30
0.0000000000000000
 11
374.8939818873615
 21
165.4066823151284
 31
0.0000000000000000
  0
LINE
  5
34C
100
AcDbEntity
  8
MAIN0
  6
CONTINUOUS
 62
3
100
AcDbLine
 10
434.8939818873615
 20
42.74001564836101
 30
0.0000000000000000
 11
434.8939818873615
 21
179.4066823150344
 31
0.0000000000000000
  0
MTEXT
  5
34D
100
AcDbEntity
  8
MAIN0
  6
CONTINUOUS
 62
3
100
AcDbMText
 10
279.8939818873638
 20
163.1066830780399
 30
0.0000000000000000
 40
6.200000762939453
 41
0.0000000000000000
 71
     1
 72
     1
  1
{\H0.94x;{許容最大ハンドルトルク}}
 11
1.000000000000000
 21
0.0000000000000000
 31
0.0000000000000000
  7
KNJYOKO
  0
MTEXT
  5
34E
100
AcDbEntity
  8
MAIN0
  6
CONTINUOUS
 62
3
100
AcDbMText
 10
279.8939818873637
 20
143.1066830780340
 30
0.0000000000000000
 40
6.200000762939453
 41
0.0000000000000000
 71
     1
 72
     1
  1
{\H0.94x;{最大静的把握力}}
 11
1.000000000000000
 21
0.0000000000000000
 31
0.0000000000000000
  7
KNJYOKO
  0
MTEXT
  5
34F
100
AcDbEntity
  8
MAIN0
  6
CONTINUOUS
 62
3
100
AcDbMText
 10
278.8939818873617
 20
100.9400164113462
 30
0.0000000000000000
 40
6.200000762939453
 41
0.0000000000000000
 71
     1
 72
     1
  1
{\H0.90x;{質量}}
 11
1.000000000000000
 21
0.0000000000000000
 31
0.0000000000000000
  7
KNJYOKO
  0
MTEXT
  5
350
100
AcDbEntity
  8
MAIN0
  6
CONTINUOUS
 62
3
100
AcDbMText
 10
281.3632711740917
 20
68.38443413296449
 30
0.0000000000000000
 40
6.200000762939453
 41
0.0000000000000000
 71
     1
 72
     1
  1
{\H0.96x;{把握径}}
 11
1.000000000000000
 21
0.0000000000000000
 31
0.0000000000000000
  7
KNJYOKO
  0
MTEXT
  5
351
100
AcDbEntity
  8
MAIN0
  6
CONTINUOUS
 62
3
100
AcDbMText
 10
286.2259832358953
 20
177.1379052380412
 30
0.0000000000000000
 40
10.00000000000000
 41
0.0000000000000000
 71
     1
 72
     1
  1
{\H0.91x;{仕　様}}
 11
1.000000000000000
 21
0.0000000000000000
 31
0.0000000000000000
  7
KNJYOKO
  0
MTEXT
  5
352
100
AcDbEntity
  8
MAIN0
  6
CONTINUOUS
 62
3
100
AcDbMText
 10
404.8939818873615
 20
160.0066807891554
 30
0.0000000000000000
 40
5.599998474121094
 41
0.0000000000000000
 71
     1
 72
     1
  1
{\H0.58x;{　　　Ｎ・ｍ}}
 11
1.000000000000000
 21
0.0000000000000000
 31
0.0000000000000000
  7
KNJYOKO
  0
MTEXT
  5
353
100
AcDbEntity
  8
MAIN0
  6
CONTINUOUS
 62
3
100
AcDbMText
 10
378.8939818873615
 20
152.0066807891554
 30
0.0000000000000000
 40
5.599998474121094
 41
0.0000000000000000
 71
     1
 72
     1
  1
{\H0.48x;{（}}
 11
1.000000000000000
 21
0.0000000000000000
 31
0.0000000000000000
  7
KNJYOKO
  0
MTEXT
  5
354
100
AcDbEntity
  8
MAIN0
  6
CONTINUOUS
 62
3
100
AcDbMText
 10
402.8939818873615
 20
152.0066807891554
 30
0.0000000000000000
 40
5.599998474121094
 41
0.0000000000000000
 71
     1
 72
     1
  1
{\H0.58x;{　ｋｇｆ・ｍ）}}
 11
1.000000000000000
 21
0.0000000000000000
 31
0.0000000000000000
  7
KNJYOKO
  0
MTEXT
  5
355
100
AcDbEntity
  8
MAIN0
  6
CONTINUOUS
 62
3
100
AcDbMText
 10
404.8939818873615
 20
100.3400141224885
 30
0.0000000000000000
 40
5.599998474121094
 41
0.0000000000000000
 71
     1
 72
     1
  1
{\H0.58x;{　　　　ｋｇ}}
 11
1.000000000000000
 21
0.0000000000000000
 31
0.0000000000000000
  7
KNJYOKO
  0
MTEXT
  5
356
100
AcDbEntity
  8
MAIN0
  6
CONTINUOUS
 62
3
100
AcDbMText
 10
404.8939818873615
 20
140.0066807891552
 30
0.0000000000000000
 40
5.599998474121094
 41
0.0000000000000000
 71
     1
 72
     1
  1
{\H0.58x;{　　　　ｋＮ}}
 11
1.000000000000000
 21
0.0000000000000000
 31
0.0000000000000000
  7
KNJYOKO
  0
MTEXT
  5
357
100
AcDbEntity
  8
MAIN0
  6
CONTINUOUS
 62
3
100
AcDbMText
 10
378.8939818873615
 20
132.0066807891552
 30
0.0000000000000000
 40
5.599998474121094
 41
0.0000000000000000
 71
     1
 72
     1
  1
{\H0.48x;{（}}
 11
1.000000000000000
 21
0.0000000000000000
 31
0.0000000000000000
  7
KNJYOKO
  0
MTEXT
  5
358
100
AcDbEntity
  8
MAIN0
  6
CONTINUOUS
 62
3
100
AcDbMText
 10
402.8939818873615
 20
132.0066807891552
 30
0.0000000000000000
 40
5.599998474121094
 41
0.0000000000000000
 71
     1
 72
     1
  1
{\H0.58x;{　　　ｋｇｆ）}}
 11
1.000000000000000
 21
0.0000000000000000
 31
0.0000000000000000
  7
KNJYOKO
  0
LINE
  5
359
100
AcDbEntity
  8
WAKU0
  6
CONTINUOUS
 62
3
100
AcDbLine
 10
449.4456246986929
 20
54.69279929029426
 30
0.0000000000000000
 11
619.4456246986929
 21
54.69279929029426
 31
0.0000000000000000
  0
LINE
  5
35A
100
AcDbEntity
  8
WAKU0
  6
CONTINUOUS
 62
3
100
AcDbLine
 10
449.4456246986929
 20
54.69279929029426
 30
0.0000000000000000
 11
449.4456246986929
 21
15.69279929029426
 31
0.0000000000000000
  0
LINE
  5
35B
100
AcDbEntity
  8
WAKU0
  6
CONTINUOUS
 62
3
100
AcDbLine
 10
521.4456246986929
 20
54.69279929029426
 30
0.0000000000000000
 11
521.4456246986929
 21
15.69279929029426
 31
0.0000000000000000
  0
LINE
  5
35C
100
AcDbEntity
  8
WAKU0
  6
CONTINUOUS
 62
3
100
AcDbLine
 10
541.4456246986929
 20
54.69279929029426
 30
0.0000000000000000
 11
541.4456246986929
 21
15.69279929029426
 31
0.0000000000000000
  0
LINE
  5
35D
100
AcDbEntity
  8
WAKU0
  6
CONTINUOUS
 62
3
100
AcDbLine
 10
553.4456246986929
 20
54.69279929029426
 30
0.0000000000000000
 11
553.4456246986929
 21
15.69279929029426
 31
0.0000000000000000
  0
LINE
  5
35E
100
AcDbEntity
  8
WAKU0
  6
CONTINUOUS
 62
3
100
AcDbLine
 10
553.4456246986929
 20
40.69279929029426
 30
0.0000000000000000
 11
619.4456246986929
 21
40.69279929029426
 31
0.0000000000000000
  0
LINE
  5
35F
100
AcDbEntity
  8
WAKU0
  6
CONTINUOUS
 62
3
100
AcDbLine
 10
541.4456246986929
 20
26.69279929029426
 30
0.0000000000000000
 11
619.4456246986929
 21
26.69279929029426
 31
0.0000000000000000
  0
LINE
  5
360
100
AcDbEntity
  8
WAKU0
  6
CONTINUOUS
 62
3
100
AcDbLine
 10
584.4456246986929
 20
54.69279929029426
 30
0.0000000000000000
 11
584.4456246986929
 21
47.69279929029426
 31
0.0000000000000000
  0
LINE
  5
361
100
AcDbEntity
  8
WAKU0
  6
CONTINUOUS
 62
3
100
AcDbLine
 10
596.4456246986929
 20
54.69279929029426
 30
0.0000000000000000
 11
596.4456246986929
 21
47.69279929029426
 31
0.0000000000000000
  0
LINE
  5
362
100
AcDbEntity
  8
WAKU0
  6
CONTINUOUS
 62
3
100
AcDbLine
 10
521.4456246986929
 20
35.19279929029426
 30
0.0000000000000000
 11
541.4456246986929
 21
35.19279929029426
 31
0.0000000000000000
  0
LINE
  5
363
100
AcDbEntity
  8
WAKU0
  6
CONTINUOUS
 62
3
100
AcDbLine
 10
541.4456246986929
 20
47.69279929029426
 30
0.0000000000000000
 11
619.4456246986929
 21
47.69279929029426
 31
0.0000000000000000
  0
LINE
  5
364
100
AcDbEntity
  8
WAKU0
  6
CONTINUOUS
 62
3
100
AcDbLine
 10
449.4456246986929
 20
40.69279929029426
 30
0.0000000000000000
 11
521.4456246986929
 21
40.69279929029426
 31
0.0000000000000000
  0
LINE
  5
365
100
AcDbEntity
  8
WAKU0
  6
CONTINUOUS
 62
3
100
AcDbLine
 10
449.4456246986929
 20
26.69279929029426
 30
0.0000000000000000
 11
521.4456246986929
 21
26.69279929029426
 31
0.0000000000000000
  0
LINE
  5
366
100
AcDbEntity
  8
WAKU0
  6
CONTINUOUS
 62
3
100
AcDbLine
 10
497.4456246986929
 20
40.69279929029426
 30
0.0000000000000000
 11
497.4456246986929
 21
15.69279929029426
 31
0.0000000000000000
  0
LINE
  5
367
100
AcDbEntity
  8
WAKU0
  6
CONTINUOUS
 62
3
100
AcDbLine
 10
473.4456246986929
 20
40.69279929029426
 30
0.0000000000000000
 11
473.4456246986929
 21
26.69279929029426
 31
0.0000000000000000
  0
LINE
  5
368
100
AcDbEntity
  8
WAKU0
  6
CONTINUOUS
 62
3
100
AcDbLine
 10
509.4456246986929
 20
29.69279929029426
 30
0.0000000000000000
 11
509.4456246986929
 21
26.69279929029426
 31
0.0000000000000000
  0
LINE
  5
369
100
AcDbEntity
  8
WAKU0
  6
CONTINUOUS
 62
3
100
AcDbLine
 10
485.4456246986929
 20
29.69279929029426
 30
0.0000000000000000
 11
485.4456246986929
 21
26.69279929029426
 31
0.0000000000000000
  0
LINE
  5
36A
100
AcDbEntity
  8
WAKU0
  6
CONTINUOUS
 62
3
100
AcDbLine
 10
461.4456246986929
 20
29.69279929029426
 30
0.0000000000000000
 11
461.4456246986929
 21
26.69279929029426
 31
0.0000000000000000
  0
LINE
  5
36B
100
AcDbEntity
  8
WAKU0
  6
CONTINUOUS
 62
3
100
AcDbLine
 10
467.4456246986929
 20
54.69279929029426
 30
0.0000000000000000
 11
467.4456246986929
 21
40.69279929029426
 31
0.0000000000000000
  0
LINE
  5
36C
100
AcDbEntity
  8
WAKU0
  6
CONTINUOUS
 62
3
100
AcDbLine
 10
449.4456246986929
 20
48.69279929029426
 30
0.0000000000000000
 11
521.4456246986929
 21
48.69279929029426
 31
0.0000000000000000
  0
LINE
  5
36D
100
AcDbEntity
  8
WAKU0
  6
HIDDEN
 62
3
100
AcDbLine
 10
569.9456246986929
 20
26.69279929029426
 30
0.0000000000000000
 11
569.9456246986929
 21
15.69279929029426
 31
0.0000000000000000
  0
LINE
  5
36E
100
AcDbEntity
  8
WAKU0
  6
HIDDEN
 62
3
100
AcDbLine
 10
582.3456246986929
 20
26.69279929029426
 30
0.0000000000000000
 11
582.3456246986929
 21
15.69279929029426
 31
0.0000000000000000
  0
MTEXT
  5
36F
100
AcDbEntity
  8
WAKU0
  6
CONTINUOUS
 62
3
100
AcDbMText
 10
557.9756243720594
 20
52.74279924261055
 30
0.0000000000000000
 40
3.099999904632568
 41
0.0000000000000000
 71
     1
 72
     1
  1
{\H0.93x;{JN09T102}}
 11
1.000000000000000
 21
0.0000000000000000
 31
0.0000000000000000
  7
STANDARD
  0
MTEXT
  5
370
100
AcDbEntity
  8
WAKU0
  6
CONTINUOUS
 62
3
100
AcDbMText
 10
553.8456247046534
 20
45.74279924261055
 30
0.0000000000000000
 40
3.099999904632568
 41
0.0000000000000000
 71
     1
 72
     1
  1
{\H0.71x;{スクロールチャック　　ＳＣＲＯＬＬ　ＣＨＵＣＫ　９}}
 11
1.000000000000000
 21
0.0000000000000000
 31
0.0000000000000000
  7
KNJYOKO
  0
MTEXT
  5
371
100
AcDbEntity
  8
WAKU0
  6
CONTINUOUS
 62
3
100
AcDbMText
 10
564.0156241849008
 20
37.92613256004930
 30
0.0000000000000000
 40
3.099999904632568
 41
0.0000000000000000
 71
     1
 72
     1
  1
{\H0.94x;{ＪＮ０９Ｔ１０２　ガイケイ\P　ＯＵＴＳＩＤＥ　ＶＩＥＷ}}
 11
1.000000000000000
 21
0.0000000000000000
 31
0.0000000000000000
  7
KNJYOKO
  0
MTEXT
  5
372
100
AcDbEntity
  8
WAKU0
  6
CONTINUOUS
 62
3
100
AcDbMText
 10
527.4506245747152
 20
42.99279924261055
 30
0.0000000000000000
 40
3.099999904632568
 41
0.0000000000000000
 71
     1
 72
     1
  1
{\H0.90x;{1:2}}
 11
1.000000000000000
 21
0.0000000000000000
 31
0.0000000000000000
  7
STANDARD
  0
MTEXT
  5
373
100
AcDbEntity
  8
WAKU0
  6
CONTINUOUS
 62
3
100
AcDbMText
 10
583.8456248536650
 20
23.84279938566169
 30
0.0000000000000000
 40
5.300000190734863
 41
0.0000000000000000
 71
     1
 72
     1
  1
{\H0.90x;{1400}}
 11
1.000000000000000
 21
0.0000000000000000
 31
0.0000000000000000
  7
STANDARD
  0
MTEXT
  5
374
100
AcDbEntity
  8
WAKU0
  6
CONTINUOUS
 62
3
100
AcDbMText
 10
571.7456247821394
 20
23.84279938566169
 30
0.0000000000000000
 40
5.300000190734863
 41
0.0000000000000000
 71
     1
 72
     1
  1
{\H0.87x;{35}}
 11
1.000000000000000
 21
0.0000000000000000
 31
0.0000000000000000
  7
STANDARD
  0
MTEXT
  5
375
100
AcDbEntity
  8
WAKU0
  6
CONTINUOUS
 62
3
100
AcDbMText
 10
554.9456248179022
 20
23.84279938566169
 30
0.0000000000000000
 40
5.300000190734863
 41
0.0000000000000000
 71
     1
 72
     1
  1
{\H0.89x;{61S}}
 11
1.000000000000000
 21
0.0000000000000000
 31
0.0000000000000000
  7
STANDARD
  0
MTEXT
  5
376
100
AcDbEntity
  8
WAKU0
  6
CONTINUOUS
 62
3
100
AcDbMText
 10
609.4456247463766
 20
23.84279938566169
 30
0.0000000000000000
 40
5.300000190734863
 41
0.0000000000000000
 71
     1
 72
     1
  1
{\H0.81x;{3}}
 11
1.000000000000000
 21
0.0000000000000000
 31
0.0000000000000000
  7
STANDARD
  0
MTEXT
  5
377
100
AcDbEntity
  8
WAKU0
  6
CONTINUOUS
 62
3
100
AcDbMText
 10
498.8306249871794
 20
36.69279929029426
 30
0.0000000000000000
 40
3.000000000000000
 41
0.0000000000000000
 71
     7
 72
     1
  1
{\H0.93x;{DRAWN BY}}
 11
1.000000000000000
 21
0.0000000000000000
 31
0.0000000000000000
  7
STANDARD
  0
MTEXT
  5
378
100
AcDbEntity
  8
WAKU0
  6
CONTINUOUS
 62
3
100
AcDbMText
 10
478.6606244936529
 20
36.64279933797798
 30
0.0000000000000000
 40
3.099999904632568
 41
0.0000000000000000
 71
     7
 72
     1
  1
{\H0.92x;{CHIEF}}
 11
1.000000000000000
 21
0.0000000000000000
 31
0.0000000000000000
  7
STANDARD
  0
MTEXT
  5
379
100
AcDbEntity
  8
WAKU0
  6
CONTINUOUS
 62
3
100
AcDbMText
 10
451.8706244125906
 20
36.64279933797798
 30
0.0000000000000000
 40
3.099999904632568
 41
0.0000000000000000
 71
     7
 72
     1
  1
{\H0.92x;{MANAGER}}
 11
1.000000000000000
 21
0.0000000000000000
 31
0.0000000000000000
  7
STANDARD
  0
MTEXT
  5
37A
100
AcDbEntity
  8
WAKU0
  6
CONTINUOUS
 62
3
100
AcDbMText
 10
454.1056241288725
 20
21.82613265541674
 30
0.0000000000000000
 40
3.099999904632568
 41
0.0000000000000000
 71
     7
 72
     1
  1
{\H0.93x;{KITAGAWA IRON\PWORKS CO.,LTD.}}
 11
1.000000000000000
 21
0.0000000000000000
 31
0.0000000000000000
  7
STANDARD
  0
MTEXT
  5
37B
100
AcDbEntity
  8
WAKU0
  6
CONTINUOUS
 62
3
100
AcDbMText
 10
450.5306249156538
 20
50.19279929029426
 30
0.0000000000000000
 40
3.000000000000000
 41
0.0000000000000000
 71
     7
 72
     1
  1
{\H0.92x;{CAREER}}
 11
1.000000000000000
 21
0.0000000000000000
 31
0.0000000000000000
  7
STANDARD
  0
MTEXT
  5
37C
100
AcDbEntity
  8
WAKU0
  6
CONTINUOUS
 62
3
100
AcDbMText
 10
504.0556245341841
 20
22.64279933797798
 30
0.0000000000000000
 40
3.099999904632568
 41
0.0000000000000000
 71
     7
 72
     1
  1
{\H0.91x;{DATE}}
 11
1.000000000000000
 21
0.0000000000000000
 31
0.0000000000000000
  7
STANDARD
  0
MTEXT
  5
37D
100
AcDbEntity
  8
WAKU0
  6
CONTINUOUS
 62
3
100
AcDbMText
 10
523.3456249132696
 20
30.19279929029426
 30
0.0000000000000000
 40
3.000000000000000
 41
0.0000000000000000
 71
     7
 72
     1
  1
{\H0.63x;{3RD ANGLE}}
 11
1.000000000000000
 21
0.0000000000000000
 31
0.0000000000000000
  7
STANDARD
  0
MTEXT
  5
37E
100
AcDbEntity
  8
WAKU0
  6
CONTINUOUS
 62
3
100
AcDbMText
 10
524.6606244936529
 20
49.64279933797798
 30
0.0000000000000000
 40
3.099999904632568
 41
0.0000000000000000
 71
     7
 72
     1
  1
{\H0.92x;{SCALE}}
 11
1.000000000000000
 21
0.0000000000000000
 31
0.0000000000000000
  7
STANDARD
  0
MTEXT
  5
37F
100
AcDbEntity
  8
WAKU0
  6
CONTINUOUS
 62
3
100
AcDbMText
 10
615.1456247463766
 20
49.69279929029426
 30
0.0000000000000000
 40
3.000000000000000
 41
0.0000000000000000
 71
     7
 72
     1
  1
{\H0.63x;{kg}}
 11
1.000000000000000
 21
0.0000000000000000
 31
0.0000000000000000
  7
STANDARD
  0
MTEXT
  5
380
100
AcDbEntity
  8
WAKU0
  6
CONTINUOUS
 62
3
100
AcDbMText
 10
585.0456248417440
 20
49.69279929029426
 30
0.0000000000000000
 40
3.000000000000000
 41
0.0000000000000000
 71
     7
 72
     1
  1
{\H0.63x;{WEIGHT}}
 11
1.000000000000000
 21
0.0000000000000000
 31
0.0000000000000000
  7
STANDARD
  0
MTEXT
  5
381
100
AcDbEntity
  8
WAKU0
  6
CONTINUOUS
 62
3
100
AcDbMText
 10
543.4506245747152
 20
21.82613265541674
 30
0.0000000000000000
 40
3.099999904632568
 41
0.0000000000000000
 71
     7
 72
     1
  1
{\H0.90x;{DRW\PNO.}}
 11
1.000000000000000
 21
0.0000000000000000
 31
0.0000000000000000
  7
STANDARD
  0
MTEXT
  5
382
100
AcDbEntity
  8
WAKU0
  6
CONTINUOUS
 62
3
100
AcDbMText
 10
542.0556245341841
 20
35.64279933797798
 30
0.0000000000000000
 40
3.099999904632568
 41
0.0000000000000000
 71
     7
 72
     1
  1
{\H0.91x;{NAME}}
 11
1.000000000000000
 21
0.0000000000000000
 31
0.0000000000000000
  7
STANDARD
  0
MTEXT
  5
383
100
AcDbEntity
  8
WAKU0
  6
CONTINUOUS
 62
3
100
AcDbMText
 10
542.0556245341841
 20
49.64279933797798
 30
0.0000000000000000
 40
3.099999904632568
 41
0.0000000000000000
 71
     7
 72
     1
  1
{\H0.91x;{TYPE}}
 11
1.000000000000000
 21
0.0000000000000000
 31
0.0000000000000000
  7
STANDARD
  0
LINE
  5
384
100
AcDbEntity
  8
WAKU0
  6
HIDDEN
 62
3
100
AcDbLine
 10
616.6055811730814
 20
17.54279919492683
 30
0.0000000000000000
 11
606.3856683196718
 21
17.54279919492683
 31
0.0000000000000000
  0
LINE
  5
385
100
AcDbEntity
  8
WAKU0
  6
HIDDEN
 62
3
100
AcDbLine
 10
616.6055811730814
 20
17.54279919492676
 30
0.0000000000000000
 11
611.4956247463780
 21
26.39350335044327
 31
0.0000000000000000
  0
LINE
  5
386
100
AcDbEntity
  8
WAKU0
  6
HIDDEN
 62
3
100
AcDbLine
 10
611.4956247463780
 20
26.39350335044328
 30
0.0000000000000000
 11
606.3856683196718
 21
17.54279919492674
 31
0.0000000000000000
  0
LINE
  5
387
100
AcDbEntity
  8
WAKU0
  6
CONTINUOUS
 62
3
100
AcDbLine
 10
539.9170124740729
 20
19.47321350292238
 30
0.0000000000000000
 11
539.9170124740729
 21
25.47321350292241
 31
0.0000000000000000
  0
LINE
  5
388
100
AcDbEntity
  8
WAKU0
  6
CONTINUOUS
 62
3
100
AcDbLine
 10
533.3793188215154
 20
20.97321350292237
 30
0.0000000000000000
 11
533.3793188215154
 21
23.97321350292251
 31
0.0000000000000000
  0
LINE
  5
389
100
AcDbEntity
  8
WAKU0
  6
CENTER
 62
12
100
AcDbLine
 10
522.8778052501924
 20
22.47321350292239
 30
0.0000000000000000
 11
540.7222035951622
 21
22.47321350292239
 31
0.0000000000000000
  0
LINE
  5
38A
100
AcDbEntity
  8
WAKU0
  6
CENTER
 62
12
100
AcDbLine
 10
526.8930812844915
 20
18.25201591947874
 30
0.0000000000000000
 11
526.8930812844915
 21
26.59145031179369
 31
0.0000000000000000
  0
LINE
  5
38B
100
AcDbEntity
  8
WAKU0
  6
CONTINUOUS
 62
3
100
AcDbLine
 10
533.3793188215154
 20
23.97321350292224
 30
0.0000000000000000
 11
539.9170124740729
 21
25.47321350292221
 31
0.0000000000000000
  0
LINE
  5
38C
100
AcDbEntity
  8
WAKU0
  6
CONTINUOUS
 62
3
100
AcDbLine
 10
533.3793188215154
 20
20.97321350292237
 30
0.0000000000000000
 11
539.9170124740728
 21
19.47321350292238
 31
0.0000000000000000
  0
CIRCLE
  5
38D
100
AcDbEntity
  8
WAKU0
  6
CONTINUOUS
 62
3
100
AcDbCircle
 10
526.8930812844915
 20
22.47321350292240
 30
0.0000000000000000
 40
1.499999999999972
  0
CIRCLE
  5
38E
100
AcDbEntity
  8
WAKU0
  6
CONTINUOUS
 62
3
100
AcDbCircle
 10
526.8930812844915
 20
22.47321350292240
 30
0.0000000000000000
 40
2.999999999999979
  0
ENDSEC
  0
SECTION
  2
OBJECTS
  0
DICTIONARY
  5
3D4
100
AcDbDictionary
  3
ACAD_GROUP
350
3D5
  3
ACAD_MLINESTYLE
350
3D6
  3
DWGPROPS
350
3D7
  0
DICTIONARY
  5
3D5
102
{ACAD_REACTORS
330
3D4
102
}
100
AcDbDictionary
  0
DICTIONARY
  5
3D6
102
{ACAD_REACTORS
330
3D4
102
}
100
AcDbDictionary
  3
STANDARD
350
3D8
  0
MLINESTYLE
  5
3D8
102
{ACAD_REACTORS
330
3D6
102
}
100
AcDbMlineStyle
  2
STANDARD
 70
     0
  3

 62
   256
 51
90.00
 52
90.00
 71
     2
 49
0.50
 62
   256
  6
BYLAYER
 49
-0.50
 62
   256
  6
BYLAYER
  0
XRECORD
  5
3D7
102
{ACAD_REACTORS
330
3D4
102
}
100
AcDbXrecord
280
     1
  1
DWGPROPS COOKIE
  2
ＪＮ０９Ｔ１０２　ＯＵＴＳＩＤＥ　ＶＩＥＷ
  3

  4

  6
ＳＣＲＯＬＬ　ＣＨＵＣＫ　９
  7

  8

  9

300
=
301
=
302
=
303
=
304
=
305
=
306
=
307
=
308
=
309
=
 40
0.000000
 41
0.000000
 42
0.000000
  1

 90
        0
  0
ENDSEC
  0
EOF
