  0
SECTION
  2
HEADER
  9
$ACADVER
  1
AC1014
  9
$DWGCODEPAGE
  3
ANSI_932
  9
$LTSCALE
 40
20.0
  9
$FILLMODE
 70
     1
  9
$CLAYER
  8
0
  9
$PDMODE
 70
     0
  9
$SPLFRAME
 70
     0
  9
$SPLINETYPE
 70
     6
  9
$SPLINESEGS
 70
     8
  9
$DIMASZ
 40
2.000000
  9
$DIMEXE
 40
2.000000
  9
$DIMEXO
 40
0.800000
  9
$DIMTAD
 70
     1
  9
$DIMTIH
 70
     0
  9
$DIMTOH
 70
     0
  9
$DIMTVP
 40
0.500000
  9
$DIMTXT
 40
3.100000
  9
$EXTMIN
 10
0.000000
 20
0.000000
 30
0.000000
  9
$EXTMAX
 10
297.000000
 20
420.000000
 30
0.000000
  9
$MEASUREMENT
 70
  1
  9
$LIMMIN
 10
0.000000
 20
0.000000
  9
$LIMMAX
 10
297.000000
 20
420.000000
  9
$HANDLING
 70
     1
  9
$HANDSEED
  5
471
  9
$DIMBLK
  1
_OPEN
  9
$DIMDEC
 70
     3
  9
$DIMAUNIT
 70
     1
  9
$DIMZIN
 70
     8
  9
$DIMTOFL
 70
     1
  0
ENDSEC
  0
SECTION
  2
CLASSES
  0
ENDSEC
  0
SECTION
  2
TABLES
  0
TABLE
  2
VPORT
  5
419
100
AcDbSymbolTable
 70
     1
  0
VPORT
  5
41A
100
AcDbSymbolTableRecord
100
AcDbViewportTableRecord
  2
*ACTIVE
 70
     0
 12
269.061587
 22
148.251976
 40
354.645198
 41
1.315108
  0
ENDTAB
  0
TABLE
  2
LTYPE
  5
41B
100
AcDbSymbolTable
 70
     4
  0
LTYPE
  5
41C
100
AcDbSymbolTableRecord
100
AcDbLinetypeTableRecord
  2
BYBLOCK
 70
     0
  3

 72
    65
 73
     0
 40
0.0
  0
LTYPE
  5
41D
100
AcDbSymbolTableRecord
100
AcDbLinetypeTableRecord
  2
BYLAYER
 70
     0
  3

 72
    65
 73
     0
 40
0.0
  0
LTYPE
  5
41E
100
AcDbSymbolTableRecord
100
AcDbLinetypeTableRecord
  2
CONTINUOUS
 70
     0
  3
Solid line (NEC CAE2D for Win R12.1 : 2019.02.19)
 72
    65
 73
     0
 40
0.0
  0
LTYPE
  5
41F
100
AcDbSymbolTableRecord
100
AcDbLinetypeTableRecord
  2
HIDDEN
 70
     0
  3
__ __ __ __ __ __ __ __ __ __ __ __ __ __
 72
    65
 73
     2
 40
0.375
 49
0.25
 74
     0
 49
-0.125
 74
     0
  0
LTYPE
  5
420
100
AcDbSymbolTableRecord
100
AcDbLinetypeTableRecord
  2
CENTER
 70
     0
  3
____ _ ____ _ ____ _ ____ _ ____ _ ____
 72
    65
 73
     4
 40
2.0
 49
1.25
 74
     0
 49
-0.25
 74
     0
 49
0.25
 74
     0
 49
-0.25
 74
     0
  0
LTYPE
  5
421
100
AcDbSymbolTableRecord
100
AcDbLinetypeTableRecord
  2
PHANTOM
 70
     0
  3
______  __  __  ______  __  __  ______ 
 72
    65
 73
     6
 40
2.5
 49
1.25
 74
     0
 49
-0.25
 74
     0
 49
0.25
 74
     0
 49
-0.25
 74
     0
 49
0.25
 74
     0
 49
-0.25
 74
     0
  0
ENDTAB
  0
TABLE
  2
LAYER
  5
422
100
AcDbSymbolTable
 70
    11
  0
LAYER
  5
423
100
AcDbSymbolTableRecord
100
AcDbLayerTableRecord
  2
0
 70
     0
 62
     7
  6
CONTINUOUS
  0
LAYER
  5
424
100
AcDbSymbolTableRecord
100
AcDbLayerTableRecord
  2
MAIN0
 70
     0
 62
     7
  6
CONTINUOUS
  0
LAYER
  5
425
100
AcDbSymbolTableRecord
100
AcDbLayerTableRecord
  2
MAIN1
 70
     0
 62
     7
  6
CONTINUOUS
  0
LAYER
  5
426
100
AcDbSymbolTableRecord
100
AcDbLayerTableRecord
  2
MAIN2
 70
     0
 62
     7
  6
CONTINUOUS
  0
LAYER
  5
427
100
AcDbSymbolTableRecord
100
AcDbLayerTableRecord
  2
MAIN3
 70
     0
 62
     7
  6
CONTINUOUS
  0
LAYER
  5
428
100
AcDbSymbolTableRecord
100
AcDbLayerTableRecord
  2
MAIN1023
 70
     0
 62
    16
  6
CONTINUOUS
  0
LAYER
  5
429
100
AcDbSymbolTableRecord
100
AcDbLayerTableRecord
  2
A0
 70
     0
 62
     7
  6
CONTINUOUS
  0
LAYER
  5
42A
100
AcDbSymbolTableRecord
100
AcDbLayerTableRecord
  2
A1
 70
     0
 62
     7
  6
CONTINUOUS
  0
LAYER
  5
42B
100
AcDbSymbolTableRecord
100
AcDbLayerTableRecord
  2
A1023
 70
     0
 62
    16
  6
CONTINUOUS
  0
LAYER
  5
42C
100
AcDbSymbolTableRecord
100
AcDbLayerTableRecord
  2
WAKU0
 70
     0
 62
     7
  6
CONTINUOUS
  0
LAYER
  5
42D
100
AcDbSymbolTableRecord
100
AcDbLayerTableRecord
  2
WAKU1023
 70
     0
 62
    16
  6
CONTINUOUS
  0
ENDTAB
  0
TABLE
  2
STYLE
  5
42E
100
AcDbSymbolTable
 70
     4
  0
STYLE
  5
42F
100
AcDbSymbolTableRecord
100
AcDbTextStyleTableRecord
  2
STANDARD
 70
    64
 40
0.0
 41
1.0
 50
0.0
 71
     0
 42
3.099999904632568
  3
TXT
  4

  0
STYLE
  5
430
100
AcDbSymbolTableRecord
100
AcDbTextStyleTableRecord
  2
ANKTATE
 70
    68
 40
0.0
 41
1.0
 50
0.0
 71
     0
 42
3.099999904632568
  3
TXT
  4

  0
STYLE
  5
26A
100
AcDbSymbolTableRecord
100
AcDbTextStyleTableRecord
  2
KNJYOKO
 70
    64
 40
0.0
 41
1.0
 50
0.0
 71
     0
 42
3.099999904632568
  3
TXT
  4
BIGFONT
  0
STYLE
  5
431
100
AcDbSymbolTableRecord
100
AcDbTextStyleTableRecord
  2
KNJTATE
 70
    68
 40
0.0
 41
1.0
 50
0.0
 71
     0
 42
3.099999904632568
  3
TXT
  4
BIGFONT
  0
ENDTAB
  0
TABLE
  2
VIEW
  5
432
100
AcDbSymbolTable
 70
     0
  0
ENDTAB
  0
TABLE
  2
UCS
  5
433
100
AcDbSymbolTable
 70
     0
  0
ENDTAB
  0
TABLE
  2
APPID
  5
434
100
AcDbSymbolTable
 70
     1
  0
APPID
  5
435
100
AcDbSymbolTableRecord
100
AcDbRegAppTableRecord
  2
ACAD
 70
     0
  0
ENDTAB
  0
TABLE
  2
DIMSTYLE
  5
436
100
AcDbSymbolTable
 70
     1
  0
DIMSTYLE
105
437
100
AcDbSymbolTableRecord
100
AcDbDimStyleTableRecord
  2
STANDARD
 70
     0
 41
2.000000
 44
2.000000
 42
0.800000
145
0.661290
140
3.100000
144
1.000000
146
0.903226
340
42F
  0
DIMSTYLE
105
438
100
AcDbSymbolTableRecord
100
AcDbDimStyleTableRecord
  2
MAIN001
 70
     0
 41
2.000000
 44
2.000000
 42
0.800000
145
0.661290
140
3.100000
144
1.000000
146
0.903226
 77
     1
 73
     0
 74
     0
271
     3
275
     1
 78
     8
172
     1
340
42F
  0
DIMSTYLE
105
439
100
AcDbSymbolTableRecord
100
AcDbDimStyleTableRecord
  2
A002
 70
     0
 41
3.000000
 44
3.000000
 42
1.200000
145
0.607527
140
4.650000
144
1.000000
146
0.903226
 77
     1
 73
     0
 74
     0
271
     3
275
     1
 78
     8
172
     1
340
42F
  0
DIMSTYLE
105
43A
100
AcDbSymbolTableRecord
100
AcDbDimStyleTableRecord
  2
WAKU003
 70
     0
 41
2.000000
 44
2.000000
 42
0.800000
145
0.661290
140
3.100000
144
1.000000
146
0.903226
 77
     1
 73
     0
 74
     0
271
     3
275
     1
 78
     8
172
     1
340
42F
  0
ENDTAB
  0
TABLE
  2
BLOCK_RECORD
  5
43B
100
AcDbSymbolTable
 70
    54
  0
BLOCK_RECORD
  5
43C
100
AcDbSymbolTableRecord
100
AcDbBlockTableRecord
  2
*MODEL_SPACE
  0
BLOCK_RECORD
  5
43D
100
AcDbSymbolTableRecord
100
AcDbBlockTableRecord
  2
*PAPER_SPACE
  0
BLOCK_RECORD
  5
1
100
AcDbSymbolTableRecord
100
AcDbBlockTableRecord
  2
_NONE
  0
BLOCK_RECORD
  5
4
100
AcDbSymbolTableRecord
100
AcDbBlockTableRecord
  2
_CLOSED
  0
BLOCK_RECORD
  5
B
100
AcDbSymbolTableRecord
100
AcDbBlockTableRecord
  2
_DOT
  0
BLOCK_RECORD
  5
13
100
AcDbSymbolTableRecord
100
AcDbBlockTableRecord
  2
_OPEN
  0
BLOCK_RECORD
  5
19
100
AcDbSymbolTableRecord
100
AcDbBlockTableRecord
  2
_ORIGIN
  0
BLOCK_RECORD
  5
1E
100
AcDbSymbolTableRecord
100
AcDbBlockTableRecord
  2
_OPEN30
  0
BLOCK_RECORD
  5
24
100
AcDbSymbolTableRecord
100
AcDbBlockTableRecord
  2
_BOXFILLED
  0
BLOCK_RECORD
  5
29
100
AcDbSymbolTableRecord
100
AcDbBlockTableRecord
  2
_BOXBLANK
  0
BLOCK_RECORD
  5
31
100
AcDbSymbolTableRecord
100
AcDbBlockTableRecord
  2
_OBLIQUE
  0
BLOCK_RECORD
  5
35
100
AcDbSymbolTableRecord
100
AcDbBlockTableRecord
  2
_OPEN90
  0
BLOCK_RECORD
  5
3B
100
AcDbSymbolTableRecord
100
AcDbBlockTableRecord
  2
_CLOSEDBLANK
  0
BLOCK_RECORD
  5
41
100
AcDbSymbolTableRecord
100
AcDbBlockTableRecord
  2
_DOTBLANK
  0
BLOCK_RECORD
  5
43E
100
AcDbSymbolTableRecord
100
AcDbBlockTableRecord
  2
*D0
  0
BLOCK_RECORD
  5
43F
100
AcDbSymbolTableRecord
100
AcDbBlockTableRecord
  2
*D1
  0
BLOCK_RECORD
  5
440
100
AcDbSymbolTableRecord
100
AcDbBlockTableRecord
  2
*D2
  0
BLOCK_RECORD
  5
441
100
AcDbSymbolTableRecord
100
AcDbBlockTableRecord
  2
*D3
  0
BLOCK_RECORD
  5
442
100
AcDbSymbolTableRecord
100
AcDbBlockTableRecord
  2
*D4
  0
BLOCK_RECORD
  5
443
100
AcDbSymbolTableRecord
100
AcDbBlockTableRecord
  2
*D5
  0
BLOCK_RECORD
  5
444
100
AcDbSymbolTableRecord
100
AcDbBlockTableRecord
  2
*D6
  0
BLOCK_RECORD
  5
445
100
AcDbSymbolTableRecord
100
AcDbBlockTableRecord
  2
*D7
  0
BLOCK_RECORD
  5
446
100
AcDbSymbolTableRecord
100
AcDbBlockTableRecord
  2
*D8
  0
BLOCK_RECORD
  5
447
100
AcDbSymbolTableRecord
100
AcDbBlockTableRecord
  2
*D9
  0
BLOCK_RECORD
  5
448
100
AcDbSymbolTableRecord
100
AcDbBlockTableRecord
  2
*D10
  0
BLOCK_RECORD
  5
449
100
AcDbSymbolTableRecord
100
AcDbBlockTableRecord
  2
*D11
  0
BLOCK_RECORD
  5
44A
100
AcDbSymbolTableRecord
100
AcDbBlockTableRecord
  2
*D12
  0
BLOCK_RECORD
  5
44B
100
AcDbSymbolTableRecord
100
AcDbBlockTableRecord
  2
*D13
  0
BLOCK_RECORD
  5
44C
100
AcDbSymbolTableRecord
100
AcDbBlockTableRecord
  2
*D14
  0
BLOCK_RECORD
  5
44D
100
AcDbSymbolTableRecord
100
AcDbBlockTableRecord
  2
*D15
  0
BLOCK_RECORD
  5
44E
100
AcDbSymbolTableRecord
100
AcDbBlockTableRecord
  2
*D16
  0
BLOCK_RECORD
  5
44F
100
AcDbSymbolTableRecord
100
AcDbBlockTableRecord
  2
*D17
  0
BLOCK_RECORD
  5
450
100
AcDbSymbolTableRecord
100
AcDbBlockTableRecord
  2
*D18
  0
BLOCK_RECORD
  5
451
100
AcDbSymbolTableRecord
100
AcDbBlockTableRecord
  2
*D19
  0
BLOCK_RECORD
  5
452
100
AcDbSymbolTableRecord
100
AcDbBlockTableRecord
  2
*D20
  0
BLOCK_RECORD
  5
453
100
AcDbSymbolTableRecord
100
AcDbBlockTableRecord
  2
*D21
  0
BLOCK_RECORD
  5
454
100
AcDbSymbolTableRecord
100
AcDbBlockTableRecord
  2
*D22
  0
BLOCK_RECORD
  5
455
100
AcDbSymbolTableRecord
100
AcDbBlockTableRecord
  2
*D23
  0
BLOCK_RECORD
  5
456
100
AcDbSymbolTableRecord
100
AcDbBlockTableRecord
  2
*D24
  0
BLOCK_RECORD
  5
457
100
AcDbSymbolTableRecord
100
AcDbBlockTableRecord
  2
*D25
  0
BLOCK_RECORD
  5
458
100
AcDbSymbolTableRecord
100
AcDbBlockTableRecord
  2
*D26
  0
BLOCK_RECORD
  5
459
100
AcDbSymbolTableRecord
100
AcDbBlockTableRecord
  2
*D27
  0
BLOCK_RECORD
  5
45A
100
AcDbSymbolTableRecord
100
AcDbBlockTableRecord
  2
*D28
  0
BLOCK_RECORD
  5
45B
100
AcDbSymbolTableRecord
100
AcDbBlockTableRecord
  2
*D29
  0
BLOCK_RECORD
  5
45C
100
AcDbSymbolTableRecord
100
AcDbBlockTableRecord
  2
*D30
  0
BLOCK_RECORD
  5
45D
100
AcDbSymbolTableRecord
100
AcDbBlockTableRecord
  2
*D31
  0
BLOCK_RECORD
  5
45E
100
AcDbSymbolTableRecord
100
AcDbBlockTableRecord
  2
*D32
  0
BLOCK_RECORD
  5
45F
100
AcDbSymbolTableRecord
100
AcDbBlockTableRecord
  2
*D33
  0
BLOCK_RECORD
  5
460
100
AcDbSymbolTableRecord
100
AcDbBlockTableRecord
  2
*D34
  0
BLOCK_RECORD
  5
461
100
AcDbSymbolTableRecord
100
AcDbBlockTableRecord
  2
*D35
  0
BLOCK_RECORD
  5
462
100
AcDbSymbolTableRecord
100
AcDbBlockTableRecord
  2
*D36
  0
BLOCK_RECORD
  5
463
100
AcDbSymbolTableRecord
100
AcDbBlockTableRecord
  2
*D37
  0
BLOCK_RECORD
  5
464
100
AcDbSymbolTableRecord
100
AcDbBlockTableRecord
  2
*D38
  0
BLOCK_RECORD
  5
465
100
AcDbSymbolTableRecord
100
AcDbBlockTableRecord
  2
*D39
  0
BLOCK_RECORD
  5
466
100
AcDbSymbolTableRecord
100
AcDbBlockTableRecord
  2
*D40
  0
BLOCK_RECORD
  5
467
100
AcDbSymbolTableRecord
100
AcDbBlockTableRecord
  2
*D41
  0
ENDTAB
  0
ENDSEC
  0
SECTION
  2
BLOCKS
  0
BLOCK
  5
468
100
AcDbEntity
  8
0
100
AcDbBlockBegin
  2
*MODEL_SPACE
 70
     0
 10
0.0
 20
0.0
 30
0.0
  3
*MODEL_SPACE
  1

  0
ENDBLK
  5
469
100
AcDbEntity
  8
0
100
AcDbBlockEnd
  0
BLOCK
  5
46A
100
AcDbEntity
  8
0
100
AcDbBlockBegin
  2
*PAPER_SPACE
 70
     0
 10
0.0
 20
0.0
 30
0.0
  3
*PAPER_SPACE
  1

  0
ENDBLK
  5
46B
100
AcDbEntity
  8
0
100
AcDbBlockEnd
  0
BLOCK
  5
2
100
AcDbEntity
  8
0
100
AcDbBlockBegin
  2
_NONE
 70
     0
 10
0.0
 20
0.0
 30
0.0
  3
_NONE
  1

  0
ENDBLK
  5
3
100
AcDbEntity
  8
0
100
AcDbBlockEnd
  0
BLOCK
  5
5
100
AcDbEntity
  8
0
100
AcDbBlockBegin
  2
_CLOSED
 70
     0
 10
0.0
 20
0.0
 30
0.0
  3
_CLOSED
  1

  0
LINE
  5
6
100
AcDbEntity
  8
0
  6
BYBLOCK
 62
     0
100
AcDbLine
 10
-1.0
 20
0.166667
 30
0.0
 11
0.0
 21
0.0
 31
0.0
  0
LINE
  5
7
100
AcDbEntity
  8
0
  6
BYBLOCK
 62
     0
100
AcDbLine
 10
0.0
 20
0.0
 30
0.0
 11
-1.0
 21
-0.166667
 31
0.0
  0
LINE
  5
8
100
AcDbEntity
  8
0
  6
BYBLOCK
 62
     0
100
AcDbLine
 10
-1.0
 20
0.166667
 30
0.0
 11
-1.0
 21
-0.166667
 31
0.0
  0
LINE
  5
9
100
AcDbEntity
  8
0
  6
BYBLOCK
 62
     0
100
AcDbLine
 10
0.0
 20
0.0
 30
0.0
 11
-1.0
 21
0.0
 31
0.0
  0
ENDBLK
  5
A
100
AcDbEntity
  8
0
100
AcDbBlockEnd
  0
BLOCK
  5
C
100
AcDbEntity
  8
0
100
AcDbBlockBegin
  2
_DOT
 70
     0
 10
0.0
 20
0.0
 30
0.0
  3
_DOT
  1

  0
POLYLINE
  5
D
100
AcDbEntity
  8
0
  6
BYBLOCK
 62
     0
100
AcDb2dPolyline
 66
     1
 10
0.0
 20
0.0
 30
0.0
 70
     1
 40
0.5
 41
0.5
  0
VERTEX
  5
E
100
AcDbEntity
  8
0
  6
BYBLOCK
 62
     0
100
AcDbVertex
100
AcDb2dVertex
 10
-0.25
 20
0.0
 30
0.0
 42
1.0
  0
VERTEX
  5
F
100
AcDbEntity
  8
0
  6
BYBLOCK
 62
     0
100
AcDbVertex
100
AcDb2dVertex
 10
0.25
 20
0.0
 30
0.0
 42
1.0
  0
SEQEND
  5
10
100
AcDbEntity
  8
0
  6
BYBLOCK
 62
     0
  0
LINE
  5
11
100
AcDbEntity
  8
0
  6
BYBLOCK
 62
     0
100
AcDbLine
 10
-0.5
 20
0.0
 30
0.0
 11
-1.0
 21
0.0
 31
0.0
  0
ENDBLK
  5
12
100
AcDbEntity
  8
0
100
AcDbBlockEnd
  0
BLOCK
  5
14
100
AcDbEntity
  8
0
100
AcDbBlockBegin
  2
_OPEN
 70
     0
 10
0.0
 20
0.0
 30
0.0
  3
_OPEN
  1

  0
LINE
  5
15
100
AcDbEntity
  8
0
  6
BYBLOCK
 62
     0
100
AcDbLine
 10
-1.0
 20
0.166667
 30
0.0
 11
0.0
 21
0.0
 31
0.0
  0
LINE
  5
16
100
AcDbEntity
  8
0
  6
BYBLOCK
 62
     0
100
AcDbLine
 10
0.0
 20
0.0
 30
0.0
 11
-1.0
 21
-0.166667
 31
0.0
  0
LINE
  5
17
100
AcDbEntity
  8
0
  6
BYBLOCK
 62
     0
100
AcDbLine
 10
0.0
 20
0.0
 30
0.0
 11
-1.0
 21
0.0
 31
0.0
  0
ENDBLK
  5
18
100
AcDbEntity
  8
0
100
AcDbBlockEnd
  0
BLOCK
  5
1A
100
AcDbEntity
  8
0
100
AcDbBlockBegin
  2
_ORIGIN
 70
     0
 10
0.0
 20
0.0
 30
0.0
  3
_ORIGIN
  1

  0
CIRCLE
  5
1B
100
AcDbEntity
  8
0
  6
BYBLOCK
 62
     0
100
AcDbCircle
 10
0.0
 20
0.0
 30
0.0
 40
0.5
  0
LINE
  5
1C
100
AcDbEntity
  8
0
  6
BYBLOCK
 62
     0
100
AcDbLine
 10
0.0
 20
0.0
 30
0.0
 11
-1.0
 21
0.0
 31
0.0
  0
ENDBLK
  5
1D
100
AcDbEntity
  8
0
100
AcDbBlockEnd
  0
BLOCK
  5
1F
100
AcDbEntity
  8
0
100
AcDbBlockBegin
  2
_OPEN30
 70
     0
 10
0.0
 20
0.0
 30
0.0
  3
_OPEN30
  1

  0
LINE
  5
20
100
AcDbEntity
  8
0
  6
BYBLOCK
 62
     0
100
AcDbLine
 10
-1.0
 20
0.267949
 30
0.0
 11
0.0
 21
0.0
 31
0.0
  0
LINE
  5
21
100
AcDbEntity
  8
0
  6
BYBLOCK
 62
     0
100
AcDbLine
 10
0.0
 20
0.0
 30
0.0
 11
-1.0
 21
-0.267949
 31
0.0
  0
LINE
  5
22
100
AcDbEntity
  8
0
  6
BYBLOCK
 62
     0
100
AcDbLine
 10
0.0
 20
0.0
 30
0.0
 11
-1.0
 21
0.0
 31
0.0
  0
ENDBLK
  5
23
100
AcDbEntity
  8
0
100
AcDbBlockEnd
  0
BLOCK
  5
25
100
AcDbEntity
  8
0
100
AcDbBlockBegin
  2
_BOXFILLED
 70
     0
 10
0.0
 20
0.0
 30
0.0
  3
_BOXFILLED
  1

  0
SOLID
  5
26
100
AcDbEntity
  8
0
  6
BYBLOCK
 62
     0
100
AcDbTrace
 10
-0.5
 20
0.5
 30
0.0
 11
0.5
 21
0.5
 31
0.0
 12
-0.5
 22
-0.5
 32
0.0
 13
0.5
 23
-0.5
 33
0.0
  0
LINE
  5
27
100
AcDbEntity
  8
0
  6
BYBLOCK
 62
     0
100
AcDbLine
 10
-0.5
 20
0.0
 30
0.0
 11
-1.0
 21
0.0
 31
0.0
  0
ENDBLK
  5
28
100
AcDbEntity
  8
0
100
AcDbBlockEnd
  0
BLOCK
  5
2A
100
AcDbEntity
  8
0
100
AcDbBlockBegin
  2
_BOXBLANK
 70
     0
 10
0.0
 20
0.0
 30
0.0
  3
_BOXBLANK
  1

  0
LINE
  5
2B
100
AcDbEntity
  8
0
  6
BYBLOCK
 62
     0
100
AcDbLine
 10
-0.5
 20
-0.5
 30
0.0
 11
0.5
 21
-0.5
 31
0.0
  0
LINE
  5
2C
100
AcDbEntity
  8
0
  6
BYBLOCK
 62
     0
100
AcDbLine
 10
0.5
 20
-0.5
 30
0.0
 11
0.5
 21
0.5
 31
0.0
  0
LINE
  5
2D
100
AcDbEntity
  8
0
  6
BYBLOCK
 62
     0
100
AcDbLine
 10
0.5
 20
0.5
 30
0.0
 11
-0.5
 21
0.5
 31
0.0
  0
LINE
  5
2E
100
AcDbEntity
  8
0
  6
BYBLOCK
 62
     0
100
AcDbLine
 10
-0.5
 20
0.5
 30
0.0
 11
-0.5
 21
-0.5
 31
0.0
  0
LINE
  5
2F
100
AcDbEntity
  8
0
  6
BYBLOCK
 62
     0
100
AcDbLine
 10
-0.5
 20
0.0
 30
0.0
 11
-1.0
 21
0.0
 31
0.0
  0
ENDBLK
  5
30
100
AcDbEntity
  8
0
100
AcDbBlockEnd
  0
BLOCK
  5
32
100
AcDbEntity
  8
0
100
AcDbBlockBegin
  2
_OBLIQUE
 70
     0
 10
0.0
 20
0.0
 30
0.0
  3
_OBLIQUE
  1

  0
LINE
  5
33
100
AcDbEntity
  8
0
  6
BYBLOCK
 62
     0
100
AcDbLine
 10
-0.5
 20
-0.5
 30
0.0
 11
0.5
 21
0.5
 31
0.0
  0
ENDBLK
  5
34
100
AcDbEntity
  8
0
100
AcDbBlockEnd
  0
BLOCK
  5
36
100
AcDbEntity
  8
0
100
AcDbBlockBegin
  2
_OPEN90
 70
     0
 10
0.0
 20
0.0
 30
0.0
  3
_OPEN90
  1

  0
LINE
  5
37
100
AcDbEntity
  8
0
  6
BYBLOCK
 62
     0
100
AcDbLine
 10
-0.5
 20
0.5
 30
0.0
 11
0.0
 21
0.0
 31
0.0
  0
LINE
  5
38
100
AcDbEntity
  8
0
  6
BYBLOCK
 62
     0
100
AcDbLine
 10
0.0
 20
0.0
 30
0.0
 11
-0.5
 21
-0.5
 31
0.0
  0
LINE
  5
39
100
AcDbEntity
  8
0
  6
BYBLOCK
 62
     0
100
AcDbLine
 10
0.0
 20
0.0
 30
0.0
 11
-1.0
 21
0.0
 31
0.0
  0
ENDBLK
  5
3A
100
AcDbEntity
  8
0
100
AcDbBlockEnd
  0
BLOCK
  5
3C
100
AcDbEntity
  8
0
100
AcDbBlockBegin
  2
_CLOSEDBLANK
 70
     0
 10
0.0
 20
0.0
 30
0.0
  3
_CLOSEDBLANK
  1

  0
LINE
  5
3D
100
AcDbEntity
  8
0
  6
BYBLOCK
 62
     0
100
AcDbLine
 10
-1.0
 20
0.1666666666666666
 30
0.0
 11
0.0
 21
0.0
 31
0.0
  0
LINE
  5
3E
100
AcDbEntity
  8
0
  6
BYBLOCK
 62
     0
100
AcDbLine
 10
0.0
 20
0.0
 30
0.0
 11
-1.0
 21
-0.1666666666666666
 31
0.0
  0
LINE
  5
3F
100
AcDbEntity
  8
0
  6
BYBLOCK
 62
     0
100
AcDbLine
 10
-1.0
 20
0.1666666666666666
 30
0.0
 11
-1.0
 21
-0.1666666666666666
 31
0.0
  0
ENDBLK
  5
40
100
AcDbEntity
  8
0
100
AcDbBlockEnd
  0
BLOCK
  5
42
100
AcDbEntity
  8
0
100
AcDbBlockBegin
  2
_DOTBLANK
 70
     0
 10
0.0
 20
0.0
 30
0.0
  3
_DOTBLANK
  1

  0
CIRCLE
  5
43
100
AcDbEntity
  8
0
  6
BYBLOCK
 62
     0
100
AcDbCircle
 10
0.0
 20
0.0
 30
0.0
 40
0.5
  0
LINE
  5
44
100
AcDbEntity
  8
0
  6
BYBLOCK
 62
     0
100
AcDbLine
 10
-0.5
 20
0.0
 30
0.0
 11
-1.0
 21
0.0
 31
0.0
  0
ENDBLK
  5
45
100
AcDbEntity
  8
0
100
AcDbBlockEnd
  0
BLOCK
  5
1A8
100
AcDbEntity
  8
MAIN0
  6
CONTINUOUS
 62
1
100
AcDbBlockBegin
  2
*D0
 70
    65
 10
0.0
 20
0.0
 30
0.0
  0
LINE
  5
1A9
100
AcDbEntity
  8
MAIN0
  6
BYBLOCK
 62
0
100
AcDbLine
 10
302.1776279238159
 20
295.5177021902267
 30
0.0000000000000000
 11
302.1776279238159
 21
318.2764938302023
 31
0.0000000000000000
  0
LINE
  5
1AA
100
AcDbEntity
  8
MAIN0
  6
BYBLOCK
 62
0
100
AcDbLine
 10
304.1776279238159
 20
316.2764938302023
 30
0.0000000000000000
 11
400.1776279238158
 21
316.2764938302023
 31
0.0000000000000000
  0
INSERT
  5
1AB
100
AcDbEntity
  8
MAIN0
  6
BYBLOCK
 62
0
100
AcDbBlockReference
  2
_OPEN
 10
302.1776279238159
 20
316.2764938302023
 30
0.0000000000000000
 41
2.000000000000000
 42
2.000000000000000
 43
2.000000000000000
 50
180.0000000000000
  0
INSERT
  5
1AC
100
AcDbEntity
  8
MAIN0
  6
BYBLOCK
 62
0
100
AcDbBlockReference
  2
_OPEN
 10
402.1776279238158
 20
316.2764938302023
 30
0.0000000000000000
 41
2.000000000000000
 42
2.000000000000000
 43
2.000000000000000
 50
0.0000000000000000
  0
LINE
  5
1AD
100
AcDbEntity
  8
MAIN0
  6
BYBLOCK
 62
0
100
AcDbLine
 10
402.1776279238158
 20
295.5177021902399
 30
0.0000000000000000
 11
402.1776279238158
 21
318.2764938302023
 31
0.0000000000000000
  0
MTEXT
  5
1AE
100
AcDbEntity
  8
MAIN0
  6
BYBLOCK
 62
0
100
AcDbMText
 10
352.1776279238158
 20
318.3264937825186
 30
0.0000000000000000
 40
3.099999904632568
 41
0.0000000000000000
 71
     5
 72
     1
  1
\A1;170
 11
1.000000000000000
 21
0.0000000000000000
 31
0.0000000000000000
  7
STANDARD
  0
ENDBLK
  5
1AF
100
AcDbEntity
  8
MAIN0
  6
CONTINUOUS
 62
1
100
AcDbBlockEnd
  0
BLOCK
  5
1B1
100
AcDbEntity
  8
MAIN0
  6
CONTINUOUS
 62
3
100
AcDbBlockBegin
  2
*D1
 70
    65
 10
0.0
 20
0.0
 30
0.0
  0
LINE
  5
1B2
100
AcDbEntity
  8
MAIN0
  6
BYBLOCK
 62
0
100
AcDbLine
 10
357.6776279355373
 20
234.7177021783130
 30
0.0000000000000000
 11
376.4632758999742
 21
234.7177021783130
 31
0.0000000000000000
  0
LINE
  5
1B3
100
AcDbEntity
  8
MAIN0
  6
BYBLOCK
 62
0
100
AcDbLine
 10
374.4632758999742
 20
236.7177021783130
 30
0.0000000000000000
 11
374.4632758999742
 21
307.7177021783123
 31
0.0000000000000000
  0
INSERT
  5
1B4
100
AcDbEntity
  8
MAIN0
  6
BYBLOCK
 62
0
100
AcDbBlockReference
  2
_OPEN
 10
374.4632758999742
 20
234.7177021783130
 30
0.0000000000000000
 41
2.000000000000000
 42
2.000000000000000
 43
2.000000000000000
 50
270.0000000000000
  0
INSERT
  5
1B5
100
AcDbEntity
  8
MAIN0
  6
BYBLOCK
 62
0
100
AcDbBlockReference
  2
_OPEN
 10
374.4632758999742
 20
309.7177021783123
 30
0.0000000000000000
 41
2.000000000000000
 42
2.000000000000000
 43
2.000000000000000
 50
90.00000000000000
  0
LINE
  5
1B6
100
AcDbEntity
  8
MAIN0
  6
BYBLOCK
 62
0
100
AcDbLine
 10
352.9776279357865
 20
309.7177021783123
 30
0.0000000000000000
 11
376.4632758999742
 21
309.7177021783123
 31
0.0000000000000000
  0
MTEXT
  5
1B7
100
AcDbEntity
  8
MAIN0
  6
BYBLOCK
 62
0
100
AcDbMText
 10
372.4132759476580
 20
272.2177021783127
 30
0.0000000000000000
 40
3.099999904632568
 41
0.0000000000000000
 71
     5
 72
     1
  1
\A1;75
 11
6.123233995736766e-017
 21
1.000000000000000
 31
0.0000000000000000
  7
STANDARD
  0
ENDBLK
  5
1B8
100
AcDbEntity
  8
MAIN0
  6
CONTINUOUS
 62
3
100
AcDbBlockEnd
  0
BLOCK
  5
1BA
100
AcDbEntity
  8
MAIN0
  6
CONTINUOUS
 62
3
100
AcDbBlockBegin
  2
*D2
 70
    65
 10
0.0
 20
0.0
 30
0.0
  0
LINE
  5
1BB
100
AcDbEntity
  8
MAIN0
  6
BYBLOCK
 62
0
100
AcDbLine
 10
357.6776279355373
 20
234.7177021783130
 30
0.0000000000000000
 11
368.9632758999742
 21
234.7177021783123
 31
0.0000000000000000
  0
LINE
  5
1BC
100
AcDbEntity
  8
MAIN0
  6
BYBLOCK
 62
0
100
AcDbLine
 10
366.9632758999742
 20
236.7177021783124
 30
0.0000000000000000
 11
366.9632758999742
 21
243.7177021783131
 31
0.0000000000000000
  0
INSERT
  5
1BD
100
AcDbEntity
  8
MAIN0
  6
BYBLOCK
 62
0
100
AcDbBlockReference
  2
_OPEN
 10
366.9632758999742
 20
234.7177021783124
 30
0.0000000000000000
 41
2.000000000000000
 42
2.000000000000000
 43
2.000000000000000
 50
270.0000000000000
  0
INSERT
  5
1BE
100
AcDbEntity
  8
MAIN0
  6
BYBLOCK
 62
0
100
AcDbBlockReference
  2
_OPEN
 10
366.9632758999742
 20
245.7177021783131
 30
0.0000000000000000
 41
2.000000000000000
 42
2.000000000000000
 43
2.000000000000000
 50
90.00000000000000
  0
LINE
  5
1BF
100
AcDbEntity
  8
MAIN0
  6
BYBLOCK
 62
0
100
AcDbLine
 10
358.3776279355738
 20
245.7177021783131
 30
0.0000000000000000
 11
368.9632758999742
 21
245.7177021783131
 31
0.0000000000000000
  0
MTEXT
  5
1C0
100
AcDbEntity
  8
MAIN0
  6
BYBLOCK
 62
0
100
AcDbMText
 10
364.9132759476580
 20
240.2177021783128
 30
0.0000000000000000
 40
3.099999904632568
 41
0.0000000000000000
 71
     5
 72
     1
  1
\A1;11
 11
6.123233995736766e-017
 21
1.000000000000000
 31
0.0000000000000000
  7
STANDARD
  0
ENDBLK
  5
1C1
100
AcDbEntity
  8
MAIN0
  6
CONTINUOUS
 62
3
100
AcDbBlockEnd
  0
BLOCK
  5
1C3
100
AcDbEntity
  8
MAIN0
  6
CONTINUOUS
 62
3
100
AcDbBlockBegin
  2
*D3
 70
    65
 10
0.0
 20
0.0
 30
0.0
  0
LINE
  5
1C4
100
AcDbEntity
  8
MAIN0
  6
BYBLOCK
 62
0
100
AcDbLine
 10
344.1776279237127
 20
271.9745756133883
 30
0.0000000000000000
 11
360.1776279237127
 21
271.9745756133883
 31
0.0000000000000000
  0
INSERT
  5
1C5
100
AcDbEntity
  8
MAIN0
  6
BYBLOCK
 62
0
100
AcDbBlockReference
  2
_OPEN
 10
342.1776279237127
 20
271.9745756133883
 30
0.0000000000000000
 41
2.000000000000000
 42
2.000000000000000
 43
2.000000000000000
 50
180.0000000000000
  0
INSERT
  5
1C6
100
AcDbEntity
  8
MAIN0
  6
BYBLOCK
 62
0
100
AcDbBlockReference
  2
_OPEN
 10
362.1776279237127
 20
271.9745756133883
 30
0.0000000000000000
 41
2.000000000000000
 42
2.000000000000000
 43
2.000000000000000
 50
0.0000000000000000
  0
MTEXT
  5
1C7
100
AcDbEntity
  8
MAIN0
  6
BYBLOCK
 62
0
100
AcDbMText
 10
352.1776279237127
 20
274.0245755657046
 30
0.0000000000000000
 40
3.099999904632568
 41
0.0000000000000000
 71
     5
 72
     1
  1
\A1;\U+220520
 11
1.000000000000000
 21
0.0000000000000000
 31
0.0000000000000000
  7
STANDARD
  0
ENDBLK
  5
1C8
100
AcDbEntity
  8
MAIN0
  6
CONTINUOUS
 62
3
100
AcDbBlockEnd
  0
BLOCK
  5
1CA
100
AcDbEntity
  8
MAIN0
  6
CONTINUOUS
 62
3
100
AcDbBlockBegin
  2
*D4
 70
    65
 10
0.0
 20
0.0
 30
0.0
  0
LINE
  5
1CB
100
AcDbEntity
  8
MAIN0
  6
BYBLOCK
 62
0
100
AcDbLine
 10
358.1368915493375
 20
211.5047994761609
 30
0.0000000000000000
 11
367.9627201074041
 21
201.6789709181147
 31
0.0000000000000000
  0
LINE
  5
1CC
100
AcDbEntity
  8
MAIN0
  6
BYBLOCK
 62
0
100
AcDbLine
 10
365.1342929826568
 20
201.6789709181128
 30
0.0000000000000000
 11
362.3058658579047
 21
198.8505437933591
 31
0.0000000000000000
  0
INSERT
  5
1CD
100
AcDbEntity
  8
MAIN0
  6
BYBLOCK
 62
0
100
AcDbBlockReference
  2
_OPEN
 10
366.5485065450295
 20
203.0931844804863
 30
0.0000000000000000
 41
2.000000000000000
 42
2.000000000000000
 43
2.000000000000000
 50
45.00000000001785
  0
INSERT
  5
1CE
100
AcDbEntity
  8
MAIN0
  6
BYBLOCK
 62
0
100
AcDbBlockReference
  2
_OPEN
 10
360.8916522955320
 20
197.4363302309856
 30
0.0000000000000000
 41
2.000000000000000
 42
2.000000000000000
 43
2.000000000000000
 50
225.0000000000179
  0
LINE
  5
1CF
100
AcDbEntity
  8
MAIN0
  6
BYBLOCK
 62
0
100
AcDbLine
 10
366.5485065450295
 20
203.0931844804863
 30
0.0000000000000000
 11
373.9846119207683
 21
210.5292898562295
 31
0.0000000000000000
  0
LINE
  5
1D0
100
AcDbEntity
  8
MAIN0
  6
BYBLOCK
 62
0
100
AcDbLine
 10
352.4800372999314
 20
205.8479452265811
 30
0.0000000000000000
 11
362.3058658579054
 21
196.0221166686129
 31
0.0000000000000000
  0
MTEXT
  5
1D1
100
AcDbEntity
  8
MAIN0
  6
BYBLOCK
 62
0
100
AcDbMText
 10
369.5475169877441
 20
208.9913326586329
 30
0.0000000000000000
 40
3.099999904632568
 41
0.0000000000000000
 71
     5
 72
     1
  1
\A1;8\H0.903226x;\S 0^ -0.1;
 11
0.7071067811863400
 21
0.7071067811867551
 31
0.0000000000000000
  7
STANDARD
  0
ENDBLK
  5
1D2
100
AcDbEntity
  8
MAIN0
  6
CONTINUOUS
 62
3
100
AcDbBlockEnd
  0
BLOCK
  5
1D4
100
AcDbEntity
  8
MAIN0
  6
CONTINUOUS
 62
3
100
AcDbBlockBegin
  2
*D5
 70
    65
 10
0.0
 20
0.0
 30
0.0
  0
LINE
  5
1D5
100
AcDbEntity
  8
MAIN0
  6
BYBLOCK
 62
0
100
AcDbLine
 10
289.6110297099817
 20
252.3281350482311
 30
0.0000000000000000
 11
224.3874564518528
 21
246.0071586687470
 31
0.0000000000000000
  0
INSERT
  5
1D6
100
AcDbEntity
  8
MAIN0
  6
BYBLOCK
 62
0
100
AcDbBlockReference
  2
_OPEN
 10
291.6017033307281
 20
252.5210561089372
 30
0.0000000000000000
 41
2.000000000000000
 42
2.000000000000000
 43
2.000000000000000
 50
5.535388144854096
  0
MTEXT
  5
1D7
100
AcDbEntity
  8
MAIN0
  6
BYBLOCK
 62
0
100
AcDbMText
 10
269.5291947841780
 20
252.2741119666014
 30
0.0000000000000000
 40
3.099999904632568
 41
0.0000000000000000
 71
     5
 72
     1
  1
\A1;\U+2205115\H0.903226x;\U+00B10.2
 11
0.9953368103732563
 21
0.09646053035305389
 31
0.0000000000000000
  7
STANDARD
  0
ENDBLK
  5
1D8
100
AcDbEntity
  8
MAIN0
  6
CONTINUOUS
 62
3
100
AcDbBlockEnd
  0
BLOCK
  5
1DA
100
AcDbEntity
  8
MAIN0
  6
CONTINUOUS
 62
3
100
AcDbBlockBegin
  2
*D6
 70
    65
 10
0.0
 20
0.0
 30
0.0
  0
LINE
  5
1DB
100
AcDbEntity
  8
MAIN0
  6
BYBLOCK
 62
0
100
AcDbLine
 10
136.4632758999652
 20
292.2745756253235
 30
0.0000000000000000
 11
136.4632758999592
 21
303.9745756133883
 31
0.0000000000000000
  0
LINE
  5
1DC
100
AcDbEntity
  8
MAIN0
  6
BYBLOCK
 62
0
100
AcDbLine
 10
134.4632758999603
 20
301.9745756133883
 30
0.0000000000000000
 11
130.4632758999709
 21
301.9745756133883
 31
0.0000000000000000
  0
INSERT
  5
1DD
100
AcDbEntity
  8
MAIN0
  6
BYBLOCK
 62
0
100
AcDbBlockReference
  2
_OPEN
 10
136.4632758999603
 20
301.9745756133883
 30
0.0000000000000000
 41
2.000000000000000
 42
2.000000000000000
 43
2.000000000000000
 50
360.0000000000000
  0
INSERT
  5
1DE
100
AcDbEntity
  8
MAIN0
  6
BYBLOCK
 62
0
100
AcDbBlockReference
  2
_OPEN
 10
128.4632758999709
 20
301.9745756133883
 30
0.0000000000000000
 41
2.000000000000000
 42
2.000000000000000
 43
2.000000000000000
 50
180.0000000000000
  0
MTEXT
  5
1DF
100
AcDbEntity
  8
MAIN0
  6
BYBLOCK
 62
0
100
AcDbMText
 10
132.4632758999655
 20
304.0245755657046
 30
0.0000000000000000
 40
3.099999904632568
 41
0.0000000000000000
 71
     5
 72
     1
  1
\A1;8
 11
1.000000000000000
 21
0.0000000000000000
 31
0.0000000000000000
  7
STANDARD
  0
ENDBLK
  5
1E0
100
AcDbEntity
  8
MAIN0
  6
CONTINUOUS
 62
3
100
AcDbBlockEnd
  0
BLOCK
  5
1E2
100
AcDbEntity
  8
MAIN0
  6
CONTINUOUS
 62
3
100
AcDbBlockBegin
  2
*D7
 70
    65
 10
0.0
 20
0.0
 30
0.0
  0
LINE
  5
1E3
100
AcDbEntity
  8
MAIN0
  6
BYBLOCK
 62
0
100
AcDbLine
 10
138.4632758999638
 20
284.4745756133883
 30
0.0000000000000000
 11
142.4632758999594
 21
284.4745756133883
 31
0.0000000000000000
  0
INSERT
  5
1E4
100
AcDbEntity
  8
MAIN0
  6
BYBLOCK
 62
0
100
AcDbBlockReference
  2
_OPEN
 10
136.4632758999638
 20
284.4745756133883
 30
0.0000000000000000
 41
2.000000000000000
 42
2.000000000000000
 43
2.000000000000000
 50
180.0000000000000
  0
INSERT
  5
1E5
100
AcDbEntity
  8
MAIN0
  6
BYBLOCK
 62
0
100
AcDbBlockReference
  2
_OPEN
 10
144.4632758999594
 20
284.4745756133883
 30
0.0000000000000000
 41
2.000000000000000
 42
2.000000000000000
 43
2.000000000000000
 50
0.0000000000000000
  0
LINE
  5
1E6
100
AcDbEntity
  8
MAIN0
  6
BYBLOCK
 62
0
100
AcDbLine
 10
144.4632758999594
 20
277.2745756253282
 30
0.0000000000000000
 11
144.4632758999594
 21
286.4745756133883
 31
0.0000000000000000
  0
MTEXT
  5
1E7
100
AcDbEntity
  8
MAIN0
  6
BYBLOCK
 62
0
100
AcDbMText
 10
140.4632758999616
 20
286.5245755657046
 30
0.0000000000000000
 40
3.099999904632568
 41
0.0000000000000000
 71
     5
 72
     1
  1
\A1;8
 11
1.000000000000000
 21
0.0000000000000000
 31
0.0000000000000000
  7
STANDARD
  0
ENDBLK
  5
1E8
100
AcDbEntity
  8
MAIN0
  6
CONTINUOUS
 62
3
100
AcDbBlockEnd
  0
BLOCK
  5
1EA
100
AcDbEntity
  8
MAIN0
  6
CONTINUOUS
 62
3
100
AcDbBlockBegin
  2
*D8
 70
    65
 10
0.0
 20
0.0
 30
0.0
  0
LINE
  5
1EB
100
AcDbEntity
  8
MAIN0
  6
BYBLOCK
 62
0
100
AcDbLine
 10
144.7632759118743
 20
261.9745756134071
 30
0.0000000000000000
 11
153.9632758999742
 21
261.9745756134085
 31
0.0000000000000000
  0
LINE
  5
1EC
100
AcDbEntity
  8
MAIN0
  6
BYBLOCK
 62
0
100
AcDbLine
 10
151.9632758999742
 20
263.9745756134082
 30
0.0000000000000000
 11
151.9632758999742
 21
274.9745756134070
 31
0.0000000000000000
  0
INSERT
  5
1ED
100
AcDbEntity
  8
MAIN0
  6
BYBLOCK
 62
0
100
AcDbBlockReference
  2
_OPEN
 10
151.9632758999742
 20
261.9745756134082
 30
0.0000000000000000
 41
2.000000000000000
 42
2.000000000000000
 43
2.000000000000000
 50
270.0000000000000
  0
INSERT
  5
1EE
100
AcDbEntity
  8
MAIN0
  6
BYBLOCK
 62
0
100
AcDbBlockReference
  2
_OPEN
 10
151.9632758999742
 20
276.9745756134070
 30
0.0000000000000000
 41
2.000000000000000
 42
2.000000000000000
 43
2.000000000000000
 50
90.00000000000000
  0
LINE
  5
1EF
100
AcDbEntity
  8
MAIN0
  6
BYBLOCK
 62
0
100
AcDbLine
 10
144.7632759118655
 20
276.9745756134070
 30
0.0000000000000000
 11
153.9632758999742
 21
276.9745756134070
 31
0.0000000000000000
  0
MTEXT
  5
1F0
100
AcDbEntity
  8
MAIN0
  6
BYBLOCK
 62
0
100
AcDbMText
 10
149.9132759476580
 20
269.4745756134076
 30
0.0000000000000000
 40
3.099999904632568
 41
0.0000000000000000
 71
     5
 72
     1
  1
\A1;15
 11
6.123233995736766e-017
 21
1.000000000000000
 31
0.0000000000000000
  7
STANDARD
  0
ENDBLK
  5
1F1
100
AcDbEntity
  8
MAIN0
  6
CONTINUOUS
 62
3
100
AcDbBlockEnd
  0
BLOCK
  5
1F3
100
AcDbEntity
  8
MAIN0
  6
CONTINUOUS
 62
3
100
AcDbBlockBegin
  2
*D9
 70
    65
 10
0.0
 20
0.0
 30
0.0
  0
LINE
  5
1F4
100
AcDbEntity
  8
MAIN0
  6
BYBLOCK
 62
0
100
AcDbLine
 10
144.7632759118655
 20
276.9745756134070
 30
0.0000000000000000
 11
153.9632758999742
 21
276.9745756134070
 31
0.0000000000000000
  0
LINE
  5
1F5
100
AcDbEntity
  8
MAIN0
  6
BYBLOCK
 62
0
100
AcDbLine
 10
151.9632758999742
 20
278.9745756134058
 30
0.0000000000000000
 11
151.9632758999742
 21
289.9745756134020
 31
0.0000000000000000
  0
INSERT
  5
1F6
100
AcDbEntity
  8
MAIN0
  6
BYBLOCK
 62
0
100
AcDbBlockReference
  2
_OPEN
 10
151.9632758999742
 20
276.9745756134058
 30
0.0000000000000000
 41
2.000000000000000
 42
2.000000000000000
 43
2.000000000000000
 50
270.0000000000000
  0
INSERT
  5
1F7
100
AcDbEntity
  8
MAIN0
  6
BYBLOCK
 62
0
100
AcDbBlockReference
  2
_OPEN
 10
151.9632758999742
 20
291.9745756134020
 30
0.0000000000000000
 41
2.000000000000000
 42
2.000000000000000
 43
2.000000000000000
 50
90.00000000000000
  0
LINE
  5
1F8
100
AcDbEntity
  8
MAIN0
  6
BYBLOCK
 62
0
100
AcDbLine
 10
136.7632759118868
 20
291.9745756134023
 30
0.0000000000000000
 11
153.9632758999742
 21
291.9745756134020
 31
0.0000000000000000
  0
MTEXT
  5
1F9
100
AcDbEntity
  8
MAIN0
  6
BYBLOCK
 62
0
100
AcDbMText
 10
149.9132759476580
 20
284.4745756134039
 30
0.0000000000000000
 40
3.099999904632568
 41
0.0000000000000000
 71
     5
 72
     1
  1
\A1;15
 11
6.123233995736766e-017
 21
1.000000000000000
 31
0.0000000000000000
  7
STANDARD
  0
ENDBLK
  5
1FA
100
AcDbEntity
  8
MAIN0
  6
CONTINUOUS
 62
3
100
AcDbBlockEnd
  0
BLOCK
  5
1FC
100
AcDbEntity
  8
MAIN0
  6
CONTINUOUS
 62
3
100
AcDbBlockBegin
  2
*D10
 70
    65
 10
0.0
 20
0.0
 30
0.0
  0
LINE
  5
1FD
100
AcDbEntity
  8
MAIN0
  6
BYBLOCK
 62
0
100
AcDbLine
 10
136.7632759118868
 20
291.9745756134023
 30
0.0000000000000000
 11
153.9632758999742
 21
291.9745756134020
 31
0.0000000000000000
  0
LINE
  5
1FE
100
AcDbEntity
  8
MAIN0
  6
BYBLOCK
 62
0
100
AcDbLine
 10
151.9632758999742
 20
293.9745756134020
 30
0.0000000000000000
 11
151.9632758999742
 21
309.9745756133973
 31
0.0000000000000000
  0
INSERT
  5
1FF
100
AcDbEntity
  8
MAIN0
  6
BYBLOCK
 62
0
100
AcDbBlockReference
  2
_OPEN
 10
151.9632758999742
 20
291.9745756134020
 30
0.0000000000000000
 41
2.000000000000000
 42
2.000000000000000
 43
2.000000000000000
 50
270.0000000000000
  0
INSERT
  5
200
100
AcDbEntity
  8
MAIN0
  6
BYBLOCK
 62
0
100
AcDbBlockReference
  2
_OPEN
 10
151.9632758999742
 20
311.9745756133973
 30
0.0000000000000000
 41
2.000000000000000
 42
2.000000000000000
 43
2.000000000000000
 50
90.00000000000000
  0
LINE
  5
201
100
AcDbEntity
  8
MAIN0
  6
BYBLOCK
 62
0
100
AcDbLine
 10
128.2632759118951
 20
311.9745756133973
 30
0.0000000000000000
 11
153.9632758999742
 21
311.9745756133973
 31
0.0000000000000000
  0
MTEXT
  5
202
100
AcDbEntity
  8
MAIN0
  6
BYBLOCK
 62
0
100
AcDbMText
 10
149.9132759476580
 20
301.9745756133997
 30
0.0000000000000000
 40
3.099999904632568
 41
0.0000000000000000
 71
     5
 72
     1
  1
\A1;20
 11
6.123233995736766e-017
 21
1.000000000000000
 31
0.0000000000000000
  7
STANDARD
  0
ENDBLK
  5
203
100
AcDbEntity
  8
MAIN0
  6
CONTINUOUS
 62
3
100
AcDbBlockEnd
  0
BLOCK
  5
205
100
AcDbEntity
  8
MAIN0
  6
CONTINUOUS
 62
3
100
AcDbBlockBegin
  2
*D11
 70
    65
 10
0.0
 20
0.0
 30
0.0
  0
LINE
  5
206
100
AcDbEntity
  8
MAIN0
  6
BYBLOCK
 62
0
100
AcDbLine
 10
144.7632759118648
 20
238.9745756133883
 30
0.0000000000000000
 11
161.4632758999742
 21
238.9745756133883
 31
0.0000000000000000
  0
LINE
  5
207
100
AcDbEntity
  8
MAIN0
  6
BYBLOCK
 62
0
100
AcDbLine
 10
159.4632758999742
 20
240.9745756133883
 30
0.0000000000000000
 11
159.4632758999742
 21
252.9745756133883
 31
0.0000000000000000
  0
INSERT
  5
208
100
AcDbEntity
  8
MAIN0
  6
BYBLOCK
 62
0
100
AcDbBlockReference
  2
_OPEN
 10
159.4632758999742
 20
238.9745756133883
 30
0.0000000000000000
 41
2.000000000000000
 42
2.000000000000000
 43
2.000000000000000
 50
270.0000000000000
  0
INSERT
  5
209
100
AcDbEntity
  8
MAIN0
  6
BYBLOCK
 62
0
100
AcDbBlockReference
  2
_OPEN
 10
159.4632758999742
 20
254.9745756133883
 30
0.0000000000000000
 41
2.000000000000000
 42
2.000000000000000
 43
2.000000000000000
 50
90.00000000000000
  0
LINE
  5
20A
100
AcDbEntity
  8
MAIN0
  6
BYBLOCK
 62
0
100
AcDbLine
 10
144.7632759118714
 20
254.9745756133883
 30
0.0000000000000000
 11
161.4632758999742
 21
254.9745756133883
 31
0.0000000000000000
  0
MTEXT
  5
20B
100
AcDbEntity
  8
MAIN0
  6
BYBLOCK
 62
0
100
AcDbMText
 10
157.4132759476580
 20
246.9745756133883
 30
0.0000000000000000
 40
3.099999904632568
 41
0.0000000000000000
 71
     5
 72
     1
  1
\A1;16
 11
6.123233995736766e-017
 21
1.000000000000000
 31
0.0000000000000000
  7
STANDARD
  0
ENDBLK
  5
20C
100
AcDbEntity
  8
MAIN0
  6
CONTINUOUS
 62
3
100
AcDbBlockEnd
  0
BLOCK
  5
20E
100
AcDbEntity
  8
MAIN0
  6
CONTINUOUS
 62
3
100
AcDbBlockBegin
  2
*D12
 70
    65
 10
0.0
 20
0.0
 30
0.0
  0
LINE
  5
20F
100
AcDbEntity
  8
MAIN0
  6
BYBLOCK
 62
0
100
AcDbLine
 10
128.2632669346162
 20
231.9745593371928
 30
0.0000000000000000
 11
153.9632758999742
 21
231.9745593371928
 31
0.0000000000000000
  0
LINE
  5
210
100
AcDbEntity
  8
MAIN0
  6
BYBLOCK
 62
0
100
AcDbLine
 10
151.9632758999742
 20
229.9745593371928
 30
0.0000000000000000
 11
151.9632758999742
 21
212.9745593372189
 31
0.0000000000000000
  0
INSERT
  5
211
100
AcDbEntity
  8
MAIN0
  6
BYBLOCK
 62
0
100
AcDbBlockReference
  2
_OPEN
 10
151.9632758999742
 20
231.9745593371928
 30
0.0000000000000000
 41
2.000000000000000
 42
2.000000000000000
 43
2.000000000000000
 50
90.00000000000000
  0
INSERT
  5
212
100
AcDbEntity
  8
MAIN0
  6
BYBLOCK
 62
0
100
AcDbBlockReference
  2
_OPEN
 10
151.9632758999742
 20
210.9745593372189
 30
0.0000000000000000
 41
2.000000000000000
 42
2.000000000000000
 43
2.000000000000000
 50
270.0000000000000
  0
LINE
  5
213
100
AcDbEntity
  8
MAIN0
  6
BYBLOCK
 62
0
100
AcDbLine
 10
136.7632669346646
 20
210.9745593372197
 30
0.0000000000000000
 11
153.9632758999742
 21
210.9745593372188
 31
0.0000000000000000
  0
MTEXT
  5
214
100
AcDbEntity
  8
MAIN0
  6
BYBLOCK
 62
0
100
AcDbMText
 10
149.9132759476580
 20
221.4745593372059
 30
0.0000000000000000
 40
3.099999904632568
 41
0.0000000000000000
 71
     5
 72
     1
  1
\A1;21
 11
6.123233995736766e-017
 21
1.000000000000000
 31
0.0000000000000000
  7
STANDARD
  0
ENDBLK
  5
215
100
AcDbEntity
  8
MAIN0
  6
CONTINUOUS
 62
3
100
AcDbBlockEnd
  0
BLOCK
  5
217
100
AcDbEntity
  8
MAIN0
  6
CONTINUOUS
 62
3
100
AcDbBlockBegin
  2
*D13
 70
    65
 10
0.0
 20
0.0
 30
0.0
  0
LINE
  5
218
100
AcDbEntity
  8
MAIN0
  6
BYBLOCK
 62
0
100
AcDbLine
 10
136.7632669346646
 20
210.9745593372197
 30
0.0000000000000000
 11
153.9632758999742
 21
210.9745593372188
 31
0.0000000000000000
  0
LINE
  5
219
100
AcDbEntity
  8
MAIN0
  6
BYBLOCK
 62
0
100
AcDbLine
 10
151.9632758999742
 20
208.9745593372189
 30
0.0000000000000000
 11
151.9632758999742
 21
197.9745593372319
 31
0.0000000000000000
  0
INSERT
  5
21A
100
AcDbEntity
  8
MAIN0
  6
BYBLOCK
 62
0
100
AcDbBlockReference
  2
_OPEN
 10
151.9632758999742
 20
210.9745593372189
 30
0.0000000000000000
 41
2.000000000000000
 42
2.000000000000000
 43
2.000000000000000
 50
90.00000000000000
  0
INSERT
  5
21B
100
AcDbEntity
  8
MAIN0
  6
BYBLOCK
 62
0
100
AcDbBlockReference
  2
_OPEN
 10
151.9632758999742
 20
195.9745593372319
 30
0.0000000000000000
 41
2.000000000000000
 42
2.000000000000000
 43
2.000000000000000
 50
270.0000000000000
  0
LINE
  5
21C
100
AcDbEntity
  8
MAIN0
  6
BYBLOCK
 62
0
100
AcDbLine
 10
144.7632669346874
 20
195.9745593372319
 30
0.0000000000000000
 11
153.9632758999742
 21
195.9745593372319
 31
0.0000000000000000
  0
MTEXT
  5
21D
100
AcDbEntity
  8
MAIN0
  6
BYBLOCK
 62
0
100
AcDbMText
 10
149.9132759476580
 20
203.4745593372254
 30
0.0000000000000000
 40
3.099999904632568
 41
0.0000000000000000
 71
     5
 72
     1
  1
\A1;15
 11
6.123233995736766e-017
 21
1.000000000000000
 31
0.0000000000000000
  7
STANDARD
  0
ENDBLK
  5
21E
100
AcDbEntity
  8
MAIN0
  6
CONTINUOUS
 62
3
100
AcDbBlockEnd
  0
BLOCK
  5
220
100
AcDbEntity
  8
MAIN0
  6
CONTINUOUS
 62
3
100
AcDbBlockBegin
  2
*D14
 70
    65
 10
0.0
 20
0.0
 30
0.0
  0
LINE
  5
221
100
AcDbEntity
  8
MAIN0
  6
BYBLOCK
 62
0
100
AcDbLine
 10
144.7632669346874
 20
195.9745593372319
 30
0.0000000000000000
 11
153.9632758999742
 21
195.9745593372319
 31
0.0000000000000000
  0
LINE
  5
222
100
AcDbEntity
  8
MAIN0
  6
BYBLOCK
 62
0
100
AcDbLine
 10
151.9632758999742
 20
193.9745593372319
 30
0.0000000000000000
 11
151.9632758999742
 21
183.9745593372319
 31
0.0000000000000000
  0
INSERT
  5
223
100
AcDbEntity
  8
MAIN0
  6
BYBLOCK
 62
0
100
AcDbBlockReference
  2
_OPEN
 10
151.9632758999742
 20
195.9745593372319
 30
0.0000000000000000
 41
2.000000000000000
 42
2.000000000000000
 43
2.000000000000000
 50
90.00000000000000
  0
INSERT
  5
224
100
AcDbEntity
  8
MAIN0
  6
BYBLOCK
 62
0
100
AcDbBlockReference
  2
_OPEN
 10
151.9632758999742
 20
181.9745593372319
 30
0.0000000000000000
 41
2.000000000000000
 42
2.000000000000000
 43
2.000000000000000
 50
270.0000000000000
  0
LINE
  5
225
100
AcDbEntity
  8
MAIN0
  6
BYBLOCK
 62
0
100
AcDbLine
 10
144.7632669346059
 20
181.9745593372319
 30
0.0000000000000000
 11
153.9632758999742
 21
181.9745593372319
 31
0.0000000000000000
  0
MTEXT
  5
226
100
AcDbEntity
  8
MAIN0
  6
BYBLOCK
 62
0
100
AcDbMText
 10
149.9132759476580
 20
188.9745593372319
 30
0.0000000000000000
 40
3.099999904632568
 41
0.0000000000000000
 71
     5
 72
     1
  1
\A1;14
 11
6.123233995736766e-017
 21
1.000000000000000
 31
0.0000000000000000
  7
STANDARD
  0
ENDBLK
  5
227
100
AcDbEntity
  8
MAIN0
  6
CONTINUOUS
 62
3
100
AcDbBlockEnd
  0
BLOCK
  5
229
100
AcDbEntity
  8
MAIN0
  6
CONTINUOUS
 62
3
100
AcDbBlockBegin
  2
*D15
 70
    65
 10
0.0
 20
0.0
 30
0.0
  0
LINE
  5
22A
100
AcDbEntity
  8
MAIN0
  6
BYBLOCK
 62
0
100
AcDbLine
 10
138.4632669227513
 20
204.4745756133883
 30
0.0000000000000000
 11
142.4632669227672
 21
204.4745756133883
 31
0.0000000000000000
  0
INSERT
  5
22B
100
AcDbEntity
  8
MAIN0
  6
BYBLOCK
 62
0
100
AcDbBlockReference
  2
_OPEN
 10
136.4632669227513
 20
204.4745756133883
 30
0.0000000000000000
 41
2.000000000000000
 42
2.000000000000000
 43
2.000000000000000
 50
180.0000000000000
  0
INSERT
  5
22C
100
AcDbEntity
  8
MAIN0
  6
BYBLOCK
 62
0
100
AcDbBlockReference
  2
_OPEN
 10
144.4632669227672
 20
204.4745756133883
 30
0.0000000000000000
 41
2.000000000000000
 42
2.000000000000000
 43
2.000000000000000
 50
0.0000000000000000
  0
LINE
  5
22D
100
AcDbEntity
  8
MAIN0
  6
BYBLOCK
 62
0
100
AcDbLine
 10
144.4632669227672
 20
196.2745593491536
 30
0.0000000000000000
 11
144.4632669227672
 21
206.4745756133883
 31
0.0000000000000000
  0
MTEXT
  5
22E
100
AcDbEntity
  8
MAIN0
  6
BYBLOCK
 62
0
100
AcDbMText
 10
140.4632669227592
 20
206.5245755657046
 30
0.0000000000000000
 40
3.099999904632568
 41
0.0000000000000000
 71
     5
 72
     1
  1
\A1;8
 11
1.000000000000000
 21
0.0000000000000000
 31
0.0000000000000000
  7
STANDARD
  0
ENDBLK
  5
22F
100
AcDbEntity
  8
MAIN0
  6
CONTINUOUS
 62
3
100
AcDbBlockEnd
  0
BLOCK
  5
231
100
AcDbEntity
  8
MAIN0
  6
CONTINUOUS
 62
3
100
AcDbBlockBegin
  2
*D16
 70
    65
 10
0.0
 20
0.0
 30
0.0
  0
LINE
  5
232
100
AcDbEntity
  8
MAIN0
  6
BYBLOCK
 62
0
100
AcDbLine
 10
74.96329047019533
 20
182.1745756014674
 30
0.0000000000000000
 11
74.96329047019533
 21
172.9745756133883
 31
0.0000000000000000
  0
LINE
  5
233
100
AcDbEntity
  8
MAIN0
  6
BYBLOCK
 62
0
100
AcDbLine
 10
76.96329047019533
 20
174.9745756133883
 30
0.0000000000000000
 11
96.96329047019533
 21
174.9745756133883
 31
0.0000000000000000
  0
INSERT
  5
234
100
AcDbEntity
  8
MAIN0
  6
BYBLOCK
 62
0
100
AcDbBlockReference
  2
_OPEN
 10
74.96329047019533
 20
174.9745756133883
 30
0.0000000000000000
 41
2.000000000000000
 42
2.000000000000000
 43
2.000000000000000
 50
180.0000000000000
  0
INSERT
  5
235
100
AcDbEntity
  8
MAIN0
  6
BYBLOCK
 62
0
100
AcDbBlockReference
  2
_OPEN
 10
98.96329047019533
 20
174.9745756133883
 30
0.0000000000000000
 41
2.000000000000000
 42
2.000000000000000
 43
2.000000000000000
 50
0.0000000000000000
  0
LINE
  5
236
100
AcDbEntity
  8
MAIN0
  6
BYBLOCK
 62
0
100
AcDbLine
 10
98.96329047019533
 20
182.1745756014674
 30
0.0000000000000000
 11
98.96329047019533
 21
172.9745756133883
 31
0.0000000000000000
  0
MTEXT
  5
237
100
AcDbEntity
  8
MAIN0
  6
BYBLOCK
 62
0
100
AcDbMText
 10
86.96329047019533
 20
177.0245755657046
 30
0.0000000000000000
 40
3.099999904632568
 41
0.0000000000000000
 71
     5
 72
     1
  1
\A1;\U+220524
 11
1.000000000000000
 21
0.0000000000000000
 31
0.0000000000000000
  7
STANDARD
  0
ENDBLK
  5
238
100
AcDbEntity
  8
MAIN0
  6
CONTINUOUS
 62
3
100
AcDbBlockEnd
  0
BLOCK
  5
23A
100
AcDbEntity
  8
MAIN0
  6
CONTINUOUS
 62
3
100
AcDbBlockBegin
  2
*D17
 70
    65
 10
0.0
 20
0.0
 30
0.0
  0
LINE
  5
23B
100
AcDbEntity
  8
MAIN0
  6
BYBLOCK
 62
0
100
AcDbLine
 10
124.4632758999742
 20
182.1745756014674
 30
0.0000000000000000
 11
124.4632758999742
 21
159.9745756133883
 31
0.0000000000000000
  0
LINE
  5
23C
100
AcDbEntity
  8
MAIN0
  6
BYBLOCK
 62
0
100
AcDbLine
 10
122.4632758999742
 20
161.9745756133883
 30
0.0000000000000000
 11
66.46327589997424
 21
161.9745756133883
 31
0.0000000000000000
  0
INSERT
  5
23D
100
AcDbEntity
  8
MAIN0
  6
BYBLOCK
 62
0
100
AcDbBlockReference
  2
_OPEN
 10
124.4632758999742
 20
161.9745756133883
 30
0.0000000000000000
 41
2.000000000000000
 42
2.000000000000000
 43
2.000000000000000
 50
360.0000000000000
  0
INSERT
  5
23E
100
AcDbEntity
  8
MAIN0
  6
BYBLOCK
 62
0
100
AcDbBlockReference
  2
_OPEN
 10
64.46327589997424
 20
161.9745756133883
 30
0.0000000000000000
 41
2.000000000000000
 42
2.000000000000000
 43
2.000000000000000
 50
180.0000000000000
  0
LINE
  5
23F
100
AcDbEntity
  8
MAIN0
  6
BYBLOCK
 62
0
100
AcDbLine
 10
64.46327589997424
 20
182.1745756014673
 30
0.0000000000000000
 11
64.46327589997424
 21
159.9745756133883
 31
0.0000000000000000
  0
MTEXT
  5
240
100
AcDbEntity
  8
MAIN0
  6
BYBLOCK
 62
0
100
AcDbMText
 10
94.46327589997424
 20
164.0245755657046
 30
0.0000000000000000
 40
3.099999904632568
 41
0.0000000000000000
 71
     5
 72
     1
  1
\A1;60
 11
1.000000000000000
 21
0.0000000000000000
 31
0.0000000000000000
  7
STANDARD
  0
ENDBLK
  5
241
100
AcDbEntity
  8
MAIN0
  6
CONTINUOUS
 62
3
100
AcDbBlockEnd
  0
BLOCK
  5
246
100
AcDbEntity
  8
MAIN0
  6
CONTINUOUS
 62
3
100
AcDbBlockBegin
  2
*D18
 70
    65
 10
0.0
 20
0.0
 30
0.0
  0
LINE
  5
247
100
AcDbEntity
  8
MAIN0
  6
BYBLOCK
 62
0
100
AcDbLine
 10
64.46327589997424
 20
311.7745756253093
 30
0.0000000000000000
 11
64.46327589997424
 21
323.9745756133883
 31
0.0000000000000000
  0
LINE
  5
248
100
AcDbEntity
  8
MAIN0
  6
BYBLOCK
 62
0
100
AcDbLine
 10
66.46327589997424
 20
321.9745756133883
 30
0.0000000000000000
 11
78.46327589997424
 21
321.9745756133883
 31
0.0000000000000000
  0
INSERT
  5
249
100
AcDbEntity
  8
MAIN0
  6
BYBLOCK
 62
0
100
AcDbBlockReference
  2
_OPEN
 10
64.46327589997424
 20
321.9745756133883
 30
0.0000000000000000
 41
2.000000000000000
 42
2.000000000000000
 43
2.000000000000000
 50
180.0000000000000
  0
INSERT
  5
24A
100
AcDbEntity
  8
MAIN0
  6
BYBLOCK
 62
0
100
AcDbBlockReference
  2
_OPEN
 10
80.46327589997424
 20
321.9745756133883
 30
0.0000000000000000
 41
2.000000000000000
 42
2.000000000000000
 43
2.000000000000000
 50
0.0000000000000000
  0
LINE
  5
24B
100
AcDbEntity
  8
MAIN0
  6
BYBLOCK
 62
0
100
AcDbLine
 10
80.46327589997424
 20
309.2745756253092
 30
0.0000000000000000
 11
80.46327589997424
 21
323.9745756133883
 31
0.0000000000000000
  0
MTEXT
  5
24C
100
AcDbEntity
  8
MAIN0
  6
BYBLOCK
 62
0
100
AcDbMText
 10
72.46327589997424
 20
324.0245755657046
 30
0.0000000000000000
 40
3.099999904632568
 41
0.0000000000000000
 71
     5
 72
     1
  1
\A1;16
 11
1.000000000000000
 21
0.0000000000000000
 31
0.0000000000000000
  7
STANDARD
  0
ENDBLK
  5
24D
100
AcDbEntity
  8
MAIN0
  6
CONTINUOUS
 62
3
100
AcDbBlockEnd
  0
BLOCK
  5
24F
100
AcDbEntity
  8
MAIN0
  6
CONTINUOUS
 62
3
100
AcDbBlockBegin
  2
*D19
 70
    65
 10
0.0
 20
0.0
 30
0.0
  0
LINE
  5
250
100
AcDbEntity
  8
MAIN0
  6
BYBLOCK
 62
0
100
AcDbLine
 10
64.66327588805331
 20
311.9745756133883
 30
0.0000000000000000
 11
37.46327589997424
 21
311.9745756133883
 31
0.0000000000000000
  0
LINE
  5
251
100
AcDbEntity
  8
MAIN0
  6
BYBLOCK
 62
0
100
AcDbLine
 10
39.46327589997424
 20
309.9745756133883
 30
0.0000000000000000
 11
39.46327589997424
 21
183.9745756133883
 31
0.0000000000000000
  0
INSERT
  5
252
100
AcDbEntity
  8
MAIN0
  6
BYBLOCK
 62
0
100
AcDbBlockReference
  2
_OPEN
 10
39.46327589997424
 20
311.9745756133883
 30
0.0000000000000000
 41
2.000000000000000
 42
2.000000000000000
 43
2.000000000000000
 50
90.00000000000000
  0
INSERT
  5
253
100
AcDbEntity
  8
MAIN0
  6
BYBLOCK
 62
0
100
AcDbBlockReference
  2
_OPEN
 10
39.46327589997424
 20
181.9745756133883
 30
0.0000000000000000
 41
2.000000000000000
 42
2.000000000000000
 43
2.000000000000000
 50
270.0000000000000
  0
LINE
  5
254
100
AcDbEntity
  8
MAIN0
  6
BYBLOCK
 62
0
100
AcDbLine
 10
64.66327588805331
 20
181.9745756133883
 30
0.0000000000000000
 11
37.46327589997424
 21
181.9745756133883
 31
0.0000000000000000
  0
MTEXT
  5
255
100
AcDbEntity
  8
MAIN0
  6
BYBLOCK
 62
0
100
AcDbMText
 10
37.41327594765795
 20
246.9745756133883
 30
0.0000000000000000
 40
3.099999904632568
 41
0.0000000000000000
 71
     5
 72
     1
  1
\A1;\U+2205130
 11
6.123233995736766e-017
 21
1.000000000000000
 31
0.0000000000000000
  7
STANDARD
  0
ENDBLK
  5
256
100
AcDbEntity
  8
MAIN0
  6
CONTINUOUS
 62
3
100
AcDbBlockEnd
  0
BLOCK
  5
258
100
AcDbEntity
  8
MAIN0
  6
CONTINUOUS
 62
3
100
AcDbBlockBegin
  2
*D20
 70
    65
 10
0.0
 20
0.0
 30
0.0
  0
LINE
  5
259
100
AcDbEntity
  8
MAIN0
  6
BYBLOCK
 62
0
100
AcDbLine
 10
69.16327588805338
 20
262.9745756133883
 30
0.0000000000000000
 11
52.46327589997424
 21
262.9745756133883
 31
0.0000000000000000
  0
LINE
  5
25A
100
AcDbEntity
  8
MAIN0
  6
BYBLOCK
 62
0
100
AcDbLine
 10
54.46327589997424
 20
260.9745756133883
 30
0.0000000000000000
 11
54.46327589997424
 21
232.9745756133883
 31
0.0000000000000000
  0
INSERT
  5
25B
100
AcDbEntity
  8
MAIN0
  6
BYBLOCK
 62
0
100
AcDbBlockReference
  2
_OPEN
 10
54.46327589997424
 20
262.9745756133883
 30
0.0000000000000000
 41
2.000000000000000
 42
2.000000000000000
 43
2.000000000000000
 50
90.00000000000000
  0
INSERT
  5
25C
100
AcDbEntity
  8
MAIN0
  6
BYBLOCK
 62
0
100
AcDbBlockReference
  2
_OPEN
 10
54.46327589997424
 20
230.9745756133883
 30
0.0000000000000000
 41
2.000000000000000
 42
2.000000000000000
 43
2.000000000000000
 50
270.0000000000000
  0
LINE
  5
25D
100
AcDbEntity
  8
MAIN0
  6
BYBLOCK
 62
0
100
AcDbLine
 10
69.16327588805338
 20
230.9745756133883
 30
0.0000000000000000
 11
52.46327589997424
 21
230.9745756133883
 31
0.0000000000000000
  0
MTEXT
  5
25E
100
AcDbEntity
  8
MAIN0
  6
BYBLOCK
 62
0
100
AcDbMText
 10
52.41327594765795
 20
246.9745756133883
 30
0.0000000000000000
 40
3.099999904632568
 41
0.0000000000000000
 71
     5
 72
     1
  1
\A1;\U+220532
 11
6.123233995736766e-017
 21
1.000000000000000
 31
0.0000000000000000
  7
STANDARD
  0
ENDBLK
  5
25F
100
AcDbEntity
  8
MAIN0
  6
CONTINUOUS
 62
3
100
AcDbBlockEnd
  0
BLOCK
  5
261
100
AcDbEntity
  8
MAIN0
  6
CONTINUOUS
 62
3
100
AcDbBlockBegin
  2
*D21
 70
    65
 10
0.0
 20
0.0
 30
0.0
  0
LINE
  5
262
100
AcDbEntity
  8
MAIN0
  6
BYBLOCK
 62
0
100
AcDbLine
 10
63.66327588805333
 20
196.9745756133883
 30
0.0000000000000000
 11
44.96327589997424
 21
196.9745756133883
 31
0.0000000000000000
  0
LINE
  5
263
100
AcDbEntity
  8
MAIN0
  6
BYBLOCK
 62
0
100
AcDbLine
 10
46.96327589997424
 20
198.9745756133883
 30
0.0000000000000000
 11
46.96327589997424
 21
294.9745756133883
 31
0.0000000000000000
  0
INSERT
  5
264
100
AcDbEntity
  8
MAIN0
  6
BYBLOCK
 62
0
100
AcDbBlockReference
  2
_OPEN
 10
46.96327589997424
 20
196.9745756133883
 30
0.0000000000000000
 41
2.000000000000000
 42
2.000000000000000
 43
2.000000000000000
 50
270.0000000000000
  0
INSERT
  5
265
100
AcDbEntity
  8
MAIN0
  6
BYBLOCK
 62
0
100
AcDbBlockReference
  2
_OPEN
 10
46.96327589997424
 20
296.9745756133883
 30
0.0000000000000000
 41
2.000000000000000
 42
2.000000000000000
 43
2.000000000000000
 50
90.00000000000000
  0
LINE
  5
266
100
AcDbEntity
  8
MAIN0
  6
BYBLOCK
 62
0
100
AcDbLine
 10
63.66327588805333
 20
296.9745756133883
 30
0.0000000000000000
 11
44.96327589997424
 21
296.9745756133883
 31
0.0000000000000000
  0
MTEXT
  5
267
100
AcDbEntity
  8
MAIN0
  6
BYBLOCK
 62
0
100
AcDbMText
 10
44.91327594765795
 20
252.6951080532796
 30
0.0000000000000000
 40
3.099999904632568
 41
0.0000000000000000
 71
     5
 72
     1
  1
\A1;\U+2205100H6\H0.903226x;\S＋0.022^ 　0;
 11
6.123233995736766e-017
 21
1.000000000000000
 31
0.0000000000000000
  7
KNJYOKO
  0
ENDBLK
  5
268
100
AcDbEntity
  8
MAIN0
  6
CONTINUOUS
 62
3
100
AcDbBlockEnd
  0
BLOCK
  5
26B
100
AcDbEntity
  8
MAIN0
  6
CONTINUOUS
 62
3
100
AcDbBlockBegin
  2
*D22
 70
    65
 10
0.0
 20
0.0
 30
0.0
  0
LINE
  5
26C
100
AcDbEntity
  8
MAIN0
  6
BYBLOCK
 62
0
100
AcDbLine
 10
92.70687105320641
 20
130.0650483702399
 30
0.0000000000000000
 11
106.7123108878436
 21
116.0596085356108
 31
0.0000000000000000
  0
LINE
  5
26D
100
AcDbEntity
  8
MAIN0
  6
BYBLOCK
 62
0
100
AcDbLine
 10
103.8838837630974
 20
116.0596085356100
 30
0.0000000000000000
 11
101.0554566383520
 21
113.2311814108629
 31
0.0000000000000000
  0
INSERT
  5
26E
100
AcDbEntity
  8
MAIN0
  6
BYBLOCK
 62
0
100
AcDbBlockReference
  2
_OPEN
 10
105.2980973254700
 20
117.4738220979835
 30
0.0000000000000000
 41
2.000000000000000
 42
2.000000000000000
 43
2.000000000000000
 50
45.00000000001683
  0
INSERT
  5
26F
100
AcDbEntity
  8
MAIN0
  6
BYBLOCK
 62
0
100
AcDbBlockReference
  2
_OPEN
 10
99.64124307597928
 20
111.8169678484894
 30
0.0000000000000000
 41
2.000000000000000
 42
2.000000000000000
 43
2.000000000000000
 50
225.0000000000169
  0
LINE
  5
270
100
AcDbEntity
  8
MAIN0
  6
BYBLOCK
 62
0
100
AcDbLine
 10
105.2980973254700
 20
117.4738220979835
 30
0.0000000000000000
 11
113.3752259213285
 21
125.5509506938466
 31
0.0000000000000000
  0
LINE
  5
271
100
AcDbEntity
  8
MAIN0
  6
BYBLOCK
 62
0
100
AcDbLine
 10
87.05001680380937
 20
124.4081941206520
 30
0.0000000000000000
 11
101.0554566383528
 21
110.4027542861167
 31
0.0000000000000000
  0
MTEXT
  5
272
100
AcDbEntity
  8
MAIN0
  6
BYBLOCK
 62
0
100
AcDbMText
 10
108.3017349906432
 20
123.3765974985890
 30
0.0000000000000000
 40
3.099999904632568
 41
0.0000000000000000
 71
     5
 72
     1
  1
\A1;8\H0.903226x;\S+0.15^ +0.05;
 11
0.7071067811863415
 21
0.7071067811867535
 31
0.0000000000000000
  7
STANDARD
  0
ENDBLK
  5
273
100
AcDbEntity
  8
MAIN0
  6
CONTINUOUS
 62
3
100
AcDbBlockEnd
  0
BLOCK
  5
290
100
AcDbEntity
  8
MAIN0
  6
CONTINUOUS
 62
3
100
AcDbBlockBegin
  2
*D23
 70
    65
 10
0.0
 20
0.0
 30
0.0
  0
ARC
  5
291
100
AcDbEntity
  8
MAIN0
  6
BYBLOCK
 62
0
100
AcDbCircle
 10
234.3698367336490
 20
246.9745756133883
 30
0.0000000000000000
 40
69.08589502960317
100
AcDbArc
 50
331.6586824123276
 51
358.3413175876630
  0
INSERT
  5
292
100
AcDbEntity
  8
MAIN0
  6
BYBLOCK
 62
0
100
AcDbBlockReference
  2
_OPEN
 10
294.1999768724647
 20
212.4316280985768
 30
0.0000000000000000
 41
2.000000000000000
 42
2.000000000000000
 43
2.000000000000000
 50
239.9999999999905
  0
INSERT
  5
293
100
AcDbEntity
  8
MAIN0
  6
BYBLOCK
 62
0
100
AcDbBlockReference
  2
_OPEN
 10
303.4557317632522
 20
246.9745756133883
 30
0.0000000000000000
 41
2.000000000000000
 42
2.000000000000000
 43
2.000000000000000
 50
90.00000000000000
  0
MTEXT
  5
294
100
AcDbEntity
  8
MAIN0
  6
BYBLOCK
 62
0
100
AcDbMText
 10
299.1215390772032
 20
229.6244092618868
 30
0.0000000000000000
 40
3.099999904632568
 41
0.0000000000000000
 71
     5
 72
     1
  1
\A1;30\U+00B0
 11
0.2588190451026012
 21
0.9659258262890468
 31
0.0000000000000000
  7
STANDARD
  0
ENDBLK
  5
295
100
AcDbEntity
  8
MAIN0
  6
CONTINUOUS
 62
3
100
AcDbBlockEnd
  0
BLOCK
  5
297
100
AcDbEntity
  8
MAIN0
  6
CONTINUOUS
 62
3
100
AcDbBlockBegin
  2
*D24
 70
    65
 10
0.0
 20
0.0
 30
0.0
  0
LINE
  5
298
100
AcDbEntity
  8
MAIN0
  6
BYBLOCK
 62
0
100
AcDbLine
 10
294.5966012712055
 20
281.7465143316008
 30
0.0000000000000000
 11
295.9320276800241
 21
282.5175231282161
 31
0.0000000000000000
  0
ARC
  5
299
100
AcDbEntity
  8
MAIN0
  6
BYBLOCK
 62
0
100
AcDbCircle
 10
234.3698367336490
 20
246.9745756133883
 30
0.0000000000000000
 40
69.08589502960315
100
AcDbArc
 50
1.658682412337025
 51
28.34131758768719
  0
INSERT
  5
29A
100
AcDbEntity
  8
MAIN0
  6
BYBLOCK
 62
0
100
AcDbBlockReference
  2
_OPEN
 10
303.4557317632522
 20
246.9745756133883
 30
0.0000000000000000
 41
2.000000000000000
 42
2.000000000000000
 43
2.000000000000000
 50
270.0000000000000
  0
INSERT
  5
29B
100
AcDbEntity
  8
MAIN0
  6
BYBLOCK
 62
0
100
AcDbBlockReference
  2
_OPEN
 10
294.1999768724558
 20
281.5175231282152
 30
0.0000000000000000
 41
2.000000000000000
 42
2.000000000000000
 43
2.000000000000000
 50
120.0000000000242
  0
MTEXT
  5
29C
100
AcDbEntity
  8
MAIN0
  6
BYBLOCK
 62
0
100
AcDbMText
 10
299.1215390772009
 20
264.3247419648982
 30
0.0000000000000000
 40
3.099999904632568
 41
0.0000000000000000
 71
     5
 72
     1
  1
\A1;30\U+00B0
 11
-0.2588190451027248
 21
0.9659258262890136
 31
0.0000000000000000
  7
STANDARD
  0
ENDBLK
  5
29D
100
AcDbEntity
  8
MAIN0
  6
CONTINUOUS
 62
3
100
AcDbBlockEnd
  0
BLOCK
  5
29F
100
AcDbEntity
  8
MAIN0
  6
CONTINUOUS
 62
3
100
AcDbBlockBegin
  2
*D25
 70
    65
 10
0.0
 20
0.0
 30
0.0
  0
LINE
  5
2A0
100
AcDbEntity
  8
MAIN0
  6
BYBLOCK
 62
0
100
AcDbLine
 10
294.5966012712055
 20
281.7465143316008
 30
0.0000000000000000
 11
295.9320276800241
 21
282.5175231282161
 31
0.0000000000000000
  0
ARC
  5
2A1
100
AcDbEntity
  8
MAIN0
  6
BYBLOCK
 62
0
100
AcDbCircle
 10
234.3698367336490
 20
246.9745756133883
 30
0.0000000000000000
 40
69.08589502960315
100
AcDbArc
 50
31.65868241236124
 51
88.34131758720858
  0
INSERT
  5
2A2
100
AcDbEntity
  8
MAIN0
  6
BYBLOCK
 62
0
100
AcDbBlockReference
  2
_OPEN
 10
294.1999768724558
 20
281.5175231282152
 30
0.0000000000000000
 41
2.000000000000000
 42
2.000000000000000
 43
2.000000000000000
 50
300.0000000000242
  0
INSERT
  5
2A3
100
AcDbEntity
  8
MAIN0
  6
BYBLOCK
 62
0
100
AcDbBlockReference
  2
_OPEN
 10
234.3698367341969
 20
316.0604706429915
 30
0.0000000000000000
 41
2.000000000000000
 42
2.000000000000000
 43
2.000000000000000
 50
179.9999999995456
  0
MTEXT
  5
2A4
100
AcDbEntity
  8
MAIN0
  6
BYBLOCK
 62
0
100
AcDbMText
 10
269.9377842248400
 20
308.5800677885390
 30
0.0000000000000000
 40
3.099999904632568
 41
0.0000000000000000
 71
     5
 72
     1
  1
\A1;60\U+00B0
 11
0.8660254037825612
 21
-0.5000000000032518
 31
0.0000000000000000
  7
STANDARD
  0
ENDBLK
  5
2A5
100
AcDbEntity
  8
MAIN0
  6
CONTINUOUS
 62
3
100
AcDbBlockEnd
  0
BLOCK
  5
2A7
100
AcDbEntity
  8
MAIN0
  6
CONTINUOUS
 62
3
100
AcDbBlockBegin
  2
*D26
 70
    65
 10
0.0
 20
0.0
 30
0.0
  0
LINE
  5
2A8
100
AcDbEntity
  8
MAIN0
  6
BYBLOCK
 62
0
100
AcDbLine
 10
200.9586183776763
 20
294.6907405102813
 30
0.0000000000000000
 11
193.5966423867089
 21
305.2047318462751
 31
0.0000000000000000
  0
ARC
  5
2A9
100
AcDbEntity
  8
MAIN0
  6
BYBLOCK
 62
0
100
AcDbCircle
 10
234.3698367336490
 20
246.9745756133883
 30
0.0000000000000000
 40
69.08589502960315
100
AcDbArc
 50
91.65868241188261
 51
123.3413175886236
  0
INSERT
  5
2AA
100
AcDbEntity
  8
MAIN0
  6
BYBLOCK
 62
0
100
AcDbBlockReference
  2
_OPEN
 10
234.3698367341969
 20
316.0604706429915
 30
0.0000000000000000
 41
2.000000000000000
 42
2.000000000000000
 43
2.000000000000000
 50
359.9999999995456
  0
INSERT
  5
2AB
100
AcDbEntity
  8
MAIN0
  6
BYBLOCK
 62
0
100
AcDbBlockReference
  2
_OPEN
 10
194.7437952594980
 20
303.5664277577581
 30
0.0000000000000000
 41
2.000000000000000
 42
2.000000000000000
 43
2.000000000000000
 50
215.0000000009606
  0
MTEXT
  5
2AC
100
AcDbEntity
  8
MAIN0
  6
BYBLOCK
 62
0
100
AcDbMText
 10
212.9788605593592
 20
314.8180844641962
 30
0.0000000000000000
 40
3.099999904632568
 41
0.0000000000000000
 71
     5
 72
     1
  1
\A1;35\U+00B0
 11
0.9537169507468986
 21
0.3007057995084861
 31
0.0000000000000000
  7
STANDARD
  0
ENDBLK
  5
2AD
100
AcDbEntity
  8
MAIN0
  6
CONTINUOUS
 62
3
100
AcDbBlockEnd
  0
BLOCK
  5
2B7
100
AcDbEntity
  8
MAIN0
  6
CONTINUOUS
 62
3
100
AcDbBlockBegin
  2
*D27
 70
    65
 10
0.0
 20
0.0
 30
0.0
  0
LINE
  5
2B8
100
AcDbEntity
  8
MAIN0
  6
BYBLOCK
 62
0
100
AcDbLine
 10
64.06327588805331
 20
194.9745756133883
 30
0.0000000000000000
 11
52.46327589997424
 21
194.9745756133883
 31
0.0000000000000000
  0
LINE
  5
2B9
100
AcDbEntity
  8
MAIN0
  6
BYBLOCK
 62
0
100
AcDbLine
 10
54.46327589997424
 20
192.9745756133883
 30
0.0000000000000000
 11
54.46327589997424
 21
187.9745756133883
 31
0.0000000000000000
  0
INSERT
  5
2BA
100
AcDbEntity
  8
MAIN0
  6
BYBLOCK
 62
0
100
AcDbBlockReference
  2
_OPEN
 10
54.46327589997424
 20
194.9745756133883
 30
0.0000000000000000
 41
2.000000000000000
 42
2.000000000000000
 43
2.000000000000000
 50
90.00000000000000
  0
INSERT
  5
2BB
100
AcDbEntity
  8
MAIN0
  6
BYBLOCK
 62
0
100
AcDbBlockReference
  2
_OPEN
 10
54.46327589997424
 20
185.9745756133883
 30
0.0000000000000000
 41
2.000000000000000
 42
2.000000000000000
 43
2.000000000000000
 50
270.0000000000000
  0
LINE
  5
2BC
100
AcDbEntity
  8
MAIN0
  6
BYBLOCK
 62
0
100
AcDbLine
 10
64.06327588805331
 20
185.9745756133883
 30
0.0000000000000000
 11
52.46327589997424
 21
185.9745756133883
 31
0.0000000000000000
  0
MTEXT
  5
2BD
100
AcDbEntity
  8
MAIN0
  6
BYBLOCK
 62
0
100
AcDbMText
 10
52.41327594765795
 20
190.4745756133883
 30
0.0000000000000000
 40
3.099999904632568
 41
0.0000000000000000
 71
     5
 72
     1
  1
\A1;\U+22059
 11
6.123233995736766e-017
 21
1.000000000000000
 31
0.0000000000000000
  7
STANDARD
  0
ENDBLK
  5
2BE
100
AcDbEntity
  8
MAIN0
  6
CONTINUOUS
 62
3
100
AcDbBlockEnd
  0
BLOCK
  5
2C0
100
AcDbEntity
  8
MAIN0
  6
CONTINUOUS
 62
3
100
AcDbBlockBegin
  2
*D28
 70
    65
 10
0.0
 20
0.0
 30
0.0
  0
LINE
  5
2C1
100
AcDbEntity
  8
MAIN0
  6
BYBLOCK
 62
0
100
AcDbLine
 10
124.8632759118952
 20
197.4745756133883
 30
0.0000000000000000
 11
133.9632758999742
 21
197.4745756133883
 31
0.0000000000000000
  0
LINE
  5
2C2
100
AcDbEntity
  8
MAIN0
  6
BYBLOCK
 62
0
100
AcDbLine
 10
131.9632758999742
 20
195.4745756133883
 30
0.0000000000000000
 11
131.9632758999742
 21
185.4745756133883
 31
0.0000000000000000
  0
INSERT
  5
2C3
100
AcDbEntity
  8
MAIN0
  6
BYBLOCK
 62
0
100
AcDbBlockReference
  2
_OPEN
 10
131.9632758999742
 20
197.4745756133883
 30
0.0000000000000000
 41
2.000000000000000
 42
2.000000000000000
 43
2.000000000000000
 50
90.00000000000000
  0
INSERT
  5
2C4
100
AcDbEntity
  8
MAIN0
  6
BYBLOCK
 62
0
100
AcDbBlockReference
  2
_OPEN
 10
131.9632758999742
 20
183.4745756133883
 30
0.0000000000000000
 41
2.000000000000000
 42
2.000000000000000
 43
2.000000000000000
 50
270.0000000000000
  0
LINE
  5
2C5
100
AcDbEntity
  8
MAIN0
  6
BYBLOCK
 62
0
100
AcDbLine
 10
124.8632759118952
 20
183.4745756133883
 30
0.0000000000000000
 11
133.9632758999742
 21
183.4745756133883
 31
0.0000000000000000
  0
MTEXT
  5
2C6
100
AcDbEntity
  8
MAIN0
  6
BYBLOCK
 62
0
100
AcDbMText
 10
129.9132759476580
 20
190.4745756133883
 30
0.0000000000000000
 40
3.099999904632568
 41
0.0000000000000000
 71
     5
 72
     1
  1
\A1;\U+220514
 11
6.123233995736766e-017
 21
1.000000000000000
 31
0.0000000000000000
  7
STANDARD
  0
ENDBLK
  5
2C7
100
AcDbEntity
  8
MAIN0
  6
CONTINUOUS
 62
3
100
AcDbBlockEnd
  0
BLOCK
  5
2C9
100
AcDbEntity
  8
MAIN0
  6
CONTINUOUS
 62
3
100
AcDbBlockBegin
  2
*D29
 70
    65
 10
0.0
 20
0.0
 30
0.0
  0
LINE
  5
2CA
100
AcDbEntity
  8
MAIN0
  6
BYBLOCK
 62
0
100
AcDbLine
 10
115.8632758999742
 20
182.6745756014674
 30
0.0000000000000000
 11
115.8632758999742
 21
172.4745756133883
 31
0.0000000000000000
  0
LINE
  5
2CB
100
AcDbEntity
  8
MAIN0
  6
BYBLOCK
 62
0
100
AcDbLine
 10
115.8632758999742
 20
174.4745756133883
 30
0.0000000000000000
 11
124.4632758999742
 21
174.4745756133883
 31
0.0000000000000000
  0
INSERT
  5
2CC
100
AcDbEntity
  8
MAIN0
  6
BYBLOCK
 62
0
100
AcDbBlockReference
  2
_OPEN
 10
115.8632758999742
 20
174.4745756133883
 30
0.0000000000000000
 41
2.000000000000000
 42
2.000000000000000
 43
2.000000000000000
 50
0.0000000000000000
  0
INSERT
  5
2CD
100
AcDbEntity
  8
MAIN0
  6
BYBLOCK
 62
0
100
AcDbBlockReference
  2
_OPEN
 10
124.4632758999742
 20
174.4745756133883
 30
0.0000000000000000
 41
2.000000000000000
 42
2.000000000000000
 43
2.000000000000000
 50
180.0000000000000
  0
LINE
  5
2CE
100
AcDbEntity
  8
MAIN0
  6
BYBLOCK
 62
0
100
AcDbLine
 10
113.8632758999742
 20
174.4745756133883
 30
0.0000000000000000
 11
112.8632758999742
 21
174.4745756133883
 31
0.0000000000000000
  0
LINE
  5
2CF
100
AcDbEntity
  8
MAIN0
  6
BYBLOCK
 62
0
100
AcDbLine
 10
126.4632758999742
 20
174.4745756133883
 30
0.0000000000000000
 11
127.4632758999742
 21
174.4745756133883
 31
0.0000000000000000
  0
LINE
  5
2D0
100
AcDbEntity
  8
MAIN0
  6
BYBLOCK
 62
0
100
AcDbLine
 10
124.4632758999742
 20
182.1745756014674
 30
0.0000000000000000
 11
124.4632758999742
 21
172.4745756133883
 31
0.0000000000000000
  0
MTEXT
  5
2D1
100
AcDbEntity
  8
MAIN0
  6
BYBLOCK
 62
0
100
AcDbMText
 10
120.1632758999742
 20
176.5245755657046
 30
0.0000000000000000
 40
3.099999904632568
 41
0.0000000000000000
 71
     5
 72
     1
  1
\A1;8.6
 11
1.000000000000000
 21
0.0000000000000000
 31
0.0000000000000000
  7
STANDARD
  0
ENDBLK
  5
2D2
100
AcDbEntity
  8
MAIN0
  6
CONTINUOUS
 62
3
100
AcDbBlockEnd
  0
BLOCK
  5
2E5
100
AcDbEntity
  8
MAIN0
  6
CONTINUOUS
 62
3
100
AcDbBlockBegin
  2
*D30
 70
    65
 10
0.0
 20
0.0
 30
0.0
  0
LINE
  5
2E6
100
AcDbEntity
  8
MAIN0
  6
BYBLOCK
 62
0
100
AcDbLine
 10
262.5232237012057
 20
293.6397318024055
 30
0.0000000000000000
 11
230.7315791980761
 21
240.9440452105484
 31
0.0000000000000000
  0
INSERT
  5
2E7
100
AcDbEntity
  8
MAIN0
  6
BYBLOCK
 62
0
100
AcDbBlockReference
  2
_OPEN
 10
263.5563755166003
 20
295.3522145983327
 30
0.0000000000000000
 41
2.000000000000000
 42
2.000000000000000
 43
2.000000000000000
 50
58.89715086106867
  0
MTEXT
  5
2E8
100
AcDbEntity
  8
MAIN0
  6
BYBLOCK
 62
0
100
AcDbMText
 10
252.2995456677670
 20
280.6620913056804
 30
0.0000000000000000
 40
3.099999904632568
 41
0.0000000000000000
 71
     5
 72
     1
  1
\A1;\U+2205113\H0.903226x;\U+00B10.2
 11
0.5165759076973203
 21
0.8562413979636173
 31
0.0000000000000000
  7
STANDARD
  0
ENDBLK
  5
2E9
100
AcDbEntity
  8
MAIN0
  6
CONTINUOUS
 62
3
100
AcDbBlockEnd
  0
BLOCK
  5
2EB
100
AcDbEntity
  8
MAIN0
  6
CONTINUOUS
 62
3
100
AcDbBlockBegin
  2
*D31
 70
    65
 10
0.0
 20
0.0
 30
0.0
  0
LINE
  5
2EC
100
AcDbEntity
  8
MAIN0
  6
BYBLOCK
 62
0
100
AcDbLine
 10
274.8803618182266
 20
195.1234680168230
 30
0.0000000000000000
 11
278.1346837429047
 21
190.9581259008663
 31
0.0000000000000000
  0
ARC
  5
2ED
100
AcDbEntity
  8
MAIN0
  6
BYBLOCK
 62
0
100
AcDbCircle
 10
234.3698367353808
 20
246.9745756123885
 30
0.0000000000000000
 40
69.08589502760347
100
AcDbArc
 50
309.6586824123694
 51
328.3413175876055
  0
INSERT
  5
2EE
100
AcDbEntity
  8
MAIN0
  6
BYBLOCK
 62
0
100
AcDbBlockReference
  2
_OPEN
 10
276.9033607922538
 20
192.5341474080801
 30
0.0000000000000000
 41
2.000000000000000
 42
2.000000000000000
 43
2.000000000000000
 50
217.9999999999843
  0
INSERT
  5
2EF
100
AcDbEntity
  8
MAIN0
  6
BYBLOCK
 62
0
100
AcDbBlockReference
  2
_OPEN
 10
294.1999768724647
 20
212.4316280985768
 30
0.0000000000000000
 41
2.000000000000000
 42
2.000000000000000
 43
2.000000000000000
 50
59.99999999999051
  0
MTEXT
  5
2F0
100
AcDbEntity
  8
MAIN0
  6
BYBLOCK
 62
0
100
AcDbMText
 10
284.9624689674989
 20
202.9950713817749
 30
0.0000000000000000
 40
3.099999904632568
 41
0.0000000000000000
 71
     5
 72
     1
  1
\A1;22\U+00B0
 11
0.6560590289906735
 21
0.7547095802226276
 31
0.0000000000000000
  7
STANDARD
  0
ENDBLK
  5
2F1
100
AcDbEntity
  8
MAIN0
  6
CONTINUOUS
 62
3
100
AcDbBlockEnd
  0
BLOCK
  5
307
100
AcDbEntity
  8
MAIN0
  6
CONTINUOUS
 62
3
100
AcDbBlockBegin
  2
*D32
 70
    65
 10
0.0
 20
0.0
 30
0.0
  0
LINE
  5
308
100
AcDbEntity
  8
MAIN0
  6
BYBLOCK
 62
0
100
AcDbLine
 10
302.3776279118965
 20
302.7177021783050
 30
0.0000000000000000
 11
294.9632758999742
 21
302.7177021783040
 31
0.0000000000000000
  0
LINE
  5
309
100
AcDbEntity
  8
MAIN0
  6
BYBLOCK
 62
0
100
AcDbLine
 10
296.9632758999742
 20
300.7177021783043
 30
0.0000000000000000
 11
296.9632758999742
 21
288.7177021783051
 31
0.0000000000000000
  0
INSERT
  5
30A
100
AcDbEntity
  8
MAIN0
  6
BYBLOCK
 62
0
100
AcDbBlockReference
  2
_OPEN
 10
296.9632758999742
 20
302.7177021783043
 30
0.0000000000000000
 41
2.000000000000000
 42
2.000000000000000
 43
2.000000000000000
 50
90.00000000000000
  0
INSERT
  5
30B
100
AcDbEntity
  8
MAIN0
  6
BYBLOCK
 62
0
100
AcDbBlockReference
  2
_OPEN
 10
296.9632758999742
 20
286.7177021783051
 30
0.0000000000000000
 41
2.000000000000000
 42
2.000000000000000
 43
2.000000000000000
 50
270.0000000000000
  0
LINE
  5
30C
100
AcDbEntity
  8
MAIN0
  6
BYBLOCK
 62
0
100
AcDbLine
 10
302.3776279118965
 20
286.7177021783051
 30
0.0000000000000000
 11
294.9632758999742
 21
286.7177021783051
 31
0.0000000000000000
  0
MTEXT
  5
30D
100
AcDbEntity
  8
MAIN0
  6
BYBLOCK
 62
0
100
AcDbMText
 10
294.9132759476580
 20
294.7177021783047
 30
0.0000000000000000
 40
3.099999904632568
 41
0.0000000000000000
 71
     5
 72
     1
  1
\A1;\U+220516
 11
6.123233995736766e-017
 21
1.000000000000000
 31
0.0000000000000000
  7
STANDARD
  0
ENDBLK
  5
30E
100
AcDbEntity
  8
MAIN0
  6
CONTINUOUS
 62
3
100
AcDbBlockEnd
  0
BLOCK
  5
310
100
AcDbEntity
  8
MAIN0
  6
CONTINUOUS
 62
3
100
AcDbBlockBegin
  2
*D33
 70
    65
 10
0.0
 20
0.0
 30
0.0
  0
LINE
  5
311
100
AcDbEntity
  8
MAIN0
  6
BYBLOCK
 62
0
100
AcDbLine
 10
302.1776279238174
 20
302.5177021902259
 30
0.0000000000000000
 11
302.1776279238174
 21
311.4745756133883
 31
0.0000000000000000
  0
LINE
  5
312
100
AcDbEntity
  8
MAIN0
  6
BYBLOCK
 62
0
100
AcDbLine
 10
304.1776279238174
 20
309.4745756133883
 30
0.0000000000000000
 11
308.1776279238174
 21
309.4745756133883
 31
0.0000000000000000
  0
INSERT
  5
313
100
AcDbEntity
  8
MAIN0
  6
BYBLOCK
 62
0
100
AcDbBlockReference
  2
_OPEN
 10
302.1776279238174
 20
309.4745756133883
 30
0.0000000000000000
 41
2.000000000000000
 42
2.000000000000000
 43
2.000000000000000
 50
180.0000000000000
  0
INSERT
  5
314
100
AcDbEntity
  8
MAIN0
  6
BYBLOCK
 62
0
100
AcDbBlockReference
  2
_OPEN
 10
310.1776279238174
 20
309.4745756133883
 30
0.0000000000000000
 41
2.000000000000000
 42
2.000000000000000
 43
2.000000000000000
 50
0.0000000000000000
  0
LINE
  5
315
100
AcDbEntity
  8
MAIN0
  6
BYBLOCK
 62
0
100
AcDbLine
 10
310.1776279238174
 20
302.5177021902271
 30
0.0000000000000000
 11
310.1776279238174
 21
311.4745756133883
 31
0.0000000000000000
  0
MTEXT
  5
316
100
AcDbEntity
  8
MAIN0
  6
BYBLOCK
 62
0
100
AcDbMText
 10
306.1776279238174
 20
311.5245755657046
 30
0.0000000000000000
 40
3.099999904632568
 41
0.0000000000000000
 71
     5
 72
     1
  1
\A1;8
 11
1.000000000000000
 21
0.0000000000000000
 31
0.0000000000000000
  7
STANDARD
  0
ENDBLK
  5
317
100
AcDbEntity
  8
MAIN0
  6
CONTINUOUS
 62
3
100
AcDbBlockEnd
  0
BLOCK
  5
319
100
AcDbEntity
  8
MAIN0
  6
CONTINUOUS
 62
3
100
AcDbBlockBegin
  2
*D34
 70
    65
 10
0.0
 20
0.0
 30
0.0
  0
LINE
  5
31A
100
AcDbEntity
  8
MAIN0
  6
BYBLOCK
 62
0
100
AcDbLine
 10
68.96327589997424
 20
211.9745756133883
 30
0.0000000000000000
 11
64.46327589997424
 21
211.9745756133883
 31
0.0000000000000000
  0
INSERT
  5
31B
100
AcDbEntity
  8
MAIN0
  6
BYBLOCK
 62
0
100
AcDbBlockReference
  2
_OPEN
 10
68.96327589997424
 20
211.9745756133883
 30
0.0000000000000000
 41
2.000000000000000
 42
2.000000000000000
 43
2.000000000000000
 50
180.0000000000000
  0
INSERT
  5
31C
100
AcDbEntity
  8
MAIN0
  6
BYBLOCK
 62
0
100
AcDbBlockReference
  2
_OPEN
 10
64.46327589997424
 20
211.9745756133883
 30
0.0000000000000000
 41
2.000000000000000
 42
2.000000000000000
 43
2.000000000000000
 50
360.0000000000000
  0
LINE
  5
31D
100
AcDbEntity
  8
MAIN0
  6
BYBLOCK
 62
0
100
AcDbLine
 10
70.96327589997424
 20
211.9745756133883
 30
0.0000000000000000
 11
71.96327589997424
 21
211.9745756133883
 31
0.0000000000000000
  0
LINE
  5
31E
100
AcDbEntity
  8
MAIN0
  6
BYBLOCK
 62
0
100
AcDbLine
 10
62.46327589997424
 20
211.9745756133883
 30
0.0000000000000000
 11
56.02254961976183
 21
211.9745756133883
 31
0.0000000000000000
  0
MTEXT
  5
31F
100
AcDbEntity
  8
MAIN0
  6
BYBLOCK
 62
0
100
AcDbMText
 10
58.67254915440513
 20
214.0245755657046
 30
0.0000000000000000
 40
3.099999904632568
 41
0.0000000000000000
 71
     5
 72
     1
  1
\A1;4.5
 11
1.000000000000000
 21
0.0000000000000000
 31
0.0000000000000000
  7
STANDARD
  0
ENDBLK
  5
320
100
AcDbEntity
  8
MAIN0
  6
CONTINUOUS
 62
3
100
AcDbBlockEnd
  0
BLOCK
  5
323
100
AcDbEntity
  8
MAIN0
  6
CONTINUOUS
 62
3
100
AcDbBlockBegin
  2
*D35
 70
    65
 10
0.0
 20
0.0
 30
0.0
  0
LINE
  5
324
100
AcDbEntity
  8
MAIN0
  6
BYBLOCK
 62
0
100
AcDbLine
 10
144.4632758999593
 20
277.2745756253282
 30
0.0000000000000000
 11
144.4632758999534
 21
323.9745756133883
 31
0.0000000000000000
  0
LINE
  5
325
100
AcDbEntity
  8
MAIN0
  6
BYBLOCK
 62
0
100
AcDbLine
 10
142.4632758999536
 20
321.9745756133883
 30
0.0000000000000000
 11
126.4632758999742
 21
321.9745756133883
 31
0.0000000000000000
  0
INSERT
  5
326
100
AcDbEntity
  8
MAIN0
  6
BYBLOCK
 62
0
100
AcDbBlockReference
  2
_OPEN
 10
144.4632758999536
 20
321.9745756133883
 30
0.0000000000000000
 41
2.000000000000000
 42
2.000000000000000
 43
2.000000000000000
 50
360.0000000000000
  0
INSERT
  5
327
100
AcDbEntity
  8
MAIN0
  6
BYBLOCK
 62
0
100
AcDbBlockReference
  2
_OPEN
 10
124.4632758999742
 20
321.9745756133883
 30
0.0000000000000000
 41
2.000000000000000
 42
2.000000000000000
 43
2.000000000000000
 50
180.0000000000000
  0
LINE
  5
328
100
AcDbEntity
  8
MAIN0
  6
BYBLOCK
 62
0
100
AcDbLine
 10
124.4632758999742
 20
311.7745756253165
 30
0.0000000000000000
 11
124.4632758999742
 21
323.9745756133883
 31
0.0000000000000000
  0
MTEXT
  5
329
100
AcDbEntity
  8
MAIN0
  6
BYBLOCK
 62
0
100
AcDbMText
 10
134.4632758999639
 20
324.0245755657046
 30
0.0000000000000000
 40
3.099999904632568
 41
0.0000000000000000
 71
     5
 72
     1
  1
\A1;20
 11
1.000000000000000
 21
0.0000000000000000
 31
0.0000000000000000
  7
STANDARD
  0
ENDBLK
  5
32A
100
AcDbEntity
  8
MAIN0
  6
CONTINUOUS
 62
3
100
AcDbBlockEnd
  0
BLOCK
  5
32C
100
AcDbEntity
  8
MAIN0
  6
CONTINUOUS
 62
3
100
AcDbBlockBegin
  2
*D36
 70
    65
 10
0.0
 20
0.0
 30
0.0
  0
LINE
  5
32D
100
AcDbEntity
  8
MAIN0
  6
BYBLOCK
 62
0
100
AcDbLine
 10
144.7632759118743
 20
261.9745756134069
 30
0.0000000000000000
 11
161.4632758999742
 21
261.9745756134045
 31
0.0000000000000000
  0
LINE
  5
32E
100
AcDbEntity
  8
MAIN0
  6
BYBLOCK
 62
0
100
AcDbLine
 10
159.4632758999742
 20
263.9745756134048
 30
0.0000000000000000
 11
159.4632758999742
 21
309.9745756133950
 31
0.0000000000000000
  0
INSERT
  5
32F
100
AcDbEntity
  8
MAIN0
  6
BYBLOCK
 62
0
100
AcDbBlockReference
  2
_OPEN
 10
159.4632758999742
 20
261.9745756134048
 30
0.0000000000000000
 41
2.000000000000000
 42
2.000000000000000
 43
2.000000000000000
 50
270.0000000000000
  0
INSERT
  5
330
100
AcDbEntity
  8
MAIN0
  6
BYBLOCK
 62
0
100
AcDbBlockReference
  2
_OPEN
 10
159.4632758999742
 20
311.9745756133950
 30
0.0000000000000000
 41
2.000000000000000
 42
2.000000000000000
 43
2.000000000000000
 50
90.00000000000000
  0
LINE
  5
331
100
AcDbEntity
  8
MAIN0
  6
BYBLOCK
 62
0
100
AcDbLine
 10
128.2632759118951
 20
311.9745756133972
 30
0.0000000000000000
 11
161.4632758999742
 21
311.9745756133948
 31
0.0000000000000000
  0
MTEXT
  5
332
100
AcDbEntity
  8
MAIN0
  6
BYBLOCK
 62
0
100
AcDbMText
 10
157.4132759476580
 20
286.9745756133999
 30
0.0000000000000000
 40
3.099999904632568
 41
0.0000000000000000
 71
     5
 72
     1
  1
\A1;50
 11
6.123233995736766e-017
 21
1.000000000000000
 31
0.0000000000000000
  7
STANDARD
  0
ENDBLK
  5
333
100
AcDbEntity
  8
MAIN0
  6
CONTINUOUS
 62
3
100
AcDbBlockEnd
  0
BLOCK
  5
335
100
AcDbEntity
  8
MAIN0
  6
CONTINUOUS
 62
3
100
AcDbBlockBegin
  2
*D37
 70
    65
 10
0.0
 20
0.0
 30
0.0
  0
LINE
  5
336
100
AcDbEntity
  8
MAIN0
  6
BYBLOCK
 62
0
100
AcDbLine
 10
136.4632669227444
 20
211.2745593491414
 30
0.0000000000000000
 11
136.4632669227444
 21
221.4745756133883
 31
0.0000000000000000
  0
LINE
  5
337
100
AcDbEntity
  8
MAIN0
  6
BYBLOCK
 62
0
100
AcDbLine
 10
134.4632669227444
 20
219.4745756133883
 30
0.0000000000000000
 11
130.4632669227270
 21
219.4745756133883
 31
0.0000000000000000
  0
INSERT
  5
338
100
AcDbEntity
  8
MAIN0
  6
BYBLOCK
 62
0
100
AcDbBlockReference
  2
_OPEN
 10
136.4632669227444
 20
219.4745756133883
 30
0.0000000000000000
 41
2.000000000000000
 42
2.000000000000000
 43
2.000000000000000
 50
360.0000000000000
  0
INSERT
  5
339
100
AcDbEntity
  8
MAIN0
  6
BYBLOCK
 62
0
100
AcDbBlockReference
  2
_OPEN
 10
128.4632669227270
 20
219.4745756133883
 30
0.0000000000000000
 41
2.000000000000000
 42
2.000000000000000
 43
2.000000000000000
 50
180.0000000000000
  0
MTEXT
  5
33A
100
AcDbEntity
  8
MAIN0
  6
BYBLOCK
 62
0
100
AcDbMText
 10
132.4632669227357
 20
221.5245755657046
 30
0.0000000000000000
 40
3.099999904632568
 41
0.0000000000000000
 71
     5
 72
     1
  1
\A1;8
 11
1.000000000000000
 21
0.0000000000000000
 31
0.0000000000000000
  7
STANDARD
  0
ENDBLK
  5
33B
100
AcDbEntity
  8
MAIN0
  6
CONTINUOUS
 62
3
100
AcDbBlockEnd
  0
BLOCK
  5
33D
100
AcDbEntity
  8
MAIN0
  6
CONTINUOUS
 62
3
100
AcDbBlockBegin
  2
*D38
 70
    65
 10
0.0
 20
0.0
 30
0.0
  0
LINE
  5
33E
100
AcDbEntity
  8
MAIN0
  6
BYBLOCK
 62
0
100
AcDbLine
 10
64.46327589997424
 20
182.1745756014673
 30
0.0000000000000000
 11
64.46327589997424
 21
165.9745756133883
 31
0.0000000000000000
  0
LINE
  5
33F
100
AcDbEntity
  8
MAIN0
  6
BYBLOCK
 62
0
100
AcDbLine
 10
66.46327589997424
 20
167.9745756133883
 30
0.0000000000000000
 11
84.96329047019533
 21
167.9745756133883
 31
0.0000000000000000
  0
INSERT
  5
340
100
AcDbEntity
  8
MAIN0
  6
BYBLOCK
 62
0
100
AcDbBlockReference
  2
_OPEN
 10
64.46327589997424
 20
167.9745756133883
 30
0.0000000000000000
 41
2.000000000000000
 42
2.000000000000000
 43
2.000000000000000
 50
180.0000000000000
  0
INSERT
  5
341
100
AcDbEntity
  8
MAIN0
  6
BYBLOCK
 62
0
100
AcDbBlockReference
  2
_OPEN
 10
86.96329047019533
 20
167.9745756133883
 30
0.0000000000000000
 41
2.000000000000000
 42
2.000000000000000
 43
2.000000000000000
 50
0.0000000000000000
  0
LINE
  5
342
100
AcDbEntity
  8
MAIN0
  6
BYBLOCK
 62
0
100
AcDbLine
 10
86.96329047019533
 20
179.1745756014674
 30
0.0000000000000000
 11
86.96329047019533
 21
165.9745756133883
 31
0.0000000000000000
  0
MTEXT
  5
343
100
AcDbEntity
  8
MAIN0
  6
BYBLOCK
 62
0
100
AcDbMText
 10
75.71328318508479
 20
170.0245755657046
 30
0.0000000000000000
 40
3.099999904632568
 41
0.0000000000000000
 71
     5
 72
     1
  1
\A1;22.5
 11
1.000000000000000
 21
0.0000000000000000
 31
0.0000000000000000
  7
STANDARD
  0
ENDBLK
  5
344
100
AcDbEntity
  8
MAIN0
  6
CONTINUOUS
 62
3
100
AcDbBlockEnd
  0
BLOCK
  5
346
100
AcDbEntity
  8
MAIN0
  6
CONTINUOUS
 62
3
100
AcDbBlockBegin
  2
*D39
 70
    65
 10
0.0
 20
0.0
 30
0.0
  0
LINE
  5
347
100
AcDbEntity
  8
MAIN0
  6
BYBLOCK
 62
0
100
AcDbLine
 10
86.96329047019533
 20
179.1745756014674
 30
0.0000000000000000
 11
86.96329047019533
 21
165.9745756133883
 31
0.0000000000000000
  0
LINE
  5
348
100
AcDbEntity
  8
MAIN0
  6
BYBLOCK
 62
0
100
AcDbLine
 10
88.96329047019533
 20
167.9745756133883
 30
0.0000000000000000
 11
122.4632758999742
 21
167.9745756133883
 31
0.0000000000000000
  0
INSERT
  5
349
100
AcDbEntity
  8
MAIN0
  6
BYBLOCK
 62
0
100
AcDbBlockReference
  2
_OPEN
 10
86.96329047019533
 20
167.9745756133883
 30
0.0000000000000000
 41
2.000000000000000
 42
2.000000000000000
 43
2.000000000000000
 50
180.0000000000000
  0
INSERT
  5
34A
100
AcDbEntity
  8
MAIN0
  6
BYBLOCK
 62
0
100
AcDbBlockReference
  2
_OPEN
 10
124.4632758999742
 20
167.9745756133883
 30
0.0000000000000000
 41
2.000000000000000
 42
2.000000000000000
 43
2.000000000000000
 50
0.0000000000000000
  0
LINE
  5
34B
100
AcDbEntity
  8
MAIN0
  6
BYBLOCK
 62
0
100
AcDbLine
 10
124.4632758999742
 20
182.1745756014674
 30
0.0000000000000000
 11
124.4632758999742
 21
165.9745756133883
 31
0.0000000000000000
  0
MTEXT
  5
34C
100
AcDbEntity
  8
MAIN0
  6
BYBLOCK
 62
0
100
AcDbMText
 10
105.7132831850848
 20
170.0245755657046
 30
0.0000000000000000
 40
3.099999904632568
 41
0.0000000000000000
 71
     5
 72
     1
  1
\A1;37.5
 11
1.000000000000000
 21
0.0000000000000000
 31
0.0000000000000000
  7
STANDARD
  0
ENDBLK
  5
34D
100
AcDbEntity
  8
MAIN0
  6
CONTINUOUS
 62
3
100
AcDbBlockEnd
  0
BLOCK
  5
34F
100
AcDbEntity
  8
MAIN0
  6
CONTINUOUS
 62
3
100
AcDbBlockBegin
  2
*D40
 70
    65
 10
0.0
 20
0.0
 30
0.0
  0
LINE
  5
350
100
AcDbEntity
  8
MAIN0
  6
BYBLOCK
 62
0
100
AcDbLine
 10
316.8811719615048
 20
291.7177021783061
 30
0.0000000000000000
 11
316.8811719615048
 21
297.7177021783061
 31
0.0000000000000000
  0
INSERT
  5
351
100
AcDbEntity
  8
MAIN0
  6
BYBLOCK
 62
0
100
AcDbBlockReference
  2
_OPEN
 10
316.8811719615048
 20
289.7177021783061
 30
0.0000000000000000
 41
2.000000000000000
 42
2.000000000000000
 43
2.000000000000000
 50
270.0000000000000
  0
INSERT
  5
352
100
AcDbEntity
  8
MAIN0
  6
BYBLOCK
 62
0
100
AcDbBlockReference
  2
_OPEN
 10
316.8811719615048
 20
299.7177021783061
 30
0.0000000000000000
 41
2.000000000000000
 42
2.000000000000000
 43
2.000000000000000
 50
90.00000000000000
  0
MTEXT
  5
353
100
AcDbEntity
  8
MAIN0
  6
BYBLOCK
 62
0
100
AcDbMText
 10
314.8311720091886
 20
294.7177021783061
 30
0.0000000000000000
 40
3.099999904632568
 41
0.0000000000000000
 71
     5
 72
     1
  1
\A1;\U+220510
 11
6.123233995736766e-017
 21
1.000000000000000
 31
0.0000000000000000
  7
STANDARD
  0
ENDBLK
  5
354
100
AcDbEntity
  8
MAIN0
  6
CONTINUOUS
 62
3
100
AcDbBlockEnd
  0
BLOCK
  5
356
100
AcDbEntity
  8
MAIN0
  6
CONTINUOUS
 62
3
100
AcDbBlockBegin
  2
*D41
 70
    65
 10
0.0
 20
0.0
 30
0.0
  0
LINE
  5
357
100
AcDbEntity
  8
MAIN0
  6
BYBLOCK
 62
0
100
AcDbLine
 10
332.7299264169549
 20
296.7177021783073
 30
0.0000000000000000
 11
332.7299264169549
 21
307.7177021783123
 31
0.0000000000000000
  0
INSERT
  5
358
100
AcDbEntity
  8
MAIN0
  6
BYBLOCK
 62
0
100
AcDbBlockReference
  2
_OPEN
 10
332.7299264169549
 20
294.7177021783073
 30
0.0000000000000000
 41
2.000000000000000
 42
2.000000000000000
 43
2.000000000000000
 50
270.0000000000000
  0
INSERT
  5
359
100
AcDbEntity
  8
MAIN0
  6
BYBLOCK
 62
0
100
AcDbBlockReference
  2
_OPEN
 10
332.7299264169549
 20
309.7177021783123
 30
0.0000000000000000
 41
2.000000000000000
 42
2.000000000000000
 43
2.000000000000000
 50
90.00000000000000
  0
LINE
  5
35A
100
AcDbEntity
  8
MAIN0
  6
BYBLOCK
 62
0
100
AcDbLine
 10
351.3776279119447
 20
309.7177021783123
 30
0.0000000000000000
 11
330.7299264169549
 21
309.7177021783123
 31
0.0000000000000000
  0
MTEXT
  5
35B
100
AcDbEntity
  8
MAIN0
  6
BYBLOCK
 62
0
100
AcDbMText
 10
330.6799264646386
 20
303.9677021783108
 30
0.0000000000000000
 40
3.099999904632568
 41
0.0000000000000000
 71
     5
 72
     1
  1
\A1;15
 11
6.123233995736766e-017
 21
1.000000000000000
 31
0.0000000000000000
  7
STANDARD
  0
ENDBLK
  5
35C
100
AcDbEntity
  8
MAIN0
  6
CONTINUOUS
 62
3
100
AcDbBlockEnd
  0
ENDSEC
  0
SECTION
  2
ENTITIES
  0
LINE
  5
46
100
AcDbEntity
  8
MAIN0
  6
CONTINUOUS
 62
3
100
AcDbLine
 10
64.46327589997424
 20
182.9745756133883
 30
0.0000000000000000
 11
64.46327589997424
 21
310.9745756133884
 31
0.0000000000000000
  0
LINE
  5
47
100
AcDbEntity
  8
MAIN0
  6
CONTINUOUS
 62
3
100
AcDbLine
 10
65.46327589997424
 20
311.9745756133883
 30
0.0000000000000000
 11
123.4632758999809
 21
311.9745756133883
 31
0.0000000000000000
  0
LINE
  5
48
100
AcDbEntity
  8
MAIN0
  6
CONTINUOUS
 62
3
100
AcDbLine
 10
72.46327589997424
 20
296.9745756133883
 30
0.0000000000000000
 11
72.46327589997424
 21
297.9745756133883
 31
0.0000000000000000
  0
LINE
  5
49
100
AcDbEntity
  8
MAIN0
  6
CONTINUOUS
 62
3
100
AcDbLine
 10
72.46327589997424
 20
297.9745756133883
 30
0.0000000000000000
 11
88.02422393004960
 21
297.9745756133883
 31
0.0000000000000000
  0
LINE
  5
4A
100
AcDbEntity
  8
MAIN0
  6
CONTINUOUS
 62
3
100
AcDbLine
 10
64.46327589997426
 20
296.9745756133883
 30
0.0000000000000000
 11
73.96327590005312
 21
296.9745756133883
 31
0.0000000000000000
  0
LINE
  5
4B
100
AcDbEntity
  8
MAIN0
  6
CONTINUOUS
 62
3
100
AcDbLine
 10
78.96327589997424
 20
272.7245756133883
 30
0.0000000000000000
 11
82.20363343845831
 21
272.7245756133883
 31
0.0000000000000000
  0
LINE
  5
4C
100
AcDbEntity
  8
MAIN0
  6
CONTINUOUS
 62
3
100
AcDbLine
 10
69.96327589997431
 20
262.9745756133883
 30
0.0000000000000000
 11
81.90845267413167
 21
262.9745756133883
 31
0.0000000000000000
  0
LINE
  5
4D
100
AcDbEntity
  8
MAIN0
  6
CONTINUOUS
 62
3
100
AcDbLine
 10
78.96327589997424
 20
272.9745756133883
 30
0.0000000000000000
 11
82.18039860261047
 21
272.9745756133883
 31
0.0000000000000000
  0
LINE
  5
4E
100
AcDbEntity
  8
MAIN0
  6
CONTINUOUS
 62
3
100
AcDbLine
 10
75.96327589997424
 20
277.7245756133883
 30
0.0000000000000000
 11
81.05886430027570
 21
277.7245756133883
 31
0.0000000000000000
  0
LINE
  5
4F
100
AcDbEntity
  8
MAIN0
  6
CONTINUOUS
 62
3
100
AcDbLine
 10
64.46327589997424
 20
310.9745756133884
 30
0.0000000000000000
 11
65.46327589997424
 21
311.9745756133884
 31
0.0000000000000000
  0
LINE
  5
50
100
AcDbEntity
  8
MAIN0
  6
CONTINUOUS
 62
3
100
AcDbLine
 10
68.96327589997424
 20
196.9745756133883
 30
0.0000000000000000
 11
68.96327589997424
 21
296.9745756133883
 31
0.0000000000000000
  0
LINE
  5
51
100
AcDbEntity
  8
MAIN0
  6
CONTINUOUS
 62
3
100
AcDbLine
 10
74.96327589997424
 20
277.8961484886421
 30
0.0000000000000000
 11
74.96327589997424
 21
296.3972253442438
 31
0.0000000000000000
  0
LINE
  5
52
100
AcDbEntity
  8
MAIN0
  6
CONTINUOUS
 62
3
100
AcDbLine
 10
73.96327590005313
 20
296.9745756133883
 30
0.0000000000000000
 11
74.96327589997428
 21
296.3972253442438
 31
0.0000000000000000
  0
LINE
  5
53
100
AcDbEntity
  8
MAIN0
  6
CONTINUOUS
 62
3
100
AcDbLine
 10
72.96327589997424
 20
280.7245756133883
 30
0.0000000000000000
 11
72.96327589997424
 21
291.2245756133883
 31
0.0000000000000000
  0
ARC
  5
54
100
AcDbEntity
  8
MAIN0
  6
CONTINUOUS
 62
3
100
AcDbCircle
 10
75.96327589997424
 20
280.7245756133883
 30
0.0000000000000000
 40
3.000000000000000
100
AcDbArc
 50
180.0000000000000
 51
270.0000000000000
  0
LINE
  5
55
100
AcDbEntity
  8
MAIN0
  6
CONTINUOUS
 62
3
100
AcDbLine
 10
73.96327589997424
 20
292.2245756133883
 30
0.0000000000000000
 11
74.96327589997426
 21
292.2245756133883
 31
0.0000000000000000
  0
ARC
  5
56
100
AcDbEntity
  8
MAIN0
  6
CONTINUOUS
 62
3
100
AcDbCircle
 10
73.96327589997424
 20
291.2245756133883
 30
0.0000000000000000
 40
1.000000000000000
100
AcDbArc
 50
90.00000000000000
 51
180.0000000000000
  0
LINE
  5
57
100
AcDbEntity
  8
MAIN0
  6
CONTINUOUS
 62
3
100
AcDbLine
 10
68.96327589997431
 20
274.4745756133781
 30
0.0000000000000000
 11
69.96327589997418
 21
273.4745756133777
 31
0.0000000000000000
  0
LINE
  5
58
100
AcDbEntity
  8
MAIN0
  6
CONTINUOUS
 62
3
100
AcDbLine
 10
144.4632758999536
 20
262.4745756134073
 30
0.0000000000000000
 11
144.4632758999594
 21
276.4745756134073
 31
0.0000000000000000
  0
LINE
  5
59
100
AcDbEntity
  8
MAIN0
  6
CONTINUOUS
 62
3
100
AcDbLine
 10
128.4632758999665
 20
293.4745756133992
 30
0.0000000000000000
 11
128.4632758999709
 21
303.9745756133979
 31
0.0000000000000000
  0
LINE
  5
5A
100
AcDbEntity
  8
MAIN0
  6
CONTINUOUS
 62
3
100
AcDbLine
 10
136.4632758999603
 20
278.4745756134038
 30
0.0000000000000000
 11
136.4632758999656
 21
291.4745756134026
 31
0.0000000000000000
  0
LINE
  5
5B
100
AcDbEntity
  8
MAIN0
  6
CONTINUOUS
 62
3
100
AcDbLine
 10
143.9632758999534
 20
261.9745756134070
 30
0.0000000000000000
 11
144.4632758999536
 21
262.4745756134074
 31
0.0000000000000000
  0
LINE
  5
5C
100
AcDbEntity
  8
MAIN0
  6
CONTINUOUS
 62
3
100
AcDbLine
 10
123.4632758999743
 20
311.9745756133950
 30
0.0000000000000000
 11
127.4632758999742
 21
311.9745756133973
 31
0.0000000000000000
  0
LINE
  5
5D
100
AcDbEntity
  8
MAIN0
  6
CONTINUOUS
 62
3
100
AcDbLine
 10
143.9632758999596
 20
276.9745756134070
 30
0.0000000000000000
 11
144.4632758999594
 21
276.4745756134073
 31
0.0000000000000000
  0
LINE
  5
5E
100
AcDbEntity
  8
MAIN0
  6
CENTER
 62
3
100
AcDbLine
 10
140.9632758999584
 20
274.0291032274738
 30
0.0000000000000000
 11
140.9632758999604
 21
278.8339533087764
 31
0.0000000000000000
  0
LINE
  5
5F
100
AcDbEntity
  8
MAIN0
  6
CONTINUOUS
 62
3
100
AcDbLine
 10
141.1364809808301
 20
275.5425248053789
 30
0.0000000000000000
 11
141.9632759003364
 21
276.9745756134058
 31
0.0000000000000000
  0
LINE
  5
60
100
AcDbEntity
  8
MAIN0
  6
CONTINUOUS
 62
3
100
AcDbLine
 10
139.9632758998113
 20
276.9745756134047
 30
0.0000000000000000
 11
140.7900708193161
 21
275.5425248053789
 31
0.0000000000000000
  0
ARC
  5
61
100
AcDbEntity
  8
MAIN0
  6
CONTINUOUS
 62
3
100
AcDbCircle
 10
140.9632759000731
 20
275.6425248053787
 30
0.0000000000000000
 40
0.2000000000000000
100
AcDbArc
 50
209.9999999999421
 51
330.0000000000478
  0
LINE
  5
62
100
AcDbEntity
  8
MAIN0
  6
CONTINUOUS
 62
3
100
AcDbLine
 10
137.9632758999613
 20
276.9745756134035
 30
0.0000000000000000
 11
139.9632758998113
 21
276.9745756134046
 31
0.0000000000000000
  0
LINE
  5
63
100
AcDbEntity
  8
MAIN0
  6
CONTINUOUS
 62
3
100
AcDbLine
 10
141.9632759003364
 20
276.9745756134058
 30
0.0000000000000000
 11
143.9632758999446
 21
276.9745756134070
 31
0.0000000000000000
  0
LINE
  5
64
100
AcDbEntity
  8
MAIN0
  6
CENTER
 62
3
100
AcDbLine
 10
132.6632758999584
 20
289.0291032274738
 30
0.0000000000000000
 11
132.6632758999604
 21
293.8339533087764
 31
0.0000000000000000
  0
LINE
  5
65
100
AcDbEntity
  8
MAIN0
  6
CONTINUOUS
 62
3
100
AcDbLine
 10
132.8364809808301
 20
290.5425248053789
 30
0.0000000000000000
 11
133.6632759003364
 21
291.9745756134058
 31
0.0000000000000000
  0
LINE
  5
66
100
AcDbEntity
  8
MAIN0
  6
CONTINUOUS
 62
3
100
AcDbLine
 10
131.6632758998113
 20
291.9745756134047
 30
0.0000000000000000
 11
132.4900708193161
 21
290.5425248053789
 31
0.0000000000000000
  0
ARC
  5
67
100
AcDbEntity
  8
MAIN0
  6
CONTINUOUS
 62
3
100
AcDbCircle
 10
132.6632759000731
 20
290.6425248053787
 30
0.0000000000000000
 40
0.2000000000000000
100
AcDbArc
 50
209.9999999999421
 51
330.0000000000478
  0
LINE
  5
68
100
AcDbEntity
  8
MAIN0
  6
CONTINUOUS
 62
3
100
AcDbLine
 10
129.9632758999675
 20
291.9745756133988
 30
0.0000000000000000
 11
131.6632758998113
 21
291.9745756133998
 31
0.0000000000000000
  0
LINE
  5
69
100
AcDbEntity
  8
MAIN0
  6
CONTINUOUS
 62
3
100
AcDbLine
 10
133.6632759003364
 20
291.9745756134009
 30
0.0000000000000000
 11
135.9632758999658
 21
291.9745756134023
 31
0.0000000000000000
  0
LINE
  5
6A
100
AcDbEntity
  8
MAIN0
  6
CONTINUOUS
 62
3
100
AcDbLine
 10
127.9632758999709
 20
303.9745756133976
 30
0.0000000000000000
 11
127.9632758999740
 21
311.4745756133981
 31
0.0000000000000000
  0
LINE
  5
6B
100
AcDbEntity
  8
MAIN0
  6
CONTINUOUS
 62
3
100
AcDbLine
 10
127.9632758999709
 20
303.9745756133976
 30
0.0000000000000000
 11
128.4632758999709
 21
303.9745756133979
 31
0.0000000000000000
  0
LINE
  5
6C
100
AcDbEntity
  8
MAIN0
  6
CONTINUOUS
 62
3
100
AcDbLine
 10
127.4632758999742
 20
311.9745756133973
 30
0.0000000000000000
 11
127.9632758999740
 21
311.4745756133976
 31
0.0000000000000000
  0
LINE
  5
6D
100
AcDbEntity
  8
MAIN0
  6
CONTINUOUS
 62
3
100
AcDbLine
 10
139.6364809808828
 20
262.9736137187261
 30
0.0000000000000000
 11
140.2132758999216
 21
261.9745756134049
 31
0.0000000000000000
  0
LINE
  5
6E
100
AcDbEntity
  8
MAIN0
  6
CONTINUOUS
 62
3
100
AcDbLine
 10
138.7132759003317
 20
261.9745756134039
 30
0.0000000000000000
 11
139.2900708193691
 21
262.9736137187258
 31
0.0000000000000000
  0
ARC
  5
6F
100
AcDbEntity
  8
MAIN0
  6
CONTINUOUS
 62
3
100
AcDbCircle
 10
139.4632759001261
 20
262.8736137187259
 30
0.0000000000000000
 40
0.2000000000000000
100
AcDbArc
 50
30.00000000003955
 51
150.0000000000291
  0
LINE
  5
70
100
AcDbEntity
  8
MAIN0
  6
CONTINUOUS
 62
3
100
AcDbLine
 10
140.2132758999216
 20
261.9745756134048
 30
0.0000000000000000
 11
143.9632758999534
 21
261.9745756134070
 31
0.0000000000000000
  0
LINE
  5
71
100
AcDbEntity
  8
MAIN0
  6
CENTER
 62
3
100
AcDbLine
 10
134.4632758999526
 20
260.1805884827441
 30
0.0000000000000000
 11
134.4632758999544
 21
264.4183839247966
 31
0.0000000000000000
  0
LINE
  5
72
100
AcDbEntity
  8
MAIN0
  6
CONTINUOUS
 62
3
100
AcDbLine
 10
134.6364809808828
 20
262.9736137187261
 30
0.0000000000000000
 11
135.2132758999216
 21
261.9745756134049
 31
0.0000000000000000
  0
LINE
  5
73
100
AcDbEntity
  8
MAIN0
  6
CONTINUOUS
 62
3
100
AcDbLine
 10
133.7132759003317
 20
261.9745756134039
 30
0.0000000000000000
 11
134.2900708193691
 21
262.9736137187258
 31
0.0000000000000000
  0
ARC
  5
74
100
AcDbEntity
  8
MAIN0
  6
CONTINUOUS
 62
3
100
AcDbCircle
 10
134.4632759001261
 20
262.8736137187259
 30
0.0000000000000000
 40
0.2000000000000000
100
AcDbArc
 50
30.00000000003955
 51
150.0000000000291
  0
LINE
  5
75
100
AcDbEntity
  8
MAIN0
  6
CENTER
 62
3
100
AcDbLine
 10
129.4632758999526
 20
260.1805884827441
 30
0.0000000000000000
 11
129.4632758999544
 21
264.4183839247966
 31
0.0000000000000000
  0
LINE
  5
76
100
AcDbEntity
  8
MAIN0
  6
CONTINUOUS
 62
3
100
AcDbLine
 10
129.6364809808828
 20
262.9736137187261
 30
0.0000000000000000
 11
130.2132758999216
 21
261.9745756134049
 31
0.0000000000000000
  0
LINE
  5
77
100
AcDbEntity
  8
MAIN0
  6
CONTINUOUS
 62
3
100
AcDbLine
 10
128.7132759003317
 20
261.9745756134039
 30
0.0000000000000000
 11
129.2900708193691
 21
262.9736137187258
 31
0.0000000000000000
  0
ARC
  5
78
100
AcDbEntity
  8
MAIN0
  6
CONTINUOUS
 62
3
100
AcDbCircle
 10
129.4632759001261
 20
262.8736137187259
 30
0.0000000000000000
 40
0.2000000000000000
100
AcDbArc
 50
30.00000000003955
 51
150.0000000000291
  0
LINE
  5
79
100
AcDbEntity
  8
MAIN0
  6
CENTER
 62
3
100
AcDbLine
 10
124.4632758999526
 20
260.1805884827441
 30
0.0000000000000000
 11
124.4632758999544
 21
264.4183839247966
 31
0.0000000000000000
  0
LINE
  5
7A
100
AcDbEntity
  8
MAIN0
  6
CONTINUOUS
 62
3
100
AcDbLine
 10
124.6364809808829
 20
262.9736137187260
 30
0.0000000000000000
 11
125.2132758999216
 21
261.9745756134048
 31
0.0000000000000000
  0
ARC
  5
7B
100
AcDbEntity
  8
MAIN0
  6
CONTINUOUS
 62
3
100
AcDbCircle
 10
124.4632759001261
 20
262.8736137187259
 30
0.0000000000000000
 40
0.2000000000000000
100
AcDbArc
 50
30.00000000003956
 51
90.00000000000000
  0
LINE
  5
7C
100
AcDbEntity
  8
MAIN0
  6
CONTINUOUS
 62
3
100
AcDbLine
 10
135.2132758999216
 20
261.9745756134018
 30
0.0000000000000000
 11
138.7132759003318
 21
261.9745756134039
 31
0.0000000000000000
  0
LINE
  5
7D
100
AcDbEntity
  8
MAIN0
  6
CONTINUOUS
 62
3
100
AcDbLine
 10
130.2132758999217
 20
261.9745756133989
 30
0.0000000000000000
 11
133.7132759003317
 21
261.9745756134010
 31
0.0000000000000000
  0
LINE
  5
7E
100
AcDbEntity
  8
MAIN0
  6
CONTINUOUS
 62
3
100
AcDbLine
 10
125.2132758999216
 20
261.9745756133960
 30
0.0000000000000000
 11
128.7132759003317
 21
261.9745756133980
 31
0.0000000000000000
  0
LINE
  5
7F
100
AcDbEntity
  8
MAIN0
  6
CONTINUOUS
 62
3
100
AcDbLine
 10
124.4632758999742
 20
266.1416033316523
 30
0.0000000000000000
 11
144.4632758999551
 21
266.1416033316523
 31
0.0000000000000000
  0
LINE
  5
80
100
AcDbEntity
  8
MAIN0
  6
PHANTOM
 62
3
100
AcDbLine
 10
124.4632758999742
 20
254.9745756133883
 30
0.0000000000000000
 11
143.9632758999505
 21
254.9745756133883
 31
0.0000000000000000
  0
LINE
  5
81
100
AcDbEntity
  8
MAIN0
  6
CONTINUOUS
 62
3
100
AcDbLine
 10
72.46327589997424
 20
196.9745756133883
 30
0.0000000000000000
 11
72.46327589997424
 21
195.9745756133883
 31
0.0000000000000000
  0
LINE
  5
82
100
AcDbEntity
  8
MAIN0
  6
CONTINUOUS
 62
3
100
AcDbLine
 10
64.46327589997426
 20
196.9745756133883
 30
0.0000000000000000
 11
73.96327590005312
 21
196.9745756133883
 31
0.0000000000000000
  0
LINE
  5
83
100
AcDbEntity
  8
MAIN0
  6
CONTINUOUS
 62
3
100
AcDbLine
 10
69.96327589997431
 20
230.9745756133883
 30
0.0000000000000000
 11
80.65609190093338
 21
230.9745756133883
 31
0.0000000000000000
  0
LINE
  5
84
100
AcDbEntity
  8
MAIN0
  6
CONTINUOUS
 62
3
100
AcDbLine
 10
64.46327589997424
 20
182.9745756133883
 30
0.0000000000000000
 11
65.46327589997424
 21
181.9745756133883
 31
0.0000000000000000
  0
LINE
  5
85
100
AcDbEntity
  8
MAIN0
  6
CONTINUOUS
 62
3
100
AcDbLine
 10
74.96327589997424
 20
216.0530027381345
 30
0.0000000000000000
 11
74.96327589997424
 21
197.5519258825328
 31
0.0000000000000000
  0
LINE
  5
86
100
AcDbEntity
  8
MAIN0
  6
CONTINUOUS
 62
3
100
AcDbLine
 10
73.96327590005313
 20
196.9745756133883
 30
0.0000000000000000
 11
74.96327589997428
 21
197.5519258825328
 31
0.0000000000000000
  0
LINE
  5
87
100
AcDbEntity
  8
MAIN0
  6
CONTINUOUS
 62
3
100
AcDbLine
 10
72.96327589997424
 20
213.2245756133883
 30
0.0000000000000000
 11
72.96327589997424
 21
202.7245756133883
 31
0.0000000000000000
  0
ARC
  5
88
100
AcDbEntity
  8
MAIN0
  6
CONTINUOUS
 62
3
100
AcDbCircle
 10
75.96327589997424
 20
213.2245756133883
 30
0.0000000000000000
 40
3.000000000000000
100
AcDbArc
 50
90.00000000000000
 51
180.0000000000000
  0
LINE
  5
89
100
AcDbEntity
  8
MAIN0
  6
CONTINUOUS
 62
3
100
AcDbLine
 10
73.96327589997424
 20
201.7245756133883
 30
0.0000000000000000
 11
74.96327589997426
 21
201.7245756133883
 31
0.0000000000000000
  0
ARC
  5
8A
100
AcDbEntity
  8
MAIN0
  6
CONTINUOUS
 62
3
100
AcDbCircle
 10
73.96327589997424
 20
202.7245756133883
 30
0.0000000000000000
 40
1.000000000000000
100
AcDbArc
 50
180.0000000000000
 51
270.0000000000000
  0
LINE
  5
8B
100
AcDbEntity
  8
MAIN0
  6
CONTINUOUS
 62
3
100
AcDbLine
 10
68.96327589997431
 20
219.4745756133986
 30
0.0000000000000000
 11
69.96327589997418
 21
220.4745756133989
 31
0.0000000000000000
  0
LINE
  5
8C
100
AcDbEntity
  8
MAIN0
  6
PHANTOM
 62
3
100
AcDbLine
 10
124.4632758999742
 20
238.9745756133883
 30
0.0000000000000000
 11
143.9632758999438
 21
238.9745756133883
 31
0.0000000000000000
  0
LINE
  5
8D
100
AcDbEntity
  8
MAIN0
  6
HIDDEN
 62
3
100
AcDbLine
 10
98.56329047019537
 20
183.1445756133815
 30
0.0000000000000000
 11
75.36329047019540
 21
183.1445756133952
 31
0.0000000000000000
  0
LINE
  5
8E
100
AcDbEntity
  8
MAIN0
  6
HIDDEN
 62
3
100
AcDbLine
 10
75.36329047019538
 20
183.1445756133952
 30
0.0000000000000000
 11
74.96329047019538
 21
183.5445756133954
 31
0.0000000000000000
  0
LINE
  5
8F
100
AcDbEntity
  8
MAIN0
  6
HIDDEN
 62
3
100
AcDbLine
 10
76.96329047019374
 20
187.6445756133942
 30
0.0000000000000000
 11
74.96329047019533
 21
187.6445756133954
 31
0.0000000000000000
  0
ARC
  5
90
100
AcDbEntity
  8
MAIN0
  6
HIDDEN
 62
3
100
AcDbCircle
 10
76.96329047019533
 20
190.3945756133942
 30
0.0000000000000000
 40
2.750000000000000
100
AcDbArc
 50
270.0000000000000
 51
341.4530978158454
  0
LINE
  5
91
100
AcDbEntity
  8
MAIN0
  6
HIDDEN
 62
3
100
AcDbLine
 10
81.76329047019551
 20
183.8951309636068
 30
0.0000000000000000
 11
80.46329046973447
 21
183.1445756133922
 31
0.0000000000000000
  0
LINE
  5
92
100
AcDbEntity
  8
MAIN0
  6
HIDDEN
 62
3
100
AcDbLine
 10
81.76329047019534
 20
189.5198532884992
 30
0.0000000000000000
 11
81.76329047019534
 21
183.8951309636068
 31
0.0000000000000000
  0
LINE
  5
93
100
AcDbEntity
  8
MAIN0
  6
HIDDEN
 62
3
100
AcDbLine
 10
92.16329047019534
 20
183.8951309636106
 30
0.0000000000000000
 11
81.76329047019536
 21
183.8951309636098
 31
0.0000000000000000
  0
LINE
  5
94
100
AcDbEntity
  8
MAIN0
  6
HIDDEN
 62
3
100
AcDbLine
 10
86.48429047019532
 20
189.5198532884992
 30
0.0000000000000000
 11
86.48429047019532
 21
183.8951309636101
 31
0.0000000000000000
  0
ARC
  5
95
100
AcDbEntity
  8
MAIN0
  6
HIDDEN
 62
3
100
AcDbCircle
 10
84.12379047020598
 20
169.0820273134614
 30
0.0000000000000000
 40
15.00000000000000
100
AcDbArc
 50
80.94591895309927
 51
99.05408104698309
  0
LINE
  5
96
100
AcDbEntity
  8
MAIN0
  6
HIDDEN
 62
3
100
AcDbLine
 10
86.48429047019535
 20
183.8951309636102
 30
0.0000000000000000
 11
84.12379047019604
 21
189.5198532884992
 31
0.0000000000000000
  0
LINE
  5
97
100
AcDbEntity
  8
MAIN0
  6
HIDDEN
 62
3
100
AcDbLine
 10
84.12379047019604
 20
189.5198532884992
 30
0.0000000000000000
 11
81.76329047019542
 21
183.8951309636067
 31
0.0000000000000000
  0
LINE
  5
98
100
AcDbEntity
  8
MAIN0
  6
HIDDEN
 62
3
100
AcDbLine
 10
75.29809336602474
 20
187.6445756133952
 30
0.0000000000000000
 11
74.96329047019533
 21
186.6445756133954
 31
0.0000000000000000
  0
LINE
  5
99
100
AcDbEntity
  8
MAIN0
  6
HIDDEN
 62
3
100
AcDbLine
 10
98.56329047019528
 20
183.1445756133952
 30
0.0000000000000000
 11
98.96329047019529
 21
183.5445756133954
 31
0.0000000000000000
  0
LINE
  5
9A
100
AcDbEntity
  8
MAIN0
  6
HIDDEN
 62
3
100
AcDbLine
 10
96.96329047019694
 20
187.6445756133942
 30
0.0000000000000000
 11
98.96329047019535
 21
187.6445756133954
 31
0.0000000000000000
  0
ARC
  5
9B
100
AcDbEntity
  8
MAIN0
  6
HIDDEN
 62
3
100
AcDbCircle
 10
96.96329047019533
 20
190.3945756133942
 30
0.0000000000000000
 40
2.750000000000000
100
AcDbArc
 50
198.5469021841547
 51
270.0000000000000
  0
LINE
  5
9C
100
AcDbEntity
  8
MAIN0
  6
HIDDEN
 62
3
100
AcDbLine
 10
92.16329047019517
 20
183.8951309636068
 30
0.0000000000000000
 11
93.46329047065620
 21
183.1445756133921
 31
0.0000000000000000
  0
LINE
  5
9D
100
AcDbEntity
  8
MAIN0
  6
HIDDEN
 62
3
100
AcDbLine
 10
92.16329047019532
 20
189.5198532884993
 30
0.0000000000000000
 11
92.16329047019532
 21
183.8951309636068
 31
0.0000000000000000
  0
LINE
  5
9E
100
AcDbEntity
  8
MAIN0
  6
HIDDEN
 62
3
100
AcDbLine
 10
87.44229047019535
 20
189.5198532884992
 30
0.0000000000000000
 11
87.44229047019535
 21
183.8951309636101
 31
0.0000000000000000
  0
ARC
  5
9F
100
AcDbEntity
  8
MAIN0
  6
HIDDEN
 62
3
100
AcDbCircle
 10
89.80279047018469
 20
169.0820273134614
 30
0.0000000000000000
 40
15.00000000000000
100
AcDbArc
 50
80.94591895301691
 51
99.05408104690075
  0
LINE
  5
A0
100
AcDbEntity
  8
MAIN0
  6
HIDDEN
 62
3
100
AcDbLine
 10
87.44229047019533
 20
183.8951309636101
 30
0.0000000000000000
 11
89.80279047019468
 21
189.5198532884993
 31
0.0000000000000000
  0
LINE
  5
A1
100
AcDbEntity
  8
MAIN0
  6
HIDDEN
 62
3
100
AcDbLine
 10
89.80279047019468
 20
189.5198532884993
 30
0.0000000000000000
 11
92.16329047019532
 21
183.8951309636068
 31
0.0000000000000000
  0
LINE
  5
A2
100
AcDbEntity
  8
MAIN0
  6
HIDDEN
 62
3
100
AcDbLine
 10
98.62848757436595
 20
187.6445756133952
 30
0.0000000000000000
 11
98.96329047019535
 21
186.6445756133954
 31
0.0000000000000000
  0
LINE
  5
A3
100
AcDbEntity
  8
MAIN0
  6
CONTINUOUS
 62
3
100
AcDbLine
 10
75.96327589997424
 20
216.2245756133883
 30
0.0000000000000000
 11
76.90973415034186
 21
216.2245756133883
 31
0.0000000000000000
  0
LINE
  5
A4
100
AcDbEntity
  8
MAIN0
  6
CONTINUOUS
 62
3
100
AcDbLine
 10
72.46327589997424
 20
195.9745756133883
 30
0.0000000000000000
 11
74.48874783814843
 21
195.9745756133883
 31
0.0000000000000000
  0
LINE
  5
A5
100
AcDbEntity
  8
MAIN0
  6
CONTINUOUS
 62
3
100
AcDbLine
 10
65.46327589997424
 20
181.9745756133883
 30
0.0000000000000000
 11
123.4632758999742
 21
181.9745756133883
 31
0.0000000000000000
  0
LINE
  5
A6
100
AcDbEntity
  8
MAIN0
  6
HIDDEN
 62
3
100
AcDbLine
 10
98.96329047019535
 20
182.9745756133883
 30
0.0000000000000000
 11
99.96329047019532
 21
181.9745756133883
 31
0.0000000000000000
  0
LINE
  5
A7
100
AcDbEntity
  8
MAIN0
  6
HIDDEN
 62
3
100
AcDbLine
 10
74.96329047019533
 20
182.9745756133883
 30
0.0000000000000000
 11
73.96329047019533
 21
181.9745756133883
 31
0.0000000000000000
  0
LINE
  5
A8
100
AcDbEntity
  8
MAIN0
  6
HIDDEN
 62
3
100
AcDbLine
 10
73.96329047019533
 20
181.9745756133883
 30
0.0000000000000000
 11
86.96329047019535
 21
183.1445756133883
 31
0.0000000000000000
  0
LINE
  5
A9
100
AcDbEntity
  8
MAIN0
  6
HIDDEN
 62
3
100
AcDbLine
 10
86.96329047019535
 20
183.1445756133883
 30
0.0000000000000000
 11
99.96329047019532
 21
181.9745756133883
 31
0.0000000000000000
  0
LINE
  5
AA
100
AcDbEntity
  8
MAIN0
  6
CONTINUOUS
 62
3
100
AcDbLine
 10
72.00483615232170
 20
196.9745756133883
 30
0.0000000000000000
 11
73.49297789892276
 21
201.8420679419345
 31
0.0000000000000000
  0
LINE
  5
AB
100
AcDbEntity
  8
MAIN0
  6
HIDDEN
 62
3
100
AcDbLine
 10
74.96329047019533
 20
182.9745756133883
 30
0.0000000000000000
 11
74.96329047019533
 21
189.5198532884992
 31
0.0000000000000000
  0
LINE
  5
AC
100
AcDbEntity
  8
MAIN0
  6
HIDDEN
 62
3
100
AcDbLine
 10
98.96329047019533
 20
182.9745756133883
 30
0.0000000000000000
 11
98.96329047019533
 21
189.5198532884993
 31
0.0000000000000000
  0
LINE
  5
AD
100
AcDbEntity
  8
MAIN0
  6
CENTER
 62
3
100
AcDbLine
 10
140.9632669227638
 20
197.7685464678897
 30
0.0000000000000000
 11
140.9632669227702
 21
193.5307510258372
 31
0.0000000000000000
  0
LINE
  5
AE
100
AcDbEntity
  8
MAIN0
  6
PHANTOM
 62
3
100
AcDbLine
 10
141.1364720036972
 20
194.9755212319079
 30
0.0000000000000000
 11
141.7132669227348
 21
195.9745593372297
 31
0.0000000000000000
  0
LINE
  5
AF
100
AcDbEntity
  8
MAIN0
  6
PHANTOM
 62
3
100
AcDbLine
 10
140.2132669231449
 20
195.9745593372291
 30
0.0000000000000000
 11
140.7900618421834
 21
194.9755212319079
 31
0.0000000000000000
  0
ARC
  5
B0
100
AcDbEntity
  8
MAIN0
  6
PHANTOM
 62
3
100
AcDbCircle
 10
140.9632669229402
 20
195.0755212319080
 30
0.0000000000000000
 40
0.2000000000000000
100
AcDbArc
 50
210.0000000000342
 51
330.0000000000237
  0
LINE
  5
B1
100
AcDbEntity
  8
MAIN0
  6
PHANTOM
 62
3
100
AcDbLine
 10
123.4632596237855
 20
181.9745593371996
 30
0.0000000000000000
 11
143.9632669227876
 21
181.9745593372319
 31
0.0000000000000000
  0
LINE
  5
B2
100
AcDbEntity
  8
MAIN0
  6
PHANTOM
 62
3
100
AcDbLine
 10
144.4632669227672
 20
195.4745593372327
 30
0.0000000000000000
 11
144.4632669227869
 21
182.4745593372327
 31
0.0000000000000000
  0
LINE
  5
B3
100
AcDbEntity
  8
MAIN0
  6
PHANTOM
 62
3
100
AcDbLine
 10
127.9632669227270
 20
221.9745593372074
 30
0.0000000000000000
 11
128.4632669227270
 21
221.9745593372082
 31
0.0000000000000000
  0
LINE
  5
B4
100
AcDbEntity
  8
MAIN0
  6
PHANTOM
 62
3
100
AcDbLine
 10
128.4632669227270
 20
221.9745593372082
 30
0.0000000000000000
 11
128.4632669227414
 21
212.4745593372068
 31
0.0000000000000000
  0
LINE
  5
B5
100
AcDbEntity
  8
MAIN0
  6
PHANTOM
 62
3
100
AcDbLine
 10
136.4632669227444
 20
210.4745593372205
 30
0.0000000000000000
 11
136.4632669227642
 21
197.4745593372192
 31
0.0000000000000000
  0
LINE
  5
B6
100
AcDbEntity
  8
MAIN0
  6
PHANTOM
 62
3
100
AcDbLine
 10
143.9632669227664
 20
195.9745593372319
 30
0.0000000000000000
 11
144.4632669227672
 21
195.4745593372327
 31
0.0000000000000000
  0
LINE
  5
B7
100
AcDbEntity
  8
MAIN0
  6
PHANTOM
 62
3
100
AcDbLine
 10
127.9632669227125
 20
231.4745593371933
 30
0.0000000000000000
 11
127.9632669227270
 21
221.9745593372074
 31
0.0000000000000000
  0
LINE
  5
B8
100
AcDbEntity
  8
MAIN0
  6
PHANTOM
 62
3
100
AcDbLine
 10
127.9632669227125
 20
231.4745593371933
 30
0.0000000000000000
 11
127.4632669227117
 21
231.9745593371927
 31
0.0000000000000000
  0
LINE
  5
B9
100
AcDbEntity
  8
MAIN0
  6
PHANTOM
 62
3
100
AcDbLine
 10
138.0032669227677
 20
195.9745593372228
 30
0.0000000000000000
 11
140.2132669231449
 21
195.9745593372262
 31
0.0000000000000000
  0
LINE
  5
BA
100
AcDbEntity
  8
MAIN0
  6
PHANTOM
 62
3
100
AcDbLine
 10
141.7132669227348
 20
195.9745593372285
 30
0.0000000000000000
 11
143.9632669227664
 21
195.9745593372319
 31
0.0000000000000000
  0
LINE
  5
BB
100
AcDbEntity
  8
MAIN0
  6
CENTER
 62
3
100
AcDbLine
 10
132.6632669227473
 20
212.7685464678806
 30
0.0000000000000000
 11
132.6632669227537
 21
208.5307510258280
 31
0.0000000000000000
  0
LINE
  5
BC
100
AcDbEntity
  8
MAIN0
  6
PHANTOM
 62
3
100
AcDbLine
 10
132.8364720036805
 20
209.9755212318988
 30
0.0000000000000000
 11
133.4132669227182
 21
210.9745593372206
 31
0.0000000000000000
  0
LINE
  5
BD
100
AcDbEntity
  8
MAIN0
  6
PHANTOM
 62
3
100
AcDbLine
 10
131.9132669231284
 20
210.9745593372199
 30
0.0000000000000000
 11
132.4900618421668
 21
209.9755212318988
 31
0.0000000000000000
  0
ARC
  5
BE
100
AcDbEntity
  8
MAIN0
  6
PHANTOM
 62
3
100
AcDbCircle
 10
132.6632669229236
 20
210.0755212318988
 30
0.0000000000000000
 40
0.2000000000000000
100
AcDbArc
 50
210.0000000000342
 51
330.0000000000237
  0
LINE
  5
BF
100
AcDbEntity
  8
MAIN0
  6
PHANTOM
 62
3
100
AcDbLine
 10
124.4632758999742
 20
227.8075478951379
 30
0.0000000000000000
 11
127.9632669227181
 21
227.8075478951418
 31
0.0000000000000000
  0
LINE
  5
C0
100
AcDbEntity
  8
MAIN0
  6
PHANTOM
 62
3
100
AcDbLine
 10
143.9632669227877
 20
181.9745593372319
 30
0.0000000000000000
 11
144.4632669227869
 21
182.4745593372327
 31
0.0000000000000000
  0
LINE
  5
C1
100
AcDbEntity
  8
MAIN0
  6
PHANTOM
 62
3
100
AcDbLine
 10
124.4632758999742
 20
231.9745593371895
 30
0.0000000000000000
 11
127.4632669227118
 21
231.9745593371928
 31
0.0000000000000000
  0
LINE
  5
C2
100
AcDbEntity
  8
MAIN0
  6
PHANTOM
 62
3
100
AcDbLine
 10
129.9632669227449
 20
210.9745593372105
 30
0.0000000000000000
 11
131.9132669231284
 21
210.9745593372135
 31
0.0000000000000000
  0
LINE
  5
C3
100
AcDbEntity
  8
MAIN0
  6
PHANTOM
 62
3
100
AcDbLine
 10
133.4132669227183
 20
210.9745593372158
 30
0.0000000000000000
 11
135.9632669227437
 21
210.9745593372197
 31
0.0000000000000000
  0
LINE
  5
C4
100
AcDbEntity
  8
MAIN0
  6
CONTINUOUS
 62
3
100
AcDbLine
 10
123.4632758999742
 20
181.9745756133883
 30
0.0000000000000000
 11
124.4632758999742
 21
182.9745756133883
 31
0.0000000000000000
  0
LINE
  5
C5
100
AcDbEntity
  8
MAIN0
  6
CENTER
 62
3
100
AcDbLine
 10
67.16379830419874
 20
268.4745756133883
 30
0.0000000000000000
 11
84.46327589997424
 21
268.4745756133883
 31
0.0000000000000000
  0
LINE
  5
C6
100
AcDbEntity
  8
MAIN1
  6
HIDDEN
 62
3
100
AcDbLine
 10
74.46327589999800
 20
272.4745756134489
 30
0.0000000000000000
 11
69.46327589999800
 21
272.4745756134489
 31
0.0000000000000000
  0
LINE
  5
C7
100
AcDbEntity
  8
MAIN1
  6
HIDDEN
 62
3
100
AcDbLine
 10
69.46327589999800
 20
269.0745756134489
 30
0.0000000000000000
 11
69.46327589999800
 21
272.4745756134489
 31
0.0000000000000000
  0
LINE
  5
C8
100
AcDbEntity
  8
MAIN1
  6
HIDDEN
 62
3
100
AcDbLine
 10
71.56327389999800
 20
269.0745696134489
 30
0.0000000000000000
 11
69.46327489999800
 21
269.0745696134489
 31
0.0000000000000000
  0
LINE
  5
C9
100
AcDbEntity
  8
MAIN1
  6
HIDDEN
 62
3
100
AcDbLine
 10
71.56327389999800
 20
267.8745696134489
 30
0.0000000000000000
 11
71.56327389999800
 21
269.0745696134489
 31
0.0000000000000000
  0
LINE
  5
CA
100
AcDbEntity
  8
MAIN1
  6
HIDDEN
 62
3
100
AcDbLine
 10
71.56327389999800
 20
267.8745696134489
 30
0.0000000000000000
 11
69.46327489999800
 21
267.8745696134489
 31
0.0000000000000000
  0
LINE
  5
CB
100
AcDbEntity
  8
MAIN1
  6
HIDDEN
 62
3
100
AcDbLine
 10
69.46327589999800
 20
264.4745756134489
 30
0.0000000000000000
 11
69.46327589999800
 21
267.8745756134489
 31
0.0000000000000000
  0
LINE
  5
CC
100
AcDbEntity
  8
MAIN1
  6
HIDDEN
 62
3
100
AcDbLine
 10
74.46327589999800
 20
264.4745756134489
 30
0.0000000000000000
 11
69.46327589999800
 21
264.4745756134489
 31
0.0000000000000000
  0
LINE
  5
CD
100
AcDbEntity
  8
MAIN1
  6
HIDDEN
 62
3
100
AcDbLine
 10
74.46327589999800
 20
265.4745756134489
 30
0.0000000000000000
 11
76.46327589999800
 21
265.4745756134489
 31
0.0000000000000000
  0
LINE
  5
CE
100
AcDbEntity
  8
MAIN1
  6
HIDDEN
 62
7
100
AcDbLine
 10
75.42404589999802
 20
265.4745756134490
 30
0.0000000000000000
 11
76.46327589999802
 21
266.0745756134490
 31
0.0000000000000000
  0
LINE
  5
CF
100
AcDbEntity
  8
MAIN1
  6
HIDDEN
 62
7
100
AcDbLine
 10
76.46327589999805
 20
270.8745756134489
 30
0.0000000000000000
 11
75.42404589999805
 21
271.4745756134489
 31
0.0000000000000000
  0
LINE
  5
D0
100
AcDbEntity
  8
MAIN1
  6
HIDDEN
 62
3
100
AcDbLine
 10
76.46327589999800
 20
271.4745756134489
 30
0.0000000000000000
 11
74.46327589999800
 21
271.4745756134489
 31
0.0000000000000000
  0
LINE
  5
D1
100
AcDbEntity
  8
MAIN1
  6
HIDDEN
 62
3
100
AcDbLine
 10
82.27352118252730
 20
271.4745756134489
 30
0.0000000000000000
 11
76.46327589999800
 21
271.4745756134489
 31
0.0000000000000000
  0
LINE
  5
D2
100
AcDbEntity
  8
MAIN1
  6
HIDDEN
 62
3
100
AcDbLine
 10
76.46327589999800
 20
271.4745756134489
 30
0.0000000000000000
 11
76.46327589999800
 21
265.4745756134489
 31
0.0000000000000000
  0
LINE
  5
D3
100
AcDbEntity
  8
MAIN1
  6
HIDDEN
 62
7
100
AcDbLine
 10
82.28331099704536
 20
270.8745756134489
 30
0.0000000000000000
 11
76.46327589999800
 21
270.8745756134489
 31
0.0000000000000000
  0
LINE
  5
D4
100
AcDbEntity
  8
MAIN1
  6
HIDDEN
 62
7
100
AcDbLine
 10
76.46327589999800
 20
266.0745756134489
 30
0.0000000000000000
 11
82.05874562082337
 21
266.0745756134489
 31
0.0000000000000000
  0
LINE
  5
D5
100
AcDbEntity
  8
MAIN1
  6
HIDDEN
 62
3
100
AcDbLine
 10
76.46327589999800
 20
265.4745756134489
 30
0.0000000000000000
 11
82.01978370375113
 21
265.4745756134489
 31
0.0000000000000000
  0
LINE
  5
D6
100
AcDbEntity
  8
MAIN1
  6
HIDDEN
 62
3
100
AcDbLine
 10
74.46327589999800
 20
272.6745626134490
 30
0.0000000000000000
 11
69.96327589999800
 21
272.6745626134490
 31
0.0000000000000000
  0
LINE
  5
D7
100
AcDbEntity
  8
MAIN1
  6
HIDDEN
 62
3
100
AcDbLine
 10
74.46327589999800
 20
264.2745636134489
 30
0.0000000000000000
 11
69.96327589999800
 21
264.2745636134489
 31
0.0000000000000000
  0
LINE
  5
D8
100
AcDbEntity
  8
MAIN1
  6
HIDDEN
 62
3
100
AcDbLine
 10
74.46327589999800
 20
272.6745626134490
 30
0.0000000000000000
 11
74.46327589999800
 21
264.2745636134489
 31
0.0000000000000000
  0
LINE
  5
D9
100
AcDbEntity
  8
MAIN1
  6
HIDDEN
 62
3
100
AcDbLine
 10
74.46327589999800
 20
265.3245636134490
 30
0.0000000000000000
 11
78.96327589999800
 21
265.3245636134490
 31
0.0000000000000000
  0
LINE
  5
DA
100
AcDbEntity
  8
MAIN1
  6
HIDDEN
 62
3
100
AcDbLine
 10
74.46327589999800
 20
271.6245636134489
 30
0.0000000000000000
 11
78.96327589999800
 21
271.6245636134489
 31
0.0000000000000000
  0
LINE
  5
DB
100
AcDbEntity
  8
MAIN0
  6
PHANTOM
 62
3
100
AcDbLine
 10
144.4632758999503
 20
254.4745756133883
 30
0.0000000000000000
 11
144.4632758999441
 21
239.4745756133883
 31
0.0000000000000000
  0
LINE
  5
DC
100
AcDbEntity
  8
MAIN0
  6
PHANTOM
 62
3
100
AcDbLine
 10
143.9632758999505
 20
254.9745756133883
 30
0.0000000000000000
 11
144.4632758999503
 21
254.4745756133883
 31
0.0000000000000000
  0
LINE
  5
DD
100
AcDbEntity
  8
MAIN0
  6
PHANTOM
 62
3
100
AcDbLine
 10
144.4632758999440
 20
239.4745756133883
 30
0.0000000000000000
 11
143.9632758999438
 21
238.9745756133883
 31
0.0000000000000000
  0
LINE
  5
DE
100
AcDbEntity
  8
MAIN0
  6
CENTER
 62
3
100
AcDbLine
 10
139.4632758999458
 20
243.8106123192536
 30
0.0000000000000000
 11
139.4632758999485
 21
250.2661443485823
 31
0.0000000000000000
  0
LINE
  5
DF
100
AcDbEntity
  8
MAIN0
  6
CENTER
 62
3
100
AcDbLine
 10
139.4632758999526
 20
260.1805884827420
 30
0.0000000000000000
 11
139.4632758999544
 21
264.4183839247966
 31
0.0000000000000000
  0
LINE
  5
E0
100
AcDbEntity
  8
MAIN0
  6
PHANTOM
 62
3
100
AcDbLine
 10
140.2132758999468
 20
246.2245756133883
 30
0.0000000000000000
 11
140.2132758999474
 21
247.7245756133883
 31
0.0000000000000000
  0
LINE
  5
E1
100
AcDbEntity
  8
MAIN0
  6
PHANTOM
 62
3
100
AcDbLine
 10
138.7132758999468
 20
246.2245756133883
 30
0.0000000000000000
 11
138.7132758999474
 21
247.7245756133883
 31
0.0000000000000000
  0
LINE
  5
E2
100
AcDbEntity
  8
MAIN0
  6
PHANTOM
 62
3
100
AcDbLine
 10
138.7132758999474
 20
247.7245756133883
 30
0.0000000000000000
 11
139.4632758999480
 21
249.2245756133883
 31
0.0000000000000000
  0
LINE
  5
E3
100
AcDbEntity
  8
MAIN0
  6
PHANTOM
 62
3
100
AcDbLine
 10
139.4632758999480
 20
249.2245756133883
 30
0.0000000000000000
 11
140.2132758999474
 21
247.7245756133883
 31
0.0000000000000000
  0
LINE
  5
E4
100
AcDbEntity
  8
MAIN0
  6
PHANTOM
 62
3
100
AcDbLine
 10
140.2132758999468
 20
246.2245756133883
 30
0.0000000000000000
 11
139.4632758999461
 21
244.4751495584905
 31
0.0000000000000000
  0
LINE
  5
E5
100
AcDbEntity
  8
MAIN0
  6
PHANTOM
 62
3
100
AcDbLine
 10
139.4632758999461
 20
244.4751495584905
 30
0.0000000000000000
 11
138.7132758999468
 21
246.2245756133883
 31
0.0000000000000000
  0
LINE
  5
E6
100
AcDbEntity
  8
MAIN0
  6
PHANTOM
 62
3
100
AcDbLine
 10
140.2132758999468
 20
246.2245756133883
 30
0.0000000000000000
 11
144.4632758999468
 21
246.2245756133883
 31
0.0000000000000000
  0
LINE
  5
E7
100
AcDbEntity
  8
MAIN0
  6
PHANTOM
 62
3
100
AcDbLine
 10
140.2132758999474
 20
247.7245756133883
 30
0.0000000000000000
 11
144.4632758999474
 21
247.7245756133883
 31
0.0000000000000000
  0
LINE
  5
E8
100
AcDbEntity
  8
MAIN0
  6
CENTER
 62
3
100
AcDbLine
 10
134.4632758999458
 20
243.8106123192536
 30
0.0000000000000000
 11
134.4632758999485
 21
250.2661443485823
 31
0.0000000000000000
  0
LINE
  5
E9
100
AcDbEntity
  8
MAIN0
  6
PHANTOM
 62
3
100
AcDbLine
 10
135.2132758999468
 20
246.2245756133883
 30
0.0000000000000000
 11
135.2132758999474
 21
247.7245756133883
 31
0.0000000000000000
  0
LINE
  5
EA
100
AcDbEntity
  8
MAIN0
  6
PHANTOM
 62
3
100
AcDbLine
 10
133.7132758999468
 20
246.2245756133883
 30
0.0000000000000000
 11
133.7132758999474
 21
247.7245756133883
 31
0.0000000000000000
  0
LINE
  5
EB
100
AcDbEntity
  8
MAIN0
  6
PHANTOM
 62
3
100
AcDbLine
 10
133.7132758999474
 20
247.7245756133883
 30
0.0000000000000000
 11
134.4632758999480
 21
249.2245756133883
 31
0.0000000000000000
  0
LINE
  5
EC
100
AcDbEntity
  8
MAIN0
  6
PHANTOM
 62
3
100
AcDbLine
 10
134.4632758999480
 20
249.2245756133883
 30
0.0000000000000000
 11
135.2132758999474
 21
247.7245756133883
 31
0.0000000000000000
  0
LINE
  5
ED
100
AcDbEntity
  8
MAIN0
  6
PHANTOM
 62
3
100
AcDbLine
 10
135.2132758999468
 20
246.2245756133883
 30
0.0000000000000000
 11
134.4632758999461
 21
244.4751495584905
 31
0.0000000000000000
  0
LINE
  5
EE
100
AcDbEntity
  8
MAIN0
  6
PHANTOM
 62
3
100
AcDbLine
 10
134.4632758999461
 20
244.4751495584905
 30
0.0000000000000000
 11
133.7132758999468
 21
246.2245756133883
 31
0.0000000000000000
  0
LINE
  5
EF
100
AcDbEntity
  8
MAIN0
  6
PHANTOM
 62
3
100
AcDbLine
 10
129.4632758999458
 20
243.8106123192536
 30
0.0000000000000000
 11
129.4632758999485
 21
250.2661443485823
 31
0.0000000000000000
  0
LINE
  5
F0
100
AcDbEntity
  8
MAIN0
  6
PHANTOM
 62
3
100
AcDbLine
 10
130.2132758999468
 20
246.2245756133883
 30
0.0000000000000000
 11
130.2132758999474
 21
247.7245756133883
 31
0.0000000000000000
  0
LINE
  5
F1
100
AcDbEntity
  8
MAIN0
  6
PHANTOM
 62
3
100
AcDbLine
 10
128.7132758999468
 20
246.2245756133883
 30
0.0000000000000000
 11
128.7132758999474
 21
247.7245756133883
 31
0.0000000000000000
  0
LINE
  5
F2
100
AcDbEntity
  8
MAIN0
  6
PHANTOM
 62
3
100
AcDbLine
 10
128.7132758999475
 20
247.7245756133883
 30
0.0000000000000000
 11
129.4632758999481
 21
249.2245756133883
 31
0.0000000000000000
  0
LINE
  5
F3
100
AcDbEntity
  8
MAIN0
  6
PHANTOM
 62
3
100
AcDbLine
 10
129.4632758999480
 20
249.2245756133883
 30
0.0000000000000000
 11
130.2132758999474
 21
247.7245756133883
 31
0.0000000000000000
  0
LINE
  5
F4
100
AcDbEntity
  8
MAIN0
  6
CENTER
 62
3
100
AcDbLine
 10
130.2132758999468
 20
246.2245756133883
 30
0.0000000000000000
 11
129.4632758999461
 21
244.4751495584905
 31
0.0000000000000000
  0
LINE
  5
F5
100
AcDbEntity
  8
MAIN0
  6
PHANTOM
 62
3
100
AcDbLine
 10
129.4632758999461
 20
244.4751495584905
 30
0.0000000000000000
 11
128.7132758999468
 21
246.2245756133883
 31
0.0000000000000000
  0
LINE
  5
F6
100
AcDbEntity
  8
MAIN0
  6
PHANTOM
 62
3
100
AcDbLine
 10
124.4632758999458
 20
243.8106123192536
 30
0.0000000000000000
 11
124.4632758999485
 21
250.2661443485823
 31
0.0000000000000000
  0
LINE
  5
F7
100
AcDbEntity
  8
MAIN0
  6
PHANTOM
 62
3
100
AcDbLine
 10
125.2132758999468
 20
246.2245756133883
 30
0.0000000000000000
 11
125.2132758999474
 21
247.7245756133883
 31
0.0000000000000000
  0
LINE
  5
F8
100
AcDbEntity
  8
MAIN0
  6
PHANTOM
 62
3
100
AcDbLine
 10
124.4632758999480
 20
249.2245756133883
 30
0.0000000000000000
 11
125.2132758999474
 21
247.7245756133883
 31
0.0000000000000000
  0
LINE
  5
F9
100
AcDbEntity
  8
MAIN0
  6
PHANTOM
 62
3
100
AcDbLine
 10
125.2132758999468
 20
246.2245756133883
 30
0.0000000000000000
 11
124.4632758999461
 21
244.4751495584905
 31
0.0000000000000000
  0
LINE
  5
FA
100
AcDbEntity
  8
MAIN0
  6
PHANTOM
 62
3
100
AcDbLine
 10
135.2132758999474
 20
247.7245756133883
 30
0.0000000000000000
 11
138.7132758999474
 21
247.7245756133883
 31
0.0000000000000000
  0
LINE
  5
FB
100
AcDbEntity
  8
MAIN0
  6
PHANTOM
 62
3
100
AcDbLine
 10
130.2132758999474
 20
247.7245756133883
 30
0.0000000000000000
 11
133.7132758999474
 21
247.7245756133883
 31
0.0000000000000000
  0
LINE
  5
FC
100
AcDbEntity
  8
MAIN0
  6
PHANTOM
 62
3
100
AcDbLine
 10
130.2132758999468
 20
246.2245756133883
 30
0.0000000000000000
 11
133.7132758999468
 21
246.2245756133883
 31
0.0000000000000000
  0
LINE
  5
FD
100
AcDbEntity
  8
MAIN0
  6
PHANTOM
 62
3
100
AcDbLine
 10
135.2132758999468
 20
246.2245756133883
 30
0.0000000000000000
 11
138.7132758999468
 21
246.2245756133883
 31
0.0000000000000000
  0
LINE
  5
FE
100
AcDbEntity
  8
MAIN0
  6
PHANTOM
 62
3
100
AcDbLine
 10
125.2132758999468
 20
246.2245756133883
 30
0.0000000000000000
 11
128.7132758999468
 21
246.2245756133883
 31
0.0000000000000000
  0
LINE
  5
FF
100
AcDbEntity
  8
MAIN0
  6
PHANTOM
 62
3
100
AcDbLine
 10
125.2132758999474
 20
247.7245756133883
 30
0.0000000000000000
 11
128.7132758999474
 21
247.7245756133883
 31
0.0000000000000000
  0
LINE
  5
100
100
AcDbEntity
  8
MAIN0
  6
CONTINUOUS
 62
3
100
AcDbLine
 10
69.96327589997424
 20
220.4745756133989
 30
0.0000000000000000
 11
69.96327589997424
 21
273.4745756133777
 31
0.0000000000000000
  0
LINE
  5
101
100
AcDbEntity
  8
MAIN0
  6
CONTINUOUS
 62
3
100
AcDbLine
 10
78.96327589997424
 20
225.4090589602226
 30
0.0000000000000000
 11
78.96327589997424
 21
272.9745756133883
 31
0.0000000000000000
  0
LINE
  5
102
100
AcDbEntity
  8
MAIN0
  6
CENTER
 62
3
100
AcDbLine
 10
61.96327589997424
 20
304.4745756133883
 30
0.0000000000000000
 11
89.46327589997424
 21
304.4745756133883
 31
0.0000000000000000
  0
LINE
  5
103
100
AcDbEntity
  8
MAIN0
  6
CONTINUOUS
 62
3
100
AcDbLine
 10
124.4632758999742
 20
310.9745756133955
 30
0.0000000000000000
 11
123.4632758999742
 21
311.9745756133950
 31
0.0000000000000000
  0
LINE
  5
104
100
AcDbEntity
  8
MAIN0
  6
CONTINUOUS
 62
3
100
AcDbLine
 10
124.4632758999742
 20
182.9745756133883
 30
0.0000000000000000
 11
124.4632758999742
 21
310.9745756133955
 31
0.0000000000000000
  0
CIRCLE
  5
105
100
AcDbEntity
  8
MAIN0
  6
HIDDEN
 62
3
100
AcDbCircle
 10
234.3698367342659
 20
246.9745756133883
 30
0.0000000000000000
 40
50.00000000000000
  0
CIRCLE
  5
106
100
AcDbEntity
  8
MAIN0
  6
HIDDEN
 62
3
100
AcDbCircle
 10
234.3698367342659
 20
246.9745756133883
 30
0.0000000000000000
 40
51.00000000000000
  0
CIRCLE
  5
107
100
AcDbEntity
  8
MAIN0
  6
HIDDEN
 62
3
100
AcDbCircle
 10
234.3698367342659
 20
246.9745756133883
 30
0.0000000000000000
 40
25.75000000000000
  0
LINE
  5
108
100
AcDbEntity
  8
MAIN0
  6
CONTINUOUS
 62
3
100
AcDbLine
 10
242.3698367342659
 20
260.8309820739393
 30
0.0000000000000000
 11
242.3698367342659
 21
311.4803893048689
 31
0.0000000000000000
  0
LINE
  5
109
100
AcDbEntity
  8
MAIN0
  6
CONTINUOUS
 62
3
100
AcDbLine
 10
226.3698367342659
 20
260.8309820739393
 30
0.0000000000000000
 11
226.3698367342659
 21
311.4803893048689
 31
0.0000000000000000
  0
LINE
  5
10A
100
AcDbEntity
  8
MAIN0
  6
CONTINUOUS
 62
3
100
AcDbLine
 10
226.3698367343040
 20
266.1416033317029
 30
0.0000000000000000
 11
226.3698367342663
 21
311.4745756133836
 31
0.0000000000000000
  0
LINE
  5
10B
100
AcDbEntity
  8
MAIN0
  6
CONTINUOUS
 62
3
100
AcDbLine
 10
242.3698367343040
 20
266.1416033312312
 30
0.0000000000000000
 11
242.3698367342663
 21
311.4745756133930
 31
0.0000000000000000
  0
LINE
  5
10C
100
AcDbEntity
  8
MAIN0
  6
CONTINUOUS
 62
3
100
AcDbLine
 10
241.8698367342660
 20
311.9745756133927
 30
0.0000000000000000
 11
226.8698367342660
 21
311.9745756133839
 31
0.0000000000000000
  0
LINE
  5
10D
100
AcDbEntity
  8
MAIN0
  6
CONTINUOUS
 62
3
100
AcDbLine
 10
226.3698367342664
 20
311.4745756133836
 30
0.0000000000000000
 11
226.8698367342660
 21
311.9745756133839
 31
0.0000000000000000
  0
LINE
  5
10E
100
AcDbEntity
  8
MAIN0
  6
CONTINUOUS
 62
3
100
AcDbLine
 10
241.8698367342660
 20
311.9745756133927
 30
0.0000000000000000
 11
242.3698367342664
 21
311.4745756133930
 31
0.0000000000000000
  0
ARC
  5
10F
100
AcDbEntity
  8
MAIN0
  6
CONTINUOUS
 62
3
100
AcDbCircle
 10
234.3698367342660
 20
246.9745756133883
 30
0.0000000000000000
 40
15.00000000000000
100
AcDbArc
 50
87.13401601724210
 51
92.86598398243984
  0
LINE
  5
110
100
AcDbEntity
  8
MAIN0
  6
CONTINUOUS
 62
3
100
AcDbLine
 10
235.1198367343074
 20
261.9558138796165
 30
0.0000000000000000
 11
242.3698367343041
 21
266.1416033312312
 31
0.0000000000000000
  0
LINE
  5
111
100
AcDbEntity
  8
MAIN0
  6
CONTINUOUS
 62
3
100
AcDbLine
 10
226.3698367343041
 20
266.1416033317029
 30
0.0000000000000000
 11
233.6198367343077
 21
261.9558138800703
 31
0.0000000000000000
  0
ARC
  5
112
100
AcDbEntity
  8
MAIN0
  6
CONTINUOUS
 62
3
100
AcDbCircle
 10
234.3698367342660
 20
246.9745756133883
 30
0.0000000000000000
 40
30.00000000000000
100
AcDbArc
 50
74.53399004652003
 51
105.4660099533611
  0
ARC
  5
113
100
AcDbEntity
  8
MAIN0
  6
CONTINUOUS
 62
3
100
AcDbCircle
 10
234.3698367342660
 20
246.9745756133883
 30
0.0000000000000000
 40
31.50000000000000
100
AcDbArc
 50
75.28754203904617
 51
104.7124579608459
  0
ARC
  5
114
100
AcDbEntity
  8
MAIN0
  6
CONTINUOUS
 62
3
100
AcDbCircle
 10
234.3698367342660
 20
246.9745756133883
 30
0.0000000000000000
 40
45.00000000000000
100
AcDbArc
 50
79.75965167879153
 51
100.2403483211640
  0
ARC
  5
115
100
AcDbEntity
  8
MAIN0
  6
CONTINUOUS
 62
3
100
AcDbCircle
 10
234.3698367342660
 20
246.9745756133883
 30
0.0000000000000000
 40
46.50000000000000
100
AcDbArc
 50
80.09337468940734
 51
99.90662531055278
  0
ARC
  5
116
100
AcDbEntity
  8
MAIN0
  6
CONTINUOUS
 62
3
100
AcDbCircle
 10
234.3698367342660
 20
246.9745756133883
 30
0.0000000000000000
 40
57.00000000000000
100
AcDbArc
 50
81.93184949994044
 51
98.06815050004512
  0
LINE
  5
117
100
AcDbEntity
  8
MAIN0
  6
CONTINUOUS
 62
3
100
AcDbLine
 10
218.3698367342659
 20
246.9745756133883
 30
0.0000000000000000
 11
174.5061633856577
 21
221.6498719979236
 31
0.0000000000000000
  0
LINE
  5
118
100
AcDbEntity
  8
MAIN0
  6
CONTINUOUS
 62
3
100
AcDbLine
 10
226.3698367342659
 20
233.1181691528373
 30
0.0000000000000000
 11
182.5061633856577
 21
207.7934655373725
 31
0.0000000000000000
  0
LINE
  5
119
100
AcDbEntity
  8
MAIN0
  6
CONTINUOUS
 62
3
100
AcDbLine
 10
221.7707038151459
 20
230.4628585239885
 30
0.0000000000000000
 11
182.5111981901735
 21
207.7963723831155
 31
0.0000000000000000
  0
LINE
  5
11A
100
AcDbEntity
  8
MAIN0
  6
CONTINUOUS
 62
3
100
AcDbLine
 10
213.7707038155545
 20
244.3192649847754
 30
0.0000000000000000
 11
174.5111981901654
 21
221.6527788436619
 31
0.0000000000000000
  0
LINE
  5
11B
100
AcDbEntity
  8
MAIN0
  6
CONTINUOUS
 62
3
100
AcDbLine
 10
174.3281854882736
 20
220.9697661417695
 30
0.0000000000000000
 11
181.8281854882812
 21
207.9793850850073
 31
0.0000000000000000
  0
LINE
  5
11C
100
AcDbEntity
  8
MAIN0
  6
CONTINUOUS
 62
3
100
AcDbLine
 10
182.5111981901735
 20
207.7963723831156
 30
0.0000000000000000
 11
181.8281854882813
 21
207.9793850850073
 31
0.0000000000000000
  0
LINE
  5
11D
100
AcDbEntity
  8
MAIN0
  6
CONTINUOUS
 62
3
100
AcDbLine
 10
174.3281854882736
 20
220.9697661417695
 30
0.0000000000000000
 11
174.5111981901654
 21
221.6527788436619
 31
0.0000000000000000
  0
ARC
  5
11E
100
AcDbEntity
  8
MAIN0
  6
CONTINUOUS
 62
3
100
AcDbCircle
 10
234.3698367342659
 20
246.9745756133884
 30
0.0000000000000000
 40
15.00000000000000
100
AcDbArc
 50
207.1340160172421
 51
212.8659839824398
  0
LINE
  5
11F
100
AcDbEntity
  8
MAIN0
  6
CONTINUOUS
 62
3
100
AcDbLine
 10
221.0207038155442
 20
240.1334755331485
 30
0.0000000000000000
 11
213.7707038155545
 21
244.3192649847755
 31
0.0000000000000000
  0
LINE
  5
120
100
AcDbEntity
  8
MAIN0
  6
CONTINUOUS
 62
3
100
AcDbLine
 10
221.7707038151459
 20
230.4628585239886
 30
0.0000000000000000
 11
221.7707038151509
 21
238.8344374272452
 31
0.0000000000000000
  0
ARC
  5
121
100
AcDbEntity
  8
MAIN0
  6
CONTINUOUS
 62
3
100
AcDbCircle
 10
234.3698367342659
 20
246.9745756133884
 30
0.0000000000000000
 40
30.00000000000000
100
AcDbArc
 50
194.5339900465200
 51
225.4660099533611
  0
ARC
  5
122
100
AcDbEntity
  8
MAIN0
  6
CONTINUOUS
 62
3
100
AcDbCircle
 10
234.3698367342659
 20
246.9745756133884
 30
0.0000000000000000
 40
31.50000000000000
100
AcDbArc
 50
195.2875420390462
 51
224.7124579608459
  0
ARC
  5
123
100
AcDbEntity
  8
MAIN0
  6
CONTINUOUS
 62
3
100
AcDbCircle
 10
234.3698367342659
 20
246.9745756133884
 30
0.0000000000000000
 40
45.00000000000000
100
AcDbArc
 50
199.7596516787915
 51
220.2403483211639
  0
ARC
  5
124
100
AcDbEntity
  8
MAIN0
  6
CONTINUOUS
 62
3
100
AcDbCircle
 10
234.3698367342659
 20
246.9745756133884
 30
0.0000000000000000
 40
46.50000000000000
100
AcDbArc
 50
200.0933746894073
 51
219.9066253105528
  0
ARC
  5
125
100
AcDbEntity
  8
MAIN0
  6
CONTINUOUS
 62
3
100
AcDbCircle
 10
234.3698367342659
 20
246.9745756133884
 30
0.0000000000000000
 40
57.00000000000000
100
AcDbArc
 50
201.9318494999404
 51
218.0681505000451
  0
LINE
  5
126
100
AcDbEntity
  8
MAIN0
  6
CONTINUOUS
 62
3
100
AcDbLine
 10
242.3698367342659
 20
233.1181691528373
 30
0.0000000000000000
 11
286.2335100828742
 21
207.7934655373725
 31
0.0000000000000000
  0
LINE
  5
127
100
AcDbEntity
  8
MAIN0
  6
CONTINUOUS
 62
3
100
AcDbLine
 10
250.3698367342659
 20
246.9745756133883
 30
0.0000000000000000
 11
294.2335100828742
 21
221.6498719979235
 31
0.0000000000000000
  0
LINE
  5
128
100
AcDbEntity
  8
MAIN0
  6
CONTINUOUS
 62
3
100
AcDbLine
 10
254.9689696533478
 20
244.3192649844735
 30
0.0000000000000000
 11
294.2284752783579
 21
221.6527788436658
 31
0.0000000000000000
  0
LINE
  5
129
100
AcDbEntity
  8
MAIN0
  6
CONTINUOUS
 62
3
100
AcDbLine
 10
246.9689696529393
 20
230.4628585241584
 30
0.0000000000000000
 11
286.2284752783661
 21
207.7963723831101
 31
0.0000000000000000
  0
LINE
  5
12A
100
AcDbEntity
  8
MAIN0
  6
CONTINUOUS
 62
3
100
AcDbLine
 10
286.9114879802582
 20
207.9793850850028
 30
0.0000000000000000
 11
294.4114879802506
 21
220.9697661417738
 31
0.0000000000000000
  0
LINE
  5
12B
100
AcDbEntity
  8
MAIN0
  6
CONTINUOUS
 62
3
100
AcDbLine
 10
294.2284752783579
 20
221.6527788436657
 30
0.0000000000000000
 11
294.4114879802505
 21
220.9697661417738
 31
0.0000000000000000
  0
LINE
  5
12C
100
AcDbEntity
  8
MAIN0
  6
CONTINUOUS
 62
3
100
AcDbLine
 10
286.9114879802581
 20
207.9793850850028
 30
0.0000000000000000
 11
286.2284752783660
 21
207.7963723831100
 31
0.0000000000000000
  0
ARC
  5
12D
100
AcDbEntity
  8
MAIN0
  6
CONTINUOUS
 62
3
100
AcDbCircle
 10
234.3698367342659
 20
246.9745756133883
 30
0.0000000000000000
 40
15.00000000000000
100
AcDbArc
 50
327.1340160172422
 51
332.8659839824397
  0
LINE
  5
12E
100
AcDbEntity
  8
MAIN0
  6
CONTINUOUS
 62
3
100
AcDbLine
 10
246.9689696529462
 20
238.8344374274001
 30
0.0000000000000000
 11
246.9689696529392
 21
230.4628585241583
 31
0.0000000000000000
  0
LINE
  5
12F
100
AcDbEntity
  8
MAIN0
  6
CONTINUOUS
 62
3
100
AcDbLine
 10
254.9689696533477
 20
244.3192649844734
 30
0.0000000000000000
 11
247.7189696533391
 21
240.1334755328495
 31
0.0000000000000000
  0
ARC
  5
130
100
AcDbEntity
  8
MAIN0
  6
CONTINUOUS
 62
3
100
AcDbCircle
 10
234.3698367342659
 20
246.9745756133883
 30
0.0000000000000000
 40
30.00000000000000
100
AcDbArc
 50
314.5339900465201
 51
345.4660099533610
  0
ARC
  5
131
100
AcDbEntity
  8
MAIN0
  6
CONTINUOUS
 62
3
100
AcDbCircle
 10
234.3698367342659
 20
246.9745756133883
 30
0.0000000000000000
 40
31.50000000000000
100
AcDbArc
 50
315.2875420390462
 51
344.7124579608458
  0
ARC
  5
132
100
AcDbEntity
  8
MAIN0
  6
CONTINUOUS
 62
3
100
AcDbCircle
 10
234.3698367342659
 20
246.9745756133883
 30
0.0000000000000000
 40
45.00000000000000
100
AcDbArc
 50
319.7596516787915
 51
340.2403483211639
  0
ARC
  5
133
100
AcDbEntity
  8
MAIN0
  6
CONTINUOUS
 62
3
100
AcDbCircle
 10
234.3698367342659
 20
246.9745756133883
 30
0.0000000000000000
 40
46.50000000000000
100
AcDbArc
 50
320.0933746894073
 51
339.9066253105528
  0
ARC
  5
134
100
AcDbEntity
  8
MAIN0
  6
CONTINUOUS
 62
3
100
AcDbCircle
 10
234.3698367342659
 20
246.9745756133883
 30
0.0000000000000000
 40
57.00000000000000
100
AcDbArc
 50
321.9318494999404
 51
338.0681505000451
  0
ARC
  5
135
100
AcDbEntity
  8
MAIN0
  6
CONTINUOUS
 62
3
100
AcDbCircle
 10
234.3698367342659
 20
246.9745756133883
 30
0.0000000000000000
 40
16.00000000000000
100
AcDbArc
 50
98.05254518926789
 51
201.9474548081921
  0
ARC
  5
136
100
AcDbEntity
  8
MAIN0
  6
CONTINUOUS
 62
3
100
AcDbCircle
 10
234.3698367342659
 20
246.9745756133883
 30
0.0000000000000000
 40
16.00000000000000
100
AcDbArc
 50
218.0525451892679
 51
321.9474548081922
  0
ARC
  5
137
100
AcDbEntity
  8
MAIN0
  6
CONTINUOUS
 62
3
100
AcDbCircle
 10
234.3698367342659
 20
246.9745756133883
 30
0.0000000000000000
 40
16.00000000000000
100
AcDbArc
 50
338.0525451892680
 51
441.9474548081925
  0
ARC
  5
138
100
AcDbEntity
  8
MAIN0
  6
CONTINUOUS
 62
3
100
AcDbCircle
 10
234.3698367342659
 20
246.9745756133883
 30
0.0000000000000000
 40
65.00000000000000
100
AcDbArc
 50
337.0697140423030
 51
442.9302859576962
  0
ARC
  5
139
100
AcDbEntity
  8
MAIN0
  6
CONTINUOUS
 62
3
100
AcDbCircle
 10
234.3698367342659
 20
246.9745756133883
 30
0.0000000000000000
 40
65.00000000000000
100
AcDbArc
 50
97.06971404230301
 51
202.9302859576963
  0
ARC
  5
13A
100
AcDbEntity
  8
MAIN0
  6
CONTINUOUS
 62
3
100
AcDbCircle
 10
234.3698367342659
 20
246.9745756133883
 30
0.0000000000000000
 40
65.00000000000000
100
AcDbArc
 50
217.0697140423030
 51
322.9302859576966
  0
LINE
  5
13B
100
AcDbEntity
  8
MAIN0
  6
CENTER
 62
3
100
AcDbLine
 10
173.3692213646851
 20
282.1932973174060
 30
0.0000000000000000
 11
294.6649367506821
 21
212.1631833877256
 31
0.0000000000000000
  0
LINE
  5
13C
100
AcDbEntity
  8
MAIN0
  6
CENTER
 62
3
100
AcDbLine
 10
173.7025030780776
 20
211.9482741960754
 30
0.0000000000000000
 11
293.9037809378544
 21
281.3465143256400
 31
0.0000000000000000
  0
LINE
  5
13D
100
AcDbEntity
  8
MAIN0
  6
HIDDEN
 62
3
100
AcDbLine
 10
249.1078130542989
 20
258.9476518252758
 30
0.0000000000000000
 11
254.6318974728998
 21
262.1369834513813
 31
0.0000000000000000
  0
LINE
  5
13E
100
AcDbEntity
  8
MAIN0
  6
HIDDEN
 62
3
100
AcDbLine
 10
254.6318974728998
 20
262.1369834513813
 30
0.0000000000000000
 11
254.7783076344136
 21
262.6833936128950
 31
0.0000000000000000
  0
LINE
  5
13F
100
AcDbEntity
  8
MAIN0
  6
HIDDEN
 62
3
100
AcDbLine
 10
252.1078130542989
 20
253.7514994025692
 30
0.0000000000000000
 11
249.1078130542989
 21
258.9476518252758
 31
0.0000000000000000
  0
LINE
  5
140
100
AcDbEntity
  8
MAIN0
  6
HIDDEN
 62
3
100
AcDbLine
 10
249.1078130542988
 20
255.4835502101381
 30
0.0000000000000000
 11
249.1078130542988
 21
258.9476518252759
 31
0.0000000000000000
  0
LINE
  5
141
100
AcDbEntity
  8
MAIN0
  6
HIDDEN
 62
3
100
AcDbLine
 10
252.1078130542989
 20
253.7514994025692
 30
0.0000000000000000
 11
249.1078130542988
 21
255.4835502101381
 31
0.0000000000000000
  0
LINE
  5
142
100
AcDbEntity
  8
MAIN0
  6
HIDDEN
 62
3
100
AcDbLine
 10
257.6318974728997
 20
256.9408310286746
 30
0.0000000000000000
 11
252.1078130542989
 21
253.7514994025692
 31
0.0000000000000000
  0
LINE
  5
143
100
AcDbEntity
  8
MAIN0
  6
HIDDEN
 62
3
100
AcDbLine
 10
258.1783076344136
 20
256.7944208671609
 30
0.0000000000000000
 11
257.6318974728998
 21
256.9408310286747
 31
0.0000000000000000
  0
LINE
  5
144
100
AcDbEntity
  8
MAIN0
  6
HIDDEN
 62
3
100
AcDbLine
 10
216.6318604123824
 20
253.7514994015008
 30
0.0000000000000000
 11
211.1077759937815
 21
256.9408310276063
 31
0.0000000000000000
  0
LINE
  5
145
100
AcDbEntity
  8
MAIN0
  6
HIDDEN
 62
3
100
AcDbLine
 10
211.1077759937816
 20
256.9408310276063
 30
0.0000000000000000
 11
210.5613658322678
 21
256.7944208660925
 31
0.0000000000000000
  0
LINE
  5
146
100
AcDbEntity
  8
MAIN0
  6
HIDDEN
 62
3
100
AcDbLine
 10
219.6318604123824
 20
258.9476518242075
 30
0.0000000000000000
 11
216.6318604123824
 21
253.7514994015008
 31
0.0000000000000000
  0
LINE
  5
147
100
AcDbEntity
  8
MAIN0
  6
HIDDEN
 62
3
100
AcDbLine
 10
219.6318604123824
 20
255.4835502090697
 30
0.0000000000000000
 11
216.6318604123824
 21
253.7514994015008
 31
0.0000000000000000
  0
LINE
  5
148
100
AcDbEntity
  8
MAIN0
  6
HIDDEN
 62
3
100
AcDbLine
 10
219.6318604123824
 20
258.9476518242074
 30
0.0000000000000000
 11
219.6318604123824
 21
255.4835502090697
 31
0.0000000000000000
  0
LINE
  5
149
100
AcDbEntity
  8
MAIN0
  6
HIDDEN
 62
3
100
AcDbLine
 10
214.1077759937815
 20
262.1369834503129
 30
0.0000000000000000
 11
219.6318604123824
 21
258.9476518242075
 31
0.0000000000000000
  0
LINE
  5
14A
100
AcDbEntity
  8
MAIN0
  6
HIDDEN
 62
3
100
AcDbLine
 10
213.9613658322678
 20
262.6833936118267
 30
0.0000000000000000
 11
214.1077759937815
 21
262.1369834503129
 31
0.0000000000000000
  0
ARC
  5
14B
100
AcDbEntity
  8
MAIN0
  6
CENTER
 62
3
100
AcDbCircle
 10
234.3698367342659
 20
246.9745756136366
 30
0.0000000000000000
 40
24.25000000000000
100
AcDbArc
 50
248.0120645986683
 51
291.4937746325557
  0
CIRCLE
  5
14C
100
AcDbEntity
  8
MAIN0
  6
CONTINUOUS
 62
3
100
AcDbCircle
 10
234.3698367342659
 20
222.7245756136366
 30
0.0000000000000000
 40
1.732050000000000
  0
ARC
  5
14D
100
AcDbEntity
  8
MAIN0
  6
CENTER
 62
3
100
AcDbCircle
 10
234.3698367341115
 20
246.9745756131214
 30
0.0000000000000000
 40
21.50000000000000
100
AcDbArc
 50
226.3088864707835
 51
252.0803649183020
  0
ARC
  5
14E
100
AcDbEntity
  8
MAIN0
  6
CENTER
 62
3
100
AcDbCircle
 10
234.3698367341115
 20
246.9745756131214
 30
0.0000000000000000
 40
21.50000000000000
100
AcDbArc
 50
346.5668322608034
 51
375.3668102123107
  0
ARC
  5
14F
100
AcDbEntity
  8
MAIN0
  6
CENTER
 62
3
100
AcDbCircle
 10
234.3698367341115
 20
246.9745756131214
 30
0.0000000000000000
 40
21.50000000000000
100
AcDbArc
 50
107.0024927350516
 51
135.7980733061514
  0
LINE
  5
150
100
AcDbEntity
  8
MAIN0
  6
CENTER
 62
3
100
AcDbLine
 10
170.3983984566535
 20
271.7841470700900
 30
0.0000000000000000
 11
189.4354137975698
 21
260.7931211384408
 31
0.0000000000000000
  0
LINE
  5
151
100
AcDbEntity
  8
MAIN0
  6
HIDDEN
 62
3
100
AcDbLine
 10
173.0457913289350
 20
268.5236232750580
 30
0.0000000000000000
 11
185.4425726704162
 21
261.3663382304661
 31
0.0000000000000000
  0
LINE
  5
152
100
AcDbEntity
  8
MAIN0
  6
HIDDEN
 62
3
100
AcDbLine
 10
185.0457913288381
 20
289.3082329659405
 30
0.0000000000000000
 11
197.4425726702903
 21
282.1509479213653
 31
0.0000000000000000
  0
LINE
  5
153
100
AcDbEntity
  8
MAIN0
  6
HIDDEN
 62
3
100
AcDbLine
 10
177.1665575248219
 20
268.8003090408668
 30
0.0000000000000000
 11
183.9547826242121
 21
264.8811254524126
 31
0.0000000000000000
  0
LINE
  5
154
100
AcDbEntity
  8
MAIN0
  6
HIDDEN
 62
3
100
AcDbLine
 10
176.3665575248217
 20
267.4146683948118
 30
0.0000000000000000
 11
183.1547826242120
 21
263.4954848063576
 31
0.0000000000000000
  0
LINE
  5
155
100
AcDbEntity
  8
MAIN0
  6
HIDDEN
 62
3
100
AcDbLine
 10
222.3698367347788
 20
183.0918705989670
 30
0.0000000000000000
 11
222.3698367347812
 21
197.4064406881132
 31
0.0000000000000000
  0
CIRCLE
  5
156
100
AcDbEntity
  8
MAIN0
  6
HIDDEN
 62
3
100
AcDbCircle
 10
244.8698367347801
 20
190.4413995133218
 30
0.0000000000000000
 40
4.000000000000000
  0
CIRCLE
  5
157
100
AcDbEntity
  8
MAIN0
  6
HIDDEN
 62
3
100
AcDbCircle
 10
244.8698367347801
 20
190.4413995133218
 30
0.0000000000000000
 40
3.400000000000000
  0
LINE
  5
158
100
AcDbEntity
  8
MAIN0
  6
HIDDEN
 62
3
100
AcDbLine
 10
244.0698367347794
 20
186.5222159248689
 30
0.0000000000000000
 11
244.0698367347807
 21
194.3605831017750
 31
0.0000000000000000
  0
LINE
  5
159
100
AcDbEntity
  8
MAIN0
  6
CENTER
 62
3
100
AcDbLine
 10
244.8698367347782
 20
179.1688992203693
 30
0.0000000000000000
 11
244.8698367347818
 21
201.1509510836615
 31
0.0000000000000000
  0
LINE
  5
15A
100
AcDbEntity
  8
MAIN0
  6
HIDDEN
 62
3
100
AcDbLine
 10
245.6698367347794
 20
186.5222159248686
 30
0.0000000000000000
 11
245.6698367347807
 21
194.3605831017748
 31
0.0000000000000000
  0
LINE
  5
15B
100
AcDbEntity
  8
MAIN0
  6
HIDDEN
 62
3
100
AcDbLine
 10
246.3698367347788
 20
183.0918705990790
 30
0.0000000000000000
 11
246.3698367347812
 21
197.4064406882585
 31
0.0000000000000000
  0
LINE
  5
15C
100
AcDbEntity
  8
MAIN0
  6
HIDDEN
 62
3
100
AcDbLine
 10
295.6938821381339
 20
268.5236232760024
 30
0.0000000000000000
 11
283.2971007966793
 21
261.3663382314313
 31
0.0000000000000000
  0
CIRCLE
  5
15D
100
AcDbEntity
  8
MAIN0
  6
HIDDEN
 62
3
100
AcDbCircle
 10
278.0790033924538
 20
284.3344304039759
 30
0.0000000000000000
 40
4.000000000000000
  0
CIRCLE
  5
15E
100
AcDbEntity
  8
MAIN0
  6
HIDDEN
 62
3
100
AcDbCircle
 10
278.0790033924538
 20
284.3344304039759
 30
0.0000000000000000
 40
3.400000000000000
  0
LINE
  5
15F
100
AcDbEntity
  8
MAIN0
  6
HIDDEN
 62
3
100
AcDbLine
 10
281.8731159421494
 20
285.6012018751742
 30
0.0000000000000000
 11
275.0848908427579
 21
281.6820182867223
 31
0.0000000000000000
  0
LINE
  5
160
100
AcDbEntity
  8
MAIN0
  6
CENTER
 62
3
100
AcDbLine
 10
287.8412750103191
 20
289.9706805504505
 30
0.0000000000000000
 11
268.8042596693991
 21
278.9796546188075
 31
0.0000000000000000
  0
LINE
  5
161
100
AcDbEntity
  8
MAIN0
  6
HIDDEN
 62
3
100
AcDbLine
 10
281.0731159421496
 20
286.9868425212295
 30
0.0000000000000000
 11
274.2848908427582
 21
283.0676589327775
 31
0.0000000000000000
  0
LINE
  5
162
100
AcDbEntity
  8
MAIN0
  6
HIDDEN
 62
3
100
AcDbLine
 10
283.6938821380370
 20
289.3082329667729
 30
0.0000000000000000
 11
271.2971007965534
 21
282.1509479221852
 31
0.0000000000000000
  0
LINE
  5
163
100
AcDbEntity
  8
MAIN0
  6
CENTER
 62
3
100
AcDbLine
 10
202.8018373740562
 20
301.6519543983131
 30
0.0000000000000000
 11
208.5404448018158
 21
291.7123947686915
 31
0.0000000000000000
  0
LINE
  5
164
100
AcDbEntity
  8
MAIN0
  6
CENTER
 62
3
100
AcDbLine
 10
221.3509406534463
 20
269.5239650834059
 30
0.0000000000000000
 11
226.6602543654203
 21
260.3279639808985
 31
0.0000000000000000
  0
LINE
  5
165
100
AcDbEntity
  8
MAIN0
  6
CENTER
 62
3
100
AcDbLine
 10
250.6867731115963
 20
246.9745756133883
 30
0.0000000000000000
 11
260.5244988518984
 21
246.9745756133883
 31
0.0000000000000000
  0
LINE
  5
166
100
AcDbEntity
  8
MAIN0
  6
CENTER
 62
3
100
AcDbLine
 10
286.3211890302837
 20
246.9745756133883
 30
0.0000000000000000
 11
298.4404382085514
 21
246.9745756133883
 31
0.0000000000000000
  0
LINE
  5
167
100
AcDbEntity
  8
MAIN0
  6
CENTER
 62
3
100
AcDbLine
 10
202.9152859040212
 20
192.4936954475685
 30
0.0000000000000000
 11
208.2883727858265
 21
201.8001549202871
 31
0.0000000000000000
  0
LINE
  5
168
100
AcDbEntity
  8
MAIN0
  6
CENTER
 62
3
100
AcDbLine
 10
221.0756763227409
 20
223.9484143379088
 30
0.0000000000000000
 11
226.6859871833704
 21
233.6657577947222
 31
0.0000000000000000
  0
ARC
  5
169
100
AcDbEntity
  8
MAIN0
  6
CENTER
 62
3
100
AcDbCircle
 10
234.3698367342659
 20
246.9745756136366
 30
0.0000000000000000
 40
57.50000000000000
100
AcDbArc
 50
33.97855373355379
 51
49.12872978785147
  0
ARC
  5
16A
100
AcDbEntity
  8
MAIN0
  6
CENTER
 62
3
100
AcDbCircle
 10
234.3698367342659
 20
246.9745756136366
 30
0.0000000000000000
 40
57.50000000000000
100
AcDbArc
 50
353.7168131888178
 51
366.7106239504746
  0
ARC
  5
16B
100
AcDbEntity
  8
MAIN0
  6
CENTER
 62
3
100
AcDbCircle
 10
234.3698367342659
 20
246.9745756136366
 30
0.0000000000000000
 40
57.50000000000000
100
AcDbArc
 50
274.3686149054850
 51
287.0532130089084
  0
ARC
  5
16C
100
AcDbEntity
  8
MAIN0
  6
CENTER
 62
3
100
AcDbCircle
 10
234.3698367342659
 20
246.9745756136366
 30
0.0000000000000000
 40
57.50000000000000
100
AcDbArc
 50
234.7649183668820
 51
245.8058268609918
  0
ARC
  5
16D
100
AcDbEntity
  8
MAIN0
  6
CENTER
 62
3
100
AcDbCircle
 10
234.3698367342659
 20
246.9745756136366
 30
0.0000000000000000
 40
57.50000000000000
100
AcDbArc
 50
112.9835186135952
 51
126.3119599933189
  0
ARC
  5
16E
100
AcDbEntity
  8
MAIN0
  6
CENTER
 62
3
100
AcDbCircle
 10
234.3698367342659
 20
246.9745756136366
 30
0.0000000000000000
 40
57.50000000000000
100
AcDbArc
 50
154.2851981709782
 51
167.9501659853160
  0
LINE
  5
16F
100
AcDbEntity
  8
MAIN0
  6
CENTER
 62
3
100
AcDbLine
 10
79.10543102896797
 20
130.1517747036789
 30
0.0000000000000000
 11
94.99043918089528
 21
130.1517747036789
 31
0.0000000000000000
  0
LINE
  5
170
100
AcDbEntity
  8
MAIN0
  6
CONTINUOUS
 62
3
100
AcDbLine
 10
81.78539532056055
 20
130.6307338035910
 30
0.0000000000000000
 11
86.48433137028027
 21
135.3296698533134
 31
0.0000000000000000
  0
LINE
  5
171
100
AcDbEntity
  8
MAIN0
  6
CONTINUOUS
 62
3
100
AcDbLine
 10
87.44224956998744
 20
124.9738795540331
 30
0.0000000000000000
 11
92.14118561984151
 21
129.6728156038899
 31
0.0000000000000000
  0
LINE
  5
172
100
AcDbEntity
  8
MAIN0
  6
CONTINUOUS
 62
3
100
AcDbLine
 10
87.44224957014521
 20
135.3296698533103
 30
0.0000000000000000
 11
92.14118561982761
 21
130.6307338036183
 31
0.0000000000000000
  0
LINE
  5
173
100
AcDbEntity
  8
MAIN0
  6
CONTINUOUS
 62
3
100
AcDbLine
 10
81.78539532054597
 20
129.6728156039247
 30
0.0000000000000000
 11
86.48433137043060
 21
124.9738795540305
 31
0.0000000000000000
  0
ARC
  5
174
100
AcDbEntity
  8
MAIN0
  6
CONTINUOUS
 62
3
100
AcDbCircle
 10
86.96329047019533
 20
130.1517747036789
 30
0.0000000000000000
 40
5.200000000000000
100
AcDbArc
 50
354.7151372325229
 51
365.2848627691405
  0
ARC
  5
175
100
AcDbEntity
  8
MAIN0
  6
CONTINUOUS
 62
3
100
AcDbCircle
 10
86.96329047019533
 20
130.1517747036789
 30
0.0000000000000000
 40
5.200000000000000
100
AcDbArc
 50
174.7151372311623
 51
185.2848627670920
  0
ARC
  5
176
100
AcDbEntity
  8
MAIN0
  6
CONTINUOUS
 62
3
100
AcDbCircle
 10
86.96329047019533
 20
130.1517747036789
 30
0.0000000000000000
 40
5.200000000000000
100
AcDbArc
 50
264.7151372327921
 51
275.2848627675103
  0
LINE
  5
177
100
AcDbEntity
  8
MAIN0
  6
CENTER
 62
3
100
AcDbLine
 10
60.85416308456647
 20
246.9745756133883
 30
0.0000000000000000
 11
149.4632758999742
 21
246.9745756133883
 31
0.0000000000000000
  0
LINE
  5
178
100
AcDbEntity
  8
MAIN0
  6
CENTER
 62
3
100
AcDbLine
 10
163.0945433441663
 20
246.9745756133883
 30
0.0000000000000000
 11
306.6255082623069
 21
246.9745756133883
 31
0.0000000000000000
  0
LINE
  5
179
100
AcDbEntity
  8
MAIN0
  6
CONTINUOUS
 62
3
100
AcDbLine
 10
342.1776279238608
 20
308.2177021783108
 30
0.0000000000000000
 11
362.1776279238608
 21
308.2177021783137
 31
0.0000000000000000
  0
ARC
  5
17A
100
AcDbEntity
  8
MAIN0
  6
CONTINUOUS
 62
3
100
AcDbCircle
 10
352.1776279238655
 20
275.6343688449784
 30
0.0000000000000000
 40
34.08333333333393
100
AcDbArc
 50
72.93846878011253
 51
107.0615312199045
  0
ARC
  5
17B
100
AcDbEntity
  8
MAIN0
  6
CONTINUOUS
 62
3
100
AcDbCircle
 10
376.3197635475468
 20
294.7177021782668
 30
0.0000000000000000
 40
15.00000000000000
100
AcDbArc
 50
160.5287793653150
 51
199.4712206343037
  0
LINE
  5
17C
100
AcDbEntity
  8
MAIN0
  6
CONTINUOUS
 62
3
100
AcDbLine
 10
362.1776279237126
 20
263.7177021783138
 30
0.0000000000000000
 11
362.1776279237991
 21
289.7177021783138
 31
0.0000000000000000
  0
LINE
  5
17D
100
AcDbEntity
  8
MAIN0
  6
CONTINUOUS
 62
3
100
AcDbLine
 10
362.1776279238325
 20
299.7177021783138
 30
0.0000000000000000
 11
362.1776279238608
 21
308.2177021783138
 31
0.0000000000000000
  0
ARC
  5
17E
100
AcDbEntity
  8
MAIN0
  6
CONTINUOUS
 62
3
100
AcDbCircle
 10
328.0354923000847
 20
294.7177021784274
 30
0.0000000000000000
 40
15.00000000000000
100
AcDbArc
 50
340.5287793653151
 51
379.4712206343039
  0
LINE
  5
17F
100
AcDbEntity
  8
MAIN0
  6
CONTINUOUS
 62
3
100
AcDbLine
 10
342.1776279237126
 20
263.7177021783109
 30
0.0000000000000000
 11
342.1776279237991
 21
289.7177021783108
 31
0.0000000000000000
  0
LINE
  5
180
100
AcDbEntity
  8
MAIN0
  6
CONTINUOUS
 62
3
100
AcDbLine
 10
342.1776279238325
 20
299.7177021783108
 30
0.0000000000000000
 11
342.1776279238608
 21
308.2177021783108
 31
0.0000000000000000
  0
LINE
  5
181
100
AcDbEntity
  8
MAIN0
  6
CONTINUOUS
 62
3
100
AcDbLine
 10
342.1776279237128
 20
263.7177021783108
 30
0.0000000000000000
 11
362.1776279237128
 21
263.7177021783138
 31
0.0000000000000000
  0
LINE
  5
182
100
AcDbEntity
  8
MAIN0
  6
HIDDEN
 62
3
100
AcDbLine
 10
342.1776279237992
 20
289.7177021783108
 30
0.0000000000000000
 11
362.1776279237992
 21
289.7177021783137
 31
0.0000000000000000
  0
LINE
  5
183
100
AcDbEntity
  8
MAIN0
  6
HIDDEN
 62
3
100
AcDbLine
 10
342.1776279238326
 20
299.7177021783108
 30
0.0000000000000000
 11
362.1776279238326
 21
299.7177021783137
 31
0.0000000000000000
  0
LINE
  5
184
100
AcDbEntity
  8
MAIN0
  6
CONTINUOUS
 62
3
100
AcDbLine
 10
347.4776279236163
 20
234.7177021783116
 30
0.0000000000000000
 11
356.8776279236163
 21
234.7177021783130
 31
0.0000000000000000
  0
LINE
  5
185
100
AcDbEntity
  8
MAIN0
  6
CONTINUOUS
 62
3
100
AcDbLine
 10
357.5776279236185
 20
235.4177021783131
 30
0.0000000000000000
 11
357.5776279236595
 21
247.7177021783131
 31
0.0000000000000000
  0
LINE
  5
186
100
AcDbEntity
  8
MAIN0
  6
CONTINUOUS
 62
3
100
AcDbLine
 10
346.7776279236186
 20
235.4177021783115
 30
0.0000000000000000
 11
346.7776279236595
 21
247.7177021783472
 31
0.0000000000000000
  0
LINE
  5
187
100
AcDbEntity
  8
MAIN0
  6
CONTINUOUS
 62
3
100
AcDbLine
 10
346.7776279236185
 20
235.4177021783116
 30
0.0000000000000000
 11
347.4776279236161
 21
234.7177021783117
 31
0.0000000000000000
  0
LINE
  5
188
100
AcDbEntity
  8
MAIN0
  6
CONTINUOUS
 62
3
100
AcDbLine
 10
356.8776279236162
 20
234.7177021783130
 30
0.0000000000000000
 11
357.5776279236185
 21
235.4177021783131
 31
0.0000000000000000
  0
ARC
  5
189
100
AcDbEntity
  8
MAIN0
  6
CONTINUOUS
 62
3
100
AcDbCircle
 10
397.4787812454584
 20
244.9073705981793
 30
0.0000000000000000
 40
40.00000000000000
100
AcDbArc
 50
151.9489360300752
 51
175.9711773574747
  0
ARC
  5
18A
100
AcDbEntity
  8
MAIN0
  6
CONTINUOUS
 62
3
100
AcDbCircle
 10
306.8764746018418
 20
244.9073705984806
 30
0.0000000000000000
 40
40.00000000000000
100
AcDbArc
 50
4.028822642144196
 51
28.05106396954359
  0
LINE
  5
18B
100
AcDbEntity
  8
MAIN0
  6
CENTER
 62
3
100
AcDbLine
 10
344.3197684823127
 20
211.8072088523858
 30
0.0000000000000000
 11
360.2047766342400
 21
211.8072088523858
 31
0.0000000000000000
  0
LINE
  5
18C
100
AcDbEntity
  8
MAIN0
  6
CONTINUOUS
 62
3
100
AcDbLine
 10
346.7840497311206
 20
212.0704849095130
 30
0.0000000000000000
 11
351.9143518664099
 21
217.2007870448053
 31
0.0000000000000000
  0
LINE
  5
18D
100
AcDbEntity
  8
MAIN0
  6
CONTINUOUS
 62
3
100
AcDbLine
 10
352.4409039805530
 20
206.4136306599608
 30
0.0000000000000000
 11
357.5712061159653
 21
211.5439327953761
 31
0.0000000000000000
  0
LINE
  5
18E
100
AcDbEntity
  8
MAIN0
  6
CONTINUOUS
 62
3
100
AcDbLine
 10
352.4409039807040
 20
217.2007870448036
 30
0.0000000000000000
 11
357.5712061159582
 21
212.0704849095389
 31
0.0000000000000000
  0
LINE
  5
18F
100
AcDbEntity
  8
MAIN0
  6
CONTINUOUS
 62
3
100
AcDbLine
 10
346.7840497311132
 20
211.5439327954094
 30
0.0000000000000000
 11
351.9143518665528
 21
206.4136306599595
 31
0.0000000000000000
  0
ARC
  5
190
100
AcDbEntity
  8
MAIN0
  6
CONTINUOUS
 62
3
100
AcDbCircle
 10
352.1776279235401
 20
211.8072088523858
 30
0.0000000000000000
 40
5.400000000000000
100
AcDbArc
 50
177.2054464031265
 51
182.7945535952719
  0
ARC
  5
191
100
AcDbEntity
  8
MAIN0
  6
CONTINUOUS
 62
3
100
AcDbCircle
 10
352.1776279235401
 20
211.8072088523858
 30
0.0000000000000000
 40
5.400000000000000
100
AcDbArc
 50
357.2054464043736
 51
362.7945535971481
  0
LINE
  5
192
100
AcDbEntity
  8
MAIN0
  6
CONTINUOUS
 62
3
100
AcDbLine
 10
351.9143518663572
 20
235.4177021783123
 30
0.0000000000000000
 11
351.9143518663400
 21
245.7177021783123
 31
0.0000000000000000
  0
LINE
  5
193
100
AcDbEntity
  8
MAIN0
  6
CONTINUOUS
 62
3
100
AcDbLine
 10
352.4409039806448
 20
235.4177021783123
 30
0.0000000000000000
 11
352.4409039806619
 21
245.7177021783124
 31
0.0000000000000000
  0
LINE
  5
194
100
AcDbEntity
  8
MAIN0
  6
CONTINUOUS
 62
3
100
AcDbLine
 10
346.7776279236186
 20
235.4177021783115
 30
0.0000000000000000
 11
351.9143518663572
 21
235.4177021783123
 31
0.0000000000000000
  0
LINE
  5
195
100
AcDbEntity
  8
MAIN0
  6
CONTINUOUS
 62
3
100
AcDbLine
 10
352.4409039806448
 20
235.4177021783123
 30
0.0000000000000000
 11
357.5776279236187
 21
235.4177021783131
 31
0.0000000000000000
  0
LINE
  5
196
100
AcDbEntity
  8
MAIN0
  6
CONTINUOUS
 62
3
100
AcDbLine
 10
346.7776279236529
 20
245.7177021783115
 30
0.0000000000000000
 11
351.9143518663400
 21
245.7177021783123
 31
0.0000000000000000
  0
LINE
  5
197
100
AcDbEntity
  8
MAIN0
  6
CONTINUOUS
 62
3
100
AcDbLine
 10
352.4409039806620
 20
245.7177021783124
 30
0.0000000000000000
 11
357.5776279236529
 21
245.7177021783131
 31
0.0000000000000000
  0
LINE
  5
198
100
AcDbEntity
  8
MAIN0
  6
CONTINUOUS
 62
3
100
AcDbLine
 10
357.5776279236185
 20
235.4177021783131
 30
0.0000000000000000
 11
352.4409039806618
 21
245.7177021783124
 31
0.0000000000000000
  0
LINE
  5
199
100
AcDbEntity
  8
MAIN0
  6
CONTINUOUS
 62
3
100
AcDbLine
 10
352.4409039806448
 20
235.4177021783123
 30
0.0000000000000000
 11
357.5776279236528
 21
245.7177021783131
 31
0.0000000000000000
  0
LINE
  5
19A
100
AcDbEntity
  8
MAIN0
  6
CONTINUOUS
 62
3
100
AcDbLine
 10
346.7776279236529
 20
245.7177021783116
 30
0.0000000000000000
 11
351.9143518663571
 21
235.4177021783123
 31
0.0000000000000000
  0
LINE
  5
19B
100
AcDbEntity
  8
MAIN0
  6
CONTINUOUS
 62
3
100
AcDbLine
 10
346.7776279236186
 20
235.4177021783115
 30
0.0000000000000000
 11
351.9143518663399
 21
245.7177021783122
 31
0.0000000000000000
  0
SPLINE
  5
19C
100
AcDbEntity
  8
MAIN0
  6
CONTINUOUS
 62
3
100
AcDbSpline
210
0.0000000000000000
220
0.0000000000000000
230
1.000000000000000
 70
     8
 71
     3
 72
    11
 73
     7
 74
     0
 42
1.000000000000000e-007
 43
1.000000000000000e-007
 12
-0.5570860145339225
 22
-0.9284766908835991
 32
0.0000000000000000
 13
-0.5570860145340362
 23
-0.9284766908836559
 33
0.0000000000000000
 40
0.0000000000000000
 40
0.0000000000000000
 40
0.0000000000000000
 40
0.0000000000000000
 40
2.692582403570480
 40
5.385164807134496
 40
8.077747210698533
 40
10.77032961426899
 40
10.77032961426899
 40
10.77032961426899
 40
10.77032961426899
 10
321.7202905127119
 20
299.7177021783078
 30
0.0000000000000000
 10
321.2202905127088
 20
298.8843688449750
 30
0.0000000000000000
 10
320.2202905127036
 20
297.2177021783111
 30
0.0000000000000000
 10
321.7202905126952
 20
294.7177021783078
 30
0.0000000000000000
 10
323.2202905126870
 20
292.2177021783046
 30
0.0000000000000000
 10
322.2202905126819
 20
290.5510355116408
 30
0.0000000000000000
 10
321.7202905126787
 20
289.7177021783078
 30
0.0000000000000000
  0
SPLINE
  5
19D
100
AcDbEntity
  8
MAIN0
  6
CONTINUOUS
 62
3
100
AcDbSpline
210
0.0000000000000000
220
0.0000000000000000
230
1.000000000000000
 70
     8
 71
     3
 72
     9
 73
     5
 74
     0
 42
1.000000000000000e-007
 43
1.000000000000000e-007
 12
0.5570860145340362
 22
0.9284766908837128
 32
0.0000000000000000
 13
-0.5570860145283518
 23
0.9284766908868392
 33
0.0000000000000000
 40
0.0000000000000000
 40
0.0000000000000000
 40
0.0000000000000000
 40
0.0000000000000000
 40
2.692582403570445
 40
5.385164807134462
 40
5.385164807134462
 40
5.385164807134462
 40
5.385164807134462
 10
321.7202905126953
 20
294.7177021783078
 30
0.0000000000000000
 10
322.2202905126985
 20
295.5510355116408
 30
0.0000000000000000
 10
323.2202905127035
 20
297.2177021783046
 30
0.0000000000000000
 10
322.2202905127088
 20
298.8843688449741
 30
0.0000000000000000
 10
321.7202905127119
 20
299.7177021783078
 30
0.0000000000000000
  0
SPLINE
  5
19E
100
AcDbEntity
  8
MAIN0
  6
CONTINUOUS
 62
3
100
AcDbSpline
210
0.0000000000000000
220
0.0000000000000000
230
1.000000000000000
 70
     8
 71
     3
 72
     9
 73
     5
 74
     0
 42
1.000000000000000e-007
 43
1.000000000000000e-007
 12
-0.5570860145340930
 22
-0.9284766908836559
 32
0.0000000000000000
 13
0.5570860145283518
 23
-0.9284766908868392
 33
0.0000000000000000
 40
0.0000000000000000
 40
0.0000000000000000
 40
0.0000000000000000
 40
0.0000000000000000
 40
2.692582403570445
 40
5.385164807134462
 40
5.385164807134462
 40
5.385164807134462
 40
5.385164807134462
 10
324.5364362314068
 20
294.7177021783082
 30
0.0000000000000000
 10
324.0364362314036
 20
293.8843688449754
 30
0.0000000000000000
 10
323.0364362313986
 20
292.2177021783115
 30
0.0000000000000000
 10
324.0364362313933
 20
290.5510355116420
 30
0.0000000000000000
 10
324.5364362313902
 20
289.7177021783082
 30
0.0000000000000000
  0
SPLINE
  5
19F
100
AcDbEntity
  8
MAIN0
  6
CONTINUOUS
 62
3
100
AcDbSpline
210
0.0000000000000000
220
0.0000000000000000
230
1.000000000000000
 70
     8
 71
     3
 72
    11
 73
     7
 74
     0
 42
1.000000000000000e-007
 43
1.000000000000000e-007
 12
0.5570860145340362
 22
0.9284766908835991
 32
0.0000000000000000
 13
0.5570860145340362
 23
0.9284766908836559
 33
0.0000000000000000
 40
0.0000000000000000
 40
0.0000000000000000
 40
0.0000000000000000
 40
0.0000000000000000
 40
2.692582403570480
 40
5.385164807134496
 40
8.077747210698533
 40
10.77032961426899
 40
10.77032961426899
 40
10.77032961426899
 40
10.77032961426899
 10
324.5364362313902
 20
289.7177021783082
 30
0.0000000000000000
 10
325.0364362313933
 20
290.5510355116412
 30
0.0000000000000000
 10
326.0364362313985
 20
292.2177021783050
 30
0.0000000000000000
 10
324.5364362314070
 20
294.7177021783083
 30
0.0000000000000000
 10
323.0364362314152
 20
297.2177021783115
 30
0.0000000000000000
 10
324.0364362314203
 20
298.8843688449754
 30
0.0000000000000000
 10
324.5364362314235
 20
299.7177021783082
 30
0.0000000000000000
  0
LINE
  5
1A0
100
AcDbEntity
  8
MAIN0
  6
CONTINUOUS
 62
3
100
AcDbLine
 10
324.5364362314235
 20
299.7177021783083
 30
0.0000000000000000
 11
342.1776279238325
 21
299.7177021783108
 31
0.0000000000000000
  0
LINE
  5
1A1
100
AcDbEntity
  8
MAIN0
  6
CONTINUOUS
 62
3
100
AcDbLine
 10
324.5364362313903
 20
289.7177021783083
 30
0.0000000000000000
 11
342.1776279237992
 21
289.7177021783108
 31
0.0000000000000000
  0
SPLINE
  5
1A2
100
AcDbEntity
  8
MAIN0
  6
CONTINUOUS
 62
3
100
AcDbSpline
210
0.0000000000000000
220
0.0000000000000000
230
1.000000000000000
 70
     8
 71
     3
 72
    11
 73
     7
 74
     0
 42
1.000000000000000e-007
 43
1.000000000000000e-007
 12
-0.5570860145339793
 22
-0.9284766908835991
 32
0.0000000000000000
 13
-0.5570860145340362
 23
-0.9284766908837696
 33
0.0000000000000000
 40
0.0000000000000000
 40
0.0000000000000000
 40
0.0000000000000000
 40
0.0000000000000000
 40
2.692582403570480
 40
5.385164807134496
 40
8.077747210698533
 40
10.77032961426899
 40
10.77032961426899
 40
10.77032961426899
 40
10.77032961426899
 10
379.2732263391115
 20
299.7177021783163
 30
0.0000000000000000
 10
378.7732263391084
 20
298.8843688449834
 30
0.0000000000000000
 10
377.7732263391032
 20
297.2177021783196
 30
0.0000000000000000
 10
379.2732263390947
 20
294.7177021783163
 30
0.0000000000000000
 10
380.7732263390865
 20
292.2177021783131
 30
0.0000000000000000
 10
379.7732263390814
 20
290.5510355116492
 30
0.0000000000000000
 10
379.2732263390782
 20
289.7177021783163
 30
0.0000000000000000
  0
SPLINE
  5
1A3
100
AcDbEntity
  8
MAIN0
  6
CONTINUOUS
 62
3
100
AcDbSpline
210
0.0000000000000000
220
0.0000000000000000
230
1.000000000000000
 70
     8
 71
     3
 72
     9
 73
     5
 74
     0
 42
1.000000000000000e-007
 43
1.000000000000000e-007
 12
0.5570860145340362
 22
0.9284766908837696
 32
0.0000000000000000
 13
-0.5570860145283518
 23
0.9284766908867823
 33
0.0000000000000000
 40
0.0000000000000000
 40
0.0000000000000000
 40
0.0000000000000000
 40
0.0000000000000000
 40
2.692582403570445
 40
5.385164807134462
 40
5.385164807134462
 40
5.385164807134462
 40
5.385164807134462
 10
379.2732263390949
 20
294.7177021783163
 30
0.0000000000000000
 10
379.7732263390981
 20
295.5510355116492
 30
0.0000000000000000
 10
380.7732263391031
 20
297.2177021783131
 30
0.0000000000000000
 10
379.7732263391084
 20
298.8843688449826
 30
0.0000000000000000
 10
379.2732263391115
 20
299.7177021783163
 30
0.0000000000000000
  0
SPLINE
  5
1A4
100
AcDbEntity
  8
MAIN0
  6
CONTINUOUS
 62
3
100
AcDbSpline
210
0.0000000000000000
220
0.0000000000000000
230
1.000000000000000
 70
     8
 71
     3
 72
    11
 73
     7
 74
     0
 42
1.000000000000000e-007
 43
1.000000000000000e-007
 12
0.5570860145339793
 22
0.9284766908837128
 32
0.0000000000000000
 13
0.5570860145340362
 23
0.9284766908835991
 33
0.0000000000000000
 40
0.0000000000000000
 40
0.0000000000000000
 40
0.0000000000000000
 40
0.0000000000000000
 40
2.692582403570480
 40
5.385164807134496
 40
8.077747210698533
 40
10.77032961426899
 40
10.77032961426899
 40
10.77032961426899
 40
10.77032961426899
 10
382.0893720577898
 20
289.7177021783167
 30
0.0000000000000000
 10
382.5893720577929
 20
290.5510355116496
 30
0.0000000000000000
 10
383.5893720577981
 20
292.2177021783135
 30
0.0000000000000000
 10
382.0893720578065
 20
294.7177021783168
 30
0.0000000000000000
 10
380.5893720578147
 20
297.2177021783200
 30
0.0000000000000000
 10
381.5893720578198
 20
298.8843688449838
 30
0.0000000000000000
 10
382.0893720578230
 20
299.7177021783167
 30
0.0000000000000000
  0
SPLINE
  5
1A5
100
AcDbEntity
  8
MAIN0
  6
CONTINUOUS
 62
3
100
AcDbSpline
210
0.0000000000000000
220
0.0000000000000000
230
1.000000000000000
 70
     8
 71
     3
 72
     9
 73
     5
 74
     0
 42
1.000000000000000e-007
 43
1.000000000000000e-007
 12
-0.5570860145340930
 22
-0.9284766908835991
 32
0.0000000000000000
 13
0.5570860145283518
 23
-0.9284766908868392
 33
0.0000000000000000
 40
0.0000000000000000
 40
0.0000000000000000
 40
0.0000000000000000
 40
0.0000000000000000
 40
2.692582403570445
 40
5.385164807134462
 40
5.385164807134462
 40
5.385164807134462
 40
5.385164807134462
 10
382.0893720578064
 20
294.7177021783167
 30
0.0000000000000000
 10
381.5893720578032
 20
293.8843688449838
 30
0.0000000000000000
 10
380.5893720577982
 20
292.2177021783200
 30
0.0000000000000000
 10
381.5893720577929
 20
290.5510355116505
 30
0.0000000000000000
 10
382.0893720577898
 20
289.7177021783167
 30
0.0000000000000000
  0
LINE
  5
1A6
100
AcDbEntity
  8
MAIN0
  6
CONTINUOUS
 62
3
100
AcDbLine
 10
362.1776279238325
 20
299.7177021783137
 30
0.0000000000000000
 11
379.2732263391116
 21
299.7177021783163
 31
0.0000000000000000
  0
LINE
  5
1A7
100
AcDbEntity
  8
MAIN0
  6
CONTINUOUS
 62
3
100
AcDbLine
 10
362.1776279237992
 20
289.7177021783137
 30
0.0000000000000000
 11
379.2732263390783
 21
289.7177021783163
 31
0.0000000000000000
  0
DIMENSION
  5
1B0
100
AcDbEntity
  8
MAIN0
  6
CONTINUOUS
 62
1
100
AcDbDimension
  2
*D0
 10
302.1776279238159
 20
316.2764938302023
 30
0.0000000000000000
 11
352.1776279238158
 21
316.7764938302023
 31
0.0000000000000000
 70
32
  1
\A1;170
  3
MAIN001
100
AcDbAlignedDimension
 13
402.1776279238158
 23
294.7177021783189
 33
0.0000000000000000
 14
302.1776279238159
 24
294.7177021783057
 34
0.0000000000000000
100
AcDbRotatedDimension
1001
ACAD
1000
DSTYLE
1002
{
1070
   173
1070
     1
1070
     6
1000
_OPEN
1070
     7
1000
_OPEN
1070
    41
1040
2.000000
1002
}
  0
DIMENSION
  5
1B9
100
AcDbEntity
  8
MAIN0
  6
CONTINUOUS
 62
3
100
AcDbDimension
  2
*D1
 10
374.4632758999742
 20
234.7177021783130
 30
0.0000000000000000
 11
373.9632758999742
 21
272.2177021783127
 31
0.0000000000000000
 70
32
  3
MAIN001
100
AcDbAlignedDimension
 13
352.1776279238655
 23
309.7177021783123
 33
0.0000000000000000
 14
356.8776279236163
 24
234.7177021783130
 34
0.0000000000000000
 50
90.00000000000000
100
AcDbRotatedDimension
1001
ACAD
1000
DSTYLE
1002
{
1070
   173
1070
     1
1070
     6
1000
_OPEN
1070
     7
1000
_OPEN
1070
    41
1040
2.000000
1002
}
  0
DIMENSION
  5
1C2
100
AcDbEntity
  8
MAIN0
  6
CONTINUOUS
 62
3
100
AcDbDimension
  2
*D2
 10
366.9632758999742
 20
234.7177021783124
 30
0.0000000000000000
 11
366.4632758999742
 21
240.2177021783128
 31
0.0000000000000000
 70
32
  3
MAIN001
100
AcDbAlignedDimension
 13
357.5776279236529
 23
245.7177021783131
 33
0.0000000000000000
 14
356.8776279236163
 24
234.7177021783130
 34
0.0000000000000000
 50
90.00000000000000
100
AcDbRotatedDimension
1001
ACAD
1000
DSTYLE
1002
{
1070
   173
1070
     1
1070
     6
1000
_OPEN
1070
     7
1000
_OPEN
1070
    41
1040
2.000000
1002
}
  0
DIMENSION
  5
1C9
100
AcDbEntity
  8
MAIN0
  6
CONTINUOUS
 62
3
100
AcDbDimension
  2
*D3
 10
342.1776279237127
 20
271.9745756133883
 30
0.0000000000000000
 11
352.1776279237127
 21
272.4745756133883
 31
0.0000000000000000
 70
32
  1
\A1;\U+220520
  3
MAIN001
100
AcDbAlignedDimension
 13
362.1776279237126
 23
263.7177021783138
 33
0.0000000000000000
 14
342.1776279237126
 24
263.7177021783109
 34
0.0000000000000000
100
AcDbRotatedDimension
1001
ACAD
1000
DSTYLE
1002
{
1070
   173
1070
     1
1070
     6
1000
_OPEN
1070
     7
1000
_OPEN
1070
    41
1040
2.000000
1002
}
  0
DIMENSION
  5
1D3
100
AcDbEntity
  8
MAIN0
  6
CONTINUOUS
 62
3
100
AcDbDimension
  2
*D4
 10
366.5485065450295
 20
203.0931844804863
 30
0.0000000000000000
 11
368.3984684037796
 21
205.6502531204237
 31
0.0000000000000000
 70
161
  3
MAIN001
100
AcDbAlignedDimension
 13
351.9143518665526
 23
206.4136306599595
 33
0.0000000000000000
 14
357.5712061159582
 24
212.0704849095389
 34
0.0000000000000000
 50
45.00000000001698
1001
ACAD
1000
DSTYLE
1002
{
1070
   173
1070
     1
1070
     6
1000
_OPEN
1070
     7
1000
_OPEN
1070
    41
1040
2.000000
1070
   272
1070
     1
1070
    47
1040
0.000000
1070
    48
1040
0.100000
1070
    71
1070
     1
1002
}
  0
DIMENSION
  5
1D9
100
AcDbEntity
  8
MAIN0
  6
CONTINUOUS
 62
3
100
AcDbDimension
  2
*D5
 10
291.6017033307281
 20
252.5210561089372
 30
0.0000000000000000
 11
266.5185142316568
 21
250.4250777744007
 31
0.0000000000000000
 70
163
  3
MAIN001
100
AcDbDiametricDimension
 15
177.1379701378037
 25
241.4280951183360
 35
0.0000000000000000
1001
ACAD
1000
DSTYLE
1002
{
1070
   287
1070
     2
1070
   173
1070
     1
1070
     6
1000
_OPEN
1070
     7
1000
_NONE
1070
    41
1040
2.000000
1070
   272
1070
     1
1070
    47
1040
0.200000
1070
    48
1040
0.200000
1070
    71
1070
     1
1002
}
  0
DIMENSION
  5
1E1
100
AcDbEntity
  8
MAIN0
  6
CONTINUOUS
 62
3
100
AcDbDimension
  2
*D6
 10
136.4632758999603
 20
301.9745756133883
 30
0.0000000000000000
 11
132.4632758999655
 21
302.4745756133883
 31
0.0000000000000000
 70
32
  3
MAIN001
100
AcDbAlignedDimension
 13
128.4632758999665
 23
293.4745756133992
 33
0.0000000000000000
 14
136.4632758999656
 24
291.4745756134026
 34
0.0000000000000000
100
AcDbRotatedDimension
1001
ACAD
1000
DSTYLE
1002
{
1070
   173
1070
     1
1070
     6
1000
_OPEN
1070
     7
1000
_OPEN
1070
    41
1040
2.000000
1002
}
  0
DIMENSION
  5
1E9
100
AcDbEntity
  8
MAIN0
  6
CONTINUOUS
 62
3
100
AcDbDimension
  2
*D7
 10
136.4632758999638
 20
284.4745756133883
 30
0.0000000000000000
 11
140.4632758999616
 21
284.9745756133883
 31
0.0000000000000000
 70
32
  3
MAIN001
100
AcDbAlignedDimension
 13
144.4632758999594
 23
276.4745756134073
 33
0.0000000000000000
 14
136.4632758999603
 24
278.4745756134038
 34
0.0000000000000000
100
AcDbRotatedDimension
1001
ACAD
1000
DSTYLE
1002
{
1070
   173
1070
     1
1070
     6
1000
_OPEN
1070
     7
1000
_OPEN
1070
    41
1040
2.000000
1002
}
  0
DIMENSION
  5
1F2
100
AcDbEntity
  8
MAIN0
  6
CONTINUOUS
 62
3
100
AcDbDimension
  2
*D8
 10
151.9632758999742
 20
261.9745756134082
 30
0.0000000000000000
 11
151.4632758999742
 21
269.4745756134076
 31
0.0000000000000000
 70
32
  3
MAIN001
100
AcDbAlignedDimension
 13
143.9632758999446
 23
276.9745756134070
 33
0.0000000000000000
 14
143.9632758999534
 24
261.9745756134070
 34
0.0000000000000000
 50
90.00000000000000
100
AcDbRotatedDimension
1001
ACAD
1000
DSTYLE
1002
{
1070
   173
1070
     1
1070
     6
1000
_OPEN
1070
     7
1000
_OPEN
1070
    41
1040
2.000000
1002
}
  0
DIMENSION
  5
1FB
100
AcDbEntity
  8
MAIN0
  6
CONTINUOUS
 62
3
100
AcDbDimension
  2
*D9
 10
151.9632758999742
 20
276.9745756134058
 30
0.0000000000000000
 11
151.4632758999742
 21
284.4745756134039
 31
0.0000000000000000
 70
32
  3
MAIN001
100
AcDbAlignedDimension
 13
135.9632758999658
 23
291.9745756134023
 33
0.0000000000000000
 14
143.9632758999446
 24
276.9745756134070
 34
0.0000000000000000
 50
90.00000000000000
100
AcDbRotatedDimension
1001
ACAD
1000
DSTYLE
1002
{
1070
   173
1070
     1
1070
     6
1000
_OPEN
1070
     7
1000
_OPEN
1070
    41
1040
2.000000
1002
}
  0
DIMENSION
  5
204
100
AcDbEntity
  8
MAIN0
  6
CONTINUOUS
 62
3
100
AcDbDimension
  2
*D10
 10
151.9632758999742
 20
291.9745756134020
 30
0.0000000000000000
 11
151.4632758999742
 21
301.9745756133997
 31
0.0000000000000000
 70
32
  3
MAIN001
100
AcDbAlignedDimension
 13
127.4632758999742
 23
311.9745756133973
 33
0.0000000000000000
 14
135.9632758999658
 24
291.9745756134023
 34
0.0000000000000000
 50
90.00000000000000
100
AcDbRotatedDimension
1001
ACAD
1000
DSTYLE
1002
{
1070
   173
1070
     1
1070
     6
1000
_OPEN
1070
     7
1000
_OPEN
1070
    41
1040
2.000000
1002
}
  0
DIMENSION
  5
20D
100
AcDbEntity
  8
MAIN0
  6
CONTINUOUS
 62
3
100
AcDbDimension
  2
*D11
 10
159.4632758999742
 20
238.9745756133883
 30
0.0000000000000000
 11
158.9632758999742
 21
246.9745756133883
 31
0.0000000000000000
 70
32
  3
MAIN001
100
AcDbAlignedDimension
 13
143.9632758999505
 23
254.9745756133883
 33
0.0000000000000000
 14
143.9632758999438
 24
238.9745756133883
 34
0.0000000000000000
 50
90.00000000000000
100
AcDbRotatedDimension
1001
ACAD
1000
DSTYLE
1002
{
1070
   173
1070
     1
1070
     6
1000
_OPEN
1070
     7
1000
_OPEN
1070
    41
1040
2.000000
1002
}
  0
DIMENSION
  5
216
100
AcDbEntity
  8
MAIN0
  6
CONTINUOUS
 62
3
100
AcDbDimension
  2
*D12
 10
151.9632758999742
 20
231.9745593371928
 30
0.0000000000000000
 11
151.4632758999742
 21
221.4745593372059
 31
0.0000000000000000
 70
160
  3
MAIN001
100
AcDbAlignedDimension
 13
135.9632669227437
 23
210.9745593372197
 33
0.0000000000000000
 14
127.4632669226953
 24
231.9745593371928
 34
0.0000000000000000
 50
90.00000000000000
100
AcDbRotatedDimension
1001
ACAD
1000
DSTYLE
1002
{
1070
   173
1070
     1
1070
     6
1000
_OPEN
1070
     7
1000
_OPEN
1070
    41
1040
2.000000
1002
}
  0
DIMENSION
  5
21F
100
AcDbEntity
  8
MAIN0
  6
CONTINUOUS
 62
3
100
AcDbDimension
  2
*D13
 10
151.9632758999742
 20
210.9745593372189
 30
0.0000000000000000
 11
151.4632758999742
 21
203.4745593372254
 31
0.0000000000000000
 70
160
  3
MAIN001
100
AcDbAlignedDimension
 13
143.9632669227664
 23
195.9745593372319
 33
0.0000000000000000
 14
135.9632669227437
 24
210.9745593372197
 34
0.0000000000000000
 50
90.00000000000000
100
AcDbRotatedDimension
1001
ACAD
1000
DSTYLE
1002
{
1070
   173
1070
     1
1070
     6
1000
_OPEN
1070
     7
1000
_OPEN
1070
    41
1040
2.000000
1002
}
  0
DIMENSION
  5
228
100
AcDbEntity
  8
MAIN0
  6
CONTINUOUS
 62
3
100
AcDbDimension
  2
*D14
 10
151.9632758999742
 20
195.9745593372319
 30
0.0000000000000000
 11
151.4632758999742
 21
188.9745593372319
 31
0.0000000000000000
 70
160
  3
MAIN001
100
AcDbAlignedDimension
 13
143.9632669226850
 23
181.9745593372319
 33
0.0000000000000000
 14
143.9632669227664
 24
195.9745593372319
 34
0.0000000000000000
 50
90.00000000000000
100
AcDbRotatedDimension
1001
ACAD
1000
DSTYLE
1002
{
1070
   173
1070
     1
1070
     6
1000
_OPEN
1070
     7
1000
_OPEN
1070
    41
1040
2.000000
1002
}
  0
DIMENSION
  5
230
100
AcDbEntity
  8
MAIN0
  6
CONTINUOUS
 62
3
100
AcDbDimension
  2
*D15
 10
136.4632669227513
 20
204.4745756133883
 30
0.0000000000000000
 11
140.4632669227592
 21
204.9745756133883
 31
0.0000000000000000
 70
32
  3
MAIN001
100
AcDbAlignedDimension
 13
144.4632669227672
 23
195.4745593372327
 33
0.0000000000000000
 14
136.4632669227444
 24
210.4745593372205
 34
0.0000000000000000
100
AcDbRotatedDimension
1001
ACAD
1000
DSTYLE
1002
{
1070
   173
1070
     1
1070
     6
1000
_OPEN
1070
     7
1000
_OPEN
1070
    41
1040
2.000000
1002
}
  0
DIMENSION
  5
239
100
AcDbEntity
  8
MAIN0
  6
CONTINUOUS
 62
3
100
AcDbDimension
  2
*D16
 10
74.96329047019533
 20
174.9745756133883
 30
0.0000000000000000
 11
86.96329047019533
 21
175.4745756133883
 31
0.0000000000000000
 70
32
  1
\A1;\U+220524
  3
MAIN001
100
AcDbAlignedDimension
 13
98.96329047019533
 23
182.9745756133883
 33
0.0000000000000000
 14
74.96329047019533
 24
182.9745756133883
 34
0.0000000000000000
100
AcDbRotatedDimension
1001
ACAD
1000
DSTYLE
1002
{
1070
   173
1070
     1
1070
     6
1000
_OPEN
1070
     7
1000
_OPEN
1070
    41
1040
2.000000
1002
}
  0
DIMENSION
  5
242
100
AcDbEntity
  8
MAIN0
  6
CONTINUOUS
 62
3
100
AcDbDimension
  2
*D17
 10
124.4632758999742
 20
161.9745756133883
 30
0.0000000000000000
 11
94.46327589997424
 21
162.4745756133883
 31
0.0000000000000000
 70
32
  3
MAIN001
100
AcDbAlignedDimension
 13
64.46327589997424
 23
182.9745756133883
 33
0.0000000000000000
 14
124.4632758999742
 24
182.9745756133883
 34
0.0000000000000000
100
AcDbRotatedDimension
1001
ACAD
1000
DSTYLE
1002
{
1070
   173
1070
     1
1070
     6
1000
_OPEN
1070
     7
1000
_OPEN
1070
    41
1040
2.000000
1002
}
  0
LINE
  5
243
100
AcDbEntity
  8
MAIN0
  6
CENTER
 62
3
100
AcDbLine
 10
352.1776279237564
 20
276.8563872119822
 30
0.0000000000000000
 11
352.1776279238774
 21
313.2315880205570
 31
0.0000000000000000
  0
LINE
  5
244
100
AcDbEntity
  8
MAIN0
  6
CENTER
 62
3
100
AcDbLine
 10
299.4632758999738
 20
294.7177021783046
 30
0.0000000000000000
 11
312.3861745118617
 21
294.7177021783065
 31
0.0000000000000000
  0
LINE
  5
245
100
AcDbEntity
  8
MAIN0
  6
CENTER
 62
3
100
AcDbLine
 10
317.8359258976605
 20
294.7177021783073
 30
0.0000000000000000
 11
404.4632758999738
 21
294.7177021783200
 31
0.0000000000000000
  0
DIMENSION
  5
24E
100
AcDbEntity
  8
MAIN0
  6
CONTINUOUS
 62
3
100
AcDbDimension
  2
*D18
 10
64.46327589997424
 20
321.9745756133883
 30
0.0000000000000000
 11
72.46327589997424
 21
322.4745756133883
 31
0.0000000000000000
 70
32
  3
MAIN001
100
AcDbAlignedDimension
 13
80.46327589997424
 23
308.4745756133883
 33
0.0000000000000000
 14
64.46327589997424
 24
310.9745756133884
 34
0.0000000000000000
100
AcDbRotatedDimension
1001
ACAD
1000
DSTYLE
1002
{
1070
   173
1070
     1
1070
     6
1000
_OPEN
1070
     7
1000
_OPEN
1070
    41
1040
2.000000
1002
}
  0
DIMENSION
  5
257
100
AcDbEntity
  8
MAIN0
  6
CONTINUOUS
 62
3
100
AcDbDimension
  2
*D19
 10
39.46327589997424
 20
311.9745756133883
 30
0.0000000000000000
 11
38.96327589997424
 21
246.9745756133883
 31
0.0000000000000000
 70
32
  1
\A1;\U+2205130
  3
MAIN001
100
AcDbAlignedDimension
 13
65.46327589997424
 23
181.9745756133883
 33
0.0000000000000000
 14
65.46327589997424
 24
311.9745756133883
 34
0.0000000000000000
 50
90.00000000000000
100
AcDbRotatedDimension
1001
ACAD
1000
DSTYLE
1002
{
1070
   173
1070
     1
1070
     6
1000
_OPEN
1070
     7
1000
_OPEN
1070
    41
1040
2.000000
1002
}
  0
DIMENSION
  5
260
100
AcDbEntity
  8
MAIN0
  6
CONTINUOUS
 62
3
100
AcDbDimension
  2
*D20
 10
54.46327589997424
 20
262.9745756133883
 30
0.0000000000000000
 11
53.96327589997424
 21
246.9745756133883
 31
0.0000000000000000
 70
32
  1
\A1;\U+220532
  3
MAIN001
100
AcDbAlignedDimension
 13
69.96327589997431
 23
230.9745756133883
 33
0.0000000000000000
 14
69.96327589997431
 24
262.9745756133883
 34
0.0000000000000000
 50
90.00000000000000
100
AcDbRotatedDimension
1001
ACAD
1000
DSTYLE
1002
{
1070
   173
1070
     1
1070
     6
1000
_OPEN
1070
     7
1000
_OPEN
1070
    41
1040
2.000000
1002
}
  0
DIMENSION
  5
269
100
AcDbEntity
  8
MAIN0
  6
CONTINUOUS
 62
3
100
AcDbDimension
  2
*D21
 10
46.96327589997424
 20
196.9745756133883
 30
0.0000000000000000
 11
46.46327589997424
 21
245.6201079348154
 31
0.0000000000000000
 70
160
  1
\A1;\U+2205100H6\H0.903226x;\S＋0.022^ 　0;
  3
MAIN001
100
AcDbAlignedDimension
 13
64.46327589997426
 23
296.9745756133883
 33
0.0000000000000000
 14
64.46327589997426
 24
196.9745756133883
 34
0.0000000000000000
 50
90.00000000000000
100
AcDbRotatedDimension
1001
ACAD
1000
DSTYLE
1002
{
1070
   173
1070
     1
1070
     6
1000
_OPEN
1070
     7
1000
_OPEN
1070
    41
1040
2.000000
1070
   272
1070
     3
1070
    47
1040
0.022000
1070
    48
1040
0.000000
1070
    71
1070
     1
1070
   340
1005
26A
1002
}
  0
DIMENSION
  5
274
100
AcDbEntity
  8
MAIN0
  6
CONTINUOUS
 62
3
100
AcDbDimension
  2
*D22
 10
105.2980973254700
 20
117.4738220979835
 30
0.0000000000000000
 11
106.5162902612007
 21
119.3991218149015
 31
0.0000000000000000
 70
161
  3
MAIN001
100
AcDbAlignedDimension
 13
86.48433137043060
 23
124.9738795540305
 33
0.0000000000000000
 14
92.14118561982764
 24
130.6307338036183
 34
0.0000000000000000
 50
45.00000000001676
1001
ACAD
1000
DSTYLE
1002
{
1070
   173
1070
     1
1070
     6
1000
_OPEN
1070
     7
1000
_OPEN
1070
    41
1040
2.000000
1070
   272
1070
     2
1070
    47
1040
0.150000
1070
    48
1040
-0.050000
1070
    71
1070
     1
1002
}
  0
LEADER
  5
275
100
AcDbEntity
  8
MAIN0
  6
CONTINUOUS
 62
3
100
AcDbLeader
  3
MAIN001
 73
     0
 74
     0
 75
     1
 40
3.099999904632568
 41
10.78100032901763
 76
     3
 10
72.66327589997424
 20
308.4745756133883
 30
0.0000000000000000
 10
86.96327589997424
 20
321.9745756133883
 30
0.0000000000000000
 10
88.88827584418429
 20
321.9745756133883
 30
0.0000000000000000
340
276
213
0.0000000000000000
223
-0.5000000000000000
233
0.0000000000000000
1001
ACAD
1000
DSTYLE
1002
{
1070
   147
1040
0.0
1070
    77
1070
     1
1070
   173
1070
     1
1070
     6
1000
_OPEN
1070
     7
1000
_OPEN
1002
}
  0
MTEXT
  5
276
102
{ACAD_REACTORS
330
275
102
}
100
AcDbEntity
  8
MAIN0
  6
CONTINUOUS
 62
3
100
AcDbMText
 10
88.88927584418428
 20
325.5745755180209
 30
0.0000000000000000
 40
3.099999904632568
 41
0.0000000000000000
 71
     1
 72
     1
  1
{\H0.91x;{3-M8}}
 11
1.000000000000000
 21
0.0000000000000000
 31
0.0000000000000000
  7
STANDARD
  0
LINE
  5
277
100
AcDbEntity
  8
MAIN0
  6
CENTER
 62
3
100
AcDbLine
 10
352.1776279235144
 20
204.0841073579313
 30
0.0000000000000000
 11
352.1776279235658
 21
219.5400661720416
 31
0.0000000000000000
  0
LINE
  5
278
100
AcDbEntity
  8
MAIN0
  6
CENTER
 62
3
100
AcDbLine
 10
352.1776279236055
 20
231.5013205877436
 30
0.0000000000000000
 11
352.1776279237382
 21
271.4005693175019
 31
0.0000000000000000
  0
ARC
  5
279
100
AcDbEntity
  8
MAIN0
  6
CONTINUOUS
 62
3
100
AcDbCircle
 10
352.1776279235401
 20
211.8072088523858
 30
0.0000000000000000
 40
5.400000000000000
100
AcDbArc
 50
87.20544640273582
 51
92.79455359690613
  0
ARC
  5
27A
100
AcDbEntity
  8
MAIN0
  6
CONTINUOUS
 62
3
100
AcDbCircle
 10
352.1776279235401
 20
211.8072088523858
 30
0.0000000000000000
 40
5.400000000000000
100
AcDbArc
 50
267.2054464046119
 51
272.7945535956598
  0
LINE
  5
27B
100
AcDbEntity
  8
MAIN0
  6
CENTER
 62
3
100
AcDbLine
 10
234.3698367342659
 20
174.9827028134793
 30
0.0000000000000000
 11
234.3698367342659
 21
318.7400580724586
 31
0.0000000000000000
  0
ARC
  5
27C
100
AcDbEntity
  8
MAIN0
  6
CENTER
 62
3
100
AcDbCircle
 10
234.3698367336938
 20
246.9745756120974
 30
0.0000000000000000
 40
44.00000000000000
100
AcDbArc
 50
104.1071961037232
 51
146.6342991408998
  0
LINE
  5
27D
100
AcDbEntity
  8
MAIN0
  6
CENTER
 62
3
100
AcDbLine
 10
217.7121815145399
 20
270.7641727107075
 30
0.0000000000000000
 11
201.4174795336295
 21
294.0354188651094
 31
0.0000000000000000
  0
CIRCLE
  5
27E
100
AcDbEntity
  8
MAIN0
  6
CONTINUOUS
 62
3
100
AcDbCircle
 10
209.1324735344026
 20
283.0172655609214
 30
0.0000000000000000
 40
9.250000000000000
  0
CIRCLE
  5
27F
100
AcDbEntity
  8
MAIN0
  6
CONTINUOUS
 62
3
100
AcDbCircle
 10
209.1324735344026
 20
283.0172655609214
 30
0.0000000000000000
 40
9.000000000000000
  0
LINE
  5
280
100
AcDbEntity
  8
MAIN0
  6
CONTINUOUS
 62
3
100
AcDbLine
 10
135.9632758999658
 20
291.9745756134023
 30
0.0000000000000000
 11
136.4632758999656
 21
291.4745756134026
 31
0.0000000000000000
  0
LINE
  5
281
100
AcDbEntity
  8
MAIN0
  6
CONTINUOUS
 62
3
100
AcDbLine
 10
135.9070581175304
 20
277.5111781540350
 30
0.0000000000000000
 11
136.4632758999605
 21
278.4745756132771
 31
0.0000000000000000
  0
LINE
  5
282
100
AcDbEntity
  8
MAIN0
  6
CONTINUOUS
 62
3
100
AcDbLine
 10
136.9998784405579
 20
276.4183578310075
 30
0.0000000000000000
 11
137.9632758997407
 21
276.9745756134033
 31
0.0000000000000000
  0
ARC
  5
283
100
AcDbEntity
  8
MAIN0
  6
CONTINUOUS
 62
3
100
AcDbCircle
 10
136.5998784405579
 20
277.1111781540349
 30
0.0000000000000000
 40
0.8000000000000000
100
AcDbArc
 50
149.9999999999962
 51
300.0000000000085
  0
LINE
  5
284
100
AcDbEntity
  8
MAIN0
  6
CONTINUOUS
 62
3
100
AcDbLine
 10
127.9070581175367
 20
292.5111781540302
 30
0.0000000000000000
 11
128.4632758999667
 21
293.4745756132724
 31
0.0000000000000000
  0
ARC
  5
285
100
AcDbEntity
  8
MAIN0
  6
CONTINUOUS
 62
3
100
AcDbCircle
 10
128.5998784405641
 20
292.1111781540301
 30
0.0000000000000000
 40
0.8000000000000000
100
AcDbArc
 50
149.9999999999962
 51
300.0000000000085
  0
LINE
  5
286
100
AcDbEntity
  8
MAIN0
  6
CONTINUOUS
 62
3
100
AcDbLine
 10
128.9998784405642
 20
291.4183578310028
 30
0.0000000000000000
 11
129.9632758997469
 21
291.9745756133987
 31
0.0000000000000000
  0
LINE
  5
287
100
AcDbEntity
  8
MAIN0
  6
PHANTOM
 62
3
100
AcDbLine
 10
135.9632669227437
 20
210.9745593372197
 30
0.0000000000000000
 11
136.4632669227445
 21
210.4745593372205
 31
0.0000000000000000
  0
LINE
  5
288
100
AcDbEntity
  8
MAIN0
  6
PHANTOM
 62
3
100
AcDbLine
 10
136.9798694633019
 20
195.3837005385050
 30
0.0000000000000000
 11
138.0032669227803
 21
195.9745593372228
 31
0.0000000000000000
  0
LINE
  5
289
100
AcDbEntity
  8
MAIN0
  6
PHANTOM
 62
3
100
AcDbLine
 10
135.8870491402748
 20
196.4765208615335
 30
0.0000000000000000
 11
136.4632669227641
 21
197.4745593370268
 31
0.0000000000000000
  0
ARC
  5
28A
100
AcDbEntity
  8
MAIN0
  6
PHANTOM
 62
3
100
AcDbCircle
 10
136.5798694633019
 20
196.0765208615326
 30
0.0000000000000000
 40
0.8000000000000000
100
AcDbArc
 50
149.9999999999316
 51
299.9999999999997
  0
LINE
  5
28B
100
AcDbEntity
  8
MAIN0
  6
PHANTOM
 62
3
100
AcDbLine
 10
127.8870491402520
 20
211.4765208615212
 30
0.0000000000000000
 11
128.4632669227413
 21
212.4745593370145
 31
0.0000000000000000
  0
ARC
  5
28C
100
AcDbEntity
  8
MAIN0
  6
PHANTOM
 62
3
100
AcDbCircle
 10
128.5798694632791
 20
211.0765208615204
 30
0.0000000000000000
 40
0.8000000000000000
100
AcDbArc
 50
149.9999999999316
 51
299.9999999999997
  0
LINE
  5
28D
100
AcDbEntity
  8
MAIN0
  6
PHANTOM
 62
3
100
AcDbLine
 10
128.9798694632792
 20
210.3837005384928
 30
0.0000000000000000
 11
130.0032669227575
 21
210.9745593372105
 31
0.0000000000000000
  0
CIRCLE
  5
28E
100
AcDbEntity
  8
MAIN0
  6
CONTINUOUS
 62
3
100
AcDbCircle
 10
234.3698367342659
 20
222.7245756136366
 30
0.0000000000000000
 40
5.500000000000000
  0
CIRCLE
  5
28F
100
AcDbEntity
  8
MAIN0
  6
CONTINUOUS
 62
3
100
AcDbCircle
 10
234.3698367342659
 20
222.7245756136366
 30
0.0000000000000000
 40
4.500000000000000
  0
DIMENSION
  5
296
100
AcDbEntity
  8
MAIN0
  6
CONTINUOUS
 62
3
100
AcDbDimension
  2
*D23
 10
303.4557317632522
 20
246.9745756133883
 30
0.0000000000000000
 11
300.6187240618923
 21
229.2232397543192
 31
0.0000000000000000
 70
162
  3
MAIN001
100
AcDb2LineAngularDimension
 13
294.1999768724647
 23
212.4316280985769
 33
0.0000000000000000
 14
234.3698367336490
 24
246.9745756133883
 34
0.0000000000000000
 15
234.3698367336490
 25
246.9745756133883
 35
0.0000000000000000
 16
301.1016869750368
 26
229.0938302317679
 36
0.0000000000000000
1001
ACAD
1000
DSTYLE
1002
{
1070
   173
1070
     1
1070
     6
1000
_OPEN
1070
     7
1000
_OPEN
1070
    41
1040
2.000000
1002
}
  0
DIMENSION
  5
29E
100
AcDbEntity
  8
MAIN0
  6
CONTINUOUS
 62
3
100
AcDbDimension
  2
*D24
 10
293.9037809378544
 20
281.3465143256400
 30
0.0000000000000000
 11
300.6187240618899
 21
264.7259114724660
 31
0.0000000000000000
 70
162
  3
MAIN001
100
AcDb2LineAngularDimension
 13
303.4557317632522
 23
246.9745756133883
 33
0.0000000000000000
 14
234.3698367336490
 24
246.9745756133883
 34
0.0000000000000000
 15
293.0377555340701
 25
280.8465143256397
 35
0.0000000000000000
 16
301.1016869750345
 26
264.8553209950173
 36
0.0000000000000000
1001
ACAD
1000
DSTYLE
1002
{
1070
   173
1070
     1
1070
     6
1000
_OPEN
1070
     7
1000
_OPEN
1070
    41
1040
2.000000
1002
}
  0
DIMENSION
  5
2A6
100
AcDbEntity
  8
MAIN0
  6
CONTINUOUS
 62
3
100
AcDbDimension
  2
*D25
 10
234.3698367341969
 20
316.0604706429915
 30
0.0000000000000000
 11
269.1627842486768
 21
307.2377284539713
 31
0.0000000000000000
 70
162
  3
MAIN001
100
AcDb2LineAngularDimension
 13
293.9037809378544
 23
281.3465143256400
 33
0.0000000000000000
 14
293.0377555340701
 24
280.8465143256397
 34
0.0000000000000000
 15
234.3698367336490
 25
246.9745756133883
 35
0.0000000000000000
 16
268.9127842486752
 26
306.8047157520801
 36
0.0000000000000000
1001
ACAD
1000
DSTYLE
1002
{
1070
   173
1070
     1
1070
     6
1000
_OPEN
1070
     7
1000
_OPEN
1070
    41
1040
2.000000
1002
}
  0
DIMENSION
  5
2AE
100
AcDbEntity
  8
MAIN0
  6
CONTINUOUS
 62
3
100
AcDbDimension
  2
*D26
 10
201.4174795336295
 20
294.0354188651094
 30
0.0000000000000000
 11
213.4449545342586
 21
313.3398232360152
 31
0.0000000000000000
 70
162
  3
MAIN001
100
AcDb2LineAngularDimension
 13
234.3698367341969
 23
316.0604706429915
 33
0.0000000000000000
 14
234.3698367336490
 24
246.9745756133883
 34
0.0000000000000000
 15
201.9910559699883
 25
293.2162668208258
 35
0.0000000000000000
 16
213.5953074340129
 26
312.8629647606418
 36
0.0000000000000000
1001
ACAD
1000
DSTYLE
1002
{
1070
   173
1070
     1
1070
     6
1000
_OPEN
1070
     7
1000
_OPEN
1070
    41
1040
2.000000
1002
}
  0
LINE
  5
2AF
100
AcDbEntity
  8
MAIN0
  6
CENTER
 62
3
100
AcDbLine
 10
86.96329047019533
 20
179.9745756133883
 30
0.0000000000000000
 11
86.96329047019533
 21
191.9745756133883
 31
0.0000000000000000
  0
LINE
  5
2B0
100
AcDbEntity
  8
MAIN0
  6
CONTINUOUS
 62
3
100
AcDbLine
 10
245.7862445992647
 20
235.7645073058357
 30
0.0000000000000000
 11
246.9689696529431
 21
235.0816606777172
 31
0.0000000000000000
  0
LINE
  5
2B1
100
AcDbEntity
  8
MAIN0
  6
CONTINUOUS
 62
3
100
AcDbLine
 10
249.7862445992647
 20
242.6927105361112
 30
0.0000000000000000
 11
250.9689696533832
 21
242.0098639077386
 31
0.0000000000000000
  0
LINE
  5
2B2
100
AcDbEntity
  8
MAIN0
  6
CONTINUOUS
 62
3
100
AcDbLine
 10
238.3698367344809
 20
262.4665089985905
 30
0.0000000000000000
 11
238.3698367344809
 21
263.8322022548276
 31
0.0000000000000000
  0
LINE
  5
2B3
100
AcDbEntity
  8
MAIN0
  6
CONTINUOUS
 62
3
100
AcDbLine
 10
230.3698367344810
 20
262.4665089985904
 30
0.0000000000000000
 11
230.3698367344810
 21
263.8322022553357
 31
0.0000000000000000
  0
LINE
  5
2B4
100
AcDbEntity
  8
MAIN0
  6
CONTINUOUS
 62
3
100
AcDbLine
 10
218.9534288685287
 20
242.6927105355771
 30
0.0000000000000000
 11
217.7707038148503
 21
242.0098639074585
 31
0.0000000000000000
  0
LINE
  5
2B5
100
AcDbEntity
  8
MAIN0
  6
CONTINUOUS
 62
3
100
AcDbLine
 10
222.9534288685287
 20
235.7645073053016
 30
0.0000000000000000
 11
221.7707038144102
 21
235.0816606769290
 31
0.0000000000000000
  0
LINE
  5
2B6
100
AcDbEntity
  8
MAIN0
  6
CENTER
 62
3
100
AcDbLine
 10
59.46327589997424
 20
190.4745756133883
 30
0.0000000000000000
 11
126.9632758999742
 21
190.4745756133883
 31
0.0000000000000000
  0
DIMENSION
  5
2BF
100
AcDbEntity
  8
MAIN0
  6
CONTINUOUS
 62
3
100
AcDbDimension
  2
*D27
 10
54.46327589997424
 20
194.9745756133883
 30
0.0000000000000000
 11
53.96327589997424
 21
190.4745756133883
 31
0.0000000000000000
 70
32
  1
\A1;\U+22059
  3
MAIN001
100
AcDbAlignedDimension
 13
64.86327589997424
 23
185.9745756133883
 33
0.0000000000000000
 14
64.86327589997424
 24
194.9745756133883
 34
0.0000000000000000
 50
90.00000000000000
100
AcDbRotatedDimension
1001
ACAD
1000
DSTYLE
1002
{
1070
   173
1070
     1
1070
     6
1000
_OPEN
1070
     7
1000
_OPEN
1070
    41
1040
2.000000
1002
}
  0
DIMENSION
  5
2C8
100
AcDbEntity
  8
MAIN0
  6
CONTINUOUS
 62
3
100
AcDbDimension
  2
*D28
 10
131.9632758999742
 20
197.4745756133883
 30
0.0000000000000000
 11
131.4632758999742
 21
190.4745756133883
 31
0.0000000000000000
 70
32
  1
\A1;\U+220514
  3
MAIN001
100
AcDbAlignedDimension
 13
124.0632758999742
 23
183.4745756133883
 33
0.0000000000000000
 14
124.0632758999742
 24
197.4745756133883
 34
0.0000000000000000
 50
90.00000000000000
100
AcDbRotatedDimension
1001
ACAD
1000
DSTYLE
1002
{
1070
   173
1070
     1
1070
     6
1000
_OPEN
1070
     7
1000
_OPEN
1070
    41
1040
2.000000
1002
}
  0
DIMENSION
  5
2D3
100
AcDbEntity
  8
MAIN0
  6
CONTINUOUS
 62
3
100
AcDbDimension
  2
*D29
 10
115.8632758999742
 20
174.4745756133883
 30
0.0000000000000000
 11
120.1632758999742
 21
174.9745756133883
 31
0.0000000000000000
 70
32
  3
MAIN001
100
AcDbAlignedDimension
 13
124.4632758999742
 23
182.9745756133883
 33
0.0000000000000000
 14
115.8632758999742
 24
183.4745756133883
 34
0.0000000000000000
100
AcDbRotatedDimension
1001
ACAD
1000
DSTYLE
1002
{
1070
   173
1070
     1
1070
     6
1000
_OPEN
1070
     7
1000
_OPEN
1070
    41
1040
2.000000
1070
   287
1070
     0
1002
}
  0
LINE
  5
2D4
100
AcDbEntity
  8
MAIN0
  6
CENTER
 62
3
100
AcDbLine
 10
86.96327589997424
 20
103.7012747942432
 30
0.0000000000000000
 11
86.96327589997424
 21
159.0107914299967
 31
0.0000000000000000
  0
LINE
  5
2D5
100
AcDbEntity
  8
MAIN0
  6
CONTINUOUS
 62
3
100
AcDbLine
 10
64.46327589997424
 20
106.6386482556498
 30
0.0000000000000000
 11
64.46327589997424
 21
155.0009930054455
 31
0.0000000000000000
  0
LINE
  5
2D6
100
AcDbEntity
  8
MAIN0
  6
CONTINUOUS
 62
3
100
AcDbLine
 10
124.4632758999742
 20
155.0009930053750
 30
0.0000000000000000
 11
124.4632758999742
 21
106.6386482556498
 31
0.0000000000000000
  0
CIRCLE
  5
2D7
100
AcDbEntity
  8
MAIN0
  6
CONTINUOUS
 62
3
100
AcDbCircle
 10
86.96329047019533
 20
130.1517747036789
 30
0.0000000000000000
 40
7.250000000000000
  0
LINE
  5
2D8
100
AcDbEntity
  8
MAIN0
  6
CONTINUOUS
 62
3
100
AcDbLine
 10
86.48433137029332
 20
135.3296698533266
 30
0.0000000000000000
 11
87.44224957013026
 21
135.3296698533251
 31
0.0000000000000000
  0
LINE
  5
2D9
100
AcDbEntity
  8
MAIN0
  6
CENTER
 62
3
100
AcDbLine
 10
61.13388623949598
 20
142.1517747036790
 30
0.0000000000000000
 11
121.4417862007325
 21
142.1517747036790
 31
0.0000000000000000
  0
ARC
  5
2DA
100
AcDbEntity
  8
MAIN0
  6
CONTINUOUS
 62
3
100
AcDbCircle
 10
86.96329047019533
 20
130.1517747036789
 30
0.0000000000000000
 40
12.00000000000000
100
AcDbArc
 50
129.5713758181007
 51
410.4286241818992
  0
SPLINE
  5
2DB
100
AcDbEntity
  8
MAIN0
  6
CONTINUOUS
 62
3
100
AcDbSpline
210
0.0000000000000000
220
0.0000000000000000
230
1.000000000000000
 70
     8
 71
     3
 72
    19
 73
    15
 74
     0
 42
1.000000000000000e-007
 43
1.000000000000000e-007
 12
0.9271009818575351
 22
-0.5223076282471482
 32
0.0000000000000000
 13
0.9678964215616048
 23
0.4912030850501594
 33
0.0000000000000000
 40
0.0000000000000000
 40
0.0000000000000000
 40
0.0000000000000000
 40
0.0000000000000000
 40
2.721620277177787
 40
6.718257475428910
 40
10.57689113034130
 40
16.26730105985266
 40
21.74294834430054
 40
27.80543213195384
 40
33.73312503844656
 40
39.46728466793483
 40
47.36302030545649
 40
52.64166931460860
 40
56.84590188146919
 40
61.85278355133077
 40
61.85278355133077
 40
61.85278355133077
 40
61.85278355133077
 10
64.46327589997424
 20
155.0009930054455
 30
0.0000000000000000
 10
65.30434817704587
 20
154.5271519947915
 30
0.0000000000000000
 10
67.38051587765982
 20
153.3574862854767
 30
0.0000000000000000
 10
70.88368739572374
 20
155.9684404343463
 30
0.0000000000000000
 10
75.11580419199078
 20
152.6406589167310
 30
0.0000000000000000
 10
80.08944400154121
 20
156.2144984264885
 30
0.0000000000000000
 10
85.69538408092140
 20
152.7995981594629
 30
0.0000000000000000
 10
91.46197549838475
 20
156.2484289632476
 30
0.0000000000000000
 10
97.19838413445240
 20
152.3814609885818
 30
0.0000000000000000
 10
103.5030363528034
 20
156.5942437313208
 30
0.0000000000000000
 10
109.7756550884320
 20
151.8286704614057
 30
0.0000000000000000
 10
115.3407332221501
 20
156.1783648288518
 30
0.0000000000000000
 10
119.8760934467209
 20
152.6730185211936
 30
0.0000000000000000
 10
122.8478949494938
 20
154.1811944311359
 30
0.0000000000000000
 10
124.4632758999742
 20
155.0009930053749
 30
0.0000000000000000
  0
SPLINE
  5
2DC
100
AcDbEntity
  8
MAIN0
  6
CONTINUOUS
 62
3
100
AcDbSpline
210
0.0000000000000000
220
0.0000000000000000
230
1.000000000000000
 70
     8
 71
     3
 72
    17
 73
    13
 74
     0
 42
1.000000000000000e-007
 43
1.000000000000000e-007
 12
0.9673783152305902
 22
0.3515829542006514
 32
0.0000000000000000
 13
0.9895486540195293
 23
-0.2550787032299553
 33
0.0000000000000000
 40
0.0000000000000000
 40
0.0000000000000000
 40
0.0000000000000000
 40
0.0000000000000000
 40
4.468806027037879
 40
11.22040625076120
 40
18.47898650137971
 40
24.56231048122336
 40
30.00530260183444
 40
37.02427447752675
 40
42.07483579512932
 40
49.19254391737008
 40
54.93036123145426
 40
60.81026869975314
 40
60.81026869975314
 40
60.81026869975314
 40
60.81026869975314
 10
64.46327589997424
 20
106.6386482556498
 30
0.0000000000000000
 10
65.90428458181697
 20
107.1623669305617
 30
0.0000000000000000
 10
69.52241048017166
 20
108.4773347895531
 30
0.0000000000000000
 10
75.64242517375308
 20
105.4504431621571
 30
0.0000000000000000
 10
82.25654125279327
 20
108.9842290450359
 30
0.0000000000000000
 10
88.38342204072927
 20
105.7150784423693
 30
0.0000000000000000
 10
94.48354603994221
 20
108.4660360294007
 30
0.0000000000000000
 10
100.3080048253356
 20
105.7484052458732
 30
0.0000000000000000
 10
106.5755351330478
 20
108.3914550999612
 30
0.0000000000000000
 10
112.5343102120574
 20
105.7670159204154
 30
0.0000000000000000
 10
118.6916897525772
 20
108.1264060370160
 30
0.0000000000000000
 10
122.5237910596361
 20
107.1385946463584
 30
0.0000000000000000
 10
124.4632758999742
 20
106.6386482556498
 30
0.0000000000000000
  0
LINE
  5
2DD
100
AcDbEntity
  8
MAIN0
  6
CONTINUOUS
 62
3
100
AcDbLine
 10
106.4632758997650
 20
139.4017538418693
 30
0.0000000000000000
 11
108.0509891402687
 21
142.1517538422663
 31
0.0000000000000000
  0
LINE
  5
2DE
100
AcDbEntity
  8
MAIN0
  6
CONTINUOUS
 62
3
100
AcDbLine
 10
106.4632759002238
 20
144.9017538418694
 30
0.0000000000000000
 11
108.0509891402688
 21
142.1517538422664
 31
0.0000000000000000
  0
LINE
  5
2DF
100
AcDbEntity
  8
MAIN0
  6
CENTER
 62
3
100
AcDbLine
 10
170.0024122661763
 20
237.9283240501839
 30
0.0000000000000000
 11
189.5873660005337
 21
240.6808097956232
 31
0.0000000000000000
  0
LINE
  5
2E0
100
AcDbEntity
  8
MAIN0
  6
CENTER
 62
3
100
AcDbLine
 10
251.4840355761013
 20
289.3337041795771
 30
0.0000000000000000
 11
258.7192653042413
 21
307.2415261610614
 31
0.0000000000000000
  0
LINE
  5
2E1
100
AcDbEntity
  8
MAIN0
  6
CENTER
 62
3
100
AcDbLine
 10
261.0540732971056
 20
212.8203103137291
 30
0.0000000000000000
 11
274.3878326306269
 21
195.7538766291024
 31
0.0000000000000000
  0
ARC
  5
2E2
100
AcDbEntity
  8
MAIN0
  6
CENTER
 62
3
100
AcDbCircle
 10
234.3698367317018
 20
246.9745756133883
 30
0.0000000000000000
 40
56.50000000000000
100
AcDbArc
 50
175.9013224438697
 51
198.4838672753364
  0
ARC
  5
2E3
100
AcDbEntity
  8
MAIN0
  6
CENTER
 62
3
100
AcDbCircle
 10
234.3698367317018
 20
246.9745756133883
 30
0.0000000000000000
 40
56.50000000000000
100
AcDbArc
 50
294.6411955629209
 51
318.7292052227908
  0
ARC
  5
2E4
100
AcDbEntity
  8
MAIN0
  6
CENTER
 62
3
100
AcDbCircle
 10
234.3698367317018
 20
246.9745756133883
 30
0.0000000000000000
 40
56.50000000000000
100
AcDbArc
 50
55.51727870267881
 51
78.80010186214976
  0
DIMENSION
  5
2EA
100
AcDbEntity
  8
MAIN0
  6
CONTINUOUS
 62
3
100
AcDbDimension
  2
*D30
 10
263.5563755166003
 20
295.3522145983327
 30
0.0000000000000000
 11
251.9865912883823
 21
277.1428322373992
 31
0.0000000000000000
 70
163
  3
MAIN001
100
AcDbDiametricDimension
 15
205.1832979468032
 25
198.5969366284439
 35
0.0000000000000000
1001
ACAD
1000
DSTYLE
1002
{
1070
   287
1070
     2
1070
   173
1070
     1
1070
     6
1000
_OPEN
1070
     7
1000
_NONE
1070
    41
1040
2.000000
1070
   272
1070
     1
1070
    47
1040
0.200000
1070
    48
1040
0.200000
1070
    71
1070
     1
1002
}
  0
DIMENSION
  5
2F2
100
AcDbEntity
  8
MAIN0
  6
CONTINUOUS
 62
3
100
AcDbDimension
  2
*D31
 10
294.1999768724647
 20
212.4316280985769
 30
0.0000000000000000
 11
286.1322687808566
 21
201.9781799181227
 31
0.0000000000000000
 70
162
  3
MAIN001
100
AcDb2LineAngularDimension
 13
274.3878326306270
 23
195.7538766291024
 33
0.0000000000000000
 14
273.7721711553015
 24
196.5418873827093
 34
0.0000000000000000
 15
234.3698367353808
 25
246.9745756123885
 35
0.0000000000000000
 16
286.5096235709680
 26
201.6501504036274
 36
0.0000000000000000
1001
ACAD
1000
DSTYLE
1002
{
1070
   173
1070
     1
1070
     6
1000
_OPEN
1070
     7
1000
_OPEN
1070
    41
1040
2.000000
1002
}
  0
LINE
  5
2F3
100
AcDbEntity
  8
MAIN0
  6
CONTINUOUS
 62
3
100
AcDbLine
 10
302.1776279238174
 20
287.7177021783050
 30
0.0000000000000000
 11
302.1776279238174
 21
301.7177021783050
 31
0.0000000000000000
  0
LINE
  5
2F4
100
AcDbEntity
  8
MAIN0
  6
CONTINUOUS
 62
3
100
AcDbLine
 10
402.1776279238174
 20
287.7177021783197
 30
0.0000000000000000
 11
402.1776279238174
 21
301.7177021783197
 31
0.0000000000000000
  0
LINE
  5
2F5
100
AcDbEntity
  8
MAIN0
  6
CONTINUOUS
 62
3
100
AcDbLine
 10
309.1776279238174
 20
286.7177021783060
 30
0.0000000000000000
 11
303.1776279238174
 21
286.7177021783051
 31
0.0000000000000000
  0
LINE
  5
2F6
100
AcDbEntity
  8
MAIN0
  6
CONTINUOUS
 62
3
100
AcDbLine
 10
310.1776279238174
 20
301.7177021783062
 30
0.0000000000000000
 11
310.1776279238174
 21
287.7177021783061
 31
0.0000000000000000
  0
LINE
  5
2F7
100
AcDbEntity
  8
MAIN0
  6
CONTINUOUS
 62
3
100
AcDbLine
 10
394.1776279238174
 20
301.7177021783185
 30
0.0000000000000000
 11
394.1776279238174
 21
287.7177021783185
 31
0.0000000000000000
  0
LINE
  5
2F8
100
AcDbEntity
  8
MAIN0
  6
CONTINUOUS
 62
3
100
AcDbLine
 10
382.0893720578231
 20
299.7177021783168
 30
0.0000000000000000
 11
394.1776279238175
 21
299.7177021783185
 31
0.0000000000000000
  0
LINE
  5
2F9
100
AcDbEntity
  8
MAIN0
  6
CONTINUOUS
 62
3
100
AcDbLine
 10
382.0893720577899
 20
289.7177021783168
 30
0.0000000000000000
 11
394.1776279238175
 21
289.7177021783185
 31
0.0000000000000000
  0
LINE
  5
2FA
100
AcDbEntity
  8
MAIN0
  6
CONTINUOUS
 62
3
100
AcDbLine
 10
310.1776279238174
 20
299.7177021783061
 30
0.0000000000000000
 11
321.7202905127120
 21
299.7177021783078
 31
0.0000000000000000
  0
LINE
  5
2FB
100
AcDbEntity
  8
MAIN0
  6
CONTINUOUS
 62
3
100
AcDbLine
 10
310.1776279238175
 20
289.7177021783061
 30
0.0000000000000000
 11
321.7202905126787
 21
289.7177021783078
 31
0.0000000000000000
  0
LINE
  5
2FC
100
AcDbEntity
  8
MAIN0
  6
CONTINUOUS
 62
3
100
AcDbLine
 10
395.1776279238174
 20
302.7177021783186
 30
0.0000000000000000
 11
401.1776279238173
 21
302.7177021783195
 31
0.0000000000000000
  0
LINE
  5
2FD
100
AcDbEntity
  8
MAIN0
  6
CONTINUOUS
 62
3
100
AcDbLine
 10
303.1776279238174
 20
302.7177021783051
 30
0.0000000000000000
 11
309.1776279238174
 21
302.7177021783060
 31
0.0000000000000000
  0
LINE
  5
2FE
100
AcDbEntity
  8
MAIN0
  6
CONTINUOUS
 62
3
100
AcDbLine
 10
401.1776279238174
 20
286.7177021783195
 30
0.0000000000000000
 11
395.1776279238175
 21
286.7177021783186
 31
0.0000000000000000
  0
LINE
  5
2FF
100
AcDbEntity
  8
MAIN0
  6
CONTINUOUS
 62
3
100
AcDbLine
 10
303.1776279238174
 20
302.7177021783051
 30
0.0000000000000000
 11
302.1776279238173
 21
301.7177021783050
 31
0.0000000000000000
  0
LINE
  5
300
100
AcDbEntity
  8
MAIN0
  6
CONTINUOUS
 62
3
100
AcDbLine
 10
309.1776279238174
 20
286.7177021783060
 30
0.0000000000000000
 11
310.1776279238174
 21
287.7177021783061
 31
0.0000000000000000
  0
LINE
  5
301
100
AcDbEntity
  8
MAIN0
  6
CONTINUOUS
 62
3
100
AcDbLine
 10
310.1776279238174
 20
301.7177021783061
 30
0.0000000000000000
 11
309.1776279238174
 21
302.7177021783060
 31
0.0000000000000000
  0
LINE
  5
302
100
AcDbEntity
  8
MAIN0
  6
CONTINUOUS
 62
3
100
AcDbLine
 10
395.1776279238175
 20
302.7177021783186
 30
0.0000000000000000
 11
394.1776279238175
 21
301.7177021783185
 31
0.0000000000000000
  0
LINE
  5
303
100
AcDbEntity
  8
MAIN0
  6
CONTINUOUS
 62
3
100
AcDbLine
 10
394.1776279238175
 20
287.7177021783185
 30
0.0000000000000000
 11
395.1776279238175
 21
286.7177021783188
 31
0.0000000000000000
  0
LINE
  5
304
100
AcDbEntity
  8
MAIN0
  6
CONTINUOUS
 62
3
100
AcDbLine
 10
401.1776279238174
 20
286.7177021783196
 30
0.0000000000000000
 11
402.1776279238174
 21
287.7177021783197
 31
0.0000000000000000
  0
LINE
  5
305
100
AcDbEntity
  8
MAIN0
  6
CONTINUOUS
 62
3
100
AcDbLine
 10
402.1776279238174
 20
301.7177021783197
 30
0.0000000000000000
 11
401.1776279238174
 21
302.7177021783195
 31
0.0000000000000000
  0
LINE
  5
306
100
AcDbEntity
  8
MAIN0
  6
CONTINUOUS
 62
3
100
AcDbLine
 10
302.1776279238173
 20
287.7177021777853
 30
0.0000000000000000
 11
303.1776279232963
 21
286.7177021783052
 31
0.0000000000000000
  0
DIMENSION
  5
30F
100
AcDbEntity
  8
MAIN0
  6
CONTINUOUS
 62
3
100
AcDbDimension
  2
*D32
 10
296.9632758999742
 20
302.7177021783043
 30
0.0000000000000000
 11
296.4632758999742
 21
294.7177021783047
 31
0.0000000000000000
 70
32
  1
\A1;\U+220516
  3
MAIN001
100
AcDbAlignedDimension
 13
303.1776279238174
 23
286.7177021783051
 33
0.0000000000000000
 14
303.1776279238174
 24
302.7177021783051
 34
0.0000000000000000
 50
90.00000000000000
100
AcDbRotatedDimension
1001
ACAD
1000
DSTYLE
1002
{
1070
   173
1070
     1
1070
     6
1000
_OPEN
1070
     7
1000
_OPEN
1070
    41
1040
2.000000
1002
}
  0
DIMENSION
  5
318
100
AcDbEntity
  8
MAIN0
  6
CONTINUOUS
 62
3
100
AcDbDimension
  2
*D33
 10
302.1776279238174
 20
309.4745756133883
 30
0.0000000000000000
 11
306.1776279238174
 21
309.9745756133883
 31
0.0000000000000000
 70
32
  3
MAIN001
100
AcDbAlignedDimension
 13
310.1776279238174
 23
301.7177021783062
 33
0.0000000000000000
 14
302.1776279238174
 24
301.7177021783050
 34
0.0000000000000000
100
AcDbRotatedDimension
1001
ACAD
1000
DSTYLE
1002
{
1070
   173
1070
     1
1070
     6
1000
_OPEN
1070
     7
1000
_OPEN
1070
    41
1040
2.000000
1002
}
  0
DIMENSION
  5
321
100
AcDbEntity
  8
MAIN0
  6
CONTINUOUS
 62
3
100
AcDbDimension
  2
*D34
 10
68.96327589997424
 20
211.9745756133883
 30
0.0000000000000000
 11
58.67254915440513
 21
212.4745756133883
 31
0.0000000000000000
 70
160
  3
MAIN001
100
AcDbAlignedDimension
 13
64.46327589997424
 23
182.9745756133883
 33
0.0000000000000000
 14
68.96327589997424
 24
196.9745756133883
 34
0.0000000000000000
100
AcDbRotatedDimension
1001
ACAD
1000
DSTYLE
1002
{
1070
   173
1070
     1
1070
     6
1000
_OPEN
1070
     7
1000
_OPEN
1070
    41
1040
2.000000
1070
   287
1070
     0
1002
}
  0
SPLINE
  5
322
100
AcDbEntity
  8
MAIN0
  6
CONTINUOUS
 62
3
100
AcDbSpline
210
0.0000000000000000
220
0.0000000000000000
230
1.000000000000000
 70
     8
 71
     3
 72
    19
 73
    15
 74
     0
 42
1.000000000000000e-007
 43
1.000000000000000e-007
 12
0.8371389410223813
 22
-0.8172411039854097
 32
0.0000000000000000
 13
0.04702650048260892
 23
-1.006546517530808
 33
0.0000000000000000
 40
0.0000000000000000
 40
0.0000000000000000
 40
0.0000000000000000
 40
0.0000000000000000
 40
9.013878188659973
 40
18.02775637731995
 40
25.09882418918542
 40
33.00451833960637
 40
43.31228240365052
 40
53.31228240365052
 40
80.81228240365053
 40
91.12004646769468
 40
101.4278105317388
 40
113.9278105317388
 40
132.1280852549401
 40
137.1280852549401
 40
137.1280852549401
 40
137.1280852549401
 40
137.1280852549401
 10
86.96327589997424
 20
311.9745756133883
 30
0.0000000000000000
 10
89.47856538042743
 20
309.5190716926915
 30
0.0000000000000000
 10
94.50914434133378
 20
304.6080638512979
 30
0.0000000000000000
 10
87.33511790912515
 20
297.0274137248492
 30
0.0000000000000000
 10
81.34923397343073
 20
292.3174229450656
 30
0.0000000000000000
 10
78.11384557597145
 20
283.5158140806345
 30
0.0000000000000000
 10
83.07134516550657
 20
274.7025903729708
 30
0.0000000000000000
 10
80.85261080152559
 20
258.5635313757556
 30
0.0000000000000000
 10
83.98533779171993
 20
242.4845758161431
 30
0.0000000000000000
 10
79.56428686664776
 20
226.9568382195893
 30
0.0000000000000000
 10
75.87246566099663
 20
216.3838367636180
 30
0.0000000000000000
 10
78.75160076851012
 20
202.3297620624404
 30
0.0000000000000000
 10
71.52122248901412
 20
191.4362050520719
 30
0.0000000000000000
 10
71.88489839916988
 20
183.6521531426064
 30
0.0000000000000000
 10
71.96327589997424
 20
181.9745756133883
 30
0.0000000000000000
  0
DIMENSION
  5
32B
100
AcDbEntity
  8
MAIN0
  6
CONTINUOUS
 62
3
100
AcDbDimension
  2
*D35
 10
144.4632758999536
 20
321.9745756133883
 30
0.0000000000000000
 11
134.4632758999639
 21
322.4745756133883
 31
0.0000000000000000
 70
32
  3
MAIN001
100
AcDbAlignedDimension
 13
124.4632758999742
 23
310.9745756133955
 33
0.0000000000000000
 14
144.4632758999594
 24
276.4745756134073
 34
0.0000000000000000
100
AcDbRotatedDimension
1001
ACAD
1000
DSTYLE
1002
{
1070
   173
1070
     1
1070
     6
1000
_OPEN
1070
     7
1000
_OPEN
1070
    41
1040
2.000000
1002
}
  0
DIMENSION
  5
334
100
AcDbEntity
  8
MAIN0
  6
CONTINUOUS
 62
3
100
AcDbDimension
  2
*D36
 10
159.4632758999742
 20
261.9745756134048
 30
0.0000000000000000
 11
158.9632758999742
 21
286.9745756133999
 31
0.0000000000000000
 70
32
  3
MAIN001
100
AcDbAlignedDimension
 13
127.4632758999742
 23
311.9745756133973
 33
0.0000000000000000
 14
143.9632758999534
 24
261.9745756134070
 34
0.0000000000000000
 50
90.00000000000000
100
AcDbRotatedDimension
1001
ACAD
1000
DSTYLE
1002
{
1070
   173
1070
     1
1070
     6
1000
_OPEN
1070
     7
1000
_OPEN
1070
    41
1040
2.000000
1002
}
  0
DIMENSION
  5
33C
100
AcDbEntity
  8
MAIN0
  6
CONTINUOUS
 62
3
100
AcDbDimension
  2
*D37
 10
136.4632669227444
 20
219.4745756133883
 30
0.0000000000000000
 11
132.4632669227357
 21
219.9745756133883
 31
0.0000000000000000
 70
32
  3
MAIN001
100
AcDbAlignedDimension
 13
128.4632669227270
 23
221.9745593372082
 33
0.0000000000000000
 14
136.4632669227444
 24
210.4745593372205
 34
0.0000000000000000
100
AcDbRotatedDimension
1001
ACAD
1000
DSTYLE
1002
{
1070
   173
1070
     1
1070
     6
1000
_OPEN
1070
     7
1000
_OPEN
1070
    41
1040
2.000000
1002
}
  0
DIMENSION
  5
345
100
AcDbEntity
  8
MAIN0
  6
CONTINUOUS
 62
3
100
AcDbDimension
  2
*D38
 10
64.46327589997424
 20
167.9745756133883
 30
0.0000000000000000
 11
75.71328318508479
 21
168.4745756133883
 31
0.0000000000000000
 70
32
  3
MAIN001
100
AcDbAlignedDimension
 13
86.96329047019533
 23
179.9745756133883
 33
0.0000000000000000
 14
64.46327589997424
 24
182.9745756133883
 34
0.0000000000000000
100
AcDbRotatedDimension
1001
ACAD
1000
DSTYLE
1002
{
1070
   173
1070
     1
1070
     6
1000
_OPEN
1070
     7
1000
_OPEN
1070
    41
1040
2.000000
1002
}
  0
DIMENSION
  5
34E
100
AcDbEntity
  8
MAIN0
  6
CONTINUOUS
 62
3
100
AcDbDimension
  2
*D39
 10
86.96329047019533
 20
167.9745756133883
 30
0.0000000000000000
 11
105.7132831850848
 21
168.4745756133883
 31
0.0000000000000000
 70
32
  3
MAIN001
100
AcDbAlignedDimension
 13
124.4632758999742
 23
182.9745756133883
 33
0.0000000000000000
 14
86.96329047019533
 24
179.9745756133883
 34
0.0000000000000000
100
AcDbRotatedDimension
1001
ACAD
1000
DSTYLE
1002
{
1070
   173
1070
     1
1070
     6
1000
_OPEN
1070
     7
1000
_OPEN
1070
    41
1040
2.000000
1002
}
  0
DIMENSION
  5
355
100
AcDbEntity
  8
MAIN0
  6
CONTINUOUS
 62
3
100
AcDbDimension
  2
*D40
 10
316.8811719615048
 20
289.7177021783061
 30
0.0000000000000000
 11
316.3811719615048
 21
294.7177021783061
 31
0.0000000000000000
 70
32
  1
\A1;\U+220510
  3
MAIN001
100
AcDbAlignedDimension
 13
310.1776279238174
 23
299.7177021783061
 33
0.0000000000000000
 14
310.1776279238175
 24
289.7177021783061
 34
0.0000000000000000
 50
90.00000000000000
100
AcDbRotatedDimension
1001
ACAD
1000
DSTYLE
1002
{
1070
   173
1070
     1
1070
     6
1000
_OPEN
1070
     7
1000
_OPEN
1070
    41
1040
2.000000
1002
}
  0
DIMENSION
  5
35D
100
AcDbEntity
  8
MAIN0
  6
CONTINUOUS
 62
3
100
AcDbDimension
  2
*D41
 10
332.7299264169549
 20
294.7177021783073
 30
0.0000000000000000
 11
332.2299264169549
 21
303.9677021783108
 31
0.0000000000000000
 70
160
  3
MAIN001
100
AcDbAlignedDimension
 13
352.1776279238657
 23
309.7177021783123
 33
0.0000000000000000
 14
317.8359258976675
 24
294.7177021783073
 34
0.0000000000000000
 50
90.00000000000000
100
AcDbRotatedDimension
1001
ACAD
1000
DSTYLE
1002
{
1070
   173
1070
     1
1070
     6
1000
_OPEN
1070
     7
1000
_OPEN
1070
    41
1040
2.000000
1002
}
  0
LINE
  5
35E
100
AcDbEntity
  8
MAIN0
  6
HIDDEN
 62
3
100
AcDbLine
 10
124.4632758999743
 20
262.9745756133883
 30
0.0000000000000000
 11
81.90845267413167
 21
262.9745756133883
 31
0.0000000000000000
  0
LINE
  5
35F
100
AcDbEntity
  8
MAIN0
  6
HIDDEN
 62
3
100
AcDbLine
 10
124.4632758999742
 20
230.9745756133883
 30
0.0000000000000000
 11
80.65609190093338
 21
230.9745756133883
 31
0.0000000000000000
  0
LINE
  5
360
100
AcDbEntity
  8
MAIN0
  6
HIDDEN
 62
3
100
AcDbLine
 10
64.46327589997424
 20
308.8745756133883
 30
0.0000000000000000
 11
65.46327589997424
 21
307.8745756133883
 31
0.0000000000000000
  0
LINE
  5
361
100
AcDbEntity
  8
MAIN0
  6
HIDDEN
 62
3
100
AcDbLine
 10
65.46327589997424
 20
307.8745756133883
 30
0.0000000000000000
 11
65.46327589997424
 21
301.0745756133883
 31
0.0000000000000000
  0
LINE
  5
362
100
AcDbEntity
  8
MAIN0
  6
HIDDEN
 62
3
100
AcDbLine
 10
65.46327589997424
 20
301.0745756133883
 30
0.0000000000000000
 11
64.46327589997424
 21
300.0745756133883
 31
0.0000000000000000
  0
LINE
  5
363
100
AcDbEntity
  8
MAIN0
  6
HIDDEN
 62
3
100
AcDbLine
 10
64.86327589997424
 20
308.4745756133883
 30
0.0000000000000000
 11
80.46327589997424
 21
308.4745756133883
 31
0.0000000000000000
  0
LINE
  5
364
100
AcDbEntity
  8
MAIN0
  6
HIDDEN
 62
3
100
AcDbLine
 10
80.46327589997424
 20
308.4745756133883
 30
0.0000000000000000
 11
80.46327589997424
 21
300.4745756133883
 31
0.0000000000000000
  0
LINE
  5
365
100
AcDbEntity
  8
MAIN0
  6
HIDDEN
 62
3
100
AcDbLine
 10
80.46327589997424
 20
300.4745756133883
 30
0.0000000000000000
 11
64.86327589997424
 21
300.4745756133883
 31
0.0000000000000000
  0
LINE
  5
366
100
AcDbEntity
  8
MAIN0
  6
HIDDEN
 62
3
100
AcDbLine
 10
65.46327589997424
 20
307.8745756133883
 30
0.0000000000000000
 11
84.46327589997424
 21
307.8745756133883
 31
0.0000000000000000
  0
LINE
  5
367
100
AcDbEntity
  8
MAIN0
  6
HIDDEN
 62
3
100
AcDbLine
 10
84.46327589997424
 20
307.8745756133883
 30
0.0000000000000000
 11
84.46327589997424
 21
301.0745756133883
 31
0.0000000000000000
  0
LINE
  5
368
100
AcDbEntity
  8
MAIN0
  6
HIDDEN
 62
3
100
AcDbLine
 10
84.46327589997424
 20
301.0745756133883
 30
0.0000000000000000
 11
65.46327589997424
 21
301.0745756133883
 31
0.0000000000000000
  0
LINE
  5
369
100
AcDbEntity
  8
MAIN0
  6
HIDDEN
 62
3
100
AcDbLine
 10
84.46327589997424
 20
307.8745756133883
 30
0.0000000000000000
 11
86.42626681521895
 21
304.4745756133883
 31
0.0000000000000000
  0
LINE
  5
36A
100
AcDbEntity
  8
MAIN0
  6
HIDDEN
 62
3
100
AcDbLine
 10
86.42626681521897
 20
304.4745756133883
 30
0.0000000000000000
 11
84.46327589997424
 21
301.0745756133883
 31
0.0000000000000000
  0
LINE
  5
36B
100
AcDbEntity
  8
MAIN0
  6
HIDDEN
 62
3
100
AcDbLine
 10
230.9698367342659
 20
221.4459123611774
 30
0.0000000000000000
 11
231.3698367342659
 21
221.8459123611774
 31
0.0000000000000000
  0
LINE
  5
36C
100
AcDbEntity
  8
MAIN0
  6
HIDDEN
 62
3
100
AcDbLine
 10
231.3698367342659
 20
221.8459123611775
 30
0.0000000000000000
 11
231.3698367342659
 21
228.2245756133883
 31
0.0000000000000000
  0
LINE
  5
36D
100
AcDbEntity
  8
MAIN0
  6
HIDDEN
 62
3
100
AcDbLine
 10
231.3698367342659
 20
228.2245756133883
 30
0.0000000000000000
 11
237.3698367342659
 21
228.2245756133883
 31
0.0000000000000000
  0
LINE
  5
36E
100
AcDbEntity
  8
MAIN0
  6
HIDDEN
 62
3
100
AcDbLine
 10
237.3698367342659
 20
228.2245756133883
 30
0.0000000000000000
 11
237.3698367342659
 21
221.8459123611774
 31
0.0000000000000000
  0
LINE
  5
36F
100
AcDbEntity
  8
MAIN0
  6
HIDDEN
 62
3
100
AcDbLine
 10
237.3698367342660
 20
221.8459123611774
 30
0.0000000000000000
 11
237.7698367342659
 21
221.4459123611774
 31
0.0000000000000000
  0
LINE
  5
370
100
AcDbEntity
  8
MAIN0
  6
HIDDEN
 62
3
100
AcDbLine
 10
231.3698367342659
 20
228.2245756133883
 30
0.0000000000000000
 11
234.3698367342659
 21
229.9566264209572
 31
0.0000000000000000
  0
LINE
  5
371
100
AcDbEntity
  8
MAIN0
  6
HIDDEN
 62
3
100
AcDbLine
 10
234.3698367342805
 20
229.9566264209824
 30
0.0000000000000000
 11
237.3698367342805
 21
228.2245756134135
 31
0.0000000000000000
  0
CIRCLE
  5
372
100
AcDbEntity
  8
MAIN0
  6
HIDDEN
 62
3
100
AcDbCircle
 10
223.6198367341518
 20
265.5941217945102
 30
0.0000000000000000
 40
3.000000000000000
  0
CIRCLE
  5
373
100
AcDbEntity
  8
MAIN0
  6
HIDDEN
 62
3
100
AcDbCircle
 10
223.6198367341518
 20
265.5941217945102
 30
0.0000000000000000
 40
2.500000000000000
  0
CIRCLE
  5
374
100
AcDbEntity
  8
MAIN0
  6
HIDDEN
 62
3
100
AcDbCircle
 10
255.8698367341115
 20
246.9745756133883
 30
0.0000000000000000
 40
3.000000000000000
  0
CIRCLE
  5
375
100
AcDbEntity
  8
MAIN0
  6
HIDDEN
 62
3
100
AcDbCircle
 10
255.8698367341115
 20
246.9745756133883
 30
0.0000000000000000
 40
2.500000000000000
  0
CIRCLE
  5
376
100
AcDbEntity
  8
MAIN0
  6
HIDDEN
 62
3
100
AcDbCircle
 10
223.6198367335796
 20
228.3550294320631
 30
0.0000000000000000
 40
3.000000000000000
  0
CIRCLE
  5
377
100
AcDbEntity
  8
MAIN0
  6
HIDDEN
 62
3
100
AcDbCircle
 10
223.6198367335796
 20
228.3550294320631
 30
0.0000000000000000
 40
2.500000000000000
  0
CIRCLE
  5
378
100
AcDbEntity
  8
MAIN0
  6
HIDDEN
 62
3
100
AcDbCircle
 10
180.1606700745169
 20
266.1478969236122
 30
0.0000000000000000
 40
4.000000000000000
  0
CIRCLE
  5
379
100
AcDbEntity
  8
MAIN0
  6
HIDDEN
 62
3
100
AcDbCircle
 10
180.1606700745169
 20
266.1478969236122
 30
0.0000000000000000
 40
3.400000000000000
  0
CIRCLE
  5
37A
100
AcDbEntity
  8
MAIN0
  6
HIDDEN
 62
3
100
AcDbCircle
 10
291.8698367342659
 20
246.9745756133883
 30
0.0000000000000000
 40
4.000000000000000
  0
CIRCLE
  5
37B
100
AcDbEntity
  8
MAIN0
  6
HIDDEN
 62
3
100
AcDbCircle
 10
291.8698367342659
 20
246.9745756133883
 30
0.0000000000000000
 40
3.400000000000000
  0
CIRCLE
  5
37C
100
AcDbEntity
  8
MAIN0
  6
HIDDEN
 62
3
100
AcDbCircle
 10
205.6198367337686
 20
197.1781148963185
 30
0.0000000000000000
 40
4.000000000000000
  0
CIRCLE
  5
37D
100
AcDbEntity
  8
MAIN0
  6
HIDDEN
 62
3
100
AcDbCircle
 10
205.6198367337686
 20
197.1781148963185
 30
0.0000000000000000
 40
3.400000000000000
  0
CIRCLE
  5
37E
100
AcDbEntity
  8
MAIN0
  6
HIDDEN
 62
3
100
AcDbCircle
 10
205.6198367340351
 20
296.7710363311086
 30
0.0000000000000000
 40
4.000000000000000
  0
CIRCLE
  5
37F
100
AcDbEntity
  8
MAIN0
  6
HIDDEN
 62
3
100
AcDbCircle
 10
205.6198367340351
 20
296.7710363311086
 30
0.0000000000000000
 40
3.400000000000000
  0
LINE
  5
380
100
AcDbEntity
  8
MAIN0
  6
HIDDEN
 62
3
100
AcDbLine
 10
124.4632758999743
 20
183.0745756133883
 30
0.0000000000000000
 11
124.0632758999743
 21
183.4745756133883
 31
0.0000000000000000
  0
LINE
  5
381
100
AcDbEntity
  8
MAIN0
  6
HIDDEN
 62
3
100
AcDbLine
 10
124.0632758999742
 20
183.4745756133883
 30
0.0000000000000000
 11
115.8632758999742
 21
183.4745756133883
 31
0.0000000000000000
  0
LINE
  5
382
100
AcDbEntity
  8
MAIN0
  6
HIDDEN
 62
3
100
AcDbLine
 10
115.8632758999742
 20
183.4745756133883
 30
0.0000000000000000
 11
115.8632758999742
 21
197.4745756133883
 31
0.0000000000000000
  0
LINE
  5
383
100
AcDbEntity
  8
MAIN0
  6
HIDDEN
 62
3
100
AcDbLine
 10
115.8632758999742
 20
197.4745756133883
 30
0.0000000000000000
 11
124.0632758999742
 21
197.4745756133883
 31
0.0000000000000000
  0
LINE
  5
384
100
AcDbEntity
  8
MAIN0
  6
HIDDEN
 62
3
100
AcDbLine
 10
124.0632758999742
 20
197.4745756133883
 30
0.0000000000000000
 11
124.4632758999742
 21
197.8745756133883
 31
0.0000000000000000
  0
LINE
  5
385
100
AcDbEntity
  8
MAIN0
  6
HIDDEN
 62
3
100
AcDbLine
 10
115.8632758999742
 20
185.9745756133883
 30
0.0000000000000000
 11
64.86327589997424
 21
185.9745756133883
 31
0.0000000000000000
  0
LINE
  5
386
100
AcDbEntity
  8
MAIN0
  6
HIDDEN
 62
3
100
AcDbLine
 10
64.86327589997424
 20
185.9745756133883
 30
0.0000000000000000
 11
64.46327589997424
 21
185.5745756133883
 31
0.0000000000000000
  0
LINE
  5
387
100
AcDbEntity
  8
MAIN0
  6
HIDDEN
 62
3
100
AcDbLine
 10
115.8632758999742
 20
194.9745756133883
 30
0.0000000000000000
 11
64.86327589997424
 21
194.9745756133883
 31
0.0000000000000000
  0
LINE
  5
388
100
AcDbEntity
  8
MAIN0
  6
HIDDEN
 62
3
100
AcDbLine
 10
64.86327589997424
 20
194.9745756133883
 30
0.0000000000000000
 11
64.46327589997424
 21
195.3745756133883
 31
0.0000000000000000
  0
LINE
  5
389
100
AcDbEntity
  8
MAIN0
  6
CONTINUOUS
 62
3
100
AcDbLine
 10
65.18514531028997
 20
146.1517538418693
 30
0.0000000000000000
 11
74.46345747380295
 21
146.1517538418693
 31
0.0000000000000000
  0
LINE
  5
38A
100
AcDbEntity
  8
MAIN0
  6
CONTINUOUS
 62
3
100
AcDbLine
 10
64.79456785318320
 20
145.4752538418694
 30
0.0000000000000000
 11
74.85403493090979
 21
145.4752538418694
 31
0.0000000000000000
  0
LINE
  5
38B
100
AcDbEntity
  8
MAIN0
  6
CONTINUOUS
 62
3
100
AcDbLine
 10
64.46345747380290
 20
144.9017538418693
 30
0.0000000000000000
 11
65.18514531028995
 21
146.1517538418693
 31
0.0000000000000000
  0
LINE
  5
38C
100
AcDbEntity
  8
MAIN0
  6
CONTINUOUS
 62
3
100
AcDbLine
 10
103.9634574738030
 20
144.9017538418693
 30
0.0000000000000000
 11
103.9634574738030
 21
139.4017538418693
 31
0.0000000000000000
  0
LINE
  5
38D
100
AcDbEntity
  8
MAIN0
  6
CONTINUOUS
 62
3
100
AcDbLine
 10
65.18514531028998
 20
138.1517538418693
 30
0.0000000000000000
 11
74.46345747380292
 21
138.1517538418693
 31
0.0000000000000000
  0
LINE
  5
38E
100
AcDbEntity
  8
MAIN0
  6
CONTINUOUS
 62
3
100
AcDbLine
 10
64.79456785318320
 20
138.8282538418693
 30
0.0000000000000000
 11
74.85403493090976
 21
138.8282538418693
 31
0.0000000000000000
  0
ARC
  5
38F
100
AcDbEntity
  8
MAIN0
  6
CONTINUOUS
 62
3
100
AcDbCircle
 10
96.65095747380295
 20
142.1517538418693
 30
0.0000000000000000
 40
7.812500000000000
100
AcDbArc
 50
339.3903070624613
 51
380.6096929375254
  0
LINE
  5
390
100
AcDbEntity
  8
MAIN0
  6
CONTINUOUS
 62
3
100
AcDbLine
 10
64.46345747380292
 20
139.4017538418694
 30
0.0000000000000000
 11
65.18514531028998
 21
138.1517538418693
 31
0.0000000000000000
  0
LINE
  5
391
100
AcDbEntity
  8
MAIN0
  6
CONTINUOUS
 62
3
100
AcDbLine
 10
74.46345747380295
 20
146.1517538418693
 30
0.0000000000000000
 11
75.06967525645217
 21
145.1017538418693
 31
0.0000000000000000
  0
ARC
  5
392
100
AcDbEntity
  8
MAIN0
  6
CONTINUOUS
 62
3
100
AcDbCircle
 10
75.41608541796589
 20
145.3017538418693
 30
0.0000000000000000
 40
0.4000000000000000
100
AcDbArc
 50
210.0000000000008
 51
269.9999999999961
  0
ARC
  5
393
100
AcDbEntity
  8
MAIN0
  6
CONTINUOUS
 62
3
100
AcDbCircle
 10
75.41608541796592
 20
139.0017538418693
 30
0.0000000000000000
 40
0.4000000000000000
100
AcDbArc
 50
89.99999999999663
 51
149.9999999999921
  0
LINE
  5
394
100
AcDbEntity
  8
MAIN0
  6
CONTINUOUS
 62
3
100
AcDbLine
 10
74.46345747380295
 20
146.1517538418694
 30
0.0000000000000000
 11
74.46345747380295
 21
138.1517538418694
 31
0.0000000000000000
  0
LINE
  5
395
100
AcDbEntity
  8
MAIN0
  6
CONTINUOUS
 62
3
100
AcDbLine
 10
74.46345747380290
 20
138.1517538418694
 30
0.0000000000000000
 11
75.06967525645213
 21
139.2017538418694
 31
0.0000000000000000
  0
LINE
  5
396
100
AcDbEntity
  8
MAIN0
  6
CONTINUOUS
 62
3
100
AcDbLine
 10
66.96345747380295
 20
142.9517538418693
 30
0.0000000000000000
 11
66.96345747380295
 21
141.3517538418693
 31
0.0000000000000000
  0
LINE
  5
397
100
AcDbEntity
  8
MAIN0
  6
CONTINUOUS
 62
3
100
AcDbLine
 10
64.46345747380295
 20
142.9517538418693
 30
0.0000000000000000
 11
66.96345747380295
 21
142.9517538418693
 31
0.0000000000000000
  0
LINE
  5
398
100
AcDbEntity
  8
MAIN0
  6
CONTINUOUS
 62
3
100
AcDbLine
 10
64.46345747380295
 20
141.3517538418693
 30
0.0000000000000000
 11
66.96345747380295
 21
141.3517538418693
 31
0.0000000000000000
  0
LINE
  5
399
100
AcDbEntity
  8
MAIN0
  6
CONTINUOUS
 62
3
100
AcDbLine
 10
64.46345747380295
 20
141.3517538418693
 30
0.0000000000000000
 11
64.46345747380295
 21
139.4017538418692
 31
0.0000000000000000
  0
LINE
  5
39A
100
AcDbEntity
  8
MAIN0
  6
CONTINUOUS
 62
3
100
AcDbLine
 10
64.46345747380295
 20
144.9017538418695
 30
0.0000000000000000
 11
64.46345747380295
 21
142.9517538418693
 31
0.0000000000000000
  0
LINE
  5
39B
100
AcDbEntity
  8
MAIN0
  6
CONTINUOUS
 62
3
100
AcDbLine
 10
65.18514531028998
 20
141.3517538418693
 30
0.0000000000000000
 11
65.18514531028998
 21
138.1517538418694
 31
0.0000000000000000
  0
LINE
  5
39C
100
AcDbEntity
  8
MAIN0
  6
CONTINUOUS
 62
3
100
AcDbLine
 10
65.18514531028998
 20
146.1517538418693
 30
0.0000000000000000
 11
65.18514531028998
 21
142.9517538418693
 31
0.0000000000000000
  0
LINE
  5
39D
100
AcDbEntity
  8
MAIN0
  6
CONTINUOUS
 62
3
100
AcDbLine
 10
75.41608541796589
 20
144.9017538418693
 30
0.0000000000000000
 11
103.9634574738030
 21
144.9017538418693
 31
0.0000000000000000
  0
LINE
  5
39E
100
AcDbEntity
  8
MAIN0
  6
CONTINUOUS
 62
3
100
AcDbLine
 10
103.9634574738030
 20
144.9017538418693
 30
0.0000000000000000
 11
106.4632758999742
 21
144.9017538418693
 31
0.0000000000000000
  0
LINE
  5
39F
100
AcDbEntity
  8
MAIN0
  6
CONTINUOUS
 62
3
100
AcDbLine
 10
75.41608541796592
 20
139.4017538418694
 30
0.0000000000000000
 11
103.9634574738030
 21
139.4017538418694
 31
0.0000000000000000
  0
LINE
  5
3A0
100
AcDbEntity
  8
MAIN0
  6
CONTINUOUS
 62
3
100
AcDbLine
 10
103.9634574738030
 20
139.4017538418694
 30
0.0000000000000000
 11
106.4632758999742
 21
139.4017538418694
 31
0.0000000000000000
  0
LINE
  5
3A1
100
AcDbEntity
  8
MAIN0
  6
CONTINUOUS
 62
3
100
AcDbLine
 10
64.46327589997424
 20
146.5517747036790
 30
0.0000000000000000
 11
65.46327589997424
 21
145.5517747036791
 31
0.0000000000000000
  0
LINE
  5
3A2
100
AcDbEntity
  8
MAIN0
  6
CONTINUOUS
 62
3
100
AcDbLine
 10
65.46327589997424
 20
145.5517747036790
 30
0.0000000000000000
 11
65.46327589997424
 21
138.7517747036790
 31
0.0000000000000000
  0
LINE
  5
3A3
100
AcDbEntity
  8
MAIN0
  6
CONTINUOUS
 62
3
100
AcDbLine
 10
65.46327589997424
 20
138.7517747036791
 30
0.0000000000000000
 11
64.46327589997424
 21
137.7517747036791
 31
0.0000000000000000
  0
LINE
  5
3A4
100
AcDbEntity
  8
MAIN0
  6
CONTINUOUS
 62
3
100
AcDbLine
 10
64.86327589997424
 20
146.1517747036790
 30
0.0000000000000000
 11
74.46327589997424
 21
146.1517747036790
 31
0.0000000000000000
  0
LINE
  5
3A5
100
AcDbEntity
  8
MAIN0
  6
CONTINUOUS
 62
3
100
AcDbLine
 10
74.46327589997424
 20
146.1517747036790
 30
0.0000000000000000
 11
74.46327589997424
 21
138.1517747036790
 31
0.0000000000000000
  0
LINE
  5
3A6
100
AcDbEntity
  8
MAIN0
  6
CONTINUOUS
 62
3
100
AcDbLine
 10
74.46327589997424
 20
138.1517747036790
 30
0.0000000000000000
 11
64.86327589997424
 21
138.1517747036790
 31
0.0000000000000000
  0
LINE
  5
3A7
100
AcDbEntity
  8
MAIN0
  6
CONTINUOUS
 62
3
100
AcDbLine
 10
106.4632758999742
 20
144.9017538418693
 30
0.0000000000000000
 11
106.4632758999742
 21
139.4017538418694
 31
0.0000000000000000
  0
CIRCLE
  5
3A8
100
AcDbEntity
  8
MAIN0
  6
CONTINUOUS
 62
3
100
AcDbCircle
 10
178.4196908479649
 20
239.1112954079932
 30
0.0000000000000000
 40
7.000000000000000
  0
CIRCLE
  5
3A9
100
AcDbEntity
  8
MAIN0
  6
CONTINUOUS
 62
3
100
AcDbCircle
 10
178.4196908479649
 20
239.1112954079932
 30
0.0000000000000000
 40
4.500000000000000
  0
CIRCLE
  5
3AA
100
AcDbEntity
  8
MAIN0
  6
CONTINUOUS
 62
3
100
AcDbCircle
 10
255.5351092598337
 20
299.3604633963581
 30
0.0000000000000000
 40
7.000000000000000
  0
CIRCLE
  5
3AB
100
AcDbEntity
  8
MAIN0
  6
CONTINUOUS
 62
3
100
AcDbCircle
 10
255.5351092598337
 20
299.3604633963581
 30
0.0000000000000000
 40
4.500000000000000
  0
CIRCLE
  5
3AC
100
AcDbEntity
  8
MAIN0
  6
CONTINUOUS
 62
3
100
AcDbCircle
 10
269.1547100893888
 20
202.4519680360050
 30
0.0000000000000000
 40
7.000000000000000
  0
CIRCLE
  5
3AD
100
AcDbEntity
  8
MAIN0
  6
CONTINUOUS
 62
3
100
AcDbCircle
 10
269.1547100893888
 20
202.4519680360050
 30
0.0000000000000000
 40
4.500000000000000
  0
MTEXT
  5
3AE
100
AcDbEntity
  8
A0
  6
CONTINUOUS
 62
3
100
AcDbMText
 10
240.4636701160051
 20
76.97661012472634
 30
0.0000000000000000
 40
3.750000000000000
 41
0.0000000000000000
 71
     1
 72
     1
  1
{\H0.63x;{EXTERNAL\PGRIPPING}}
 11
1.000000000000000
 21
0.0000000000000000
 31
0.0000000000000000
  7
STANDARD
  0
MTEXT
  5
3AF
100
AcDbEntity
  8
A0
  6
CONTINUOUS
 62
3
100
AcDbMText
 10
240.3860559732288
 20
66.34353150138850
 30
0.0000000000000000
 40
3.750000000000000
 41
0.0000000000000000
 71
     1
 72
     1
  1
{\H0.63x;{INTERNALLY\PGRIPPING}}
 11
1.000000000000000
 21
0.0000000000000000
 31
0.0000000000000000
  7
STANDARD
  0
MTEXT
  5
3B0
100
AcDbEntity
  8
A0
  6
CONTINUOUS
 62
3
100
AcDbMText
 10
292.6246628513079
 20
139.1390412082871
 30
0.0000000000000000
 40
4.649999856948853
 41
0.0000000000000000
 71
     1
 72
     1
  1
{\H0.76x;{6.5}}
 11
1.000000000000000
 21
0.0000000000000000
 31
0.0000000000000000
  7
STANDARD
  0
MTEXT
  5
3B1
100
AcDbEntity
  8
A0
  6
CONTINUOUS
 62
3
100
AcDbMText
 10
288.0000000000001
 20
131.3999998568962
 30
0.0000000000000000
 40
4.649999856948853
 41
0.0000000000000000
 71
     1
 72
     1
  1
{\H0.88x;{15}}
 11
1.000000000000000
 21
0.0000000000000000
 31
0.0000000000000000
  7
STANDARD
  0
MTEXT
  5
3B2
100
AcDbEntity
  8
A0
  6
CONTINUOUS
 62
3
100
AcDbMText
 10
292.5000000000001
 20
124.6499998568962
 30
0.0000000000000000
 40
4.649999856948853
 41
0.0000000000000000
 71
     1
 72
     1
  1
{\H0.91x;{1530}}
 11
1.000000000000000
 21
0.0000000000000000
 31
0.0000000000000000
  7
STANDARD
  0
MTEXT
  5
3B3
100
AcDbEntity
  8
A0
  6
CONTINUOUS
 62
3
100
AcDbMText
 10
288.0000000000001
 20
100.1499998568962
 30
0.0000000000000000
 40
4.649999856948853
 41
0.0000000000000000
 71
     1
 72
     1
  1
{\H0.76x;{4.4}}
 11
1.000000000000000
 21
0.0000000000000000
 31
0.0000000000000000
  7
STANDARD
  0
MTEXT
  5
3B4
100
AcDbEntity
  8
A0
  6
CONTINUOUS
 62
3
100
AcDbMText
 10
288.0000000000001
 20
146.3999998568964
 30
0.0000000000000000
 40
4.649999856948853
 41
0.0000000000000000
 71
     1
 72
     1
  1
{\H0.81x;{63.7}}
 11
1.000000000000000
 21
0.0000000000000000
 31
0.0000000000000000
  7
STANDARD
  0
LINE
  5
3B5
100
AcDbEntity
  8
A0
  6
CONTINUOUS
 62
3
100
AcDbLine
 10
210.0000000000002
 20
56.49999999994242
 30
0.0000000000000000
 11
330.0000000000002
 21
56.49999999994250
 31
0.0000000000000000
  0
LINE
  5
3B6
100
AcDbEntity
  8
A0
  6
CONTINUOUS
 62
3
100
AcDbLine
 10
239.2500000000001
 20
56.49999999994250
 30
0.0000000000000000
 11
239.2500000000001
 21
77.49999999994245
 31
0.0000000000000000
  0
MTEXT
  5
3B7
100
AcDbEntity
  8
A0
  6
CONTINUOUS
 62
3
100
AcDbMText
 10
263.8254003770880
 20
74.69444780895145
 30
0.0000000000000000
 40
4.649999856948853
 41
0.0000000000000000
 71
     1
 72
     1
  1
{\H0.92x;{外径把握}}
 11
1.000000000000000
 21
0.0000000000000000
 31
0.0000000000000000
  7
KNJYOKO
  0
MTEXT
  5
3B8
100
AcDbEntity
  8
A0
  6
CONTINUOUS
 62
3
100
AcDbMText
 10
263.8254003770880
 20
63.98375504283743
 30
0.0000000000000000
 40
4.649999856948853
 41
0.0000000000000000
 71
     1
 72
     1
  1
{\H0.92x;{内径把握}}
 11
1.000000000000000
 21
0.0000000000000000
 31
0.0000000000000000
  7
KNJYOKO
  0
MTEXT
  5
3B9
100
AcDbEntity
  8
A0
  6
CONTINUOUS
 62
3
100
AcDbMText
 10
222.6901271928827
 20
62.04863874258612
 30
0.0000000000000000
 40
4.500000000000000
 41
0.0000000000000000
 71
     1
 72
     1
  1
{\H0.63x;{(mm)}}
 11
1.000000000000000
 21
0.0000000000000000
 31
0.0000000000000000
  7
STANDARD
  0
MTEXT
  5
3BA
100
AcDbEntity
  8
A0
  6
CONTINUOUS
 62
3
100
AcDbMText
 10
287.9999999999567
 20
64.14999985689127
 30
0.0000000000000000
 40
4.649999856948853
 41
0.0000000000000000
 71
     1
 72
     1
  1
{\H0.93x;{\U+220533～\U+2205100}}
 11
1.000000000000000
 21
0.0000000000000000
 31
0.0000000000000000
  7
KNJYOKO
  0
MTEXT
  5
3BB
100
AcDbEntity
  8
A0
  6
CONTINUOUS
 62
3
100
AcDbMText
 10
213.7500000000017
 20
116.2749998569385
 30
0.0000000000000000
 40
4.649999856948853
 41
0.0000000000000000
 71
     1
 72
     1
  1
{\H0.94x;{許容最高回転速度　}}
 11
1.000000000000000
 21
0.0000000000000000
 31
0.0000000000000000
  7
KNJYOKO
  0
MTEXT
  5
3BC
100
AcDbEntity
  8
A0
  6
CONTINUOUS
 62
3
100
AcDbMText
 10
288.0000000000001
 20
110.9999999999473
 30
0.0000000000000000
 40
4.649999856948853
 41
0.0000000000000000
 71
     7
 72
     1
  1
{2500 min}
 11
1.000000000000000
 21
0.0000000000000000
 31
0.0000000000000000
  7
STANDARD
  0
MTEXT
  5
3BD
100
AcDbEntity
  8
A0
  6
CONTINUOUS
 62
3
100
AcDbMText
 10
321.2900009751321
 20
113.3249999284218
 30
0.0000000000000000
 40
2.324999928474426
 41
0.0000000000000000
 71
     7
 72
     1
  1
{-1}
 11
1.000000000000000
 21
0.0000000000000000
 31
0.0000000000000000
  7
STANDARD
  0
MTEXT
  5
3BE
100
AcDbEntity
  8
A0
  6
CONTINUOUS
 62
3
100
AcDbMText
 10
307.3459262288081
 20
110.0899271557113
 30
0.0000000000000000
 40
4.649999856948853
 41
0.0000000000000000
 71
     1
 72
     1
  1
{\H0.92x;{(rpm)}}
 11
1.000000000000000
 21
0.0000000000000000
 31
0.0000000000000000
  7
STANDARD
  0
MTEXT
  5
3BF
100
AcDbEntity
  8
A0
  6
CONTINUOUS
 62
3
100
AcDbMText
 10
287.9999999999567
 20
74.64999985689130
 30
0.0000000000000000
 40
4.649999856948853
 41
0.0000000000000000
 71
     1
 72
     1
  1
{\H0.93x;{\U+22053～\U+2205110}}
 11
1.000000000000000
 21
0.0000000000000000
 31
0.0000000000000000
  7
KNJYOKO
  0
LINE
  5
3C0
100
AcDbEntity
  8
A0
  6
CONTINUOUS
 62
3
100
AcDbLine
 10
239.2500000000002
 20
66.99999999994239
 30
0.0000000000000000
 11
330.0000000000000
 21
66.99999999994247
 31
0.0000000000000000
  0
LINE
  5
3C1
100
AcDbEntity
  8
A0
  6
CONTINUOUS
 62
3
100
AcDbLine
 10
210.0000000000000
 20
159.0000000000000
 30
0.0000000000000000
 11
330.0000000000001
 21
159.0000000000364
 31
0.0000000000000000
  0
LINE
  5
3C2
100
AcDbEntity
  8
A0
  6
CONTINUOUS
 62
3
100
AcDbLine
 10
209.9999999999999
 20
148.4999999999971
 30
0.0000000000000000
 11
329.9999999999999
 21
148.5000000000314
 31
0.0000000000000000
  0
LINE
  5
3C3
100
AcDbEntity
  8
A0
  6
CONTINUOUS
 62
3
100
AcDbLine
 10
210.0000000000000
 20
133.4999999999872
 30
0.0000000000000000
 11
330.0000000000000
 21
133.5000000000144
 31
0.0000000000000000
  0
LINE
  5
3C4
100
AcDbEntity
  8
A0
  6
CONTINUOUS
 62
3
100
AcDbLine
 10
209.9999999999999
 20
118.4999999999828
 30
0.0000000000000000
 11
329.9999999999998
 21
118.5000000000070
 31
0.0000000000000000
  0
LINE
  5
3C5
100
AcDbEntity
  8
A0
  6
CONTINUOUS
 62
3
100
AcDbLine
 10
209.9999999999999
 20
102.9999999999797
 30
0.0000000000000000
 11
330.0000000000000
 21
103.0000000000020
 31
0.0000000000000000
  0
LINE
  5
3C6
100
AcDbEntity
  8
A0
  6
CONTINUOUS
 62
3
100
AcDbLine
 10
209.9999999999999
 20
92.49999999997678
 30
0.0000000000000000
 11
330.0000000000001
 21
92.49999999999690
 31
0.0000000000000000
  0
LINE
  5
3C7
100
AcDbEntity
  8
A0
  6
CONTINUOUS
 62
3
100
AcDbLine
 10
210.0000000000002
 20
77.49999999994247
 30
0.0000000000000000
 11
330.0000000000001
 21
77.49999999994252
 31
0.0000000000000000
  0
LINE
  5
3C8
100
AcDbEntity
  8
A0
  6
CONTINUOUS
 62
3
100
AcDbLine
 10
210.0000000000001
 20
56.49999999994242
 30
0.0000000000000000
 11
210.0000000000001
 21
158.9999999999475
 31
0.0000000000000000
  0
LINE
  5
3C9
100
AcDbEntity
  8
A0
  6
CONTINUOUS
 62
3
100
AcDbLine
 10
285.0000000000001
 20
56.49999999994250
 30
0.0000000000000000
 11
285.0000000000001
 21
148.5000000000181
 31
0.0000000000000000
  0
LINE
  5
3CA
100
AcDbEntity
  8
A0
  6
CONTINUOUS
 62
3
100
AcDbLine
 10
330.0000000000001
 20
56.49999999994250
 30
0.0000000000000000
 11
330.0000000000001
 21
158.9999999999475
 31
0.0000000000000000
  0
MTEXT
  5
3CB
100
AcDbEntity
  8
A0
  6
CONTINUOUS
 62
3
100
AcDbMText
 10
213.7500000000018
 20
146.7750005722017
 30
0.0000000000000000
 40
4.650000572204590
 41
0.0000000000000000
 71
     1
 72
     1
  1
{\H0.94x;{許容最大ハンドルトルク}}
 11
1.000000000000000
 21
0.0000000000000000
 31
0.0000000000000000
  7
KNJYOKO
  0
MTEXT
  5
3CC
100
AcDbEntity
  8
A0
  6
CONTINUOUS
 62
3
100
AcDbMText
 10
213.7500000000017
 20
131.7750005721973
 30
0.0000000000000000
 40
4.650000572204590
 41
0.0000000000000000
 71
     1
 72
     1
  1
{\H0.94x;{最大静的把握力}}
 11
1.000000000000000
 21
0.0000000000000000
 31
0.0000000000000000
  7
KNJYOKO
  0
MTEXT
  5
3CD
100
AcDbEntity
  8
A0
  6
CONTINUOUS
 62
3
100
AcDbMText
 10
213.0000000000001
 20
100.1500005721814
 30
0.0000000000000000
 40
4.650000572204590
 41
0.0000000000000000
 71
     1
 72
     1
  1
{\H0.90x;{質量}}
 11
1.000000000000000
 21
0.0000000000000000
 31
0.0000000000000000
  7
KNJYOKO
  0
MTEXT
  5
3CE
100
AcDbEntity
  8
A0
  6
CONTINUOUS
 62
3
100
AcDbMText
 10
213.0000000000001
 20
90.40000057215181
 30
0.0000000000000000
 40
4.650000572204590
 41
0.0000000000000000
 71
     1
 72
     1
  1
{\H0.94x;{慣性モーメント}}
 11
1.000000000000000
 21
0.0000000000000000
 31
0.0000000000000000
  7
KNJYOKO
  0
MTEXT
  5
3CF
100
AcDbEntity
  8
A0
  6
CONTINUOUS
 62
3
100
AcDbMText
 10
214.8519669650477
 20
75.73331386339510
 30
0.0000000000000000
 40
4.650000572204590
 41
0.0000000000000000
 71
     1
 72
     1
  1
{\H0.96x;{把握径}}
 11
1.000000000000000
 21
0.0000000000000000
 31
0.0000000000000000
  7
KNJYOKO
  0
MTEXT
  5
3D0
100
AcDbEntity
  8
A0
  6
CONTINUOUS
 62
3
100
AcDbMText
 10
218.4990010114003
 20
157.2984171922026
 30
0.0000000000000000
 40
7.500000000000000
 41
0.0000000000000000
 71
     1
 72
     1
  1
{\H0.91x;{仕　様}}
 11
1.000000000000000
 21
0.0000000000000000
 31
0.0000000000000000
  7
KNJYOKO
  0
MTEXT
  5
3D1
100
AcDbEntity
  8
A0
  6
CONTINUOUS
 62
3
100
AcDbMText
 10
307.5000000000001
 20
144.4499988555383
 30
0.0000000000000000
 40
4.199998855590820
 41
0.0000000000000000
 71
     1
 72
     1
  1
{\H0.58x;{　　　Ｎ・ｍ}}
 11
1.000000000000000
 21
0.0000000000000000
 31
0.0000000000000000
  7
KNJYOKO
  0
MTEXT
  5
3D2
100
AcDbEntity
  8
A0
  6
CONTINUOUS
 62
3
100
AcDbMText
 10
288.0000000000001
 20
138.4499988555383
 30
0.0000000000000000
 40
4.199998855590820
 41
0.0000000000000000
 71
     1
 72
     1
  1
{\H0.48x;{（}}
 11
1.000000000000000
 21
0.0000000000000000
 31
0.0000000000000000
  7
KNJYOKO
  0
MTEXT
  5
3D3
100
AcDbEntity
  8
A0
  6
CONTINUOUS
 62
3
100
AcDbMText
 10
306.0000000000001
 20
138.4499988555383
 30
0.0000000000000000
 40
4.199998855590820
 41
0.0000000000000000
 71
     1
 72
     1
  1
{\H0.58x;{　ｋｇｆ・ｍ）}}
 11
1.000000000000000
 21
0.0000000000000000
 31
0.0000000000000000
  7
KNJYOKO
  0
MTEXT
  5
3D4
100
AcDbEntity
  8
A0
  6
CONTINUOUS
 62
3
100
AcDbMText
 10
307.5000000000001
 20
98.19999885553813
 30
0.0000000000000000
 40
4.199998855590820
 41
0.0000000000000000
 71
     1
 72
     1
  1
{\H0.58x;{　　　　ｋｇ}}
 11
1.000000000000000
 21
0.0000000000000000
 31
0.0000000000000000
  7
KNJYOKO
  0
MTEXT
  5
3D5
100
AcDbEntity
  8
A0
  6
CONTINUOUS
 62
3
100
AcDbMText
 10
307.5000000000001
 20
85.94999885553804
 30
0.0000000000000000
 40
4.199998855590820
 41
0.0000000000000000
 71
     1
 72
     1
  1
{\H0.64x;{　　kg・m}}
 11
1.000000000000000
 21
0.0000000000000000
 31
0.0000000000000000
  7
KNJYOKO
  0
MTEXT
  5
3D6
100
AcDbEntity
  8
A0
  6
CONTINUOUS
 62
3
100
AcDbMText
 10
307.5000000000001
 20
129.4499988555382
 30
0.0000000000000000
 40
4.199998855590820
 41
0.0000000000000000
 71
     1
 72
     1
  1
{\H0.58x;{　　　　ｋＮ}}
 11
1.000000000000000
 21
0.0000000000000000
 31
0.0000000000000000
  7
KNJYOKO
  0
MTEXT
  5
3D7
100
AcDbEntity
  8
A0
  6
CONTINUOUS
 62
3
100
AcDbMText
 10
288.0000000000001
 20
123.4499988555382
 30
0.0000000000000000
 40
4.199998855590820
 41
0.0000000000000000
 71
     1
 72
     1
  1
{\H0.48x;{（}}
 11
1.000000000000000
 21
0.0000000000000000
 31
0.0000000000000000
  7
KNJYOKO
  0
MTEXT
  5
3D8
100
AcDbEntity
  8
A0
  6
CONTINUOUS
 62
3
100
AcDbMText
 10
306.0000000000001
 20
123.4499988555382
 30
0.0000000000000000
 40
4.199998855590820
 41
0.0000000000000000
 71
     1
 72
     1
  1
{\H0.58x;{　　　ｋｇｆ）}}
 11
1.000000000000000
 21
0.0000000000000000
 31
0.0000000000000000
  7
KNJYOKO
  0
MTEXT
  5
3D9
100
AcDbEntity
  8
A0
  6
CONTINUOUS
 62
3
100
AcDbMText
 10
325.3658189619354
 20
86.33335474223574
 30
0.0000000000000000
 40
3.000000000000000
 41
0.0000000000000000
 71
     1
 72
     1
  1
{\H0.81x;{2}}
 11
1.000000000000000
 21
0.0000000000000000
 31
0.0000000000000000
  7
STANDARD
  0
MTEXT
  5
3DA
100
AcDbEntity
  8
A0
  6
CONTINUOUS
 62
3
100
AcDbMText
 10
257.2487110693668
 20
155.9680102412438
 30
0.0000000000000000
 40
4.649999856948853
 41
0.0000000000000000
 71
     1
 72
     1
  1
{\H0.93x;{SPECIFICATIONS}}
 11
1.000000000000000
 21
0.0000000000000000
 31
0.0000000000000000
  7
STANDARD
  0
MTEXT
  5
3DB
100
AcDbEntity
  8
A0
  6
CONTINUOUS
 62
3
100
AcDbMText
 10
213.7499999999996
 20
139.1249999999872
 30
0.0000000000000000
 40
3.750000000000000
 41
0.0000000000000000
 71
     1
 72
     1
  1
{\H0.62x;{MAX.PERMISSIBLE HANDLE TORQUE}}
 11
1.000000000000000
 21
0.0000000000000000
 31
0.0000000000000000
  7
STANDARD
  0
MTEXT
  5
3DC
100
AcDbEntity
  8
A0
  6
CONTINUOUS
 62
3
100
AcDbMText
 10
213.7499999999996
 20
124.1249999999828
 30
0.0000000000000000
 40
3.750000000000000
 41
0.0000000000000000
 71
     1
 72
     1
  1
{\H0.63x;{MAX STATIC GRIPPING FORCE}}
 11
1.000000000000000
 21
0.0000000000000000
 31
0.0000000000000000
  7
STANDARD
  0
MTEXT
  5
3DD
100
AcDbEntity
  8
A0
  6
CONTINUOUS
 62
3
100
AcDbMText
 10
213.7499999999994
 20
108.6249999999797
 30
0.0000000000000000
 40
3.750000000000000
 41
0.0000000000000000
 71
     1
 72
     1
  1
{\H0.63x;{MAX PREMISSIBLE SPEED}}
 11
1.000000000000000
 21
0.0000000000000000
 31
0.0000000000000000
  7
STANDARD
  0
MTEXT
  5
3DE
100
AcDbEntity
  8
A0
  6
CONTINUOUS
 62
3
100
AcDbMText
 10
211.0529753303742
 20
68.14708709102470
 30
0.0000000000000000
 40
3.750000000000000
 41
0.0000000000000000
 71
     1
 72
     1
  1
{\H0.54x;{GRIPPING RANGE}}
 11
1.000000000000000
 21
0.0000000000000000
 31
0.0000000000000000
  7
STANDARD
  0
MTEXT
  5
3DF
100
AcDbEntity
  8
A0
  6
CONTINUOUS
 62
3
100
AcDbMText
 10
238.3534868830486
 20
100.2231823362447
 30
0.0000000000000000
 40
4.650000572204590
 41
0.0000000000000000
 71
     1
 72
     1
  1
{\H0.91x;{MASS}}
 11
1.000000000000000
 21
0.0000000000000000
 31
0.0000000000000000
  7
STANDARD
  0
MTEXT
  5
3E0
100
AcDbEntity
  8
A0
  6
CONTINUOUS
 62
3
100
AcDbMText
 10
288.0000000000001
 20
87.89999985689607
 30
0.0000000000000000
 40
4.649999856948853
 41
0.0000000000000000
 71
     1
 72
     1
  1
{\H0.84x;{0.009}}
 11
1.000000000000000
 21
0.0000000000000000
 31
0.0000000000000000
  7
STANDARD
  0
MTEXT
  5
3E1
100
AcDbEntity
  8
A0
  6
CONTINUOUS
 62
3
100
AcDbMText
 10
213.0000000000001
 20
84.66576557293772
 30
0.0000000000000000
 40
4.649999856948853
 41
0.0000000000000000
 71
     1
 72
     1
  1
{\H0.71x;{MOMENT OF INERTIA}}
 11
1.000000000000000
 21
0.0000000000000000
 31
0.0000000000000000
  7
STANDARD
  0
LINE
  5
3E2
100
AcDbEntity
  8
WAKU0
  6
CONTINUOUS
 62
3
100
AcDbLine
 10
332.2598978951488
 20
9.929377305826264
 30
0.0000000000000000
 11
502.2598978951488
 21
9.929377305826264
 31
0.0000000000000000
  0
LINE
  5
3E3
100
AcDbEntity
  8
WAKU0
  6
CONTINUOUS
 62
3
100
AcDbLine
 10
332.2598978951488
 20
9.929377305826264
 30
0.0000000000000000
 11
332.2598978951488
 21
-29.07062269417374
 31
0.0000000000000000
  0
LINE
  5
3E4
100
AcDbEntity
  8
WAKU0
  6
CONTINUOUS
 62
3
100
AcDbLine
 10
404.2598978951488
 20
9.929377305826264
 30
0.0000000000000000
 11
404.2598978951488
 21
-29.07062269417374
 31
0.0000000000000000
  0
LINE
  5
3E5
100
AcDbEntity
  8
WAKU0
  6
CONTINUOUS
 62
3
100
AcDbLine
 10
424.2598978951488
 20
9.929377305826264
 30
0.0000000000000000
 11
424.2598978951488
 21
-29.07062269417374
 31
0.0000000000000000
  0
LINE
  5
3E6
100
AcDbEntity
  8
WAKU0
  6
CONTINUOUS
 62
3
100
AcDbLine
 10
436.2598978951488
 20
9.929377305826264
 30
0.0000000000000000
 11
436.2598978951488
 21
-29.07062269417374
 31
0.0000000000000000
  0
LINE
  5
3E7
100
AcDbEntity
  8
WAKU0
  6
CONTINUOUS
 62
3
100
AcDbLine
 10
436.2598978951488
 20
-4.070622694173736
 30
0.0000000000000000
 11
502.2598978951488
 21
-4.070622694173736
 31
0.0000000000000000
  0
LINE
  5
3E8
100
AcDbEntity
  8
WAKU0
  6
CONTINUOUS
 62
3
100
AcDbLine
 10
424.2598978951488
 20
-18.07062269417374
 30
0.0000000000000000
 11
502.2598978951488
 21
-18.07062269417374
 31
0.0000000000000000
  0
LINE
  5
3E9
100
AcDbEntity
  8
WAKU0
  6
CONTINUOUS
 62
3
100
AcDbLine
 10
467.2598978951488
 20
9.929377305826264
 30
0.0000000000000000
 11
467.2598978951488
 21
2.929377305826264
 31
0.0000000000000000
  0
LINE
  5
3EA
100
AcDbEntity
  8
WAKU0
  6
CONTINUOUS
 62
3
100
AcDbLine
 10
479.2598978951488
 20
9.929377305826264
 30
0.0000000000000000
 11
479.2598978951488
 21
2.929377305826264
 31
0.0000000000000000
  0
LINE
  5
3EB
100
AcDbEntity
  8
WAKU0
  6
CONTINUOUS
 62
3
100
AcDbLine
 10
404.2598978951488
 20
-9.570622694173736
 30
0.0000000000000000
 11
424.2598978951488
 21
-9.570622694173736
 31
0.0000000000000000
  0
LINE
  5
3EC
100
AcDbEntity
  8
WAKU0
  6
CONTINUOUS
 62
3
100
AcDbLine
 10
424.2598978951488
 20
2.929377305826264
 30
0.0000000000000000
 11
502.2598978951488
 21
2.929377305826264
 31
0.0000000000000000
  0
LINE
  5
3ED
100
AcDbEntity
  8
WAKU0
  6
CONTINUOUS
 62
3
100
AcDbLine
 10
332.2598978951488
 20
-4.070622694173736
 30
0.0000000000000000
 11
404.2598978951488
 21
-4.070622694173736
 31
0.0000000000000000
  0
LINE
  5
3EE
100
AcDbEntity
  8
WAKU0
  6
CONTINUOUS
 62
3
100
AcDbLine
 10
332.2598978951488
 20
-18.07062269417374
 30
0.0000000000000000
 11
404.2598978951488
 21
-18.07062269417374
 31
0.0000000000000000
  0
LINE
  5
3EF
100
AcDbEntity
  8
WAKU0
  6
CONTINUOUS
 62
3
100
AcDbLine
 10
380.2598978951488
 20
-4.070622694173736
 30
0.0000000000000000
 11
380.2598978951488
 21
-29.07062269417374
 31
0.0000000000000000
  0
LINE
  5
3F0
100
AcDbEntity
  8
WAKU0
  6
CONTINUOUS
 62
3
100
AcDbLine
 10
356.2598978951488
 20
-4.070622694173736
 30
0.0000000000000000
 11
356.2598978951488
 21
-18.07062269417374
 31
0.0000000000000000
  0
LINE
  5
3F1
100
AcDbEntity
  8
WAKU0
  6
CONTINUOUS
 62
3
100
AcDbLine
 10
392.2598978951488
 20
-15.07062269417374
 30
0.0000000000000000
 11
392.2598978951488
 21
-18.07062269417374
 31
0.0000000000000000
  0
LINE
  5
3F2
100
AcDbEntity
  8
WAKU0
  6
CONTINUOUS
 62
3
100
AcDbLine
 10
368.2598978951488
 20
-15.07062269417374
 30
0.0000000000000000
 11
368.2598978951488
 21
-18.07062269417374
 31
0.0000000000000000
  0
LINE
  5
3F3
100
AcDbEntity
  8
WAKU0
  6
CONTINUOUS
 62
3
100
AcDbLine
 10
344.2598978951488
 20
-15.07062269417374
 30
0.0000000000000000
 11
344.2598978951488
 21
-18.07062269417374
 31
0.0000000000000000
  0
LINE
  5
3F4
100
AcDbEntity
  8
WAKU0
  6
CONTINUOUS
 62
3
100
AcDbLine
 10
350.2598978951488
 20
9.929377305826264
 30
0.0000000000000000
 11
350.2598978951488
 21
-4.070622694173736
 31
0.0000000000000000
  0
LINE
  5
3F5
100
AcDbEntity
  8
WAKU0
  6
CONTINUOUS
 62
3
100
AcDbLine
 10
332.2598978951488
 20
3.929377305826264
 30
0.0000000000000000
 11
404.2598978951488
 21
3.929377305826264
 31
0.0000000000000000
  0
LINE
  5
3F6
100
AcDbEntity
  8
WAKU0
  6
HIDDEN
 62
3
100
AcDbLine
 10
452.7598978951488
 20
-18.07062269417374
 30
0.0000000000000000
 11
452.7598978951488
 21
-29.07062269417374
 31
0.0000000000000000
  0
LINE
  5
3F7
100
AcDbEntity
  8
WAKU0
  6
HIDDEN
 62
3
100
AcDbLine
 10
465.1598978951487
 20
-18.07062269417374
 30
0.0000000000000000
 11
465.1598978951487
 21
-29.07062269417374
 31
0.0000000000000000
  0
MTEXT
  5
3F8
100
AcDbEntity
  8
WAKU0
  6
CONTINUOUS
 62
3
100
AcDbMText
 10
436.7418979194973
 20
7.979377258142549
 30
0.0000000000000000
 40
3.099999904632568
 41
0.0000000000000000
 71
     1
 72
     1
  1
{\H0.93x;{SC-5-107}}
 11
1.000000000000000
 21
0.0000000000000000
 31
0.0000000000000000
  7
STANDARD
  0
MTEXT
  5
3F9
100
AcDbEntity
  8
WAKU0
  6
CONTINUOUS
 62
3
100
AcDbMText
 10
445.8548982813869
 20
2.429377305826264
 30
0.0000000000000000
 40
3.000000000000000
 41
0.0000000000000000
 71
     1
 72
     1
  1
{\H0.94x;{スクロールチャック　５\PＳＣＲＯＬＬ　ＣＨＵＣＫ　５}}
 11
1.000000000000000
 21
0.0000000000000000
 31
0.0000000000000000
  7
KNJYOKO
  0
MTEXT
  5
3FA
100
AcDbEntity
  8
WAKU0
  6
CONTINUOUS
 62
3
100
AcDbMText
 10
442.0098978802476
 20
-6.837289424418692
 30
0.0000000000000000
 40
3.099999904632568
 41
0.0000000000000000
 71
     1
 72
     1
  1
{\H0.70x;{ＳＣ－５－１０７　ガイケイ\PＳＣ－５－１０７　ＯＵＴＳＩＤＥ　ＶＩＥＷ}}
 11
1.000000000000000
 21
0.0000000000000000
 31
0.0000000000000000
  7
KNJYOKO
  0
MTEXT
  5
3FB
100
AcDbEntity
  8
WAKU0
  6
CONTINUOUS
 62
3
100
AcDbMText
 10
410.2648977711711
 20
-1.770622741857451
 30
0.0000000000000000
 40
3.099999904632568
 41
0.0000000000000000
 71
     1
 72
     1
  1
{\H0.90x;{1:1}}
 11
1.000000000000000
 21
0.0000000000000000
 31
0.0000000000000000
  7
STANDARD
  0
MTEXT
  5
3FC
100
AcDbEntity
  8
WAKU0
  6
CONTINUOUS
 62
3
100
AcDbMText
 10
466.6598980501208
 20
-20.92062259880630
 30
0.0000000000000000
 40
5.300000190734863
 41
0.0000000000000000
 71
     1
 72
     1
  1
{\H0.90x;{1524}}
 11
1.000000000000000
 21
0.0000000000000000
 31
0.0000000000000000
  7
STANDARD
  0
MTEXT
  5
3FD
100
AcDbEntity
  8
WAKU0
  6
CONTINUOUS
 62
3
100
AcDbMText
 10
454.5598979785953
 20
-20.92062259880630
 30
0.0000000000000000
 40
5.300000190734863
 41
0.0000000000000000
 71
     1
 72
     1
  1
{\H0.87x;{35}}
 11
1.000000000000000
 21
0.0000000000000000
 31
0.0000000000000000
  7
STANDARD
  0
MTEXT
  5
3FE
100
AcDbEntity
  8
WAKU0
  6
CONTINUOUS
 62
3
100
AcDbMText
 10
437.7598980143580
 20
-20.92062259880630
 30
0.0000000000000000
 40
5.300000190734863
 41
0.0000000000000000
 71
     1
 72
     1
  1
{\H0.89x;{61S}}
 11
1.000000000000000
 21
0.0000000000000000
 31
0.0000000000000000
  7
STANDARD
  0
MTEXT
  5
3FF
100
AcDbEntity
  8
WAKU0
  6
CONTINUOUS
 62
3
100
AcDbMText
 10
492.2598979428325
 20
-20.92062259880630
 30
0.0000000000000000
 40
5.300000190734863
 41
0.0000000000000000
 71
     1
 72
     1
  1
{\H0.81x;{1}}
 11
1.000000000000000
 21
0.0000000000000000
 31
0.0000000000000000
  7
STANDARD
  0
MTEXT
  5
400
100
AcDbEntity
  8
WAKU0
  6
CONTINUOUS
 62
3
100
AcDbMText
 10
492.2598979771051
 20
3.779377210458833
 30
0.0000000000000000
 40
5.300000190734863
 41
0.0000000000000000
 71
     7
 72
     1
  1
{\H0.81x;{ }}
 11
1.000000000000000
 21
0.0000000000000000
 31
0.0000000000000000
  7
STANDARD
  0
MTEXT
  5
401
100
AcDbEntity
  8
WAKU0
  6
CONTINUOUS
 62
3
100
AcDbMText
 10
381.6448981836352
 20
-8.070622694173736
 30
0.0000000000000000
 40
3.000000000000000
 41
0.0000000000000000
 71
     7
 72
     1
  1
{\H0.93x;{DRAWN BY}}
 11
1.000000000000000
 21
0.0000000000000000
 31
0.0000000000000000
  7
STANDARD
  0
MTEXT
  5
402
100
AcDbEntity
  8
WAKU0
  6
CONTINUOUS
 62
3
100
AcDbMText
 10
361.4748976901088
 20
-8.120622646490020
 30
0.0000000000000000
 40
3.099999904632568
 41
0.0000000000000000
 71
     7
 72
     1
  1
{\H0.92x;{CHIEF}}
 11
1.000000000000000
 21
0.0000000000000000
 31
0.0000000000000000
  7
STANDARD
  0
MTEXT
  5
403
100
AcDbEntity
  8
WAKU0
  6
CONTINUOUS
 62
3
100
AcDbMText
 10
334.6848976090465
 20
-8.120622646490020
 30
0.0000000000000000
 40
3.099999904632568
 41
0.0000000000000000
 71
     7
 72
     1
  1
{\H0.92x;{MANAGER}}
 11
1.000000000000000
 21
0.0000000000000000
 31
0.0000000000000000
  7
STANDARD
  0
MTEXT
  5
404
100
AcDbEntity
  8
WAKU0
  6
CONTINUOUS
 62
3
100
AcDbMText
 10
336.9198973253284
 20
-22.93728932905126
 30
0.0000000000000000
 40
3.099999904632568
 41
0.0000000000000000
 71
     7
 72
     1
  1
{\H0.93x;{KITAGAWA IRON\PWORKS CO.,LTD.}}
 11
1.000000000000000
 21
0.0000000000000000
 31
0.0000000000000000
  7
STANDARD
  0
MTEXT
  5
405
100
AcDbEntity
  8
WAKU0
  6
CONTINUOUS
 62
3
100
AcDbMText
 10
333.3448981121097
 20
5.429377305826264
 30
0.0000000000000000
 40
3.000000000000000
 41
0.0000000000000000
 71
     7
 72
     1
  1
{\H0.92x;{CAREER}}
 11
1.000000000000000
 21
0.0000000000000000
 31
0.0000000000000000
  7
STANDARD
  0
MTEXT
  5
406
100
AcDbEntity
  8
WAKU0
  6
CONTINUOUS
 62
3
100
AcDbMText
 10
386.8698977306399
 20
-22.12062264649002
 30
0.0000000000000000
 40
3.099999904632568
 41
0.0000000000000000
 71
     7
 72
     1
  1
{\H0.91x;{DATE}}
 11
1.000000000000000
 21
0.0000000000000000
 31
0.0000000000000000
  7
STANDARD
  0
MTEXT
  5
407
100
AcDbEntity
  8
WAKU0
  6
CONTINUOUS
 62
3
100
AcDbMText
 10
406.1598981097255
 20
-14.57062269417374
 30
0.0000000000000000
 40
3.000000000000000
 41
0.0000000000000000
 71
     7
 72
     1
  1
{\H0.63x;{3RD ANGLE}}
 11
1.000000000000000
 21
0.0000000000000000
 31
0.0000000000000000
  7
STANDARD
  0
MTEXT
  5
408
100
AcDbEntity
  8
WAKU0
  6
CONTINUOUS
 62
3
100
AcDbMText
 10
407.4748976901088
 20
4.879377353509980
 30
0.0000000000000000
 40
3.099999904632568
 41
0.0000000000000000
 71
     7
 72
     1
  1
{\H0.92x;{SCALE}}
 11
1.000000000000000
 21
0.0000000000000000
 31
0.0000000000000000
  7
STANDARD
  0
MTEXT
  5
409
100
AcDbEntity
  8
WAKU0
  6
CONTINUOUS
 62
3
100
AcDbMText
 10
497.9598979428325
 20
4.929377305826264
 30
0.0000000000000000
 40
3.000000000000000
 41
0.0000000000000000
 71
     7
 72
     1
  1
{\H0.63x;{kg}}
 11
1.000000000000000
 21
0.0000000000000000
 31
0.0000000000000000
  7
STANDARD
  0
MTEXT
  5
40A
100
AcDbEntity
  8
WAKU0
  6
CONTINUOUS
 62
3
100
AcDbMText
 10
467.8598980381999
 20
4.929377305826264
 30
0.0000000000000000
 40
3.000000000000000
 41
0.0000000000000000
 71
     7
 72
     1
  1
{\H0.63x;{WEIGHT}}
 11
1.000000000000000
 21
0.0000000000000000
 31
0.0000000000000000
  7
STANDARD
  0
MTEXT
  5
40B
100
AcDbEntity
  8
WAKU0
  6
CONTINUOUS
 62
3
100
AcDbMText
 10
426.2648977711711
 20
-22.93728932905126
 30
0.0000000000000000
 40
3.099999904632568
 41
0.0000000000000000
 71
     7
 72
     1
  1
{\H0.90x;{DRW\PNO.}}
 11
1.000000000000000
 21
0.0000000000000000
 31
0.0000000000000000
  7
STANDARD
  0
MTEXT
  5
40C
100
AcDbEntity
  8
WAKU0
  6
CONTINUOUS
 62
3
100
AcDbMText
 10
424.8698977306399
 20
-9.120622646490020
 30
0.0000000000000000
 40
3.099999904632568
 41
0.0000000000000000
 71
     7
 72
     1
  1
{\H0.91x;{NAME}}
 11
1.000000000000000
 21
0.0000000000000000
 31
0.0000000000000000
  7
STANDARD
  0
MTEXT
  5
40D
100
AcDbEntity
  8
WAKU0
  6
CONTINUOUS
 62
3
100
AcDbMText
 10
424.8698977306399
 20
4.879377353509980
 30
0.0000000000000000
 40
3.099999904632568
 41
0.0000000000000000
 71
     7
 72
     1
  1
{\H0.91x;{TYPE}}
 11
1.000000000000000
 21
0.0000000000000000
 31
0.0000000000000000
  7
STANDARD
  0
LINE
  5
40E
100
AcDbEntity
  8
WAKU0
  6
HIDDEN
 62
3
100
AcDbLine
 10
499.4198543695372
 20
-27.22062278954117
 30
0.0000000000000000
 11
489.1999415161277
 21
-27.22062278954117
 31
0.0000000000000000
  0
LINE
  5
40F
100
AcDbEntity
  8
WAKU0
  6
HIDDEN
 62
3
100
AcDbLine
 10
499.4198543695372
 20
-27.22062278954124
 30
0.0000000000000000
 11
494.3098979428339
 21
-18.36991863402472
 31
0.0000000000000000
  0
LINE
  5
410
100
AcDbEntity
  8
WAKU0
  6
HIDDEN
 62
3
100
AcDbLine
 10
494.3098979428339
 20
-18.36991863402472
 30
0.0000000000000000
 11
489.1999415161276
 21
-27.22062278954125
 31
0.0000000000000000
  0
LINE
  5
411
100
AcDbEntity
  8
WAKU0
  6
CONTINUOUS
 62
3
100
AcDbLine
 10
422.7312856705287
 20
-25.29020848154561
 30
0.0000000000000000
 11
422.7312856705287
 21
-19.29020848154559
 31
0.0000000000000000
  0
LINE
  5
412
100
AcDbEntity
  8
WAKU0
  6
CONTINUOUS
 62
3
100
AcDbLine
 10
416.1935920179712
 20
-23.79020848154563
 30
0.0000000000000000
 11
416.1935920179712
 21
-20.79020848154549
 31
0.0000000000000000
  0
LINE
  5
413
100
AcDbEntity
  8
WAKU0
  6
CENTER
 62
12
100
AcDbLine
 10
405.6920784466483
 20
-22.29020848154561
 30
0.0000000000000000
 11
423.5364767916182
 21
-22.29020848154561
 31
0.0000000000000000
  0
LINE
  5
414
100
AcDbEntity
  8
WAKU0
  6
CENTER
 62
12
100
AcDbLine
 10
409.7073544809473
 20
-26.51140606498925
 30
0.0000000000000000
 11
409.7073544809473
 21
-18.17197167267430
 31
0.0000000000000000
  0
LINE
  5
415
100
AcDbEntity
  8
WAKU0
  6
CONTINUOUS
 62
3
100
AcDbLine
 10
416.1935920179713
 20
-20.79020848154576
 30
0.0000000000000000
 11
422.7312856705288
 21
-19.29020848154579
 31
0.0000000000000000
  0
LINE
  5
416
100
AcDbEntity
  8
WAKU0
  6
CONTINUOUS
 62
3
100
AcDbLine
 10
416.1935920179713
 20
-23.79020848154562
 30
0.0000000000000000
 11
422.7312856705287
 21
-25.29020848154562
 31
0.0000000000000000
  0
CIRCLE
  5
417
100
AcDbEntity
  8
WAKU0
  6
CONTINUOUS
 62
3
100
AcDbCircle
 10
409.7073544809473
 20
-22.29020848154560
 30
0.0000000000000000
 40
1.499999999999972
  0
CIRCLE
  5
418
100
AcDbEntity
  8
WAKU0
  6
CONTINUOUS
 62
3
100
AcDbCircle
 10
409.7073544809473
 20
-22.29020848154560
 30
0.0000000000000000
 40
2.999999999999979
  0
ENDSEC
  0
SECTION
  2
OBJECTS
  0
DICTIONARY
  5
46C
100
AcDbDictionary
  3
ACAD_GROUP
350
46D
  3
ACAD_MLINESTYLE
350
46E
  3
DWGPROPS
350
46F
  0
DICTIONARY
  5
46D
102
{ACAD_REACTORS
330
46C
102
}
100
AcDbDictionary
  0
DICTIONARY
  5
46E
102
{ACAD_REACTORS
330
46C
102
}
100
AcDbDictionary
  3
STANDARD
350
470
  0
MLINESTYLE
  5
470
102
{ACAD_REACTORS
330
46E
102
}
100
AcDbMlineStyle
  2
STANDARD
 70
     0
  3

 62
   256
 51
90.00
 52
90.00
 71
     2
 49
0.50
 62
   256
  6
BYLAYER
 49
-0.50
 62
   256
  6
BYLAYER
  0
XRECORD
  5
46F
102
{ACAD_REACTORS
330
46C
102
}
100
AcDbXrecord
280
     1
  1
DWGPROPS COOKIE
  2
ＳＣ－５－１０７　ガイケイ
  3

  4

  6
スクロールチャック　５
  7

  8

  9

300
=
301
=
302
=
303
=
304
=
305
=
306
=
307
=
308
=
309
=
 40
0.000000
 41
0.000000
 42
0.000000
  1

 90
        0
  0
ENDSEC
  0
EOF
