  0
SECTION
  2
HEADER
  9
$ACADVER
  1
AC1014
  9
$DWGCODEPAGE
  3
ANSI_932
  9
$LTSCALE
 40
20.0
  9
$FILLMODE
 70
     1
  9
$CLAYER
  8
0
  9
$PDMODE
 70
     0
  9
$SPLFRAME
 70
     0
  9
$SPLINETYPE
 70
     6
  9
$SPLINESEGS
 70
     8
  9
$DIMASZ
 40
2.000000
  9
$DIMEXE
 40
2.000000
  9
$DIMEXO
 40
0.800000
  9
$DIMTAD
 70
     1
  9
$DIMTIH
 70
     0
  9
$DIMTOH
 70
     0
  9
$DIMTVP
 40
0.500000
  9
$DIMTXT
 40
3.100000
  9
$EXTMIN
 10
0.000000
 20
0.000000
 30
0.000000
  9
$EXTMAX
 10
297.000000
 20
420.000000
 30
0.000000
  9
$MEASUREMENT
 70
  1
  9
$LIMMIN
 10
0.000000
 20
0.000000
  9
$LIMMAX
 10
297.000000
 20
420.000000
  9
$HANDLING
 70
     1
  9
$HANDSEED
  5
4BE
  9
$DIMBLK
  1
_OPEN
  9
$DIMDEC
 70
     3
  9
$DIMAUNIT
 70
     1
  9
$DIMZIN
 70
     8
  9
$DIMTOFL
 70
     1
  0
ENDSEC
  0
SECTION
  2
CLASSES
  0
ENDSEC
  0
SECTION
  2
TABLES
  0
TABLE
  2
VPORT
  5
470
100
AcDbSymbolTable
 70
     1
  0
VPORT
  5
471
100
AcDbSymbolTableRecord
100
AcDbViewportTableRecord
  2
*ACTIVE
 70
     0
 12
648.566339
 22
387.779340
 40
923.661860
 41
1.214145
  0
ENDTAB
  0
TABLE
  2
LTYPE
  5
472
100
AcDbSymbolTable
 70
     4
  0
LTYPE
  5
473
100
AcDbSymbolTableRecord
100
AcDbLinetypeTableRecord
  2
BYBLOCK
 70
     0
  3

 72
    65
 73
     0
 40
0.0
  0
LTYPE
  5
474
100
AcDbSymbolTableRecord
100
AcDbLinetypeTableRecord
  2
BYLAYER
 70
     0
  3

 72
    65
 73
     0
 40
0.0
  0
LTYPE
  5
475
100
AcDbSymbolTableRecord
100
AcDbLinetypeTableRecord
  2
CONTINUOUS
 70
     0
  3
Solid line (NEC CAE2D for Win R12.1 : 2019.02.20)
 72
    65
 73
     0
 40
0.0
  0
LTYPE
  5
476
100
AcDbSymbolTableRecord
100
AcDbLinetypeTableRecord
  2
HIDDEN
 70
     0
  3
__ __ __ __ __ __ __ __ __ __ __ __ __ __
 72
    65
 73
     2
 40
0.375
 49
0.25
 74
     0
 49
-0.125
 74
     0
  0
LTYPE
  5
477
100
AcDbSymbolTableRecord
100
AcDbLinetypeTableRecord
  2
CENTER
 70
     0
  3
____ _ ____ _ ____ _ ____ _ ____ _ ____
 72
    65
 73
     4
 40
2.0
 49
1.25
 74
     0
 49
-0.25
 74
     0
 49
0.25
 74
     0
 49
-0.25
 74
     0
  0
LTYPE
  5
478
100
AcDbSymbolTableRecord
100
AcDbLinetypeTableRecord
  2
PHANTOM
 70
     0
  3
______  __  __  ______  __  __  ______ 
 72
    65
 73
     6
 40
2.5
 49
1.25
 74
     0
 49
-0.25
 74
     0
 49
0.25
 74
     0
 49
-0.25
 74
     0
 49
0.25
 74
     0
 49
-0.25
 74
     0
  0
ENDTAB
  0
TABLE
  2
LAYER
  5
479
100
AcDbSymbolTable
 70
     9
  0
LAYER
  5
47A
100
AcDbSymbolTableRecord
100
AcDbLayerTableRecord
  2
0
 70
     0
 62
     7
  6
CONTINUOUS
  0
LAYER
  5
47B
100
AcDbSymbolTableRecord
100
AcDbLayerTableRecord
  2
MAIN0
 70
     0
 62
     7
  6
CONTINUOUS
  0
LAYER
  5
47C
100
AcDbSymbolTableRecord
100
AcDbLayerTableRecord
  2
MAIN1
 70
     0
 62
     7
  6
CONTINUOUS
  0
LAYER
  5
47D
100
AcDbSymbolTableRecord
100
AcDbLayerTableRecord
  2
MAIN1023
 70
     0
 62
    16
  6
CONTINUOUS
  0
LAYER
  5
47E
100
AcDbSymbolTableRecord
100
AcDbLayerTableRecord
  2
A0
 70
     0
 62
     7
  6
CONTINUOUS
  0
LAYER
  5
47F
100
AcDbSymbolTableRecord
100
AcDbLayerTableRecord
  2
A1
 70
     0
 62
     7
  6
CONTINUOUS
  0
LAYER
  5
480
100
AcDbSymbolTableRecord
100
AcDbLayerTableRecord
  2
A1023
 70
     0
 62
    16
  6
CONTINUOUS
  0
LAYER
  5
481
100
AcDbSymbolTableRecord
100
AcDbLayerTableRecord
  2
WAKU0
 70
     0
 62
     7
  6
CONTINUOUS
  0
LAYER
  5
482
100
AcDbSymbolTableRecord
100
AcDbLayerTableRecord
  2
WAKU1023
 70
     0
 62
    16
  6
CONTINUOUS
  0
ENDTAB
  0
TABLE
  2
STYLE
  5
483
100
AcDbSymbolTable
 70
     4
  0
STYLE
  5
484
100
AcDbSymbolTableRecord
100
AcDbTextStyleTableRecord
  2
STANDARD
 70
    64
 40
0.0
 41
1.0
 50
0.0
 71
     0
 42
3.099999904632568
  3
TXT
  4

  0
STYLE
  5
485
100
AcDbSymbolTableRecord
100
AcDbTextStyleTableRecord
  2
ANKTATE
 70
    68
 40
0.0
 41
1.0
 50
0.0
 71
     0
 42
3.099999904632568
  3
TXT
  4

  0
STYLE
  5
38A
100
AcDbSymbolTableRecord
100
AcDbTextStyleTableRecord
  2
KNJYOKO
 70
    64
 40
0.0
 41
1.0
 50
0.0
 71
     0
 42
3.099999904632568
  3
TXT
  4
BIGFONT
  0
STYLE
  5
486
100
AcDbSymbolTableRecord
100
AcDbTextStyleTableRecord
  2
KNJTATE
 70
    68
 40
0.0
 41
1.0
 50
0.0
 71
     0
 42
3.099999904632568
  3
TXT
  4
BIGFONT
  0
ENDTAB
  0
TABLE
  2
VIEW
  5
487
100
AcDbSymbolTable
 70
     0
  0
ENDTAB
  0
TABLE
  2
UCS
  5
488
100
AcDbSymbolTable
 70
     0
  0
ENDTAB
  0
TABLE
  2
APPID
  5
489
100
AcDbSymbolTable
 70
     1
  0
APPID
  5
48A
100
AcDbSymbolTableRecord
100
AcDbRegAppTableRecord
  2
ACAD
 70
     0
  0
ENDTAB
  0
TABLE
  2
DIMSTYLE
  5
48B
100
AcDbSymbolTable
 70
     1
  0
DIMSTYLE
105
48C
100
AcDbSymbolTableRecord
100
AcDbDimStyleTableRecord
  2
STANDARD
 70
     0
 41
2.000000
 44
2.000000
 42
0.800000
145
0.661290
140
3.100000
144
1.000000
146
0.903226
340
484
  0
DIMSTYLE
105
48D
100
AcDbSymbolTableRecord
100
AcDbDimStyleTableRecord
  2
MAIN001
 70
     0
 41
6.000000
 44
6.000000
 42
2.400000
145
0.553763
140
9.300000
144
1.000000
146
0.903226
 77
     1
 73
     0
 74
     0
271
     3
275
     1
 78
     8
172
     1
340
484
  0
DIMSTYLE
105
48E
100
AcDbSymbolTableRecord
100
AcDbDimStyleTableRecord
  2
A002
 70
     0
 41
3.000000
 44
3.000000
 42
1.200000
145
0.607527
140
4.650000
144
1.000000
146
0.903226
 77
     1
 73
     0
 74
     0
271
     3
275
     1
 78
     8
172
     1
340
484
  0
DIMSTYLE
105
48F
100
AcDbSymbolTableRecord
100
AcDbDimStyleTableRecord
  2
WAKU003
 70
     0
 41
2.000000
 44
2.000000
 42
0.800000
145
0.661290
140
3.100000
144
1.000000
146
0.903226
 77
     1
 73
     0
 74
     0
271
     3
275
     1
 78
     8
172
     1
340
484
  0
ENDTAB
  0
TABLE
  2
BLOCK_RECORD
  5
490
100
AcDbSymbolTable
 70
    46
  0
BLOCK_RECORD
  5
491
100
AcDbSymbolTableRecord
100
AcDbBlockTableRecord
  2
*MODEL_SPACE
  0
BLOCK_RECORD
  5
492
100
AcDbSymbolTableRecord
100
AcDbBlockTableRecord
  2
*PAPER_SPACE
  0
BLOCK_RECORD
  5
1
100
AcDbSymbolTableRecord
100
AcDbBlockTableRecord
  2
_NONE
  0
BLOCK_RECORD
  5
4
100
AcDbSymbolTableRecord
100
AcDbBlockTableRecord
  2
_CLOSED
  0
BLOCK_RECORD
  5
B
100
AcDbSymbolTableRecord
100
AcDbBlockTableRecord
  2
_DOT
  0
BLOCK_RECORD
  5
13
100
AcDbSymbolTableRecord
100
AcDbBlockTableRecord
  2
_OPEN
  0
BLOCK_RECORD
  5
19
100
AcDbSymbolTableRecord
100
AcDbBlockTableRecord
  2
_ORIGIN
  0
BLOCK_RECORD
  5
1E
100
AcDbSymbolTableRecord
100
AcDbBlockTableRecord
  2
_OPEN30
  0
BLOCK_RECORD
  5
24
100
AcDbSymbolTableRecord
100
AcDbBlockTableRecord
  2
_BOXFILLED
  0
BLOCK_RECORD
  5
29
100
AcDbSymbolTableRecord
100
AcDbBlockTableRecord
  2
_BOXBLANK
  0
BLOCK_RECORD
  5
31
100
AcDbSymbolTableRecord
100
AcDbBlockTableRecord
  2
_OBLIQUE
  0
BLOCK_RECORD
  5
35
100
AcDbSymbolTableRecord
100
AcDbBlockTableRecord
  2
_OPEN90
  0
BLOCK_RECORD
  5
3B
100
AcDbSymbolTableRecord
100
AcDbBlockTableRecord
  2
_CLOSEDBLANK
  0
BLOCK_RECORD
  5
41
100
AcDbSymbolTableRecord
100
AcDbBlockTableRecord
  2
_DOTBLANK
  0
BLOCK_RECORD
  5
493
100
AcDbSymbolTableRecord
100
AcDbBlockTableRecord
  2
*D0
  0
BLOCK_RECORD
  5
494
100
AcDbSymbolTableRecord
100
AcDbBlockTableRecord
  2
*D1
  0
BLOCK_RECORD
  5
495
100
AcDbSymbolTableRecord
100
AcDbBlockTableRecord
  2
*D2
  0
BLOCK_RECORD
  5
496
100
AcDbSymbolTableRecord
100
AcDbBlockTableRecord
  2
*D3
  0
BLOCK_RECORD
  5
497
100
AcDbSymbolTableRecord
100
AcDbBlockTableRecord
  2
*D4
  0
BLOCK_RECORD
  5
498
100
AcDbSymbolTableRecord
100
AcDbBlockTableRecord
  2
*D5
  0
BLOCK_RECORD
  5
499
100
AcDbSymbolTableRecord
100
AcDbBlockTableRecord
  2
*D6
  0
BLOCK_RECORD
  5
49A
100
AcDbSymbolTableRecord
100
AcDbBlockTableRecord
  2
*D7
  0
BLOCK_RECORD
  5
49B
100
AcDbSymbolTableRecord
100
AcDbBlockTableRecord
  2
*D8
  0
BLOCK_RECORD
  5
49C
100
AcDbSymbolTableRecord
100
AcDbBlockTableRecord
  2
*D9
  0
BLOCK_RECORD
  5
49D
100
AcDbSymbolTableRecord
100
AcDbBlockTableRecord
  2
*D10
  0
BLOCK_RECORD
  5
49E
100
AcDbSymbolTableRecord
100
AcDbBlockTableRecord
  2
*D11
  0
BLOCK_RECORD
  5
49F
100
AcDbSymbolTableRecord
100
AcDbBlockTableRecord
  2
*D12
  0
BLOCK_RECORD
  5
4A0
100
AcDbSymbolTableRecord
100
AcDbBlockTableRecord
  2
*D13
  0
BLOCK_RECORD
  5
4A1
100
AcDbSymbolTableRecord
100
AcDbBlockTableRecord
  2
*D14
  0
BLOCK_RECORD
  5
4A2
100
AcDbSymbolTableRecord
100
AcDbBlockTableRecord
  2
*D15
  0
BLOCK_RECORD
  5
4A3
100
AcDbSymbolTableRecord
100
AcDbBlockTableRecord
  2
*D16
  0
BLOCK_RECORD
  5
4A4
100
AcDbSymbolTableRecord
100
AcDbBlockTableRecord
  2
*D17
  0
BLOCK_RECORD
  5
4A5
100
AcDbSymbolTableRecord
100
AcDbBlockTableRecord
  2
D18
  0
BLOCK_RECORD
  5
4A6
100
AcDbSymbolTableRecord
100
AcDbBlockTableRecord
  2
D19
  0
BLOCK_RECORD
  5
4A7
100
AcDbSymbolTableRecord
100
AcDbBlockTableRecord
  2
*D20
  0
BLOCK_RECORD
  5
4A8
100
AcDbSymbolTableRecord
100
AcDbBlockTableRecord
  2
*D21
  0
BLOCK_RECORD
  5
4A9
100
AcDbSymbolTableRecord
100
AcDbBlockTableRecord
  2
*D22
  0
BLOCK_RECORD
  5
4AA
100
AcDbSymbolTableRecord
100
AcDbBlockTableRecord
  2
*D23
  0
BLOCK_RECORD
  5
4AB
100
AcDbSymbolTableRecord
100
AcDbBlockTableRecord
  2
*D24
  0
BLOCK_RECORD
  5
4AC
100
AcDbSymbolTableRecord
100
AcDbBlockTableRecord
  2
*D25
  0
BLOCK_RECORD
  5
4AD
100
AcDbSymbolTableRecord
100
AcDbBlockTableRecord
  2
*D26
  0
BLOCK_RECORD
  5
4AE
100
AcDbSymbolTableRecord
100
AcDbBlockTableRecord
  2
*D27
  0
BLOCK_RECORD
  5
4AF
100
AcDbSymbolTableRecord
100
AcDbBlockTableRecord
  2
*D28
  0
BLOCK_RECORD
  5
4B0
100
AcDbSymbolTableRecord
100
AcDbBlockTableRecord
  2
*D29
  0
BLOCK_RECORD
  5
4B1
100
AcDbSymbolTableRecord
100
AcDbBlockTableRecord
  2
*D30
  0
BLOCK_RECORD
  5
4B2
100
AcDbSymbolTableRecord
100
AcDbBlockTableRecord
  2
*D31
  0
BLOCK_RECORD
  5
4B3
100
AcDbSymbolTableRecord
100
AcDbBlockTableRecord
  2
*D32
  0
BLOCK_RECORD
  5
4B4
100
AcDbSymbolTableRecord
100
AcDbBlockTableRecord
  2
*D33
  0
ENDTAB
  0
ENDSEC
  0
SECTION
  2
BLOCKS
  0
BLOCK
  5
4B5
100
AcDbEntity
  8
0
100
AcDbBlockBegin
  2
*MODEL_SPACE
 70
     0
 10
0.0
 20
0.0
 30
0.0
  3
*MODEL_SPACE
  1

  0
ENDBLK
  5
4B6
100
AcDbEntity
  8
0
100
AcDbBlockEnd
  0
BLOCK
  5
4B7
100
AcDbEntity
  8
0
100
AcDbBlockBegin
  2
*PAPER_SPACE
 70
     0
 10
0.0
 20
0.0
 30
0.0
  3
*PAPER_SPACE
  1

  0
ENDBLK
  5
4B8
100
AcDbEntity
  8
0
100
AcDbBlockEnd
  0
BLOCK
  5
2
100
AcDbEntity
  8
0
100
AcDbBlockBegin
  2
_NONE
 70
     0
 10
0.0
 20
0.0
 30
0.0
  3
_NONE
  1

  0
ENDBLK
  5
3
100
AcDbEntity
  8
0
100
AcDbBlockEnd
  0
BLOCK
  5
5
100
AcDbEntity
  8
0
100
AcDbBlockBegin
  2
_CLOSED
 70
     0
 10
0.0
 20
0.0
 30
0.0
  3
_CLOSED
  1

  0
LINE
  5
6
100
AcDbEntity
  8
0
  6
BYBLOCK
 62
     0
100
AcDbLine
 10
-1.0
 20
0.166667
 30
0.0
 11
0.0
 21
0.0
 31
0.0
  0
LINE
  5
7
100
AcDbEntity
  8
0
  6
BYBLOCK
 62
     0
100
AcDbLine
 10
0.0
 20
0.0
 30
0.0
 11
-1.0
 21
-0.166667
 31
0.0
  0
LINE
  5
8
100
AcDbEntity
  8
0
  6
BYBLOCK
 62
     0
100
AcDbLine
 10
-1.0
 20
0.166667
 30
0.0
 11
-1.0
 21
-0.166667
 31
0.0
  0
LINE
  5
9
100
AcDbEntity
  8
0
  6
BYBLOCK
 62
     0
100
AcDbLine
 10
0.0
 20
0.0
 30
0.0
 11
-1.0
 21
0.0
 31
0.0
  0
ENDBLK
  5
A
100
AcDbEntity
  8
0
100
AcDbBlockEnd
  0
BLOCK
  5
C
100
AcDbEntity
  8
0
100
AcDbBlockBegin
  2
_DOT
 70
     0
 10
0.0
 20
0.0
 30
0.0
  3
_DOT
  1

  0
POLYLINE
  5
D
100
AcDbEntity
  8
0
  6
BYBLOCK
 62
     0
100
AcDb2dPolyline
 66
     1
 10
0.0
 20
0.0
 30
0.0
 70
     1
 40
0.5
 41
0.5
  0
VERTEX
  5
E
100
AcDbEntity
  8
0
  6
BYBLOCK
 62
     0
100
AcDbVertex
100
AcDb2dVertex
 10
-0.25
 20
0.0
 30
0.0
 42
1.0
  0
VERTEX
  5
F
100
AcDbEntity
  8
0
  6
BYBLOCK
 62
     0
100
AcDbVertex
100
AcDb2dVertex
 10
0.25
 20
0.0
 30
0.0
 42
1.0
  0
SEQEND
  5
10
100
AcDbEntity
  8
0
  6
BYBLOCK
 62
     0
  0
LINE
  5
11
100
AcDbEntity
  8
0
  6
BYBLOCK
 62
     0
100
AcDbLine
 10
-0.5
 20
0.0
 30
0.0
 11
-1.0
 21
0.0
 31
0.0
  0
ENDBLK
  5
12
100
AcDbEntity
  8
0
100
AcDbBlockEnd
  0
BLOCK
  5
14
100
AcDbEntity
  8
0
100
AcDbBlockBegin
  2
_OPEN
 70
     0
 10
0.0
 20
0.0
 30
0.0
  3
_OPEN
  1

  0
LINE
  5
15
100
AcDbEntity
  8
0
  6
BYBLOCK
 62
     0
100
AcDbLine
 10
-1.0
 20
0.166667
 30
0.0
 11
0.0
 21
0.0
 31
0.0
  0
LINE
  5
16
100
AcDbEntity
  8
0
  6
BYBLOCK
 62
     0
100
AcDbLine
 10
0.0
 20
0.0
 30
0.0
 11
-1.0
 21
-0.166667
 31
0.0
  0
LINE
  5
17
100
AcDbEntity
  8
0
  6
BYBLOCK
 62
     0
100
AcDbLine
 10
0.0
 20
0.0
 30
0.0
 11
-1.0
 21
0.0
 31
0.0
  0
ENDBLK
  5
18
100
AcDbEntity
  8
0
100
AcDbBlockEnd
  0
BLOCK
  5
1A
100
AcDbEntity
  8
0
100
AcDbBlockBegin
  2
_ORIGIN
 70
     0
 10
0.0
 20
0.0
 30
0.0
  3
_ORIGIN
  1

  0
CIRCLE
  5
1B
100
AcDbEntity
  8
0
  6
BYBLOCK
 62
     0
100
AcDbCircle
 10
0.0
 20
0.0
 30
0.0
 40
0.5
  0
LINE
  5
1C
100
AcDbEntity
  8
0
  6
BYBLOCK
 62
     0
100
AcDbLine
 10
0.0
 20
0.0
 30
0.0
 11
-1.0
 21
0.0
 31
0.0
  0
ENDBLK
  5
1D
100
AcDbEntity
  8
0
100
AcDbBlockEnd
  0
BLOCK
  5
1F
100
AcDbEntity
  8
0
100
AcDbBlockBegin
  2
_OPEN30
 70
     0
 10
0.0
 20
0.0
 30
0.0
  3
_OPEN30
  1

  0
LINE
  5
20
100
AcDbEntity
  8
0
  6
BYBLOCK
 62
     0
100
AcDbLine
 10
-1.0
 20
0.267949
 30
0.0
 11
0.0
 21
0.0
 31
0.0
  0
LINE
  5
21
100
AcDbEntity
  8
0
  6
BYBLOCK
 62
     0
100
AcDbLine
 10
0.0
 20
0.0
 30
0.0
 11
-1.0
 21
-0.267949
 31
0.0
  0
LINE
  5
22
100
AcDbEntity
  8
0
  6
BYBLOCK
 62
     0
100
AcDbLine
 10
0.0
 20
0.0
 30
0.0
 11
-1.0
 21
0.0
 31
0.0
  0
ENDBLK
  5
23
100
AcDbEntity
  8
0
100
AcDbBlockEnd
  0
BLOCK
  5
25
100
AcDbEntity
  8
0
100
AcDbBlockBegin
  2
_BOXFILLED
 70
     0
 10
0.0
 20
0.0
 30
0.0
  3
_BOXFILLED
  1

  0
SOLID
  5
26
100
AcDbEntity
  8
0
  6
BYBLOCK
 62
     0
100
AcDbTrace
 10
-0.5
 20
0.5
 30
0.0
 11
0.5
 21
0.5
 31
0.0
 12
-0.5
 22
-0.5
 32
0.0
 13
0.5
 23
-0.5
 33
0.0
  0
LINE
  5
27
100
AcDbEntity
  8
0
  6
BYBLOCK
 62
     0
100
AcDbLine
 10
-0.5
 20
0.0
 30
0.0
 11
-1.0
 21
0.0
 31
0.0
  0
ENDBLK
  5
28
100
AcDbEntity
  8
0
100
AcDbBlockEnd
  0
BLOCK
  5
2A
100
AcDbEntity
  8
0
100
AcDbBlockBegin
  2
_BOXBLANK
 70
     0
 10
0.0
 20
0.0
 30
0.0
  3
_BOXBLANK
  1

  0
LINE
  5
2B
100
AcDbEntity
  8
0
  6
BYBLOCK
 62
     0
100
AcDbLine
 10
-0.5
 20
-0.5
 30
0.0
 11
0.5
 21
-0.5
 31
0.0
  0
LINE
  5
2C
100
AcDbEntity
  8
0
  6
BYBLOCK
 62
     0
100
AcDbLine
 10
0.5
 20
-0.5
 30
0.0
 11
0.5
 21
0.5
 31
0.0
  0
LINE
  5
2D
100
AcDbEntity
  8
0
  6
BYBLOCK
 62
     0
100
AcDbLine
 10
0.5
 20
0.5
 30
0.0
 11
-0.5
 21
0.5
 31
0.0
  0
LINE
  5
2E
100
AcDbEntity
  8
0
  6
BYBLOCK
 62
     0
100
AcDbLine
 10
-0.5
 20
0.5
 30
0.0
 11
-0.5
 21
-0.5
 31
0.0
  0
LINE
  5
2F
100
AcDbEntity
  8
0
  6
BYBLOCK
 62
     0
100
AcDbLine
 10
-0.5
 20
0.0
 30
0.0
 11
-1.0
 21
0.0
 31
0.0
  0
ENDBLK
  5
30
100
AcDbEntity
  8
0
100
AcDbBlockEnd
  0
BLOCK
  5
32
100
AcDbEntity
  8
0
100
AcDbBlockBegin
  2
_OBLIQUE
 70
     0
 10
0.0
 20
0.0
 30
0.0
  3
_OBLIQUE
  1

  0
LINE
  5
33
100
AcDbEntity
  8
0
  6
BYBLOCK
 62
     0
100
AcDbLine
 10
-0.5
 20
-0.5
 30
0.0
 11
0.5
 21
0.5
 31
0.0
  0
ENDBLK
  5
34
100
AcDbEntity
  8
0
100
AcDbBlockEnd
  0
BLOCK
  5
36
100
AcDbEntity
  8
0
100
AcDbBlockBegin
  2
_OPEN90
 70
     0
 10
0.0
 20
0.0
 30
0.0
  3
_OPEN90
  1

  0
LINE
  5
37
100
AcDbEntity
  8
0
  6
BYBLOCK
 62
     0
100
AcDbLine
 10
-0.5
 20
0.5
 30
0.0
 11
0.0
 21
0.0
 31
0.0
  0
LINE
  5
38
100
AcDbEntity
  8
0
  6
BYBLOCK
 62
     0
100
AcDbLine
 10
0.0
 20
0.0
 30
0.0
 11
-0.5
 21
-0.5
 31
0.0
  0
LINE
  5
39
100
AcDbEntity
  8
0
  6
BYBLOCK
 62
     0
100
AcDbLine
 10
0.0
 20
0.0
 30
0.0
 11
-1.0
 21
0.0
 31
0.0
  0
ENDBLK
  5
3A
100
AcDbEntity
  8
0
100
AcDbBlockEnd
  0
BLOCK
  5
3C
100
AcDbEntity
  8
0
100
AcDbBlockBegin
  2
_CLOSEDBLANK
 70
     0
 10
0.0
 20
0.0
 30
0.0
  3
_CLOSEDBLANK
  1

  0
LINE
  5
3D
100
AcDbEntity
  8
0
  6
BYBLOCK
 62
     0
100
AcDbLine
 10
-1.0
 20
0.1666666666666666
 30
0.0
 11
0.0
 21
0.0
 31
0.0
  0
LINE
  5
3E
100
AcDbEntity
  8
0
  6
BYBLOCK
 62
     0
100
AcDbLine
 10
0.0
 20
0.0
 30
0.0
 11
-1.0
 21
-0.1666666666666666
 31
0.0
  0
LINE
  5
3F
100
AcDbEntity
  8
0
  6
BYBLOCK
 62
     0
100
AcDbLine
 10
-1.0
 20
0.1666666666666666
 30
0.0
 11
-1.0
 21
-0.1666666666666666
 31
0.0
  0
ENDBLK
  5
40
100
AcDbEntity
  8
0
100
AcDbBlockEnd
  0
BLOCK
  5
42
100
AcDbEntity
  8
0
100
AcDbBlockBegin
  2
_DOTBLANK
 70
     0
 10
0.0
 20
0.0
 30
0.0
  3
_DOTBLANK
  1

  0
CIRCLE
  5
43
100
AcDbEntity
  8
0
  6
BYBLOCK
 62
     0
100
AcDbCircle
 10
0.0
 20
0.0
 30
0.0
 40
0.5
  0
LINE
  5
44
100
AcDbEntity
  8
0
  6
BYBLOCK
 62
     0
100
AcDbLine
 10
-0.5
 20
0.0
 30
0.0
 11
-1.0
 21
0.0
 31
0.0
  0
ENDBLK
  5
45
100
AcDbEntity
  8
0
100
AcDbBlockEnd
  0
BLOCK
  5
1AD
100
AcDbEntity
  8
MAIN0
  6
CONTINUOUS
 62
3
100
AcDbBlockBegin
  2
*D0
 70
    65
 10
0.0
 20
0.0
 30
0.0
  0
LINE
  5
1AE
100
AcDbEntity
  8
MAIN0
  6
BYBLOCK
 62
0
100
AcDbLine
 10
1054.269201548496
 20
554.1727633798701
 30
0.0000000000000000
 11
1040.415660462644
 21
540.4494474765395
 31
0.0000000000000000
  0
INSERT
  5
1AF
100
AcDbEntity
  8
MAIN0
  6
BYBLOCK
 62
0
100
AcDbBlockReference
  2
_OPEN
 10
1054.269201548496
 20
554.1727633798701
 30
0.0000000000000000
 41
6.000000000000000
 42
6.000000000000000
 43
6.000000000000000
 50
224.7294362484340
  0
INSERT
  5
1B0
100
AcDbEntity
  8
MAIN0
  6
BYBLOCK
 62
0
100
AcDbBlockReference
  2
_OPEN
 10
1040.415660462644
 20
540.4494474765395
 30
0.0000000000000000
 41
6.000000000000000
 42
6.000000000000000
 43
6.000000000000000
 50
44.72943624843401
  0
LINE
  5
1B1
100
AcDbEntity
  8
MAIN0
  6
BYBLOCK
 62
0
100
AcDbLine
 10
1058.531829574912
 20
558.3953221193563
 30
0.0000000000000000
 11
1080.602247467097
 21
580.2582750622885
 31
0.0000000000000000
  0
LINE
  5
1B2
100
AcDbEntity
  8
MAIN0
  6
BYBLOCK
 62
0
100
AcDbLine
 10
1036.153032436228
 20
536.2268887370531
 30
0.0000000000000000
 11
1034.021718423020
 21
534.1156093673098
 31
0.0000000000000000
  0
MTEXT
  5
1B3
100
AcDbEntity
  8
MAIN0
  6
BYBLOCK
 62
0
100
AcDbMText
 10
1065.724120900933
 20
574.1766362102018
 30
0.0000000000000000
 40
9.299999713897705
 41
0.0000000000000000
 71
     5
 72
     1
  1
\A1;\U+220519.5
 11
0.7104380044026755
 21
0.7037597899143884
 31
0.0000000000000000
  7
STANDARD
  0
ENDBLK
  5
1B4
100
AcDbEntity
  8
MAIN0
  6
CONTINUOUS
 62
3
100
AcDbBlockEnd
  0
BLOCK
  5
1B6
100
AcDbEntity
  8
MAIN0
  6
CONTINUOUS
 62
3
100
AcDbBlockBegin
  2
*D1
 70
    65
 10
0.0
 20
0.0
 30
0.0
  0
LINE
  5
1B7
100
AcDbEntity
  8
MAIN0
  6
BYBLOCK
 62
0
100
AcDbLine
 10
1058.748040711281
 20
546.5120974402789
 30
0.0000000000000000
 11
1089.012919787234
 21
516.2472183642597
 31
0.0000000000000000
  0
LINE
  5
1B8
100
AcDbEntity
  8
MAIN0
  6
BYBLOCK
 62
0
100
AcDbLine
 10
1084.770279100119
 20
520.4898590513835
 30
0.0000000000000000
 11
1074.163677382310
 21
509.8832573335974
 31
0.0000000000000000
  0
INSERT
  5
1B9
100
AcDbEntity
  8
MAIN0
  6
BYBLOCK
 62
0
100
AcDbBlockReference
  2
_OPEN
 10
1084.770279100119
 20
520.4898590513835
 30
0.0000000000000000
 41
6.000000000000000
 42
6.000000000000000
 43
6.000000000000000
 50
224.9999999999380
  0
INSERT
  5
1BA
100
AcDbEntity
  8
MAIN0
  6
BYBLOCK
 62
0
100
AcDbBlockReference
  2
_OPEN
 10
1074.163677382310
 20
509.8832573335974
 30
0.0000000000000000
 41
6.000000000000000
 42
6.000000000000000
 43
6.000000000000000
 50
44.99999999993798
  0
LINE
  5
1BB
100
AcDbEntity
  8
MAIN0
  6
BYBLOCK
 62
0
100
AcDbLine
 10
1089.012919787243
 20
524.7324997384982
 30
0.0000000000000000
 11
1111.820526789491
 21
547.5401067406962
 31
0.0000000000000000
  0
LINE
  5
1BC
100
AcDbEntity
  8
MAIN0
  6
BYBLOCK
 62
0
100
AcDbLine
 10
1069.921036695186
 20
505.6406166464827
 30
0.0000000000000000
 11
1067.799716351624
 21
503.5192963029254
 31
0.0000000000000000
  0
LINE
  5
1BD
100
AcDbEntity
  8
MAIN0
  6
BYBLOCK
 62
0
100
AcDbLine
 10
1048.141438993472
 20
535.9054957224923
 30
0.0000000000000000
 11
1078.406318069425
 21
505.6406166464736
 31
0.0000000000000000
  0
MTEXT
  5
1BE
100
AcDbEntity
  8
MAIN0
  6
BYBLOCK
 62
0
100
AcDbMText
 10
1096.387921348566
 20
540.8049145060847
 30
0.0000000000000000
 40
9.299999713897705
 41
0.0000000000000000
 71
     5
 72
     1
  1
\A1;15\H0.903226x;\S 0^ -0.1;
 11
0.7071067811873169
 21
0.7071067811857782
 31
0.0000000000000000
  7
STANDARD
  0
ENDBLK
  5
1BF
100
AcDbEntity
  8
MAIN0
  6
CONTINUOUS
 62
3
100
AcDbBlockEnd
  0
BLOCK
  5
1E3
100
AcDbEntity
  8
MAIN0
  6
CONTINUOUS
 62
3
100
AcDbBlockBegin
  2
*D2
 70
    65
 10
0.0
 20
0.0
 30
0.0
  0
LINE
  5
1E4
100
AcDbEntity
  8
MAIN0
  6
BYBLOCK
 62
0
100
AcDbLine
 10
1197.342431005747
 20
721.7826657185211
 30
0.0000000000000000
 11
1197.342431005733
 21
793.3111054282110
 31
0.0000000000000000
  0
LINE
  5
1E5
100
AcDbEntity
  8
MAIN0
  6
BYBLOCK
 62
0
100
AcDbLine
 10
1191.342431005734
 20
787.3111054282098
 30
0.0000000000000000
 11
903.3424310057380
 21
787.3111054281525
 31
0.0000000000000000
  0
INSERT
  5
1E6
100
AcDbEntity
  8
MAIN0
  6
BYBLOCK
 62
0
100
AcDbBlockReference
  2
_OPEN
 10
1197.342431005734
 20
787.3111054282110
 30
0.0000000000000000
 41
6.000000000000000
 42
6.000000000000000
 43
6.000000000000000
 50
1.136868377216160e-011
  0
INSERT
  5
1E7
100
AcDbEntity
  8
MAIN0
  6
BYBLOCK
 62
0
100
AcDbBlockReference
  2
_OPEN
 10
897.3424310057380
 20
787.3111054281512
 30
0.0000000000000000
 41
6.000000000000000
 42
6.000000000000000
 43
6.000000000000000
 50
180.0000000000114
  0
LINE
  5
1E8
100
AcDbEntity
  8
MAIN0
  6
BYBLOCK
 62
0
100
AcDbLine
 10
897.3424310057511
 20
721.7826657184658
 30
0.0000000000000000
 11
897.3424310057369
 21
793.3111054281513
 31
0.0000000000000000
  0
MTEXT
  5
1E9
100
AcDbEntity
  8
MAIN0
  6
BYBLOCK
 62
0
100
AcDbMText
 10
1047.342431005736
 20
792.4611052851300
 30
0.0000000000000000
 40
9.299999713897705
 41
0.0000000000000000
 71
     5
 72
     1
  1
\A1;450
 11
1.000000000000000
 21
0.0000000000000000
 31
0.0000000000000000
  7
STANDARD
  0
ENDBLK
  5
1EA
100
AcDbEntity
  8
MAIN0
  6
CONTINUOUS
 62
3
100
AcDbBlockEnd
  0
BLOCK
  5
1EC
100
AcDbEntity
  8
MAIN0
  6
CONTINUOUS
 62
3
100
AcDbBlockBegin
  2
*D3
 70
    65
 10
0.0
 20
0.0
 30
0.0
  0
LINE
  5
1ED
100
AcDbEntity
  8
MAIN0
  6
BYBLOCK
 62
0
100
AcDbLine
 10
1032.342431005766
 20
737.7826657184908
 30
0.0000000000000000
 11
1032.342431005757
 21
773.3111054281999
 31
0.0000000000000000
  0
LINE
  5
1EE
100
AcDbEntity
  8
MAIN0
  6
BYBLOCK
 62
0
100
AcDbLine
 10
1032.342431005759
 20
767.3111054281999
 30
0.0000000000000000
 11
1062.342431005767
 21
767.3111054281999
 31
0.0000000000000000
  0
INSERT
  5
1EF
100
AcDbEntity
  8
MAIN0
  6
BYBLOCK
 62
0
100
AcDbBlockReference
  2
_OPEN
 10
1032.342431005759
 20
767.3111054281999
 30
0.0000000000000000
 41
6.000000000000000
 42
6.000000000000000
 43
6.000000000000000
 50
0.0000000000000000
  0
INSERT
  5
1F0
100
AcDbEntity
  8
MAIN0
  6
BYBLOCK
 62
0
100
AcDbBlockReference
  2
_OPEN
 10
1062.342431005767
 20
767.3111054281999
 30
0.0000000000000000
 41
6.000000000000000
 42
6.000000000000000
 43
6.000000000000000
 50
180.0000000000000
  0
LINE
  5
1F1
100
AcDbEntity
  8
MAIN0
  6
BYBLOCK
 62
0
100
AcDbLine
 10
1026.342431005759
 20
767.3111054281999
 30
0.0000000000000000
 11
1023.342431005758
 21
767.3111054281999
 31
0.0000000000000000
  0
LINE
  5
1F2
100
AcDbEntity
  8
MAIN0
  6
BYBLOCK
 62
0
100
AcDbLine
 10
1068.342431005767
 20
767.3111054281999
 30
0.0000000000000000
 11
1071.342431005767
 21
767.3111054281999
 31
0.0000000000000000
  0
LINE
  5
1F3
100
AcDbEntity
  8
MAIN0
  6
BYBLOCK
 62
0
100
AcDbLine
 10
1062.342431005767
 20
737.7826657184962
 30
0.0000000000000000
 11
1062.342431005767
 21
773.3111054281999
 31
0.0000000000000000
  0
MTEXT
  5
1F4
100
AcDbEntity
  8
MAIN0
  6
BYBLOCK
 62
0
100
AcDbMText
 10
1047.342431005763
 20
772.4611052851487
 30
0.0000000000000000
 40
9.299999713897705
 41
0.0000000000000000
 71
     5
 72
     1
  1
\A1;\U+220530
 11
1.000000000000000
 21
0.0000000000000000
 31
0.0000000000000000
  7
STANDARD
  0
ENDBLK
  5
1F5
100
AcDbEntity
  8
MAIN0
  6
CONTINUOUS
 62
3
100
AcDbBlockEnd
  0
BLOCK
  5
1F7
100
AcDbEntity
  8
MAIN0
  6
CONTINUOUS
 62
3
100
AcDbBlockBegin
  2
*D4
 70
    65
 10
0.0
 20
0.0
 30
0.0
  0
LINE
  5
1F8
100
AcDbEntity
  8
MAIN0
  6
BYBLOCK
 62
0
100
AcDbLine
 10
1031.942430970006
 20
737.3826656827282
 30
0.0000000000000000
 11
995.6675251394601
 21
737.3826656827282
 31
0.0000000000000000
  0
LINE
  5
1F9
100
AcDbEntity
  8
MAIN0
  6
BYBLOCK
 62
0
100
AcDbLine
 10
1001.667525139460
 20
737.3826656827282
 30
0.0000000000000000
 11
1001.667525139460
 21
719.3826656827005
 31
0.0000000000000000
  0
INSERT
  5
1FA
100
AcDbEntity
  8
MAIN0
  6
BYBLOCK
 62
0
100
AcDbBlockReference
  2
_OPEN
 10
1001.667525139460
 20
737.3826656827282
 30
0.0000000000000000
 41
6.000000000000000
 42
6.000000000000000
 43
6.000000000000000
 50
270.0000000000000
  0
INSERT
  5
1FB
100
AcDbEntity
  8
MAIN0
  6
BYBLOCK
 62
0
100
AcDbBlockReference
  2
_OPEN
 10
1001.667525139460
 20
719.3826656827005
 30
0.0000000000000000
 41
6.000000000000000
 42
6.000000000000000
 43
6.000000000000000
 50
90.00000000000000
  0
LINE
  5
1FC
100
AcDbEntity
  8
MAIN0
  6
BYBLOCK
 62
0
100
AcDbLine
 10
1001.667525139460
 20
743.3826656827282
 30
0.0000000000000000
 11
1001.667525139460
 21
751.3156357834091
 31
0.0000000000000000
  0
LINE
  5
1FD
100
AcDbEntity
  8
MAIN0
  6
BYBLOCK
 62
0
100
AcDbLine
 10
1001.667525139460
 20
713.3826656827005
 30
0.0000000000000000
 11
1001.667525139460
 21
710.3826656827005
 31
0.0000000000000000
  0
MTEXT
  5
1FE
100
AcDbEntity
  8
MAIN0
  6
BYBLOCK
 62
0
100
AcDbMText
 10
995.5175252825112
 20
745.1656359264603
 30
0.0000000000000000
 40
9.299999713897705
 41
0.0000000000000000
 71
     5
 72
     1
  1
\A1;18
 11
6.123233995736766e-017
 21
1.000000000000000
 31
0.0000000000000000
  7
STANDARD
  0
ENDBLK
  5
1FF
100
AcDbEntity
  8
MAIN0
  6
CONTINUOUS
 62
3
100
AcDbBlockEnd
  0
BLOCK
  5
201
100
AcDbEntity
  8
MAIN0
  6
CONTINUOUS
 62
3
100
AcDbBlockBegin
  2
*D5
 70
    65
 10
0.0
 20
0.0
 30
0.0
  0
LINE
  5
202
100
AcDbEntity
  8
MAIN0
  6
BYBLOCK
 62
0
100
AcDbLine
 10
941.6675251394601
 20
727.3826656827145
 30
0.0000000000000000
 11
941.6675251394601
 21
711.3826656827145
 31
0.0000000000000000
  0
INSERT
  5
203
100
AcDbEntity
  8
MAIN0
  6
BYBLOCK
 62
0
100
AcDbBlockReference
  2
_OPEN
 10
941.6675251394601
 20
727.3826656827145
 30
0.0000000000000000
 41
6.000000000000000
 42
6.000000000000000
 43
6.000000000000000
 50
270.0000000000000
  0
INSERT
  5
204
100
AcDbEntity
  8
MAIN0
  6
BYBLOCK
 62
0
100
AcDbBlockReference
  2
_OPEN
 10
941.6675251394601
 20
711.3826656827145
 30
0.0000000000000000
 41
6.000000000000000
 42
6.000000000000000
 43
6.000000000000000
 50
90.00000000000000
  0
LINE
  5
205
100
AcDbEntity
  8
MAIN0
  6
BYBLOCK
 62
0
100
AcDbLine
 10
941.6675251394601
 20
733.3826656827145
 30
0.0000000000000000
 11
941.6675251394601
 21
751.4056702030027
 31
0.0000000000000000
  0
LINE
  5
206
100
AcDbEntity
  8
MAIN0
  6
BYBLOCK
 62
0
100
AcDbLine
 10
941.6675251394601
 20
705.3826656827145
 30
0.0000000000000000
 11
941.6675251394601
 21
702.3826656827145
 31
0.0000000000000000
  0
MTEXT
  5
207
100
AcDbEntity
  8
MAIN0
  6
BYBLOCK
 62
0
100
AcDbMText
 10
935.5175252825112
 20
741.3556704891050
 30
0.0000000000000000
 40
9.299999713897705
 41
0.0000000000000000
 71
     5
 72
     1
  1
\A1;\U+220516
 11
6.123233995736766e-017
 21
1.000000000000000
 31
0.0000000000000000
  7
STANDARD
  0
ENDBLK
  5
208
100
AcDbEntity
  8
MAIN0
  6
CONTINUOUS
 62
3
100
AcDbBlockEnd
  0
BLOCK
  5
213
100
AcDbEntity
  8
MAIN0
  6
CONTINUOUS
 62
3
100
AcDbBlockBegin
  2
*D6
 70
    65
 10
0.0
 20
0.0
 30
0.0
  0
LINE
  5
214
100
AcDbEntity
  8
MAIN0
  6
BYBLOCK
 62
0
100
AcDbLine
 10
1062.742431041532
 20
737.3826656827330
 30
0.0000000000000000
 11
1107.667525139460
 21
737.3826656827330
 31
0.0000000000000000
  0
LINE
  5
215
100
AcDbEntity
  8
MAIN0
  6
BYBLOCK
 62
0
100
AcDbLine
 10
1101.667525139460
 20
731.3826656827330
 30
0.0000000000000000
 11
1101.667525139460
 21
603.3826656827323
 31
0.0000000000000000
  0
INSERT
  5
216
100
AcDbEntity
  8
MAIN0
  6
BYBLOCK
 62
0
100
AcDbBlockReference
  2
_OPEN
 10
1101.667525139460
 20
737.3826656827330
 30
0.0000000000000000
 41
6.000000000000000
 42
6.000000000000000
 43
6.000000000000000
 50
90.00000000000000
  0
INSERT
  5
217
100
AcDbEntity
  8
MAIN0
  6
BYBLOCK
 62
0
100
AcDbBlockReference
  2
_OPEN
 10
1101.667525139460
 20
597.3826656827323
 30
0.0000000000000000
 41
6.000000000000000
 42
6.000000000000000
 43
6.000000000000000
 50
270.0000000000000
  0
LINE
  5
218
100
AcDbEntity
  8
MAIN0
  6
BYBLOCK
 62
0
100
AcDbLine
 10
1058.492431041385
 20
597.3826656827323
 30
0.0000000000000000
 11
1107.667525139460
 21
597.3826656827323
 31
0.0000000000000000
  0
MTEXT
  5
219
100
AcDbEntity
  8
MAIN0
  6
BYBLOCK
 62
0
100
AcDbMText
 10
1096.517525282511
 20
667.3826656827326
 30
0.0000000000000000
 40
9.299999713897705
 41
0.0000000000000000
 71
     5
 72
     1
  1
\A1;140
 11
6.123233995736766e-017
 21
1.000000000000000
 31
0.0000000000000000
  7
STANDARD
  0
ENDBLK
  5
21A
100
AcDbEntity
  8
MAIN0
  6
CONTINUOUS
 62
3
100
AcDbBlockEnd
  0
BLOCK
  5
21C
100
AcDbEntity
  8
MAIN0
  6
CONTINUOUS
 62
3
100
AcDbBlockBegin
  2
*D7
 70
    65
 10
0.0
 20
0.0
 30
0.0
  0
LINE
  5
21D
100
AcDbEntity
  8
MAIN0
  6
BYBLOCK
 62
0
100
AcDbLine
 10
1058.492431041385
 20
597.3826656827323
 30
0.0000000000000000
 11
1087.667525139460
 21
597.3826656827323
 31
0.0000000000000000
  0
LINE
  5
21E
100
AcDbEntity
  8
MAIN0
  6
BYBLOCK
 62
0
100
AcDbLine
 10
1081.667525139460
 20
597.3826656827323
 30
0.0000000000000000
 11
1081.667525139460
 21
617.3826656827308
 31
0.0000000000000000
  0
INSERT
  5
21F
100
AcDbEntity
  8
MAIN0
  6
BYBLOCK
 62
0
100
AcDbBlockReference
  2
_OPEN
 10
1081.667525139460
 20
597.3826656827323
 30
0.0000000000000000
 41
6.000000000000000
 42
6.000000000000000
 43
6.000000000000000
 50
90.00000000000000
  0
INSERT
  5
220
100
AcDbEntity
  8
MAIN0
  6
BYBLOCK
 62
0
100
AcDbBlockReference
  2
_OPEN
 10
1081.667525139460
 20
617.3826656827308
 30
0.0000000000000000
 41
6.000000000000000
 42
6.000000000000000
 43
6.000000000000000
 50
270.0000000000000
  0
LINE
  5
221
100
AcDbEntity
  8
MAIN0
  6
BYBLOCK
 62
0
100
AcDbLine
 10
1081.667525139460
 20
591.3826656827323
 30
0.0000000000000000
 11
1081.667525139460
 21
588.3826656827323
 31
0.0000000000000000
  0
LINE
  5
222
100
AcDbEntity
  8
MAIN0
  6
BYBLOCK
 62
0
100
AcDbLine
 10
1081.667525139460
 20
623.3826656827308
 30
0.0000000000000000
 11
1081.667525139460
 21
626.3826656827308
 31
0.0000000000000000
  0
LINE
  5
223
100
AcDbEntity
  8
MAIN0
  6
BYBLOCK
 62
0
100
AcDbLine
 10
1059.492431041406
 20
617.3826656827323
 30
0.0000000000000000
 11
1087.667525139460
 21
617.3826656827305
 31
0.0000000000000000
  0
MTEXT
  5
224
100
AcDbEntity
  8
MAIN0
  6
BYBLOCK
 62
0
100
AcDbMText
 10
1076.517525282511
 20
607.3826656827316
 30
0.0000000000000000
 40
9.299999713897705
 41
0.0000000000000000
 71
     5
 72
     1
  1
\A1;20
 11
6.123233995736766e-017
 21
1.000000000000000
 31
0.0000000000000000
  7
STANDARD
  0
ENDBLK
  5
225
100
AcDbEntity
  8
MAIN0
  6
CONTINUOUS
 62
3
100
AcDbBlockEnd
  0
BLOCK
  5
227
100
AcDbEntity
  8
MAIN0
  6
CONTINUOUS
 62
3
100
AcDbBlockBegin
  2
*D8
 70
    65
 10
0.0
 20
0.0
 30
0.0
  0
LINE
  5
228
100
AcDbEntity
  8
MAIN0
  6
BYBLOCK
 62
0
100
AcDbLine
 10
235.4403814891907
 20
669.9110323972550
 30
0.0000000000000000
 11
235.4403814891907
 21
748.0110323614922
 31
0.0000000000000000
  0
LINE
  5
229
100
AcDbEntity
  8
MAIN0
  6
BYBLOCK
 62
0
100
AcDbLine
 10
241.4403814891907
 20
742.0110323614922
 30
0.0000000000000000
 11
349.4403814891907
 21
742.0110323614922
 31
0.0000000000000000
  0
INSERT
  5
22A
100
AcDbEntity
  8
MAIN0
  6
BYBLOCK
 62
0
100
AcDbBlockReference
  2
_OPEN
 10
235.4403814891907
 20
742.0110323614922
 30
0.0000000000000000
 41
6.000000000000000
 42
6.000000000000000
 43
6.000000000000000
 50
180.0000000000000
  0
INSERT
  5
22B
100
AcDbEntity
  8
MAIN0
  6
BYBLOCK
 62
0
100
AcDbBlockReference
  2
_OPEN
 10
355.4403814891907
 20
742.0110323614922
 30
0.0000000000000000
 41
6.000000000000000
 42
6.000000000000000
 43
6.000000000000000
 50
0.0000000000000000
  0
LINE
  5
22C
100
AcDbEntity
  8
MAIN0
  6
BYBLOCK
 62
0
100
AcDbLine
 10
355.4403814891907
 20
669.9110323972550
 30
0.0000000000000000
 11
355.4403814891907
 21
748.0110323614922
 31
0.0000000000000000
  0
MTEXT
  5
22D
100
AcDbEntity
  8
MAIN0
  6
BYBLOCK
 62
0
100
AcDbMText
 10
295.4403814891907
 20
747.1610322184411
 30
0.0000000000000000
 40
9.299999713897705
 41
0.0000000000000000
 71
     5
 72
     1
  1
\A1;120
 11
1.000000000000000
 21
0.0000000000000000
 31
0.0000000000000000
  7
STANDARD
  0
ENDBLK
  5
22E
100
AcDbEntity
  8
MAIN0
  6
CONTINUOUS
 62
3
100
AcDbBlockEnd
  0
BLOCK
  5
230
100
AcDbEntity
  8
MAIN0
  6
CONTINUOUS
 62
3
100
AcDbBlockBegin
  2
*D9
 70
    65
 10
0.0
 20
0.0
 30
0.0
  0
LINE
  5
231
100
AcDbEntity
  8
MAIN0
  6
BYBLOCK
 62
0
100
AcDbLine
 10
235.4403814891907
 20
669.9110323972550
 30
0.0000000000000000
 11
235.4403814891907
 21
723.0110323614922
 31
0.0000000000000000
  0
LINE
  5
232
100
AcDbEntity
  8
MAIN0
  6
BYBLOCK
 62
0
100
AcDbLine
 10
241.4403814891907
 20
717.0110323614923
 30
0.0000000000000000
 11
272.9403814891907
 21
717.0110323614922
 31
0.0000000000000000
  0
INSERT
  5
233
100
AcDbEntity
  8
MAIN0
  6
BYBLOCK
 62
0
100
AcDbBlockReference
  2
_OPEN
 10
235.4403814891907
 20
717.0110323614923
 30
0.0000000000000000
 41
6.000000000000000
 42
6.000000000000000
 43
6.000000000000000
 50
179.9999999999998
  0
INSERT
  5
234
100
AcDbEntity
  8
MAIN0
  6
BYBLOCK
 62
0
100
AcDbBlockReference
  2
_OPEN
 10
278.9403814891907
 20
717.0110323614922
 30
0.0000000000000000
 41
6.000000000000000
 42
6.000000000000000
 43
6.000000000000000
 50
359.9999999999998
  0
LINE
  5
235
100
AcDbEntity
  8
MAIN0
  6
BYBLOCK
 62
0
100
AcDbLine
 10
278.9403814891907
 20
684.4110323972550
 30
0.0000000000000000
 11
278.9403814891907
 21
723.0110323614922
 31
0.0000000000000000
  0
MTEXT
  5
236
100
AcDbEntity
  8
MAIN0
  6
BYBLOCK
 62
0
100
AcDbMText
 10
257.1903814891907
 20
722.1610322184412
 30
0.0000000000000000
 40
9.299999713897705
 41
0.0000000000000000
 71
     5
 72
     1
  1
\A1;43.5
 11
1.000000000000000
 21
0.0000000000000000
 31
0.0000000000000000
  7
STANDARD
  0
ENDBLK
  5
237
100
AcDbEntity
  8
MAIN0
  6
CONTINUOUS
 62
3
100
AcDbBlockEnd
  0
BLOCK
  5
239
100
AcDbEntity
  8
MAIN0
  6
CONTINUOUS
 62
3
100
AcDbBlockBegin
  2
*D10
 70
    65
 10
0.0
 20
0.0
 30
0.0
  0
LINE
  5
23A
100
AcDbEntity
  8
MAIN0
  6
BYBLOCK
 62
0
100
AcDbLine
 10
278.9403814891907
 20
684.4110323972550
 30
0.0000000000000000
 11
278.9403814891907
 21
723.0110323614922
 31
0.0000000000000000
  0
LINE
  5
23B
100
AcDbEntity
  8
MAIN0
  6
BYBLOCK
 62
0
100
AcDbLine
 10
284.9403814891907
 20
717.0110323614922
 30
0.0000000000000000
 11
349.4403814891907
 21
717.0110323614922
 31
0.0000000000000000
  0
INSERT
  5
23C
100
AcDbEntity
  8
MAIN0
  6
BYBLOCK
 62
0
100
AcDbBlockReference
  2
_OPEN
 10
278.9403814891907
 20
717.0110323614922
 30
0.0000000000000000
 41
6.000000000000000
 42
6.000000000000000
 43
6.000000000000000
 50
180.0000000000000
  0
INSERT
  5
23D
100
AcDbEntity
  8
MAIN0
  6
BYBLOCK
 62
0
100
AcDbBlockReference
  2
_OPEN
 10
355.4403814891907
 20
717.0110323614922
 30
0.0000000000000000
 41
6.000000000000000
 42
6.000000000000000
 43
6.000000000000000
 50
0.0000000000000000
  0
LINE
  5
23E
100
AcDbEntity
  8
MAIN0
  6
BYBLOCK
 62
0
100
AcDbLine
 10
355.4403814891907
 20
669.9110323972550
 30
0.0000000000000000
 11
355.4403814891907
 21
723.0110323614922
 31
0.0000000000000000
  0
MTEXT
  5
23F
100
AcDbEntity
  8
MAIN0
  6
BYBLOCK
 62
0
100
AcDbMText
 10
317.1903814891907
 20
722.1610322184411
 30
0.0000000000000000
 40
9.299999713897705
 41
0.0000000000000000
 71
     5
 72
     1
  1
\A1;76.5
 11
1.000000000000000
 21
0.0000000000000000
 31
0.0000000000000000
  7
STANDARD
  0
ENDBLK
  5
240
100
AcDbEntity
  8
MAIN0
  6
CONTINUOUS
 62
3
100
AcDbBlockEnd
  0
BLOCK
  5
242
100
AcDbEntity
  8
MAIN0
  6
CONTINUOUS
 62
3
100
AcDbBlockBegin
  2
*D11
 70
    65
 10
0.0
 20
0.0
 30
0.0
  0
LINE
  5
243
100
AcDbEntity
  8
MAIN0
  6
BYBLOCK
 62
0
100
AcDbLine
 10
300.9403814891907
 20
671.9110323972550
 30
0.0000000000000000
 11
300.9403814891908
 21
698.0110323614923
 31
0.0000000000000000
  0
LINE
  5
244
100
AcDbEntity
  8
MAIN0
  6
BYBLOCK
 62
0
100
AcDbLine
 10
294.9403814891908
 20
692.0110323614923
 30
0.0000000000000000
 11
262.9403814891908
 21
692.0110323614923
 31
0.0000000000000000
  0
INSERT
  5
245
100
AcDbEntity
  8
MAIN0
  6
BYBLOCK
 62
0
100
AcDbBlockReference
  2
_OPEN
 10
300.9403814891908
 20
692.0110323614923
 30
0.0000000000000000
 41
6.000000000000000
 42
6.000000000000000
 43
6.000000000000000
 50
360.0000000000000
  0
INSERT
  5
246
100
AcDbEntity
  8
MAIN0
  6
BYBLOCK
 62
0
100
AcDbBlockReference
  2
_OPEN
 10
256.9403814891908
 20
692.0110323614923
 30
0.0000000000000000
 41
6.000000000000000
 42
6.000000000000000
 43
6.000000000000000
 50
180.0000000000000
  0
LINE
  5
247
100
AcDbEntity
  8
MAIN0
  6
BYBLOCK
 62
0
100
AcDbLine
 10
256.9403814891907
 20
671.9110323972550
 30
0.0000000000000000
 11
256.9403814891908
 21
698.0110323614923
 31
0.0000000000000000
  0
MTEXT
  5
248
100
AcDbEntity
  8
MAIN0
  6
BYBLOCK
 62
0
100
AcDbMText
 10
268.0896286705879
 20
698.1610322184412
 30
0.0000000000000000
 40
9.299999713897705
 41
0.0000000000000000
 71
     5
 72
     1
  1
\A1;\U+220544
 11
1.000000000000000
 21
0.0000000000000000
 31
0.0000000000000000
  7
STANDARD
  0
ENDBLK
  5
249
100
AcDbEntity
  8
MAIN0
  6
CONTINUOUS
 62
3
100
AcDbBlockEnd
  0
BLOCK
  5
24B
100
AcDbEntity
  8
MAIN0
  6
CONTINUOUS
 62
3
100
AcDbBlockBegin
  2
*D12
 70
    65
 10
0.0
 20
0.0
 30
0.0
  0
LINE
  5
24C
100
AcDbEntity
  8
MAIN0
  6
BYBLOCK
 62
0
100
AcDbLine
 10
235.0403814534280
 20
669.5110323614923
 30
0.0000000000000000
 11
139.4403814891907
 21
669.5110323614923
 31
0.0000000000000000
  0
LINE
  5
24D
100
AcDbEntity
  8
MAIN0
  6
BYBLOCK
 62
0
100
AcDbLine
 10
145.4403814891907
 20
663.5110323614922
 30
0.0000000000000000
 11
145.4403814891907
 21
270.5110323614923
 31
0.0000000000000000
  0
INSERT
  5
24E
100
AcDbEntity
  8
MAIN0
  6
BYBLOCK
 62
0
100
AcDbBlockReference
  2
_OPEN
 10
145.4403814891907
 20
669.5110323614922
 30
0.0000000000000000
 41
6.000000000000000
 42
6.000000000000000
 43
6.000000000000000
 50
90.00000000000000
  0
INSERT
  5
24F
100
AcDbEntity
  8
MAIN0
  6
BYBLOCK
 62
0
100
AcDbBlockReference
  2
_OPEN
 10
145.4403814891907
 20
264.5110323614923
 30
0.0000000000000000
 41
6.000000000000000
 42
6.000000000000000
 43
6.000000000000000
 50
270.0000000000000
  0
LINE
  5
250
100
AcDbEntity
  8
MAIN0
  6
BYBLOCK
 62
0
100
AcDbLine
 10
235.0403814534279
 20
264.5110323614923
 30
0.0000000000000000
 11
139.4403814891907
 21
264.5110323614923
 31
0.0000000000000000
  0
MTEXT
  5
251
100
AcDbEntity
  8
MAIN0
  6
BYBLOCK
 62
0
100
AcDbMText
 10
140.2903816322419
 20
467.0110323614923
 30
0.0000000000000000
 40
9.299999713897705
 41
0.0000000000000000
 71
     5
 72
     1
  1
\A1;\U+2205405
 11
6.123233995736766e-017
 21
1.000000000000000
 31
0.0000000000000000
  7
STANDARD
  0
ENDBLK
  5
252
100
AcDbEntity
  8
MAIN0
  6
CONTINUOUS
 62
3
100
AcDbBlockEnd
  0
BLOCK
  5
254
100
AcDbEntity
  8
MAIN0
  6
CONTINUOUS
 62
3
100
AcDbBlockBegin
  2
*D13
 70
    65
 10
0.0
 20
0.0
 30
0.0
  0
LINE
  5
255
100
AcDbEntity
  8
MAIN0
  6
BYBLOCK
 62
0
100
AcDbLine
 10
241.0403814534279
 20
522.0110323614923
 30
0.0000000000000000
 11
199.4403814891907
 21
522.0110323614923
 31
0.0000000000000000
  0
LINE
  5
256
100
AcDbEntity
  8
MAIN0
  6
BYBLOCK
 62
0
100
AcDbLine
 10
205.4403814891907
 20
516.0110323614923
 30
0.0000000000000000
 11
205.4403814891907
 21
418.0110323614923
 31
0.0000000000000000
  0
INSERT
  5
257
100
AcDbEntity
  8
MAIN0
  6
BYBLOCK
 62
0
100
AcDbBlockReference
  2
_OPEN
 10
205.4403814891907
 20
522.0110323614923
 30
0.0000000000000000
 41
6.000000000000000
 42
6.000000000000000
 43
6.000000000000000
 50
90.00000000000000
  0
INSERT
  5
258
100
AcDbEntity
  8
MAIN0
  6
BYBLOCK
 62
0
100
AcDbBlockReference
  2
_OPEN
 10
205.4403814891907
 20
412.0110323614923
 30
0.0000000000000000
 41
6.000000000000000
 42
6.000000000000000
 43
6.000000000000000
 50
270.0000000000000
  0
LINE
  5
259
100
AcDbEntity
  8
MAIN0
  6
BYBLOCK
 62
0
100
AcDbLine
 10
241.0403814534279
 20
412.0110323614923
 30
0.0000000000000000
 11
199.4403814891907
 21
412.0110323614923
 31
0.0000000000000000
  0
MTEXT
  5
25A
100
AcDbEntity
  8
MAIN0
  6
BYBLOCK
 62
0
100
AcDbMText
 10
200.2903816322419
 20
467.0110323614923
 30
0.0000000000000000
 40
9.299999713897705
 41
0.0000000000000000
 71
     5
 72
     1
  1
\A1;\U+2205110
 11
6.123233995736766e-017
 21
1.000000000000000
 31
0.0000000000000000
  7
STANDARD
  0
ENDBLK
  5
25B
100
AcDbEntity
  8
MAIN0
  6
CONTINUOUS
 62
3
100
AcDbBlockEnd
  0
BLOCK
  5
25D
100
AcDbEntity
  8
MAIN0
  6
CONTINUOUS
 62
3
100
AcDbBlockBegin
  2
*D14
 70
    65
 10
0.0
 20
0.0
 30
0.0
  0
LINE
  5
25E
100
AcDbEntity
  8
MAIN0
  6
BYBLOCK
 62
0
100
AcDbLine
 10
243.4403814891907
 20
337.0110323614923
 30
0.0000000000000000
 11
235.4403814891907
 21
337.0110323614923
 31
0.0000000000000000
  0
INSERT
  5
25F
100
AcDbEntity
  8
MAIN0
  6
BYBLOCK
 62
0
100
AcDbBlockReference
  2
_OPEN
 10
243.4403814891907
 20
337.0110323614923
 30
0.0000000000000000
 41
6.000000000000000
 42
6.000000000000000
 43
6.000000000000000
 50
180.0000000000000
  0
INSERT
  5
260
100
AcDbEntity
  8
MAIN0
  6
BYBLOCK
 62
0
100
AcDbBlockReference
  2
_OPEN
 10
235.4403814891907
 20
337.0110323614923
 30
0.0000000000000000
 41
6.000000000000000
 42
6.000000000000000
 43
6.000000000000000
 50
360.0000000000000
  0
LINE
  5
261
100
AcDbEntity
  8
MAIN0
  6
BYBLOCK
 62
0
100
AcDbLine
 10
249.4403814891907
 20
337.0110323614923
 30
0.0000000000000000
 11
252.4403814891907
 21
337.0110323614923
 31
0.0000000000000000
  0
LINE
  5
262
100
AcDbEntity
  8
MAIN0
  6
BYBLOCK
 62
0
100
AcDbLine
 10
229.4403814891907
 20
337.0110323614923
 30
0.0000000000000000
 11
222.4403814891907
 21
337.0110323614923
 31
0.0000000000000000
  0
MTEXT
  5
263
100
AcDbEntity
  8
MAIN0
  6
BYBLOCK
 62
0
100
AcDbMText
 10
225.4403814891907
 20
343.1610322184411
 30
0.0000000000000000
 40
9.299999713897705
 41
0.0000000000000000
 71
     5
 72
     1
  1
\A1;8
 11
1.000000000000000
 21
0.0000000000000000
 31
0.0000000000000000
  7
STANDARD
  0
ENDBLK
  5
264
100
AcDbEntity
  8
MAIN0
  6
CONTINUOUS
 62
3
100
AcDbBlockEnd
  0
BLOCK
  5
266
100
AcDbEntity
  8
MAIN0
  6
CONTINUOUS
 62
3
100
AcDbBlockBegin
  2
*D15
 70
    65
 10
0.0
 20
0.0
 30
0.0
  0
LINE
  5
267
100
AcDbEntity
  8
MAIN0
  6
BYBLOCK
 62
0
100
AcDbLine
 10
414.3403815249535
 20
424.2610323614923
 30
0.0000000000000000
 11
491.4403814891907
 21
424.2610323614922
 31
0.0000000000000000
  0
LINE
  5
268
100
AcDbEntity
  8
MAIN0
  6
BYBLOCK
 62
0
100
AcDbLine
 10
485.4403814891907
 20
418.2610323614922
 30
0.0000000000000000
 11
485.4403814891907
 21
284.2610323614922
 31
0.0000000000000000
  0
INSERT
  5
269
100
AcDbEntity
  8
MAIN0
  6
BYBLOCK
 62
0
100
AcDbBlockReference
  2
_OPEN
 10
485.4403814891907
 20
424.2610323614922
 30
0.0000000000000000
 41
6.000000000000000
 42
6.000000000000000
 43
6.000000000000000
 50
90.00000000000000
  0
INSERT
  5
26A
100
AcDbEntity
  8
MAIN0
  6
BYBLOCK
 62
0
100
AcDbBlockReference
  2
_OPEN
 10
485.4403814891907
 20
278.2610323614922
 30
0.0000000000000000
 41
6.000000000000000
 42
6.000000000000000
 43
6.000000000000000
 50
270.0000000000000
  0
LINE
  5
26B
100
AcDbEntity
  8
MAIN0
  6
BYBLOCK
 62
0
100
AcDbLine
 10
373.8403815249534
 20
278.2610323614922
 30
0.0000000000000000
 11
491.4403814891907
 21
278.2610323614922
 31
0.0000000000000000
  0
MTEXT
  5
26C
100
AcDbEntity
  8
MAIN0
  6
BYBLOCK
 62
0
100
AcDbMText
 10
480.2903816322419
 20
351.2610323614922
 30
0.0000000000000000
 40
9.299999713897705
 41
0.0000000000000000
 71
     5
 72
     1
  1
\A1;146
 11
6.123233995736766e-017
 21
1.000000000000000
 31
0.0000000000000000
  7
STANDARD
  0
ENDBLK
  5
26D
100
AcDbEntity
  8
MAIN0
  6
CONTINUOUS
 62
3
100
AcDbBlockEnd
  0
BLOCK
  5
26F
100
AcDbEntity
  8
MAIN0
  6
CONTINUOUS
 62
3
100
AcDbBlockBegin
  2
*D16
 70
    65
 10
0.0
 20
0.0
 30
0.0
  0
LINE
  5
270
100
AcDbEntity
  8
MAIN0
  6
BYBLOCK
 62
0
100
AcDbLine
 10
414.8403815249535
 20
487.0110323614923
 30
0.0000000000000000
 11
461.4403814891907
 21
487.0110323614923
 31
0.0000000000000000
  0
LINE
  5
271
100
AcDbEntity
  8
MAIN0
  6
BYBLOCK
 62
0
100
AcDbLine
 10
455.4403814891907
 20
481.0110323614923
 30
0.0000000000000000
 11
455.4403814891907
 21
453.0110323614923
 31
0.0000000000000000
  0
INSERT
  5
272
100
AcDbEntity
  8
MAIN0
  6
BYBLOCK
 62
0
100
AcDbBlockReference
  2
_OPEN
 10
455.4403814891907
 20
487.0110323614923
 30
0.0000000000000000
 41
6.000000000000000
 42
6.000000000000000
 43
6.000000000000000
 50
90.00000000000000
  0
INSERT
  5
273
100
AcDbEntity
  8
MAIN0
  6
BYBLOCK
 62
0
100
AcDbBlockReference
  2
_OPEN
 10
455.4403814891907
 20
447.0110323614923
 30
0.0000000000000000
 41
6.000000000000000
 42
6.000000000000000
 43
6.000000000000000
 50
270.0000000000000
  0
LINE
  5
274
100
AcDbEntity
  8
MAIN0
  6
BYBLOCK
 62
0
100
AcDbLine
 10
414.8403815249535
 20
447.0110323614923
 30
0.0000000000000000
 11
461.4403814891907
 21
447.0110323614923
 31
0.0000000000000000
  0
MTEXT
  5
275
100
AcDbEntity
  8
MAIN0
  6
BYBLOCK
 62
0
100
AcDbMText
 10
450.2903816322419
 20
467.0110323614923
 30
0.0000000000000000
 40
9.299999713897705
 41
0.0000000000000000
 71
     5
 72
     1
  1
\A1;40
 11
6.123233995736766e-017
 21
1.000000000000000
 31
0.0000000000000000
  7
STANDARD
  0
ENDBLK
  5
276
100
AcDbEntity
  8
MAIN0
  6
CONTINUOUS
 62
3
100
AcDbBlockEnd
  0
BLOCK
  5
278
100
AcDbEntity
  8
MAIN0
  6
CONTINUOUS
 62
3
100
AcDbBlockBegin
  2
*D17
 70
    65
 10
0.0
 20
0.0
 30
0.0
  0
LINE
  5
279
100
AcDbEntity
  8
MAIN0
  6
BYBLOCK
 62
0
100
AcDbLine
 10
361.4403814891907
 20
497.0110323614923
 30
0.0000000000000000
 11
407.4403814891907
 21
497.0110323614923
 31
0.0000000000000000
  0
INSERT
  5
27A
100
AcDbEntity
  8
MAIN0
  6
BYBLOCK
 62
0
100
AcDbBlockReference
  2
_OPEN
 10
355.4403814891907
 20
497.0110323614923
 30
0.0000000000000000
 41
6.000000000000000
 42
6.000000000000000
 43
6.000000000000000
 50
180.0000000000000
  0
INSERT
  5
27B
100
AcDbEntity
  8
MAIN0
  6
BYBLOCK
 62
0
100
AcDbBlockReference
  2
_OPEN
 10
413.4403814891907
 20
497.0110323614923
 30
0.0000000000000000
 41
6.000000000000000
 42
6.000000000000000
 43
6.000000000000000
 50
0.0000000000000000
  0
LINE
  5
27C
100
AcDbEntity
  8
MAIN0
  6
BYBLOCK
 62
0
100
AcDbLine
 10
413.4403814891907
 20
488.4110323972550
 30
0.0000000000000000
 11
413.4403814891907
 21
503.0110323614923
 31
0.0000000000000000
  0
MTEXT
  5
27D
100
AcDbEntity
  8
MAIN0
  6
BYBLOCK
 62
0
100
AcDbMText
 10
393.1553222735057
 20
503.1610322184411
 30
0.0000000000000000
 40
9.299999713897705
 41
0.0000000000000000
 71
     5
 72
     1
  1
\A1;58
 11
1.000000000000000
 21
0.0000000000000000
 31
0.0000000000000000
  7
STANDARD
  0
ENDBLK
  5
27E
100
AcDbEntity
  8
MAIN0
  6
CONTINUOUS
 62
3
100
AcDbBlockEnd
  0
BLOCK
  5
280
100
AcDbEntity
  8
MAIN0
  6
CONTINUOUS
 62
3
100
AcDbBlockBegin
  2
D18
 70
    64
 10
0.0
 20
0.0
 30
0.0
  0
LINE
  5
281
100
AcDbEntity
  8
MAIN0
  6
BYBLOCK
 62
0
100
AcDbLine
 10
29.85138894162935
 20
40.00000000000000
 30
0.0000000000000000
 11
29.85138894162937
 21
86.00000000000000
 31
0.0000000000000000
  0
LINE
  5
282
100
AcDbEntity
  8
MAIN0
  6
BYBLOCK
 62
0
100
AcDbLine
 10
28.05138887010379
 20
80.00000000000000
 30
0.0000000000000000
 11
29.85138894162937
 21
86.00000000000000
 31
0.0000000000000000
  0
LINE
  5
283
100
AcDbEntity
  8
MAIN0
  6
BYBLOCK
 62
0
100
AcDbLine
 10
29.85138894162937
 20
86.00000000000000
 30
0.0000000000000000
 11
31.65138901315494
 21
80.00000000000000
 31
0.0000000000000000
  0
LINE
  5
284
100
AcDbEntity
  8
MAIN0
  6
BYBLOCK
 62
0
100
AcDbLine
 10
-63.75764063923269
 20
86.00000000000001
 30
0.0000000000000000
 11
35.85138894162937
 21
86.00000000000000
 31
0.0000000000000000
  0
MTEXT
  5
285
100
AcDbEntity
  8
MAIN0
  6
BYBLOCK
 62
0
100
AcDbMText
 10
23.70138908468050
 20
49.79634715701524
 30
0.0000000000000000
 40
9.299999713897705
 41
0.0000000000000000
 71
     5
 72
     1
  1
\A1;\U+2205172
 11
6.123233995736766e-017
 21
1.000000000000000
 31
0.0000000000000000
  7
STANDARD
  0
ENDBLK
  5
286
100
AcDbEntity
  8
MAIN0
  6
CONTINUOUS
 62
3
100
AcDbBlockEnd
  0
BLOCK
  5
288
100
AcDbEntity
  8
MAIN0
  6
CONTINUOUS
 62
3
100
AcDbBlockBegin
  2
D19
 70
    64
 10
0.0
 20
0.0
 30
0.0
  0
LINE
  5
289
100
AcDbEntity
  8
MAIN0
  6
BYBLOCK
 62
0
100
AcDbLine
 10
59.85138894162937
 20
90.00000000000000
 30
0.0000000000000000
 11
59.85138894162937
 21
171.0000000000000
 31
0.0000000000000000
  0
LINE
  5
28A
100
AcDbEntity
  8
MAIN0
  6
BYBLOCK
 62
0
100
AcDbLine
 10
58.05138887010379
 20
165.0000000000000
 30
0.0000000000000000
 11
59.85138894162937
 21
171.0000000000000
 31
0.0000000000000000
  0
LINE
  5
28B
100
AcDbEntity
  8
MAIN0
  6
BYBLOCK
 62
0
100
AcDbLine
 10
59.85138894162937
 20
171.0000000000000
 30
0.0000000000000000
 11
61.65138901315494
 21
165.0000000000000
 31
0.0000000000000000
  0
LINE
  5
28C
100
AcDbEntity
  8
MAIN0
  6
BYBLOCK
 62
0
100
AcDbLine
 10
-105.2486110226079
 20
171.0000000000000
 30
0.0000000000000000
 11
65.85138894162937
 21
171.0000000000000
 31
0.0000000000000000
  0
MTEXT
  5
28D
100
AcDbEntity
  8
MAIN0
  6
BYBLOCK
 62
0
100
AcDbMText
 10
54.70138908468051
 20
96.45000000298023
 30
0.0000000000000000
 40
9.299999713897705
 41
0.0000000000000000
 71
     5
 72
     1
  1
\A1;\U+2205342
 11
6.123233995736766e-017
 21
1.000000000000000
 31
0.0000000000000000
  7
STANDARD
  0
ENDBLK
  5
28E
100
AcDbEntity
  8
MAIN0
  6
CONTINUOUS
 62
3
100
AcDbBlockEnd
  0
BLOCK
  5
290
100
AcDbEntity
  8
MAIN0
  6
CONTINUOUS
 62
3
100
AcDbBlockBegin
  2
*D20
 70
    65
 10
0.0
 20
0.0
 30
0.0
  0
LINE
  5
291
100
AcDbEntity
  8
MAIN0
  6
BYBLOCK
 62
0
100
AcDbLine
 10
267.5347717834807
 20
808.2143077984633
 30
0.0000000000000000
 11
231.1137452197224
 21
771.7932812347051
 31
0.0000000000000000
  0
LINE
  5
292
100
AcDbEntity
  8
MAIN0
  6
BYBLOCK
 62
0
100
AcDbLine
 10
235.3563859068416
 20
776.0359219218244
 30
0.0000000000000000
 11
245.9629876246399
 21
765.4293202040262
 31
0.0000000000000000
  0
INSERT
  5
293
100
AcDbEntity
  8
MAIN0
  6
BYBLOCK
 62
0
100
AcDbBlockReference
  2
_OPEN
 10
235.3563859068416
 20
776.0359219218244
 30
0.0000000000000000
 41
6.000000000000000
 42
6.000000000000000
 43
6.000000000000000
 50
315.0000000000002
  0
INSERT
  5
294
100
AcDbEntity
  8
MAIN0
  6
BYBLOCK
 62
0
100
AcDbBlockReference
  2
_OPEN
 10
245.9629876246399
 20
765.4293202040262
 30
0.0000000000000000
 41
6.000000000000000
 42
6.000000000000000
 43
6.000000000000000
 50
135.0000000000002
  0
LINE
  5
295
100
AcDbEntity
  8
MAIN0
  6
BYBLOCK
 62
0
100
AcDbLine
 10
231.1137452197223
 20
780.2785626089437
 30
0.0000000000000000
 11
199.1923258240890
 21
812.1999820045771
 31
0.0000000000000000
  0
LINE
  5
296
100
AcDbEntity
  8
MAIN0
  6
BYBLOCK
 62
0
100
AcDbLine
 10
250.2056283117592
 20
761.1866795169069
 30
0.0000000000000000
 11
252.3269486553188
 21
759.0653591733471
 31
0.0000000000000000
  0
LINE
  5
297
100
AcDbEntity
  8
MAIN0
  6
BYBLOCK
 62
0
100
AcDbLine
 10
278.1413735012761
 20
797.6077060806621
 30
0.0000000000000000
 11
241.7203469375207
 21
761.1866795169067
 31
0.0000000000000000
  0
MTEXT
  5
298
100
AcDbEntity
  8
MAIN0
  6
BYBLOCK
 62
0
100
AcDbMText
 10
216.5341197014413
 20
803.5556013335147
 30
0.0000000000000000
 40
9.299999713897705
 41
0.0000000000000000
 71
     5
 72
     1
  1
\A1;15\H0.903226x;\S+0.15^ +0.05;
 11
0.7071067811865468
 21
-0.7071067811865484
 31
0.0000000000000000
  7
STANDARD
  0
ENDBLK
  5
299
100
AcDbEntity
  8
MAIN0
  6
CONTINUOUS
 62
3
100
AcDbBlockEnd
  0
BLOCK
  5
2A0
100
AcDbEntity
  8
MAIN0
  6
CONTINUOUS
 62
3
100
AcDbBlockBegin
  2
*D21
 70
    65
 10
0.0
 20
0.0
 30
0.0
  0
LINE
  5
2A1
100
AcDbEntity
  8
MAIN0
  6
BYBLOCK
 62
0
100
AcDbLine
 10
887.5964465941311
 20
288.6964016912498
 30
0.0000000000000000
 11
903.8964465763831
 21
260.4639735585909
 31
0.0000000000000000
  0
ARC
  5
2A2
100
AcDbEntity
  8
MAIN0
  6
BYBLOCK
 62
0
100
AcDbCircle
 10
784.6464465764666
 20
467.0110323612278
 30
0.0000000000000000
 40
232.5000000000000
100
AcDbArc
 50
271.4786007616878
 51
298.5213992383489
  0
INSERT
  5
2A3
100
AcDbEntity
  8
MAIN0
  6
BYBLOCK
 62
0
100
AcDbBlockReference
  2
_OPEN
 10
784.6464465767097
 20
234.5110323612278
 30
0.0000000000000000
 41
6.000000000000000
 42
6.000000000000000
 43
6.000000000000000
 50
180.0000000000598
  0
INSERT
  5
2A4
100
AcDbEntity
  8
MAIN0
  6
BYBLOCK
 62
0
100
AcDbBlockReference
  2
_OPEN
 10
900.8964465763852
 20
265.6601259812989
 30
0.0000000000000000
 41
6.000000000000000
 42
6.000000000000000
 43
6.000000000000000
 50
29.99999999997687
  0
MTEXT
  5
2A5
100
AcDbEntity
  8
MAIN0
  6
BYBLOCK
 62
0
100
AcDbMText
 10
843.4889565176195
 20
247.4077956162502
 30
0.0000000000000000
 40
9.299999713897705
 41
0.0000000000000000
 71
     5
 72
     1
  1
\A1;30\U+00B0
 11
0.9659258262889852
 21
0.2588190451028311
 31
0.0000000000000000
  7
STANDARD
  0
ENDBLK
  5
2A6
100
AcDbEntity
  8
MAIN0
  6
CONTINUOUS
 62
3
100
AcDbBlockEnd
  0
BLOCK
  5
2A8
100
AcDbEntity
  8
MAIN0
  6
CONTINUOUS
 62
3
100
AcDbBlockBegin
  2
*D22
 70
    65
 10
0.0
 20
0.0
 30
0.0
  0
LINE
  5
2A9
100
AcDbEntity
  8
MAIN0
  6
BYBLOCK
 62
0
100
AcDbLine
 10
887.5964465941311
 20
288.6964016912498
 30
0.0000000000000000
 11
903.8964465763831
 21
260.4639735585909
 31
0.0000000000000000
  0
LINE
  5
2AA
100
AcDbEntity
  8
MAIN0
  6
BYBLOCK
 62
0
100
AcDbLine
 10
979.4155599185685
 20
354.5610323436285
 30
0.0000000000000000
 11
991.1935053791885
 21
347.7610323614587
 31
0.0000000000000000
  0
ARC
  5
2AB
100
AcDbEntity
  8
MAIN0
  6
BYBLOCK
 62
0
100
AcDbCircle
 10
784.6464465764666
 20
467.0110323612278
 30
0.0000000000000000
 40
232.5000000000000
100
AcDbArc
 50
301.4786007616048
 51
328.5213992384359
  0
INSERT
  5
2AC
100
AcDbEntity
  8
MAIN0
  6
BYBLOCK
 62
0
100
AcDbBlockReference
  2
_OPEN
 10
900.8964465763852
 20
265.6601259812989
 30
0.0000000000000000
 41
6.000000000000000
 42
6.000000000000000
 43
6.000000000000000
 50
209.9999999999768
  0
INSERT
  5
2AD
100
AcDbEntity
  8
MAIN0
  6
BYBLOCK
 62
0
100
AcDbBlockReference
  2
_OPEN
 10
985.9973529564782
 20
350.7610323614521
 30
0.0000000000000000
 41
6.000000000000000
 42
6.000000000000000
 43
6.000000000000000
 50
60.00000000006384
  0
MTEXT
  5
2AE
100
AcDbEntity
  8
MAIN0
  6
BYBLOCK
 62
0
100
AcDbMText
 10
945.4071733804377
 20
306.2503055573708
 30
0.0000000000000000
 40
9.299999713897705
 41
0.0000000000000000
 71
     5
 72
     1
  1
\A1;30\U+00B0
 11
0.7071067811862963
 21
0.7071067811867987
 31
0.0000000000000000
  7
STANDARD
  0
ENDBLK
  5
2AF
100
AcDbEntity
  8
MAIN0
  6
CONTINUOUS
 62
3
100
AcDbBlockEnd
  0
BLOCK
  5
2B1
100
AcDbEntity
  8
MAIN0
  6
CONTINUOUS
 62
3
100
AcDbBlockBegin
  2
*D23
 70
    65
 10
0.0
 20
0.0
 30
0.0
  0
LINE
  5
2B2
100
AcDbEntity
  8
MAIN0
  6
BYBLOCK
 62
0
100
AcDbLine
 10
979.4155599185685
 20
354.5610323436285
 30
0.0000000000000000
 11
991.1935053791885
 21
347.7610323614587
 31
0.0000000000000000
  0
ARC
  5
2B3
100
AcDbEntity
  8
MAIN0
  6
BYBLOCK
 62
0
100
AcDbCircle
 10
784.6464465764666
 20
467.0110323612278
 30
0.0000000000000000
 40
232.5000000000000
100
AcDbArc
 50
331.4786007616918
 51
358.5213992383721
  0
INSERT
  5
2B4
100
AcDbEntity
  8
MAIN0
  6
BYBLOCK
 62
0
100
AcDbBlockReference
  2
_OPEN
 10
985.9973529564782
 20
350.7610323614521
 30
0.0000000000000000
 41
6.000000000000000
 42
6.000000000000000
 43
6.000000000000000
 50
240.0000000000639
  0
INSERT
  5
2B5
100
AcDbEntity
  8
MAIN0
  6
BYBLOCK
 62
0
100
AcDbBlockReference
  2
_OPEN
 10
1017.146446576467
 20
467.0110323612277
 30
0.0000000000000000
 41
6.000000000000000
 42
6.000000000000000
 43
6.000000000000000
 50
90.00000000000000
  0
MTEXT
  5
2B6
100
AcDbEntity
  8
MAIN0
  6
BYBLOCK
 62
0
100
AcDbMText
 10
1004.249683321496
 20
408.1685224202676
 30
0.0000000000000000
 40
9.299999713897705
 41
0.0000000000000000
 71
     5
 72
     1
  1
\A1;30\U+00B0
 11
0.2588190451019826
 21
0.9659258262892125
 31
0.0000000000000000
  7
STANDARD
  0
ENDBLK
  5
2B7
100
AcDbEntity
  8
MAIN0
  6
CONTINUOUS
 62
3
100
AcDbBlockEnd
  0
BLOCK
  5
309
100
AcDbEntity
  8
MAIN0
  6
CONTINUOUS
 62
3
100
AcDbBlockBegin
  2
*D24
 70
    65
 10
0.0
 20
0.0
 30
0.0
  0
LINE
  5
30A
100
AcDbEntity
  8
MAIN0
  6
BYBLOCK
 62
0
100
AcDbLine
 10
414.3403815249535
 20
424.2610323614923
 30
0.0000000000000000
 11
461.4403814891907
 21
424.2610323614923
 31
0.0000000000000000
  0
LINE
  5
30B
100
AcDbEntity
  8
MAIN0
  6
BYBLOCK
 62
0
100
AcDbLine
 10
455.4403814891907
 20
418.2610323614923
 30
0.0000000000000000
 11
455.4403814891907
 21
386.2610323614923
 31
0.0000000000000000
  0
INSERT
  5
30C
100
AcDbEntity
  8
MAIN0
  6
BYBLOCK
 62
0
100
AcDbBlockReference
  2
_OPEN
 10
455.4403814891907
 20
424.2610323614923
 30
0.0000000000000000
 41
6.000000000000000
 42
6.000000000000000
 43
6.000000000000000
 50
90.00000000000000
  0
INSERT
  5
30D
100
AcDbEntity
  8
MAIN0
  6
BYBLOCK
 62
0
100
AcDbBlockReference
  2
_OPEN
 10
455.4403814891907
 20
380.2610323614923
 30
0.0000000000000000
 41
6.000000000000000
 42
6.000000000000000
 43
6.000000000000000
 50
270.0000000000000
  0
LINE
  5
30E
100
AcDbEntity
  8
MAIN0
  6
BYBLOCK
 62
0
100
AcDbLine
 10
414.3403815249535
 20
380.2610323614923
 30
0.0000000000000000
 11
461.4403814891907
 21
380.2610323614923
 31
0.0000000000000000
  0
MTEXT
  5
30F
100
AcDbEntity
  8
MAIN0
  6
BYBLOCK
 62
0
100
AcDbMText
 10
450.2903816322419
 20
402.2610323614923
 30
0.0000000000000000
 40
9.299999713897705
 41
0.0000000000000000
 71
     5
 72
     1
  1
\A1;44
 11
6.123233995736766e-017
 21
1.000000000000000
 31
0.0000000000000000
  7
STANDARD
  0
ENDBLK
  5
310
100
AcDbEntity
  8
MAIN0
  6
CONTINUOUS
 62
3
100
AcDbBlockEnd
  0
BLOCK
  5
312
100
AcDbEntity
  8
MAIN0
  6
CONTINUOUS
 62
3
100
AcDbBlockBegin
  2
*D25
 70
    65
 10
0.0
 20
0.0
 30
0.0
  0
LINE
  5
313
100
AcDbEntity
  8
MAIN0
  6
BYBLOCK
 62
0
100
AcDbLine
 10
414.3403815249535
 20
380.2610323614923
 30
0.0000000000000000
 11
461.4403814891907
 21
380.2610323614923
 31
0.0000000000000000
  0
LINE
  5
314
100
AcDbEntity
  8
MAIN0
  6
BYBLOCK
 62
0
100
AcDbLine
 10
455.4403814891907
 20
374.2610323614923
 30
0.0000000000000000
 11
455.4403814891907
 21
336.2610323614923
 31
0.0000000000000000
  0
INSERT
  5
315
100
AcDbEntity
  8
MAIN0
  6
BYBLOCK
 62
0
100
AcDbBlockReference
  2
_OPEN
 10
455.4403814891907
 20
380.2610323614923
 30
0.0000000000000000
 41
6.000000000000000
 42
6.000000000000000
 43
6.000000000000000
 50
90.00000000000000
  0
INSERT
  5
316
100
AcDbEntity
  8
MAIN0
  6
BYBLOCK
 62
0
100
AcDbBlockReference
  2
_OPEN
 10
455.4403814891907
 20
330.2610323614923
 30
0.0000000000000000
 41
6.000000000000000
 42
6.000000000000000
 43
6.000000000000000
 50
270.0000000000000
  0
LINE
  5
317
100
AcDbEntity
  8
MAIN0
  6
BYBLOCK
 62
0
100
AcDbLine
 10
393.8403815249535
 20
330.2610323614923
 30
0.0000000000000000
 11
461.4403814891907
 21
330.2610323614923
 31
0.0000000000000000
  0
MTEXT
  5
318
100
AcDbEntity
  8
MAIN0
  6
BYBLOCK
 62
0
100
AcDbMText
 10
450.2903816322419
 20
355.2610323614923
 30
0.0000000000000000
 40
9.299999713897705
 41
0.0000000000000000
 71
     5
 72
     1
  1
\A1;50
 11
6.123233995736766e-017
 21
1.000000000000000
 31
0.0000000000000000
  7
STANDARD
  0
ENDBLK
  5
319
100
AcDbEntity
  8
MAIN0
  6
CONTINUOUS
 62
3
100
AcDbBlockEnd
  0
BLOCK
  5
31B
100
AcDbEntity
  8
MAIN0
  6
CONTINUOUS
 62
3
100
AcDbBlockBegin
  2
*D26
 70
    65
 10
0.0
 20
0.0
 30
0.0
  0
LINE
  5
31C
100
AcDbEntity
  8
MAIN0
  6
BYBLOCK
 62
0
100
AcDbLine
 10
393.8403815249535
 20
330.2610323614923
 30
0.0000000000000000
 11
461.4403814891907
 21
330.2610323614923
 31
0.0000000000000000
  0
LINE
  5
31D
100
AcDbEntity
  8
MAIN0
  6
BYBLOCK
 62
0
100
AcDbLine
 10
455.4403814891907
 20
324.2610323614923
 30
0.0000000000000000
 11
455.4403814891907
 21
284.2610323614923
 31
0.0000000000000000
  0
INSERT
  5
31E
100
AcDbEntity
  8
MAIN0
  6
BYBLOCK
 62
0
100
AcDbBlockReference
  2
_OPEN
 10
455.4403814891907
 20
330.2610323614923
 30
0.0000000000000000
 41
6.000000000000000
 42
6.000000000000000
 43
6.000000000000000
 50
90.00000000000000
  0
INSERT
  5
31F
100
AcDbEntity
  8
MAIN0
  6
BYBLOCK
 62
0
100
AcDbBlockReference
  2
_OPEN
 10
455.4403814891907
 20
278.2610323614923
 30
0.0000000000000000
 41
6.000000000000000
 42
6.000000000000000
 43
6.000000000000000
 50
270.0000000000000
  0
LINE
  5
320
100
AcDbEntity
  8
MAIN0
  6
BYBLOCK
 62
0
100
AcDbLine
 10
373.8403815249535
 20
278.2610323614923
 30
0.0000000000000000
 11
461.4403814891907
 21
278.2610323614923
 31
0.0000000000000000
  0
MTEXT
  5
321
100
AcDbEntity
  8
MAIN0
  6
BYBLOCK
 62
0
100
AcDbMText
 10
450.2903816322419
 20
304.2610323614923
 30
0.0000000000000000
 40
9.299999713897705
 41
0.0000000000000000
 71
     5
 72
     1
  1
\A1;52
 11
6.123233995736766e-017
 21
1.000000000000000
 31
0.0000000000000000
  7
STANDARD
  0
ENDBLK
  5
322
100
AcDbEntity
  8
MAIN0
  6
CONTINUOUS
 62
3
100
AcDbBlockEnd
  0
BLOCK
  5
324
100
AcDbEntity
  8
MAIN0
  6
CONTINUOUS
 62
3
100
AcDbBlockBegin
  2
*D27
 70
    65
 10
0.0
 20
0.0
 30
0.0
  0
LINE
  5
325
100
AcDbEntity
  8
MAIN0
  6
BYBLOCK
 62
0
100
AcDbLine
 10
413.4403814891907
 20
379.3610323257295
 30
0.0000000000000000
 11
413.4403814891907
 21
351.0110323614923
 31
0.0000000000000000
  0
LINE
  5
326
100
AcDbEntity
  8
MAIN0
  6
BYBLOCK
 62
0
100
AcDbLine
 10
413.4403814891907
 20
357.0110323614923
 30
0.0000000000000000
 11
393.4403814891907
 21
357.0110323614923
 31
0.0000000000000000
  0
INSERT
  5
327
100
AcDbEntity
  8
MAIN0
  6
BYBLOCK
 62
0
100
AcDbBlockReference
  2
_OPEN
 10
413.4403814891907
 20
357.0110323614923
 30
0.0000000000000000
 41
6.000000000000000
 42
6.000000000000000
 43
6.000000000000000
 50
180.0000000000000
  0
INSERT
  5
328
100
AcDbEntity
  8
MAIN0
  6
BYBLOCK
 62
0
100
AcDbBlockReference
  2
_OPEN
 10
393.4403814891907
 20
357.0110323614923
 30
0.0000000000000000
 41
6.000000000000000
 42
6.000000000000000
 43
6.000000000000000
 50
360.0000000000000
  0
LINE
  5
329
100
AcDbEntity
  8
MAIN0
  6
BYBLOCK
 62
0
100
AcDbLine
 10
419.4403814891907
 20
357.0110323614923
 30
0.0000000000000000
 11
422.4403814891907
 21
357.0110323614923
 31
0.0000000000000000
  0
LINE
  5
32A
100
AcDbEntity
  8
MAIN0
  6
BYBLOCK
 62
0
100
AcDbLine
 10
387.4403814891907
 20
357.0110323614923
 30
0.0000000000000000
 11
384.4403814891907
 21
357.0110323614923
 31
0.0000000000000000
  0
MTEXT
  5
32B
100
AcDbEntity
  8
MAIN0
  6
BYBLOCK
 62
0
100
AcDbMText
 10
403.4403814891907
 20
362.1610322184411
 30
0.0000000000000000
 40
9.299999713897705
 41
0.0000000000000000
 71
     5
 72
     1
  1
\A1;20
 11
1.000000000000000
 21
0.0000000000000000
 31
0.0000000000000000
  7
STANDARD
  0
ENDBLK
  5
32C
100
AcDbEntity
  8
MAIN0
  6
CONTINUOUS
 62
3
100
AcDbBlockEnd
  0
BLOCK
  5
32E
100
AcDbEntity
  8
MAIN0
  6
CONTINUOUS
 62
3
100
AcDbBlockBegin
  2
*D28
 70
    65
 10
0.0
 20
0.0
 30
0.0
  0
LINE
  5
32F
100
AcDbEntity
  8
MAIN0
  6
BYBLOCK
 62
0
100
AcDbLine
 10
393.4403814891907
 20
342.8610323257295
 30
0.0000000000000000
 11
393.4403814891907
 21
301.0110323614923
 31
0.0000000000000000
  0
LINE
  5
330
100
AcDbEntity
  8
MAIN0
  6
BYBLOCK
 62
0
100
AcDbLine
 10
393.4403814891907
 20
307.0110323614923
 30
0.0000000000000000
 11
373.4403814891907
 21
307.0110323614923
 31
0.0000000000000000
  0
INSERT
  5
331
100
AcDbEntity
  8
MAIN0
  6
BYBLOCK
 62
0
100
AcDbBlockReference
  2
_OPEN
 10
393.4403814891907
 20
307.0110323614923
 30
0.0000000000000000
 41
6.000000000000000
 42
6.000000000000000
 43
6.000000000000000
 50
180.0000000000000
  0
INSERT
  5
332
100
AcDbEntity
  8
MAIN0
  6
BYBLOCK
 62
0
100
AcDbBlockReference
  2
_OPEN
 10
373.4403814891907
 20
307.0110323614923
 30
0.0000000000000000
 41
6.000000000000000
 42
6.000000000000000
 43
6.000000000000000
 50
360.0000000000000
  0
LINE
  5
333
100
AcDbEntity
  8
MAIN0
  6
BYBLOCK
 62
0
100
AcDbLine
 10
399.4403814891907
 20
307.0110323614923
 30
0.0000000000000000
 11
402.4403814891907
 21
307.0110323614923
 31
0.0000000000000000
  0
LINE
  5
334
100
AcDbEntity
  8
MAIN0
  6
BYBLOCK
 62
0
100
AcDbLine
 10
367.4403814891907
 20
307.0110323614923
 30
0.0000000000000000
 11
364.4403814891907
 21
307.0110323614923
 31
0.0000000000000000
  0
MTEXT
  5
335
100
AcDbEntity
  8
MAIN0
  6
BYBLOCK
 62
0
100
AcDbMText
 10
383.4403814891907
 20
312.1610322184411
 30
0.0000000000000000
 40
9.299999713897705
 41
0.0000000000000000
 71
     5
 72
     1
  1
\A1;20
 11
1.000000000000000
 21
0.0000000000000000
 31
0.0000000000000000
  7
STANDARD
  0
ENDBLK
  5
336
100
AcDbEntity
  8
MAIN0
  6
CONTINUOUS
 62
3
100
AcDbBlockEnd
  0
BLOCK
  5
354
100
AcDbEntity
  8
MAIN0
  6
CONTINUOUS
 62
3
100
AcDbBlockBegin
  2
*D29
 70
    65
 10
0.0
 20
0.0
 30
0.0
  0
LINE
  5
355
100
AcDbEntity
  8
MAIN0
  6
BYBLOCK
 62
0
100
AcDbLine
 10
355.4403814891907
 20
264.1110323257294
 30
0.0000000000000000
 11
355.4403814891907
 21
236.0110323614923
 31
0.0000000000000000
  0
LINE
  5
356
100
AcDbEntity
  8
MAIN0
  6
BYBLOCK
 62
0
100
AcDbLine
 10
355.4403814891907
 20
242.0110323614923
 30
0.0000000000000000
 11
338.4403814891908
 21
242.0110323614923
 31
0.0000000000000000
  0
INSERT
  5
357
100
AcDbEntity
  8
MAIN0
  6
BYBLOCK
 62
0
100
AcDbBlockReference
  2
_OPEN
 10
355.4403814891907
 20
242.0110323614923
 30
0.0000000000000000
 41
6.000000000000000
 42
6.000000000000000
 43
6.000000000000000
 50
180.0000000000000
  0
INSERT
  5
358
100
AcDbEntity
  8
MAIN0
  6
BYBLOCK
 62
0
100
AcDbBlockReference
  2
_OPEN
 10
338.4403814891908
 20
242.0110323614923
 30
0.0000000000000000
 41
6.000000000000000
 42
6.000000000000000
 43
6.000000000000000
 50
360.0000000000000
  0
LINE
  5
359
100
AcDbEntity
  8
MAIN0
  6
BYBLOCK
 62
0
100
AcDbLine
 10
361.4403814891907
 20
242.0110323614923
 30
0.0000000000000000
 11
364.4403814891907
 21
242.0110323614923
 31
0.0000000000000000
  0
LINE
  5
35A
100
AcDbEntity
  8
MAIN0
  6
BYBLOCK
 62
0
100
AcDbLine
 10
332.4403814891908
 20
242.0110323614923
 30
0.0000000000000000
 11
329.4403814891908
 21
242.0110323614923
 31
0.0000000000000000
  0
LINE
  5
35B
100
AcDbEntity
  8
MAIN0
  6
BYBLOCK
 62
0
100
AcDbLine
 10
338.4403814891908
 20
266.1110323257233
 30
0.0000000000000000
 11
338.4403814891908
 21
236.0110323614923
 31
0.0000000000000000
  0
MTEXT
  5
35C
100
AcDbEntity
  8
MAIN0
  6
BYBLOCK
 62
0
100
AcDbMText
 10
346.9403814891907
 20
247.1610322184411
 30
0.0000000000000000
 40
9.299999713897705
 41
0.0000000000000000
 71
     5
 72
     1
  1
\A1;17
 11
1.000000000000000
 21
0.0000000000000000
 31
0.0000000000000000
  7
STANDARD
  0
ENDBLK
  5
35D
100
AcDbEntity
  8
MAIN0
  6
CONTINUOUS
 62
3
100
AcDbBlockEnd
  0
BLOCK
  5
35F
100
AcDbEntity
  8
MAIN0
  6
CONTINUOUS
 62
3
100
AcDbBlockBegin
  2
*D30
 70
    65
 10
0.0
 20
0.0
 30
0.0
  0
LINE
  5
360
100
AcDbEntity
  8
MAIN0
  6
BYBLOCK
 62
0
100
AcDbLine
 10
235.4403814891907
 20
264.1110323257295
 30
0.0000000000000000
 11
235.4403814891907
 21
236.0110323614923
 31
0.0000000000000000
  0
LINE
  5
361
100
AcDbEntity
  8
MAIN0
  6
BYBLOCK
 62
0
100
AcDbLine
 10
229.4403814891907
 20
242.0110323614923
 30
0.0000000000000000
 11
214.4403814891907
 21
242.0110323614923
 31
0.0000000000000000
  0
INSERT
  5
362
100
AcDbEntity
  8
MAIN0
  6
BYBLOCK
 62
0
100
AcDbBlockReference
  2
_OPEN
 10
235.4403814891907
 20
242.0110323614923
 30
0.0000000000000000
 41
6.000000000000000
 42
6.000000000000000
 43
6.000000000000000
 50
360.0000000000000
  0
INSERT
  5
363
100
AcDbEntity
  8
MAIN0
  6
BYBLOCK
 62
0
100
AcDbBlockReference
  2
_OPEN
 10
208.4403814891907
 20
242.0110323614923
 30
0.0000000000000000
 41
6.000000000000000
 42
6.000000000000000
 43
6.000000000000000
 50
180.0000000000000
  0
LINE
  5
364
100
AcDbEntity
  8
MAIN0
  6
BYBLOCK
 62
0
100
AcDbLine
 10
208.4403814891907
 20
270.1110323257232
 30
0.0000000000000000
 11
208.4403814891907
 21
236.0110323614923
 31
0.0000000000000000
  0
MTEXT
  5
365
100
AcDbEntity
  8
MAIN0
  6
BYBLOCK
 62
0
100
AcDbMText
 10
221.9403814891907
 20
247.1610322184411
 30
0.0000000000000000
 40
9.299999713897705
 41
0.0000000000000000
 71
     5
 72
     1
  1
\A1;27
 11
1.000000000000000
 21
0.0000000000000000
 31
0.0000000000000000
  7
STANDARD
  0
ENDBLK
  5
366
100
AcDbEntity
  8
MAIN0
  6
CONTINUOUS
 62
3
100
AcDbBlockEnd
  0
BLOCK
  5
36A
100
AcDbEntity
  8
MAIN0
  6
CONTINUOUS
 62
3
100
AcDbBlockBegin
  2
*D31
 70
    65
 10
0.0
 20
0.0
 30
0.0
  0
LINE
  5
36B
100
AcDbEntity
  8
MAIN0
  6
BYBLOCK
 62
0
100
AcDbLine
 10
357.8403815249536
 20
268.5110323614923
 30
0.0000000000000000
 11
401.4403814891907
 21
268.5110323614923
 31
0.0000000000000000
  0
LINE
  5
36C
100
AcDbEntity
  8
MAIN0
  6
BYBLOCK
 62
0
100
AcDbLine
 10
395.4403814891907
 20
268.5110323614923
 30
0.0000000000000000
 11
395.4403814891907
 21
290.5110323614923
 31
0.0000000000000000
  0
INSERT
  5
36D
100
AcDbEntity
  8
MAIN0
  6
BYBLOCK
 62
0
100
AcDbBlockReference
  2
_OPEN
 10
395.4403814891907
 20
268.5110323614923
 30
0.0000000000000000
 41
6.000000000000000
 42
6.000000000000000
 43
6.000000000000000
 50
90.00000000000000
  0
INSERT
  5
36E
100
AcDbEntity
  8
MAIN0
  6
BYBLOCK
 62
0
100
AcDbBlockReference
  2
_OPEN
 10
395.4403814891907
 20
290.5110323614923
 30
0.0000000000000000
 41
6.000000000000000
 42
6.000000000000000
 43
6.000000000000000
 50
270.0000000000000
  0
LINE
  5
36F
100
AcDbEntity
  8
MAIN0
  6
BYBLOCK
 62
0
100
AcDbLine
 10
395.4403814891907
 20
262.5110323614923
 30
0.0000000000000000
 11
395.4403814891907
 21
259.5110323614923
 31
0.0000000000000000
  0
LINE
  5
370
100
AcDbEntity
  8
MAIN0
  6
BYBLOCK
 62
0
100
AcDbLine
 10
395.4403814891907
 20
296.5110323614923
 30
0.0000000000000000
 11
395.4403814891907
 21
299.5110323614923
 31
0.0000000000000000
  0
LINE
  5
371
100
AcDbEntity
  8
MAIN0
  6
BYBLOCK
 62
0
100
AcDbLine
 10
357.8403815249534
 20
290.5110323614923
 30
0.0000000000000000
 11
401.4403814891907
 21
290.5110323614923
 31
0.0000000000000000
  0
MTEXT
  5
372
100
AcDbEntity
  8
MAIN0
  6
BYBLOCK
 62
0
100
AcDbMText
 10
389.2903816322419
 20
280.4539411605918
 30
0.0000000000000000
 40
9.299999713897705
 41
0.0000000000000000
 71
     5
 72
     1
  1
\A1;\U+220522
 11
6.123233995736766e-017
 21
1.000000000000000
 31
0.0000000000000000
  7
STANDARD
  0
ENDBLK
  5
373
100
AcDbEntity
  8
MAIN0
  6
CONTINUOUS
 62
3
100
AcDbBlockEnd
  0
BLOCK
  5
375
100
AcDbEntity
  8
MAIN0
  6
CONTINUOUS
 62
3
100
AcDbBlockBegin
  2
*D32
 70
    65
 10
0.0
 20
0.0
 30
0.0
  0
LINE
  5
376
100
AcDbEntity
  8
MAIN0
  6
BYBLOCK
 62
0
100
AcDbLine
 10
891.3945291015477
 20
613.8003265120483
 30
0.0000000000000000
 11
677.8983640513854
 21
320.2217382109362
 31
0.0000000000000000
  0
INSERT
  5
377
100
AcDbEntity
  8
MAIN0
  6
BYBLOCK
 62
0
100
AcDbBlockReference
  2
_OPEN
 10
894.9233913337819
 20
618.6528651616535
 30
0.0000000000000000
 41
6.000000000000000
 42
6.000000000000000
 43
6.000000000000000
 50
53.97460973479042
  0
INSERT
  5
378
100
AcDbEntity
  8
MAIN0
  6
BYBLOCK
 62
0
100
AcDbBlockReference
  2
_OPEN
 10
674.3695018191514
 20
315.3691995613311
 30
0.0000000000000000
 41
6.000000000000000
 42
6.000000000000000
 43
6.000000000000000
 50
233.9746097347905
  0
MTEXT
  5
379
100
AcDbEntity
  8
MAIN0
  6
BYBLOCK
 62
0
100
AcDbMText
 10
764.5521655803962
 20
449.8360133216031
 30
0.0000000000000000
 40
9.299999713897705
 41
0.0000000000000000
 71
     5
 72
     1
  1
\A1;\U+2205375
 11
0.5881437053723480
 21
0.8087564416008597
 31
0.0000000000000000
  7
STANDARD
  0
ENDBLK
  5
37A
100
AcDbEntity
  8
MAIN0
  6
CONTINUOUS
 62
3
100
AcDbBlockEnd
  0
BLOCK
  5
381
100
AcDbEntity
  8
MAIN0
  6
CONTINUOUS
 62
3
100
AcDbBlockBegin
  2
*D33
 70
    65
 10
0.0
 20
0.0
 30
0.0
  0
LINE
  5
382
100
AcDbEntity
  8
MAIN0
  6
BYBLOCK
 62
0
100
AcDbLine
 10
233.0403814534279
 20
294.5110323614923
 30
0.0000000000000000
 11
169.4403814891907
 21
294.5110323614923
 31
0.0000000000000000
  0
LINE
  5
383
100
AcDbEntity
  8
MAIN0
  6
BYBLOCK
 62
0
100
AcDbLine
 10
175.4403814891907
 20
300.5110323614923
 30
0.0000000000000000
 11
175.4403814891907
 21
633.5110323614923
 31
0.0000000000000000
  0
INSERT
  5
384
100
AcDbEntity
  8
MAIN0
  6
BYBLOCK
 62
0
100
AcDbBlockReference
  2
_OPEN
 10
175.4403814891907
 20
294.5110323614923
 30
0.0000000000000000
 41
6.000000000000000
 42
6.000000000000000
 43
6.000000000000000
 50
270.0000000000000
  0
INSERT
  5
385
100
AcDbEntity
  8
MAIN0
  6
BYBLOCK
 62
0
100
AcDbBlockReference
  2
_OPEN
 10
175.4403814891907
 20
639.5110323614923
 30
0.0000000000000000
 41
6.000000000000000
 42
6.000000000000000
 43
6.000000000000000
 50
90.00000000000000
  0
LINE
  5
386
100
AcDbEntity
  8
MAIN0
  6
BYBLOCK
 62
0
100
AcDbLine
 10
233.0403814534280
 20
639.5110323614923
 30
0.0000000000000000
 11
169.4403814891907
 21
639.5110323614923
 31
0.0000000000000000
  0
MTEXT
  5
387
100
AcDbEntity
  8
MAIN0
  6
BYBLOCK
 62
0
100
AcDbMText
 10
170.2903816322419
 20
467.0110323428659
 30
0.0000000000000000
 40
9.299999713897705
 41
0.0000000000000000
 71
     5
 72
     1
  1
\A1;\U+2205345H6\H0.903226x;\S＋0.036^ 　0;
 11
6.123233995736766e-017
 21
1.000000000000000
 31
0.0000000000000000
  7
KNJYOKO
  0
ENDBLK
  5
388
100
AcDbEntity
  8
MAIN0
  6
CONTINUOUS
 62
3
100
AcDbBlockEnd
  0
ENDSEC
  0
SECTION
  2
ENTITIES
  0
LINE
  5
46
100
AcDbEntity
  8
MAIN0
  6
CONTINUOUS
 62
3
100
AcDbLine
 10
235.4403814891907
 20
266.5110323614923
 30
0.0000000000000000
 11
235.4403814891907
 21
667.5110323614922
 31
0.0000000000000000
  0
LINE
  5
47
100
AcDbEntity
  8
MAIN0
  6
CONTINUOUS
 62
3
100
AcDbLine
 10
353.4403814891907
 20
264.5110323614923
 30
0.0000000000000000
 11
237.4403814891907
 21
264.5110323614923
 31
0.0000000000000000
  0
ARC
  5
48
100
AcDbEntity
  8
MAIN0
  6
CONTINUOUS
 62
3
100
AcDbCircle
 10
353.4403814891908
 20
667.5110323614922
 30
0.0000000000000000
 40
2.000000000000000
100
AcDbArc
 50
0.0000000000000000
 51
90.00000000000000
  0
ARC
  5
49
100
AcDbEntity
  8
MAIN0
  6
CONTINUOUS
 62
3
100
AcDbCircle
 10
237.4403814891907
 20
667.5110323614922
 30
0.0000000000000000
 40
2.000000000000000
100
AcDbArc
 50
90.00000000000000
 51
180.0000000000000
  0
ARC
  5
4A
100
AcDbEntity
  8
MAIN0
  6
CONTINUOUS
 62
3
100
AcDbCircle
 10
237.4403814891907
 20
266.5110323614923
 30
0.0000000000000000
 40
2.000000000000000
100
AcDbArc
 50
180.0000000000000
 51
270.0000000000000
  0
ARC
  5
4B
100
AcDbEntity
  8
MAIN0
  6
CONTINUOUS
 62
3
100
AcDbCircle
 10
353.4403814891907
 20
266.5110323614923
 30
0.0000000000000000
 40
2.000000000000000
100
AcDbArc
 50
270.0000000000000
 51
360.0000000000000
  0
LINE
  5
4C
100
AcDbEntity
  8
MAIN0
  6
CONTINUOUS
 62
3
100
AcDbLine
 10
255.4403814891907
 20
294.5110323614923
 30
0.0000000000000000
 11
235.4403814891907
 21
294.5110323614923
 31
0.0000000000000000
  0
LINE
  5
4D
100
AcDbEntity
  8
MAIN0
  6
CONTINUOUS
 62
3
100
AcDbLine
 10
243.4403814891907
 20
294.5110323614923
 30
0.0000000000000000
 11
243.4403814891907
 21
639.5110323614922
 31
0.0000000000000000
  0
LINE
  5
4E
100
AcDbEntity
  8
MAIN0
  6
CONTINUOUS
 62
3
100
AcDbLine
 10
355.4403814891907
 20
522.0110323614922
 30
0.0000000000000000
 11
243.4403814891907
 21
522.0110323614923
 31
0.0000000000000000
  0
LINE
  5
4F
100
AcDbEntity
  8
MAIN0
  6
HIDDEN
 62
3
100
AcDbLine
 10
299.9403814891908
 20
668.0110323614922
 30
0.0000000000000000
 11
300.9403814891908
 21
667.0110323614922
 31
0.0000000000000000
  0
LINE
  5
50
100
AcDbEntity
  8
MAIN0
  6
HIDDEN
 62
3
100
AcDbLine
 10
257.9403814891908
 20
668.0110323614922
 30
0.0000000000000000
 11
256.9403814891908
 21
667.0110323614922
 31
0.0000000000000000
  0
ARC
  5
51
100
AcDbEntity
  8
MAIN0
  6
HIDDEN
 62
3
100
AcDbCircle
 10
260.9403814891907
 20
653.5110323614922
 30
0.0000000000000000
 40
4.500000000000000
100
AcDbArc
 50
270.0000000000000
 51
450.0000000000000
  0
LINE
  5
52
100
AcDbEntity
  8
MAIN0
  6
CENTER
 62
3
100
AcDbLine
 10
279.9669632970732
 20
456.9626660412287
 30
0.0000000000000000
 11
259.9455059274233
 21
652.9362712242357
 31
0.0000000000000000
  0
LINE
  5
53
100
AcDbEntity
  8
MAIN0
  6
HIDDEN
 62
3
100
AcDbLine
 10
262.1974638940138
 20
598.0110323616243
 30
0.0000000000000000
 11
256.9403814891227
 21
637.4110323614932
 31
0.0000000000000000
  0
ARC
  5
54
100
AcDbEntity
  8
MAIN0
  6
HIDDEN
 62
3
100
AcDbCircle
 10
296.9403814891907
 20
653.5110323614922
 30
0.0000000000000000
 40
4.500000000000000
100
AcDbArc
 50
90.00000000000000
 51
270.0000000000000
  0
LINE
  5
55
100
AcDbEntity
  8
MAIN0
  6
HIDDEN
 62
3
100
AcDbLine
 10
295.6832990843324
 20
598.0110323613603
 30
0.0000000000000000
 11
300.9403814892587
 21
637.4110323614932
 31
0.0000000000000000
  0
LINE
  5
56
100
AcDbEntity
  8
MAIN0
  6
HIDDEN
 62
3
100
AcDbLine
 10
300.9403814891907
 20
658.0110323614922
 30
0.0000000000000000
 11
296.9403814891907
 21
658.0110323614922
 31
0.0000000000000000
  0
LINE
  5
57
100
AcDbEntity
  8
MAIN0
  6
HIDDEN
 62
3
100
AcDbLine
 10
260.9403814891907
 20
658.0110323614923
 30
0.0000000000000000
 11
256.9403814891907
 21
658.0110323614923
 31
0.0000000000000000
  0
LINE
  5
58
100
AcDbEntity
  8
MAIN0
  6
HIDDEN
 62
3
100
AcDbLine
 10
300.9403814891907
 20
649.0110323614922
 30
0.0000000000000000
 11
296.9403814891907
 21
649.0110323614922
 31
0.0000000000000000
  0
LINE
  5
59
100
AcDbEntity
  8
MAIN0
  6
HIDDEN
 62
3
100
AcDbLine
 10
260.9403814891907
 20
649.0110323614923
 30
0.0000000000000000
 11
256.9403814891907
 21
649.0110323614923
 31
0.0000000000000000
  0
LINE
  5
5A
100
AcDbEntity
  8
MAIN0
  6
HIDDEN
 62
3
100
AcDbLine
 10
288.6903814891907
 20
646.0110323614922
 30
0.0000000000000000
 11
269.1903814891907
 21
646.0110323614922
 31
0.0000000000000000
  0
LINE
  5
5B
100
AcDbEntity
  8
MAIN0
  6
HIDDEN
 62
3
100
AcDbLine
 10
286.4403814891907
 20
636.0110323614922
 30
0.0000000000000000
 11
271.4403814891907
 21
636.0110323614922
 31
0.0000000000000000
  0
LINE
  5
5C
100
AcDbEntity
  8
MAIN0
  6
HIDDEN
 62
3
100
AcDbLine
 10
271.4403814891907
 20
636.0110323614922
 30
0.0000000000000000
 11
271.4403814891907
 21
646.0110323614922
 31
0.0000000000000000
  0
LINE
  5
5D
100
AcDbEntity
  8
MAIN0
  6
HIDDEN
 62
3
100
AcDbLine
 10
286.4403814891907
 20
636.0110323614922
 30
0.0000000000000000
 11
286.4403814891907
 21
646.0110323614922
 31
0.0000000000000000
  0
LINE
  5
5E
100
AcDbEntity
  8
MAIN0
  6
HIDDEN
 62
3
100
AcDbLine
 10
278.9403814888245
 20
631.6809053425667
 30
0.0000000000000000
 11
271.4403814888124
 21
636.0110323614928
 31
0.0000000000000000
  0
LINE
  5
5F
100
AcDbEntity
  8
MAIN0
  6
HIDDEN
 62
3
100
AcDbLine
 10
286.4403814888417
 20
636.0110323614924
 30
0.0000000000000000
 11
278.9403814888240
 21
631.6809053425668
 31
0.0000000000000000
  0
LINE
  5
60
100
AcDbEntity
  8
MAIN0
  6
HIDDEN
 62
3
100
AcDbLine
 10
269.1903814891907
 20
646.0110323614922
 30
0.0000000000000000
 11
269.1903814891907
 21
667.0006693906489
 31
0.0000000000000000
  0
LINE
  5
61
100
AcDbEntity
  8
MAIN0
  6
HIDDEN
 62
3
100
AcDbLine
 10
288.6903814891907
 20
646.0110323614922
 30
0.0000000000000000
 11
288.6903814891907
 21
667.0006693906632
 31
0.0000000000000000
  0
LINE
  5
62
100
AcDbEntity
  8
MAIN0
  6
HIDDEN
 62
3
100
AcDbLine
 10
269.1903814895078
 20
667.0006693906486
 30
0.0000000000000000
 11
267.4403814899182
 21
668.0110323614924
 31
0.0000000000000000
  0
LINE
  5
63
100
AcDbEntity
  8
MAIN0
  6
HIDDEN
 62
3
100
AcDbLine
 10
290.4403814898628
 20
668.0110323614924
 30
0.0000000000000000
 11
288.6903814903022
 21
667.0006693906635
 31
0.0000000000000000
  0
LINE
  5
64
100
AcDbEntity
  8
MAIN0
  6
HIDDEN
 62
3
100
AcDbLine
 10
288.6903814891907
 20
667.0006693906634
 30
0.0000000000000000
 11
269.1903814891908
 21
667.0006693906489
 31
0.0000000000000000
  0
LINE
  5
65
100
AcDbEntity
  8
MAIN0
  6
CENTER
 62
3
100
AcDbLine
 10
311.8812640779772
 20
809.0133157863752
 30
0.0000000000000000
 11
244.6320560063372
 21
809.0133157863752
 31
0.0000000000000000
  0
LINE
  5
66
100
AcDbEntity
  8
MAIN0
  6
CONTINUOUS
 62
3
100
AcDbLine
 10
288.6489348947663
 20
809.9113640985978
 30
0.0000000000000000
 11
279.8384298014133
 21
818.7218691919509
 31
0.0000000000000000
  0
LINE
  5
67
100
AcDbEntity
  8
MAIN0
  6
CONTINUOUS
 62
3
100
AcDbLine
 10
278.0423331769681
 20
799.3047623807996
 30
0.0000000000000000
 11
269.2318280836150
 21
808.1152674741527
 31
0.0000000000000000
  0
LINE
  5
68
100
AcDbEntity
  8
MAIN0
  6
CONTINUOUS
 62
3
100
AcDbLine
 10
269.2318280836166
 20
809.9113640985991
 30
0.0000000000000000
 11
278.0423331769667
 21
818.7218691919493
 31
0.0000000000000000
  0
LINE
  5
69
100
AcDbEntity
  8
MAIN0
  6
CONTINUOUS
 62
3
100
AcDbLine
 10
279.8384298014119
 20
799.3047623807979
 30
0.0000000000000000
 11
288.6489348947679
 21
808.1152674741541
 31
0.0000000000000000
  0
CIRCLE
  5
6A
100
AcDbEntity
  8
MAIN0
  6
CONTINUOUS
 62
3
100
AcDbCircle
 10
278.9403814891908
 20
809.0133157863751
 30
0.0000000000000000
 40
7.500000000000026
  0
LINE
  5
6B
100
AcDbEntity
  8
MAIN0
  6
HIDDEN
 62
3
100
AcDbLine
 10
279.8384298014031
 20
667.0006693906568
 30
0.0000000000000000
 11
279.8384298014017
 21
646.0110323614922
 31
0.0000000000000000
  0
LINE
  5
6C
100
AcDbEntity
  8
MAIN0
  6
HIDDEN
 62
3
100
AcDbLine
 10
278.0423331769784
 20
667.0006693906556
 30
0.0000000000000000
 11
278.0423331769798
 21
646.0110323614923
 31
0.0000000000000000
  0
LINE
  5
6D
100
AcDbEntity
  8
MAIN0
  6
HIDDEN
 62
3
100
AcDbLine
 10
269.8555243169932
 20
577.9687727268739
 30
0.0000000000000000
 11
264.0835679461466
 21
642.0110323614923
 31
0.0000000000000000
  0
ARC
  5
6E
100
AcDbEntity
  8
MAIN0
  6
HIDDEN
 62
3
100
AcDbCircle
 10
226.1492333599766
 20
638.5921129567479
 30
0.0000000000000000
 40
38.08809197625462
100
AcDbArc
 50
5.150000000000748
 51
16.42532263730664
  0
LINE
  5
6F
100
AcDbEntity
  8
MAIN0
  6
HIDDEN
 62
3
100
AcDbLine
 10
288.0252386613364
 20
577.9687727262982
 30
0.0000000000000000
 11
293.7971950322349
 21
642.0110323614923
 31
0.0000000000000000
  0
ARC
  5
70
100
AcDbEntity
  8
MAIN0
  6
HIDDEN
 62
3
100
AcDbCircle
 10
331.7315296184049
 20
638.5921129567479
 30
0.0000000000000000
 40
38.08809197625462
100
AcDbArc
 50
163.5746773626933
 51
174.8499999999992
  0
LINE
  5
71
100
AcDbEntity
  8
MAIN0
  6
HIDDEN
 62
3
100
AcDbLine
 10
317.9403814891907
 20
638.0110323614922
 30
0.0000000000000000
 11
302.0603814891907
 21
638.0110323614922
 31
0.0000000000000000
  0
LINE
  5
72
100
AcDbEntity
  8
MAIN0
  6
HIDDEN
 62
3
100
AcDbLine
 10
302.0603814886653
 20
638.0110323614922
 30
0.0000000000000000
 11
295.2527918524856
 21
586.9905211717718
 31
0.0000000000000000
  0
LINE
  5
73
100
AcDbEntity
  8
MAIN0
  6
HIDDEN
 62
3
100
AcDbLine
 10
310.4403814891907
 20
634.2910323614923
 30
0.0000000000000000
 11
310.4403814891907
 21
638.0110323614922
 31
0.0000000000000000
  0
LINE
  5
74
100
AcDbEntity
  8
MAIN0
  6
HIDDEN
 62
3
100
AcDbLine
 10
317.9403814891907
 20
629.2110323614922
 30
0.0000000000000000
 11
317.9403814891907
 21
634.2910323614923
 31
0.0000000000000000
  0
LINE
  5
75
100
AcDbEntity
  8
MAIN0
  6
HIDDEN
 62
3
100
AcDbLine
 10
317.9403814891907
 20
619.0510323614923
 30
0.0000000000000000
 11
317.9403814891907
 21
624.1310323614923
 31
0.0000000000000000
  0
LINE
  5
76
100
AcDbEntity
  8
MAIN0
  6
HIDDEN
 62
3
100
AcDbLine
 10
317.9403814891907
 20
608.8910323614923
 30
0.0000000000000000
 11
317.9403814891907
 21
613.9710323614922
 31
0.0000000000000000
  0
LINE
  5
77
100
AcDbEntity
  8
MAIN0
  6
HIDDEN
 62
3
100
AcDbLine
 10
317.9403814891907
 20
598.7310323614922
 30
0.0000000000000000
 11
317.9403814891907
 21
603.8110323614923
 31
0.0000000000000000
  0
LINE
  5
78
100
AcDbEntity
  8
MAIN0
  6
HIDDEN
 62
3
100
AcDbLine
 10
317.9403814891907
 20
588.5710323614923
 30
0.0000000000000000
 11
317.9403814891907
 21
593.6510323614923
 31
0.0000000000000000
  0
LINE
  5
79
100
AcDbEntity
  8
MAIN0
  6
HIDDEN
 62
3
100
AcDbLine
 10
317.9403814891907
 20
578.4110323614923
 30
0.0000000000000000
 11
317.9403814891907
 21
583.4910323614922
 31
0.0000000000000000
  0
LINE
  5
7A
100
AcDbEntity
  8
MAIN0
  6
HIDDEN
 62
3
100
AcDbLine
 10
317.9403814891907
 20
558.0910323614922
 30
0.0000000000000000
 11
310.4403814891907
 21
558.0910323614922
 31
0.0000000000000000
  0
LINE
  5
7B
100
AcDbEntity
  8
MAIN0
  6
HIDDEN
 62
3
100
AcDbLine
 10
317.9403814891907
 20
563.1710323614923
 30
0.0000000000000000
 11
310.4403814891907
 21
563.1710323614923
 31
0.0000000000000000
  0
LINE
  5
7C
100
AcDbEntity
  8
MAIN0
  6
HIDDEN
 62
3
100
AcDbLine
 10
317.9403814891907
 20
568.2510323614922
 30
0.0000000000000000
 11
310.4403814891907
 21
568.2510323614922
 31
0.0000000000000000
  0
LINE
  5
7D
100
AcDbEntity
  8
MAIN0
  6
HIDDEN
 62
3
100
AcDbLine
 10
317.9403814891907
 20
573.3310323614923
 30
0.0000000000000000
 11
310.4403814891907
 21
573.3310323614923
 31
0.0000000000000000
  0
LINE
  5
7E
100
AcDbEntity
  8
MAIN0
  6
HIDDEN
 62
3
100
AcDbLine
 10
317.9403814891907
 20
578.4110323614923
 30
0.0000000000000000
 11
310.4403814891907
 21
578.4110323614923
 31
0.0000000000000000
  0
LINE
  5
7F
100
AcDbEntity
  8
MAIN0
  6
HIDDEN
 62
3
100
AcDbLine
 10
317.9403814891907
 20
583.4910323614922
 30
0.0000000000000000
 11
310.4403814891907
 21
583.4910323614922
 31
0.0000000000000000
  0
LINE
  5
80
100
AcDbEntity
  8
MAIN0
  6
HIDDEN
 62
3
100
AcDbLine
 10
317.9403814891907
 20
588.5710323614923
 30
0.0000000000000000
 11
310.4403814891907
 21
588.5710323614923
 31
0.0000000000000000
  0
LINE
  5
81
100
AcDbEntity
  8
MAIN0
  6
HIDDEN
 62
3
100
AcDbLine
 10
317.9403814891907
 20
593.6510323614923
 30
0.0000000000000000
 11
310.4403814891907
 21
593.6510323614923
 31
0.0000000000000000
  0
LINE
  5
82
100
AcDbEntity
  8
MAIN0
  6
HIDDEN
 62
3
100
AcDbLine
 10
317.9403814891907
 20
598.7310323614922
 30
0.0000000000000000
 11
310.4403814891907
 21
598.7310323614922
 31
0.0000000000000000
  0
LINE
  5
83
100
AcDbEntity
  8
MAIN0
  6
HIDDEN
 62
3
100
AcDbLine
 10
317.9403814891907
 20
603.8110323614923
 30
0.0000000000000000
 11
310.4403814891907
 21
603.8110323614923
 31
0.0000000000000000
  0
LINE
  5
84
100
AcDbEntity
  8
MAIN0
  6
HIDDEN
 62
3
100
AcDbLine
 10
317.9403814891907
 20
608.8910323614923
 30
0.0000000000000000
 11
310.4403814891907
 21
608.8910323614923
 31
0.0000000000000000
  0
LINE
  5
85
100
AcDbEntity
  8
MAIN0
  6
HIDDEN
 62
3
100
AcDbLine
 10
317.9403814891907
 20
613.9710323614922
 30
0.0000000000000000
 11
310.4403814891907
 21
613.9710323614922
 31
0.0000000000000000
  0
LINE
  5
86
100
AcDbEntity
  8
MAIN0
  6
HIDDEN
 62
3
100
AcDbLine
 10
317.9403814891907
 20
619.0510323614923
 30
0.0000000000000000
 11
310.4403814891907
 21
619.0510323614923
 31
0.0000000000000000
  0
LINE
  5
87
100
AcDbEntity
  8
MAIN0
  6
HIDDEN
 62
3
100
AcDbLine
 10
317.9403814891907
 20
624.1310323614923
 30
0.0000000000000000
 11
310.4403814891907
 21
624.1310323614923
 31
0.0000000000000000
  0
LINE
  5
88
100
AcDbEntity
  8
MAIN0
  6
HIDDEN
 62
3
100
AcDbLine
 10
317.9403814891907
 20
629.2110323614924
 30
0.0000000000000000
 11
310.4403814891907
 21
629.2110323614924
 31
0.0000000000000000
  0
LINE
  5
89
100
AcDbEntity
  8
MAIN0
  6
HIDDEN
 62
3
100
AcDbLine
 10
317.9403814891907
 20
634.2910323614924
 30
0.0000000000000000
 11
310.4403814891907
 21
634.2910323614924
 31
0.0000000000000000
  0
LINE
  5
8A
100
AcDbEntity
  8
MAIN0
  6
HIDDEN
 62
3
100
AcDbLine
 10
310.4403814891907
 20
629.2110323614922
 30
0.0000000000000000
 11
310.4403814891907
 21
624.1310323614923
 31
0.0000000000000000
  0
LINE
  5
8B
100
AcDbEntity
  8
MAIN0
  6
HIDDEN
 62
3
100
AcDbLine
 10
310.4403814891907
 20
619.0510323614923
 30
0.0000000000000000
 11
310.4403814891907
 21
613.9710323614922
 31
0.0000000000000000
  0
LINE
  5
8C
100
AcDbEntity
  8
MAIN0
  6
HIDDEN
 62
3
100
AcDbLine
 10
310.4403814891907
 20
608.8910323614923
 30
0.0000000000000000
 11
310.4403814891907
 21
603.8110323614923
 31
0.0000000000000000
  0
LINE
  5
8D
100
AcDbEntity
  8
MAIN0
  6
HIDDEN
 62
3
100
AcDbLine
 10
310.4403814891907
 20
598.7310323614922
 30
0.0000000000000000
 11
310.4403814891907
 21
593.6510323614923
 31
0.0000000000000000
  0
LINE
  5
8E
100
AcDbEntity
  8
MAIN0
  6
HIDDEN
 62
3
100
AcDbLine
 10
310.4403814891907
 20
588.5710323614923
 30
0.0000000000000000
 11
310.4403814891907
 21
583.4910323614922
 31
0.0000000000000000
  0
LINE
  5
8F
100
AcDbEntity
  8
MAIN0
  6
HIDDEN
 62
3
100
AcDbLine
 10
310.4403814891907
 20
578.4110323614923
 30
0.0000000000000000
 11
310.4403814891907
 21
573.3310323614923
 31
0.0000000000000000
  0
LINE
  5
90
100
AcDbEntity
  8
MAIN0
  6
HIDDEN
 62
3
100
AcDbLine
 10
310.4403814891907
 20
558.0910323614922
 30
0.0000000000000000
 11
310.4403814891907
 21
553.0110323614923
 31
0.0000000000000000
  0
LINE
  5
91
100
AcDbEntity
  8
MAIN0
  6
HIDDEN
 62
3
100
AcDbLine
 10
310.4403814891907
 20
568.2510323614922
 30
0.0000000000000000
 11
310.4403814891907
 21
563.1710323614923
 31
0.0000000000000000
  0
LINE
  5
92
100
AcDbEntity
  8
MAIN0
  6
HIDDEN
 62
3
100
AcDbLine
 10
317.9403814891907
 20
558.0910323614922
 30
0.0000000000000000
 11
317.9403814891907
 21
563.1710323614923
 31
0.0000000000000000
  0
LINE
  5
93
100
AcDbEntity
  8
MAIN0
  6
HIDDEN
 62
3
100
AcDbLine
 10
317.9403814891907
 20
568.2510323614923
 30
0.0000000000000000
 11
317.9403814891907
 21
573.3310323614923
 31
0.0000000000000000
  0
LINE
  5
94
100
AcDbEntity
  8
MAIN0
  6
HIDDEN
 62
3
100
AcDbLine
 10
338.4403814891907
 20
567.0110323614922
 30
0.0000000000000000
 11
338.4403814891907
 21
631.0110323614922
 31
0.0000000000000000
  0
LINE
  5
95
100
AcDbEntity
  8
MAIN0
  6
HIDDEN
 62
3
100
AcDbLine
 10
333.4403814891907
 20
636.0110323614922
 30
0.0000000000000000
 11
317.9403814891907
 21
636.0110323614922
 31
0.0000000000000000
  0
LINE
  5
96
100
AcDbEntity
  8
MAIN0
  6
HIDDEN
 62
3
100
AcDbLine
 10
317.9403814891907
 20
553.0110323614923
 30
0.0000000000000000
 11
317.9403814891907
 21
638.5110323614922
 31
0.0000000000000000
  0
ARC
  5
97
100
AcDbEntity
  8
MAIN0
  6
HIDDEN
 62
3
100
AcDbCircle
 10
333.4403814891907
 20
631.0110323614922
 30
0.0000000000000000
 40
5.000000000000000
100
AcDbArc
 50
0.0000000000000000
 51
90.00000000000000
  0
LINE
  5
98
100
AcDbEntity
  8
MAIN0
  6
HIDDEN
 62
3
100
AcDbLine
 10
333.4403814891907
 20
562.0110323614922
 30
0.0000000000000000
 11
317.9403814891907
 21
562.0110323614923
 31
0.0000000000000000
  0
ARC
  5
99
100
AcDbEntity
  8
MAIN0
  6
HIDDEN
 62
3
100
AcDbCircle
 10
333.4403814891907
 20
567.0110323614922
 30
0.0000000000000000
 40
5.000000000000000
100
AcDbArc
 50
270.0000000000000
 51
360.0000000000000
  0
LINE
  5
9A
100
AcDbEntity
  8
MAIN0
  6
CONTINUOUS
 62
3
100
AcDbLine
 10
256.7432958066449
 20
357.5343919239209
 30
0.0000000000000000
 11
253.4403814890191
 21
294.5110323614923
 31
0.0000000000000000
  0
ARC
  5
9B
100
AcDbEntity
  8
MAIN0
  6
CONTINUOUS
 62
3
100
AcDbCircle
 10
266.7295911541906
 20
357.0110323614914
 30
0.0000000000000000
 40
10.00000000000000
100
AcDbArc
 50
90.00000000000000
 51
176.9999999999996
  0
LINE
  5
9C
100
AcDbEntity
  8
MAIN0
  6
CONTINUOUS
 62
3
100
AcDbLine
 10
264.4403814891907
 20
412.0110323614923
 30
0.0000000000000000
 11
264.4403814891907
 21
381.0110323614923
 31
0.0000000000000000
  0
LINE
  5
9D
100
AcDbEntity
  8
MAIN0
  6
CONTINUOUS
 62
3
100
AcDbLine
 10
270.3941582761370
 20
383.0110323614923
 30
0.0000000000000000
 11
264.4403814891907
 21
383.0110323614923
 31
0.0000000000000000
  0
LINE
  5
9E
100
AcDbEntity
  8
MAIN0
  6
CONTINUOUS
 62
3
100
AcDbLine
 10
270.4795652430371
 20
381.0110323614923
 30
0.0000000000000000
 11
264.4403814891907
 21
381.0110323614923
 31
0.0000000000000000
  0
LINE
  5
9F
100
AcDbEntity
  8
MAIN0
  6
CONTINUOUS
 62
3
100
AcDbLine
 10
270.4403814892647
 20
367.0110323614923
 30
0.0000000000000000
 11
266.7295911541906
 21
367.0110323614923
 31
0.0000000000000000
  0
LINE
  5
A0
100
AcDbEntity
  8
MAIN0
  6
CONTINUOUS
 62
3
100
AcDbLine
 10
355.4403814891907
 20
412.0110323614923
 30
0.0000000000000000
 11
243.4403814891907
 21
412.0110323614923
 31
0.0000000000000000
  0
LINE
  5
A1
100
AcDbEntity
  8
MAIN0
  6
CONTINUOUS
 62
3
100
AcDbLine
 10
255.4403814891907
 20
284.5110323614923
 30
0.0000000000000000
 11
255.4403814891907
 21
294.5110323614923
 31
0.0000000000000000
  0
LINE
  5
A2
100
AcDbEntity
  8
MAIN0
  6
CONTINUOUS
 62
3
100
AcDbLine
 10
262.6735566495549
 20
279.5110323614923
 30
0.0000000000000000
 11
260.4403814891907
 21
279.5110323614923
 31
0.0000000000000000
  0
ARC
  5
A3
100
AcDbEntity
  8
MAIN0
  6
CONTINUOUS
 62
3
100
AcDbCircle
 10
260.4403814891907
 20
284.5110323614923
 30
0.0000000000000000
 40
5.000000000000000
100
AcDbArc
 50
180.0000000000000
 51
270.0000000000000
  0
LINE
  5
A4
100
AcDbEntity
  8
MAIN0
  6
HIDDEN
 62
3
100
AcDbLine
 10
317.9403814891907
 20
638.5110323614922
 30
0.0000000000000000
 11
300.9403814891907
 21
638.5110323614922
 31
0.0000000000000000
  0
LINE
  5
A5
100
AcDbEntity
  8
MAIN0
  6
CONTINUOUS
 62
3
100
AcDbLine
 10
371.4403814891907
 20
278.2610323614923
 30
0.0000000000000000
 11
355.4403814891907
 21
278.2610323614923
 31
0.0000000000000000
  0
LINE
  5
A6
100
AcDbEntity
  8
MAIN0
  6
CONTINUOUS
 62
3
100
AcDbLine
 10
413.4403814891907
 20
381.7610323614923
 30
0.0000000000000000
 11
413.4403814891907
 21
422.7610323614923
 31
0.0000000000000000
  0
LINE
  5
A7
100
AcDbEntity
  8
MAIN0
  6
CONTINUOUS
 62
3
100
AcDbLine
 10
393.4403814891907
 20
345.2610323614923
 30
0.0000000000000000
 11
393.4403814891907
 21
377.2610323614923
 31
0.0000000000000000
  0
LINE
  5
A8
100
AcDbEntity
  8
MAIN0
  6
CONTINUOUS
 62
3
100
AcDbLine
 10
373.4403814891907
 20
293.2610323614923
 30
0.0000000000000000
 11
373.4403814891907
 21
327.2610323614923
 31
0.0000000000000000
  0
LINE
  5
A9
100
AcDbEntity
  8
MAIN0
  6
CONTINUOUS
 62
3
100
AcDbLine
 10
355.4403814891907
 20
266.5110323614922
 30
0.0000000000000000
 11
355.4403814891907
 21
302.0110323614923
 31
0.0000000000000000
  0
LINE
  5
AA
100
AcDbEntity
  8
MAIN0
  6
CONTINUOUS
 62
3
100
AcDbLine
 10
355.4403814891907
 20
302.0110323614923
 30
0.0000000000000000
 11
355.4403814891907
 21
667.5110323614922
 31
0.0000000000000000
  0
LINE
  5
AB
100
AcDbEntity
  8
MAIN0
  6
CENTER
 62
3
100
AcDbLine
 10
400.4403814891907
 20
374.4486149437583
 30
0.0000000000000000
 11
400.4403814891907
 21
388.7434857780191
 31
0.0000000000000000
  0
LINE
  5
AC
100
AcDbEntity
  8
MAIN0
  6
CENTER
 62
3
100
AcDbLine
 10
406.4403814891907
 20
374.4486149437583
 30
0.0000000000000000
 11
406.4403814891907
 21
388.7434857780191
 31
0.0000000000000000
  0
LINE
  5
AD
100
AcDbEntity
  8
MAIN0
  6
CONTINUOUS
 62
3
100
AcDbLine
 10
401.1903814890105
 20
380.2610323614923
 30
0.0000000000000000
 11
400.4403814891906
 21
381.5600704668572
 31
0.0000000000000000
  0
LINE
  5
AE
100
AcDbEntity
  8
MAIN0
  6
CONTINUOUS
 62
3
100
AcDbLine
 10
400.4403814889783
 20
381.5600704672251
 30
0.0000000000000000
 11
399.6903814891909
 21
380.2610323619161
 31
0.0000000000000000
  0
LINE
  5
AF
100
AcDbEntity
  8
MAIN0
  6
CONTINUOUS
 62
3
100
AcDbLine
 10
406.4403814889783
 20
381.5600704672251
 30
0.0000000000000000
 11
405.6903814891909
 21
380.2610323619161
 31
0.0000000000000000
  0
LINE
  5
B0
100
AcDbEntity
  8
MAIN0
  6
CONTINUOUS
 62
3
100
AcDbLine
 10
407.1903814890105
 20
380.2610323614923
 30
0.0000000000000000
 11
406.4403814891906
 21
381.5600704668572
 31
0.0000000000000000
  0
LINE
  5
B1
100
AcDbEntity
  8
MAIN0
  6
CONTINUOUS
 62
3
100
AcDbLine
 10
399.6903814889462
 20
380.2610323614923
 30
0.0000000000000000
 11
396.4403814891907
 21
380.2610323614923
 31
0.0000000000000000
  0
LINE
  5
B2
100
AcDbEntity
  8
MAIN0
  6
CONTINUOUS
 62
3
100
AcDbLine
 10
411.9403814891907
 20
380.2610323614923
 30
0.0000000000000000
 11
407.1903814890105
 21
380.2610323614923
 31
0.0000000000000000
  0
LINE
  5
B3
100
AcDbEntity
  8
MAIN0
  6
CONTINUOUS
 62
3
100
AcDbLine
 10
405.6903814889461
 20
380.2610323614923
 30
0.0000000000000000
 11
401.1903814890105
 21
380.2610323614923
 31
0.0000000000000000
  0
LINE
  5
B4
100
AcDbEntity
  8
MAIN0
  6
CONTINUOUS
 62
3
100
AcDbLine
 10
413.4403814891907
 20
381.7610323614923
 30
0.0000000000000000
 11
411.9403814891907
 21
380.2610323614922
 31
0.0000000000000000
  0
LINE
  5
B5
100
AcDbEntity
  8
MAIN0
  6
CONTINUOUS
 62
3
100
AcDbLine
 10
393.4403814891907
 20
345.2610323614923
 30
0.0000000000000000
 11
392.9403814891907
 21
345.2610323614923
 31
0.0000000000000000
  0
LINE
  5
B6
100
AcDbEntity
  8
MAIN0
  6
CONTINUOUS
 62
3
100
AcDbLine
 10
392.9403814891907
 20
331.7610323614922
 30
0.0000000000000000
 11
392.9403814891907
 21
345.2610323614923
 31
0.0000000000000000
  0
LINE
  5
B7
100
AcDbEntity
  8
MAIN0
  6
CONTINUOUS
 62
3
100
AcDbLine
 10
392.9403814891907
 20
331.7610323614923
 30
0.0000000000000000
 11
391.4403814891907
 21
330.2610323614922
 31
0.0000000000000000
  0
LINE
  5
B8
100
AcDbEntity
  8
MAIN0
  6
CONTINUOUS
 62
3
100
AcDbLine
 10
373.4403814891907
 20
327.2610323614923
 30
0.0000000000000000
 11
371.9403814891907
 21
330.1425055519490
 31
0.0000000000000000
  0
LINE
  5
B9
100
AcDbEntity
  8
MAIN0
  6
CONTINUOUS
 62
3
100
AcDbLine
 10
371.9403814891907
 20
330.1425055519489
 30
0.0000000000000000
 11
371.9403814891907
 21
331.2610323614922
 31
0.0000000000000000
  0
LINE
  5
BA
100
AcDbEntity
  8
MAIN0
  6
CONTINUOUS
 62
3
100
AcDbLine
 10
372.4403814891907
 20
331.7610323614923
 30
0.0000000000000000
 11
373.5589082987339
 21
331.7610323614923
 31
0.0000000000000000
  0
LINE
  5
BB
100
AcDbEntity
  8
MAIN0
  6
CONTINUOUS
 62
3
100
AcDbLine
 10
373.5589082987339
 20
331.7610323614923
 30
0.0000000000000000
 11
376.4403814891906
 21
330.2610323614923
 31
0.0000000000000000
  0
ARC
  5
BC
100
AcDbEntity
  8
MAIN0
  6
CONTINUOUS
 62
3
100
AcDbCircle
 10
372.4403814891907
 20
331.2610323614922
 30
0.0000000000000000
 40
0.5000000000000000
100
AcDbArc
 50
90.00000000000000
 51
180.0000000000000
  0
LINE
  5
BD
100
AcDbEntity
  8
MAIN0
  6
CENTER
 62
3
100
AcDbLine
 10
380.9403814891907
 20
327.4448697953784
 30
0.0000000000000000
 11
380.9403814891907
 21
335.0297520463670
 31
0.0000000000000000
  0
LINE
  5
BE
100
AcDbEntity
  8
MAIN0
  6
CENTER
 62
3
100
AcDbLine
 10
386.9403814891907
 20
327.4448697953784
 30
0.0000000000000000
 11
386.9403814891907
 21
335.0297520463670
 31
0.0000000000000000
  0
LINE
  5
BF
100
AcDbEntity
  8
MAIN0
  6
CONTINUOUS
 62
3
100
AcDbLine
 10
381.6903814890105
 20
330.2610323614923
 30
0.0000000000000000
 11
380.9403814891906
 21
331.5600704668573
 31
0.0000000000000000
  0
LINE
  5
C0
100
AcDbEntity
  8
MAIN0
  6
CONTINUOUS
 62
3
100
AcDbLine
 10
380.9403814889782
 20
331.5600704672251
 30
0.0000000000000000
 11
380.1903814891908
 21
330.2610323619161
 31
0.0000000000000000
  0
LINE
  5
C1
100
AcDbEntity
  8
MAIN0
  6
CONTINUOUS
 62
3
100
AcDbLine
 10
387.6903814890105
 20
330.2610323614923
 30
0.0000000000000000
 11
386.9403814891905
 21
331.5600704668573
 31
0.0000000000000000
  0
LINE
  5
C2
100
AcDbEntity
  8
MAIN0
  6
CONTINUOUS
 62
3
100
AcDbLine
 10
386.9403814889783
 20
331.5600704672251
 30
0.0000000000000000
 11
386.1903814891763
 21
330.2610323618909
 31
0.0000000000000000
  0
LINE
  5
C3
100
AcDbEntity
  8
MAIN0
  6
CONTINUOUS
 62
3
100
AcDbLine
 10
380.1903814889461
 20
330.2610323614923
 30
0.0000000000000000
 11
376.4403814891907
 21
330.2610323614923
 31
0.0000000000000000
  0
LINE
  5
C4
100
AcDbEntity
  8
MAIN0
  6
CONTINUOUS
 62
3
100
AcDbLine
 10
391.4403814891907
 20
330.2610323614923
 30
0.0000000000000000
 11
387.6903814890105
 21
330.2610323614923
 31
0.0000000000000000
  0
LINE
  5
C5
100
AcDbEntity
  8
MAIN0
  6
CONTINUOUS
 62
3
100
AcDbLine
 10
386.1903814889461
 20
330.2610323614923
 30
0.0000000000000000
 11
381.6903814890105
 21
330.2610323614923
 31
0.0000000000000000
  0
LINE
  5
C6
100
AcDbEntity
  8
MAIN0
  6
CONTINUOUS
 62
3
100
AcDbLine
 10
372.9403814891907
 20
279.7610323614922
 30
0.0000000000000000
 11
372.9403814891907
 21
293.2610323614922
 31
0.0000000000000000
  0
LINE
  5
C7
100
AcDbEntity
  8
MAIN0
  6
CONTINUOUS
 62
3
100
AcDbLine
 10
373.4403814891907
 20
293.2610323614923
 30
0.0000000000000000
 11
372.9403814891907
 21
293.2610323614923
 31
0.0000000000000000
  0
LINE
  5
C8
100
AcDbEntity
  8
MAIN0
  6
CONTINUOUS
 62
3
100
AcDbLine
 10
372.9403814891907
 20
279.7610323614922
 30
0.0000000000000000
 11
371.4403814891907
 21
278.2610323614922
 31
0.0000000000000000
  0
LINE
  5
C9
100
AcDbEntity
  8
MAIN0
  6
CENTER
 62
3
100
AcDbLine
 10
359.4403814891907
 20
418.1205051431135
 30
0.0000000000000000
 11
359.4403814891907
 21
430.4558748896550
 31
0.0000000000000000
  0
LINE
  5
CA
100
AcDbEntity
  8
MAIN0
  6
CENTER
 62
3
100
AcDbLine
 10
368.4403814891907
 20
418.1205051431135
 30
0.0000000000000000
 11
368.4403814891907
 21
430.4558748896550
 31
0.0000000000000000
  0
LINE
  5
CB
100
AcDbEntity
  8
MAIN0
  6
CENTER
 62
3
100
AcDbLine
 10
377.4403814891907
 20
418.1205051431135
 30
0.0000000000000000
 11
377.4403814891907
 21
430.4558748896550
 31
0.0000000000000000
  0
LINE
  5
CC
100
AcDbEntity
  8
MAIN0
  6
CENTER
 62
3
100
AcDbLine
 10
386.4403814891907
 20
418.1205051431135
 30
0.0000000000000000
 11
386.4403814891907
 21
430.4558748896550
 31
0.0000000000000000
  0
LINE
  5
CD
100
AcDbEntity
  8
MAIN0
  6
CENTER
 62
3
100
AcDbLine
 10
395.4403814891907
 20
418.1205051431135
 30
0.0000000000000000
 11
395.4403814891907
 21
430.4558748896550
 31
0.0000000000000000
  0
LINE
  5
CE
100
AcDbEntity
  8
MAIN0
  6
CENTER
 62
3
100
AcDbLine
 10
404.4403814891907
 20
418.1205051431135
 30
0.0000000000000000
 11
404.4403814891907
 21
430.4558748896550
 31
0.0000000000000000
  0
LINE
  5
CF
100
AcDbEntity
  8
MAIN0
  6
CONTINUOUS
 62
3
100
AcDbLine
 10
405.1903814893424
 20
424.2610323614922
 30
0.0000000000000000
 11
404.4403814891186
 21
422.9619942554284
 31
0.0000000000000000
  0
LINE
  5
D0
100
AcDbEntity
  8
MAIN0
  6
CONTINUOUS
 62
3
100
AcDbLine
 10
404.4403814891188
 20
422.9619942554283
 30
0.0000000000000000
 11
403.6903814891907
 21
424.2610323609814
 31
0.0000000000000000
  0
LINE
  5
D1
100
AcDbEntity
  8
MAIN0
  6
CONTINUOUS
 62
3
100
AcDbLine
 10
396.1903814893424
 20
424.2610323614922
 30
0.0000000000000000
 11
395.4403814891186
 21
422.9619942554284
 31
0.0000000000000000
  0
LINE
  5
D2
100
AcDbEntity
  8
MAIN0
  6
CONTINUOUS
 62
3
100
AcDbLine
 10
395.4403814891188
 20
422.9619942554283
 30
0.0000000000000000
 11
394.6903814891907
 21
424.2610323609814
 31
0.0000000000000000
  0
LINE
  5
D3
100
AcDbEntity
  8
MAIN0
  6
CONTINUOUS
 62
3
100
AcDbLine
 10
387.1903814893424
 20
424.2610323614922
 30
0.0000000000000000
 11
386.4403814891187
 21
422.9619942554284
 31
0.0000000000000000
  0
LINE
  5
D4
100
AcDbEntity
  8
MAIN0
  6
CONTINUOUS
 62
3
100
AcDbLine
 10
386.4403814891188
 20
422.9619942554283
 30
0.0000000000000000
 11
385.6903814891907
 21
424.2610323609814
 31
0.0000000000000000
  0
LINE
  5
D5
100
AcDbEntity
  8
MAIN0
  6
CONTINUOUS
 62
3
100
AcDbLine
 10
378.1903814893424
 20
424.2610323614922
 30
0.0000000000000000
 11
377.4403814891187
 21
422.9619942554284
 31
0.0000000000000000
  0
LINE
  5
D6
100
AcDbEntity
  8
MAIN0
  6
CONTINUOUS
 62
3
100
AcDbLine
 10
377.4403814891188
 20
422.9619942554284
 30
0.0000000000000000
 11
376.6903814891906
 21
424.2610323609814
 31
0.0000000000000000
  0
LINE
  5
D7
100
AcDbEntity
  8
MAIN0
  6
CONTINUOUS
 62
3
100
AcDbLine
 10
369.1903814893424
 20
424.2610323614922
 30
0.0000000000000000
 11
368.4403814891187
 21
422.9619942554284
 31
0.0000000000000000
  0
LINE
  5
D8
100
AcDbEntity
  8
MAIN0
  6
CONTINUOUS
 62
3
100
AcDbLine
 10
368.4403814891188
 20
422.9619942554284
 30
0.0000000000000000
 11
367.6903814891906
 21
424.2610323609814
 31
0.0000000000000000
  0
LINE
  5
D9
100
AcDbEntity
  8
MAIN0
  6
CONTINUOUS
 62
3
100
AcDbLine
 10
360.1903814893424
 20
424.2610323614922
 30
0.0000000000000000
 11
359.4403814891187
 21
422.9619942554284
 31
0.0000000000000000
  0
LINE
  5
DA
100
AcDbEntity
  8
MAIN0
  6
CONTINUOUS
 62
3
100
AcDbLine
 10
359.4403814891188
 20
422.9619942554284
 30
0.0000000000000000
 11
358.6903814891906
 21
424.2610323609814
 31
0.0000000000000000
  0
LINE
  5
DB
100
AcDbEntity
  8
MAIN0
  6
CONTINUOUS
 62
3
100
AcDbLine
 10
358.6903814891907
 20
424.2610323614923
 30
0.0000000000000000
 11
355.4403814891907
 21
424.2610323614923
 31
0.0000000000000000
  0
LINE
  5
DC
100
AcDbEntity
  8
MAIN0
  6
CONTINUOUS
 62
3
100
AcDbLine
 10
367.6903814891907
 20
424.2610323614923
 30
0.0000000000000000
 11
360.1903814893424
 21
424.2610323614923
 31
0.0000000000000000
  0
LINE
  5
DD
100
AcDbEntity
  8
MAIN0
  6
CONTINUOUS
 62
3
100
AcDbLine
 10
376.6903814891907
 20
424.2610323614923
 30
0.0000000000000000
 11
369.1903814893424
 21
424.2610323614923
 31
0.0000000000000000
  0
LINE
  5
DE
100
AcDbEntity
  8
MAIN0
  6
CONTINUOUS
 62
3
100
AcDbLine
 10
385.6903814891907
 20
424.2610323614923
 30
0.0000000000000000
 11
378.1903814893424
 21
424.2610323614923
 31
0.0000000000000000
  0
LINE
  5
DF
100
AcDbEntity
  8
MAIN0
  6
CONTINUOUS
 62
3
100
AcDbLine
 10
394.6903814891907
 20
424.2610323614923
 30
0.0000000000000000
 11
387.1903814893424
 21
424.2610323614923
 31
0.0000000000000000
  0
LINE
  5
E0
100
AcDbEntity
  8
MAIN0
  6
CONTINUOUS
 62
3
100
AcDbLine
 10
411.9403814891907
 20
424.2610323614923
 30
0.0000000000000000
 11
405.1903814893424
 21
424.2610323614923
 31
0.0000000000000000
  0
LINE
  5
E1
100
AcDbEntity
  8
MAIN0
  6
CONTINUOUS
 62
3
100
AcDbLine
 10
403.6903814891907
 20
424.2610323614923
 30
0.0000000000000000
 11
396.1903814893424
 21
424.2610323614923
 31
0.0000000000000000
  0
LINE
  5
E2
100
AcDbEntity
  8
MAIN0
  6
CONTINUOUS
 62
3
100
AcDbLine
 10
411.9403814891907
 20
424.2610323614922
 30
0.0000000000000000
 11
413.4403814891907
 21
422.7610323614922
 31
0.0000000000000000
  0
LINE
  5
E3
100
AcDbEntity
  8
MAIN0
  6
CENTER
 62
3
100
AcDbLine
 10
784.6464465767201
 20
224.5110323614923
 30
0.0000000000000000
 11
784.6464465762131
 21
709.5110323614922
 31
0.0000000000000000
  0
CIRCLE
  5
E4
100
AcDbEntity
  8
MAIN0
  6
CONTINUOUS
 62
3
100
AcDbCircle
 10
784.6464465764666
 20
467.0110323614923
 30
0.0000000000000000
 40
202.5000000000000
  0
LINE
  5
E5
100
AcDbEntity
  8
MAIN0
  6
PHANTOM
 62
3
100
AcDbLine
 10
355.4403814891907
 20
487.0110323614923
 30
0.0000000000000000
 11
412.4403814891907
 21
487.0110323614923
 31
0.0000000000000000
  0
LINE
  5
E6
100
AcDbEntity
  8
MAIN0
  6
PHANTOM
 62
3
100
AcDbLine
 10
355.4403814891907
 20
447.0110323614923
 30
0.0000000000000000
 11
412.4403814891907
 21
447.0110323614923
 31
0.0000000000000000
  0
LINE
  5
E7
100
AcDbEntity
  8
MAIN0
  6
PHANTOM
 62
3
100
AcDbLine
 10
413.4403814891907
 20
448.0110323614923
 30
0.0000000000000000
 11
413.4403814891907
 21
486.0110323614923
 31
0.0000000000000000
  0
LINE
  5
E8
100
AcDbEntity
  8
MAIN0
  6
PHANTOM
 62
3
100
AcDbLine
 10
412.4403814891908
 20
487.0110323614923
 30
0.0000000000000000
 11
413.4403814891908
 21
486.0110323614923
 31
0.0000000000000000
  0
LINE
  5
E9
100
AcDbEntity
  8
MAIN0
  6
PHANTOM
 62
3
100
AcDbLine
 10
413.4403814891907
 20
448.0110323614923
 30
0.0000000000000000
 11
412.4403814891907
 21
447.0110323614923
 31
0.0000000000000000
  0
LINE
  5
EA
100
AcDbEntity
  8
MAIN0
  6
PHANTOM
 62
3
100
AcDbLine
 10
371.4403814891907
 20
510.0110323614923
 30
0.0000000000000000
 11
355.4403814891907
 21
510.0110323614923
 31
0.0000000000000000
  0
LINE
  5
EB
100
AcDbEntity
  8
MAIN0
  6
PHANTOM
 62
3
100
AcDbLine
 10
413.4403814891907
 20
613.5110323614922
 30
0.0000000000000000
 11
413.4403814891907
 21
654.5110323614922
 31
0.0000000000000000
  0
LINE
  5
EC
100
AcDbEntity
  8
MAIN0
  6
PHANTOM
 62
3
100
AcDbLine
 10
393.4403814891907
 20
577.0110323614922
 30
0.0000000000000000
 11
393.4403814891907
 21
609.0110323614922
 31
0.0000000000000000
  0
LINE
  5
ED
100
AcDbEntity
  8
MAIN0
  6
PHANTOM
 62
3
100
AcDbLine
 10
373.4403814891907
 20
525.0110323614923
 30
0.0000000000000000
 11
373.4403814891907
 21
559.0110323614923
 31
0.0000000000000000
  0
LINE
  5
EE
100
AcDbEntity
  8
MAIN0
  6
CENTER
 62
3
100
AcDbLine
 10
400.4403814891907
 20
606.1986149437583
 30
0.0000000000000000
 11
400.4403814891907
 21
620.4934857780191
 31
0.0000000000000000
  0
LINE
  5
EF
100
AcDbEntity
  8
MAIN0
  6
CENTER
 62
3
100
AcDbLine
 10
406.4403814891907
 20
606.1986149437583
 30
0.0000000000000000
 11
406.4403814891907
 21
620.4934857780191
 31
0.0000000000000000
  0
LINE
  5
F0
100
AcDbEntity
  8
MAIN0
  6
PHANTOM
 62
3
100
AcDbLine
 10
401.1903814890105
 20
612.0110323614922
 30
0.0000000000000000
 11
400.4403814891906
 21
613.3100704668572
 31
0.0000000000000000
  0
LINE
  5
F1
100
AcDbEntity
  8
MAIN0
  6
PHANTOM
 62
3
100
AcDbLine
 10
400.4403814889783
 20
613.3100704672251
 30
0.0000000000000000
 11
399.6903814891909
 21
612.0110323619161
 31
0.0000000000000000
  0
LINE
  5
F2
100
AcDbEntity
  8
MAIN0
  6
PHANTOM
 62
3
100
AcDbLine
 10
406.4403814889783
 20
613.3100704672251
 30
0.0000000000000000
 11
405.6903814891909
 21
612.0110323619160
 31
0.0000000000000000
  0
LINE
  5
F3
100
AcDbEntity
  8
MAIN0
  6
PHANTOM
 62
3
100
AcDbLine
 10
407.1903814890105
 20
612.0110323614922
 30
0.0000000000000000
 11
406.4403814891906
 21
613.3100704668572
 31
0.0000000000000000
  0
LINE
  5
F4
100
AcDbEntity
  8
MAIN0
  6
PHANTOM
 62
3
100
AcDbLine
 10
399.6903814889461
 20
612.0110323614922
 30
0.0000000000000000
 11
396.4403814891907
 21
612.0110323614922
 31
0.0000000000000000
  0
LINE
  5
F5
100
AcDbEntity
  8
MAIN0
  6
PHANTOM
 62
3
100
AcDbLine
 10
411.9403814891907
 20
612.0110323614922
 30
0.0000000000000000
 11
407.1903814890105
 21
612.0110323614922
 31
0.0000000000000000
  0
LINE
  5
F6
100
AcDbEntity
  8
MAIN0
  6
PHANTOM
 62
3
100
AcDbLine
 10
405.6903814889461
 20
612.0110323614922
 30
0.0000000000000000
 11
401.1903814890105
 21
612.0110323614922
 31
0.0000000000000000
  0
LINE
  5
F7
100
AcDbEntity
  8
MAIN0
  6
PHANTOM
 62
3
100
AcDbLine
 10
413.4403814891907
 20
613.5110323614922
 30
0.0000000000000000
 11
411.9403814891907
 21
612.0110323614923
 31
0.0000000000000000
  0
LINE
  5
F8
100
AcDbEntity
  8
MAIN0
  6
PHANTOM
 62
3
100
AcDbLine
 10
393.4403814891907
 20
577.0110323614922
 30
0.0000000000000000
 11
392.9403814891907
 21
577.0110323614922
 31
0.0000000000000000
  0
LINE
  5
F9
100
AcDbEntity
  8
MAIN0
  6
PHANTOM
 62
3
100
AcDbLine
 10
392.9403814891907
 20
563.5110323614922
 30
0.0000000000000000
 11
392.9403814891907
 21
577.0110323614922
 31
0.0000000000000000
  0
LINE
  5
FA
100
AcDbEntity
  8
MAIN0
  6
PHANTOM
 62
3
100
AcDbLine
 10
392.9403814891907
 20
563.5110323614922
 30
0.0000000000000000
 11
391.4403814891907
 21
562.0110323614923
 31
0.0000000000000000
  0
LINE
  5
FB
100
AcDbEntity
  8
MAIN0
  6
PHANTOM
 62
3
100
AcDbLine
 10
393.4403814891907
 20
609.0110323614922
 30
0.0000000000000000
 11
391.9403814891907
 21
611.8925055519489
 31
0.0000000000000000
  0
LINE
  5
FC
100
AcDbEntity
  8
MAIN0
  6
PHANTOM
 62
3
100
AcDbLine
 10
391.9403814891907
 20
611.8925055519489
 30
0.0000000000000000
 11
391.9403814891907
 21
613.0110323614922
 31
0.0000000000000000
  0
LINE
  5
FD
100
AcDbEntity
  8
MAIN0
  6
PHANTOM
 62
3
100
AcDbLine
 10
392.4403814891907
 20
613.5110323614922
 30
0.0000000000000000
 11
393.5589082987339
 21
613.5110323614922
 31
0.0000000000000000
  0
LINE
  5
FE
100
AcDbEntity
  8
MAIN0
  6
PHANTOM
 62
3
100
AcDbLine
 10
393.5589082987339
 20
613.5110323614922
 30
0.0000000000000000
 11
396.4403814891907
 21
612.0110323614922
 31
0.0000000000000000
  0
ARC
  5
FF
100
AcDbEntity
  8
MAIN0
  6
PHANTOM
 62
3
100
AcDbCircle
 10
392.4403814891907
 20
613.0110323614922
 30
0.0000000000000000
 40
0.5000000000000000
100
AcDbArc
 50
90.00000000000000
 51
180.0000000000000
  0
LINE
  5
100
100
AcDbEntity
  8
MAIN0
  6
PHANTOM
 62
3
100
AcDbLine
 10
373.4403814891907
 20
559.0110323614922
 30
0.0000000000000000
 11
371.9403814891907
 21
561.8925055519489
 31
0.0000000000000000
  0
LINE
  5
101
100
AcDbEntity
  8
MAIN0
  6
PHANTOM
 62
3
100
AcDbLine
 10
371.9403814891907
 20
561.8925055519489
 30
0.0000000000000000
 11
371.9403814891907
 21
563.0110323614922
 31
0.0000000000000000
  0
LINE
  5
102
100
AcDbEntity
  8
MAIN0
  6
PHANTOM
 62
3
100
AcDbLine
 10
372.4403814891907
 20
563.5110323614922
 30
0.0000000000000000
 11
373.5589082987339
 21
563.5110323614922
 31
0.0000000000000000
  0
LINE
  5
103
100
AcDbEntity
  8
MAIN0
  6
PHANTOM
 62
3
100
AcDbLine
 10
373.5589082987339
 20
563.5110323614922
 30
0.0000000000000000
 11
376.4403814891906
 21
562.0110323614922
 31
0.0000000000000000
  0
ARC
  5
104
100
AcDbEntity
  8
MAIN0
  6
PHANTOM
 62
3
100
AcDbCircle
 10
372.4403814891907
 20
563.0110323614922
 30
0.0000000000000000
 40
0.5000000000000000
100
AcDbArc
 50
90.00000000000000
 51
180.0000000000000
  0
LINE
  5
105
100
AcDbEntity
  8
MAIN0
  6
CENTER
 62
3
100
AcDbLine
 10
380.9403814891907
 20
559.1948697953784
 30
0.0000000000000000
 11
380.9403814891907
 21
566.7797520463671
 31
0.0000000000000000
  0
LINE
  5
106
100
AcDbEntity
  8
MAIN0
  6
CENTER
 62
3
100
AcDbLine
 10
386.9403814891907
 20
559.1948697953784
 30
0.0000000000000000
 11
386.9403814891907
 21
566.7797520463671
 31
0.0000000000000000
  0
LINE
  5
107
100
AcDbEntity
  8
MAIN0
  6
PHANTOM
 62
3
100
AcDbLine
 10
381.6903814890105
 20
562.0110323614923
 30
0.0000000000000000
 11
380.9403814891905
 21
563.3100704668573
 31
0.0000000000000000
  0
LINE
  5
108
100
AcDbEntity
  8
MAIN0
  6
PHANTOM
 62
3
100
AcDbLine
 10
380.9403814889782
 20
563.3100704672251
 30
0.0000000000000000
 11
380.1903814891908
 21
562.0110323619161
 31
0.0000000000000000
  0
LINE
  5
109
100
AcDbEntity
  8
MAIN0
  6
PHANTOM
 62
3
100
AcDbLine
 10
387.6903814890105
 20
562.0110323614923
 30
0.0000000000000000
 11
386.9403814891905
 21
563.3100704668573
 31
0.0000000000000000
  0
LINE
  5
10A
100
AcDbEntity
  8
MAIN0
  6
PHANTOM
 62
3
100
AcDbLine
 10
386.9403814889782
 20
563.3100704672251
 30
0.0000000000000000
 11
386.1903814891909
 21
562.0110323619161
 31
0.0000000000000000
  0
LINE
  5
10B
100
AcDbEntity
  8
MAIN0
  6
PHANTOM
 62
3
100
AcDbLine
 10
380.1903814889461
 20
562.0110323614922
 30
0.0000000000000000
 11
376.4403814891906
 21
562.0110323614922
 31
0.0000000000000000
  0
LINE
  5
10C
100
AcDbEntity
  8
MAIN0
  6
PHANTOM
 62
3
100
AcDbLine
 10
391.4403814891907
 20
562.0110323614922
 30
0.0000000000000000
 11
387.6903814890105
 21
562.0110323614922
 31
0.0000000000000000
  0
LINE
  5
10D
100
AcDbEntity
  8
MAIN0
  6
PHANTOM
 62
3
100
AcDbLine
 10
386.1903814889461
 20
562.0110323614922
 30
0.0000000000000000
 11
381.6903814890105
 21
562.0110323614922
 31
0.0000000000000000
  0
LINE
  5
10E
100
AcDbEntity
  8
MAIN0
  6
PHANTOM
 62
3
100
AcDbLine
 10
372.9403814891907
 20
511.5110323614923
 30
0.0000000000000000
 11
372.9403814891907
 21
525.0110323614922
 31
0.0000000000000000
  0
LINE
  5
10F
100
AcDbEntity
  8
MAIN0
  6
PHANTOM
 62
3
100
AcDbLine
 10
373.4403814891907
 20
525.0110323614922
 30
0.0000000000000000
 11
372.9403814891907
 21
525.0110323614922
 31
0.0000000000000000
  0
LINE
  5
110
100
AcDbEntity
  8
MAIN0
  6
PHANTOM
 62
3
100
AcDbLine
 10
372.9403814891907
 20
511.5110323614923
 30
0.0000000000000000
 11
371.4403814891907
 21
510.0110323614923
 31
0.0000000000000000
  0
LINE
  5
111
100
AcDbEntity
  8
MAIN0
  6
CENTER
 62
3
100
AcDbLine
 10
359.4403814891907
 20
649.8705051431135
 30
0.0000000000000000
 11
359.4403814891907
 21
662.2058748896550
 31
0.0000000000000000
  0
LINE
  5
112
100
AcDbEntity
  8
MAIN0
  6
CENTER
 62
3
100
AcDbLine
 10
368.4403814891907
 20
649.8705051431135
 30
0.0000000000000000
 11
368.4403814891907
 21
662.2058748896550
 31
0.0000000000000000
  0
LINE
  5
113
100
AcDbEntity
  8
MAIN0
  6
CENTER
 62
3
100
AcDbLine
 10
377.4403814891907
 20
649.8705051431135
 30
0.0000000000000000
 11
377.4403814891907
 21
662.2058748896550
 31
0.0000000000000000
  0
LINE
  5
114
100
AcDbEntity
  8
MAIN0
  6
CENTER
 62
3
100
AcDbLine
 10
386.4403814891907
 20
649.8705051431135
 30
0.0000000000000000
 11
386.4403814891907
 21
662.2058748896550
 31
0.0000000000000000
  0
LINE
  5
115
100
AcDbEntity
  8
MAIN0
  6
CENTER
 62
3
100
AcDbLine
 10
395.4403814891907
 20
649.8705051431135
 30
0.0000000000000000
 11
395.4403814891907
 21
662.2058748896550
 31
0.0000000000000000
  0
LINE
  5
116
100
AcDbEntity
  8
MAIN0
  6
CENTER
 62
3
100
AcDbLine
 10
404.4403814891907
 20
649.8705051431135
 30
0.0000000000000000
 11
404.4403814891907
 21
662.2058748896550
 31
0.0000000000000000
  0
LINE
  5
117
100
AcDbEntity
  8
MAIN0
  6
PHANTOM
 62
3
100
AcDbLine
 10
405.1903814893423
 20
656.0110323614922
 30
0.0000000000000000
 11
404.4403814891186
 21
654.7119942554284
 31
0.0000000000000000
  0
LINE
  5
118
100
AcDbEntity
  8
MAIN0
  6
PHANTOM
 62
3
100
AcDbLine
 10
404.4403814891188
 20
654.7119942554284
 30
0.0000000000000000
 11
403.6903814891906
 21
656.0110323609815
 31
0.0000000000000000
  0
LINE
  5
119
100
AcDbEntity
  8
MAIN0
  6
PHANTOM
 62
3
100
AcDbLine
 10
396.1903814893424
 20
656.0110323614922
 30
0.0000000000000000
 11
395.4403814891186
 21
654.7119942554284
 31
0.0000000000000000
  0
LINE
  5
11A
100
AcDbEntity
  8
MAIN0
  6
PHANTOM
 62
3
100
AcDbLine
 10
395.4403814891188
 20
654.7119942554284
 30
0.0000000000000000
 11
394.6903814891907
 21
656.0110323609815
 31
0.0000000000000000
  0
LINE
  5
11B
100
AcDbEntity
  8
MAIN0
  6
PHANTOM
 62
3
100
AcDbLine
 10
387.1903814893424
 20
656.0110323614922
 30
0.0000000000000000
 11
386.4403814891186
 21
654.7119942554284
 31
0.0000000000000000
  0
LINE
  5
11C
100
AcDbEntity
  8
MAIN0
  6
PHANTOM
 62
3
100
AcDbLine
 10
386.4403814891188
 20
654.7119942554284
 30
0.0000000000000000
 11
385.6903814891907
 21
656.0110323609815
 31
0.0000000000000000
  0
LINE
  5
11D
100
AcDbEntity
  8
MAIN0
  6
PHANTOM
 62
3
100
AcDbLine
 10
378.1903814893424
 20
656.0110323614922
 30
0.0000000000000000
 11
377.4403814891186
 21
654.7119942554284
 31
0.0000000000000000
  0
LINE
  5
11E
100
AcDbEntity
  8
MAIN0
  6
PHANTOM
 62
3
100
AcDbLine
 10
377.4403814891188
 20
654.7119942554284
 30
0.0000000000000000
 11
376.6903814891906
 21
656.0110323609815
 31
0.0000000000000000
  0
LINE
  5
11F
100
AcDbEntity
  8
MAIN0
  6
PHANTOM
 62
3
100
AcDbLine
 10
369.1903814893424
 20
656.0110323614922
 30
0.0000000000000000
 11
368.4403814891186
 21
654.7119942554284
 31
0.0000000000000000
  0
LINE
  5
120
100
AcDbEntity
  8
MAIN0
  6
PHANTOM
 62
3
100
AcDbLine
 10
368.4403814891188
 20
654.7119942554284
 30
0.0000000000000000
 11
367.6903814891906
 21
656.0110323609815
 31
0.0000000000000000
  0
LINE
  5
121
100
AcDbEntity
  8
MAIN0
  6
PHANTOM
 62
3
100
AcDbLine
 10
360.1903814893424
 20
656.0110323614922
 30
0.0000000000000000
 11
359.4403814891187
 21
654.7119942554284
 31
0.0000000000000000
  0
LINE
  5
122
100
AcDbEntity
  8
MAIN0
  6
PHANTOM
 62
3
100
AcDbLine
 10
359.4403814891188
 20
654.7119942554284
 30
0.0000000000000000
 11
358.6903814891906
 21
656.0110323609815
 31
0.0000000000000000
  0
LINE
  5
123
100
AcDbEntity
  8
MAIN0
  6
PHANTOM
 62
3
100
AcDbLine
 10
358.6903814891907
 20
656.0110323614922
 30
0.0000000000000000
 11
355.4403814891907
 21
656.0110323614922
 31
0.0000000000000000
  0
LINE
  5
124
100
AcDbEntity
  8
MAIN0
  6
PHANTOM
 62
3
100
AcDbLine
 10
367.6903814891907
 20
656.0110323614922
 30
0.0000000000000000
 11
360.1903814893424
 21
656.0110323614922
 31
0.0000000000000000
  0
LINE
  5
125
100
AcDbEntity
  8
MAIN0
  6
PHANTOM
 62
3
100
AcDbLine
 10
376.6903814891907
 20
656.0110323614922
 30
0.0000000000000000
 11
369.1903814893424
 21
656.0110323614922
 31
0.0000000000000000
  0
LINE
  5
126
100
AcDbEntity
  8
MAIN0
  6
PHANTOM
 62
3
100
AcDbLine
 10
385.6903814891907
 20
656.0110323614922
 30
0.0000000000000000
 11
378.1903814893424
 21
656.0110323614922
 31
0.0000000000000000
  0
LINE
  5
127
100
AcDbEntity
  8
MAIN0
  6
PHANTOM
 62
3
100
AcDbLine
 10
394.6903814891907
 20
656.0110323614922
 30
0.0000000000000000
 11
387.1903814893424
 21
656.0110323614922
 31
0.0000000000000000
  0
LINE
  5
128
100
AcDbEntity
  8
MAIN0
  6
PHANTOM
 62
3
100
AcDbLine
 10
411.9403814891907
 20
656.0110323614922
 30
0.0000000000000000
 11
405.1903814893423
 21
656.0110323614922
 31
0.0000000000000000
  0
LINE
  5
129
100
AcDbEntity
  8
MAIN0
  6
PHANTOM
 62
3
100
AcDbLine
 10
403.6903814891907
 20
656.0110323614922
 30
0.0000000000000000
 11
396.1903814893424
 21
656.0110323614922
 31
0.0000000000000000
  0
LINE
  5
12A
100
AcDbEntity
  8
MAIN0
  6
PHANTOM
 62
3
100
AcDbLine
 10
411.9403814891907
 20
656.0110323614922
 30
0.0000000000000000
 11
413.4403814891907
 21
654.5110323614922
 31
0.0000000000000000
  0
LINE
  5
12B
100
AcDbEntity
  8
MAIN0
  6
HIDDEN
 62
3
100
AcDbLine
 10
299.9403814891907
 20
668.0110323614922
 30
0.0000000000000000
 11
257.9403814891907
 21
668.0110323614923
 31
0.0000000000000000
  0
LINE
  5
12C
100
AcDbEntity
  8
MAIN0
  6
CONTINUOUS
 62
3
100
AcDbLine
 10
353.4403814891908
 20
669.5110323614923
 30
0.0000000000000000
 11
237.4403814891907
 21
669.5110323614923
 31
0.0000000000000000
  0
LINE
  5
12D
100
AcDbEntity
  8
MAIN0
  6
HIDDEN
 62
3
100
AcDbLine
 10
279.8384298014031
 20
667.0006693906568
 30
0.0000000000000000
 11
288.6903814891907
 21
646.0110323614922
 31
0.0000000000000000
  0
LINE
  5
12E
100
AcDbEntity
  8
MAIN0
  6
HIDDEN
 62
3
100
AcDbLine
 10
288.6903814891907
 20
667.0006693906635
 30
0.0000000000000000
 11
279.8384298014017
 21
646.0110323614923
 31
0.0000000000000000
  0
LINE
  5
12F
100
AcDbEntity
  8
MAIN0
  6
HIDDEN
 62
3
100
AcDbLine
 10
278.0423331769798
 20
646.0110323614922
 30
0.0000000000000000
 11
269.1903814891908
 21
667.0006693906489
 31
0.0000000000000000
  0
LINE
  5
130
100
AcDbEntity
  8
MAIN0
  6
HIDDEN
 62
3
100
AcDbLine
 10
278.0423331769785
 20
667.0006693906555
 30
0.0000000000000000
 11
269.1903814891908
 21
646.0110323614922
 31
0.0000000000000000
  0
LINE
  5
131
100
AcDbEntity
  8
MAIN0
  6
CENTER
 62
3
100
AcDbLine
 10
359.4313518725659
 20
553.0110323614922
 30
0.0000000000000000
 11
304.5566793074858
 21
553.0110323614923
 31
0.0000000000000000
  0
LINE
  5
132
100
AcDbEntity
  8
MAIN0
  6
HIDDEN
 62
3
100
AcDbLine
 10
346.4403814891907
 20
549.0110323614922
 30
0.0000000000000000
 11
346.4403814891907
 21
557.0110323614922
 31
0.0000000000000000
  0
LINE
  5
133
100
AcDbEntity
  8
MAIN0
  6
HIDDEN
 62
3
100
AcDbLine
 10
355.4403814891907
 20
557.5110323614922
 30
0.0000000000000000
 11
353.4403814891907
 21
557.5110323614922
 31
0.0000000000000000
  0
LINE
  5
134
100
AcDbEntity
  8
MAIN0
  6
HIDDEN
 62
3
100
AcDbLine
 10
355.4403814891907
 20
548.5110323614922
 30
0.0000000000000000
 11
353.4403814891907
 21
548.5110323614922
 31
0.0000000000000000
  0
LINE
  5
135
100
AcDbEntity
  8
MAIN0
  6
HIDDEN
 62
3
100
AcDbLine
 10
354.4403814891907
 20
557.0110323614922
 30
0.0000000000000000
 11
346.4403814891907
 21
557.0110323614922
 31
0.0000000000000000
  0
LINE
  5
136
100
AcDbEntity
  8
MAIN0
  6
HIDDEN
 62
3
100
AcDbLine
 10
354.4403814891907
 20
549.0110323614922
 30
0.0000000000000000
 11
346.4403814891907
 21
549.0110323614922
 31
0.0000000000000000
  0
LINE
  5
137
100
AcDbEntity
  8
MAIN0
  6
HIDDEN
 62
3
100
AcDbLine
 10
354.4403814891908
 20
557.5110323614922
 30
0.0000000000000000
 11
355.4403814891908
 21
558.5110323614922
 31
0.0000000000000000
  0
LINE
  5
138
100
AcDbEntity
  8
MAIN0
  6
HIDDEN
 62
3
100
AcDbLine
 10
354.4403814891907
 20
548.5110323614922
 30
0.0000000000000000
 11
355.4403814891907
 21
547.5110323614922
 31
0.0000000000000000
  0
LINE
  5
139
100
AcDbEntity
  8
MAIN0
  6
HIDDEN
 62
3
100
AcDbLine
 10
345.2856809508144
 20
555.0110323614922
 30
0.0000000000000000
 11
317.9403814891907
 21
555.0110323614923
 31
0.0000000000000000
  0
LINE
  5
13A
100
AcDbEntity
  8
MAIN0
  6
HIDDEN
 62
3
100
AcDbLine
 10
345.2856809507420
 20
551.0110323614922
 30
0.0000000000000000
 11
309.4403814893726
 21
551.0110323614923
 31
0.0000000000000000
  0
LINE
  5
13B
100
AcDbEntity
  8
MAIN0
  6
HIDDEN
 62
3
100
AcDbLine
 10
346.4403814891215
 20
549.0110323614923
 30
0.0000000000000000
 11
345.2856809507420
 21
551.0110323614921
 31
0.0000000000000000
  0
LINE
  5
13C
100
AcDbEntity
  8
MAIN0
  6
HIDDEN
 62
3
100
AcDbLine
 10
346.4403814891907
 20
557.0110323615162
 30
0.0000000000000000
 11
345.2856809507981
 21
555.0110323614924
 31
0.0000000000000000
  0
LINE
  5
13D
100
AcDbEntity
  8
MAIN0
  6
HIDDEN
 62
3
100
AcDbLine
 10
345.2856809508144
 20
555.0110323614922
 30
0.0000000000000000
 11
345.2856809508144
 21
551.0110323614922
 31
0.0000000000000000
  0
LINE
  5
13E
100
AcDbEntity
  8
MAIN0
  6
HIDDEN
 62
3
100
AcDbLine
 10
309.4403814891907
 20
551.0110323614923
 30
0.0000000000000000
 11
309.4403814891907
 21
553.0110323614923
 31
0.0000000000000000
  0
LINE
  5
13F
100
AcDbEntity
  8
MAIN0
  6
HIDDEN
 62
3
100
AcDbLine
 10
309.4403814893726
 20
551.0110323614922
 30
0.0000000000000000
 11
308.2856809509933
 21
553.0110323614924
 31
0.0000000000000000
  0
LINE
  5
140
100
AcDbEntity
  8
MAIN0
  6
CONTINUOUS
 62
3
100
AcDbLine
 10
235.4403814891907
 20
781.3400478283509
 30
0.0000000000000000
 11
235.4403814891907
 21
845.9280807756362
 31
0.0000000000000000
  0
LINE
  5
141
100
AcDbEntity
  8
MAIN0
  6
CONTINUOUS
 62
3
100
AcDbLine
 10
355.4403814891907
 20
774.7762167771140
 30
0.0000000000000000
 11
355.4403814891907
 21
844.0902196449297
 31
0.0000000000000000
  0
LINE
  5
142
100
AcDbEntity
  8
MAIN0
  6
CENTER
 62
3
100
AcDbLine
 10
278.9403814891907
 20
452.0110323614923
 30
0.0000000000000000
 11
278.9403814891907
 21
682.0110323614922
 31
0.0000000000000000
  0
LINE
  5
143
100
AcDbEntity
  8
MAIN0
  6
CENTER
 62
3
100
AcDbLine
 10
278.9403814891907
 20
782.1277011745600
 30
0.0000000000000000
 11
278.9403814891907
 21
838.8391508164782
 31
0.0000000000000000
  0
ARC
  5
144
100
AcDbEntity
  8
MAIN0
  6
CONTINUOUS
 62
3
100
AcDbCircle
 10
278.9403814891908
 20
809.0133157863752
 30
0.0000000000000000
 40
22.00000000000000
100
AcDbArc
 50
138.7694228451317
 51
401.2305771548683
  0
CIRCLE
  5
145
100
AcDbEntity
  8
MAIN0
  6
CONTINUOUS
 62
3
100
AcDbCircle
 10
278.9403814891908
 20
809.0133157863752
 30
0.0000000000000000
 40
11.50000000000000
  0
ARC
  5
146
100
AcDbEntity
  8
MAIN0
  6
CONTINUOUS
 62
3
100
AcDbCircle
 10
278.9403814891908
 20
809.0133157863752
 30
0.0000000000000000
 40
9.750000000000000
100
AcDbArc
 50
174.7151372318267
 51
185.2848627681743
  0
ARC
  5
147
100
AcDbEntity
  8
MAIN0
  6
CONTINUOUS
 62
3
100
AcDbCircle
 10
278.9403814891908
 20
809.0133157863752
 30
0.0000000000000000
 40
9.750000000000000
100
AcDbArc
 50
264.7151372318255
 51
275.2848627681740
  0
ARC
  5
148
100
AcDbEntity
  8
MAIN0
  6
CONTINUOUS
 62
3
100
AcDbCircle
 10
278.9403814891908
 20
809.0133157863752
 30
0.0000000000000000
 40
9.750000000000000
100
AcDbArc
 50
84.71513723182632
 51
95.28486276817380
  0
ARC
  5
149
100
AcDbEntity
  8
MAIN0
  6
CONTINUOUS
 62
3
100
AcDbCircle
 10
278.9403814891908
 20
809.0133157863752
 30
0.0000000000000000
 40
9.750000000000000
100
AcDbArc
 50
354.7151372318260
 51
365.2848627681736
  0
ARC
  5
14A
100
AcDbEntity
  8
MAIN0
  6
HIDDEN
 62
3
100
AcDbCircle
 10
278.9403814891908
 20
830.0943656948239
 30
0.0000000000000000
 40
162.0833333333316
100
AcDbArc
 50
262.1990125152362
 51
277.8009874847638
  0
LINE
  5
14B
100
AcDbEntity
  8
MAIN0
  6
CENTER
 62
3
100
AcDbLine
 10
335.0734770708633
 20
828.0133157863752
 30
0.0000000000000000
 11
227.9495605975587
 21
828.0133157863752
 31
0.0000000000000000
  0
LINE
  5
14C
100
AcDbEntity
  8
MAIN0
  6
CONTINUOUS
 62
3
100
AcDbLine
 10
251.4403814891907
 20
834.0133157863752
 30
0.0000000000000000
 11
251.4403814891907
 21
822.0133157863752
 31
0.0000000000000000
  0
LINE
  5
14D
100
AcDbEntity
  8
MAIN0
  6
CONTINUOUS
 62
3
100
AcDbLine
 10
324.4403814889930
 20
832.5133157863752
 30
0.0000000000000000
 11
252.5950820275490
 21
832.5133157863752
 31
0.0000000000000000
  0
LINE
  5
14E
100
AcDbEntity
  8
MAIN0
  6
CONTINUOUS
 62
3
100
AcDbLine
 10
324.4403814890382
 20
823.5133157863752
 30
0.0000000000000000
 11
252.5950820276469
 21
823.5133157863752
 31
0.0000000000000000
  0
LINE
  5
14F
100
AcDbEntity
  8
MAIN0
  6
CONTINUOUS
 62
3
100
AcDbLine
 10
324.4403814891907
 20
832.5133157863752
 30
0.0000000000000000
 11
324.4403814891907
 21
823.5133157863752
 31
0.0000000000000000
  0
LINE
  5
150
100
AcDbEntity
  8
MAIN0
  6
CONTINUOUS
 62
3
100
AcDbLine
 10
327.0384577003739
 20
828.0133157863395
 30
0.0000000000000000
 11
324.4403814889930
 21
832.5133157863752
 31
0.0000000000000000
  0
LINE
  5
151
100
AcDbEntity
  8
MAIN0
  6
CONTINUOUS
 62
3
100
AcDbLine
 10
327.0384577003734
 20
828.0133157863395
 30
0.0000000000000000
 11
324.4403814890380
 21
823.5133157863752
 31
0.0000000000000000
  0
LINE
  5
152
100
AcDbEntity
  8
MAIN0
  6
CENTER
 62
3
100
AcDbLine
 10
275.4403814891907
 20
397.0110323614923
 30
0.0000000000000000
 11
226.2421510314700
 21
397.0110323614923
 31
0.0000000000000000
  0
LINE
  5
153
100
AcDbEntity
  8
MAIN0
  6
HIDDEN
 62
3
100
AcDbLine
 10
251.9403814891907
 20
407.0110323614923
 30
0.0000000000000000
 11
243.9403814891907
 21
407.0110323614923
 31
0.0000000000000000
  0
LINE
  5
154
100
AcDbEntity
  8
MAIN0
  6
HIDDEN
 62
3
100
AcDbLine
 10
251.9403814891907
 20
387.0110323614923
 30
0.0000000000000000
 11
243.9403814891907
 21
387.0110323614923
 31
0.0000000000000000
  0
LINE
  5
155
100
AcDbEntity
  8
MAIN0
  6
HIDDEN
 62
3
100
AcDbLine
 10
246.9403814891907
 20
398.0110323614923
 30
0.0000000000000000
 11
243.9403814891907
 21
398.0110323614923
 31
0.0000000000000000
  0
LINE
  5
156
100
AcDbEntity
  8
MAIN0
  6
HIDDEN
 62
3
100
AcDbLine
 10
246.9403814891907
 20
396.0110323614923
 30
0.0000000000000000
 11
243.9403814891907
 21
396.0110323614923
 31
0.0000000000000000
  0
LINE
  5
157
100
AcDbEntity
  8
MAIN0
  6
HIDDEN
 62
3
100
AcDbLine
 10
246.9403814891907
 20
396.0110323614923
 30
0.0000000000000000
 11
246.9403814891907
 21
398.0110323614923
 31
0.0000000000000000
  0
LINE
  5
158
100
AcDbEntity
  8
MAIN0
  6
HIDDEN
 62
3
100
AcDbLine
 10
243.9403814891907
 20
387.0110323614923
 30
0.0000000000000000
 11
243.9403814891907
 21
396.0110323614923
 31
0.0000000000000000
  0
LINE
  5
159
100
AcDbEntity
  8
MAIN0
  6
HIDDEN
 62
3
100
AcDbLine
 10
243.9403814891907
 20
398.0110323614923
 30
0.0000000000000000
 11
243.9403814891907
 21
407.0110323614923
 31
0.0000000000000000
  0
LINE
  5
15A
100
AcDbEntity
  8
MAIN0
  6
HIDDEN
 62
3
100
AcDbLine
 10
257.9403814891907
 20
391.0110323614923
 30
0.0000000000000000
 11
257.9403814891907
 21
403.0110323614923
 31
0.0000000000000000
  0
LINE
  5
15B
100
AcDbEntity
  8
MAIN0
  6
HIDDEN
 62
3
100
AcDbLine
 10
257.9403814892013
 20
391.9582478614923
 30
0.0000000000000000
 11
256.2997561174838
 21
391.0110323614923
 31
0.0000000000000000
  0
LINE
  5
15C
100
AcDbEntity
  8
MAIN0
  6
HIDDEN
 62
3
100
AcDbLine
 10
257.9403814892013
 20
402.0638168614922
 30
0.0000000000000000
 11
256.2997561174838
 21
403.0110323614922
 31
0.0000000000000000
  0
LINE
  5
15D
100
AcDbEntity
  8
MAIN0
  6
CENTER
 62
3
100
AcDbLine
 10
277.9447887133663
 20
457.2659922287995
 30
0.0000000000000000
 11
297.9352570509582
 21
652.9362712242357
 31
0.0000000000000000
  0
ARC
  5
15E
100
AcDbEntity
  8
MAIN0
  6
CENTER
 62
3
100
AcDbCircle
 10
784.6464465764666
 20
467.0110323614923
 30
0.0000000000000000
 40
70.00000000000000
100
AcDbArc
 50
167.2870147266580
 51
192.7129852735816
  0
CIRCLE
  5
15F
100
AcDbEntity
  8
MAIN0
  6
HIDDEN
 62
3
100
AcDbCircle
 10
714.6464465764668
 20
467.0110323613459
 30
0.0000000000000000
 40
10.00000000000000
  0
CIRCLE
  5
160
100
AcDbEntity
  8
MAIN0
  6
HIDDEN
 62
3
100
AcDbCircle
 10
714.6464465764668
 20
467.0110323613459
 30
0.0000000000000000
 40
10.50000000000000
  0
LINE
  5
161
100
AcDbEntity
  8
MAIN0
  6
HIDDEN
 62
3
100
AcDbLine
 10
722.3891769979439
 20
460.6825155035334
 30
0.0000000000000000
 11
708.3179297186213
 21
474.7537627827953
 31
0.0000000000000000
  0
LINE
  5
162
100
AcDbEntity
  8
MAIN0
  6
HIDDEN
 62
3
100
AcDbLine
 10
720.9749634357307
 20
459.2683019410003
 30
0.0000000000000000
 11
706.9037161560940
 21
473.3395492205763
 31
0.0000000000000000
  0
LINE
  5
163
100
AcDbEntity
  8
MAIN0
  6
CENTER
 62
3
100
AcDbLine
 10
895.2515360036155
 20
577.6161217890679
 30
0.0000000000000000
 11
935.5996659903282
 21
617.9642517756724
 31
0.0000000000000000
  0
LINE
  5
164
100
AcDbEntity
  8
MAIN0
  6
CENTER
 62
3
100
AcDbLine
 10
591.9557942343809
 20
355.7610323615758
 30
0.0000000000000000
 11
669.4650678731197
 21
400.5110323615211
 31
0.0000000000000000
  0
LINE
  5
165
100
AcDbEntity
  8
MAIN0
  6
CENTER
 62
3
100
AcDbLine
 10
908.8310665419555
 20
395.3130085950885
 30
0.0000000000000000
 11
977.3370989185129
 21
355.7610323615073
 31
0.0000000000000000
  0
LINE
  5
166
100
AcDbEntity
  8
MAIN0
  6
CENTER
 62
3
100
AcDbLine
 10
946.1640853118847
 20
395.6980903878700
 30
0.0000000000000000
 11
965.2166441951590
 21
384.6980903878987
 31
0.0000000000000000
  0
LINE
  5
167
100
AcDbEntity
  8
MAIN0
  6
HIDDEN
 62
3
100
AcDbLine
 10
942.9427041663761
 20
401.0220572745203
 30
0.0000000000000000
 11
969.9785649597352
 21
385.4128957677555
 31
0.0000000000000000
  0
LINE
  5
168
100
AcDbEntity
  8
MAIN0
  6
HIDDEN
 62
3
100
AcDbLine
 10
920.9427041663623
 20
362.9169395080129
 30
0.0000000000000000
 11
947.9785649597324
 21
347.3077780012417
 31
0.0000000000000000
  0
LINE
  5
169
100
AcDbEntity
  8
MAIN0
  6
HIDDEN
 62
3
100
AcDbLine
 10
969.9785649597351
 20
385.4128957677552
 30
0.0000000000000000
 11
947.9785649597322
 21
347.3077780012417
 31
0.0000000000000000
  0
ARC
  5
16A
100
AcDbEntity
  8
MAIN0
  6
HIDDEN
 62
3
100
AcDbCircle
 10
784.6464465764666
 20
467.0110323614923
 30
0.0000000000000000
 40
171.5000000000000
100
AcDbArc
 50
319.9985502613975
 51
340.9078187544061
  0
ARC
  5
16B
100
AcDbEntity
  8
MAIN0
  6
CENTER
 62
3
100
AcDbCircle
 10
784.6464465764666
 20
467.0110323614923
 30
0.0000000000000000
 40
187.5000000000000
100
AcDbArc
 50
52.68720278967652
 51
64.89072449980391
  0
LINE
  5
16C
100
AcDbEntity
  8
MAIN0
  6
CONTINUOUS
 62
3
100
AcDbLine
 10
252.1620693256568
 20
832.7633157863750
 30
0.0000000000000000
 11
251.4403814891695
 21
834.0133157863752
 31
0.0000000000000000
  0
LINE
  5
16D
100
AcDbEntity
  8
MAIN0
  6
CONTINUOUS
 62
3
100
AcDbLine
 10
252.1620693257548
 20
823.2633157863752
 30
0.0000000000000000
 11
251.4403814892677
 21
822.0133157863752
 31
0.0000000000000000
  0
ARC
  5
16E
100
AcDbEntity
  8
MAIN0
  6
CONTINUOUS
 62
3
100
AcDbCircle
 10
252.5950820275490
 20
833.0133157863752
 30
0.0000000000000000
 40
0.5000000000000000
100
AcDbArc
 50
210.0000000000068
 51
270.0000000000000
  0
ARC
  5
16F
100
AcDbEntity
  8
MAIN0
  6
CONTINUOUS
 62
3
100
AcDbCircle
 10
252.5950820276469
 20
823.0133157863752
 30
0.0000000000000000
 40
0.5000000000000000
100
AcDbArc
 50
90.00000000000000
 51
149.9999999999974
  0
LINE
  5
170
100
AcDbEntity
  8
MAIN0
  6
CONTINUOUS
 62
3
100
AcDbLine
 10
236.4507444603630
 20
834.0133157863752
 30
0.0000000000000000
 11
235.4403814892809
 21
832.2633157863752
 31
0.0000000000000000
  0
LINE
  5
171
100
AcDbEntity
  8
MAIN0
  6
CONTINUOUS
 62
3
100
AcDbLine
 10
236.4507444603630
 20
822.0133157863750
 30
0.0000000000000000
 11
235.4403814892810
 21
823.7633157863751
 31
0.0000000000000000
  0
LINE
  5
172
100
AcDbEntity
  8
MAIN0
  6
CONTINUOUS
 62
3
100
AcDbLine
 10
238.4403814891907
 20
829.0133157863752
 30
0.0000000000000000
 11
235.4403814891907
 21
829.0133157863752
 31
0.0000000000000000
  0
LINE
  5
173
100
AcDbEntity
  8
MAIN0
  6
CONTINUOUS
 62
3
100
AcDbLine
 10
238.4403814891907
 20
827.0133157863752
 30
0.0000000000000000
 11
235.4403814891907
 21
827.0133157863752
 31
0.0000000000000000
  0
LINE
  5
174
100
AcDbEntity
  8
MAIN0
  6
CONTINUOUS
 62
3
100
AcDbLine
 10
238.4403814891907
 20
827.0133157863752
 30
0.0000000000000000
 11
238.4403814891907
 21
829.0133157863752
 31
0.0000000000000000
  0
LINE
  5
175
100
AcDbEntity
  8
MAIN0
  6
CONTINUOUS
 62
3
100
AcDbLine
 10
236.4507444603623
 20
827.0133157863752
 30
0.0000000000000000
 11
236.4507444603623
 21
822.0133157863752
 31
0.0000000000000000
  0
LINE
  5
176
100
AcDbEntity
  8
MAIN0
  6
CONTINUOUS
 62
3
100
AcDbLine
 10
236.4507444603623
 20
834.0133157863752
 30
0.0000000000000000
 11
236.4507444603623
 21
829.0133157863752
 31
0.0000000000000000
  0
LINE
  5
177
100
AcDbEntity
  8
MAIN0
  6
HIDDEN
 62
3
100
AcDbLine
 10
951.4470170305006
 20
387.3689562267797
 30
0.0000000000000000
 11
958.5194989146391
 21
394.4414381108975
 31
0.0000000000000000
  0
LINE
  5
178
100
AcDbEntity
  8
MAIN0
  6
HIDDEN
 62
3
100
AcDbLine
 10
952.8612305929646
 20
385.9547426644982
 30
0.0000000000000000
 11
959.9337124769163
 21
393.0272245484293
 31
0.0000000000000000
  0
ARC
  5
179
100
AcDbEntity
  8
MAIN0
  6
CENTER
 62
3
100
AcDbCircle
 10
784.6464465764666
 20
467.0110323614923
 30
0.0000000000000000
 40
187.5000000000000
100
AcDbArc
 50
332.4541202770012
 51
339.1777895323536
  0
ARC
  5
17A
100
AcDbEntity
  8
MAIN0
  6
CENTER
 62
3
100
AcDbCircle
 10
784.6464465764666
 20
467.0110323614923
 30
0.0000000000000000
 40
158.0000000000000
100
AcDbArc
 50
200.9247282187441
 51
219.0752717812190
  0
CIRCLE
  5
17B
100
AcDbEntity
  8
MAIN0
  6
CONTINUOUS
 62
3
100
AcDbCircle
 10
647.8144327784999
 20
388.0110323615364
 30
0.0000000000000000
 40
20.00000000000000
  0
LINE
  5
17C
100
AcDbEntity
  8
MAIN0
  6
CENTER
 62
3
100
AcDbLine
 10
591.9557942342348
 20
578.2610323611559
 30
0.0000000000000000
 11
759.8909369288268
 21
481.3036325201447
 31
0.0000000000000000
  0
LINE
  5
17D
100
AcDbEntity
  8
MAIN0
  6
CONTINUOUS
 62
3
100
AcDbLine
 10
611.1841516124219
 20
544.0655242861143
 30
0.0000000000000000
 11
621.1841516124464
 21
561.3860323617889
 31
0.0000000000000000
  0
LINE
  5
17E
100
AcDbEntity
  8
MAIN0
  6
CONTINUOUS
 62
3
100
AcDbLine
 10
600.1337321402191
 20
550.4454869430850
 30
0.0000000000000000
 11
730.3285683298700
 21
475.2774632214643
 31
0.0000000000000000
  0
ARC
  5
17F
100
AcDbEntity
  8
MAIN0
  6
CONTINUOUS
 62
3
100
AcDbCircle
 10
793.5232069653052
 20
461.8860323613654
 30
0.0000000000000000
 40
53.00000000000000
100
AcDbArc
 50
149.9999999999190
 51
155.4133122738304
  0
LINE
  5
180
100
AcDbEntity
  8
MAIN0
  6
CONTINUOUS
 62
3
100
AcDbLine
 10
730.3285683298700
 20
475.2774632214641
 30
0.0000000000000000
 11
745.3285683298702
 21
483.9377172592841
 31
0.0000000000000000
  0
LINE
  5
181
100
AcDbEntity
  8
MAIN0
  6
CONTINUOUS
 62
3
100
AcDbLine
 10
603.8093254056040
 20
558.1383367581092
 30
0.0000000000000000
 11
615.4341516124324
 21
551.4267402182761
 31
0.0000000000000000
  0
ARC
  5
182
100
AcDbEntity
  8
MAIN0
  6
CONTINUOUS
 62
3
100
AcDbCircle
 10
793.5232069653051
 20
461.8860323613653
 30
0.0000000000000000
 40
96.99999999999999
100
AcDbArc
 50
149.9999999999190
 51
161.8989098179240
  0
ARC
  5
183
100
AcDbEntity
  8
MAIN0
  6
CONTINUOUS
 62
3
100
AcDbCircle
 10
793.5232069653051
 20
461.8860323613653
 30
0.0000000000000000
 40
99.99999999999999
100
AcDbArc
 50
149.9999999999190
 51
161.5369590326746
  0
ARC
  5
184
100
AcDbEntity
  8
MAIN0
  6
CONTINUOUS
 62
3
100
AcDbCircle
 10
793.5232069653051
 20
461.8860323613653
 30
0.0000000000000000
 40
132.0000000000000
100
AcDbArc
 50
149.9999999999190
 51
158.7147420184773
  0
ARC
  5
185
100
AcDbEntity
  8
MAIN0
  6
CONTINUOUS
 62
3
100
AcDbCircle
 10
793.5232069653051
 20
461.8860323613653
 30
0.0000000000000000
 40
147.0000000000000
100
AcDbArc
 50
149.9999999999190
 51
157.8195964008274
  0
ARC
  5
186
100
AcDbEntity
  8
MAIN0
  6
CONTINUOUS
 62
3
100
AcDbCircle
 10
793.5232069653051
 20
461.8860323613653
 30
0.0000000000000000
 40
150.0000000000000
100
AcDbArc
 50
149.9999999999190
 51
157.6622556606252
  0
ARC
  5
187
100
AcDbEntity
  8
MAIN0
  6
CONTINUOUS
 62
3
100
AcDbCircle
 10
793.5232069653051
 20
461.8860323613653
 30
0.0000000000000000
 40
184.0000000000000
100
AcDbArc
 50
149.9999999999190
 51
156.2401310981169
  0
LINE
  5
188
100
AcDbEntity
  8
MAIN0
  6
CONTINUOUS
 62
3
100
AcDbLine
 10
631.1841516116300
 20
578.7065404361592
 30
0.0000000000000000
 11
621.1841516116715
 21
561.3860323604465
 31
0.0000000000000000
  0
LINE
  5
189
100
AcDbEntity
  8
MAIN0
  6
CONTINUOUS
 62
3
100
AcDbLine
 10
620.1337321393896
 20
585.0865030930650
 30
0.0000000000000000
 11
750.3285683294837
 21
509.9184793722117
 31
0.0000000000000000
  0
ARC
  5
18A
100
AcDbEntity
  8
MAIN0
  6
CONTINUOUS
 62
3
100
AcDbCircle
 10
793.5232069651167
 20
461.8860323610388
 30
0.0000000000000000
 40
53.00000000000000
100
AcDbArc
 50
144.5866877262257
 51
150.0000000001371
  0
LINE
  5
18B
100
AcDbEntity
  8
MAIN0
  6
CONTINUOUS
 62
3
100
AcDbLine
 10
750.3285683294837
 20
509.9184793722118
 30
0.0000000000000000
 11
750.3285683295219
 21
492.5979712965350
 31
0.0000000000000000
  0
LINE
  5
18C
100
AcDbEntity
  8
MAIN0
  6
CONTINUOUS
 62
3
100
AcDbLine
 10
615.3093254047797
 20
578.0569210437459
 30
0.0000000000000000
 11
626.9341516116476
 21
571.3453245039813
 31
0.0000000000000000
  0
ARC
  5
18D
100
AcDbEntity
  8
MAIN0
  6
CONTINUOUS
 62
3
100
AcDbCircle
 10
793.5232069651167
 20
461.8860323610389
 30
0.0000000000000000
 40
96.99999999999999
100
AcDbArc
 50
138.1010901821321
 51
150.0000000001371
  0
ARC
  5
18E
100
AcDbEntity
  8
MAIN0
  6
CONTINUOUS
 62
3
100
AcDbCircle
 10
793.5232069651167
 20
461.8860323610389
 30
0.0000000000000000
 40
99.99999999999999
100
AcDbArc
 50
138.4630409673815
 51
150.0000000001371
  0
ARC
  5
18F
100
AcDbEntity
  8
MAIN0
  6
CONTINUOUS
 62
3
100
AcDbCircle
 10
793.5232069651167
 20
461.8860323610389
 30
0.0000000000000000
 40
132.0000000000000
100
AcDbArc
 50
141.2852579815789
 51
150.0000000001371
  0
ARC
  5
190
100
AcDbEntity
  8
MAIN0
  6
CONTINUOUS
 62
3
100
AcDbCircle
 10
793.5232069651167
 20
461.8860323610389
 30
0.0000000000000000
 40
147.0000000000000
100
AcDbArc
 50
142.1804035992287
 51
150.0000000001371
  0
ARC
  5
191
100
AcDbEntity
  8
MAIN0
  6
CONTINUOUS
 62
3
100
AcDbCircle
 10
793.5232069651167
 20
461.8860323610389
 30
0.0000000000000000
 40
150.0000000000000
100
AcDbArc
 50
142.3377443394309
 51
150.0000000001371
  0
ARC
  5
192
100
AcDbEntity
  8
MAIN0
  6
CONTINUOUS
 62
3
100
AcDbCircle
 10
793.5232069651167
 20
461.8860323610389
 30
0.0000000000000000
 40
184.0000000000000
100
AcDbArc
 50
143.7598689019392
 51
150.0000000001371
  0
ARC
  5
193
100
AcDbEntity
  8
MAIN0
  6
CONTINUOUS
 62
3
100
AcDbCircle
 10
784.6464465764666
 20
467.0110323614923
 30
0.0000000000000000
 40
55.00000000000000
100
AcDbArc
 50
171.3236862634250
 51
248.6059991749193
  0
LINE
  5
194
100
AcDbEntity
  8
MAIN0
  6
CENTER
 62
3
100
AcDbLine
 10
884.4480281813444
 20
719.3826656827005
 30
0.0000000000000000
 11
1209.296098443275
 21
719.3826656827605
 31
0.0000000000000000
  0
LINE
  5
195
100
AcDbEntity
  8
MAIN0
  6
CENTER
 62
3
100
AcDbLine
 10
1047.342431005527
 20
506.0138752167847
 30
0.0000000000000000
 11
1047.342431005777
 21
745.0166686732046
 31
0.0000000000000000
  0
ARC
  5
196
100
AcDbEntity
  8
MAIN0
  6
CONTINUOUS
 62
3
100
AcDbCircle
 10
1189.342431005750
 20
719.3826656827584
 30
0.0000000000000000
 40
7.999999999998572
100
AcDbArc
 50
270.0000000000000
 51
450.0000000000000
  0
ARC
  5
197
100
AcDbEntity
  8
MAIN0
  6
CONTINUOUS
 62
3
100
AcDbCircle
 10
905.3424310057502
 20
719.3826656827030
 30
0.0000000000000000
 40
7.999999999998542
100
AcDbArc
 50
90.00000000000000
 51
270.0000000000000
  0
LINE
  5
198
100
AcDbEntity
  8
MAIN0
  6
CONTINUOUS
 62
3
100
AcDbLine
 10
1034.342431005769
 20
737.3826656827282
 30
0.0000000000000000
 11
1060.342431005769
 21
737.3826656827330
 31
0.0000000000000000
  0
LINE
  5
199
100
AcDbEntity
  8
MAIN0
  6
CONTINUOUS
 62
3
100
AcDbLine
 10
1032.342431005767
 20
735.3826656827280
 30
0.0000000000000000
 11
1034.342431005769
 21
737.3826656827282
 31
0.0000000000000000
  0
LINE
  5
19A
100
AcDbEntity
  8
MAIN0
  6
CONTINUOUS
 62
3
100
AcDbLine
 10
1060.342431005769
 20
737.3826656827332
 30
0.0000000000000000
 11
1062.342431005767
 21
735.3826656827336
 31
0.0000000000000000
  0
LINE
  5
19B
100
AcDbEntity
  8
MAIN0
  6
CONTINUOUS
 62
3
100
AcDbLine
 10
1062.342431005767
 20
735.3826656827198
 30
0.0000000000000000
 11
1032.342431005767
 21
735.3826656827143
 31
0.0000000000000000
  0
LINE
  5
19C
100
AcDbEntity
  8
MAIN0
  6
CONTINUOUS
 62
3
100
AcDbLine
 10
1038.592431005623
 20
597.3826656827290
 30
0.0000000000000000
 11
1056.092431005623
 21
597.3826656827323
 31
0.0000000000000000
  0
LINE
  5
19D
100
AcDbEntity
  8
MAIN0
  6
CONTINUOUS
 62
3
100
AcDbLine
 10
1034.342431005675
 20
647.3826656827282
 30
0.0000000000000000
 11
1060.342431005684
 21
647.3826656827331
 31
0.0000000000000000
  0
LINE
  5
19E
100
AcDbEntity
  8
MAIN0
  6
CONTINUOUS
 62
3
100
AcDbLine
 10
1057.092431005624
 20
598.3826656827324
 30
0.0000000000000000
 11
1057.092431005652
 21
625.5437669009433
 31
0.0000000000000000
  0
LINE
  5
19F
100
AcDbEntity
  8
MAIN0
  6
CONTINUOUS
 62
3
100
AcDbLine
 10
1037.592431005624
 20
598.3826656827289
 30
0.0000000000000000
 11
1037.592431005652
 21
625.5437669009634
 31
0.0000000000000000
  0
LINE
  5
1A0
100
AcDbEntity
  8
MAIN0
  6
CONTINUOUS
 62
3
100
AcDbLine
 10
1037.592431005624
 20
598.3826656827289
 30
0.0000000000000000
 11
1038.592431005623
 21
597.3826656827291
 31
0.0000000000000000
  0
LINE
  5
1A1
100
AcDbEntity
  8
MAIN0
  6
CONTINUOUS
 62
3
100
AcDbLine
 10
1057.092431005624
 20
598.3826656827325
 30
0.0000000000000000
 11
1056.092431005623
 21
597.3826656827323
 31
0.0000000000000000
  0
LINE
  5
1A2
100
AcDbEntity
  8
MAIN0
  6
CONTINUOUS
 62
3
100
AcDbLine
 10
1037.592431005623
 20
598.3826656827580
 30
0.0000000000000000
 11
1057.092431005623
 21
598.3826656827580
 31
0.0000000000000000
  0
LINE
  5
1A3
100
AcDbEntity
  8
MAIN0
  6
CONTINUOUS
 62
3
100
AcDbLine
 10
1037.633877599994
 20
548.2091537404272
 30
0.0000000000000000
 11
1046.444382693348
 21
557.0196588337802
 31
0.0000000000000000
  0
LINE
  5
1A4
100
AcDbEntity
  8
MAIN0
  6
CONTINUOUS
 62
3
100
AcDbLine
 10
1048.240479317793
 20
537.6025520226290
 30
0.0000000000000000
 11
1057.050984411146
 21
546.4130571159818
 31
0.0000000000000000
  0
LINE
  5
1A5
100
AcDbEntity
  8
MAIN0
  6
CONTINUOUS
 62
3
100
AcDbLine
 10
1046.444382693338
 20
537.6025520226302
 30
0.0000000000000000
 11
1037.633877599994
 21
546.4130571159928
 31
0.0000000000000000
  0
LINE
  5
1A6
100
AcDbEntity
  8
MAIN0
  6
CONTINUOUS
 62
3
100
AcDbLine
 10
1057.050984411146
 20
548.2091537404167
 30
0.0000000000000000
 11
1048.240479317802
 21
557.0196588337794
 31
0.0000000000000000
  0
ARC
  5
1A7
100
AcDbEntity
  8
MAIN0
  6
CONTINUOUS
 62
3
100
AcDbCircle
 10
1047.342431005570
 20
547.3111054282047
 30
0.0000000000000000
 40
9.750000000000000
100
AcDbArc
 50
174.7151372318268
 51
185.2848627681109
  0
ARC
  5
1A8
100
AcDbEntity
  8
MAIN0
  6
CONTINUOUS
 62
3
100
AcDbCircle
 10
1047.342431005570
 20
547.3111054282047
 30
0.0000000000000000
 40
9.750000000000000
100
AcDbArc
 50
354.7151372318253
 51
365.2848627681119
  0
ARC
  5
1A9
100
AcDbEntity
  8
MAIN0
  6
CONTINUOUS
 62
3
100
AcDbCircle
 10
1047.342431005570
 20
547.3111054282047
 30
0.0000000000000000
 40
9.750000000000000
100
AcDbArc
 50
29.32883692793404
 51
84.71513723177098
  0
ARC
  5
1AA
100
AcDbEntity
  8
MAIN0
  6
CONTINUOUS
 62
3
100
AcDbCircle
 10
1047.342431005570
 20
547.3111054282047
 30
0.0000000000000000
 40
9.750000000000000
100
AcDbArc
 50
84.71513723177098
 51
95.28486276817328
  0
ARC
  5
1AB
100
AcDbEntity
  8
MAIN0
  6
CONTINUOUS
 62
3
100
AcDbCircle
 10
1047.342431005570
 20
547.3111054282047
 30
0.0000000000000000
 40
9.750000000000000
100
AcDbArc
 50
211.1532634692587
 51
264.7151372317697
  0
ARC
  5
1AC
100
AcDbEntity
  8
MAIN0
  6
CONTINUOUS
 62
3
100
AcDbCircle
 10
1047.342431005570
 20
547.3111054282047
 30
0.0000000000000000
 40
9.750000000000000
100
AcDbArc
 50
264.7151372317697
 51
275.2848627681740
  0
DIMENSION
  5
1B5
100
AcDbEntity
  8
MAIN0
  6
CONTINUOUS
 62
3
100
AcDbDimension
  2
*D0
 10
1054.269201548496
 20
554.1727633798701
 30
0.0000000000000000
 11
1068.996603823361
 21
570.8730995913584
 31
0.0000000000000000
 70
163
  3
MAIN001
100
AcDbDiametricDimension
 15
1040.415660462644
 25
540.4494474765395
 35
0.0000000000000000
1001
ACAD
1000
DSTYLE
1002
{
1070
   287
1070
     2
1070
   173
1070
     1
1070
     6
1000
_OPEN
1070
     7
1000
_OPEN
1070
    41
1040
6.000000
1002
}
  0
DIMENSION
  5
1C0
100
AcDbEntity
  8
MAIN0
  6
CONTINUOUS
 62
3
100
AcDbDimension
  2
*D1
 10
1084.770279100119
 20
520.4898590513835
 30
0.0000000000000000
 11
1092.940775545292
 21
530.7816758400954
 31
0.0000000000000000
 70
161
  3
MAIN001
100
AcDbAlignedDimension
 13
1046.444382693338
 23
537.6025520226301
 33
0.0000000000000000
 14
1057.050984411147
 24
548.2091537404167
 34
0.0000000000000000
 50
44.99999999993797
1001
ACAD
1000
DSTYLE
1002
{
1070
   173
1070
     1
1070
     6
1000
_OPEN
1070
     7
1000
_OPEN
1070
    41
1040
6.000000
1070
   287
1070
     0
1070
   272
1070
     1
1070
    47
1040
0.000000
1070
    48
1040
0.100000
1070
    71
1070
     1
1002
}
  0
LINE
  5
1C1
100
AcDbEntity
  8
MAIN0
  6
CONTINUOUS
 62
3
100
AcDbLine
 10
1062.342431005731
 20
701.3826656827334
 30
0.0000000000000000
 11
1062.342431005742
 21
711.3826656827334
 31
0.0000000000000000
  0
LINE
  5
1C2
100
AcDbEntity
  8
MAIN0
  6
CONTINUOUS
 62
3
100
AcDbLine
 10
1062.342431005758
 20
727.3826656827334
 30
0.0000000000000000
 11
1062.342431005767
 21
735.3826656827334
 31
0.0000000000000000
  0
ARC
  5
1C3
100
AcDbEntity
  8
MAIN0
  6
CONTINUOUS
 62
3
100
AcDbCircle
 10
1071.509097672416
 20
719.3826656827239
 30
0.0000000000000000
 40
12.16666666666651
100
AcDbArc
 50
138.8879095607734
 51
221.1120904391076
  0
ARC
  5
1C4
100
AcDbEntity
  8
MAIN0
  6
CONTINUOUS
 62
3
100
AcDbCircle
 10
1023.175764339084
 20
719.3826656827744
 30
0.0000000000000000
 40
12.16666666666651
100
AcDbArc
 50
318.8879095607726
 51
401.1120904391069
  0
LINE
  5
1C5
100
AcDbEntity
  8
MAIN0
  6
CONTINUOUS
 62
3
100
AcDbLine
 10
1032.342431005731
 20
701.3826656827280
 30
0.0000000000000000
 11
1032.342431005741
 21
711.3826656827648
 31
0.0000000000000000
  0
LINE
  5
1C6
100
AcDbEntity
  8
MAIN0
  6
CONTINUOUS
 62
3
100
AcDbLine
 10
1032.342431005758
 20
727.3826656827648
 30
0.0000000000000000
 11
1032.342431005767
 21
735.3826656827280
 31
0.0000000000000000
  0
LINE
  5
1C7
100
AcDbEntity
  8
MAIN0
  6
CONTINUOUS
 62
3
100
AcDbLine
 10
1048.240479317697
 20
617.3826656827308
 30
0.0000000000000000
 11
1048.240479317718
 21
597.3826656827309
 31
0.0000000000000000
  0
LINE
  5
1C8
100
AcDbEntity
  8
MAIN0
  6
CONTINUOUS
 62
3
100
AcDbLine
 10
1046.444382693531
 20
617.3826656827305
 30
0.0000000000000000
 11
1046.444382693531
 21
597.3826656827305
 31
0.0000000000000000
  0
LINE
  5
1C9
100
AcDbEntity
  8
MAIN0
  6
CONTINUOUS
 62
3
100
AcDbLine
 10
1037.592431005643
 20
617.3826656827289
 30
0.0000000000000000
 11
1046.444382693531
 21
617.3826656827305
 31
0.0000000000000000
  0
LINE
  5
1CA
100
AcDbEntity
  8
MAIN0
  6
CONTINUOUS
 62
3
100
AcDbLine
 10
1048.240479317697
 20
617.3826656827308
 30
0.0000000000000000
 11
1057.092431005643
 21
617.3826656827324
 31
0.0000000000000000
  0
LINE
  5
1CB
100
AcDbEntity
  8
MAIN0
  6
CONTINUOUS
 62
3
100
AcDbLine
 10
1057.092431005643
 20
617.3826656827324
 30
0.0000000000000000
 11
1048.240479317717
 21
598.3826656827580
 31
0.0000000000000000
  0
LINE
  5
1CC
100
AcDbEntity
  8
MAIN0
  6
CONTINUOUS
 62
3
100
AcDbLine
 10
1048.240479317697
 20
617.3826656827307
 30
0.0000000000000000
 11
1057.092431005623
 21
598.3826656827324
 31
0.0000000000000000
  0
LINE
  5
1CD
100
AcDbEntity
  8
MAIN0
  6
CONTINUOUS
 62
3
100
AcDbLine
 10
1046.444382693531
 20
617.3826656827305
 30
0.0000000000000000
 11
1037.592431005623
 21
598.3826656827289
 31
0.0000000000000000
  0
LINE
  5
1CE
100
AcDbEntity
  8
MAIN0
  6
CONTINUOUS
 62
3
100
AcDbLine
 10
1037.592431005643
 20
617.3826656827289
 30
0.0000000000000000
 11
1046.444382693531
 21
598.3826656827580
 31
0.0000000000000000
  0
ARC
  5
1CF
100
AcDbEntity
  8
MAIN0
  6
CONTINUOUS
 62
3
100
AcDbCircle
 10
1137.144647334495
 20
723.3826656827471
 30
0.0000000000000000
 40
6.000000000000000
100
AcDbArc
 50
138.1896851042212
 51
221.8103148957788
  0
ARC
  5
1D0
100
AcDbEntity
  8
MAIN0
  6
CONTINUOUS
 62
3
100
AcDbCircle
 10
1128.200375424496
 20
723.3826656827471
 30
0.0000000000000000
 40
6.000000000000000
100
AcDbArc
 50
318.1896851042212
 51
401.8103148957788
  0
ARC
  5
1D1
100
AcDbEntity
  8
MAIN0
  6
CONTINUOUS
 62
3
100
AcDbCircle
 10
1143.144647334495
 20
723.3826656827471
 30
0.0000000000000000
 40
6.000000000000000
100
AcDbArc
 50
138.1896851042212
 51
221.8103148957788
  0
ARC
  5
1D2
100
AcDbEntity
  8
MAIN0
  6
CONTINUOUS
 62
3
100
AcDbCircle
 10
1128.200375424496
 20
715.3826656827471
 30
0.0000000000000000
 40
6.000000000000000
100
AcDbArc
 50
318.1896851042212
 51
401.8103148957788
  0
ARC
  5
1D3
100
AcDbEntity
  8
MAIN0
  6
CONTINUOUS
 62
3
100
AcDbCircle
 10
1143.144647334495
 20
715.3826656827471
 30
0.0000000000000000
 40
6.000000000000000
100
AcDbArc
 50
138.1896851042212
 51
221.8103148957788
  0
ARC
  5
1D4
100
AcDbEntity
  8
MAIN0
  6
CONTINUOUS
 62
3
100
AcDbCircle
 10
1134.200375424496
 20
715.3826656827471
 30
0.0000000000000000
 40
6.000000000000000
100
AcDbArc
 50
318.1896851042212
 51
401.8103148957788
  0
LINE
  5
1D5
100
AcDbEntity
  8
MAIN0
  6
CONTINUOUS
 62
3
100
AcDbLine
 10
1062.342431005759
 20
727.3826656827334
 30
0.0000000000000000
 11
1132.672511379496
 21
727.3826656827465
 31
0.0000000000000000
  0
LINE
  5
1D6
100
AcDbEntity
  8
MAIN0
  6
CONTINUOUS
 62
3
100
AcDbLine
 10
1138.672511379496
 20
727.3826656827475
 30
0.0000000000000000
 11
1189.342431005748
 21
727.3826656827570
 31
0.0000000000000000
  0
LINE
  5
1D7
100
AcDbEntity
  8
MAIN0
  6
CONTINUOUS
 62
3
100
AcDbLine
 10
1062.342431005742
 20
711.3826656827334
 30
0.0000000000000000
 11
1132.672511379496
 21
711.3826656827465
 31
0.0000000000000000
  0
LINE
  5
1D8
100
AcDbEntity
  8
MAIN0
  6
CONTINUOUS
 62
3
100
AcDbLine
 10
1138.672511379496
 20
711.3826656827475
 30
0.0000000000000000
 11
1189.342431005751
 21
711.3826656827570
 31
0.0000000000000000
  0
ARC
  5
1D9
100
AcDbEntity
  8
MAIN0
  6
CONTINUOUS
 62
3
100
AcDbCircle
 10
963.9259369569141
 20
723.3826656827150
 30
0.0000000000000000
 40
6.000000000000000
100
AcDbArc
 50
138.1896851042212
 51
221.8103148957788
  0
ARC
  5
1DA
100
AcDbEntity
  8
MAIN0
  6
CONTINUOUS
 62
3
100
AcDbCircle
 10
954.9816650469151
 20
723.3826656827150
 30
0.0000000000000000
 40
6.000000000000000
100
AcDbArc
 50
318.1896851042212
 51
401.8103148957788
  0
ARC
  5
1DB
100
AcDbEntity
  8
MAIN0
  6
CONTINUOUS
 62
3
100
AcDbCircle
 10
969.9259369569141
 20
723.3826656827150
 30
0.0000000000000000
 40
6.000000000000000
100
AcDbArc
 50
138.1896851042212
 51
221.8103148957788
  0
ARC
  5
1DC
100
AcDbEntity
  8
MAIN0
  6
CONTINUOUS
 62
3
100
AcDbCircle
 10
954.9816650469151
 20
715.3826656827150
 30
0.0000000000000000
 40
6.000000000000000
100
AcDbArc
 50
318.1896851042212
 51
401.8103148957788
  0
ARC
  5
1DD
100
AcDbEntity
  8
MAIN0
  6
CONTINUOUS
 62
3
100
AcDbCircle
 10
969.9259369569141
 20
715.3826656827150
 30
0.0000000000000000
 40
6.000000000000000
100
AcDbArc
 50
138.1896851042212
 51
221.8103148957788
  0
ARC
  5
1DE
100
AcDbEntity
  8
MAIN0
  6
CONTINUOUS
 62
3
100
AcDbCircle
 10
960.9816650469151
 20
715.3826656827150
 30
0.0000000000000000
 40
6.000000000000000
100
AcDbArc
 50
318.1896851042212
 51
401.8103148957788
  0
LINE
  5
1DF
100
AcDbEntity
  8
MAIN0
  6
CONTINUOUS
 62
3
100
AcDbLine
 10
905.3424310057488
 20
727.3826656827044
 30
0.0000000000000000
 11
959.4538010019147
 21
727.3826656827145
 31
0.0000000000000000
  0
LINE
  5
1E0
100
AcDbEntity
  8
MAIN0
  6
CONTINUOUS
 62
3
100
AcDbLine
 10
965.4538010019147
 20
727.3826656827156
 30
0.0000000000000000
 11
1032.342431005791
 21
727.3826656827280
 31
0.0000000000000000
  0
LINE
  5
1E1
100
AcDbEntity
  8
MAIN0
  6
CONTINUOUS
 62
3
100
AcDbLine
 10
905.3424310057518
 20
711.3826656827044
 30
0.0000000000000000
 11
959.4538010019147
 21
711.3826656827145
 31
0.0000000000000000
  0
LINE
  5
1E2
100
AcDbEntity
  8
MAIN0
  6
CONTINUOUS
 62
3
100
AcDbLine
 10
965.4538010019147
 20
711.3826656827156
 30
0.0000000000000000
 11
1032.342431005710
 21
711.3826656827280
 31
0.0000000000000000
  0
DIMENSION
  5
1EB
100
AcDbEntity
  8
MAIN0
  6
CONTINUOUS
 62
3
100
AcDbDimension
  2
*D2
 10
1197.342431005734
 20
787.3111054282110
 30
0.0000000000000000
 11
1047.342431005736
 21
787.8111054281811
 31
0.0000000000000000
 70
32
  1
\A1;450
  3
MAIN001
100
AcDbAlignedDimension
 13
897.3424310057517
 23
719.3826656827030
 33
0.0000000000000000
 14
1197.342431005748
 24
719.3826656827583
 34
0.0000000000000000
100
AcDbRotatedDimension
1001
ACAD
1000
DSTYLE
1002
{
1070
   173
1070
     1
1070
     6
1000
_OPEN
1070
     7
1000
_OPEN
1070
    41
1040
6.000000
1002
}
  0
DIMENSION
  5
1F6
100
AcDbEntity
  8
MAIN0
  6
CONTINUOUS
 62
3
100
AcDbDimension
  2
*D3
 10
1032.342431005759
 20
767.3111054281999
 30
0.0000000000000000
 11
1047.342431005763
 21
767.8111054281999
 31
0.0000000000000000
 70
32
  1
\A1;\U+220530
  3
MAIN001
100
AcDbAlignedDimension
 13
1062.342431005767
 23
735.3826656827334
 33
0.0000000000000000
 14
1032.342431005767
 24
735.3826656827280
 34
0.0000000000000000
100
AcDbRotatedDimension
1001
ACAD
1000
DSTYLE
1002
{
1070
   173
1070
     1
1070
     6
1000
_OPEN
1070
     7
1000
_OPEN
1070
    41
1040
6.000000
1070
   287
1070
     0
1002
}
  0
DIMENSION
  5
200
100
AcDbEntity
  8
MAIN0
  6
CONTINUOUS
 62
3
100
AcDbDimension
  2
*D4
 10
1001.667525139460
 20
737.3826656827282
 30
0.0000000000000000
 11
1000.167525139460
 21
745.1656359264603
 31
0.0000000000000000
 70
160
  3
MAIN001
100
AcDbAlignedDimension
 13
884.4480281813444
 23
719.3826656827005
 33
0.0000000000000000
 14
1034.342431005769
 24
737.3826656827282
 34
0.0000000000000000
 50
90.00000000000000
100
AcDbRotatedDimension
1001
ACAD
1000
DSTYLE
1002
{
1070
   173
1070
     1
1070
     6
1000
_OPEN
1070
     7
1000
_OPEN
1070
    41
1040
6.000000
1070
   287
1070
     0
1002
}
  0
DIMENSION
  5
209
100
AcDbEntity
  8
MAIN0
  6
CONTINUOUS
 62
3
100
AcDbDimension
  2
*D5
 10
941.6675251394601
 20
727.3826656827145
 30
0.0000000000000000
 11
940.1675251394601
 21
741.3556704891050
 31
0.0000000000000000
 70
160
  1
\A1;\U+220516
  3
MAIN001
100
AcDbAlignedDimension
 13
905.3424310057516
 23
711.3826656827043
 33
0.0000000000000000
 14
905.3424310057485
 24
727.3826656827043
 34
0.0000000000000000
 50
90.00000000000000
100
AcDbRotatedDimension
1001
ACAD
1000
DSTYLE
1002
{
1070
   173
1070
     1
1070
     6
1000
_OPEN
1070
     7
1000
_OPEN
1070
    41
1040
6.000000
1070
   287
1070
     0
1002
}
  0
LINE
  5
20A
100
AcDbEntity
  8
MAIN0
  6
CONTINUOUS
 62
3
100
AcDbLine
 10
1032.342431005731
 20
701.3826656827279
 30
0.0000000000000000
 11
1062.342431005731
 21
701.3826656827334
 31
0.0000000000000000
  0
LINE
  5
20B
100
AcDbEntity
  8
MAIN0
  6
CONTINUOUS
 62
3
100
AcDbLine
 10
1034.342431005729
 20
699.3826656827282
 30
0.0000000000000000
 11
1060.342431005729
 21
699.3826656827331
 31
0.0000000000000000
  0
LINE
  5
20C
100
AcDbEntity
  8
MAIN0
  6
CONTINUOUS
 62
3
100
AcDbLine
 10
1032.342431005731
 20
701.3826656827278
 30
0.0000000000000000
 11
1034.342431005729
 21
699.3826656827282
 31
0.0000000000000000
  0
LINE
  5
20D
100
AcDbEntity
  8
MAIN0
  6
CONTINUOUS
 62
3
100
AcDbLine
 10
1060.342431005729
 20
699.3826656827331
 30
0.0000000000000000
 11
1062.342431005731
 21
701.3826656827334
 31
0.0000000000000000
  0
LINE
  5
20E
100
AcDbEntity
  8
MAIN0
  6
CONTINUOUS
 62
3
100
AcDbLine
 10
1034.342431005675
 20
647.3826656827282
 30
0.0000000000000000
 11
1034.342431005729
 21
699.3826656827282
 31
0.0000000000000000
  0
LINE
  5
20F
100
AcDbEntity
  8
MAIN0
  6
CONTINUOUS
 62
3
100
AcDbLine
 10
1060.342431005675
 20
647.3826656827330
 30
0.0000000000000000
 11
1060.342431005729
 21
699.3826656827330
 31
0.0000000000000000
  0
ARC
  5
210
100
AcDbEntity
  8
MAIN0
  6
CONTINUOUS
 62
3
100
AcDbCircle
 10
962.5924310056520
 20
625.5437669010419
 30
0.0000000000000000
 40
75.00000000000000
100
AcDbArc
 50
0.0000000000000000
 51
16.92893255513184
  0
ARC
  5
211
100
AcDbEntity
  8
MAIN0
  6
CONTINUOUS
 62
3
100
AcDbCircle
 10
1132.092431005652
 20
625.5437669008647
 30
0.0000000000000000
 40
75.00000000000000
100
AcDbArc
 50
163.0710674447484
 51
180.0000000000000
  0
LINE
  5
212
100
AcDbEntity
  8
MAIN0
  6
CENTER
 62
3
100
AcDbLine
 10
1026.967353496008
 20
547.3111054282047
 30
0.0000000000000000
 11
1074.182414073530
 21
547.3111054282047
 31
0.0000000000000000
  0
DIMENSION
  5
21B
100
AcDbEntity
  8
MAIN0
  6
CONTINUOUS
 62
3
100
AcDbDimension
  2
*D6
 10
1101.667525139460
 20
737.3826656827330
 30
0.0000000000000000
 11
1101.167525139460
 21
667.3826656827326
 31
0.0000000000000000
 70
32
  3
MAIN001
100
AcDbAlignedDimension
 13
1056.092431005623
 23
597.3826656827323
 33
0.0000000000000000
 14
1060.342431005769
 24
737.3826656827330
 34
0.0000000000000000
 50
90.00000000000000
100
AcDbRotatedDimension
1001
ACAD
1000
DSTYLE
1002
{
1070
   173
1070
     1
1070
     6
1000
_OPEN
1070
     7
1000
_OPEN
1070
    41
1040
6.000000
1002
}
  0
DIMENSION
  5
226
100
AcDbEntity
  8
MAIN0
  6
CONTINUOUS
 62
3
100
AcDbDimension
  2
*D7
 10
1081.667525139460
 20
597.3826656827323
 30
0.0000000000000000
 11
1081.167525139460
 21
607.3826656827316
 31
0.0000000000000000
 70
32
  3
MAIN001
100
AcDbAlignedDimension
 13
1057.092431005643
 23
617.3826656827325
 33
0.0000000000000000
 14
1056.092431005623
 24
597.3826656827323
 34
0.0000000000000000
 50
90.00000000000000
100
AcDbRotatedDimension
1001
ACAD
1000
DSTYLE
1002
{
1070
   173
1070
     1
1070
     6
1000
_OPEN
1070
     7
1000
_OPEN
1070
    41
1040
6.000000
1070
   287
1070
     0
1002
}
  0
DIMENSION
  5
22F
100
AcDbEntity
  8
MAIN0
  6
CONTINUOUS
 62
3
100
AcDbDimension
  2
*D8
 10
235.4403814891907
 20
742.0110323614922
 30
0.0000000000000000
 11
295.4403814891907
 21
742.5110323614922
 31
0.0000000000000000
 70
32
  3
MAIN001
100
AcDbAlignedDimension
 13
355.4403814891907
 23
667.5110323614922
 33
0.0000000000000000
 14
235.4403814891907
 24
667.5110323614922
 34
0.0000000000000000
100
AcDbRotatedDimension
1001
ACAD
1000
DSTYLE
1002
{
1070
   173
1070
     1
1070
     6
1000
_OPEN
1070
     7
1000
_OPEN
1070
    41
1040
6.000000
1002
}
  0
DIMENSION
  5
238
100
AcDbEntity
  8
MAIN0
  6
CONTINUOUS
 62
3
100
AcDbDimension
  2
*D9
 10
235.4403814891907
 20
717.0110323614923
 30
0.0000000000000000
 11
257.1903814891907
 21
717.5110323614923
 31
0.0000000000000000
 70
32
  3
MAIN001
100
AcDbAlignedDimension
 13
278.9403814891907
 23
682.0110323614922
 33
0.0000000000000000
 14
235.4403814891907
 24
667.5110323614922
 34
0.0000000000000000
 50
179.9999999999999
100
AcDbRotatedDimension
1001
ACAD
1000
DSTYLE
1002
{
1070
   173
1070
     1
1070
     6
1000
_OPEN
1070
     7
1000
_OPEN
1070
    41
1040
6.000000
1002
}
  0
DIMENSION
  5
241
100
AcDbEntity
  8
MAIN0
  6
CONTINUOUS
 62
3
100
AcDbDimension
  2
*D10
 10
278.9403814891907
 20
717.0110323614922
 30
0.0000000000000000
 11
317.1903814891907
 21
717.5110323614922
 31
0.0000000000000000
 70
32
  3
MAIN001
100
AcDbAlignedDimension
 13
355.4403814891907
 23
667.5110323614922
 33
0.0000000000000000
 14
278.9403814891907
 24
682.0110323614922
 34
0.0000000000000000
100
AcDbRotatedDimension
1001
ACAD
1000
DSTYLE
1002
{
1070
   173
1070
     1
1070
     6
1000
_OPEN
1070
     7
1000
_OPEN
1070
    41
1040
6.000000
1002
}
  0
DIMENSION
  5
24A
100
AcDbEntity
  8
MAIN0
  6
CONTINUOUS
 62
3
100
AcDbDimension
  2
*D11
 10
300.9403814891908
 20
692.0110323614923
 30
0.0000000000000000
 11
268.0896286705879
 21
693.5110323614923
 31
0.0000000000000000
 70
160
  1
\A1;\U+220544
  3
MAIN001
100
AcDbAlignedDimension
 13
256.9403814891907
 23
669.5110323614922
 33
0.0000000000000000
 14
300.9403814891907
 24
669.5110323614922
 34
0.0000000000000000
100
AcDbRotatedDimension
1001
ACAD
1000
DSTYLE
1002
{
1070
   173
1070
     1
1070
     6
1000
_OPEN
1070
     7
1000
_OPEN
1070
    41
1040
6.000000
1002
}
  0
DIMENSION
  5
253
100
AcDbEntity
  8
MAIN0
  6
CONTINUOUS
 62
3
100
AcDbDimension
  2
*D12
 10
145.4403814891907
 20
669.5110323614922
 30
0.0000000000000000
 11
144.9403814891907
 21
467.0110323614923
 31
0.0000000000000000
 70
32
  1
\A1;\U+2205405
  3
MAIN001
100
AcDbAlignedDimension
 13
237.4403814891907
 23
264.5110323614923
 33
0.0000000000000000
 14
237.4403814891908
 24
669.5110323614923
 34
0.0000000000000000
 50
90.00000000000000
100
AcDbRotatedDimension
1001
ACAD
1000
DSTYLE
1002
{
1070
   173
1070
     1
1070
     6
1000
_OPEN
1070
     7
1000
_OPEN
1070
    41
1040
6.000000
1002
}
  0
DIMENSION
  5
25C
100
AcDbEntity
  8
MAIN0
  6
CONTINUOUS
 62
3
100
AcDbDimension
  2
*D13
 10
205.4403814891907
 20
522.0110323614923
 30
0.0000000000000000
 11
204.9403814891907
 21
467.0110323614923
 31
0.0000000000000000
 70
32
  1
\A1;\U+2205110
  3
MAIN001
100
AcDbAlignedDimension
 13
243.4403814891907
 23
412.0110323614923
 33
0.0000000000000000
 14
243.4403814891907
 24
522.0110323614923
 34
0.0000000000000000
 50
90.00000000000000
100
AcDbRotatedDimension
1001
ACAD
1000
DSTYLE
1002
{
1070
   173
1070
     1
1070
     6
1000
_OPEN
1070
     7
1000
_OPEN
1070
    41
1040
6.000000
1002
}
  0
DIMENSION
  5
265
100
AcDbEntity
  8
MAIN0
  6
CONTINUOUS
 62
3
100
AcDbDimension
  2
*D14
 10
243.4403814891907
 20
337.0110323614923
 30
0.0000000000000000
 11
225.4403814891907
 21
338.5110323614923
 31
0.0000000000000000
 70
160
  3
MAIN001
100
AcDbAlignedDimension
 13
235.4403814891907
 23
266.5110323614923
 33
0.0000000000000000
 14
243.4403814891907
 24
294.5110323614923
 34
0.0000000000000000
100
AcDbRotatedDimension
1001
ACAD
1000
DSTYLE
1002
{
1070
   173
1070
     1
1070
     6
1000
_OPEN
1070
     7
1000
_OPEN
1070
    41
1040
6.000000
1070
   287
1070
     0
1002
}
  0
DIMENSION
  5
26E
100
AcDbEntity
  8
MAIN0
  6
CONTINUOUS
 62
3
100
AcDbDimension
  2
*D15
 10
485.4403814891907
 20
424.2610323614922
 30
0.0000000000000000
 11
484.9403814891907
 21
351.2610323614922
 31
0.0000000000000000
 70
32
  3
MAIN001
100
AcDbAlignedDimension
 13
371.4403814891906
 23
278.2610323614922
 33
0.0000000000000000
 14
411.9403814891907
 24
424.2610323614923
 34
0.0000000000000000
 50
90.00000000000000
100
AcDbRotatedDimension
1001
ACAD
1000
DSTYLE
1002
{
1070
   173
1070
     1
1070
     6
1000
_OPEN
1070
     7
1000
_OPEN
1070
    41
1040
6.000000
1002
}
  0
DIMENSION
  5
277
100
AcDbEntity
  8
MAIN0
  6
CONTINUOUS
 62
3
100
AcDbDimension
  2
*D16
 10
455.4403814891907
 20
487.0110323614923
 30
0.0000000000000000
 11
454.9403814891907
 21
467.0110323614923
 31
0.0000000000000000
 70
32
  3
MAIN001
100
AcDbAlignedDimension
 13
412.4403814891907
 23
447.0110323614923
 33
0.0000000000000000
 14
412.4403814891907
 24
487.0110323614923
 34
0.0000000000000000
 50
90.00000000000000
100
AcDbRotatedDimension
1001
ACAD
1000
DSTYLE
1002
{
1070
   173
1070
     1
1070
     6
1000
_OPEN
1070
     7
1000
_OPEN
1070
    41
1040
6.000000
1002
}
  0
DIMENSION
  5
27F
100
AcDbEntity
  8
MAIN0
  6
CONTINUOUS
 62
3
100
AcDbDimension
  2
*D17
 10
355.4403814891907
 20
497.0110323614923
 30
0.0000000000000000
 11
393.1553222735057
 21
498.5110323614923
 31
0.0000000000000000
 70
160
  3
MAIN001
100
AcDbAlignedDimension
 13
413.4403814891907
 23
486.0110323614923
 33
0.0000000000000000
 14
355.4403814891907
 24
667.5110323614922
 34
0.0000000000000000
100
AcDbRotatedDimension
1001
ACAD
1000
DSTYLE
1002
{
1070
   173
1070
     1
1070
     6
1000
_OPEN
1070
     7
1000
_OPEN
1070
    41
1040
6.000000
1002
}
  0
INSERT
  5
287
100
AcDbEntity
  8
MAIN0
  6
CONTINUOUS
 62
3
100
AcDbBlockReference
  2
D18
 10
425.5889925475614
 20
467.0110323614923
 30
0.0000000000000000
 50
0.0000000000000000
  0
INSERT
  5
28F
100
AcDbEntity
  8
MAIN0
  6
CONTINUOUS
 62
3
100
AcDbBlockReference
  2
D19
 10
425.5889925475614
 20
467.0110323614923
 30
0.0000000000000000
 50
0.0000000000000000
  0
DIMENSION
  5
29A
100
AcDbEntity
  8
MAIN0
  6
CONTINUOUS
 62
3
100
AcDbDimension
  2
*D20
 10
235.3563859068416
 20
776.0359219218244
 30
0.0000000000000000
 11
204.6016925990138
 21
808.9119355732121
 31
0.0000000000000000
 70
161
  3
MAIN001
100
AcDbAlignedDimension
 13
279.8384298014119
 23
799.3047623807979
 33
0.0000000000000000
 14
269.2318280836165
 24
809.9113640985991
 34
0.0000000000000000
 50
135.0000000000002
1001
ACAD
1000
DSTYLE
1002
{
1070
   173
1070
     1
1070
     6
1000
_OPEN
1070
     7
1000
_OPEN
1070
    41
1040
6.000000
1070
   287
1070
     0
1070
   272
1070
     2
1070
    47
1040
0.150000
1070
    48
1040
-0.050000
1070
    71
1070
     1
1002
}
  0
LINE
  5
29B
100
AcDbEntity
  8
MAIN0
  6
CENTER
 62
3
100
AcDbLine
 10
870.3964465762617
 20
615.5343891105717
 30
0.0000000000000000
 11
886.3964465762506
 21
643.2472020316801
 31
0.0000000000000000
  0
MTEXT
  5
29C
100
AcDbEntity
  8
MAIN0
  6
CONTINUOUS
 62
3
100
AcDbMText
 10
610.4200352445532
 20
540.7899555654863
 30
0.0000000000000000
 40
9.299999713897705
 41
0.0000000000000000
 71
     1
 72
     1
  1
{\H0.81x;{3}}
 11
-0.4999999999999981
 21
-0.8660254037844397
 31
0.0000000000000000
  7
STANDARD
  0
LINE
  5
29D
100
AcDbEntity
  8
MAIN0
  6
CENTER
 62
3
100
AcDbLine
 10
870.3964465762617
 20
318.4876756124130
 30
0.0000000000000000
 11
886.3964465762505
 21
290.7748626913045
 31
0.0000000000000000
  0
LINE
  5
29E
100
AcDbEntity
  8
MAIN0
  6
CENTER
 62
3
100
AcDbLine
 10
425.5889925475614
 20
467.0110323614923
 30
0.0000000000000000
 11
220.4403814891907
 21
467.0110323614923
 31
0.0000000000000000
  0
LINE
  5
29F
100
AcDbEntity
  8
MAIN0
  6
CENTER
 62
3
100
AcDbLine
 10
542.1464465764666
 20
467.0110323614923
 30
0.0000000000000000
 11
1027.146446576467
 21
467.0110323614923
 31
0.0000000000000000
  0
DIMENSION
  5
2A7
100
AcDbEntity
  8
MAIN0
  6
CONTINUOUS
 62
3
100
AcDbDimension
  2
*D21
 10
886.3964465762505
 20
290.7748626913045
 30
0.0000000000000000
 11
844.6924650403234
 21
242.9162406621832
 31
0.0000000000000000
 70
162
  3
MAIN001
100
AcDb2LineAngularDimension
 13
784.6464465767097
 23
234.5110323612278
 33
0.0000000000000000
 14
784.6464465764666
 24
467.0110323612278
 34
0.0000000000000000
 15
885.8964465762508
 25
291.6408880950891
 35
0.0000000000000000
 16
844.8218745628748
 26
242.4332777490387
 36
0.0000000000000000
1001
ACAD
1000
DSTYLE
1002
{
1070
   173
1070
     1
1070
     6
1000
_OPEN
1070
     7
1000
_OPEN
1070
    41
1040
6.000000
1002
}
  0
DIMENSION
  5
2B0
100
AcDbEntity
  8
MAIN0
  6
CONTINUOUS
 62
3
100
AcDbDimension
  2
*D22
 10
977.3370989185128
 20
355.7610323615073
 30
0.0000000000000000
 11
948.6952198118039
 21
302.9622591260069
 31
0.0000000000000000
 70
162
  3
MAIN001
100
AcDb2LineAngularDimension
 13
886.3964465762505
 23
290.7748626913045
 33
0.0000000000000000
 14
885.8964465762508
 24
291.6408880950891
 34
0.0000000000000000
 15
976.4710735147278
 25
356.2610323615063
 35
0.0000000000000000
 16
949.0487732023972
 26
302.6087057354138
 36
0.0000000000000000
1001
ACAD
1000
DSTYLE
1002
{
1070
   173
1070
     1
1070
     6
1000
_OPEN
1070
     7
1000
_OPEN
1070
    41
1040
6.000000
1002
}
  0
DIMENSION
  5
2B8
100
AcDbEntity
  8
MAIN0
  6
CONTINUOUS
 62
3
100
AcDbDimension
  2
*D23
 10
1017.146446576467
 20
467.0110323612277
 30
0.0000000000000000
 11
1008.741238275564
 21
406.9650138975677
 31
0.0000000000000000
 70
162
  3
MAIN001
100
AcDb2LineAngularDimension
 13
977.3370989185128
 23
355.7610323615073
 33
0.0000000000000000
 14
976.4710735147278
 24
356.2610323615063
 34
0.0000000000000000
 15
784.6464465764666
 25
467.0110323612278
 35
0.0000000000000000
 16
1009.224201188708
 26
406.8356043750168
 36
0.0000000000000000
1001
ACAD
1000
DSTYLE
1002
{
1070
   173
1070
     1
1070
     6
1000
_OPEN
1070
     7
1000
_OPEN
1070
    41
1040
6.000000
1002
}
  0
LINE
  5
2B9
100
AcDbEntity
  8
MAIN0
  6
CONTINUOUS
 62
3
100
AcDbLine
 10
303.9403814891908
 20
823.5133157863752
 30
0.0000000000000000
 11
303.9403814891908
 21
832.5133157863750
 31
0.0000000000000000
  0
ARC
  5
2BA
100
AcDbEntity
  8
MAIN0
  6
CONTINUOUS
 62
3
100
AcDbCircle
 10
297.9403814891907
 20
828.0133157863751
 30
0.0000000000000000
 40
7.500000000000057
100
AcDbArc
 50
323.1301023541564
 51
396.8698976458436
  0
LINE
  5
2BB
100
AcDbEntity
  8
MAIN0
  6
CENTER
 62
3
100
AcDbLine
 10
775.1464465764666
 20
553.0110323614922
 30
0.0000000000000000
 11
794.1464465764666
 21
553.0110323614922
 31
0.0000000000000000
  0
LINE
  5
2BC
100
AcDbEntity
  8
MAIN0
  6
HIDDEN
 62
3
100
AcDbLine
 10
353.4403814891907
 20
548.5110323614922
 30
0.0000000000000000
 11
353.4403814891907
 21
549.0110323614922
 31
0.0000000000000000
  0
LINE
  5
2BD
100
AcDbEntity
  8
MAIN0
  6
HIDDEN
 62
3
100
AcDbLine
 10
353.4403814891907
 20
557.0110323614922
 30
0.0000000000000000
 11
353.4403814891907
 21
557.5110323614922
 31
0.0000000000000000
  0
LINE
  5
2BE
100
AcDbEntity
  8
MAIN0
  6
HIDDEN
 62
3
100
AcDbLine
 10
354.4403814891907
 20
548.5110323614922
 30
0.0000000000000000
 11
354.4403814891907
 21
557.5110323614922
 31
0.0000000000000000
  0
LINE
  5
2BF
100
AcDbEntity
  8
MAIN0
  6
HIDDEN
 62
3
100
AcDbLine
 10
256.9403814891907
 20
637.4110323609837
 30
0.0000000000000000
 11
256.9403814891907
 21
669.5110323614922
 31
0.0000000000000000
  0
LINE
  5
2C0
100
AcDbEntity
  8
MAIN0
  6
HIDDEN
 62
3
100
AcDbLine
 10
300.9403814891907
 20
637.4110323609835
 30
0.0000000000000000
 11
300.9403814891907
 21
669.5110323614922
 31
0.0000000000000000
  0
LINE
  5
2C1
100
AcDbEntity
  8
MAIN0
  6
HIDDEN
 62
3
100
AcDbLine
 10
284.9403814892406
 20
553.0110323614923
 30
0.0000000000000000
 11
317.9403814891907
 21
553.0110323614922
 31
0.0000000000000000
  0
LINE
  5
2C2
100
AcDbEntity
  8
MAIN0
  6
CONTINUOUS
 62
3
100
AcDbLine
 10
804.6464465760632
 20
278.2610323615691
 30
0.0000000000000000
 11
784.6464465760632
 21
278.2610323615974
 31
0.0000000000000000
  0
LINE
  5
2C3
100
AcDbEntity
  8
MAIN0
  6
CONTINUOUS
 62
3
100
AcDbLine
 10
804.6464465760320
 20
265.5011070476818
 30
0.0000000000000000
 11
804.6464465764016
 21
415.8371544902835
 31
0.0000000000000000
  0
ARC
  5
2C4
100
AcDbEntity
  8
MAIN0
  6
CONTINUOUS
 62
3
100
AcDbCircle
 10
784.6464465765523
 20
477.2610323615973
 30
0.0000000000000000
 40
53.00000000000000
100
AcDbArc
 50
269.9999999999190
 51
275.4133122738303
  0
LINE
  5
2C5
100
AcDbEntity
  8
MAIN0
  6
CONTINUOUS
 62
3
100
AcDbLine
 10
804.6464465764018
 20
415.8371544902834
 30
0.0000000000000000
 11
789.6464465764227
 21
424.4974085281402
 31
0.0000000000000000
  0
LINE
  5
2C6
100
AcDbEntity
  8
MAIN0
  6
CONTINUOUS
 62
3
100
AcDbLine
 10
796.1464465760303
 20
264.8378392819721
 30
0.0000000000000000
 11
796.1464465760632
 21
278.2610323615811
 31
0.0000000000000000
  0
ARC
  5
2C7
100
AcDbEntity
  8
MAIN0
  6
CONTINUOUS
 62
3
100
AcDbCircle
 10
784.6464465765525
 20
477.2610323615973
 30
0.0000000000000000
 40
96.99999999999999
100
AcDbArc
 50
269.9999999999190
 51
281.8989098179240
  0
ARC
  5
2C8
100
AcDbEntity
  8
MAIN0
  6
CONTINUOUS
 62
3
100
AcDbCircle
 10
784.6464465765525
 20
477.2610323615973
 30
0.0000000000000000
 40
99.99999999999999
100
AcDbArc
 50
269.9999999999190
 51
281.5369590326745
  0
ARC
  5
2C9
100
AcDbEntity
  8
MAIN0
  6
CONTINUOUS
 62
3
100
AcDbCircle
 10
784.6464465765525
 20
477.2610323615973
 30
0.0000000000000000
 40
132.0000000000000
100
AcDbArc
 50
269.9999999999190
 51
278.7147420184772
  0
ARC
  5
2CA
100
AcDbEntity
  8
MAIN0
  6
CONTINUOUS
 62
3
100
AcDbCircle
 10
784.6464465765525
 20
477.2610323615973
 30
0.0000000000000000
 40
147.0000000000000
100
AcDbArc
 50
269.9999999999190
 51
277.8195964008274
  0
ARC
  5
2CB
100
AcDbEntity
  8
MAIN0
  6
CONTINUOUS
 62
3
100
AcDbCircle
 10
784.6464465765525
 20
477.2610323615973
 30
0.0000000000000000
 40
150.0000000000000
100
AcDbArc
 50
269.9999999999190
 51
277.6622556606251
  0
ARC
  5
2CC
100
AcDbEntity
  8
MAIN0
  6
CONTINUOUS
 62
3
100
AcDbCircle
 10
784.6464465765525
 20
477.2610323615973
 30
0.0000000000000000
 40
184.0000000000000
100
AcDbArc
 50
269.9999999999190
 51
276.2401310981169
  0
LINE
  5
2CD
100
AcDbEntity
  8
MAIN0
  6
CONTINUOUS
 62
3
100
AcDbLine
 10
764.6464465776134
 20
278.2610323615495
 30
0.0000000000000000
 11
784.6464465776134
 21
278.2610323615974
 31
0.0000000000000000
  0
LINE
  5
2CE
100
AcDbEntity
  8
MAIN0
  6
CONTINUOUS
 62
3
100
AcDbLine
 10
764.6464465776573
 20
265.5011070476622
 30
0.0000000000000000
 11
764.6464465771405
 21
415.8371544902639
 31
0.0000000000000000
  0
ARC
  5
2CF
100
AcDbEntity
  8
MAIN0
  6
CONTINUOUS
 62
3
100
AcDbCircle
 10
784.6464465769295
 20
477.2610323615974
 30
0.0000000000000000
 40
53.00000000000000
100
AcDbArc
 50
264.5866877262257
 51
270.0000000001371
  0
LINE
  5
2D0
100
AcDbEntity
  8
MAIN0
  6
CONTINUOUS
 62
3
100
AcDbLine
 10
764.6464465771404
 20
415.8371544902639
 30
0.0000000000000000
 11
779.6464465771109
 21
424.4974085281353
 31
0.0000000000000000
  0
LINE
  5
2D1
100
AcDbEntity
  8
MAIN0
  6
CONTINUOUS
 62
3
100
AcDbLine
 10
773.1464465776598
 20
264.8378392819607
 30
0.0000000000000000
 11
773.1464465776137
 21
278.2610323615697
 31
0.0000000000000000
  0
ARC
  5
2D2
100
AcDbEntity
  8
MAIN0
  6
CONTINUOUS
 62
3
100
AcDbCircle
 10
784.6464465769293
 20
477.2610323615973
 30
0.0000000000000000
 40
96.99999999999999
100
AcDbArc
 50
258.1010901821321
 51
270.0000000001371
  0
ARC
  5
2D3
100
AcDbEntity
  8
MAIN0
  6
CONTINUOUS
 62
3
100
AcDbCircle
 10
784.6464465769293
 20
477.2610323615973
 30
0.0000000000000000
 40
99.99999999999999
100
AcDbArc
 50
258.4630409673816
 51
270.0000000001371
  0
ARC
  5
2D4
100
AcDbEntity
  8
MAIN0
  6
CONTINUOUS
 62
3
100
AcDbCircle
 10
784.6464465769293
 20
477.2610323615973
 30
0.0000000000000000
 40
132.0000000000000
100
AcDbArc
 50
261.2852579815789
 51
270.0000000001371
  0
ARC
  5
2D5
100
AcDbEntity
  8
MAIN0
  6
CONTINUOUS
 62
3
100
AcDbCircle
 10
784.6464465769293
 20
477.2610323615973
 30
0.0000000000000000
 40
147.0000000000000
100
AcDbArc
 50
262.1804035992287
 51
270.0000000001371
  0
ARC
  5
2D6
100
AcDbEntity
  8
MAIN0
  6
CONTINUOUS
 62
3
100
AcDbCircle
 10
784.6464465769293
 20
477.2610323615973
 30
0.0000000000000000
 40
150.0000000000000
100
AcDbArc
 50
262.3377443394309
 51
270.0000000001371
  0
ARC
  5
2D7
100
AcDbEntity
  8
MAIN0
  6
CONTINUOUS
 62
3
100
AcDbCircle
 10
784.6464465769293
 20
477.2610323615973
 30
0.0000000000000000
 40
184.0000000000000
100
AcDbArc
 50
263.7598689019392
 51
270.0000000001371
  0
MTEXT
  5
2D8
100
AcDbEntity
  8
MAIN0
  6
CONTINUOUS
 62
3
100
AcDbMText
 10
807.8652304839033
 20
279.2370725358613
 30
0.0000000000000000
 40
9.299999713897705
 41
0.0000000000000000
 71
     1
 72
     1
  1
{\H0.81x;{1}}
 11
1.000000000000000
 21
1.776356839400251e-015
 31
0.0000000000000000
  7
STANDARD
  0
LINE
  5
2D9
100
AcDbEntity
  8
MAIN0
  6
CONTINUOUS
 62
3
100
AcDbLine
 10
938.1087415409146
 20
578.7065404367934
 30
0.0000000000000000
 11
948.1087415408902
 21
561.3860323610904
 31
0.0000000000000000
  0
LINE
  5
2DA
100
AcDbEntity
  8
MAIN0
  6
CONTINUOUS
 62
3
100
AcDbLine
 10
949.1591610131486
 20
585.0865030937098
 30
0.0000000000000000
 11
818.9643248231282
 21
509.9184793727291
 31
0.0000000000000000
  0
ARC
  5
2DB
100
AcDbEntity
  8
MAIN0
  6
CONTINUOUS
 62
3
100
AcDbCircle
 10
775.7696861875422
 20
461.8860323615140
 30
0.0000000000000000
 40
53.00000000000000
100
AcDbArc
 50
29.99999999991900
 51
35.41331227383039
  0
LINE
  5
2DC
100
AcDbEntity
  8
MAIN0
  6
CONTINUOUS
 62
3
100
AcDbLine
 10
818.9643248231284
 20
509.9184793727292
 30
0.0000000000000000
 11
818.9643248231072
 21
492.5979712970525
 31
0.0000000000000000
  0
LINE
  5
2DD
100
AcDbEntity
  8
MAIN0
  6
CONTINUOUS
 62
3
100
AcDbLine
 10
953.9835677477655
 20
578.0569210443955
 30
0.0000000000000000
 11
942.3587415409041
 21
571.3453245046195
 31
0.0000000000000000
  0
ARC
  5
2DE
100
AcDbEntity
  8
MAIN0
  6
CONTINUOUS
 62
3
100
AcDbCircle
 10
775.7696861875422
 20
461.8860323615141
 30
0.0000000000000000
 40
96.99999999999999
100
AcDbArc
 50
29.99999999991900
 51
41.89890981792399
  0
ARC
  5
2DF
100
AcDbEntity
  8
MAIN0
  6
CONTINUOUS
 62
3
100
AcDbCircle
 10
775.7696861875422
 20
461.8860323615141
 30
0.0000000000000000
 40
99.99999999999999
100
AcDbArc
 50
29.99999999991900
 51
41.53695903267455
  0
ARC
  5
2E0
100
AcDbEntity
  8
MAIN0
  6
CONTINUOUS
 62
3
100
AcDbCircle
 10
775.7696861875422
 20
461.8860323615141
 30
0.0000000000000000
 40
132.0000000000000
100
AcDbArc
 50
29.99999999991900
 51
38.71474201847725
  0
ARC
  5
2E1
100
AcDbEntity
  8
MAIN0
  6
CONTINUOUS
 62
3
100
AcDbCircle
 10
775.7696861875422
 20
461.8860323615141
 30
0.0000000000000000
 40
147.0000000000000
100
AcDbArc
 50
29.99999999991900
 51
37.81959640082742
  0
ARC
  5
2E2
100
AcDbEntity
  8
MAIN0
  6
CONTINUOUS
 62
3
100
AcDbCircle
 10
775.7696861875422
 20
461.8860323615141
 30
0.0000000000000000
 40
150.0000000000000
100
AcDbArc
 50
29.99999999991900
 51
37.66225566062516
  0
ARC
  5
2E3
100
AcDbEntity
  8
MAIN0
  6
CONTINUOUS
 62
3
100
AcDbCircle
 10
775.7696861875422
 20
461.8860323615141
 30
0.0000000000000000
 40
184.0000000000000
100
AcDbArc
 50
29.99999999991900
 51
36.24013109811688
  0
LINE
  5
2E4
100
AcDbEntity
  8
MAIN0
  6
CONTINUOUS
 62
3
100
AcDbLine
 10
958.1087415401566
 20
544.0655242867680
 30
0.0000000000000000
 11
948.1087415401152
 21
561.3860323624328
 31
0.0000000000000000
  0
LINE
  5
2E5
100
AcDbEntity
  8
MAIN0
  6
CONTINUOUS
 62
3
100
AcDbLine
 10
969.1591610123531
 20
550.4454869437495
 30
0.0000000000000000
 11
838.9643248227759
 21
475.2774632220012
 31
0.0000000000000000
  0
ARC
  5
2E6
100
AcDbEntity
  8
MAIN0
  6
CONTINUOUS
 62
3
100
AcDbCircle
 10
775.7696861873536
 20
461.8860323618406
 30
0.0000000000000000
 40
53.00000000000000
100
AcDbArc
 50
24.58668772622567
 51
30.00000000013706
  0
LINE
  5
2E7
100
AcDbEntity
  8
MAIN0
  6
CONTINUOUS
 62
3
100
AcDbLine
 10
838.9643248227762
 20
475.2774632220011
 30
0.0000000000000000
 11
823.9643248227674
 21
483.9377172598064
 31
0.0000000000000000
  0
LINE
  5
2E8
100
AcDbEntity
  8
MAIN0
  6
CONTINUOUS
 62
3
100
AcDbLine
 10
965.4835677469608
 20
558.1383367587700
 30
0.0000000000000000
 11
953.8587415401390
 21
551.4267402189257
 31
0.0000000000000000
  0
ARC
  5
2E9
100
AcDbEntity
  8
MAIN0
  6
CONTINUOUS
 62
3
100
AcDbCircle
 10
775.7696861873537
 20
461.8860323618405
 30
0.0000000000000000
 40
96.99999999999999
100
AcDbArc
 50
18.10109018213208
 51
30.00000000013706
  0
ARC
  5
2EA
100
AcDbEntity
  8
MAIN0
  6
CONTINUOUS
 62
3
100
AcDbCircle
 10
775.7696861873537
 20
461.8860323618405
 30
0.0000000000000000
 40
99.99999999999999
100
AcDbArc
 50
18.46304096738151
 51
30.00000000013706
  0
ARC
  5
2EB
100
AcDbEntity
  8
MAIN0
  6
CONTINUOUS
 62
3
100
AcDbCircle
 10
775.7696861873537
 20
461.8860323618405
 30
0.0000000000000000
 40
132.0000000000000
100
AcDbArc
 50
21.28525798157881
 51
30.00000000013706
  0
ARC
  5
2EC
100
AcDbEntity
  8
MAIN0
  6
CONTINUOUS
 62
3
100
AcDbCircle
 10
775.7696861873537
 20
461.8860323618405
 30
0.0000000000000000
 40
147.0000000000000
100
AcDbArc
 50
22.18040359922865
 51
30.00000000013706
  0
ARC
  5
2ED
100
AcDbEntity
  8
MAIN0
  6
CONTINUOUS
 62
3
100
AcDbCircle
 10
775.7696861873537
 20
461.8860323618405
 30
0.0000000000000000
 40
150.0000000000000
100
AcDbArc
 50
22.33774433943090
 51
30.00000000013706
  0
ARC
  5
2EE
100
AcDbEntity
  8
MAIN0
  6
CONTINUOUS
 62
3
100
AcDbCircle
 10
775.7696861873537
 20
461.8860323618405
 30
0.0000000000000000
 40
184.0000000000000
100
AcDbArc
 50
23.75986890193919
 51
30.00000000013706
  0
MTEXT
  5
2EF
100
AcDbEntity
  8
MAIN0
  6
CONTINUOUS
 62
3
100
AcDbMText
 10
935.6540740009433
 20
581.0060689831291
 30
0.0000000000000000
 40
9.299999713897705
 41
0.0000000000000000
 71
     1
 72
     1
  1
{\H0.81x;{2}}
 11
-0.5000000000000010
 21
0.8660254037844380
 31
0.0000000000000000
  7
STANDARD
  0
ARC
  5
2F0
100
AcDbEntity
  8
MAIN0
  6
CONTINUOUS
 62
3
100
AcDbCircle
 10
784.6464465764666
 20
467.0110323614923
 30
0.0000000000000000
 40
55.00000000000000
100
AcDbArc
 50
291.3940008251616
 51
368.6059991752671
  0
ARC
  5
2F1
100
AcDbEntity
  8
MAIN0
  6
CONTINUOUS
 62
3
100
AcDbCircle
 10
784.6464465764666
 20
467.0110323614923
 30
0.0000000000000000
 40
55.00000000000000
100
AcDbArc
 50
51.39400082516134
 51
128.6763137372557
  0
LINE
  5
2F2
100
AcDbEntity
  8
MAIN0
  6
HIDDEN
 62
3
100
AcDbLine
 10
762.6464465765280
 20
637.0941003018452
 30
0.0000000000000000
 11
762.6464465764809
 21
668.3124233154564
 31
0.0000000000000000
  0
ARC
  5
2F3
100
AcDbEntity
  8
MAIN0
  6
HIDDEN
 62
3
100
AcDbCircle
 10
784.6464465764666
 20
467.0110323614923
 30
0.0000000000000000
 40
171.5000000000000
100
AcDbArc
 50
79.99855026139746
 51
100.9078187544061
  0
LINE
  5
2F4
100
AcDbEntity
  8
MAIN0
  6
HIDDEN
 62
3
100
AcDbLine
 10
806.6464465765280
 20
637.0941003018293
 30
0.0000000000000000
 11
806.6464465764810
 21
668.3124233154531
 31
0.0000000000000000
  0
LINE
  5
2F5
100
AcDbEntity
  8
MAIN0
  6
HIDDEN
 62
3
100
AcDbLine
 10
648.3501889864956
 20
362.9169395081113
 30
0.0000000000000000
 11
621.3143281931834
 21
347.3077780012652
 31
0.0000000000000000
  0
ARC
  5
2F6
100
AcDbEntity
  8
MAIN0
  6
HIDDEN
 62
3
100
AcDbCircle
 10
784.6464465764666
 20
467.0110323614923
 30
0.0000000000000000
 40
171.5000000000000
100
AcDbArc
 50
199.9985502613974
 51
220.9078187544060
  0
LINE
  5
2F7
100
AcDbEntity
  8
MAIN0
  6
HIDDEN
 62
3
100
AcDbLine
 10
626.3501889865094
 20
401.0220572746347
 30
0.0000000000000000
 11
599.3143281931863
 21
385.4128957677821
 31
0.0000000000000000
  0
CIRCLE
  5
2F8
100
AcDbEntity
  8
MAIN0
  6
HIDDEN
 62
3
100
AcDbCircle
 10
765.6464465765033
 20
653.5458816524529
 30
0.0000000000000000
 40
6.000000000000000
  0
CIRCLE
  5
2F9
100
AcDbEntity
  8
MAIN0
  6
HIDDEN
 62
3
100
AcDbCircle
 10
765.6464465765033
 20
653.5458816524529
 30
0.0000000000000000
 40
5.100000000000001
  0
LINE
  5
2FA
100
AcDbEntity
  8
MAIN0
  6
HIDDEN
 62
3
100
AcDbLine
 10
770.2182224922450
 20
651.2856018077780
 30
0.0000000000000000
 11
760.5570325707246
 21
653.8743098451882
 31
0.0000000000000000
  0
LINE
  5
2FB
100
AcDbEntity
  8
MAIN0
  6
HIDDEN
 62
3
100
AcDbLine
 10
770.7358605823254
 20
653.2174534603893
 30
0.0000000000000000
 11
761.0746706610599
 21
655.8061614977311
 31
0.0000000000000000
  0
ARC
  5
2FC
100
AcDbEntity
  8
MAIN0
  6
CENTER
 62
3
100
AcDbCircle
 10
784.6464465764666
 20
467.0110323614923
 30
0.0000000000000000
 40
187.5000000000000
100
AcDbArc
 50
92.45412027700120
 51
99.17778953235369
  0
CIRCLE
  5
2FD
100
AcDbEntity
  8
MAIN0
  6
HIDDEN
 62
3
100
AcDbCircle
 10
632.6025283993746
 20
357.2891250441394
 30
0.0000000000000000
 40
6.000000000000000
  0
CIRCLE
  5
2FE
100
AcDbEntity
  8
MAIN0
  6
HIDDEN
 62
3
100
AcDbCircle
 10
632.6025283993746
 20
357.2891250441394
 30
0.0000000000000000
 40
5.100000000000001
  0
LINE
  5
2FF
100
AcDbEntity
  8
MAIN0
  6
HIDDEN
 62
3
100
AcDbLine
 10
632.2741002066541
 20
362.3785390499191
 30
0.0000000000000000
 11
634.8628082440362
 21
352.7173491283911
 31
0.0000000000000000
  0
LINE
  5
300
100
AcDbEntity
  8
MAIN0
  6
HIDDEN
 62
3
100
AcDbLine
 10
630.3422485541098
 20
361.8609009595895
 30
0.0000000000000000
 11
632.9309565914236
 21
352.1997110383164
 31
0.0000000000000000
  0
ARC
  5
301
100
AcDbEntity
  8
MAIN0
  6
CENTER
 62
3
100
AcDbCircle
 10
784.6464465764666
 20
467.0110323614923
 30
0.0000000000000000
 40
187.5000000000000
100
AcDbArc
 50
212.4541202770012
 51
219.1777895323537
  0
LINE
  5
302
100
AcDbEntity
  8
MAIN0
  6
CENTER
 62
3
100
AcDbLine
 10
815.2296383657601
 20
484.6682463738426
 30
0.0000000000000000
 11
977.3370989185045
 21
578.2610323614917
 31
0.0000000000000000
  0
CIRCLE
  5
303
100
AcDbEntity
  8
MAIN0
  6
HIDDEN
 62
3
100
AcDbCircle
 10
784.6464465764666
 20
467.0110323614923
 30
0.0000000000000000
 40
172.4999999999998
  0
ARC
  5
304
100
AcDbEntity
  8
MAIN0
  6
CENTER
 62
3
100
AcDbCircle
 10
784.6464465764666
 20
467.0110323614923
 30
0.0000000000000000
 40
187.5000000000000
100
AcDbArc
 50
115.1092754999698
 51
124.8907244998039
  0
ARC
  5
305
100
AcDbEntity
  8
MAIN0
  6
CENTER
 62
3
100
AcDbCircle
 10
784.6464465764666
 20
467.0110323614923
 30
0.0000000000000000
 40
187.5000000000000
100
AcDbArc
 50
175.1092754999698
 51
184.8907244998039
  0
ARC
  5
306
100
AcDbEntity
  8
MAIN0
  6
CENTER
 62
3
100
AcDbCircle
 10
784.6464465764666
 20
467.0110323614923
 30
0.0000000000000000
 40
187.5000000000000
100
AcDbArc
 50
233.4760788251879
 51
244.8907244998039
  0
ARC
  5
307
100
AcDbEntity
  8
MAIN0
  6
CENTER
 62
3
100
AcDbCircle
 10
784.6464465764666
 20
467.0110323614923
 30
0.0000000000000000
 40
187.5000000000000
100
AcDbArc
 50
295.1092754999698
 51
304.8907244998039
  0
ARC
  5
308
100
AcDbEntity
  8
MAIN0
  6
CENTER
 62
3
100
AcDbCircle
 10
784.6464465764666
 20
467.0110323614923
 30
0.0000000000000000
 40
187.5000000000000
100
AcDbArc
 50
355.1092754999697
 51
364.8907244998039
  0
DIMENSION
  5
311
100
AcDbEntity
  8
MAIN0
  6
CONTINUOUS
 62
3
100
AcDbDimension
  2
*D24
 10
455.4403814891907
 20
424.2610323614923
 30
0.0000000000000000
 11
454.9403814891907
 21
402.2610323614923
 31
0.0000000000000000
 70
32
  3
MAIN001
100
AcDbAlignedDimension
 13
411.9403814891907
 23
380.2610323614923
 33
0.0000000000000000
 14
411.9403814891907
 24
424.2610323614923
 34
0.0000000000000000
 50
90.00000000000000
100
AcDbRotatedDimension
1001
ACAD
1000
DSTYLE
1002
{
1070
   173
1070
     1
1070
     6
1000
_OPEN
1070
     7
1000
_OPEN
1070
    41
1040
6.000000
1002
}
  0
DIMENSION
  5
31A
100
AcDbEntity
  8
MAIN0
  6
CONTINUOUS
 62
3
100
AcDbDimension
  2
*D25
 10
455.4403814891907
 20
380.2610323614923
 30
0.0000000000000000
 11
454.9403814891907
 21
355.2610323614923
 31
0.0000000000000000
 70
32
  3
MAIN001
100
AcDbAlignedDimension
 13
391.4403814891907
 23
330.2610323614923
 33
0.0000000000000000
 14
411.9403814891907
 24
380.2610323614923
 34
0.0000000000000000
 50
90.00000000000000
100
AcDbRotatedDimension
1001
ACAD
1000
DSTYLE
1002
{
1070
   173
1070
     1
1070
     6
1000
_OPEN
1070
     7
1000
_OPEN
1070
    41
1040
6.000000
1002
}
  0
DIMENSION
  5
323
100
AcDbEntity
  8
MAIN0
  6
CONTINUOUS
 62
3
100
AcDbDimension
  2
*D26
 10
455.4403814891907
 20
330.2610323614923
 30
0.0000000000000000
 11
454.9403814891907
 21
304.2610323614923
 31
0.0000000000000000
 70
32
  3
MAIN001
100
AcDbAlignedDimension
 13
371.4403814891907
 23
278.2610323614923
 33
0.0000000000000000
 14
391.4403814891907
 24
330.2610323614923
 34
0.0000000000000000
 50
90.00000000000000
100
AcDbRotatedDimension
1001
ACAD
1000
DSTYLE
1002
{
1070
   173
1070
     1
1070
     6
1000
_OPEN
1070
     7
1000
_OPEN
1070
    41
1040
6.000000
1002
}
  0
DIMENSION
  5
32D
100
AcDbEntity
  8
MAIN0
  6
CONTINUOUS
 62
3
100
AcDbDimension
  2
*D27
 10
413.4403814891907
 20
357.0110323614923
 30
0.0000000000000000
 11
403.4403814891907
 21
357.5110323614923
 31
0.0000000000000000
 70
32
  3
MAIN001
100
AcDbAlignedDimension
 13
393.4403814891907
 23
345.2610323614923
 33
0.0000000000000000
 14
413.4403814891907
 24
381.7610323614923
 34
0.0000000000000000
100
AcDbRotatedDimension
1001
ACAD
1000
DSTYLE
1002
{
1070
   173
1070
     1
1070
     6
1000
_OPEN
1070
     7
1000
_OPEN
1070
    41
1040
6.000000
1070
   287
1070
     0
1002
}
  0
DIMENSION
  5
337
100
AcDbEntity
  8
MAIN0
  6
CONTINUOUS
 62
3
100
AcDbDimension
  2
*D28
 10
393.4403814891907
 20
307.0110323614923
 30
0.0000000000000000
 11
383.4403814891907
 21
307.5110323614923
 31
0.0000000000000000
 70
32
  3
MAIN001
100
AcDbAlignedDimension
 13
373.4403814891907
 23
293.2610323614923
 33
0.0000000000000000
 14
393.4403814891907
 24
345.2610323614923
 34
0.0000000000000000
100
AcDbRotatedDimension
1001
ACAD
1000
DSTYLE
1002
{
1070
   173
1070
     1
1070
     6
1000
_OPEN
1070
     7
1000
_OPEN
1070
    41
1040
6.000000
1070
   287
1070
     0
1002
}
  0
LINE
  5
338
100
AcDbEntity
  8
MAIN0
  6
CONTINUOUS
 62
3
100
AcDbLine
 10
355.4403814891907
 20
415.8371544903278
 30
0.0000000000000000
 11
413.4403814891907
 21
415.8371544903224
 31
0.0000000000000000
  0
LINE
  5
339
100
AcDbEntity
  8
MAIN0
  6
PHANTOM
 62
3
100
AcDbLine
 10
355.4403814891907
 20
647.5871544903278
 30
0.0000000000000000
 11
413.4403814891907
 21
647.5871544903223
 31
0.0000000000000000
  0
LINE
  5
33A
100
AcDbEntity
  8
MAIN0
  6
CENTER
 62
3
100
AcDbLine
 10
682.8964465760492
 20
643.2472020313144
 30
0.0000000000000000
 11
698.8964465760382
 21
615.5343891102059
 31
0.0000000000000000
  0
LINE
  5
33B
100
AcDbEntity
  8
MAIN0
  6
CENTER
 62
3
100
AcDbLine
 10
682.8964465760494
 20
290.7748626916701
 30
0.0000000000000000
 11
698.8964465760383
 21
318.4876756127786
 31
0.0000000000000000
  0
ARC
  5
33C
100
AcDbEntity
  8
MAIN0
  6
HIDDEN
 62
3
100
AcDbCircle
 10
354.3153814891907
 20
553.0110323614922
 30
0.0000000000000000
 40
1.874999999999986
100
AcDbArc
 50
306.8698976458591
 51
413.1301023541406
  0
CIRCLE
  5
33D
100
AcDbEntity
  8
MAIN0
  6
CONTINUOUS
 62
3
100
AcDbCircle
 10
784.6464465763767
 20
553.0110323614923
 30
0.0000000000000000
 40
1.499999999999957
  0
LINE
  5
33E
100
AcDbEntity
  8
MAIN0
  6
CENTER
 62
3
100
AcDbLine
 10
765.6464465765197
 20
642.5458816524529
 30
0.0000000000000000
 11
765.6464465764866
 21
664.5458816524529
 31
0.0000000000000000
  0
LINE
  5
33F
100
AcDbEntity
  8
MAIN0
  6
CENTER
 62
3
100
AcDbLine
 10
642.2855521332156
 20
362.8796214034615
 30
0.0000000000000000
 11
623.0762489577541
 21
351.7891250441251
 31
0.0000000000000000
  0
ARC
  5
340
100
AcDbEntity
  8
MAIN0
  6
CENTER
 62
3
100
AcDbCircle
 10
784.6464465764666
 20
467.0110323614923
 30
0.0000000000000000
 40
70.00000000000000
100
AcDbArc
 50
287.2870147266580
 51
312.7129852735816
  0
CIRCLE
  5
341
100
AcDbEntity
  8
MAIN0
  6
HIDDEN
 62
3
100
AcDbCircle
 10
819.6464465765932
 20
406.3892540966548
 30
0.0000000000000000
 40
10.00000000000000
  0
CIRCLE
  5
342
100
AcDbEntity
  8
MAIN0
  6
HIDDEN
 62
3
100
AcDbCircle
 10
819.6464465765932
 20
406.3892540966548
 30
0.0000000000000000
 40
10.50000000000000
  0
LINE
  5
343
100
AcDbEntity
  8
MAIN0
  6
HIDDEN
 62
3
100
AcDbLine
 10
821.2557377329983
 20
416.2589137652149
 30
0.0000000000000000
 11
816.1053037658862
 21
397.0372325187580
 31
0.0000000000000000
  0
LINE
  5
344
100
AcDbEntity
  8
MAIN0
  6
HIDDEN
 62
3
100
AcDbLine
 10
823.1875893856352
 20
415.7412756752284
 30
0.0000000000000000
 11
818.0371554184080
 21
396.5195944283423
 31
0.0000000000000000
  0
ARC
  5
345
100
AcDbEntity
  8
MAIN0
  6
CENTER
 62
3
100
AcDbCircle
 10
784.6464465764666
 20
467.0110323614923
 30
0.0000000000000000
 40
70.00000000000000
100
AcDbArc
 50
47.28701472665793
 51
72.71298527358157
  0
CIRCLE
  5
346
100
AcDbEntity
  8
MAIN0
  6
HIDDEN
 62
3
100
AcDbCircle
 10
819.6464465763398
 20
527.6328106264759
 30
0.0000000000000000
 40
10.00000000000000
  0
CIRCLE
  5
347
100
AcDbEntity
  8
MAIN0
  6
HIDDEN
 62
3
100
AcDbCircle
 10
819.6464465763398
 20
527.6328106264759
 30
0.0000000000000000
 40
10.50000000000000
  0
LINE
  5
348
100
AcDbEntity
  8
MAIN0
  6
HIDDEN
 62
3
100
AcDbLine
 10
810.2944249984578
 20
524.0916678157286
 30
0.0000000000000000
 11
829.5161062448926
 21
529.2421017829237
 31
0.0000000000000000
  0
LINE
  5
349
100
AcDbEntity
  8
MAIN0
  6
HIDDEN
 62
3
100
AcDbLine
 10
809.7767869080340
 20
526.0235194682480
 30
0.0000000000000000
 11
828.9984681548978
 21
531.1739534355581
 31
0.0000000000000000
  0
LINE
  5
34A
100
AcDbEntity
  8
MAIN0
  6
CENTER
 62
3
100
AcDbLine
 10
811.8964465759287
 20
514.2094168680544
 30
0.0000000000000000
 11
827.3964465759181
 21
541.0562043853784
 31
0.0000000000000000
  0
LINE
  5
34B
100
AcDbEntity
  8
MAIN0
  6
CENTER
 62
3
100
AcDbLine
 10
811.8964465759286
 20
419.8126478549300
 30
0.0000000000000000
 11
827.3964465759178
 21
392.9658603376061
 31
0.0000000000000000
  0
SPLINE
  5
34C
100
AcDbEntity
  8
MAIN0
  6
CONTINUOUS
 62
3
100
AcDbSpline
210
0.0000000000000000
220
0.0000000000000000
230
1.000000000000000
 70
     8
 71
     3
 72
    12
 73
     8
 74
     0
 42
1.000000000000000e-007
 43
1.000000000000000e-007
 12
0.9576242782289341
 22
-0.3125885629864342
 32
0.0000000000000000
 13
0.9997540520546409
 23
0.01656686114597505
 33
0.0000000000000000
 40
0.0000000000000000
 40
0.0000000000000000
 40
0.0000000000000000
 40
0.0000000000000000
 40
17.00018306935139
 40
49.60859863120140
 40
72.52903391174094
 40
103.6446106313785
 40
121.1254080072838
 40
121.1254080072838
 40
121.1254080072838
 40
121.1254080072838
 10
235.4403814891908
 20
845.9280807756361
 30
0.0000000000000000
 10
240.8669775030399
 20
844.1567265102513
 30
0.0000000000000000
 10
256.7024436557576
 20
838.9876996576186
 30
0.0000000000000000
 10
281.3980608261287
 20
842.0209463231388
 30
0.0000000000000000
 10
309.5605297039046
 20
849.6102700943225
 30
0.0000000000000000
 10
333.4200748468941
 20
843.7253225367015
 30
0.0000000000000000
 10
349.6148821526215
 20
843.9936856639806
 30
0.0000000000000000
 10
355.4403814891907
 20
844.0902196449297
 30
0.0000000000000000
  0
SPLINE
  5
34D
100
AcDbEntity
  8
MAIN0
  6
CONTINUOUS
 62
3
100
AcDbSpline
210
0.0000000000000000
220
0.0000000000000000
230
1.000000000000000
 70
     8
 71
     3
 72
    14
 73
    10
 74
     0
 42
1.000000000000000e-007
 43
1.000000000000000e-007
 12
1.011989390822954
 22
0.1605533635432295
 32
0.0000000000000000
 13
1.001563448657123
 23
-0.09452625845057128
 33
0.0000000000000000
 40
0.0000000000000000
 40
0.0000000000000000
 40
0.0000000000000000
 40
0.0000000000000000
 40
23.52936687977918
 40
44.30733382306062
 40
63.70664465467208
 40
81.11056737877217
 40
100.1035081455749
 40
115.3157469289157
 40
122.3710379271671
 40
122.3710379271671
 40
122.3710379271671
 40
122.3710379271671
 10
235.4403814891907
 20
781.3400478283509
 30
0.0000000000000000
 10
243.3775380408966
 20
782.5992874932146
 30
0.0000000000000000
 10
258.3237219624261
 20
784.9705179848561
 30
0.0000000000000000
 10
278.1887216090847
 20
775.8124485805658
 30
0.0000000000000000
 10
297.8679240265961
 20
775.2089185506377
 30
0.0000000000000000
 10
315.6612104490533
 20
779.5403085202081
 30
0.0000000000000000
 10
333.5302606426757
 20
784.0751629806714
 30
0.0000000000000000
 10
345.6508263209860
 20
775.7001422889589
 30
0.0000000000000000
 10
353.0849409613613
 20
774.9985201972288
 30
0.0000000000000000
 10
355.4403814891907
 20
774.7762167771140
 30
0.0000000000000000
  0
CIRCLE
  5
34E
100
AcDbEntity
  8
MAIN0
  6
CONTINUOUS
 62
3
100
AcDbCircle
 10
690.8964465761765
 20
304.6312691521478
 30
0.0000000000000000
 40
11.00000000000000
  0
CIRCLE
  5
34F
100
AcDbEntity
  8
MAIN0
  6
CONTINUOUS
 62
3
100
AcDbCircle
 10
597.1464465765274
 20
467.0110323618625
 30
0.0000000000000000
 40
11.00000000000000
  0
CIRCLE
  5
350
100
AcDbEntity
  8
MAIN0
  6
CONTINUOUS
 62
3
100
AcDbCircle
 10
878.3964465761155
 20
304.6312691517775
 30
0.0000000000000000
 40
11.00000000000000
  0
CIRCLE
  5
351
100
AcDbEntity
  8
MAIN0
  6
CONTINUOUS
 62
3
100
AcDbCircle
 10
972.1464465764059
 20
467.0110323611219
 30
0.0000000000000000
 40
11.00000000000000
  0
CIRCLE
  5
352
100
AcDbEntity
  8
MAIN0
  6
CONTINUOUS
 62
3
100
AcDbCircle
 10
878.3964465767567
 20
629.3907955708368
 30
0.0000000000000000
 40
11.00000000000000
  0
CIRCLE
  5
353
100
AcDbEntity
  8
MAIN0
  6
CONTINUOUS
 62
3
100
AcDbCircle
 10
690.8964465768177
 20
629.3907955712070
 30
0.0000000000000000
 40
11.00000000000000
  0
DIMENSION
  5
35E
100
AcDbEntity
  8
MAIN0
  6
CONTINUOUS
 62
3
100
AcDbDimension
  2
*D29
 10
355.4403814891907
 20
242.0110323614923
 30
0.0000000000000000
 11
346.9403814891907
 21
242.5110323614923
 31
0.0000000000000000
 70
32
  3
MAIN001
100
AcDbAlignedDimension
 13
338.4403814891908
 23
268.5110323614861
 33
0.0000000000000000
 14
355.4403814891907
 24
266.5110323614922
 34
0.0000000000000000
100
AcDbRotatedDimension
1001
ACAD
1000
DSTYLE
1002
{
1070
   173
1070
     1
1070
     6
1000
_OPEN
1070
     7
1000
_OPEN
1070
    41
1040
6.000000
1070
   287
1070
     0
1002
}
  0
DIMENSION
  5
367
100
AcDbEntity
  8
MAIN0
  6
CONTINUOUS
 62
3
100
AcDbDimension
  2
*D30
 10
235.4403814891907
 20
242.0110323614923
 30
0.0000000000000000
 11
221.9403814891907
 21
242.5110323614923
 31
0.0000000000000000
 70
32
  3
MAIN001
100
AcDbAlignedDimension
 13
208.4403814891907
 23
272.5110323614860
 33
0.0000000000000000
 14
235.4403814891907
 24
266.5110323614923
 34
0.0000000000000000
100
AcDbRotatedDimension
1001
ACAD
1000
DSTYLE
1002
{
1070
   173
1070
     1
1070
     6
1000
_OPEN
1070
     7
1000
_OPEN
1070
    41
1040
6.000000
1002
}
  0
LEADER
  5
368
100
AcDbEntity
  8
MAIN0
  6
CONTINUOUS
 62
3
100
AcDbLeader
  3
MAIN001
 73
     0
 75
     1
 40
9.000000000000000
 41
86.39899806880951
 76
     3
 10
221.9403814891907
 20
272.5110323614860
 30
0.0000000000000000
 10
190.4403814891907
 20
242.0110323614923
 30
0.0000000000000000
 10
185.3993814891907
 20
242.0110323614923
 30
0.0000000000000000
340
369
213
0.0000000000000000
223
-1.500000000000000
233
0.0000000000000000
1001
ACAD
1000
DSTYLE
1002
{
1070
   147
1040
0.0
1070
    77
1070
     1
1070
   173
1070
     1
1070
     6
1000
_OPEN
1070
     7
1000
_OPEN
1002
}
  0
MTEXT
  5
369
102
{ACAD_REACTORS
330
368
102
}
100
AcDbEntity
  8
MAIN0
  6
CONTINUOUS
 62
3
100
AcDbMText
 10
99.00038342038121
 20
252.5110323614923
 30
0.0000000000000000
 40
9.000000000000000
 41
0.0000000000000000
 71
     1
 72
     1
  1
{\H0.61x;{Bアナツキ　6-M14×130\PHEXAGON　SOCKET　\PCAP　SCREW　}}
 11
1.000000000000000
 21
0.0000000000000000
 31
0.0000000000000000
  7
KNJYOKO
  0
DIMENSION
  5
374
100
AcDbEntity
  8
MAIN0
  6
CONTINUOUS
 62
3
100
AcDbDimension
  2
*D31
 10
395.4403814891907
 20
268.5110323614923
 30
0.0000000000000000
 11
393.9403814891907
 21
280.4539411605918
 31
0.0000000000000000
 70
160
  1
\A1;\U+220522
  3
MAIN001
100
AcDbAlignedDimension
 13
355.4403814891906
 23
290.5110323614923
 33
0.0000000000000000
 14
355.4403814891908
 24
268.5110323614923
 34
0.0000000000000000
 50
90.00000000000000
100
AcDbRotatedDimension
1001
ACAD
1000
DSTYLE
1002
{
1070
   173
1070
     1
1070
     6
1000
_OPEN
1070
     7
1000
_OPEN
1070
    41
1040
6.000000
1070
   287
1070
     0
1002
}
  0
DIMENSION
  5
37B
100
AcDbEntity
  8
MAIN0
  6
CONTINUOUS
 62
3
100
AcDbDimension
  2
*D32
 10
894.9233913337819
 20
618.6528651616535
 30
0.0000000000000000
 11
768.3128829181467
 21
447.1011451757563
 31
0.0000000000000000
 70
163
  3
MAIN001
100
AcDbDiametricDimension
 15
674.3695018191514
 25
315.3691995613311
 35
0.0000000000000000
1001
ACAD
1000
DSTYLE
1002
{
1070
   287
1070
     2
1070
   173
1070
     1
1070
     6
1000
_OPEN
1070
     7
1000
_OPEN
1070
    41
1040
6.000000
1002
}
  0
SPLINE
  5
37C
100
AcDbEntity
  8
MAIN0
  6
CONTINUOUS
 62
3
100
AcDbSpline
210
0.0000000000000000
220
0.0000000000000000
230
1.000000000000000
 70
     8
 71
     3
 72
    11
 73
     7
 74
     0
 42
1.000000000000000e-007
 43
1.000000000000000e-007
 12
-0.4023028422322099
 22
-0.9346681903112284
 32
0.0000000000000000
 13
-0.1278335952450567
 23
-0.9949714134620207
 33
0.0000000000000000
 40
0.0000000000000000
 40
0.0000000000000000
 40
0.0000000000000000
 40
0.0000000000000000
 40
15.81138830084190
 40
30.81138830084190
 40
45.81138830084190
 40
148.7738673422518
 40
148.7738673422518
 40
148.7738673422518
 40
148.7738673422518
 10
275.4403814891907
 20
412.0110323614923
 30
0.0000000000000000
 10
273.3200593381688
 20
407.0848984650069
 30
0.0000000000000000
 10
269.1882229759859
 20
397.4854236169655
 30
0.0000000000000000
 10
270.7289569009175
 20
381.9614526995767
 30
0.0000000000000000
 10
270.0848061336882
 20
337.7838116667163
 30
0.0000000000000000
 10
265.1490298110581
 20
298.6592734633471
 30
0.0000000000000000
 10
260.7616751873223
 20
264.5110323615520
 30
0.0000000000000000
  0
CIRCLE
  5
37D
100
AcDbEntity
  8
MAIN0
  6
CONTINUOUS
 62
3
100
AcDbCircle
 10
784.6464465764666
 20
553.0110323614922
 30
0.0000000000000000
 40
4.500000000000000
  0
SPLINE
  5
37E
100
AcDbEntity
  8
MAIN0
  6
CONTINUOUS
 62
3
100
AcDbSpline
210
0.0000000000000000
220
0.0000000000000000
230
1.000000000000000
 70
     8
 71
     3
 72
    14
 73
    10
 74
     0
 42
1.000000000000000e-007
 43
1.000000000000000e-007
 12
0.1379610870937036
 22
-0.9181522129743414
 32
0.0000000000000000
 13
0.09492534051821977
 23
-0.9967386501676074
 33
0.0000000000000000
 40
0.0000000000000000
 40
0.0000000000000000
 40
0.0000000000000000
 40
0.0000000000000000
 40
35.35533905932738
 40
70.71067811865476
 40
91.32620624674306
 40
107.1375945475850
 40
121.5098768994010
 40
123.5098768994010
 40
152.5626306415134
 40
152.5626306415134
 40
152.5626306415134
 40
152.5626306415134
 10
245.8162226410017
 20
669.5110323614923
 30
0.0000000000000000
 10
247.4421096447321
 20
658.6905047622324
 30
0.0000000000000000
 10
250.7861613969300
 20
636.2111148171806
 30
0.0000000000000000
 10
253.8952535952799
 20
606.7460644157275
 30
0.0000000000000000
 10
259.7160885633710
 20
583.4284438701722
 30
0.0000000000000000
 10
265.2928006069171
 20
567.5502294921367
 30
0.0000000000000000
 10
268.7854840832584
 20
557.1433411213629
 30
0.0000000000000000
 10
268.5385362342040
 20
541.9808598273139
 30
0.0000000000000000
 10
269.5211006418701
 20
531.6636998776805
 30
0.0000000000000000
 10
270.4403814891907
 20
522.0110323614922
 30
0.0000000000000000
  0
LINE
  5
37F
100
AcDbEntity
  8
MAIN0
  6
CONTINUOUS
 62
3
100
AcDbLine
 10
235.4403814891907
 20
639.5110323614923
 30
0.0000000000000000
 11
250.1167993154257
 21
639.5110323486274
 31
0.0000000000000000
  0
LINE
  5
380
100
AcDbEntity
  8
MAIN0
  6
HIDDEN
 62
3
100
AcDbLine
 10
250.1167993154257
 20
639.5110323486274
 30
0.0000000000000000
 11
256.9403814891907
 21
639.5110323614923
 31
0.0000000000000000
  0
DIMENSION
  5
389
100
AcDbEntity
  8
MAIN0
  6
CONTINUOUS
 62
3
100
AcDbDimension
  2
*D33
 10
175.4403814891907
 20
294.5110323614923
 30
0.0000000000000000
 11
174.9403814891907
 21
459.9360322244016
 31
0.0000000000000000
 70
32
  1
\A1;\U+2205345H6\H0.903226x;\S＋0.036^ 　0;
  3
MAIN001
100
AcDbAlignedDimension
 13
235.4403814891907
 23
639.5110323614923
 33
0.0000000000000000
 14
235.4403814891907
 24
294.5110323614923
 34
0.0000000000000000
 50
90.00000000000000
100
AcDbRotatedDimension
1001
ACAD
1000
DSTYLE
1002
{
1070
   173
1070
     1
1070
     6
1000
_OPEN
1070
     7
1000
_OPEN
1070
    41
1040
6.000000
1070
   272
1070
     3
1070
    47
1040
0.036000
1070
    48
1040
0.000000
1070
    71
1070
     1
1070
   340
1005
38A
1002
}
  0
LINE
  5
38B
100
AcDbEntity
  8
MAIN0
  6
CONTINUOUS
 62
3
100
AcDbLine
 10
393.4403814891907
 20
377.2610323614923
 30
0.0000000000000000
 11
391.9403814891907
 21
380.1425055519490
 31
0.0000000000000000
  0
LINE
  5
38C
100
AcDbEntity
  8
MAIN0
  6
CONTINUOUS
 62
3
100
AcDbLine
 10
391.9403814891907
 20
380.1425055519490
 30
0.0000000000000000
 11
391.9403814891907
 21
381.2610323614923
 31
0.0000000000000000
  0
LINE
  5
38D
100
AcDbEntity
  8
MAIN0
  6
CONTINUOUS
 62
3
100
AcDbLine
 10
392.4403814891907
 20
381.7610323614923
 30
0.0000000000000000
 11
393.5589082987340
 21
381.7610323614923
 31
0.0000000000000000
  0
LINE
  5
38E
100
AcDbEntity
  8
MAIN0
  6
CONTINUOUS
 62
3
100
AcDbLine
 10
393.5589082987339
 20
381.7610323614923
 30
0.0000000000000000
 11
396.4403814891907
 21
380.2610323614923
 31
0.0000000000000000
  0
ARC
  5
38F
100
AcDbEntity
  8
MAIN0
  6
CONTINUOUS
 62
3
100
AcDbCircle
 10
392.4403814891907
 20
381.2610323614923
 30
0.0000000000000000
 40
0.5000000000000000
100
AcDbArc
 50
90.00000000000000
 51
180.0000000000000
  0
LINE
  5
390
100
AcDbEntity
  8
MAIN0
  6
CONTINUOUS
 62
3
100
AcDbLine
 10
236.4507444603630
 20
822.0133157863752
 30
0.0000000000000000
 11
251.4403814891907
 21
822.0133157863752
 31
0.0000000000000000
  0
LINE
  5
391
100
AcDbEntity
  8
MAIN0
  6
CONTINUOUS
 62
3
100
AcDbLine
 10
236.4507444603631
 20
834.0133157863752
 30
0.0000000000000000
 11
251.4403814891907
 21
834.0133157863752
 31
0.0000000000000000
  0
LINE
  5
392
100
AcDbEntity
  8
MAIN0
  6
CONTINUOUS
 62
3
100
AcDbLine
 10
235.9311292180922
 20
822.9133157863751
 30
0.0000000000000000
 11
251.4403814891907
 21
822.9133157863751
 31
0.0000000000000000
  0
LINE
  5
393
100
AcDbEntity
  8
MAIN0
  6
CONTINUOUS
 62
3
100
AcDbLine
 10
251.4403814891907
 20
833.1133157863751
 30
0.0000000000000000
 11
235.9311292180923
 21
833.1133157863751
 31
0.0000000000000000
  0
LINE
  5
394
100
AcDbEntity
  8
MAIN0
  6
HIDDEN
 62
3
100
AcDbLine
 10
243.4403814891907
 20
385.9110323614923
 30
0.0000000000000000
 11
244.0403814891907
 21
386.5110323614923
 31
0.0000000000000000
  0
LINE
  5
395
100
AcDbEntity
  8
MAIN0
  6
HIDDEN
 62
3
100
AcDbLine
 10
244.0403814891907
 20
386.5110323614923
 30
0.0000000000000000
 11
251.9403814891907
 21
386.5110323614923
 31
0.0000000000000000
  0
LINE
  5
396
100
AcDbEntity
  8
MAIN0
  6
HIDDEN
 62
3
100
AcDbLine
 10
251.9403814891907
 20
386.5110323614923
 30
0.0000000000000000
 11
251.9403814891907
 21
407.5110323614923
 31
0.0000000000000000
  0
LINE
  5
397
100
AcDbEntity
  8
MAIN0
  6
HIDDEN
 62
3
100
AcDbLine
 10
251.9403814891907
 20
407.5110323614923
 30
0.0000000000000000
 11
244.0403814891907
 21
407.5110323614923
 31
0.0000000000000000
  0
LINE
  5
398
100
AcDbEntity
  8
MAIN0
  6
HIDDEN
 62
3
100
AcDbLine
 10
244.0403814891907
 20
407.5110323614923
 30
0.0000000000000000
 11
243.4403814891907
 21
408.1110323614923
 31
0.0000000000000000
  0
LINE
  5
399
100
AcDbEntity
  8
MAIN0
  6
HIDDEN
 62
3
100
AcDbLine
 10
251.9403814891907
 20
390.5110323614923
 30
0.0000000000000000
 11
263.8403814891907
 21
390.5110323614923
 31
0.0000000000000000
  0
LINE
  5
39A
100
AcDbEntity
  8
MAIN0
  6
HIDDEN
 62
3
100
AcDbLine
 10
263.8403814891907
 20
390.5110323614923
 30
0.0000000000000000
 11
264.4403814891907
 21
389.9110323614923
 31
0.0000000000000000
  0
LINE
  5
39B
100
AcDbEntity
  8
MAIN0
  6
HIDDEN
 62
3
100
AcDbLine
 10
251.9403814891907
 20
403.5110323614923
 30
0.0000000000000000
 11
263.8403814891907
 21
403.5110323614923
 31
0.0000000000000000
  0
LINE
  5
39C
100
AcDbEntity
  8
MAIN0
  6
HIDDEN
 62
3
100
AcDbLine
 10
263.8403814891907
 20
403.5110323614923
 30
0.0000000000000000
 11
264.4403814891907
 21
404.1110323614922
 31
0.0000000000000000
  0
LINE
  5
39D
100
AcDbEntity
  8
MAIN0
  6
HIDDEN
 62
3
100
AcDbLine
 10
251.9403814891907
 20
391.0110323614923
 30
0.0000000000000000
 11
270.0672302110807
 21
391.0110323614923
 31
0.0000000000000000
  0
LINE
  5
39E
100
AcDbEntity
  8
MAIN0
  6
HIDDEN
 62
3
100
AcDbLine
 10
271.8901392423808
 20
403.0110323614923
 30
0.0000000000000000
 11
251.9403814891907
 21
403.0110323614923
 31
0.0000000000000000
  0
LINE
  5
39F
100
AcDbEntity
  8
MAIN0
  6
HIDDEN
 62
3
100
AcDbLine
 10
257.9403814891907
 20
391.9582478614923
 30
0.0000000000000000
 11
270.0707352464195
 21
391.9582478614923
 31
0.0000000000000000
  0
LINE
  5
3A0
100
AcDbEntity
  8
MAIN0
  6
HIDDEN
 62
3
100
AcDbLine
 10
257.9403814891907
 20
402.0638168614923
 30
0.0000000000000000
 11
271.5941636207078
 21
402.0638168614923
 31
0.0000000000000000
  0
CIRCLE
  5
3A1
100
AcDbEntity
  8
MAIN0
  6
HIDDEN
 62
3
100
AcDbCircle
 10
955.6903647535219
 20
390.1980903878845
 30
0.0000000000000000
 40
6.000000000000000
  0
CIRCLE
  5
3A2
100
AcDbEntity
  8
MAIN0
  6
HIDDEN
 62
3
100
AcDbCircle
 10
955.6903647535219
 20
390.1980903878845
 30
0.0000000000000000
 40
5.100000000000001
  0
LINE
  5
3A3
100
AcDbEntity
  8
MAIN0
  6
HIDDEN
 62
3
100
AcDbLine
 10
933.9166880847690
 20
604.1190372337254
 30
0.0000000000000000
 11
931.6539463849720
 21
604.1190372337285
 31
0.0000000000000000
  0
LINE
  5
3A4
100
AcDbEntity
  8
MAIN0
  6
HIDDEN
 62
3
100
AcDbLine
 10
931.6539463849720
 20
604.1190372337285
 30
0.0000000000000000
 11
921.7544514483735
 21
614.0185321703534
 31
0.0000000000000000
  0
LINE
  5
3A5
100
AcDbEntity
  8
MAIN0
  6
HIDDEN
 62
3
100
AcDbLine
 10
921.7544514483735
 20
614.0185321703534
 30
0.0000000000000000
 11
921.7544514483766
 21
616.2812738701502
 31
0.0000000000000000
  0
LINE
  5
3A6
100
AcDbEntity
  8
MAIN0
  6
HIDDEN
 62
3
100
AcDbLine
 10
933.0681599473450
 20
604.1190372337265
 30
0.0000000000000000
 11
914.4005409239951
 21
585.4514182104266
 31
0.0000000000000000
  0
LINE
  5
3A7
100
AcDbEntity
  8
MAIN0
  6
HIDDEN
 62
3
100
AcDbLine
 10
914.4005409239953
 20
585.4514182104267
 30
0.0000000000000000
 11
903.0868324250257
 21
596.7651267094266
 31
0.0000000000000000
  0
LINE
  5
3A8
100
AcDbEntity
  8
MAIN0
  6
HIDDEN
 62
3
100
AcDbLine
 10
903.0868324250257
 20
596.7651267094267
 30
0.0000000000000000
 11
921.7544514483755
 21
615.4327457327265
 31
0.0000000000000000
  0
LINE
  5
3A9
100
AcDbEntity
  8
MAIN0
  6
HIDDEN
 62
3
100
AcDbLine
 10
931.6539463849720
 20
604.1190372337284
 30
0.0000000000000000
 11
908.0365798933096
 21
580.5016707421294
 31
0.0000000000000000
  0
LINE
  5
3AA
100
AcDbEntity
  8
MAIN0
  6
HIDDEN
 62
3
100
AcDbLine
 10
908.0365798933098
 20
580.5016707421294
 30
0.0000000000000000
 11
898.1370849567113
 21
590.4011656787543
 31
0.0000000000000000
  0
LINE
  5
3AB
100
AcDbEntity
  8
MAIN0
  6
HIDDEN
 62
3
100
AcDbLine
 10
898.1370849567112
 20
590.4011656787543
 30
0.0000000000000000
 11
921.7544514483734
 21
614.0185321703534
 31
0.0000000000000000
  0
LINE
  5
3AC
100
AcDbEntity
  8
MAIN0
  6
HIDDEN
 62
3
100
AcDbLine
 10
908.0365798933096
 20
580.5016707421293
 30
0.0000000000000000
 11
900.2290943917595
 21
582.5936801771985
 31
0.0000000000000000
  0
LINE
  5
3AD
100
AcDbEntity
  8
MAIN0
  6
HIDDEN
 62
3
100
AcDbLine
 10
900.2290943917595
 20
582.5936801771985
 30
0.0000000000000000
 11
898.1370849567112
 21
590.4011656787542
 31
0.0000000000000000
  0
LINE
  5
3AE
100
AcDbEntity
  8
MAIN0
  6
HIDDEN
 62
3
100
AcDbLine
 10
272.0943750951925
 20
567.0110323614923
 30
0.0000000000000000
 11
266.7295911542404
 21
567.0110323614923
 31
0.0000000000000000
  0
LINE
  5
3AF
100
AcDbEntity
  8
MAIN0
  6
HIDDEN
 62
3
100
AcDbLine
 10
289.9403814892406
 20
567.0110323614923
 30
0.0000000000000000
 11
285.7863878832887
 21
567.0110323614923
 31
0.0000000000000000
  0
ARC
  5
3B0
100
AcDbEntity
  8
MAIN0
  6
HIDDEN
 62
3
100
AcDbCircle
 10
275.4284810475044
 20
589.6356489769120
 30
0.0000000000000000
 40
20.00000000000000
100
AcDbArc
 50
320.8590105125235
 51
352.3999999999868
  0
LINE
  5
3B1
100
AcDbEntity
  8
MAIN0
  6
HIDDEN
 62
3
100
AcDbLine
 10
290.9403814892406
 20
553.0110323614923
 30
0.0000000000000000
 11
290.9403814892406
 21
577.0110323614923
 31
0.0000000000000000
  0
LINE
  5
3B2
100
AcDbEntity
  8
MAIN0
  6
HIDDEN
 62
3
100
AcDbLine
 10
290.9403814892406
 20
551.0110323614923
 30
0.0000000000000000
 11
290.9403814892406
 21
553.0110323614923
 31
0.0000000000000000
  0
LINE
  5
3B3
100
AcDbEntity
  8
MAIN0
  6
HIDDEN
 62
3
100
AcDbLine
 10
290.9403814892406
 20
551.0110323614923
 30
0.0000000000000000
 11
284.9403814892406
 21
551.0110323614923
 31
0.0000000000000000
  0
LINE
  5
3B4
100
AcDbEntity
  8
MAIN0
  6
HIDDEN
 62
3
100
AcDbLine
 10
272.9403814892406
 20
533.0110323614923
 30
0.0000000000000000
 11
272.9403814892406
 21
559.0110323614923
 31
0.0000000000000000
  0
ARC
  5
3B5
100
AcDbEntity
  8
MAIN0
  6
HIDDEN
 62
3
100
AcDbCircle
 10
173.1523718782121
 20
552.5031035151319
 30
0.0000000000000000
 40
100.0000000000000
100
AcDbArc
 50
3.731405675978355
 51
27.07003590358028
  0
ARC
  5
3B6
100
AcDbEntity
  8
MAIN0
  6
HIDDEN
 62
3
100
AcDbCircle
 10
384.7283911002691
 20
552.5031035151319
 30
0.0000000000000000
 40
100.0000000000000
100
AcDbArc
 50
152.9299640964197
 51
176.2685943240215
  0
LINE
  5
3B7
100
AcDbEntity
  8
MAIN0
  6
HIDDEN
 62
3
100
AcDbLine
 10
273.9403814892406
 20
532.0110323614922
 30
0.0000000000000000
 11
272.9403814892406
 21
533.0110323614922
 31
0.0000000000000000
  0
LINE
  5
3B8
100
AcDbEntity
  8
MAIN0
  6
HIDDEN
 62
3
100
AcDbLine
 10
283.9403814892406
 20
532.0110323614923
 30
0.0000000000000000
 11
273.9403814892406
 21
532.0110323614923
 31
0.0000000000000000
  0
LINE
  5
3B9
100
AcDbEntity
  8
MAIN0
  6
HIDDEN
 62
3
100
AcDbLine
 10
284.9403814892406
 20
533.0110323614922
 30
0.0000000000000000
 11
284.9403814892406
 21
559.0110323614923
 31
0.0000000000000000
  0
LINE
  5
3BA
100
AcDbEntity
  8
MAIN0
  6
HIDDEN
 62
3
100
AcDbLine
 10
284.9403814892406
 20
533.0110323614922
 30
0.0000000000000000
 11
283.9403814892406
 21
532.0110323614922
 31
0.0000000000000000
  0
LINE
  5
3BB
100
AcDbEntity
  8
MAIN0
  6
CONTINUOUS
 62
3
100
AcDbLine
 10
264.4403814892406
 20
522.0110323614923
 30
0.0000000000000000
 11
264.4403814892406
 21
553.0110323614923
 31
0.0000000000000000
  0
LINE
  5
3BC
100
AcDbEntity
  8
MAIN0
  6
HIDDEN
 62
3
100
AcDbLine
 10
289.9403814892406
 20
567.0110323614922
 30
0.0000000000000000
 11
290.9403814892406
 21
566.0110323614922
 31
0.0000000000000000
  0
LINE
  5
3BD
100
AcDbEntity
  8
MAIN0
  6
HIDDEN
 62
3
100
AcDbLine
 10
253.4403814890690
 20
639.5110323614922
 30
0.0000000000000000
 11
255.3929343766301
 21
602.2541046713058
 31
0.0000000000000000
  0
LINE
  5
3BE
100
AcDbEntity
  8
MAIN0
  6
CONTINUOUS
 62
3
100
AcDbLine
 10
255.3929343766301
 20
602.2541046713059
 30
0.0000000000000000
 11
256.7432958066947
 21
576.4876727990634
 31
0.0000000000000000
  0
ARC
  5
3BF
100
AcDbEntity
  8
MAIN0
  6
CONTINUOUS
 62
3
100
AcDbCircle
 10
266.7295911542404
 20
577.0110323614932
 30
0.0000000000000000
 40
10.00000000000000
100
AcDbArc
 50
183.0000000000003
 51
262.4195480036926
  0
ARC
  5
3C0
100
AcDbEntity
  8
MAIN0
  6
HIDDEN
 62
3
100
AcDbCircle
 10
266.7295911542404
 20
577.0110323614932
 30
0.0000000000000000
 40
10.00000000000000
100
AcDbArc
 50
262.4195480036926
 51
270.0000000000000
  0
LINE
  5
3C1
100
AcDbEntity
  8
MAIN0
  6
CONTINUOUS
 62
3
100
AcDbLine
 10
264.4403814892406
 20
553.0110323614923
 30
0.0000000000000000
 11
268.6903814893175
 21
553.0110323584802
 31
0.0000000000000000
  0
LINE
  5
3C2
100
AcDbEntity
  8
MAIN0
  6
HIDDEN
 62
3
100
AcDbLine
 10
268.6903814893175
 20
553.0110323584802
 30
0.0000000000000000
 11
272.9403814892406
 21
553.0110323614923
 31
0.0000000000000000
  0
LINE
  5
3C3
100
AcDbEntity
  8
MAIN0
  6
CONTINUOUS
 62
3
100
AcDbLine
 10
264.4403814892406
 20
551.0110323614923
 30
0.0000000000000000
 11
268.6903814892396
 21
551.0110323613848
 31
0.0000000000000000
  0
LINE
  5
3C4
100
AcDbEntity
  8
MAIN0
  6
HIDDEN
 62
3
100
AcDbLine
 10
268.6903814892396
 20
551.0110323613848
 30
0.0000000000000000
 11
272.9403814892406
 21
551.0110323614923
 31
0.0000000000000000
  0
LINE
  5
3C5
100
AcDbEntity
  8
MAIN0
  6
CENTER
 62
3
100
AcDbLine
 10
200.4403814891898
 20
279.5110323614349
 30
0.0000000000000000
 11
365.4403814891916
 21
279.5110323614960
 31
0.0000000000000000
  0
LINE
  5
3C6
100
AcDbEntity
  8
MAIN0
  6
HIDDEN
 62
3
100
AcDbLine
 10
338.4403814891907
 20
290.5110323614860
 30
0.0000000000000000
 11
355.4403814891906
 21
290.5110323614923
 31
0.0000000000000000
  0
LINE
  5
3C7
100
AcDbEntity
  8
MAIN0
  6
HIDDEN
 62
3
100
AcDbLine
 10
338.4403814891908
 20
268.5110323614861
 30
0.0000000000000000
 11
338.4403814891906
 21
290.5110323614860
 31
0.0000000000000000
  0
LINE
  5
3C8
100
AcDbEntity
  8
MAIN0
  6
HIDDEN
 62
3
100
AcDbLine
 10
338.4403814891908
 20
268.5110323614860
 30
0.0000000000000000
 11
355.4403814891908
 21
268.5110323614923
 31
0.0000000000000000
  0
LINE
  5
3C9
100
AcDbEntity
  8
MAIN0
  6
HIDDEN
 62
3
100
AcDbLine
 10
235.4403814891906
 20
287.0110323614479
 30
0.0000000000000000
 11
338.4403814891905
 21
287.0110323614860
 31
0.0000000000000000
  0
LINE
  5
3CA
100
AcDbEntity
  8
MAIN0
  6
HIDDEN
 62
3
100
AcDbLine
 10
235.4403814891908
 20
272.0110323614479
 30
0.0000000000000000
 11
338.4403814891908
 21
272.0110323614860
 31
0.0000000000000000
  0
CIRCLE
  5
3CB
100
AcDbEntity
  8
MAIN0
  6
CONTINUOUS
 62
3
100
AcDbCircle
 10
690.8964465761765
 20
304.6312691521478
 30
0.0000000000000000
 40
10.50000000000000
  0
LINE
  5
3CC
100
AcDbEntity
  8
MAIN0
  6
CONTINUOUS
 62
3
100
AcDbLine
 10
690.8964465761765
 20
311.5594723824232
 30
0.0000000000000000
 11
684.8964465761765
 21
308.0953707672855
 31
0.0000000000000000
  0
LINE
  5
3CD
100
AcDbEntity
  8
MAIN0
  6
CONTINUOUS
 62
3
100
AcDbLine
 10
684.8964465761765
 20
308.0953707672855
 30
0.0000000000000000
 11
684.8964465761765
 21
301.1671675370100
 31
0.0000000000000000
  0
LINE
  5
3CE
100
AcDbEntity
  8
MAIN0
  6
CONTINUOUS
 62
3
100
AcDbLine
 10
684.8964465761765
 20
301.1671675370100
 30
0.0000000000000000
 11
690.8964465761765
 21
297.7030659218723
 31
0.0000000000000000
  0
LINE
  5
3CF
100
AcDbEntity
  8
MAIN0
  6
CONTINUOUS
 62
3
100
AcDbLine
 10
690.8964465761765
 20
297.7030659218722
 30
0.0000000000000000
 11
696.8964465761765
 21
301.1671675370100
 31
0.0000000000000000
  0
LINE
  5
3D0
100
AcDbEntity
  8
MAIN0
  6
CONTINUOUS
 62
3
100
AcDbLine
 10
696.8964465761765
 20
301.1671675370100
 30
0.0000000000000000
 11
696.8964465761765
 21
308.0953707672855
 31
0.0000000000000000
  0
LINE
  5
3D1
100
AcDbEntity
  8
MAIN0
  6
CONTINUOUS
 62
3
100
AcDbLine
 10
696.8964465761765
 20
308.0953707672855
 30
0.0000000000000000
 11
690.8964465761763
 21
311.5594723824233
 31
0.0000000000000000
  0
CIRCLE
  5
3D2
100
AcDbEntity
  8
MAIN0
  6
CONTINUOUS
 62
3
100
AcDbCircle
 10
597.1464465765274
 20
467.0110323618625
 30
0.0000000000000000
 40
10.50000000000000
  0
LINE
  5
3D3
100
AcDbEntity
  8
MAIN0
  6
CONTINUOUS
 62
3
100
AcDbLine
 10
597.1464465765274
 20
473.9392355921380
 30
0.0000000000000000
 11
591.1464465765274
 21
470.4751339770002
 31
0.0000000000000000
  0
LINE
  5
3D4
100
AcDbEntity
  8
MAIN0
  6
CONTINUOUS
 62
3
100
AcDbLine
 10
591.1464465765274
 20
470.4751339770003
 30
0.0000000000000000
 11
591.1464465765274
 21
463.5469307467247
 31
0.0000000000000000
  0
LINE
  5
3D5
100
AcDbEntity
  8
MAIN0
  6
CONTINUOUS
 62
3
100
AcDbLine
 10
591.1464465765274
 20
463.5469307467247
 30
0.0000000000000000
 11
597.1464465765274
 21
460.0828291315870
 31
0.0000000000000000
  0
LINE
  5
3D6
100
AcDbEntity
  8
MAIN0
  6
CONTINUOUS
 62
3
100
AcDbLine
 10
597.1464465765274
 20
460.0828291315870
 30
0.0000000000000000
 11
603.1464465765274
 21
463.5469307467247
 31
0.0000000000000000
  0
LINE
  5
3D7
100
AcDbEntity
  8
MAIN0
  6
CONTINUOUS
 62
3
100
AcDbLine
 10
603.1464465765274
 20
463.5469307467247
 30
0.0000000000000000
 11
603.1464465765274
 21
470.4751339770003
 31
0.0000000000000000
  0
LINE
  5
3D8
100
AcDbEntity
  8
MAIN0
  6
CONTINUOUS
 62
3
100
AcDbLine
 10
603.1464465765274
 20
470.4751339770003
 30
0.0000000000000000
 11
597.1464465765274
 21
473.9392355921380
 31
0.0000000000000000
  0
CIRCLE
  5
3D9
100
AcDbEntity
  8
MAIN0
  6
CONTINUOUS
 62
3
100
AcDbCircle
 10
878.3964465761155
 20
304.6312691517775
 30
0.0000000000000000
 40
10.50000000000000
  0
LINE
  5
3DA
100
AcDbEntity
  8
MAIN0
  6
CONTINUOUS
 62
3
100
AcDbLine
 10
878.3964465761155
 20
311.5594723820530
 30
0.0000000000000000
 11
872.3964465761155
 21
308.0953707669152
 31
0.0000000000000000
  0
LINE
  5
3DB
100
AcDbEntity
  8
MAIN0
  6
CONTINUOUS
 62
3
100
AcDbLine
 10
872.3964465761155
 20
308.0953707669153
 30
0.0000000000000000
 11
872.3964465761155
 21
301.1671675366397
 31
0.0000000000000000
  0
LINE
  5
3DC
100
AcDbEntity
  8
MAIN0
  6
CONTINUOUS
 62
3
100
AcDbLine
 10
872.3964465761155
 20
301.1671675366397
 30
0.0000000000000000
 11
878.3964465761154
 21
297.7030659215020
 31
0.0000000000000000
  0
LINE
  5
3DD
100
AcDbEntity
  8
MAIN0
  6
CONTINUOUS
 62
3
100
AcDbLine
 10
878.3964465761155
 20
297.7030659215019
 30
0.0000000000000000
 11
884.3964465761155
 21
301.1671675366397
 31
0.0000000000000000
  0
LINE
  5
3DE
100
AcDbEntity
  8
MAIN0
  6
CONTINUOUS
 62
3
100
AcDbLine
 10
884.3964465761155
 20
301.1671675366397
 30
0.0000000000000000
 11
884.3964465761155
 21
308.0953707669153
 31
0.0000000000000000
  0
LINE
  5
3DF
100
AcDbEntity
  8
MAIN0
  6
CONTINUOUS
 62
3
100
AcDbLine
 10
884.3964465761155
 20
308.0953707669153
 30
0.0000000000000000
 11
878.3964465761155
 21
311.5594723820530
 31
0.0000000000000000
  0
CIRCLE
  5
3E0
100
AcDbEntity
  8
MAIN0
  6
CONTINUOUS
 62
3
100
AcDbCircle
 10
972.1464465764059
 20
467.0110323611219
 30
0.0000000000000000
 40
10.50000000000000
  0
LINE
  5
3E1
100
AcDbEntity
  8
MAIN0
  6
CONTINUOUS
 62
3
100
AcDbLine
 10
972.1464465764059
 20
473.9392355913974
 30
0.0000000000000000
 11
966.1464465764059
 21
470.4751339762597
 31
0.0000000000000000
  0
LINE
  5
3E2
100
AcDbEntity
  8
MAIN0
  6
CONTINUOUS
 62
3
100
AcDbLine
 10
966.1464465764059
 20
470.4751339762597
 30
0.0000000000000000
 11
966.1464465764059
 21
463.5469307459841
 31
0.0000000000000000
  0
LINE
  5
3E3
100
AcDbEntity
  8
MAIN0
  6
CONTINUOUS
 62
3
100
AcDbLine
 10
966.1464465764059
 20
463.5469307459841
 30
0.0000000000000000
 11
972.1464465764059
 21
460.0828291308465
 31
0.0000000000000000
  0
LINE
  5
3E4
100
AcDbEntity
  8
MAIN0
  6
CONTINUOUS
 62
3
100
AcDbLine
 10
972.1464465764059
 20
460.0828291308464
 30
0.0000000000000000
 11
978.1464465764059
 21
463.5469307459841
 31
0.0000000000000000
  0
LINE
  5
3E5
100
AcDbEntity
  8
MAIN0
  6
CONTINUOUS
 62
3
100
AcDbLine
 10
978.1464465764059
 20
463.5469307459841
 30
0.0000000000000000
 11
978.1464465764059
 21
470.4751339762597
 31
0.0000000000000000
  0
LINE
  5
3E6
100
AcDbEntity
  8
MAIN0
  6
CONTINUOUS
 62
3
100
AcDbLine
 10
978.1464465764059
 20
470.4751339762597
 30
0.0000000000000000
 11
972.1464465764059
 21
473.9392355913975
 31
0.0000000000000000
  0
CIRCLE
  5
3E7
100
AcDbEntity
  8
MAIN0
  6
CONTINUOUS
 62
3
100
AcDbCircle
 10
878.3964465767567
 20
629.3907955708368
 30
0.0000000000000000
 40
10.50000000000000
  0
LINE
  5
3E8
100
AcDbEntity
  8
MAIN0
  6
CONTINUOUS
 62
3
100
AcDbLine
 10
878.3964465767568
 20
636.3189988011122
 30
0.0000000000000000
 11
872.3964465767567
 21
632.8548971859744
 31
0.0000000000000000
  0
LINE
  5
3E9
100
AcDbEntity
  8
MAIN0
  6
CONTINUOUS
 62
3
100
AcDbLine
 10
872.3964465767567
 20
632.8548971859746
 30
0.0000000000000000
 11
872.3964465767567
 21
625.9266939556990
 31
0.0000000000000000
  0
LINE
  5
3EA
100
AcDbEntity
  8
MAIN0
  6
CONTINUOUS
 62
3
100
AcDbLine
 10
872.3964465767567
 20
625.9266939556990
 30
0.0000000000000000
 11
878.3964465767567
 21
622.4625923405613
 31
0.0000000000000000
  0
LINE
  5
3EB
100
AcDbEntity
  8
MAIN0
  6
CONTINUOUS
 62
3
100
AcDbLine
 10
878.3964465767567
 20
622.4625923405613
 30
0.0000000000000000
 11
884.3964465767567
 21
625.9266939556990
 31
0.0000000000000000
  0
LINE
  5
3EC
100
AcDbEntity
  8
MAIN0
  6
CONTINUOUS
 62
3
100
AcDbLine
 10
884.3964465767567
 20
625.9266939556990
 30
0.0000000000000000
 11
884.3964465767567
 21
632.8548971859746
 31
0.0000000000000000
  0
LINE
  5
3ED
100
AcDbEntity
  8
MAIN0
  6
CONTINUOUS
 62
3
100
AcDbLine
 10
884.3964465767568
 20
632.8548971859744
 30
0.0000000000000000
 11
878.3964465767567
 21
636.3189988011122
 31
0.0000000000000000
  0
CIRCLE
  5
3EE
100
AcDbEntity
  8
MAIN0
  6
CONTINUOUS
 62
3
100
AcDbCircle
 10
690.8964465768177
 20
629.3907955712070
 30
0.0000000000000000
 40
10.50000000000000
  0
LINE
  5
3EF
100
AcDbEntity
  8
MAIN0
  6
CONTINUOUS
 62
3
100
AcDbLine
 10
690.8964465768177
 20
636.3189988014824
 30
0.0000000000000000
 11
684.8964465768177
 21
632.8548971863447
 31
0.0000000000000000
  0
LINE
  5
3F0
100
AcDbEntity
  8
MAIN0
  6
CONTINUOUS
 62
3
100
AcDbLine
 10
684.8964465768177
 20
632.8548971863447
 30
0.0000000000000000
 11
684.8964465768177
 21
625.9266939560692
 31
0.0000000000000000
  0
LINE
  5
3F1
100
AcDbEntity
  8
MAIN0
  6
CONTINUOUS
 62
3
100
AcDbLine
 10
684.8964465768175
 20
625.9266939560692
 30
0.0000000000000000
 11
690.8964465768175
 21
622.4625923409315
 31
0.0000000000000000
  0
LINE
  5
3F2
100
AcDbEntity
  8
MAIN0
  6
CONTINUOUS
 62
3
100
AcDbLine
 10
690.8964465768177
 20
622.4625923409315
 30
0.0000000000000000
 11
696.8964465768177
 21
625.9266939560691
 31
0.0000000000000000
  0
LINE
  5
3F3
100
AcDbEntity
  8
MAIN0
  6
CONTINUOUS
 62
3
100
AcDbLine
 10
696.8964465768177
 20
625.9266939560692
 30
0.0000000000000000
 11
696.8964465768177
 21
632.8548971863447
 31
0.0000000000000000
  0
LINE
  5
3F4
100
AcDbEntity
  8
MAIN0
  6
CONTINUOUS
 62
3
100
AcDbLine
 10
696.8964465768177
 20
632.8548971863447
 30
0.0000000000000000
 11
690.8964465768175
 21
636.3189988014825
 31
0.0000000000000000
  0
LINE
  5
3F5
100
AcDbEntity
  8
MAIN0
  6
HIDDEN
 62
3
100
AcDbLine
 10
338.4403814891907
 20
269.0110323614860
 30
0.0000000000000000
 11
351.0403814891907
 21
269.0110323614860
 31
0.0000000000000000
  0
LINE
  5
3F6
100
AcDbEntity
  8
MAIN0
  6
HIDDEN
 62
3
100
AcDbLine
 10
351.0403814891907
 20
269.0110323614859
 30
0.0000000000000000
 11
352.4403814891907
 21
271.4359034920823
 31
0.0000000000000000
  0
LINE
  5
3F7
100
AcDbEntity
  8
MAIN0
  6
HIDDEN
 62
3
100
AcDbLine
 10
352.4403814891907
 20
271.4359034920824
 30
0.0000000000000000
 11
352.4403814891907
 21
287.5861612308895
 31
0.0000000000000000
  0
LINE
  5
3F8
100
AcDbEntity
  8
MAIN0
  6
HIDDEN
 62
3
100
AcDbLine
 10
352.4403814891907
 20
287.5861612308894
 30
0.0000000000000000
 11
351.0403814891907
 21
290.0110323614860
 31
0.0000000000000000
  0
LINE
  5
3F9
100
AcDbEntity
  8
MAIN0
  6
HIDDEN
 62
3
100
AcDbLine
 10
351.0403814891907
 20
290.0110323614860
 30
0.0000000000000000
 11
338.4403814891907
 21
290.0110323614860
 31
0.0000000000000000
  0
LINE
  5
3FA
100
AcDbEntity
  8
MAIN0
  6
HIDDEN
 62
3
100
AcDbLine
 10
351.0403814891907
 20
269.0110323614860
 30
0.0000000000000000
 11
351.0403814891907
 21
290.0110323614860
 31
0.0000000000000000
  0
LINE
  5
3FB
100
AcDbEntity
  8
MAIN0
  6
CONTINUOUS
 62
3
100
AcDbLine
 10
208.4403814891907
 20
272.5110323614860
 30
0.0000000000000000
 11
208.4403814891907
 21
286.5110323614860
 31
0.0000000000000000
  0
LINE
  5
3FC
100
AcDbEntity
  8
MAIN0
  6
HIDDEN
 62
3
100
AcDbLine
 10
248.4403814891907
 20
272.5110323614860
 30
0.0000000000000000
 11
248.4403814891907
 21
286.5110323614860
 31
0.0000000000000000
  0
LINE
  5
3FD
100
AcDbEntity
  8
MAIN0
  6
CONTINUOUS
 62
3
100
AcDbLine
 10
235.4403814891907
 20
285.4285003614859
 30
0.0000000000000000
 11
208.4403814891907
 21
285.4285003614859
 31
0.0000000000000000
  0
LINE
  5
3FE
100
AcDbEntity
  8
MAIN0
  6
HIDDEN
 62
3
100
AcDbLine
 10
248.4403814891907
 20
285.4285003614859
 30
0.0000000000000000
 11
235.4403814891907
 21
285.4285003614859
 31
0.0000000000000000
  0
LINE
  5
3FF
100
AcDbEntity
  8
MAIN0
  6
CONTINUOUS
 62
3
100
AcDbLine
 10
208.4403814891907
 20
286.5110323614860
 30
0.0000000000000000
 11
235.4403814891907
 21
286.5110323614860
 31
0.0000000000000000
  0
LINE
  5
400
100
AcDbEntity
  8
MAIN0
  6
HIDDEN
 62
3
100
AcDbLine
 10
235.4403814891906
 20
286.5110323614860
 30
0.0000000000000000
 11
338.4403814891907
 21
286.5110323614860
 31
0.0000000000000000
  0
LINE
  5
401
100
AcDbEntity
  8
MAIN0
  6
CONTINUOUS
 62
3
100
AcDbLine
 10
235.4403814891907
 20
273.5935643614860
 30
0.0000000000000000
 11
208.4403814891907
 21
273.5935643614860
 31
0.0000000000000000
  0
LINE
  5
402
100
AcDbEntity
  8
MAIN0
  6
HIDDEN
 62
3
100
AcDbLine
 10
248.4403814891907
 20
273.5935643614860
 30
0.0000000000000000
 11
235.4403814891907
 21
273.5935643614860
 31
0.0000000000000000
  0
LINE
  5
403
100
AcDbEntity
  8
MAIN0
  6
CONTINUOUS
 62
3
100
AcDbLine
 10
235.4403814891907
 20
272.5110323614860
 30
0.0000000000000000
 11
208.4403814891907
 21
272.5110323614860
 31
0.0000000000000000
  0
LINE
  5
404
100
AcDbEntity
  8
MAIN0
  6
HIDDEN
 62
3
100
AcDbLine
 10
338.4403814891907
 20
272.5110323614860
 30
0.0000000000000000
 11
235.4403814891907
 21
272.5110323614860
 31
0.0000000000000000
  0
MTEXT
  5
405
100
AcDbEntity
  8
A0
  6
CONTINUOUS
 62
3
100
AcDbMText
 10
120.3171891295105
 20
-46.18792032139439
 30
0.0000000000000000
 40
3.750000000000000
 41
0.0000000000000000
 71
     1
 72
     1
  1
{\H0.63x;{EXTERNAL\PGRIPPING}}
 11
1.000000000000000
 21
0.0000000000000000
 31
0.0000000000000000
  7
STANDARD
  0
MTEXT
  5
406
100
AcDbEntity
  8
A0
  6
CONTINUOUS
 62
3
100
AcDbMText
 10
120.2344363056385
 20
-57.52499435274504
 30
0.0000000000000000
 40
3.750000000000000
 41
0.0000000000000000
 71
     1
 72
     1
  1
{\H0.63x;{INTERNALLY\PGRIPPING}}
 11
1.000000000000000
 21
0.0000000000000000
 31
0.0000000000000000
  7
STANDARD
  0
LINE
  5
407
100
AcDbEntity
  8
A0
  6
CONTINUOUS
 62
3
100
AcDbLine
 10
87.83657879961379
 20
-67.77196669644951
 30
0.0000000000000000
 11
215.7815448770877
 21
-67.77196669644947
 31
0.0000000000000000
  0
LINE
  5
408
100
AcDbEntity
  8
A0
  6
CONTINUOUS
 62
3
100
AcDbLine
 10
119.0231642809980
 20
-67.77196669644943
 30
0.0000000000000000
 11
119.0231642809980
 21
-45.38159763289158
 31
0.0000000000000000
  0
MTEXT
  5
409
100
AcDbEntity
  8
A0
  6
CONTINUOUS
 62
3
100
AcDbMText
 10
145.2256540108886
 20
-48.81096753909239
 30
0.0000000000000000
 40
4.519799709320068
 41
0.0000000000000000
 71
     1
 72
     1
  1
{\H0.92x;{外径把握}}
 11
1.000000000000000
 21
0.0000000000000000
 31
0.0000000000000000
  7
KNJYOKO
  0
MTEXT
  5
40A
100
AcDbEntity
  8
A0
  6
CONTINUOUS
 62
3
100
AcDbMText
 10
145.2256540108886
 20
-60.10059424668609
 30
0.0000000000000000
 40
4.649999856948853
 41
0.0000000000000000
 71
     1
 72
     1
  1
{\H0.92x;{内径把握}}
 11
1.000000000000000
 21
0.0000000000000000
 31
0.0000000000000000
  7
KNJYOKO
  0
MTEXT
  5
40B
100
AcDbEntity
  8
A0
  6
CONTINUOUS
 62
3
100
AcDbMText
 10
101.3668945763820
 20
-62.15389962682392
 30
0.0000000000000000
 40
4.500000000000000
 41
0.0000000000000000
 71
     1
 72
     1
  1
{\H0.63x;{(mm)}}
 11
1.000000000000000
 21
0.0000000000000000
 31
0.0000000000000000
  7
STANDARD
  0
MTEXT
  5
40C
100
AcDbEntity
  8
A0
  6
CONTINUOUS
 62
3
100
AcDbMText
 10
91.83485898953643
 20
-3.417248219272068
 30
0.0000000000000000
 40
5.579999685287476
 41
0.0000000000000000
 71
     1
 72
     1
  1
{\H0.94x;{許容最高回転速度　}}
 11
1.000000000000000
 21
0.0000000000000000
 31
0.0000000000000000
  7
KNJYOKO
  0
LINE
  5
40D
100
AcDbEntity
  8
A0
  6
CONTINUOUS
 62
3
100
AcDbLine
 10
119.0231642809981
 20
-56.57678216467052
 30
0.0000000000000000
 11
215.7815448770877
 21
-56.57678216467048
 31
0.0000000000000000
  0
LINE
  5
40E
100
AcDbEntity
  8
A0
  6
CONTINUOUS
 62
3
100
AcDbLine
 10
87.83657879961363
 20
41.51435849478759
 30
0.0000000000000000
 11
215.7815448770877
 21
41.51435849482636
 31
0.0000000000000000
  0
LINE
  5
40F
100
AcDbEntity
  8
A0
  6
CONTINUOUS
 62
3
100
AcDbLine
 10
87.83657879961361
 20
30.31917396300553
 30
0.0000000000000000
 11
215.7815448770877
 21
30.31917396304207
 31
0.0000000000000000
  0
LINE
  5
410
100
AcDbEntity
  8
A0
  6
CONTINUOUS
 62
3
100
AcDbLine
 10
87.83657879961372
 20
14.32605320331071
 30
0.0000000000000000
 11
215.7815448770877
 21
14.32605320333979
 31
0.0000000000000000
  0
LINE
  5
411
100
AcDbEntity
  8
A0
  6
CONTINUOUS
 62
3
100
AcDbLine
 10
87.83657879961358
 20
-1.667067556378264
 30
0.0000000000000000
 11
215.7815448770876
 21
-1.667067556352414
 31
0.0000000000000000
  0
LINE
  5
412
100
AcDbEntity
  8
A0
  6
CONTINUOUS
 62
3
100
AcDbLine
 10
87.83657879961356
 20
-18.19329234138854
 30
0.0000000000000000
 11
215.7815448770876
 21
-18.19329234136480
 31
0.0000000000000000
  0
LINE
  5
413
100
AcDbEntity
  8
A0
  6
CONTINUOUS
 62
3
100
AcDbLine
 10
87.83657879961359
 20
-29.38847687317066
 30
0.0000000000000000
 11
215.7815448770877
 21
-29.38847687314919
 31
0.0000000000000000
  0
LINE
  5
414
100
AcDbEntity
  8
A0
  6
CONTINUOUS
 62
3
100
AcDbLine
 10
87.83657879961376
 20
-45.38159763289156
 30
0.0000000000000000
 11
215.7815448770877
 21
-45.38159763289151
 31
0.0000000000000000
  0
LINE
  5
415
100
AcDbEntity
  8
A0
  6
CONTINUOUS
 62
3
100
AcDbLine
 10
87.83657879961368
 20
-67.77196669644948
 30
0.0000000000000000
 11
87.83657879961368
 21
41.51435849473162
 31
0.0000000000000000
  0
LINE
  5
416
100
AcDbEntity
  8
A0
  6
CONTINUOUS
 62
3
100
AcDbLine
 10
167.8021825980350
 20
-67.77196669644943
 30
0.0000000000000000
 11
167.8021825980350
 21
30.31917396302788
 31
0.0000000000000000
  0
LINE
  5
417
100
AcDbEntity
  8
A0
  6
CONTINUOUS
 62
3
100
AcDbLine
 10
215.7815448770876
 20
-67.77196669644943
 30
0.0000000000000000
 11
215.7815448770876
 21
41.51435849473162
 31
0.0000000000000000
  0
MTEXT
  5
418
100
AcDbEntity
  8
A0
  6
CONTINUOUS
 62
3
100
AcDbMText
 10
91.83485898953660
 20
29.10209839831080
 30
0.0000000000000000
 40
5.580000758171082
 41
0.0000000000000000
 71
     1
 72
     1
  1
{\H0.94x;{許容最大ハンドルトルク}}
 11
1.000000000000000
 21
0.0000000000000000
 31
0.0000000000000000
  7
KNJYOKO
  0
MTEXT
  5
419
100
AcDbEntity
  8
A0
  6
CONTINUOUS
 62
3
100
AcDbMText
 10
91.83485898953646
 20
13.10897763862184
 30
0.0000000000000000
 40
5.580000758171082
 41
0.0000000000000000
 71
     1
 72
     1
  1
{\H0.94x;{最大静的把握力}}
 11
1.000000000000000
 21
0.0000000000000000
 31
0.0000000000000000
  7
KNJYOKO
  0
MTEXT
  5
41A
100
AcDbEntity
  8
A0
  6
CONTINUOUS
 62
3
100
AcDbMText
 10
91.03520295155067
 20
-20.60985196306274
 30
0.0000000000000000
 40
5.580000758171082
 41
0.0000000000000000
 71
     1
 72
     1
  1
{\H0.90x;{質量}}
 11
1.000000000000000
 21
0.0000000000000000
 31
0.0000000000000000
  7
KNJYOKO
  0
MTEXT
  5
41B
100
AcDbEntity
  8
A0
  6
CONTINUOUS
 62
3
100
AcDbMText
 10
91.03520295155067
 20
-31.70400460882587
 30
0.0000000000000000
 40
5.580000758171082
 41
0.0000000000000000
 71
     1
 72
     1
  1
{\H0.94x;{慣性モーメント}}
 11
1.000000000000000
 21
0.0000000000000000
 31
0.0000000000000000
  7
KNJYOKO
  0
MTEXT
  5
41C
100
AcDbEntity
  8
A0
  6
CONTINUOUS
 62
3
100
AcDbMText
 10
93.00978503921402
 20
-46.64311990206247
 30
0.0000000000000000
 40
5.580000758171082
 41
0.0000000000000000
 71
     1
 72
     1
  1
{\H0.92x;{把握径}}
 11
1.000000000000000
 21
0.0000000000000000
 31
0.0000000000000000
  7
KNJYOKO
  0
MTEXT
  5
41D
100
AcDbEntity
  8
A0
  6
CONTINUOUS
 62
3
100
AcDbMText
 10
96.89828210041395
 20
39.20355682643171
 30
0.0000000000000000
 40
7.500000000000000
 41
0.0000000000000000
 71
     1
 72
     1
  1
{\H0.91x;{仕　様}}
 11
1.000000000000000
 21
0.0000000000000000
 31
0.0000000000000000
  7
KNJYOKO
  0
MTEXT
  5
41E
100
AcDbEntity
  8
A0
  6
CONTINUOUS
 62
3
100
AcDbMText
 10
138.2135349244012
 20
38.90375900683429
 30
0.0000000000000000
 40
5.579999685287476
 41
0.0000000000000000
 71
     1
 72
     1
  1
{\H0.93x;{SPECIFICATIONS}}
 11
1.000000000000000
 21
0.0000000000000000
 31
0.0000000000000000
  7
STANDARD
  0
MTEXT
  5
41F
100
AcDbEntity
  8
A0
  6
CONTINUOUS
 62
3
100
AcDbMText
 10
91.83485898953434
 20
20.54394329827122
 30
0.0000000000000000
 40
4.218750000000000
 41
0.0000000000000000
 71
     1
 72
     1
  1
{\H0.62x;{MAX.PERMISSIBLE HANDLE TORQUE}}
 11
1.000000000000000
 21
0.0000000000000000
 31
0.0000000000000000
  7
STANDARD
  0
MTEXT
  5
420
100
AcDbEntity
  8
A0
  6
CONTINUOUS
 62
3
100
AcDbMText
 10
91.83485898953421
 20
4.832072538582253
 30
0.0000000000000000
 40
4.500000000000000
 41
0.0000000000000000
 71
     1
 72
     1
  1
{\H0.63x;{MAX STATIC GRIPPING FORCE}}
 11
1.000000000000000
 21
0.0000000000000000
 31
0.0000000000000000
  7
STANDARD
  0
MTEXT
  5
421
100
AcDbEntity
  8
A0
  6
CONTINUOUS
 62
3
100
AcDbMText
 10
91.83485898953418
 20
-11.69415224642805
 30
0.0000000000000000
 40
4.500000000000000
 41
0.0000000000000000
 71
     1
 72
     1
  1
{\H0.63x;{MAX PREMISSIBLE SPEED}}
 11
1.000000000000000
 21
0.0000000000000000
 31
0.0000000000000000
  7
STANDARD
  0
MTEXT
  5
422
100
AcDbEntity
  8
A0
  6
CONTINUOUS
 62
3
100
AcDbMText
 10
88.95926957398984
 20
-55.60202886328798
 30
0.0000000000000000
 40
3.750000000000000
 41
0.0000000000000000
 71
     1
 72
     1
  1
{\H0.54x;{GRIPPING RANGE}}
 11
1.000000000000000
 21
0.0000000000000000
 31
0.0000000000000000
  7
STANDARD
  0
MTEXT
  5
423
100
AcDbEntity
  8
A0
  6
CONTINUOUS
 62
3
100
AcDbMText
 10
118.0672947781950
 20
-20.53182497705797
 30
0.0000000000000000
 40
5.580000758171082
 41
0.0000000000000000
 71
     1
 72
     1
  1
{\H0.91x;{MASS}}
 11
1.000000000000000
 21
0.0000000000000000
 31
0.0000000000000000
  7
STANDARD
  0
MTEXT
  5
424
100
AcDbEntity
  8
A0
  6
CONTINUOUS
 62
3
100
AcDbMText
 10
171.0008067499718
 20
27.77226947804360
 30
0.0000000000000000
 40
4.649999856948853
 41
0.0000000000000000
 71
     1
 72
     1
  1
{\H0.90x;{245}}
 11
1.000000000000000
 21
0.0000000000000000
 31
0.0000000000000000
  7
STANDARD
  0
MTEXT
  5
425
100
AcDbEntity
  8
A0
  6
CONTINUOUS
 62
3
100
AcDbMText
 10
175.7987429778771
 20
20.57536513618567
 30
0.0000000000000000
 40
4.649999856948853
 41
0.0000000000000000
 71
     1
 72
     1
  1
{\H0.81x;{25.0}}
 11
1.000000000000000
 21
0.0000000000000000
 31
0.0000000000000000
  7
STANDARD
  0
MTEXT
  5
426
100
AcDbEntity
  8
A0
  6
CONTINUOUS
 62
3
100
AcDbMText
 10
189.2987429778771
 20
19.37536413482764
 30
0.0000000000000000
 40
4.199998855590820
 41
0.0000000000000000
 71
     1
 72
     1
  1
{\H0.58x;{　ｋｇｆ・ｍ）}}
 11
1.000000000000000
 21
0.0000000000000000
 31
0.0000000000000000
  7
KNJYOKO
  0
MTEXT
  5
427
100
AcDbEntity
  8
A0
  6
CONTINUOUS
 62
3
100
AcDbMText
 10
171.2987429778771
 20
19.37536413482764
 30
0.0000000000000000
 40
4.199998855590820
 41
0.0000000000000000
 71
     1
 72
     1
  1
{\H0.48x;{（}}
 11
1.000000000000000
 21
0.0000000000000000
 31
0.0000000000000000
  7
KNJYOKO
  0
MTEXT
  5
428
100
AcDbEntity
  8
A0
  6
CONTINUOUS
 62
3
100
AcDbMText
 10
190.5008067499718
 20
25.82226847668557
 30
0.0000000000000000
 40
4.199998855590820
 41
0.0000000000000000
 71
     1
 72
     1
  1
{\H0.58x;{　　　Ｎ・ｍ}}
 11
1.000000000000000
 21
0.0000000000000000
 31
0.0000000000000000
  7
KNJYOKO
  0
MTEXT
  5
429
100
AcDbEntity
  8
A0
  6
CONTINUOUS
 62
3
100
AcDbMText
 10
190.5008067499718
 20
9.829147717001121
 30
0.0000000000000000
 40
4.199998855590820
 41
0.0000000000000000
 71
     1
 72
     1
  1
{\H0.58x;{　　　　ｋＮ}}
 11
1.000000000000000
 21
0.0000000000000000
 31
0.0000000000000000
  7
KNJYOKO
  0
MTEXT
  5
42A
100
AcDbEntity
  8
A0
  6
CONTINUOUS
 62
3
100
AcDbMText
 10
189.0008067499718
 20
3.829147717001121
 30
0.0000000000000000
 40
4.199998855590820
 41
0.0000000000000000
 71
     1
 72
     1
  1
{\H0.58x;{　　　ｋｇｆ）}}
 11
1.000000000000000
 21
0.0000000000000000
 31
0.0000000000000000
  7
KNJYOKO
  0
MTEXT
  5
42B
100
AcDbEntity
  8
A0
  6
CONTINUOUS
 62
3
100
AcDbMText
 10
175.5008067499718
 20
5.029148718359153
 30
0.0000000000000000
 40
4.649999856948853
 41
0.0000000000000000
 71
     1
 72
     1
  1
{\H0.91x;{4589}}
 11
1.000000000000000
 21
0.0000000000000000
 31
0.0000000000000000
  7
STANDARD
  0
MTEXT
  5
42C
100
AcDbEntity
  8
A0
  6
CONTINUOUS
 62
3
100
AcDbMText
 10
171.0008067499718
 20
3.829147717001121
 30
0.0000000000000000
 40
4.199998855590820
 41
0.0000000000000000
 71
     1
 72
     1
  1
{\H0.48x;{（}}
 11
1.000000000000000
 21
0.0000000000000000
 31
0.0000000000000000
  7
KNJYOKO
  0
MTEXT
  5
42D
100
AcDbEntity
  8
A0
  6
CONTINUOUS
 62
3
100
AcDbMText
 10
171.0008067499718
 20
11.77914871835915
 30
0.0000000000000000
 40
4.649999856948853
 41
0.0000000000000000
 71
     1
 72
     1
  1
{\H0.88x;{45}}
 11
1.000000000000000
 21
0.0000000000000000
 31
0.0000000000000000
  7
STANDARD
  0
MTEXT
  5
42E
100
AcDbEntity
  8
A0
  6
CONTINUOUS
 62
3
100
AcDbMText
 10
171.0008067499718
 20
-14.66362793625817
 30
0.0000000000000000
 40
4.649999856948853
 41
0.0000000000000000
 71
     7
 72
     1
  1
{1500 min}
 11
1.000000000000000
 21
0.0000000000000000
 31
0.0000000000000000
  7
STANDARD
  0
MTEXT
  5
42F
100
AcDbEntity
  8
A0
  6
CONTINUOUS
 62
3
100
AcDbMText
 10
204.2908077251038
 20
-12.33862800778374
 30
0.0000000000000000
 40
2.324999928474426
 41
0.0000000000000000
 71
     7
 72
     1
  1
{-1}
 11
1.000000000000000
 21
0.0000000000000000
 31
0.0000000000000000
  7
STANDARD
  0
MTEXT
  5
430
100
AcDbEntity
  8
A0
  6
CONTINUOUS
 62
3
100
AcDbMText
 10
171.0008067499718
 20
-21.53985286431643
 30
0.0000000000000000
 40
4.649999856948853
 41
0.0000000000000000
 71
     1
 72
     1
  1
{\H0.88x;{74}}
 11
1.000000000000000
 21
0.0000000000000000
 31
0.0000000000000000
  7
STANDARD
  0
MTEXT
  5
431
100
AcDbEntity
  8
A0
  6
CONTINUOUS
 62
3
100
AcDbMText
 10
190.5008067499718
 20
-23.48985386567446
 30
0.0000000000000000
 40
4.199998855590820
 41
0.0000000000000000
 71
     1
 72
     1
  1
{\H0.58x;{　　　　ｋｇ}}
 11
1.000000000000000
 21
0.0000000000000000
 31
0.0000000000000000
  7
KNJYOKO
  0
MTEXT
  5
432
100
AcDbEntity
  8
A0
  6
CONTINUOUS
 62
3
100
AcDbMText
 10
171.2987429778771
 20
-34.63400551004810
 30
0.0000000000000000
 40
4.649999856948853
 41
0.0000000000000000
 71
     1
 72
     1
  1
{\H0.84x;{1.725}}
 11
1.000000000000000
 21
0.0000000000000000
 31
0.0000000000000000
  7
STANDARD
  0
MTEXT
  5
433
100
AcDbEntity
  8
A0
  6
CONTINUOUS
 62
3
100
AcDbMText
 10
190.7987429778771
 20
-36.58400651140613
 30
0.0000000000000000
 40
4.199998855590820
 41
0.0000000000000000
 71
     1
 72
     1
  1
{\H0.64x;{　　kg・m}}
 11
1.000000000000000
 21
0.0000000000000000
 31
0.0000000000000000
  7
KNJYOKO
  0
MTEXT
  5
434
100
AcDbEntity
  8
A0
  6
CONTINUOUS
 62
3
100
AcDbMText
 10
208.6645619398123
 20
-36.20065062470843
 30
0.0000000000000000
 40
3.000000000000000
 41
0.0000000000000000
 71
     1
 72
     1
  1
{\H0.81x;{2}}
 11
1.000000000000000
 21
0.0000000000000000
 31
0.0000000000000000
  7
STANDARD
  0
MTEXT
  5
435
100
AcDbEntity
  8
A0
  6
CONTINUOUS
 62
3
100
AcDbMText
 10
171.0008067499255
 20
-48.72815815578483
 30
0.0000000000000000
 40
4.649999856948853
 41
0.0000000000000000
 71
     1
 72
     1
  1
{\H0.93x;{\U+220525～\U+2205360}}
 11
1.000000000000000
 21
0.0000000000000000
 31
0.0000000000000000
  7
KNJYOKO
  0
MTEXT
  5
436
100
AcDbEntity
  8
A0
  6
CONTINUOUS
 62
3
100
AcDbMText
 10
171.0008067499255
 20
-59.92334268756386
 30
0.0000000000000000
 40
4.649999856948853
 41
0.0000000000000000
 71
     1
 72
     1
  1
{\H0.93x;{\U+2205113～\U+2205340}}
 11
1.000000000000000
 21
0.0000000000000000
 31
0.0000000000000000
  7
KNJYOKO
  0
MTEXT
  5
437
100
AcDbEntity
  8
A0
  6
CONTINUOUS
 62
3
100
AcDbMText
 10
91.14802099792645
 20
-38.26134548730423
 30
0.0000000000000000
 40
4.649999856948853
 41
0.0000000000000000
 71
     1
 72
     1
  1
{\H0.71x;{MOMENT OF INERTIA}}
 11
1.000000000000000
 21
0.0000000000000000
 31
0.0000000000000000
  7
STANDARD
  0
MTEXT
  5
438
100
AcDbEntity
  8
A0
  6
CONTINUOUS
 62
3
100
AcDbMText
 10
87.90449269107367
 20
-69.40158919220957
 30
0.0000000000000000
 40
4.650000572204590
 41
0.0000000000000000
 71
     1
 72
     1
  1
{\H0.95x;{○上記仕様は許容最大ハンドルトルク締込時の場合}}
 11
1.000000000000000
 21
0.0000000000000000
 31
0.0000000000000000
  7
KNJYOKO
  0
LINE
  5
439
100
AcDbEntity
  8
WAKU0
  6
CONTINUOUS
 62
3
100
AcDbLine
 10
240.0000000000000
 20
51.00000000000000
 30
0.0000000000000000
 11
410.0000000000000
 21
51.00000000000000
 31
0.0000000000000000
  0
LINE
  5
43A
100
AcDbEntity
  8
WAKU0
  6
CONTINUOUS
 62
3
100
AcDbLine
 10
240.0000000000000
 20
51.00000000000000
 30
0.0000000000000000
 11
240.0000000000000
 21
12.00000000000000
 31
0.0000000000000000
  0
LINE
  5
43B
100
AcDbEntity
  8
WAKU0
  6
CONTINUOUS
 62
3
100
AcDbLine
 10
312.0000000000000
 20
51.00000000000000
 30
0.0000000000000000
 11
312.0000000000000
 21
12.00000000000000
 31
0.0000000000000000
  0
LINE
  5
43C
100
AcDbEntity
  8
WAKU0
  6
CONTINUOUS
 62
3
100
AcDbLine
 10
332.0000000000000
 20
51.00000000000000
 30
0.0000000000000000
 11
332.0000000000000
 21
12.00000000000000
 31
0.0000000000000000
  0
LINE
  5
43D
100
AcDbEntity
  8
WAKU0
  6
CONTINUOUS
 62
3
100
AcDbLine
 10
344.0000000000000
 20
51.00000000000000
 30
0.0000000000000000
 11
344.0000000000000
 21
12.00000000000000
 31
0.0000000000000000
  0
LINE
  5
43E
100
AcDbEntity
  8
WAKU0
  6
CONTINUOUS
 62
3
100
AcDbLine
 10
344.0000000000000
 20
37.00000000000000
 30
0.0000000000000000
 11
410.0000000000000
 21
37.00000000000000
 31
0.0000000000000000
  0
LINE
  5
43F
100
AcDbEntity
  8
WAKU0
  6
CONTINUOUS
 62
3
100
AcDbLine
 10
332.0000000000000
 20
23.00000000000000
 30
0.0000000000000000
 11
410.0000000000000
 21
23.00000000000000
 31
0.0000000000000000
  0
LINE
  5
440
100
AcDbEntity
  8
WAKU0
  6
CONTINUOUS
 62
3
100
AcDbLine
 10
375.0000000000000
 20
51.00000000000000
 30
0.0000000000000000
 11
375.0000000000000
 21
44.00000000000000
 31
0.0000000000000000
  0
LINE
  5
441
100
AcDbEntity
  8
WAKU0
  6
CONTINUOUS
 62
3
100
AcDbLine
 10
387.0000000000000
 20
51.00000000000000
 30
0.0000000000000000
 11
387.0000000000000
 21
44.00000000000000
 31
0.0000000000000000
  0
LINE
  5
442
100
AcDbEntity
  8
WAKU0
  6
CONTINUOUS
 62
3
100
AcDbLine
 10
312.0000000000000
 20
31.50000000000000
 30
0.0000000000000000
 11
332.0000000000000
 21
31.50000000000000
 31
0.0000000000000000
  0
LINE
  5
443
100
AcDbEntity
  8
WAKU0
  6
CONTINUOUS
 62
3
100
AcDbLine
 10
332.0000000000000
 20
44.00000000000000
 30
0.0000000000000000
 11
410.0000000000000
 21
44.00000000000000
 31
0.0000000000000000
  0
LINE
  5
444
100
AcDbEntity
  8
WAKU0
  6
CONTINUOUS
 62
3
100
AcDbLine
 10
240.0000000000000
 20
37.00000000000000
 30
0.0000000000000000
 11
312.0000000000000
 21
37.00000000000000
 31
0.0000000000000000
  0
LINE
  5
445
100
AcDbEntity
  8
WAKU0
  6
CONTINUOUS
 62
3
100
AcDbLine
 10
240.0000000000000
 20
23.00000000000000
 30
0.0000000000000000
 11
312.0000000000000
 21
23.00000000000000
 31
0.0000000000000000
  0
LINE
  5
446
100
AcDbEntity
  8
WAKU0
  6
CONTINUOUS
 62
3
100
AcDbLine
 10
288.0000000000000
 20
37.00000000000000
 30
0.0000000000000000
 11
288.0000000000000
 21
12.00000000000000
 31
0.0000000000000000
  0
LINE
  5
447
100
AcDbEntity
  8
WAKU0
  6
CONTINUOUS
 62
3
100
AcDbLine
 10
264.0000000000000
 20
37.00000000000000
 30
0.0000000000000000
 11
264.0000000000000
 21
23.00000000000000
 31
0.0000000000000000
  0
LINE
  5
448
100
AcDbEntity
  8
WAKU0
  6
CONTINUOUS
 62
3
100
AcDbLine
 10
300.0000000000000
 20
26.00000000000000
 30
0.0000000000000000
 11
300.0000000000000
 21
23.00000000000000
 31
0.0000000000000000
  0
LINE
  5
449
100
AcDbEntity
  8
WAKU0
  6
CONTINUOUS
 62
3
100
AcDbLine
 10
276.0000000000000
 20
26.00000000000000
 30
0.0000000000000000
 11
276.0000000000000
 21
23.00000000000000
 31
0.0000000000000000
  0
LINE
  5
44A
100
AcDbEntity
  8
WAKU0
  6
CONTINUOUS
 62
3
100
AcDbLine
 10
252.0000000000000
 20
26.00000000000000
 30
0.0000000000000000
 11
252.0000000000000
 21
23.00000000000000
 31
0.0000000000000000
  0
LINE
  5
44B
100
AcDbEntity
  8
WAKU0
  6
CONTINUOUS
 62
3
100
AcDbLine
 10
258.0000000000000
 20
51.00000000000000
 30
0.0000000000000000
 11
258.0000000000000
 21
37.00000000000000
 31
0.0000000000000000
  0
LINE
  5
44C
100
AcDbEntity
  8
WAKU0
  6
CONTINUOUS
 62
3
100
AcDbLine
 10
240.0000000000000
 20
45.00000000000000
 30
0.0000000000000000
 11
312.0000000000000
 21
45.00000000000000
 31
0.0000000000000000
  0
LINE
  5
44D
100
AcDbEntity
  8
WAKU0
  6
HIDDEN
 62
3
100
AcDbLine
 10
360.5000000000000
 20
23.00000000000000
 30
0.0000000000000000
 11
360.5000000000000
 21
12.00000000000000
 31
0.0000000000000000
  0
LINE
  5
44E
100
AcDbEntity
  8
WAKU0
  6
HIDDEN
 62
3
100
AcDbLine
 10
372.9000000000000
 20
23.00000000000000
 30
0.0000000000000000
 11
372.9000000000000
 21
12.00000000000000
 31
0.0000000000000000
  0
MTEXT
  5
44F
100
AcDbEntity
  8
WAKU0
  6
CONTINUOUS
 62
3
100
AcDbMText
 10
344.4820000243485
 20
49.04999995231628
 30
0.0000000000000000
 40
3.099999904632568
 41
0.0000000000000000
 71
     1
 72
     1
  1
{\H0.93x;{SC-16-113}}
 11
1.000000000000000
 21
0.0000000000000000
 31
0.0000000000000000
  7
STANDARD
  0
MTEXT
  5
450
100
AcDbEntity
  8
WAKU0
  6
CONTINUOUS
 62
3
100
AcDbMText
 10
348.4499999843538
 20
42.04999995231628
 30
0.0000000000000000
 40
3.099999904632568
 41
0.0000000000000000
 71
     1
 72
     1
  1
{\H0.71x;{スクロールチャック　ＳＣＲＯＬＬ　ＣＨＵＣＫ}}
 11
1.000000000000000
 21
0.0000000000000000
 31
0.0000000000000000
  7
KNJYOKO
  0
MTEXT
  5
451
100
AcDbEntity
  8
WAKU0
  6
CONTINUOUS
 62
3
100
AcDbMText
 10
352.8299994468689
 20
34.23333326975504
 30
0.0000000000000000
 40
3.099999904632568
 41
0.0000000000000000
 71
     1
 72
     1
  1
{\H0.94x;{ＳＣ－１６－１１３　ガイケイ\P　ＯＵＴＳＩＤＥ　ＶＩＥＷ}}
 11
1.000000000000000
 21
0.0000000000000000
 31
0.0000000000000000
  7
KNJYOKO
  0
MTEXT
  5
452
100
AcDbEntity
  8
WAKU0
  6
CONTINUOUS
 62
3
100
AcDbMText
 10
318.0049998760223
 20
39.29999995231628
 30
0.0000000000000000
 40
3.099999904632568
 41
0.0000000000000000
 71
     1
 72
     1
  1
{\H0.90x;{1:3}}
 11
1.000000000000000
 21
0.0000000000000000
 31
0.0000000000000000
  7
STANDARD
  0
MTEXT
  5
453
100
AcDbEntity
  8
WAKU0
  6
CONTINUOUS
 62
3
100
AcDbMText
 10
374.4000001549721
 20
20.15000009536743
 30
0.0000000000000000
 40
5.300000190734863
 41
0.0000000000000000
 71
     1
 72
     1
  1
{\H0.90x;{7678}}
 11
1.000000000000000
 21
0.0000000000000000
 31
0.0000000000000000
  7
STANDARD
  0
MTEXT
  5
454
100
AcDbEntity
  8
WAKU0
  6
CONTINUOUS
 62
3
100
AcDbMText
 10
362.3000000834465
 20
20.15000009536743
 30
0.0000000000000000
 40
5.300000190734863
 41
0.0000000000000000
 71
     1
 72
     1
  1
{\H0.87x;{38}}
 11
1.000000000000000
 21
0.0000000000000000
 31
0.0000000000000000
  7
STANDARD
  0
MTEXT
  5
455
100
AcDbEntity
  8
WAKU0
  6
CONTINUOUS
 62
3
100
AcDbMText
 10
345.5000001192093
 20
20.15000009536743
 30
0.0000000000000000
 40
5.300000190734863
 41
0.0000000000000000
 71
     1
 72
     1
  1
{\H0.89x;{61S}}
 11
1.000000000000000
 21
0.0000000000000000
 31
0.0000000000000000
  7
STANDARD
  0
MTEXT
  5
456
100
AcDbEntity
  8
WAKU0
  6
CONTINUOUS
 62
3
100
AcDbMText
 10
400.0000000476837
 20
20.15000009536743
 30
0.0000000000000000
 40
5.300000190734863
 41
0.0000000000000000
 71
     1
 72
     1
  1
{\H0.81x;{1}}
 11
1.000000000000000
 21
0.0000000000000000
 31
0.0000000000000000
  7
STANDARD
  0
MTEXT
  5
457
100
AcDbEntity
  8
WAKU0
  6
CONTINUOUS
 62
3
100
AcDbMText
 10
400.0000000819564
 20
44.84999990463257
 30
0.0000000000000000
 40
5.300000190734863
 41
0.0000000000000000
 71
     7
 72
     1
  1
{\H0.81x;{ }}
 11
1.000000000000000
 21
0.0000000000000000
 31
0.0000000000000000
  7
STANDARD
  0
MTEXT
  5
458
100
AcDbEntity
  8
WAKU0
  6
CONTINUOUS
 62
3
100
AcDbMText
 10
289.3850002884865
 20
33.00000000000000
 30
0.0000000000000000
 40
3.000000000000000
 41
0.0000000000000000
 71
     7
 72
     1
  1
{\H0.93x;{DRAWN BY}}
 11
1.000000000000000
 21
0.0000000000000000
 31
0.0000000000000000
  7
STANDARD
  0
MTEXT
  5
459
100
AcDbEntity
  8
WAKU0
  6
CONTINUOUS
 62
3
100
AcDbMText
 10
269.2149997949600
 20
32.95000004768372
 30
0.0000000000000000
 40
3.099999904632568
 41
0.0000000000000000
 71
     7
 72
     1
  1
{\H0.92x;{CHIEF}}
 11
1.000000000000000
 21
0.0000000000000000
 31
0.0000000000000000
  7
STANDARD
  0
MTEXT
  5
45A
100
AcDbEntity
  8
WAKU0
  6
CONTINUOUS
 62
3
100
AcDbMText
 10
242.4249997138977
 20
32.95000004768372
 30
0.0000000000000000
 40
3.099999904632568
 41
0.0000000000000000
 71
     7
 72
     1
  1
{\H0.92x;{MANAGER}}
 11
1.000000000000000
 21
0.0000000000000000
 31
0.0000000000000000
  7
STANDARD
  0
MTEXT
  5
45B
100
AcDbEntity
  8
WAKU0
  6
CONTINUOUS
 62
3
100
AcDbMText
 10
244.6599994301796
 20
18.13333336512248
 30
0.0000000000000000
 40
3.099999904632568
 41
0.0000000000000000
 71
     7
 72
     1
  1
{\H0.93x;{KITAGAWA IRON\PWORKS CO.,LTD.}}
 11
1.000000000000000
 21
0.0000000000000000
 31
0.0000000000000000
  7
STANDARD
  0
MTEXT
  5
45C
100
AcDbEntity
  8
WAKU0
  6
CONTINUOUS
 62
3
100
AcDbMText
 10
241.0850002169609
 20
46.50000000000000
 30
0.0000000000000000
 40
3.000000000000000
 41
0.0000000000000000
 71
     7
 72
     1
  1
{\H0.92x;{CAREER}}
 11
1.000000000000000
 21
0.0000000000000000
 31
0.0000000000000000
  7
STANDARD
  0
MTEXT
  5
45D
100
AcDbEntity
  8
WAKU0
  6
CONTINUOUS
 62
3
100
AcDbMText
 10
294.6099998354912
 20
18.95000004768372
 30
0.0000000000000000
 40
3.099999904632568
 41
0.0000000000000000
 71
     7
 72
     1
  1
{\H0.91x;{DATE}}
 11
1.000000000000000
 21
0.0000000000000000
 31
0.0000000000000000
  7
STANDARD
  0
MTEXT
  5
45E
100
AcDbEntity
  8
WAKU0
  6
CONTINUOUS
 62
3
100
AcDbMText
 10
313.9000002145767
 20
26.50000000000000
 30
0.0000000000000000
 40
3.000000000000000
 41
0.0000000000000000
 71
     7
 72
     1
  1
{\H0.63x;{3RD ANGLE}}
 11
1.000000000000000
 21
0.0000000000000000
 31
0.0000000000000000
  7
STANDARD
  0
MTEXT
  5
45F
100
AcDbEntity
  8
WAKU0
  6
CONTINUOUS
 62
3
100
AcDbMText
 10
315.2149997949600
 20
45.95000004768372
 30
0.0000000000000000
 40
3.099999904632568
 41
0.0000000000000000
 71
     7
 72
     1
  1
{\H0.92x;{SCALE}}
 11
1.000000000000000
 21
0.0000000000000000
 31
0.0000000000000000
  7
STANDARD
  0
MTEXT
  5
460
100
AcDbEntity
  8
WAKU0
  6
CONTINUOUS
 62
3
100
AcDbMText
 10
405.7000000476837
 20
46.00000000000000
 30
0.0000000000000000
 40
3.000000000000000
 41
0.0000000000000000
 71
     7
 72
     1
  1
{\H0.63x;{kg}}
 11
1.000000000000000
 21
0.0000000000000000
 31
0.0000000000000000
  7
STANDARD
  0
MTEXT
  5
461
100
AcDbEntity
  8
WAKU0
  6
CONTINUOUS
 62
3
100
AcDbMText
 10
375.6000001430512
 20
46.00000000000000
 30
0.0000000000000000
 40
3.000000000000000
 41
0.0000000000000000
 71
     7
 72
     1
  1
{\H0.63x;{WEIGHT}}
 11
1.000000000000000
 21
0.0000000000000000
 31
0.0000000000000000
  7
STANDARD
  0
MTEXT
  5
462
100
AcDbEntity
  8
WAKU0
  6
CONTINUOUS
 62
3
100
AcDbMText
 10
334.0049998760223
 20
18.13333336512248
 30
0.0000000000000000
 40
3.099999904632568
 41
0.0000000000000000
 71
     7
 72
     1
  1
{\H0.90x;{DRW\PNO.}}
 11
1.000000000000000
 21
0.0000000000000000
 31
0.0000000000000000
  7
STANDARD
  0
MTEXT
  5
463
100
AcDbEntity
  8
WAKU0
  6
CONTINUOUS
 62
3
100
AcDbMText
 10
332.6099998354912
 20
31.95000004768372
 30
0.0000000000000000
 40
3.099999904632568
 41
0.0000000000000000
 71
     7
 72
     1
  1
{\H0.91x;{NAME}}
 11
1.000000000000000
 21
0.0000000000000000
 31
0.0000000000000000
  7
STANDARD
  0
MTEXT
  5
464
100
AcDbEntity
  8
WAKU0
  6
CONTINUOUS
 62
3
100
AcDbMText
 10
332.6099998354912
 20
45.95000004768372
 30
0.0000000000000000
 40
3.099999904632568
 41
0.0000000000000000
 71
     7
 72
     1
  1
{\H0.91x;{TYPE}}
 11
1.000000000000000
 21
0.0000000000000000
 31
0.0000000000000000
  7
STANDARD
  0
LINE
  5
465
100
AcDbEntity
  8
WAKU0
  6
HIDDEN
 62
3
100
AcDbLine
 10
407.1599564743885
 20
13.84999990463257
 30
0.0000000000000000
 11
396.9400436209789
 21
13.84999990463257
 31
0.0000000000000000
  0
LINE
  5
466
100
AcDbEntity
  8
WAKU0
  6
HIDDEN
 62
3
100
AcDbLine
 10
407.1599564743885
 20
13.84999990463250
 30
0.0000000000000000
 11
402.0500000476852
 21
22.70070406014901
 31
0.0000000000000000
  0
LINE
  5
467
100
AcDbEntity
  8
WAKU0
  6
HIDDEN
 62
3
100
AcDbLine
 10
402.0500000476852
 20
22.70070406014902
 30
0.0000000000000000
 11
396.9400436209789
 21
13.84999990463248
 31
0.0000000000000000
  0
LINE
  5
468
100
AcDbEntity
  8
WAKU0
  6
CONTINUOUS
 62
3
100
AcDbLine
 10
330.4713877753800
 20
15.78041421262812
 30
0.0000000000000000
 11
330.4713877753800
 21
21.78041421262815
 31
0.0000000000000000
  0
LINE
  5
469
100
AcDbEntity
  8
WAKU0
  6
CONTINUOUS
 62
3
100
AcDbLine
 10
323.9336941228225
 20
17.28041421262811
 30
0.0000000000000000
 11
323.9336941228225
 21
20.28041421262824
 31
0.0000000000000000
  0
LINE
  5
46A
100
AcDbEntity
  8
WAKU0
  6
CENTER
 62
12
100
AcDbLine
 10
313.4321805514995
 20
18.78041421262813
 30
0.0000000000000000
 11
331.2765788964694
 21
18.78041421262813
 31
0.0000000000000000
  0
LINE
  5
46B
100
AcDbEntity
  8
WAKU0
  6
CENTER
 62
12
100
AcDbLine
 10
317.4474565857986
 20
14.55921662918448
 30
0.0000000000000000
 11
317.4474565857986
 21
22.89865102149943
 31
0.0000000000000000
  0
LINE
  5
46C
100
AcDbEntity
  8
WAKU0
  6
CONTINUOUS
 62
3
100
AcDbLine
 10
323.9336941228225
 20
20.28041421262797
 30
0.0000000000000000
 11
330.4713877753800
 21
21.78041421262795
 31
0.0000000000000000
  0
LINE
  5
46D
100
AcDbEntity
  8
WAKU0
  6
CONTINUOUS
 62
3
100
AcDbLine
 10
323.9336941228225
 20
17.28041421262811
 30
0.0000000000000000
 11
330.4713877753799
 21
15.78041421262812
 31
0.0000000000000000
  0
CIRCLE
  5
46E
100
AcDbEntity
  8
WAKU0
  6
CONTINUOUS
 62
3
100
AcDbCircle
 10
317.4474565857986
 20
18.78041421262813
 30
0.0000000000000000
 40
1.499999999999972
  0
CIRCLE
  5
46F
100
AcDbEntity
  8
WAKU0
  6
CONTINUOUS
 62
3
100
AcDbCircle
 10
317.4474565857986
 20
18.78041421262813
 30
0.0000000000000000
 40
2.999999999999979
  0
ENDSEC
  0
SECTION
  2
OBJECTS
  0
DICTIONARY
  5
4B9
100
AcDbDictionary
  3
ACAD_GROUP
350
4BA
  3
ACAD_MLINESTYLE
350
4BB
  3
DWGPROPS
350
4BC
  0
DICTIONARY
  5
4BA
102
{ACAD_REACTORS
330
4B9
102
}
100
AcDbDictionary
  0
DICTIONARY
  5
4BB
102
{ACAD_REACTORS
330
4B9
102
}
100
AcDbDictionary
  3
STANDARD
350
4BD
  0
MLINESTYLE
  5
4BD
102
{ACAD_REACTORS
330
4BB
102
}
100
AcDbMlineStyle
  2
STANDARD
 70
     0
  3

 62
   256
 51
90.00
 52
90.00
 71
     2
 49
0.50
 62
   256
  6
BYLAYER
 49
-0.50
 62
   256
  6
BYLAYER
  0
XRECORD
  5
4BC
102
{ACAD_REACTORS
330
4B9
102
}
100
AcDbXrecord
280
     1
  1
DWGPROPS COOKIE
  2
ＳＣ－１６　ガイケイ
  3

  4

  6
スクロールチャック　１６
  7

  8

  9

300
=
301
=
302
=
303
=
304
=
305
=
306
=
307
=
308
=
309
=
 40
0.000000
 41
0.000000
 42
0.000000
  1

 90
        0
  0
ENDSEC
  0
EOF
