  0
SECTION
  2
HEADER
  9
$ACADVER
  1
AC1014
  9
$DWGCODEPAGE
  3
ANSI_932
  9
$LTSCALE
 40
20.0
  9
$FILLMODE
 70
     1
  9
$CLAYER
  8
0
  9
$PDMODE
 70
     0
  9
$SPLFRAME
 70
     0
  9
$SPLINETYPE
 70
     6
  9
$SPLINESEGS
 70
     8
  9
$DIMASZ
 40
2.000000
  9
$DIMEXE
 40
2.000000
  9
$DIMEXO
 40
0.800000
  9
$DIMTAD
 70
     1
  9
$DIMTIH
 70
     0
  9
$DIMTOH
 70
     0
  9
$DIMTVP
 40
0.500000
  9
$DIMTXT
 40
3.100000
  9
$EXTMIN
 10
0.000000
 20
0.000000
 30
0.000000
  9
$EXTMAX
 10
297.000000
 20
420.000000
 30
0.000000
  9
$MEASUREMENT
 70
  1
  9
$LIMMIN
 10
0.000000
 20
0.000000
  9
$LIMMAX
 10
297.000000
 20
420.000000
  9
$HANDLING
 70
     1
  9
$HANDSEED
  5
4BA
  9
$DIMBLK
  1
_OPEN
  9
$DIMDEC
 70
     3
  9
$DIMAUNIT
 70
     1
  9
$DIMZIN
 70
     8
  9
$DIMTOFL
 70
     1
  0
ENDSEC
  0
SECTION
  2
CLASSES
  0
ENDSEC
  0
SECTION
  2
TABLES
  0
TABLE
  2
VPORT
  5
45C
100
AcDbSymbolTable
 70
     1
  0
VPORT
  5
45D
100
AcDbSymbolTableRecord
100
AcDbViewportTableRecord
  2
*ACTIVE
 70
     0
 12
319.704237
 22
156.062719
 40
382.131045
 41
1.519352
  0
ENDTAB
  0
TABLE
  2
LTYPE
  5
45E
100
AcDbSymbolTable
 70
     4
  0
LTYPE
  5
45F
100
AcDbSymbolTableRecord
100
AcDbLinetypeTableRecord
  2
BYBLOCK
 70
     0
  3

 72
    65
 73
     0
 40
0.0
  0
LTYPE
  5
460
100
AcDbSymbolTableRecord
100
AcDbLinetypeTableRecord
  2
BYLAYER
 70
     0
  3

 72
    65
 73
     0
 40
0.0
  0
LTYPE
  5
461
100
AcDbSymbolTableRecord
100
AcDbLinetypeTableRecord
  2
CONTINUOUS
 70
     0
  3
Solid line (NEC CAE2D for Win R12.1 : 2019.02.19)
 72
    65
 73
     0
 40
0.0
  0
LTYPE
  5
462
100
AcDbSymbolTableRecord
100
AcDbLinetypeTableRecord
  2
HIDDEN
 70
     0
  3
__ __ __ __ __ __ __ __ __ __ __ __ __ __
 72
    65
 73
     2
 40
0.375
 49
0.25
 74
     0
 49
-0.125
 74
     0
  0
LTYPE
  5
463
100
AcDbSymbolTableRecord
100
AcDbLinetypeTableRecord
  2
CENTER
 70
     0
  3
____ _ ____ _ ____ _ ____ _ ____ _ ____
 72
    65
 73
     4
 40
2.0
 49
1.25
 74
     0
 49
-0.25
 74
     0
 49
0.25
 74
     0
 49
-0.25
 74
     0
  0
LTYPE
  5
464
100
AcDbSymbolTableRecord
100
AcDbLinetypeTableRecord
  2
PHANTOM
 70
     0
  3
______  __  __  ______  __  __  ______ 
 72
    65
 73
     6
 40
2.5
 49
1.25
 74
     0
 49
-0.25
 74
     0
 49
0.25
 74
     0
 49
-0.25
 74
     0
 49
0.25
 74
     0
 49
-0.25
 74
     0
  0
ENDTAB
  0
TABLE
  2
LAYER
  5
465
100
AcDbSymbolTable
 70
    17
  0
LAYER
  5
466
100
AcDbSymbolTableRecord
100
AcDbLayerTableRecord
  2
0
 70
     0
 62
     7
  6
CONTINUOUS
  0
LAYER
  5
467
100
AcDbSymbolTableRecord
100
AcDbLayerTableRecord
  2
MAIN0
 70
     0
 62
     7
  6
CONTINUOUS
  0
LAYER
  5
468
100
AcDbSymbolTableRecord
100
AcDbLayerTableRecord
  2
MAIN1
 70
     0
 62
     7
  6
CONTINUOUS
  0
LAYER
  5
469
100
AcDbSymbolTableRecord
100
AcDbLayerTableRecord
  2
MAIN2
 70
     0
 62
     5
  6
CONTINUOUS
  0
LAYER
  5
46A
100
AcDbSymbolTableRecord
100
AcDbLayerTableRecord
  2
MAIN3
 70
     0
 62
    14
  6
CONTINUOUS
  0
LAYER
  5
46B
100
AcDbSymbolTableRecord
100
AcDbLayerTableRecord
  2
MAIN4
 70
     0
 62
     9
  6
CONTINUOUS
  0
LAYER
  5
46C
100
AcDbSymbolTableRecord
100
AcDbLayerTableRecord
  2
MAIN5
 70
     0
 62
     9
  6
CONTINUOUS
  0
LAYER
  5
46D
100
AcDbSymbolTableRecord
100
AcDbLayerTableRecord
  2
MAIN6
 70
     0
 62
    10
  6
CONTINUOUS
  0
LAYER
  5
46E
100
AcDbSymbolTableRecord
100
AcDbLayerTableRecord
  2
MAIN7
 70
     0
 62
     7
  6
CONTINUOUS
  0
LAYER
  5
46F
100
AcDbSymbolTableRecord
100
AcDbLayerTableRecord
  2
MAIN8
 70
     0
 62
    12
  6
CONTINUOUS
  0
LAYER
  5
470
100
AcDbSymbolTableRecord
100
AcDbLayerTableRecord
  2
MAIN9
 70
     0
 62
     8
  6
CONTINUOUS
  0
LAYER
  5
471
100
AcDbSymbolTableRecord
100
AcDbLayerTableRecord
  2
MAIN1023
 70
     0
 62
    16
  6
CONTINUOUS
  0
LAYER
  5
472
100
AcDbSymbolTableRecord
100
AcDbLayerTableRecord
  2
A0
 70
     0
 62
     7
  6
CONTINUOUS
  0
LAYER
  5
473
100
AcDbSymbolTableRecord
100
AcDbLayerTableRecord
  2
A2
 70
     0
 62
     7
  6
CONTINUOUS
  0
LAYER
  5
474
100
AcDbSymbolTableRecord
100
AcDbLayerTableRecord
  2
A1023
 70
     0
 62
    16
  6
CONTINUOUS
  0
LAYER
  5
475
100
AcDbSymbolTableRecord
100
AcDbLayerTableRecord
  2
WAKU0
 70
     0
 62
     7
  6
CONTINUOUS
  0
LAYER
  5
476
100
AcDbSymbolTableRecord
100
AcDbLayerTableRecord
  2
WAKU1023
 70
     0
 62
    16
  6
CONTINUOUS
  0
ENDTAB
  0
TABLE
  2
STYLE
  5
477
100
AcDbSymbolTable
 70
     4
  0
STYLE
  5
478
100
AcDbSymbolTableRecord
100
AcDbTextStyleTableRecord
  2
STANDARD
 70
    64
 40
0.0
 41
1.0
 50
0.0
 71
     0
 42
3.140094041824341
  3
TXT
  4

  0
STYLE
  5
479
100
AcDbSymbolTableRecord
100
AcDbTextStyleTableRecord
  2
ANKTATE
 70
    68
 40
0.0
 41
1.0
 50
0.0
 71
     0
 42
3.140094041824341
  3
TXT
  4

  0
STYLE
  5
1F0
100
AcDbSymbolTableRecord
100
AcDbTextStyleTableRecord
  2
KNJYOKO
 70
    64
 40
0.0
 41
1.0
 50
0.0
 71
     0
 42
3.140094041824341
  3
TXT
  4
BIGFONT
  0
STYLE
  5
47A
100
AcDbSymbolTableRecord
100
AcDbTextStyleTableRecord
  2
KNJTATE
 70
    68
 40
0.0
 41
1.0
 50
0.0
 71
     0
 42
3.140094041824341
  3
TXT
  4
BIGFONT
  0
ENDTAB
  0
TABLE
  2
VIEW
  5
47B
100
AcDbSymbolTable
 70
     0
  0
ENDTAB
  0
TABLE
  2
UCS
  5
47C
100
AcDbSymbolTable
 70
     0
  0
ENDTAB
  0
TABLE
  2
APPID
  5
47D
100
AcDbSymbolTable
 70
     1
  0
APPID
  5
47E
100
AcDbSymbolTableRecord
100
AcDbRegAppTableRecord
  2
ACAD
 70
     0
  0
ENDTAB
  0
TABLE
  2
DIMSTYLE
  5
47F
100
AcDbSymbolTable
 70
     1
  0
DIMSTYLE
105
480
100
AcDbSymbolTableRecord
100
AcDbDimStyleTableRecord
  2
STANDARD
 70
     0
 41
2.000000
 44
2.000000
 42
0.800000
145
0.661290
140
3.100000
144
1.000000
146
0.903226
340
478
  0
DIMSTYLE
105
481
100
AcDbSymbolTableRecord
100
AcDbDimStyleTableRecord
  2
MAIN001
 70
     0
 41
2.000000
 44
2.000000
 42
0.800000
145
0.661290
140
3.100000
144
1.000000
146
0.903226
 77
     1
 73
     0
 74
     0
271
     3
275
     1
 78
     8
172
     1
340
478
  0
DIMSTYLE
105
482
100
AcDbSymbolTableRecord
100
AcDbDimStyleTableRecord
  2
A002
 70
     0
 41
3.000000
 44
3.000000
 42
1.200000
145
0.607527
140
4.650000
144
1.000000
146
0.903226
 77
     1
 73
     0
 74
     0
271
     3
275
     1
 78
     8
172
     1
340
478
  0
DIMSTYLE
105
483
100
AcDbSymbolTableRecord
100
AcDbDimStyleTableRecord
  2
WAKU003
 70
     0
 41
2.000000
 44
2.000000
 42
0.800000
145
0.661290
140
3.100000
144
1.000000
146
0.903226
 77
     1
 73
     0
 74
     0
271
     3
275
     1
 78
     8
172
     1
340
478
  0
ENDTAB
  0
TABLE
  2
BLOCK_RECORD
  5
484
100
AcDbSymbolTable
 70
    54
  0
BLOCK_RECORD
  5
485
100
AcDbSymbolTableRecord
100
AcDbBlockTableRecord
  2
*MODEL_SPACE
  0
BLOCK_RECORD
  5
486
100
AcDbSymbolTableRecord
100
AcDbBlockTableRecord
  2
*PAPER_SPACE
  0
BLOCK_RECORD
  5
1
100
AcDbSymbolTableRecord
100
AcDbBlockTableRecord
  2
_NONE
  0
BLOCK_RECORD
  5
4
100
AcDbSymbolTableRecord
100
AcDbBlockTableRecord
  2
_CLOSED
  0
BLOCK_RECORD
  5
B
100
AcDbSymbolTableRecord
100
AcDbBlockTableRecord
  2
_DOT
  0
BLOCK_RECORD
  5
13
100
AcDbSymbolTableRecord
100
AcDbBlockTableRecord
  2
_OPEN
  0
BLOCK_RECORD
  5
19
100
AcDbSymbolTableRecord
100
AcDbBlockTableRecord
  2
_ORIGIN
  0
BLOCK_RECORD
  5
1E
100
AcDbSymbolTableRecord
100
AcDbBlockTableRecord
  2
_OPEN30
  0
BLOCK_RECORD
  5
24
100
AcDbSymbolTableRecord
100
AcDbBlockTableRecord
  2
_BOXFILLED
  0
BLOCK_RECORD
  5
29
100
AcDbSymbolTableRecord
100
AcDbBlockTableRecord
  2
_BOXBLANK
  0
BLOCK_RECORD
  5
31
100
AcDbSymbolTableRecord
100
AcDbBlockTableRecord
  2
_OBLIQUE
  0
BLOCK_RECORD
  5
35
100
AcDbSymbolTableRecord
100
AcDbBlockTableRecord
  2
_OPEN90
  0
BLOCK_RECORD
  5
3B
100
AcDbSymbolTableRecord
100
AcDbBlockTableRecord
  2
_CLOSEDBLANK
  0
BLOCK_RECORD
  5
41
100
AcDbSymbolTableRecord
100
AcDbBlockTableRecord
  2
_DOTBLANK
  0
BLOCK_RECORD
  5
487
100
AcDbSymbolTableRecord
100
AcDbBlockTableRecord
  2
*D0
  0
BLOCK_RECORD
  5
488
100
AcDbSymbolTableRecord
100
AcDbBlockTableRecord
  2
*D1
  0
BLOCK_RECORD
  5
489
100
AcDbSymbolTableRecord
100
AcDbBlockTableRecord
  2
*D2
  0
BLOCK_RECORD
  5
48A
100
AcDbSymbolTableRecord
100
AcDbBlockTableRecord
  2
*D3
  0
BLOCK_RECORD
  5
48B
100
AcDbSymbolTableRecord
100
AcDbBlockTableRecord
  2
*D4
  0
BLOCK_RECORD
  5
48C
100
AcDbSymbolTableRecord
100
AcDbBlockTableRecord
  2
*D5
  0
BLOCK_RECORD
  5
48D
100
AcDbSymbolTableRecord
100
AcDbBlockTableRecord
  2
*D6
  0
BLOCK_RECORD
  5
48E
100
AcDbSymbolTableRecord
100
AcDbBlockTableRecord
  2
*D7
  0
BLOCK_RECORD
  5
48F
100
AcDbSymbolTableRecord
100
AcDbBlockTableRecord
  2
*D8
  0
BLOCK_RECORD
  5
490
100
AcDbSymbolTableRecord
100
AcDbBlockTableRecord
  2
*D9
  0
BLOCK_RECORD
  5
491
100
AcDbSymbolTableRecord
100
AcDbBlockTableRecord
  2
*D10
  0
BLOCK_RECORD
  5
492
100
AcDbSymbolTableRecord
100
AcDbBlockTableRecord
  2
*D11
  0
BLOCK_RECORD
  5
493
100
AcDbSymbolTableRecord
100
AcDbBlockTableRecord
  2
*D12
  0
BLOCK_RECORD
  5
494
100
AcDbSymbolTableRecord
100
AcDbBlockTableRecord
  2
*D13
  0
BLOCK_RECORD
  5
495
100
AcDbSymbolTableRecord
100
AcDbBlockTableRecord
  2
*D14
  0
BLOCK_RECORD
  5
496
100
AcDbSymbolTableRecord
100
AcDbBlockTableRecord
  2
*D15
  0
BLOCK_RECORD
  5
497
100
AcDbSymbolTableRecord
100
AcDbBlockTableRecord
  2
*D16
  0
BLOCK_RECORD
  5
498
100
AcDbSymbolTableRecord
100
AcDbBlockTableRecord
  2
*D17
  0
BLOCK_RECORD
  5
499
100
AcDbSymbolTableRecord
100
AcDbBlockTableRecord
  2
*D18
  0
BLOCK_RECORD
  5
49A
100
AcDbSymbolTableRecord
100
AcDbBlockTableRecord
  2
*D19
  0
BLOCK_RECORD
  5
49B
100
AcDbSymbolTableRecord
100
AcDbBlockTableRecord
  2
*D20
  0
BLOCK_RECORD
  5
49C
100
AcDbSymbolTableRecord
100
AcDbBlockTableRecord
  2
*D21
  0
BLOCK_RECORD
  5
49D
100
AcDbSymbolTableRecord
100
AcDbBlockTableRecord
  2
*D22
  0
BLOCK_RECORD
  5
49E
100
AcDbSymbolTableRecord
100
AcDbBlockTableRecord
  2
*D23
  0
BLOCK_RECORD
  5
49F
100
AcDbSymbolTableRecord
100
AcDbBlockTableRecord
  2
*D24
  0
BLOCK_RECORD
  5
4A0
100
AcDbSymbolTableRecord
100
AcDbBlockTableRecord
  2
*D25
  0
BLOCK_RECORD
  5
4A1
100
AcDbSymbolTableRecord
100
AcDbBlockTableRecord
  2
*D26
  0
BLOCK_RECORD
  5
4A2
100
AcDbSymbolTableRecord
100
AcDbBlockTableRecord
  2
*D27
  0
BLOCK_RECORD
  5
4A3
100
AcDbSymbolTableRecord
100
AcDbBlockTableRecord
  2
*D28
  0
BLOCK_RECORD
  5
4A4
100
AcDbSymbolTableRecord
100
AcDbBlockTableRecord
  2
*D29
  0
BLOCK_RECORD
  5
4A5
100
AcDbSymbolTableRecord
100
AcDbBlockTableRecord
  2
*D30
  0
BLOCK_RECORD
  5
4A6
100
AcDbSymbolTableRecord
100
AcDbBlockTableRecord
  2
*D31
  0
BLOCK_RECORD
  5
4A7
100
AcDbSymbolTableRecord
100
AcDbBlockTableRecord
  2
*D32
  0
BLOCK_RECORD
  5
4A8
100
AcDbSymbolTableRecord
100
AcDbBlockTableRecord
  2
*D33
  0
BLOCK_RECORD
  5
4A9
100
AcDbSymbolTableRecord
100
AcDbBlockTableRecord
  2
*D34
  0
BLOCK_RECORD
  5
4AA
100
AcDbSymbolTableRecord
100
AcDbBlockTableRecord
  2
*D35
  0
BLOCK_RECORD
  5
4AB
100
AcDbSymbolTableRecord
100
AcDbBlockTableRecord
  2
*D36
  0
BLOCK_RECORD
  5
4AC
100
AcDbSymbolTableRecord
100
AcDbBlockTableRecord
  2
*D37
  0
BLOCK_RECORD
  5
4AD
100
AcDbSymbolTableRecord
100
AcDbBlockTableRecord
  2
*D38
  0
BLOCK_RECORD
  5
4AE
100
AcDbSymbolTableRecord
100
AcDbBlockTableRecord
  2
*D39
  0
BLOCK_RECORD
  5
4AF
100
AcDbSymbolTableRecord
100
AcDbBlockTableRecord
  2
M0
  0
BLOCK_RECORD
  5
4B0
100
AcDbSymbolTableRecord
100
AcDbBlockTableRecord
  2
M1
  0
ENDTAB
  0
ENDSEC
  0
SECTION
  2
BLOCKS
  0
BLOCK
  5
4B1
100
AcDbEntity
  8
0
100
AcDbBlockBegin
  2
*MODEL_SPACE
 70
     0
 10
0.0
 20
0.0
 30
0.0
  3
*MODEL_SPACE
  1

  0
ENDBLK
  5
4B2
100
AcDbEntity
  8
0
100
AcDbBlockEnd
  0
BLOCK
  5
4B3
100
AcDbEntity
  8
0
100
AcDbBlockBegin
  2
*PAPER_SPACE
 70
     0
 10
0.0
 20
0.0
 30
0.0
  3
*PAPER_SPACE
  1

  0
ENDBLK
  5
4B4
100
AcDbEntity
  8
0
100
AcDbBlockEnd
  0
BLOCK
  5
2
100
AcDbEntity
  8
0
100
AcDbBlockBegin
  2
_NONE
 70
     0
 10
0.0
 20
0.0
 30
0.0
  3
_NONE
  1

  0
ENDBLK
  5
3
100
AcDbEntity
  8
0
100
AcDbBlockEnd
  0
BLOCK
  5
5
100
AcDbEntity
  8
0
100
AcDbBlockBegin
  2
_CLOSED
 70
     0
 10
0.0
 20
0.0
 30
0.0
  3
_CLOSED
  1

  0
LINE
  5
6
100
AcDbEntity
  8
0
  6
BYBLOCK
 62
     0
100
AcDbLine
 10
-1.0
 20
0.166667
 30
0.0
 11
0.0
 21
0.0
 31
0.0
  0
LINE
  5
7
100
AcDbEntity
  8
0
  6
BYBLOCK
 62
     0
100
AcDbLine
 10
0.0
 20
0.0
 30
0.0
 11
-1.0
 21
-0.166667
 31
0.0
  0
LINE
  5
8
100
AcDbEntity
  8
0
  6
BYBLOCK
 62
     0
100
AcDbLine
 10
-1.0
 20
0.166667
 30
0.0
 11
-1.0
 21
-0.166667
 31
0.0
  0
LINE
  5
9
100
AcDbEntity
  8
0
  6
BYBLOCK
 62
     0
100
AcDbLine
 10
0.0
 20
0.0
 30
0.0
 11
-1.0
 21
0.0
 31
0.0
  0
ENDBLK
  5
A
100
AcDbEntity
  8
0
100
AcDbBlockEnd
  0
BLOCK
  5
C
100
AcDbEntity
  8
0
100
AcDbBlockBegin
  2
_DOT
 70
     0
 10
0.0
 20
0.0
 30
0.0
  3
_DOT
  1

  0
POLYLINE
  5
D
100
AcDbEntity
  8
0
  6
BYBLOCK
 62
     0
100
AcDb2dPolyline
 66
     1
 10
0.0
 20
0.0
 30
0.0
 70
     1
 40
0.5
 41
0.5
  0
VERTEX
  5
E
100
AcDbEntity
  8
0
  6
BYBLOCK
 62
     0
100
AcDbVertex
100
AcDb2dVertex
 10
-0.25
 20
0.0
 30
0.0
 42
1.0
  0
VERTEX
  5
F
100
AcDbEntity
  8
0
  6
BYBLOCK
 62
     0
100
AcDbVertex
100
AcDb2dVertex
 10
0.25
 20
0.0
 30
0.0
 42
1.0
  0
SEQEND
  5
10
100
AcDbEntity
  8
0
  6
BYBLOCK
 62
     0
  0
LINE
  5
11
100
AcDbEntity
  8
0
  6
BYBLOCK
 62
     0
100
AcDbLine
 10
-0.5
 20
0.0
 30
0.0
 11
-1.0
 21
0.0
 31
0.0
  0
ENDBLK
  5
12
100
AcDbEntity
  8
0
100
AcDbBlockEnd
  0
BLOCK
  5
14
100
AcDbEntity
  8
0
100
AcDbBlockBegin
  2
_OPEN
 70
     0
 10
0.0
 20
0.0
 30
0.0
  3
_OPEN
  1

  0
LINE
  5
15
100
AcDbEntity
  8
0
  6
BYBLOCK
 62
     0
100
AcDbLine
 10
-1.0
 20
0.166667
 30
0.0
 11
0.0
 21
0.0
 31
0.0
  0
LINE
  5
16
100
AcDbEntity
  8
0
  6
BYBLOCK
 62
     0
100
AcDbLine
 10
0.0
 20
0.0
 30
0.0
 11
-1.0
 21
-0.166667
 31
0.0
  0
LINE
  5
17
100
AcDbEntity
  8
0
  6
BYBLOCK
 62
     0
100
AcDbLine
 10
0.0
 20
0.0
 30
0.0
 11
-1.0
 21
0.0
 31
0.0
  0
ENDBLK
  5
18
100
AcDbEntity
  8
0
100
AcDbBlockEnd
  0
BLOCK
  5
1A
100
AcDbEntity
  8
0
100
AcDbBlockBegin
  2
_ORIGIN
 70
     0
 10
0.0
 20
0.0
 30
0.0
  3
_ORIGIN
  1

  0
CIRCLE
  5
1B
100
AcDbEntity
  8
0
  6
BYBLOCK
 62
     0
100
AcDbCircle
 10
0.0
 20
0.0
 30
0.0
 40
0.5
  0
LINE
  5
1C
100
AcDbEntity
  8
0
  6
BYBLOCK
 62
     0
100
AcDbLine
 10
0.0
 20
0.0
 30
0.0
 11
-1.0
 21
0.0
 31
0.0
  0
ENDBLK
  5
1D
100
AcDbEntity
  8
0
100
AcDbBlockEnd
  0
BLOCK
  5
1F
100
AcDbEntity
  8
0
100
AcDbBlockBegin
  2
_OPEN30
 70
     0
 10
0.0
 20
0.0
 30
0.0
  3
_OPEN30
  1

  0
LINE
  5
20
100
AcDbEntity
  8
0
  6
BYBLOCK
 62
     0
100
AcDbLine
 10
-1.0
 20
0.267949
 30
0.0
 11
0.0
 21
0.0
 31
0.0
  0
LINE
  5
21
100
AcDbEntity
  8
0
  6
BYBLOCK
 62
     0
100
AcDbLine
 10
0.0
 20
0.0
 30
0.0
 11
-1.0
 21
-0.267949
 31
0.0
  0
LINE
  5
22
100
AcDbEntity
  8
0
  6
BYBLOCK
 62
     0
100
AcDbLine
 10
0.0
 20
0.0
 30
0.0
 11
-1.0
 21
0.0
 31
0.0
  0
ENDBLK
  5
23
100
AcDbEntity
  8
0
100
AcDbBlockEnd
  0
BLOCK
  5
25
100
AcDbEntity
  8
0
100
AcDbBlockBegin
  2
_BOXFILLED
 70
     0
 10
0.0
 20
0.0
 30
0.0
  3
_BOXFILLED
  1

  0
SOLID
  5
26
100
AcDbEntity
  8
0
  6
BYBLOCK
 62
     0
100
AcDbTrace
 10
-0.5
 20
0.5
 30
0.0
 11
0.5
 21
0.5
 31
0.0
 12
-0.5
 22
-0.5
 32
0.0
 13
0.5
 23
-0.5
 33
0.0
  0
LINE
  5
27
100
AcDbEntity
  8
0
  6
BYBLOCK
 62
     0
100
AcDbLine
 10
-0.5
 20
0.0
 30
0.0
 11
-1.0
 21
0.0
 31
0.0
  0
ENDBLK
  5
28
100
AcDbEntity
  8
0
100
AcDbBlockEnd
  0
BLOCK
  5
2A
100
AcDbEntity
  8
0
100
AcDbBlockBegin
  2
_BOXBLANK
 70
     0
 10
0.0
 20
0.0
 30
0.0
  3
_BOXBLANK
  1

  0
LINE
  5
2B
100
AcDbEntity
  8
0
  6
BYBLOCK
 62
     0
100
AcDbLine
 10
-0.5
 20
-0.5
 30
0.0
 11
0.5
 21
-0.5
 31
0.0
  0
LINE
  5
2C
100
AcDbEntity
  8
0
  6
BYBLOCK
 62
     0
100
AcDbLine
 10
0.5
 20
-0.5
 30
0.0
 11
0.5
 21
0.5
 31
0.0
  0
LINE
  5
2D
100
AcDbEntity
  8
0
  6
BYBLOCK
 62
     0
100
AcDbLine
 10
0.5
 20
0.5
 30
0.0
 11
-0.5
 21
0.5
 31
0.0
  0
LINE
  5
2E
100
AcDbEntity
  8
0
  6
BYBLOCK
 62
     0
100
AcDbLine
 10
-0.5
 20
0.5
 30
0.0
 11
-0.5
 21
-0.5
 31
0.0
  0
LINE
  5
2F
100
AcDbEntity
  8
0
  6
BYBLOCK
 62
     0
100
AcDbLine
 10
-0.5
 20
0.0
 30
0.0
 11
-1.0
 21
0.0
 31
0.0
  0
ENDBLK
  5
30
100
AcDbEntity
  8
0
100
AcDbBlockEnd
  0
BLOCK
  5
32
100
AcDbEntity
  8
0
100
AcDbBlockBegin
  2
_OBLIQUE
 70
     0
 10
0.0
 20
0.0
 30
0.0
  3
_OBLIQUE
  1

  0
LINE
  5
33
100
AcDbEntity
  8
0
  6
BYBLOCK
 62
     0
100
AcDbLine
 10
-0.5
 20
-0.5
 30
0.0
 11
0.5
 21
0.5
 31
0.0
  0
ENDBLK
  5
34
100
AcDbEntity
  8
0
100
AcDbBlockEnd
  0
BLOCK
  5
36
100
AcDbEntity
  8
0
100
AcDbBlockBegin
  2
_OPEN90
 70
     0
 10
0.0
 20
0.0
 30
0.0
  3
_OPEN90
  1

  0
LINE
  5
37
100
AcDbEntity
  8
0
  6
BYBLOCK
 62
     0
100
AcDbLine
 10
-0.5
 20
0.5
 30
0.0
 11
0.0
 21
0.0
 31
0.0
  0
LINE
  5
38
100
AcDbEntity
  8
0
  6
BYBLOCK
 62
     0
100
AcDbLine
 10
0.0
 20
0.0
 30
0.0
 11
-0.5
 21
-0.5
 31
0.0
  0
LINE
  5
39
100
AcDbEntity
  8
0
  6
BYBLOCK
 62
     0
100
AcDbLine
 10
0.0
 20
0.0
 30
0.0
 11
-1.0
 21
0.0
 31
0.0
  0
ENDBLK
  5
3A
100
AcDbEntity
  8
0
100
AcDbBlockEnd
  0
BLOCK
  5
3C
100
AcDbEntity
  8
0
100
AcDbBlockBegin
  2
_CLOSEDBLANK
 70
     0
 10
0.0
 20
0.0
 30
0.0
  3
_CLOSEDBLANK
  1

  0
LINE
  5
3D
100
AcDbEntity
  8
0
  6
BYBLOCK
 62
     0
100
AcDbLine
 10
-1.0
 20
0.1666666666666666
 30
0.0
 11
0.0
 21
0.0
 31
0.0
  0
LINE
  5
3E
100
AcDbEntity
  8
0
  6
BYBLOCK
 62
     0
100
AcDbLine
 10
0.0
 20
0.0
 30
0.0
 11
-1.0
 21
-0.1666666666666666
 31
0.0
  0
LINE
  5
3F
100
AcDbEntity
  8
0
  6
BYBLOCK
 62
     0
100
AcDbLine
 10
-1.0
 20
0.1666666666666666
 30
0.0
 11
-1.0
 21
-0.1666666666666666
 31
0.0
  0
ENDBLK
  5
40
100
AcDbEntity
  8
0
100
AcDbBlockEnd
  0
BLOCK
  5
42
100
AcDbEntity
  8
0
100
AcDbBlockBegin
  2
_DOTBLANK
 70
     0
 10
0.0
 20
0.0
 30
0.0
  3
_DOTBLANK
  1

  0
CIRCLE
  5
43
100
AcDbEntity
  8
0
  6
BYBLOCK
 62
     0
100
AcDbCircle
 10
0.0
 20
0.0
 30
0.0
 40
0.5
  0
LINE
  5
44
100
AcDbEntity
  8
0
  6
BYBLOCK
 62
     0
100
AcDbLine
 10
-0.5
 20
0.0
 30
0.0
 11
-1.0
 21
0.0
 31
0.0
  0
ENDBLK
  5
45
100
AcDbEntity
  8
0
100
AcDbBlockEnd
  0
BLOCK
  5
172
100
AcDbEntity
  8
MAIN0
  6
CONTINUOUS
 62
3
100
AcDbBlockBegin
  2
*D0
 70
    65
 10
0.0
 20
0.0
 30
0.0
  0
LINE
  5
173
100
AcDbEntity
  8
MAIN0
  6
BYBLOCK
 62
0
100
AcDbLine
 10
137.0084737086949
 20
246.5282420880424
 30
0.0000000000000000
 11
145.0084736967988
 21
246.5282420880424
 31
0.0000000000000000
  0
LINE
  5
174
100
AcDbEntity
  8
MAIN0
  6
BYBLOCK
 62
0
100
AcDbLine
 10
143.0084736967988
 20
248.5282420880424
 30
0.0000000000000000
 11
143.0084736967988
 21
257.5282420880424
 31
0.0000000000000000
  0
INSERT
  5
175
100
AcDbEntity
  8
MAIN0
  6
BYBLOCK
 62
0
100
AcDbBlockReference
  2
_OPEN
 10
143.0084736967988
 20
246.5282420880424
 30
0.0000000000000000
 41
2.000000000000000
 42
2.000000000000000
 43
2.000000000000000
 50
270.0000000000000
  0
INSERT
  5
176
100
AcDbEntity
  8
MAIN0
  6
BYBLOCK
 62
0
100
AcDbBlockReference
  2
_OPEN
 10
143.0084736967988
 20
259.5282420880424
 30
0.0000000000000000
 41
2.000000000000000
 42
2.000000000000000
 43
2.000000000000000
 50
90.00000000000000
  0
LINE
  5
177
100
AcDbEntity
  8
MAIN0
  6
BYBLOCK
 62
0
100
AcDbLine
 10
137.0084737087026
 20
259.5282420880424
 30
0.0000000000000000
 11
145.0084736967988
 21
259.5282420880424
 31
0.0000000000000000
  0
MTEXT
  5
178
100
AcDbEntity
  8
MAIN0
  6
BYBLOCK
 62
0
100
AcDbMText
 10
140.9584737444825
 20
253.0282420880424
 30
0.0000000000000000
 40
3.099999904632568
 41
0.0000000000000000
 71
     5
 72
     1
  1
\A1;13
 11
6.123233995736766e-017
 21
1.000000000000000
 31
0.0000000000000000
  7
STANDARD
  0
ENDBLK
  5
179
100
AcDbEntity
  8
MAIN0
  6
CONTINUOUS
 62
3
100
AcDbBlockEnd
  0
BLOCK
  5
17B
100
AcDbEntity
  8
MAIN0
  6
CONTINUOUS
 62
3
100
AcDbBlockBegin
  2
*D1
 70
    65
 10
0.0
 20
0.0
 30
0.0
  0
LINE
  5
17C
100
AcDbEntity
  8
MAIN0
  6
BYBLOCK
 62
0
100
AcDbLine
 10
137.0084737087026
 20
259.5282420880424
 30
0.0000000000000000
 11
145.0084736967988
 21
259.5282420880424
 31
0.0000000000000000
  0
LINE
  5
17D
100
AcDbEntity
  8
MAIN0
  6
BYBLOCK
 62
0
100
AcDbLine
 10
143.0084736967988
 20
261.5282420880424
 30
0.0000000000000000
 11
143.0084736967988
 21
270.5282420880424
 31
0.0000000000000000
  0
INSERT
  5
17E
100
AcDbEntity
  8
MAIN0
  6
BYBLOCK
 62
0
100
AcDbBlockReference
  2
_OPEN
 10
143.0084736967988
 20
259.5282420880424
 30
0.0000000000000000
 41
2.000000000000000
 42
2.000000000000000
 43
2.000000000000000
 50
270.0000000000000
  0
INSERT
  5
17F
100
AcDbEntity
  8
MAIN0
  6
BYBLOCK
 62
0
100
AcDbBlockReference
  2
_OPEN
 10
143.0084736967988
 20
272.5282420880424
 30
0.0000000000000000
 41
2.000000000000000
 42
2.000000000000000
 43
2.000000000000000
 50
90.00000000000000
  0
LINE
  5
180
100
AcDbEntity
  8
MAIN0
  6
BYBLOCK
 62
0
100
AcDbLine
 10
130.0084737087103
 20
272.5282420880424
 30
0.0000000000000000
 11
145.0084736967988
 21
272.5282420880424
 31
0.0000000000000000
  0
MTEXT
  5
181
100
AcDbEntity
  8
MAIN0
  6
BYBLOCK
 62
0
100
AcDbMText
 10
140.9584737444825
 20
266.0282420880424
 30
0.0000000000000000
 40
3.099999904632568
 41
0.0000000000000000
 71
     5
 72
     1
  1
\A1;13
 11
6.123233995736766e-017
 21
1.000000000000000
 31
0.0000000000000000
  7
STANDARD
  0
ENDBLK
  5
182
100
AcDbEntity
  8
MAIN0
  6
CONTINUOUS
 62
3
100
AcDbBlockEnd
  0
BLOCK
  5
184
100
AcDbEntity
  8
MAIN0
  6
CONTINUOUS
 62
3
100
AcDbBlockBegin
  2
*D2
 70
    65
 10
0.0
 20
0.0
 30
0.0
  0
LINE
  5
185
100
AcDbEntity
  8
MAIN0
  6
BYBLOCK
 62
0
100
AcDbLine
 10
130.0084737087103
 20
272.5282420880424
 30
0.0000000000000000
 11
145.0084736967988
 21
272.5282420880424
 31
0.0000000000000000
  0
LINE
  5
186
100
AcDbEntity
  8
MAIN0
  6
BYBLOCK
 62
0
100
AcDbLine
 10
143.0084736967988
 20
274.5282420880424
 30
0.0000000000000000
 11
143.0084736967988
 21
286.5282420880424
 31
0.0000000000000000
  0
INSERT
  5
187
100
AcDbEntity
  8
MAIN0
  6
BYBLOCK
 62
0
100
AcDbBlockReference
  2
_OPEN
 10
143.0084736967988
 20
272.5282420880424
 30
0.0000000000000000
 41
2.000000000000000
 42
2.000000000000000
 43
2.000000000000000
 50
270.0000000000000
  0
INSERT
  5
188
100
AcDbEntity
  8
MAIN0
  6
BYBLOCK
 62
0
100
AcDbBlockReference
  2
_OPEN
 10
143.0084736967988
 20
288.5282420880424
 30
0.0000000000000000
 41
2.000000000000000
 42
2.000000000000000
 43
2.000000000000000
 50
90.00000000000000
  0
LINE
  5
189
100
AcDbEntity
  8
MAIN0
  6
BYBLOCK
 62
0
100
AcDbLine
 10
122.5084737087196
 20
288.5282420880424
 30
0.0000000000000000
 11
145.0084736967988
 21
288.5282420880424
 31
0.0000000000000000
  0
MTEXT
  5
18A
100
AcDbEntity
  8
MAIN0
  6
BYBLOCK
 62
0
100
AcDbMText
 10
140.9584737444825
 20
280.5282420880424
 30
0.0000000000000000
 40
3.099999904632568
 41
0.0000000000000000
 71
     5
 72
     1
  1
\A1;16
 11
6.123233995736766e-017
 21
1.000000000000000
 31
0.0000000000000000
  7
STANDARD
  0
ENDBLK
  5
18B
100
AcDbEntity
  8
MAIN0
  6
CONTINUOUS
 62
3
100
AcDbBlockEnd
  0
BLOCK
  5
18D
100
AcDbEntity
  8
MAIN0
  6
CONTINUOUS
 62
3
100
AcDbBlockBegin
  2
*D3
 70
    65
 10
0.0
 20
0.0
 30
0.0
  0
LINE
  5
18E
100
AcDbEntity
  8
MAIN0
  6
BYBLOCK
 62
0
100
AcDbLine
 10
122.5084737087196
 20
288.5282420880424
 30
0.0000000000000000
 11
152.5084736967988
 21
288.5282420880424
 31
0.0000000000000000
  0
LINE
  5
18F
100
AcDbEntity
  8
MAIN0
  6
BYBLOCK
 62
0
100
AcDbLine
 10
150.5084736967988
 20
286.5282420880424
 30
0.0000000000000000
 11
150.5084736967988
 21
248.5282420880424
 31
0.0000000000000000
  0
INSERT
  5
190
100
AcDbEntity
  8
MAIN0
  6
BYBLOCK
 62
0
100
AcDbBlockReference
  2
_OPEN
 10
150.5084736967988
 20
288.5282420880424
 30
0.0000000000000000
 41
2.000000000000000
 42
2.000000000000000
 43
2.000000000000000
 50
90.00000000000000
  0
INSERT
  5
191
100
AcDbEntity
  8
MAIN0
  6
BYBLOCK
 62
0
100
AcDbBlockReference
  2
_OPEN
 10
150.5084736967988
 20
246.5282420880424
 30
0.0000000000000000
 41
2.000000000000000
 42
2.000000000000000
 43
2.000000000000000
 50
270.0000000000000
  0
LINE
  5
192
100
AcDbEntity
  8
MAIN0
  6
BYBLOCK
 62
0
100
AcDbLine
 10
137.0084737086949
 20
246.5282420880424
 30
0.0000000000000000
 11
152.5084736967988
 21
246.5282420880424
 31
0.0000000000000000
  0
MTEXT
  5
193
100
AcDbEntity
  8
MAIN0
  6
BYBLOCK
 62
0
100
AcDbMText
 10
148.4584737444825
 20
267.5282420880424
 30
0.0000000000000000
 40
3.099999904632568
 41
0.0000000000000000
 71
     5
 72
     1
  1
\A1;42
 11
6.123233995736766e-017
 21
1.000000000000000
 31
0.0000000000000000
  7
STANDARD
  0
ENDBLK
  5
194
100
AcDbEntity
  8
MAIN0
  6
CONTINUOUS
 62
3
100
AcDbBlockEnd
  0
BLOCK
  5
196
100
AcDbEntity
  8
MAIN0
  6
CONTINUOUS
 62
3
100
AcDbBlockBegin
  2
*D4
 70
    65
 10
0.0
 20
0.0
 30
0.0
  0
LINE
  5
197
100
AcDbEntity
  8
MAIN0
  6
BYBLOCK
 62
0
100
AcDbLine
 10
131.5084736967825
 20
266.0282420880424
 30
0.0000000000000000
 11
134.5084736967815
 21
266.0282420880424
 31
0.0000000000000000
  0
INSERT
  5
198
100
AcDbEntity
  8
MAIN0
  6
BYBLOCK
 62
0
100
AcDbBlockReference
  2
_OPEN
 10
129.5084736967825
 20
266.0282420880424
 30
0.0000000000000000
 41
2.000000000000000
 42
2.000000000000000
 43
2.000000000000000
 50
180.0000000000000
  0
INSERT
  5
199
100
AcDbEntity
  8
MAIN0
  6
BYBLOCK
 62
0
100
AcDbBlockReference
  2
_OPEN
 10
136.5084736967815
 20
266.0282420880424
 30
0.0000000000000000
 41
2.000000000000000
 42
2.000000000000000
 43
2.000000000000000
 50
0.0000000000000000
  0
LINE
  5
19A
100
AcDbEntity
  8
MAIN0
  6
BYBLOCK
 62
0
100
AcDbLine
 10
136.5084736967815
 20
260.0282420999633
 30
0.0000000000000000
 11
136.5084736967815
 21
268.0282420880424
 31
0.0000000000000000
  0
MTEXT
  5
19B
100
AcDbEntity
  8
MAIN0
  6
BYBLOCK
 62
0
100
AcDbMText
 10
133.0084736967820
 20
268.0782420403587
 30
0.0000000000000000
 40
3.099999904632568
 41
0.0000000000000000
 71
     5
 72
     1
  1
\A1;7
 11
1.000000000000000
 21
0.0000000000000000
 31
0.0000000000000000
  7
STANDARD
  0
ENDBLK
  5
19C
100
AcDbEntity
  8
MAIN0
  6
CONTINUOUS
 62
3
100
AcDbBlockEnd
  0
BLOCK
  5
19E
100
AcDbEntity
  8
MAIN0
  6
CONTINUOUS
 62
3
100
AcDbBlockBegin
  2
*D5
 70
    65
 10
0.0
 20
0.0
 30
0.0
  0
LINE
  5
19F
100
AcDbEntity
  8
MAIN0
  6
BYBLOCK
 62
0
100
AcDbLine
 10
124.5084736967968
 20
278.5282420880424
 30
0.0000000000000000
 11
127.5084736967891
 21
278.5282420880424
 31
0.0000000000000000
  0
INSERT
  5
1A0
100
AcDbEntity
  8
MAIN0
  6
BYBLOCK
 62
0
100
AcDbBlockReference
  2
_OPEN
 10
122.5084736967968
 20
278.5282420880424
 30
0.0000000000000000
 41
2.000000000000000
 42
2.000000000000000
 43
2.000000000000000
 50
180.0000000000000
  0
INSERT
  5
1A1
100
AcDbEntity
  8
MAIN0
  6
BYBLOCK
 62
0
100
AcDbBlockReference
  2
_OPEN
 10
129.5084736967891
 20
278.5282420880424
 30
0.0000000000000000
 41
2.000000000000000
 42
2.000000000000000
 43
2.000000000000000
 50
0.0000000000000000
  0
LINE
  5
1A2
100
AcDbEntity
  8
MAIN0
  6
BYBLOCK
 62
0
100
AcDbLine
 10
129.5084736967891
 20
273.0282420999633
 30
0.0000000000000000
 11
129.5084736967891
 21
280.5282420880424
 31
0.0000000000000000
  0
MTEXT
  5
1A3
100
AcDbEntity
  8
MAIN0
  6
BYBLOCK
 62
0
100
AcDbMText
 10
126.0084736967930
 20
280.5782420403587
 30
0.0000000000000000
 40
3.099999904632568
 41
0.0000000000000000
 71
     5
 72
     1
  1
\A1;7
 11
1.000000000000000
 21
0.0000000000000000
 31
0.0000000000000000
  7
STANDARD
  0
ENDBLK
  5
1A4
100
AcDbEntity
  8
MAIN0
  6
CONTINUOUS
 62
3
100
AcDbBlockEnd
  0
BLOCK
  5
1A6
100
AcDbEntity
  8
MAIN0
  6
CONTINUOUS
 62
3
100
AcDbBlockBegin
  2
*D6
 70
    65
 10
0.0
 20
0.0
 30
0.0
  0
LINE
  5
1A7
100
AcDbEntity
  8
MAIN0
  6
BYBLOCK
 62
0
100
AcDbLine
 10
137.1084737085183
 20
240.5282420880640
 30
0.0000000000000000
 11
152.6384789344031
 21
240.5282420880640
 31
0.0000000000000000
  0
LINE
  5
1A8
100
AcDbEntity
  8
MAIN0
  6
BYBLOCK
 62
0
100
AcDbLine
 10
150.6384789344031
 20
238.5282420880640
 30
0.0000000000000000
 11
150.6384789344031
 21
228.5282420880640
 31
0.0000000000000000
  0
INSERT
  5
1A9
100
AcDbEntity
  8
MAIN0
  6
BYBLOCK
 62
0
100
AcDbBlockReference
  2
_OPEN
 10
150.6384789344031
 20
240.5282420880640
 30
0.0000000000000000
 41
2.000000000000000
 42
2.000000000000000
 43
2.000000000000000
 50
90.00000000000000
  0
INSERT
  5
1AA
100
AcDbEntity
  8
MAIN0
  6
BYBLOCK
 62
0
100
AcDbBlockReference
  2
_OPEN
 10
150.6384789344031
 20
226.5282420880640
 30
0.0000000000000000
 41
2.000000000000000
 42
2.000000000000000
 43
2.000000000000000
 50
270.0000000000000
  0
LINE
  5
1AB
100
AcDbEntity
  8
MAIN0
  6
BYBLOCK
 62
0
100
AcDbLine
 10
137.1084737084920
 20
226.5282420880640
 30
0.0000000000000000
 11
152.6384789344031
 21
226.5282420880640
 31
0.0000000000000000
  0
MTEXT
  5
1AC
100
AcDbEntity
  8
MAIN0
  6
BYBLOCK
 62
0
100
AcDbMText
 10
148.5884789820868
 20
233.5282420880640
 30
0.0000000000000000
 40
3.099999904632568
 41
0.0000000000000000
 71
     5
 72
     1
  1
\A1;14
 11
6.123233995736766e-017
 21
1.000000000000000
 31
0.0000000000000000
  7
STANDARD
  0
ENDBLK
  5
1AD
100
AcDbEntity
  8
MAIN0
  6
CONTINUOUS
 62
3
100
AcDbBlockEnd
  0
BLOCK
  5
1AF
100
AcDbEntity
  8
MAIN0
  6
CONTINUOUS
 62
3
100
AcDbBlockBegin
  2
*D7
 70
    65
 10
0.0
 20
0.0
 30
0.0
  0
LINE
  5
1B0
100
AcDbEntity
  8
MAIN0
  6
BYBLOCK
 62
0
100
AcDbLine
 10
122.5084737085390
 20
220.5282420880545
 30
0.0000000000000000
 11
145.0084736967988
 21
220.5282420880545
 31
0.0000000000000000
  0
LINE
  5
1B1
100
AcDbEntity
  8
MAIN0
  6
BYBLOCK
 62
0
100
AcDbLine
 10
143.0084736967988
 20
218.5282420880545
 30
0.0000000000000000
 11
143.0084736967988
 21
203.5282420880677
 31
0.0000000000000000
  0
INSERT
  5
1B2
100
AcDbEntity
  8
MAIN0
  6
BYBLOCK
 62
0
100
AcDbBlockReference
  2
_OPEN
 10
143.0084736967988
 20
220.5282420880545
 30
0.0000000000000000
 41
2.000000000000000
 42
2.000000000000000
 43
2.000000000000000
 50
90.00000000000000
  0
INSERT
  5
1B3
100
AcDbEntity
  8
MAIN0
  6
BYBLOCK
 62
0
100
AcDbBlockReference
  2
_OPEN
 10
143.0084736967988
 20
201.5282420880677
 30
0.0000000000000000
 41
2.000000000000000
 42
2.000000000000000
 43
2.000000000000000
 50
270.0000000000000
  0
LINE
  5
1B4
100
AcDbEntity
  8
MAIN0
  6
BYBLOCK
 62
0
100
AcDbLine
 10
130.0084737085833
 20
201.5282420880677
 30
0.0000000000000000
 11
145.0084736967988
 21
201.5282420880677
 31
0.0000000000000000
  0
MTEXT
  5
1B5
100
AcDbEntity
  8
MAIN0
  6
BYBLOCK
 62
0
100
AcDbMText
 10
140.9584737444825
 20
211.0282420880611
 30
0.0000000000000000
 40
3.099999904632568
 41
0.0000000000000000
 71
     5
 72
     1
  1
\A1;19
 11
6.123233995736766e-017
 21
1.000000000000000
 31
0.0000000000000000
  7
STANDARD
  0
ENDBLK
  5
1B6
100
AcDbEntity
  8
MAIN0
  6
CONTINUOUS
 62
3
100
AcDbBlockEnd
  0
BLOCK
  5
1B8
100
AcDbEntity
  8
MAIN0
  6
CONTINUOUS
 62
3
100
AcDbBlockBegin
  2
*D8
 70
    65
 10
0.0
 20
0.0
 30
0.0
  0
LINE
  5
1B9
100
AcDbEntity
  8
MAIN0
  6
BYBLOCK
 62
0
100
AcDbLine
 10
130.0084737085833
 20
201.5282420880677
 30
0.0000000000000000
 11
145.0084736967988
 21
201.5282420880677
 31
0.0000000000000000
  0
LINE
  5
1BA
100
AcDbEntity
  8
MAIN0
  6
BYBLOCK
 62
0
100
AcDbLine
 10
143.0084736967988
 20
199.5282420880677
 30
0.0000000000000000
 11
143.0084736967988
 21
190.5282420880799
 31
0.0000000000000000
  0
INSERT
  5
1BB
100
AcDbEntity
  8
MAIN0
  6
BYBLOCK
 62
0
100
AcDbBlockReference
  2
_OPEN
 10
143.0084736967988
 20
201.5282420880677
 30
0.0000000000000000
 41
2.000000000000000
 42
2.000000000000000
 43
2.000000000000000
 50
90.00000000000000
  0
INSERT
  5
1BC
100
AcDbEntity
  8
MAIN0
  6
BYBLOCK
 62
0
100
AcDbBlockReference
  2
_OPEN
 10
143.0084736967988
 20
188.5282420880799
 30
0.0000000000000000
 41
2.000000000000000
 42
2.000000000000000
 43
2.000000000000000
 50
270.0000000000000
  0
LINE
  5
1BD
100
AcDbEntity
  8
MAIN0
  6
BYBLOCK
 62
0
100
AcDbLine
 10
137.0084737086137
 20
188.5282420880799
 30
0.0000000000000000
 11
145.0084736967988
 21
188.5282420880799
 31
0.0000000000000000
  0
MTEXT
  5
1BE
100
AcDbEntity
  8
MAIN0
  6
BYBLOCK
 62
0
100
AcDbMText
 10
140.9584737444825
 20
195.0282420880738
 30
0.0000000000000000
 40
3.099999904632568
 41
0.0000000000000000
 71
     5
 72
     1
  1
\A1;13
 11
6.123233995736766e-017
 21
1.000000000000000
 31
0.0000000000000000
  7
STANDARD
  0
ENDBLK
  5
1BF
100
AcDbEntity
  8
MAIN0
  6
CONTINUOUS
 62
3
100
AcDbBlockEnd
  0
BLOCK
  5
1C1
100
AcDbEntity
  8
MAIN0
  6
CONTINUOUS
 62
3
100
AcDbBlockBegin
  2
*D9
 70
    65
 10
0.0
 20
0.0
 30
0.0
  0
LINE
  5
1C2
100
AcDbEntity
  8
MAIN0
  6
BYBLOCK
 62
0
100
AcDbLine
 10
137.0084737086137
 20
188.5282420880799
 30
0.0000000000000000
 11
145.0084736967988
 21
188.5282420880799
 31
0.0000000000000000
  0
LINE
  5
1C3
100
AcDbEntity
  8
MAIN0
  6
BYBLOCK
 62
0
100
AcDbLine
 10
143.0084736967988
 20
186.5282420880799
 30
0.0000000000000000
 11
143.0084736967988
 21
180.5282420880799
 31
0.0000000000000000
  0
INSERT
  5
1C4
100
AcDbEntity
  8
MAIN0
  6
BYBLOCK
 62
0
100
AcDbBlockReference
  2
_OPEN
 10
143.0084736967988
 20
188.5282420880799
 30
0.0000000000000000
 41
2.000000000000000
 42
2.000000000000000
 43
2.000000000000000
 50
90.00000000000000
  0
INSERT
  5
1C5
100
AcDbEntity
  8
MAIN0
  6
BYBLOCK
 62
0
100
AcDbBlockReference
  2
_OPEN
 10
143.0084736967988
 20
178.5282420880799
 30
0.0000000000000000
 41
2.000000000000000
 42
2.000000000000000
 43
2.000000000000000
 50
270.0000000000000
  0
LINE
  5
1C6
100
AcDbEntity
  8
MAIN0
  6
BYBLOCK
 62
0
100
AcDbLine
 10
137.0084737086371
 20
178.5282420880799
 30
0.0000000000000000
 11
145.0084736967988
 21
178.5282420880799
 31
0.0000000000000000
  0
MTEXT
  5
1C7
100
AcDbEntity
  8
MAIN0
  6
BYBLOCK
 62
0
100
AcDbMText
 10
140.9584737444825
 20
183.5282420880799
 30
0.0000000000000000
 40
3.099999904632568
 41
0.0000000000000000
 71
     5
 72
     1
  1
\A1;10
 11
6.123233995736766e-017
 21
1.000000000000000
 31
0.0000000000000000
  7
STANDARD
  0
ENDBLK
  5
1C8
100
AcDbEntity
  8
MAIN0
  6
CONTINUOUS
 62
3
100
AcDbBlockEnd
  0
BLOCK
  5
1CA
100
AcDbEntity
  8
MAIN0
  6
CONTINUOUS
 62
3
100
AcDbBlockBegin
  2
*D10
 70
    65
 10
0.0
 20
0.0
 30
0.0
  0
LINE
  5
1CB
100
AcDbEntity
  8
MAIN0
  6
BYBLOCK
 62
0
100
AcDbLine
 10
136.5084736966931
 20
189.0282421000014
 30
0.0000000000000000
 11
136.5084736966882
 21
198.0282420880424
 31
0.0000000000000000
  0
LINE
  5
1CC
100
AcDbEntity
  8
MAIN0
  6
BYBLOCK
 62
0
100
AcDbLine
 10
134.5084736966893
 20
196.0282420880424
 30
0.0000000000000000
 11
131.5084736966631
 21
196.0282420880424
 31
0.0000000000000000
  0
INSERT
  5
1CD
100
AcDbEntity
  8
MAIN0
  6
BYBLOCK
 62
0
100
AcDbBlockReference
  2
_OPEN
 10
136.5084736966893
 20
196.0282420880424
 30
0.0000000000000000
 41
2.000000000000000
 42
2.000000000000000
 43
2.000000000000000
 50
360.0000000000000
  0
INSERT
  5
1CE
100
AcDbEntity
  8
MAIN0
  6
BYBLOCK
 62
0
100
AcDbBlockReference
  2
_OPEN
 10
129.5084736966631
 20
196.0282420880424
 30
0.0000000000000000
 41
2.000000000000000
 42
2.000000000000000
 43
2.000000000000000
 50
180.0000000000000
  0
MTEXT
  5
1CF
100
AcDbEntity
  8
MAIN0
  6
BYBLOCK
 62
0
100
AcDbMText
 10
133.0084736966762
 20
198.0782420403587
 30
0.0000000000000000
 40
3.099999904632568
 41
0.0000000000000000
 71
     5
 72
     1
  1
\A1;7
 11
1.000000000000000
 21
0.0000000000000000
 31
0.0000000000000000
  7
STANDARD
  0
ENDBLK
  5
1D0
100
AcDbEntity
  8
MAIN0
  6
CONTINUOUS
 62
3
100
AcDbBlockEnd
  0
BLOCK
  5
1D2
100
AcDbEntity
  8
MAIN0
  6
CONTINUOUS
 62
3
100
AcDbBlockBegin
  2
*D11
 70
    65
 10
0.0
 20
0.0
 30
0.0
  0
LINE
  5
1D3
100
AcDbEntity
  8
MAIN0
  6
BYBLOCK
 62
0
100
AcDbLine
 10
129.5084736966631
 20
202.0282420999891
 30
0.0000000000000000
 11
129.5084736966631
 21
210.5282420880424
 31
0.0000000000000000
  0
LINE
  5
1D4
100
AcDbEntity
  8
MAIN0
  6
BYBLOCK
 62
0
100
AcDbLine
 10
127.5084736966631
 20
208.5282420880424
 30
0.0000000000000000
 11
124.5084736966367
 21
208.5282420880424
 31
0.0000000000000000
  0
INSERT
  5
1D5
100
AcDbEntity
  8
MAIN0
  6
BYBLOCK
 62
0
100
AcDbBlockReference
  2
_OPEN
 10
129.5084736966631
 20
208.5282420880424
 30
0.0000000000000000
 41
2.000000000000000
 42
2.000000000000000
 43
2.000000000000000
 50
360.0000000000000
  0
INSERT
  5
1D6
100
AcDbEntity
  8
MAIN0
  6
BYBLOCK
 62
0
100
AcDbBlockReference
  2
_OPEN
 10
122.5084736966367
 20
208.5282420880424
 30
0.0000000000000000
 41
2.000000000000000
 42
2.000000000000000
 43
2.000000000000000
 50
180.0000000000000
  0
MTEXT
  5
1D7
100
AcDbEntity
  8
MAIN0
  6
BYBLOCK
 62
0
100
AcDbMText
 10
126.0084736966499
 20
210.5782420403587
 30
0.0000000000000000
 40
3.099999904632568
 41
0.0000000000000000
 71
     5
 72
     1
  1
\A1;7
 11
1.000000000000000
 21
0.0000000000000000
 31
0.0000000000000000
  7
STANDARD
  0
ENDBLK
  5
1D8
100
AcDbEntity
  8
MAIN0
  6
CONTINUOUS
 62
3
100
AcDbBlockEnd
  0
BLOCK
  5
1DA
100
AcDbEntity
  8
MAIN0
  6
CONTINUOUS
 62
3
100
AcDbBlockBegin
  2
*D12
 70
    65
 10
0.0
 20
0.0
 30
0.0
  0
LINE
  5
1DB
100
AcDbEntity
  8
MAIN0
  6
BYBLOCK
 62
0
100
AcDbLine
 10
73.00847369678898
 20
179.2984420761298
 30
0.0000000000000000
 11
73.00847369679201
 21
166.5282420880424
 31
0.0000000000000000
  0
LINE
  5
1DC
100
AcDbEntity
  8
MAIN0
  6
BYBLOCK
 62
0
100
AcDbLine
 10
75.00847369679154
 20
168.5282420880424
 30
0.0000000000000000
 11
95.00847369687688
 21
168.5282420880424
 31
0.0000000000000000
  0
INSERT
  5
1DD
100
AcDbEntity
  8
MAIN0
  6
BYBLOCK
 62
0
100
AcDbBlockReference
  2
_OPEN
 10
73.00847369679154
 20
168.5282420880424
 30
0.0000000000000000
 41
2.000000000000000
 42
2.000000000000000
 43
2.000000000000000
 50
180.0000000000000
  0
INSERT
  5
1DE
100
AcDbEntity
  8
MAIN0
  6
BYBLOCK
 62
0
100
AcDbBlockReference
  2
_OPEN
 10
97.00847369687688
 20
168.5282420880424
 30
0.0000000000000000
 41
2.000000000000000
 42
2.000000000000000
 43
2.000000000000000
 50
0.0000000000000000
  0
LINE
  5
1DF
100
AcDbEntity
  8
MAIN0
  6
BYBLOCK
 62
0
100
AcDbLine
 10
97.00847369687688
 20
179.2984420761180
 30
0.0000000000000000
 11
97.00847369687688
 21
166.5282420880424
 31
0.0000000000000000
  0
MTEXT
  5
1E0
100
AcDbEntity
  8
MAIN0
  6
BYBLOCK
 62
0
100
AcDbMText
 10
80.50847369679875
 20
170.5782420403587
 30
0.0000000000000000
 40
3.099999904632568
 41
0.0000000000000000
 71
     5
 72
     1
  1
\A1;\U+220524
 11
1.000000000000000
 21
0.0000000000000000
 31
0.0000000000000000
  7
STANDARD
  0
ENDBLK
  5
1E1
100
AcDbEntity
  8
MAIN0
  6
CONTINUOUS
 62
3
100
AcDbBlockEnd
  0
BLOCK
  5
1E5
100
AcDbEntity
  8
MAIN0
  6
CONTINUOUS
 62
3
100
AcDbBlockBegin
  2
*D13
 70
    65
 10
0.0
 20
0.0
 30
0.0
  0
LINE
  5
1E6
100
AcDbEntity
  8
MAIN0
  6
BYBLOCK
 62
0
100
AcDbLine
 10
90.75205427982290
 20
138.4415157544522
 30
0.0000000000000000
 11
97.00111438388201
 21
132.1924556503793
 31
0.0000000000000000
  0
LINE
  5
1E7
100
AcDbEntity
  8
MAIN0
  6
BYBLOCK
 62
0
100
AcDbLine
 10
95.58690082151047
 20
133.6066692127540
 30
0.0000000000000000
 11
89.93004657201757
 21
127.9498149632677
 31
0.0000000000000000
  0
INSERT
  5
1E8
100
AcDbEntity
  8
MAIN0
  6
BYBLOCK
 62
0
100
AcDbBlockReference
  2
_OPEN
 10
95.58690082151047
 20
133.6066692127540
 30
0.0000000000000000
 41
2.000000000000000
 42
2.000000000000000
 43
2.000000000000000
 50
224.9999999999662
  0
INSERT
  5
1E9
100
AcDbEntity
  8
MAIN0
  6
BYBLOCK
 62
0
100
AcDbBlockReference
  2
_OPEN
 10
89.93004657201757
 20
127.9498149632677
 30
0.0000000000000000
 41
2.000000000000000
 42
2.000000000000000
 43
2.000000000000000
 50
44.99999999996624
  0
LINE
  5
1EA
100
AcDbEntity
  8
MAIN0
  6
BYBLOCK
 62
0
100
AcDbLine
 10
97.00111438388439
 20
135.0208827751262
 30
0.0000000000000000
 11
106.0000525507473
 21
144.0198209419785
 31
0.0000000000000000
  0
LINE
  5
1EB
100
AcDbEntity
  8
MAIN0
  6
BYBLOCK
 62
0
100
AcDbLine
 10
88.51583300964364
 20
126.5356014008954
 30
0.0000000000000000
 11
87.80872622845668
 21
125.8284946197093
 31
0.0000000000000000
  0
LINE
  5
1EC
100
AcDbEntity
  8
MAIN0
  6
BYBLOCK
 62
0
100
AcDbLine
 10
85.09520003026206
 20
132.7846615050289
 30
0.0000000000000000
 11
91.34426013438983
 21
126.5356014008938
 31
0.0000000000000000
  0
MTEXT
  5
1ED
100
AcDbEntity
  8
MAIN0
  6
BYBLOCK
 62
0
100
AcDbMText
 10
100.0073227583505
 20
140.9262288850171
 30
0.0000000000000000
 40
3.099999904632568
 41
0.0000000000000000
 71
     5
 72
     1
  1
\A1;□8\H0.903226x;\S+0.15^ +0.05;
 11
0.7071067811869634
 21
0.7071067811861318
 31
0.0000000000000000
  7
KNJYOKO
  0
ENDBLK
  5
1EE
100
AcDbEntity
  8
MAIN0
  6
CONTINUOUS
 62
3
100
AcDbBlockEnd
  0
BLOCK
  5
1F1
100
AcDbEntity
  8
MAIN0
  6
CONTINUOUS
 62
3
100
AcDbBlockBegin
  2
*D14
 70
    65
 10
0.0
 20
0.0
 30
0.0
  0
LINE
  5
1F2
100
AcDbEntity
  8
MAIN0
  6
BYBLOCK
 62
0
100
AcDbLine
 10
65.20847368487782
 20
245.5282420880424
 30
0.0000000000000000
 11
48.50847369679875
 21
245.5282420880424
 31
0.0000000000000000
  0
LINE
  5
1F3
100
AcDbEntity
  8
MAIN0
  6
BYBLOCK
 62
0
100
AcDbLine
 10
50.50847369679875
 20
243.5282420880424
 30
0.0000000000000000
 11
50.50847369679875
 21
223.5282420880424
 31
0.0000000000000000
  0
INSERT
  5
1F4
100
AcDbEntity
  8
MAIN0
  6
BYBLOCK
 62
0
100
AcDbBlockReference
  2
_OPEN
 10
50.50847369679875
 20
245.5282420880424
 30
0.0000000000000000
 41
2.000000000000000
 42
2.000000000000000
 43
2.000000000000000
 50
90.00000000000000
  0
INSERT
  5
1F5
100
AcDbEntity
  8
MAIN0
  6
BYBLOCK
 62
0
100
AcDbBlockReference
  2
_OPEN
 10
50.50847369679875
 20
221.5282420880424
 30
0.0000000000000000
 41
2.000000000000000
 42
2.000000000000000
 43
2.000000000000000
 50
270.0000000000000
  0
LINE
  5
1F6
100
AcDbEntity
  8
MAIN0
  6
BYBLOCK
 62
0
100
AcDbLine
 10
65.20847368487782
 20
221.5282420880424
 30
0.0000000000000000
 11
48.50847369679875
 21
221.5282420880424
 31
0.0000000000000000
  0
MTEXT
  5
1F7
100
AcDbEntity
  8
MAIN0
  6
BYBLOCK
 62
0
100
AcDbMText
 10
48.45847374448247
 20
233.5282420880424
 30
0.0000000000000000
 40
3.099999904632568
 41
0.0000000000000000
 71
     5
 72
     1
  1
\A1;\U+220524
 11
6.123233995736766e-017
 21
1.000000000000000
 31
0.0000000000000000
  7
STANDARD
  0
ENDBLK
  5
1F8
100
AcDbEntity
  8
MAIN0
  6
CONTINUOUS
 62
3
100
AcDbBlockEnd
  0
BLOCK
  5
1FA
100
AcDbEntity
  8
MAIN0
  6
CONTINUOUS
 62
3
100
AcDbBlockBegin
  2
*D15
 70
    65
 10
0.0
 20
0.0
 30
0.0
  0
LINE
  5
1FB
100
AcDbEntity
  8
MAIN0
  6
BYBLOCK
 62
0
100
AcDbLine
 10
59.70847368487783
 20
273.5282420880424
 30
0.0000000000000000
 11
41.00847369679875
 21
273.5282420880424
 31
0.0000000000000000
  0
LINE
  5
1FC
100
AcDbEntity
  8
MAIN0
  6
BYBLOCK
 62
0
100
AcDbLine
 10
43.00847369679875
 20
271.5282420880424
 30
0.0000000000000000
 11
43.00847369679875
 21
195.5282420880424
 31
0.0000000000000000
  0
INSERT
  5
1FD
100
AcDbEntity
  8
MAIN0
  6
BYBLOCK
 62
0
100
AcDbBlockReference
  2
_OPEN
 10
43.00847369679875
 20
273.5282420880424
 30
0.0000000000000000
 41
2.000000000000000
 42
2.000000000000000
 43
2.000000000000000
 50
90.00000000000000
  0
INSERT
  5
1FE
100
AcDbEntity
  8
MAIN0
  6
BYBLOCK
 62
0
100
AcDbBlockReference
  2
_OPEN
 10
43.00847369679875
 20
193.5282420880424
 30
0.0000000000000000
 41
2.000000000000000
 42
2.000000000000000
 43
2.000000000000000
 50
270.0000000000000
  0
LINE
  5
1FF
100
AcDbEntity
  8
MAIN0
  6
BYBLOCK
 62
0
100
AcDbLine
 10
59.70847368487783
 20
193.5282420880424
 30
0.0000000000000000
 11
41.00847369679875
 21
193.5282420880424
 31
0.0000000000000000
  0
MTEXT
  5
200
100
AcDbEntity
  8
MAIN0
  6
BYBLOCK
 62
0
100
AcDbMText
 10
40.95847374448247
 20
238.4765977820183
 30
0.0000000000000000
 40
3.099999904632568
 41
0.0000000000000000
 71
     5
 72
     1
  1
\A1;\U+220580H6\H0.903226x;\S＋0.019^ 　0;
 11
6.123233995736766e-017
 21
1.000000000000000
 31
0.0000000000000000
  7
KNJYOKO
  0
ENDBLK
  5
201
100
AcDbEntity
  8
MAIN0
  6
CONTINUOUS
 62
3
100
AcDbBlockEnd
  0
BLOCK
  5
203
100
AcDbEntity
  8
MAIN0
  6
CONTINUOUS
 62
3
100
AcDbBlockBegin
  2
*D16
 70
    65
 10
0.0
 20
0.0
 30
0.0
  0
LINE
  5
204
100
AcDbEntity
  8
MAIN0
  6
BYBLOCK
 62
0
100
AcDbLine
 10
60.70847368487783
 20
288.5282420880424
 30
0.0000000000000000
 11
31.00847369679875
 21
288.5282420880424
 31
0.0000000000000000
  0
LINE
  5
205
100
AcDbEntity
  8
MAIN0
  6
BYBLOCK
 62
0
100
AcDbLine
 10
33.00847369679875
 20
286.5282420880424
 30
0.0000000000000000
 11
33.00847369679875
 21
180.5282420880424
 31
0.0000000000000000
  0
INSERT
  5
206
100
AcDbEntity
  8
MAIN0
  6
BYBLOCK
 62
0
100
AcDbBlockReference
  2
_OPEN
 10
33.00847369679875
 20
288.5282420880424
 30
0.0000000000000000
 41
2.000000000000000
 42
2.000000000000000
 43
2.000000000000000
 50
90.00000000000000
  0
INSERT
  5
207
100
AcDbEntity
  8
MAIN0
  6
BYBLOCK
 62
0
100
AcDbBlockReference
  2
_OPEN
 10
33.00847369679875
 20
178.5282420880424
 30
0.0000000000000000
 41
2.000000000000000
 42
2.000000000000000
 43
2.000000000000000
 50
270.0000000000000
  0
LINE
  5
208
100
AcDbEntity
  8
MAIN0
  6
BYBLOCK
 62
0
100
AcDbLine
 10
60.70847368487783
 20
178.5282420880424
 30
0.0000000000000000
 11
31.00847369679875
 21
178.5282420880424
 31
0.0000000000000000
  0
MTEXT
  5
209
100
AcDbEntity
  8
MAIN0
  6
BYBLOCK
 62
0
100
AcDbMText
 10
30.95847374448247
 20
233.5282420880424
 30
0.0000000000000000
 40
3.099999904632568
 41
0.0000000000000000
 71
     5
 72
     1
  1
\A1;\U+2205110
 11
6.123233995736766e-017
 21
1.000000000000000
 31
0.0000000000000000
  7
STANDARD
  0
ENDBLK
  5
20A
100
AcDbEntity
  8
MAIN0
  6
CONTINUOUS
 62
3
100
AcDbBlockEnd
  0
BLOCK
  5
20D
100
AcDbEntity
  8
MAIN0
  6
CONTINUOUS
 62
3
100
AcDbBlockBegin
  2
*D17
 70
    65
 10
0.0
 20
0.0
 30
0.0
  0
LINE
  5
20E
100
AcDbEntity
  8
MAIN0
  6
BYBLOCK
 62
0
100
AcDbLine
 10
60.50847369679875
 20
288.3282420999633
 30
0.0000000000000000
 11
60.50847369679875
 21
298.0282420880424
 31
0.0000000000000000
  0
LINE
  5
20F
100
AcDbEntity
  8
MAIN0
  6
BYBLOCK
 62
0
100
AcDbLine
 10
62.50847369679875
 20
296.0282420880424
 30
0.0000000000000000
 11
74.50847369679875
 21
296.0282420880424
 31
0.0000000000000000
  0
INSERT
  5
210
100
AcDbEntity
  8
MAIN0
  6
BYBLOCK
 62
0
100
AcDbBlockReference
  2
_OPEN
 10
60.50847369679875
 20
296.0282420880424
 30
0.0000000000000000
 41
2.000000000000000
 42
2.000000000000000
 43
2.000000000000000
 50
180.0000000000000
  0
INSERT
  5
211
100
AcDbEntity
  8
MAIN0
  6
BYBLOCK
 62
0
100
AcDbBlockReference
  2
_OPEN
 10
76.50847369679875
 20
296.0282420880424
 30
0.0000000000000000
 41
2.000000000000000
 42
2.000000000000000
 43
2.000000000000000
 50
0.0000000000000000
  0
LINE
  5
212
100
AcDbEntity
  8
MAIN0
  6
BYBLOCK
 62
0
100
AcDbLine
 10
76.50847369679875
 20
285.8282420999633
 30
0.0000000000000000
 11
76.50847369679875
 21
298.0282420880424
 31
0.0000000000000000
  0
MTEXT
  5
213
100
AcDbEntity
  8
MAIN0
  6
BYBLOCK
 62
0
100
AcDbMText
 10
68.50847369679875
 20
298.0782420403587
 30
0.0000000000000000
 40
3.099999904632568
 41
0.0000000000000000
 71
     5
 72
     1
  1
\A1;16
 11
1.000000000000000
 21
0.0000000000000000
 31
0.0000000000000000
  7
STANDARD
  0
ENDBLK
  5
214
100
AcDbEntity
  8
MAIN0
  6
CONTINUOUS
 62
3
100
AcDbBlockEnd
  0
BLOCK
  5
220
100
AcDbEntity
  8
MAIN0
  6
CONTINUOUS
 62
3
100
AcDbBlockBegin
  2
*D18
 70
    65
 10
0.0
 20
0.0
 30
0.0
  0
LINE
  5
221
100
AcDbEntity
  8
MAIN0
  6
BYBLOCK
 62
0
100
AcDbLine
 10
118.9084737087197
 20
194.0282420880424
 30
0.0000000000000000
 11
127.5084736967988
 21
194.0282420880424
 31
0.0000000000000000
  0
LINE
  5
222
100
AcDbEntity
  8
MAIN0
  6
BYBLOCK
 62
0
100
AcDbLine
 10
125.5084736967988
 20
192.0282420880424
 30
0.0000000000000000
 11
125.5084736967988
 21
182.0282420880424
 31
0.0000000000000000
  0
INSERT
  5
223
100
AcDbEntity
  8
MAIN0
  6
BYBLOCK
 62
0
100
AcDbBlockReference
  2
_OPEN
 10
125.5084736967988
 20
194.0282420880424
 30
0.0000000000000000
 41
2.000000000000000
 42
2.000000000000000
 43
2.000000000000000
 50
90.00000000000000
  0
INSERT
  5
224
100
AcDbEntity
  8
MAIN0
  6
BYBLOCK
 62
0
100
AcDbBlockReference
  2
_OPEN
 10
125.5084736967988
 20
180.0282420880424
 30
0.0000000000000000
 41
2.000000000000000
 42
2.000000000000000
 43
2.000000000000000
 50
270.0000000000000
  0
LINE
  5
225
100
AcDbEntity
  8
MAIN0
  6
BYBLOCK
 62
0
100
AcDbLine
 10
118.9084737087197
 20
180.0282420880424
 30
0.0000000000000000
 11
127.5084736967988
 21
180.0282420880424
 31
0.0000000000000000
  0
MTEXT
  5
226
100
AcDbEntity
  8
MAIN0
  6
BYBLOCK
 62
0
100
AcDbMText
 10
123.4584737444825
 20
187.0282420880424
 30
0.0000000000000000
 40
3.099999904632568
 41
0.0000000000000000
 71
     5
 72
     1
  1
\A1;\U+220514
 11
6.123233995736766e-017
 21
1.000000000000000
 31
0.0000000000000000
  7
STANDARD
  0
ENDBLK
  5
227
100
AcDbEntity
  8
MAIN0
  6
CONTINUOUS
 62
3
100
AcDbBlockEnd
  0
BLOCK
  5
229
100
AcDbEntity
  8
MAIN0
  6
CONTINUOUS
 62
3
100
AcDbBlockBegin
  2
*D19
 70
    65
 10
0.0
 20
0.0
 30
0.0
  0
LINE
  5
22A
100
AcDbEntity
  8
MAIN0
  6
BYBLOCK
 62
0
100
AcDbLine
 10
60.10847368487782
 20
191.5282420880424
 30
0.0000000000000000
 11
48.50847369679875
 21
191.5282420880424
 31
0.0000000000000000
  0
LINE
  5
22B
100
AcDbEntity
  8
MAIN0
  6
BYBLOCK
 62
0
100
AcDbLine
 10
50.50847369679875
 20
189.5282420880424
 30
0.0000000000000000
 11
50.50847369679875
 21
184.5282420880424
 31
0.0000000000000000
  0
INSERT
  5
22C
100
AcDbEntity
  8
MAIN0
  6
BYBLOCK
 62
0
100
AcDbBlockReference
  2
_OPEN
 10
50.50847369679875
 20
191.5282420880424
 30
0.0000000000000000
 41
2.000000000000000
 42
2.000000000000000
 43
2.000000000000000
 50
90.00000000000000
  0
INSERT
  5
22D
100
AcDbEntity
  8
MAIN0
  6
BYBLOCK
 62
0
100
AcDbBlockReference
  2
_OPEN
 10
50.50847369679875
 20
182.5282420880424
 30
0.0000000000000000
 41
2.000000000000000
 42
2.000000000000000
 43
2.000000000000000
 50
270.0000000000000
  0
LINE
  5
22E
100
AcDbEntity
  8
MAIN0
  6
BYBLOCK
 62
0
100
AcDbLine
 10
60.10847368487782
 20
182.5282420880424
 30
0.0000000000000000
 11
48.50847369679875
 21
182.5282420880424
 31
0.0000000000000000
  0
MTEXT
  5
22F
100
AcDbEntity
  8
MAIN0
  6
BYBLOCK
 62
0
100
AcDbMText
 10
48.45847374448247
 20
187.0282420880424
 30
0.0000000000000000
 40
3.099999904632568
 41
0.0000000000000000
 71
     5
 72
     1
  1
\A1;\U+22059
 11
6.123233995736766e-017
 21
1.000000000000000
 31
0.0000000000000000
  7
STANDARD
  0
ENDBLK
  5
230
100
AcDbEntity
  8
MAIN0
  6
CONTINUOUS
 62
3
100
AcDbBlockEnd
  0
BLOCK
  5
237
100
AcDbEntity
  8
MAIN0
  6
CONTINUOUS
 62
3
100
AcDbBlockBegin
  2
*D20
 70
    65
 10
0.0
 20
0.0
 30
0.0
  0
LINE
  5
238
100
AcDbEntity
  8
MAIN0
  6
BYBLOCK
 62
0
100
AcDbLine
 10
65.00847369679875
 20
208.5282420880424
 30
0.0000000000000000
 11
60.50847369679875
 21
208.5282420880424
 31
0.0000000000000000
  0
INSERT
  5
239
100
AcDbEntity
  8
MAIN0
  6
BYBLOCK
 62
0
100
AcDbBlockReference
  2
_OPEN
 10
65.00847369679875
 20
208.5282420880424
 30
0.0000000000000000
 41
2.000000000000000
 42
2.000000000000000
 43
2.000000000000000
 50
180.0000000000000
  0
INSERT
  5
23A
100
AcDbEntity
  8
MAIN0
  6
BYBLOCK
 62
0
100
AcDbBlockReference
  2
_OPEN
 10
60.50847369679875
 20
208.5282420880424
 30
0.0000000000000000
 41
2.000000000000000
 42
2.000000000000000
 43
2.000000000000000
 50
360.0000000000000
  0
LINE
  5
23B
100
AcDbEntity
  8
MAIN0
  6
BYBLOCK
 62
0
100
AcDbLine
 10
67.00847369679875
 20
208.5282420880424
 30
0.0000000000000000
 11
68.00847369679875
 21
208.5282420880424
 31
0.0000000000000000
  0
LINE
  5
23C
100
AcDbEntity
  8
MAIN0
  6
BYBLOCK
 62
0
100
AcDbLine
 10
58.50847369679875
 20
208.5282420880424
 30
0.0000000000000000
 11
52.46989470967717
 21
208.5282420880424
 31
0.0000000000000000
  0
MTEXT
  5
23D
100
AcDbEntity
  8
MAIN0
  6
BYBLOCK
 62
0
100
AcDbMText
 10
55.11989497174739
 20
210.5782420403587
 30
0.0000000000000000
 40
3.099999904632568
 41
0.0000000000000000
 71
     5
 72
     1
  1
\A1;4.5
 11
1.000000000000000
 21
0.0000000000000000
 31
0.0000000000000000
  7
STANDARD
  0
ENDBLK
  5
23E
100
AcDbEntity
  8
MAIN0
  6
CONTINUOUS
 62
3
100
AcDbBlockEnd
  0
BLOCK
  5
29C
100
AcDbEntity
  8
MAIN0
  6
CONTINUOUS
 62
1
100
AcDbBlockBegin
  2
*D21
 70
    65
 10
0.0
 20
0.0
 30
0.0
  0
LINE
  5
29D
100
AcDbEntity
  8
MAIN0
  6
BYBLOCK
 62
0
100
AcDbLine
 10
341.2520542796253
 20
243.4415157545861
 30
0.0000000000000000
 11
347.2511143838656
 21
237.4424556503646
 31
0.0000000000000000
  0
LINE
  5
29E
100
AcDbEntity
  8
MAIN0
  6
BYBLOCK
 62
0
100
AcDbLine
 10
344.4226872591177
 20
237.4424556503620
 30
0.0000000000000000
 11
341.5942601343656
 21
234.6140285256082
 31
0.0000000000000000
  0
INSERT
  5
29F
100
AcDbEntity
  8
MAIN0
  6
BYBLOCK
 62
0
100
AcDbBlockReference
  2
_OPEN
 10
345.8369008214903
 20
238.8566692127355
 30
0.0000000000000000
 41
2.000000000000000
 42
2.000000000000000
 43
2.000000000000000
 50
45.00000000001671
  0
INSERT
  5
2A0
100
AcDbEntity
  8
MAIN0
  6
BYBLOCK
 62
0
100
AcDbBlockReference
  2
_OPEN
 10
340.1800465719929
 20
233.1998149632347
 30
0.0000000000000000
 41
2.000000000000000
 42
2.000000000000000
 43
2.000000000000000
 50
225.0000000000167
  0
LINE
  5
2A1
100
AcDbEntity
  8
MAIN0
  6
BYBLOCK
 62
0
100
AcDbLine
 10
345.8369008214903
 20
238.8566692127355
 30
0.0000000000000000
 11
354.1922451476413
 21
247.2120135388913
 31
0.0000000000000000
  0
LINE
  5
2A2
100
AcDbEntity
  8
MAIN0
  6
BYBLOCK
 62
0
100
AcDbLine
 10
335.8108830730206
 20
237.5689784622043
 30
0.0000000000000000
 11
341.5942601343663
 21
231.7856014008621
 31
0.0000000000000000
  0
MTEXT
  5
2A3
100
AcDbEntity
  8
MAIN0
  6
BYBLOCK
 62
0
100
AcDbMText
 10
348.8359112813271
 20
244.7548174080041
 30
0.0000000000000000
 40
3.099999904632568
 41
0.0000000000000000
 71
     5
 72
     1
  1
\A1;□8\H0.903226x;\S 0^ -0.1;
 11
0.7071067811863396
 21
0.7071067811867554
 31
0.0000000000000000
  7
KNJYOKO
  0
ENDBLK
  5
2A4
100
AcDbEntity
  8
MAIN0
  6
CONTINUOUS
 62
1
100
AcDbBlockEnd
  0
BLOCK
  5
2A6
100
AcDbEntity
  8
MAIN0
  6
CONTINUOUS
 62
3
100
AcDbBlockBegin
  2
*D22
 70
    65
 10
0.0
 20
0.0
 30
0.0
  0
LINE
  5
2A7
100
AcDbEntity
  8
MAIN0
  6
BYBLOCK
 62
0
100
AcDbLine
 10
273.5084736968025
 20
325.3282421001073
 30
0.0000000000000000
 11
273.5084736968025
 21
338.0282420880424
 31
0.0000000000000000
  0
LINE
  5
2A8
100
AcDbEntity
  8
MAIN0
  6
BYBLOCK
 62
0
100
AcDbLine
 10
271.5084736968025
 20
336.0282420880424
 30
0.0000000000000000
 11
267.5084736968025
 21
336.0282420880424
 31
0.0000000000000000
  0
INSERT
  5
2A9
100
AcDbEntity
  8
MAIN0
  6
BYBLOCK
 62
0
100
AcDbBlockReference
  2
_OPEN
 10
273.5084736968025
 20
336.0282420880424
 30
0.0000000000000000
 41
2.000000000000000
 42
2.000000000000000
 43
2.000000000000000
 50
360.0000000000000
  0
INSERT
  5
2AA
100
AcDbEntity
  8
MAIN0
  6
BYBLOCK
 62
0
100
AcDbBlockReference
  2
_OPEN
 10
265.5084736968025
 20
336.0282420880424
 30
0.0000000000000000
 41
2.000000000000000
 42
2.000000000000000
 43
2.000000000000000
 50
180.0000000000000
  0
LINE
  5
2AB
100
AcDbEntity
  8
MAIN0
  6
BYBLOCK
 62
0
100
AcDbLine
 10
265.5084736968025
 20
325.3282421001339
 30
0.0000000000000000
 11
265.5084736968025
 21
338.0282420880424
 31
0.0000000000000000
  0
MTEXT
  5
2AC
100
AcDbEntity
  8
MAIN0
  6
BYBLOCK
 62
0
100
AcDbMText
 10
269.5084736968025
 20
338.0782420403587
 30
0.0000000000000000
 40
3.099999904632568
 41
0.0000000000000000
 71
     5
 72
     1
  1
\A1;8
 11
1.000000000000000
 21
0.0000000000000000
 31
0.0000000000000000
  7
STANDARD
  0
ENDBLK
  5
2AD
100
AcDbEntity
  8
MAIN0
  6
CONTINUOUS
 62
3
100
AcDbBlockEnd
  0
BLOCK
  5
2AF
100
AcDbEntity
  8
MAIN0
  6
CONTINUOUS
 62
3
100
AcDbBlockBegin
  2
*D23
 70
    65
 10
0.0
 20
0.0
 30
0.0
  0
LINE
  5
2B0
100
AcDbEntity
  8
MAIN0
  6
BYBLOCK
 62
0
100
AcDbLine
 10
327.0084736968171
 20
330.3282420998384
 30
0.0000000000000000
 11
327.0084736968172
 21
338.0282420880424
 31
0.0000000000000000
  0
LINE
  5
2B1
100
AcDbEntity
  8
MAIN0
  6
BYBLOCK
 62
0
100
AcDbLine
 10
329.0084736968172
 20
336.0282420880424
 30
0.0000000000000000
 11
342.0084736968172
 21
336.0282420880424
 31
0.0000000000000000
  0
INSERT
  5
2B2
100
AcDbEntity
  8
MAIN0
  6
BYBLOCK
 62
0
100
AcDbBlockReference
  2
_OPEN
 10
327.0084736968172
 20
336.0282420880424
 30
0.0000000000000000
 41
2.000000000000000
 42
2.000000000000000
 43
2.000000000000000
 50
180.0000000000000
  0
INSERT
  5
2B3
100
AcDbEntity
  8
MAIN0
  6
BYBLOCK
 62
0
100
AcDbBlockReference
  2
_OPEN
 10
344.0084736968172
 20
336.0282420880424
 30
0.0000000000000000
 41
2.000000000000000
 42
2.000000000000000
 43
2.000000000000000
 50
0.0000000000000000
  0
LINE
  5
2B4
100
AcDbEntity
  8
MAIN0
  6
BYBLOCK
 62
0
100
AcDbLine
 10
344.0084736968172
 20
330.3282420998551
 30
0.0000000000000000
 11
344.0084736968172
 21
338.0282420880424
 31
0.0000000000000000
  0
MTEXT
  5
2B5
100
AcDbEntity
  8
MAIN0
  6
BYBLOCK
 62
0
100
AcDbMText
 10
335.5084736968172
 20
338.0782420403587
 30
0.0000000000000000
 40
3.099999904632568
 41
0.0000000000000000
 71
     5
 72
     1
  1
\A1;\U+220517
 11
1.000000000000000
 21
0.0000000000000000
 31
0.0000000000000000
  7
STANDARD
  0
ENDBLK
  5
2B6
100
AcDbEntity
  8
MAIN0
  6
CONTINUOUS
 62
3
100
AcDbBlockEnd
  0
BLOCK
  5
2B8
100
AcDbEntity
  8
MAIN0
  6
CONTINUOUS
 62
3
100
AcDbBlockBegin
  2
*D24
 70
    65
 10
0.0
 20
0.0
 30
0.0
  0
LINE
  5
2B9
100
AcDbEntity
  8
MAIN0
  6
BYBLOCK
 62
0
100
AcDbLine
 10
265.7084736848384
 20
311.5282420882097
 30
0.0000000000000000
 11
253.5084736967821
 21
311.5282420882097
 31
0.0000000000000000
  0
LINE
  5
2BA
100
AcDbEntity
  8
MAIN0
  6
BYBLOCK
 62
0
100
AcDbLine
 10
255.5084736967821
 20
313.5282420882097
 30
0.0000000000000000
 11
255.5084736967821
 21
323.5282420882097
 31
0.0000000000000000
  0
INSERT
  5
2BB
100
AcDbEntity
  8
MAIN0
  6
BYBLOCK
 62
0
100
AcDbBlockReference
  2
_OPEN
 10
255.5084736967821
 20
311.5282420882097
 30
0.0000000000000000
 41
2.000000000000000
 42
2.000000000000000
 43
2.000000000000000
 50
270.0000000000000
  0
INSERT
  5
2BC
100
AcDbEntity
  8
MAIN0
  6
BYBLOCK
 62
0
100
AcDbBlockReference
  2
_OPEN
 10
255.5084736967821
 20
325.5282420882097
 30
0.0000000000000000
 41
2.000000000000000
 42
2.000000000000000
 43
2.000000000000000
 50
90.00000000000000
  0
LINE
  5
2BD
100
AcDbEntity
  8
MAIN0
  6
BYBLOCK
 62
0
100
AcDbLine
 10
265.7084736848850
 20
325.5282420882097
 30
0.0000000000000000
 11
253.5084736967821
 21
325.5282420882097
 31
0.0000000000000000
  0
MTEXT
  5
2BE
100
AcDbEntity
  8
MAIN0
  6
BYBLOCK
 62
0
100
AcDbMText
 10
253.4584737444658
 20
318.5282420882097
 30
0.0000000000000000
 40
3.099999904632568
 41
0.0000000000000000
 71
     5
 72
     1
  1
\A1;\U+220514
 11
6.123233995736766e-017
 21
1.000000000000000
 31
0.0000000000000000
  7
STANDARD
  0
ENDBLK
  5
2BF
100
AcDbEntity
  8
MAIN0
  6
CONTINUOUS
 62
3
100
AcDbBlockEnd
  0
BLOCK
  5
2C1
100
AcDbEntity
  8
MAIN0
  6
CONTINUOUS
 62
3
100
AcDbBlockBegin
  2
*D25
 70
    65
 10
0.0
 20
0.0
 30
0.0
  0
LINE
  5
2C2
100
AcDbEntity
  8
MAIN0
  6
BYBLOCK
 62
0
100
AcDbLine
 10
341.5084737086600
 20
271.5282420879176
 30
0.0000000000000000
 11
352.5084736967988
 21
271.5282420879176
 31
0.0000000000000000
  0
LINE
  5
2C3
100
AcDbEntity
  8
MAIN0
  6
BYBLOCK
 62
0
100
AcDbLine
 10
350.5084736967988
 20
269.5282420879176
 30
0.0000000000000000
 11
350.5084736967988
 21
262.5282420879175
 31
0.0000000000000000
  0
INSERT
  5
2C4
100
AcDbEntity
  8
MAIN0
  6
BYBLOCK
 62
0
100
AcDbBlockReference
  2
_OPEN
 10
350.5084736967988
 20
271.5282420879176
 30
0.0000000000000000
 41
2.000000000000000
 42
2.000000000000000
 43
2.000000000000000
 50
90.00000000000000
  0
INSERT
  5
2C5
100
AcDbEntity
  8
MAIN0
  6
BYBLOCK
 62
0
100
AcDbBlockReference
  2
_OPEN
 10
350.5084736967988
 20
260.5282420879175
 30
0.0000000000000000
 41
2.000000000000000
 42
2.000000000000000
 43
2.000000000000000
 50
270.0000000000000
  0
LINE
  5
2C6
100
AcDbEntity
  8
MAIN0
  6
BYBLOCK
 62
0
100
AcDbLine
 10
340.8084737086234
 20
260.5282420879175
 30
0.0000000000000000
 11
352.5084736967988
 21
260.5282420879175
 31
0.0000000000000000
  0
MTEXT
  5
2C7
100
AcDbEntity
  8
MAIN0
  6
BYBLOCK
 62
0
100
AcDbMText
 10
348.4584737444826
 20
266.0282420879175
 30
0.0000000000000000
 40
3.099999904632568
 41
0.0000000000000000
 71
     5
 72
     1
  1
\A1;11
 11
6.123233995736766e-017
 21
1.000000000000000
 31
0.0000000000000000
  7
STANDARD
  0
ENDBLK
  5
2C8
100
AcDbEntity
  8
MAIN0
  6
CONTINUOUS
 62
3
100
AcDbBlockEnd
  0
BLOCK
  5
2CA
100
AcDbEntity
  8
MAIN0
  6
CONTINUOUS
 62
3
100
AcDbBlockBegin
  2
*D26
 70
    65
 10
0.0
 20
0.0
 30
0.0
  0
LINE
  5
2CB
100
AcDbEntity
  8
MAIN0
  6
BYBLOCK
 62
0
100
AcDbLine
 10
343.8084737087396
 20
330.5282420879332
 30
0.0000000000000000
 11
367.5084736967988
 21
330.5282420879332
 31
0.0000000000000000
  0
LINE
  5
2CC
100
AcDbEntity
  8
MAIN0
  6
BYBLOCK
 62
0
100
AcDbLine
 10
365.5084736967988
 20
328.5282420879332
 30
0.0000000000000000
 11
365.5084736967988
 21
262.5282420879175
 31
0.0000000000000000
  0
INSERT
  5
2CD
100
AcDbEntity
  8
MAIN0
  6
BYBLOCK
 62
0
100
AcDbBlockReference
  2
_OPEN
 10
365.5084736967988
 20
330.5282420879332
 30
0.0000000000000000
 41
2.000000000000000
 42
2.000000000000000
 43
2.000000000000000
 50
90.00000000000000
  0
INSERT
  5
2CE
100
AcDbEntity
  8
MAIN0
  6
BYBLOCK
 62
0
100
AcDbBlockReference
  2
_OPEN
 10
365.5084736967988
 20
260.5282420879175
 30
0.0000000000000000
 41
2.000000000000000
 42
2.000000000000000
 43
2.000000000000000
 50
270.0000000000000
  0
LINE
  5
2CF
100
AcDbEntity
  8
MAIN0
  6
BYBLOCK
 62
0
100
AcDbLine
 10
340.8084737086234
 20
260.5282420879175
 30
0.0000000000000000
 11
367.5084736967988
 21
260.5282420879175
 31
0.0000000000000000
  0
MTEXT
  5
2D0
100
AcDbEntity
  8
MAIN0
  6
BYBLOCK
 62
0
100
AcDbMText
 10
363.4584737444825
 20
295.5282420879254
 30
0.0000000000000000
 40
3.099999904632568
 41
0.0000000000000000
 71
     5
 72
     1
  1
\A1;70
 11
6.123233995736766e-017
 21
1.000000000000000
 31
0.0000000000000000
  7
STANDARD
  0
ENDBLK
  5
2D1
100
AcDbEntity
  8
MAIN0
  6
CONTINUOUS
 62
3
100
AcDbBlockEnd
  0
BLOCK
  5
2D7
100
AcDbEntity
  8
MAIN0
  6
CONTINUOUS
 62
3
100
AcDbBlockBegin
  2
*D27
 70
    65
 10
0.0
 20
0.0
 30
0.0
  0
LINE
  5
2D8
100
AcDbEntity
  8
MAIN0
  6
BYBLOCK
 62
0
100
AcDbLine
 10
405.5084736967959
 20
325.3282420999735
 30
0.0000000000000000
 11
405.5084736967959
 21
345.5282420880424
 31
0.0000000000000000
  0
LINE
  5
2D9
100
AcDbEntity
  8
MAIN0
  6
BYBLOCK
 62
0
100
AcDbLine
 10
403.5084736967959
 20
343.5282420880424
 30
0.0000000000000000
 11
267.5084736968025
 21
343.5282420880424
 31
0.0000000000000000
  0
INSERT
  5
2DA
100
AcDbEntity
  8
MAIN0
  6
BYBLOCK
 62
0
100
AcDbBlockReference
  2
_OPEN
 10
405.5084736967959
 20
343.5282420880424
 30
0.0000000000000000
 41
2.000000000000000
 42
2.000000000000000
 43
2.000000000000000
 50
360.0000000000000
  0
INSERT
  5
2DB
100
AcDbEntity
  8
MAIN0
  6
BYBLOCK
 62
0
100
AcDbBlockReference
  2
_OPEN
 10
265.5084736968025
 20
343.5282420880424
 30
0.0000000000000000
 41
2.000000000000000
 42
2.000000000000000
 43
2.000000000000000
 50
180.0000000000000
  0
LINE
  5
2DC
100
AcDbEntity
  8
MAIN0
  6
BYBLOCK
 62
0
100
AcDbLine
 10
265.5084736968025
 20
325.3282421001339
 30
0.0000000000000000
 11
265.5084736968025
 21
345.5282420880424
 31
0.0000000000000000
  0
MTEXT
  5
2DD
100
AcDbEntity
  8
MAIN0
  6
BYBLOCK
 62
0
100
AcDbMText
 10
335.5084736967992
 20
345.5782420403587
 30
0.0000000000000000
 40
3.099999904632568
 41
0.0000000000000000
 71
     5
 72
     1
  1
\A1;140
 11
1.000000000000000
 21
0.0000000000000000
 31
0.0000000000000000
  7
STANDARD
  0
ENDBLK
  5
2DE
100
AcDbEntity
  8
MAIN0
  6
CONTINUOUS
 62
3
100
AcDbBlockEnd
  0
BLOCK
  5
30D
100
AcDbEntity
  8
MAIN0
  6
CONTINUOUS
 62
3
100
AcDbBlockBegin
  2
*D28
 70
    65
 10
0.0
 20
0.0
 30
0.0
  0
LINE
  5
30E
100
AcDbEntity
  8
MAIN0
  6
BYBLOCK
 62
0
100
AcDbLine
 10
235.2090675972357
 20
275.5299389464558
 30
0.0000000000000000
 11
218.6766257483447
 21
228.2943908068978
 31
0.0000000000000000
  0
INSERT
  5
30F
100
AcDbEntity
  8
MAIN0
  6
BYBLOCK
 62
0
100
AcDbBlockReference
  2
_OPEN
 10
235.8697684466935
 20
277.4176556591873
 30
0.0000000000000000
 41
2.000000000000000
 42
2.000000000000000
 43
2.000000000000000
 50
70.70995378076191
  0
MTEXT
  5
310
100
AcDbEntity
  8
MAIN0
  6
BYBLOCK
 62
0
100
AcDbMText
 10
231.3965039794612
 20
270.8424314950372
 30
0.0000000000000000
 40
3.099999904632568
 41
0.0000000000000000
 71
     5
 72
     1
  1
\A1;\U+220593\H0.903226x;\U+00B10.2
 11
0.3303504247289198
 21
0.9438583563657326
 31
0.0000000000000000
  7
STANDARD
  0
ENDBLK
  5
311
100
AcDbEntity
  8
MAIN0
  6
CONTINUOUS
 62
3
100
AcDbBlockEnd
  0
BLOCK
  5
324
100
AcDbEntity
  8
MAIN0
  6
CONTINUOUS
 62
3
100
AcDbBlockBegin
  2
*D29
 70
    65
 10
0.0
 20
0.0
 30
0.0
  0
LINE
  5
325
100
AcDbEntity
  8
MAIN0
  6
BYBLOCK
 62
0
100
AcDbLine
 10
220.5084736967988
 20
294.3282420999633
 30
0.0000000000000000
 11
220.5084736967988
 21
300.5282420880424
 31
0.0000000000000000
  0
LINE
  5
326
100
AcDbEntity
  8
MAIN0
  6
BYBLOCK
 62
0
100
AcDbLine
 10
193.3584736912541
 20
280.5534215241009
 30
0.0000000000000000
 11
187.0084736972838
 21
291.5519441417541
 31
0.0000000000000000
  0
ARC
  5
327
100
AcDbEntity
  8
MAIN0
  6
BYBLOCK
 62
0
100
AcDbCircle
 10
220.5084736967988
 20
233.5282420888547
 30
0.0000000000000000
 40
64.99999999918768
100
AcDbArc
 50
91.76294706196302
 51
118.2370529379591
  0
INSERT
  5
328
100
AcDbEntity
  8
MAIN0
  6
BYBLOCK
 62
0
100
AcDbBlockReference
  2
_OPEN
 10
220.5084736967988
 20
298.5282420880424
 30
0.0000000000000000
 41
2.000000000000000
 42
2.000000000000000
 43
2.000000000000000
 50
360.0000000000000
  0
INSERT
  5
329
100
AcDbEntity
  8
MAIN0
  6
BYBLOCK
 62
0
100
AcDbBlockReference
  2
_OPEN
 10
188.0084736972814
 20
289.8198933341839
 30
0.0000000000000000
 41
2.000000000000000
 42
2.000000000000000
 43
2.000000000000000
 50
209.9999999999221
  0
MTEXT
  5
32A
100
AcDbEntity
  8
MAIN0
  6
BYBLOCK
 62
0
100
AcDbMText
 10
203.1546567352705
 20
298.2935686947049
 30
0.0000000000000000
 40
3.099999904632568
 41
0.0000000000000000
 71
     5
 72
     1
  1
\A1;30\U+00B0
 11
0.9659258262892442
 21
0.2588190451018644
 31
0.0000000000000000
  7
STANDARD
  0
ENDBLK
  5
32B
100
AcDbEntity
  8
MAIN0
  6
CONTINUOUS
 62
3
100
AcDbBlockEnd
  0
BLOCK
  5
32D
100
AcDbEntity
  8
MAIN0
  6
CONTINUOUS
 62
3
100
AcDbBlockBegin
  2
*D30
 70
    65
 10
0.0
 20
0.0
 30
0.0
  0
LINE
  5
32E
100
AcDbEntity
  8
MAIN0
  6
BYBLOCK
 62
0
100
AcDbLine
 10
202.8518801941536
 20
275.4626516568243
 30
0.0000000000000000
 11
222.6731796465668
 21
228.3870654573432
 31
0.0000000000000000
  0
INSERT
  5
32F
100
AcDbEntity
  8
MAIN0
  6
BYBLOCK
 62
0
100
AcDbBlockReference
  2
_OPEN
 10
202.0757661940374
 20
277.3059224071005
 30
0.0000000000000000
 41
2.000000000000000
 42
2.000000000000000
 43
2.000000000000000
 50
112.8336541779176
  0
MTEXT
  5
330
100
AcDbEntity
  8
MAIN0
  6
BYBLOCK
 62
0
100
AcDbMText
 10
207.2779447489560
 20
259.6680193792243
 30
0.0000000000000000
 40
3.099999904632568
 41
0.0000000000000000
 71
     5
 72
     1
  1
\A1;\U+220595\H0.903226x;\U+00B10.2
 11
-0.3880570000581333
 21
0.9216353751380650
 31
0.0000000000000000
  7
STANDARD
  0
ENDBLK
  5
331
100
AcDbEntity
  8
MAIN0
  6
CONTINUOUS
 62
3
100
AcDbBlockEnd
  0
BLOCK
  5
339
100
AcDbEntity
  8
MAIN0
  6
CONTINUOUS
 62
3
100
AcDbBlockBegin
  2
*D31
 70
    65
 10
0.0
 20
0.0
 30
0.0
  0
LINE
  5
33A
100
AcDbEntity
  8
MAIN0
  6
BYBLOCK
 62
0
100
AcDbLine
 10
118.5084736967988
 20
179.2282420761214
 30
0.0000000000000000
 11
118.5084736967988
 21
166.5282420880424
 31
0.0000000000000000
  0
LINE
  5
33B
100
AcDbEntity
  8
MAIN0
  6
BYBLOCK
 62
0
100
AcDbLine
 10
116.5084736967988
 20
168.5282420880424
 30
0.0000000000000000
 11
111.5084736967988
 21
168.5282420880424
 31
0.0000000000000000
  0
INSERT
  5
33C
100
AcDbEntity
  8
MAIN0
  6
BYBLOCK
 62
0
100
AcDbBlockReference
  2
_OPEN
 10
118.5084736967988
 20
168.5282420880424
 30
0.0000000000000000
 41
2.000000000000000
 42
2.000000000000000
 43
2.000000000000000
 50
360.0000000000000
  0
INSERT
  5
33D
100
AcDbEntity
  8
MAIN0
  6
BYBLOCK
 62
0
100
AcDbBlockReference
  2
_OPEN
 10
109.5084736967988
 20
168.5282420880424
 30
0.0000000000000000
 41
2.000000000000000
 42
2.000000000000000
 43
2.000000000000000
 50
180.0000000000000
  0
LINE
  5
33E
100
AcDbEntity
  8
MAIN0
  6
BYBLOCK
 62
0
100
AcDbLine
 10
109.5084736967988
 20
179.2282420761214
 30
0.0000000000000000
 11
109.5084736967988
 21
166.5282420880424
 31
0.0000000000000000
  0
MTEXT
  5
33F
100
AcDbEntity
  8
MAIN0
  6
BYBLOCK
 62
0
100
AcDbMText
 10
114.0084736967988
 20
170.5782420403587
 30
0.0000000000000000
 40
3.099999904632568
 41
0.0000000000000000
 71
     5
 72
     1
  1
\A1;9
 11
1.000000000000000
 21
0.0000000000000000
 31
0.0000000000000000
  7
STANDARD
  0
ENDBLK
  5
340
100
AcDbEntity
  8
MAIN0
  6
CONTINUOUS
 62
3
100
AcDbBlockEnd
  0
BLOCK
  5
342
100
AcDbEntity
  8
MAIN0
  6
CONTINUOUS
 62
3
100
AcDbBlockBegin
  2
*D32
 70
    65
 10
0.0
 20
0.0
 30
0.0
  0
LINE
  5
343
100
AcDbEntity
  8
MAIN0
  6
BYBLOCK
 62
0
100
AcDbLine
 10
118.5084736967988
 20
179.2282420761214
 30
0.0000000000000000
 11
118.5084736967988
 21
159.0282420880424
 31
0.0000000000000000
  0
LINE
  5
344
100
AcDbEntity
  8
MAIN0
  6
BYBLOCK
 62
0
100
AcDbLine
 10
116.5084736967988
 20
161.0282420880424
 30
0.0000000000000000
 11
87.00847369679875
 21
161.0282420880424
 31
0.0000000000000000
  0
INSERT
  5
345
100
AcDbEntity
  8
MAIN0
  6
BYBLOCK
 62
0
100
AcDbBlockReference
  2
_OPEN
 10
118.5084736967988
 20
161.0282420880424
 30
0.0000000000000000
 41
2.000000000000000
 42
2.000000000000000
 43
2.000000000000000
 50
360.0000000000000
  0
INSERT
  5
346
100
AcDbEntity
  8
MAIN0
  6
BYBLOCK
 62
0
100
AcDbBlockReference
  2
_OPEN
 10
85.00847369679875
 20
161.0282420880424
 30
0.0000000000000000
 41
2.000000000000000
 42
2.000000000000000
 43
2.000000000000000
 50
180.0000000000000
  0
LINE
  5
347
100
AcDbEntity
  8
MAIN0
  6
BYBLOCK
 62
0
100
AcDbLine
 10
85.00847369679875
 20
175.2282420761214
 30
0.0000000000000000
 11
85.00847369679875
 21
159.0282420880424
 31
0.0000000000000000
  0
MTEXT
  5
348
100
AcDbEntity
  8
MAIN0
  6
BYBLOCK
 62
0
100
AcDbMText
 10
101.7584736967988
 20
163.0782420403587
 30
0.0000000000000000
 40
3.099999904632568
 41
0.0000000000000000
 71
     5
 72
     1
  1
\A1;33.5
 11
1.000000000000000
 21
0.0000000000000000
 31
0.0000000000000000
  7
STANDARD
  0
ENDBLK
  5
349
100
AcDbEntity
  8
MAIN0
  6
CONTINUOUS
 62
3
100
AcDbBlockEnd
  0
BLOCK
  5
34B
100
AcDbEntity
  8
MAIN0
  6
CONTINUOUS
 62
3
100
AcDbBlockBegin
  2
*D33
 70
    65
 10
0.0
 20
0.0
 30
0.0
  0
LINE
  5
34C
100
AcDbEntity
  8
MAIN0
  6
BYBLOCK
 62
0
100
AcDbLine
 10
85.00847369679875
 20
175.2282420761214
 30
0.0000000000000000
 11
85.00847369679875
 21
159.0282420880424
 31
0.0000000000000000
  0
LINE
  5
34D
100
AcDbEntity
  8
MAIN0
  6
BYBLOCK
 62
0
100
AcDbLine
 10
83.00847369679875
 20
161.0282420880424
 30
0.0000000000000000
 11
62.50847369679875
 21
161.0282420880424
 31
0.0000000000000000
  0
INSERT
  5
34E
100
AcDbEntity
  8
MAIN0
  6
BYBLOCK
 62
0
100
AcDbBlockReference
  2
_OPEN
 10
85.00847369679875
 20
161.0282420880424
 30
0.0000000000000000
 41
2.000000000000000
 42
2.000000000000000
 43
2.000000000000000
 50
360.0000000000000
  0
INSERT
  5
34F
100
AcDbEntity
  8
MAIN0
  6
BYBLOCK
 62
0
100
AcDbBlockReference
  2
_OPEN
 10
60.50847369679875
 20
161.0282420880424
 30
0.0000000000000000
 41
2.000000000000000
 42
2.000000000000000
 43
2.000000000000000
 50
180.0000000000000
  0
LINE
  5
350
100
AcDbEntity
  8
MAIN0
  6
BYBLOCK
 62
0
100
AcDbLine
 10
60.50847369679875
 20
178.7282420761214
 30
0.0000000000000000
 11
60.50847369679875
 21
159.0282420880424
 31
0.0000000000000000
  0
MTEXT
  5
351
100
AcDbEntity
  8
MAIN0
  6
BYBLOCK
 62
0
100
AcDbMText
 10
72.75847369679875
 20
163.0782420403587
 30
0.0000000000000000
 40
3.099999904632568
 41
0.0000000000000000
 71
     5
 72
     1
  1
\A1;24.5
 11
1.000000000000000
 21
0.0000000000000000
 31
0.0000000000000000
  7
STANDARD
  0
ENDBLK
  5
352
100
AcDbEntity
  8
MAIN0
  6
CONTINUOUS
 62
3
100
AcDbBlockEnd
  0
BLOCK
  5
354
100
AcDbEntity
  8
MAIN0
  6
CONTINUOUS
 62
3
100
AcDbBlockBegin
  2
*D34
 70
    65
 10
0.0
 20
0.0
 30
0.0
  0
LINE
  5
355
100
AcDbEntity
  8
MAIN0
  6
BYBLOCK
 62
0
100
AcDbLine
 10
60.50847369679875
 20
178.7282420761214
 30
0.0000000000000000
 11
60.50847369679875
 21
151.5282420880424
 31
0.0000000000000000
  0
LINE
  5
356
100
AcDbEntity
  8
MAIN0
  6
BYBLOCK
 62
0
100
AcDbLine
 10
62.50847369679875
 20
153.5282420880424
 30
0.0000000000000000
 11
116.5084736967988
 21
153.5282420880424
 31
0.0000000000000000
  0
INSERT
  5
357
100
AcDbEntity
  8
MAIN0
  6
BYBLOCK
 62
0
100
AcDbBlockReference
  2
_OPEN
 10
60.50847369679875
 20
153.5282420880424
 30
0.0000000000000000
 41
2.000000000000000
 42
2.000000000000000
 43
2.000000000000000
 50
180.0000000000000
  0
INSERT
  5
358
100
AcDbEntity
  8
MAIN0
  6
BYBLOCK
 62
0
100
AcDbBlockReference
  2
_OPEN
 10
118.5084736967988
 20
153.5282420880424
 30
0.0000000000000000
 41
2.000000000000000
 42
2.000000000000000
 43
2.000000000000000
 50
0.0000000000000000
  0
LINE
  5
359
100
AcDbEntity
  8
MAIN0
  6
BYBLOCK
 62
0
100
AcDbLine
 10
118.5084736967988
 20
179.2282420761214
 30
0.0000000000000000
 11
118.5084736967988
 21
151.5282420880424
 31
0.0000000000000000
  0
MTEXT
  5
35A
100
AcDbEntity
  8
MAIN0
  6
BYBLOCK
 62
0
100
AcDbMText
 10
89.50847369679875
 20
155.5782420403587
 30
0.0000000000000000
 40
3.099999904632568
 41
0.0000000000000000
 71
     5
 72
     1
  1
\A1;58
 11
1.000000000000000
 21
0.0000000000000000
 31
0.0000000000000000
  7
STANDARD
  0
ENDBLK
  5
35B
100
AcDbEntity
  8
MAIN0
  6
CONTINUOUS
 62
3
100
AcDbBlockEnd
  0
BLOCK
  5
35D
100
AcDbEntity
  8
MAIN0
  6
CONTINUOUS
 62
3
100
AcDbBlockBegin
  2
*D35
 70
    65
 10
0.0
 20
0.0
 30
0.0
  0
LINE
  5
35E
100
AcDbEntity
  8
MAIN0
  6
BYBLOCK
 62
0
100
AcDbLine
 10
118.5084736967994
 20
287.8282420999633
 30
0.0000000000000000
 11
118.5084736968077
 21
298.0282420880424
 31
0.0000000000000000
  0
LINE
  5
35F
100
AcDbEntity
  8
MAIN0
  6
BYBLOCK
 62
0
100
AcDbLine
 10
120.5084736968061
 20
296.0282420880424
 30
0.0000000000000000
 11
134.5084736967815
 21
296.0282420880424
 31
0.0000000000000000
  0
INSERT
  5
360
100
AcDbEntity
  8
MAIN0
  6
BYBLOCK
 62
0
100
AcDbBlockReference
  2
_OPEN
 10
118.5084736968061
 20
296.0282420880424
 30
0.0000000000000000
 41
2.000000000000000
 42
2.000000000000000
 43
2.000000000000000
 50
180.0000000000000
  0
INSERT
  5
361
100
AcDbEntity
  8
MAIN0
  6
BYBLOCK
 62
0
100
AcDbBlockReference
  2
_OPEN
 10
136.5084736967815
 20
296.0282420880424
 30
0.0000000000000000
 41
2.000000000000000
 42
2.000000000000000
 43
2.000000000000000
 50
0.0000000000000000
  0
LINE
  5
362
100
AcDbEntity
  8
MAIN0
  6
BYBLOCK
 62
0
100
AcDbLine
 10
136.5084736967815
 20
260.0282420999633
 30
0.0000000000000000
 11
136.5084736967815
 21
298.0282420880424
 31
0.0000000000000000
  0
MTEXT
  5
363
100
AcDbEntity
  8
MAIN0
  6
BYBLOCK
 62
0
100
AcDbMText
 10
127.5084736967938
 20
298.0782420403587
 30
0.0000000000000000
 40
3.099999904632568
 41
0.0000000000000000
 71
     5
 72
     1
  1
\A1;18
 11
1.000000000000000
 21
0.0000000000000000
 31
0.0000000000000000
  7
STANDARD
  0
ENDBLK
  5
364
100
AcDbEntity
  8
MAIN0
  6
CONTINUOUS
 62
3
100
AcDbBlockEnd
  0
BLOCK
  5
366
100
AcDbEntity
  8
MAIN0
  6
CONTINUOUS
 62
3
100
AcDbBlockBegin
  2
*D36
 70
    65
 10
0.0
 20
0.0
 30
0.0
  0
LINE
  5
367
100
AcDbEntity
  8
MAIN0
  6
BYBLOCK
 62
0
100
AcDbLine
 10
248.6584737025888
 20
282.2854723316668
 30
0.0000000000000000
 11
254.0084736965293
 21
291.5519441417078
 31
0.0000000000000000
  0
LINE
  5
368
100
AcDbEntity
  8
MAIN0
  6
BYBLOCK
 62
0
100
AcDbLine
 10
220.5084736967988
 20
294.3282420999633
 30
0.0000000000000000
 11
220.5084736967988
 21
300.5282420880424
 31
0.0000000000000000
  0
ARC
  5
369
100
AcDbEntity
  8
MAIN0
  6
BYBLOCK
 62
0
100
AcDbCircle
 10
220.5084736967988
 20
233.5282420883495
 30
0.0000000000000000
 40
64.99999999969282
100
AcDbArc
 50
61.76294706206370
 51
88.23705293805068
  0
INSERT
  5
36A
100
AcDbEntity
  8
MAIN0
  6
BYBLOCK
 62
0
100
AcDbBlockReference
  2
_OPEN
 10
253.0084736965328
 20
289.8198933341369
 30
0.0000000000000000
 41
2.000000000000000
 42
2.000000000000000
 43
2.000000000000000
 50
330.0000000001144
  0
INSERT
  5
36B
100
AcDbEntity
  8
MAIN0
  6
BYBLOCK
 62
0
100
AcDbBlockReference
  2
_OPEN
 10
220.5084736967988
 20
298.5282420880424
 30
0.0000000000000000
 41
2.000000000000000
 42
2.000000000000000
 43
2.000000000000000
 50
180.0000000000000
  0
MTEXT
  5
36C
100
AcDbEntity
  8
MAIN0
  6
BYBLOCK
 62
0
100
AcDbMText
 10
237.8622906584372
 20
298.2935686946933
 30
0.0000000000000000
 40
3.099999904632568
 41
0.0000000000000000
 71
     5
 72
     1
  1
\A1;30\U+00B0
 11
0.9659258262893267
 21
-0.2588190451015564
 31
0.0000000000000000
  7
STANDARD
  0
ENDBLK
  5
36D
100
AcDbEntity
  8
MAIN0
  6
CONTINUOUS
 62
3
100
AcDbBlockEnd
  0
BLOCK
  5
36F
100
AcDbEntity
  8
MAIN0
  6
CONTINUOUS
 62
3
100
AcDbBlockBegin
  2
*D37
 70
    65
 10
0.0
 20
0.0
 30
0.0
  0
LINE
  5
370
100
AcDbEntity
  8
MAIN0
  6
BYBLOCK
 62
0
100
AcDbLine
 10
315.5084736967988
 20
320.5282420880332
 30
0.0000000000000000
 11
315.5084736967988
 21
316.5282420880333
 31
0.0000000000000000
  0
INSERT
  5
371
100
AcDbEntity
  8
MAIN0
  6
BYBLOCK
 62
0
100
AcDbBlockReference
  2
_OPEN
 10
315.5084736967988
 20
322.5282420880332
 30
0.0000000000000000
 41
2.000000000000000
 42
2.000000000000000
 43
2.000000000000000
 50
90.00000000000000
  0
INSERT
  5
372
100
AcDbEntity
  8
MAIN0
  6
BYBLOCK
 62
0
100
AcDbBlockReference
  2
_OPEN
 10
315.5084736967988
 20
314.5282420880333
 30
0.0000000000000000
 41
2.000000000000000
 42
2.000000000000000
 43
2.000000000000000
 50
270.0000000000000
  0
MTEXT
  5
373
100
AcDbEntity
  8
MAIN0
  6
BYBLOCK
 62
0
100
AcDbMText
 10
313.4584737444825
 20
318.5282420880333
 30
0.0000000000000000
 40
3.099999904632568
 41
0.0000000000000000
 71
     5
 72
     1
  1
\A1;\U+22058
 11
6.123233995736766e-017
 21
1.000000000000000
 31
0.0000000000000000
  7
STANDARD
  0
ENDBLK
  5
374
100
AcDbEntity
  8
MAIN0
  6
CONTINUOUS
 62
3
100
AcDbBlockEnd
  0
BLOCK
  5
376
100
AcDbEntity
  8
MAIN0
  6
CONTINUOUS
 62
3
100
AcDbBlockBegin
  2
*D38
 70
    65
 10
0.0
 20
0.0
 30
0.0
  0
LINE
  5
377
100
AcDbEntity
  8
MAIN0
  6
BYBLOCK
 62
0
100
AcDbLine
 10
343.8084737087395
 20
330.5282420879324
 30
0.0000000000000000
 11
360.1191725584667
 21
330.5282420879165
 31
0.0000000000000000
  0
LINE
  5
378
100
AcDbEntity
  8
MAIN0
  6
BYBLOCK
 62
0
100
AcDbLine
 10
358.1191725584668
 20
328.5282420879184
 30
0.0000000000000000
 11
358.1191725584668
 21
320.5282420880396
 31
0.0000000000000000
  0
INSERT
  5
379
100
AcDbEntity
  8
MAIN0
  6
BYBLOCK
 62
0
100
AcDbBlockReference
  2
_OPEN
 10
358.1191725584668
 20
330.5282420879184
 30
0.0000000000000000
 41
2.000000000000000
 42
2.000000000000000
 43
2.000000000000000
 50
90.00000000000000
  0
INSERT
  5
37A
100
AcDbEntity
  8
MAIN0
  6
BYBLOCK
 62
0
100
AcDbBlockReference
  2
_OPEN
 10
358.1191725584668
 20
318.5282420880396
 30
0.0000000000000000
 41
2.000000000000000
 42
2.000000000000000
 43
2.000000000000000
 50
270.0000000000000
  0
MTEXT
  5
37B
100
AcDbEntity
  8
MAIN0
  6
BYBLOCK
 62
0
100
AcDbMText
 10
356.0691726061505
 20
326.0282420879889
 30
0.0000000000000000
 40
3.099999904632568
 41
0.0000000000000000
 71
     5
 72
     1
  1
\A1;12
 11
6.123233995736766e-017
 21
1.000000000000000
 31
0.0000000000000000
  7
STANDARD
  0
ENDBLK
  5
37C
100
AcDbEntity
  8
MAIN0
  6
CONTINUOUS
 62
3
100
AcDbBlockEnd
  0
BLOCK
  5
392
100
AcDbEntity
  8
MAIN0
  6
CONTINUOUS
 62
3
100
AcDbBlockBegin
  2
*D39
 70
    65
 10
0.0
 20
0.0
 30
0.0
  0
LINE
  5
393
100
AcDbEntity
  8
MAIN0
  6
BYBLOCK
 62
0
100
AcDbLine
 10
333.5084736966948
 20
306.0282420880424
 30
0.0000000000000000
 11
214.0084736967249
 21
306.0282420880424
 31
0.0000000000000000
  0
INSERT
  5
394
100
AcDbEntity
  8
MAIN0
  6
BYBLOCK
 62
0
100
AcDbBlockReference
  2
_OPEN
 10
335.5084736966948
 20
306.0282420880424
 30
0.0000000000000000
 41
2.000000000000000
 42
2.000000000000000
 43
2.000000000000000
 50
360.0000000000000
  0
INSERT
  5
395
100
AcDbEntity
  8
MAIN0
  6
BYBLOCK
 62
0
100
AcDbBlockReference
  2
_OPEN
 10
212.0084736967249
 20
306.0282420880424
 30
0.0000000000000000
 41
2.000000000000000
 42
2.000000000000000
 43
2.000000000000000
 50
180.0000000000000
  0
LINE
  5
396
100
AcDbEntity
  8
MAIN0
  6
BYBLOCK
 62
0
100
AcDbLine
 10
212.0084736967249
 20
311.7282420762831
 30
0.0000000000000000
 11
212.0084736967249
 21
304.0282420880424
 31
0.0000000000000000
  0
MTEXT
  5
397
100
AcDbEntity
  8
MAIN0
  6
BYBLOCK
 62
0
100
AcDbMText
 10
290.5084736967988
 20
308.0782420403587
 30
0.0000000000000000
 40
3.099999904632568
 41
0.0000000000000000
 71
     5
 72
     1
  1
\A1;MAX 123.5
 11
1.000000000000000
 21
0.0000000000000000
 31
0.0000000000000000
  7
STANDARD
  0
ENDBLK
  5
398
100
AcDbEntity
  8
MAIN0
  6
CONTINUOUS
 62
3
100
AcDbBlockEnd
  0
BLOCK
  5
40C
100
AcDbEntity
  8
A0
  6
BYBLOCK
 62
3
100
AcDbBlockBegin
  2
M0
 70
    64
 10
0.0
 20
0.0
 30
0.0
  0
LINE
  5
40D
100
AcDbEntity
  8
A0
  6
BYBLOCK
 62
0
100
AcDbLine
 10
470.0000000000000
 20
151.7499999999996
 30
0.0000000000000000
 11
610.0000000000000
 21
151.7499999999996
 31
0.0000000000000000
  0
LINE
  5
40E
100
AcDbEntity
  8
A0
  6
BYBLOCK
 62
0
100
AcDbLine
 10
470.0000000000000
 20
144.2499999999996
 30
0.0000000000000000
 11
610.0000000000000
 21
144.2499999999996
 31
0.0000000000000000
  0
LINE
  5
40F
100
AcDbEntity
  8
A0
  6
BYBLOCK
 62
0
100
AcDbLine
 10
470.0000000000000
 20
136.7499999999997
 30
0.0000000000000000
 11
610.0000000000000
 21
136.7499999999997
 31
0.0000000000000000
  0
MTEXT
  5
410
100
AcDbEntity
  8
A0
  6
BYBLOCK
 62
0
100
AcDbMText
 10
471.5000000000000
 20
157.1499998569484
 30
0.0000000000000000
 40
4.649999856948853
 41
0.0000000000000000
 71
     1
 72
     1
  1
{\H0.88x;1.}
 11
1.000000000000000
 21
0.0000000000000000
 31
0.0000000000000000
  7
STANDARD
  0
MTEXT
  5
411
100
AcDbEntity
  8
A0
  6
BYBLOCK
 62
0
100
AcDbMText
 10
472.2500000000000
 20
172.7500000000000
 30
0.0000000000000000
 40
9.000000000000000
 41
0.0000000000000000
 71
     1
 72
     1
  1
{\H0.80x;要注意}
 11
1.000000000000000
 21
0.0000000000000000
 31
0.0000000000000000
  7
KNJYOKO
  0
LINE
  5
412
100
AcDbEntity
  8
A0
  6
BYBLOCK
 62
0
100
AcDbLine
 10
500.0000000000000
 20
175.0000000000000
 30
0.0000000000000000
 11
500.0000000000000
 21
161.5000000000000
 31
0.0000000000000000
  0
LINE
  5
413
100
AcDbEntity
  8
A0
  6
BYBLOCK
 62
0
100
AcDbLine
 10
470.0000000000000
 20
161.5000000000000
 30
0.0000000000000000
 11
500.0000000000000
 21
161.5000000000000
 31
0.0000000000000000
  0
LINE
  5
414
100
AcDbEntity
  8
A0
  6
BYBLOCK
 62
0
100
AcDbLine
 10
470.0000000000000
 20
175.0000000000000
 30
0.0000000000000000
 11
470.0000000000000
 21
161.5000000000000
 31
0.0000000000000000
  0
LINE
  5
415
100
AcDbEntity
  8
A0
  6
BYBLOCK
 62
0
100
AcDbLine
 10
470.0000000000000
 20
175.0000000000000
 30
0.0000000000000000
 11
500.0000000000000
 21
175.0000000000000
 31
0.0000000000000000
  0
ENDBLK
  5
416
100
AcDbEntity
  8
A0
  6
BYBLOCK
 62
3
100
AcDbBlockEnd
  0
BLOCK
  5
418
100
AcDbEntity
  8
A0
  6
BYBLOCK
 62
3
100
AcDbBlockBegin
  2
M1
 70
    64
 10
0.0
 20
0.0
 30
0.0
  0
LINE
  5
419
100
AcDbEntity
  8
A0
  6
BYBLOCK
 62
0
100
AcDbLine
 10
470.0000000000000
 20
106.7499999999996
 30
0.0000000000000000
 11
610.0000000000000
 21
106.7499999999996
 31
0.0000000000000000
  0
LINE
  5
41A
100
AcDbEntity
  8
A0
  6
BYBLOCK
 62
0
100
AcDbLine
 10
470.0000000000000
 20
99.24999999999960
 30
0.0000000000000000
 11
610.0000000000000
 21
99.24999999999960
 31
0.0000000000000000
  0
LINE
  5
41B
100
AcDbEntity
  8
A0
  6
BYBLOCK
 62
0
100
AcDbLine
 10
470.0000000000000
 20
91.74999999999966
 30
0.0000000000000000
 11
610.0000000000000
 21
91.74999999999966
 31
0.0000000000000000
  0
LINE
  5
41C
100
AcDbEntity
  8
A0
  6
BYBLOCK
 62
0
100
AcDbLine
 10
470.0000000000000
 20
84.24999999999966
 30
0.0000000000000000
 11
610.0000000000000
 21
84.24999999999966
 31
0.0000000000000000
  0
MTEXT
  5
41D
100
AcDbEntity
  8
A0
  6
BYBLOCK
 62
0
100
AcDbMText
 10
471.5000000000000
 20
112.1499998569484
 30
0.0000000000000000
 40
4.649999856948853
 41
0.0000000000000000
 71
     1
 72
     1
  1
{\H0.88x;1.}
 11
1.000000000000000
 21
0.0000000000000000
 31
0.0000000000000000
  7
STANDARD
  0
MTEXT
  5
41E
100
AcDbEntity
  8
A0
  6
BYBLOCK
 62
0
100
AcDbMText
 10
472.2500000000000
 20
126.2500000000000
 30
0.0000000000000000
 40
7.500000000000000
 41
0.0000000000000000
 71
     1
 72
     1
  1
{\H0.63x;NOTICE}
 11
1.000000000000000
 21
0.0000000000000000
 31
0.0000000000000000
  7
STANDARD
  0
LINE
  5
41F
100
AcDbEntity
  8
A0
  6
BYBLOCK
 62
0
100
AcDbLine
 10
500.0000000000000
 20
130.0000000000000
 30
0.0000000000000000
 11
500.0000000000000
 21
116.5000000000000
 31
0.0000000000000000
  0
LINE
  5
420
100
AcDbEntity
  8
A0
  6
BYBLOCK
 62
0
100
AcDbLine
 10
470.0000000000000
 20
116.5000000000000
 30
0.0000000000000000
 11
500.0000000000000
 21
116.5000000000000
 31
0.0000000000000000
  0
LINE
  5
421
100
AcDbEntity
  8
A0
  6
BYBLOCK
 62
0
100
AcDbLine
 10
470.0000000000000
 20
130.0000000000000
 30
0.0000000000000000
 11
470.0000000000000
 21
116.5000000000000
 31
0.0000000000000000
  0
LINE
  5
422
100
AcDbEntity
  8
A0
  6
BYBLOCK
 62
0
100
AcDbLine
 10
470.0000000000000
 20
130.0000000000000
 30
0.0000000000000000
 11
500.0000000000000
 21
130.0000000000000
 31
0.0000000000000000
  0
ENDBLK
  5
423
100
AcDbEntity
  8
A0
  6
BYBLOCK
 62
3
100
AcDbBlockEnd
  0
ENDSEC
  0
SECTION
  2
ENTITIES
  0
LINE
  5
46
100
AcDbEntity
  8
MAIN0
  6
CONTINUOUS
 62
3
100
AcDbLine
 10
60.50847369679875
 20
179.5282420880424
 30
0.0000000000000000
 11
60.50847369679875
 21
287.5282420880424
 31
0.0000000000000000
  0
LINE
  5
47
100
AcDbEntity
  8
MAIN0
  6
CONTINUOUS
 62
3
100
AcDbLine
 10
66.00847369679875
 20
245.5282420880424
 30
0.0000000000000000
 11
78.25361005565765
 21
245.5282420880424
 31
0.0000000000000000
  0
LINE
  5
48
100
AcDbEntity
  8
MAIN0
  6
CONTINUOUS
 62
3
100
AcDbLine
 10
74.50847369679875
 20
253.0282420880424
 30
0.0000000000000000
 11
78.16714294237946
 21
253.0282420880424
 31
0.0000000000000000
  0
LINE
  5
49
100
AcDbEntity
  8
MAIN0
  6
CONTINUOUS
 62
3
100
AcDbLine
 10
60.50847369679876
 20
273.5282420880424
 30
0.0000000000000000
 11
67.50847369679876
 21
273.5282420880424
 31
0.0000000000000000
  0
LINE
  5
4A
100
AcDbEntity
  8
MAIN0
  6
CONTINUOUS
 62
3
100
AcDbLine
 10
67.50847369679875
 20
274.5282420880424
 30
0.0000000000000000
 11
78.93170148157797
 21
274.5282420880424
 31
0.0000000000000000
  0
LINE
  5
4B
100
AcDbEntity
  8
MAIN0
  6
CONTINUOUS
 62
3
100
AcDbLine
 10
61.50847369679876
 20
288.5282420880424
 30
0.0000000000000000
 11
60.50847369679876
 21
287.5282420880424
 31
0.0000000000000000
  0
ARC
  5
4C
100
AcDbEntity
  8
MAIN0
  6
CONTINUOUS
 62
3
100
AcDbCircle
 10
117.0084736967988
 20
287.0282420880424
 30
0.0000000000000000
 40
1.500000000000000
100
AcDbArc
 50
0.0000000000000000
 51
90.00000000000000
  0
LINE
  5
4D
100
AcDbEntity
  8
MAIN0
  6
CONTINUOUS
 62
3
100
AcDbLine
 10
66.00847369679875
 20
221.5282420880424
 30
0.0000000000000000
 11
78.08331392883221
 21
221.5282420880424
 31
0.0000000000000000
  0
LINE
  5
4E
100
AcDbEntity
  8
MAIN0
  6
CONTINUOUS
 62
3
100
AcDbLine
 10
60.50847369679876
 20
193.5282420880424
 30
0.0000000000000000
 11
67.50847369679876
 21
193.5282420880424
 31
0.0000000000000000
  0
LINE
  5
4F
100
AcDbEntity
  8
MAIN0
  6
CONTINUOUS
 62
3
100
AcDbLine
 10
61.50847369679876
 20
178.5282420880424
 30
0.0000000000000000
 11
60.50847369679876
 21
179.5282420880424
 31
0.0000000000000000
  0
ARC
  5
50
100
AcDbEntity
  8
MAIN0
  6
CONTINUOUS
 62
3
100
AcDbCircle
 10
117.0084736967988
 20
180.0282420880424
 30
0.0000000000000000
 40
1.500000000000000
100
AcDbArc
 50
270.0000000000000
 51
360.0000000000000
  0
LINE
  5
51
100
AcDbEntity
  8
MAIN0
  6
CONTINUOUS
 62
3
100
AcDbLine
 10
74.50847369679875
 20
253.5282420880424
 30
0.0000000000000000
 11
78.00847369987534
 21
253.5282420880424
 31
0.0000000000000000
  0
LINE
  5
52
100
AcDbEntity
  8
MAIN0
  6
CONTINUOUS
 62
3
100
AcDbLine
 10
72.00847369679875
 20
258.0282420880424
 30
0.0000000000000000
 11
75.60318865837922
 21
258.0282420880424
 31
0.0000000000000000
  0
LINE
  5
53
100
AcDbEntity
  8
MAIN0
  6
CONTINUOUS
 62
3
100
AcDbLine
 10
65.00847369679875
 20
193.5282420880424
 30
0.0000000000000000
 11
65.00847369679875
 21
273.5282420880424
 31
0.0000000000000000
  0
LINE
  5
54
100
AcDbEntity
  8
MAIN0
  6
CONTINUOUS
 62
3
100
AcDbLine
 10
71.00847369679875
 20
258.1998149632962
 30
0.0000000000000000
 11
71.00847369679875
 21
273.5282420880424
 31
0.0000000000000000
  0
LINE
  5
55
100
AcDbEntity
  8
MAIN0
  6
CONTINUOUS
 62
3
100
AcDbLine
 10
65.00847369679875
 20
273.5282420880424
 30
0.0000000000000000
 11
71.00847369679876
 21
273.5282420880424
 31
0.0000000000000000
  0
LINE
  5
56
100
AcDbEntity
  8
MAIN0
  6
CONTINUOUS
 62
3
100
AcDbLine
 10
69.00847369679875
 20
261.0282420880424
 30
0.0000000000000000
 11
69.00847369679875
 21
268.7782420880424
 31
0.0000000000000000
  0
ARC
  5
57
100
AcDbEntity
  8
MAIN0
  6
CONTINUOUS
 62
3
100
AcDbCircle
 10
72.00847369679876
 20
261.0282420880424
 30
0.0000000000000000
 40
3.000000000000000
100
AcDbArc
 50
180.0000000000000
 51
270.0000000000000
  0
LINE
  5
58
100
AcDbEntity
  8
MAIN0
  6
CONTINUOUS
 62
3
100
AcDbLine
 10
70.00847369679875
 20
269.7782420880424
 30
0.0000000000000000
 11
71.00847369679877
 21
269.7782420880424
 31
0.0000000000000000
  0
ARC
  5
59
100
AcDbEntity
  8
MAIN0
  6
CONTINUOUS
 62
3
100
AcDbCircle
 10
70.00847369679875
 20
268.7782420880424
 30
0.0000000000000000
 40
1.000000000000000
100
AcDbArc
 50
90.00000000000000
 51
180.0000000000000
  0
LINE
  5
5A
100
AcDbEntity
  8
MAIN0
  6
CONTINUOUS
 62
3
100
AcDbLine
 10
66.00847369679875
 20
214.5282420880474
 30
0.0000000000000000
 11
66.00847369679875
 21
252.5282420880374
 31
0.0000000000000000
  0
LINE
  5
5B
100
AcDbEntity
  8
MAIN0
  6
CONTINUOUS
 62
3
100
AcDbLine
 10
65.00847369679873
 20
253.5282420880372
 30
0.0000000000000000
 11
66.00847369679877
 21
252.5282420880374
 31
0.0000000000000000
  0
LINE
  5
5C
100
AcDbEntity
  8
MAIN0
  6
CENTER
 62
3
100
AcDbLine
 10
63.00847369679875
 20
249.5282420880424
 30
0.0000000000000000
 11
80.50847369679875
 21
249.5282420880424
 31
0.0000000000000000
  0
LINE
  5
5D
100
AcDbEntity
  8
MAIN0
  6
CONTINUOUS
 62
3
100
AcDbLine
 10
74.50847369679875
 20
214.0282420880424
 30
0.0000000000000000
 11
74.50847369679875
 21
247.7282420880424
 31
0.0000000000000000
  0
LINE
  5
5E
100
AcDbEntity
  8
MAIN0
  6
CONTINUOUS
 62
3
100
AcDbLine
 10
74.50847369679875
 20
247.7282420880424
 30
0.0000000000000000
 11
74.50847369679875
 21
253.0282420880424
 31
0.0000000000000000
  0
LINE
  5
5F
100
AcDbEntity
  8
MAIN0
  6
CONTINUOUS
 62
3
100
AcDbLine
 10
65.00847369679875
 20
193.5282420880424
 30
0.0000000000000000
 11
71.00847369679876
 21
193.5282420880424
 31
0.0000000000000000
  0
LINE
  5
60
100
AcDbEntity
  8
MAIN0
  6
CONTINUOUS
 62
3
100
AcDbLine
 10
71.00847369679875
 20
208.8566692127885
 30
0.0000000000000000
 11
71.00847369679875
 21
193.5282420880424
 31
0.0000000000000000
  0
LINE
  5
61
100
AcDbEntity
  8
MAIN0
  6
CONTINUOUS
 62
3
100
AcDbLine
 10
70.00847369679875
 20
197.2782420880424
 30
0.0000000000000000
 11
71.00847369679877
 21
197.2782420880424
 31
0.0000000000000000
  0
LINE
  5
62
100
AcDbEntity
  8
MAIN0
  6
CONTINUOUS
 62
3
100
AcDbLine
 10
69.00847369679875
 20
206.0282420880424
 30
0.0000000000000000
 11
69.00847369679875
 21
198.2782420880424
 31
0.0000000000000000
  0
ARC
  5
63
100
AcDbEntity
  8
MAIN0
  6
CONTINUOUS
 62
3
100
AcDbCircle
 10
70.00847369679875
 20
198.2782420880424
 30
0.0000000000000000
 40
1.000000000000000
100
AcDbArc
 50
180.0000000000000
 51
270.0000000000000
  0
ARC
  5
64
100
AcDbEntity
  8
MAIN0
  6
CONTINUOUS
 62
3
100
AcDbCircle
 10
72.00847369679876
 20
206.0282420880424
 30
0.0000000000000000
 40
3.000000000000000
100
AcDbArc
 50
90.00000000000000
 51
180.0000000000000
  0
LINE
  5
65
100
AcDbEntity
  8
MAIN0
  6
CONTINUOUS
 62
3
100
AcDbLine
 10
65.00847369679873
 20
213.5282420880475
 30
0.0000000000000000
 11
66.00847369679877
 21
214.5282420880474
 31
0.0000000000000000
  0
LINE
  5
66
100
AcDbEntity
  8
MAIN0
  6
CONTINUOUS
 62
3
100
AcDbLine
 10
67.50847369679875
 20
192.5282420880424
 30
0.0000000000000000
 11
67.50847369679875
 21
193.5282420880424
 31
0.0000000000000000
  0
LINE
  5
67
100
AcDbEntity
  8
MAIN0
  6
CONTINUOUS
 62
3
100
AcDbLine
 10
67.50847369679875
 20
273.5282420880424
 30
0.0000000000000000
 11
67.50847369679875
 21
274.5282420880424
 31
0.0000000000000000
  0
LINE
  5
68
100
AcDbEntity
  8
MAIN0
  6
CONTINUOUS
 62
3
100
AcDbLine
 10
74.50847369679875
 20
213.5282420880424
 30
0.0000000000000000
 11
74.50847369679875
 21
247.7282420880424
 31
0.0000000000000000
  0
LINE
  5
69
100
AcDbEntity
  8
MAIN0
  6
CONTINUOUS
 62
3
100
AcDbLine
 10
74.50847369679875
 20
251.3282420880424
 30
0.0000000000000000
 11
74.50847369679875
 21
253.5282420880424
 31
0.0000000000000000
  0
LINE
  5
6A
100
AcDbEntity
  8
MAIN0
  6
HIDDEN
 62
3
100
AcDbLine
 10
73.60847369680377
 20
179.9082420904602
 30
0.0000000000000000
 11
96.40847369680378
 21
179.9082420904555
 31
0.0000000000000000
  0
LINE
  5
6B
100
AcDbEntity
  8
MAIN0
  6
HIDDEN
 62
3
100
AcDbLine
 10
73.00847369680342
 20
180.5082420904603
 30
0.0000000000000000
 11
73.60847369680377
 21
179.9082420904602
 31
0.0000000000000000
  0
LINE
  5
6C
100
AcDbEntity
  8
MAIN0
  6
HIDDEN
 62
3
100
AcDbLine
 10
73.00847369680113
 20
184.4082420904603
 30
0.0000000000000000
 11
75.00847369679948
 21
184.4082420904599
 31
0.0000000000000000
  0
ARC
  5
6D
100
AcDbEntity
  8
MAIN0
  6
HIDDEN
 62
3
100
AcDbCircle
 10
75.00847369679951
 20
187.1582420904593
 30
0.0000000000000000
 40
2.750000000000581
100
AcDbArc
 50
270.0000000000000
 51
341.4530978128731
  0
LINE
  5
6E
100
AcDbEntity
  8
MAIN0
  6
HIDDEN
 62
3
100
AcDbLine
 10
73.00847369680342
 20
180.5082420904603
 30
0.0000000000000000
 11
73.00847369680113
 21
184.4082420904603
 31
0.0000000000000000
  0
LINE
  5
6F
100
AcDbEntity
  8
MAIN0
  6
HIDDEN
 62
3
100
AcDbLine
 10
73.70429032706026
 20
184.4082420904602
 30
0.0000000000000000
 11
73.00847369680227
 21
182.4082420904604
 31
0.0000000000000000
  0
LINE
  5
70
100
AcDbEntity
  8
MAIN0
  6
HIDDEN
 62
3
100
AcDbLine
 10
79.80847369680333
 20
180.6587974404056
 30
0.0000000000000000
 11
79.80847369680002
 21
186.2835197654302
 31
0.0000000000000000
  0
LINE
  5
71
100
AcDbEntity
  8
MAIN0
  6
HIDDEN
 62
3
100
AcDbLine
 10
78.50847369670397
 20
179.9082420904592
 30
0.0000000000000000
 11
79.80847369670259
 21
180.6587974404056
 31
0.0000000000000000
  0
LINE
  5
72
100
AcDbEntity
  8
MAIN0
  6
HIDDEN
 62
3
100
AcDbLine
 10
84.52952369680332
 20
180.6587974404037
 30
0.0000000000000000
 11
84.52952369680001
 21
186.2835197654330
 31
0.0000000000000000
  0
LINE
  5
73
100
AcDbEntity
  8
MAIN0
  6
HIDDEN
 62
3
100
AcDbLine
 10
79.80847369670259
 20
180.6587974404056
 30
0.0000000000000000
 11
90.20847369680330
 21
180.6587974404013
 31
0.0000000000000000
  0
LINE
  5
74
100
AcDbEntity
  8
MAIN0
  6
HIDDEN
 62
3
100
AcDbLine
 10
82.16899869679992
 20
186.2835197654316
 30
0.0000000000000000
 11
84.52952369680335
 21
180.6587974404037
 31
0.0000000000000000
  0
LINE
  5
75
100
AcDbEntity
  8
MAIN0
  6
HIDDEN
 62
3
100
AcDbLine
 10
79.80847369680329
 20
180.6587974404056
 30
0.0000000000000000
 11
82.16899869679992
 21
186.2835197654316
 31
0.0000000000000000
  0
LINE
  5
76
100
AcDbEntity
  8
MAIN0
  6
HIDDEN
 62
3
100
AcDbLine
 10
97.00847369680341
 20
180.5082420904744
 30
0.0000000000000000
 11
96.40847369680375
 21
179.9082420904736
 31
0.0000000000000000
  0
LINE
  5
77
100
AcDbEntity
  8
MAIN0
  6
HIDDEN
 62
3
100
AcDbLine
 10
97.00847369680113
 20
184.4082420904744
 30
0.0000000000000000
 11
95.00847369680272
 21
184.4082420904717
 31
0.0000000000000000
  0
ARC
  5
78
100
AcDbEntity
  8
MAIN0
  6
HIDDEN
 62
3
100
AcDbCircle
 10
95.00847369679951
 20
187.1582420904711
 30
0.0000000000000000
 40
2.750000000000581
100
AcDbArc
 50
198.5469021871989
 51
270.0000000000674
  0
LINE
  5
79
100
AcDbEntity
  8
MAIN0
  6
HIDDEN
 62
3
100
AcDbLine
 10
97.00847369680344
 20
180.5082420904745
 30
0.0000000000000000
 11
97.00847369680113
 21
184.4082420904745
 31
0.0000000000000000
  0
LINE
  5
7A
100
AcDbEntity
  8
MAIN0
  6
HIDDEN
 62
3
100
AcDbLine
 10
96.31265706654205
 20
184.4082420904735
 30
0.0000000000000000
 11
97.00847369680238
 21
182.4082420904745
 31
0.0000000000000000
  0
LINE
  5
7B
100
AcDbEntity
  8
MAIN0
  6
HIDDEN
 62
3
100
AcDbLine
 10
90.20847369680334
 20
180.6587974404118
 30
0.0000000000000000
 11
90.20847369680004
 21
186.2835197654362
 31
0.0000000000000000
  0
LINE
  5
7C
100
AcDbEntity
  8
MAIN0
  6
HIDDEN
 62
3
100
AcDbLine
 10
91.50847369690351
 20
179.9082420904668
 30
0.0000000000000000
 11
90.20847369690399
 21
180.6587974404118
 31
0.0000000000000000
  0
LINE
  5
7D
100
AcDbEntity
  8
MAIN0
  6
HIDDEN
 62
3
100
AcDbLine
 10
85.48742369680335
 20
180.6587974404042
 30
0.0000000000000000
 11
85.48742369680005
 21
186.2835197654335
 31
0.0000000000000000
  0
LINE
  5
7E
100
AcDbEntity
  8
MAIN0
  6
HIDDEN
 62
3
100
AcDbLine
 10
87.84794869680010
 20
186.2835197654349
 30
0.0000000000000000
 11
85.48742369680333
 21
180.6587974404043
 31
0.0000000000000000
  0
LINE
  5
7F
100
AcDbEntity
  8
MAIN0
  6
HIDDEN
 62
3
100
AcDbLine
 10
90.20847369680332
 20
180.6587974404117
 30
0.0000000000000000
 11
87.84794869680012
 21
186.2835197654349
 31
0.0000000000000000
  0
LINE
  5
80
100
AcDbEntity
  8
MAIN0
  6
CONTINUOUS
 62
3
100
AcDbLine
 10
67.50847369679875
 20
192.5282420880424
 30
0.0000000000000000
 11
71.94337585275567
 21
192.5282420880424
 31
0.0000000000000000
  0
LINE
  5
81
100
AcDbEntity
  8
MAIN0
  6
CONTINUOUS
 62
3
100
AcDbLine
 10
72.00847369679875
 20
209.0282420880424
 30
0.0000000000000000
 11
75.65119063825321
 21
209.0282420880424
 31
0.0000000000000000
  0
LINE
  5
82
100
AcDbEntity
  8
MAIN0
  6
CONTINUOUS
 62
3
100
AcDbLine
 10
74.50847369679875
 20
213.5282420880424
 30
0.0000000000000000
 11
76.87576039329255
 21
213.5282420880424
 31
0.0000000000000000
  0
LINE
  5
83
100
AcDbEntity
  8
MAIN0
  6
CONTINUOUS
 62
3
100
AcDbLine
 10
74.50847369679875
 20
214.0282420880424
 30
0.0000000000000000
 11
76.99124618385069
 21
214.0282420880424
 31
0.0000000000000000
  0
LINE
  5
84
100
AcDbEntity
  8
MAIN0
  6
HIDDEN
 62
3
100
AcDbLine
 10
71.43827369678087
 20
178.5282420880424
 30
0.0000000000000000
 11
73.00847369678387
 21
180.0984420880458
 31
0.0000000000000000
  0
LINE
  5
85
100
AcDbEntity
  8
MAIN0
  6
HIDDEN
 62
3
100
AcDbLine
 10
97.00847369687511
 20
180.0984420880407
 30
0.0000000000000000
 11
98.57867369687344
 21
178.5282420880424
 31
0.0000000000000000
  0
LINE
  5
86
100
AcDbEntity
  8
MAIN0
  6
HIDDEN
 62
3
100
AcDbLine
 10
73.00847369678385
 20
180.0984420880457
 30
0.0000000000000000
 11
73.41827369921825
 21
180.0984420880457
 31
0.0000000000000000
  0
LINE
  5
87
100
AcDbEntity
  8
MAIN0
  6
HIDDEN
 62
3
100
AcDbLine
 10
96.59867369437060
 20
180.0984420880409
 30
0.0000000000000000
 11
97.00847369687506
 21
180.0984420880408
 31
0.0000000000000000
  0
LINE
  5
88
100
AcDbEntity
  8
MAIN0
  6
HIDDEN
 62
3
100
AcDbLine
 10
97.00847369687688
 20
180.0984420880390
 30
0.0000000000000000
 11
97.00847369687597
 21
186.2835197654401
 31
0.0000000000000000
  0
LINE
  5
89
100
AcDbEntity
  8
MAIN0
  6
HIDDEN
 62
3
100
AcDbLine
 10
73.00847369678880
 20
180.0984420880507
 30
0.0000000000000000
 11
73.00847369678925
 21
186.2835197654264
 31
0.0000000000000000
  0
LINE
  5
8A
100
AcDbEntity
  8
MAIN0
  6
CONTINUOUS
 62
3
100
AcDbLine
 10
61.50847369679876
 20
178.5282420880424
 30
0.0000000000000000
 11
117.0084736967988
 21
178.5282420880424
 31
0.0000000000000000
  0
LINE
  5
8B
100
AcDbEntity
  8
MAIN0
  6
CONTINUOUS
 62
3
100
AcDbLine
 10
136.5084736967742
 20
246.8282420880424
 30
0.0000000000000000
 11
136.5084736967815
 21
259.2282420880424
 31
0.0000000000000000
  0
LINE
  5
8C
100
AcDbEntity
  8
MAIN0
  6
CONTINUOUS
 62
3
100
AcDbLine
 10
129.5084736967825
 20
261.0282420876329
 30
0.0000000000000000
 11
129.5084736967891
 21
272.2282420880424
 31
0.0000000000000000
  0
LINE
  5
8D
100
AcDbEntity
  8
MAIN0
  6
CONTINUOUS
 62
3
100
AcDbLine
 10
122.5084736967902
 20
274.0282420876329
 30
0.0000000000000000
 11
122.5084736967952
 21
282.5282420880424
 31
0.0000000000000000
  0
LINE
  5
8E
100
AcDbEntity
  8
MAIN0
  6
CONTINUOUS
 62
3
100
AcDbLine
 10
117.0084736967988
 20
288.5282420880424
 30
0.0000000000000000
 11
121.7084736967987
 21
288.5282420880424
 31
0.0000000000000000
  0
LINE
  5
8F
100
AcDbEntity
  8
MAIN0
  6
CONTINUOUS
 62
3
100
AcDbLine
 10
136.2084736967740
 20
246.5282420880424
 30
0.0000000000000000
 11
136.5084736967742
 21
246.8282420880424
 31
0.0000000000000000
  0
LINE
  5
90
100
AcDbEntity
  8
MAIN0
  6
CONTINUOUS
 62
3
100
AcDbLine
 10
136.5084736967815
 20
259.2282420880424
 30
0.0000000000000000
 11
136.2084736967817
 21
259.5282420880424
 31
0.0000000000000000
  0
LINE
  5
91
100
AcDbEntity
  8
MAIN0
  6
CONTINUOUS
 62
3
100
AcDbLine
 10
122.0084736967952
 20
282.5282420880424
 30
0.0000000000000000
 11
122.5084736967952
 21
282.5282420880424
 31
0.0000000000000000
  0
LINE
  5
92
100
AcDbEntity
  8
MAIN0
  6
CONTINUOUS
 62
3
100
AcDbLine
 10
122.0084736967952
 20
282.5282420880424
 30
0.0000000000000000
 11
122.0084736967986
 21
288.2282420880424
 31
0.0000000000000000
  0
LINE
  5
93
100
AcDbEntity
  8
MAIN0
  6
CONTINUOUS
 62
3
100
AcDbLine
 10
121.7084736967987
 20
288.5282420880424
 30
0.0000000000000000
 11
122.0084736967985
 21
288.2282420880424
 31
0.0000000000000000
  0
LINE
  5
94
100
AcDbEntity
  8
MAIN0
  6
CONTINUOUS
 62
3
100
AcDbLine
 10
129.2084736967893
 20
272.5282420880424
 30
0.0000000000000000
 11
129.5084736967892
 21
272.2282420880424
 31
0.0000000000000000
  0
LINE
  5
95
100
AcDbEntity
  8
MAIN0
  6
CONTINUOUS
 62
3
100
AcDbLine
 10
130.0450762376006
 20
258.9720243057444
 30
0.0000000000000000
 11
131.0084736966174
 21
259.5282420880424
 31
0.0000000000000000
  0
LINE
  5
96
100
AcDbEntity
  8
MAIN0
  6
CONTINUOUS
 62
3
100
AcDbLine
 10
128.9522559145736
 20
260.0648446287717
 30
0.0000000000000000
 11
129.5084736967825
 21
261.0282420876329
 31
0.0000000000000000
  0
ARC
  5
97
100
AcDbEntity
  8
MAIN0
  6
CONTINUOUS
 62
3
100
AcDbCircle
 10
129.6450762376017
 20
259.6648446287725
 30
0.0000000000000000
 40
0.8000000000000000
100
AcDbArc
 50
150.0000000000611
 51
299.9999999999142
  0
LINE
  5
98
100
AcDbEntity
  8
MAIN0
  6
CONTINUOUS
 62
3
100
AcDbLine
 10
121.9522559145813
 20
273.0648446287718
 30
0.0000000000000000
 11
122.5084736967901
 21
274.0282420876329
 31
0.0000000000000000
  0
ARC
  5
99
100
AcDbEntity
  8
MAIN0
  6
CONTINUOUS
 62
3
100
AcDbCircle
 10
122.6450762376094
 20
272.6648446287725
 30
0.0000000000000000
 40
0.8000000000000000
100
AcDbArc
 50
150.0000000000611
 51
299.9999999999142
  0
LINE
  5
9A
100
AcDbEntity
  8
MAIN0
  6
CONTINUOUS
 62
3
100
AcDbLine
 10
123.0450762376083
 20
271.9720243057444
 30
0.0000000000000000
 11
124.0084736966250
 21
272.5282420880424
 31
0.0000000000000000
  0
LINE
  5
9B
100
AcDbEntity
  8
MAIN0
  6
CONTINUOUS
 62
3
100
AcDbLine
 10
118.5084736967988
 20
250.1110833042383
 30
0.0000000000000000
 11
136.5084736967762
 21
250.1110833042457
 31
0.0000000000000000
  0
LINE
  5
9C
100
AcDbEntity
  8
MAIN0
  6
CENTER
 62
3
100
AcDbLine
 10
132.5084736967733
 20
245.3393922847668
 30
0.0000000000000000
 11
132.5084736967756
 21
249.2209197682437
 31
0.0000000000000000
  0
LINE
  5
9D
100
AcDbEntity
  8
MAIN0
  6
CONTINUOUS
 62
3
100
AcDbLine
 10
131.7584736963951
 20
246.5282420880424
 30
0.0000000000000000
 11
132.3352686159699
 21
247.5272801942938
 31
0.0000000000000000
  0
LINE
  5
9E
100
AcDbEntity
  8
MAIN0
  6
CONTINUOUS
 62
3
100
AcDbLine
 10
132.6816787774837
 20
247.5272801942937
 30
0.0000000000000000
 11
133.2584736970576
 21
246.5282420880424
 31
0.0000000000000000
  0
ARC
  5
9F
100
AcDbEntity
  8
MAIN0
  6
CONTINUOUS
 62
3
100
AcDbCircle
 10
132.5084736967267
 20
247.4272801942938
 30
0.0000000000000000
 40
0.2000000000000000
100
AcDbArc
 50
29.99999999996739
 51
149.9999999999922
  0
LINE
  5
A0
100
AcDbEntity
  8
MAIN0
  6
CONTINUOUS
 62
3
100
AcDbLine
 10
133.2584736970576
 20
246.5282420880424
 30
0.0000000000000000
 11
136.2084736967740
 21
246.5282420880424
 31
0.0000000000000000
  0
LINE
  5
A1
100
AcDbEntity
  8
MAIN0
  6
CENTER
 62
3
100
AcDbLine
 10
128.5084736967733
 20
245.3393922847668
 30
0.0000000000000000
 11
128.5084736967756
 21
249.2209197682437
 31
0.0000000000000000
  0
LINE
  5
A2
100
AcDbEntity
  8
MAIN0
  6
CONTINUOUS
 62
3
100
AcDbLine
 10
127.7584736963951
 20
246.5282420880424
 30
0.0000000000000000
 11
128.3352686159699
 21
247.5272801942938
 31
0.0000000000000000
  0
LINE
  5
A3
100
AcDbEntity
  8
MAIN0
  6
CONTINUOUS
 62
3
100
AcDbLine
 10
128.6816787774837
 20
247.5272801942937
 30
0.0000000000000000
 11
129.2584736970576
 21
246.5282420880424
 31
0.0000000000000000
  0
ARC
  5
A4
100
AcDbEntity
  8
MAIN0
  6
CONTINUOUS
 62
3
100
AcDbCircle
 10
128.5084736967267
 20
247.4272801942938
 30
0.0000000000000000
 40
0.2000000000000000
100
AcDbArc
 50
29.99999999996739
 51
149.9999999999922
  0
LINE
  5
A5
100
AcDbEntity
  8
MAIN0
  6
CENTER
 62
3
100
AcDbLine
 10
124.5084736967733
 20
245.3393922847668
 30
0.0000000000000000
 11
124.5084736967756
 21
249.2209197682437
 31
0.0000000000000000
  0
LINE
  5
A6
100
AcDbEntity
  8
MAIN0
  6
CONTINUOUS
 62
3
100
AcDbLine
 10
123.7584736963951
 20
246.5282420880424
 30
0.0000000000000000
 11
124.3352686159699
 21
247.5272801942938
 31
0.0000000000000000
  0
LINE
  5
A7
100
AcDbEntity
  8
MAIN0
  6
CONTINUOUS
 62
3
100
AcDbLine
 10
124.6816787774837
 20
247.5272801942937
 30
0.0000000000000000
 11
125.2584736970577
 21
246.5282420880424
 31
0.0000000000000000
  0
ARC
  5
A8
100
AcDbEntity
  8
MAIN0
  6
CONTINUOUS
 62
3
100
AcDbCircle
 10
124.5084736967267
 20
247.4272801942938
 30
0.0000000000000000
 40
0.2000000000000000
100
AcDbArc
 50
29.99999999996739
 51
149.9999999999922
  0
LINE
  5
A9
100
AcDbEntity
  8
MAIN0
  6
CENTER
 62
3
100
AcDbLine
 10
120.5084736967733
 20
245.3393922847668
 30
0.0000000000000000
 11
120.5084736967756
 21
249.2209197682437
 31
0.0000000000000000
  0
LINE
  5
AA
100
AcDbEntity
  8
MAIN0
  6
CONTINUOUS
 62
3
100
AcDbLine
 10
119.7584736963951
 20
246.5282420880424
 30
0.0000000000000000
 11
120.3352686159698
 21
247.5272801942938
 31
0.0000000000000000
  0
LINE
  5
AB
100
AcDbEntity
  8
MAIN0
  6
CONTINUOUS
 62
3
100
AcDbLine
 10
120.6816787774837
 20
247.5272801942937
 30
0.0000000000000000
 11
121.2584736970577
 21
246.5282420880424
 31
0.0000000000000000
  0
ARC
  5
AC
100
AcDbEntity
  8
MAIN0
  6
CONTINUOUS
 62
3
100
AcDbCircle
 10
120.5084736967267
 20
247.4272801942938
 30
0.0000000000000000
 40
0.2000000000000000
100
AcDbArc
 50
29.99999999996739
 51
149.9999999999922
  0
LINE
  5
AD
100
AcDbEntity
  8
MAIN0
  6
CONTINUOUS
 62
3
100
AcDbLine
 10
129.2584736970576
 20
246.5282420880424
 30
0.0000000000000000
 11
131.7584736963952
 21
246.5282420880424
 31
0.0000000000000000
  0
LINE
  5
AE
100
AcDbEntity
  8
MAIN0
  6
CONTINUOUS
 62
3
100
AcDbLine
 10
125.2584736970577
 20
246.5282420880424
 30
0.0000000000000000
 11
127.7584736963951
 21
246.5282420880424
 31
0.0000000000000000
  0
LINE
  5
AF
100
AcDbEntity
  8
MAIN0
  6
CONTINUOUS
 62
3
100
AcDbLine
 10
121.2584736970577
 20
246.5282420880424
 30
0.0000000000000000
 11
123.7584736963951
 21
246.5282420880424
 31
0.0000000000000000
  0
LINE
  5
B0
100
AcDbEntity
  8
MAIN0
  6
CONTINUOUS
 62
3
100
AcDbLine
 10
118.5084736967988
 20
246.5282420880424
 30
0.0000000000000000
 11
119.7584736963951
 21
246.5282420880424
 31
0.0000000000000000
  0
LINE
  5
B1
100
AcDbEntity
  8
MAIN0
  6
CENTER
 62
3
100
AcDbLine
 10
133.6084736967747
 20
260.7170918913180
 30
0.0000000000000000
 11
133.6084736967725
 21
256.8355644078411
 31
0.0000000000000000
  0
LINE
  5
B2
100
AcDbEntity
  8
MAIN0
  6
CONTINUOUS
 62
3
100
AcDbLine
 10
134.3584736971529
 20
259.5282420880424
 30
0.0000000000000000
 11
133.7816787775782
 21
258.5292039817909
 31
0.0000000000000000
  0
LINE
  5
B3
100
AcDbEntity
  8
MAIN0
  6
CONTINUOUS
 62
3
100
AcDbLine
 10
133.4352686160644
 20
258.5292039817911
 30
0.0000000000000000
 11
132.8584736964904
 21
259.5282420880424
 31
0.0000000000000000
  0
ARC
  5
B4
100
AcDbEntity
  8
MAIN0
  6
CONTINUOUS
 62
3
100
AcDbCircle
 10
133.6084736968213
 20
258.6292039817910
 30
0.0000000000000000
 40
0.2000000000000000
100
AcDbArc
 50
209.9999999999674
 51
329.9999999999922
  0
LINE
  5
B5
100
AcDbEntity
  8
MAIN0
  6
CENTER
 62
3
100
AcDbLine
 10
126.3084736967747
 20
273.7170918913180
 30
0.0000000000000000
 11
126.3084736967724
 21
269.8355644078411
 31
0.0000000000000000
  0
LINE
  5
B6
100
AcDbEntity
  8
MAIN0
  6
CONTINUOUS
 62
3
100
AcDbLine
 10
127.0584736971530
 20
272.5282420880424
 30
0.0000000000000000
 11
126.4816787775782
 21
271.5292039817909
 31
0.0000000000000000
  0
LINE
  5
B7
100
AcDbEntity
  8
MAIN0
  6
CONTINUOUS
 62
3
100
AcDbLine
 10
126.1352686160644
 20
271.5292039817911
 30
0.0000000000000000
 11
125.5584736964904
 21
272.5282420880424
 31
0.0000000000000000
  0
ARC
  5
B8
100
AcDbEntity
  8
MAIN0
  6
CONTINUOUS
 62
3
100
AcDbCircle
 10
126.3084736968213
 20
271.6292039817910
 30
0.0000000000000000
 40
0.2000000000000000
100
AcDbArc
 50
209.9999999999674
 51
329.9999999999922
  0
LINE
  5
B9
100
AcDbEntity
  8
MAIN0
  6
CONTINUOUS
 62
3
100
AcDbLine
 10
131.0084736966175
 20
259.5282420880424
 30
0.0000000000000000
 11
132.8584736964904
 21
259.5282420880424
 31
0.0000000000000000
  0
LINE
  5
BA
100
AcDbEntity
  8
MAIN0
  6
CONTINUOUS
 62
3
100
AcDbLine
 10
134.3584736971529
 20
259.5282420880424
 30
0.0000000000000000
 11
136.2084736967817
 21
259.5282420880424
 31
0.0000000000000000
  0
LINE
  5
BB
100
AcDbEntity
  8
MAIN0
  6
CONTINUOUS
 62
3
100
AcDbLine
 10
124.0084736966250
 20
272.5282420880424
 30
0.0000000000000000
 11
125.5584736964904
 21
272.5282420880424
 31
0.0000000000000000
  0
LINE
  5
BC
100
AcDbEntity
  8
MAIN0
  6
CONTINUOUS
 62
3
100
AcDbLine
 10
127.0584736971530
 20
272.5282420880424
 30
0.0000000000000000
 11
129.2084736967893
 21
272.5282420880424
 31
0.0000000000000000
  0
LINE
  5
BD
100
AcDbEntity
  8
MAIN0
  6
CONTINUOUS
 62
3
100
AcDbLine
 10
61.50847369679876
 20
288.5282420880424
 30
0.0000000000000000
 11
117.0084736967988
 21
288.5282420880424
 31
0.0000000000000000
  0
LINE
  5
BE
100
AcDbEntity
  8
MAIN0
  6
PHANTOM
 62
3
100
AcDbLine
 10
136.5084736965763
 20
226.7282420880642
 30
0.0000000000000000
 11
136.5084736965922
 21
240.3282420880641
 31
0.0000000000000000
  0
LINE
  5
BF
100
AcDbEntity
  8
MAIN0
  6
PHANTOM
 62
3
100
AcDbLine
 10
136.3084736965925
 20
240.5282420880640
 30
0.0000000000000000
 11
136.5084736965922
 21
240.3282420880641
 31
0.0000000000000000
  0
LINE
  5
C0
100
AcDbEntity
  8
MAIN0
  6
PHANTOM
 62
3
100
AcDbLine
 10
136.5084736965762
 20
226.7282420880641
 30
0.0000000000000000
 11
136.3084736965760
 21
226.5282420880640
 31
0.0000000000000000
  0
LINE
  5
C1
100
AcDbEntity
  8
MAIN0
  6
PHANTOM
 62
3
100
AcDbLine
 10
118.5084736967988
 20
226.5282420880515
 30
0.0000000000000000
 11
136.3084736965760
 21
226.5282420880640
 31
0.0000000000000000
  0
LINE
  5
C2
100
AcDbEntity
  8
MAIN0
  6
PHANTOM
 62
3
100
AcDbLine
 10
118.5084736967988
 20
240.5282420880515
 30
0.0000000000000000
 11
136.3084736965925
 21
240.5282420880640
 31
0.0000000000000000
  0
LINE
  5
C3
100
AcDbEntity
  8
MAIN0
  6
CENTER
 62
3
100
AcDbLine
 10
132.5084736965807
 20
230.4740866450277
 30
0.0000000000000000
 11
132.5084736965881
 21
236.8027389179688
 31
0.0000000000000000
  0
LINE
  5
C4
100
AcDbEntity
  8
MAIN0
  6
PHANTOM
 62
3
100
AcDbLine
 10
133.2584736965834
 20
232.7782420880618
 30
0.0000000000000000
 11
133.2584736965852
 21
234.2782420880618
 31
0.0000000000000000
  0
LINE
  5
C5
100
AcDbEntity
  8
MAIN0
  6
PHANTOM
 62
3
100
AcDbLine
 10
131.7584736965834
 20
232.7782420880608
 30
0.0000000000000000
 11
131.7584736965852
 21
234.2782420880608
 31
0.0000000000000000
  0
LINE
  5
C6
100
AcDbEntity
  8
MAIN0
  6
PHANTOM
 62
3
100
AcDbLine
 10
131.7584736965852
 20
234.2782420880608
 30
0.0000000000000000
 11
132.3295882583867
 21
235.4204712116615
 31
0.0000000000000000
  0
LINE
  5
C7
100
AcDbEntity
  8
MAIN0
  6
PHANTOM
 62
3
100
AcDbLine
 10
132.6873591347867
 20
235.4204712116612
 30
0.0000000000000000
 11
133.2584736965851
 21
234.2782420880619
 31
0.0000000000000000
  0
LINE
  5
C8
100
AcDbEntity
  8
MAIN0
  6
PHANTOM
 62
3
100
AcDbLine
 10
133.2584736965834
 20
232.7782420880618
 30
0.0000000000000000
 11
136.5084736965834
 21
232.7782420880641
 31
0.0000000000000000
  0
LINE
  5
C9
100
AcDbEntity
  8
MAIN0
  6
PHANTOM
 62
3
100
AcDbLine
 10
133.2584736965852
 20
234.2782420880618
 30
0.0000000000000000
 11
136.5084736965852
 21
234.2782420880641
 31
0.0000000000000000
  0
ARC
  5
CA
100
AcDbEntity
  8
MAIN0
  6
PHANTOM
 62
3
100
AcDbCircle
 10
132.5084736965866
 20
235.3310284925614
 30
0.0000000000000000
 40
0.2000000000000000
100
AcDbArc
 50
26.56505117703065
 51
153.4349488228783
  0
LINE
  5
CB
100
AcDbEntity
  8
MAIN0
  6
PHANTOM
 62
3
100
AcDbLine
 10
131.7584736965863
 20
232.7782420880608
 30
0.0000000000000000
 11
132.3295882583894
 21
231.6360129644608
 31
0.0000000000000000
  0
LINE
  5
CC
100
AcDbEntity
  8
MAIN0
  6
PHANTOM
 62
3
100
AcDbLine
 10
132.6873591347893
 20
231.6360129644616
 30
0.0000000000000000
 11
133.2584736965862
 21
232.7782420880618
 31
0.0000000000000000
  0
ARC
  5
CD
100
AcDbEntity
  8
MAIN0
  6
PHANTOM
 62
3
100
AcDbCircle
 10
132.5084736965892
 20
231.7254556835612
 30
0.0000000000000000
 40
0.2000000000000000
100
AcDbArc
 50
206.5650511772021
 51
333.4349488230498
  0
LINE
  5
CE
100
AcDbEntity
  8
MAIN0
  6
CENTER
 62
3
100
AcDbLine
 10
128.5084736965807
 20
230.4740866450277
 30
0.0000000000000000
 11
128.5084736965881
 21
236.8027389179688
 31
0.0000000000000000
  0
LINE
  5
CF
100
AcDbEntity
  8
MAIN0
  6
PHANTOM
 62
3
100
AcDbLine
 10
129.2584736965834
 20
232.7782420880618
 30
0.0000000000000000
 11
129.2584736965852
 21
234.2782420880618
 31
0.0000000000000000
  0
LINE
  5
D0
100
AcDbEntity
  8
MAIN0
  6
PHANTOM
 62
3
100
AcDbLine
 10
127.7584736965834
 20
232.7782420880608
 30
0.0000000000000000
 11
127.7584736965852
 21
234.2782420880608
 31
0.0000000000000000
  0
LINE
  5
D1
100
AcDbEntity
  8
MAIN0
  6
PHANTOM
 62
3
100
AcDbLine
 10
127.7584736965852
 20
234.2782420880608
 30
0.0000000000000000
 11
128.3295882583867
 21
235.4204712116615
 31
0.0000000000000000
  0
LINE
  5
D2
100
AcDbEntity
  8
MAIN0
  6
PHANTOM
 62
3
100
AcDbLine
 10
128.6873591347867
 20
235.4204712116612
 30
0.0000000000000000
 11
129.2584736965851
 21
234.2782420880619
 31
0.0000000000000000
  0
ARC
  5
D3
100
AcDbEntity
  8
MAIN0
  6
PHANTOM
 62
3
100
AcDbCircle
 10
128.5084736965866
 20
235.3310284925614
 30
0.0000000000000000
 40
0.2000000000000000
100
AcDbArc
 50
26.56505117703065
 51
153.4349488228783
  0
LINE
  5
D4
100
AcDbEntity
  8
MAIN0
  6
PHANTOM
 62
3
100
AcDbLine
 10
127.7584736965863
 20
232.7782420880608
 30
0.0000000000000000
 11
128.3295882583894
 21
231.6360129644608
 31
0.0000000000000000
  0
LINE
  5
D5
100
AcDbEntity
  8
MAIN0
  6
PHANTOM
 62
3
100
AcDbLine
 10
128.6873591347893
 20
231.6360129644616
 30
0.0000000000000000
 11
129.2584736965862
 21
232.7782420880618
 31
0.0000000000000000
  0
ARC
  5
D6
100
AcDbEntity
  8
MAIN0
  6
PHANTOM
 62
3
100
AcDbCircle
 10
128.5084736965892
 20
231.7254556835612
 30
0.0000000000000000
 40
0.2000000000000000
100
AcDbArc
 50
206.5650511772021
 51
333.4349488230498
  0
LINE
  5
D7
100
AcDbEntity
  8
MAIN0
  6
CENTER
 62
3
100
AcDbLine
 10
124.5084736965807
 20
230.4740866450277
 30
0.0000000000000000
 11
124.5084736965881
 21
236.8027389179688
 31
0.0000000000000000
  0
LINE
  5
D8
100
AcDbEntity
  8
MAIN0
  6
PHANTOM
 62
3
100
AcDbLine
 10
125.2584736965834
 20
232.7782420880618
 30
0.0000000000000000
 11
125.2584736965852
 21
234.2782420880618
 31
0.0000000000000000
  0
LINE
  5
D9
100
AcDbEntity
  8
MAIN0
  6
PHANTOM
 62
3
100
AcDbLine
 10
123.7584736965834
 20
232.7782420880608
 30
0.0000000000000000
 11
123.7584736965852
 21
234.2782420880608
 31
0.0000000000000000
  0
LINE
  5
DA
100
AcDbEntity
  8
MAIN0
  6
PHANTOM
 62
3
100
AcDbLine
 10
123.7584736965852
 20
234.2782420880608
 30
0.0000000000000000
 11
124.3295882583867
 21
235.4204712116615
 31
0.0000000000000000
  0
LINE
  5
DB
100
AcDbEntity
  8
MAIN0
  6
PHANTOM
 62
3
100
AcDbLine
 10
124.6873591347867
 20
235.4204712116612
 30
0.0000000000000000
 11
125.2584736965852
 21
234.2782420880618
 31
0.0000000000000000
  0
ARC
  5
DC
100
AcDbEntity
  8
MAIN0
  6
PHANTOM
 62
3
100
AcDbCircle
 10
124.5084736965866
 20
235.3310284925614
 30
0.0000000000000000
 40
0.2000000000000000
100
AcDbArc
 50
26.56505117703065
 51
153.4349488228783
  0
LINE
  5
DD
100
AcDbEntity
  8
MAIN0
  6
PHANTOM
 62
3
100
AcDbLine
 10
123.7584736965863
 20
232.7782420880608
 30
0.0000000000000000
 11
124.3295882583894
 21
231.6360129644608
 31
0.0000000000000000
  0
LINE
  5
DE
100
AcDbEntity
  8
MAIN0
  6
PHANTOM
 62
3
100
AcDbLine
 10
124.6873591347893
 20
231.6360129644616
 30
0.0000000000000000
 11
125.2584736965862
 21
232.7782420880618
 31
0.0000000000000000
  0
ARC
  5
DF
100
AcDbEntity
  8
MAIN0
  6
PHANTOM
 62
3
100
AcDbCircle
 10
124.5084736965892
 20
231.7254556835612
 30
0.0000000000000000
 40
0.2000000000000000
100
AcDbArc
 50
206.5650511772021
 51
333.4349488230498
  0
LINE
  5
E0
100
AcDbEntity
  8
MAIN0
  6
CENTER
 62
3
100
AcDbLine
 10
120.5084736965807
 20
230.4740866450277
 30
0.0000000000000000
 11
120.5084736965881
 21
236.8027389179688
 31
0.0000000000000000
  0
LINE
  5
E1
100
AcDbEntity
  8
MAIN0
  6
PHANTOM
 62
3
100
AcDbLine
 10
121.2584736965834
 20
232.7782420880618
 30
0.0000000000000000
 11
121.2584736965852
 21
234.2782420880618
 31
0.0000000000000000
  0
LINE
  5
E2
100
AcDbEntity
  8
MAIN0
  6
PHANTOM
 62
3
100
AcDbLine
 10
119.7584736965834
 20
232.7782420880608
 30
0.0000000000000000
 11
119.7584736965852
 21
234.2782420880608
 31
0.0000000000000000
  0
LINE
  5
E3
100
AcDbEntity
  8
MAIN0
  6
PHANTOM
 62
3
100
AcDbLine
 10
119.7584736965852
 20
234.2782420880608
 30
0.0000000000000000
 11
120.3295882583867
 21
235.4204712116615
 31
0.0000000000000000
  0
LINE
  5
E4
100
AcDbEntity
  8
MAIN0
  6
PHANTOM
 62
3
100
AcDbLine
 10
120.6873591347867
 20
235.4204712116612
 30
0.0000000000000000
 11
121.2584736965852
 21
234.2782420880618
 31
0.0000000000000000
  0
ARC
  5
E5
100
AcDbEntity
  8
MAIN0
  6
PHANTOM
 62
3
100
AcDbCircle
 10
120.5084736965866
 20
235.3310284925614
 30
0.0000000000000000
 40
0.2000000000000000
100
AcDbArc
 50
26.56505117703065
 51
153.4349488228783
  0
LINE
  5
E6
100
AcDbEntity
  8
MAIN0
  6
PHANTOM
 62
3
100
AcDbLine
 10
119.7584736965863
 20
232.7782420880608
 30
0.0000000000000000
 11
120.3295882583894
 21
231.6360129644609
 31
0.0000000000000000
  0
LINE
  5
E7
100
AcDbEntity
  8
MAIN0
  6
PHANTOM
 62
3
100
AcDbLine
 10
120.6873591347893
 20
231.6360129644616
 30
0.0000000000000000
 11
121.2584736965862
 21
232.7782420880618
 31
0.0000000000000000
  0
ARC
  5
E8
100
AcDbEntity
  8
MAIN0
  6
PHANTOM
 62
3
100
AcDbCircle
 10
120.5084736965892
 20
231.7254556835612
 30
0.0000000000000000
 40
0.2000000000000000
100
AcDbArc
 50
206.5650511772021
 51
333.4349488230498
  0
LINE
  5
E9
100
AcDbEntity
  8
MAIN0
  6
PHANTOM
 62
3
100
AcDbLine
 10
129.2584736965852
 20
234.2782420880590
 30
0.0000000000000000
 11
131.7584736965852
 21
234.2782420880608
 31
0.0000000000000000
  0
LINE
  5
EA
100
AcDbEntity
  8
MAIN0
  6
PHANTOM
 62
3
100
AcDbLine
 10
129.2584736965862
 20
232.7782420880590
 30
0.0000000000000000
 11
131.7584736965834
 21
232.7782420880608
 31
0.0000000000000000
  0
LINE
  5
EB
100
AcDbEntity
  8
MAIN0
  6
PHANTOM
 62
3
100
AcDbLine
 10
125.2584736965838
 20
234.2782420880562
 30
0.0000000000000000
 11
127.7584736965852
 21
234.2782420880580
 31
0.0000000000000000
  0
LINE
  5
EC
100
AcDbEntity
  8
MAIN0
  6
PHANTOM
 62
3
100
AcDbLine
 10
125.2584736965834
 20
232.7782420880562
 30
0.0000000000000000
 11
127.7584736965863
 21
232.7782420880580
 31
0.0000000000000000
  0
LINE
  5
ED
100
AcDbEntity
  8
MAIN0
  6
PHANTOM
 62
3
100
AcDbLine
 10
121.2584736965861
 20
232.7782420880534
 30
0.0000000000000000
 11
123.7584736965863
 21
232.7782420880552
 31
0.0000000000000000
  0
LINE
  5
EE
100
AcDbEntity
  8
MAIN0
  6
PHANTOM
 62
3
100
AcDbLine
 10
121.2584736965851
 20
234.2782420880534
 30
0.0000000000000000
 11
123.7584736965851
 21
234.2782420880552
 31
0.0000000000000000
  0
LINE
  5
EF
100
AcDbEntity
  8
MAIN0
  6
PHANTOM
 62
3
100
AcDbLine
 10
118.5084736967988
 20
234.2782420880515
 30
0.0000000000000000
 11
119.7584736965852
 21
234.2782420880524
 31
0.0000000000000000
  0
LINE
  5
F0
100
AcDbEntity
  8
MAIN0
  6
PHANTOM
 62
3
100
AcDbLine
 10
118.5084736967988
 20
232.7782420880515
 30
0.0000000000000000
 11
119.7584736965863
 21
232.7782420880524
 31
0.0000000000000000
  0
LINE
  5
F1
100
AcDbEntity
  8
MAIN0
  6
PHANTOM
 62
3
100
AcDbLine
 10
117.0084736968014
 20
178.5282420880463
 30
0.0000000000000000
 11
136.2084736967162
 21
178.5282420880799
 31
0.0000000000000000
  0
LINE
  5
F2
100
AcDbEntity
  8
MAIN0
  6
PHANTOM
 62
3
100
AcDbLine
 10
118.5084736967988
 20
216.9454008718530
 30
0.0000000000000000
 11
122.0084736966264
 21
216.9454008718577
 31
0.0000000000000000
  0
LINE
  5
F3
100
AcDbEntity
  8
MAIN0
  6
PHANTOM
 62
3
100
AcDbLine
 10
122.0084736966367
 20
212.5282420880550
 30
0.0000000000000000
 11
122.5084736966367
 21
212.5282420880559
 31
0.0000000000000000
  0
LINE
  5
F4
100
AcDbEntity
  8
MAIN0
  6
PHANTOM
 62
3
100
AcDbLine
 10
136.5084736966936
 20
188.2282420880804
 30
0.0000000000000000
 11
136.5084736967155
 21
178.8282420880805
 31
0.0000000000000000
  0
LINE
  5
F5
100
AcDbEntity
  8
MAIN0
  6
PHANTOM
 62
3
100
AcDbLine
 10
129.5084736966631
 20
201.2282420880682
 30
0.0000000000000000
 11
129.5084736966893
 21
190.0282420879423
 31
0.0000000000000000
  0
LINE
  5
F6
100
AcDbEntity
  8
MAIN0
  6
PHANTOM
 62
3
100
AcDbLine
 10
122.5084736966367
 20
212.5282420880559
 30
0.0000000000000000
 11
122.5084736966589
 21
203.0282420879301
 31
0.0000000000000000
  0
LINE
  5
F7
100
AcDbEntity
  8
MAIN0
  6
PHANTOM
 62
3
100
AcDbLine
 10
122.0084736966187
 20
220.2282420880550
 30
0.0000000000000000
 11
122.0084736966368
 21
212.5282420880550
 31
0.0000000000000000
  0
LINE
  5
F8
100
AcDbEntity
  8
MAIN0
  6
PHANTOM
 62
3
100
AcDbLine
 10
121.7084736966181
 20
220.5282420880545
 30
0.0000000000000000
 11
122.0084736966188
 21
220.2282420880550
 31
0.0000000000000000
  0
LINE
  5
F9
100
AcDbEntity
  8
MAIN0
  6
PHANTOM
 62
3
100
AcDbLine
 10
129.2084736966624
 20
201.5282420880677
 30
0.0000000000000000
 11
129.5084736966631
 21
201.2282420880682
 31
0.0000000000000000
  0
LINE
  5
FA
100
AcDbEntity
  8
MAIN0
  6
PHANTOM
 62
3
100
AcDbLine
 10
136.2084736966928
 20
188.5282420880799
 30
0.0000000000000000
 11
136.5084736966935
 21
188.2282420880804
 31
0.0000000000000000
  0
LINE
  5
FB
100
AcDbEntity
  8
MAIN0
  6
PHANTOM
 62
3
100
AcDbLine
 10
136.5084736967155
 20
178.8282420880805
 30
0.0000000000000000
 11
136.2084736967162
 21
178.5282420880799
 31
0.0000000000000000
  0
LINE
  5
FC
100
AcDbEntity
  8
MAIN0
  6
PHANTOM
 62
3
100
AcDbLine
 10
130.0450762370925
 20
187.9720243053377
 30
0.0000000000000000
 11
131.0084736968575
 21
188.5282420880708
 31
0.0000000000000000
  0
LINE
  5
FD
100
AcDbEntity
  8
MAIN0
  6
PHANTOM
 62
3
100
AcDbLine
 10
128.9522559140649
 20
189.0648446283656
 30
0.0000000000000000
 11
129.5084736966894
 21
190.0282420879423
 31
0.0000000000000000
  0
ARC
  5
FE
100
AcDbEntity
  8
MAIN0
  6
PHANTOM
 62
3
100
AcDbCircle
 10
129.6450762370920
 20
188.6648446283649
 30
0.0000000000000000
 40
0.8000000000000000
100
AcDbArc
 50
149.9999999999421
 51
300.0000000000513
  0
LINE
  5
FF
100
AcDbEntity
  8
MAIN0
  6
PHANTOM
 62
3
100
AcDbLine
 10
121.9522559140344
 20
202.0648446283533
 30
0.0000000000000000
 11
122.5084736966589
 21
203.0282420879301
 31
0.0000000000000000
  0
ARC
  5
100
100
AcDbEntity
  8
MAIN0
  6
PHANTOM
 62
3
100
AcDbCircle
 10
122.6450762370616
 20
201.6648446283526
 30
0.0000000000000000
 40
0.8000000000000000
100
AcDbArc
 50
149.9999999999421
 51
300.0000000000513
  0
LINE
  5
101
100
AcDbEntity
  8
MAIN0
  6
PHANTOM
 62
3
100
AcDbLine
 10
123.0450762370621
 20
200.9720243053255
 30
0.0000000000000000
 11
124.0084736968270
 21
201.5282420880586
 31
0.0000000000000000
  0
LINE
  5
102
100
AcDbEntity
  8
MAIN0
  6
CENTER
 62
3
100
AcDbLine
 10
133.6084736967065
 20
189.7170918913542
 30
0.0000000000000000
 11
133.6084736967042
 21
185.8355644078773
 31
0.0000000000000000
  0
LINE
  5
103
100
AcDbEntity
  8
MAIN0
  6
PHANTOM
 62
3
100
AcDbLine
 10
133.4352686159962
 20
187.5292039818274
 30
0.0000000000000000
 11
132.8584736964222
 21
188.5282420880787
 31
0.0000000000000000
  0
LINE
  5
104
100
AcDbEntity
  8
MAIN0
  6
PHANTOM
 62
3
100
AcDbLine
 10
134.3584736970847
 20
188.5282420880786
 30
0.0000000000000000
 11
133.7816787775099
 21
187.5292039818272
 31
0.0000000000000000
  0
ARC
  5
105
100
AcDbEntity
  8
MAIN0
  6
PHANTOM
 62
3
100
AcDbCircle
 10
133.6084736967531
 20
187.6292039818273
 30
0.0000000000000000
 40
0.2000000000000000
100
AcDbArc
 50
209.9999999999674
 51
329.9999999999922
  0
LINE
  5
106
100
AcDbEntity
  8
MAIN0
  6
CENTER
 62
3
100
AcDbLine
 10
126.3084736967065
 20
202.7170918913411
 30
0.0000000000000000
 11
126.3084736967042
 21
198.8355644078642
 31
0.0000000000000000
  0
LINE
  5
107
100
AcDbEntity
  8
MAIN0
  6
PHANTOM
 62
3
100
AcDbLine
 10
126.1352686159961
 20
200.5292039818143
 30
0.0000000000000000
 11
125.5584736964221
 21
201.5282420880656
 31
0.0000000000000000
  0
LINE
  5
108
100
AcDbEntity
  8
MAIN0
  6
PHANTOM
 62
3
100
AcDbLine
 10
127.0584736970847
 20
201.5282420880655
 30
0.0000000000000000
 11
126.4816787775100
 21
200.5292039818141
 31
0.0000000000000000
  0
ARC
  5
109
100
AcDbEntity
  8
MAIN0
  6
PHANTOM
 62
3
100
AcDbCircle
 10
126.3084736967531
 20
200.6292039818142
 30
0.0000000000000000
 40
0.2000000000000000
100
AcDbArc
 50
209.9999999999674
 51
329.9999999999922
  0
LINE
  5
10A
100
AcDbEntity
  8
MAIN0
  6
PHANTOM
 62
3
100
AcDbLine
 10
131.0084736968575
 20
188.5282420880708
 30
0.0000000000000000
 11
132.8584736964222
 21
188.5282420880741
 31
0.0000000000000000
  0
LINE
  5
10B
100
AcDbEntity
  8
MAIN0
  6
PHANTOM
 62
3
100
AcDbLine
 10
134.3584736970847
 20
188.5282420880767
 30
0.0000000000000000
 11
136.2084736966928
 21
188.5282420880799
 31
0.0000000000000000
  0
LINE
  5
10C
100
AcDbEntity
  8
MAIN0
  6
PHANTOM
 62
3
100
AcDbLine
 10
124.0084736968271
 20
201.5282420880585
 30
0.0000000000000000
 11
125.5584736964222
 21
201.5282420880613
 31
0.0000000000000000
  0
LINE
  5
10D
100
AcDbEntity
  8
MAIN0
  6
PHANTOM
 62
3
100
AcDbLine
 10
127.0584736970847
 20
201.5282420880639
 30
0.0000000000000000
 11
129.2084736966624
 21
201.5282420880677
 31
0.0000000000000000
  0
LINE
  5
10E
100
AcDbEntity
  8
MAIN0
  6
PHANTOM
 62
3
100
AcDbLine
 10
118.7584736969969
 20
220.5282420880509
 30
0.0000000000000000
 11
118.5084736967987
 21
220.0952293858154
 31
0.0000000000000000
  0
LINE
  5
10F
100
AcDbEntity
  8
MAIN0
  6
PHANTOM
 62
3
100
AcDbLine
 10
118.7584736969969
 20
220.5282420880493
 30
0.0000000000000000
 11
121.7084736966181
 21
220.5282420880545
 31
0.0000000000000000
  0
CIRCLE
  5
110
100
AcDbEntity
  8
MAIN0
  6
CONTINUOUS
 62
3
100
AcDbCircle
 10
220.5084736967988
 20
233.5282420880424
 30
0.0000000000000000
 40
12.00000000000000
  0
CIRCLE
  5
111
100
AcDbEntity
  8
MAIN0
  6
HIDDEN
 62
3
100
AcDbCircle
 10
220.5084736967988
 20
233.5282420880424
 30
0.0000000000000000
 40
19.50000000000000
  0
ARC
  5
112
100
AcDbEntity
  8
MAIN0
  6
CENTER
 62
3
100
AcDbCircle
 10
220.5084736967988
 20
233.5282420880424
 30
0.0000000000000000
 40
18.00000000000000
100
AcDbArc
 50
245.9506016388684
 51
294.0493983611316
  0
LINE
  5
113
100
AcDbEntity
  8
MAIN0
  6
CONTINUOUS
 62
3
100
AcDbLine
 10
213.5084736968520
 20
243.2750364328896
 30
0.0000000000000000
 11
213.5084736967991
 21
288.2282420880424
 31
0.0000000000000000
  0
LINE
  5
114
100
AcDbEntity
  8
MAIN0
  6
CONTINUOUS
 62
3
100
AcDbLine
 10
227.5084736968520
 20
243.2750364328131
 30
0.0000000000000000
 11
227.5084736967991
 21
288.2282420880424
 31
0.0000000000000000
  0
LINE
  5
115
100
AcDbEntity
  8
MAIN0
  6
CONTINUOUS
 62
3
100
AcDbLine
 10
227.2084736967987
 20
288.5282420880424
 30
0.0000000000000000
 11
213.8084736967988
 21
288.5282420880424
 31
0.0000000000000000
  0
LINE
  5
116
100
AcDbEntity
  8
MAIN0
  6
CONTINUOUS
 62
3
100
AcDbLine
 10
213.5084736967991
 20
288.2282420880424
 30
0.0000000000000000
 11
213.8084736967988
 21
288.5282420880424
 31
0.0000000000000000
  0
LINE
  5
117
100
AcDbEntity
  8
MAIN0
  6
CONTINUOUS
 62
3
100
AcDbLine
 10
227.2084736967987
 20
288.5282420880424
 30
0.0000000000000000
 11
227.5084736967991
 21
288.2282420880424
 31
0.0000000000000000
  0
ARC
  5
118
100
AcDbEntity
  8
MAIN0
  6
CONTINUOUS
 62
3
100
AcDbCircle
 10
220.5084736967988
 20
235.5282420880424
 30
0.0000000000000000
 40
11.00000000000000
100
AcDbArc
 50
86.09043647508268
 51
93.90956352440122
  0
LINE
  5
119
100
AcDbEntity
  8
MAIN0
  6
CONTINUOUS
 62
3
100
AcDbLine
 10
221.2584736968482
 20
246.5026441219372
 30
0.0000000000000000
 11
227.5084736968438
 21
250.1110833043559
 31
0.0000000000000000
  0
LINE
  5
11A
100
AcDbEntity
  8
MAIN0
  6
CONTINUOUS
 62
3
100
AcDbLine
 10
213.5084736968440
 20
250.1110833042574
 30
0.0000000000000000
 11
219.7584736968481
 21
246.5026441218230
 31
0.0000000000000000
  0
ARC
  5
11B
100
AcDbEntity
  8
MAIN0
  6
CONTINUOUS
 62
3
100
AcDbCircle
 10
220.5084736967988
 20
235.5282420880424
 30
0.0000000000000000
 40
24.00000000000000
100
AcDbArc
 50
73.04223669990762
 51
106.9577632999159
  0
ARC
  5
11C
100
AcDbEntity
  8
MAIN0
  6
CONTINUOUS
 62
3
100
AcDbCircle
 10
220.5084736967988
 20
235.5282420880424
 30
0.0000000000000000
 40
25.50000000000000
100
AcDbArc
 50
74.06719618463403
 51
105.9328038152094
  0
ARC
  5
11D
100
AcDbEntity
  8
MAIN0
  6
CONTINUOUS
 62
3
100
AcDbCircle
 10
220.5084736967988
 20
235.5282420880424
 30
0.0000000000000000
 40
37.00000000000000
100
AcDbArc
 50
79.09453000323870
 51
100.9054699966995
  0
ARC
  5
11E
100
AcDbEntity
  8
MAIN0
  6
CONTINUOUS
 62
3
100
AcDbCircle
 10
220.5084736967988
 20
235.5282420880424
 30
0.0000000000000000
 40
38.50000000000000
100
AcDbArc
 50
79.52431830358313
 51
100.4756816963629
  0
ARC
  5
11F
100
AcDbEntity
  8
MAIN0
  6
CONTINUOUS
 62
3
100
AcDbCircle
 10
220.5084736967988
 20
235.5282420880424
 30
0.0000000000000000
 40
47.00000000000000
100
AcDbArc
 50
81.43471889243973
 51
98.56528110754125
  0
LINE
  5
120
100
AcDbEntity
  8
MAIN0
  6
CONTINUOUS
 62
3
100
AcDbLine
 10
215.5675021886719
 20
222.5926670891738
 30
0.0000000000000000
 11
176.6368841097898
 21
200.1160642615516
 31
0.0000000000000000
  0
LINE
  5
121
100
AcDbEntity
  8
MAIN0
  6
CONTINUOUS
 62
3
100
AcDbLine
 10
208.5675021887382
 20
234.7170227421942
 30
0.0000000000000000
 11
169.6368841097898
 21
212.2404199145338
 31
0.0000000000000000
  0
LINE
  5
122
100
AcDbEntity
  8
MAIN0
  6
CONTINUOUS
 62
3
100
AcDbLine
 10
169.5270764886546
 20
211.8306122933981
 30
0.0000000000000000
 11
176.2270764886546
 21
200.2258718826867
 31
0.0000000000000000
  0
LINE
  5
123
100
AcDbEntity
  8
MAIN0
  6
CONTINUOUS
 62
3
100
AcDbLine
 10
176.6368841097898
 20
200.1160642615516
 30
0.0000000000000000
 11
176.2270764886546
 21
200.2258718826867
 31
0.0000000000000000
  0
LINE
  5
124
100
AcDbEntity
  8
MAIN0
  6
CONTINUOUS
 62
3
100
AcDbLine
 10
169.5270764886546
 20
211.8306122933981
 30
0.0000000000000000
 11
169.6368841097898
 21
212.2404199145338
 31
0.0000000000000000
  0
ARC
  5
125
100
AcDbEntity
  8
MAIN0
  6
CONTINUOUS
 62
3
100
AcDbCircle
 10
218.7764228892299
 20
232.5282420880424
 30
0.0000000000000000
 40
11.00000000000000
100
AcDbArc
 50
206.0904364750826
 51
213.9095635244012
  0
LINE
  5
126
100
AcDbEntity
  8
MAIN0
  6
CONTINUOUS
 62
3
100
AcDbLine
 10
208.8973119365085
 20
227.6905601239761
 30
0.0000000000000000
 11
202.6473119365251
 21
231.2989993064157
 31
0.0000000000000000
  0
LINE
  5
127
100
AcDbEntity
  8
MAIN0
  6
CONTINUOUS
 62
3
100
AcDbLine
 10
209.6473119366103
 20
219.1746436534830
 30
0.0000000000000000
 11
209.6473119366076
 21
226.3915220183565
 31
0.0000000000000000
  0
ARC
  5
128
100
AcDbEntity
  8
MAIN0
  6
CONTINUOUS
 62
3
100
AcDbCircle
 10
218.7764228892299
 20
232.5282420880424
 30
0.0000000000000000
 40
24.00000000000000
100
AcDbArc
 50
193.0422366999076
 51
226.9577632999159
  0
ARC
  5
129
100
AcDbEntity
  8
MAIN0
  6
CONTINUOUS
 62
3
100
AcDbCircle
 10
218.7764228892299
 20
232.5282420880424
 30
0.0000000000000000
 40
25.50000000000000
100
AcDbArc
 50
194.0671961846340
 51
225.9328038152094
  0
ARC
  5
12A
100
AcDbEntity
  8
MAIN0
  6
CONTINUOUS
 62
3
100
AcDbCircle
 10
218.7764228892299
 20
232.5282420880424
 30
0.0000000000000000
 40
37.00000000000000
100
AcDbArc
 50
199.0945300032387
 51
220.9054699966995
  0
ARC
  5
12B
100
AcDbEntity
  8
MAIN0
  6
CONTINUOUS
 62
3
100
AcDbCircle
 10
218.7764228892299
 20
232.5282420880424
 30
0.0000000000000000
 40
38.50000000000000
100
AcDbArc
 50
199.5243183035831
 51
220.4756816963630
  0
ARC
  5
12C
100
AcDbEntity
  8
MAIN0
  6
CONTINUOUS
 62
3
100
AcDbCircle
 10
218.7764228892299
 20
232.5282420880424
 30
0.0000000000000000
 40
47.00000000000000
100
AcDbArc
 50
201.4347188924398
 51
218.5652811075413
  0
LINE
  5
12D
100
AcDbEntity
  8
MAIN0
  6
CONTINUOUS
 62
3
100
AcDbLine
 10
232.4494452048723
 20
234.7170227420637
 30
0.0000000000000000
 11
271.3800632838073
 21
212.2404199145332
 31
0.0000000000000000
  0
LINE
  5
12E
100
AcDbEntity
  8
MAIN0
  6
CONTINUOUS
 62
3
100
AcDbLine
 10
225.4494452048061
 20
222.5926670891198
 30
0.0000000000000000
 11
264.3800632838073
 21
200.1160642615510
 31
0.0000000000000000
  0
LINE
  5
12F
100
AcDbEntity
  8
MAIN0
  6
CONTINUOUS
 62
3
100
AcDbLine
 10
264.7898709049429
 20
200.2258718826867
 30
0.0000000000000000
 11
271.4898709049429
 21
211.8306122933981
 31
0.0000000000000000
  0
LINE
  5
130
100
AcDbEntity
  8
MAIN0
  6
CONTINUOUS
 62
3
100
AcDbLine
 10
271.3800632838074
 20
212.2404199145331
 30
0.0000000000000000
 11
271.4898709049429
 21
211.8306122933981
 31
0.0000000000000000
  0
LINE
  5
131
100
AcDbEntity
  8
MAIN0
  6
CONTINUOUS
 62
3
100
AcDbLine
 10
264.7898709049429
 20
200.2258718826867
 30
0.0000000000000000
 11
264.3800632838073
 21
200.1160642615510
 31
0.0000000000000000
  0
ARC
  5
132
100
AcDbEntity
  8
MAIN0
  6
CONTINUOUS
 62
3
100
AcDbCircle
 10
222.2405245043676
 20
232.5282420880424
 30
0.0000000000000000
 40
11.00000000000000
100
AcDbArc
 50
326.0904364750827
 51
333.9095635244012
  0
LINE
  5
133
100
AcDbEntity
  8
MAIN0
  6
CONTINUOUS
 62
3
100
AcDbLine
 10
231.3696354570395
 20
226.3915220182138
 30
0.0000000000000000
 11
231.3696354570274
 21
219.1746436533555
 31
0.0000000000000000
  0
LINE
  5
134
100
AcDbEntity
  8
MAIN0
  6
CONTINUOUS
 62
3
100
AcDbLine
 10
238.3696354569420
 20
231.2989993063868
 30
0.0000000000000000
 11
232.1196354569406
 21
227.6905601239477
 31
0.0000000000000000
  0
ARC
  5
135
100
AcDbEntity
  8
MAIN0
  6
CONTINUOUS
 62
3
100
AcDbCircle
 10
222.2405245043676
 20
232.5282420880424
 30
0.0000000000000000
 40
24.00000000000000
100
AcDbArc
 50
313.0422366999076
 51
346.9577632999159
  0
ARC
  5
136
100
AcDbEntity
  8
MAIN0
  6
CONTINUOUS
 62
3
100
AcDbCircle
 10
222.2405245043676
 20
232.5282420880424
 30
0.0000000000000000
 40
25.50000000000000
100
AcDbArc
 50
314.0671961846340
 51
345.9328038152094
  0
ARC
  5
137
100
AcDbEntity
  8
MAIN0
  6
CONTINUOUS
 62
3
100
AcDbCircle
 10
222.2405245043676
 20
232.5282420880424
 30
0.0000000000000000
 40
37.00000000000000
100
AcDbArc
 50
319.0945300032387
 51
340.9054699966994
  0
ARC
  5
138
100
AcDbEntity
  8
MAIN0
  6
CONTINUOUS
 62
3
100
AcDbCircle
 10
222.2405245043676
 20
232.5282420880424
 30
0.0000000000000000
 40
38.50000000000000
100
AcDbArc
 50
319.5243183035831
 51
340.4756816963629
  0
ARC
  5
139
100
AcDbEntity
  8
MAIN0
  6
CONTINUOUS
 62
3
100
AcDbCircle
 10
222.2405245043676
 20
232.5282420880424
 30
0.0000000000000000
 40
47.00000000000000
100
AcDbArc
 50
321.4347188924397
 51
338.5652811075412
  0
ARC
  5
13A
100
AcDbEntity
  8
MAIN0
  6
CONTINUOUS
 62
3
100
AcDbCircle
 10
220.5084736967988
 20
233.5282420880424
 30
0.0000000000000000
 40
55.00000000000000
100
AcDbArc
 50
97.31202192626637
 51
202.6879780737325
  0
ARC
  5
13B
100
AcDbEntity
  8
MAIN0
  6
CONTINUOUS
 62
3
100
AcDbCircle
 10
220.5084736967988
 20
233.5282420880424
 30
0.0000000000000000
 40
55.00000000000000
100
AcDbArc
 50
217.3120219262663
 51
322.6879780737325
  0
ARC
  5
13C
100
AcDbEntity
  8
MAIN0
  6
CONTINUOUS
 62
3
100
AcDbCircle
 10
220.5084736967988
 20
233.5282420880424
 30
0.0000000000000000
 40
55.00000000000000
100
AcDbArc
 50
337.3120219262664
 51
442.6879780737325
  0
CIRCLE
  5
13D
100
AcDbEntity
  8
MAIN0
  6
HIDDEN
 62
3
100
AcDbCircle
 10
196.7584736967988
 20
274.6644487678033
 30
0.0000000000000000
 40
4.000000000000000
  0
CIRCLE
  5
13E
100
AcDbEntity
  8
MAIN0
  6
HIDDEN
 62
3
100
AcDbCircle
 10
196.7584736967988
 20
274.6644487678033
 30
0.0000000000000000
 40
3.400000000000000
  0
ARC
  5
13F
100
AcDbEntity
  8
MAIN0
  6
CENTER
 62
3
100
AcDbCircle
 10
220.5084736967988
 20
233.5282420880424
 30
0.0000000000000000
 40
47.50000000000000
100
AcDbArc
 50
110.3387428159159
 51
127.2421818224060
  0
CIRCLE
  5
140
100
AcDbEntity
  8
MAIN0
  6
HIDDEN
 62
3
100
AcDbCircle
 10
196.7584736967987
 20
192.3920354082815
 30
0.0000000000000000
 40
4.000000000000000
  0
CIRCLE
  5
141
100
AcDbEntity
  8
MAIN0
  6
HIDDEN
 62
3
100
AcDbCircle
 10
196.7584736967987
 20
192.3920354082815
 30
0.0000000000000000
 40
3.400000000000000
  0
ARC
  5
142
100
AcDbEntity
  8
MAIN0
  6
CENTER
 62
3
100
AcDbCircle
 10
220.5084736967988
 20
233.5282420880424
 30
0.0000000000000000
 40
47.50000000000000
100
AcDbArc
 50
232.7578181775940
 51
247.2421818224060
  0
LINE
  5
143
100
AcDbEntity
  8
MAIN0
  6
CENTER
 62
3
100
AcDbLine
 10
55.50847369679875
 20
233.5282420880424
 30
0.0000000000000000
 11
140.5084736967988
 21
233.5282420880424
 31
0.0000000000000000
  0
LINE
  5
144
100
AcDbEntity
  8
MAIN0
  6
CENTER
 62
3
100
AcDbLine
 10
160.5084736967988
 20
233.5282420880424
 30
0.0000000000000000
 11
280.5084736967988
 21
233.5282420880424
 31
0.0000000000000000
  0
CIRCLE
  5
145
100
AcDbEntity
  8
MAIN0
  6
CONTINUOUS
 62
3
100
AcDbCircle
 10
220.5084736967988
 20
215.5282420880424
 30
0.0000000000000000
 40
1.732100000000000
  0
CIRCLE
  5
146
100
AcDbEntity
  8
MAIN0
  6
CONTINUOUS
 62
3
100
AcDbCircle
 10
220.5084736967988
 20
215.5282420880424
 30
0.0000000000000000
 40
4.500000000000000
  0
CIRCLE
  5
147
100
AcDbEntity
  8
MAIN0
  6
HIDDEN
 62
3
100
AcDbCircle
 10
236.5084736967988
 20
233.5282420880424
 30
0.0000000000000000
 40
2.250000000000000
  0
CIRCLE
  5
148
100
AcDbEntity
  8
MAIN0
  6
HIDDEN
 62
3
100
AcDbCircle
 10
236.5084736967988
 20
233.5282420880424
 30
0.0000000000000000
 40
1.844000000000000
  0
CIRCLE
  5
149
100
AcDbEntity
  8
MAIN0
  6
HIDDEN
 62
3
100
AcDbCircle
 10
212.5084736971582
 20
247.3846485483858
 30
0.0000000000000000
 40
1.844000000000000
  0
CIRCLE
  5
14A
100
AcDbEntity
  8
MAIN0
  6
HIDDEN
 62
3
100
AcDbCircle
 10
212.5084736971582
 20
247.3846485483858
 30
0.0000000000000000
 40
2.250000000000000
  0
CIRCLE
  5
14B
100
AcDbEntity
  8
MAIN0
  6
HIDDEN
 62
3
100
AcDbCircle
 10
212.5084736965980
 20
219.6718356280224
 30
0.0000000000000000
 40
1.844000000000000
  0
CIRCLE
  5
14C
100
AcDbEntity
  8
MAIN0
  6
HIDDEN
 62
3
100
AcDbCircle
 10
212.5084736965980
 20
219.6718356280224
 30
0.0000000000000000
 40
2.250000000000000
  0
ARC
  5
14D
100
AcDbEntity
  8
MAIN0
  6
CENTER
 62
3
100
AcDbCircle
 10
220.5084736967988
 20
233.5282420880424
 30
0.0000000000000000
 40
16.00000000000000
100
AcDbArc
 50
344.7357073526832
 51
375.2642926473168
  0
ARC
  5
14E
100
AcDbEntity
  8
MAIN0
  6
CENTER
 62
3
100
AcDbCircle
 10
220.5084736967988
 20
233.5282420880424
 30
0.0000000000000000
 40
16.00000000000000
100
AcDbArc
 50
104.7357073517675
 51
135.2642926467461
  0
ARC
  5
14F
100
AcDbEntity
  8
MAIN0
  6
CENTER
 62
3
100
AcDbCircle
 10
220.5084736967988
 20
233.5282420880424
 30
0.0000000000000000
 40
16.00000000000000
100
AcDbArc
 50
224.7357073509371
 51
255.2642926459158
  0
LINE
  5
150
100
AcDbEntity
  8
MAIN0
  6
CENTER
 62
3
100
AcDbLine
 10
193.7584736967352
 20
187.1958829856116
 30
0.0000000000000000
 11
199.7584736967361
 21
197.5881878310244
 31
0.0000000000000000
  0
LINE
  5
151
100
AcDbEntity
  8
MAIN0
  6
CENTER
 62
3
100
AcDbLine
 10
210.3834736969172
 20
215.9912276617542
 30
0.0000000000000000
 11
214.6334736969178
 21
223.3524435939216
 31
0.0000000000000000
  0
LINE
  5
152
100
AcDbEntity
  8
MAIN0
  6
CENTER
 62
3
100
AcDbLine
 10
193.7584736972134
 20
279.8606011907493
 30
0.0000000000000000
 11
199.7584736971993
 21
269.4682963453279
 31
0.0000000000000000
  0
LINE
  5
153
100
AcDbEntity
  8
MAIN0
  6
CENTER
 62
3
100
AcDbLine
 10
210.3834736973540
 20
251.0652565145827
 30
0.0000000000000000
 11
214.6334736973440
 21
243.7040405824092
 31
0.0000000000000000
  0
LINE
  5
154
100
AcDbEntity
  8
MAIN0
  6
CENTER
 62
3
100
AcDbLine
 10
260.5732003712450
 20
268.7839784716857
 30
0.0000000000000000
 11
250.1808955258401
 21
262.7839784716713
 31
0.0000000000000000
  0
ARC
  5
155
100
AcDbEntity
  8
MAIN0
  6
CENTER
 62
3
100
AcDbCircle
 10
220.5084736967988
 20
233.5282420880424
 30
0.0000000000000000
 40
47.50000000000000
100
AcDbArc
 50
352.7578181775940
 51
367.2421818224061
  0
ARC
  5
156
100
AcDbEntity
  8
MAIN0
  6
CENTER
 62
3
100
AcDbCircle
 10
220.5084736967988
 20
233.5282420880424
 30
0.0000000000000000
 40
47.50000000000000
100
AcDbArc
 50
35.52868480299119
 51
50.01304844780315
  0
LINE
  5
157
100
AcDbEntity
  8
MAIN0
  6
HIDDEN
 62
3
100
AcDbLine
 10
257.8388655527901
 20
268.1290699588953
 30
0.0000000000000000
 11
252.1152303442930
 21
264.8245276305157
 31
0.0000000000000000
  0
LINE
  5
158
100
AcDbEntity
  8
MAIN0
  6
HIDDEN
 62
3
100
AcDbLine
 10
258.6388655527921
 20
266.7434293128414
 30
0.0000000000000000
 11
252.9152303442949
 21
263.4388869844618
 31
0.0000000000000000
  0
LINE
  5
159
100
AcDbEntity
  8
MAIN0
  6
HIDDEN
 62
3
100
AcDbLine
 10
260.9923418662066
 20
270.7580207342014
 30
0.0000000000000000
 11
248.4606459394360
 21
263.5228427174547
 31
0.0000000000000000
  0
LINE
  5
15A
100
AcDbEntity
  8
MAIN0
  6
HIDDEN
 62
3
100
AcDbLine
 10
168.0246055273166
 20
249.9734110432464
 30
0.0000000000000000
 11
180.5563014541073
 21
242.7382330265343
 31
0.0000000000000000
  0
CIRCLE
  5
15B
100
AcDbEntity
  8
MAIN0
  6
HIDDEN
 62
3
100
AcDbCircle
 10
175.1398994449909
 20
247.5974449920944
 30
0.0000000000000000
 40
4.000000000000000
  0
CIRCLE
  5
15C
100
AcDbEntity
  8
MAIN0
  6
HIDDEN
 62
3
100
AcDbCircle
 10
175.1398994449909
 20
247.5974449920944
 30
0.0000000000000000
 40
3.400000000000000
  0
ARC
  5
15D
100
AcDbEntity
  8
MAIN0
  6
CENTER
 62
3
100
AcDbCircle
 10
220.5084736968657
 20
233.5282420881584
 30
0.0000000000000000
 40
47.50000000000000
100
AcDbArc
 50
155.5286848029911
 51
170.0130484478031
  0
LINE
  5
15E
100
AcDbEntity
  8
MAIN0
  6
HIDDEN
 62
3
100
AcDbLine
 10
172.6780818407368
 20
249.9425364793043
 30
0.0000000000000000
 11
178.4017170492431
 21
246.6379941509406
 31
0.0000000000000000
  0
LINE
  5
15F
100
AcDbEntity
  8
MAIN0
  6
CENTER
 62
3
100
AcDbLine
 10
169.9437470222802
 20
250.5974449920872
 30
0.0000000000000000
 11
180.3360518677017
 21
244.5974449921016
 31
0.0000000000000000
  0
LINE
  5
160
100
AcDbEntity
  8
MAIN0
  6
HIDDEN
 62
3
100
AcDbLine
 10
171.8780818407387
 20
248.5568958332482
 30
0.0000000000000000
 11
177.6017170492450
 21
245.2523535048844
 31
0.0000000000000000
  0
LINE
  5
161
100
AcDbEntity
  8
MAIN0
  6
HIDDEN
 62
3
100
AcDbLine
 10
180.0246055272619
 20
270.7580207341044
 30
0.0000000000000000
 11
192.5563014540431
 21
263.5228427173979
 31
0.0000000000000000
  0
LINE
  5
162
100
AcDbEntity
  8
MAIN0
  6
HIDDEN
 62
3
100
AcDbLine
 10
232.5084736966052
 20
179.8532944869113
 30
0.0000000000000000
 11
232.5084736965852
 21
194.3236505203701
 31
0.0000000000000000
  0
CIRCLE
  5
163
100
AcDbEntity
  8
MAIN0
  6
HIDDEN
 62
3
100
AcDbCircle
 10
231.0084736965950
 20
187.2033028005861
 30
0.0000000000000000
 40
4.000000000000000
  0
CIRCLE
  5
164
100
AcDbEntity
  8
MAIN0
  6
HIDDEN
 62
3
100
AcDbCircle
 10
231.0084736965950
 20
187.2033028005861
 30
0.0000000000000000
 40
3.400000000000000
  0
ARC
  5
165
100
AcDbEntity
  8
MAIN0
  6
CENTER
 62
3
100
AcDbCircle
 10
220.5084736964640
 20
233.5282420881584
 30
0.0000000000000000
 40
47.50000000000000
100
AcDbArc
 50
275.5286848029911
 51
290.0130484478030
  0
LINE
  5
166
100
AcDbEntity
  8
MAIN0
  6
HIDDEN
 62
3
100
AcDbLine
 10
230.2084736965996
 20
183.8987604722134
 30
0.0000000000000000
 11
230.2084736965905
 21
190.5078451289568
 31
0.0000000000000000
  0
LINE
  5
167
100
AcDbEntity
  8
MAIN0
  6
CENTER
 62
3
100
AcDbLine
 10
231.0084736966033
 20
181.2033028005861
 30
0.0000000000000000
 11
231.0084736965867
 21
193.2033028005861
 31
0.0000000000000000
  0
LINE
  5
168
100
AcDbEntity
  8
MAIN0
  6
HIDDEN
 62
3
100
AcDbLine
 10
231.8084736965996
 20
183.8987604722156
 30
0.0000000000000000
 11
231.8084736965905
 21
190.5078451289589
 31
0.0000000000000000
  0
LINE
  5
169
100
AcDbEntity
  8
MAIN0
  6
CENTER
 62
3
100
AcDbLine
 10
77.43031515567688
 20
138.5282420880401
 30
0.0000000000000000
 11
93.55746855467470
 21
138.5282420880449
 31
0.0000000000000000
  0
LINE
  5
16A
100
AcDbEntity
  8
MAIN0
  6
CONTINUOUS
 62
3
100
AcDbLine
 10
79.83057854715347
 20
139.0072011878411
 30
0.0000000000000000
 11
84.52951459700611
 21
143.7061372376882
 31
0.0000000000000000
  0
LINE
  5
16B
100
AcDbEntity
  8
MAIN0
  6
CONTINUOUS
 62
3
100
AcDbLine
 10
85.48743279670420
 20
133.3503469384070
 30
0.0000000000000000
 11
90.18636884643360
 21
138.0492829881309
 31
0.0000000000000000
  0
LINE
  5
16C
100
AcDbEntity
  8
MAIN0
  6
CONTINUOUS
 62
3
100
AcDbLine
 10
85.48743279658785
 20
143.7061372376885
 30
0.0000000000000000
 11
90.18636884644492
 21
139.0072011878314
 31
0.0000000000000000
  0
LINE
  5
16D
100
AcDbEntity
  8
MAIN0
  6
CONTINUOUS
 62
3
100
AcDbLine
 10
79.83057854716422
 20
138.0492829881274
 30
0.0000000000000000
 11
84.52951459688381
 21
133.3503469384078
 31
0.0000000000000000
  0
ARC
  5
16E
100
AcDbEntity
  8
MAIN0
  6
CONTINUOUS
 62
3
100
AcDbCircle
 10
85.00847369679875
 20
138.5282420880424
 30
0.0000000000000000
 40
5.200000000000000
100
AcDbArc
 50
84.71513723252282
 51
95.28486276751630
  0
ARC
  5
16F
100
AcDbEntity
  8
MAIN0
  6
CONTINUOUS
 62
3
100
AcDbCircle
 10
85.00847369679875
 20
138.5282420880424
 30
0.0000000000000000
 40
5.200000000000000
100
AcDbArc
 50
174.7151372324163
 51
185.2848627688700
  0
ARC
  5
170
100
AcDbEntity
  8
MAIN0
  6
CONTINUOUS
 62
3
100
AcDbCircle
 10
85.00847369679875
 20
138.5282420880424
 30
0.0000000000000000
 40
5.200000000000000
100
AcDbArc
 50
264.7151372311301
 51
275.2848627687646
  0
ARC
  5
171
100
AcDbEntity
  8
MAIN0
  6
CONTINUOUS
 62
3
100
AcDbCircle
 10
85.00847369679875
 20
138.5282420880424
 30
0.0000000000000000
 40
5.200000000000000
100
AcDbArc
 50
354.7151372311682
 51
365.2848627674771
  0
DIMENSION
  5
17A
100
AcDbEntity
  8
MAIN0
  6
CONTINUOUS
 62
3
100
AcDbDimension
  2
*D0
 10
143.0084736967988
 20
246.5282420880424
 30
0.0000000000000000
 11
142.5084736967988
 21
253.0282420880424
 31
0.0000000000000000
 70
32
  3
MAIN001
100
AcDbAlignedDimension
 13
136.2084736967817
 23
259.5282420880424
 33
0.0000000000000000
 14
136.2084736967740
 24
246.5282420880424
 34
0.0000000000000000
 50
90.00000000000000
100
AcDbRotatedDimension
1001
ACAD
1000
DSTYLE
1002
{
1070
   173
1070
     1
1070
     6
1000
_OPEN
1070
     7
1000
_OPEN
1070
    41
1040
2.000000
1002
}
  0
DIMENSION
  5
183
100
AcDbEntity
  8
MAIN0
  6
CONTINUOUS
 62
3
100
AcDbDimension
  2
*D1
 10
143.0084736967988
 20
259.5282420880424
 30
0.0000000000000000
 11
142.5084736967988
 21
266.0282420880424
 31
0.0000000000000000
 70
32
  3
MAIN001
100
AcDbAlignedDimension
 13
129.2084736967893
 23
272.5282420880424
 33
0.0000000000000000
 14
136.2084736967817
 24
259.5282420880424
 34
0.0000000000000000
 50
90.00000000000000
100
AcDbRotatedDimension
1001
ACAD
1000
DSTYLE
1002
{
1070
   173
1070
     1
1070
     6
1000
_OPEN
1070
     7
1000
_OPEN
1070
    41
1040
2.000000
1002
}
  0
DIMENSION
  5
18C
100
AcDbEntity
  8
MAIN0
  6
CONTINUOUS
 62
3
100
AcDbDimension
  2
*D2
 10
143.0084736967988
 20
272.5282420880424
 30
0.0000000000000000
 11
142.5084736967988
 21
280.5282420880424
 31
0.0000000000000000
 70
32
  3
MAIN001
100
AcDbAlignedDimension
 13
121.7084736967987
 23
288.5282420880424
 33
0.0000000000000000
 14
129.2084736967893
 24
272.5282420880424
 34
0.0000000000000000
 50
90.00000000000000
100
AcDbRotatedDimension
1001
ACAD
1000
DSTYLE
1002
{
1070
   173
1070
     1
1070
     6
1000
_OPEN
1070
     7
1000
_OPEN
1070
    41
1040
2.000000
1002
}
  0
DIMENSION
  5
195
100
AcDbEntity
  8
MAIN0
  6
CONTINUOUS
 62
3
100
AcDbDimension
  2
*D3
 10
150.5084736967988
 20
288.5282420880424
 30
0.0000000000000000
 11
150.0084736967988
 21
267.5282420880424
 31
0.0000000000000000
 70
32
  3
MAIN001
100
AcDbAlignedDimension
 13
136.2084736967740
 23
246.5282420880424
 33
0.0000000000000000
 14
121.7084736967987
 24
288.5282420880424
 34
0.0000000000000000
 50
90.00000000000000
100
AcDbRotatedDimension
1001
ACAD
1000
DSTYLE
1002
{
1070
   173
1070
     1
1070
     6
1000
_OPEN
1070
     7
1000
_OPEN
1070
    41
1040
2.000000
1002
}
  0
DIMENSION
  5
19D
100
AcDbEntity
  8
MAIN0
  6
CONTINUOUS
 62
3
100
AcDbDimension
  2
*D4
 10
129.5084736967825
 20
266.0282420880424
 30
0.0000000000000000
 11
133.0084736967820
 21
266.5282420880424
 31
0.0000000000000000
 70
32
  3
MAIN001
100
AcDbAlignedDimension
 13
136.5084736967815
 23
259.2282420880424
 33
0.0000000000000000
 14
129.5084736967825
 24
261.0282420876329
 34
0.0000000000000000
100
AcDbRotatedDimension
1001
ACAD
1000
DSTYLE
1002
{
1070
   173
1070
     1
1070
     6
1000
_OPEN
1070
     7
1000
_OPEN
1070
    41
1040
2.000000
1002
}
  0
DIMENSION
  5
1A5
100
AcDbEntity
  8
MAIN0
  6
CONTINUOUS
 62
3
100
AcDbDimension
  2
*D5
 10
122.5084736967968
 20
278.5282420880424
 30
0.0000000000000000
 11
126.0084736967930
 21
279.0282420880424
 31
0.0000000000000000
 70
32
  3
MAIN001
100
AcDbAlignedDimension
 13
129.5084736967891
 23
272.2282420880424
 33
0.0000000000000000
 14
122.5084736967902
 24
274.0282420876329
 34
0.0000000000000000
100
AcDbRotatedDimension
1001
ACAD
1000
DSTYLE
1002
{
1070
   173
1070
     1
1070
     6
1000
_OPEN
1070
     7
1000
_OPEN
1070
    41
1040
2.000000
1002
}
  0
DIMENSION
  5
1AE
100
AcDbEntity
  8
MAIN0
  6
CONTINUOUS
 62
3
100
AcDbDimension
  2
*D6
 10
150.6384789344031
 20
240.5282420880640
 30
0.0000000000000000
 11
150.1384789344031
 21
233.5282420880640
 31
0.0000000000000000
 70
32
  3
MAIN001
100
AcDbAlignedDimension
 13
136.3084736965711
 23
226.5282420880640
 33
0.0000000000000000
 14
136.3084736965974
 24
240.5282420880640
 34
0.0000000000000000
 50
90.00000000000000
100
AcDbRotatedDimension
1001
ACAD
1000
DSTYLE
1002
{
1070
   173
1070
     1
1070
     6
1000
_OPEN
1070
     7
1000
_OPEN
1070
    41
1040
2.000000
1002
}
  0
DIMENSION
  5
1B7
100
AcDbEntity
  8
MAIN0
  6
CONTINUOUS
 62
3
100
AcDbDimension
  2
*D7
 10
143.0084736967988
 20
220.5282420880545
 30
0.0000000000000000
 11
142.5084736967988
 21
211.0282420880611
 31
0.0000000000000000
 70
32
  3
MAIN001
100
AcDbAlignedDimension
 13
129.2084736966624
 23
201.5282420880677
 33
0.0000000000000000
 14
121.7084736966181
 24
220.5282420880545
 34
0.0000000000000000
 50
90.00000000000000
100
AcDbRotatedDimension
1001
ACAD
1000
DSTYLE
1002
{
1070
   173
1070
     1
1070
     6
1000
_OPEN
1070
     7
1000
_OPEN
1070
    41
1040
2.000000
1002
}
  0
DIMENSION
  5
1C0
100
AcDbEntity
  8
MAIN0
  6
CONTINUOUS
 62
3
100
AcDbDimension
  2
*D8
 10
143.0084736967988
 20
201.5282420880677
 30
0.0000000000000000
 11
142.5084736967988
 21
195.0282420880738
 31
0.0000000000000000
 70
32
  3
MAIN001
100
AcDbAlignedDimension
 13
136.2084736966928
 23
188.5282420880799
 33
0.0000000000000000
 14
129.2084736966624
 24
201.5282420880677
 34
0.0000000000000000
 50
90.00000000000000
100
AcDbRotatedDimension
1001
ACAD
1000
DSTYLE
1002
{
1070
   173
1070
     1
1070
     6
1000
_OPEN
1070
     7
1000
_OPEN
1070
    41
1040
2.000000
1002
}
  0
DIMENSION
  5
1C9
100
AcDbEntity
  8
MAIN0
  6
CONTINUOUS
 62
3
100
AcDbDimension
  2
*D9
 10
143.0084736967988
 20
188.5282420880799
 30
0.0000000000000000
 11
142.5084736967988
 21
183.5282420880799
 31
0.0000000000000000
 70
32
  3
MAIN001
100
AcDbAlignedDimension
 13
136.2084736967162
 23
178.5282420880799
 33
0.0000000000000000
 14
136.2084736966928
 24
188.5282420880799
 34
0.0000000000000000
 50
90.00000000000000
100
AcDbRotatedDimension
1001
ACAD
1000
DSTYLE
1002
{
1070
   173
1070
     1
1070
     6
1000
_OPEN
1070
     7
1000
_OPEN
1070
    41
1040
2.000000
1002
}
  0
DIMENSION
  5
1D1
100
AcDbEntity
  8
MAIN0
  6
CONTINUOUS
 62
3
100
AcDbDimension
  2
*D10
 10
136.5084736966893
 20
196.0282420880424
 30
0.0000000000000000
 11
133.0084736966762
 21
196.5282420880424
 31
0.0000000000000000
 70
32
  3
MAIN001
100
AcDbAlignedDimension
 13
129.5084736966631
 23
201.2282420880682
 33
0.0000000000000000
 14
136.5084736966936
 24
188.2282420880804
 34
0.0000000000000000
100
AcDbRotatedDimension
1001
ACAD
1000
DSTYLE
1002
{
1070
   173
1070
     1
1070
     6
1000
_OPEN
1070
     7
1000
_OPEN
1070
    41
1040
2.000000
1002
}
  0
DIMENSION
  5
1D9
100
AcDbEntity
  8
MAIN0
  6
CONTINUOUS
 62
3
100
AcDbDimension
  2
*D11
 10
129.5084736966631
 20
208.5282420880424
 30
0.0000000000000000
 11
126.0084736966499
 21
209.0282420880424
 31
0.0000000000000000
 70
32
  3
MAIN001
100
AcDbAlignedDimension
 13
122.5084736966367
 23
212.5282420880559
 33
0.0000000000000000
 14
129.5084736966631
 24
201.2282420880682
 34
0.0000000000000000
100
AcDbRotatedDimension
1001
ACAD
1000
DSTYLE
1002
{
1070
   173
1070
     1
1070
     6
1000
_OPEN
1070
     7
1000
_OPEN
1070
    41
1040
2.000000
1002
}
  0
DIMENSION
  5
1E2
100
AcDbEntity
  8
MAIN0
  6
CONTINUOUS
 62
3
100
AcDbDimension
  2
*D12
 10
73.00847369679154
 20
168.5282420880424
 30
0.0000000000000000
 11
80.50847369679875
 21
169.0282420880424
 31
0.0000000000000000
 70
160
  1
\A1;\U+220524
  3
MAIN001
100
AcDbAlignedDimension
 13
97.00847369687688
 23
180.0984420880390
 33
0.0000000000000000
 14
73.00847369678880
 24
180.0984420880507
 34
0.0000000000000000
100
AcDbRotatedDimension
1001
ACAD
1000
DSTYLE
1002
{
1070
   173
1070
     1
1070
     6
1000
_OPEN
1070
     7
1000
_OPEN
1070
    41
1040
2.000000
1002
}
  0
LINE
  5
1E3
100
AcDbEntity
  8
MAIN0
  6
CENTER
 62
3
100
AcDbLine
 10
85.00847369679875
 20
146.6030792522015
 30
0.0000000000000000
 11
85.00847369679875
 21
130.8288253293707
 31
0.0000000000000000
  0
LINE
  5
1E4
100
AcDbEntity
  8
MAIN0
  6
CENTER
 62
3
100
AcDbLine
 10
85.00847369679875
 20
188.5282420880424
 30
0.0000000000000000
 11
85.00847369679875
 21
176.0282420880424
 31
0.0000000000000000
  0
DIMENSION
  5
1EF
100
AcDbEntity
  8
MAIN0
  6
CONTINUOUS
 62
3
100
AcDbDimension
  2
*D13
 10
95.58690082151047
 20
133.6066692127540
 30
0.0000000000000000
 11
98.22187801178234
 21
136.9487531842090
 31
0.0000000000000000
 70
161
  1
\A1;□8\H0.903226x;\S+0.15^ +0.05;
  3
MAIN001
100
AcDbAlignedDimension
 13
84.52951459688379
 23
133.3503469384079
 33
0.0000000000000000
 14
90.18636884644492
 24
139.0072011878314
 34
0.0000000000000000
 50
44.99999999996624
1001
ACAD
1000
DSTYLE
1002
{
1070
   173
1070
     1
1070
     6
1000
_OPEN
1070
     7
1000
_OPEN
1070
    41
1040
2.000000
1070
   287
1070
     0
1070
   272
1070
     2
1070
    47
1040
0.150000
1070
    48
1040
-0.050000
1070
    71
1070
     1
1070
   340
1005
1F0
1002
}
  0
DIMENSION
  5
1F9
100
AcDbEntity
  8
MAIN0
  6
CONTINUOUS
 62
3
100
AcDbDimension
  2
*D14
 10
50.50847369679875
 20
245.5282420880424
 30
0.0000000000000000
 11
50.00847369679875
 21
233.5282420880424
 31
0.0000000000000000
 70
32
  1
\A1;\U+220524
  3
MAIN001
100
AcDbAlignedDimension
 13
66.00847369679875
 23
221.5282420880424
 33
0.0000000000000000
 14
66.00847369679875
 24
245.5282420880424
 34
0.0000000000000000
 50
90.00000000000000
100
AcDbRotatedDimension
1001
ACAD
1000
DSTYLE
1002
{
1070
   173
1070
     1
1070
     6
1000
_OPEN
1070
     7
1000
_OPEN
1070
    41
1040
2.000000
1002
}
  0
DIMENSION
  5
202
100
AcDbEntity
  8
MAIN0
  6
CONTINUOUS
 62
3
100
AcDbDimension
  2
*D15
 10
43.00847369679875
 20
273.5282420880424
 30
0.0000000000000000
 11
42.50847369679875
 21
231.4015975685592
 31
0.0000000000000000
 70
160
  1
\A1;\U+220580H6\H0.903226x;\S＋0.019^ 　0;
  3
MAIN001
100
AcDbAlignedDimension
 13
60.50847369679876
 23
193.5282420880424
 33
0.0000000000000000
 14
60.50847369679876
 24
273.5282420880424
 34
0.0000000000000000
 50
90.00000000000000
100
AcDbRotatedDimension
1001
ACAD
1000
DSTYLE
1002
{
1070
   173
1070
     1
1070
     6
1000
_OPEN
1070
     7
1000
_OPEN
1070
    41
1040
2.000000
1070
   272
1070
     3
1070
    47
1040
0.019000
1070
    48
1040
0.000000
1070
    71
1070
     1
1070
   340
1005
1F0
1002
}
  0
DIMENSION
  5
20B
100
AcDbEntity
  8
MAIN0
  6
CONTINUOUS
 62
3
100
AcDbDimension
  2
*D16
 10
33.00847369679875
 20
288.5282420880424
 30
0.0000000000000000
 11
32.50847369679875
 21
233.5282420880424
 31
0.0000000000000000
 70
32
  1
\A1;\U+2205110
  3
MAIN001
100
AcDbAlignedDimension
 13
61.50847369679876
 23
178.5282420880424
 33
0.0000000000000000
 14
61.50847369679876
 24
288.5282420880424
 34
0.0000000000000000
 50
90.00000000000000
100
AcDbRotatedDimension
1001
ACAD
1000
DSTYLE
1002
{
1070
   173
1070
     1
1070
     6
1000
_OPEN
1070
     7
1000
_OPEN
1070
    41
1040
2.000000
1002
}
  0
LINE
  5
20C
100
AcDbEntity
  8
MAIN0
  6
CENTER
 62
3
100
AcDbLine
 10
56.01446000247518
 20
281.0282420880424
 30
0.0000000000000000
 11
85.99496664185833
 21
281.0282420880424
 31
0.0000000000000000
  0
DIMENSION
  5
215
100
AcDbEntity
  8
MAIN0
  6
CONTINUOUS
 62
3
100
AcDbDimension
  2
*D17
 10
60.50847369679875
 20
296.0282420880424
 30
0.0000000000000000
 11
68.50847369679875
 21
296.5282420880424
 31
0.0000000000000000
 70
32
  3
MAIN001
100
AcDbAlignedDimension
 13
76.50847369679875
 23
285.0282420880424
 33
0.0000000000000000
 14
60.50847369679875
 24
287.5282420880424
 34
0.0000000000000000
100
AcDbRotatedDimension
1001
ACAD
1000
DSTYLE
1002
{
1070
   173
1070
     1
1070
     6
1000
_OPEN
1070
     7
1000
_OPEN
1070
    41
1040
2.000000
1002
}
  0
LEADER
  5
216
100
AcDbEntity
  8
MAIN0
  6
CONTINUOUS
 62
3
100
AcDbLeader
  3
MAIN001
 73
     0
 74
     0
 75
     1
 40
3.099999904632568
 41
33.50100002235173
 76
     3
 10
68.70847369679875
 20
285.0282420880424
 30
0.0000000000000000
 10
75.50847369679875
 20
306.0282420880424
 30
0.0000000000000000
 10
77.29347364413805
 20
306.0282420880424
 30
0.0000000000000000
340
217
213
0.0000000000000000
223
-0.5000000000000000
233
0.0000000000000000
1001
ACAD
1000
DSTYLE
1002
{
1070
   147
1040
0.0
1070
    77
1070
     1
1070
   173
1070
     1
1070
     6
1000
_OPEN
1070
     7
1000
_OPEN
1002
}
  0
MTEXT
  5
217
102
{ACAD_REACTORS
330
216
102
}
100
AcDbEntity
  8
MAIN0
  6
CONTINUOUS
 62
3
100
AcDbMText
 10
77.29447364413804
 20
309.6282419926749
 30
0.0000000000000000
 40
3.099999904632568
 41
0.0000000000000000
 71
     1
 72
     1
  1
{\H0.71x;{3-M8 (等配)\P(EQUALLY SPACED)}}
 11
1.000000000000000
 21
0.0000000000000000
 31
0.0000000000000000
  7
KNJYOKO
  0
CIRCLE
  5
218
100
AcDbEntity
  8
MAIN0
  6
CONTINUOUS
 62
3
100
AcDbCircle
 10
220.5084736967988
 20
215.5282420880424
 30
0.0000000000000000
 40
5.500000000000000
  0
LINE
  5
219
100
AcDbEntity
  8
MAIN0
  6
CONTINUOUS
 62
3
100
AcDbLine
 10
228.3064326678901
 20
224.4072862233768
 30
0.0000000000000000
 11
231.3696354570332
 21
222.6387452684874
 31
0.0000000000000000
  0
LINE
  5
21A
100
AcDbEntity
  8
MAIN0
  6
CONTINUOUS
 62
3
100
AcDbLine
 10
232.3064326679215
 20
231.3354894536341
 30
0.0000000000000000
 11
235.3696354569413
 21
229.5669484988160
 31
0.0000000000000000
  0
LINE
  5
21B
100
AcDbEntity
  8
MAIN0
  6
CONTINUOUS
 62
3
100
AcDbLine
 10
224.5084736968503
 20
244.8419505870089
 30
0.0000000000000000
 11
224.5084736968462
 21
248.3790324967949
 31
0.0000000000000000
  0
LINE
  5
21C
100
AcDbEntity
  8
MAIN0
  6
CONTINUOUS
 62
3
100
AcDbLine
 10
216.5084736968503
 20
244.8419505870452
 30
0.0000000000000000
 11
216.5084736968462
 21
248.3790324966888
 31
0.0000000000000000
  0
LINE
  5
21D
100
AcDbEntity
  8
MAIN0
  6
CONTINUOUS
 62
3
100
AcDbLine
 10
208.7105147257231
 20
231.3354894538575
 30
0.0000000000000000
 11
205.6473119365841
 21
229.5669484989609
 31
0.0000000000000000
  0
LINE
  5
21E
100
AcDbEntity
  8
MAIN0
  6
CONTINUOUS
 62
3
100
AcDbLine
 10
212.7105147256916
 20
224.4072862235639
 30
0.0000000000000000
 11
209.6473119366759
 21
222.6387452687385
 31
0.0000000000000000
  0
LINE
  5
21F
100
AcDbEntity
  8
MAIN0
  6
CENTER
 62
3
100
AcDbLine
 10
58.00847369679875
 20
187.0282420880424
 30
0.0000000000000000
 11
120.5084736967988
 21
187.0282420880424
 31
0.0000000000000000
  0
DIMENSION
  5
228
100
AcDbEntity
  8
MAIN0
  6
CONTINUOUS
 62
3
100
AcDbDimension
  2
*D18
 10
125.5084736967988
 20
194.0282420880424
 30
0.0000000000000000
 11
125.0084736967988
 21
187.0282420880424
 31
0.0000000000000000
 70
32
  1
\A1;\U+220514
  3
MAIN001
100
AcDbAlignedDimension
 13
118.1084736967988
 23
180.0282420880424
 33
0.0000000000000000
 14
118.1084736967988
 24
194.0282420880424
 34
0.0000000000000000
 50
90.00000000000000
100
AcDbRotatedDimension
1001
ACAD
1000
DSTYLE
1002
{
1070
   173
1070
     1
1070
     6
1000
_OPEN
1070
     7
1000
_OPEN
1070
    41
1040
2.000000
1002
}
  0
DIMENSION
  5
231
100
AcDbEntity
  8
MAIN0
  6
CONTINUOUS
 62
3
100
AcDbDimension
  2
*D19
 10
50.50847369679875
 20
191.5282420880424
 30
0.0000000000000000
 11
50.00847369679875
 21
187.0282420880424
 31
0.0000000000000000
 70
32
  1
\A1;\U+22059
  3
MAIN001
100
AcDbAlignedDimension
 13
60.90847369679875
 23
182.5282420880424
 33
0.0000000000000000
 14
60.90847369679875
 24
191.5282420880424
 34
0.0000000000000000
 50
90.00000000000000
100
AcDbRotatedDimension
1001
ACAD
1000
DSTYLE
1002
{
1070
   173
1070
     1
1070
     6
1000
_OPEN
1070
     7
1000
_OPEN
1070
    41
1040
2.000000
1002
}
  0
LINE
  5
232
100
AcDbEntity
  8
MAIN0
  6
CENTER
 62
3
100
AcDbLine
 10
239.2584736965997
 20
201.0522894461494
 30
0.0000000000000000
 11
248.2584736965685
 21
185.4638321780115
 31
0.0000000000000000
  0
LINE
  5
233
100
AcDbEntity
  8
MAIN0
  6
CENTER
 62
3
100
AcDbLine
 10
239.2584736966608
 20
266.0041947301768
 30
0.0000000000000000
 11
248.2584736966297
 21
281.5926519983146
 31
0.0000000000000000
  0
ARC
  5
234
100
AcDbEntity
  8
MAIN0
  6
CENTER
 62
3
100
AcDbCircle
 10
220.5084736967988
 20
233.5282420881807
 30
0.0000000000000000
 40
46.50000000000000
100
AcDbArc
 50
48.89311160890134
 51
73.58564411207244
  0
ARC
  5
235
100
AcDbEntity
  8
MAIN0
  6
CENTER
 62
3
100
AcDbCircle
 10
220.5084736967988
 20
233.5282420881807
 30
0.0000000000000000
 40
46.50000000000000
100
AcDbArc
 50
288.8931116083777
 51
311.1068883910117
  0
ARC
  5
236
100
AcDbEntity
  8
MAIN0
  6
CENTER
 62
3
100
AcDbCircle
 10
220.5084736967988
 20
233.5282420881807
 30
0.0000000000000000
 40
46.50000000000000
100
AcDbArc
 50
168.8931116088535
 51
191.1068883914875
  0
DIMENSION
  5
23F
100
AcDbEntity
  8
MAIN0
  6
CONTINUOUS
 62
3
100
AcDbDimension
  2
*D20
 10
65.00847369679875
 20
208.5282420880424
 30
0.0000000000000000
 11
55.11989497174739
 21
209.0282420880424
 31
0.0000000000000000
 70
160
  3
MAIN001
100
AcDbAlignedDimension
 13
60.50847369679875
 23
179.5282420880424
 33
0.0000000000000000
 14
65.00847369679875
 24
193.5282420880424
 34
0.0000000000000000
100
AcDbRotatedDimension
1001
ACAD
1000
DSTYLE
1002
{
1070
   173
1070
     1
1070
     6
1000
_OPEN
1070
     7
1000
_OPEN
1070
    41
1040
2.000000
1070
   287
1070
     0
1002
}
  0
ARC
  5
240
100
AcDbEntity
  8
MAIN0
  6
CONTINUOUS
 62
3
100
AcDbCircle
 10
353.1736250867105
 20
318.5282420880284
 30
0.0000000000000000
 40
10.00000000000000
100
AcDbArc
 50
156.4218215217025
 51
203.5781784781070
  0
ARC
  5
241
100
AcDbEntity
  8
MAIN0
  6
CONTINUOUS
 62
3
100
AcDbCircle
 10
317.8433223068872
 20
318.5282420880563
 30
0.0000000000000000
 40
10.00000000000000
100
AcDbArc
 50
336.4218215217026
 51
383.5781784781067
  0
LINE
  5
242
100
AcDbEntity
  8
MAIN0
  6
CONTINUOUS
 62
3
100
AcDbLine
 10
327.0084736967549
 20
292.0282420879119
 30
0.0000000000000000
 11
327.0084736967923
 21
314.5282420880411
 31
0.0000000000000000
  0
LINE
  5
243
100
AcDbEntity
  8
MAIN0
  6
CONTINUOUS
 62
3
100
AcDbLine
 10
327.0084736968054
 20
322.5282420880411
 30
0.0000000000000000
 11
327.0084736968171
 21
329.5282420879174
 31
0.0000000000000000
  0
LINE
  5
244
100
AcDbEntity
  8
MAIN0
  6
CONTINUOUS
 62
3
100
AcDbLine
 10
344.0084736967547
 20
292.0282420878554
 30
0.0000000000000000
 11
344.0084736967922
 21
314.5282420880436
 31
0.0000000000000000
  0
LINE
  5
245
100
AcDbEntity
  8
MAIN0
  6
CONTINUOUS
 62
3
100
AcDbLine
 10
344.0084736968055
 20
322.5282420880436
 30
0.0000000000000000
 11
344.0084736968172
 21
329.5282420879341
 31
0.0000000000000000
  0
LINE
  5
246
100
AcDbEntity
  8
MAIN0
  6
CENTER
 62
3
100
AcDbLine
 10
335.5084736966948
 20
256.0282420880465
 30
0.0000000000000000
 11
335.5084736968237
 21
333.5282420880507
 31
0.0000000000000000
  0
LINE
  5
247
100
AcDbEntity
  8
MAIN0
  6
HIDDEN
 62
3
100
AcDbLine
 10
327.0084736968054
 20
322.5282420880411
 30
0.0000000000000000
 11
344.0084736968055
 21
322.5282420880436
 31
0.0000000000000000
  0
LINE
  5
248
100
AcDbEntity
  8
MAIN0
  6
HIDDEN
 62
3
100
AcDbLine
 10
327.0084736967922
 20
314.5282420880411
 30
0.0000000000000000
 11
344.0084736967922
 21
314.5282420880436
 31
0.0000000000000000
  0
LINE
  5
249
100
AcDbEntity
  8
MAIN0
  6
CONTINUOUS
 62
3
100
AcDbLine
 10
328.0084736968186
 20
330.5282420879184
 30
0.0000000000000000
 11
343.0084736968186
 21
330.5282420879332
 31
0.0000000000000000
  0
LINE
  5
24A
100
AcDbEntity
  8
MAIN0
  6
CONTINUOUS
 62
3
100
AcDbLine
 10
328.0084736968188
 20
330.5282420879185
 30
0.0000000000000000
 11
327.0084736968172
 21
329.5282420879175
 31
0.0000000000000000
  0
LINE
  5
24B
100
AcDbEntity
  8
MAIN0
  6
CONTINUOUS
 62
3
100
AcDbLine
 10
343.0084736968188
 20
330.5282420879332
 30
0.0000000000000000
 11
344.0084736968172
 21
329.5282420879341
 31
0.0000000000000000
  0
LINE
  5
24C
100
AcDbEntity
  8
MAIN0
  6
CONTINUOUS
 62
3
100
AcDbLine
 10
327.0084736968171
 20
329.5282420878243
 30
0.0000000000000000
 11
344.0084736968172
 21
329.5282420878376
 31
0.0000000000000000
  0
LINE
  5
24D
100
AcDbEntity
  8
MAIN0
  6
CONTINUOUS
 62
3
100
AcDbLine
 10
405.5084736967959
 20
312.5282420880526
 30
0.0000000000000000
 11
405.5084736967959
 21
324.5282420880526
 31
0.0000000000000000
  0
LINE
  5
24E
100
AcDbEntity
  8
MAIN0
  6
CONTINUOUS
 62
3
100
AcDbLine
 10
397.5084736967959
 20
312.5282420880527
 30
0.0000000000000000
 11
397.5084736967959
 21
324.5282420880526
 31
0.0000000000000000
  0
LINE
  5
24F
100
AcDbEntity
  8
MAIN0
  6
CONTINUOUS
 62
3
100
AcDbLine
 10
398.5084736967959
 20
325.5282420880526
 30
0.0000000000000000
 11
404.5084736967959
 21
325.5282420880526
 31
0.0000000000000000
  0
LINE
  5
250
100
AcDbEntity
  8
MAIN0
  6
CONTINUOUS
 62
3
100
AcDbLine
 10
397.5084736967959
 20
324.5282420880525
 30
0.0000000000000000
 11
398.5084736967959
 21
325.5282420880525
 31
0.0000000000000000
  0
LINE
  5
251
100
AcDbEntity
  8
MAIN0
  6
CONTINUOUS
 62
3
100
AcDbLine
 10
404.5084736967959
 20
325.5282420880526
 30
0.0000000000000000
 11
405.5084736967959
 21
324.5282420880526
 31
0.0000000000000000
  0
LINE
  5
252
100
AcDbEntity
  8
MAIN0
  6
CONTINUOUS
 62
3
100
AcDbLine
 10
398.5084736967959
 20
311.5282420880526
 30
0.0000000000000000
 11
404.5084736967959
 21
311.5282420880526
 31
0.0000000000000000
  0
LINE
  5
253
100
AcDbEntity
  8
MAIN0
  6
CONTINUOUS
 62
3
100
AcDbLine
 10
397.5084736967958
 20
312.5282420880526
 30
0.0000000000000000
 11
398.5084736967959
 21
311.5282420880526
 31
0.0000000000000000
  0
LINE
  5
254
100
AcDbEntity
  8
MAIN0
  6
CONTINUOUS
 62
3
100
AcDbLine
 10
404.5084736967959
 20
311.5282420880526
 30
0.0000000000000000
 11
405.5084736967959
 21
312.5282420880526
 31
0.0000000000000000
  0
LINE
  5
255
100
AcDbEntity
  8
MAIN0
  6
HIDDEN
 62
3
100
AcDbLine
 10
397.5084736967959
 20
315.5282420880526
 30
0.0000000000000000
 11
405.5084736967959
 21
315.5282420880526
 31
0.0000000000000000
  0
LINE
  5
256
100
AcDbEntity
  8
MAIN0
  6
HIDDEN
 62
3
100
AcDbLine
 10
397.5084736967959
 20
321.5282420880526
 30
0.0000000000000000
 11
405.5084736967959
 21
321.5282420880526
 31
0.0000000000000000
  0
LINE
  5
257
100
AcDbEntity
  8
MAIN0
  6
CONTINUOUS
 62
3
100
AcDbLine
 10
265.5084736967626
 20
312.5282420882130
 30
0.0000000000000000
 11
265.5084736968025
 21
324.5282420882130
 31
0.0000000000000000
  0
LINE
  5
258
100
AcDbEntity
  8
MAIN0
  6
CONTINUOUS
 62
3
100
AcDbLine
 10
273.5084736967626
 20
312.5282420881864
 30
0.0000000000000000
 11
273.5084736968025
 21
324.5282420881864
 31
0.0000000000000000
  0
LINE
  5
259
100
AcDbEntity
  8
MAIN0
  6
CONTINUOUS
 62
3
100
AcDbLine
 10
272.5084736968058
 20
325.5282420881898
 30
0.0000000000000000
 11
266.5084736968058
 21
325.5282420882097
 31
0.0000000000000000
  0
LINE
  5
25A
100
AcDbEntity
  8
MAIN0
  6
CONTINUOUS
 62
3
100
AcDbLine
 10
273.5084736968025
 20
324.5282420881864
 30
0.0000000000000000
 11
272.5084736968058
 21
325.5282420881897
 31
0.0000000000000000
  0
LINE
  5
25B
100
AcDbEntity
  8
MAIN0
  6
CONTINUOUS
 62
3
100
AcDbLine
 10
266.5084736968058
 20
325.5282420882097
 30
0.0000000000000000
 11
265.5084736968025
 21
324.5282420882130
 31
0.0000000000000000
  0
LINE
  5
25C
100
AcDbEntity
  8
MAIN0
  6
CONTINUOUS
 62
3
100
AcDbLine
 10
272.5084736967593
 20
311.5282420881898
 30
0.0000000000000000
 11
266.5084736967593
 21
311.5282420882097
 31
0.0000000000000000
  0
LINE
  5
25D
100
AcDbEntity
  8
MAIN0
  6
CONTINUOUS
 62
3
100
AcDbLine
 10
273.5084736967626
 20
312.5282420881865
 30
0.0000000000000000
 11
272.5084736967593
 21
311.5282420881898
 31
0.0000000000000000
  0
LINE
  5
25E
100
AcDbEntity
  8
MAIN0
  6
CONTINUOUS
 62
3
100
AcDbLine
 10
266.5084736967592
 20
311.5282420882097
 30
0.0000000000000000
 11
265.5084736967626
 21
312.5282420882130
 31
0.0000000000000000
  0
LINE
  5
25F
100
AcDbEntity
  8
MAIN0
  6
HIDDEN
 62
3
100
AcDbLine
 10
273.5084736967726
 20
315.5282420881864
 30
0.0000000000000000
 11
265.5084736967726
 21
315.5282420882130
 31
0.0000000000000000
  0
LINE
  5
260
100
AcDbEntity
  8
MAIN0
  6
HIDDEN
 62
3
100
AcDbLine
 10
273.5084736967925
 20
321.5282420881864
 30
0.0000000000000000
 11
265.5084736967925
 21
321.5282420882130
 31
0.0000000000000000
  0
LINE
  5
261
100
AcDbEntity
  8
MAIN0
  6
CONTINUOUS
 62
3
100
AcDbLine
 10
331.0084736967024
 20
260.5282420879162
 30
0.0000000000000000
 11
340.0084736967025
 21
260.5282420879175
 31
0.0000000000000000
  0
LINE
  5
262
100
AcDbEntity
  8
MAIN0
  6
CONTINUOUS
 62
3
100
AcDbLine
 10
340.7084736967048
 20
261.2282420879176
 30
0.0000000000000000
 11
340.7084736968023
 21
290.5282420879251
 31
0.0000000000000000
  0
LINE
  5
263
100
AcDbEntity
  8
MAIN0
  6
CONTINUOUS
 62
3
100
AcDbLine
 10
330.3084736967048
 20
261.2282420879160
 30
0.0000000000000000
 11
330.3084736968024
 21
290.5282420879059
 31
0.0000000000000000
  0
LINE
  5
264
100
AcDbEntity
  8
MAIN0
  6
CONTINUOUS
 62
3
100
AcDbLine
 10
330.3084736967047
 20
261.2282420879160
 30
0.0000000000000000
 11
331.0084736967024
 21
260.5282420879162
 31
0.0000000000000000
  0
LINE
  5
265
100
AcDbEntity
  8
MAIN0
  6
CONTINUOUS
 62
3
100
AcDbLine
 10
340.0084736967025
 20
260.5282420879175
 30
0.0000000000000000
 11
340.7084736967047
 21
261.2282420879176
 31
0.0000000000000000
  0
LINE
  5
266
100
AcDbEntity
  8
MAIN0
  6
CENTER
 62
3
100
AcDbLine
 10
327.8084736966292
 20
243.5282420880091
 30
0.0000000000000000
 11
343.2084736966293
 21
243.5282420880091
 31
0.0000000000000000
  0
LINE
  5
267
100
AcDbEntity
  8
MAIN0
  6
CONTINUOUS
 62
3
100
AcDbLine
 10
330.3305785469943
 20
244.0072011879211
 30
0.0000000000000000
 11
335.0295145967141
 21
248.7061372376437
 31
0.0000000000000000
  0
LINE
  5
268
100
AcDbEntity
  8
MAIN0
  6
CONTINUOUS
 62
3
100
AcDbLine
 10
335.9874327965943
 20
248.7061372376249
 30
0.0000000000000000
 11
340.6863688462458
 21
244.0072011879639
 31
0.0000000000000000
  0
LINE
  5
269
100
AcDbEntity
  8
MAIN0
  6
CONTINUOUS
 62
3
100
AcDbLine
 10
335.2451976394433
 20
261.2282420879168
 30
0.0000000000000000
 11
335.2451976394262
 21
271.5282420879168
 31
0.0000000000000000
  0
LINE
  5
26A
100
AcDbEntity
  8
MAIN0
  6
CONTINUOUS
 62
3
100
AcDbLine
 10
335.7717497537309
 20
261.2282420879168
 30
0.0000000000000000
 11
335.7717497537481
 21
271.5282420879169
 31
0.0000000000000000
  0
LINE
  5
26B
100
AcDbEntity
  8
MAIN0
  6
CONTINUOUS
 62
3
100
AcDbLine
 10
330.3084736967048
 20
261.2282420879160
 30
0.0000000000000000
 11
335.2451976394434
 21
261.2282420879168
 31
0.0000000000000000
  0
LINE
  5
26C
100
AcDbEntity
  8
MAIN0
  6
CONTINUOUS
 62
3
100
AcDbLine
 10
335.7717497537310
 20
261.2282420879169
 30
0.0000000000000000
 11
340.7084736967047
 21
261.2282420879176
 31
0.0000000000000000
  0
LINE
  5
26D
100
AcDbEntity
  8
MAIN0
  6
CONTINUOUS
 62
3
100
AcDbLine
 10
330.3084736967390
 20
271.5282420879161
 30
0.0000000000000000
 11
335.2451976394262
 21
271.5282420879168
 31
0.0000000000000000
  0
LINE
  5
26E
100
AcDbEntity
  8
MAIN0
  6
CONTINUOUS
 62
3
100
AcDbLine
 10
335.7717497537481
 20
271.5282420879169
 30
0.0000000000000000
 11
340.7084736967390
 21
271.5282420879176
 31
0.0000000000000000
  0
LINE
  5
26F
100
AcDbEntity
  8
MAIN0
  6
CENTER
 62
3
100
AcDbLine
 10
335.5084736966036
 20
235.8282420880091
 30
0.0000000000000000
 11
335.5084736966548
 21
251.2282420880092
 31
0.0000000000000000
  0
LINE
  5
270
100
AcDbEntity
  8
MAIN0
  6
CONTINUOUS
 62
3
100
AcDbLine
 10
330.3305785469800
 20
243.0492829882547
 30
0.0000000000000000
 11
335.0295145968645
 21
238.3503469383607
 31
0.0000000000000000
  0
LINE
  5
271
100
AcDbEntity
  8
MAIN0
  6
CONTINUOUS
 62
3
100
AcDbLine
 10
335.9874327964212
 20
238.3503469383632
 30
0.0000000000000000
 11
340.6863688462753
 21
243.0492829882202
 31
0.0000000000000000
  0
ARC
  5
272
100
AcDbEntity
  8
MAIN0
  6
CONTINUOUS
 62
3
100
AcDbCircle
 10
335.5084736966293
 20
243.5282420880091
 30
0.0000000000000000
 40
5.200000000000000
100
AcDbArc
 50
174.7151372311642
 51
185.2848627670931
  0
ARC
  5
273
100
AcDbEntity
  8
MAIN0
  6
CONTINUOUS
 62
3
100
AcDbCircle
 10
335.5084736966293
 20
243.5282420880091
 30
0.0000000000000000
 40
5.200000000000000
100
AcDbArc
 50
354.7151372325247
 51
365.2848627691404
  0
ARC
  5
274
100
AcDbEntity
  8
MAIN0
  6
CONTINUOUS
 62
3
100
AcDbCircle
 10
335.5084736966293
 20
243.5282420880091
 30
0.0000000000000000
 40
5.200000000000000
100
AcDbArc
 50
264.7151372327912
 51
275.2848627675095
  0
ARC
  5
275
100
AcDbEntity
  8
MAIN0
  6
CONTINUOUS
 62
3
100
AcDbCircle
 10
335.5084736966293
 20
243.5282420880091
 30
0.0000000000000000
 40
5.200000000000000
100
AcDbArc
 50
84.71513723074821
 51
95.28486276886935
  0
LINE
  5
276
100
AcDbEntity
  8
MAIN0
  6
PHANTOM
 62
3
100
AcDbLine
 10
329.9584736967900
 20
290.5282420879266
 30
0.0000000000000000
 11
341.0584736967896
 21
290.5282420879250
 31
0.0000000000000000
  0
LINE
  5
277
100
AcDbEntity
  8
MAIN0
  6
PHANTOM
 62
3
100
AcDbLine
 10
329.7084736967783
 20
260.5282420879266
 30
0.0000000000000000
 11
341.3084736967783
 21
260.5282420879250
 31
0.0000000000000000
  0
CIRCLE
  5
278
100
AcDbEntity
  8
MAIN0
  6
PHANTOM
 62
3
100
AcDbCircle
 10
341.3084736967783
 20
261.0282420879250
 30
0.0000000000000000
 40
0.5000000000000000
  0
CIRCLE
  5
279
100
AcDbEntity
  8
MAIN0
  6
PHANTOM
 62
3
100
AcDbCircle
 10
341.0584736967895
 20
290.0282420879250
 30
0.0000000000000000
 40
0.5000000000000000
  0
CIRCLE
  5
27A
100
AcDbEntity
  8
MAIN0
  6
PHANTOM
 62
3
100
AcDbCircle
 10
341.0584736967895
 20
289.0282420879250
 30
0.0000000000000000
 40
0.5000000000000000
  0
CIRCLE
  5
27B
100
AcDbEntity
  8
MAIN0
  6
PHANTOM
 62
3
100
AcDbCircle
 10
329.7084736967783
 20
261.0282420879296
 30
0.0000000000000000
 40
0.5000000000000000
  0
LINE
  5
27C
100
AcDbEntity
  8
MAIN0
  6
PHANTOM
 62
3
100
AcDbLine
 10
329.7084736967783
 20
261.5282420879295
 30
0.0000000000000000
 11
341.3084736967783
 21
261.5282420879250
 31
0.0000000000000000
  0
CIRCLE
  5
27D
100
AcDbEntity
  8
MAIN0
  6
PHANTOM
 62
3
100
AcDbCircle
 10
329.9584736967898
 20
290.0282420879294
 30
0.0000000000000000
 40
0.5000000000000000
  0
CIRCLE
  5
27E
100
AcDbEntity
  8
MAIN0
  6
PHANTOM
 62
3
100
AcDbCircle
 10
329.9584736967891
 20
289.0282420879294
 30
0.0000000000000000
 40
0.5000000000000000
  0
LINE
  5
27F
100
AcDbEntity
  8
MAIN0
  6
PHANTOM
 62
3
100
AcDbLine
 10
329.9584736967894
 20
289.5282420879294
 30
0.0000000000000000
 11
341.0584736967894
 21
289.5282420879250
 31
0.0000000000000000
  0
LINE
  5
280
100
AcDbEntity
  8
MAIN0
  6
PHANTOM
 62
3
100
AcDbLine
 10
341.0584736967894
 20
288.5282420879250
 30
0.0000000000000000
 11
329.9584736967890
 21
288.5282420879294
 31
0.0000000000000000
  0
CIRCLE
  5
281
100
AcDbEntity
  8
MAIN0
  6
PHANTOM
 62
3
100
AcDbCircle
 10
341.3084736967889
 20
287.1782420879250
 30
0.0000000000000000
 40
0.5000000000000000
  0
CIRCLE
  5
282
100
AcDbEntity
  8
MAIN0
  6
PHANTOM
 62
3
100
AcDbCircle
 10
341.3084736967868
 20
281.7782420879250
 30
0.0000000000000000
 40
0.5000000000000000
  0
CIRCLE
  5
283
100
AcDbEntity
  8
MAIN0
  6
PHANTOM
 62
3
100
AcDbCircle
 10
341.3084736967846
 20
276.3782420879250
 30
0.0000000000000000
 40
0.5000000000000000
  0
CIRCLE
  5
284
100
AcDbEntity
  8
MAIN0
  6
PHANTOM
 62
3
100
AcDbCircle
 10
341.3084736967825
 20
270.9782420879250
 30
0.0000000000000000
 40
0.5000000000000000
  0
CIRCLE
  5
285
100
AcDbEntity
  8
MAIN0
  6
PHANTOM
 62
3
100
AcDbCircle
 10
341.3084736967804
 20
265.5782420879250
 30
0.0000000000000000
 40
0.5000000000000000
  0
CIRCLE
  5
286
100
AcDbEntity
  8
MAIN0
  6
PHANTOM
 62
3
100
AcDbCircle
 10
329.7084736967872
 20
284.4782420879295
 30
0.0000000000000000
 40
0.5000000000000000
  0
CIRCLE
  5
287
100
AcDbEntity
  8
MAIN0
  6
PHANTOM
 62
3
100
AcDbCircle
 10
329.7084736967851
 20
279.0782420879295
 30
0.0000000000000000
 40
0.5000000000000000
  0
CIRCLE
  5
288
100
AcDbEntity
  8
MAIN0
  6
PHANTOM
 62
3
100
AcDbCircle
 10
329.7084736967829
 20
273.6782420879296
 30
0.0000000000000000
 40
0.5000000000000000
  0
CIRCLE
  5
289
100
AcDbEntity
  8
MAIN0
  6
PHANTOM
 62
3
100
AcDbCircle
 10
329.7084736967808
 20
268.2782420879295
 30
0.0000000000000000
 40
0.5000000000000000
  0
CIRCLE
  5
28A
100
AcDbEntity
  8
MAIN0
  6
PHANTOM
 62
3
100
AcDbCircle
 10
329.7084736967787
 20
262.8782420879296
 30
0.0000000000000000
 40
0.5000000000000000
  0
LINE
  5
28B
100
AcDbEntity
  8
MAIN0
  6
PHANTOM
 62
3
100
AcDbLine
 10
329.5951243299754
 20
284.9652245527508
 30
0.0000000000000000
 11
341.1951243299772
 21
287.6652245527463
 31
0.0000000000000000
  0
LINE
  5
28C
100
AcDbEntity
  8
MAIN0
  6
PHANTOM
 62
3
100
AcDbLine
 10
341.4218230636004
 20
286.6912596231037
 30
0.0000000000000000
 11
329.8218230635987
 21
283.9912596231083
 31
0.0000000000000000
  0
LINE
  5
28D
100
AcDbEntity
  8
MAIN0
  6
PHANTOM
 62
3
100
AcDbLine
 10
329.5951243299733
 20
279.5652245527508
 30
0.0000000000000000
 11
341.1951243299750
 21
282.2652245527463
 31
0.0000000000000000
  0
LINE
  5
28E
100
AcDbEntity
  8
MAIN0
  6
PHANTOM
 62
3
100
AcDbLine
 10
341.4218230635984
 20
281.2912596231037
 30
0.0000000000000000
 11
329.8218230635966
 21
278.5912596231083
 31
0.0000000000000000
  0
LINE
  5
28F
100
AcDbEntity
  8
MAIN0
  6
PHANTOM
 62
3
100
AcDbLine
 10
329.5951243299712
 20
274.1652245527508
 30
0.0000000000000000
 11
341.1951243299729
 21
276.8652245527463
 31
0.0000000000000000
  0
LINE
  5
290
100
AcDbEntity
  8
MAIN0
  6
PHANTOM
 62
3
100
AcDbLine
 10
341.4218230635962
 20
275.8912596231037
 30
0.0000000000000000
 11
329.8218230635944
 21
273.1912596231082
 31
0.0000000000000000
  0
LINE
  5
291
100
AcDbEntity
  8
MAIN0
  6
PHANTOM
 62
3
100
AcDbLine
 10
329.5951243299691
 20
268.7652245527508
 30
0.0000000000000000
 11
341.1951243299708
 21
271.4652245527462
 31
0.0000000000000000
  0
LINE
  5
292
100
AcDbEntity
  8
MAIN0
  6
PHANTOM
 62
3
100
AcDbLine
 10
341.4218230635941
 20
270.4912596231037
 30
0.0000000000000000
 11
329.8218230635923
 21
267.7912596231083
 31
0.0000000000000000
  0
LINE
  5
293
100
AcDbEntity
  8
MAIN0
  6
PHANTOM
 62
3
100
AcDbLine
 10
329.5951243299670
 20
263.3652245527508
 30
0.0000000000000000
 11
341.1951243299687
 21
266.0652245527463
 31
0.0000000000000000
  0
LINE
  5
294
100
AcDbEntity
  8
MAIN0
  6
PHANTOM
 62
3
100
AcDbLine
 10
341.4218230635919
 20
265.0912596231037
 30
0.0000000000000000
 11
329.8218230635902
 21
262.3912596231082
 31
0.0000000000000000
  0
LINE
  5
295
100
AcDbEntity
  8
MAIN0
  6
CONTINUOUS
 62
3
100
AcDbLine
 10
342.5084736967498
 20
290.5282420878654
 30
0.0000000000000000
 11
344.0084736967548
 21
292.0282420878554
 31
0.0000000000000000
  0
LINE
  5
296
100
AcDbEntity
  8
MAIN0
  6
CONTINUOUS
 62
3
100
AcDbLine
 10
328.5084736967497
 20
290.5282420879119
 30
0.0000000000000000
 11
327.0084736967547
 21
292.0282420879119
 31
0.0000000000000000
  0
LINE
  5
297
100
AcDbEntity
  8
MAIN0
  6
CONTINUOUS
 62
3
100
AcDbLine
 10
328.5084736967499
 20
290.5282420879119
 30
0.0000000000000000
 11
342.5084736967498
 21
290.5282420878654
 31
0.0000000000000000
  0
LINE
  5
298
100
AcDbEntity
  8
MAIN0
  6
CONTINUOUS
 62
3
100
AcDbLine
 10
344.0084736967548
 20
292.0282420878554
 30
0.0000000000000000
 11
327.0084736967549
 21
292.0282420879119
 31
0.0000000000000000
  0
LINE
  5
299
100
AcDbEntity
  8
MAIN0
  6
CENTER
 62
3
100
AcDbLine
 10
341.3084736967867
 20
291.2439520354730
 30
0.0000000000000000
 11
341.3084736967618
 21
259.5126886639267
 31
0.0000000000000000
  0
LINE
  5
29A
100
AcDbEntity
  8
MAIN0
  6
CENTER
 62
3
100
AcDbLine
 10
329.7084736967935
 20
291.2439520354776
 30
0.0000000000000000
 11
329.7084736967935
 21
259.5126886639313
 31
0.0000000000000000
  0
LINE
  5
29B
100
AcDbEntity
  8
MAIN0
  6
CENTER
 62
3
100
AcDbLine
 10
316.5084736967988
 20
318.5282420880396
 30
0.0000000000000000
 11
410.5084736968053
 21
318.5282420880534
 31
0.0000000000000000
  0
DIMENSION
  5
2A5
100
AcDbEntity
  8
MAIN0
  6
CONTINUOUS
 62
1
100
AcDbDimension
  2
*D21
 10
345.8369008214903
 20
238.8566692127355
 30
0.0000000000000000
 11
347.6868626802404
 21
241.4137378526728
 31
0.0000000000000000
 70
160
  1
\A1;□8\H0.903226x;\S 0^ -0.1;
  3
MAIN001
100
AcDbAlignedDimension
 13
335.2451976396418
 23
238.1346638955828
 33
0.0000000000000000
 14
340.6863688462458
 24
244.0072011879639
 34
0.0000000000000000
 50
45.00000000001685
100
AcDbRotatedDimension
1001
ACAD
1000
DSTYLE
1002
{
1070
   173
1070
     1
1070
     6
1000
_OPEN
1070
     7
1000
_OPEN
1070
    41
1040
2.000000
1070
   272
1070
     1
1070
    47
1040
0.000000
1070
    48
1040
0.100000
1070
    71
1070
     1
1070
   340
1005
1F0
1002
}
  0
DIMENSION
  5
2AE
100
AcDbEntity
  8
MAIN0
  6
CONTINUOUS
 62
3
100
AcDbDimension
  2
*D22
 10
273.5084736968025
 20
336.0282420880424
 30
0.0000000000000000
 11
269.5084736968025
 21
336.5282420880424
 31
0.0000000000000000
 70
32
  3
MAIN001
100
AcDbAlignedDimension
 13
265.5084736968025
 23
324.5282420882130
 33
0.0000000000000000
 14
273.5084736968025
 24
324.5282420881864
 34
0.0000000000000000
100
AcDbRotatedDimension
1001
ACAD
1000
DSTYLE
1002
{
1070
   173
1070
     1
1070
     6
1000
_OPEN
1070
     7
1000
_OPEN
1070
    41
1040
2.000000
1002
}
  0
DIMENSION
  5
2B7
100
AcDbEntity
  8
MAIN0
  6
CONTINUOUS
 62
3
100
AcDbDimension
  2
*D23
 10
327.0084736968172
 20
336.0282420880424
 30
0.0000000000000000
 11
335.5084736968172
 21
336.5282420880424
 31
0.0000000000000000
 70
32
  1
\A1;\U+220517
  3
MAIN001
100
AcDbAlignedDimension
 13
344.0084736968172
 23
329.5282420879341
 33
0.0000000000000000
 14
327.0084736968171
 24
329.5282420879174
 34
0.0000000000000000
100
AcDbRotatedDimension
1001
ACAD
1000
DSTYLE
1002
{
1070
   173
1070
     1
1070
     6
1000
_OPEN
1070
     7
1000
_OPEN
1070
    41
1040
2.000000
1002
}
  0
DIMENSION
  5
2C0
100
AcDbEntity
  8
MAIN0
  6
CONTINUOUS
 62
3
100
AcDbDimension
  2
*D24
 10
255.5084736967821
 20
311.5282420882097
 30
0.0000000000000000
 11
255.0084736967821
 21
318.5282420882097
 31
0.0000000000000000
 70
32
  1
\A1;\U+220514
  3
MAIN001
100
AcDbAlignedDimension
 13
266.5084736968059
 23
325.5282420882097
 33
0.0000000000000000
 14
266.5084736967593
 24
311.5282420882097
 34
0.0000000000000000
 50
90.00000000000000
100
AcDbRotatedDimension
1001
ACAD
1000
DSTYLE
1002
{
1070
   173
1070
     1
1070
     6
1000
_OPEN
1070
     7
1000
_OPEN
1070
    41
1040
2.000000
1002
}
  0
DIMENSION
  5
2C9
100
AcDbEntity
  8
MAIN0
  6
CONTINUOUS
 62
3
100
AcDbDimension
  2
*D25
 10
350.5084736967988
 20
271.5282420879176
 30
0.0000000000000000
 11
350.0084736967988
 21
266.0282420879175
 31
0.0000000000000000
 70
32
  3
MAIN001
100
AcDbAlignedDimension
 13
340.0084736967025
 23
260.5282420879175
 33
0.0000000000000000
 14
340.7084736967391
 24
271.5282420879176
 34
0.0000000000000000
 50
90.00000000000000
100
AcDbRotatedDimension
1001
ACAD
1000
DSTYLE
1002
{
1070
   173
1070
     1
1070
     6
1000
_OPEN
1070
     7
1000
_OPEN
1070
    41
1040
2.000000
1002
}
  0
DIMENSION
  5
2D2
100
AcDbEntity
  8
MAIN0
  6
CONTINUOUS
 62
3
100
AcDbDimension
  2
*D26
 10
365.5084736967988
 20
330.5282420879332
 30
0.0000000000000000
 11
365.0084736967988
 21
295.5282420879254
 31
0.0000000000000000
 70
32
  3
MAIN001
100
AcDbAlignedDimension
 13
340.0084736967025
 23
260.5282420879175
 33
0.0000000000000000
 14
343.0084736968187
 24
330.5282420879332
 34
0.0000000000000000
 50
90.00000000000000
100
AcDbRotatedDimension
1001
ACAD
1000
DSTYLE
1002
{
1070
   173
1070
     1
1070
     6
1000
_OPEN
1070
     7
1000
_OPEN
1070
    41
1040
2.000000
1002
}
  0
LINE
  5
2D3
100
AcDbEntity
  8
MAIN0
  6
CONTINUOUS
 62
3
100
AcDbLine
 10
344.0084736967922
 20
314.5282420880436
 30
0.0000000000000000
 11
397.5084736967959
 21
314.5282420880514
 31
0.0000000000000000
  0
LINE
  5
2D4
100
AcDbEntity
  8
MAIN0
  6
CONTINUOUS
 62
3
100
AcDbLine
 10
344.0084736968055
 20
322.5282420880436
 30
0.0000000000000000
 11
397.5084736967960
 21
322.5282420880514
 31
0.0000000000000000
  0
LINE
  5
2D5
100
AcDbEntity
  8
MAIN0
  6
CONTINUOUS
 62
3
100
AcDbLine
 10
273.5084736967960
 20
322.5282420880332
 30
0.0000000000000000
 11
327.0084736968055
 21
322.5282420880411
 31
0.0000000000000000
  0
LINE
  5
2D6
100
AcDbEntity
  8
MAIN0
  6
CONTINUOUS
 62
3
100
AcDbLine
 10
273.5084736967727
 20
314.5282420880333
 30
0.0000000000000000
 11
327.0084736967921
 21
314.5282420880411
 31
0.0000000000000000
  0
DIMENSION
  5
2DF
100
AcDbEntity
  8
MAIN0
  6
CONTINUOUS
 62
3
100
AcDbDimension
  2
*D27
 10
405.5084736967959
 20
343.5282420880424
 30
0.0000000000000000
 11
335.5084736967992
 21
344.0282420880424
 31
0.0000000000000000
 70
32
  3
MAIN001
100
AcDbAlignedDimension
 13
265.5084736968025
 23
324.5282420882130
 33
0.0000000000000000
 14
405.5084736967959
 24
324.5282420880526
 34
0.0000000000000000
100
AcDbRotatedDimension
1001
ACAD
1000
DSTYLE
1002
{
1070
   173
1070
     1
1070
     6
1000
_OPEN
1070
     7
1000
_OPEN
1070
    41
1040
2.000000
1002
}
  0
LINE
  5
2E0
100
AcDbEntity
  8
MAIN0
  6
PHANTOM
 62
3
100
AcDbLine
 10
231.5084736967988
 20
187.5282420880423
 30
0.0000000000000000
 11
231.5084736968001
 21
183.5282420880423
 31
0.0000000000000000
  0
LINE
  5
2E1
100
AcDbEntity
  8
MAIN0
  6
PHANTOM
 62
3
100
AcDbLine
 10
209.5084736967987
 20
187.5282420880423
 30
0.0000000000000000
 11
209.5084736968001
 21
183.5282420880423
 31
0.0000000000000000
  0
MTEXT
  5
2E2
100
AcDbEntity
  8
MAIN0
  6
CONTINUOUS
 62
3
100
AcDbMText
 10
198.2730345294664
 20
203.0739186954613
 30
0.0000000000000000
 40
3.000000000000000
 41
0.0000000000000000
 71
     1
 72
     1
  1
{\H0.63x;{77-1 MOTOMACHI\PFUCHU-SHI HIROSHIMA\P726-8610 JAPAN}}
 11
1.000000000000000
 21
-5.573999878030222e-015
 31
0.0000000000000000
  7
STANDARD
  0
MTEXT
  5
2E3
100
AcDbEntity
  8
MAIN0
  6
CONTINUOUS
 62
3
100
AcDbMText
 10
209.5084736968000
 20
187.0282420880423
 30
0.0000000000000000
 40
3.000000000000000
 41
0.0000000000000000
 71
     1
 72
     1
  1
{\H0.63x;{SCROLL CHUCK}}
 11
1.000000000000000
 21
-5.573999878030222e-015
 31
0.0000000000000000
  7
STANDARD
  0
LINE
  5
2E4
100
AcDbEntity
  8
MAIN0
  6
PHANTOM
 62
3
100
AcDbLine
 10
196.5084736967988
 20
203.5282420880423
 30
0.0000000000000000
 11
234.5084736967988
 21
203.5282420880423
 31
0.0000000000000000
  0
LINE
  5
2E5
100
AcDbEntity
  8
MAIN0
  6
PHANTOM
 62
3
100
AcDbLine
 10
196.5084736967988
 20
191.5282420880423
 30
0.0000000000000000
 11
196.5084736967988
 21
203.5282420880423
 31
0.0000000000000000
  0
LINE
  5
2E6
100
AcDbEntity
  8
MAIN0
  6
PHANTOM
 62
3
100
AcDbLine
 10
196.5084736967988
 20
191.5282420880423
 30
0.0000000000000000
 11
234.5084736967988
 21
191.5282420880423
 31
0.0000000000000000
  0
LINE
  5
2E7
100
AcDbEntity
  8
MAIN0
  6
PHANTOM
 62
3
100
AcDbLine
 10
234.5084736967988
 20
191.5282420880423
 30
0.0000000000000000
 11
234.5084736967988
 21
203.5282420880423
 31
0.0000000000000000
  0
LINE
  5
2E8
100
AcDbEntity
  8
MAIN0
  6
PHANTOM
 62
3
100
AcDbLine
 10
209.5084736967987
 20
187.5282420880423
 30
0.0000000000000000
 11
231.5084736967988
 21
187.5282420880423
 31
0.0000000000000000
  0
LINE
  5
2E9
100
AcDbEntity
  8
MAIN0
  6
PHANTOM
 62
3
100
AcDbLine
 10
209.5084736968001
 20
183.5282420880423
 30
0.0000000000000000
 11
231.5084736968001
 21
183.5282420880423
 31
0.0000000000000000
  0
MTEXT
  5
2EA
100
AcDbEntity
  8
MAIN0
  6
CONTINUOUS
 62
3
100
AcDbMText
 10
203.2470714859191
 20
264.3335190559115
 30
0.0000000000000000
 40
5.000000000000000
 41
0.0000000000000000
 71
     1
 72
     1
  1
{\H0.93x;{KITAGAWA}}
 11
-0.4999999999999635
 21
-0.8660254037844597
 31
0.0000000000000000
  7
STANDARD
  0
MTEXT
  5
2EB
100
AcDbEntity
  8
MAIN0
  6
CONTINUOUS
 62
3
100
AcDbMText
 10
203.0724015348553
 20
253.3280792190376
 30
0.0000000000000000
 40
4.000000000000000
 41
0.0000000000000000
 71
     1
 72
     1
  1
{\H0.92x;{SC-4N}}
 11
-0.4999999999999635
 21
-0.8660254037844597
 31
0.0000000000000000
  7
STANDARD
  0
LINE
  5
2EC
100
AcDbEntity
  8
MAIN0
  6
CONTINUOUS
 62
3
100
AcDbLine
 10
198.3681137990051
 20
267.1800138471119
 30
0.0000000000000000
 11
180.3612153252846
 21
235.9911508039616
 31
0.0000000000000000
  0
MTEXT
  5
2ED
100
AcDbEntity
  8
MAIN0
  6
CONTINUOUS
 62
3
100
AcDbMText
 10
192.0798553820523
 20
260.2884307778359
 30
0.0000000000000000
 40
4.000000000000000
 41
0.0000000000000000
 71
     1
 72
     1
  1
{\H0.92x;{JAPAN}}
 11
-0.4999999999999635
 21
-0.8660254037844597
 31
0.0000000000000000
  7
STANDARD
  0
LINE
  5
2EE
100
AcDbEntity
  8
MAIN0
  6
PHANTOM
 62
3
100
AcDbLine
 10
177.1713051228260
 20
250.4660642616357
 30
0.0000000000000000
 11
184.1713051228124
 21
262.5904199146257
 31
0.0000000000000000
  0
LINE
  5
2EF
100
AcDbEntity
  8
MAIN0
  6
PHANTOM
 62
3
100
AcDbLine
 10
181.5732289114592
 20
264.0904199146257
 30
0.0000000000000000
 11
184.1713051228123
 21
262.5904199146256
 31
0.0000000000000000
  0
LINE
  5
2F0
100
AcDbEntity
  8
MAIN0
  6
PHANTOM
 62
3
100
AcDbLine
 10
174.5732289114728
 20
251.9660642616357
 30
0.0000000000000000
 11
181.5732289114592
 21
264.0904199146257
 31
0.0000000000000000
  0
LINE
  5
2F1
100
AcDbEntity
  8
MAIN0
  6
PHANTOM
 62
3
100
AcDbLine
 10
174.5732289114585
 20
251.9660642616439
 30
0.0000000000000000
 11
177.1713051228118
 21
250.4660642616437
 31
0.0000000000000000
  0
LINE
  5
2F2
100
AcDbEntity
  8
MAIN0
  6
CONTINUOUS
 62
3
100
AcDbLine
 10
254.2441501023862
 20
237.0963365245797
 30
0.0000000000000000
 11
256.1686509996897
 21
238.2074476356929
 31
0.0000000000000000
  0
LINE
  5
2F3
100
AcDbEntity
  8
MAIN0
  6
CONTINUOUS
 62
3
100
AcDbLine
 10
259.3552612134982
 20
228.2436323969858
 30
0.0000000000000000
 11
254.2441501023904
 21
237.0963365245819
 31
0.0000000000000000
  0
LINE
  5
2F4
100
AcDbEntity
  8
MAIN0
  6
CONTINUOUS
 62
3
100
AcDbLine
 10
256.8353176663534
 20
237.0527470973119
 30
0.0000000000000000
 11
256.1686509996905
 21
238.2074476356905
 31
0.0000000000000000
  0
LINE
  5
2F5
100
AcDbEntity
  8
MAIN0
  6
CONTINUOUS
 62
3
100
AcDbLine
 10
256.8353176663537
 20
237.0527470973121
 30
0.0000000000000000
 11
258.7598185636526
 21
238.1638582084228
 31
0.0000000000000000
  0
LINE
  5
2F6
100
AcDbEntity
  8
MAIN0
  6
CONTINUOUS
 62
3
100
AcDbLine
 10
259.4264852303177
 20
237.0091576700427
 30
0.0000000000000000
 11
258.7598185636526
 21
238.1638582084229
 31
0.0000000000000000
  0
LINE
  5
2F7
100
AcDbEntity
  8
MAIN0
  6
CONTINUOUS
 62
3
100
AcDbLine
 10
261.7954305720601
 20
237.3504684222330
 30
0.0000000000000000
 11
261.3509861276173
 21
238.1202687811535
 31
0.0000000000000000
  0
LINE
  5
2F8
100
AcDbEntity
  8
MAIN0
  6
CONTINUOUS
 62
3
100
AcDbLine
 10
259.4264852303177
 20
237.0091576700426
 30
0.0000000000000000
 11
261.3509861276175
 21
238.1202687811537
 31
0.0000000000000000
  0
LINE
  5
2F9
100
AcDbEntity
  8
MAIN0
  6
CONTINUOUS
 62
3
100
AcDbLine
 10
259.4672182777469
 20
238.8305643087293
 30
0.0000000000000000
 11
262.6315107848674
 21
240.6574694395092
 31
0.0000000000000000
  0
LINE
  5
2FA
100
AcDbEntity
  8
MAIN0
  6
CONTINUOUS
 62
3
100
AcDbLine
 10
264.2789639864201
 20
241.6086269887863
 30
0.0000000000000000
 11
262.8863726821005
 21
240.2160356844705
 31
0.0000000000000000
  0
LINE
  5
2FB
100
AcDbEntity
  8
MAIN0
  6
CONTINUOUS
 62
3
100
AcDbLine
 10
264.2789639863195
 20
241.6086269889607
 30
0.0000000000000000
 11
262.3766488875328
 21
241.0989031944893
 31
0.0000000000000000
  0
MTEXT
  5
2FC
100
AcDbEntity
  8
MAIN0
  6
CONTINUOUS
 62
3
100
AcDbMText
 10
266.2350292311164
 20
240.7623590708749
 30
0.0000000000000000
 40
3.000000000000000
 41
0.0000000000000000
 71
     1
 72
     1
  1
{\H0.90x;{ΣＳ}}
 11
-0.4999999999999979
 21
0.8660254037844398
 31
0.0000000000000000
  7
KNJYOKO
  0
LINE
  5
2FD
100
AcDbEntity
  8
MAIN0
  6
CONTINUOUS
 62
3
100
AcDbLine
 10
256.0219278801631
 20
234.0171350889012
 30
0.0000000000000000
 11
269.8783343407159
 21
242.0171350888982
 31
0.0000000000000000
  0
LINE
  5
2FE
100
AcDbEntity
  8
MAIN0
  6
CONTINUOUS
 62
3
100
AcDbLine
 10
273.2116676740460
 20
236.2436323969917
 30
0.0000000000000000
 11
269.8783343407163
 21
242.0171350888975
 31
0.0000000000000000
  0
LINE
  5
2FF
100
AcDbEntity
  8
MAIN0
  6
CONTINUOUS
 62
3
100
AcDbLine
 10
259.3552612134949
 20
228.2436323969837
 30
0.0000000000000000
 11
273.2116676740459
 21
236.2436323969918
 31
0.0000000000000000
  0
LINE
  5
300
100
AcDbEntity
  8
MAIN0
  6
CONTINUOUS
 62
3
100
AcDbLine
 10
251.9150918549473
 20
227.7970504095888
 30
0.0000000000000000
 11
257.6885945468362
 21
231.1303837429350
 31
0.0000000000000000
  0
LINE
  5
301
100
AcDbEntity
  8
MAIN0
  6
CONTINUOUS
 62
3
100
AcDbLine
 10
255.0623897179423
 20
227.0488061018877
 30
0.0000000000000000
 11
256.6591132321064
 21
228.3886162137159
 31
0.0000000000000000
  0
LINE
  5
302
100
AcDbEntity
  8
MAIN0
  6
CONTINUOUS
 62
3
100
AcDbLine
 10
255.2088466717509
 20
228.7228167440173
 30
0.0000000000000000
 11
256.6591132321065
 21
228.3886162137161
 31
0.0000000000000000
  0
LINE
  5
303
100
AcDbEntity
  8
MAIN0
  6
CONTINUOUS
 62
3
100
AcDbLine
 10
255.0623897179424
 20
227.0488061018877
 30
0.0000000000000000
 11
255.2088466717508
 21
228.7228167440171
 31
0.0000000000000000
  0
ARC
  5
304
100
AcDbEntity
  8
MAIN0
  6
CONTINUOUS
 62
3
100
AcDbCircle
 10
253.6471426625125
 20
228.7970504095952
 30
0.0000000000000000
 40
2.249284861313653
100
AcDbArc
 50
353.2530843414754
 51
479.9999999999999
  0
LINE
  5
305
100
AcDbEntity
  8
MAIN0
  6
CONTINUOUS
 62
3
100
AcDbLine
 10
253.5817585215975
 20
224.9102990636602
 30
0.0000000000000000
 11
250.2484251882633
 21
230.6838017555761
 31
0.0000000000000000
  0
LINE
  5
306
100
AcDbEntity
  8
MAIN0
  6
CONTINUOUS
 62
3
100
AcDbLine
 10
262.8863726821436
 20
240.2160356845135
 30
0.0000000000000000
 11
262.3766488875911
 21
241.0989031945052
 31
0.0000000000000000
  0
MTEXT
  5
307
100
AcDbEntity
  8
MAIN0
  6
CONTINUOUS
 62
3
100
AcDbMText
 10
245.8602396298238
 20
238.5873471417033
 30
0.0000000000000000
 40
3.000000000000000
 41
0.0000000000000000
 71
     1
 72
     1
  1
{\H0.60x;{T MAX 44.1 N・m\PΣS MAX 12 KN\PMASS 3.1 kg}}
 11
-0.5000000000003740
 21
0.8660254037842227
 31
0.0000000000000000
  7
KNJYOKO
  0
MTEXT
  5
308
100
AcDbEntity
  8
MAIN0
  6
CONTINUOUS
 62
3
100
AcDbMText
 10
251.3302777120799
 20
232.1570967691814
 30
0.0000000000000000
 40
3.000000000000000
 41
0.0000000000000000
 71
     1
 72
     1
  1
{\H0.81x;{T}}
 11
-0.4999999999999979
 21
0.8660254037844398
 31
0.0000000000000000
  7
STANDARD
  0
LINE
  5
309
100
AcDbEntity
  8
MAIN0
  6
PHANTOM
 62
3
100
AcDbLine
 10
242.1853882323588
 20
267.9827247598250
 30
0.0000000000000000
 11
257.1853882323701
 21
242.0019626462984
 31
0.0000000000000000
  0
LINE
  5
30A
100
AcDbEntity
  8
MAIN0
  6
PHANTOM
 62
3
100
AcDbLine
 10
231.7930833869226
 20
261.9827247598644
 30
0.0000000000000000
 11
246.7930833869338
 21
236.0019626463378
 31
0.0000000000000000
  0
LINE
  5
30B
100
AcDbEntity
  8
MAIN0
  6
PHANTOM
 62
3
100
AcDbLine
 10
231.7930833869228
 20
261.9827247598645
 30
0.0000000000000000
 11
242.1853882323588
 21
267.9827247598250
 31
0.0000000000000000
  0
LINE
  5
30C
100
AcDbEntity
  8
MAIN0
  6
PHANTOM
 62
3
100
AcDbLine
 10
246.7930833868239
 20
236.0019626462743
 30
0.0000000000000000
 11
257.1853882322600
 21
242.0019626462348
 31
0.0000000000000000
  0
DIMENSION
  5
312
100
AcDbEntity
  8
MAIN0
  6
CONTINUOUS
 62
3
100
AcDbDimension
  2
*D28
 10
235.8697684466935
 20
277.4176556591873
 30
0.0000000000000000
 11
231.8106217579100
 21
267.3336379841497
 31
0.0000000000000000
 70
163
  3
MAIN001
100
AcDbDiametricDimension
 15
205.1471789469040
 25
189.6388285171742
 35
0.0000000000000000
1001
ACAD
1000
DSTYLE
1002
{
1070
   287
1070
     2
1070
   173
1070
     1
1070
     6
1000
_OPEN
1070
     7
1000
_NONE
1070
    41
1040
2.000000
1070
   272
1070
     1
1070
    47
1040
0.200000
1070
    48
1040
0.200000
1070
    71
1070
     1
1002
}
  0
ARC
  5
313
100
AcDbEntity
  8
MAIN0
  6
HIDDEN
 62
3
100
AcDbCircle
 10
220.5084736967988
 20
233.5282420880424
 30
0.0000000000000000
 40
41.00000000000000
100
AcDbArc
 50
12.98135259662211
 51
69.78543402395792
  0
ARC
  5
314
100
AcDbEntity
  8
MAIN0
  6
HIDDEN
 62
3
100
AcDbCircle
 10
220.5084736967988
 20
233.5282420880424
 30
0.0000000000000000
 40
40.00000000000000
100
AcDbArc
 50
12.98135259662211
 51
69.75573149508421
  0
LINE
  5
315
100
AcDbEntity
  8
MAIN0
  6
HIDDEN
 62
3
100
AcDbLine
 10
260.4606459395002
 20
242.7382330266652
 30
0.0000000000000000
 11
262.6368167823387
 21
243.9946458485847
 31
0.0000000000000000
  0
LINE
  5
316
100
AcDbEntity
  8
MAIN0
  6
HIDDEN
 62
3
100
AcDbLine
 10
267.8329692050413
 20
246.9946458485919
 30
0.0000000000000000
 11
272.9923418662614
 21
249.9734110434065
 31
0.0000000000000000
  0
ARC
  5
317
100
AcDbEntity
  8
MAIN0
  6
HIDDEN
 62
3
100
AcDbCircle
 10
220.5084736967988
 20
233.5282420880424
 30
0.0000000000000000
 40
40.00000000000000
100
AcDbArc
 50
78.08193398495740
 51
134.8398845264371
  0
ARC
  5
318
100
AcDbEntity
  8
MAIN0
  6
HIDDEN
 62
3
100
AcDbCircle
 10
220.5084736967988
 20
233.5282420880424
 30
0.0000000000000000
 40
41.00000000000000
100
AcDbArc
 50
77.90769175007297
 51
135.2181854354220
  0
ARC
  5
319
100
AcDbEntity
  8
MAIN0
  6
HIDDEN
 62
3
100
AcDbCircle
 10
220.5084736967988
 20
233.5282420880424
 30
0.0000000000000000
 40
40.00000000000000
100
AcDbArc
 50
164.5356678739679
 51
233.6023424554825
  0
ARC
  5
31A
100
AcDbEntity
  8
MAIN0
  6
HIDDEN
 62
3
100
AcDbCircle
 10
220.5084736967988
 20
233.5282420880424
 30
0.0000000000000000
 40
40.00000000000000
100
AcDbArc
 50
289.6707168006722
 51
350.5411296264412
  0
ARC
  5
31B
100
AcDbEntity
  8
MAIN0
  6
HIDDEN
 62
3
100
AcDbCircle
 10
220.5084736967988
 20
233.5282420880424
 30
0.0000000000000000
 40
41.00000000000000
100
AcDbArc
 50
164.1736265353796
 51
234.6258643146251
  0
ARC
  5
31C
100
AcDbEntity
  8
MAIN0
  6
HIDDEN
 62
3
100
AcDbCircle
 10
220.5084736967988
 20
233.5282420880424
 30
0.0000000000000000
 40
41.00000000000000
100
AcDbArc
 50
289.1719298299225
 51
350.5411296264412
  0
LINE
  5
31D
100
AcDbEntity
  8
MAIN0
  6
HIDDEN
 62
3
100
AcDbLine
 10
208.5084736966052
 20
179.8532944868482
 30
0.0000000000000000
 11
208.5084736965904
 21
190.5739186954613
 31
0.0000000000000000
  0
LINE
  5
31E
100
AcDbEntity
  8
MAIN0
  6
CENTER
 62
3
100
AcDbLine
 10
167.9836064079056
 20
203.2029958196309
 30
0.0000000000000000
 11
240.4139167892807
 21
245.0206550159396
 31
0.0000000000000000
  0
LINE
  5
31F
100
AcDbEntity
  8
MAIN0
  6
CENTER
 62
3
100
AcDbLine
 10
252.5382724422532
 20
252.0206550159564
 30
0.0000000000000000
 11
271.5777681991219
 21
263.0131130164544
 31
0.0000000000000000
  0
LINE
  5
320
100
AcDbEntity
  8
MAIN0
  6
CENTER
 62
3
100
AcDbLine
 10
220.5084736967988
 20
173.5282420880424
 30
0.0000000000000000
 11
220.5084736967988
 21
190.5739186954612
 31
0.0000000000000000
  0
LINE
  5
321
100
AcDbEntity
  8
MAIN0
  6
CENTER
 62
3
100
AcDbLine
 10
220.5084736967988
 20
204.5739186954612
 30
0.0000000000000000
 11
220.5084736967988
 21
293.5282420880424
 31
0.0000000000000000
  0
LINE
  5
322
100
AcDbEntity
  8
MAIN0
  6
CENTER
 62
3
100
AcDbLine
 10
200.1568767079670
 20
245.2782420881380
 30
0.0000000000000000
 11
271.3932576949101
 21
204.1498983491740
 31
0.0000000000000000
  0
LINE
  5
323
100
AcDbEntity
  8
MAIN0
  6
CENTER
 62
3
100
AcDbLine
 10
169.9295798893807
 20
262.7299800432480
 30
0.0000000000000000
 11
182.8363686322849
 21
255.2782420881482
 31
0.0000000000000000
  0
DIMENSION
  5
32C
100
AcDbEntity
  8
MAIN0
  6
CONTINUOUS
 62
3
100
AcDbDimension
  2
*D29
 10
193.7584736972136
 20
279.8606011907490
 30
0.0000000000000000
 11
203.5558262428369
 21
296.7963837100155
 31
0.0000000000000000
 70
162
  3
MAIN001
100
AcDb2LineAngularDimension
 13
220.5084736967988
 23
293.5282420880424
 33
0.0000000000000000
 14
220.5084736967988
 24
292.5282420880424
 34
0.0000000000000000
 15
194.2584736972124
 25
278.9945757869638
 35
0.0000000000000000
 16
203.6852357653878
 26
296.3134207968709
 36
0.0000000000000000
1001
ACAD
1000
DSTYLE
1002
{
1070
   173
1070
     1
1070
     6
1000
_OPEN
1070
     7
1000
_OPEN
1070
    41
1040
2.000000
1002
}
  0
DIMENSION
  5
332
100
AcDbEntity
  8
MAIN0
  6
CONTINUOUS
 62
3
100
AcDbDimension
  2
*D30
 10
202.0757661940374
 20
277.3059224071005
 30
0.0000000000000000
 11
209.9385605473645
 21
257.3433153099430
 31
0.0000000000000000
 70
163
  3
MAIN001
100
AcDbDiametricDimension
 15
238.9411811995600
 25
189.7505617689843
 35
0.0000000000000000
1001
ACAD
1000
DSTYLE
1002
{
1070
   287
1070
     2
1070
   173
1070
     1
1070
     6
1000
_OPEN
1070
     7
1000
_NONE
1070
    41
1040
2.000000
1070
   272
1070
     1
1070
    47
1040
0.200000
1070
    48
1040
0.200000
1070
    71
1070
     1
1002
}
  0
LINE
  5
333
100
AcDbEntity
  8
MAIN0
  6
CONTINUOUS
 62
3
100
AcDbLine
 10
340.7084736967391
 20
271.5282420879177
 30
0.0000000000000000
 11
335.7717497537310
 21
261.2282420879168
 31
0.0000000000000000
  0
LINE
  5
334
100
AcDbEntity
  8
MAIN0
  6
CONTINUOUS
 62
3
100
AcDbLine
 10
335.7717497537481
 20
271.5282420879169
 30
0.0000000000000000
 11
340.7084736967048
 21
261.2282420879176
 31
0.0000000000000000
  0
LINE
  5
335
100
AcDbEntity
  8
MAIN0
  6
CONTINUOUS
 62
3
100
AcDbLine
 10
330.3084736967022
 20
271.5282420879349
 30
0.0000000000000000
 11
335.2451976396761
 21
261.2282420879177
 31
0.0000000000000000
  0
LINE
  5
336
100
AcDbEntity
  8
MAIN0
  6
CONTINUOUS
 62
3
100
AcDbLine
 10
335.2451976396932
 20
271.5282420879177
 30
0.0000000000000000
 11
330.3084736967022
 21
261.2282420879349
 31
0.0000000000000000
  0
LINE
  5
337
100
AcDbEntity
  8
MAIN0
  6
CONTINUOUS
 62
3
100
AcDbLine
 10
118.5084736967988
 20
180.0282420880424
 30
0.0000000000000000
 11
118.5084736967988
 21
287.0282420880424
 31
0.0000000000000000
  0
SPLINE
  5
338
100
AcDbEntity
  8
MAIN0
  6
CONTINUOUS
 62
3
100
AcDbSpline
210
0.0000000000000000
220
0.0000000000000000
230
1.000000000000000
 70
     8
 71
     3
 72
    18
 73
    14
 74
     0
 42
1.000000000000000e-007
 43
1.000000000000000e-007
 12
-0.1984171610076189
 22
-1.040025066816938
 32
0.0000000000000000
 13
-0.07859212766830126
 23
-0.9979467706475660
 33
0.0000000000000000
 40
0.0000000000000000
 40
0.0000000000000000
 40
0.0000000000000000
 40
0.0000000000000000
 40
7.905694150420948
 40
19.06982393227660
 40
23.96558623139282
 40
36.96593126235172
 40
42.06842047010782
 40
50.07217532857484
 40
74.07277950366640
 40
82.16340283212871
 40
87.34698003130031
 40
103.7393539374266
 40
117.8126955570209
 40
117.8126955570209
 40
117.8126955570209
 40
117.8126955570209
 10
90.50847369679875
 20
288.5282420880424
 30
0.0000000000000000
 10
89.98559856709170
 20
285.7875353923671
 30
0.0000000000000000
 10
88.72433845857245
 20
279.1765037559161
 30
0.0000000000000000
 10
80.32877537394595
 20
276.1486011071750
 30
0.0000000000000000
 10
73.13972841873073
 20
269.3751283479402
 30
0.0000000000000000
 10
73.69736261800095
 20
259.9630856010665
 30
0.0000000000000000
 10
79.12417388010105
 20
252.9068048250811
 30
0.0000000000000000
 10
77.26225688766485
 20
239.8374058885782
 30
0.0000000000000000
 10
79.02985850743042
 20
226.8490874318649
 30
0.0000000000000000
 10
77.25098020464615
 20
214.4275669901267
 30
0.0000000000000000
 10
74.41247943203523
 20
204.9590860835588
 30
0.0000000000000000
 10
71.67528011859552
 20
193.3441115033270
 30
0.0000000000000000
 10
70.87715831722767
 20
183.2097240285404
 30
0.0000000000000000
 10
70.50847369679875
 20
178.5282420880424
 30
0.0000000000000000
  0
DIMENSION
  5
341
100
AcDbEntity
  8
MAIN0
  6
CONTINUOUS
 62
3
100
AcDbDimension
  2
*D31
 10
118.5084736967988
 20
168.5282420880424
 30
0.0000000000000000
 11
114.0084736967988
 21
169.0282420880424
 31
0.0000000000000000
 70
32
  3
MAIN001
100
AcDbAlignedDimension
 13
109.5084736967988
 23
180.0282420880424
 33
0.0000000000000000
 14
118.5084736967988
 24
180.0282420880424
 34
0.0000000000000000
100
AcDbRotatedDimension
1001
ACAD
1000
DSTYLE
1002
{
1070
   173
1070
     1
1070
     6
1000
_OPEN
1070
     7
1000
_OPEN
1070
    41
1040
2.000000
1002
}
  0
DIMENSION
  5
34A
100
AcDbEntity
  8
MAIN0
  6
CONTINUOUS
 62
3
100
AcDbDimension
  2
*D32
 10
118.5084736967988
 20
161.0282420880424
 30
0.0000000000000000
 11
101.7584736967988
 21
161.5282420880424
 31
0.0000000000000000
 70
32
  3
MAIN001
100
AcDbAlignedDimension
 13
85.00847369679875
 23
176.0282420880424
 33
0.0000000000000000
 14
118.5084736967988
 24
180.0282420880424
 34
0.0000000000000000
100
AcDbRotatedDimension
1001
ACAD
1000
DSTYLE
1002
{
1070
   173
1070
     1
1070
     6
1000
_OPEN
1070
     7
1000
_OPEN
1070
    41
1040
2.000000
1002
}
  0
DIMENSION
  5
353
100
AcDbEntity
  8
MAIN0
  6
CONTINUOUS
 62
3
100
AcDbDimension
  2
*D33
 10
85.00847369679875
 20
161.0282420880424
 30
0.0000000000000000
 11
72.75847369679875
 21
161.5282420880424
 31
0.0000000000000000
 70
32
  3
MAIN001
100
AcDbAlignedDimension
 13
60.50847369679875
 23
179.5282420880424
 33
0.0000000000000000
 14
85.00847369679875
 24
176.0282420880424
 34
0.0000000000000000
100
AcDbRotatedDimension
1001
ACAD
1000
DSTYLE
1002
{
1070
   173
1070
     1
1070
     6
1000
_OPEN
1070
     7
1000
_OPEN
1070
    41
1040
2.000000
1002
}
  0
DIMENSION
  5
35C
100
AcDbEntity
  8
MAIN0
  6
CONTINUOUS
 62
3
100
AcDbDimension
  2
*D34
 10
60.50847369679875
 20
153.5282420880424
 30
0.0000000000000000
 11
89.50847369679875
 21
154.0282420880424
 31
0.0000000000000000
 70
32
  3
MAIN001
100
AcDbAlignedDimension
 13
118.5084736967988
 23
180.0282420880424
 33
0.0000000000000000
 14
60.50847369679875
 24
179.5282420880424
 34
0.0000000000000000
100
AcDbRotatedDimension
1001
ACAD
1000
DSTYLE
1002
{
1070
   173
1070
     1
1070
     6
1000
_OPEN
1070
     7
1000
_OPEN
1070
    41
1040
2.000000
1002
}
  0
DIMENSION
  5
365
100
AcDbEntity
  8
MAIN0
  6
CONTINUOUS
 62
3
100
AcDbDimension
  2
*D35
 10
118.5084736968061
 20
296.0282420880424
 30
0.0000000000000000
 11
127.5084736967938
 21
296.5282420880424
 31
0.0000000000000000
 70
32
  3
MAIN001
100
AcDbAlignedDimension
 13
136.5084736967815
 23
259.2282420880424
 33
0.0000000000000000
 14
118.5084736967988
 24
287.0282420880424
 34
0.0000000000000000
100
AcDbRotatedDimension
1001
ACAD
1000
DSTYLE
1002
{
1070
   173
1070
     1
1070
     6
1000
_OPEN
1070
     7
1000
_OPEN
1070
    41
1040
2.000000
1002
}
  0
DIMENSION
  5
36E
100
AcDbEntity
  8
MAIN0
  6
CONTINUOUS
 62
3
100
AcDbDimension
  2
*D36
 10
220.5084736967988
 20
293.5282420880424
 30
0.0000000000000000
 11
237.4611211508712
 21
296.7963837100037
 31
0.0000000000000000
 70
162
  3
MAIN001
100
AcDb2LineAngularDimension
 13
248.2584736966297
 23
281.5926519983146
 33
0.0000000000000000
 14
247.7584736966314
 24
280.7266265945293
 34
0.0000000000000000
 15
220.5084736967988
 25
292.5282420880424
 35
0.0000000000000000
 16
237.3317116283204
 26
296.3134207968591
 36
0.0000000000000000
1001
ACAD
1000
DSTYLE
1002
{
1070
   173
1070
     1
1070
     6
1000
_OPEN
1070
     7
1000
_OPEN
1070
    41
1040
2.000000
1002
}
  0
DIMENSION
  5
375
100
AcDbEntity
  8
MAIN0
  6
CONTINUOUS
 62
3
100
AcDbDimension
  2
*D37
 10
315.5084736967988
 20
322.5282420880332
 30
0.0000000000000000
 11
315.0084736967988
 21
318.5282420880333
 31
0.0000000000000000
 70
32
  1
\A1;\U+22058
  3
MAIN001
100
AcDbAlignedDimension
 13
273.5084736967727
 23
314.5282420880333
 33
0.0000000000000000
 14
273.5084736967960
 24
322.5282420880332
 34
0.0000000000000000
 50
90.00000000000000
100
AcDbRotatedDimension
1001
ACAD
1000
DSTYLE
1002
{
1070
   173
1070
     1
1070
     6
1000
_OPEN
1070
     7
1000
_OPEN
1070
    41
1040
2.000000
1002
}
  0
DIMENSION
  5
37D
100
AcDbEntity
  8
MAIN0
  6
CONTINUOUS
 62
3
100
AcDbDimension
  2
*D38
 10
358.1191725584668
 20
330.5282420879184
 30
0.0000000000000000
 11
357.6191725584668
 21
326.0282420879889
 31
0.0000000000000000
 70
160
  3
MAIN001
100
AcDbAlignedDimension
 13
316.5084736967988
 23
318.5282420880396
 33
0.0000000000000000
 14
343.0084736968186
 24
330.5282420879332
 34
0.0000000000000000
 50
90.00000000000000
100
AcDbRotatedDimension
1001
ACAD
1000
DSTYLE
1002
{
1070
   173
1070
     1
1070
     6
1000
_OPEN
1070
     7
1000
_OPEN
1070
    41
1040
2.000000
1002
}
  0
LINE
  5
37E
100
AcDbEntity
  8
MAIN0
  6
PHANTOM
 62
3
100
AcDbLine
 10
344.0084736967582
 20
312.5282420880436
 30
0.0000000000000000
 11
344.0084736967582
 21
324.5282420880436
 31
0.0000000000000000
  0
LINE
  5
37F
100
AcDbEntity
  8
MAIN0
  6
PHANTOM
 62
3
100
AcDbLine
 10
344.0084736967581
 20
312.5282420880436
 30
0.0000000000000000
 11
345.0084736967581
 21
311.5282420880436
 31
0.0000000000000000
  0
LINE
  5
380
100
AcDbEntity
  8
MAIN0
  6
PHANTOM
 62
3
100
AcDbLine
 10
345.0084736967582
 20
311.5282420880436
 30
0.0000000000000000
 11
351.0084736967582
 21
311.5282420880436
 31
0.0000000000000000
  0
LINE
  5
381
100
AcDbEntity
  8
MAIN0
  6
PHANTOM
 62
3
100
AcDbLine
 10
351.0084736967582
 20
311.5282420880436
 30
0.0000000000000000
 11
352.0084736967582
 21
312.5282420880436
 31
0.0000000000000000
  0
LINE
  5
382
100
AcDbEntity
  8
MAIN0
  6
PHANTOM
 62
3
100
AcDbLine
 10
352.0084736967582
 20
312.5282420880436
 30
0.0000000000000000
 11
352.0084736967582
 21
324.5282420880436
 31
0.0000000000000000
  0
LINE
  5
383
100
AcDbEntity
  8
MAIN0
  6
HIDDEN
 62
3
100
AcDbLine
 10
344.0084736967582
 20
315.5282420880436
 30
0.0000000000000000
 11
352.0084736967582
 21
315.5282420880436
 31
0.0000000000000000
  0
LINE
  5
384
100
AcDbEntity
  8
MAIN0
  6
HIDDEN
 62
3
100
AcDbLine
 10
344.0084736967582
 20
321.5282420880436
 30
0.0000000000000000
 11
352.0084736967582
 21
321.5282420880436
 31
0.0000000000000000
  0
LINE
  5
385
100
AcDbEntity
  8
MAIN0
  6
PHANTOM
 62
3
100
AcDbLine
 10
345.0084736967582
 20
325.5282420880436
 30
0.0000000000000000
 11
351.0084736967582
 21
325.5282420880436
 31
0.0000000000000000
  0
LINE
  5
386
100
AcDbEntity
  8
MAIN0
  6
PHANTOM
 62
3
100
AcDbLine
 10
351.0084736967581
 20
325.5282420880436
 30
0.0000000000000000
 11
352.0084736967582
 21
324.5282420880436
 31
0.0000000000000000
  0
LINE
  5
387
100
AcDbEntity
  8
MAIN0
  6
PHANTOM
 62
3
100
AcDbLine
 10
344.0084736967582
 20
324.5282420880435
 30
0.0000000000000000
 11
345.0084736967582
 21
325.5282420880435
 31
0.0000000000000000
  0
LINE
  5
388
100
AcDbEntity
  8
MAIN0
  6
HIDDEN
 62
3
100
AcDbLine
 10
220.0084736967548
 20
321.5282420881774
 30
0.0000000000000000
 11
212.0084736967548
 21
321.5282420882040
 31
0.0000000000000000
  0
LINE
  5
389
100
AcDbEntity
  8
MAIN0
  6
PHANTOM
 62
3
100
AcDbLine
 10
220.0084736967648
 20
324.5282420881773
 30
0.0000000000000000
 11
219.0084736967681
 21
325.5282420881807
 31
0.0000000000000000
  0
LINE
  5
38A
100
AcDbEntity
  8
MAIN0
  6
PHANTOM
 62
3
100
AcDbLine
 10
219.0084736967681
 20
325.5282420881808
 30
0.0000000000000000
 11
213.0084736967681
 21
325.5282420882007
 31
0.0000000000000000
  0
LINE
  5
38B
100
AcDbEntity
  8
MAIN0
  6
PHANTOM
 62
3
100
AcDbLine
 10
213.0084736967681
 20
325.5282420882007
 30
0.0000000000000000
 11
212.0084736967648
 21
324.5282420882040
 31
0.0000000000000000
  0
LINE
  5
38C
100
AcDbEntity
  8
MAIN0
  6
PHANTOM
 62
3
100
AcDbLine
 10
212.0084736967249
 20
312.5282420882040
 30
0.0000000000000000
 11
212.0084736967648
 21
324.5282420882040
 31
0.0000000000000000
  0
LINE
  5
38D
100
AcDbEntity
  8
MAIN0
  6
HIDDEN
 62
3
100
AcDbLine
 10
220.0084736967348
 20
315.5282420881774
 30
0.0000000000000000
 11
212.0084736967348
 21
315.5282420882040
 31
0.0000000000000000
  0
LINE
  5
38E
100
AcDbEntity
  8
MAIN0
  6
PHANTOM
 62
3
100
AcDbLine
 10
219.0084736967215
 20
311.5282420881808
 30
0.0000000000000000
 11
213.0084736967215
 21
311.5282420882007
 31
0.0000000000000000
  0
LINE
  5
38F
100
AcDbEntity
  8
MAIN0
  6
PHANTOM
 62
3
100
AcDbLine
 10
213.0084736967215
 20
311.5282420882007
 30
0.0000000000000000
 11
212.0084736967248
 21
312.5282420882040
 31
0.0000000000000000
  0
LINE
  5
390
100
AcDbEntity
  8
MAIN0
  6
PHANTOM
 62
3
100
AcDbLine
 10
220.0084736967249
 20
312.5282420881774
 30
0.0000000000000000
 11
219.0084736967215
 21
311.5282420881807
 31
0.0000000000000000
  0
LINE
  5
391
100
AcDbEntity
  8
MAIN0
  6
PHANTOM
 62
3
100
AcDbLine
 10
220.0084736967249
 20
312.5282420881774
 30
0.0000000000000000
 11
220.0084736967648
 21
324.5282420881774
 31
0.0000000000000000
  0
DIMENSION
  5
399
100
AcDbEntity
  8
MAIN0
  6
CONTINUOUS
 62
3
100
AcDbDimension
  2
*D39
 10
335.5084736966948
 20
306.0282420880424
 30
0.0000000000000000
 11
290.5084736967988
 21
306.5282420880424
 31
0.0000000000000000
 70
160
  1
\A1;MAX 123.5
  3
MAIN001
100
AcDbAlignedDimension
 13
212.0084736967249
 23
312.5282420882040
 33
0.0000000000000000
 14
335.5084736966948
 24
256.0282420880465
 34
0.0000000000000000
100
AcDbRotatedDimension
1001
ACAD
1000
DSTYLE
1002
{
1070
   173
1070
     1
1070
     6
1000
_OPEN
1070
     7
1000
_OPEN
1070
    41
1040
2.000000
1002
}
  0
LINE
  5
39A
100
AcDbEntity
  8
MAIN0
  6
PHANTOM
 62
3
100
AcDbLine
 10
220.0084736967582
 20
322.5282420880242
 30
0.0000000000000000
 11
250.4084737921496
 21
322.5282420880287
 31
0.0000000000000000
  0
LINE
  5
39B
100
AcDbEntity
  8
MAIN0
  6
PHANTOM
 62
3
100
AcDbLine
 10
256.5084736967821
 20
322.5282420880296
 30
0.0000000000000000
 11
273.5084736967959
 21
322.5282420880321
 31
0.0000000000000000
  0
LINE
  5
39C
100
AcDbEntity
  8
MAIN0
  6
CENTER
 62
3
100
AcDbLine
 10
208.0084736967988
 20
318.5282420880236
 30
0.0000000000000000
 11
250.4084737921495
 21
318.5282420880298
 31
0.0000000000000000
  0
LINE
  5
39D
100
AcDbEntity
  8
MAIN0
  6
CENTER
 62
3
100
AcDbLine
 10
256.5084736967821
 20
318.5282420880307
 30
0.0000000000000000
 11
310.4084737921663
 21
318.5282420880386
 31
0.0000000000000000
  0
LINE
  5
39E
100
AcDbEntity
  8
MAIN0
  6
PHANTOM
 62
3
100
AcDbLine
 10
220.0084736967350
 20
314.5282420880242
 30
0.0000000000000000
 11
250.4084737921495
 21
314.5282420880287
 31
0.0000000000000000
  0
LINE
  5
39F
100
AcDbEntity
  8
MAIN0
  6
PHANTOM
 62
3
100
AcDbLine
 10
256.5084736967821
 20
314.5282420880296
 30
0.0000000000000000
 11
273.5084736967692
 21
314.5282420880321
 31
0.0000000000000000
  0
LINE
  5
3A0
100
AcDbEntity
  8
MAIN0
  6
HIDDEN
 62
3
100
AcDbLine
 10
118.5084736967988
 20
245.5282420880424
 30
0.0000000000000000
 11
78.25361005565765
 21
245.5282420880424
 31
0.0000000000000000
  0
LINE
  5
3A1
100
AcDbEntity
  8
MAIN0
  6
HIDDEN
 62
3
100
AcDbLine
 10
118.5084736967988
 20
221.5282420880424
 30
0.0000000000000000
 11
78.08331392883221
 21
221.5282420880424
 31
0.0000000000000000
  0
LINE
  5
3A2
100
AcDbEntity
  8
MAIN1
  6
PHANTOM
 62
3
100
AcDbLine
 10
72.50847469679876
 20
247.2782420880424
 30
0.0000000000000000
 11
78.39981926498128
 21
247.2782420880424
 31
0.0000000000000000
  0
LINE
  5
3A3
100
AcDbEntity
  8
MAIN1
  6
PHANTOM
 62
7
100
AcDbLine
 10
72.50847469679876
 20
247.7282420880424
 30
0.0000000000000000
 11
78.43569064668253
 21
247.7282420880424
 31
0.0000000000000000
  0
LINE
  5
3A4
100
AcDbEntity
  8
MAIN1
  6
PHANTOM
 62
7
100
AcDbLine
 10
78.47409975881506
 20
251.3282420880424
 30
0.0000000000000000
 11
72.50847469679876
 21
251.3282420880424
 31
0.0000000000000000
  0
LINE
  5
3A5
100
AcDbEntity
  8
MAIN1
  6
PHANTOM
 62
3
100
AcDbLine
 10
78.42230133928706
 20
251.7782420880424
 30
0.0000000000000000
 11
72.50847469679876
 21
251.7782420880424
 31
0.0000000000000000
  0
LINE
  5
3A6
100
AcDbEntity
  8
MAIN1
  6
HIDDEN
 62
3
100
AcDbLine
 10
70.50847369679876
 20
247.1282460880423
 30
0.0000000000000000
 11
74.50847469679876
 21
247.1282460880423
 31
0.0000000000000000
  0
LINE
  5
3A7
100
AcDbEntity
  8
MAIN1
  6
PHANTOM
 62
3
100
AcDbLine
 10
70.50847369679876
 20
247.2782420880424
 30
0.0000000000000000
 11
72.50847469679876
 21
247.2782420880424
 31
0.0000000000000000
  0
LINE
  5
3A8
100
AcDbEntity
  8
MAIN1
  6
PHANTOM
 62
7
100
AcDbLine
 10
71.72905169679875
 20
247.2782420880424
 30
0.0000000000000000
 11
72.50847469679874
 21
247.7282420880423
 31
0.0000000000000000
  0
LINE
  5
3A9
100
AcDbEntity
  8
MAIN1
  6
PHANTOM
 62
3
100
AcDbLine
 10
72.50847469679876
 20
251.7782420880424
 30
0.0000000000000000
 11
72.50847469679876
 21
247.2782420880424
 31
0.0000000000000000
  0
LINE
  5
3AA
100
AcDbEntity
  8
MAIN1
  6
PHANTOM
 62
7
100
AcDbLine
 10
72.50847469679874
 20
251.3282420880423
 30
0.0000000000000000
 11
71.72905169679873
 21
251.7782420880423
 31
0.0000000000000000
  0
LINE
  5
3AB
100
AcDbEntity
  8
MAIN1
  6
PHANTOM
 62
3
100
AcDbLine
 10
72.50847469679876
 20
251.7782420880424
 30
0.0000000000000000
 11
70.50847369679876
 21
251.7782420880424
 31
0.0000000000000000
  0
LINE
  5
3AC
100
AcDbEntity
  8
MAIN1
  6
HIDDEN
 62
3
100
AcDbLine
 10
70.50847369679876
 20
251.9282460880423
 30
0.0000000000000000
 11
74.50847469679876
 21
251.9282460880423
 31
0.0000000000000000
  0
LINE
  5
3AD
100
AcDbEntity
  8
MAIN1
  6
HIDDEN
 62
3
100
AcDbLine
 10
70.50847369679876
 20
251.9282460880423
 30
0.0000000000000000
 11
70.50847369679876
 21
247.1282460880423
 31
0.0000000000000000
  0
LINE
  5
3AE
100
AcDbEntity
  8
MAIN1
  6
PHANTOM
 62
3
100
AcDbLine
 10
70.50847369679876
 20
246.5282420880424
 30
0.0000000000000000
 11
66.50847369679876
 21
246.5282420880424
 31
0.0000000000000000
  0
LINE
  5
3AF
100
AcDbEntity
  8
MAIN1
  6
HIDDEN
 62
3
100
AcDbLine
 10
66.00847369679876
 20
246.3282460880424
 30
0.0000000000000000
 11
70.50847369679876
 21
246.3282460880424
 31
0.0000000000000000
  0
LINE
  5
3B0
100
AcDbEntity
  8
MAIN1
  6
HIDDEN
 62
3
100
AcDbLine
 10
70.50847369679876
 20
247.1282460880423
 30
0.0000000000000000
 11
70.50847369679876
 21
246.3282460880424
 31
0.0000000000000000
  0
LINE
  5
3B1
100
AcDbEntity
  8
MAIN1
  6
PHANTOM
 62
3
100
AcDbLine
 10
66.50847369679876
 20
246.5282420880424
 30
0.0000000000000000
 11
66.50847369679876
 21
249.0282420880424
 31
0.0000000000000000
  0
LINE
  5
3B2
100
AcDbEntity
  8
MAIN1
  6
PHANTOM
 62
3
100
AcDbLine
 10
68.10846969679879
 20
249.0282420880424
 30
0.0000000000000000
 11
66.50846969679877
 21
249.0282420880424
 31
0.0000000000000000
  0
LINE
  5
3B3
100
AcDbEntity
  8
MAIN1
  6
PHANTOM
 62
3
100
AcDbLine
 10
68.10846969679879
 20
249.0282420880424
 30
0.0000000000000000
 11
68.10846969679879
 21
250.0282420880424
 31
0.0000000000000000
  0
LINE
  5
3B4
100
AcDbEntity
  8
MAIN1
  6
PHANTOM
 62
3
100
AcDbLine
 10
68.10846969679879
 20
250.0282420880424
 30
0.0000000000000000
 11
66.50846969679877
 21
250.0282420880424
 31
0.0000000000000000
  0
LINE
  5
3B5
100
AcDbEntity
  8
MAIN1
  6
PHANTOM
 62
3
100
AcDbLine
 10
66.50847369679876
 20
250.0282420880424
 30
0.0000000000000000
 11
66.50847369679876
 21
252.5282420880424
 31
0.0000000000000000
  0
LINE
  5
3B6
100
AcDbEntity
  8
MAIN1
  6
PHANTOM
 62
3
100
AcDbLine
 10
70.50847369679876
 20
252.5282420880424
 30
0.0000000000000000
 11
66.50847369679876
 21
252.5282420880424
 31
0.0000000000000000
  0
LINE
  5
3B7
100
AcDbEntity
  8
MAIN1
  6
HIDDEN
 62
3
100
AcDbLine
 10
66.00847369679876
 20
252.7282460880423
 30
0.0000000000000000
 11
70.50847369679876
 21
252.7282460880423
 31
0.0000000000000000
  0
LINE
  5
3B8
100
AcDbEntity
  8
MAIN1
  6
HIDDEN
 62
3
100
AcDbLine
 10
70.50847369679876
 20
251.9282460880423
 30
0.0000000000000000
 11
70.50847369679876
 21
252.7282460880423
 31
0.0000000000000000
  0
CIRCLE
  5
3B9
100
AcDbEntity
  8
MAIN0
  6
HIDDEN
 62
3
100
AcDbCircle
 10
268.0084736967988
 20
233.5282420880424
 30
0.0000000000000000
 40
4.000000000000000
  0
CIRCLE
  5
3BA
100
AcDbEntity
  8
MAIN0
  6
HIDDEN
 62
3
100
AcDbCircle
 10
268.0084736967988
 20
233.5282420880424
 30
0.0000000000000000
 40
3.400000000000000
  0
CIRCLE
  5
3BB
100
AcDbEntity
  8
MAIN0
  6
HIDDEN
 62
3
100
AcDbCircle
 10
255.3770479485426
 20
265.7839784716786
 30
0.0000000000000000
 40
4.000000000000000
  0
CIRCLE
  5
3BC
100
AcDbEntity
  8
MAIN0
  6
HIDDEN
 62
3
100
AcDbCircle
 10
255.3770479485426
 20
265.7839784716786
 30
0.0000000000000000
 40
3.400000000000000
  0
LINE
  5
3BD
100
AcDbEntity
  8
MAIN0
  6
PHANTOM
 62
3
100
AcDbLine
 10
60.50847369679875
 20
285.4282420880423
 30
0.0000000000000000
 11
61.50847369679875
 21
284.4282420880423
 31
0.0000000000000000
  0
LINE
  5
3BE
100
AcDbEntity
  8
MAIN0
  6
PHANTOM
 62
3
100
AcDbLine
 10
61.50847369679875
 20
284.4282420880423
 30
0.0000000000000000
 11
61.50847369679875
 21
277.6282420880424
 31
0.0000000000000000
  0
LINE
  5
3BF
100
AcDbEntity
  8
MAIN0
  6
PHANTOM
 62
3
100
AcDbLine
 10
61.50847369679875
 20
277.6282420880424
 30
0.0000000000000000
 11
60.50847369679875
 21
276.6282420880424
 31
0.0000000000000000
  0
LINE
  5
3C0
100
AcDbEntity
  8
MAIN0
  6
PHANTOM
 62
3
100
AcDbLine
 10
60.90847369679875
 20
285.0282420880424
 30
0.0000000000000000
 11
76.50847369679875
 21
285.0282420880424
 31
0.0000000000000000
  0
LINE
  5
3C1
100
AcDbEntity
  8
MAIN0
  6
PHANTOM
 62
3
100
AcDbLine
 10
76.50847369679875
 20
285.0282420880424
 30
0.0000000000000000
 11
76.50847369679875
 21
277.0282420880424
 31
0.0000000000000000
  0
LINE
  5
3C2
100
AcDbEntity
  8
MAIN0
  6
PHANTOM
 62
3
100
AcDbLine
 10
76.50847369679875
 20
277.0282420880424
 30
0.0000000000000000
 11
60.90847369679875
 21
277.0282420880424
 31
0.0000000000000000
  0
LINE
  5
3C3
100
AcDbEntity
  8
MAIN0
  6
PHANTOM
 62
3
100
AcDbLine
 10
61.50847369679875
 20
284.4282420880423
 30
0.0000000000000000
 11
80.50847369679875
 21
284.4282420880423
 31
0.0000000000000000
  0
LINE
  5
3C4
100
AcDbEntity
  8
MAIN0
  6
PHANTOM
 62
3
100
AcDbLine
 10
80.50847369679875
 20
284.4282420880423
 30
0.0000000000000000
 11
80.50847369679875
 21
277.6282420880424
 31
0.0000000000000000
  0
LINE
  5
3C5
100
AcDbEntity
  8
MAIN0
  6
PHANTOM
 62
3
100
AcDbLine
 10
80.50847369679875
 20
277.6282420880424
 30
0.0000000000000000
 11
61.50847369679875
 21
277.6282420880424
 31
0.0000000000000000
  0
LINE
  5
3C6
100
AcDbEntity
  8
MAIN0
  6
PHANTOM
 62
3
100
AcDbLine
 10
80.50847369679875
 20
284.4282420880423
 30
0.0000000000000000
 11
82.47146461204349
 21
281.0282420880424
 31
0.0000000000000000
  0
LINE
  5
3C7
100
AcDbEntity
  8
MAIN0
  6
PHANTOM
 62
3
100
AcDbLine
 10
82.47146461204349
 20
281.0282420880424
 30
0.0000000000000000
 11
80.50847369679875
 21
277.6282420880424
 31
0.0000000000000000
  0
LINE
  5
3C8
100
AcDbEntity
  8
MAIN0
  6
HIDDEN
 62
3
100
AcDbLine
 10
118.5084736967988
 20
179.6282420880424
 30
0.0000000000000000
 11
118.1084736967988
 21
180.0282420880424
 31
0.0000000000000000
  0
LINE
  5
3C9
100
AcDbEntity
  8
MAIN0
  6
HIDDEN
 62
3
100
AcDbLine
 10
118.1084736967988
 20
180.0282420880424
 30
0.0000000000000000
 11
109.5084736967988
 21
180.0282420880424
 31
0.0000000000000000
  0
LINE
  5
3CA
100
AcDbEntity
  8
MAIN0
  6
HIDDEN
 62
3
100
AcDbLine
 10
109.5084736967988
 20
180.0282420880424
 30
0.0000000000000000
 11
109.5084736967988
 21
194.0282420880424
 31
0.0000000000000000
  0
LINE
  5
3CB
100
AcDbEntity
  8
MAIN0
  6
HIDDEN
 62
3
100
AcDbLine
 10
109.5084736967988
 20
194.0282420880424
 30
0.0000000000000000
 11
118.1084736967988
 21
194.0282420880424
 31
0.0000000000000000
  0
LINE
  5
3CC
100
AcDbEntity
  8
MAIN0
  6
HIDDEN
 62
3
100
AcDbLine
 10
118.1084736967988
 20
194.0282420880424
 30
0.0000000000000000
 11
118.5084736967988
 21
194.4282420880424
 31
0.0000000000000000
  0
LINE
  5
3CD
100
AcDbEntity
  8
MAIN0
  6
HIDDEN
 62
3
100
AcDbLine
 10
109.5084736967988
 20
182.5282420880424
 30
0.0000000000000000
 11
60.90847369679875
 21
182.5282420880424
 31
0.0000000000000000
  0
LINE
  5
3CE
100
AcDbEntity
  8
MAIN0
  6
HIDDEN
 62
3
100
AcDbLine
 10
60.90847369679875
 20
182.5282420880424
 30
0.0000000000000000
 11
60.50847369679875
 21
182.1282420880424
 31
0.0000000000000000
  0
LINE
  5
3CF
100
AcDbEntity
  8
MAIN0
  6
HIDDEN
 62
3
100
AcDbLine
 10
109.5084736967988
 20
191.5282420880424
 30
0.0000000000000000
 11
60.90847369679875
 21
191.5282420880424
 31
0.0000000000000000
  0
LINE
  5
3D0
100
AcDbEntity
  8
MAIN0
  6
HIDDEN
 62
3
100
AcDbLine
 10
60.90847369679875
 20
191.5282420880424
 30
0.0000000000000000
 11
60.50847369679875
 21
191.9282420880423
 31
0.0000000000000000
  0
CIRCLE
  5
3D1
100
AcDbEntity
  8
MAIN0
  6
CONTINUOUS
 62
3
100
AcDbCircle
 10
243.7584736966453
 20
273.7984233642457
 30
0.0000000000000000
 40
7.000000000000000
  0
CIRCLE
  5
3D2
100
AcDbEntity
  8
MAIN0
  6
CONTINUOUS
 62
3
100
AcDbCircle
 10
243.7584736966453
 20
273.7984233642457
 30
0.0000000000000000
 40
4.500000000000000
  0
CIRCLE
  5
3D3
100
AcDbEntity
  8
MAIN0
  6
CONTINUOUS
 62
3
100
AcDbCircle
 10
243.7584736965841
 20
193.2580608120804
 30
0.0000000000000000
 40
7.000000000000000
  0
CIRCLE
  5
3D4
100
AcDbEntity
  8
MAIN0
  6
CONTINUOUS
 62
3
100
AcDbCircle
 10
243.7584736965841
 20
193.2580608120804
 30
0.0000000000000000
 40
4.500000000000000
  0
CIRCLE
  5
3D5
100
AcDbEntity
  8
MAIN0
  6
CONTINUOUS
 62
3
100
AcDbCircle
 10
174.0084736967988
 20
233.5282420880424
 30
0.0000000000000000
 40
7.000000000000000
  0
CIRCLE
  5
3D6
100
AcDbEntity
  8
MAIN0
  6
CONTINUOUS
 62
3
100
AcDbCircle
 10
174.0084736967988
 20
233.5282420880424
 30
0.0000000000000000
 40
4.500000000000000
  0
MTEXT
  5
3D7
100
AcDbEntity
  8
A0
  6
CONTINUOUS
 62
3
100
AcDbMText
 10
485.0000000000000
 20
157.1499998569484
 30
0.0000000000000000
 40
4.649999856948853
 41
0.0000000000000000
 71
     1
 72
     1
  1
{\H0.94x;{本スクロールチャックは円テーブル上で工作物を}}
 11
1.000000000000000
 21
0.0000000000000000
 31
0.0000000000000000
  7
KNJYOKO
  0
MTEXT
  5
3D8
100
AcDbEntity
  8
A0
  6
CONTINUOUS
 62
3
100
AcDbMText
 10
485.0000000000000
 20
149.6499998569484
 30
0.0000000000000000
 40
4.649999856948853
 41
0.0000000000000000
 71
     1
 72
     1
  1
{\H0.94x;{把握することに適しています。それ以外の用途の}}
 11
1.000000000000000
 21
0.0000000000000000
 31
0.0000000000000000
  7
KNJYOKO
  0
MTEXT
  5
3D9
100
AcDbEntity
  8
A0
  6
CONTINUOUS
 62
3
100
AcDbMText
 10
485.0000000000000
 20
142.1499998569485
 30
0.0000000000000000
 40
4.649999856948853
 41
0.0000000000000000
 71
     1
 72
     1
  1
{\H0.94x;{場合、事前に弊社にご相談下さい。}}
 11
1.000000000000000
 21
0.0000000000000000
 31
0.0000000000000000
  7
KNJYOKO
  0
MTEXT
  5
3DA
100
AcDbEntity
  8
A0
  6
CONTINUOUS
 62
3
100
AcDbMText
 10
293.9505228044647
 20
61.37410977111851
 30
0.0000000000000000
 40
4.199998855590820
 41
0.0000000000000000
 71
     7
 72
     1
  1
{　　Kg・m}
 11
1.000000000000000
 21
0.0000000000000000
 31
0.0000000000000000
  7
KNJYOKO
  0
MTEXT
  5
3DB
100
AcDbEntity
  8
A0
  6
CONTINUOUS
 62
3
100
AcDbMText
 10
311.7505225183624
 20
63.47410919891392
 30
0.0000000000000000
 40
2.099999427795410
 41
0.0000000000000000
 71
     7
 72
     1
  1
{2}
 11
1.000000000000000
 21
0.0000000000000000
 31
0.0000000000000000
  7
STANDARD
  0
MTEXT
  5
3DC
100
AcDbEntity
  8
A0
  6
CONTINUOUS
 62
3
100
AcDbMText
 10
195.0254028482677
 20
34.24419367201283
 30
0.0000000000000000
 40
4.650000572204590
 41
0.0000000000000000
 71
     1
 72
     1
  1
{\H0.95x;{○上記仕様は許容最大ハンドルトルク締込時の場合}}
 11
1.000000000000000
 21
0.0000000000000000
 31
0.0000000000000000
  7
KNJYOKO
  0
MTEXT
  5
3DD
100
AcDbEntity
  8
A0
  6
CONTINUOUS
 62
3
100
AcDbMText
 10
277.5000000000001
 20
105.6499998568964
 30
0.0000000000000000
 40
4.649999856948853
 41
0.0000000000000000
 71
     1
 72
     1
  1
{\H0.76x;{4.5}}
 11
1.000000000000000
 21
0.0000000000000000
 31
0.0000000000000000
  7
STANDARD
  0
MTEXT
  5
3DE
100
AcDbEntity
  8
A0
  6
CONTINUOUS
 62
3
100
AcDbMText
 10
277.5000000000001
 20
90.64999985689620
 30
0.0000000000000000
 40
4.649999856948853
 41
0.0000000000000000
 71
     1
 72
     1
  1
{\H0.91x;{1224}}
 11
1.000000000000000
 21
0.0000000000000000
 31
0.0000000000000000
  7
STANDARD
  0
MTEXT
  5
3DF
100
AcDbEntity
  8
A0
  6
CONTINUOUS
 62
3
100
AcDbMText
 10
273.0000000000001
 20
112.3999998568964
 30
0.0000000000000000
 40
4.649999856948853
 41
0.0000000000000000
 71
     1
 72
     1
  1
{\H0.81x;{44.1}}
 11
1.000000000000000
 21
0.0000000000000000
 31
0.0000000000000000
  7
STANDARD
  0
MTEXT
  5
3E0
100
AcDbEntity
  8
A0
  6
CONTINUOUS
 62
3
100
AcDbMText
 10
273.0000000000001
 20
97.39999985689620
 30
0.0000000000000000
 40
4.649999856948853
 41
0.0000000000000000
 71
     1
 72
     1
  1
{\H0.88x;{12}}
 11
1.000000000000000
 21
0.0000000000000000
 31
0.0000000000000000
  7
STANDARD
  0
MTEXT
  5
3E1
100
AcDbEntity
  8
A0
  6
CONTINUOUS
 62
3
100
AcDbMText
 10
273.0000000000001
 20
80.64999985689614
 30
0.0000000000000000
 40
4.649999856948853
 41
0.0000000000000000
 71
     1
 72
     1
  1
{\H0.76x;{3.1}}
 11
1.000000000000000
 21
0.0000000000000000
 31
0.0000000000000000
  7
STANDARD
  0
MTEXT
  5
3E2
100
AcDbEntity
  8
A0
  6
CONTINUOUS
 62
3
100
AcDbMText
 10
272.9999999999567
 20
55.14999985689131
 30
0.0000000000000000
 40
4.649999856948853
 41
0.0000000000000000
 71
     1
 72
     1
  1
{\H0.93x;{\U+22053～\U+220595}}
 11
1.000000000000000
 21
0.0000000000000000
 31
0.0000000000000000
  7
KNJYOKO
  0
MTEXT
  5
3E3
100
AcDbEntity
  8
A0
  6
CONTINUOUS
 62
3
100
AcDbMText
 10
272.9999999999567
 20
44.64999985689126
 30
0.0000000000000000
 40
4.649999856948853
 41
0.0000000000000000
 71
     1
 72
     1
  1
{\H0.93x;{\U+220529～\U+220584}}
 11
1.000000000000000
 21
0.0000000000000000
 31
0.0000000000000000
  7
KNJYOKO
  0
MTEXT
  5
3E4
100
AcDbEntity
  8
A0
  6
CONTINUOUS
 62
3
100
AcDbMText
 10
196.0529753303742
 20
48.64708709102472
 30
0.0000000000000000
 40
3.750000000000000
 41
0.0000000000000000
 71
     1
 72
     1
  1
{\H0.54x;{GRIPPING RANGE}}
 11
1.000000000000000
 21
0.0000000000000000
 31
0.0000000000000000
  7
STANDARD
  0
MTEXT
  5
3E5
100
AcDbEntity
  8
A0
  6
CONTINUOUS
 62
3
100
AcDbMText
 10
207.6901271928827
 20
42.54863874258614
 30
0.0000000000000000
 40
4.500000000000000
 41
0.0000000000000000
 71
     1
 72
     1
  1
{\H0.63x;{(mm)}}
 11
1.000000000000000
 21
0.0000000000000000
 31
0.0000000000000000
  7
STANDARD
  0
MTEXT
  5
3E6
100
AcDbEntity
  8
A0
  6
CONTINUOUS
 62
3
100
AcDbMText
 10
199.8519669650477
 20
56.23331386339508
 30
0.0000000000000000
 40
4.650000572204590
 41
0.0000000000000000
 71
     1
 72
     1
  1
{\H0.96x;{把握径}}
 11
1.000000000000000
 21
0.0000000000000000
 31
0.0000000000000000
  7
KNJYOKO
  0
MTEXT
  5
3E7
100
AcDbEntity
  8
A0
  6
CONTINUOUS
 62
3
100
AcDbMText
 10
198.2448597436598
 20
69.80695818485965
 30
0.0000000000000000
 40
3.750000000000000
 41
0.0000000000000000
 71
     1
 72
     1
  1
{\H0.63x;{慣性モーメント\PMOMENT OF INERTIA\P}
 11
1.000000000000000
 21
0.0000000000000000
 31
0.0000000000000000
  7
KNJYOKO
  0
MTEXT
  5
3E8
100
AcDbEntity
  8
A0
  6
CONTINUOUS
 62
3
100
AcDbMText
 10
198.2448597436598
 20
83.27013348381688
 30
0.0000000000000000
 40
3.750000000000000
 41
0.0000000000000000
 71
     1
 72
     1
  1
{\H0.63x;{質量\PMASS}}
 11
1.000000000000000
 21
0.0000000000000000
 31
0.0000000000000000
  7
KNJYOKO
  0
MTEXT
  5
3E9
100
AcDbEntity
  8
A0
  6
CONTINUOUS
 62
3
100
AcDbMText
 10
198.7499999999996
 20
90.12499999998276
 30
0.0000000000000000
 40
3.750000000000000
 41
0.0000000000000000
 71
     1
 72
     1
  1
{\H0.63x;{MAX STATIC GRIPPING FORCE}}
 11
1.000000000000000
 21
0.0000000000000000
 31
0.0000000000000000
  7
STANDARD
  0
MTEXT
  5
3EA
100
AcDbEntity
  8
A0
  6
CONTINUOUS
 62
3
100
AcDbMText
 10
198.7500000000017
 20
97.77500057219730
 30
0.0000000000000000
 40
4.650000572204590
 41
0.0000000000000000
 71
     1
 72
     1
  1
{\H0.94x;{最大静的把握力}}
 11
1.000000000000000
 21
0.0000000000000000
 31
0.0000000000000000
  7
KNJYOKO
  0
MTEXT
  5
3EB
100
AcDbEntity
  8
A0
  6
CONTINUOUS
 62
3
100
AcDbMText
 10
198.7500000000018
 20
112.7750005722017
 30
0.0000000000000000
 40
4.650000572204590
 41
0.0000000000000000
 71
     1
 72
     1
  1
{\H0.94x;{許容最大ハンドルトルク}}
 11
1.000000000000000
 21
0.0000000000000000
 31
0.0000000000000000
  7
KNJYOKO
  0
MTEXT
  5
3EC
100
AcDbEntity
  8
A0
  6
CONTINUOUS
 62
3
100
AcDbMText
 10
198.7499999999996
 20
105.1249999999872
 30
0.0000000000000000
 40
3.750000000000000
 41
0.0000000000000000
 71
     1
 72
     1
  1
{\H0.62x;{MAX.PERMISSIBLE HANDLE TORQUE}}
 11
1.000000000000000
 21
0.0000000000000000
 31
0.0000000000000000
  7
STANDARD
  0
LINE
  5
3ED
100
AcDbEntity
  8
A0
  6
CONTINUOUS
 62
3
100
AcDbLine
 10
195.0000000000000
 20
99.49999999998714
 30
0.0000000000000000
 11
315.0000000000000
 21
99.50000000001442
 31
0.0000000000000000
  0
LINE
  5
3EE
100
AcDbEntity
  8
A0
  6
CONTINUOUS
 62
3
100
AcDbLine
 10
194.9999999999999
 20
84.49999999998279
 30
0.0000000000000000
 11
314.9999999999998
 21
84.50000000000705
 31
0.0000000000000000
  0
LINE
  5
3EF
100
AcDbEntity
  8
A0
  6
CONTINUOUS
 62
3
100
AcDbLine
 10
194.9999999999999
 20
72.99999999997679
 30
0.0000000000000000
 11
315.0000000000001
 21
72.99999999999692
 31
0.0000000000000000
  0
LINE
  5
3F0
100
AcDbEntity
  8
A0
  6
CONTINUOUS
 62
3
100
AcDbLine
 10
195.0000000000002
 20
57.99999999994250
 30
0.0000000000000000
 11
315.0000000000001
 21
57.99999999994255
 31
0.0000000000000000
  0
MTEXT
  5
3F1
100
AcDbEntity
  8
A0
  6
CONTINUOUS
 62
3
100
AcDbMText
 10
225.4636701160051
 20
57.47661012472632
 30
0.0000000000000000
 40
3.750000000000000
 41
0.0000000000000000
 71
     1
 72
     1
  1
{\H0.60x;{OUTER DIA.\PGRIPPING}}
 11
1.000000000000000
 21
0.0000000000000000
 31
0.0000000000000000
  7
STANDARD
  0
LINE
  5
3F2
100
AcDbEntity
  8
A0
  6
CONTINUOUS
 62
3
100
AcDbLine
 10
224.2500000000001
 20
36.99999999994252
 30
0.0000000000000000
 11
224.2500000000001
 21
57.99999999994246
 31
0.0000000000000000
  0
LINE
  5
3F3
100
AcDbEntity
  8
A0
  6
CONTINUOUS
 62
3
100
AcDbLine
 10
195.0000000000002
 20
36.99999999994240
 30
0.0000000000000000
 11
315.0000000000002
 21
36.99999999994249
 31
0.0000000000000000
  0
MTEXT
  5
3F4
100
AcDbEntity
  8
A0
  6
CONTINUOUS
 62
3
100
AcDbMText
 10
225.3860559732288
 20
46.84353150138848
 30
0.0000000000000000
 40
3.750000000000000
 41
0.0000000000000000
 71
     1
 72
     1
  1
{\H0.60x;{INNER DIA.\PGRIPPING}}
 11
1.000000000000000
 21
0.0000000000000000
 31
0.0000000000000000
  7
STANDARD
  0
LINE
  5
3F5
100
AcDbEntity
  8
A0
  6
CONTINUOUS
 62
3
100
AcDbLine
 10
224.2500000000002
 20
47.49999999994239
 30
0.0000000000000000
 11
315.0000000000000
 21
47.49999999994247
 31
0.0000000000000000
  0
MTEXT
  5
3F6
100
AcDbEntity
  8
A0
  6
CONTINUOUS
 62
3
100
AcDbMText
 10
248.8254003770880
 20
44.48375504283744
 30
0.0000000000000000
 40
4.649999856948853
 41
0.0000000000000000
 71
     1
 72
     1
  1
{\H0.92x;{内径把握}}
 11
1.000000000000000
 21
0.0000000000000000
 31
0.0000000000000000
  7
KNJYOKO
  0
MTEXT
  5
3F7
100
AcDbEntity
  8
A0
  6
CONTINUOUS
 62
3
100
AcDbMText
 10
248.8254003770880
 20
55.19444780895144
 30
0.0000000000000000
 40
4.649999856948853
 41
0.0000000000000000
 71
     1
 72
     1
  1
{\H0.92x;{外径把握}}
 11
1.000000000000000
 21
0.0000000000000000
 31
0.0000000000000000
  7
KNJYOKO
  0
LINE
  5
3F8
100
AcDbEntity
  8
A0
  6
CONTINUOUS
 62
3
100
AcDbLine
 10
270.0000000000001
 20
36.99999999994246
 30
0.0000000000000000
 11
270.0000000000001
 21
114.5000000000181
 31
0.0000000000000000
  0
LINE
  5
3F9
100
AcDbEntity
  8
A0
  6
CONTINUOUS
 62
3
100
AcDbLine
 10
315.0000000000001
 20
36.99999999994249
 30
0.0000000000000000
 11
315.0000000000001
 21
134.9999999999475
 31
0.0000000000000000
  0
MTEXT
  5
3FA
100
AcDbEntity
  8
A0
  6
CONTINUOUS
 62
3
100
AcDbMText
 10
292.5000000000001
 20
78.69999885553811
 30
0.0000000000000000
 40
4.199998855590820
 41
0.0000000000000000
 71
     1
 72
     1
  1
{\H0.58x;{　　　　ｋｇ}}
 11
1.000000000000000
 21
0.0000000000000000
 31
0.0000000000000000
  7
KNJYOKO
  0
MTEXT
  5
3FB
100
AcDbEntity
  8
A0
  6
CONTINUOUS
 62
3
100
AcDbMText
 10
273.0000000000001
 20
89.44999885553817
 30
0.0000000000000000
 40
4.199998855590820
 41
0.0000000000000000
 71
     1
 72
     1
  1
{\H0.48x;{（}}
 11
1.000000000000000
 21
0.0000000000000000
 31
0.0000000000000000
  7
KNJYOKO
  0
MTEXT
  5
3FC
100
AcDbEntity
  8
A0
  6
CONTINUOUS
 62
3
100
AcDbMText
 10
291.0000000000001
 20
89.44999885553817
 30
0.0000000000000000
 40
4.199998855590820
 41
0.0000000000000000
 71
     1
 72
     1
  1
{\H0.58x;{　　　ｋｇｆ）}}
 11
1.000000000000000
 21
0.0000000000000000
 31
0.0000000000000000
  7
KNJYOKO
  0
MTEXT
  5
3FD
100
AcDbEntity
  8
A0
  6
CONTINUOUS
 62
3
100
AcDbMText
 10
292.5000000000001
 20
95.44999885553817
 30
0.0000000000000000
 40
4.199998855590820
 41
0.0000000000000000
 71
     1
 72
     1
  1
{\H0.58x;{　　　　ｋＮ}}
 11
1.000000000000000
 21
0.0000000000000000
 31
0.0000000000000000
  7
KNJYOKO
  0
MTEXT
  5
3FE
100
AcDbEntity
  8
A0
  6
CONTINUOUS
 62
3
100
AcDbMText
 10
291.0000000000001
 20
104.4499988555383
 30
0.0000000000000000
 40
4.199998855590820
 41
0.0000000000000000
 71
     1
 72
     1
  1
{\H0.58x;{　ｋｇｆ・ｍ）}}
 11
1.000000000000000
 21
0.0000000000000000
 31
0.0000000000000000
  7
KNJYOKO
  0
MTEXT
  5
3FF
100
AcDbEntity
  8
A0
  6
CONTINUOUS
 62
3
100
AcDbMText
 10
292.5000000000001
 20
110.4499988555383
 30
0.0000000000000000
 40
4.199998855590820
 41
0.0000000000000000
 71
     1
 72
     1
  1
{\H0.58x;{　　　Ｎ・ｍ}}
 11
1.000000000000000
 21
0.0000000000000000
 31
0.0000000000000000
  7
KNJYOKO
  0
MTEXT
  5
400
100
AcDbEntity
  8
A0
  6
CONTINUOUS
 62
3
100
AcDbMText
 10
273.0000000000001
 20
104.4499988555383
 30
0.0000000000000000
 40
4.199998855590820
 41
0.0000000000000000
 71
     1
 72
     1
  1
{\H0.48x;{（}}
 11
1.000000000000000
 21
0.0000000000000000
 31
0.0000000000000000
  7
KNJYOKO
  0
MTEXT
  5
401
100
AcDbEntity
  8
A0
  6
CONTINUOUS
 62
3
100
AcDbMText
 10
220.4580882022927
 20
121.9905686956485
 30
0.0000000000000000
 40
4.649999856948853
 41
0.0000000000000000
 71
     1
 72
     1
  1
{\H0.93x;{SPECIFICATIONS}}
 11
1.000000000000000
 21
0.0000000000000000
 31
0.0000000000000000
  7
STANDARD
  0
LINE
  5
402
100
AcDbEntity
  8
A0
  6
CONTINUOUS
 62
3
100
AcDbLine
 10
194.9999999999999
 20
114.4999999999971
 30
0.0000000000000000
 11
314.9999999999999
 21
114.5000000000314
 31
0.0000000000000000
  0
LINE
  5
403
100
AcDbEntity
  8
A0
  6
CONTINUOUS
 62
3
100
AcDbLine
 10
195.0000000000000
 20
135.0000000000000
 30
0.0000000000000000
 11
315.0000000000001
 21
135.0000000000364
 31
0.0000000000000000
  0
MTEXT
  5
404
100
AcDbEntity
  8
A0
  6
CONTINUOUS
 62
3
100
AcDbMText
 10
235.4400560748808
 20
133.3086336038459
 30
0.0000000000000000
 40
7.500000000000000
 41
0.0000000000000000
 71
     1
 72
     1
  1
{\H0.91x;{仕　様}}
 11
1.000000000000000
 21
0.0000000000000000
 31
0.0000000000000000
  7
KNJYOKO
  0
LINE
  5
405
100
AcDbEntity
  8
A0
  6
CONTINUOUS
 62
3
100
AcDbLine
 10
195.0000000000001
 20
36.99999999994240
 30
0.0000000000000000
 11
195.0000000000001
 21
134.9999999999475
 31
0.0000000000000000
  0
MTEXT
  5
406
100
AcDbEntity
  8
A0
  6
CONTINUOUS
 62
3
100
AcDbMText
 10
273.0000000000001
 20
68.89999985689614
 30
0.0000000000000000
 40
4.649999856948853
 41
0.0000000000000000
 71
     1
 72
     1
  1
{\H0.84x;{0.004}}
 11
1.000000000000000
 21
0.0000000000000000
 31
0.0000000000000000
  7
STANDARD
  0
MTEXT
  5
407
100
AcDbEntity
  8
A0
  6
CONTINUOUS
 62
3
100
AcDbMText
 10
196.8098127292349
 20
27.47097137101319
 30
0.0000000000000000
 40
4.500000000000000
 41
0.0000000000000000
 71
     1
 72
     1
  1
{\H0.63x;{ABOVE SPECS :AT MAX PERMISSIBLE HANDLE TORQUE}}
 11
1.000000000000000
 21
0.0000000000000000
 31
0.0000000000000000
  7
STANDARD
  0
MTEXT
  5
408
100
AcDbEntity
  8
A0
  6
CONTINUOUS
 62
3
100
AcDbMText
 10
485.0000000000000
 20
112.1499998569484
 30
0.0000000000000000
 40
4.649999856948853
 41
0.0000000000000000
 71
     1
 72
     1
  1
{\H0.71x;{This scroll chuck is suitable for}}
 11
1.000000000000000
 21
0.0000000000000000
 31
0.0000000000000000
  7
STANDARD
  0
MTEXT
  5
409
100
AcDbEntity
  8
A0
  6
CONTINUOUS
 62
3
100
AcDbMText
 10
485.0000000000000
 20
104.6499998569484
 30
0.0000000000000000
 40
4.649999856948853
 41
0.0000000000000000
 71
     1
 72
     1
  1
{\H0.71x;{gripping a workpiece on the rotary}}
 11
1.000000000000000
 21
0.0000000000000000
 31
0.0000000000000000
  7
STANDARD
  0
MTEXT
  5
40A
100
AcDbEntity
  8
A0
  6
CONTINUOUS
 62
3
100
AcDbMText
 10
485.0000000000000
 20
97.14999985694851
 30
0.0000000000000000
 40
4.649999856948853
 41
0.0000000000000000
 71
     1
 72
     1
  1
{\H0.69x;{tables. For any other applications,}}
 11
1.000000000000000
 21
0.0000000000000000
 31
0.0000000000000000
  7
STANDARD
  0
MTEXT
  5
40B
100
AcDbEntity
  8
A0
  6
CONTINUOUS
 62
3
100
AcDbMText
 10
485.0000000000000
 20
89.64999985694851
 30
0.0000000000000000
 40
4.649999856948853
 41
0.0000000000000000
 71
     1
 72
     1
  1
{\H0.69x;{please contact us.}}
 11
1.000000000000000
 21
0.0000000000000000
 31
0.0000000000000000
  7
STANDARD
  0
INSERT
  5
417
100
AcDbEntity
  8
A0
  6
CONTINUOUS
 62
3
100
AcDbBlockReference
  2
M0
 10
0.0000000000000000
 20
0.0000000000000000
 30
0.0000000000000000
 50
0.0000000000000000
  0
INSERT
  5
424
100
AcDbEntity
  8
A0
  6
CONTINUOUS
 62
3
100
AcDbBlockReference
  2
M1
 10
0.0000000000000000
 20
0.0000000000000000
 30
0.0000000000000000
 50
0.0000000000000000
  0
LINE
  5
425
100
AcDbEntity
  8
WAKU0
  6
CONTINUOUS
 62
3
100
AcDbLine
 10
309.3220481340056
 20
3.997196630622923
 30
0.0000000000000000
 11
479.3220481340056
 21
3.997196630622923
 31
0.0000000000000000
  0
LINE
  5
426
100
AcDbEntity
  8
WAKU0
  6
CONTINUOUS
 62
3
100
AcDbLine
 10
309.3220481340056
 20
3.997196630622923
 30
0.0000000000000000
 11
309.3220481340056
 21
-35.00280336937708
 31
0.0000000000000000
  0
LINE
  5
427
100
AcDbEntity
  8
WAKU0
  6
CONTINUOUS
 62
3
100
AcDbLine
 10
381.3220481340056
 20
3.997196630622923
 30
0.0000000000000000
 11
381.3220481340056
 21
-35.00280336937708
 31
0.0000000000000000
  0
LINE
  5
428
100
AcDbEntity
  8
WAKU0
  6
CONTINUOUS
 62
3
100
AcDbLine
 10
401.3220481340056
 20
3.997196630622923
 30
0.0000000000000000
 11
401.3220481340056
 21
-35.00280336937708
 31
0.0000000000000000
  0
LINE
  5
429
100
AcDbEntity
  8
WAKU0
  6
CONTINUOUS
 62
3
100
AcDbLine
 10
413.3220481340056
 20
3.997196630622923
 30
0.0000000000000000
 11
413.3220481340056
 21
-35.00280336937708
 31
0.0000000000000000
  0
LINE
  5
42A
100
AcDbEntity
  8
WAKU0
  6
CONTINUOUS
 62
3
100
AcDbLine
 10
413.3220481340056
 20
-10.00280336937708
 30
0.0000000000000000
 11
479.3220481340056
 21
-10.00280336937708
 31
0.0000000000000000
  0
LINE
  5
42B
100
AcDbEntity
  8
WAKU0
  6
CONTINUOUS
 62
3
100
AcDbLine
 10
401.3220481340056
 20
-24.00280336937708
 30
0.0000000000000000
 11
479.3220481340056
 21
-24.00280336937708
 31
0.0000000000000000
  0
LINE
  5
42C
100
AcDbEntity
  8
WAKU0
  6
CONTINUOUS
 62
3
100
AcDbLine
 10
444.3220481340056
 20
3.997196630622923
 30
0.0000000000000000
 11
444.3220481340056
 21
-3.002803369377077
 31
0.0000000000000000
  0
LINE
  5
42D
100
AcDbEntity
  8
WAKU0
  6
CONTINUOUS
 62
3
100
AcDbLine
 10
456.3220481340056
 20
3.997196630622923
 30
0.0000000000000000
 11
456.3220481340056
 21
-3.002803369377077
 31
0.0000000000000000
  0
LINE
  5
42E
100
AcDbEntity
  8
WAKU0
  6
CONTINUOUS
 62
3
100
AcDbLine
 10
381.3220481340056
 20
-15.50280336937708
 30
0.0000000000000000
 11
401.3220481340056
 21
-15.50280336937708
 31
0.0000000000000000
  0
LINE
  5
42F
100
AcDbEntity
  8
WAKU0
  6
CONTINUOUS
 62
3
100
AcDbLine
 10
401.3220481340056
 20
-3.002803369377077
 30
0.0000000000000000
 11
479.3220481340056
 21
-3.002803369377077
 31
0.0000000000000000
  0
LINE
  5
430
100
AcDbEntity
  8
WAKU0
  6
CONTINUOUS
 62
3
100
AcDbLine
 10
309.3220481340056
 20
-10.00280336937708
 30
0.0000000000000000
 11
381.3220481340056
 21
-10.00280336937708
 31
0.0000000000000000
  0
LINE
  5
431
100
AcDbEntity
  8
WAKU0
  6
CONTINUOUS
 62
3
100
AcDbLine
 10
309.3220481340056
 20
-24.00280336937708
 30
0.0000000000000000
 11
381.3220481340056
 21
-24.00280336937708
 31
0.0000000000000000
  0
LINE
  5
432
100
AcDbEntity
  8
WAKU0
  6
CONTINUOUS
 62
3
100
AcDbLine
 10
357.3220481340056
 20
-10.00280336937708
 30
0.0000000000000000
 11
357.3220481340056
 21
-35.00280336937708
 31
0.0000000000000000
  0
LINE
  5
433
100
AcDbEntity
  8
WAKU0
  6
CONTINUOUS
 62
3
100
AcDbLine
 10
333.3220481340056
 20
-10.00280336937708
 30
0.0000000000000000
 11
333.3220481340056
 21
-24.00280336937708
 31
0.0000000000000000
  0
LINE
  5
434
100
AcDbEntity
  8
WAKU0
  6
CONTINUOUS
 62
3
100
AcDbLine
 10
369.3220481340056
 20
-21.00280336937708
 30
0.0000000000000000
 11
369.3220481340056
 21
-24.00280336937708
 31
0.0000000000000000
  0
LINE
  5
435
100
AcDbEntity
  8
WAKU0
  6
CONTINUOUS
 62
3
100
AcDbLine
 10
345.3220481340056
 20
-21.00280336937708
 30
0.0000000000000000
 11
345.3220481340056
 21
-24.00280336937708
 31
0.0000000000000000
  0
LINE
  5
436
100
AcDbEntity
  8
WAKU0
  6
CONTINUOUS
 62
3
100
AcDbLine
 10
321.3220481340056
 20
-21.00280336937708
 30
0.0000000000000000
 11
321.3220481340056
 21
-24.00280336937708
 31
0.0000000000000000
  0
LINE
  5
437
100
AcDbEntity
  8
WAKU0
  6
CONTINUOUS
 62
3
100
AcDbLine
 10
327.3220481340056
 20
3.997196630622923
 30
0.0000000000000000
 11
327.3220481340056
 21
-10.00280336937708
 31
0.0000000000000000
  0
LINE
  5
438
100
AcDbEntity
  8
WAKU0
  6
CONTINUOUS
 62
3
100
AcDbLine
 10
309.3220481340056
 20
-2.002803369377077
 30
0.0000000000000000
 11
381.3220481340056
 21
-2.002803369377077
 31
0.0000000000000000
  0
LINE
  5
439
100
AcDbEntity
  8
WAKU0
  6
HIDDEN
 62
3
100
AcDbLine
 10
429.8220481340056
 20
-24.00280336937708
 30
0.0000000000000000
 11
429.8220481340056
 21
-35.00280336937708
 31
0.0000000000000000
  0
LINE
  5
43A
100
AcDbEntity
  8
WAKU0
  6
HIDDEN
 62
3
100
AcDbLine
 10
442.2220481340056
 20
-24.00280336937708
 30
0.0000000000000000
 11
442.2220481340056
 21
-35.00280336937708
 31
0.0000000000000000
  0
MTEXT
  5
43B
100
AcDbEntity
  8
WAKU0
  6
CONTINUOUS
 62
3
100
AcDbMText
 10
413.8040481583541
 20
2.047196582939208
 30
0.0000000000000000
 40
3.099999904632568
 41
0.0000000000000000
 71
     1
 72
     1
  1
{\H0.92x;{SC-4N}}
 11
1.000000000000000
 21
0.0000000000000000
 31
0.0000000000000000
  7
STANDARD
  0
MTEXT
  5
43C
100
AcDbEntity
  8
WAKU0
  6
CONTINUOUS
 62
3
100
AcDbMText
 10
413.7880481256908
 20
-3.502803369377077
 30
0.0000000000000000
 40
3.000000000000000
 41
0.0000000000000000
 71
     1
 72
     1
  1
{\H0.94x;{スクロールチャック　４\PＳＣＲＯＬＬ　ＣＨＵＣＫ　４}}
 11
1.000000000000000
 21
0.0000000000000000
 31
0.0000000000000000
  7
KNJYOKO
  0
MTEXT
  5
43D
100
AcDbEntity
  8
WAKU0
  6
CONTINUOUS
 62
3
100
AcDbMText
 10
413.8040481583541
 20
-12.76947009962203
 30
0.0000000000000000
 40
3.099999904632568
 41
0.0000000000000000
 71
     1
 72
     1
  1
{\H0.94x;{ＳＣ－４Ｎ　ガイケイ\PＳＣ－４Ｎ　ＯＵＴＳＩＤＥ　ＶＩＥＷ}}
 11
1.000000000000000
 21
0.0000000000000000
 31
0.0000000000000000
  7
KNJYOKO
  0
MTEXT
  5
43E
100
AcDbEntity
  8
WAKU0
  6
CONTINUOUS
 62
3
100
AcDbMText
 10
387.3270480100280
 20
-7.702803417060792
 30
0.0000000000000000
 40
3.099999904632568
 41
0.0000000000000000
 71
     1
 72
     1
  1
{\H0.90x;{1:1}}
 11
1.000000000000000
 21
0.0000000000000000
 31
0.0000000000000000
  7
STANDARD
  0
MTEXT
  5
43F
100
AcDbEntity
  8
WAKU0
  6
CONTINUOUS
 62
3
100
AcDbMText
 10
443.7220482889777
 20
-26.85280327400965
 30
0.0000000000000000
 40
5.300000190734863
 41
0.0000000000000000
 71
     1
 72
     1
  1
{\H0.90x;{8757}}
 11
1.000000000000000
 21
0.0000000000000000
 31
0.0000000000000000
  7
STANDARD
  0
MTEXT
  5
440
100
AcDbEntity
  8
WAKU0
  6
CONTINUOUS
 62
3
100
AcDbMText
 10
431.6220482174521
 20
-26.85280327400965
 30
0.0000000000000000
 40
5.300000190734863
 41
0.0000000000000000
 71
     1
 72
     1
  1
{\H0.87x;{84}}
 11
1.000000000000000
 21
0.0000000000000000
 31
0.0000000000000000
  7
STANDARD
  0
MTEXT
  5
441
100
AcDbEntity
  8
WAKU0
  6
CONTINUOUS
 62
3
100
AcDbMText
 10
414.8220482532149
 20
-26.85280327400965
 30
0.0000000000000000
 40
5.300000190734863
 41
0.0000000000000000
 71
     1
 72
     1
  1
{\H0.89x;{61S}}
 11
1.000000000000000
 21
0.0000000000000000
 31
0.0000000000000000
  7
STANDARD
  0
MTEXT
  5
442
100
AcDbEntity
  8
WAKU0
  6
CONTINUOUS
 62
3
100
AcDbMText
 10
469.3220481816894
 20
-26.85280327400965
 30
0.0000000000000000
 40
5.300000190734863
 41
0.0000000000000000
 71
     1
 72
     1
  1
{\H0.81x;{0}}
 11
1.000000000000000
 21
0.0000000000000000
 31
0.0000000000000000
  7
STANDARD
  0
MTEXT
  5
443
100
AcDbEntity
  8
WAKU0
  6
CONTINUOUS
 62
3
100
AcDbMText
 10
469.3220482159620
 20
-2.152803464744508
 30
0.0000000000000000
 40
5.300000190734863
 41
0.0000000000000000
 71
     7
 72
     1
  1
{\H0.81x;{ }}
 11
1.000000000000000
 21
0.0000000000000000
 31
0.0000000000000000
  7
STANDARD
  0
MTEXT
  5
444
100
AcDbEntity
  8
WAKU0
  6
CONTINUOUS
 62
3
100
AcDbMText
 10
358.7070484224921
 20
-14.00280336937708
 30
0.0000000000000000
 40
3.000000000000000
 41
0.0000000000000000
 71
     7
 72
     1
  1
{\H0.93x;{DRAWN BY}}
 11
1.000000000000000
 21
0.0000000000000000
 31
0.0000000000000000
  7
STANDARD
  0
MTEXT
  5
445
100
AcDbEntity
  8
WAKU0
  6
CONTINUOUS
 62
3
100
AcDbMText
 10
338.5370479289657
 20
-14.05280332169336
 30
0.0000000000000000
 40
3.099999904632568
 41
0.0000000000000000
 71
     7
 72
     1
  1
{\H0.92x;{CHIEF}}
 11
1.000000000000000
 21
0.0000000000000000
 31
0.0000000000000000
  7
STANDARD
  0
MTEXT
  5
446
100
AcDbEntity
  8
WAKU0
  6
CONTINUOUS
 62
3
100
AcDbMText
 10
311.7470478479033
 20
-14.05280332169336
 30
0.0000000000000000
 40
3.099999904632568
 41
0.0000000000000000
 71
     7
 72
     1
  1
{\H0.92x;{MANAGER}}
 11
1.000000000000000
 21
0.0000000000000000
 31
0.0000000000000000
  7
STANDARD
  0
MTEXT
  5
447
100
AcDbEntity
  8
WAKU0
  6
CONTINUOUS
 62
3
100
AcDbMText
 10
310.4070483509665
 20
-0.5028033693770766
 30
0.0000000000000000
 40
3.000000000000000
 41
0.0000000000000000
 71
     7
 72
     1
  1
{\H0.92x;{CAREER}}
 11
1.000000000000000
 21
0.0000000000000000
 31
0.0000000000000000
  7
STANDARD
  0
MTEXT
  5
448
100
AcDbEntity
  8
WAKU0
  6
CONTINUOUS
 62
3
100
AcDbMText
 10
363.9320479694968
 20
-28.05280332169336
 30
0.0000000000000000
 40
3.099999904632568
 41
0.0000000000000000
 71
     7
 72
     1
  1
{\H0.91x;{DATE}}
 11
1.000000000000000
 21
0.0000000000000000
 31
0.0000000000000000
  7
STANDARD
  0
MTEXT
  5
449
100
AcDbEntity
  8
WAKU0
  6
CONTINUOUS
 62
3
100
AcDbMText
 10
383.2220483485824
 20
-20.50280336937708
 30
0.0000000000000000
 40
3.000000000000000
 41
0.0000000000000000
 71
     7
 72
     1
  1
{\H0.63x;{3RD ANGLE}}
 11
1.000000000000000
 21
0.0000000000000000
 31
0.0000000000000000
  7
STANDARD
  0
MTEXT
  5
44A
100
AcDbEntity
  8
WAKU0
  6
CONTINUOUS
 62
3
100
AcDbMText
 10
384.5370479289657
 20
-1.052803321693361
 30
0.0000000000000000
 40
3.099999904632568
 41
0.0000000000000000
 71
     7
 72
     1
  1
{\H0.92x;{SCALE}}
 11
1.000000000000000
 21
0.0000000000000000
 31
0.0000000000000000
  7
STANDARD
  0
MTEXT
  5
44B
100
AcDbEntity
  8
WAKU0
  6
CONTINUOUS
 62
3
100
AcDbMText
 10
475.0220481816893
 20
-1.002803369377077
 30
0.0000000000000000
 40
3.000000000000000
 41
0.0000000000000000
 71
     7
 72
     1
  1
{\H0.63x;{kg}}
 11
1.000000000000000
 21
0.0000000000000000
 31
0.0000000000000000
  7
STANDARD
  0
MTEXT
  5
44C
100
AcDbEntity
  8
WAKU0
  6
CONTINUOUS
 62
3
100
AcDbMText
 10
444.9220482770568
 20
-1.002803369377077
 30
0.0000000000000000
 40
3.000000000000000
 41
0.0000000000000000
 71
     7
 72
     1
  1
{\H0.63x;{WEIGHT}}
 11
1.000000000000000
 21
0.0000000000000000
 31
0.0000000000000000
  7
STANDARD
  0
MTEXT
  5
44D
100
AcDbEntity
  8
WAKU0
  6
CONTINUOUS
 62
3
100
AcDbMText
 10
403.3270480100280
 20
-28.86947000425460
 30
0.0000000000000000
 40
3.099999904632568
 41
0.0000000000000000
 71
     7
 72
     1
  1
{\H0.90x;{DRW\PNO.}}
 11
1.000000000000000
 21
0.0000000000000000
 31
0.0000000000000000
  7
STANDARD
  0
MTEXT
  5
44E
100
AcDbEntity
  8
WAKU0
  6
CONTINUOUS
 62
3
100
AcDbMText
 10
401.9320479694968
 20
-15.05280332169336
 30
0.0000000000000000
 40
3.099999904632568
 41
0.0000000000000000
 71
     7
 72
     1
  1
{\H0.91x;{NAME}}
 11
1.000000000000000
 21
0.0000000000000000
 31
0.0000000000000000
  7
STANDARD
  0
MTEXT
  5
44F
100
AcDbEntity
  8
WAKU0
  6
CONTINUOUS
 62
3
100
AcDbMText
 10
401.9320479694968
 20
-1.052803321693361
 30
0.0000000000000000
 40
3.099999904632568
 41
0.0000000000000000
 71
     7
 72
     1
  1
{\H0.91x;{TYPE}}
 11
1.000000000000000
 21
0.0000000000000000
 31
0.0000000000000000
  7
STANDARD
  0
LINE
  5
450
100
AcDbEntity
  8
WAKU0
  6
HIDDEN
 62
3
100
AcDbLine
 10
476.4820046083941
 20
-33.15280346474451
 30
0.0000000000000000
 11
466.2620917549846
 21
-33.15280346474451
 31
0.0000000000000000
  0
LINE
  5
451
100
AcDbEntity
  8
WAKU0
  6
HIDDEN
 62
3
100
AcDbLine
 10
476.4820046083941
 20
-33.15280346474458
 30
0.0000000000000000
 11
471.3720481816908
 21
-24.30209930922807
 31
0.0000000000000000
  0
LINE
  5
452
100
AcDbEntity
  8
WAKU0
  6
HIDDEN
 62
3
100
AcDbLine
 10
471.3720481816908
 20
-24.30209930922806
 30
0.0000000000000000
 11
466.2620917549845
 21
-33.15280346474459
 31
0.0000000000000000
  0
MTEXT
  5
453
100
AcDbEntity
  8
WAKU0
  6
CONTINUOUS
 62
3
100
AcDbMText
 10
316.3220490954929
 20
-26.36808815239493
 30
0.0000000000000000
 40
3.140094041824341
 41
0.0000000000000000
 71
     1
 72
     1
  1
{\H0.83x;{Ｋｉｔａｇａｗａ\PＣｏｒｐｏｒａｔｉｏｎ}}
 11
1.000000000000000
 21
0.0000000000000000
 31
0.0000000000000000
  7
KNJYOKO
  0
LINE
  5
454
100
AcDbEntity
  8
WAKU0
  6
CONTINUOUS
 62
3
100
AcDbLine
 10
399.7934359093856
 20
-31.22238915674895
 30
0.0000000000000000
 11
399.7934359093856
 21
-25.22238915674893
 31
0.0000000000000000
  0
LINE
  5
455
100
AcDbEntity
  8
WAKU0
  6
CONTINUOUS
 62
3
100
AcDbLine
 10
393.2557422568281
 20
-29.72238915674897
 30
0.0000000000000000
 11
393.2557422568281
 21
-26.72238915674883
 31
0.0000000000000000
  0
LINE
  5
456
100
AcDbEntity
  8
WAKU0
  6
CENTER
 62
12
100
AcDbLine
 10
382.7542286855052
 20
-28.22238915674895
 30
0.0000000000000000
 11
400.5986270304750
 21
-28.22238915674895
 31
0.0000000000000000
  0
LINE
  5
457
100
AcDbEntity
  8
WAKU0
  6
CENTER
 62
12
100
AcDbLine
 10
386.7695047198042
 20
-32.44358674019259
 30
0.0000000000000000
 11
386.7695047198042
 21
-24.10415234787764
 31
0.0000000000000000
  0
LINE
  5
458
100
AcDbEntity
  8
WAKU0
  6
CONTINUOUS
 62
3
100
AcDbLine
 10
393.2557422568282
 20
-26.72238915674910
 30
0.0000000000000000
 11
399.7934359093857
 21
-25.22238915674913
 31
0.0000000000000000
  0
LINE
  5
459
100
AcDbEntity
  8
WAKU0
  6
CONTINUOUS
 62
3
100
AcDbLine
 10
393.2557422568282
 20
-29.72238915674896
 30
0.0000000000000000
 11
399.7934359093856
 21
-31.22238915674896
 31
0.0000000000000000
  0
CIRCLE
  5
45A
100
AcDbEntity
  8
WAKU0
  6
CONTINUOUS
 62
3
100
AcDbCircle
 10
386.7695047198042
 20
-28.22238915674894
 30
0.0000000000000000
 40
1.499999999999972
  0
CIRCLE
  5
45B
100
AcDbEntity
  8
WAKU0
  6
CONTINUOUS
 62
3
100
AcDbCircle
 10
386.7695047198042
 20
-28.22238915674894
 30
0.0000000000000000
 40
2.999999999999979
  0
ENDSEC
  0
SECTION
  2
OBJECTS
  0
DICTIONARY
  5
4B5
100
AcDbDictionary
  3
ACAD_GROUP
350
4B6
  3
ACAD_MLINESTYLE
350
4B7
  3
DWGPROPS
350
4B8
  0
DICTIONARY
  5
4B6
102
{ACAD_REACTORS
330
4B5
102
}
100
AcDbDictionary
  0
DICTIONARY
  5
4B7
102
{ACAD_REACTORS
330
4B5
102
}
100
AcDbDictionary
  3
STANDARD
350
4B9
  0
MLINESTYLE
  5
4B9
102
{ACAD_REACTORS
330
4B7
102
}
100
AcDbMlineStyle
  2
STANDARD
 70
     0
  3

 62
   256
 51
90.00
 52
90.00
 71
     2
 49
0.50
 62
   256
  6
BYLAYER
 49
-0.50
 62
   256
  6
BYLAYER
  0
XRECORD
  5
4B8
102
{ACAD_REACTORS
330
4B5
102
}
100
AcDbXrecord
280
     1
  1
DWGPROPS COOKIE
  2
ＳＣ－４－１０５　クミタテ
  3

  4

  6
スクロールチャック　４
  7

  8

  9

300
=
301
=
302
=
303
=
304
=
305
=
306
=
307
=
308
=
309
=
 40
0.000000
 41
0.000000
 42
0.000000
  1

 90
        0
  0
ENDSEC
  0
EOF
