  0
SECTION
  2
HEADER
  9
$ACADVER
  1
AC1014
  9
$DWGCODEPAGE
  3
ANSI_932
  9
$LTSCALE
 40
20.0
  9
$FILLMODE
 70
     1
  9
$CLAYER
  8
0
  9
$PDMODE
 70
     0
  9
$SPLFRAME
 70
     0
  9
$SPLINETYPE
 70
     6
  9
$SPLINESEGS
 70
     8
  9
$DIMASZ
 40
2.000000
  9
$DIMEXE
 40
2.000000
  9
$DIMEXO
 40
0.800000
  9
$DIMTAD
 70
     1
  9
$DIMTIH
 70
     0
  9
$DIMTOH
 70
     0
  9
$DIMTVP
 40
0.500000
  9
$DIMTXT
 40
3.100000
  9
$EXTMIN
 10
0.000000
 20
0.000000
 30
0.000000
  9
$EXTMAX
 10
297.000000
 20
420.000000
 30
0.000000
  9
$MEASUREMENT
 70
  1
  9
$LIMMIN
 10
0.000000
 20
0.000000
  9
$LIMMAX
 10
297.000000
 20
420.000000
  9
$HANDLING
 70
     1
  9
$HANDSEED
  5
4C9
  9
$DIMBLK
  1
_OPEN
  9
$DIMDEC
 70
     3
  9
$DIMAUNIT
 70
     1
  9
$DIMZIN
 70
     8
  9
$DIMTOFL
 70
     1
  0
ENDSEC
  0
SECTION
  2
CLASSES
  0
ENDSEC
  0
SECTION
  2
TABLES
  0
TABLE
  2
VPORT
  5
478
100
AcDbSymbolTable
 70
     1
  0
VPORT
  5
479
100
AcDbSymbolTableRecord
100
AcDbViewportTableRecord
  2
*ACTIVE
 70
     0
 12
150.233699
 22
132.800000
 40
241.600000
 41
2.150383
  0
ENDTAB
  0
TABLE
  2
LTYPE
  5
47A
100
AcDbSymbolTable
 70
     4
  0
LTYPE
  5
47B
100
AcDbSymbolTableRecord
100
AcDbLinetypeTableRecord
  2
BYBLOCK
 70
     0
  3

 72
    65
 73
     0
 40
0.0
  0
LTYPE
  5
47C
100
AcDbSymbolTableRecord
100
AcDbLinetypeTableRecord
  2
BYLAYER
 70
     0
  3

 72
    65
 73
     0
 40
0.0
  0
LTYPE
  5
47D
100
AcDbSymbolTableRecord
100
AcDbLinetypeTableRecord
  2
CONTINUOUS
 70
     0
  3
Solid line (NEC CAE2D for Win R14.2 : 2023.10.16)
 72
    65
 73
     0
 40
0.0
  0
LTYPE
  5
47E
100
AcDbSymbolTableRecord
100
AcDbLinetypeTableRecord
  2
HIDDEN
 70
     0
  3
__ __ __ __ __ __ __ __ __ __ __ __ __ __
 72
    65
 73
     2
 40
0.375
 49
0.25
 74
     0
 49
-0.125
 74
     0
  0
LTYPE
  5
47F
100
AcDbSymbolTableRecord
100
AcDbLinetypeTableRecord
  2
CENTER
 70
     0
  3
____ _ ____ _ ____ _ ____ _ ____ _ ____
 72
    65
 73
     4
 40
2.0
 49
1.25
 74
     0
 49
-0.25
 74
     0
 49
0.25
 74
     0
 49
-0.25
 74
     0
  0
LTYPE
  5
480
100
AcDbSymbolTableRecord
100
AcDbLinetypeTableRecord
  2
PHANTOM
 70
     0
  3
______  __  __  ______  __  __  ______ 
 72
    65
 73
     6
 40
2.5
 49
1.25
 74
     0
 49
-0.25
 74
     0
 49
0.25
 74
     0
 49
-0.25
 74
     0
 49
0.25
 74
     0
 49
-0.25
 74
     0
  0
ENDTAB
  0
TABLE
  2
LAYER
  5
481
100
AcDbSymbolTable
 70
    12
  0
LAYER
  5
482
100
AcDbSymbolTableRecord
100
AcDbLayerTableRecord
  2
0
 70
     0
 62
     7
  6
CONTINUOUS
  0
LAYER
  5
483
100
AcDbSymbolTableRecord
100
AcDbLayerTableRecord
  2
MAIN0
 70
     0
 62
     7
  6
CONTINUOUS
  0
LAYER
  5
484
100
AcDbSymbolTableRecord
100
AcDbLayerTableRecord
  2
MAIN1
 70
     0
 62
     7
  6
CONTINUOUS
  0
LAYER
  5
485
100
AcDbSymbolTableRecord
100
AcDbLayerTableRecord
  2
MAIN3
 70
     0
 62
     7
  6
CONTINUOUS
  0
LAYER
  5
486
100
AcDbSymbolTableRecord
100
AcDbLayerTableRecord
  2
MAIN4
 70
     0
 62
     7
  6
CONTINUOUS
  0
LAYER
  5
487
100
AcDbSymbolTableRecord
100
AcDbLayerTableRecord
  2
MAIN6
 70
     0
 62
     7
  6
CONTINUOUS
  0
LAYER
  5
488
100
AcDbSymbolTableRecord
100
AcDbLayerTableRecord
  2
MAIN1023
 70
     0
 62
    16
  6
CONTINUOUS
  0
LAYER
  5
489
100
AcDbSymbolTableRecord
100
AcDbLayerTableRecord
  2
A0
 70
     0
 62
     7
  6
CONTINUOUS
  0
LAYER
  5
48A
100
AcDbSymbolTableRecord
100
AcDbLayerTableRecord
  2
A2
 70
     0
 62
     7
  6
CONTINUOUS
  0
LAYER
  5
48B
100
AcDbSymbolTableRecord
100
AcDbLayerTableRecord
  2
A1023
 70
     0
 62
    16
  6
CONTINUOUS
  0
LAYER
  5
48C
100
AcDbSymbolTableRecord
100
AcDbLayerTableRecord
  2
WAKU0
 70
     0
 62
     7
  6
CONTINUOUS
  0
LAYER
  5
48D
100
AcDbSymbolTableRecord
100
AcDbLayerTableRecord
  2
WAKU1023
 70
     0
 62
    16
  6
CONTINUOUS
  0
ENDTAB
  0
TABLE
  2
STYLE
  5
48E
100
AcDbSymbolTable
 70
     4
  0
STYLE
  5
48F
100
AcDbSymbolTableRecord
100
AcDbTextStyleTableRecord
  2
STANDARD
 70
    64
 40
0.0
 41
1.0
 50
0.0
 71
     0
 42
2.800000190734863
  3
TXT
  4

  0
STYLE
  5
490
100
AcDbSymbolTableRecord
100
AcDbTextStyleTableRecord
  2
ANKTATE
 70
    68
 40
0.0
 41
1.0
 50
0.0
 71
     0
 42
2.800000190734863
  3
TXT
  4

  0
STYLE
  5
1FF
100
AcDbSymbolTableRecord
100
AcDbTextStyleTableRecord
  2
KNJYOKO
 70
    64
 40
0.0
 41
1.0
 50
0.0
 71
     0
 42
2.800000190734863
  3
TXT
  4
BIGFONT
  0
STYLE
  5
491
100
AcDbSymbolTableRecord
100
AcDbTextStyleTableRecord
  2
KNJTATE
 70
    68
 40
0.0
 41
1.0
 50
0.0
 71
     0
 42
2.800000190734863
  3
TXT
  4
BIGFONT
  0
ENDTAB
  0
TABLE
  2
VIEW
  5
492
100
AcDbSymbolTable
 70
     0
  0
ENDTAB
  0
TABLE
  2
UCS
  5
493
100
AcDbSymbolTable
 70
     0
  0
ENDTAB
  0
TABLE
  2
APPID
  5
494
100
AcDbSymbolTable
 70
     1
  0
APPID
  5
495
100
AcDbSymbolTableRecord
100
AcDbRegAppTableRecord
  2
ACAD
 70
     0
  0
ENDTAB
  0
TABLE
  2
DIMSTYLE
  5
496
100
AcDbSymbolTable
 70
     1
  0
DIMSTYLE
105
497
100
AcDbSymbolTableRecord
100
AcDbDimStyleTableRecord
  2
STANDARD
 70
     0
 41
2.000000
 44
2.000000
 42
0.800000
145
0.661290
140
3.100000
144
1.000000
146
0.903226
340
48F
  0
DIMSTYLE
105
498
100
AcDbSymbolTableRecord
100
AcDbDimStyleTableRecord
  2
MAIN001
 70
     0
 41
2.000000
 44
2.000000
 42
0.800000
145
0.661290
140
3.100000
144
1.000000
146
0.903226
 77
     1
 73
     0
 74
     0
271
     3
275
     1
 78
     8
172
     1
340
48F
  0
DIMSTYLE
105
499
100
AcDbSymbolTableRecord
100
AcDbDimStyleTableRecord
  2
A002
 70
     0
 41
3.000000
 44
3.000000
 42
1.200000
145
0.607527
140
4.650000
144
1.000000
146
0.903226
 77
     1
 73
     0
 74
     0
271
     3
275
     1
 78
     8
172
     1
340
48F
  0
DIMSTYLE
105
49A
100
AcDbSymbolTableRecord
100
AcDbDimStyleTableRecord
  2
WAKU003
 70
     0
 41
2.000000
 44
2.000000
 42
0.800000
145
0.661290
140
3.100000
144
1.000000
146
0.903226
 77
     1
 73
     0
 74
     0
271
     3
275
     1
 78
     8
172
     1
340
48F
  0
ENDTAB
  0
TABLE
  2
BLOCK_RECORD
  5
49B
100
AcDbSymbolTable
 70
    46
  0
BLOCK_RECORD
  5
49C
100
AcDbSymbolTableRecord
100
AcDbBlockTableRecord
  2
*MODEL_SPACE
  0
BLOCK_RECORD
  5
49D
100
AcDbSymbolTableRecord
100
AcDbBlockTableRecord
  2
*PAPER_SPACE
  0
BLOCK_RECORD
  5
1
100
AcDbSymbolTableRecord
100
AcDbBlockTableRecord
  2
_NONE
  0
BLOCK_RECORD
  5
4
100
AcDbSymbolTableRecord
100
AcDbBlockTableRecord
  2
_CLOSED
  0
BLOCK_RECORD
  5
B
100
AcDbSymbolTableRecord
100
AcDbBlockTableRecord
  2
_DOT
  0
BLOCK_RECORD
  5
13
100
AcDbSymbolTableRecord
100
AcDbBlockTableRecord
  2
_OPEN
  0
BLOCK_RECORD
  5
19
100
AcDbSymbolTableRecord
100
AcDbBlockTableRecord
  2
_ORIGIN
  0
BLOCK_RECORD
  5
1E
100
AcDbSymbolTableRecord
100
AcDbBlockTableRecord
  2
_OPEN30
  0
BLOCK_RECORD
  5
24
100
AcDbSymbolTableRecord
100
AcDbBlockTableRecord
  2
_BOXFILLED
  0
BLOCK_RECORD
  5
29
100
AcDbSymbolTableRecord
100
AcDbBlockTableRecord
  2
_BOXBLANK
  0
BLOCK_RECORD
  5
31
100
AcDbSymbolTableRecord
100
AcDbBlockTableRecord
  2
_OBLIQUE
  0
BLOCK_RECORD
  5
35
100
AcDbSymbolTableRecord
100
AcDbBlockTableRecord
  2
_OPEN90
  0
BLOCK_RECORD
  5
3B
100
AcDbSymbolTableRecord
100
AcDbBlockTableRecord
  2
_CLOSEDBLANK
  0
BLOCK_RECORD
  5
41
100
AcDbSymbolTableRecord
100
AcDbBlockTableRecord
  2
_DOTBLANK
  0
BLOCK_RECORD
  5
49E
100
AcDbSymbolTableRecord
100
AcDbBlockTableRecord
  2
*D0
  0
BLOCK_RECORD
  5
49F
100
AcDbSymbolTableRecord
100
AcDbBlockTableRecord
  2
*D1
  0
BLOCK_RECORD
  5
4A0
100
AcDbSymbolTableRecord
100
AcDbBlockTableRecord
  2
*D2
  0
BLOCK_RECORD
  5
4A1
100
AcDbSymbolTableRecord
100
AcDbBlockTableRecord
  2
*D3
  0
BLOCK_RECORD
  5
4A2
100
AcDbSymbolTableRecord
100
AcDbBlockTableRecord
  2
*D4
  0
BLOCK_RECORD
  5
4A3
100
AcDbSymbolTableRecord
100
AcDbBlockTableRecord
  2
*D5
  0
BLOCK_RECORD
  5
4A4
100
AcDbSymbolTableRecord
100
AcDbBlockTableRecord
  2
*D6
  0
BLOCK_RECORD
  5
4A5
100
AcDbSymbolTableRecord
100
AcDbBlockTableRecord
  2
*D7
  0
BLOCK_RECORD
  5
4A6
100
AcDbSymbolTableRecord
100
AcDbBlockTableRecord
  2
*D8
  0
BLOCK_RECORD
  5
4A7
100
AcDbSymbolTableRecord
100
AcDbBlockTableRecord
  2
*D9
  0
BLOCK_RECORD
  5
4A8
100
AcDbSymbolTableRecord
100
AcDbBlockTableRecord
  2
*D10
  0
BLOCK_RECORD
  5
4A9
100
AcDbSymbolTableRecord
100
AcDbBlockTableRecord
  2
*D11
  0
BLOCK_RECORD
  5
4AA
100
AcDbSymbolTableRecord
100
AcDbBlockTableRecord
  2
*D12
  0
BLOCK_RECORD
  5
4AB
100
AcDbSymbolTableRecord
100
AcDbBlockTableRecord
  2
*D13
  0
BLOCK_RECORD
  5
4AC
100
AcDbSymbolTableRecord
100
AcDbBlockTableRecord
  2
*D14
  0
BLOCK_RECORD
  5
4AD
100
AcDbSymbolTableRecord
100
AcDbBlockTableRecord
  2
*D15
  0
BLOCK_RECORD
  5
4AE
100
AcDbSymbolTableRecord
100
AcDbBlockTableRecord
  2
*D16
  0
BLOCK_RECORD
  5
4AF
100
AcDbSymbolTableRecord
100
AcDbBlockTableRecord
  2
*D17
  0
BLOCK_RECORD
  5
4B0
100
AcDbSymbolTableRecord
100
AcDbBlockTableRecord
  2
*D18
  0
BLOCK_RECORD
  5
4B1
100
AcDbSymbolTableRecord
100
AcDbBlockTableRecord
  2
*D19
  0
BLOCK_RECORD
  5
4B2
100
AcDbSymbolTableRecord
100
AcDbBlockTableRecord
  2
*D20
  0
BLOCK_RECORD
  5
4B3
100
AcDbSymbolTableRecord
100
AcDbBlockTableRecord
  2
*D21
  0
BLOCK_RECORD
  5
4B4
100
AcDbSymbolTableRecord
100
AcDbBlockTableRecord
  2
*D22
  0
BLOCK_RECORD
  5
4B5
100
AcDbSymbolTableRecord
100
AcDbBlockTableRecord
  2
*D23
  0
BLOCK_RECORD
  5
4B6
100
AcDbSymbolTableRecord
100
AcDbBlockTableRecord
  2
*D24
  0
BLOCK_RECORD
  5
4B7
100
AcDbSymbolTableRecord
100
AcDbBlockTableRecord
  2
*D25
  0
BLOCK_RECORD
  5
4B8
100
AcDbSymbolTableRecord
100
AcDbBlockTableRecord
  2
*D26
  0
BLOCK_RECORD
  5
4B9
100
AcDbSymbolTableRecord
100
AcDbBlockTableRecord
  2
*D27
  0
BLOCK_RECORD
  5
4BA
100
AcDbSymbolTableRecord
100
AcDbBlockTableRecord
  2
*D28
  0
BLOCK_RECORD
  5
4BB
100
AcDbSymbolTableRecord
100
AcDbBlockTableRecord
  2
*D29
  0
BLOCK_RECORD
  5
4BC
100
AcDbSymbolTableRecord
100
AcDbBlockTableRecord
  2
*D30
  0
BLOCK_RECORD
  5
4BD
100
AcDbSymbolTableRecord
100
AcDbBlockTableRecord
  2
M0
  0
BLOCK_RECORD
  5
4BE
100
AcDbSymbolTableRecord
100
AcDbBlockTableRecord
  2
M1
  0
BLOCK_RECORD
  5
4BF
100
AcDbSymbolTableRecord
100
AcDbBlockTableRecord
  2
M2
  0
ENDTAB
  0
ENDSEC
  0
SECTION
  2
BLOCKS
  0
BLOCK
  5
4C0
100
AcDbEntity
  8
0
100
AcDbBlockBegin
  2
*MODEL_SPACE
 70
     0
 10
0.0
 20
0.0
 30
0.0
  3
*MODEL_SPACE
  1

  0
ENDBLK
  5
4C1
100
AcDbEntity
  8
0
100
AcDbBlockEnd
  0
BLOCK
  5
4C2
100
AcDbEntity
  8
0
100
AcDbBlockBegin
  2
*PAPER_SPACE
 70
     0
 10
0.0
 20
0.0
 30
0.0
  3
*PAPER_SPACE
  1

  0
ENDBLK
  5
4C3
100
AcDbEntity
  8
0
100
AcDbBlockEnd
  0
BLOCK
  5
2
100
AcDbEntity
  8
0
100
AcDbBlockBegin
  2
_NONE
 70
     0
 10
0.0
 20
0.0
 30
0.0
  3
_NONE
  1

  0
ENDBLK
  5
3
100
AcDbEntity
  8
0
100
AcDbBlockEnd
  0
BLOCK
  5
5
100
AcDbEntity
  8
0
100
AcDbBlockBegin
  2
_CLOSED
 70
     0
 10
0.0
 20
0.0
 30
0.0
  3
_CLOSED
  1

  0
LINE
  5
6
100
AcDbEntity
  8
0
  6
BYBLOCK
 62
     0
100
AcDbLine
 10
-1.0
 20
0.166667
 30
0.0
 11
0.0
 21
0.0
 31
0.0
  0
LINE
  5
7
100
AcDbEntity
  8
0
  6
BYBLOCK
 62
     0
100
AcDbLine
 10
0.0
 20
0.0
 30
0.0
 11
-1.0
 21
-0.166667
 31
0.0
  0
LINE
  5
8
100
AcDbEntity
  8
0
  6
BYBLOCK
 62
     0
100
AcDbLine
 10
-1.0
 20
0.166667
 30
0.0
 11
-1.0
 21
-0.166667
 31
0.0
  0
LINE
  5
9
100
AcDbEntity
  8
0
  6
BYBLOCK
 62
     0
100
AcDbLine
 10
0.0
 20
0.0
 30
0.0
 11
-1.0
 21
0.0
 31
0.0
  0
ENDBLK
  5
A
100
AcDbEntity
  8
0
100
AcDbBlockEnd
  0
BLOCK
  5
C
100
AcDbEntity
  8
0
100
AcDbBlockBegin
  2
_DOT
 70
     0
 10
0.0
 20
0.0
 30
0.0
  3
_DOT
  1

  0
POLYLINE
  5
D
100
AcDbEntity
  8
0
  6
BYBLOCK
 62
     0
100
AcDb2dPolyline
 66
     1
 10
0.0
 20
0.0
 30
0.0
 70
     1
 40
0.5
 41
0.5
  0
VERTEX
  5
E
100
AcDbEntity
  8
0
  6
BYBLOCK
 62
     0
100
AcDbVertex
100
AcDb2dVertex
 10
-0.25
 20
0.0
 30
0.0
 42
1.0
  0
VERTEX
  5
F
100
AcDbEntity
  8
0
  6
BYBLOCK
 62
     0
100
AcDbVertex
100
AcDb2dVertex
 10
0.25
 20
0.0
 30
0.0
 42
1.0
  0
SEQEND
  5
10
100
AcDbEntity
  8
0
  6
BYBLOCK
 62
     0
  0
LINE
  5
11
100
AcDbEntity
  8
0
  6
BYBLOCK
 62
     0
100
AcDbLine
 10
-0.5
 20
0.0
 30
0.0
 11
-1.0
 21
0.0
 31
0.0
  0
ENDBLK
  5
12
100
AcDbEntity
  8
0
100
AcDbBlockEnd
  0
BLOCK
  5
14
100
AcDbEntity
  8
0
100
AcDbBlockBegin
  2
_OPEN
 70
     0
 10
0.0
 20
0.0
 30
0.0
  3
_OPEN
  1

  0
LINE
  5
15
100
AcDbEntity
  8
0
  6
BYBLOCK
 62
     0
100
AcDbLine
 10
-1.0
 20
0.166667
 30
0.0
 11
0.0
 21
0.0
 31
0.0
  0
LINE
  5
16
100
AcDbEntity
  8
0
  6
BYBLOCK
 62
     0
100
AcDbLine
 10
0.0
 20
0.0
 30
0.0
 11
-1.0
 21
-0.166667
 31
0.0
  0
LINE
  5
17
100
AcDbEntity
  8
0
  6
BYBLOCK
 62
     0
100
AcDbLine
 10
0.0
 20
0.0
 30
0.0
 11
-1.0
 21
0.0
 31
0.0
  0
ENDBLK
  5
18
100
AcDbEntity
  8
0
100
AcDbBlockEnd
  0
BLOCK
  5
1A
100
AcDbEntity
  8
0
100
AcDbBlockBegin
  2
_ORIGIN
 70
     0
 10
0.0
 20
0.0
 30
0.0
  3
_ORIGIN
  1

  0
CIRCLE
  5
1B
100
AcDbEntity
  8
0
  6
BYBLOCK
 62
     0
100
AcDbCircle
 10
0.0
 20
0.0
 30
0.0
 40
0.5
  0
LINE
  5
1C
100
AcDbEntity
  8
0
  6
BYBLOCK
 62
     0
100
AcDbLine
 10
0.0
 20
0.0
 30
0.0
 11
-1.0
 21
0.0
 31
0.0
  0
ENDBLK
  5
1D
100
AcDbEntity
  8
0
100
AcDbBlockEnd
  0
BLOCK
  5
1F
100
AcDbEntity
  8
0
100
AcDbBlockBegin
  2
_OPEN30
 70
     0
 10
0.0
 20
0.0
 30
0.0
  3
_OPEN30
  1

  0
LINE
  5
20
100
AcDbEntity
  8
0
  6
BYBLOCK
 62
     0
100
AcDbLine
 10
-1.0
 20
0.267949
 30
0.0
 11
0.0
 21
0.0
 31
0.0
  0
LINE
  5
21
100
AcDbEntity
  8
0
  6
BYBLOCK
 62
     0
100
AcDbLine
 10
0.0
 20
0.0
 30
0.0
 11
-1.0
 21
-0.267949
 31
0.0
  0
LINE
  5
22
100
AcDbEntity
  8
0
  6
BYBLOCK
 62
     0
100
AcDbLine
 10
0.0
 20
0.0
 30
0.0
 11
-1.0
 21
0.0
 31
0.0
  0
ENDBLK
  5
23
100
AcDbEntity
  8
0
100
AcDbBlockEnd
  0
BLOCK
  5
25
100
AcDbEntity
  8
0
100
AcDbBlockBegin
  2
_BOXFILLED
 70
     0
 10
0.0
 20
0.0
 30
0.0
  3
_BOXFILLED
  1

  0
SOLID
  5
26
100
AcDbEntity
  8
0
  6
BYBLOCK
 62
     0
100
AcDbTrace
 10
-0.5
 20
0.5
 30
0.0
 11
0.5
 21
0.5
 31
0.0
 12
-0.5
 22
-0.5
 32
0.0
 13
0.5
 23
-0.5
 33
0.0
  0
LINE
  5
27
100
AcDbEntity
  8
0
  6
BYBLOCK
 62
     0
100
AcDbLine
 10
-0.5
 20
0.0
 30
0.0
 11
-1.0
 21
0.0
 31
0.0
  0
ENDBLK
  5
28
100
AcDbEntity
  8
0
100
AcDbBlockEnd
  0
BLOCK
  5
2A
100
AcDbEntity
  8
0
100
AcDbBlockBegin
  2
_BOXBLANK
 70
     0
 10
0.0
 20
0.0
 30
0.0
  3
_BOXBLANK
  1

  0
LINE
  5
2B
100
AcDbEntity
  8
0
  6
BYBLOCK
 62
     0
100
AcDbLine
 10
-0.5
 20
-0.5
 30
0.0
 11
0.5
 21
-0.5
 31
0.0
  0
LINE
  5
2C
100
AcDbEntity
  8
0
  6
BYBLOCK
 62
     0
100
AcDbLine
 10
0.5
 20
-0.5
 30
0.0
 11
0.5
 21
0.5
 31
0.0
  0
LINE
  5
2D
100
AcDbEntity
  8
0
  6
BYBLOCK
 62
     0
100
AcDbLine
 10
0.5
 20
0.5
 30
0.0
 11
-0.5
 21
0.5
 31
0.0
  0
LINE
  5
2E
100
AcDbEntity
  8
0
  6
BYBLOCK
 62
     0
100
AcDbLine
 10
-0.5
 20
0.5
 30
0.0
 11
-0.5
 21
-0.5
 31
0.0
  0
LINE
  5
2F
100
AcDbEntity
  8
0
  6
BYBLOCK
 62
     0
100
AcDbLine
 10
-0.5
 20
0.0
 30
0.0
 11
-1.0
 21
0.0
 31
0.0
  0
ENDBLK
  5
30
100
AcDbEntity
  8
0
100
AcDbBlockEnd
  0
BLOCK
  5
32
100
AcDbEntity
  8
0
100
AcDbBlockBegin
  2
_OBLIQUE
 70
     0
 10
0.0
 20
0.0
 30
0.0
  3
_OBLIQUE
  1

  0
LINE
  5
33
100
AcDbEntity
  8
0
  6
BYBLOCK
 62
     0
100
AcDbLine
 10
-0.5
 20
-0.5
 30
0.0
 11
0.5
 21
0.5
 31
0.0
  0
ENDBLK
  5
34
100
AcDbEntity
  8
0
100
AcDbBlockEnd
  0
BLOCK
  5
36
100
AcDbEntity
  8
0
100
AcDbBlockBegin
  2
_OPEN90
 70
     0
 10
0.0
 20
0.0
 30
0.0
  3
_OPEN90
  1

  0
LINE
  5
37
100
AcDbEntity
  8
0
  6
BYBLOCK
 62
     0
100
AcDbLine
 10
-0.5
 20
0.5
 30
0.0
 11
0.0
 21
0.0
 31
0.0
  0
LINE
  5
38
100
AcDbEntity
  8
0
  6
BYBLOCK
 62
     0
100
AcDbLine
 10
0.0
 20
0.0
 30
0.0
 11
-0.5
 21
-0.5
 31
0.0
  0
LINE
  5
39
100
AcDbEntity
  8
0
  6
BYBLOCK
 62
     0
100
AcDbLine
 10
0.0
 20
0.0
 30
0.0
 11
-1.0
 21
0.0
 31
0.0
  0
ENDBLK
  5
3A
100
AcDbEntity
  8
0
100
AcDbBlockEnd
  0
BLOCK
  5
3C
100
AcDbEntity
  8
0
100
AcDbBlockBegin
  2
_CLOSEDBLANK
 70
     0
 10
0.0
 20
0.0
 30
0.0
  3
_CLOSEDBLANK
  1

  0
LINE
  5
3D
100
AcDbEntity
  8
0
  6
BYBLOCK
 62
     0
100
AcDbLine
 10
-1.0
 20
0.1666666666666666
 30
0.0
 11
0.0
 21
0.0
 31
0.0
  0
LINE
  5
3E
100
AcDbEntity
  8
0
  6
BYBLOCK
 62
     0
100
AcDbLine
 10
0.0
 20
0.0
 30
0.0
 11
-1.0
 21
-0.1666666666666666
 31
0.0
  0
LINE
  5
3F
100
AcDbEntity
  8
0
  6
BYBLOCK
 62
     0
100
AcDbLine
 10
-1.0
 20
0.1666666666666666
 30
0.0
 11
-1.0
 21
-0.1666666666666666
 31
0.0
  0
ENDBLK
  5
40
100
AcDbEntity
  8
0
100
AcDbBlockEnd
  0
BLOCK
  5
42
100
AcDbEntity
  8
0
100
AcDbBlockBegin
  2
_DOTBLANK
 70
     0
 10
0.0
 20
0.0
 30
0.0
  3
_DOTBLANK
  1

  0
CIRCLE
  5
43
100
AcDbEntity
  8
0
  6
BYBLOCK
 62
     0
100
AcDbCircle
 10
0.0
 20
0.0
 30
0.0
 40
0.5
  0
LINE
  5
44
100
AcDbEntity
  8
0
  6
BYBLOCK
 62
     0
100
AcDbLine
 10
-0.5
 20
0.0
 30
0.0
 11
-1.0
 21
0.0
 31
0.0
  0
ENDBLK
  5
45
100
AcDbEntity
  8
0
100
AcDbBlockEnd
  0
BLOCK
  5
1BF
100
AcDbEntity
  8
MAIN0
  6
CONTINUOUS
 62
1
100
AcDbBlockBegin
  2
*D0
 70
    65
 10
0.0
 20
0.0
 30
0.0
  0
LINE
  5
1C0
100
AcDbEntity
  8
MAIN0
  6
BYBLOCK
 62
0
100
AcDbLine
 10
380.0000000000016
 20
230.8000000119053
 30
0.0000000000000000
 11
380.0000000000016
 21
252.0000000000000
 31
0.0000000000000000
  0
LINE
  5
1C1
100
AcDbEntity
  8
MAIN0
  6
BYBLOCK
 62
0
100
AcDbLine
 10
378.0000000000016
 20
250.0000000000000
 30
0.0000000000000000
 11
301.9999999999984
 21
250.0000000000000
 31
0.0000000000000000
  0
INSERT
  5
1C2
100
AcDbEntity
  8
MAIN0
  6
BYBLOCK
 62
0
100
AcDbBlockReference
  2
_OPEN
 10
380.0000000000016
 20
250.0000000000000
 30
0.0000000000000000
 41
2.000000000000000
 42
2.000000000000000
 43
2.000000000000000
 50
360.0000000000000
  0
INSERT
  5
1C3
100
AcDbEntity
  8
MAIN0
  6
BYBLOCK
 62
0
100
AcDbBlockReference
  2
_OPEN
 10
299.9999999999984
 20
250.0000000000000
 30
0.0000000000000000
 41
2.000000000000000
 42
2.000000000000000
 43
2.000000000000000
 50
180.0000000000000
  0
LINE
  5
1C4
100
AcDbEntity
  8
MAIN0
  6
BYBLOCK
 62
0
100
AcDbLine
 10
299.9999999999984
 20
230.8000000119366
 30
0.0000000000000000
 11
299.9999999999984
 21
252.0000000000000
 31
0.0000000000000000
  0
MTEXT
  5
1C5
100
AcDbEntity
  8
MAIN0
  6
BYBLOCK
 62
0
100
AcDbMText
 10
340.0000000000000
 20
252.0499999523163
 30
0.0000000000000000
 40
3.099999904632568
 41
0.0000000000000000
 71
     5
 72
     1
  1
\A1;110
 11
1.000000000000000
 21
0.0000000000000000
 31
0.0000000000000000
  7
STANDARD
  0
ENDBLK
  5
1C6
100
AcDbEntity
  8
MAIN0
  6
CONTINUOUS
 62
1
100
AcDbBlockEnd
  0
BLOCK
  5
1D0
100
AcDbEntity
  8
MAIN0
  6
CONTINUOUS
 62
3
100
AcDbBlockBegin
  2
*D1
 70
    65
 10
0.0
 20
0.0
 30
0.0
  0
LINE
  5
1D1
100
AcDbEntity
  8
MAIN0
  6
BYBLOCK
 62
0
100
AcDbLine
 10
334.5000000000000
 20
210.0000000000000
 30
0.0000000000000000
 11
345.5000000000000
 21
210.0000000000000
 31
0.0000000000000000
  0
INSERT
  5
1D2
100
AcDbEntity
  8
MAIN0
  6
BYBLOCK
 62
0
100
AcDbBlockReference
  2
_OPEN
 10
332.5000000000000
 20
210.0000000000000
 30
0.0000000000000000
 41
2.000000000000000
 42
2.000000000000000
 43
2.000000000000000
 50
180.0000000000000
  0
INSERT
  5
1D3
100
AcDbEntity
  8
MAIN0
  6
BYBLOCK
 62
0
100
AcDbBlockReference
  2
_OPEN
 10
347.5000000000000
 20
210.0000000000000
 30
0.0000000000000000
 41
2.000000000000000
 42
2.000000000000000
 43
2.000000000000000
 50
0.0000000000000000
  0
MTEXT
  5
1D4
100
AcDbEntity
  8
MAIN0
  6
BYBLOCK
 62
0
100
AcDbMText
 10
340.0000000000000
 20
212.0499999523163
 30
0.0000000000000000
 40
3.099999904632568
 41
0.0000000000000000
 71
     5
 72
     1
  1
\A1;\U+220515
 11
1.000000000000000
 21
0.0000000000000000
 31
0.0000000000000000
  7
STANDARD
  0
ENDBLK
  5
1D5
100
AcDbEntity
  8
MAIN0
  6
CONTINUOUS
 62
3
100
AcDbBlockEnd
  0
BLOCK
  5
1D7
100
AcDbEntity
  8
MAIN0
  6
CONTINUOUS
 62
3
100
AcDbBlockBegin
  2
*D2
 70
    65
 10
0.0
 20
0.0
 30
0.0
  0
LINE
  5
1D8
100
AcDbEntity
  8
MAIN0
  6
BYBLOCK
 62
0
100
AcDbLine
 10
345.0000000119209
 20
176.9999999999984
 30
0.0000000000000000
 11
354.5000000000000
 21
176.9999999999984
 31
0.0000000000000000
  0
LINE
  5
1D9
100
AcDbEntity
  8
MAIN0
  6
BYBLOCK
 62
0
100
AcDbLine
 10
352.5000000000000
 20
178.9999999999984
 30
0.0000000000000000
 11
352.5000000000000
 21
184.9999999999982
 31
0.0000000000000000
  0
INSERT
  5
1DA
100
AcDbEntity
  8
MAIN0
  6
BYBLOCK
 62
0
100
AcDbBlockReference
  2
_OPEN
 10
352.5000000000000
 20
176.9999999999984
 30
0.0000000000000000
 41
2.000000000000000
 42
2.000000000000000
 43
2.000000000000000
 50
270.0000000000000
  0
INSERT
  5
1DB
100
AcDbEntity
  8
MAIN0
  6
BYBLOCK
 62
0
100
AcDbBlockReference
  2
_OPEN
 10
352.5000000000000
 20
186.9999999999982
 30
0.0000000000000000
 41
2.000000000000000
 42
2.000000000000000
 43
2.000000000000000
 50
90.00000000000000
  0
LINE
  5
1DC
100
AcDbEntity
  8
MAIN0
  6
BYBLOCK
 62
0
100
AcDbLine
 10
345.5000000119209
 20
186.9999999999982
 30
0.0000000000000000
 11
354.5000000000000
 21
186.9999999999982
 31
0.0000000000000000
  0
MTEXT
  5
1DD
100
AcDbEntity
  8
MAIN0
  6
BYBLOCK
 62
0
100
AcDbMText
 10
350.4500000476837
 20
181.9999999999983
 30
0.0000000000000000
 40
3.099999904632568
 41
0.0000000000000000
 71
     5
 72
     1
  1
\A1;10
 11
6.123233995736766e-017
 21
1.000000000000000
 31
0.0000000000000000
  7
STANDARD
  0
ENDBLK
  5
1DE
100
AcDbEntity
  8
MAIN0
  6
CONTINUOUS
 62
3
100
AcDbBlockEnd
  0
BLOCK
  5
1E0
100
AcDbEntity
  8
MAIN0
  6
CONTINUOUS
 62
3
100
AcDbBlockBegin
  2
*D3
 70
    65
 10
0.0
 20
0.0
 30
0.0
  0
LINE
  5
1E1
100
AcDbEntity
  8
MAIN0
  6
BYBLOCK
 62
0
100
AcDbLine
 10
310.0000000000000
 20
232.0000000000102
 30
0.0000000000000000
 11
310.0000000000000
 21
228.0000000000102
 31
0.0000000000000000
  0
INSERT
  5
1E2
100
AcDbEntity
  8
MAIN0
  6
BYBLOCK
 62
0
100
AcDbBlockReference
  2
_OPEN
 10
310.0000000000000
 20
234.0000000000102
 30
0.0000000000000000
 41
2.000000000000000
 42
2.000000000000000
 43
2.000000000000000
 50
90.00000000000000
  0
INSERT
  5
1E3
100
AcDbEntity
  8
MAIN0
  6
BYBLOCK
 62
0
100
AcDbBlockReference
  2
_OPEN
 10
310.0000000000000
 20
226.0000000000102
 30
0.0000000000000000
 41
2.000000000000000
 42
2.000000000000000
 43
2.000000000000000
 50
270.0000000000000
  0
MTEXT
  5
1E4
100
AcDbEntity
  8
MAIN0
  6
BYBLOCK
 62
0
100
AcDbMText
 10
307.9500000476837
 20
230.0000000000102
 30
0.0000000000000000
 40
3.099999904632568
 41
0.0000000000000000
 71
     5
 72
     1
  1
\A1;\U+22058
 11
6.123233995736766e-017
 21
1.000000000000000
 31
0.0000000000000000
  7
STANDARD
  0
ENDBLK
  5
1E5
100
AcDbEntity
  8
MAIN0
  6
CONTINUOUS
 62
3
100
AcDbBlockEnd
  0
BLOCK
  5
1EB
100
AcDbEntity
  8
MAIN0
  6
CONTINUOUS
 62
3
100
AcDbBlockBegin
  2
*D4
 70
    65
 10
0.0
 20
0.0
 30
0.0
  0
LINE
  5
1EC
100
AcDbEntity
  8
MAIN0
  6
BYBLOCK
 62
0
100
AcDbLine
 10
343.3234018715767
 20
158.3234018715768
 30
0.0000000000000000
 11
336.6765981284232
 21
151.6765981284233
 31
0.0000000000000000
  0
INSERT
  5
1ED
100
AcDbEntity
  8
MAIN0
  6
BYBLOCK
 62
0
100
AcDbBlockReference
  2
_OPEN
 10
343.3234018715767
 20
158.3234018715768
 30
0.0000000000000000
 41
2.000000000000000
 42
2.000000000000000
 43
2.000000000000000
 50
224.9999999999997
  0
INSERT
  5
1EE
100
AcDbEntity
  8
MAIN0
  6
BYBLOCK
 62
0
100
AcDbBlockReference
  2
_OPEN
 10
336.6765981284232
 20
151.6765981284233
 30
0.0000000000000000
 41
2.000000000000000
 42
2.000000000000000
 43
2.000000000000000
 50
44.99999999999977
  0
LINE
  5
1EF
100
AcDbEntity
  8
MAIN0
  6
BYBLOCK
 62
0
100
AcDbLine
 10
344.7376154339498
 20
159.7376154339499
 30
0.0000000000000000
 11
350.6391439401655
 21
165.6391439401656
 31
0.0000000000000000
  0
LINE
  5
1F0
100
AcDbEntity
  8
MAIN0
  6
BYBLOCK
 62
0
100
AcDbLine
 10
335.2623845660501
 20
150.2623845660502
 30
0.0000000000000000
 11
334.5552777848635
 21
149.5552777848636
 31
0.0000000000000000
  0
MTEXT
  5
1F1
100
AcDbEntity
  8
MAIN0
  6
BYBLOCK
 62
0
100
AcDbMText
 10
346.3965034110818
 20
164.2956411465118
 30
0.0000000000000000
 40
3.099999904632568
 41
0.0000000000000000
 71
     5
 72
     1
  1
\A1;\U+22059.4
 11
0.7071067811865488
 21
0.7071067811865462
 31
0.0000000000000000
  7
STANDARD
  0
ENDBLK
  5
1F2
100
AcDbEntity
  8
MAIN0
  6
CONTINUOUS
 62
3
100
AcDbBlockEnd
  0
BLOCK
  5
1F4
100
AcDbEntity
  8
MAIN0
  6
CONTINUOUS
 62
3
100
AcDbBlockBegin
  2
*D5
 70
    65
 10
0.0
 20
0.0
 30
0.0
  0
LINE
  5
1F5
100
AcDbEntity
  8
MAIN0
  6
BYBLOCK
 62
0
100
AcDbLine
 10
340.3089190003170
 20
149.7413335311976
 30
0.0000000000000000
 11
348.9393398281418
 21
141.1109127033906
 31
0.0000000000000000
  0
LINE
  5
1F6
100
AcDbEntity
  8
MAIN0
  6
BYBLOCK
 62
0
100
AcDbLine
 10
347.5251262657673
 20
142.5251262657623
 30
0.0000000000000000
 11
352.4748737340682
 21
147.4748737340734
 31
0.0000000000000000
  0
INSERT
  5
1F7
100
AcDbEntity
  8
MAIN0
  6
BYBLOCK
 62
0
100
AcDbBlockReference
  2
_OPEN
 10
347.5251262657673
 20
142.5251262657623
 30
0.0000000000000000
 41
2.000000000000000
 42
2.000000000000000
 43
2.000000000000000
 50
45.00000000005955
  0
INSERT
  5
1F8
100
AcDbEntity
  8
MAIN0
  6
BYBLOCK
 62
0
100
AcDbBlockReference
  2
_OPEN
 10
352.4748737340682
 20
147.4748737340734
 30
0.0000000000000000
 41
2.000000000000000
 42
2.000000000000000
 43
2.000000000000000
 50
225.0000000000595
  0
LINE
  5
1F9
100
AcDbEntity
  8
MAIN0
  6
BYBLOCK
 62
0
100
AcDbLine
 10
346.1109127033957
 20
141.1109127033877
 30
0.0000000000000000
 11
345.4038059222099
 21
140.4038059222004
 31
0.0000000000000000
  0
LINE
  5
1FA
100
AcDbEntity
  8
MAIN0
  6
BYBLOCK
 62
0
100
AcDbLine
 10
353.8890872964398
 20
148.8890872964480
 30
0.0000000000000000
 11
362.1915592440647
 21
157.1915592440901
 31
0.0000000000000000
  0
LINE
  5
1FB
100
AcDbEntity
  8
MAIN0
  6
BYBLOCK
 62
0
100
AcDbLine
 10
345.2586664688244
 20
154.6910809993022
 30
0.0000000000000000
 11
353.8890872964428
 21
146.0606601717018
 31
0.0000000000000000
  0
MTEXT
  5
1FC
100
AcDbEntity
  8
MAIN0
  6
BYBLOCK
 62
0
100
AcDbMText
 10
356.8352252124236
 20
154.7343629478707
 30
0.0000000000000000
 40
3.099999904632568
 41
0.0000000000000000
 71
     5
 72
     1
  1
\A1;□7\H0.903226x;\S 0^ -0.1;
 11
0.7071067811858127
 21
0.7071067811872824
 31
0.0000000000000000
  7
KNJYOKO
  0
ENDBLK
  5
1FD
100
AcDbEntity
  8
MAIN0
  6
CONTINUOUS
 62
3
100
AcDbBlockEnd
  0
BLOCK
  5
200
100
AcDbEntity
  8
MAIN0
  6
CONTINUOUS
 62
3
100
AcDbBlockBegin
  2
*D6
 70
    65
 10
0.0
 20
0.0
 30
0.0
  0
LINE
  5
201
100
AcDbEntity
  8
MAIN0
  6
BYBLOCK
 62
0
100
AcDbLine
 10
274.2335867466213
 20
184.2791983433277
 30
0.0000000000000000
 11
235.0769229200859
 21
179.3846153650108
 31
0.0000000000000000
  0
INSERT
  5
202
100
AcDbEntity
  8
MAIN0
  6
BYBLOCK
 62
0
100
AcDbBlockReference
  2
_OPEN
 10
276.2181425000487
 20
184.5272678125061
 30
0.0000000000000000
 41
2.000000000000000
 42
2.000000000000000
 43
2.000000000000000
 50
7.125016348901795
  0
MTEXT
  5
203
100
AcDbEntity
  8
MAIN0
  6
BYBLOCK
 62
0
100
AcDbMText
 10
261.5918826517052
 20
184.7649388314099
 30
0.0000000000000000
 40
3.099999904632568
 41
0.0000000000000000
 71
     5
 72
     1
  1
\A1;\U+220573\H0.903226x;\U+00B10.2
 11
0.9922778767136676
 21
0.1240347345892083
 31
0.0000000000000000
  7
STANDARD
  0
ENDBLK
  5
204
100
AcDbEntity
  8
MAIN0
  6
CONTINUOUS
 62
3
100
AcDbBlockEnd
  0
BLOCK
  5
206
100
AcDbEntity
  8
MAIN0
  6
CONTINUOUS
 62
3
100
AcDbBlockBegin
  2
*D7
 70
    65
 10
0.0
 20
0.0
 30
0.0
  0
LINE
  5
207
100
AcDbEntity
  8
MAIN0
  6
BYBLOCK
 62
0
100
AcDbLine
 10
150.5000000119209
 20
187.5000000000000
 30
0.0000000000000000
 11
162.0000000000000
 21
187.5000000000000
 31
0.0000000000000000
  0
LINE
  5
208
100
AcDbEntity
  8
MAIN0
  6
BYBLOCK
 62
0
100
AcDbLine
 10
160.0000000000000
 20
189.5000000000000
 30
0.0000000000000000
 11
160.0000000000000
 21
196.5000000000000
 31
0.0000000000000000
  0
INSERT
  5
209
100
AcDbEntity
  8
MAIN0
  6
BYBLOCK
 62
0
100
AcDbBlockReference
  2
_OPEN
 10
160.0000000000000
 20
187.5000000000000
 30
0.0000000000000000
 41
2.000000000000000
 42
2.000000000000000
 43
2.000000000000000
 50
270.0000000000000
  0
INSERT
  5
20A
100
AcDbEntity
  8
MAIN0
  6
BYBLOCK
 62
0
100
AcDbBlockReference
  2
_OPEN
 10
160.0000000000000
 20
198.5000000000000
 30
0.0000000000000000
 41
2.000000000000000
 42
2.000000000000000
 43
2.000000000000000
 50
90.00000000000000
  0
LINE
  5
20B
100
AcDbEntity
  8
MAIN0
  6
BYBLOCK
 62
0
100
AcDbLine
 10
150.5000000119209
 20
198.5000000000000
 30
0.0000000000000000
 11
162.0000000000000
 21
198.5000000000000
 31
0.0000000000000000
  0
MTEXT
  5
20C
100
AcDbEntity
  8
MAIN0
  6
BYBLOCK
 62
0
100
AcDbMText
 10
157.9500000476837
 20
193.0000000000000
 30
0.0000000000000000
 40
3.099999904632568
 41
0.0000000000000000
 71
     5
 72
     1
  1
\A1;11
 11
6.123233995736766e-017
 21
1.000000000000000
 31
0.0000000000000000
  7
STANDARD
  0
ENDBLK
  5
20D
100
AcDbEntity
  8
MAIN0
  6
CONTINUOUS
 62
3
100
AcDbBlockEnd
  0
BLOCK
  5
20F
100
AcDbEntity
  8
MAIN0
  6
CONTINUOUS
 62
3
100
AcDbBlockBegin
  2
*D8
 70
    65
 10
0.0
 20
0.0
 30
0.0
  0
LINE
  5
210
100
AcDbEntity
  8
MAIN0
  6
BYBLOCK
 62
0
100
AcDbLine
 10
150.5000000119209
 20
198.5000000000000
 30
0.0000000000000000
 11
162.0000000000000
 21
198.5000000000000
 31
0.0000000000000000
  0
LINE
  5
211
100
AcDbEntity
  8
MAIN0
  6
BYBLOCK
 62
0
100
AcDbLine
 10
160.0000000000000
 20
200.5000000000000
 30
0.0000000000000000
 11
160.0000000000000
 21
206.5000000000000
 31
0.0000000000000000
  0
INSERT
  5
212
100
AcDbEntity
  8
MAIN0
  6
BYBLOCK
 62
0
100
AcDbBlockReference
  2
_OPEN
 10
160.0000000000000
 20
198.5000000000000
 30
0.0000000000000000
 41
2.000000000000000
 42
2.000000000000000
 43
2.000000000000000
 50
270.0000000000000
  0
INSERT
  5
213
100
AcDbEntity
  8
MAIN0
  6
BYBLOCK
 62
0
100
AcDbBlockReference
  2
_OPEN
 10
160.0000000000000
 20
208.5000000000000
 30
0.0000000000000000
 41
2.000000000000000
 42
2.000000000000000
 43
2.000000000000000
 50
90.00000000000000
  0
LINE
  5
214
100
AcDbEntity
  8
MAIN0
  6
BYBLOCK
 62
0
100
AcDbLine
 10
144.5000000119209
 20
208.5000000000000
 30
0.0000000000000000
 11
162.0000000000000
 21
208.5000000000000
 31
0.0000000000000000
  0
MTEXT
  5
215
100
AcDbEntity
  8
MAIN0
  6
BYBLOCK
 62
0
100
AcDbMText
 10
157.9500000476837
 20
203.5000000000000
 30
0.0000000000000000
 40
3.099999904632568
 41
0.0000000000000000
 71
     5
 72
     1
  1
\A1;10
 11
6.123233995736766e-017
 21
1.000000000000000
 31
0.0000000000000000
  7
STANDARD
  0
ENDBLK
  5
216
100
AcDbEntity
  8
MAIN0
  6
CONTINUOUS
 62
3
100
AcDbBlockEnd
  0
BLOCK
  5
218
100
AcDbEntity
  8
MAIN0
  6
CONTINUOUS
 62
3
100
AcDbBlockBegin
  2
*D9
 70
    65
 10
0.0
 20
0.0
 30
0.0
  0
LINE
  5
219
100
AcDbEntity
  8
MAIN0
  6
BYBLOCK
 62
0
100
AcDbLine
 10
144.5000000119209
 20
208.5000000000000
 30
0.0000000000000000
 11
162.0000000000000
 21
208.5000000000000
 31
0.0000000000000000
  0
LINE
  5
21A
100
AcDbEntity
  8
MAIN0
  6
BYBLOCK
 62
0
100
AcDbLine
 10
160.0000000000000
 20
210.5000000000000
 30
0.0000000000000000
 11
160.0000000000000
 21
220.5000000000000
 31
0.0000000000000000
  0
INSERT
  5
21B
100
AcDbEntity
  8
MAIN0
  6
BYBLOCK
 62
0
100
AcDbBlockReference
  2
_OPEN
 10
160.0000000000000
 20
208.5000000000000
 30
0.0000000000000000
 41
2.000000000000000
 42
2.000000000000000
 43
2.000000000000000
 50
270.0000000000000
  0
INSERT
  5
21C
100
AcDbEntity
  8
MAIN0
  6
BYBLOCK
 62
0
100
AcDbBlockReference
  2
_OPEN
 10
160.0000000000000
 20
222.5000000000000
 30
0.0000000000000000
 41
2.000000000000000
 42
2.000000000000000
 43
2.000000000000000
 50
90.00000000000000
  0
LINE
  5
21D
100
AcDbEntity
  8
MAIN0
  6
BYBLOCK
 62
0
100
AcDbLine
 10
138.0000000119210
 20
222.5000000000000
 30
0.0000000000000000
 11
162.0000000000000
 21
222.5000000000000
 31
0.0000000000000000
  0
MTEXT
  5
21E
100
AcDbEntity
  8
MAIN0
  6
BYBLOCK
 62
0
100
AcDbMText
 10
157.9500000476837
 20
215.5000000000000
 30
0.0000000000000000
 40
3.099999904632568
 41
0.0000000000000000
 71
     5
 72
     1
  1
\A1;14
 11
6.123233995736766e-017
 21
1.000000000000000
 31
0.0000000000000000
  7
STANDARD
  0
ENDBLK
  5
21F
100
AcDbEntity
  8
MAIN0
  6
CONTINUOUS
 62
3
100
AcDbBlockEnd
  0
BLOCK
  5
221
100
AcDbEntity
  8
MAIN0
  6
CONTINUOUS
 62
3
100
AcDbBlockBegin
  2
*D10
 70
    65
 10
0.0
 20
0.0
 30
0.0
  0
LINE
  5
222
100
AcDbEntity
  8
MAIN0
  6
BYBLOCK
 62
0
100
AcDbLine
 10
150.5000000119209
 20
187.5000000000000
 30
0.0000000000000000
 11
172.0000000000000
 21
187.5000000000000
 31
0.0000000000000000
  0
LINE
  5
223
100
AcDbEntity
  8
MAIN0
  6
BYBLOCK
 62
0
100
AcDbLine
 10
170.0000000000000
 20
189.5000000000000
 30
0.0000000000000000
 11
170.0000000000000
 21
220.5000000000000
 31
0.0000000000000000
  0
INSERT
  5
224
100
AcDbEntity
  8
MAIN0
  6
BYBLOCK
 62
0
100
AcDbBlockReference
  2
_OPEN
 10
170.0000000000000
 20
187.5000000000000
 30
0.0000000000000000
 41
2.000000000000000
 42
2.000000000000000
 43
2.000000000000000
 50
270.0000000000000
  0
INSERT
  5
225
100
AcDbEntity
  8
MAIN0
  6
BYBLOCK
 62
0
100
AcDbBlockReference
  2
_OPEN
 10
170.0000000000000
 20
222.5000000000000
 30
0.0000000000000000
 41
2.000000000000000
 42
2.000000000000000
 43
2.000000000000000
 50
90.00000000000000
  0
LINE
  5
226
100
AcDbEntity
  8
MAIN0
  6
BYBLOCK
 62
0
100
AcDbLine
 10
138.0000000119210
 20
222.5000000000000
 30
0.0000000000000000
 11
172.0000000000000
 21
222.5000000000000
 31
0.0000000000000000
  0
MTEXT
  5
227
100
AcDbEntity
  8
MAIN0
  6
BYBLOCK
 62
0
100
AcDbMText
 10
167.9500000476837
 20
205.0000000000000
 30
0.0000000000000000
 40
3.099999904632568
 41
0.0000000000000000
 71
     5
 72
     1
  1
\A1;35
 11
6.123233995736766e-017
 21
1.000000000000000
 31
0.0000000000000000
  7
STANDARD
  0
ENDBLK
  5
228
100
AcDbEntity
  8
MAIN0
  6
CONTINUOUS
 62
3
100
AcDbBlockEnd
  0
BLOCK
  5
22A
100
AcDbEntity
  8
MAIN0
  6
CONTINUOUS
 62
3
100
AcDbBlockBegin
  2
*D11
 70
    65
 10
0.0
 20
0.0
 30
0.0
  0
LINE
  5
22B
100
AcDbEntity
  8
MAIN0
  6
BYBLOCK
 62
0
100
AcDbLine
 10
150.0000000000000
 20
199.0000000119209
 30
0.0000000000000000
 11
150.0000000000000
 21
204.5000000000000
 31
0.0000000000000000
  0
LINE
  5
22C
100
AcDbEntity
  8
MAIN0
  6
BYBLOCK
 62
0
100
AcDbLine
 10
148.0000000000000
 20
202.5000000000000
 30
0.0000000000000000
 11
146.0000000000000
 21
202.5000000000000
 31
0.0000000000000000
  0
INSERT
  5
22D
100
AcDbEntity
  8
MAIN0
  6
BYBLOCK
 62
0
100
AcDbBlockReference
  2
_OPEN
 10
150.0000000000000
 20
202.5000000000000
 30
0.0000000000000000
 41
2.000000000000000
 42
2.000000000000000
 43
2.000000000000000
 50
360.0000000000000
  0
INSERT
  5
22E
100
AcDbEntity
  8
MAIN0
  6
BYBLOCK
 62
0
100
AcDbBlockReference
  2
_OPEN
 10
144.0000000000000
 20
202.5000000000000
 30
0.0000000000000000
 41
2.000000000000000
 42
2.000000000000000
 43
2.000000000000000
 50
180.0000000000000
  0
MTEXT
  5
22F
100
AcDbEntity
  8
MAIN0
  6
BYBLOCK
 62
0
100
AcDbMText
 10
147.0000000000000
 20
204.5499999523163
 30
0.0000000000000000
 40
3.099999904632568
 41
0.0000000000000000
 71
     5
 72
     1
  1
\A1;6
 11
1.000000000000000
 21
0.0000000000000000
 31
0.0000000000000000
  7
STANDARD
  0
ENDBLK
  5
230
100
AcDbEntity
  8
MAIN0
  6
CONTINUOUS
 62
3
100
AcDbBlockEnd
  0
BLOCK
  5
232
100
AcDbEntity
  8
MAIN0
  6
CONTINUOUS
 62
3
100
AcDbBlockBegin
  2
*D12
 70
    65
 10
0.0
 20
0.0
 30
0.0
  0
LINE
  5
233
100
AcDbEntity
  8
MAIN0
  6
BYBLOCK
 62
0
100
AcDbLine
 10
140.0000000000000
 20
215.0000000000000
 30
0.0000000000000000
 11
142.0000000000000
 21
215.0000000000000
 31
0.0000000000000000
  0
INSERT
  5
234
100
AcDbEntity
  8
MAIN0
  6
BYBLOCK
 62
0
100
AcDbBlockReference
  2
_OPEN
 10
138.0000000000000
 20
215.0000000000000
 30
0.0000000000000000
 41
2.000000000000000
 42
2.000000000000000
 43
2.000000000000000
 50
180.0000000000000
  0
INSERT
  5
235
100
AcDbEntity
  8
MAIN0
  6
BYBLOCK
 62
0
100
AcDbBlockReference
  2
_OPEN
 10
144.0000000000000
 20
215.0000000000000
 30
0.0000000000000000
 41
2.000000000000000
 42
2.000000000000000
 43
2.000000000000000
 50
0.0000000000000000
  0
LINE
  5
236
100
AcDbEntity
  8
MAIN0
  6
BYBLOCK
 62
0
100
AcDbLine
 10
144.0000000000000
 20
209.0000000119209
 30
0.0000000000000000
 11
144.0000000000000
 21
217.0000000000000
 31
0.0000000000000000
  0
MTEXT
  5
237
100
AcDbEntity
  8
MAIN0
  6
BYBLOCK
 62
0
100
AcDbMText
 10
141.0000000000000
 20
217.0499999523163
 30
0.0000000000000000
 40
3.099999904632568
 41
0.0000000000000000
 71
     5
 72
     1
  1
\A1;6
 11
1.000000000000000
 21
0.0000000000000000
 31
0.0000000000000000
  7
STANDARD
  0
ENDBLK
  5
238
100
AcDbEntity
  8
MAIN0
  6
CONTINUOUS
 62
3
100
AcDbBlockEnd
  0
BLOCK
  5
23A
100
AcDbEntity
  8
MAIN0
  6
CONTINUOUS
 62
3
100
AcDbBlockBegin
  2
*D13
 70
    65
 10
0.0
 20
0.0
 30
0.0
  0
LINE
  5
23B
100
AcDbEntity
  8
MAIN0
  6
BYBLOCK
 62
0
100
AcDbLine
 10
150.3000000119209
 20
185.5000000000000
 30
0.0000000000000000
 11
162.0000000000000
 21
185.5000000000000
 31
0.0000000000000000
  0
LINE
  5
23C
100
AcDbEntity
  8
MAIN0
  6
BYBLOCK
 62
0
100
AcDbLine
 10
160.0000000000000
 20
183.5000000000000
 30
0.0000000000000000
 11
160.0000000000000
 21
176.5000000000000
 31
0.0000000000000000
  0
INSERT
  5
23D
100
AcDbEntity
  8
MAIN0
  6
BYBLOCK
 62
0
100
AcDbBlockReference
  2
_OPEN
 10
160.0000000000000
 20
185.5000000000000
 30
0.0000000000000000
 41
2.000000000000000
 42
2.000000000000000
 43
2.000000000000000
 50
90.00000000000000
  0
INSERT
  5
23E
100
AcDbEntity
  8
MAIN0
  6
BYBLOCK
 62
0
100
AcDbBlockReference
  2
_OPEN
 10
160.0000000000000
 20
174.5000000000000
 30
0.0000000000000000
 41
2.000000000000000
 42
2.000000000000000
 43
2.000000000000000
 50
270.0000000000000
  0
LINE
  5
23F
100
AcDbEntity
  8
MAIN0
  6
BYBLOCK
 62
0
100
AcDbLine
 10
150.3000000119209
 20
174.5000000000000
 30
0.0000000000000000
 11
162.0000000000000
 21
174.5000000000000
 31
0.0000000000000000
  0
MTEXT
  5
240
100
AcDbEntity
  8
MAIN0
  6
BYBLOCK
 62
0
100
AcDbMText
 10
157.9500000476837
 20
180.0000000000000
 30
0.0000000000000000
 40
3.099999904632568
 41
0.0000000000000000
 71
     5
 72
     1
  1
\A1;11
 11
6.123233995736766e-017
 21
1.000000000000000
 31
0.0000000000000000
  7
STANDARD
  0
ENDBLK
  5
241
100
AcDbEntity
  8
MAIN0
  6
CONTINUOUS
 62
3
100
AcDbBlockEnd
  0
BLOCK
  5
243
100
AcDbEntity
  8
MAIN0
  6
CONTINUOUS
 62
3
100
AcDbBlockBegin
  2
*D14
 70
    65
 10
0.0
 20
0.0
 30
0.0
  0
LINE
  5
244
100
AcDbEntity
  8
MAIN0
  6
BYBLOCK
 62
0
100
AcDbLine
 10
150.6000000119297
 20
137.4999999999966
 30
0.0000000000000000
 11
162.0000000000000
 21
137.4999999999966
 31
0.0000000000000000
  0
LINE
  5
245
100
AcDbEntity
  8
MAIN0
  6
BYBLOCK
 62
0
100
AcDbLine
 10
160.0000000000000
 20
139.4999999999966
 30
0.0000000000000000
 11
160.0000000000000
 21
144.5000000000295
 31
0.0000000000000000
  0
INSERT
  5
246
100
AcDbEntity
  8
MAIN0
  6
BYBLOCK
 62
0
100
AcDbBlockReference
  2
_OPEN
 10
160.0000000000000
 20
137.4999999999966
 30
0.0000000000000000
 41
2.000000000000000
 42
2.000000000000000
 43
2.000000000000000
 50
270.0000000000000
  0
INSERT
  5
247
100
AcDbEntity
  8
MAIN0
  6
BYBLOCK
 62
0
100
AcDbBlockReference
  2
_OPEN
 10
160.0000000000000
 20
146.5000000000295
 30
0.0000000000000000
 41
2.000000000000000
 42
2.000000000000000
 43
2.000000000000000
 50
90.00000000000000
  0
LINE
  5
248
100
AcDbEntity
  8
MAIN0
  6
BYBLOCK
 62
0
100
AcDbLine
 10
150.6000000119230
 20
146.5000000000295
 30
0.0000000000000000
 11
162.0000000000000
 21
146.5000000000295
 31
0.0000000000000000
  0
MTEXT
  5
249
100
AcDbEntity
  8
MAIN0
  6
BYBLOCK
 62
0
100
AcDbMText
 10
157.9500000476837
 20
142.0000000000131
 30
0.0000000000000000
 40
3.099999904632568
 41
0.0000000000000000
 71
     5
 72
     1
  1
\A1;9
 11
6.123233995736766e-017
 21
1.000000000000000
 31
0.0000000000000000
  7
STANDARD
  0
ENDBLK
  5
24A
100
AcDbEntity
  8
MAIN0
  6
CONTINUOUS
 62
3
100
AcDbBlockEnd
  0
BLOCK
  5
24C
100
AcDbEntity
  8
MAIN0
  6
CONTINUOUS
 62
3
100
AcDbBlockBegin
  2
*D15
 70
    65
 10
0.0
 20
0.0
 30
0.0
  0
LINE
  5
24D
100
AcDbEntity
  8
MAIN0
  6
BYBLOCK
 62
0
100
AcDbLine
 10
150.6000000119230
 20
146.5000000000295
 30
0.0000000000000000
 11
162.0000000000000
 21
146.5000000000295
 31
0.0000000000000000
  0
LINE
  5
24E
100
AcDbEntity
  8
MAIN0
  6
BYBLOCK
 62
0
100
AcDbLine
 10
160.0000000000000
 20
148.5000000000295
 30
0.0000000000000000
 11
160.0000000000000
 21
154.5000000000307
 31
0.0000000000000000
  0
INSERT
  5
24F
100
AcDbEntity
  8
MAIN0
  6
BYBLOCK
 62
0
100
AcDbBlockReference
  2
_OPEN
 10
160.0000000000000
 20
146.5000000000295
 30
0.0000000000000000
 41
2.000000000000000
 42
2.000000000000000
 43
2.000000000000000
 50
270.0000000000000
  0
INSERT
  5
250
100
AcDbEntity
  8
MAIN0
  6
BYBLOCK
 62
0
100
AcDbBlockReference
  2
_OPEN
 10
160.0000000000000
 20
156.5000000000307
 30
0.0000000000000000
 41
2.000000000000000
 42
2.000000000000000
 43
2.000000000000000
 50
90.00000000000000
  0
LINE
  5
251
100
AcDbEntity
  8
MAIN0
  6
BYBLOCK
 62
0
100
AcDbLine
 10
144.6000000119246
 20
156.5000000000307
 30
0.0000000000000000
 11
162.0000000000000
 21
156.5000000000307
 31
0.0000000000000000
  0
MTEXT
  5
252
100
AcDbEntity
  8
MAIN0
  6
BYBLOCK
 62
0
100
AcDbMText
 10
157.9500000476837
 20
151.5000000000301
 30
0.0000000000000000
 40
3.099999904632568
 41
0.0000000000000000
 71
     5
 72
     1
  1
\A1;10
 11
6.123233995736766e-017
 21
1.000000000000000
 31
0.0000000000000000
  7
STANDARD
  0
ENDBLK
  5
253
100
AcDbEntity
  8
MAIN0
  6
CONTINUOUS
 62
3
100
AcDbBlockEnd
  0
BLOCK
  5
255
100
AcDbEntity
  8
MAIN0
  6
CONTINUOUS
 62
3
100
AcDbBlockBegin
  2
*D16
 70
    65
 10
0.0
 20
0.0
 30
0.0
  0
LINE
  5
256
100
AcDbEntity
  8
MAIN0
  6
BYBLOCK
 62
0
100
AcDbLine
 10
144.6000000119246
 20
156.5000000000307
 30
0.0000000000000000
 11
162.0000000000000
 21
156.5000000000307
 31
0.0000000000000000
  0
LINE
  5
257
100
AcDbEntity
  8
MAIN0
  6
BYBLOCK
 62
0
100
AcDbLine
 10
160.0000000000000
 20
158.5000000000307
 30
0.0000000000000000
 11
160.0000000000000
 21
170.5000000000320
 31
0.0000000000000000
  0
INSERT
  5
258
100
AcDbEntity
  8
MAIN0
  6
BYBLOCK
 62
0
100
AcDbBlockReference
  2
_OPEN
 10
160.0000000000000
 20
156.5000000000307
 30
0.0000000000000000
 41
2.000000000000000
 42
2.000000000000000
 43
2.000000000000000
 50
270.0000000000000
  0
INSERT
  5
259
100
AcDbEntity
  8
MAIN0
  6
BYBLOCK
 62
0
100
AcDbBlockReference
  2
_OPEN
 10
160.0000000000000
 20
172.5000000000320
 30
0.0000000000000000
 41
2.000000000000000
 42
2.000000000000000
 43
2.000000000000000
 50
90.00000000000000
  0
LINE
  5
25A
100
AcDbEntity
  8
MAIN0
  6
BYBLOCK
 62
0
100
AcDbLine
 10
138.1000000119278
 20
172.5000000000320
 30
0.0000000000000000
 11
162.0000000000000
 21
172.5000000000320
 31
0.0000000000000000
  0
MTEXT
  5
25B
100
AcDbEntity
  8
MAIN0
  6
BYBLOCK
 62
0
100
AcDbMText
 10
157.9500000476837
 20
164.5000000000313
 30
0.0000000000000000
 40
3.099999904632568
 41
0.0000000000000000
 71
     5
 72
     1
  1
\A1;16
 11
6.123233995736766e-017
 21
1.000000000000000
 31
0.0000000000000000
  7
STANDARD
  0
ENDBLK
  5
25C
100
AcDbEntity
  8
MAIN0
  6
CONTINUOUS
 62
3
100
AcDbBlockEnd
  0
BLOCK
  5
25E
100
AcDbEntity
  8
MAIN0
  6
CONTINUOUS
 62
3
100
AcDbBlockBegin
  2
*D17
 70
    65
 10
0.0
 20
0.0
 30
0.0
  0
LINE
  5
25F
100
AcDbEntity
  8
MAIN0
  6
BYBLOCK
 62
0
100
AcDbLine
 10
89.19999998807907
 20
210.0000000000000
 30
0.0000000000000000
 11
68.00000000000000
 21
210.0000000000000
 31
0.0000000000000000
  0
LINE
  5
260
100
AcDbEntity
  8
MAIN0
  6
BYBLOCK
 62
0
100
AcDbLine
 10
70.00000000000000
 20
208.0000000000000
 30
0.0000000000000000
 11
70.00000000000000
 21
152.0000000000000
 31
0.0000000000000000
  0
INSERT
  5
261
100
AcDbEntity
  8
MAIN0
  6
BYBLOCK
 62
0
100
AcDbBlockReference
  2
_OPEN
 10
70.00000000000000
 20
210.0000000000000
 30
0.0000000000000000
 41
2.000000000000000
 42
2.000000000000000
 43
2.000000000000000
 50
90.00000000000000
  0
INSERT
  5
262
100
AcDbEntity
  8
MAIN0
  6
BYBLOCK
 62
0
100
AcDbBlockReference
  2
_OPEN
 10
70.00000000000000
 20
150.0000000000000
 30
0.0000000000000000
 41
2.000000000000000
 42
2.000000000000000
 43
2.000000000000000
 50
270.0000000000000
  0
LINE
  5
263
100
AcDbEntity
  8
MAIN0
  6
BYBLOCK
 62
0
100
AcDbLine
 10
89.19999998807907
 20
150.0000000000000
 30
0.0000000000000000
 11
68.00000000000000
 21
150.0000000000000
 31
0.0000000000000000
  0
MTEXT
  5
264
100
AcDbEntity
  8
MAIN0
  6
BYBLOCK
 62
0
100
AcDbMText
 10
67.95000004768372
 20
180.0000000763685
 30
0.0000000000000000
 40
3.099999904632568
 41
0.0000000000000000
 71
     5
 72
     1
  1
\A1;\U+220560H6\H0.903226x;\S＋0.019^ 　0;
 11
6.123233995736766e-017
 21
1.000000000000000
 31
0.0000000000000000
  7
KNJYOKO
  0
ENDBLK
  5
265
100
AcDbEntity
  8
MAIN0
  6
CONTINUOUS
 62
3
100
AcDbBlockEnd
  0
BLOCK
  5
267
100
AcDbEntity
  8
MAIN0
  6
CONTINUOUS
 62
3
100
AcDbBlockBegin
  2
*D18
 70
    65
 10
0.0
 20
0.0
 30
0.0
  0
LINE
  5
268
100
AcDbEntity
  8
MAIN0
  6
BYBLOCK
 62
0
100
AcDbLine
 10
90.19999998807907
 20
222.5000000000000
 30
0.0000000000000000
 11
58.00000000000000
 21
222.5000000000000
 31
0.0000000000000000
  0
LINE
  5
269
100
AcDbEntity
  8
MAIN0
  6
BYBLOCK
 62
0
100
AcDbLine
 10
60.00000000000000
 20
220.5000000000000
 30
0.0000000000000000
 11
60.00000000000000
 21
139.5000000000000
 31
0.0000000000000000
  0
INSERT
  5
26A
100
AcDbEntity
  8
MAIN0
  6
BYBLOCK
 62
0
100
AcDbBlockReference
  2
_OPEN
 10
60.00000000000000
 20
222.5000000000000
 30
0.0000000000000000
 41
2.000000000000000
 42
2.000000000000000
 43
2.000000000000000
 50
90.00000000000000
  0
INSERT
  5
26B
100
AcDbEntity
  8
MAIN0
  6
BYBLOCK
 62
0
100
AcDbBlockReference
  2
_OPEN
 10
60.00000000000000
 20
137.5000000000000
 30
0.0000000000000000
 41
2.000000000000000
 42
2.000000000000000
 43
2.000000000000000
 50
270.0000000000000
  0
LINE
  5
26C
100
AcDbEntity
  8
MAIN0
  6
BYBLOCK
 62
0
100
AcDbLine
 10
90.19999998807907
 20
137.5000000000000
 30
0.0000000000000000
 11
58.00000000000000
 21
137.5000000000000
 31
0.0000000000000000
  0
MTEXT
  5
26D
100
AcDbEntity
  8
MAIN0
  6
BYBLOCK
 62
0
100
AcDbMText
 10
57.95000004768372
 20
180.0000000000000
 30
0.0000000000000000
 40
3.099999904632568
 41
0.0000000000000000
 71
     5
 72
     1
  1
\A1;\U+220585
 11
6.123233995736766e-017
 21
1.000000000000000
 31
0.0000000000000000
  7
STANDARD
  0
ENDBLK
  5
26E
100
AcDbEntity
  8
MAIN0
  6
CONTINUOUS
 62
3
100
AcDbBlockEnd
  0
BLOCK
  5
270
100
AcDbEntity
  8
MAIN0
  6
CONTINUOUS
 62
3
100
AcDbBlockBegin
  2
*D19
 70
    65
 10
0.0
 20
0.0
 30
0.0
  0
LINE
  5
271
100
AcDbEntity
  8
MAIN0
  6
BYBLOCK
 62
0
100
AcDbLine
 10
90.00000000000000
 20
222.3000000119209
 30
0.0000000000000000
 11
90.00000000000000
 21
232.0000000000000
 31
0.0000000000000000
  0
LINE
  5
272
100
AcDbEntity
  8
MAIN0
  6
BYBLOCK
 62
0
100
AcDbLine
 10
92.00000000000000
 20
230.0000000000000
 30
0.0000000000000000
 11
101.0000000000000
 21
230.0000000000000
 31
0.0000000000000000
  0
INSERT
  5
273
100
AcDbEntity
  8
MAIN0
  6
BYBLOCK
 62
0
100
AcDbBlockReference
  2
_OPEN
 10
90.00000000000000
 20
230.0000000000000
 30
0.0000000000000000
 41
2.000000000000000
 42
2.000000000000000
 43
2.000000000000000
 50
180.0000000000000
  0
INSERT
  5
274
100
AcDbEntity
  8
MAIN0
  6
BYBLOCK
 62
0
100
AcDbBlockReference
  2
_OPEN
 10
103.0000000000000
 20
230.0000000000000
 30
0.0000000000000000
 41
2.000000000000000
 42
2.000000000000000
 43
2.000000000000000
 50
0.0000000000000000
  0
LINE
  5
275
100
AcDbEntity
  8
MAIN0
  6
BYBLOCK
 62
0
100
AcDbLine
 10
103.0000000000000
 20
220.3000000119209
 30
0.0000000000000000
 11
103.0000000000000
 21
232.0000000000000
 31
0.0000000000000000
  0
MTEXT
  5
276
100
AcDbEntity
  8
MAIN0
  6
BYBLOCK
 62
0
100
AcDbMText
 10
96.50000000000001
 20
232.0499999523163
 30
0.0000000000000000
 40
3.099999904632568
 41
0.0000000000000000
 71
     5
 72
     1
  1
\A1;13
 11
1.000000000000000
 21
0.0000000000000000
 31
0.0000000000000000
  7
STANDARD
  0
ENDBLK
  5
277
100
AcDbEntity
  8
MAIN0
  6
CONTINUOUS
 62
3
100
AcDbBlockEnd
  0
BLOCK
  5
27B
100
AcDbEntity
  8
MAIN0
  6
CONTINUOUS
 62
3
100
AcDbBlockBegin
  2
*D20
 70
    65
 10
0.0
 20
0.0
 30
0.0
  0
LINE
  5
27C
100
AcDbEntity
  8
MAIN0
  6
BYBLOCK
 62
0
100
AcDbLine
 10
96.00000000000000
 20
138.4099999880704
 30
0.0000000000000000
 11
96.00000000000000
 21
128.0000000000000
 31
0.0000000000000000
  0
LINE
  5
27D
100
AcDbEntity
  8
MAIN0
  6
BYBLOCK
 62
0
100
AcDbLine
 10
98.00000000000000
 20
130.0000000000000
 30
0.0000000000000000
 11
116.0000000000000
 21
130.0000000000000
 31
0.0000000000000000
  0
INSERT
  5
27E
100
AcDbEntity
  8
MAIN0
  6
BYBLOCK
 62
0
100
AcDbBlockReference
  2
_OPEN
 10
96.00000000000000
 20
130.0000000000000
 30
0.0000000000000000
 41
2.000000000000000
 42
2.000000000000000
 43
2.000000000000000
 50
180.0000000000000
  0
INSERT
  5
27F
100
AcDbEntity
  8
MAIN0
  6
BYBLOCK
 62
0
100
AcDbBlockReference
  2
_OPEN
 10
118.0000000000000
 20
130.0000000000000
 30
0.0000000000000000
 41
2.000000000000000
 42
2.000000000000000
 43
2.000000000000000
 50
0.0000000000000000
  0
LINE
  5
280
100
AcDbEntity
  8
MAIN0
  6
BYBLOCK
 62
0
100
AcDbLine
 10
118.0000000000000
 20
138.4099999880704
 30
0.0000000000000000
 11
118.0000000000000
 21
128.0000000000000
 31
0.0000000000000000
  0
MTEXT
  5
281
100
AcDbEntity
  8
MAIN0
  6
BYBLOCK
 62
0
100
AcDbMText
 10
107.0000000000000
 20
132.0499999523163
 30
0.0000000000000000
 40
3.099999904632568
 41
0.0000000000000000
 71
     5
 72
     1
  1
\A1;\U+220522
 11
1.000000000000000
 21
0.0000000000000000
 31
0.0000000000000000
  7
STANDARD
  0
ENDBLK
  5
282
100
AcDbEntity
  8
MAIN0
  6
CONTINUOUS
 62
3
100
AcDbBlockEnd
  0
BLOCK
  5
287
100
AcDbEntity
  8
MAIN0
  6
CONTINUOUS
 62
3
100
AcDbBlockBegin
  2
*D21
 70
    65
 10
0.0
 20
0.0
 30
0.0
  0
LINE
  5
288
100
AcDbEntity
  8
MAIN0
  6
BYBLOCK
 62
0
100
AcDbLine
 10
107.3089190005516
 20
89.74133353118144
 30
0.0000000000000000
 11
113.4393398282411
 21
83.61091270349209
 31
0.0000000000000000
  0
LINE
  5
289
100
AcDbEntity
  8
MAIN0
  6
BYBLOCK
 62
0
100
AcDbLine
 10
112.0251262658680
 20
85.02512626586518
 30
0.0000000000000000
 11
116.9748737341738
 21
89.97487373417100
 31
0.0000000000000000
  0
INSERT
  5
28A
100
AcDbEntity
  8
MAIN0
  6
BYBLOCK
 62
0
100
AcDbBlockReference
  2
_OPEN
 10
112.0251262658680
 20
85.02512626586518
 30
0.0000000000000000
 41
2.000000000000000
 42
2.000000000000000
 43
2.000000000000000
 50
45.00000000000008
  0
INSERT
  5
28B
100
AcDbEntity
  8
MAIN0
  6
BYBLOCK
 62
0
100
AcDbBlockReference
  2
_OPEN
 10
116.9748737341738
 20
89.97487373417100
 30
0.0000000000000000
 41
2.000000000000000
 42
2.000000000000000
 43
2.000000000000000
 50
225.0000000000001
  0
LINE
  5
28C
100
AcDbEntity
  8
MAIN0
  6
BYBLOCK
 62
0
100
AcDbLine
 10
110.6109127034949
 20
83.61091270349209
 30
0.0000000000000000
 11
109.9038059223083
 21
82.90380592230554
 31
0.0000000000000000
  0
LINE
  5
28D
100
AcDbEntity
  8
MAIN0
  6
BYBLOCK
 62
0
100
AcDbLine
 10
118.3890872965469
 20
91.38908729654409
 30
0.0000000000000000
 11
128.0431614714543
 21
101.0431614714516
 31
0.0000000000000000
  0
LINE
  5
28E
100
AcDbEntity
  8
MAIN0
  6
BYBLOCK
 62
0
100
AcDbLine
 10
112.2586664688110
 20
94.69108099953370
 30
0.0000000000000000
 11
118.3890872965469
 21
88.56066017179789
 31
0.0000000000000000
  0
MTEXT
  5
28F
100
AcDbEntity
  8
MAIN0
  6
BYBLOCK
 62
0
100
AcDbMText
 10
122.0504311441402
 20
97.94956887956739
 30
0.0000000000000000
 40
3.099999904632568
 41
0.0000000000000000
 71
     5
 72
     1
  1
\A1;□7\H0.903226x;\S+0.15^ +0.05;
 11
0.7071067811865460
 21
0.7071067811865491
 31
0.0000000000000000
  7
KNJYOKO
  0
ENDBLK
  5
290
100
AcDbEntity
  8
MAIN0
  6
CONTINUOUS
 62
3
100
AcDbBlockEnd
  0
BLOCK
  5
292
100
AcDbEntity
  8
MAIN0
  6
CONTINUOUS
 62
3
100
AcDbBlockBegin
  2
*D22
 70
    65
 10
0.0
 20
0.0
 30
0.0
  0
LINE
  5
293
100
AcDbEntity
  8
MAIN0
  6
BYBLOCK
 62
0
100
AcDbLine
 10
146.0000000000036
 20
150.0000000000000
 30
0.0000000000000000
 11
148.0000000000019
 21
150.0000000000000
 31
0.0000000000000000
  0
INSERT
  5
294
100
AcDbEntity
  8
MAIN0
  6
BYBLOCK
 62
0
100
AcDbBlockReference
  2
_OPEN
 10
144.0000000000036
 20
150.0000000000000
 30
0.0000000000000000
 41
2.000000000000000
 42
2.000000000000000
 43
2.000000000000000
 50
180.0000000000000
  0
INSERT
  5
295
100
AcDbEntity
  8
MAIN0
  6
BYBLOCK
 62
0
100
AcDbBlockReference
  2
_OPEN
 10
150.0000000000019
 20
150.0000000000000
 30
0.0000000000000000
 41
2.000000000000000
 42
2.000000000000000
 43
2.000000000000000
 50
0.0000000000000000
  0
LINE
  5
296
100
AcDbEntity
  8
MAIN0
  6
BYBLOCK
 62
0
100
AcDbLine
 10
150.0000000000019
 20
147.1000000119504
 30
0.0000000000000000
 11
150.0000000000019
 21
152.0000000000000
 31
0.0000000000000000
  0
MTEXT
  5
297
100
AcDbEntity
  8
MAIN0
  6
BYBLOCK
 62
0
100
AcDbMText
 10
147.0000000000028
 20
152.0499999523163
 30
0.0000000000000000
 40
3.099999904632568
 41
0.0000000000000000
 71
     5
 72
     1
  1
\A1;6
 11
1.000000000000000
 21
0.0000000000000000
 31
0.0000000000000000
  7
STANDARD
  0
ENDBLK
  5
298
100
AcDbEntity
  8
MAIN0
  6
CONTINUOUS
 62
3
100
AcDbBlockEnd
  0
BLOCK
  5
29A
100
AcDbEntity
  8
MAIN0
  6
CONTINUOUS
 62
3
100
AcDbBlockBegin
  2
*D23
 70
    65
 10
0.0
 20
0.0
 30
0.0
  0
LINE
  5
29B
100
AcDbEntity
  8
MAIN0
  6
BYBLOCK
 62
0
100
AcDbLine
 10
140.0000000000039
 20
162.5000000000000
 30
0.0000000000000000
 11
142.0000000000036
 21
162.5000000000000
 31
0.0000000000000000
  0
INSERT
  5
29C
100
AcDbEntity
  8
MAIN0
  6
BYBLOCK
 62
0
100
AcDbBlockReference
  2
_OPEN
 10
138.0000000000039
 20
162.5000000000000
 30
0.0000000000000000
 41
2.000000000000000
 42
2.000000000000000
 43
2.000000000000000
 50
180.0000000000000
  0
INSERT
  5
29D
100
AcDbEntity
  8
MAIN0
  6
BYBLOCK
 62
0
100
AcDbBlockReference
  2
_OPEN
 10
144.0000000000036
 20
162.5000000000000
 30
0.0000000000000000
 41
2.000000000000000
 42
2.000000000000000
 43
2.000000000000000
 50
0.0000000000000000
  0
LINE
  5
29E
100
AcDbEntity
  8
MAIN0
  6
BYBLOCK
 62
0
100
AcDbLine
 10
144.0000000000036
 20
157.1000000119516
 30
0.0000000000000000
 11
144.0000000000036
 21
164.5000000000000
 31
0.0000000000000000
  0
MTEXT
  5
29F
100
AcDbEntity
  8
MAIN0
  6
BYBLOCK
 62
0
100
AcDbMText
 10
141.0000000000038
 20
164.5499999523163
 30
0.0000000000000000
 40
3.099999904632568
 41
0.0000000000000000
 71
     5
 72
     1
  1
\A1;6
 11
1.000000000000000
 21
0.0000000000000000
 31
0.0000000000000000
  7
STANDARD
  0
ENDBLK
  5
2A0
100
AcDbEntity
  8
MAIN0
  6
CONTINUOUS
 62
3
100
AcDbBlockEnd
  0
BLOCK
  5
2C7
100
AcDbEntity
  8
MAIN0
  6
CONTINUOUS
 62
3
100
AcDbBlockBegin
  2
*D24
 70
    65
 10
0.0
 20
0.0
 30
0.0
  0
LINE
  5
2C8
100
AcDbEntity
  8
MAIN0
  6
BYBLOCK
 62
0
100
AcDbLine
 10
347.3000000119209
 20
241.9999999999651
 30
0.0000000000000000
 11
362.0000000000000
 21
241.9999999999643
 31
0.0000000000000000
  0
LINE
  5
2C9
100
AcDbEntity
  8
MAIN0
  6
BYBLOCK
 62
0
100
AcDbLine
 10
360.0000000000000
 20
239.9999999999644
 30
0.0000000000000000
 11
360.0000000000000
 21
178.9999999999984
 31
0.0000000000000000
  0
INSERT
  5
2CA
100
AcDbEntity
  8
MAIN0
  6
BYBLOCK
 62
0
100
AcDbBlockReference
  2
_OPEN
 10
360.0000000000000
 20
241.9999999999644
 30
0.0000000000000000
 41
2.000000000000000
 42
2.000000000000000
 43
2.000000000000000
 50
90.00000000000000
  0
INSERT
  5
2CB
100
AcDbEntity
  8
MAIN0
  6
BYBLOCK
 62
0
100
AcDbBlockReference
  2
_OPEN
 10
360.0000000000000
 20
176.9999999999984
 30
0.0000000000000000
 41
2.000000000000000
 42
2.000000000000000
 43
2.000000000000000
 50
270.0000000000000
  0
LINE
  5
2CC
100
AcDbEntity
  8
MAIN0
  6
BYBLOCK
 62
0
100
AcDbLine
 10
345.0000000119209
 20
176.9999999999984
 30
0.0000000000000000
 11
362.0000000000000
 21
176.9999999999984
 31
0.0000000000000000
  0
MTEXT
  5
2CD
100
AcDbEntity
  8
MAIN0
  6
BYBLOCK
 62
0
100
AcDbMText
 10
357.9500000476837
 20
209.4999999999814
 30
0.0000000000000000
 40
3.099999904632568
 41
0.0000000000000000
 71
     5
 72
     1
  1
\A1;65
 11
6.123233995736766e-017
 21
1.000000000000000
 31
0.0000000000000000
  7
STANDARD
  0
ENDBLK
  5
2CE
100
AcDbEntity
  8
MAIN0
  6
CONTINUOUS
 62
3
100
AcDbBlockEnd
  0
BLOCK
  5
2DE
100
AcDbEntity
  8
MAIN0
  6
CONTINUOUS
 62
3
100
AcDbBlockBegin
  2
*D25
 70
    65
 10
0.0
 20
0.0
 30
0.0
  0
LINE
  5
2DF
100
AcDbEntity
  8
MAIN0
  6
BYBLOCK
 62
0
100
AcDbLine
 10
93.69999998807907
 20
188.0000000000000
 30
0.0000000000000000
 11
78.00000000000000
 21
188.0000000000000
 31
0.0000000000000000
  0
LINE
  5
2E0
100
AcDbEntity
  8
MAIN0
  6
BYBLOCK
 62
0
100
AcDbLine
 10
80.00000000000000
 20
186.0000000000000
 30
0.0000000000000000
 11
80.00000000000000
 21
174.0000000000000
 31
0.0000000000000000
  0
INSERT
  5
2E1
100
AcDbEntity
  8
MAIN0
  6
BYBLOCK
 62
0
100
AcDbBlockReference
  2
_OPEN
 10
80.00000000000000
 20
188.0000000000000
 30
0.0000000000000000
 41
2.000000000000000
 42
2.000000000000000
 43
2.000000000000000
 50
90.00000000000000
  0
INSERT
  5
2E2
100
AcDbEntity
  8
MAIN0
  6
BYBLOCK
 62
0
100
AcDbBlockReference
  2
_OPEN
 10
80.00000000000000
 20
172.0000000000000
 30
0.0000000000000000
 41
2.000000000000000
 42
2.000000000000000
 43
2.000000000000000
 50
270.0000000000000
  0
LINE
  5
2E3
100
AcDbEntity
  8
MAIN0
  6
BYBLOCK
 62
0
100
AcDbLine
 10
93.69999998807907
 20
172.0000000000000
 30
0.0000000000000000
 11
78.00000000000000
 21
172.0000000000000
 31
0.0000000000000000
  0
MTEXT
  5
2E4
100
AcDbEntity
  8
MAIN0
  6
BYBLOCK
 62
0
100
AcDbMText
 10
77.95000004768372
 20
180.0000000000000
 30
0.0000000000000000
 40
3.099999904632568
 41
0.0000000000000000
 71
     5
 72
     1
  1
\A1;\U+220516
 11
6.123233995736766e-017
 21
1.000000000000000
 31
0.0000000000000000
  7
STANDARD
  0
ENDBLK
  5
2E5
100
AcDbEntity
  8
MAIN0
  6
CONTINUOUS
 62
3
100
AcDbBlockEnd
  0
BLOCK
  5
2E7
100
AcDbEntity
  8
MAIN0
  6
CONTINUOUS
 62
3
100
AcDbBlockBegin
  2
*D26
 70
    65
 10
0.0
 20
0.0
 30
0.0
  0
LINE
  5
2E8
100
AcDbEntity
  8
MAIN0
  6
BYBLOCK
 62
0
100
AcDbLine
 10
150.0000000000000
 20
199.0000000119209
 30
0.0000000000000000
 11
150.0000000000000
 21
232.0000000000000
 31
0.0000000000000000
  0
LINE
  5
2E9
100
AcDbEntity
  8
MAIN0
  6
BYBLOCK
 62
0
100
AcDbLine
 10
148.0000000000000
 20
230.0000000000000
 30
0.0000000000000000
 11
137.0000000000000
 21
230.0000000000000
 31
0.0000000000000000
  0
INSERT
  5
2EA
100
AcDbEntity
  8
MAIN0
  6
BYBLOCK
 62
0
100
AcDbBlockReference
  2
_OPEN
 10
150.0000000000000
 20
230.0000000000000
 30
0.0000000000000000
 41
2.000000000000000
 42
2.000000000000000
 43
2.000000000000000
 50
360.0000000000000
  0
INSERT
  5
2EB
100
AcDbEntity
  8
MAIN0
  6
BYBLOCK
 62
0
100
AcDbBlockReference
  2
_OPEN
 10
135.0000000000000
 20
230.0000000000000
 30
0.0000000000000000
 41
2.000000000000000
 42
2.000000000000000
 43
2.000000000000000
 50
180.0000000000000
  0
LINE
  5
2EC
100
AcDbEntity
  8
MAIN0
  6
BYBLOCK
 62
0
100
AcDbLine
 10
135.0000000000000
 20
222.3000000119209
 30
0.0000000000000000
 11
135.0000000000000
 21
232.0000000000000
 31
0.0000000000000000
  0
MTEXT
  5
2ED
100
AcDbEntity
  8
MAIN0
  6
BYBLOCK
 62
0
100
AcDbMText
 10
142.5000000000000
 20
232.0499999523163
 30
0.0000000000000000
 40
3.099999904632568
 41
0.0000000000000000
 71
     5
 72
     1
  1
\A1;15
 11
1.000000000000000
 21
0.0000000000000000
 31
0.0000000000000000
  7
STANDARD
  0
ENDBLK
  5
2EE
100
AcDbEntity
  8
MAIN0
  6
CONTINUOUS
 62
3
100
AcDbBlockEnd
  0
BLOCK
  5
2F0
100
AcDbEntity
  8
MAIN0
  6
CONTINUOUS
 62
3
100
AcDbBlockBegin
  2
*D27
 70
    65
 10
0.0
 20
0.0
 30
0.0
  0
LINE
  5
2F1
100
AcDbEntity
  8
MAIN0
  6
BYBLOCK
 62
0
100
AcDbLine
 10
135.0000000000000
 20
137.6999999880791
 30
0.0000000000000000
 11
135.0000000000000
 21
118.0000000000000
 31
0.0000000000000000
  0
LINE
  5
2F2
100
AcDbEntity
  8
MAIN0
  6
BYBLOCK
 62
0
100
AcDbLine
 10
133.0000000000000
 20
120.0000000000000
 30
0.0000000000000000
 11
109.0000000000000
 21
120.0000000000000
 31
0.0000000000000000
  0
INSERT
  5
2F3
100
AcDbEntity
  8
MAIN0
  6
BYBLOCK
 62
0
100
AcDbBlockReference
  2
_OPEN
 10
135.0000000000000
 20
120.0000000000000
 30
0.0000000000000000
 41
2.000000000000000
 42
2.000000000000000
 43
2.000000000000000
 50
360.0000000000000
  0
INSERT
  5
2F4
100
AcDbEntity
  8
MAIN0
  6
BYBLOCK
 62
0
100
AcDbBlockReference
  2
_OPEN
 10
107.0000000000000
 20
120.0000000000000
 30
0.0000000000000000
 41
2.000000000000000
 42
2.000000000000000
 43
2.000000000000000
 50
180.0000000000000
  0
LINE
  5
2F5
100
AcDbEntity
  8
MAIN0
  6
BYBLOCK
 62
0
100
AcDbLine
 10
107.0000000000000
 20
134.1999999880791
 30
0.0000000000000000
 11
107.0000000000000
 21
118.0000000000000
 31
0.0000000000000000
  0
MTEXT
  5
2F6
100
AcDbEntity
  8
MAIN0
  6
BYBLOCK
 62
0
100
AcDbMText
 10
121.0000000000000
 20
122.0499999523163
 30
0.0000000000000000
 40
3.099999904632568
 41
0.0000000000000000
 71
     5
 72
     1
  1
\A1;28
 11
1.000000000000000
 21
0.0000000000000000
 31
0.0000000000000000
  7
STANDARD
  0
ENDBLK
  5
2F7
100
AcDbEntity
  8
MAIN0
  6
CONTINUOUS
 62
3
100
AcDbBlockEnd
  0
BLOCK
  5
2F9
100
AcDbEntity
  8
MAIN0
  6
CONTINUOUS
 62
3
100
AcDbBlockBegin
  2
*D28
 70
    65
 10
0.0
 20
0.0
 30
0.0
  0
LINE
  5
2FA
100
AcDbEntity
  8
MAIN0
  6
BYBLOCK
 62
0
100
AcDbLine
 10
107.0000000000000
 20
134.1999999880791
 30
0.0000000000000000
 11
107.0000000000000
 21
118.0000000000000
 31
0.0000000000000000
  0
LINE
  5
2FB
100
AcDbEntity
  8
MAIN0
  6
BYBLOCK
 62
0
100
AcDbLine
 10
105.0000000000000
 20
120.0000000000000
 30
0.0000000000000000
 11
92.00000000000000
 21
120.0000000000000
 31
0.0000000000000000
  0
INSERT
  5
2FC
100
AcDbEntity
  8
MAIN0
  6
BYBLOCK
 62
0
100
AcDbBlockReference
  2
_OPEN
 10
107.0000000000000
 20
120.0000000000000
 30
0.0000000000000000
 41
2.000000000000000
 42
2.000000000000000
 43
2.000000000000000
 50
360.0000000000000
  0
INSERT
  5
2FD
100
AcDbEntity
  8
MAIN0
  6
BYBLOCK
 62
0
100
AcDbBlockReference
  2
_OPEN
 10
90.00000000000000
 20
120.0000000000000
 30
0.0000000000000000
 41
2.000000000000000
 42
2.000000000000000
 43
2.000000000000000
 50
180.0000000000000
  0
LINE
  5
2FE
100
AcDbEntity
  8
MAIN0
  6
BYBLOCK
 62
0
100
AcDbLine
 10
90.00000000000000
 20
137.6999999880791
 30
0.0000000000000000
 11
90.00000000000000
 21
118.0000000000000
 31
0.0000000000000000
  0
MTEXT
  5
2FF
100
AcDbEntity
  8
MAIN0
  6
BYBLOCK
 62
0
100
AcDbMText
 10
98.50000000000000
 20
122.0499999523163
 30
0.0000000000000000
 40
3.099999904632568
 41
0.0000000000000000
 71
     5
 72
     1
  1
\A1;17
 11
1.000000000000000
 21
0.0000000000000000
 31
0.0000000000000000
  7
STANDARD
  0
ENDBLK
  5
300
100
AcDbEntity
  8
MAIN0
  6
CONTINUOUS
 62
3
100
AcDbBlockEnd
  0
BLOCK
  5
302
100
AcDbEntity
  8
MAIN0
  6
CONTINUOUS
 62
3
100
AcDbBlockBegin
  2
*D29
 70
    65
 10
0.0
 20
0.0
 30
0.0
  0
LINE
  5
303
100
AcDbEntity
  8
MAIN0
  6
BYBLOCK
 62
0
100
AcDbLine
 10
90.00000000000000
 20
137.6999999880791
 30
0.0000000000000000
 11
90.00000000000000
 21
108.0000000000000
 31
0.0000000000000000
  0
LINE
  5
304
100
AcDbEntity
  8
MAIN0
  6
BYBLOCK
 62
0
100
AcDbLine
 10
92.00000000000000
 20
110.0000000000000
 30
0.0000000000000000
 11
133.0000000000000
 21
110.0000000000000
 31
0.0000000000000000
  0
INSERT
  5
305
100
AcDbEntity
  8
MAIN0
  6
BYBLOCK
 62
0
100
AcDbBlockReference
  2
_OPEN
 10
90.00000000000000
 20
110.0000000000000
 30
0.0000000000000000
 41
2.000000000000000
 42
2.000000000000000
 43
2.000000000000000
 50
180.0000000000000
  0
INSERT
  5
306
100
AcDbEntity
  8
MAIN0
  6
BYBLOCK
 62
0
100
AcDbBlockReference
  2
_OPEN
 10
135.0000000000000
 20
110.0000000000000
 30
0.0000000000000000
 41
2.000000000000000
 42
2.000000000000000
 43
2.000000000000000
 50
0.0000000000000000
  0
LINE
  5
307
100
AcDbEntity
  8
MAIN0
  6
BYBLOCK
 62
0
100
AcDbLine
 10
135.0000000000000
 20
137.6999999880791
 30
0.0000000000000000
 11
135.0000000000000
 21
108.0000000000000
 31
0.0000000000000000
  0
MTEXT
  5
308
100
AcDbEntity
  8
MAIN0
  6
BYBLOCK
 62
0
100
AcDbMText
 10
112.5000000000000
 20
112.0499999523163
 30
0.0000000000000000
 40
3.099999904632568
 41
0.0000000000000000
 71
     5
 72
     1
  1
\A1;45
 11
1.000000000000000
 21
0.0000000000000000
 31
0.0000000000000000
  7
STANDARD
  0
ENDBLK
  5
309
100
AcDbEntity
  8
MAIN0
  6
CONTINUOUS
 62
3
100
AcDbBlockEnd
  0
BLOCK
  5
30D
100
AcDbEntity
  8
MAIN0
  6
CONTINUOUS
 62
3
100
AcDbBlockBegin
  2
*D30
 70
    65
 10
0.0
 20
0.0
 30
0.0
  0
LINE
  5
30E
100
AcDbEntity
  8
MAIN0
  6
BYBLOCK
 62
0
100
AcDbLine
 10
332.6999999880791
 20
241.9999999999677
 30
0.0000000000000000
 11
323.0000000000000
 21
241.9999999999677
 31
0.0000000000000000
  0
LINE
  5
30F
100
AcDbEntity
  8
MAIN0
  6
BYBLOCK
 62
0
100
AcDbLine
 10
325.0000000000000
 20
239.9999999999677
 30
0.0000000000000000
 11
325.0000000000000
 21
232.0000000000114
 31
0.0000000000000000
  0
INSERT
  5
310
100
AcDbEntity
  8
MAIN0
  6
BYBLOCK
 62
0
100
AcDbBlockReference
  2
_OPEN
 10
325.0000000000000
 20
241.9999999999677
 30
0.0000000000000000
 41
2.000000000000000
 42
2.000000000000000
 43
2.000000000000000
 50
90.00000000000000
  0
INSERT
  5
311
100
AcDbEntity
  8
MAIN0
  6
BYBLOCK
 62
0
100
AcDbBlockReference
  2
_OPEN
 10
325.0000000000000
 20
230.0000000000114
 30
0.0000000000000000
 41
2.000000000000000
 42
2.000000000000000
 43
2.000000000000000
 50
270.0000000000000
  0
MTEXT
  5
312
100
AcDbEntity
  8
MAIN0
  6
BYBLOCK
 62
0
100
AcDbMText
 10
322.9500000476837
 20
237.5000000000000
 30
0.0000000000000000
 40
3.099999904632568
 41
0.0000000000000000
 71
     5
 72
     1
  1
\A1;12
 11
6.123233995736766e-017
 21
1.000000000000000
 31
0.0000000000000000
  7
STANDARD
  0
ENDBLK
  5
313
100
AcDbEntity
  8
MAIN0
  6
CONTINUOUS
 62
3
100
AcDbBlockEnd
  0
BLOCK
  5
390
100
AcDbEntity
  8
WAKU0
  6
BYBLOCK
 62
12
100
AcDbBlockBegin
  2
M0
 70
    64
 10
0.0
 20
0.0
 30
0.0
  0
LINE
  5
391
100
AcDbEntity
  8
WAKU0
  6
BYBLOCK
 62
0
100
AcDbLine
 10
48.00000000000011
 20
12.00000000000004
 30
0.0000000000000000
 11
48.00000000000011
 21
46.99999999999987
 31
0.0000000000000000
  0
LINE
  5
392
100
AcDbEntity
  8
WAKU0
  6
BYBLOCK
 62
0
100
AcDbLine
 10
58.00000000000011
 20
12.00000000000004
 30
0.0000000000000000
 11
58.00000000000011
 21
46.99999999999987
 31
0.0000000000000000
  0
LINE
  5
393
100
AcDbEntity
  8
WAKU0
  6
BYBLOCK
 62
0
100
AcDbLine
 10
20.00000000000068
 20
35.99999999999645
 30
0.0000000000000000
 11
68.00000000000011
 21
35.99999999999639
 31
0.0000000000000000
  0
LINE
  5
394
100
AcDbEntity
  8
WAKU0
  6
BYBLOCK
 62
0
100
AcDbLine
 10
20.00000000000011
 20
28.00000000000003
 30
0.0000000000000000
 11
68.00000000000011
 21
28.00000000000003
 31
0.0000000000000000
  0
LINE
  5
395
100
AcDbEntity
  8
WAKU0
  6
BYBLOCK
 62
0
100
AcDbLine
 10
20.00000000000011
 20
32.00000000000003
 30
0.0000000000000000
 11
68.00000000000011
 21
32.00000000000003
 31
0.0000000000000000
  0
LINE
  5
396
100
AcDbEntity
  8
WAKU0
  6
BYBLOCK
 62
0
100
AcDbLine
 10
20.00000000000011
 20
24.00000000000004
 30
0.0000000000000000
 11
68.00000000000011
 21
24.00000000000004
 31
0.0000000000000000
  0
LINE
  5
397
100
AcDbEntity
  8
WAKU0
  6
BYBLOCK
 62
0
100
AcDbLine
 10
20.00000000000011
 20
20.00000000000004
 30
0.0000000000000000
 11
68.00000000000011
 21
20.00000000000004
 31
0.0000000000000000
  0
LINE
  5
398
100
AcDbEntity
  8
WAKU0
  6
BYBLOCK
 62
0
100
AcDbLine
 10
20.00000000000011
 20
16.00000000000003
 30
0.0000000000000000
 11
68.00000000000011
 21
16.00000000000003
 31
0.0000000000000000
  0
LINE
  5
399
100
AcDbEntity
  8
WAKU0
  6
BYBLOCK
 62
0
100
AcDbLine
 10
20.00000000000011
 20
46.99999999999645
 30
0.0000000000000000
 11
68.00000000000011
 21
46.99999999999639
 31
0.0000000000000000
  0
LINE
  5
39A
100
AcDbEntity
  8
WAKU0
  6
BYBLOCK
 62
0
100
AcDbLine
 10
20.00000000000000
 20
12.00000000000000
 30
0.0000000000000000
 11
68.00000000000000
 21
11.99999999999994
 31
0.0000000000000000
  0
LINE
  5
39B
100
AcDbEntity
  8
WAKU0
  6
BYBLOCK
 62
0
100
AcDbLine
 10
20.00000000000011
 20
39.99999999999645
 30
0.0000000000000000
 11
68.00000000000011
 21
39.99999999999639
 31
0.0000000000000000
  0
LINE
  5
39C
100
AcDbEntity
  8
WAKU0
  6
BYBLOCK
 62
0
100
AcDbLine
 10
68.00000000000023
 20
51.49999999999623
 30
0.0000000000000000
 11
68.00000000000023
 21
12.00000000000004
 31
0.0000000000000000
  0
LINE
  5
39D
100
AcDbEntity
  8
WAKU0
  6
BYBLOCK
 62
0
100
AcDbLine
 10
38.00000000000011
 20
12.00000000000004
 30
0.0000000000000000
 11
38.00000000000011
 21
46.99999999999987
 31
0.0000000000000000
  0
MTEXT
  5
39E
100
AcDbEntity
  8
WAKU0
  6
BYBLOCK
 62
0
100
AcDbMText
 10
21.00000000000012
 20
50.60000019073401
 30
0.0000000000000000
 40
2.800000190734863
 41
0.0000000000000000
 71
     1
 72
     1
  1
{\H0.94x;図面に記入のない寸法の一般公差}
 11
1.000000000000000
 21
0.0000000000000000
 31
0.0000000000000000
  7
KNJYOKO
  0
MTEXT
  5
39F
100
AcDbEntity
  8
WAKU0
  6
BYBLOCK
 62
0
100
AcDbMText
 10
20.75637692307277
 20
44.73045080765574
 30
0.0000000000000000
 40
2.399999618530273
 41
0.0000000000000000
 71
     1
 72
     1
  1
{\H0.81x;寸法区分　ｍｍ}
 11
1.000000000000000
 21
0.0000000000000000
 31
0.0000000000000000
  7
KNJYOKO
  0
MTEXT
  5
3A0
100
AcDbEntity
  8
WAKU0
  6
BYBLOCK
 62
0
100
AcDbMText
 10
38.50000000000012
 20
45.89999961852651
 30
0.0000000000000000
 40
2.399999618530273
 41
0.0000000000000000
 71
     1
 72
     1
  1
{\H0.79x;切削加工}
 11
1.000000000000000
 21
0.0000000000000000
 31
0.0000000000000000
  7
KNJYOKO
  0
MTEXT
  5
3A1
100
AcDbEntity
  8
WAKU0
  6
BYBLOCK
 62
0
100
AcDbMText
 10
38.13952891354615
 20
43.10717836860918
 30
0.0000000000000000
 40
2.399999618530273
 41
0.0000000000000000
 71
     1
 72
     1
  1
{\H0.79x;穴明中心}
 11
1.000000000000000
 21
0.0000000000000000
 31
0.0000000000000000
  7
KNJYOKO
  0
MTEXT
  5
3A2
100
AcDbEntity
  8
WAKU0
  6
BYBLOCK
 62
0
100
AcDbMText
 10
48.50000000000012
 20
45.89999961852651
 30
0.0000000000000000
 40
2.399999618530273
 41
0.0000000000000000
 71
     1
 72
     1
  1
{\H0.79x;板金加工}
 11
1.000000000000000
 21
0.0000000000000000
 31
0.0000000000000000
  7
KNJYOKO
  0
MTEXT
  5
3A3
100
AcDbEntity
  8
WAKU0
  6
BYBLOCK
 62
0
100
AcDbMText
 10
48.45325193492426
 20
43.07314937144825
 30
0.0000000000000000
 40
2.399999618530273
 41
0.0000000000000000
 71
     1
 72
     1
  1
{\H0.79x;製缶加工}
 11
1.000000000000000
 21
0.0000000000000000
 31
0.0000000000000000
  7
KNJYOKO
  0
MTEXT
  5
3A4
100
AcDbEntity
  8
WAKU0
  6
BYBLOCK
 62
0
100
AcDbMText
 10
59.00000000000012
 20
45.89999961852651
 30
0.0000000000000000
 40
2.399999618530273
 41
0.0000000000000000
 71
     1
 72
     1
  1
{\H0.78x;鋳鉄鋼}
 11
1.000000000000000
 21
0.0000000000000000
 31
0.0000000000000000
  7
KNJYOKO
  0
MTEXT
  5
3A5
100
AcDbEntity
  8
WAKU0
  6
BYBLOCK
 62
0
100
AcDbMText
 10
58.96061689485686
 20
43.37948316114112
 30
0.0000000000000000
 40
2.399999618530273
 41
0.0000000000000000
 71
     1
 72
     1
  1
{\H0.78x;鍛造品}
 11
1.000000000000000
 21
0.0000000000000000
 31
0.0000000000000000
  7
KNJYOKO
  0
MTEXT
  5
3A6
100
AcDbEntity
  8
WAKU0
  6
BYBLOCK
 62
0
100
AcDbMText
 10
21.00000000000006
 20
38.49999999999987
 30
0.0000000000000000
 40
2.000000000000000
 41
0.0000000000000000
 71
     1
 72
     1
  1
{\H0.93x;１以上　４以下}
 11
1.000000000000000
 21
0.0000000000000000
 31
0.0000000000000000
  7
KNJYOKO
  0
MTEXT
  5
3A7
100
AcDbEntity
  8
WAKU0
  6
BYBLOCK
 62
0
100
AcDbMText
 10
21.00000000000006
 20
34.49999999999987
 30
0.0000000000000000
 40
2.000000000000000
 41
0.0000000000000000
 71
     1
 72
     1
  1
{\H0.93x;４を越え１６〃}
 11
1.000000000000000
 21
0.0000000000000000
 31
0.0000000000000000
  7
KNJYOKO
  0
MTEXT
  5
3A8
100
AcDbEntity
  8
WAKU0
  6
BYBLOCK
 62
0
100
AcDbMText
 10
20.50000000000006
 20
22.50000000000001
 30
0.0000000000000000
 40
2.000000000000000
 41
0.0000000000000000
 71
     1
 72
     1
  1
{\H0.53x;２５０　 〃 １０００ 〃　}
 11
1.000000000000000
 21
0.0000000000000000
 31
0.0000000000000000
  7
KNJYOKO
  0
MTEXT
  5
3A9
100
AcDbEntity
  8
WAKU0
  6
BYBLOCK
 62
0
100
AcDbMText
 10
20.50000000000006
 20
18.50000000000001
 30
0.0000000000000000
 40
2.000000000000000
 41
0.0000000000000000
 71
     1
 72
     1
  1
{\H0.53x;１０００ 〃 ２０００ 〃　}
 11
1.000000000000000
 21
0.0000000000000000
 31
0.0000000000000000
  7
KNJYOKO
  0
MTEXT
  5
3AA
100
AcDbEntity
  8
WAKU0
  6
BYBLOCK
 62
0
100
AcDbMText
 10
20.50000000000006
 20
14.50000000000001
 30
0.0000000000000000
 40
2.000000000000000
 41
0.0000000000000000
 71
     1
 72
     1
  1
{\H0.53x;２０００ 〃 ５０００ 〃}
 11
1.000000000000000
 21
0.0000000000000000
 31
0.0000000000000000
  7
KNJYOKO
  0
MTEXT
  5
3AB
100
AcDbEntity
  8
WAKU0
  6
BYBLOCK
 62
0
100
AcDbMText
 10
20.50000000000006
 20
30.50000000000001
 30
0.0000000000000000
 40
2.000000000000000
 41
0.0000000000000000
 71
     1
 72
     1
  1
{\H0.53x;１６　　 〃 　　６３ 〃}
 11
1.000000000000000
 21
0.0000000000000000
 31
0.0000000000000000
  7
KNJYOKO
  0
MTEXT
  5
3AC
100
AcDbEntity
  8
WAKU0
  6
BYBLOCK
 62
0
100
AcDbMText
 10
20.50000000000006
 20
26.50000000000001
 30
0.0000000000000000
 40
2.000000000000000
 41
0.0000000000000000
 71
     1
 72
     1
  1
{\H0.53x;６３　　 〃 　２５０ 〃}
 11
1.000000000000000
 21
0.0000000000000000
 31
0.0000000000000000
  7
KNJYOKO
  0
MTEXT
  5
3AD
100
AcDbEntity
  8
WAKU0
  6
BYBLOCK
 62
0
100
AcDbMText
 10
39.30499982833874
 20
38.99999999999642
 30
0.0000000000000000
 40
2.000000000000000
 41
0.0000000000000000
 71
     1
 72
     1
  1
{\H0.91x;\U+00B10.1}
 11
1.000000000000000
 21
0.0000000000000000
 31
0.0000000000000000
  7
STANDARD
  0
MTEXT
  5
3AE
100
AcDbEntity
  8
WAKU0
  6
BYBLOCK
 62
0
100
AcDbMText
 10
39.30499982833874
 20
34.99999999999642
 30
0.0000000000000000
 40
2.000000000000000
 41
0.0000000000000000
 71
     1
 72
     1
  1
{\H0.91x;\U+00B10.2}
 11
1.000000000000000
 21
0.0000000000000000
 31
0.0000000000000000
  7
STANDARD
  0
MTEXT
  5
3AF
100
AcDbEntity
  8
WAKU0
  6
BYBLOCK
 62
0
100
AcDbMText
 10
39.30499982833874
 20
30.99999999999657
 30
0.0000000000000000
 40
2.000000000000000
 41
0.0000000000000000
 71
     1
 72
     1
  1
{\H0.91x;\U+00B10.3}
 11
1.000000000000000
 21
0.0000000000000000
 31
0.0000000000000000
  7
STANDARD
  0
MTEXT
  5
3B0
100
AcDbEntity
  8
WAKU0
  6
BYBLOCK
 62
0
100
AcDbMText
 10
39.30499982833874
 20
26.99999999999657
 30
0.0000000000000000
 40
2.000000000000000
 41
0.0000000000000000
 71
     1
 72
     1
  1
{\H0.91x;\U+00B10.5}
 11
1.000000000000000
 21
0.0000000000000000
 31
0.0000000000000000
  7
STANDARD
  0
MTEXT
  5
3B1
100
AcDbEntity
  8
WAKU0
  6
BYBLOCK
 62
0
100
AcDbMText
 10
39.30499982833874
 20
22.99999999999657
 30
0.0000000000000000
 40
2.000000000000000
 41
0.0000000000000000
 71
     1
 72
     1
  1
{\H0.91x;\U+00B10.8}
 11
1.000000000000000
 21
0.0000000000000000
 31
0.0000000000000000
  7
STANDARD
  0
MTEXT
  5
3B2
100
AcDbEntity
  8
WAKU0
  6
BYBLOCK
 62
0
100
AcDbMText
 10
39.30499982833874
 20
18.99999999999659
 30
0.0000000000000000
 40
2.000000000000000
 41
0.0000000000000000
 71
     1
 72
     1
  1
{\H0.91x;\U+00B11.0}
 11
1.000000000000000
 21
0.0000000000000000
 31
0.0000000000000000
  7
STANDARD
  0
MTEXT
  5
3B3
100
AcDbEntity
  8
WAKU0
  6
BYBLOCK
 62
0
100
AcDbMText
 10
39.30499982833874
 20
14.99999999999659
 30
0.0000000000000000
 40
2.000000000000000
 41
0.0000000000000000
 71
     1
 72
     1
  1
{\H0.91x;\U+00B11.5}
 11
1.000000000000000
 21
0.0000000000000000
 31
0.0000000000000000
  7
STANDARD
  0
MTEXT
  5
3B4
100
AcDbEntity
  8
WAKU0
  6
BYBLOCK
 62
0
100
AcDbMText
 10
49.30499982833874
 20
38.99999999999642
 30
0.0000000000000000
 40
2.000000000000000
 41
0.0000000000000000
 71
     1
 72
     1
  1
{\H0.91x;\U+00B10.3}
 11
1.000000000000000
 21
0.0000000000000000
 31
0.0000000000000000
  7
STANDARD
  0
MTEXT
  5
3B5
100
AcDbEntity
  8
WAKU0
  6
BYBLOCK
 62
0
100
AcDbMText
 10
49.30499982833874
 20
34.99999999999642
 30
0.0000000000000000
 40
2.000000000000000
 41
0.0000000000000000
 71
     1
 72
     1
  1
{\H0.91x;\U+00B10.5}
 11
1.000000000000000
 21
0.0000000000000000
 31
0.0000000000000000
  7
STANDARD
  0
MTEXT
  5
3B6
100
AcDbEntity
  8
WAKU0
  6
BYBLOCK
 62
0
100
AcDbMText
 10
49.30499982833874
 20
30.99999999999657
 30
0.0000000000000000
 40
2.000000000000000
 41
0.0000000000000000
 71
     1
 72
     1
  1
{\H0.91x;\U+00B10.7}
 11
1.000000000000000
 21
0.0000000000000000
 31
0.0000000000000000
  7
STANDARD
  0
MTEXT
  5
3B7
100
AcDbEntity
  8
WAKU0
  6
BYBLOCK
 62
0
100
AcDbMText
 10
49.30499982833874
 20
26.99999999999657
 30
0.0000000000000000
 40
2.000000000000000
 41
0.0000000000000000
 71
     1
 72
     1
  1
{\H0.91x;\U+00B11.2}
 11
1.000000000000000
 21
0.0000000000000000
 31
0.0000000000000000
  7
STANDARD
  0
MTEXT
  5
3B8
100
AcDbEntity
  8
WAKU0
  6
BYBLOCK
 62
0
100
AcDbMText
 10
49.30499982833874
 20
22.99999999999657
 30
0.0000000000000000
 40
2.000000000000000
 41
0.0000000000000000
 71
     1
 72
     1
  1
{\H0.91x;\U+00B12.0}
 11
1.000000000000000
 21
0.0000000000000000
 31
0.0000000000000000
  7
STANDARD
  0
MTEXT
  5
3B9
100
AcDbEntity
  8
WAKU0
  6
BYBLOCK
 62
0
100
AcDbMText
 10
49.30499982833874
 20
18.99999999999657
 30
0.0000000000000000
 40
2.000000000000000
 41
0.0000000000000000
 71
     1
 72
     1
  1
{\H0.91x;\U+00B12.5}
 11
1.000000000000000
 21
0.0000000000000000
 31
0.0000000000000000
  7
STANDARD
  0
MTEXT
  5
3BA
100
AcDbEntity
  8
WAKU0
  6
BYBLOCK
 62
0
100
AcDbMText
 10
49.30499982833874
 20
14.99999999999657
 30
0.0000000000000000
 40
2.000000000000000
 41
0.0000000000000000
 71
     1
 72
     1
  1
{\H0.91x;\U+00B13.5}
 11
1.000000000000000
 21
0.0000000000000000
 31
0.0000000000000000
  7
STANDARD
  0
MTEXT
  5
3BB
100
AcDbEntity
  8
WAKU0
  6
BYBLOCK
 62
0
100
AcDbMText
 10
59.30499982833874
 20
38.99999999999642
 30
0.0000000000000000
 40
2.000000000000000
 41
0.0000000000000000
 71
     1
 72
     1
  1
{\H0.91x;\U+00B10.5}
 11
1.000000000000000
 21
0.0000000000000000
 31
0.0000000000000000
  7
STANDARD
  0
MTEXT
  5
3BC
100
AcDbEntity
  8
WAKU0
  6
BYBLOCK
 62
0
100
AcDbMText
 10
59.30499982833874
 20
34.99999999999642
 30
0.0000000000000000
 40
2.000000000000000
 41
0.0000000000000000
 71
     1
 72
     1
  1
{\H0.91x;\U+00B10.7}
 11
1.000000000000000
 21
0.0000000000000000
 31
0.0000000000000000
  7
STANDARD
  0
MTEXT
  5
3BD
100
AcDbEntity
  8
WAKU0
  6
BYBLOCK
 62
0
100
AcDbMText
 10
59.30499982833874
 20
30.99999999999657
 30
0.0000000000000000
 40
2.000000000000000
 41
0.0000000000000000
 71
     1
 72
     1
  1
{\H0.91x;\U+00B10.9}
 11
1.000000000000000
 21
0.0000000000000000
 31
0.0000000000000000
  7
STANDARD
  0
MTEXT
  5
3BE
100
AcDbEntity
  8
WAKU0
  6
BYBLOCK
 62
0
100
AcDbMText
 10
59.30499982833874
 20
26.99999999999657
 30
0.0000000000000000
 40
2.000000000000000
 41
0.0000000000000000
 71
     1
 72
     1
  1
{\H0.91x;\U+00B11.5}
 11
1.000000000000000
 21
0.0000000000000000
 31
0.0000000000000000
  7
STANDARD
  0
MTEXT
  5
3BF
100
AcDbEntity
  8
WAKU0
  6
BYBLOCK
 62
0
100
AcDbMText
 10
59.30499982833874
 20
22.99999999999657
 30
0.0000000000000000
 40
2.000000000000000
 41
0.0000000000000000
 71
     1
 72
     1
  1
{\H0.91x;\U+00B12.5}
 11
1.000000000000000
 21
0.0000000000000000
 31
0.0000000000000000
  7
STANDARD
  0
MTEXT
  5
3C0
100
AcDbEntity
  8
WAKU0
  6
BYBLOCK
 62
0
100
AcDbMText
 10
59.30499982833874
 20
18.99999999999657
 30
0.0000000000000000
 40
2.000000000000000
 41
0.0000000000000000
 71
     1
 72
     1
  1
{\H0.91x;\U+00B13.5}
 11
1.000000000000000
 21
0.0000000000000000
 31
0.0000000000000000
  7
STANDARD
  0
MTEXT
  5
3C1
100
AcDbEntity
  8
WAKU0
  6
BYBLOCK
 62
0
100
AcDbMText
 10
59.30499982833874
 20
14.99999999999657
 30
0.0000000000000000
 40
2.000000000000000
 41
0.0000000000000000
 71
     1
 72
     1
  1
{\H0.91x;\U+00B15.0}
 11
1.000000000000000
 21
0.0000000000000000
 31
0.0000000000000000
  7
STANDARD
  0
LINE
  5
3C2
100
AcDbEntity
  8
WAKU0
  6
BYBLOCK
 62
0
100
AcDbLine
 10
68.00000000000023
 20
51.49999999999629
 30
0.0000000000000000
 11
20.00000000000000
 21
51.49999999999629
 31
0.0000000000000000
  0
LINE
  5
3C3
100
AcDbEntity
  8
WAKU0
  6
BYBLOCK
 62
0
100
AcDbLine
 10
20.00000000000000
 20
11.99999999999999
 30
0.0000000000000000
 11
20.00000000000000
 21
51.49999999999629
 31
0.0000000000000000
  0
ENDBLK
  5
3C4
100
AcDbEntity
  8
WAKU0
  6
BYBLOCK
 62
12
100
AcDbBlockEnd
  0
BLOCK
  5
3C6
100
AcDbEntity
  8
WAKU0
  6
BYBLOCK
 62
12
100
AcDbBlockBegin
  2
M1
 70
    64
 10
0.0
 20
0.0
 30
0.0
  0
LINE
  5
3C7
100
AcDbEntity
  8
WAKU0
  6
BYBLOCK
 62
0
100
AcDbLine
 10
77.50000000000011
 20
12.00000000000006
 30
0.0000000000000000
 11
77.50000000000011
 21
46.99999999999989
 31
0.0000000000000000
  0
LINE
  5
3C8
100
AcDbEntity
  8
WAKU0
  6
BYBLOCK
 62
0
100
AcDbLine
 10
87.00000000000011
 20
32.99999999999989
 30
0.0000000000000000
 11
68.00000000000011
 21
32.99999999999989
 31
0.0000000000000000
  0
LINE
  5
3C9
100
AcDbEntity
  8
WAKU0
  6
BYBLOCK
 62
0
100
AcDbLine
 10
87.00000000000011
 20
26.00000000000000
 30
0.0000000000000000
 11
68.00000000000011
 21
26.00000000000000
 31
0.0000000000000000
  0
LINE
  5
3CA
100
AcDbEntity
  8
WAKU0
  6
BYBLOCK
 62
0
100
AcDbLine
 10
87.00000000000011
 20
19.00000000000000
 30
0.0000000000000000
 11
68.00000000000011
 21
19.00000000000000
 31
0.0000000000000000
  0
LINE
  5
3CB
100
AcDbEntity
  8
WAKU0
  6
BYBLOCK
 62
0
100
AcDbLine
 10
69.75000000000000
 20
35.26794919243083
 30
0.0000000000000000
 11
70.75000000000006
 21
36.99999999999989
 31
0.0000000000000000
  0
LINE
  5
3CC
100
AcDbEntity
  8
WAKU0
  6
BYBLOCK
 62
0
100
AcDbLine
 10
68.75000000000148
 20
36.99999999999668
 30
0.0000000000000000
 11
69.75000000000154
 21
35.26794919242778
 31
0.0000000000000000
  0
LINE
  5
3CD
100
AcDbEntity
  8
WAKU0
  6
BYBLOCK
 62
0
100
AcDbLine
 10
71.75000000000000
 20
35.26794919243085
 30
0.0000000000000000
 11
72.75000000000011
 21
36.99999999999993
 31
0.0000000000000000
  0
LINE
  5
3CE
100
AcDbEntity
  8
WAKU0
  6
BYBLOCK
 62
0
100
AcDbLine
 10
70.75000000000154
 20
36.99999999999668
 30
0.0000000000000000
 11
71.75000000000154
 21
35.26794919242781
 31
0.0000000000000000
  0
LINE
  5
3CF
100
AcDbEntity
  8
WAKU0
  6
BYBLOCK
 62
0
100
AcDbLine
 10
73.74999999999994
 20
35.26794919243088
 30
0.0000000000000000
 11
74.75000000000006
 21
36.99999999999996
 31
0.0000000000000000
  0
LINE
  5
3D0
100
AcDbEntity
  8
WAKU0
  6
BYBLOCK
 62
0
100
AcDbLine
 10
72.75000000000171
 20
36.99999999999679
 30
0.0000000000000000
 11
73.75000000000171
 21
35.26794919242792
 31
0.0000000000000000
  0
LINE
  5
3D1
100
AcDbEntity
  8
WAKU0
  6
BYBLOCK
 62
0
100
AcDbLine
 10
75.74999999999994
 20
35.26794919243086
 30
0.0000000000000000
 11
76.75000000000000
 21
36.99999999999997
 31
0.0000000000000000
  0
LINE
  5
3D2
100
AcDbEntity
  8
WAKU0
  6
BYBLOCK
 62
0
100
AcDbLine
 10
74.75000000000171
 20
36.99999999999679
 30
0.0000000000000000
 11
75.75000000000171
 21
35.26794919242792
 31
0.0000000000000000
  0
LINE
  5
3D3
100
AcDbEntity
  8
WAKU0
  6
BYBLOCK
 62
0
100
AcDbLine
 10
70.75000000000000
 20
28.26794919243085
 30
0.0000000000000000
 11
71.75000000000006
 21
29.99999999999992
 31
0.0000000000000000
  0
LINE
  5
3D4
100
AcDbEntity
  8
WAKU0
  6
BYBLOCK
 62
0
100
AcDbLine
 10
69.75000000000136
 20
29.99999999999736
 30
0.0000000000000000
 11
70.75000000000136
 21
28.26794919242849
 31
0.0000000000000000
  0
LINE
  5
3D5
100
AcDbEntity
  8
WAKU0
  6
BYBLOCK
 62
0
100
AcDbLine
 10
72.74999999999989
 20
28.26794919243088
 30
0.0000000000000000
 11
73.75000000000000
 21
29.99999999999995
 31
0.0000000000000000
  0
LINE
  5
3D6
100
AcDbEntity
  8
WAKU0
  6
BYBLOCK
 62
0
100
AcDbLine
 10
71.75000000000142
 20
29.99999999999739
 30
0.0000000000000000
 11
72.75000000000142
 21
28.26794919242849
 31
0.0000000000000000
  0
LINE
  5
3D7
100
AcDbEntity
  8
WAKU0
  6
BYBLOCK
 62
0
100
AcDbLine
 10
74.74999999999989
 20
28.26794919243088
 30
0.0000000000000000
 11
75.75000000000000
 21
29.99999999999995
 31
0.0000000000000000
  0
LINE
  5
3D8
100
AcDbEntity
  8
WAKU0
  6
BYBLOCK
 62
0
100
AcDbLine
 10
73.75000000000125
 20
29.99999999999733
 30
0.0000000000000000
 11
74.75000000000131
 21
28.26794919242846
 31
0.0000000000000000
  0
LINE
  5
3D9
100
AcDbEntity
  8
WAKU0
  6
BYBLOCK
 62
0
100
AcDbLine
 10
71.74999999999994
 20
21.26794919243085
 30
0.0000000000000000
 11
72.75000000000000
 21
22.99999999999994
 31
0.0000000000000000
  0
LINE
  5
3DA
100
AcDbEntity
  8
WAKU0
  6
BYBLOCK
 62
0
100
AcDbLine
 10
70.75000000000102
 20
22.99999999999795
 30
0.0000000000000000
 11
71.75000000000102
 21
21.26794919242909
 31
0.0000000000000000
  0
LINE
  5
3DB
100
AcDbEntity
  8
WAKU0
  6
BYBLOCK
 62
0
100
AcDbLine
 10
73.75000000000006
 20
21.26794919243091
 30
0.0000000000000000
 11
74.75000000000011
 21
22.99999999999994
 31
0.0000000000000000
  0
LINE
  5
3DC
100
AcDbEntity
  8
WAKU0
  6
BYBLOCK
 62
0
100
AcDbLine
 10
72.75000000000102
 20
22.99999999999798
 30
0.0000000000000000
 11
73.75000000000102
 21
21.26794919242909
 31
0.0000000000000000
  0
LINE
  5
3DD
100
AcDbEntity
  8
WAKU0
  6
BYBLOCK
 62
0
100
AcDbLine
 10
71.75000000000000
 20
16.00000000000000
 30
0.0000000000000000
 11
73.75000000000017
 21
16.00000000000000
 31
0.0000000000000000
  0
LINE
  5
3DE
100
AcDbEntity
  8
WAKU0
  6
BYBLOCK
 62
0
100
AcDbLine
 10
72.75000000000006
 20
14.26794919243091
 30
0.0000000000000000
 11
73.75000000000000
 21
15.99999999999994
 31
0.0000000000000000
  0
LINE
  5
3DF
100
AcDbEntity
  8
WAKU0
  6
BYBLOCK
 62
0
100
AcDbLine
 10
71.75000000000068
 20
15.99999999999852
 30
0.0000000000000000
 11
72.75000000000068
 21
14.26794919242963
 31
0.0000000000000000
  0
LINE
  5
3E0
100
AcDbEntity
  8
WAKU0
  6
BYBLOCK
 62
0
100
AcDbLine
 10
68.00000000000011
 20
46.99999999999989
 30
0.0000000000000000
 11
87.00000000000011
 21
46.99999999999989
 31
0.0000000000000000
  0
LINE
  5
3E1
100
AcDbEntity
  8
WAKU0
  6
BYBLOCK
 62
0
100
AcDbLine
 10
68.00000000000000
 20
12.00000000000000
 30
0.0000000000000000
 11
87.00000000000000
 21
12.00000000000000
 31
0.0000000000000000
  0
LINE
  5
3E2
100
AcDbEntity
  8
WAKU0
  6
BYBLOCK
 62
0
100
AcDbLine
 10
68.00000000000011
 20
39.99999999999989
 30
0.0000000000000000
 11
87.00000000000011
 21
39.99999999999989
 31
0.0000000000000000
  0
LINE
  5
3E3
100
AcDbEntity
  8
WAKU0
  6
BYBLOCK
 62
0
100
AcDbLine
 10
87.00000000000023
 20
51.49999999999625
 30
0.0000000000000000
 11
87.00000000000023
 21
12.00000000000006
 31
0.0000000000000000
  0
LINE
  5
3E4
100
AcDbEntity
  8
WAKU0
  6
BYBLOCK
 62
0
100
AcDbLine
 10
68.00000000000023
 20
51.49999999999625
 30
0.0000000000000000
 11
68.00000000000023
 21
12.00000000000006
 31
0.0000000000000000
  0
LINE
  5
3E5
100
AcDbEntity
  8
WAKU0
  6
BYBLOCK
 62
0
100
AcDbLine
 10
68.74999999999994
 20
36.99999999999896
 30
0.0000000000000000
 11
76.75000000000017
 21
36.99999999999902
 31
0.0000000000000000
  0
LINE
  5
3E6
100
AcDbEntity
  8
WAKU0
  6
BYBLOCK
 62
0
100
AcDbLine
 10
69.75000000000000
 20
30.00000000000000
 30
0.0000000000000000
 11
75.75000000000017
 21
30.00000000000000
 31
0.0000000000000000
  0
LINE
  5
3E7
100
AcDbEntity
  8
WAKU0
  6
BYBLOCK
 62
0
100
AcDbLine
 10
70.75000000000000
 20
23.00000000000000
 30
0.0000000000000000
 11
74.75000000000023
 21
23.00000000000000
 31
0.0000000000000000
  0
MTEXT
  5
3E8
100
AcDbEntity
  8
WAKU0
  6
BYBLOCK
 62
0
100
AcDbMText
 10
70.26144782313764
 20
50.37664431753717
 30
0.0000000000000000
 40
2.800000190734863
 41
0.0000000000000000
 71
     1
 72
     1
  1
{\H0.92x;表面アラサ}
 11
1.000000000000000
 21
0.0000000000000000
 31
0.0000000000000000
  7
KNJYOKO
  0
MTEXT
  5
3E9
100
AcDbEntity
  8
WAKU0
  6
BYBLOCK
 62
0
100
AcDbMText
 10
78.50000000000011
 20
44.49999999999989
 30
0.0000000000000000
 40
2.000000000000000
 41
0.0000000000000000
 71
     1
 72
     1
  1
{\H0.68x;Ｒｍａｘ}
 11
1.000000000000000
 21
0.0000000000000000
 31
0.0000000000000000
  7
KNJYOKO
  0
MTEXT
  5
3EA
100
AcDbEntity
  8
WAKU0
  6
BYBLOCK
 62
0
100
AcDbMText
 10
69.22739455422561
 20
44.62833954442237
 30
0.0000000000000000
 40
2.399999618530273
 41
0.0000000000000000
 71
     1
 72
     1
  1
{\H0.84x;記 号}
 11
1.000000000000000
 21
0.0000000000000000
 31
0.0000000000000000
  7
KNJYOKO
  0
MTEXT
  5
3EB
100
AcDbEntity
  8
WAKU0
  6
BYBLOCK
 62
0
100
AcDbMText
 10
78.60551812020117
 20
37.49797710111659
 30
0.0000000000000000
 40
2.000000000000000
 41
0.0000000000000000
 71
     1
 72
     1
  1
{\H0.91x;0.8S}
 11
1.000000000000000
 21
0.0000000000000000
 31
0.0000000000000000
  7
STANDARD
  0
MTEXT
  5
3EC
100
AcDbEntity
  8
WAKU0
  6
BYBLOCK
 62
0
100
AcDbMText
 10
78.54233874815691
 20
30.45363488457656
 30
0.0000000000000000
 40
2.000000000000000
 41
0.0000000000000000
 71
     1
 72
     1
  1
{\H0.91x;6.3S}
 11
1.000000000000000
 21
0.0000000000000000
 31
0.0000000000000000
  7
STANDARD
  0
MTEXT
  5
3ED
100
AcDbEntity
  8
WAKU0
  6
BYBLOCK
 62
0
100
AcDbMText
 10
78.57394057005530
 20
23.56727750577414
 30
0.0000000000000000
 40
2.000000000000000
 41
0.0000000000000000
 71
     1
 72
     1
  1
{\H0.91x;25 S}
 11
1.000000000000000
 21
0.0000000000000000
 31
0.0000000000000000
  7
STANDARD
  0
MTEXT
  5
3EE
100
AcDbEntity
  8
WAKU0
  6
BYBLOCK
 62
0
100
AcDbMText
 10
78.57394057005530
 20
16.55453711113066
 30
0.0000000000000000
 40
2.000000000000000
 41
0.0000000000000000
 71
     1
 72
     1
  1
{\H0.91x;100S}
 11
1.000000000000000
 21
0.0000000000000000
 31
0.0000000000000000
  7
STANDARD
  0
LINE
  5
3EF
100
AcDbEntity
  8
WAKU0
  6
BYBLOCK
 62
0
100
AcDbLine
 10
68.00000000000023
 20
51.49999999999625
 30
0.0000000000000000
 11
87.00000000000023
 21
51.49999999999625
 31
0.0000000000000000
  0
ENDBLK
  5
3F0
100
AcDbEntity
  8
WAKU0
  6
BYBLOCK
 62
12
100
AcDbBlockEnd
  0
BLOCK
  5
3F2
100
AcDbEntity
  8
WAKU0
  6
BYBLOCK
 62
12
100
AcDbBlockBegin
  2
M2
 70
    64
 10
0.0
 20
0.0
 30
0.0
  0
LINE
  5
3F3
100
AcDbEntity
  8
WAKU0
  6
BYBLOCK
 62
0
100
AcDbLine
 10
91.00000000000011
 20
16.00000000000000
 30
0.0000000000000000
 11
91.00000000000011
 21
39.99999999999989
 31
0.0000000000000000
  0
LINE
  5
3F4
100
AcDbEntity
  8
WAKU0
  6
BYBLOCK
 62
0
100
AcDbLine
 10
100.0000000000001
 20
12.00000000000006
 30
0.0000000000000000
 11
100.0000000000001
 21
46.99999999999989
 31
0.0000000000000000
  0
LINE
  5
3F5
100
AcDbEntity
  8
WAKU0
  6
BYBLOCK
 62
0
100
AcDbLine
 10
110.5000000000001
 20
16.00000000000000
 30
0.0000000000000000
 11
110.5000000000001
 21
39.99999999999989
 31
0.0000000000000000
  0
LINE
  5
3F6
100
AcDbEntity
  8
WAKU0
  6
BYBLOCK
 62
0
100
AcDbLine
 10
119.5000000000001
 20
12.00000000000006
 30
0.0000000000000000
 11
119.5000000000001
 21
46.99999999999989
 31
0.0000000000000000
  0
LINE
  5
3F7
100
AcDbEntity
  8
WAKU0
  6
BYBLOCK
 62
0
100
AcDbLine
 10
126.0000000000001
 20
12.00000000000006
 30
0.0000000000000000
 11
126.0000000000001
 21
51.49999999999989
 31
0.0000000000000000
  0
LINE
  5
3F8
100
AcDbEntity
  8
WAKU0
  6
BYBLOCK
 62
0
100
AcDbLine
 10
110.5000000000001
 20
20.00000000000004
 30
0.0000000000000000
 11
126.0000000000001
 21
20.00000000000004
 31
0.0000000000000000
  0
LINE
  5
3F9
100
AcDbEntity
  8
WAKU0
  6
BYBLOCK
 62
0
100
AcDbLine
 10
110.5000000000001
 20
24.00000000000004
 30
0.0000000000000000
 11
126.0000000000001
 21
24.00000000000004
 31
0.0000000000000000
  0
LINE
  5
3FA
100
AcDbEntity
  8
WAKU0
  6
BYBLOCK
 62
0
100
AcDbLine
 10
110.5000000000001
 20
32.00000000000004
 30
0.0000000000000000
 11
126.0000000000001
 21
32.00000000000004
 31
0.0000000000000000
  0
LINE
  5
3FB
100
AcDbEntity
  8
WAKU0
  6
BYBLOCK
 62
0
100
AcDbLine
 10
110.5000000000001
 20
35.99999999999956
 30
0.0000000000000000
 11
126.0000000000016
 21
35.99999999999962
 31
0.0000000000000000
  0
LINE
  5
3FC
100
AcDbEntity
  8
WAKU0
  6
BYBLOCK
 62
0
100
AcDbLine
 10
91.00000000000011
 20
35.99999999999989
 30
0.0000000000000000
 11
106.5000000000001
 21
35.99999999999989
 31
0.0000000000000000
  0
LINE
  5
3FD
100
AcDbEntity
  8
WAKU0
  6
BYBLOCK
 62
0
100
AcDbLine
 10
91.00000000000017
 20
32.00000000000003
 30
0.0000000000000000
 11
106.5000000000001
 21
32.00000000000003
 31
0.0000000000000000
  0
LINE
  5
3FE
100
AcDbEntity
  8
WAKU0
  6
BYBLOCK
 62
0
100
AcDbLine
 10
91.50156144527961
 20
24.00000000000003
 30
0.0000000000000000
 11
106.5000000000001
 21
24.00000000000003
 31
0.0000000000000000
  0
LINE
  5
3FF
100
AcDbEntity
  8
WAKU0
  6
BYBLOCK
 62
0
100
AcDbLine
 10
91.00000000000017
 20
20.00000000000003
 30
0.0000000000000000
 11
106.5000000000001
 21
20.00000000000003
 31
0.0000000000000000
  0
LINE
  5
400
100
AcDbEntity
  8
WAKU0
  6
BYBLOCK
 62
0
100
AcDbLine
 10
87.00000000000017
 20
16.00000000000005
 30
0.0000000000000000
 11
126.0000000000002
 21
16.00000000000005
 31
0.0000000000000000
  0
LINE
  5
401
100
AcDbEntity
  8
WAKU0
  6
BYBLOCK
 62
0
100
AcDbLine
 10
101.8311824646173
 20
37.89966702189282
 30
0.0000000000000000
 11
104.7310501077164
 21
37.89966702189288
 31
0.0000000000000000
  0
LINE
  5
402
100
AcDbEntity
  8
WAKU0
  6
BYBLOCK
 62
0
100
AcDbLine
 10
102.0919983581146
 20
34.96185940587190
 30
0.0000000000000000
 11
105.1293399034055
 21
34.96185940587196
 31
0.0000000000000000
  0
LINE
  5
403
100
AcDbEntity
  8
WAKU0
  6
BYBLOCK
 62
0
100
AcDbLine
 10
101.3640578895821
 20
32.96185940587009
 30
0.0000000000000000
 11
104.4013994348764
 21
32.96185940587009
 31
0.0000000000000000
  0
LINE
  5
404
100
AcDbEntity
  8
WAKU0
  6
BYBLOCK
 62
0
100
AcDbLine
 10
121.9486663247603
 20
33.09825319230356
 30
0.0000000000000000
 11
123.8731735892201
 21
33.09825319230356
 31
0.0000000000000000
  0
LINE
  5
405
100
AcDbEntity
  8
WAKU0
  6
BYBLOCK
 62
0
100
AcDbLine
 10
124.0482517197916
 20
25.99999999999994
 30
0.0000000000000000
 11
121.4482517197915
 21
25.99999999999994
 31
0.0000000000000000
  0
LINE
  5
406
100
AcDbEntity
  8
WAKU0
  6
BYBLOCK
 62
0
100
AcDbLine
 10
101.3640578895821
 20
32.96185940587290
 30
0.0000000000000000
 11
102.0919983581144
 21
34.96185940587289
 31
0.0000000000000000
  0
LINE
  5
407
100
AcDbEntity
  8
WAKU0
  6
BYBLOCK
 62
0
100
AcDbLine
 10
104.4013994348730
 20
32.96185940587291
 30
0.0000000000000000
 11
105.1293399034054
 21
34.96185940587296
 31
0.0000000000000000
  0
LINE
  5
408
100
AcDbEntity
  8
WAKU0
  6
BYBLOCK
 62
0
100
AcDbLine
 10
103.7649213175704
 20
24.49999999999984
 30
0.0000000000000000
 11
104.7840379735158
 21
27.29999999999984
 31
0.0000000000000000
  0
LINE
  5
409
100
AcDbEntity
  8
WAKU0
  6
BYBLOCK
 62
0
100
AcDbLine
 10
101.6365657726186
 20
24.49999999999992
 30
0.0000000000000000
 11
102.6556824285639
 21
27.29999999999996
 31
0.0000000000000000
  0
LINE
  5
40A
100
AcDbEntity
  8
WAKU0
  6
BYBLOCK
 62
0
100
AcDbLine
 10
101.6869054784107
 20
17.30319173546840
 30
0.0000000000000000
 11
104.6869054784103
 21
17.30319173546840
 31
0.0000000000000000
  0
LINE
  5
40B
100
AcDbEntity
  8
WAKU0
  6
BYBLOCK
 62
0
100
AcDbLine
 10
102.1182444382657
 20
12.87154554177221
 30
0.0000000000000000
 11
104.3751533547218
 21
15.12845445822793
 31
0.0000000000000000
  0
LINE
  5
40C
100
AcDbEntity
  8
WAKU0
  6
BYBLOCK
 62
0
100
AcDbLine
 10
103.8767565761340
 20
14.26520591538520
 30
0.0000000000000000
 11
104.3751533547218
 21
15.12845445822794
 31
0.0000000000000000
  0
LINE
  5
40D
100
AcDbEntity
  8
WAKU0
  6
BYBLOCK
 62
0
100
AcDbLine
 10
103.5119048118791
 20
14.63005767964023
 30
0.0000000000000000
 11
104.3751533547219
 21
15.12845445822805
 31
0.0000000000000000
  0
LINE
  5
40E
100
AcDbEntity
  8
WAKU0
  6
BYBLOCK
 62
0
100
AcDbLine
 10
121.0363038044183
 20
18.00000000000000
 30
0.0000000000000000
 11
124.5853922863337
 21
18.00000000000000
 31
0.0000000000000000
  0
LINE
  5
40F
100
AcDbEntity
  8
WAKU0
  6
BYBLOCK
 62
0
100
AcDbLine
 10
123.3108480453760
 20
18.70000000000002
 30
0.0000000000000000
 11
122.3108480453760
 21
18.70000000000002
 31
0.0000000000000000
  0
LINE
  5
410
100
AcDbEntity
  8
WAKU0
  6
BYBLOCK
 62
0
100
AcDbLine
 10
123.3108480453760
 20
17.30000000000001
 30
0.0000000000000000
 11
122.3108480453760
 21
17.30000000000001
 31
0.0000000000000000
  0
LINE
  5
411
100
AcDbEntity
  8
WAKU0
  6
BYBLOCK
 62
0
100
AcDbLine
 10
122.7482517197915
 20
27.29999999999996
 30
0.0000000000000000
 11
122.7482517197915
 21
24.69999999999996
 31
0.0000000000000000
  0
LINE
  5
412
100
AcDbEntity
  8
WAKU0
  6
BYBLOCK
 62
0
100
AcDbLine
 10
121.3073979988184
 20
28.57441112556472
 30
0.0000000000000000
 11
124.1355153517043
 21
31.40252847845065
 31
0.0000000000000000
  0
LINE
  5
413
100
AcDbEntity
  8
WAKU0
  6
BYBLOCK
 62
0
100
AcDbLine
 10
121.3073979988185
 20
28.57441112556475
 30
0.0000000000000000
 11
124.1355153517043
 21
28.57441112556475
 31
0.0000000000000000
  0
LINE
  5
414
100
AcDbEntity
  8
WAKU0
  6
BYBLOCK
 62
0
100
AcDbLine
 10
122.8984442761485
 20
33.09825319230356
 30
0.0000000000000000
 11
122.8984442761485
 21
35.13639378642972
 31
0.0000000000000000
  0
LINE
  5
415
100
AcDbEntity
  8
WAKU0
  6
BYBLOCK
 62
0
100
AcDbLine
 10
123.2223783672457
 20
39.27165210993585
 30
0.0000000000000000
 11
122.2126209892779
 21
36.49736651484179
 31
0.0000000000000000
  0
LINE
  5
416
100
AcDbEntity
  8
WAKU0
  6
BYBLOCK
 62
0
100
AcDbLine
 10
124.2865561397216
 20
39.27165210993587
 30
0.0000000000000000
 11
123.2767987617539
 21
36.49736651484186
 31
0.0000000000000000
  0
LINE
  5
417
100
AcDbEntity
  8
WAKU0
  6
BYBLOCK
 62
0
100
AcDbLine
 10
87.00000000000011
 20
46.99999999999972
 30
0.0000000000000000
 11
126.0000000000001
 21
46.99999999999978
 31
0.0000000000000000
  0
LINE
  5
418
100
AcDbEntity
  8
WAKU0
  6
BYBLOCK
 62
0
100
AcDbLine
 10
87.00000000000000
 20
12.00000000000001
 30
0.0000000000000000
 11
126.0000000000000
 21
12.00000000000006
 31
0.0000000000000000
  0
LINE
  5
419
100
AcDbEntity
  8
WAKU0
  6
BYBLOCK
 62
0
100
AcDbLine
 10
87.00000000000011
 20
39.99999999999972
 30
0.0000000000000000
 11
125.9999999999998
 21
39.99999999999978
 31
0.0000000000000000
  0
LINE
  5
41A
100
AcDbEntity
  8
WAKU0
  6
BYBLOCK
 62
0
100
AcDbLine
 10
87.00000000000023
 20
51.49999999999625
 30
0.0000000000000000
 11
87.00000000000023
 21
12.00000000000006
 31
0.0000000000000000
  0
LINE
  5
41B
100
AcDbEntity
  8
WAKU0
  6
BYBLOCK
 62
0
100
AcDbLine
 10
106.5000000000001
 20
12.00000000000006
 30
0.0000000000000000
 11
106.5000000000001
 21
46.99999999999989
 31
0.0000000000000000
  0
LINE
  5
41C
100
AcDbEntity
  8
WAKU0
  6
BYBLOCK
 62
0
100
AcDbLine
 10
91.00000000000023
 20
28.00000000000005
 30
0.0000000000000000
 11
125.9999999999999
 21
28.00000000000005
 31
0.0000000000000000
  0
ARC
  5
41D
100
AcDbEntity
  8
WAKU0
  6
BYBLOCK
 62
0
100
AcDbCircle
 10
103.2579731700531
 20
21.23055548181338
 30
0.0000000000000000
 40
1.499999999999986
100
AcDbArc
 50
0.0000000000000000
 51
179.9999999999998
  0
CIRCLE
  5
41E
100
AcDbEntity
  8
WAKU0
  6
BYBLOCK
 62
0
100
AcDbCircle
 10
103.2466988964938
 20
25.99999999999994
 30
0.0000000000000000
 40
1.000000000000000
  0
CIRCLE
  5
41F
100
AcDbEntity
  8
WAKU0
  6
BYBLOCK
 62
0
100
AcDbCircle
 10
103.2466988964938
 20
30.01526484653812
 30
0.0000000000000000
 40
1.440256591413231
  0
ARC
  5
420
100
AcDbEntity
  8
WAKU0
  6
BYBLOCK
 62
0
100
AcDbCircle
 10
103.1869054784105
 20
17.30319173546840
 30
0.0000000000000000
 40
1.499999999999986
100
AcDbArc
 50
0.0000000000000000
 51
179.9999999999998
  0
CIRCLE
  5
421
100
AcDbEntity
  8
WAKU0
  6
BYBLOCK
 62
0
100
AcDbCircle
 10
122.7482517197916
 20
21.99999999999992
 30
0.0000000000000000
 40
1.104676391049921
  0
CIRCLE
  5
422
100
AcDbEntity
  8
WAKU0
  6
BYBLOCK
 62
0
100
AcDbCircle
 10
122.7482517197916
 20
21.99999999999992
 30
0.0000000000000000
 40
0.7364509273666198
  0
CIRCLE
  5
423
100
AcDbEntity
  8
WAKU0
  6
BYBLOCK
 62
0
100
AcDbCircle
 10
122.7482517197916
 20
25.99999999999992
 30
0.0000000000000000
 40
1.000000000000000
  0
MTEXT
  5
424
100
AcDbEntity
  8
WAKU0
  6
BYBLOCK
 62
0
100
AcDbMText
 10
88.00000000000011
 20
50.29999904632484
 30
0.0000000000000000
 40
2.499999046325684
 41
0.0000000000000000
 71
     1
 72
     1
  1
{\H0.91x;形状・位置の精度の種類と記号}
 11
1.000000000000000
 21
0.0000000000000000
 31
0.0000000000000000
  7
KNJYOKO
  0
MTEXT
  5
425
100
AcDbEntity
  8
WAKU0
  6
BYBLOCK
 62
0
100
AcDbMText
 10
88.43579068439806
 20
44.69642181049483
 30
0.0000000000000000
 40
2.399999618530273
 41
0.0000000000000000
 71
     1
 72
     1
  1
{\H0.88x;種  類}
 11
1.000000000000000
 21
0.0000000000000000
 31
0.0000000000000000
  7
KNJYOKO
  0
MTEXT
  5
426
100
AcDbEntity
  8
WAKU0
  6
BYBLOCK
 62
0
100
AcDbMText
 10
101.1685393466073
 20
44.90064433695795
 30
0.0000000000000000
 40
2.399999618530273
 41
0.0000000000000000
 71
     1
 72
     1
  1
{\H0.76x;記号}
 11
1.000000000000000
 21
0.0000000000000000
 31
0.0000000000000000
  7
KNJYOKO
  0
MTEXT
  5
427
100
AcDbEntity
  8
WAKU0
  6
BYBLOCK
 62
0
100
AcDbMText
 10
120.6726886785652
 20
44.83258634263973
 30
0.0000000000000000
 40
2.399999618530273
 41
0.0000000000000000
 71
     1
 72
     1
  1
{\H0.76x;記号}
 11
1.000000000000000
 21
0.0000000000000000
 31
0.0000000000000000
  7
KNJYOKO
  0
MTEXT
  5
428
100
AcDbEntity
  8
WAKU0
  6
BYBLOCK
 62
0
100
AcDbMText
 10
107.9357906843981
 20
44.69642181049483
 30
0.0000000000000000
 40
2.399999618530273
 41
0.0000000000000000
 71
     1
 72
     1
  1
{\H0.88x;種  類}
 11
1.000000000000000
 21
0.0000000000000000
 31
0.0000000000000000
  7
KNJYOKO
  0
MTEXT
  5
429
100
AcDbEntity
  8
WAKU0
  6
BYBLOCK
 62
0
100
AcDbMText
 10
92.00000000000011
 20
38.99999904632557
 30
0.0000000000000000
 40
2.499999046325684
 41
0.0000000000000000
 71
     1
 72
     1
  1
{\H0.75x;真直度}
 11
1.000000000000000
 21
0.0000000000000000
 31
0.0000000000000000
  7
KNJYOKO
  0
MTEXT
  5
42A
100
AcDbEntity
  8
WAKU0
  6
BYBLOCK
 62
0
100
AcDbMText
 10
92.00000000000011
 20
34.99999904632557
 30
0.0000000000000000
 40
2.499999046325684
 41
0.0000000000000000
 71
     1
 72
     1
  1
{\H0.75x;平面度}
 11
1.000000000000000
 21
0.0000000000000000
 31
0.0000000000000000
  7
KNJYOKO
  0
MTEXT
  5
42B
100
AcDbEntity
  8
WAKU0
  6
BYBLOCK
 62
0
100
AcDbMText
 10
92.00000000000011
 20
30.99999904632571
 30
0.0000000000000000
 40
2.499999046325684
 41
0.0000000000000000
 71
     1
 72
     1
  1
{\H0.75x;真円度}
 11
1.000000000000000
 21
0.0000000000000000
 31
0.0000000000000000
  7
KNJYOKO
  0
MTEXT
  5
42C
100
AcDbEntity
  8
WAKU0
  6
BYBLOCK
 62
0
100
AcDbMText
 10
92.00000000000011
 20
26.99999904632571
 30
0.0000000000000000
 40
2.499999046325684
 41
0.0000000000000000
 71
     1
 72
     1
  1
{\H0.75x;円筒度}
 11
1.000000000000000
 21
0.0000000000000000
 31
0.0000000000000000
  7
KNJYOKO
  0
MTEXT
  5
42D
100
AcDbEntity
  8
WAKU0
  6
BYBLOCK
 62
0
100
AcDbMText
 10
92.00000000000011
 20
22.99999904632571
 30
0.0000000000000000
 40
2.499999046325684
 41
0.0000000000000000
 71
     1
 72
     1
  1
{\H0.75x;線輪郭}
 11
1.000000000000000
 21
0.0000000000000000
 31
0.0000000000000000
  7
KNJYOKO
  0
MTEXT
  5
42E
100
AcDbEntity
  8
WAKU0
  6
BYBLOCK
 62
0
100
AcDbMText
 10
92.17466758489525
 20
19.48328908239213
 30
0.0000000000000000
 40
2.499999046325684
 41
0.0000000000000000
 71
     1
 72
     1
  1
{\H0.75x;面輪郭}
 11
1.000000000000000
 21
0.0000000000000000
 31
0.0000000000000000
  7
KNJYOKO
  0
MTEXT
  5
42F
100
AcDbEntity
  8
WAKU0
  6
BYBLOCK
 62
0
100
AcDbMText
 10
88.91256640961143
 20
15.27226098404603
 30
0.0000000000000000
 40
2.499999046325684
 41
0.0000000000000000
 71
     1
 72
     1
  1
{\H0.85x;振  レ}
 11
1.000000000000000
 21
0.0000000000000000
 31
0.0000000000000000
  7
KNJYOKO
  0
MTEXT
  5
430
100
AcDbEntity
  8
WAKU0
  6
BYBLOCK
 62
0
100
AcDbMText
 10
111.5000000000001
 20
38.99999904632557
 30
0.0000000000000000
 40
2.499999046325684
 41
0.0000000000000000
 71
     1
 72
     1
  1
{\H0.75x;平行度}
 11
1.000000000000000
 21
0.0000000000000000
 31
0.0000000000000000
  7
KNJYOKO
  0
MTEXT
  5
431
100
AcDbEntity
  8
WAKU0
  6
BYBLOCK
 62
0
100
AcDbMText
 10
111.5000000000001
 20
34.99999904632557
 30
0.0000000000000000
 40
2.499999046325684
 41
0.0000000000000000
 71
     1
 72
     1
  1
{\H0.75x;直角度}
 11
1.000000000000000
 21
0.0000000000000000
 31
0.0000000000000000
  7
KNJYOKO
  0
MTEXT
  5
432
100
AcDbEntity
  8
WAKU0
  6
BYBLOCK
 62
0
100
AcDbMText
 10
111.5000000000001
 20
30.99999904632571
 30
0.0000000000000000
 40
2.499999046325684
 41
0.0000000000000000
 71
     1
 72
     1
  1
{\H0.75x;傾斜度}
 11
1.000000000000000
 21
0.0000000000000000
 31
0.0000000000000000
  7
KNJYOKO
  0
MTEXT
  5
433
100
AcDbEntity
  8
WAKU0
  6
BYBLOCK
 62
0
100
AcDbMText
 10
111.5000000000001
 20
26.99999904632571
 30
0.0000000000000000
 40
2.499999046325684
 41
0.0000000000000000
 71
     1
 72
     1
  1
{\H0.75x;位置度}
 11
1.000000000000000
 21
0.0000000000000000
 31
0.0000000000000000
  7
KNJYOKO
  0
MTEXT
  5
434
100
AcDbEntity
  8
WAKU0
  6
BYBLOCK
 62
0
100
AcDbMText
 10
111.5000000000001
 20
22.99999904632571
 30
0.0000000000000000
 40
2.499999046325684
 41
0.0000000000000000
 71
     1
 72
     1
  1
{\H0.75x;同軸度}
 11
1.000000000000000
 21
0.0000000000000000
 31
0.0000000000000000
  7
KNJYOKO
  0
MTEXT
  5
435
100
AcDbEntity
  8
WAKU0
  6
BYBLOCK
 62
0
100
AcDbMText
 10
111.5000000000001
 20
18.99999904632571
 30
0.0000000000000000
 40
2.499999046325684
 41
0.0000000000000000
 71
     1
 72
     1
  1
{\H0.75x;対称度}
 11
1.000000000000000
 21
0.0000000000000000
 31
0.0000000000000000
  7
KNJYOKO
  0
MTEXT
  5
436
100
AcDbEntity
  8
WAKU0
  6
BYBLOCK
 62
0
100
AcDbMText
 10
107.1049712472752
 20
15.30437251274927
 30
0.0000000000000000
 40
2.499999046325684
 41
0.0000000000000000
 71
     1
 72
     1
  1
{\H0.77x;基準線・面}
 11
1.000000000000000
 21
0.0000000000000000
 31
0.0000000000000000
  7
KNJYOKO
  0
LINE
  5
437
100
AcDbEntity
  8
WAKU0
  6
BYBLOCK
 62
0
100
AcDbLine
 10
91.00000000000011
 20
16.00000000000000
 30
0.0000000000000000
 11
91.00000000000011
 21
39.99999999999989
 31
0.0000000000000000
  0
LINE
  5
438
100
AcDbEntity
  8
WAKU0
  6
BYBLOCK
 62
0
100
AcDbLine
 10
100.0000000000001
 20
12.00000000000006
 30
0.0000000000000000
 11
100.0000000000001
 21
46.99999999999989
 31
0.0000000000000000
  0
LINE
  5
439
100
AcDbEntity
  8
WAKU0
  6
BYBLOCK
 62
0
100
AcDbLine
 10
110.5000000000001
 20
16.00000000000000
 30
0.0000000000000000
 11
110.5000000000001
 21
39.99999999999989
 31
0.0000000000000000
  0
LINE
  5
43A
100
AcDbEntity
  8
WAKU0
  6
BYBLOCK
 62
0
100
AcDbLine
 10
119.5000000000001
 20
12.00000000000006
 30
0.0000000000000000
 11
119.5000000000001
 21
46.99999999999989
 31
0.0000000000000000
  0
LINE
  5
43B
100
AcDbEntity
  8
WAKU0
  6
BYBLOCK
 62
0
100
AcDbLine
 10
126.0000000000001
 20
12.00000000000006
 30
0.0000000000000000
 11
126.0000000000001
 21
51.49999999999989
 31
0.0000000000000000
  0
LINE
  5
43C
100
AcDbEntity
  8
WAKU0
  6
BYBLOCK
 62
0
100
AcDbLine
 10
110.5000000000001
 20
20.00000000000004
 30
0.0000000000000000
 11
126.0000000000001
 21
20.00000000000004
 31
0.0000000000000000
  0
LINE
  5
43D
100
AcDbEntity
  8
WAKU0
  6
BYBLOCK
 62
0
100
AcDbLine
 10
110.5000000000001
 20
24.00000000000004
 30
0.0000000000000000
 11
126.0000000000001
 21
24.00000000000004
 31
0.0000000000000000
  0
LINE
  5
43E
100
AcDbEntity
  8
WAKU0
  6
BYBLOCK
 62
0
100
AcDbLine
 10
110.5000000000001
 20
32.00000000000004
 30
0.0000000000000000
 11
126.0000000000001
 21
32.00000000000004
 31
0.0000000000000000
  0
LINE
  5
43F
100
AcDbEntity
  8
WAKU0
  6
BYBLOCK
 62
0
100
AcDbLine
 10
110.5000000000001
 20
35.99999999999956
 30
0.0000000000000000
 11
126.0000000000016
 21
35.99999999999962
 31
0.0000000000000000
  0
LINE
  5
440
100
AcDbEntity
  8
WAKU0
  6
BYBLOCK
 62
0
100
AcDbLine
 10
91.00000000000011
 20
35.99999999999989
 30
0.0000000000000000
 11
106.5000000000001
 21
35.99999999999989
 31
0.0000000000000000
  0
LINE
  5
441
100
AcDbEntity
  8
WAKU0
  6
BYBLOCK
 62
0
100
AcDbLine
 10
91.00000000000017
 20
32.00000000000003
 30
0.0000000000000000
 11
106.5000000000001
 21
32.00000000000003
 31
0.0000000000000000
  0
LINE
  5
442
100
AcDbEntity
  8
WAKU0
  6
BYBLOCK
 62
0
100
AcDbLine
 10
91.50156144527961
 20
24.00000000000003
 30
0.0000000000000000
 11
106.5000000000001
 21
24.00000000000003
 31
0.0000000000000000
  0
LINE
  5
443
100
AcDbEntity
  8
WAKU0
  6
BYBLOCK
 62
0
100
AcDbLine
 10
91.00000000000017
 20
20.00000000000003
 30
0.0000000000000000
 11
106.5000000000001
 21
20.00000000000003
 31
0.0000000000000000
  0
LINE
  5
444
100
AcDbEntity
  8
WAKU0
  6
BYBLOCK
 62
0
100
AcDbLine
 10
87.00000000000017
 20
16.00000000000005
 30
0.0000000000000000
 11
126.0000000000002
 21
16.00000000000005
 31
0.0000000000000000
  0
LINE
  5
445
100
AcDbEntity
  8
WAKU0
  6
BYBLOCK
 62
0
100
AcDbLine
 10
101.8311824646173
 20
37.89966702189282
 30
0.0000000000000000
 11
104.7310501077164
 21
37.89966702189288
 31
0.0000000000000000
  0
LINE
  5
446
100
AcDbEntity
  8
WAKU0
  6
BYBLOCK
 62
0
100
AcDbLine
 10
102.0919983581146
 20
34.96185940587190
 30
0.0000000000000000
 11
105.1293399034055
 21
34.96185940587196
 31
0.0000000000000000
  0
LINE
  5
447
100
AcDbEntity
  8
WAKU0
  6
BYBLOCK
 62
0
100
AcDbLine
 10
101.3640578895821
 20
32.96185940587009
 30
0.0000000000000000
 11
104.4013994348764
 21
32.96185940587009
 31
0.0000000000000000
  0
LINE
  5
448
100
AcDbEntity
  8
WAKU0
  6
BYBLOCK
 62
0
100
AcDbLine
 10
121.9486663247603
 20
33.09825319230356
 30
0.0000000000000000
 11
123.8731735892201
 21
33.09825319230356
 31
0.0000000000000000
  0
LINE
  5
449
100
AcDbEntity
  8
WAKU0
  6
BYBLOCK
 62
0
100
AcDbLine
 10
124.0482517197916
 20
25.99999999999994
 30
0.0000000000000000
 11
121.4482517197915
 21
25.99999999999994
 31
0.0000000000000000
  0
LINE
  5
44A
100
AcDbEntity
  8
WAKU0
  6
BYBLOCK
 62
0
100
AcDbLine
 10
101.3640578895821
 20
32.96185940587290
 30
0.0000000000000000
 11
102.0919983581144
 21
34.96185940587289
 31
0.0000000000000000
  0
LINE
  5
44B
100
AcDbEntity
  8
WAKU0
  6
BYBLOCK
 62
0
100
AcDbLine
 10
104.4013994348730
 20
32.96185940587291
 30
0.0000000000000000
 11
105.1293399034054
 21
34.96185940587296
 31
0.0000000000000000
  0
LINE
  5
44C
100
AcDbEntity
  8
WAKU0
  6
BYBLOCK
 62
0
100
AcDbLine
 10
103.7649213175704
 20
24.49999999999984
 30
0.0000000000000000
 11
104.7840379735158
 21
27.29999999999984
 31
0.0000000000000000
  0
LINE
  5
44D
100
AcDbEntity
  8
WAKU0
  6
BYBLOCK
 62
0
100
AcDbLine
 10
101.6365657726186
 20
24.49999999999992
 30
0.0000000000000000
 11
102.6556824285639
 21
27.29999999999996
 31
0.0000000000000000
  0
LINE
  5
44E
100
AcDbEntity
  8
WAKU0
  6
BYBLOCK
 62
0
100
AcDbLine
 10
101.6869054784107
 20
17.30319173546840
 30
0.0000000000000000
 11
104.6869054784103
 21
17.30319173546840
 31
0.0000000000000000
  0
LINE
  5
44F
100
AcDbEntity
  8
WAKU0
  6
BYBLOCK
 62
0
100
AcDbLine
 10
102.1182444382657
 20
12.87154554177221
 30
0.0000000000000000
 11
104.3751533547218
 21
15.12845445822793
 31
0.0000000000000000
  0
LINE
  5
450
100
AcDbEntity
  8
WAKU0
  6
BYBLOCK
 62
0
100
AcDbLine
 10
103.8767565761340
 20
14.26520591538520
 30
0.0000000000000000
 11
104.3751533547218
 21
15.12845445822794
 31
0.0000000000000000
  0
LINE
  5
451
100
AcDbEntity
  8
WAKU0
  6
BYBLOCK
 62
0
100
AcDbLine
 10
103.5119048118791
 20
14.63005767964023
 30
0.0000000000000000
 11
104.3751533547219
 21
15.12845445822805
 31
0.0000000000000000
  0
LINE
  5
452
100
AcDbEntity
  8
WAKU0
  6
BYBLOCK
 62
0
100
AcDbLine
 10
121.0363038044183
 20
18.00000000000000
 30
0.0000000000000000
 11
124.5853922863337
 21
18.00000000000000
 31
0.0000000000000000
  0
LINE
  5
453
100
AcDbEntity
  8
WAKU0
  6
BYBLOCK
 62
0
100
AcDbLine
 10
123.3108480453760
 20
18.70000000000002
 30
0.0000000000000000
 11
122.3108480453760
 21
18.70000000000002
 31
0.0000000000000000
  0
LINE
  5
454
100
AcDbEntity
  8
WAKU0
  6
BYBLOCK
 62
0
100
AcDbLine
 10
123.3108480453760
 20
17.30000000000001
 30
0.0000000000000000
 11
122.3108480453760
 21
17.30000000000001
 31
0.0000000000000000
  0
LINE
  5
455
100
AcDbEntity
  8
WAKU0
  6
BYBLOCK
 62
0
100
AcDbLine
 10
122.7482517197915
 20
27.29999999999996
 30
0.0000000000000000
 11
122.7482517197915
 21
24.69999999999996
 31
0.0000000000000000
  0
LINE
  5
456
100
AcDbEntity
  8
WAKU0
  6
BYBLOCK
 62
0
100
AcDbLine
 10
121.3073979988184
 20
28.57441112556472
 30
0.0000000000000000
 11
124.1355153517043
 21
31.40252847845065
 31
0.0000000000000000
  0
LINE
  5
457
100
AcDbEntity
  8
WAKU0
  6
BYBLOCK
 62
0
100
AcDbLine
 10
121.3073979988185
 20
28.57441112556475
 30
0.0000000000000000
 11
124.1355153517043
 21
28.57441112556475
 31
0.0000000000000000
  0
LINE
  5
458
100
AcDbEntity
  8
WAKU0
  6
BYBLOCK
 62
0
100
AcDbLine
 10
122.8984442761485
 20
33.09825319230356
 30
0.0000000000000000
 11
122.8984442761485
 21
35.13639378642972
 31
0.0000000000000000
  0
LINE
  5
459
100
AcDbEntity
  8
WAKU0
  6
BYBLOCK
 62
0
100
AcDbLine
 10
123.2223783672457
 20
39.27165210993585
 30
0.0000000000000000
 11
122.2126209892779
 21
36.49736651484179
 31
0.0000000000000000
  0
LINE
  5
45A
100
AcDbEntity
  8
WAKU0
  6
BYBLOCK
 62
0
100
AcDbLine
 10
124.2865561397216
 20
39.27165210993587
 30
0.0000000000000000
 11
123.2767987617539
 21
36.49736651484186
 31
0.0000000000000000
  0
LINE
  5
45B
100
AcDbEntity
  8
WAKU0
  6
BYBLOCK
 62
0
100
AcDbLine
 10
87.00000000000011
 20
46.99999999999972
 30
0.0000000000000000
 11
126.0000000000001
 21
46.99999999999978
 31
0.0000000000000000
  0
LINE
  5
45C
100
AcDbEntity
  8
WAKU0
  6
BYBLOCK
 62
0
100
AcDbLine
 10
87.00000000000000
 20
12.00000000000001
 30
0.0000000000000000
 11
126.0000000000000
 21
12.00000000000006
 31
0.0000000000000000
  0
LINE
  5
45D
100
AcDbEntity
  8
WAKU0
  6
BYBLOCK
 62
0
100
AcDbLine
 10
87.00000000000011
 20
39.99999999999972
 30
0.0000000000000000
 11
125.9999999999998
 21
39.99999999999978
 31
0.0000000000000000
  0
LINE
  5
45E
100
AcDbEntity
  8
WAKU0
  6
BYBLOCK
 62
0
100
AcDbLine
 10
106.5000000000001
 20
12.00000000000006
 30
0.0000000000000000
 11
106.5000000000001
 21
46.99999999999989
 31
0.0000000000000000
  0
LINE
  5
45F
100
AcDbEntity
  8
WAKU0
  6
BYBLOCK
 62
0
100
AcDbLine
 10
91.00000000000023
 20
28.00000000000005
 30
0.0000000000000000
 11
125.9999999999999
 21
28.00000000000005
 31
0.0000000000000000
  0
MTEXT
  5
460
100
AcDbEntity
  8
WAKU0
  6
BYBLOCK
 62
0
100
AcDbMText
 10
87.50000000000011
 20
35.80000019073475
 30
0.0000000000000000
 40
2.800000190734863
 41
0.0000000000000000
 71
     1
 72
     3
  1
形　　　状
 11
1.000000000000000
 21
0.0000000000000000
 31
0.0000000000000000
  7
KNJTATE
  0
MTEXT
  5
461
100
AcDbEntity
  8
WAKU0
  6
BYBLOCK
 62
0
100
AcDbMText
 10
107.0000000000001
 20
38.30000019073475
 30
0.0000000000000000
 40
2.800000190734863
 41
0.0000000000000000
 71
     1
 72
     3
  1
方　向
 11
1.000000000000000
 21
0.0000000000000000
 31
0.0000000000000000
  7
KNJTATE
  0
MTEXT
  5
462
100
AcDbEntity
  8
WAKU0
  6
BYBLOCK
 62
0
100
AcDbMText
 10
107.0000000000001
 20
26.30000019073489
 30
0.0000000000000000
 40
2.800000190734863
 41
0.0000000000000000
 71
     1
 72
     3
  1
位　置
 11
1.000000000000000
 21
0.0000000000000000
 31
0.0000000000000000
  7
KNJTATE
  0
LINE
  5
463
100
AcDbEntity
  8
WAKU0
  6
BYBLOCK
 62
0
100
AcDbLine
 10
123.8713639848459
 20
12.78150451227957
 30
0.0000000000000000
 11
121.6254053952216
 21
12.78150451227943
 31
0.0000000000000000
  0
POLYLINE
  5
464
100
AcDbEntity
  8
WAKU0
  6
BYBLOCK
 62
0
100
AcDb2dPolyline
 66
     1
 10
0.0000000000000000
 20
0.0000000000000000
 30
0.0000000000000000
 70
     1
 40
0.5000000000000000
 41
0.5000000000000000
  0
VERTEX
  5
465
100
AcDbEntity
  8
WAKU0
  6
BYBLOCK
 62
0
100
AcDbVertex
100
AcDb2dVertex
 10
122.9983846900337
 20
13.42985691043370
 30
0.0000000000000000
 42
1.000000000000000
  0
VERTEX
  5
466
100
AcDbEntity
  8
WAKU0
  6
BYBLOCK
 62
0
100
AcDbVertex
100
AcDb2dVertex
 10
122.4983846900337
 20
13.42985691043370
 30
0.0000000000000000
 42
1.000000000000000
  0
SEQEND
  5
467
100
AcDbEntity
  8
WAKU0
  6
BYBLOCK
 62
0
  0
LINE
  5
468
100
AcDbEntity
  8
WAKU0
  6
BYBLOCK
 62
0
100
AcDbLine
 10
123.5249538052654
 20
12.98150452271037
 30
0.0000000000000000
 11
122.7483846900338
 21
14.32656168588039
 31
0.0000000000000000
  0
LINE
  5
469
100
AcDbEntity
  8
WAKU0
  6
BYBLOCK
 62
0
100
AcDbLine
 10
122.7483846900338
 20
14.32656168588038
 30
0.0000000000000000
 11
121.9718155748021
 21
12.98150452271025
 31
0.0000000000000000
  0
LINE
  5
46A
100
AcDbEntity
  8
WAKU0
  6
BYBLOCK
 62
0
100
AcDbLine
 10
121.9718155748021
 20
12.98150452271025
 30
0.0000000000000000
 11
123.5249538052654
 21
12.98150452271039
 31
0.0000000000000000
  0
LINE
  5
46B
100
AcDbEntity
  8
WAKU0
  6
BYBLOCK
 62
0
100
AcDbLine
 10
123.8713639728013
 20
12.78150451227958
 30
0.0000000000000000
 11
122.7483846900337
 21
14.72656168588039
 31
0.0000000000000000
  0
LINE
  5
46C
100
AcDbEntity
  8
WAKU0
  6
BYBLOCK
 62
0
100
AcDbLine
 10
122.7483846900338
 20
14.72656168588044
 30
0.0000000000000000
 11
121.6254054072662
 21
12.78150451227941
 31
0.0000000000000000
  0
LINE
  5
46D
100
AcDbEntity
  8
WAKU0
  6
BYBLOCK
 62
0
100
AcDbLine
 10
87.00000000000023
 20
51.49999999999625
 30
0.0000000000000000
 11
126.0000000000001
 21
51.49999999999989
 31
0.0000000000000000
  0
ENDBLK
  5
46E
100
AcDbEntity
  8
WAKU0
  6
BYBLOCK
 62
12
100
AcDbBlockEnd
  0
ENDSEC
  0
SECTION
  2
ENTITIES
  0
LINE
  5
46
100
AcDbEntity
  8
MAIN0
  6
CONTINUOUS
 62
3
100
AcDbLine
 10
90.00000000000000
 20
138.5000000000000
 30
0.0000000000000000
 11
90.00000000000000
 21
221.5000000000000
 31
0.0000000000000000
  0
LINE
  5
47
100
AcDbEntity
  8
MAIN0
  6
CONTINUOUS
 62
3
100
AcDbLine
 10
101.0000000000000
 20
165.0000000000000
 30
0.0000000000000000
 11
101.0000000000000
 21
195.0000000000000
 31
0.0000000000000000
  0
LINE
  5
48
100
AcDbEntity
  8
MAIN0
  6
CONTINUOUS
 62
3
100
AcDbLine
 10
101.0000000000000
 20
194.5000000000000
 30
0.0000000000000000
 11
104.5284583460828
 21
194.5000000000000
 31
0.0000000000000000
  0
LINE
  5
49
100
AcDbEntity
  8
MAIN0
  6
CONTINUOUS
 62
3
100
AcDbLine
 10
91.00000000000000
 20
222.5000000000000
 30
0.0000000000000000
 11
134.0000000000000
 21
222.5000000000000
 31
0.0000000000000000
  0
LINE
  5
4A
100
AcDbEntity
  8
MAIN0
  6
CONTINUOUS
 62
3
100
AcDbLine
 10
90.00000000000000
 20
221.5000000000000
 30
0.0000000000000000
 11
91.00000000000000
 21
222.5000000000000
 31
0.0000000000000000
  0
ARC
  5
4B
100
AcDbEntity
  8
MAIN0
  6
CONTINUOUS
 62
3
100
AcDbCircle
 10
134.0000000000000
 20
221.5000000000000
 30
0.0000000000000000
 40
1.000000000000000
100
AcDbArc
 50
0.0000000000000000
 51
90.00000000000000
  0
LINE
  5
4C
100
AcDbEntity
  8
MAIN0
  6
CONTINUOUS
 62
3
100
AcDbLine
 10
90.00000000000000
 20
210.0000000000000
 30
0.0000000000000000
 11
95.00000000000007
 21
210.0000000000000
 31
0.0000000000000000
  0
LINE
  5
4D
100
AcDbEntity
  8
MAIN0
  6
PHANTOM
 62
3
100
AcDbLine
 10
135.0000000000000
 20
185.5000000000000
 30
0.0000000000000000
 11
149.5000000000000
 21
185.5000000000000
 31
0.0000000000000000
  0
LINE
  5
4E
100
AcDbEntity
  8
MAIN0
  6
CONTINUOUS
 62
3
100
AcDbLine
 10
90.00000000000000
 20
138.5000000000000
 30
0.0000000000000000
 11
91.00000000000000
 21
137.5000000000000
 31
0.0000000000000000
  0
ARC
  5
4F
100
AcDbEntity
  8
MAIN0
  6
CONTINUOUS
 62
3
100
AcDbCircle
 10
134.0000000000000
 20
138.5000000000000
 30
0.0000000000000000
 40
1.000000000000000
100
AcDbArc
 50
270.0000000000000
 51
360.0000000000000
  0
LINE
  5
50
100
AcDbEntity
  8
MAIN0
  6
CONTINUOUS
 62
3
100
AcDbLine
 10
90.00000000000000
 20
150.0000000000000
 30
0.0000000000000000
 11
95.00000000000007
 21
150.0000000000000
 31
0.0000000000000000
  0
LINE
  5
51
100
AcDbEntity
  8
MAIN0
  6
PHANTOM
 62
3
100
AcDbLine
 10
135.0000000000000
 20
174.5000000000000
 30
0.0000000000000000
 11
149.5000000000000
 21
174.5000000000000
 31
0.0000000000000000
  0
ARC
  5
52
100
AcDbEntity
  8
MAIN0
  6
HIDDEN
 62
3
100
AcDbCircle
 10
134.0000000000000
 20
171.0000000000000
 30
0.0000000000000000
 40
1.000000000000000
100
AcDbArc
 50
0.0000000000000000
 51
90.00000000000000
  0
LINE
  5
53
100
AcDbEntity
  8
MAIN0
  6
CENTER
 62
3
100
AcDbLine
 10
87.50000000000000
 20
216.5000000000000
 30
0.0000000000000000
 11
110.0000000000000
 21
216.5000000000000
 31
0.0000000000000000
  0
LINE
  5
54
100
AcDbEntity
  8
MAIN0
  6
CONTINUOUS
 62
3
100
AcDbLine
 10
101.0000000000000
 20
195.0000000000000
 30
0.0000000000000000
 11
104.6794353862608
 21
195.0000000000000
 31
0.0000000000000000
  0
LINE
  5
55
100
AcDbEntity
  8
MAIN0
  6
CONTINUOUS
 62
3
100
AcDbLine
 10
93.50000000000000
 20
150.0000000000000
 30
0.0000000000000000
 11
93.50000000000000
 21
210.0000000000000
 31
0.0000000000000000
  0
LINE
  5
56
100
AcDbEntity
  8
MAIN0
  6
CONTINUOUS
 62
3
100
AcDbLine
 10
93.50000000000000
 20
210.0000000000000
 30
0.0000000000000000
 11
97.49999999999997
 21
210.0000000000000
 31
0.0000000000000000
  0
LINE
  5
57
100
AcDbEntity
  8
MAIN0
  6
CONTINUOUS
 62
3
100
AcDbLine
 10
97.50000000000000
 20
198.7679491924311
 30
0.0000000000000000
 11
97.50000000000000
 21
210.0000000000000
 31
0.0000000000000000
  0
LINE
  5
58
100
AcDbEntity
  8
MAIN0
  6
CONTINUOUS
 62
3
100
AcDbLine
 10
96.50000000000000
 20
200.5000000000000
 30
0.0000000000000000
 11
96.50000000000000
 21
205.2500000000000
 31
0.0000000000000000
  0
ARC
  5
59
100
AcDbEntity
  8
MAIN0
  6
CONTINUOUS
 62
3
100
AcDbCircle
 10
97.50000000000000
 20
205.2500000000000
 30
0.0000000000000000
 40
1.000000000000000
100
AcDbArc
 50
90.00000000000000
 51
180.0000000000000
  0
ARC
  5
5A
100
AcDbEntity
  8
MAIN0
  6
CONTINUOUS
 62
3
100
AcDbCircle
 10
98.50000000000000
 20
200.5000000000000
 30
0.0000000000000000
 40
2.000000000000000
100
AcDbArc
 50
180.0000000000000
 51
270.0000000000000
  0
ARC
  5
5B
100
AcDbEntity
  8
MAIN0
  6
CONTINUOUS
 62
3
100
AcDbCircle
 10
98.50000000000000
 20
159.5000000000000
 30
0.0000000000000000
 40
2.000000000000000
100
AcDbArc
 50
90.00000000000000
 51
180.0000000000000
  0
LINE
  5
5C
100
AcDbEntity
  8
MAIN0
  6
CONTINUOUS
 62
3
100
AcDbLine
 10
97.50000000000000
 20
161.2320508075689
 30
0.0000000000000000
 11
97.50000000000000
 21
152.1205192018713
 31
0.0000000000000000
  0
LINE
  5
5D
100
AcDbEntity
  8
MAIN0
  6
CONTINUOUS
 62
3
100
AcDbLine
 10
96.50000000000000
 20
159.5000000000000
 30
0.0000000000000000
 11
96.50000000000000
 21
154.7500000000000
 31
0.0000000000000000
  0
ARC
  5
5E
100
AcDbEntity
  8
MAIN0
  6
CONTINUOUS
 62
3
100
AcDbCircle
 10
97.50000000000000
 20
154.7500000000000
 30
0.0000000000000000
 40
1.000000000000000
100
AcDbArc
 50
180.0000000000000
 51
270.0000000000000
  0
LINE
  5
5F
100
AcDbEntity
  8
MAIN0
  6
CONTINUOUS
 62
3
100
AcDbLine
 10
95.00000000000000
 20
149.5000000000000
 30
0.0000000000000000
 11
95.00000000000000
 21
150.0000000000000
 31
0.0000000000000000
  0
LINE
  5
60
100
AcDbEntity
  8
MAIN0
  6
CONTINUOUS
 62
3
100
AcDbLine
 10
95.00000000000000
 20
210.0000000000000
 30
0.0000000000000000
 11
95.00000000000000
 21
210.5000000000000
 31
0.0000000000000000
  0
LINE
  5
61
100
AcDbEntity
  8
MAIN0
  6
CENTER
 62
3
100
AcDbLine
 10
87.50000000000000
 20
191.5000000000000
 30
0.0000000000000000
 11
105.6121034483282
 21
191.5000000000000
 31
0.0000000000000000
  0
LINE
  5
62
100
AcDbEntity
  8
MAIN0
  6
PHANTOM
 62
3
100
AcDbLine
 10
94.50000000000000
 20
194.2000000000000
 30
0.0000000000000000
 11
97.99999999999999
 21
194.2000000000000
 31
0.0000000000000000
  0
LINE
  5
63
100
AcDbEntity
  8
MAIN0
  6
PHANTOM
 62
3
100
AcDbLine
 10
98.00000000000000
 20
193.4000000000000
 30
0.0000000000000000
 11
101.0000000000000
 21
193.4000000000000
 31
0.0000000000000000
  0
LINE
  5
64
100
AcDbEntity
  8
MAIN0
  6
CONTINUOUS
 62
3
100
AcDbLine
 10
94.50000000000000
 20
165.4999999999873
 30
0.0000000000000000
 11
94.50000000000000
 21
194.5000000000127
 31
0.0000000000000000
  0
LINE
  5
65
100
AcDbEntity
  8
MAIN0
  6
PHANTOM
 62
3
100
AcDbLine
 10
98.00000000000000
 20
188.8000000000000
 30
0.0000000000000000
 11
98.00000000000000
 21
194.2000000000000
 31
0.0000000000000000
  0
LINE
  5
66
100
AcDbEntity
  8
MAIN0
  6
CONTINUOUS
 62
3
100
AcDbLine
 10
93.49999999999996
 20
195.5000000000127
 30
0.0000000000000000
 11
94.49999999999997
 21
194.5000000000127
 31
0.0000000000000000
  0
LINE
  5
67
100
AcDbEntity
  8
MAIN0
  6
PHANTOM
 62
3
100
AcDbLine
 10
94.50000000000000
 20
188.8000000000000
 30
0.0000000000000000
 11
97.99999999999999
 21
188.8000000000000
 31
0.0000000000000000
  0
LINE
  5
68
100
AcDbEntity
  8
MAIN0
  6
PHANTOM
 62
3
100
AcDbLine
 10
98.00000000000000
 20
189.6000000000000
 30
0.0000000000000000
 11
101.0000000000000
 21
189.6000000000000
 31
0.0000000000000000
  0
LINE
  5
69
100
AcDbEntity
  8
MAIN0
  6
CONTINUOUS
 62
3
100
AcDbLine
 10
93.49999999999996
 20
164.4999999999873
 30
0.0000000000000000
 11
94.49999999999997
 21
165.4999999999873
 31
0.0000000000000000
  0
LINE
  5
6A
100
AcDbEntity
  8
MAIN0
  6
CONTINUOUS
 62
3
100
AcDbLine
 10
134.0000000000000
 20
222.5000000000000
 30
0.0000000000000000
 11
137.2000000000001
 21
222.5000000000000
 31
0.0000000000000000
  0
LINE
  5
6B
100
AcDbEntity
  8
MAIN0
  6
CONTINUOUS
 62
3
100
AcDbLine
 10
137.5000000000000
 20
217.5000000000000
 30
0.0000000000000000
 11
138.0000000000000
 21
217.5000000000000
 31
0.0000000000000000
  0
LINE
  5
6C
100
AcDbEntity
  8
MAIN0
  6
CONTINUOUS
 62
3
100
AcDbLine
 10
150.0000000000000
 20
187.8000000000000
 30
0.0000000000000000
 11
150.0000000000000
 21
198.2000000000000
 31
0.0000000000000000
  0
LINE
  5
6D
100
AcDbEntity
  8
MAIN0
  6
CONTINUOUS
 62
3
100
AcDbLine
 10
138.0000000000000
 20
209.6999999997370
 30
0.0000000000000000
 11
138.0000000000000
 21
217.5000000000000
 31
0.0000000000000000
  0
LINE
  5
6E
100
AcDbEntity
  8
MAIN0
  6
CONTINUOUS
 62
3
100
AcDbLine
 10
144.0000000000000
 20
199.6999999997370
 30
0.0000000000000000
 11
144.0000000000000
 21
208.2000000000000
 31
0.0000000000000000
  0
LINE
  5
6F
100
AcDbEntity
  8
MAIN0
  6
CONTINUOUS
 62
3
100
AcDbLine
 10
137.5000000000000
 20
217.5000000000000
 30
0.0000000000000000
 11
137.5000000000000
 21
222.2000000000000
 31
0.0000000000000000
  0
LINE
  5
70
100
AcDbEntity
  8
MAIN0
  6
CONTINUOUS
 62
3
100
AcDbLine
 10
149.7000000000000
 20
187.5000000000000
 30
0.0000000000000000
 11
150.0000000000000
 21
187.8000000000000
 31
0.0000000000000000
  0
LINE
  5
71
100
AcDbEntity
  8
MAIN0
  6
CONTINUOUS
 62
3
100
AcDbLine
 10
149.7000000000000
 20
198.5000000000000
 30
0.0000000000000000
 11
150.0000000000000
 21
198.2000000000000
 31
0.0000000000000000
  0
LINE
  5
72
100
AcDbEntity
  8
MAIN0
  6
CONTINUOUS
 62
3
100
AcDbLine
 10
143.7000000000000
 20
208.5000000000000
 30
0.0000000000000000
 11
144.0000000000000
 21
208.2000000000000
 31
0.0000000000000000
  0
LINE
  5
73
100
AcDbEntity
  8
MAIN0
  6
CONTINUOUS
 62
3
100
AcDbLine
 10
137.2000000000001
 20
222.5000000000000
 30
0.0000000000000000
 11
137.5000000000000
 21
222.2000000000000
 31
0.0000000000000000
  0
LINE
  5
74
100
AcDbEntity
  8
MAIN0
  6
CONTINUOUS
 62
3
100
AcDbLine
 10
138.3000000002523
 20
207.9803847579038
 30
0.0000000000000000
 11
139.1999999999516
 21
208.5000000000000
 31
0.0000000000000000
  0
LINE
  5
75
100
AcDbEntity
  8
MAIN0
  6
CONTINUOUS
 62
3
100
AcDbLine
 10
137.4803847579820
 20
208.8000000001749
 30
0.0000000000000000
 11
138.0000000000000
 21
209.6999999997370
 31
0.0000000000000000
  0
ARC
  5
76
100
AcDbEntity
  8
MAIN0
  6
CONTINUOUS
 62
3
100
AcDbCircle
 10
138.0000000002526
 20
208.5000000001748
 30
0.0000000000000000
 40
0.6000000000000000
100
AcDbArc
 50
149.9999999999898
 51
299.9999999999581
  0
LINE
  5
77
100
AcDbEntity
  8
MAIN0
  6
CONTINUOUS
 62
3
100
AcDbLine
 10
143.4803847579820
 20
198.8000000001749
 30
0.0000000000000000
 11
144.0000000000000
 21
199.6999999997370
 31
0.0000000000000000
  0
ARC
  5
78
100
AcDbEntity
  8
MAIN0
  6
CONTINUOUS
 62
3
100
AcDbCircle
 10
144.0000000002526
 20
198.5000000001748
 30
0.0000000000000000
 40
0.6000000000000000
100
AcDbArc
 50
149.9999999999898
 51
299.9999999999581
  0
LINE
  5
79
100
AcDbEntity
  8
MAIN0
  6
CONTINUOUS
 62
3
100
AcDbLine
 10
144.3000000002523
 20
197.9803847579038
 30
0.0000000000000000
 11
145.1999999999516
 21
198.5000000000000
 31
0.0000000000000000
  0
LINE
  5
7A
100
AcDbEntity
  8
MAIN0
  6
CENTER
 62
3
100
AcDbLine
 10
147.4000000000000
 20
196.4846668970866
 30
0.0000000000000000
 11
147.4000000000000
 21
199.3226856987186
 31
0.0000000000000000
  0
LINE
  5
7B
100
AcDbEntity
  8
MAIN0
  6
CONTINUOUS
 62
3
100
AcDbLine
 10
147.5732050806575
 20
197.7607695154596
 30
0.0000000000000000
 11
147.9999999998997
 21
198.4999999999999
 31
0.0000000000000000
  0
LINE
  5
7C
100
AcDbEntity
  8
MAIN0
  6
CONTINUOUS
 62
3
100
AcDbLine
 10
146.7999999999018
 20
198.5000000000001
 30
0.0000000000000000
 11
147.2267949191437
 21
197.7607695154597
 31
0.0000000000000000
  0
ARC
  5
7D
100
AcDbEntity
  8
MAIN0
  6
CONTINUOUS
 62
3
100
AcDbCircle
 10
147.3999999999006
 20
197.8607695154595
 30
0.0000000000000000
 40
0.2000000000000000
100
AcDbArc
 50
209.9999999999750
 51
330.0000000000068
  0
LINE
  5
7E
100
AcDbEntity
  8
MAIN0
  6
CONTINUOUS
 62
3
100
AcDbLine
 10
145.1999999999516
 20
198.5000000000000
 30
0.0000000000000000
 11
146.7999999999018
 21
198.5000000000000
 31
0.0000000000000000
  0
LINE
  5
7F
100
AcDbEntity
  8
MAIN0
  6
CONTINUOUS
 62
3
100
AcDbLine
 10
147.9999999998997
 20
198.5000000000000
 30
0.0000000000000000
 11
149.7000000000000
 21
198.5000000000000
 31
0.0000000000000000
  0
LINE
  5
80
100
AcDbEntity
  8
MAIN0
  6
CENTER
 62
3
100
AcDbLine
 10
141.7000000000000
 20
206.4846668970866
 30
0.0000000000000000
 11
141.7000000000000
 21
209.3226856987186
 31
0.0000000000000000
  0
LINE
  5
81
100
AcDbEntity
  8
MAIN0
  6
CONTINUOUS
 62
3
100
AcDbLine
 10
141.8732050806576
 20
207.7607695154596
 30
0.0000000000000000
 11
142.2999999998997
 21
208.4999999999999
 31
0.0000000000000000
  0
LINE
  5
82
100
AcDbEntity
  8
MAIN0
  6
CONTINUOUS
 62
3
100
AcDbLine
 10
141.0999999999019
 20
208.5000000000000
 30
0.0000000000000000
 11
141.5267949191437
 21
207.7607695154596
 31
0.0000000000000000
  0
ARC
  5
83
100
AcDbEntity
  8
MAIN0
  6
CONTINUOUS
 62
3
100
AcDbCircle
 10
141.6999999999006
 20
207.8607695154595
 30
0.0000000000000000
 40
0.2000000000000000
100
AcDbArc
 50
209.9999999999750
 51
330.0000000000068
  0
LINE
  5
84
100
AcDbEntity
  8
MAIN0
  6
CONTINUOUS
 62
3
100
AcDbLine
 10
139.1999999999517
 20
208.5000000000000
 30
0.0000000000000000
 11
141.0999999999019
 21
208.5000000000000
 31
0.0000000000000000
  0
LINE
  5
85
100
AcDbEntity
  8
MAIN0
  6
CONTINUOUS
 62
3
100
AcDbLine
 10
142.2999999998997
 20
208.5000000000000
 30
0.0000000000000000
 11
143.7000000000000
 21
208.5000000000000
 31
0.0000000000000000
  0
LINE
  5
86
100
AcDbEntity
  8
MAIN0
  6
CENTER
 62
3
100
AcDbLine
 10
146.5000000000000
 20
189.5153331029134
 30
0.0000000000000000
 11
146.5000000000000
 21
187.0000000000000
 31
0.0000000000000000
  0
LINE
  5
87
100
AcDbEntity
  8
MAIN0
  6
CONTINUOUS
 62
3
100
AcDbLine
 10
146.3267949193425
 20
188.2392304845404
 30
0.0000000000000000
 11
145.9000000001003
 21
187.5000000000001
 31
0.0000000000000000
  0
LINE
  5
88
100
AcDbEntity
  8
MAIN0
  6
CONTINUOUS
 62
3
100
AcDbLine
 10
147.1000000000981
 20
187.4999999999999
 30
0.0000000000000000
 11
146.6732050808563
 21
188.2392304845403
 31
0.0000000000000000
  0
ARC
  5
89
100
AcDbEntity
  8
MAIN0
  6
CONTINUOUS
 62
3
100
AcDbCircle
 10
146.5000000000994
 20
188.1392304845405
 30
0.0000000000000000
 40
0.2000000000000000
100
AcDbArc
 50
29.99999999997498
 51
150.0000000000069
  0
LINE
  5
8A
100
AcDbEntity
  8
MAIN0
  6
CENTER
 62
3
100
AcDbLine
 10
143.0000000000000
 20
189.5153331029134
 30
0.0000000000000000
 11
143.0000000000000
 21
187.0000000000000
 31
0.0000000000000000
  0
LINE
  5
8B
100
AcDbEntity
  8
MAIN0
  6
CONTINUOUS
 62
3
100
AcDbLine
 10
142.8267949193425
 20
188.2392304845404
 30
0.0000000000000000
 11
142.4000000001003
 21
187.5000000000001
 31
0.0000000000000000
  0
LINE
  5
8C
100
AcDbEntity
  8
MAIN0
  6
CONTINUOUS
 62
3
100
AcDbLine
 10
143.6000000000981
 20
187.4999999999999
 30
0.0000000000000000
 11
143.1732050808563
 21
188.2392304845403
 31
0.0000000000000000
  0
ARC
  5
8D
100
AcDbEntity
  8
MAIN0
  6
CONTINUOUS
 62
3
100
AcDbCircle
 10
143.0000000000994
 20
188.1392304845405
 30
0.0000000000000000
 40
0.2000000000000000
100
AcDbArc
 50
29.99999999997498
 51
150.0000000000069
  0
LINE
  5
8E
100
AcDbEntity
  8
MAIN0
  6
CENTER
 62
3
100
AcDbLine
 10
139.5000000000000
 20
189.5153331029134
 30
0.0000000000000000
 11
139.5000000000000
 21
187.0000000000000
 31
0.0000000000000000
  0
LINE
  5
8F
100
AcDbEntity
  8
MAIN0
  6
CONTINUOUS
 62
3
100
AcDbLine
 10
139.3267949193424
 20
188.2392304845404
 30
0.0000000000000000
 11
138.9000000001003
 21
187.5000000000001
 31
0.0000000000000000
  0
LINE
  5
90
100
AcDbEntity
  8
MAIN0
  6
CONTINUOUS
 62
3
100
AcDbLine
 10
140.1000000000982
 20
187.4999999999999
 30
0.0000000000000000
 11
139.6732050808563
 21
188.2392304845403
 31
0.0000000000000000
  0
ARC
  5
91
100
AcDbEntity
  8
MAIN0
  6
CONTINUOUS
 62
3
100
AcDbCircle
 10
139.5000000000994
 20
188.1392304845405
 30
0.0000000000000000
 40
0.2000000000000000
100
AcDbArc
 50
29.99999999997498
 51
150.0000000000069
  0
LINE
  5
92
100
AcDbEntity
  8
MAIN0
  6
CENTER
 62
3
100
AcDbLine
 10
136.0000000000000
 20
189.5153331029134
 30
0.0000000000000000
 11
136.0000000000000
 21
187.0000000000000
 31
0.0000000000000000
  0
LINE
  5
93
100
AcDbEntity
  8
MAIN0
  6
CONTINUOUS
 62
3
100
AcDbLine
 10
135.8267949193424
 20
188.2392304845404
 30
0.0000000000000000
 11
135.4000000001003
 21
187.5000000000000
 31
0.0000000000000000
  0
LINE
  5
94
100
AcDbEntity
  8
MAIN0
  6
CONTINUOUS
 62
3
100
AcDbLine
 10
136.6000000000982
 20
187.5000000000000
 30
0.0000000000000000
 11
136.1732050808563
 21
188.2392304845404
 31
0.0000000000000000
  0
ARC
  5
95
100
AcDbEntity
  8
MAIN0
  6
CONTINUOUS
 62
3
100
AcDbCircle
 10
136.0000000000994
 20
188.1392304845405
 30
0.0000000000000000
 40
0.2000000000000000
100
AcDbArc
 50
29.99999999997498
 51
150.0000000000069
  0
LINE
  5
96
100
AcDbEntity
  8
MAIN0
  6
CONTINUOUS
 62
3
100
AcDbLine
 10
147.1000000000981
 20
187.5000000000000
 30
0.0000000000000000
 11
149.7000000000000
 21
187.5000000000000
 31
0.0000000000000000
  0
LINE
  5
97
100
AcDbEntity
  8
MAIN0
  6
CONTINUOUS
 62
3
100
AcDbLine
 10
143.6000000000981
 20
187.5000000000000
 30
0.0000000000000000
 11
145.9000000001003
 21
187.5000000000000
 31
0.0000000000000000
  0
LINE
  5
98
100
AcDbEntity
  8
MAIN0
  6
CONTINUOUS
 62
3
100
AcDbLine
 10
140.1000000000982
 20
187.5000000000000
 30
0.0000000000000000
 11
142.4000000001003
 21
187.5000000000000
 31
0.0000000000000000
  0
LINE
  5
99
100
AcDbEntity
  8
MAIN0
  6
CONTINUOUS
 62
3
100
AcDbLine
 10
136.6000000000982
 20
187.5000000000000
 30
0.0000000000000000
 11
138.9000000001003
 21
187.5000000000000
 31
0.0000000000000000
  0
LINE
  5
9A
100
AcDbEntity
  8
MAIN0
  6
PHANTOM
 62
3
100
AcDbLine
 10
133.9999999999998
 20
137.4999999999997
 30
0.0000000000000000
 11
149.8000000000005
 21
137.4999999999966
 31
0.0000000000000000
  0
LINE
  5
9B
100
AcDbEntity
  8
MAIN0
  6
PHANTOM
 62
3
100
AcDbLine
 10
135.0000000000000
 20
169.6299338805408
 30
0.0000000000000000
 11
137.5000000000063
 21
169.6299338805422
 31
0.0000000000000000
  0
LINE
  5
9C
100
AcDbEntity
  8
MAIN0
  6
PHANTOM
 62
3
100
AcDbLine
 10
137.5000000000054
 20
165.5000000000320
 30
0.0000000000000000
 11
138.0000000000054
 21
165.5000000000318
 31
0.0000000000000000
  0
LINE
  5
9D
100
AcDbEntity
  8
MAIN0
  6
PHANTOM
 62
3
100
AcDbLine
 10
150.0000000000019
 20
146.3000000000295
 30
0.0000000000000000
 11
150.0000000000004
 21
137.6999999999966
 31
0.0000000000000000
  0
LINE
  5
9E
100
AcDbEntity
  8
MAIN0
  6
PHANTOM
 62
3
100
AcDbLine
 10
144.0000000000036
 20
156.3000000000307
 30
0.0000000000000000
 11
144.0000000000019
 21
147.6999999996730
 31
0.0000000000000000
  0
LINE
  5
9F
100
AcDbEntity
  8
MAIN0
  6
PHANTOM
 62
3
100
AcDbLine
 10
138.0000000000055
 20
165.5000000000318
 30
0.0000000000000000
 11
138.0000000000039
 21
157.6999999996741
 31
0.0000000000000000
  0
LINE
  5
A0
100
AcDbEntity
  8
MAIN0
  6
PHANTOM
 62
3
100
AcDbLine
 10
137.5000000000068
 20
172.3000000000319
 30
0.0000000000000000
 11
137.5000000000055
 21
165.5000000000319
 31
0.0000000000000000
  0
LINE
  5
A1
100
AcDbEntity
  8
MAIN0
  6
PHANTOM
 62
3
100
AcDbLine
 10
137.5000000000068
 20
172.3000000000319
 30
0.0000000000000000
 11
137.3000000000068
 21
172.5000000000320
 31
0.0000000000000000
  0
LINE
  5
A2
100
AcDbEntity
  8
MAIN0
  6
PHANTOM
 62
3
100
AcDbLine
 10
150.0000000000005
 20
137.6999999999966
 30
0.0000000000000000
 11
149.8000000000005
 21
137.4999999999967
 31
0.0000000000000000
  0
LINE
  5
A3
100
AcDbEntity
  8
MAIN0
  6
PHANTOM
 62
3
100
AcDbLine
 10
150.0000000000019
 20
146.3000000000295
 30
0.0000000000000000
 11
149.8000000000020
 21
146.5000000000296
 31
0.0000000000000000
  0
LINE
  5
A4
100
AcDbEntity
  8
MAIN0
  6
PHANTOM
 62
3
100
AcDbLine
 10
143.8000000000037
 20
156.5000000000308
 30
0.0000000000000000
 11
144.0000000000036
 21
156.3000000000307
 31
0.0000000000000000
  0
LINE
  5
A5
100
AcDbEntity
  8
MAIN0
  6
PHANTOM
 62
3
100
AcDbLine
 10
144.3000000002253
 20
145.9803847577881
 30
0.0000000000000000
 11
145.2000000001744
 21
146.5000000000305
 31
0.0000000000000000
  0
LINE
  5
A6
100
AcDbEntity
  8
MAIN0
  6
PHANTOM
 62
3
100
AcDbLine
 10
143.4803847579540
 20
146.8000000000584
 30
0.0000000000000000
 11
144.0000000000020
 21
147.6999999996730
 31
0.0000000000000000
  0
ARC
  5
A7
100
AcDbEntity
  8
MAIN0
  6
PHANTOM
 62
3
100
AcDbCircle
 10
144.0000000002247
 20
146.5000000000586
 30
0.0000000000000000
 40
0.6000000000000000
100
AcDbArc
 50
150.0000000000122
 51
300.0000000000534
  0
LINE
  5
A8
100
AcDbEntity
  8
MAIN0
  6
PHANTOM
 62
3
100
AcDbLine
 10
137.4803847579559
 20
156.8000000000596
 30
0.0000000000000000
 11
138.0000000000040
 21
157.6999999996742
 31
0.0000000000000000
  0
LINE
  5
A9
100
AcDbEntity
  8
MAIN0
  6
PHANTOM
 62
3
100
AcDbLine
 10
138.3000000002273
 20
155.9803847577892
 30
0.0000000000000000
 11
139.2000000001764
 21
156.5000000000317
 31
0.0000000000000000
  0
ARC
  5
AA
100
AcDbEntity
  8
MAIN0
  6
PHANTOM
 62
3
100
AcDbCircle
 10
138.0000000002267
 20
156.5000000000597
 30
0.0000000000000000
 40
0.6000000000000000
100
AcDbArc
 50
150.0000000000122
 51
300.0000000000534
  0
LINE
  5
AB
100
AcDbEntity
  8
MAIN0
  6
PHANTOM
 62
3
100
AcDbLine
 10
135.0000000000000
 20
172.5000000000324
 30
0.0000000000000000
 11
137.3000000000069
 21
172.5000000000320
 31
0.0000000000000000
  0
LINE
  5
AC
100
AcDbEntity
  8
MAIN0
  6
CENTER
 62
3
100
AcDbLine
 10
141.2000000000070
 20
157.2267566106289
 30
0.0000000000000000
 11
141.2000000000064
 21
154.6472104885977
 31
0.0000000000000000
  0
LINE
  5
AD
100
AcDbEntity
  8
MAIN0
  6
PHANTOM
 62
3
100
AcDbLine
 10
141.3732050806389
 20
155.7607695154224
 30
0.0000000000000000
 11
141.7999999999224
 21
156.5000000000326
 31
0.0000000000000000
  0
LINE
  5
AE
100
AcDbEntity
  8
MAIN0
  6
PHANTOM
 62
3
100
AcDbLine
 10
140.5999999998419
 20
156.5000000000327
 30
0.0000000000000000
 11
141.0267949191252
 21
155.7607695154227
 31
0.0000000000000000
  0
ARC
  5
AF
100
AcDbEntity
  8
MAIN0
  6
PHANTOM
 62
3
100
AcDbCircle
 10
141.1999999998822
 20
155.8607695154226
 30
0.0000000000000000
 40
0.2000000000000000
100
AcDbArc
 50
210.0000000000099
 51
329.9999999999517
  0
LINE
  5
B0
100
AcDbEntity
  8
MAIN0
  6
CENTER
 62
3
100
AcDbLine
 10
146.9000000000069
 20
147.2267566106289
 30
0.0000000000000000
 11
146.9000000000064
 21
144.6472104885977
 31
0.0000000000000000
  0
LINE
  5
B1
100
AcDbEntity
  8
MAIN0
  6
PHANTOM
 62
3
100
AcDbLine
 10
147.0732050806389
 20
145.7607695154224
 30
0.0000000000000000
 11
147.4999999999223
 21
146.5000000000326
 31
0.0000000000000000
  0
LINE
  5
B2
100
AcDbEntity
  8
MAIN0
  6
PHANTOM
 62
3
100
AcDbLine
 10
146.2999999998418
 20
146.5000000000327
 30
0.0000000000000000
 11
146.7267949191252
 21
145.7607695154226
 31
0.0000000000000000
  0
ARC
  5
B3
100
AcDbEntity
  8
MAIN0
  6
PHANTOM
 62
3
100
AcDbCircle
 10
146.8999999998821
 20
145.8607695154226
 30
0.0000000000000000
 40
0.2000000000000000
100
AcDbArc
 50
210.0000000000099
 51
329.9999999999517
  0
LINE
  5
B4
100
AcDbEntity
  8
MAIN0
  6
PHANTOM
 62
3
100
AcDbLine
 10
139.2000000001763
 20
156.5000000000316
 30
0.0000000000000000
 11
140.5999999998418
 21
156.5000000000313
 31
0.0000000000000000
  0
LINE
  5
B5
100
AcDbEntity
  8
MAIN0
  6
PHANTOM
 62
3
100
AcDbLine
 10
141.7999999999224
 20
156.5000000000311
 30
0.0000000000000000
 11
143.8000000000037
 21
156.5000000000307
 31
0.0000000000000000
  0
LINE
  5
B6
100
AcDbEntity
  8
MAIN0
  6
PHANTOM
 62
3
100
AcDbLine
 10
145.2000000001744
 20
146.5000000000304
 30
0.0000000000000000
 11
146.2999999998418
 21
146.5000000000302
 31
0.0000000000000000
  0
LINE
  5
B7
100
AcDbEntity
  8
MAIN0
  6
PHANTOM
 62
3
100
AcDbLine
 10
147.4999999999224
 20
146.5000000000300
 30
0.0000000000000000
 11
149.8000000000020
 21
146.5000000000295
 31
0.0000000000000000
  0
LINE
  5
B8
100
AcDbEntity
  8
MAIN0
  6
HIDDEN
 62
3
100
AcDbLine
 10
96.19999999999999
 20
139.0099999999915
 30
0.0000000000000000
 11
117.8000000000000
 21
139.0100000000085
 31
0.0000000000000000
  0
LINE
  5
B9
100
AcDbEntity
  8
MAIN0
  6
HIDDEN
 62
3
100
AcDbLine
 10
96.00000000000000
 20
139.2099999999914
 30
0.0000000000000000
 11
96.20000000000000
 21
139.0099999999915
 31
0.0000000000000000
  0
LINE
  5
BA
100
AcDbEntity
  8
MAIN0
  6
HIDDEN
 62
3
100
AcDbLine
 10
117.8000000000000
 20
139.0100000000085
 30
0.0000000000000000
 11
118.0000000000000
 21
139.2100000000086
 31
0.0000000000000000
  0
LINE
  5
BB
100
AcDbEntity
  8
MAIN0
  6
HIDDEN
 62
3
100
AcDbLine
 10
96.00000000000000
 20
139.2099999999914
 30
0.0000000000000000
 11
96.00000000000000
 21
142.4599999999914
 31
0.0000000000000000
  0
LINE
  5
BC
100
AcDbEntity
  8
MAIN0
  6
CONTINUOUS
 62
3
100
AcDbLine
 10
96.00000000000000
 20
146.9599999999914
 30
0.0000000000000000
 11
96.00000000000000
 21
147.7184959180578
 31
0.0000000000000000
  0
ARC
  5
BD
100
AcDbEntity
  8
MAIN0
  6
HIDDEN
 62
3
100
AcDbCircle
 10
98.00000000000000
 20
144.7099999999947
 30
0.0000000000000000
 40
2.249999999998211
100
AcDbArc
 50
270.0000000000000
 51
450.0000000000000
  0
LINE
  5
BE
100
AcDbEntity
  8
MAIN0
  6
HIDDEN
 62
3
100
AcDbLine
 10
96.00000000000000
 20
142.4599999999913
 30
0.0000000000000000
 11
98.00000000000176
 21
142.4599999999929
 31
0.0000000000000000
  0
LINE
  5
BF
100
AcDbEntity
  8
MAIN0
  6
CONTINUOUS
 62
3
100
AcDbLine
 10
96.00000000000011
 20
147.7184959180578
 30
0.0000000000000000
 11
99.16610231802993
 21
157.0099999999939
 31
0.0000000000000000
  0
ARC
  5
C0
100
AcDbEntity
  8
MAIN0
  6
CONTINUOUS
 62
3
100
AcDbCircle
 10
97.50000000000000
 20
163.8088310072962
 30
0.0000000000000000
 40
7.000000000000000
100
AcDbArc
 50
283.7693910151326
 51
286.6475145929159
  0
LINE
  5
C1
100
AcDbEntity
  8
MAIN0
  6
HIDDEN
 62
3
100
AcDbLine
 10
96.36196943338844
 20
142.4599999999917
 30
0.0000000000000000
 11
95.99999999999997
 21
141.5099999999914
 31
0.0000000000000000
  0
LINE
  5
C2
100
AcDbEntity
  8
MAIN0
  6
HIDDEN
 62
3
100
AcDbLine
 10
101.2500000000000
 20
139.0100000001351
 30
0.0000000000000000
 11
102.3000000000000
 21
139.6162177827843
 31
0.0000000000000000
  0
LINE
  5
C3
100
AcDbEntity
  8
MAIN0
  6
HIDDEN
 62
3
100
AcDbLine
 10
102.3000000000000
 20
139.6162177828124
 30
0.0000000000000000
 11
111.7000000000004
 21
139.6162177828124
 31
0.0000000000000000
  0
LINE
  5
C4
100
AcDbEntity
  8
MAIN0
  6
HIDDEN
 62
3
100
AcDbLine
 10
102.3000000000024
 20
150.0099999999963
 30
0.0000000000000000
 11
111.6999999999976
 21
150.0100000000037
 31
0.0000000000000000
  0
LINE
  5
C5
100
AcDbEntity
  8
MAIN0
  6
HIDDEN
 62
3
100
AcDbLine
 10
102.2999999999996
 20
139.6162177828124
 30
0.0000000000000000
 11
102.3000000000024
 21
150.0099999999963
 31
0.0000000000000000
  0
LINE
  5
C6
100
AcDbEntity
  8
MAIN0
  6
CONTINUOUS
 62
3
100
AcDbLine
 10
102.3070189645628
 20
95.25676643282407
 30
0.0000000000000000
 11
106.7432335671731
 21
99.69298103543440
 31
0.0000000000000000
  0
LINE
  5
C7
100
AcDbEntity
  8
MAIN0
  6
CONTINUOUS
 62
3
100
AcDbLine
 10
107.2567664329152
 20
90.30701896456480
 30
0.0000000000000000
 11
111.6929810354324
 21
94.74323356708197
 31
0.0000000000000000
  0
LINE
  5
C8
100
AcDbEntity
  8
MAIN0
  6
CONTINUOUS
 62
3
100
AcDbLine
 10
102.3070189645628
 20
94.74323356717031
 30
0.0000000000000000
 11
106.7432335671730
 21
90.30701896456006
 31
0.0000000000000000
  0
LINE
  5
C9
100
AcDbEntity
  8
MAIN0
  6
CONTINUOUS
 62
3
100
AcDbLine
 10
107.2567664329151
 20
99.69298103542955
 30
0.0000000000000000
 11
111.6929810354324
 21
95.25676643291232
 31
0.0000000000000000
  0
ARC
  5
CA
100
AcDbEntity
  8
MAIN0
  6
CONTINUOUS
 62
3
100
AcDbCircle
 10
107.0000000000000
 20
94.99999999999722
 30
0.0000000000000000
 40
4.700000000000000
100
AcDbArc
 50
176.8683062268317
 51
183.1316937731690
  0
ARC
  5
CB
100
AcDbEntity
  8
MAIN0
  6
CONTINUOUS
 62
3
100
AcDbCircle
 10
107.0000000000000
 20
94.99999999999722
 30
0.0000000000000000
 40
4.700000000000000
100
AcDbArc
 50
266.8683062268312
 51
273.1316937742470
  0
ARC
  5
CC
100
AcDbEntity
  8
MAIN0
  6
CONTINUOUS
 62
3
100
AcDbCircle
 10
107.0000000000000
 20
94.99999999999722
 30
0.0000000000000000
 40
4.700000000000000
100
AcDbArc
 50
356.8683062257532
 51
363.1316937742454
  0
ARC
  5
CD
100
AcDbEntity
  8
MAIN0
  6
CONTINUOUS
 62
3
100
AcDbCircle
 10
107.0000000000000
 20
94.99999999999722
 30
0.0000000000000000
 40
4.700000000000000
100
AcDbArc
 50
86.86830622575461
 51
93.13169377316832
  0
LINE
  5
CE
100
AcDbEntity
  8
MAIN0
  6
HIDDEN
 62
3
100
AcDbLine
 10
106.7432335671508
 20
139.6162177828124
 30
0.0000000000000000
 11
106.7432335671479
 21
150.0099999999998
 31
0.0000000000000000
  0
LINE
  5
CF
100
AcDbEntity
  8
MAIN0
  6
HIDDEN
 62
3
100
AcDbLine
 10
107.2567664329433
 20
139.6162177828124
 30
0.0000000000000000
 11
107.2567664329404
 21
150.0100000000002
 31
0.0000000000000000
  0
LINE
  5
D0
100
AcDbEntity
  8
MAIN0
  6
HIDDEN
 62
3
100
AcDbLine
 10
103.6000000000000
 20
150.0099999999973
 30
0.0000000000000000
 11
103.6000000000000
 21
152.0099999999973
 31
0.0000000000000000
  0
LINE
  5
D1
100
AcDbEntity
  8
MAIN0
  6
HIDDEN
 62
3
100
AcDbLine
 10
103.6000000000000
 20
152.0099999999973
 30
0.0000000000000000
 11
110.4000000000000
 21
152.0100000000027
 31
0.0000000000000000
  0
LINE
  5
D2
100
AcDbEntity
  8
MAIN0
  6
HIDDEN
 62
3
100
AcDbLine
 10
103.5999999996007
 20
152.0099999999974
 30
0.0000000000000000
 11
107.0000000000000
 21
153.9729909154721
 31
0.0000000000000000
  0
LINE
  5
D3
100
AcDbEntity
  8
MAIN0
  6
HIDDEN
 62
3
100
AcDbLine
 10
118.0000000000000
 20
146.9599999999914
 30
0.0000000000000000
 11
116.0000000000000
 21
146.9599999999929
 31
0.0000000000000000
  0
LINE
  5
D4
100
AcDbEntity
  8
MAIN0
  6
HIDDEN
 62
3
100
AcDbLine
 10
118.0000000000000
 20
139.2099999999914
 30
0.0000000000000000
 11
117.8000000000000
 21
139.0099999999916
 31
0.0000000000000000
  0
LINE
  5
D5
100
AcDbEntity
  8
MAIN0
  6
HIDDEN
 62
3
100
AcDbLine
 10
118.0000000000000
 20
139.2099999999914
 30
0.0000000000000000
 11
118.0000000000000
 21
142.4599999999914
 31
0.0000000000000000
  0
LINE
  5
D6
100
AcDbEntity
  8
MAIN0
  6
HIDDEN
 62
3
100
AcDbLine
 10
118.0000000000000
 20
146.9599999999914
 30
0.0000000000000000
 11
118.0000000000000
 21
147.7184959180578
 31
0.0000000000000000
  0
ARC
  5
D7
100
AcDbEntity
  8
MAIN0
  6
HIDDEN
 62
3
100
AcDbCircle
 10
116.0000000000000
 20
144.7099999999947
 30
0.0000000000000000
 40
2.249999999998211
100
AcDbArc
 50
90.00000000000000
 51
270.0000000000000
  0
LINE
  5
D8
100
AcDbEntity
  8
MAIN0
  6
HIDDEN
 62
3
100
AcDbLine
 10
118.0000000000000
 20
142.4599999999914
 30
0.0000000000000000
 11
115.9999999999982
 21
142.4599999999929
 31
0.0000000000000000
  0
LINE
  5
D9
100
AcDbEntity
  8
MAIN0
  6
HIDDEN
 62
3
100
AcDbLine
 10
117.6380305666116
 20
142.4599999999917
 30
0.0000000000000000
 11
118.0000000000000
 21
141.5099999999914
 31
0.0000000000000000
  0
LINE
  5
DA
100
AcDbEntity
  8
MAIN0
  6
HIDDEN
 62
3
100
AcDbLine
 10
112.7500000000000
 20
139.0100000001351
 30
0.0000000000000000
 11
111.7000000000000
 21
139.6162177827843
 31
0.0000000000000000
  0
LINE
  5
DB
100
AcDbEntity
  8
MAIN0
  6
HIDDEN
 62
3
100
AcDbLine
 10
111.7000000000004
 20
139.6162177828124
 30
0.0000000000000000
 11
111.6999999999976
 21
150.0099999999963
 31
0.0000000000000000
  0
LINE
  5
DC
100
AcDbEntity
  8
MAIN0
  6
HIDDEN
 62
3
100
AcDbLine
 10
107.2567664328493
 20
139.6162177828124
 30
0.0000000000000000
 11
107.2567664328521
 21
150.0099999999998
 31
0.0000000000000000
  0
LINE
  5
DD
100
AcDbEntity
  8
MAIN0
  6
HIDDEN
 62
3
100
AcDbLine
 10
110.4000000000000
 20
150.0099999999973
 30
0.0000000000000000
 11
110.4000000000000
 21
152.0099999999973
 31
0.0000000000000000
  0
LINE
  5
DE
100
AcDbEntity
  8
MAIN0
  6
HIDDEN
 62
3
100
AcDbLine
 10
110.4000000003994
 20
152.0099999999974
 30
0.0000000000000000
 11
107.0000000000000
 21
153.9729909154721
 31
0.0000000000000000
  0
LINE
  5
DF
100
AcDbEntity
  8
MAIN0
  6
CONTINUOUS
 62
3
100
AcDbLine
 10
102.3000000000024
 20
150.0099999999963
 30
0.0000000000000000
 11
106.7432335671507
 21
139.6162177828124
 31
0.0000000000000000
  0
LINE
  5
E0
100
AcDbEntity
  8
MAIN0
  6
CONTINUOUS
 62
3
100
AcDbLine
 10
107.2567664329433
 20
139.6162177828124
 30
0.0000000000000000
 11
111.6999999999976
 21
150.0099999999963
 31
0.0000000000000000
  0
LINE
  5
E1
100
AcDbEntity
  8
MAIN0
  6
CONTINUOUS
 62
3
100
AcDbLine
 10
107.2567664329404
 20
150.0100000000002
 30
0.0000000000000000
 11
111.7000000000000
 21
139.6162177827843
 31
0.0000000000000000
  0
LINE
  5
E2
100
AcDbEntity
  8
MAIN0
  6
CONTINUOUS
 62
3
100
AcDbLine
 10
102.3000000000000
 20
139.6162177827843
 30
0.0000000000000000
 11
106.7432335671479
 21
150.0099999999998
 31
0.0000000000000000
  0
LINE
  5
E3
100
AcDbEntity
  8
MAIN0
  6
CENTER
 62
3
100
AcDbLine
 10
240.0000000000000
 20
130.0000000000000
 30
0.0000000000000000
 11
240.0000000000000
 21
230.0000000000000
 31
0.0000000000000000
  0
CIRCLE
  5
E4
100
AcDbEntity
  8
MAIN0
  6
HIDDEN
 62
3
100
AcDbCircle
 10
240.0000000000000
 20
180.0000000000000
 30
0.0000000000000000
 40
14.50000000000000
  0
LINE
  5
E5
100
AcDbEntity
  8
MAIN0
  6
CONTINUOUS
 62
3
100
AcDbLine
 10
101.0000000000000
 20
165.5000000000000
 30
0.0000000000000000
 11
102.0788583990671
 21
165.5000000000000
 31
0.0000000000000000
  0
LINE
  5
E6
100
AcDbEntity
  8
MAIN0
  6
CONTINUOUS
 62
3
100
AcDbLine
 10
101.0000000000000
 20
165.0000000000000
 30
0.0000000000000000
 11
101.9069285457076
 21
165.0000000000000
 31
0.0000000000000000
  0
LINE
  5
E7
100
AcDbEntity
  8
MAIN0
  6
CONTINUOUS
 62
3
100
AcDbLine
 10
98.50000000000000
 20
161.5000000000000
 30
0.0000000000000000
 11
100.6313152812350
 21
161.5000000000000
 31
0.0000000000000000
  0
LINE
  5
E8
100
AcDbEntity
  8
MAIN0
  6
CONTINUOUS
 62
3
100
AcDbLine
 10
95.00000000000000
 20
149.5000000000000
 30
0.0000000000000000
 11
96.00000000000000
 21
149.5000000000000
 31
0.0000000000000000
  0
LINE
  5
E9
100
AcDbEntity
  8
MAIN0
  6
CONTINUOUS
 62
3
100
AcDbLine
 10
94.26575551367785
 20
150.0000000000001
 30
0.0000000000000000
 11
96.50000000000000
 21
155.2635501589283
 31
0.0000000000000000
  0
LINE
  5
EA
100
AcDbEntity
  8
MAIN0
  6
CONTINUOUS
 62
3
100
AcDbLine
 10
99.14721590009057
 20
161.5000000000000
 30
0.0000000000000000
 11
101.0000000000000
 21
165.8648858051301
 31
0.0000000000000000
  0
LINE
  5
EB
100
AcDbEntity
  8
MAIN0
  6
HIDDEN
 62
3
100
AcDbLine
 10
118.0000000000000
 20
139.0100000000538
 30
0.0000000000000000
 11
118.0000000000000
 21
149.5000000000000
 31
0.0000000000000000
  0
LINE
  5
EC
100
AcDbEntity
  8
MAIN0
  6
HIDDEN
 62
3
100
AcDbLine
 10
94.48999999998733
 20
137.4999999999999
 30
0.0000000000000000
 11
96.00000000000006
 21
139.0100000000132
 31
0.0000000000000000
  0
LINE
  5
ED
100
AcDbEntity
  8
MAIN0
  6
HIDDEN
 62
3
100
AcDbLine
 10
118.0000000000002
 20
139.0100000000538
 30
0.0000000000000000
 11
119.5100000000546
 21
137.4999999999999
 31
0.0000000000000000
  0
LINE
  5
EE
100
AcDbEntity
  8
MAIN0
  6
HIDDEN
 62
3
100
AcDbLine
 10
118.0000000000002
 20
139.0100000000538
 30
0.0000000000000000
 11
96.00000000000006
 21
139.0100000000132
 31
0.0000000000000000
  0
LINE
  5
EF
100
AcDbEntity
  8
MAIN0
  6
CONTINUOUS
 62
3
100
AcDbLine
 10
91.00000000000000
 20
137.5000000000000
 30
0.0000000000000000
 11
94.48999999998733
 21
137.5000000000000
 31
0.0000000000000000
  0
LINE
  5
F0
100
AcDbEntity
  8
MAIN0
  6
CONTINUOUS
 62
3
100
AcDbLine
 10
119.5100000000546
 20
137.5000000000000
 30
0.0000000000000000
 11
134.0000000000000
 21
137.5000000000000
 31
0.0000000000000000
  0
ARC
  5
F1
100
AcDbEntity
  8
MAIN0
  6
CONTINUOUS
 62
3
100
AcDbCircle
 10
107.0000000000209
 20
86.43377483416114
 30
0.0000000000000000
 40
52.57622516583884
100
AcDbArc
 50
76.23499610548051
 51
103.7650038945194
  0
LINE
  5
F2
100
AcDbEntity
  8
MAIN0
  6
CONTINUOUS
 62
3
100
AcDbLine
 10
234.5000000001724
 20
185.8094750194743
 30
0.0000000000000000
 11
234.5000000001925
 21
222.2000000000000
 31
0.0000000000000000
  0
LINE
  5
F3
100
AcDbEntity
  8
MAIN0
  6
CONTINUOUS
 62
3
100
AcDbLine
 10
245.5000000001724
 20
185.8094750191480
 30
0.0000000000000000
 11
245.5000000001925
 21
222.2000000000000
 31
0.0000000000000000
  0
LINE
  5
F4
100
AcDbEntity
  8
MAIN0
  6
CONTINUOUS
 62
3
100
AcDbLine
 10
234.8000000001927
 20
222.5000000000000
 30
0.0000000000000000
 11
245.2000000001928
 21
222.5000000000000
 31
0.0000000000000000
  0
LINE
  5
F5
100
AcDbEntity
  8
MAIN0
  6
CONTINUOUS
 62
3
100
AcDbLine
 10
234.5000000001925
 20
222.2000000000000
 30
0.0000000000000000
 11
234.8000000001927
 21
222.5000000000000
 31
0.0000000000000000
  0
LINE
  5
F6
100
AcDbEntity
  8
MAIN0
  6
CONTINUOUS
 62
3
100
AcDbLine
 10
245.2000000001927
 20
222.5000000000000
 30
0.0000000000000000
 11
245.5000000001926
 21
222.2000000000000
 31
0.0000000000000000
  0
ARC
  5
F7
100
AcDbEntity
  8
MAIN0
  6
CONTINUOUS
 62
3
100
AcDbCircle
 10
240.0000000000000
 20
180.0000000000000
 30
0.0000000000000000
 40
7.500000000000000
100
AcDbArc
 50
86.17744626951313
 51
93.82255372859322
  0
LINE
  5
F8
100
AcDbEntity
  8
MAIN0
  6
CONTINUOUS
 62
3
100
AcDbLine
 10
240.5000000000583
 20
187.4833147734796
 30
0.0000000000000000
 11
245.5000000001749
 21
190.3700661194930
 31
0.0000000000000000
  0
LINE
  5
F9
100
AcDbEntity
  8
MAIN0
  6
CONTINUOUS
 62
3
100
AcDbLine
 10
234.5000000001750
 20
190.3700661194528
 30
0.0000000000000000
 11
239.5000000000583
 21
187.4833147735716
 31
0.0000000000000000
  0
ARC
  5
FA
100
AcDbEntity
  8
MAIN0
  6
CONTINUOUS
 62
3
100
AcDbCircle
 10
240.0000000000000
 20
180.0000000000000
 30
0.0000000000000000
 40
18.50000000000000
100
AcDbArc
 50
72.70465537056118
 51
107.2953446282779
  0
ARC
  5
FB
100
AcDbEntity
  8
MAIN0
  6
CONTINUOUS
 62
3
100
AcDbCircle
 10
240.0000000000000
 20
180.0000000000000
 30
0.0000000000000000
 40
28.50000000000000
100
AcDbArc
 50
78.87311166343402
 51
101.1268883358093
  0
ARC
  5
FC
100
AcDbEntity
  8
MAIN0
  6
CONTINUOUS
 62
3
100
AcDbCircle
 10
240.0000000000000
 20
180.0000000000000
 30
0.0000000000000000
 40
19.70000000000000
100
AcDbArc
 50
73.78826290453081
 51
106.2117370943809
  0
ARC
  5
FD
100
AcDbEntity
  8
MAIN0
  6
CONTINUOUS
 62
3
100
AcDbCircle
 10
240.0000000000000
 20
180.0000000000000
 30
0.0000000000000000
 40
29.70000000000000
100
AcDbArc
 50
79.32807071387401
 51
100.6719292853983
  0
ARC
  5
FE
100
AcDbEntity
  8
MAIN0
  6
CONTINUOUS
 62
3
100
AcDbCircle
 10
240.0000000000000
 20
180.0000000000000
 30
0.0000000000000000
 40
37.50000000000000
100
AcDbArc
 50
81.56619590177019
 51
98.43380409764374
  0
LINE
  5
FF
100
AcDbEntity
  8
MAIN0
  6
CONTINUOUS
 62
3
100
AcDbLine
 10
237.7188470503979
 20
172.3321227695977
 30
0.0000000000000000
 11
206.2037279602004
 21
154.1368602793524
 31
0.0000000000000000
  0
LINE
  5
100
100
AcDbEntity
  8
MAIN0
  6
CONTINUOUS
 62
3
100
AcDbLine
 10
232.2188470506806
 20
181.8584022113897
 30
0.0000000000000000
 11
200.7037279602004
 21
163.6631397209812
 31
0.0000000000000000
  0
LINE
  5
101
100
AcDbEntity
  8
MAIN0
  6
CONTINUOUS
 62
3
100
AcDbLine
 10
205.7939203390650
 20
154.2466679004878
 30
0.0000000000000000
 11
200.5939203390649
 21
163.2533320998461
 31
0.0000000000000000
  0
LINE
  5
102
100
AcDbEntity
  8
MAIN0
  6
CONTINUOUS
 62
3
100
AcDbLine
 10
206.2037279602004
 20
154.1368602793523
 30
0.0000000000000000
 11
205.7939203390650
 21
154.2466679004878
 31
0.0000000000000000
  0
LINE
  5
103
100
AcDbEntity
  8
MAIN0
  6
CONTINUOUS
 62
3
100
AcDbLine
 10
200.5939203390650
 20
163.2533320998460
 30
0.0000000000000000
 11
200.7037279602004
 21
163.6631397209812
 31
0.0000000000000000
  0
ARC
  5
104
100
AcDbEntity
  8
MAIN0
  6
CONTINUOUS
 62
3
100
AcDbCircle
 10
240.0000000000000
 20
180.0000000000000
 30
0.0000000000000000
 40
7.500000000000000
100
AcDbArc
 50
206.1774462695131
 51
213.8225537285932
  0
LINE
  5
105
100
AcDbEntity
  8
MAIN0
  6
CONTINUOUS
 62
3
100
AcDbLine
 10
233.2692593016221
 20
176.6913553152028
 30
0.0000000000000000
 11
228.2692593015073
 21
179.5781066612194
 31
0.0000000000000000
  0
LINE
  5
106
100
AcDbEntity
  8
MAIN0
  6
CONTINUOUS
 62
3
100
AcDbLine
 10
233.7692593015421
 20
170.0518272196107
 30
0.0000000000000000
 11
233.7692593015425
 21
175.8253299113725
 31
0.0000000000000000
  0
ARC
  5
107
100
AcDbEntity
  8
MAIN0
  6
CONTINUOUS
 62
3
100
AcDbCircle
 10
240.0000000000000
 20
180.0000000000000
 30
0.0000000000000000
 40
18.50000000000000
100
AcDbArc
 50
192.7046553705612
 51
227.2953446282779
  0
ARC
  5
108
100
AcDbEntity
  8
MAIN0
  6
CONTINUOUS
 62
3
100
AcDbCircle
 10
240.0000000000000
 20
180.0000000000000
 30
0.0000000000000000
 40
28.50000000000000
100
AcDbArc
 50
198.8731116634340
 51
221.1268883358093
  0
ARC
  5
109
100
AcDbEntity
  8
MAIN0
  6
CONTINUOUS
 62
3
100
AcDbCircle
 10
240.0000000000000
 20
180.0000000000000
 30
0.0000000000000000
 40
19.70000000000000
100
AcDbArc
 50
193.7882629045308
 51
226.2117370943809
  0
ARC
  5
10A
100
AcDbEntity
  8
MAIN0
  6
CONTINUOUS
 62
3
100
AcDbCircle
 10
240.0000000000000
 20
180.0000000000000
 30
0.0000000000000000
 40
29.70000000000000
100
AcDbArc
 50
199.3280707138740
 51
220.6719292853983
  0
ARC
  5
10B
100
AcDbEntity
  8
MAIN0
  6
CONTINUOUS
 62
3
100
AcDbCircle
 10
240.0000000000000
 20
180.0000000000000
 30
0.0000000000000000
 40
37.50000000000000
100
AcDbArc
 50
201.5661959017702
 51
218.4338040976437
  0
LINE
  5
10C
100
AcDbEntity
  8
MAIN0
  6
CONTINUOUS
 62
3
100
AcDbLine
 10
247.7811529494297
 20
181.8584022109280
 30
0.0000000000000000
 11
279.2962720396071
 21
163.6631397206477
 31
0.0000000000000000
  0
LINE
  5
10D
100
AcDbEntity
  8
MAIN0
  6
CONTINUOUS
 62
3
100
AcDbLine
 10
242.2811529491470
 20
172.3321227694624
 30
0.0000000000000000
 11
273.7962720396071
 21
154.1368602790189
 31
0.0000000000000000
  0
LINE
  5
10E
100
AcDbEntity
  8
MAIN0
  6
CONTINUOUS
 62
3
100
AcDbLine
 10
279.4060796607423
 20
163.2533320995122
 30
0.0000000000000000
 11
274.2060796607423
 21
154.2466679001540
 31
0.0000000000000000
  0
LINE
  5
10F
100
AcDbEntity
  8
MAIN0
  6
CONTINUOUS
 62
3
100
AcDbLine
 10
279.2962720396070
 20
163.6631397206477
 30
0.0000000000000000
 11
279.4060796607423
 21
163.2533320995122
 31
0.0000000000000000
  0
LINE
  5
110
100
AcDbEntity
  8
MAIN0
  6
CONTINUOUS
 62
3
100
AcDbLine
 10
274.2060796607423
 20
154.2466679001540
 30
0.0000000000000000
 11
273.7962720396070
 21
154.1368602790188
 31
0.0000000000000000
  0
ARC
  5
111
100
AcDbEntity
  8
MAIN0
  6
CONTINUOUS
 62
3
100
AcDbCircle
 10
240.0000000000000
 20
180.0000000000000
 30
0.0000000000000000
 40
7.500000000000000
100
AcDbArc
 50
326.1774462695131
 51
333.8225537285932
  0
LINE
  5
112
100
AcDbEntity
  8
MAIN0
  6
CONTINUOUS
 62
3
100
AcDbLine
 10
246.2307406983196
 20
175.8253299113175
 30
0.0000000000000000
 11
246.2307406983178
 21
170.0518272192876
 31
0.0000000000000000
  0
LINE
  5
113
100
AcDbEntity
  8
MAIN0
  6
CONTINUOUS
 62
3
100
AcDbLine
 10
251.7307406982830
 20
179.5781066609366
 30
0.0000000000000000
 11
246.7307406983993
 21
176.6913553150560
 31
0.0000000000000000
  0
ARC
  5
114
100
AcDbEntity
  8
MAIN0
  6
CONTINUOUS
 62
3
100
AcDbCircle
 10
240.0000000000000
 20
180.0000000000000
 30
0.0000000000000000
 40
18.50000000000000
100
AcDbArc
 50
312.7046553705612
 51
347.2953446282779
  0
ARC
  5
115
100
AcDbEntity
  8
MAIN0
  6
CONTINUOUS
 62
3
100
AcDbCircle
 10
240.0000000000000
 20
180.0000000000000
 30
0.0000000000000000
 40
28.50000000000000
100
AcDbArc
 50
318.8731116634340
 51
341.1268883358093
  0
ARC
  5
116
100
AcDbEntity
  8
MAIN0
  6
CONTINUOUS
 62
3
100
AcDbCircle
 10
240.0000000000000
 20
180.0000000000000
 30
0.0000000000000000
 40
19.70000000000000
100
AcDbArc
 50
313.7882629045308
 51
346.2117370943809
  0
ARC
  5
117
100
AcDbEntity
  8
MAIN0
  6
CONTINUOUS
 62
3
100
AcDbCircle
 10
240.0000000000000
 20
180.0000000000000
 30
0.0000000000000000
 40
29.70000000000000
100
AcDbArc
 50
319.3280707138740
 51
340.6719292853983
  0
ARC
  5
118
100
AcDbEntity
  8
MAIN0
  6
CONTINUOUS
 62
3
100
AcDbCircle
 10
240.0000000000000
 20
180.0000000000000
 30
0.0000000000000000
 40
37.50000000000000
100
AcDbArc
 50
321.5661959017701
 51
338.4338040976436
  0
ARC
  5
119
100
AcDbEntity
  8
MAIN0
  6
CONTINUOUS
 62
3
100
AcDbCircle
 10
240.0000000000000
 20
180.0000000000000
 30
0.0000000000000000
 40
8.000000000000000
100
AcDbArc
 50
338.8452743967856
 51
441.1547256016365
  0
ARC
  5
11A
100
AcDbEntity
  8
MAIN0
  6
CONTINUOUS
 62
3
100
AcDbCircle
 10
240.0000000000000
 20
180.0000000000000
 30
0.0000000000000000
 40
8.000000000000000
100
AcDbArc
 50
98.84527439678551
 51
201.1547256016366
  0
ARC
  5
11B
100
AcDbEntity
  8
MAIN0
  6
CONTINUOUS
 62
3
100
AcDbCircle
 10
240.0000000000000
 20
180.0000000000000
 30
0.0000000000000000
 40
8.000000000000000
100
AcDbArc
 50
218.8452743967854
 51
321.1547256016367
  0
ARC
  5
11C
100
AcDbEntity
  8
MAIN0
  6
CONTINUOUS
 62
3
100
AcDbCircle
 10
240.0000000000000
 20
180.0000000000000
 30
0.0000000000000000
 40
42.50000000000000
100
AcDbArc
 50
97.43560178128713
 51
202.5643982181894
  0
ARC
  5
11D
100
AcDbEntity
  8
MAIN0
  6
CONTINUOUS
 62
3
100
AcDbCircle
 10
240.0000000000000
 20
180.0000000000000
 30
0.0000000000000000
 40
42.50000000000000
100
AcDbArc
 50
217.4356017812871
 51
322.5643982181894
  0
ARC
  5
11E
100
AcDbEntity
  8
MAIN0
  6
CONTINUOUS
 62
3
100
AcDbCircle
 10
240.0000000000000
 20
180.0000000000000
 30
0.0000000000000000
 40
42.50000000000000
100
AcDbArc
 50
337.4356017812871
 51
442.5643982181895
  0
LINE
  5
11F
100
AcDbEntity
  8
MAIN0
  6
CENTER
 62
3
100
AcDbLine
 10
200.2572142073927
 20
202.9455080756326
 30
0.0000000000000000
 11
279.7427857925403
 21
157.0544919242514
 31
0.0000000000000000
  0
LINE
  5
120
100
AcDbEntity
  8
MAIN0
  6
CENTER
 62
3
100
AcDbLine
 10
200.2572142073329
 20
157.0544919244711
 30
0.0000000000000000
 11
279.7427857924672
 21
202.9455080758750
 31
0.0000000000000000
  0
ARC
  5
121
100
AcDbEntity
  8
MAIN0
  6
CENTER
 62
3
100
AcDbCircle
 10
239.9999999998660
 20
180.0000000000000
 30
0.0000000000000000
 40
15.00000000000000
100
AcDbArc
 50
239.0679800936709
 51
300.9320199073531
  0
CIRCLE
  5
122
100
AcDbEntity
  8
MAIN0
  6
CONTINUOUS
 62
3
100
AcDbCircle
 10
240.0000000000000
 20
165.0000000000000
 30
0.0000000000000000
 40
5.500000000000000
  0
CIRCLE
  5
123
100
AcDbEntity
  8
MAIN0
  6
CONTINUOUS
 62
3
100
AcDbCircle
 10
240.0000000000000
 20
165.0000000000000
 30
0.0000000000000000
 40
4.500000000000000
  0
CIRCLE
  5
124
100
AcDbEntity
  8
MAIN0
  6
CONTINUOUS
 62
3
100
AcDbCircle
 10
240.0000000000000
 20
165.0000000000000
 30
0.0000000000000000
 40
1.732100000000000
  0
CIRCLE
  5
125
100
AcDbEntity
  8
MAIN0
  6
HIDDEN
 62
3
100
AcDbCircle
 10
221.7499999994005
 20
211.6099272384782
 30
0.0000000000000000
 40
2.500000000000000
  0
CIRCLE
  5
126
100
AcDbEntity
  8
MAIN0
  6
HIDDEN
 62
3
100
AcDbCircle
 10
221.7499999994005
 20
211.6099272384782
 30
0.0000000000000000
 40
3.000000000000000
  0
CIRCLE
  5
127
100
AcDbEntity
  8
MAIN0
  6
HIDDEN
 62
3
100
AcDbCircle
 10
221.7499999997989
 20
148.3900727612918
 30
0.0000000000000000
 40
2.500000000000000
  0
CIRCLE
  5
128
100
AcDbEntity
  8
MAIN0
  6
HIDDEN
 62
3
100
AcDbCircle
 10
221.7499999997989
 20
148.3900727612918
 30
0.0000000000000000
 40
3.000000000000000
  0
CIRCLE
  5
129
100
AcDbEntity
  8
MAIN0
  6
HIDDEN
 62
3
100
AcDbCircle
 10
251.5000000000000
 20
180.0000000000000
 30
0.0000000000000000
 40
1.750000000000000
  0
CIRCLE
  5
12A
100
AcDbEntity
  8
MAIN0
  6
HIDDEN
 62
3
100
AcDbCircle
 10
251.5000000000000
 20
180.0000000000000
 30
0.0000000000000000
 40
1.425000000000000
  0
CIRCLE
  5
12B
100
AcDbEntity
  8
MAIN0
  6
HIDDEN
 62
3
100
AcDbCircle
 10
234.2500000001999
 20
189.9592921438672
 30
0.0000000000000000
 40
1.750000000000000
  0
CIRCLE
  5
12C
100
AcDbEntity
  8
MAIN0
  6
HIDDEN
 62
3
100
AcDbCircle
 10
234.2500000001999
 20
189.9592921438672
 30
0.0000000000000000
 40
1.425000000000000
  0
CIRCLE
  5
12D
100
AcDbEntity
  8
MAIN0
  6
HIDDEN
 62
3
100
AcDbCircle
 10
234.2499999990008
 20
170.0407078568251
 30
0.0000000000000000
 40
1.750000000000000
  0
CIRCLE
  5
12E
100
AcDbEntity
  8
MAIN0
  6
HIDDEN
 62
3
100
AcDbCircle
 10
234.2499999990008
 20
170.0407078568251
 30
0.0000000000000000
 40
1.425000000000000
  0
LINE
  5
12F
100
AcDbEntity
  8
MAIN0
  6
CENTER
 62
3
100
AcDbLine
 10
218.9999999994361
 20
216.3730669593131
 30
0.0000000000000000
 11
224.4999999994599
 21
206.8467875176980
 31
0.0000000000000000
  0
LINE
  5
130
100
AcDbEntity
  8
MAIN0
  6
CENTER
 62
3
100
AcDbLine
 10
232.1249999996929
 20
193.6399001096583
 30
0.0000000000000000
 11
236.3749999997112
 21
186.2786841775012
 31
0.0000000000000000
  0
LINE
  5
131
100
AcDbEntity
  8
MAIN0
  6
CENTER
 62
3
100
AcDbLine
 10
218.9999999995153
 20
143.6269330406412
 30
0.0000000000000000
 11
224.4999999995092
 21
153.1532124822736
 31
0.0000000000000000
  0
LINE
  5
132
100
AcDbEntity
  8
MAIN0
  6
CENTER
 62
3
100
AcDbLine
 10
232.1249999997005
 20
166.3600998903373
 30
0.0000000000000000
 11
236.3749999996958
 21
173.7213158225077
 31
0.0000000000000000
  0
LINE
  5
133
100
AcDbEntity
  8
MAIN0
  6
CENTER
 62
3
100
AcDbLine
 10
261.0073452030950
 20
203.0982515228114
 30
0.0000000000000000
 11
270.5336246447220
 21
208.5982515228145
 31
0.0000000000000000
  0
LINE
  5
134
100
AcDbEntity
  8
MAIN0
  6
HIDDEN
 62
3
100
AcDbLine
 10
259.1361015583105
 20
203.7499393083441
 30
0.0000000000000000
 11
270.0518986833176
 21
210.0521777168912
 31
0.0000000000000000
  0
LINE
  5
135
100
AcDbEntity
  8
MAIN0
  6
HIDDEN
 62
3
100
AcDbLine
 10
270.1361015584508
 20
184.6973804251674
 30
0.0000000000000000
 11
281.0518986834168
 21
190.9996188336907
 31
0.0000000000000000
  0
CIRCLE
  5
136
100
AcDbEntity
  8
MAIN0
  6
HIDDEN
 62
3
100
AcDbCircle
 10
204.7295150758129
 20
189.3937688504261
 30
0.0000000000000000
 40
2.500000000000000
  0
CIRCLE
  5
137
100
AcDbEntity
  8
MAIN0
  6
HIDDEN
 62
3
100
AcDbCircle
 10
204.7295150758129
 20
189.3937688504261
 30
0.0000000000000000
 40
3.000000000000000
  0
LINE
  5
138
100
AcDbEntity
  8
MAIN0
  6
CENTER
 62
3
100
AcDbLine
 10
209.4926547966283
 20
186.6437688504277
 30
0.0000000000000000
 11
199.9663753549976
 21
192.1437688504246
 31
0.0000000000000000
  0
LINE
  5
139
100
AcDbEntity
  8
MAIN0
  6
HIDDEN
 62
3
100
AcDbLine
 10
209.8638984414132
 20
184.6973804246078
 30
0.0000000000000000
 11
198.9481013164018
 21
190.9996188331476
 31
0.0000000000000000
  0
LINE
  5
13A
100
AcDbEntity
  8
MAIN0
  6
HIDDEN
 62
3
100
AcDbLine
 10
220.8638984412731
 20
203.7499393079464
 30
0.0000000000000000
 11
209.9481013163028
 21
210.0521777164625
 31
0.0000000000000000
  0
CIRCLE
  5
13B
100
AcDbEntity
  8
MAIN0
  6
HIDDEN
 62
3
100
AcDbCircle
 10
249.4999999997461
 20
144.7579796269910
 30
0.0000000000000000
 40
2.500000000000000
  0
CIRCLE
  5
13C
100
AcDbEntity
  8
MAIN0
  6
HIDDEN
 62
3
100
AcDbCircle
 10
249.4999999997461
 20
144.7579796269910
 30
0.0000000000000000
 40
3.000000000000000
  0
LINE
  5
13D
100
AcDbEntity
  8
MAIN0
  6
CENTER
 62
3
100
AcDbLine
 10
249.4999999997442
 20
150.2579796269910
 30
0.0000000000000000
 11
249.4999999997478
 21
139.2579796269910
 31
0.0000000000000000
  0
LINE
  5
13E
100
AcDbEntity
  8
MAIN0
  6
HIDDEN
 62
3
100
AcDbLine
 10
250.9999999997439
 20
151.5526802672782
 30
0.0000000000000000
 11
250.9999999997480
 21
138.9482034501913
 31
0.0000000000000000
  0
LINE
  5
13F
100
AcDbEntity
  8
MAIN0
  6
HIDDEN
 62
3
100
AcDbLine
 10
228.9999999997438
 20
151.5526802671164
 30
0.0000000000000000
 11
228.9999999997480
 21
138.9482034500770
 31
0.0000000000000000
  0
ARC
  5
140
100
AcDbEntity
  8
MAIN0
  6
CENTER
 62
3
100
AcDbCircle
 10
240.0000000000000
 20
180.0000000000000
 30
0.0000000000000000
 40
36.50000000000000
100
AcDbArc
 50
351.3582003563144
 51
368.6417996436856
  0
ARC
  5
141
100
AcDbEntity
  8
MAIN0
  6
CENTER
 62
3
100
AcDbCircle
 10
240.0000000000000
 20
180.0000000000000
 30
0.0000000000000000
 40
36.50000000000000
100
AcDbArc
 50
276.4445196815841
 51
293.7281189690633
  0
ARC
  5
142
100
AcDbEntity
  8
MAIN0
  6
CENTER
 62
3
100
AcDbCircle
 10
240.0000000000000
 20
180.0000000000000
 30
0.0000000000000000
 40
36.50000000000000
100
AcDbArc
 50
231.3582003565644
 51
248.6417996437934
  0
ARC
  5
143
100
AcDbEntity
  8
MAIN0
  6
CENTER
 62
3
100
AcDbCircle
 10
240.0000000000000
 20
180.0000000000000
 30
0.0000000000000000
 40
36.50000000000000
100
AcDbArc
 50
156.4445196824095
 51
173.7281189697723
  0
ARC
  5
144
100
AcDbEntity
  8
MAIN0
  6
CENTER
 62
3
100
AcDbCircle
 10
240.0000000000000
 20
180.0000000000000
 30
0.0000000000000000
 40
36.50000000000000
100
AcDbArc
 50
36.44451968220221
 51
53.72811896957342
  0
ARC
  5
145
100
AcDbEntity
  8
MAIN0
  6
CENTER
 62
3
100
AcDbCircle
 10
240.0000000000000
 20
180.0000000000000
 30
0.0000000000000000
 40
36.50000000000000
100
AcDbArc
 50
111.3582003569288
 51
128.6417996441577
  0
LINE
  5
146
100
AcDbEntity
  8
MAIN0
  6
HIDDEN
 62
3
100
AcDbLine
 10
263.3686999682104
 20
205.1544006551317
 30
0.0000000000000000
 11
267.5722698796063
 21
207.5813328750354
 31
0.0000000000000000
  0
LINE
  5
147
100
AcDbEntity
  8
MAIN0
  6
HIDDEN
 62
3
100
AcDbLine
 10
263.9686999682107
 20
204.1151701705906
 30
0.0000000000000000
 11
268.1722698796066
 21
206.5421023904943
 31
0.0000000000000000
  0
LINE
  5
148
100
AcDbEntity
  8
MAIN0
  6
HIDDEN
 62
3
100
AcDbLine
 10
206.5313000309793
 20
187.6606874986671
 30
0.0000000000000000
 11
202.3277301195818
 21
190.0876197185681
 31
0.0000000000000000
  0
LINE
  5
149
100
AcDbEntity
  8
MAIN0
  6
HIDDEN
 62
3
100
AcDbLine
 10
207.1313000309790
 20
188.6999179832086
 30
0.0000000000000000
 11
202.9277301195814
 21
191.1268502031095
 31
0.0000000000000000
  0
LINE
  5
14A
100
AcDbEntity
  8
MAIN0
  6
HIDDEN
 62
3
100
AcDbLine
 10
250.1000000001438
 20
147.1849118457390
 30
0.0000000000000000
 11
250.1000000001454
 21
142.3310474059344
 31
0.0000000000000000
  0
LINE
  5
14B
100
AcDbEntity
  8
MAIN0
  6
HIDDEN
 62
3
100
AcDbLine
 10
248.9000000001437
 20
147.1849118457387
 30
0.0000000000000000
 11
248.9000000001454
 21
142.3310474059341
 31
0.0000000000000000
  0
LINE
  5
14C
100
AcDbEntity
  8
MAIN0
  6
PHANTOM
 62
3
100
AcDbLine
 10
149.7000000000000
 20
174.7000000000000
 30
0.0000000000000000
 11
149.7000000000000
 21
185.3000000000000
 31
0.0000000000000000
  0
LINE
  5
14D
100
AcDbEntity
  8
MAIN0
  6
PHANTOM
 62
3
100
AcDbLine
 10
149.5000000000000
 20
185.5000000000000
 30
0.0000000000000000
 11
149.7000000000000
 21
185.3000000000000
 31
0.0000000000000000
  0
LINE
  5
14E
100
AcDbEntity
  8
MAIN0
  6
PHANTOM
 62
3
100
AcDbLine
 10
149.5000000000000
 20
174.5000000000000
 30
0.0000000000000000
 11
149.7000000000000
 21
174.7000000000000
 31
0.0000000000000000
  0
LINE
  5
14F
100
AcDbEntity
  8
MAIN0
  6
CENTER
 62
3
100
AcDbLine
 10
146.2000000000000
 20
177.5068555242748
 30
0.0000000000000000
 11
146.2000000000000
 21
182.5480213255528
 31
0.0000000000000000
  0
LINE
  5
150
100
AcDbEntity
  8
MAIN0
  6
PHANTOM
 62
3
100
AcDbLine
 10
146.8000000000000
 20
179.5000000000000
 30
0.0000000000000000
 11
146.8000000000000
 21
180.5000000000000
 31
0.0000000000000000
  0
LINE
  5
151
100
AcDbEntity
  8
MAIN0
  6
PHANTOM
 62
3
100
AcDbLine
 10
145.6000000000000
 20
179.5000000000000
 30
0.0000000000000000
 11
145.6000000000000
 21
180.5000000000000
 31
0.0000000000000000
  0
LINE
  5
152
100
AcDbEntity
  8
MAIN0
  6
PHANTOM
 62
3
100
AcDbLine
 10
145.6000000000000
 20
180.5000000000000
 30
0.0000000000000000
 11
146.0102633403892
 21
181.7307900212088
 31
0.0000000000000000
  0
LINE
  5
153
100
AcDbEntity
  8
MAIN0
  6
PHANTOM
 62
3
100
AcDbLine
 10
146.3897366596107
 20
181.7307900212088
 30
0.0000000000000000
 11
146.8000000000000
 21
180.5000000000000
 31
0.0000000000000000
  0
ARC
  5
154
100
AcDbEntity
  8
MAIN0
  6
PHANTOM
 62
3
100
AcDbCircle
 10
146.2000000000000
 20
181.6675444680074
 30
0.0000000000000000
 40
0.2000000000000000
100
AcDbArc
 50
18.43494882234968
 51
161.5650511776511
  0
LINE
  5
155
100
AcDbEntity
  8
MAIN0
  6
PHANTOM
 62
3
100
AcDbLine
 10
146.8000000000000
 20
180.5000000000000
 30
0.0000000000000000
 11
149.7000000000000
 21
180.5000000000000
 31
0.0000000000000000
  0
LINE
  5
156
100
AcDbEntity
  8
MAIN0
  6
PHANTOM
 62
3
100
AcDbLine
 10
146.8000000000000
 20
179.5000000000000
 30
0.0000000000000000
 11
149.7000000000000
 21
179.5000000000000
 31
0.0000000000000000
  0
LINE
  5
157
100
AcDbEntity
  8
MAIN0
  6
PHANTOM
 62
3
100
AcDbLine
 10
145.6000000000000
 20
179.5000000000000
 30
0.0000000000000000
 11
146.0102633403892
 21
178.2692099787912
 31
0.0000000000000000
  0
LINE
  5
158
100
AcDbEntity
  8
MAIN0
  6
PHANTOM
 62
3
100
AcDbLine
 10
146.3897366596107
 20
178.2692099787912
 30
0.0000000000000000
 11
146.8000000000000
 21
179.5000000000000
 31
0.0000000000000000
  0
ARC
  5
159
100
AcDbEntity
  8
MAIN0
  6
PHANTOM
 62
3
100
AcDbCircle
 10
146.2000000000000
 20
178.3324555319927
 30
0.0000000000000000
 40
0.2000000000000000
100
AcDbArc
 50
198.4349488223489
 51
341.5650511776504
  0
LINE
  5
15A
100
AcDbEntity
  8
MAIN0
  6
CENTER
 62
3
100
AcDbLine
 10
142.7000000000000
 20
177.5068555242748
 30
0.0000000000000000
 11
142.7000000000000
 21
182.5480213255528
 31
0.0000000000000000
  0
LINE
  5
15B
100
AcDbEntity
  8
MAIN0
  6
PHANTOM
 62
3
100
AcDbLine
 10
143.3000000000000
 20
179.5000000000000
 30
0.0000000000000000
 11
143.3000000000000
 21
180.5000000000000
 31
0.0000000000000000
  0
LINE
  5
15C
100
AcDbEntity
  8
MAIN0
  6
PHANTOM
 62
3
100
AcDbLine
 10
142.1000000000000
 20
179.5000000000000
 30
0.0000000000000000
 11
142.1000000000000
 21
180.5000000000000
 31
0.0000000000000000
  0
LINE
  5
15D
100
AcDbEntity
  8
MAIN0
  6
PHANTOM
 62
3
100
AcDbLine
 10
142.1000000000000
 20
180.5000000000000
 30
0.0000000000000000
 11
142.5102633403892
 21
181.7307900212088
 31
0.0000000000000000
  0
LINE
  5
15E
100
AcDbEntity
  8
MAIN0
  6
PHANTOM
 62
3
100
AcDbLine
 10
142.8897366596107
 20
181.7307900212088
 30
0.0000000000000000
 11
143.3000000000000
 21
180.5000000000000
 31
0.0000000000000000
  0
ARC
  5
15F
100
AcDbEntity
  8
MAIN0
  6
PHANTOM
 62
3
100
AcDbCircle
 10
142.7000000000000
 20
181.6675444680074
 30
0.0000000000000000
 40
0.2000000000000000
100
AcDbArc
 50
18.43494882234968
 51
161.5650511776511
  0
LINE
  5
160
100
AcDbEntity
  8
MAIN0
  6
PHANTOM
 62
3
100
AcDbLine
 10
142.1000000000000
 20
179.5000000000000
 30
0.0000000000000000
 11
142.5102633403892
 21
178.2692099787912
 31
0.0000000000000000
  0
LINE
  5
161
100
AcDbEntity
  8
MAIN0
  6
PHANTOM
 62
3
100
AcDbLine
 10
142.8897366596107
 20
178.2692099787912
 30
0.0000000000000000
 11
143.3000000000000
 21
179.5000000000000
 31
0.0000000000000000
  0
ARC
  5
162
100
AcDbEntity
  8
MAIN0
  6
PHANTOM
 62
3
100
AcDbCircle
 10
142.7000000000000
 20
178.3324555319927
 30
0.0000000000000000
 40
0.2000000000000000
100
AcDbArc
 50
198.4349488223489
 51
341.5650511776504
  0
LINE
  5
163
100
AcDbEntity
  8
MAIN0
  6
CENTER
 62
3
100
AcDbLine
 10
139.2000000000000
 20
177.5068555242748
 30
0.0000000000000000
 11
139.2000000000000
 21
182.5480213255528
 31
0.0000000000000000
  0
LINE
  5
164
100
AcDbEntity
  8
MAIN0
  6
PHANTOM
 62
3
100
AcDbLine
 10
139.8000000000000
 20
179.5000000000000
 30
0.0000000000000000
 11
139.8000000000000
 21
180.5000000000000
 31
0.0000000000000000
  0
LINE
  5
165
100
AcDbEntity
  8
MAIN0
  6
PHANTOM
 62
3
100
AcDbLine
 10
138.6000000000000
 20
179.5000000000000
 30
0.0000000000000000
 11
138.6000000000000
 21
180.5000000000000
 31
0.0000000000000000
  0
LINE
  5
166
100
AcDbEntity
  8
MAIN0
  6
PHANTOM
 62
3
100
AcDbLine
 10
138.6000000000000
 20
180.5000000000000
 30
0.0000000000000000
 11
139.0102633403893
 21
181.7307900212088
 31
0.0000000000000000
  0
LINE
  5
167
100
AcDbEntity
  8
MAIN0
  6
PHANTOM
 62
3
100
AcDbLine
 10
139.3897366596107
 20
181.7307900212088
 30
0.0000000000000000
 11
139.8000000000000
 21
180.5000000000000
 31
0.0000000000000000
  0
ARC
  5
168
100
AcDbEntity
  8
MAIN0
  6
PHANTOM
 62
3
100
AcDbCircle
 10
139.2000000000000
 20
181.6675444680074
 30
0.0000000000000000
 40
0.2000000000000000
100
AcDbArc
 50
18.43494882234968
 51
161.5650511776511
  0
LINE
  5
169
100
AcDbEntity
  8
MAIN0
  6
PHANTOM
 62
3
100
AcDbLine
 10
138.6000000000000
 20
179.5000000000000
 30
0.0000000000000000
 11
139.0102633403893
 21
178.2692099787912
 31
0.0000000000000000
  0
LINE
  5
16A
100
AcDbEntity
  8
MAIN0
  6
PHANTOM
 62
3
100
AcDbLine
 10
139.3897366596107
 20
178.2692099787912
 30
0.0000000000000000
 11
139.8000000000000
 21
179.5000000000000
 31
0.0000000000000000
  0
ARC
  5
16B
100
AcDbEntity
  8
MAIN0
  6
PHANTOM
 62
3
100
AcDbCircle
 10
139.2000000000000
 20
178.3324555319927
 30
0.0000000000000000
 40
0.2000000000000000
100
AcDbArc
 50
198.4349488223489
 51
341.5650511776504
  0
LINE
  5
16C
100
AcDbEntity
  8
MAIN0
  6
CENTER
 62
3
100
AcDbLine
 10
135.7000000000000
 20
177.5068555242748
 30
0.0000000000000000
 11
135.7000000000000
 21
182.5480213255528
 31
0.0000000000000000
  0
LINE
  5
16D
100
AcDbEntity
  8
MAIN0
  6
PHANTOM
 62
3
100
AcDbLine
 10
136.3000000000000
 20
179.5000000000000
 30
0.0000000000000000
 11
136.3000000000000
 21
180.5000000000000
 31
0.0000000000000000
  0
LINE
  5
16E
100
AcDbEntity
  8
MAIN0
  6
PHANTOM
 62
3
100
AcDbLine
 10
135.1000000000000
 20
179.5000000000000
 30
0.0000000000000000
 11
135.1000000000000
 21
180.5000000000000
 31
0.0000000000000000
  0
LINE
  5
16F
100
AcDbEntity
  8
MAIN0
  6
PHANTOM
 62
3
100
AcDbLine
 10
135.1000000000000
 20
180.5000000000000
 30
0.0000000000000000
 11
135.5102633403893
 21
181.7307900212088
 31
0.0000000000000000
  0
LINE
  5
170
100
AcDbEntity
  8
MAIN0
  6
PHANTOM
 62
3
100
AcDbLine
 10
135.8897366596107
 20
181.7307900212088
 30
0.0000000000000000
 11
136.3000000000000
 21
180.5000000000000
 31
0.0000000000000000
  0
ARC
  5
171
100
AcDbEntity
  8
MAIN0
  6
PHANTOM
 62
3
100
AcDbCircle
 10
135.7000000000000
 20
181.6675444680074
 30
0.0000000000000000
 40
0.2000000000000000
100
AcDbArc
 50
18.43494882234968
 51
161.5650511776511
  0
LINE
  5
172
100
AcDbEntity
  8
MAIN0
  6
PHANTOM
 62
3
100
AcDbLine
 10
135.1000000000000
 20
179.5000000000000
 30
0.0000000000000000
 11
135.5102633403893
 21
178.2692099787912
 31
0.0000000000000000
  0
LINE
  5
173
100
AcDbEntity
  8
MAIN0
  6
PHANTOM
 62
3
100
AcDbLine
 10
135.8897366596107
 20
178.2692099787912
 30
0.0000000000000000
 11
136.3000000000000
 21
179.5000000000000
 31
0.0000000000000000
  0
ARC
  5
174
100
AcDbEntity
  8
MAIN0
  6
PHANTOM
 62
3
100
AcDbCircle
 10
135.7000000000000
 20
178.3324555319927
 30
0.0000000000000000
 40
0.2000000000000000
100
AcDbArc
 50
198.4349488223489
 51
341.5650511776504
  0
LINE
  5
175
100
AcDbEntity
  8
MAIN0
  6
PHANTOM
 62
3
100
AcDbLine
 10
143.3000000000000
 20
179.5000000000000
 30
0.0000000000000000
 11
145.6000000000000
 21
179.5000000000000
 31
0.0000000000000000
  0
LINE
  5
176
100
AcDbEntity
  8
MAIN0
  6
PHANTOM
 62
3
100
AcDbLine
 10
143.3000000000000
 20
180.5000000000000
 30
0.0000000000000000
 11
145.6000000000000
 21
180.5000000000000
 31
0.0000000000000000
  0
LINE
  5
177
100
AcDbEntity
  8
MAIN0
  6
PHANTOM
 62
3
100
AcDbLine
 10
139.8000000000000
 20
180.5000000000000
 30
0.0000000000000000
 11
142.1000000000000
 21
180.5000000000000
 31
0.0000000000000000
  0
LINE
  5
178
100
AcDbEntity
  8
MAIN0
  6
PHANTOM
 62
3
100
AcDbLine
 10
139.8000000000000
 20
179.5000000000000
 30
0.0000000000000000
 11
142.1000000000000
 21
179.5000000000000
 31
0.0000000000000000
  0
LINE
  5
179
100
AcDbEntity
  8
MAIN0
  6
PHANTOM
 62
3
100
AcDbLine
 10
136.3000000000000
 20
179.5000000000000
 30
0.0000000000000000
 11
138.6000000000000
 21
179.5000000000000
 31
0.0000000000000000
  0
LINE
  5
17A
100
AcDbEntity
  8
MAIN0
  6
PHANTOM
 62
3
100
AcDbLine
 10
136.3000000000000
 20
180.5000000000000
 30
0.0000000000000000
 11
138.6000000000000
 21
180.5000000000000
 31
0.0000000000000000
  0
LINE
  5
17B
100
AcDbEntity
  8
MAIN0
  6
PHANTOM
 62
3
100
AcDbLine
 10
135.0000000000000
 20
180.5000000000000
 30
0.0000000000000000
 11
135.1000000000000
 21
180.5000000000000
 31
0.0000000000000000
  0
LINE
  5
17C
100
AcDbEntity
  8
MAIN0
  6
PHANTOM
 62
3
100
AcDbLine
 10
135.0000000000000
 20
179.5000000000000
 30
0.0000000000000000
 11
135.1000000000000
 21
179.5000000000000
 31
0.0000000000000000
  0
LINE
  5
17D
100
AcDbEntity
  8
MAIN0
  6
CENTER
 62
3
100
AcDbLine
 10
85.00000000000000
 20
180.0000000000000
 30
0.0000000000000000
 11
155.0000000000000
 21
180.0000000000000
 31
0.0000000000000000
  0
LINE
  5
17E
100
AcDbEntity
  8
MAIN0
  6
CENTER
 62
3
100
AcDbLine
 10
190.0000000000000
 20
180.0000000000000
 30
0.0000000000000000
 11
290.0000000000000
 21
180.0000000000000
 31
0.0000000000000000
  0
LINE
  5
17F
100
AcDbEntity
  8
MAIN0
  6
CENTER
 62
3
100
AcDbLine
 10
88.28473167483119
 20
144.7579796270002
 30
0.0000000000000000
 11
124.8207806732715
 21
144.7579796270002
 31
0.0000000000000000
  0
LINE
  5
180
100
AcDbEntity
  8
MAIN0
  6
HIDDEN
 62
3
100
AcDbLine
 10
90.57735026938416
 20
147.7579796270004
 30
0.0000000000000000
 11
96.56699999999793
 21
147.7579796270028
 31
0.0000000000000000
  0
LINE
  5
181
100
AcDbEntity
  8
MAIN0
  6
HIDDEN
 62
3
100
AcDbLine
 10
97.23095280958080
 20
147.0079796270030
 30
0.0000000000000000
 11
121.4651427748730
 21
147.0079796270125
 31
0.0000000000000000
  0
LINE
  5
182
100
AcDbEntity
  8
MAIN0
  6
HIDDEN
 62
3
100
AcDbLine
 10
89.99999999999959
 20
145.3579796270002
 30
0.0000000000000000
 11
89.99999999999862
 21
146.7579796266645
 31
0.0000000000000000
  0
LINE
  5
183
100
AcDbEntity
  8
MAIN0
  6
HIDDEN
 62
3
100
AcDbLine
 10
96.56700000000210
 20
141.7579796270029
 30
0.0000000000000000
 11
96.56699999999793
 21
147.7579796270029
 31
0.0000000000000000
  0
ARC
  5
184
100
AcDbEntity
  8
MAIN0
  6
HIDDEN
 62
3
100
AcDbCircle
 10
117.0000000000000
 20
144.7579796270127
 30
0.0000000000000000
 40
5.000000000000000
100
AcDbArc
 50
333.2563160495943
 51
386.7436839504005
  0
LINE
  5
185
100
AcDbEntity
  8
MAIN0
  6
HIDDEN
 62
3
100
AcDbLine
 10
96.56700000000855
 20
147.7579796270092
 30
0.0000000000000000
 11
96.88454264806701
 21
147.2079796270029
 31
0.0000000000000000
  0
ARC
  5
186
100
AcDbEntity
  8
MAIN0
  6
HIDDEN
 62
3
100
AcDbCircle
 10
97.23095280958063
 20
147.4079796270032
 30
0.0000000000000000
 40
0.4000000000000000
100
AcDbArc
 50
210.0000000000361
 51
270.0000000000000
  0
LINE
  5
187
100
AcDbEntity
  8
MAIN0
  6
HIDDEN
 62
3
100
AcDbLine
 10
89.99999999999852
 20
146.7579796266645
 30
0.0000000000000000
 11
90.57735026938414
 21
147.7579796270004
 31
0.0000000000000000
  0
LINE
  5
188
100
AcDbEntity
  8
MAIN0
  6
HIDDEN
 62
3
100
AcDbLine
 10
89.99999999999960
 20
145.3579796270002
 30
0.0000000000000000
 11
92.19999999999959
 21
145.3579796270010
 31
0.0000000000000000
  0
LINE
  5
189
100
AcDbEntity
  8
MAIN0
  6
HIDDEN
 62
3
100
AcDbLine
 10
92.20000000000042
 20
144.1579796270010
 30
0.0000000000000000
 11
92.19999999999959
 21
145.3579796270010
 31
0.0000000000000000
  0
LINE
  5
18A
100
AcDbEntity
  8
MAIN0
  6
HIDDEN
 62
3
100
AcDbLine
 10
90.26471509861679
 20
147.2164796270003
 30
0.0000000000000000
 11
96.87963517077890
 21
147.2164796270029
 31
0.0000000000000000
  0
LINE
  5
18B
100
AcDbEntity
  8
MAIN0
  6
HIDDEN
 62
3
100
AcDbLine
 10
90.57735026941811
 20
145.3579796270004
 30
0.0000000000000000
 11
90.57735026941811
 21
147.7579796270004
 31
0.0000000000000000
  0
LINE
  5
18C
100
AcDbEntity
  8
MAIN0
  6
HIDDEN
 62
3
100
AcDbLine
 10
97.23095280958256
 20
142.5079796270030
 30
0.0000000000000000
 11
121.4651427748748
 21
142.5079796270125
 31
0.0000000000000000
  0
LINE
  5
18D
100
AcDbEntity
  8
MAIN0
  6
HIDDEN
 62
3
100
AcDbLine
 10
90.57735026938650
 20
141.7579796270004
 30
0.0000000000000000
 11
96.56700000000210
 21
141.7579796270027
 31
0.0000000000000000
  0
LINE
  5
18E
100
AcDbEntity
  8
MAIN0
  6
HIDDEN
 62
3
100
AcDbLine
 10
96.56700000001435
 20
141.7579796270027
 30
0.0000000000000000
 11
96.88454264806889
 21
142.3079796270033
 31
0.0000000000000000
  0
ARC
  5
18F
100
AcDbEntity
  8
MAIN0
  6
HIDDEN
 62
3
100
AcDbCircle
 10
97.23095280958270
 20
142.1079796270032
 30
0.0000000000000000
 40
0.4000000000000000
100
AcDbArc
 50
90.00000000004494
 51
150.0000000000088
  0
LINE
  5
190
100
AcDbEntity
  8
MAIN0
  6
HIDDEN
 62
3
100
AcDbLine
 10
90.26471509861872
 20
142.2994796270003
 30
0.0000000000000000
 11
96.87963517078056
 21
142.2994796270029
 31
0.0000000000000000
  0
LINE
  5
191
100
AcDbEntity
  8
MAIN0
  6
HIDDEN
 62
3
100
AcDbLine
 10
90.00000000000009
 20
142.7579796273359
 30
0.0000000000000000
 11
90.57735026938650
 21
141.7579796270004
 31
0.0000000000000000
  0
LINE
  5
192
100
AcDbEntity
  8
MAIN0
  6
HIDDEN
 62
3
100
AcDbLine
 10
90.00000000000006
 20
144.1579796270002
 30
0.0000000000000000
 11
90.00000000000020
 21
142.7579796273358
 31
0.0000000000000000
  0
LINE
  5
193
100
AcDbEntity
  8
MAIN0
  6
HIDDEN
 62
3
100
AcDbLine
 10
90.00000000000007
 20
144.1579796270002
 30
0.0000000000000000
 11
92.20000000000006
 21
144.1579796270011
 31
0.0000000000000000
  0
LINE
  5
194
100
AcDbEntity
  8
MAIN0
  6
HIDDEN
 62
3
100
AcDbLine
 10
90.57735026941857
 20
144.1579796270004
 30
0.0000000000000000
 11
90.57735026942045
 21
141.7579796270004
 31
0.0000000000000000
  0
LINE
  5
195
100
AcDbEntity
  8
MAIN0
  6
HIDDEN
 62
3
100
AcDbLine
 10
121.4651427748730
 20
147.0079796270125
 30
0.0000000000000000
 11
121.4651427748748
 21
142.5079796270125
 31
0.0000000000000000
  0
LINE
  5
196
100
AcDbEntity
  8
MAIN0
  6
CONTINUOUS
 62
3
100
AcDbLine
 10
335.8000000000000
 20
177.0000000000017
 30
0.0000000000000000
 11
344.1999999999999
 21
176.9999999999984
 31
0.0000000000000000
  0
ARC
  5
197
100
AcDbEntity
  8
MAIN0
  6
CONTINUOUS
 62
3
100
AcDbCircle
 10
304.0000000000000
 20
230.0000000000157
 30
0.0000000000000000
 40
4.000000000001551
100
AcDbArc
 50
90.00000000000000
 51
270.0000000000000
  0
ARC
  5
198
100
AcDbEntity
  8
MAIN0
  6
CONTINUOUS
 62
3
100
AcDbCircle
 10
376.0000000000000
 20
229.9999999999844
 30
0.0000000000000000
 40
4.000000000001565
100
AcDbArc
 50
270.0000000000000
 51
450.0000000000000
  0
ARC
  5
199
100
AcDbEntity
  8
MAIN0
  6
CONTINUOUS
 62
3
100
AcDbCircle
 10
356.6651513899117
 20
229.9999999999970
 30
0.0000000000000000
 40
10.00000000000000
100
AcDbArc
 50
156.4218215217992
 51
203.5781784782008
  0
ARC
  5
19A
100
AcDbEntity
  8
MAIN0
  6
CONTINUOUS
 62
3
100
AcDbCircle
 10
323.3348486100883
 20
230.0000000000030
 30
0.0000000000000000
 40
10.00000000000000
100
AcDbArc
 50
336.4218215218040
 51
383.5781784781957
  0
LINE
  5
19B
100
AcDbEntity
  8
MAIN0
  6
CONTINUOUS
 62
3
100
AcDbLine
 10
347.5000000000000
 20
201.9999999999971
 30
0.0000000000000000
 11
347.5000000000000
 21
225.9999999999971
 31
0.0000000000000000
  0
LINE
  5
19C
100
AcDbEntity
  8
MAIN0
  6
CONTINUOUS
 62
3
100
AcDbLine
 10
347.5000000000000
 20
233.9999999999971
 30
0.0000000000000000
 11
347.5000000000000
 21
241.0000000000000
 31
0.0000000000000000
  0
LINE
  5
19D
100
AcDbEntity
  8
MAIN0
  6
CONTINUOUS
 62
3
100
AcDbLine
 10
332.5000000000000
 20
202.0000000000029
 30
0.0000000000000000
 11
332.5000000000000
 21
226.0000000000030
 31
0.0000000000000000
  0
LINE
  5
19E
100
AcDbEntity
  8
MAIN0
  6
CONTINUOUS
 62
3
100
AcDbLine
 10
332.5000000000000
 20
234.0000000000030
 30
0.0000000000000000
 11
332.5000000000000
 21
241.0000000000000
 31
0.0000000000000000
  0
LINE
  5
19F
100
AcDbEntity
  8
MAIN0
  6
CONTINUOUS
 62
3
100
AcDbLine
 10
335.3000000000000
 20
177.5000000000019
 30
0.0000000000000000
 11
335.3000000000000
 21
189.0000000000017
 31
0.0000000000000000
  0
LINE
  5
1A0
100
AcDbEntity
  8
MAIN0
  6
CONTINUOUS
 62
3
100
AcDbLine
 10
344.7000000000000
 20
177.4999999999982
 30
0.0000000000000000
 11
344.7000000000000
 21
189.0000000000017
 31
0.0000000000000000
  0
LINE
  5
1A1
100
AcDbEntity
  8
MAIN0
  6
CONTINUOUS
 62
3
100
AcDbLine
 10
335.3000000000000
 20
177.5000000000019
 30
0.0000000000000000
 11
335.8000000000001
 21
177.0000000000017
 31
0.0000000000000000
  0
LINE
  5
1A2
100
AcDbEntity
  8
MAIN0
  6
CONTINUOUS
 62
3
100
AcDbLine
 10
344.2000000000001
 20
176.9999999999984
 30
0.0000000000000000
 11
344.7000000000001
 21
177.4999999999981
 31
0.0000000000000000
  0
LINE
  5
1A3
100
AcDbEntity
  8
MAIN0
  6
CONTINUOUS
 62
3
100
AcDbLine
 10
335.3000000000000
 20
177.5000000000019
 30
0.0000000000000000
 11
344.6999999999999
 21
177.4999999999982
 31
0.0000000000000000
  0
LINE
  5
1A4
100
AcDbEntity
  8
MAIN0
  6
CONTINUOUS
 62
3
100
AcDbLine
 10
332.4999999999999
 20
202.0000000000030
 30
0.0000000000000000
 11
347.5000000000000
 21
201.9999999999971
 31
0.0000000000000000
  0
ARC
  5
1A5
100
AcDbEntity
  8
MAIN0
  6
CONTINUOUS
 62
3
100
AcDbCircle
 10
295.3407492005852
 20
187.1949305970521
 30
0.0000000000000000
 40
40.00000000000000
100
AcDbArc
 50
2.586449820615914
 51
21.72343357382672
  0
ARC
  5
1A6
100
AcDbEntity
  8
MAIN0
  6
CONTINUOUS
 62
3
100
AcDbCircle
 10
384.6592507994150
 20
187.1949305970521
 30
0.0000000000000000
 40
40.00000000000000
100
AcDbArc
 50
158.2765664261733
 51
177.4135501793841
  0
LINE
  5
1A7
100
AcDbEntity
  8
MAIN0
  6
CENTER
 62
3
100
AcDbLine
 10
332.5000000000000
 20
155.0000000000000
 30
0.0000000000000000
 11
347.5000000000000
 21
155.0000000000000
 31
0.0000000000000000
  0
LINE
  5
1A8
100
AcDbEntity
  8
MAIN0
  6
CONTINUOUS
 62
3
100
AcDbLine
 10
335.3070189645757
 20
155.2567664330607
 30
0.0000000000000000
 11
339.7432335669295
 21
159.6929810354238
 31
0.0000000000000000
  0
LINE
  5
1A9
100
AcDbEntity
  8
MAIN0
  6
CONTINUOUS
 62
3
100
AcDbLine
 10
340.2567664326815
 20
150.3070189645548
 30
0.0000000000000000
 11
344.6929810354457
 21
154.7432335673283
 31
0.0000000000000000
  0
LINE
  5
1AA
100
AcDbEntity
  8
MAIN0
  6
CONTINUOUS
 62
3
100
AcDbLine
 10
340.2567664326768
 20
159.6929810354455
 30
0.0000000000000000
 11
344.6929810354453
 21
155.2567664326802
 31
0.0000000000000000
  0
LINE
  5
1AB
100
AcDbEntity
  8
MAIN0
  6
CONTINUOUS
 62
3
100
AcDbLine
 10
335.3070189645758
 20
154.7432335669344
 30
0.0000000000000000
 11
339.7432335669379
 21
150.3070189645757
 31
0.0000000000000000
  0
ARC
  5
1AC
100
AcDbEntity
  8
MAIN0
  6
CONTINUOUS
 62
3
100
AcDbCircle
 10
340.0000000000000
 20
155.0000000000000
 30
0.0000000000000000
 40
4.700000000000000
100
AcDbArc
 50
176.8683062239763
 51
183.1316937760834
  0
ARC
  5
1AD
100
AcDbEntity
  8
MAIN0
  6
CONTINUOUS
 62
3
100
AcDbCircle
 10
340.0000000000000
 20
155.0000000000000
 30
0.0000000000000000
 40
4.700000000000000
100
AcDbArc
 50
356.8683062287272
 51
363.1316937713772
  0
LINE
  5
1AE
100
AcDbEntity
  8
MAIN0
  6
CENTER
 62
3
100
AcDbLine
 10
340.0000000000000
 20
147.5000000000000
 30
0.0000000000000000
 11
340.0000000000000
 21
162.5000000000000
 31
0.0000000000000000
  0
SPLINE
  5
1AF
100
AcDbEntity
  8
MAIN0
  6
CONTINUOUS
 62
3
100
AcDbSpline
210
0.0000000000000000
220
0.0000000000000000
230
1.000000000000000
 70
     8
 71
     3
 72
    11
 73
     7
 74
     0
 42
1.000000000000000e-007
 43
1.000000000000000e-007
 12
-0.6708203932499259
 22
-0.8944271909998633
 32
0.0000000000000000
 13
-0.6708203932498691
 23
-0.8944271909998633
 33
0.0000000000000000
 40
0.0000000000000000
 40
0.0000000000000000
 40
0.0000000000000000
 40
0.0000000000000000
 40
2.236067977499434
 40
4.472135954999580
 40
6.708203932499712
 40
8.944271909999145
 40
8.944271909999145
 40
8.944271909999145
 40
8.944271909999145
 10
317.0000000000000
 20
234.0000000000090
 30
0.0000000000000000
 10
316.5000000000001
 20
233.3333333333425
 30
0.0000000000000000
 10
315.5000000000000
 20
232.0000000000092
 30
0.0000000000000000
 10
317.0000000000000
 20
230.0000000000090
 30
0.0000000000000000
 10
318.5000000000000
 20
228.0000000000088
 30
0.0000000000000000
 10
317.4999999999999
 20
226.6666666666755
 30
0.0000000000000000
 10
317.0000000000000
 20
226.0000000000090
 30
0.0000000000000000
  0
SPLINE
  5
1B0
100
AcDbEntity
  8
MAIN0
  6
CONTINUOUS
 62
3
100
AcDbSpline
210
0.0000000000000000
220
0.0000000000000000
230
1.000000000000000
 70
     8
 71
     3
 72
     9
 73
     5
 74
     0
 42
1.000000000000000e-007
 43
1.000000000000000e-007
 12
-0.2236067977499943
 22
-0.2981423970000492
 32
0.0000000000000000
 13
0.6708203932500396
 23
-0.8944271909998633
 33
0.0000000000000000
 40
0.0000000000000000
 40
0.0000000000000000
 40
0.0000000000000000
 40
0.0000000000000000
 40
6.708203932499712
 40
8.944271909999145
 40
8.944271909999145
 40
8.944271909999145
 40
8.944271909999145
 10
317.0000000000001
 20
230.0000000000091
 30
0.0000000000000000
 10
316.5000000000000
 20
229.3333333333422
 30
0.0000000000000000
 10
315.5000000000001
 20
228.0000000000088
 30
0.0000000000000000
 10
316.5000000000001
 20
226.6666666666755
 30
0.0000000000000000
 10
317.0000000000001
 20
226.0000000000090
 30
0.0000000000000000
  0
SPLINE
  5
1B1
100
AcDbEntity
  8
MAIN0
  6
CONTINUOUS
 62
3
100
AcDbSpline
210
0.0000000000000000
220
0.0000000000000000
230
1.000000000000000
 70
     8
 71
     3
 72
    11
 73
     7
 74
     0
 42
1.000000000000000e-007
 43
1.000000000000000e-007
 12
0.6708203932499828
 22
0.8944271909998633
 32
0.0000000000000000
 13
0.6708203932498691
 23
0.8944271909998633
 33
0.0000000000000000
 40
0.0000000000000000
 40
0.0000000000000000
 40
0.0000000000000000
 40
0.0000000000000000
 40
2.236067977499434
 40
4.472135954999580
 40
6.708203932499712
 40
8.944271909999145
 40
8.944271909999145
 40
8.944271909999145
 40
8.944271909999145
 10
314.0000000000000
 20
226.0000000000102
 30
0.0000000000000000
 10
314.4999999999999
 20
226.6666666666767
 30
0.0000000000000000
 10
315.5000000000000
 20
228.0000000000100
 30
0.0000000000000000
 10
314.0000000000000
 20
230.0000000000102
 30
0.0000000000000000
 10
312.5000000000000
 20
232.0000000000104
 30
0.0000000000000000
 10
313.5000000000001
 20
233.3333333333437
 30
0.0000000000000000
 10
314.0000000000000
 20
234.0000000000102
 30
0.0000000000000000
  0
SPLINE
  5
1B2
100
AcDbEntity
  8
MAIN0
  6
CONTINUOUS
 62
3
100
AcDbSpline
210
0.0000000000000000
220
0.0000000000000000
230
1.000000000000000
 70
     8
 71
     3
 72
     9
 73
     5
 74
     0
 42
1.000000000000000e-007
 43
1.000000000000000e-007
 12
0.2236067977500227
 22
0.2981423970000492
 32
0.0000000000000000
 13
-0.6708203932499828
 23
0.8944271909998633
 33
0.0000000000000000
 40
0.0000000000000000
 40
0.0000000000000000
 40
0.0000000000000000
 40
0.0000000000000000
 40
6.708203932499712
 40
8.944271909999145
 40
8.944271909999145
 40
8.944271909999145
 40
8.944271909999145
 10
313.9999999999999
 20
230.0000000000102
 30
0.0000000000000000
 10
314.5000000000000
 20
230.6666666666770
 30
0.0000000000000000
 10
315.4999999999999
 20
232.0000000000104
 30
0.0000000000000000
 10
314.4999999999999
 20
233.3333333333437
 30
0.0000000000000000
 10
313.9999999999999
 20
234.0000000000102
 30
0.0000000000000000
  0
SPLINE
  5
1B3
100
AcDbEntity
  8
MAIN0
  6
CONTINUOUS
 62
3
100
AcDbSpline
210
0.0000000000000000
220
0.0000000000000000
230
1.000000000000000
 70
     8
 71
     3
 72
     9
 73
     5
 74
     0
 42
1.000000000000000e-007
 43
1.000000000000000e-007
 12
-0.2236067977499943
 22
0.2981423970000492
 32
0.0000000000000000
 13
0.6708203932499259
 23
0.8944271909998633
 33
0.0000000000000000
 40
0.0000000000000000
 40
0.0000000000000000
 40
0.0000000000000000
 40
0.0000000000000000
 40
6.708203932499712
 40
8.944271909999145
 40
8.944271909999145
 40
8.944271909999145
 40
8.944271909999145
 10
366.0000000000001
 20
230.0000000000102
 30
0.0000000000000000
 10
365.5000000000000
 20
230.6666666666770
 30
0.0000000000000000
 10
364.5000000000001
 20
232.0000000000104
 30
0.0000000000000000
 10
365.5000000000001
 20
233.3333333333437
 30
0.0000000000000000
 10
366.0000000000001
 20
234.0000000000102
 30
0.0000000000000000
  0
SPLINE
  5
1B4
100
AcDbEntity
  8
MAIN0
  6
CONTINUOUS
 62
3
100
AcDbSpline
210
0.0000000000000000
220
0.0000000000000000
230
1.000000000000000
 70
     8
 71
     3
 72
    11
 73
     7
 74
     0
 42
1.000000000000000e-007
 43
1.000000000000000e-007
 12
-0.6708203932499259
 22
0.8944271909998633
 32
0.0000000000000000
 13
-0.6708203932498691
 23
0.8944271909998633
 33
0.0000000000000000
 40
0.0000000000000000
 40
0.0000000000000000
 40
0.0000000000000000
 40
0.0000000000000000
 40
2.236067977499434
 40
4.472135954999580
 40
6.708203932499712
 40
8.944271909999145
 40
8.944271909999145
 40
8.944271909999145
 40
8.944271909999145
 10
366.0000000000000
 20
226.0000000000102
 30
0.0000000000000000
 10
365.5000000000001
 20
226.6666666666767
 30
0.0000000000000000
 10
364.5000000000000
 20
228.0000000000100
 30
0.0000000000000000
 10
366.0000000000000
 20
230.0000000000102
 30
0.0000000000000000
 10
367.5000000000000
 20
232.0000000000104
 30
0.0000000000000000
 10
366.4999999999999
 20
233.3333333333437
 30
0.0000000000000000
 10
366.0000000000000
 20
234.0000000000102
 30
0.0000000000000000
  0
SPLINE
  5
1B5
100
AcDbEntity
  8
MAIN0
  6
CONTINUOUS
 62
3
100
AcDbSpline
210
0.0000000000000000
220
0.0000000000000000
230
1.000000000000000
 70
     8
 71
     3
 72
    11
 73
     7
 74
     0
 42
1.000000000000000e-007
 43
1.000000000000000e-007
 12
0.6708203932499828
 22
-0.8944271909998633
 32
0.0000000000000000
 13
0.6708203932498691
 23
-0.8944271909998633
 33
0.0000000000000000
 40
0.0000000000000000
 40
0.0000000000000000
 40
0.0000000000000000
 40
0.0000000000000000
 40
2.236067977499434
 40
4.472135954999580
 40
6.708203932499712
 40
8.944271909999145
 40
8.944271909999145
 40
8.944271909999145
 40
8.944271909999145
 10
363.0000000000000
 20
234.0000000000090
 30
0.0000000000000000
 10
363.4999999999999
 20
233.3333333333425
 30
0.0000000000000000
 10
364.5000000000000
 20
232.0000000000092
 30
0.0000000000000000
 10
363.0000000000000
 20
230.0000000000090
 30
0.0000000000000000
 10
361.5000000000000
 20
228.0000000000088
 30
0.0000000000000000
 10
362.5000000000001
 20
226.6666666666755
 30
0.0000000000000000
 10
363.0000000000000
 20
226.0000000000090
 30
0.0000000000000000
  0
SPLINE
  5
1B6
100
AcDbEntity
  8
MAIN0
  6
CONTINUOUS
 62
3
100
AcDbSpline
210
0.0000000000000000
220
0.0000000000000000
230
1.000000000000000
 70
     8
 71
     3
 72
     9
 73
     5
 74
     0
 42
1.000000000000000e-007
 43
1.000000000000000e-007
 12
0.2236067977499943
 22
-0.2981423970000492
 32
0.0000000000000000
 13
-0.6708203932499259
 23
-0.8944271909998633
 33
0.0000000000000000
 40
0.0000000000000000
 40
0.0000000000000000
 40
0.0000000000000000
 40
0.0000000000000000
 40
6.708203932499712
 40
8.944271909999145
 40
8.944271909999145
 40
8.944271909999145
 40
8.944271909999145
 10
362.9999999999999
 20
230.0000000000091
 30
0.0000000000000000
 10
363.5000000000000
 20
229.3333333333422
 30
0.0000000000000000
 10
364.4999999999999
 20
228.0000000000088
 30
0.0000000000000000
 10
363.4999999999999
 20
226.6666666666755
 30
0.0000000000000000
 10
362.9999999999999
 20
226.0000000000090
 30
0.0000000000000000
  0
LINE
  5
1B7
100
AcDbEntity
  8
MAIN0
  6
CONTINUOUS
 62
3
100
AcDbLine
 10
304.0000000000000
 20
226.0000000000141
 30
0.0000000000000000
 11
314.0000000000000
 21
226.0000000000102
 31
0.0000000000000000
  0
LINE
  5
1B8
100
AcDbEntity
  8
MAIN0
  6
CONTINUOUS
 62
3
100
AcDbLine
 10
317.0000000000001
 20
226.0000000000090
 30
0.0000000000000000
 11
332.5000000000005
 21
226.0000000000030
 31
0.0000000000000000
  0
LINE
  5
1B9
100
AcDbEntity
  8
MAIN0
  6
CONTINUOUS
 62
3
100
AcDbLine
 10
304.0000000000000
 20
234.0000000000141
 30
0.0000000000000000
 11
313.9999999999999
 21
234.0000000000102
 31
0.0000000000000000
  0
LINE
  5
1BA
100
AcDbEntity
  8
MAIN0
  6
CONTINUOUS
 62
3
100
AcDbLine
 10
317.0000000000000
 20
234.0000000000090
 30
0.0000000000000000
 11
332.5000000000000
 21
234.0000000000030
 31
0.0000000000000000
  0
LINE
  5
1BB
100
AcDbEntity
  8
MAIN0
  6
CONTINUOUS
 62
3
100
AcDbLine
 10
347.5000000000000
 20
233.9999999999971
 30
0.0000000000000000
 11
363.0000000000000
 21
233.9999999999910
 31
0.0000000000000000
  0
LINE
  5
1BC
100
AcDbEntity
  8
MAIN0
  6
CONTINUOUS
 62
3
100
AcDbLine
 10
366.0000000000000
 20
233.9999999999898
 30
0.0000000000000000
 11
376.0000000000000
 21
233.9999999999859
 31
0.0000000000000000
  0
LINE
  5
1BD
100
AcDbEntity
  8
MAIN0
  6
CONTINUOUS
 62
3
100
AcDbLine
 10
347.4999999999999
 20
225.9999999999971
 30
0.0000000000000000
 11
362.9999999999999
 21
225.9999999999910
 31
0.0000000000000000
  0
LINE
  5
1BE
100
AcDbEntity
  8
MAIN0
  6
CONTINUOUS
 62
3
100
AcDbLine
 10
366.0000000000000
 20
225.9999999999898
 30
0.0000000000000000
 11
376.0000000000000
 21
225.9999999999859
 31
0.0000000000000000
  0
DIMENSION
  5
1C7
100
AcDbEntity
  8
MAIN0
  6
CONTINUOUS
 62
1
100
AcDbDimension
  2
*D0
 10
380.0000000000016
 20
250.0000000000000
 30
0.0000000000000000
 11
340.0000000000000
 21
250.5000000000000
 31
0.0000000000000000
 70
32
  1
\A1;110
  3
MAIN001
100
AcDbAlignedDimension
 13
299.9999999999984
 23
230.0000000000157
 33
0.0000000000000000
 14
380.0000000000016
 24
229.9999999999844
 34
0.0000000000000000
100
AcDbRotatedDimension
1001
ACAD
1000
DSTYLE
1002
{
1070
   173
1070
     1
1070
     6
1000
_OPEN
1070
     7
1000
_OPEN
1070
    41
1040
2.000000
1002
}
  0
LINE
  5
1C8
100
AcDbEntity
  8
MAIN0
  6
CONTINUOUS
 62
3
100
AcDbLine
 10
339.7432335667606
 20
177.5000000000001
 30
0.0000000000000000
 11
339.7432335667712
 21
187.0000000000001
 31
0.0000000000000000
  0
LINE
  5
1C9
100
AcDbEntity
  8
MAIN0
  6
CONTINUOUS
 62
3
100
AcDbLine
 10
340.2567664327479
 20
177.4999999999999
 30
0.0000000000000000
 11
340.2567664327373
 21
186.9999999999999
 31
0.0000000000000000
  0
LINE
  5
1CA
100
AcDbEntity
  8
MAIN0
  6
CONTINUOUS
 62
3
100
AcDbLine
 10
340.2567664327373
 20
186.9999999999999
 30
0.0000000000000000
 11
344.7000000000001
 21
177.4999999999982
 31
0.0000000000000000
  0
LINE
  5
1CB
100
AcDbEntity
  8
MAIN0
  6
CONTINUOUS
 62
3
100
AcDbLine
 10
340.2567664327479
 20
177.4999999999999
 30
0.0000000000000000
 11
344.7000000000001
 21
186.9999999999982
 31
0.0000000000000000
  0
LINE
  5
1CC
100
AcDbEntity
  8
MAIN0
  6
CONTINUOUS
 62
3
100
AcDbLine
 10
339.7432335667711
 20
187.0000000000001
 30
0.0000000000000000
 11
335.3000000000000
 21
177.5000000000019
 31
0.0000000000000000
  0
LINE
  5
1CD
100
AcDbEntity
  8
MAIN0
  6
CONTINUOUS
 62
3
100
AcDbLine
 10
335.3000000000000
 20
187.0000000000018
 30
0.0000000000000000
 11
339.7432335667605
 21
177.5000000000001
 31
0.0000000000000000
  0
LINE
  5
1CE
100
AcDbEntity
  8
MAIN0
  6
CONTINUOUS
 62
3
100
AcDbLine
 10
335.3000000000000
 20
187.0000000000019
 30
0.0000000000000000
 11
339.7432335667712
 21
187.0000000000001
 31
0.0000000000000000
  0
LINE
  5
1CF
100
AcDbEntity
  8
MAIN0
  6
CONTINUOUS
 62
3
100
AcDbLine
 10
340.2567664327373
 20
186.9999999999999
 30
0.0000000000000000
 11
344.7000000000000
 21
186.9999999999982
 31
0.0000000000000000
  0
DIMENSION
  5
1D6
100
AcDbEntity
  8
MAIN0
  6
CONTINUOUS
 62
3
100
AcDbDimension
  2
*D1
 10
332.5000000000000
 20
210.0000000000000
 30
0.0000000000000000
 11
340.0000000000000
 21
210.5000000000000
 31
0.0000000000000000
 70
32
  1
\A1;\U+220515
  3
MAIN001
100
AcDbAlignedDimension
 13
347.5000000000000
 23
201.9999999999971
 33
0.0000000000000000
 14
332.5000000000000
 24
202.0000000000029
 34
0.0000000000000000
100
AcDbRotatedDimension
1001
ACAD
1000
DSTYLE
1002
{
1070
   173
1070
     1
1070
     6
1000
_OPEN
1070
     7
1000
_OPEN
1070
    41
1040
2.000000
1002
}
  0
DIMENSION
  5
1DF
100
AcDbEntity
  8
MAIN0
  6
CONTINUOUS
 62
3
100
AcDbDimension
  2
*D2
 10
352.5000000000000
 20
176.9999999999984
 30
0.0000000000000000
 11
352.0000000000000
 21
181.9999999999983
 31
0.0000000000000000
 70
32
  3
MAIN001
100
AcDbAlignedDimension
 13
344.7000000000000
 23
186.9999999999982
 33
0.0000000000000000
 14
344.1999999999999
 24
176.9999999999984
 34
0.0000000000000000
 50
90.00000000000000
100
AcDbRotatedDimension
1001
ACAD
1000
DSTYLE
1002
{
1070
   173
1070
     1
1070
     6
1000
_OPEN
1070
     7
1000
_OPEN
1070
    41
1040
2.000000
1002
}
  0
DIMENSION
  5
1E6
100
AcDbEntity
  8
MAIN0
  6
CONTINUOUS
 62
3
100
AcDbDimension
  2
*D3
 10
310.0000000000000
 20
234.0000000000102
 30
0.0000000000000000
 11
309.5000000000000
 21
230.0000000000102
 31
0.0000000000000000
 70
32
  1
\A1;\U+22058
  3
MAIN001
100
AcDbAlignedDimension
 13
304.0000000000000
 23
226.0000000000141
 33
0.0000000000000000
 14
304.0000000000000
 24
234.0000000000141
 34
0.0000000000000000
 50
90.00000000000000
100
AcDbRotatedDimension
1001
ACAD
1000
DSTYLE
1002
{
1070
   173
1070
     1
1070
     6
1000
_OPEN
1070
     7
1000
_OPEN
1070
    41
1040
2.000000
1002
}
  0
ARC
  5
1E7
100
AcDbEntity
  8
MAIN0
  6
CONTINUOUS
 62
3
100
AcDbCircle
 10
340.0000000000000
 20
155.0000000000000
 30
0.0000000000000000
 40
4.700000000000000
100
AcDbArc
 50
32.78768916362177
 51
86.86830622866397
  0
ARC
  5
1E8
100
AcDbEntity
  8
MAIN0
  6
CONTINUOUS
 62
3
100
AcDbCircle
 10
340.0000000000000
 20
155.0000000000000
 30
0.0000000000000000
 40
4.700000000000000
100
AcDbArc
 50
86.86830622866397
 51
93.13169377614329
  0
ARC
  5
1E9
100
AcDbEntity
  8
MAIN0
  6
CONTINUOUS
 62
3
100
AcDbCircle
 10
340.0000000000000
 20
155.0000000000000
 30
0.0000000000000000
 40
4.700000000000000
100
AcDbArc
 50
215.5697428816894
 51
266.8683062239591
  0
ARC
  5
1EA
100
AcDbEntity
  8
MAIN0
  6
CONTINUOUS
 62
3
100
AcDbCircle
 10
340.0000000000000
 20
155.0000000000000
 30
0.0000000000000000
 40
4.700000000000000
100
AcDbArc
 50
266.8683062239591
 51
273.1316937713929
  0
DIMENSION
  5
1F3
100
AcDbEntity
  8
MAIN0
  6
CONTINUOUS
 62
3
100
AcDbDimension
  2
*D4
 10
343.3234018715767
 20
158.3234018715768
 30
0.0000000000000000
 11
347.4925188882035
 21
163.1996256693901
 31
0.0000000000000000
 70
163
  3
MAIN001
100
AcDbDiametricDimension
 15
336.6765981284232
 25
151.6765981284233
 35
0.0000000000000000
1001
ACAD
1000
DSTYLE
1002
{
1070
   287
1070
     2
1070
   173
1070
     1
1070
     6
1000
_OPEN
1070
     7
1000
_OPEN
1070
    41
1040
2.000000
1002
}
  0
DIMENSION
  5
1FE
100
AcDbEntity
  8
MAIN0
  6
CONTINUOUS
 62
3
100
AcDbDimension
  2
*D5
 10
347.5251262657673
 20
142.5251262657623
 30
0.0000000000000000
 11
355.6861766113394
 21
151.3932833925385
 31
0.0000000000000000
 70
161
  1
\A1;□7\H0.903226x;\S 0^ -0.1;
  3
MAIN001
100
AcDbAlignedDimension
 13
344.6929810354452
 23
155.2567664326802
 33
0.0000000000000000
 14
339.7432335669378
 24
150.3070189645756
 34
0.0000000000000000
 50
45.00000000005956
1001
ACAD
1000
DSTYLE
1002
{
1070
   173
1070
     1
1070
     6
1000
_OPEN
1070
     7
1000
_OPEN
1070
    41
1040
2.000000
1070
   287
1070
     0
1070
   272
1070
     1
1070
    47
1040
0.000000
1070
    48
1040
0.100000
1070
    71
1070
     1
1070
   340
1005
1FF
1002
}
  0
DIMENSION
  5
205
100
AcDbEntity
  8
MAIN0
  6
CONTINUOUS
 62
3
100
AcDbDimension
  2
*D6
 10
276.2181425000487
 20
184.5272678125061
 30
0.0000000000000000
 11
258.6336541345340
 21
182.8330978760854
 31
0.0000000000000000
 70
163
  3
MAIN001
100
AcDbDiametricDimension
 15
203.7818574999510
 25
175.4727321874939
 35
0.0000000000000000
1001
ACAD
1000
DSTYLE
1002
{
1070
   287
1070
     2
1070
   173
1070
     1
1070
     6
1000
_OPEN
1070
     7
1000
_NONE
1070
    41
1040
2.000000
1070
   272
1070
     1
1070
    47
1040
0.200000
1070
    48
1040
0.200000
1070
    71
1070
     1
1002
}
  0
DIMENSION
  5
20E
100
AcDbEntity
  8
MAIN0
  6
CONTINUOUS
 62
3
100
AcDbDimension
  2
*D7
 10
160.0000000000000
 20
187.5000000000000
 30
0.0000000000000000
 11
159.5000000000000
 21
193.0000000000000
 31
0.0000000000000000
 70
32
  3
MAIN001
100
AcDbAlignedDimension
 13
149.7000000000000
 23
198.5000000000000
 33
0.0000000000000000
 14
149.7000000000000
 24
187.5000000000000
 34
0.0000000000000000
 50
90.00000000000000
100
AcDbRotatedDimension
1001
ACAD
1000
DSTYLE
1002
{
1070
   173
1070
     1
1070
     6
1000
_OPEN
1070
     7
1000
_OPEN
1070
    41
1040
2.000000
1002
}
  0
DIMENSION
  5
217
100
AcDbEntity
  8
MAIN0
  6
CONTINUOUS
 62
3
100
AcDbDimension
  2
*D8
 10
160.0000000000000
 20
198.5000000000000
 30
0.0000000000000000
 11
159.5000000000000
 21
203.5000000000000
 31
0.0000000000000000
 70
32
  3
MAIN001
100
AcDbAlignedDimension
 13
143.7000000000000
 23
208.5000000000000
 33
0.0000000000000000
 14
149.7000000000000
 24
198.5000000000000
 34
0.0000000000000000
 50
90.00000000000000
100
AcDbRotatedDimension
1001
ACAD
1000
DSTYLE
1002
{
1070
   173
1070
     1
1070
     6
1000
_OPEN
1070
     7
1000
_OPEN
1070
    41
1040
2.000000
1002
}
  0
DIMENSION
  5
220
100
AcDbEntity
  8
MAIN0
  6
CONTINUOUS
 62
3
100
AcDbDimension
  2
*D9
 10
160.0000000000000
 20
208.5000000000000
 30
0.0000000000000000
 11
159.5000000000000
 21
215.5000000000000
 31
0.0000000000000000
 70
32
  3
MAIN001
100
AcDbAlignedDimension
 13
137.2000000000001
 23
222.5000000000000
 33
0.0000000000000000
 14
143.7000000000000
 24
208.5000000000000
 34
0.0000000000000000
 50
90.00000000000000
100
AcDbRotatedDimension
1001
ACAD
1000
DSTYLE
1002
{
1070
   173
1070
     1
1070
     6
1000
_OPEN
1070
     7
1000
_OPEN
1070
    41
1040
2.000000
1002
}
  0
DIMENSION
  5
229
100
AcDbEntity
  8
MAIN0
  6
CONTINUOUS
 62
3
100
AcDbDimension
  2
*D10
 10
170.0000000000000
 20
187.5000000000000
 30
0.0000000000000000
 11
169.5000000000000
 21
205.0000000000000
 31
0.0000000000000000
 70
32
  3
MAIN001
100
AcDbAlignedDimension
 13
137.2000000000001
 23
222.5000000000000
 33
0.0000000000000000
 14
149.7000000000000
 24
187.5000000000000
 34
0.0000000000000000
 50
90.00000000000000
100
AcDbRotatedDimension
1001
ACAD
1000
DSTYLE
1002
{
1070
   173
1070
     1
1070
     6
1000
_OPEN
1070
     7
1000
_OPEN
1070
    41
1040
2.000000
1002
}
  0
DIMENSION
  5
231
100
AcDbEntity
  8
MAIN0
  6
CONTINUOUS
 62
3
100
AcDbDimension
  2
*D11
 10
150.0000000000000
 20
202.5000000000000
 30
0.0000000000000000
 11
147.0000000000000
 21
203.0000000000000
 31
0.0000000000000000
 70
32
  3
MAIN001
100
AcDbAlignedDimension
 13
144.0000000000000
 23
199.6999999997370
 33
0.0000000000000000
 14
150.0000000000000
 24
198.2000000000000
 34
0.0000000000000000
100
AcDbRotatedDimension
1001
ACAD
1000
DSTYLE
1002
{
1070
   173
1070
     1
1070
     6
1000
_OPEN
1070
     7
1000
_OPEN
1070
    41
1040
2.000000
1002
}
  0
DIMENSION
  5
239
100
AcDbEntity
  8
MAIN0
  6
CONTINUOUS
 62
3
100
AcDbDimension
  2
*D12
 10
138.0000000000000
 20
215.0000000000000
 30
0.0000000000000000
 11
141.0000000000000
 21
215.5000000000000
 31
0.0000000000000000
 70
32
  3
MAIN001
100
AcDbAlignedDimension
 13
144.0000000000000
 23
208.2000000000000
 33
0.0000000000000000
 14
138.0000000000000
 24
209.6999999997370
 34
0.0000000000000000
100
AcDbRotatedDimension
1001
ACAD
1000
DSTYLE
1002
{
1070
   173
1070
     1
1070
     6
1000
_OPEN
1070
     7
1000
_OPEN
1070
    41
1040
2.000000
1002
}
  0
DIMENSION
  5
242
100
AcDbEntity
  8
MAIN0
  6
CONTINUOUS
 62
3
100
AcDbDimension
  2
*D13
 10
160.0000000000000
 20
185.5000000000000
 30
0.0000000000000000
 11
159.5000000000000
 21
180.0000000000000
 31
0.0000000000000000
 70
32
  3
MAIN001
100
AcDbAlignedDimension
 13
149.5000000000000
 23
174.5000000000000
 33
0.0000000000000000
 14
149.5000000000000
 24
185.5000000000000
 34
0.0000000000000000
 50
90.00000000000000
100
AcDbRotatedDimension
1001
ACAD
1000
DSTYLE
1002
{
1070
   173
1070
     1
1070
     6
1000
_OPEN
1070
     7
1000
_OPEN
1070
    41
1040
2.000000
1002
}
  0
DIMENSION
  5
24B
100
AcDbEntity
  8
MAIN0
  6
CONTINUOUS
 62
3
100
AcDbDimension
  2
*D14
 10
160.0000000000000
 20
137.4999999999966
 30
0.0000000000000000
 11
159.5000000000000
 21
142.0000000000131
 31
0.0000000000000000
 70
32
  3
MAIN001
100
AcDbAlignedDimension
 13
149.8000000000020
 23
146.5000000000295
 33
0.0000000000000000
 14
149.8000000000088
 24
137.4999999999966
 34
0.0000000000000000
 50
90.00000000000000
100
AcDbRotatedDimension
1001
ACAD
1000
DSTYLE
1002
{
1070
   173
1070
     1
1070
     6
1000
_OPEN
1070
     7
1000
_OPEN
1070
    41
1040
2.000000
1002
}
  0
DIMENSION
  5
254
100
AcDbEntity
  8
MAIN0
  6
CONTINUOUS
 62
3
100
AcDbDimension
  2
*D15
 10
160.0000000000000
 20
146.5000000000295
 30
0.0000000000000000
 11
159.5000000000000
 21
151.5000000000301
 31
0.0000000000000000
 70
32
  3
MAIN001
100
AcDbAlignedDimension
 13
143.8000000000037
 23
156.5000000000307
 33
0.0000000000000000
 14
149.8000000000020
 24
146.5000000000295
 34
0.0000000000000000
 50
90.00000000000000
100
AcDbRotatedDimension
1001
ACAD
1000
DSTYLE
1002
{
1070
   173
1070
     1
1070
     6
1000
_OPEN
1070
     7
1000
_OPEN
1070
    41
1040
2.000000
1002
}
  0
DIMENSION
  5
25D
100
AcDbEntity
  8
MAIN0
  6
CONTINUOUS
 62
3
100
AcDbDimension
  2
*D16
 10
160.0000000000000
 20
156.5000000000307
 30
0.0000000000000000
 11
159.5000000000000
 21
164.5000000000313
 31
0.0000000000000000
 70
32
  3
MAIN001
100
AcDbAlignedDimension
 13
137.3000000000069
 23
172.5000000000320
 33
0.0000000000000000
 14
143.8000000000037
 24
156.5000000000307
 34
0.0000000000000000
 50
90.00000000000000
100
AcDbRotatedDimension
1001
ACAD
1000
DSTYLE
1002
{
1070
   173
1070
     1
1070
     6
1000
_OPEN
1070
     7
1000
_OPEN
1070
    41
1040
2.000000
1002
}
  0
DIMENSION
  5
266
100
AcDbEntity
  8
MAIN0
  6
CONTINUOUS
 62
3
100
AcDbDimension
  2
*D17
 10
70.00000000000000
 20
210.0000000000000
 30
0.0000000000000000
 11
69.50000000000000
 21
172.9249998629093
 31
0.0000000000000000
 70
32
  1
\A1;\U+220560H6\H0.903226x;\S＋0.019^ 　0;
  3
MAIN001
100
AcDbAlignedDimension
 13
90.00000000000000
 23
150.0000000000000
 33
0.0000000000000000
 14
90.00000000000000
 24
210.0000000000000
 34
0.0000000000000000
 50
90.00000000000000
100
AcDbRotatedDimension
1001
ACAD
1000
DSTYLE
1002
{
1070
   173
1070
     1
1070
     6
1000
_OPEN
1070
     7
1000
_OPEN
1070
    41
1040
2.000000
1070
   272
1070
     3
1070
    47
1040
0.019000
1070
    48
1040
0.000000
1070
    71
1070
     1
1070
   340
1005
1FF
1002
}
  0
DIMENSION
  5
26F
100
AcDbEntity
  8
MAIN0
  6
CONTINUOUS
 62
3
100
AcDbDimension
  2
*D18
 10
60.00000000000000
 20
222.5000000000000
 30
0.0000000000000000
 11
59.50000000000000
 21
180.0000000000000
 31
0.0000000000000000
 70
32
  1
\A1;\U+220585
  3
MAIN001
100
AcDbAlignedDimension
 13
91.00000000000000
 23
137.5000000000000
 33
0.0000000000000000
 14
91.00000000000000
 24
222.5000000000000
 34
0.0000000000000000
 50
90.00000000000000
100
AcDbRotatedDimension
1001
ACAD
1000
DSTYLE
1002
{
1070
   173
1070
     1
1070
     6
1000
_OPEN
1070
     7
1000
_OPEN
1070
    41
1040
2.000000
1002
}
  0
DIMENSION
  5
278
100
AcDbEntity
  8
MAIN0
  6
CONTINUOUS
 62
3
100
AcDbDimension
  2
*D19
 10
90.00000000000000
 20
230.0000000000000
 30
0.0000000000000000
 11
96.50000000000001
 21
230.5000000000000
 31
0.0000000000000000
 70
32
  3
MAIN001
100
AcDbAlignedDimension
 13
103.0000000000000
 23
219.5000000000000
 33
0.0000000000000000
 14
90.00000000000000
 24
221.5000000000000
 34
0.0000000000000000
100
AcDbRotatedDimension
1001
ACAD
1000
DSTYLE
1002
{
1070
   173
1070
     1
1070
     6
1000
_OPEN
1070
     7
1000
_OPEN
1070
    41
1040
2.000000
1002
}
  0
LEADER
  5
279
100
AcDbEntity
  8
MAIN0
  6
CONTINUOUS
 62
3
100
AcDbLeader
  3
MAIN001
 73
     0
 75
     1
 40
3.099999904632568
 41
33.49900002235174
 76
     3
 10
96.65000000000002
 20
219.5000000000000
 30
0.0000000000000000
 10
80.00000000000000
 20
235.0000000000000
 30
0.0000000000000000
 10
78.21300005266070
 20
235.0000000000000
 30
0.0000000000000000
340
27A
213
0.0000000000000000
223
-0.5000000000000000
233
0.0000000000000000
1001
ACAD
1000
DSTYLE
1002
{
1070
   147
1040
0.0
1070
    77
1070
     1
1070
   173
1070
     1
1070
     6
1000
_OPEN
1070
     7
1000
_OPEN
1002
}
  0
MTEXT
  5
27A
102
{ACAD_REACTORS
330
279
102
}
100
AcDbEntity
  8
MAIN0
  6
CONTINUOUS
 62
3
100
AcDbMText
 10
44.71400003030897
 20
238.5999999046326
 30
0.0000000000000000
 40
3.099999904632568
 41
0.0000000000000000
 71
     1
 72
     1
  1
{\H0.71x;{3-M6 (等配)\P(EQUALLY SPACED)}}
 11
1.000000000000000
 21
0.0000000000000000
 31
0.0000000000000000
  7
KNJYOKO
  0
DIMENSION
  5
283
100
AcDbEntity
  8
MAIN0
  6
CONTINUOUS
 62
3
100
AcDbDimension
  2
*D20
 10
96.00000000000000
 20
130.0000000000000
 30
0.0000000000000000
 11
107.0000000000000
 21
130.5000000000000
 31
0.0000000000000000
 70
32
  1
\A1;\U+220522
  3
MAIN001
100
AcDbAlignedDimension
 13
118.0000000000000
 23
139.2099999999914
 33
0.0000000000000000
 14
96.00000000000000
 24
139.2099999999914
 34
0.0000000000000000
100
AcDbRotatedDimension
1001
ACAD
1000
DSTYLE
1002
{
1070
   173
1070
     1
1070
     6
1000
_OPEN
1070
     7
1000
_OPEN
1070
    41
1040
2.000000
1002
}
  0
LINE
  5
284
100
AcDbEntity
  8
MAIN0
  6
CENTER
 62
3
100
AcDbLine
 10
107.0000000000000
 20
87.49999999999722
 30
0.0000000000000000
 11
107.0000000000000
 21
102.4999999999972
 31
0.0000000000000000
  0
LINE
  5
285
100
AcDbEntity
  8
MAIN0
  6
CENTER
 62
3
100
AcDbLine
 10
107.0000000000000
 20
135.0000000000000
 30
0.0000000000000000
 11
107.0000000000000
 21
157.5000000000000
 31
0.0000000000000000
  0
LINE
  5
286
100
AcDbEntity
  8
MAIN0
  6
CENTER
 62
3
100
AcDbLine
 10
99.49999999999852
 20
94.99999999999983
 30
0.0000000000000000
 11
114.5000000000015
 21
95.00000000000865
 31
0.0000000000000000
  0
DIMENSION
  5
291
100
AcDbEntity
  8
MAIN0
  6
CONTINUOUS
 62
3
100
AcDbDimension
  2
*D21
 10
112.0251262658680
 20
85.02512626586518
 30
0.0000000000000000
 11
120.2649863975744
 21
93.97209317875824
 31
0.0000000000000000
 70
161
  1
\A1;□7\H0.903226x;\S+0.15^ +0.05;
  3
MAIN001
100
AcDbAlignedDimension
 13
111.6929810354324
 23
95.25676643291230
 33
0.0000000000000000
 14
106.7432335671730
 24
90.30701896456006
 34
0.0000000000000000
 50
45.00000000000009
1001
ACAD
1000
DSTYLE
1002
{
1070
   173
1070
     1
1070
     6
1000
_OPEN
1070
     7
1000
_OPEN
1070
    41
1040
2.000000
1070
   287
1070
     0
1070
   272
1070
     2
1070
    47
1040
0.150000
1070
    48
1040
-0.050000
1070
    71
1070
     1
1070
   340
1005
1FF
1002
}
  0
DIMENSION
  5
299
100
AcDbEntity
  8
MAIN0
  6
CONTINUOUS
 62
3
100
AcDbDimension
  2
*D22
 10
144.0000000000036
 20
150.0000000000000
 30
0.0000000000000000
 11
147.0000000000028
 21
150.5000000000000
 31
0.0000000000000000
 70
32
  3
MAIN001
100
AcDbAlignedDimension
 13
150.0000000000019
 23
146.3000000000295
 33
0.0000000000000000
 14
144.0000000000036
 24
156.3000000000307
 34
0.0000000000000000
100
AcDbRotatedDimension
1001
ACAD
1000
DSTYLE
1002
{
1070
   173
1070
     1
1070
     6
1000
_OPEN
1070
     7
1000
_OPEN
1070
    41
1040
2.000000
1002
}
  0
DIMENSION
  5
2A1
100
AcDbEntity
  8
MAIN0
  6
CONTINUOUS
 62
3
100
AcDbDimension
  2
*D23
 10
138.0000000000039
 20
162.5000000000000
 30
0.0000000000000000
 11
141.0000000000038
 21
163.0000000000000
 31
0.0000000000000000
 70
32
  3
MAIN001
100
AcDbAlignedDimension
 13
144.0000000000036
 23
156.3000000000307
 33
0.0000000000000000
 14
138.0000000000055
 24
165.5000000000318
 34
0.0000000000000000
100
AcDbRotatedDimension
1001
ACAD
1000
DSTYLE
1002
{
1070
   173
1070
     1
1070
     6
1000
_OPEN
1070
     7
1000
_OPEN
1070
    41
1040
2.000000
1002
}
  0
LINE
  5
2A2
100
AcDbEntity
  8
MAIN0
  6
PHANTOM
 62
3
100
AcDbLine
 10
95.00000000000139
 20
193.9999999999976
 30
0.0000000000000000
 11
98.00000000000142
 21
194.0000000000000
 31
0.0000000000000000
  0
LINE
  5
2A3
100
AcDbEntity
  8
MAIN0
  6
PHANTOM
 62
3
100
AcDbLine
 10
95.00000000000028
 20
191.9999999999977
 30
0.0000000000000000
 11
95.00000000000139
 21
193.9999999999976
 31
0.0000000000000000
  0
LINE
  5
2A4
100
AcDbEntity
  8
MAIN0
  6
PHANTOM
 62
3
100
AcDbLine
 10
97.99999999999862
 20
189.0000000000000
 30
0.0000000000000000
 11
98.00000000000139
 21
194.0000000000000
 31
0.0000000000000000
  0
LINE
  5
2A5
100
AcDbEntity
  8
MAIN0
  6
PHANTOM
 62
3
100
AcDbLine
 10
96.24999999999973
 20
190.9999999999986
 30
0.0000000000000000
 11
96.25000000000028
 21
191.9999999999986
 31
0.0000000000000000
  0
LINE
  5
2A6
100
AcDbEntity
  8
MAIN0
  6
PHANTOM
 62
3
100
AcDbLine
 10
95.00000000000028
 20
191.9999999999976
 30
0.0000000000000000
 11
96.25000000000030
 21
191.9999999999986
 31
0.0000000000000000
  0
LINE
  5
2A7
100
AcDbEntity
  8
MAIN0
  6
PHANTOM
 62
3
100
AcDbLine
 10
98.00000000000100
 20
193.2500000000000
 30
0.0000000000000000
 11
104.1258891188935
 21
193.2500000000048
 31
0.0000000000000000
  0
LINE
  5
2A8
100
AcDbEntity
  8
MAIN0
  6
PHANTOM
 62
3
100
AcDbLine
 10
99.99999999999903
 20
189.7500000000016
 30
0.0000000000000000
 11
100.0000000000010
 21
193.2500000000016
 31
0.0000000000000000
  0
LINE
  5
2A9
100
AcDbEntity
  8
MAIN0
  6
PHANTOM
 62
3
100
AcDbLine
 10
100.0000000000008
 20
192.9250000000016
 30
0.0000000000000000
 11
104.0149571256160
 21
192.9250000000047
 31
0.0000000000000000
  0
LINE
  5
2AA
100
AcDbEntity
  8
MAIN0
  6
PHANTOM
 62
3
100
AcDbLine
 10
99.67500000004304
 20
193.2500000000013
 30
0.0000000000000000
 11
100.0000000000008
 21
192.9250000000436
 31
0.0000000000000000
  0
LINE
  5
2AB
100
AcDbEntity
  8
MAIN0
  6
PHANTOM
 62
3
100
AcDbLine
 10
95.00000000000533
 20
188.9999999999976
 30
0.0000000000000000
 11
98.00000000000536
 21
189.0000000000000
 31
0.0000000000000000
  0
LINE
  5
2AC
100
AcDbEntity
  8
MAIN0
  6
PHANTOM
 62
3
100
AcDbLine
 10
95.00000000000107
 20
190.9999999999976
 30
0.0000000000000000
 11
95.00000000000532
 21
188.9999999999977
 31
0.0000000000000000
  0
LINE
  5
2AD
100
AcDbEntity
  8
MAIN0
  6
PHANTOM
 62
3
100
AcDbLine
 10
95.00000000000107
 20
190.9999999999976
 30
0.0000000000000000
 11
96.25000000000108
 21
190.9999999999986
 31
0.0000000000000000
  0
LINE
  5
2AE
100
AcDbEntity
  8
MAIN0
  6
PHANTOM
 62
3
100
AcDbLine
 10
98.00000000000375
 20
189.7500000000000
 30
0.0000000000000000
 11
102.9864585277009
 21
189.7500000000039
 31
0.0000000000000000
  0
LINE
  5
2AF
100
AcDbEntity
  8
MAIN0
  6
PHANTOM
 62
3
100
AcDbLine
 10
100.0000000000030
 20
190.0750000000016
 30
0.0000000000000000
 11
103.0734499068979
 21
190.0750000000040
 31
0.0000000000000000
  0
LINE
  5
2B0
100
AcDbEntity
  8
MAIN0
  6
PHANTOM
 62
3
100
AcDbLine
 10
99.67500000004580
 20
189.7500000000013
 30
0.0000000000000000
 11
100.0000000000030
 21
190.0749999999595
 31
0.0000000000000000
  0
LINE
  5
2B1
100
AcDbEntity
  8
MAIN0
  6
HIDDEN
 62
3
100
AcDbLine
 10
332.5000000000000
 20
234.0000000000030
 30
0.0000000000000000
 11
347.5000000000000
 21
233.9999999999970
 31
0.0000000000000000
  0
LINE
  5
2B2
100
AcDbEntity
  8
MAIN0
  6
HIDDEN
 62
3
100
AcDbLine
 10
332.5000000000000
 20
226.0000000000030
 30
0.0000000000000000
 11
347.5000000000000
 21
225.9999999999971
 31
0.0000000000000000
  0
LINE
  5
2B3
100
AcDbEntity
  8
MAIN0
  6
CONTINUOUS
 62
3
100
AcDbLine
 10
244.7498031464959
 20
173.5626581518815
 30
0.0000000000000000
 11
246.2307406983186
 21
172.7076384576835
 31
0.0000000000000000
  0
LINE
  5
2B4
100
AcDbEntity
  8
MAIN0
  6
CONTINUOUS
 62
3
100
AcDbLine
 10
247.9498031465469
 20
179.1052207360725
 30
0.0000000000000000
 11
249.4307406983903
 21
178.2502010418626
 31
0.0000000000000000
  0
LINE
  5
2B5
100
AcDbEntity
  8
MAIN0
  6
CONTINUOUS
 62
3
100
AcDbLine
 10
243.1999999998664
 20
187.3321211120160
 30
0.0000000000000000
 11
243.1999999998664
 21
189.0421605004118
 31
0.0000000000000000
  0
LINE
  5
2B6
100
AcDbEntity
  8
MAIN0
  6
CONTINUOUS
 62
3
100
AcDbLine
 10
236.7999999998663
 20
187.3321211120748
 30
0.0000000000000000
 11
236.7999999998665
 21
189.0421605004945
 31
0.0000000000000000
  0
LINE
  5
2B7
100
AcDbEntity
  8
MAIN0
  6
CONTINUOUS
 62
3
100
AcDbLine
 10
232.0501968533698
 20
179.1052207358704
 30
0.0000000000000000
 11
230.5692593015469
 21
178.2502010416725
 31
0.0000000000000000
  0
LINE
  5
2B8
100
AcDbEntity
  8
MAIN0
  6
CONTINUOUS
 62
3
100
AcDbLine
 10
235.2501968533188
 20
173.5626581516206
 30
0.0000000000000000
 11
233.7692593014753
 21
172.7076384574108
 31
0.0000000000000000
  0
MTEXT
  5
2B9
100
AcDbEntity
  8
MAIN0
  6
CONTINUOUS
 62
3
100
AcDbMText
 10
232.4556975044507
 20
192.2431804708086
 30
0.0000000000000000
 40
4.000000000000000
 41
0.0000000000000000
 71
     1
 72
     1
  1
{\H0.91x;{SC-3}}
 11
-0.4999999999999635
 21
-0.8660254037844597
 31
0.0000000000000000
  7
STANDARD
  0
MTEXT
  5
2BA
100
AcDbEntity
  8
MAIN0
  6
CONTINUOUS
 62
3
100
AcDbMText
 10
233.1309026342917
 20
204.8052769677846
 30
0.0000000000000000
 40
5.000000000000000
 41
0.0000000000000000
 71
     1
 72
     1
  1
{\H0.93x;{KITAGAWA}}
 11
-0.4999999999999635
 21
-0.8660254037844597
 31
0.0000000000000000
  7
STANDARD
  0
MTEXT
  5
2BB
100
AcDbEntity
  8
MAIN0
  6
CONTINUOUS
 62
3
100
AcDbMText
 10
228.6552308883732
 20
209.5206870540854
 30
0.0000000000000000
 40
4.000000000000000
 41
0.0000000000000000
 71
     1
 72
     1
  1
{\H0.90x;{MAX.2500/min}}
 11
-0.4999999999999635
 21
-0.8660254037844597
 31
0.0000000000000000
  7
STANDARD
  0
LINE
  5
2BC
100
AcDbEntity
  8
MAIN0
  6
CONTINUOUS
 62
3
100
AcDbLine
 10
228.2519449473777
 20
207.6517717589850
 30
0.0000000000000000
 11
210.2450464736572
 21
176.4629087158348
 31
0.0000000000000000
  0
MTEXT
  5
2BD
100
AcDbEntity
  8
MAIN0
  6
CONTINUOUS
 62
3
100
AcDbMText
 10
216.6811998249910
 20
200.8331363633277
 30
0.0000000000000000
 40
3.000000000000000
 41
0.0000000000000000
 71
     1
 72
     1
  1
{\H0.92x;{JAPAN}}
 11
-0.4999999999999635
 21
-0.8660254037844597
 31
0.0000000000000000
  7
STANDARD
  0
LINE
  5
2BE
100
AcDbEntity
  8
MAIN0
  6
PHANTOM
 62
3
100
AcDbLine
 10
206.5684099311256
 20
190.8089874230065
 30
0.0000000000000000
 11
213.9233472679730
 21
203.5481125769446
 31
0.0000000000000000
  0
LINE
  5
2BF
100
AcDbEntity
  8
MAIN0
  6
PHANTOM
 62
3
100
AcDbLine
 10
213.9233472679730
 20
203.5481125769446
 30
0.0000000000000000
 11
211.3252710566197
 21
205.0481125769445
 31
0.0000000000000000
  0
LINE
  5
2C0
100
AcDbEntity
  8
MAIN0
  6
PHANTOM
 62
3
100
AcDbLine
 10
203.9703337197725
 20
192.3089874230068
 30
0.0000000000000000
 11
211.3252710566198
 21
205.0481125769445
 31
0.0000000000000000
  0
LINE
  5
2C1
100
AcDbEntity
  8
MAIN0
  6
PHANTOM
 62
3
100
AcDbLine
 10
206.5684099311107
 20
190.8089874230151
 30
0.0000000000000000
 11
203.9703337197576
 21
192.3089874230154
 31
0.0000000000000000
  0
ARC
  5
2C2
100
AcDbEntity
  8
MAIN3
  6
CONTINUOUS
 62
3
100
AcDbCircle
 10
222.0299728711402
 20
190.3750000001159
 30
0.0000000000000000
 40
10.25000000000000
100
AcDbArc
 50
221.7787060985961
 51
228.7354328800888
  0
LINE
  5
2C3
100
AcDbEntity
  8
MAIN0
  6
CONTINUOUS
 62
3
100
AcDbLine
 10
333.5000000000000
 20
241.9999999999677
 30
0.0000000000000000
 11
346.5000000000000
 21
241.9999999999651
 31
0.0000000000000000
  0
LINE
  5
2C4
100
AcDbEntity
  8
MAIN0
  6
CONTINUOUS
 62
3
100
AcDbLine
 10
333.5000000000000
 20
241.9999999999677
 30
0.0000000000000000
 11
332.5000000000000
 21
240.9999999999679
 31
0.0000000000000000
  0
LINE
  5
2C5
100
AcDbEntity
  8
MAIN0
  6
CONTINUOUS
 62
3
100
AcDbLine
 10
346.5000000000000
 20
241.9999999999652
 30
0.0000000000000000
 11
347.5000000000000
 21
240.9999999999649
 31
0.0000000000000000
  0
LINE
  5
2C6
100
AcDbEntity
  8
MAIN0
  6
CONTINUOUS
 62
3
100
AcDbLine
 10
332.5000000000000
 20
240.9999999999205
 30
0.0000000000000000
 11
347.5000000000001
 21
240.9999999999293
 31
0.0000000000000000
  0
DIMENSION
  5
2CF
100
AcDbEntity
  8
MAIN0
  6
CONTINUOUS
 62
3
100
AcDbDimension
  2
*D24
 10
360.0000000000000
 20
241.9999999999644
 30
0.0000000000000000
 11
359.5000000000000
 21
209.4999999999814
 31
0.0000000000000000
 70
32
  3
MAIN001
100
AcDbAlignedDimension
 13
344.1999999999999
 23
176.9999999999984
 33
0.0000000000000000
 14
346.5000000000000
 24
241.9999999999651
 34
0.0000000000000000
 50
90.00000000000000
100
AcDbRotatedDimension
1001
ACAD
1000
DSTYLE
1002
{
1070
   173
1070
     1
1070
     6
1000
_OPEN
1070
     7
1000
_OPEN
1070
    41
1040
2.000000
1002
}
  0
LINE
  5
2D0
100
AcDbEntity
  8
MAIN0
  6
CONTINUOUS
 62
3
100
AcDbLine
 10
135.0000000000000
 20
190.3700661194587
 30
0.0000000000000000
 11
150.0000000000000
 21
190.3700661194469
 31
0.0000000000000000
  0
LINE
  5
2D1
100
AcDbEntity
  8
MAIN0
  6
CONTINUOUS
 62
3
100
AcDbLine
 10
93.50000000000000
 20
150.0000000000000
 30
0.0000000000000000
 11
96.77742799214566
 21
150.0000000000000
 31
0.0000000000000000
  0
LINE
  5
2D2
100
AcDbEntity
  8
MAIN0
  6
CONTINUOUS
 62
3
100
AcDbLine
 10
135.0000000000000
 20
187.5000000000000
 30
0.0000000000000000
 11
135.4000000001003
 21
187.5000000000000
 31
0.0000000000000000
  0
LINE
  5
2D3
100
AcDbEntity
  8
MAIN0
  6
CONTINUOUS
 62
3
100
AcDbLine
 10
95.00000000000000
 20
210.5000000000000
 30
0.0000000000000000
 11
108.4500657222754
 21
210.5000000000000
 31
0.0000000000000000
  0
LINE
  5
2D4
100
AcDbEntity
  8
MAIN0
  6
CONTINUOUS
 62
3
100
AcDbLine
 10
98.50000000000000
 20
198.5000000000000
 30
0.0000000000000000
 11
105.6121034483282
 21
198.5000000000000
 31
0.0000000000000000
  0
LINE
  5
2D5
100
AcDbEntity
  8
MAIN0
  6
CONTINUOUS
 62
3
100
AcDbLine
 10
135.0000000000000
 20
138.5000000000000
 30
0.0000000000000000
 11
135.0000000000000
 21
221.5000000000000
 31
0.0000000000000000
  0
LINE
  5
2D6
100
AcDbEntity
  8
MAIN0
  6
CONTINUOUS
 62
3
100
AcDbLine
 10
94.50000000000000
 20
188.0000000000000
 30
0.0000000000000000
 11
102.6369541092391
 21
187.9999948077686
 31
0.0000000000000000
  0
LINE
  5
2D7
100
AcDbEntity
  8
MAIN0
  6
HIDDEN
 62
3
100
AcDbLine
 10
102.6369541092391
 20
187.9999948077686
 30
0.0000000000000000
 11
135.0000000000000
 21
188.0000028620299
 31
0.0000000000000000
  0
LINE
  5
2D8
100
AcDbEntity
  8
MAIN0
  6
CONTINUOUS
 62
3
100
AcDbLine
 10
94.50000000000000
 20
172.0000000000000
 30
0.0000000000000000
 11
103.1686448109055
 21
172.0000001608401
 31
0.0000000000000000
  0
LINE
  5
2D9
100
AcDbEntity
  8
MAIN0
  6
HIDDEN
 62
3
100
AcDbLine
 10
103.1686448109056
 20
172.0000001608401
 30
0.0000000000000000
 11
134.0000000000000
 21
172.0000000000000
 31
0.0000000000000000
  0
LINE
  5
2DA
100
AcDbEntity
  8
MAIN0
  6
CONTINUOUS
 62
3
100
AcDbLine
 10
96.00000000000000
 20
146.9599999999913
 30
0.0000000000000000
 11
96.02154008420762
 21
146.9599999950271
 31
0.0000000000000000
  0
LINE
  5
2DB
100
AcDbEntity
  8
MAIN0
  6
HIDDEN
 62
3
100
AcDbLine
 10
96.02154008420762
 20
146.9599999950271
 30
0.0000000000000000
 11
98.00000000000000
 21
146.9599999999929
 31
0.0000000000000000
  0
LINE
  5
2DC
100
AcDbEntity
  8
MAIN0
  6
HIDDEN
 62
3
100
AcDbLine
 10
96.00000000000000
 20
139.0100000000132
 30
0.0000000000000000
 11
96.00000411126202
 21
146.9194530652827
 31
0.0000000000000000
  0
LINE
  5
2DD
100
AcDbEntity
  8
MAIN0
  6
CONTINUOUS
 62
3
100
AcDbLine
 10
96.00000411126202
 20
146.9194530652827
 30
0.0000000000000000
 11
96.00000000000000
 21
149.5000000000000
 31
0.0000000000000000
  0
DIMENSION
  5
2E6
100
AcDbEntity
  8
MAIN0
  6
CONTINUOUS
 62
3
100
AcDbDimension
  2
*D25
 10
80.00000000000000
 20
188.0000000000000
 30
0.0000000000000000
 11
79.50000000000000
 21
180.0000000000000
 31
0.0000000000000000
 70
32
  1
\A1;\U+220516
  3
MAIN001
100
AcDbAlignedDimension
 13
94.50000000000000
 23
172.0000000000000
 33
0.0000000000000000
 14
94.50000000000000
 24
188.0000000000000
 34
0.0000000000000000
 50
90.00000000000000
100
AcDbRotatedDimension
1001
ACAD
1000
DSTYLE
1002
{
1070
   173
1070
     1
1070
     6
1000
_OPEN
1070
     7
1000
_OPEN
1070
    41
1040
2.000000
1002
}
  0
DIMENSION
  5
2EF
100
AcDbEntity
  8
MAIN0
  6
CONTINUOUS
 62
3
100
AcDbDimension
  2
*D26
 10
150.0000000000000
 20
230.0000000000000
 30
0.0000000000000000
 11
142.5000000000000
 21
230.5000000000000
 31
0.0000000000000000
 70
32
  3
MAIN001
100
AcDbAlignedDimension
 13
135.0000000000000
 23
221.5000000000000
 33
0.0000000000000000
 14
150.0000000000000
 24
198.2000000000000
 34
0.0000000000000000
100
AcDbRotatedDimension
1001
ACAD
1000
DSTYLE
1002
{
1070
   173
1070
     1
1070
     6
1000
_OPEN
1070
     7
1000
_OPEN
1070
    41
1040
2.000000
1002
}
  0
DIMENSION
  5
2F8
100
AcDbEntity
  8
MAIN0
  6
CONTINUOUS
 62
3
100
AcDbDimension
  2
*D27
 10
135.0000000000000
 20
120.0000000000000
 30
0.0000000000000000
 11
121.0000000000000
 21
120.5000000000000
 31
0.0000000000000000
 70
32
  3
MAIN001
100
AcDbAlignedDimension
 13
107.0000000000000
 23
135.0000000000000
 33
0.0000000000000000
 14
135.0000000000000
 24
138.5000000000000
 34
0.0000000000000000
100
AcDbRotatedDimension
1001
ACAD
1000
DSTYLE
1002
{
1070
   173
1070
     1
1070
     6
1000
_OPEN
1070
     7
1000
_OPEN
1070
    41
1040
2.000000
1002
}
  0
DIMENSION
  5
301
100
AcDbEntity
  8
MAIN0
  6
CONTINUOUS
 62
3
100
AcDbDimension
  2
*D28
 10
107.0000000000000
 20
120.0000000000000
 30
0.0000000000000000
 11
98.50000000000000
 21
120.5000000000000
 31
0.0000000000000000
 70
32
  3
MAIN001
100
AcDbAlignedDimension
 13
90.00000000000000
 23
138.5000000000000
 33
0.0000000000000000
 14
107.0000000000000
 24
135.0000000000000
 34
0.0000000000000000
100
AcDbRotatedDimension
1001
ACAD
1000
DSTYLE
1002
{
1070
   173
1070
     1
1070
     6
1000
_OPEN
1070
     7
1000
_OPEN
1070
    41
1040
2.000000
1002
}
  0
DIMENSION
  5
30A
100
AcDbEntity
  8
MAIN0
  6
CONTINUOUS
 62
3
100
AcDbDimension
  2
*D29
 10
90.00000000000000
 20
110.0000000000000
 30
0.0000000000000000
 11
112.5000000000000
 21
110.5000000000000
 31
0.0000000000000000
 70
32
  3
MAIN001
100
AcDbAlignedDimension
 13
135.0000000000000
 23
138.5000000000000
 33
0.0000000000000000
 14
90.00000000000000
 24
138.5000000000000
 34
0.0000000000000000
100
AcDbRotatedDimension
1001
ACAD
1000
DSTYLE
1002
{
1070
   173
1070
     1
1070
     6
1000
_OPEN
1070
     7
1000
_OPEN
1070
    41
1040
2.000000
1002
}
  0
LINE
  5
30B
100
AcDbEntity
  8
MAIN0
  6
CENTER
 62
3
100
AcDbLine
 10
295.0000000000010
 20
230.0000000000176
 30
0.0000000000000000
 11
304.9000000953674
 21
230.0000000000138
 31
0.0000000000000000
  0
LINE
  5
30C
100
AcDbEntity
  8
MAIN0
  6
CENTER
 62
3
100
AcDbLine
 10
311.0000000000000
 20
230.0000000000114
 30
0.0000000000000000
 11
385.0000000000010
 21
229.9999999999824
 31
0.0000000000000000
  0
DIMENSION
  5
314
100
AcDbEntity
  8
MAIN0
  6
CONTINUOUS
 62
3
100
AcDbDimension
  2
*D30
 10
325.0000000000000
 20
241.9999999999677
 30
0.0000000000000000
 11
324.5000000000000
 21
237.5000000000000
 31
0.0000000000000000
 70
160
  3
MAIN001
100
AcDbAlignedDimension
 13
310.9999999999765
 23
230.0000000000114
 33
0.0000000000000000
 14
333.5000000000000
 24
241.9999999999677
 34
0.0000000000000000
 50
90.00000000000000
100
AcDbRotatedDimension
1001
ACAD
1000
DSTYLE
1002
{
1070
   173
1070
     1
1070
     6
1000
_OPEN
1070
     7
1000
_OPEN
1070
    41
1040
2.000000
1002
}
  0
LINE
  5
315
100
AcDbEntity
  8
MAIN0
  6
CENTER
 62
3
100
AcDbLine
 10
340.0000000000000
 20
172.5000000000000
 30
0.0000000000000000
 11
340.0000000000000
 21
209.0000000000000
 31
0.0000000000000000
  0
LINE
  5
316
100
AcDbEntity
  8
MAIN0
  6
CENTER
 62
3
100
AcDbLine
 10
340.0000000000000
 20
215.0999999046326
 30
0.0000000000000000
 11
340.0000000000000
 21
245.0000000000000
 31
0.0000000000000000
  0
CIRCLE
  5
317
100
AcDbEntity
  8
MAIN0
  6
HIDDEN
 62
3
100
AcDbCircle
 10
240.0000000000000
 20
180.0000000000000
 30
0.0000000000000000
 40
30.00000000000000
  0
ARC
  5
318
100
AcDbEntity
  8
MAIN0
  6
CENTER
 62
3
100
AcDbCircle
 10
240.0000000000000
 20
180.0000000000000
 30
0.0000000000000000
 40
11.50000000000000
100
AcDbArc
 50
98.70308344117345
 51
141.2969165553774
  0
ARC
  5
319
100
AcDbEntity
  8
MAIN0
  6
CENTER
 62
3
100
AcDbCircle
 10
240.0000000000000
 20
180.0000000000000
 30
0.0000000000000000
 40
11.50000000000000
100
AcDbArc
 50
218.7030834377246
 51
261.2969165519286
  0
ARC
  5
31A
100
AcDbEntity
  8
MAIN0
  6
CENTER
 62
3
100
AcDbCircle
 10
240.0000000000000
 20
180.0000000000000
 30
0.0000000000000000
 40
11.50000000000000
100
AcDbArc
 50
338.7030834427108
 51
381.2969165572892
  0
LINE
  5
31B
100
AcDbEntity
  8
MAIN0
  6
PHANTOM
 62
3
100
AcDbLine
 10
90.00000000000003
 20
219.8000000000000
 30
0.0000000000000000
 11
90.80000000000003
 21
219.0000000000000
 31
0.0000000000000000
  0
LINE
  5
31C
100
AcDbEntity
  8
MAIN0
  6
PHANTOM
 62
3
100
AcDbLine
 10
90.80000000000003
 20
219.0000000000000
 30
0.0000000000000000
 11
90.80000000000003
 21
214.0000000000000
 31
0.0000000000000000
  0
LINE
  5
31D
100
AcDbEntity
  8
MAIN0
  6
PHANTOM
 62
3
100
AcDbLine
 10
90.80000000000003
 20
214.0000000000000
 30
0.0000000000000000
 11
90.00000000000003
 21
213.2000000000000
 31
0.0000000000000000
  0
LINE
  5
31E
100
AcDbEntity
  8
MAIN0
  6
PHANTOM
 62
3
100
AcDbLine
 10
90.30000000000003
 20
219.5000000000000
 30
0.0000000000000000
 11
103.0000000000000
 21
219.5000000000000
 31
0.0000000000000000
  0
LINE
  5
31F
100
AcDbEntity
  8
MAIN0
  6
PHANTOM
 62
3
100
AcDbLine
 10
103.0000000000000
 20
219.5000000000000
 30
0.0000000000000000
 11
103.0000000000000
 21
213.5000000000000
 31
0.0000000000000000
  0
LINE
  5
320
100
AcDbEntity
  8
MAIN0
  6
PHANTOM
 62
3
100
AcDbLine
 10
103.0000000000000
 20
213.5000000000000
 30
0.0000000000000000
 11
90.30000000000003
 21
213.5000000000000
 31
0.0000000000000000
  0
LINE
  5
321
100
AcDbEntity
  8
MAIN0
  6
PHANTOM
 62
3
100
AcDbLine
 10
90.80000000000003
 20
219.0000000000000
 30
0.0000000000000000
 11
107.0000000000000
 21
219.0000000000000
 31
0.0000000000000000
  0
LINE
  5
322
100
AcDbEntity
  8
MAIN0
  6
PHANTOM
 62
3
100
AcDbLine
 10
107.0000000000000
 20
219.0000000000000
 30
0.0000000000000000
 11
107.0000000000000
 21
214.0000000000000
 31
0.0000000000000000
  0
LINE
  5
323
100
AcDbEntity
  8
MAIN0
  6
PHANTOM
 62
3
100
AcDbLine
 10
107.0000000000000
 20
214.0000000000000
 30
0.0000000000000000
 11
90.80000000000003
 21
214.0000000000000
 31
0.0000000000000000
  0
LINE
  5
324
100
AcDbEntity
  8
MAIN0
  6
PHANTOM
 62
3
100
AcDbLine
 10
107.0000000000000
 20
219.0000000000000
 30
0.0000000000000000
 11
108.4433756729741
 21
216.5000000000000
 31
0.0000000000000000
  0
LINE
  5
325
100
AcDbEntity
  8
MAIN0
  6
PHANTOM
 62
3
100
AcDbLine
 10
108.4433756729741
 20
216.5000000000000
 30
0.0000000000000000
 11
107.0000000000000
 21
214.0000000000000
 31
0.0000000000000000
  0
CIRCLE
  5
326
100
AcDbEntity
  8
MAIN0
  6
HIDDEN
 62
3
100
AcDbCircle
 10
276.5000000000000
 20
180.0000000000000
 30
0.0000000000000000
 40
3.000000000000000
  0
CIRCLE
  5
327
100
AcDbEntity
  8
MAIN0
  6
HIDDEN
 62
3
100
AcDbCircle
 10
276.5000000000000
 20
180.0000000000000
 30
0.0000000000000000
 40
2.500000000000000
  0
CIRCLE
  5
328
100
AcDbEntity
  8
MAIN0
  6
HIDDEN
 62
3
100
AcDbCircle
 10
265.7704849239085
 20
205.8482515228130
 30
0.0000000000000000
 40
3.000000000000000
  0
CIRCLE
  5
329
100
AcDbEntity
  8
MAIN0
  6
HIDDEN
 62
3
100
AcDbCircle
 10
265.7704849239085
 20
205.8482515228130
 30
0.0000000000000000
 40
2.500000000000000
  0
SPLINE
  5
32A
100
AcDbEntity
  8
MAIN0
  6
CONTINUOUS
 62
3
100
AcDbSpline
210
0.0000000000000000
220
0.0000000000000000
230
1.000000000000000
 70
     8
 71
     3
 72
    18
 73
    14
 74
     0
 42
1.000000000000000e-007
 43
1.000000000000000e-007
 12
-0.3743255782327424
 22
-0.9272669726481411
 32
0.0000000000000000
 13
0.1419419591625584
 23
-0.9945523989023641
 33
0.0000000000000000
 40
0.0000000000000000
 40
0.0000000000000000
 40
0.0000000000000000
 40
0.0000000000000000
 40
3.979504088757789
 40
15.81950727140074
 40
25.04933827262663
 40
30.50564956938347
 40
34.18645139393263
 40
43.94194881510928
 40
56.44194881510928
 40
64.34764296553023
 40
74.65540702957438
 40
80.24557697332385
 40
87.59683416789872
 40
87.59683416789872
 40
87.59683416789872
 40
87.59683416789872
 10
112.6589987126726
 20
222.4999999997529
 30
0.0000000000000000
 10
112.1624553229713
 20
221.2699790967451
 30
0.0000000000000000
 10
110.1885732540632
 20
216.3803435579658
 30
0.0000000000000000
 10
107.6774011742814
 20
208.3892126638618
 30
0.0000000000000000
 10
105.9880446849780
 20
199.7015920196185
 30
0.0000000000000000
 10
104.3889030612635
 20
193.7947450029854
 30
0.0000000000000000
 10
102.1152988579581
 20
187.8711211205225
 30
0.0000000000000000
 10
102.5979026234493
 20
179.0755780123967
 30
0.0000000000000000
 10
103.9502351747445
 20
168.8028754129458
 30
0.0000000000000000
 10
99.32183520573315
 20
159.3926326500559
 30
0.0000000000000000
 10
99.03092683742136
 20
151.2074249466331
 30
0.0000000000000000
 10
94.14373493682625
 20
144.6138743555677
 30
0.0000000000000000
 10
94.78918737358944
 20
140.0912393054201
 30
0.0000000000000000
 10
95.13700465642471
 20
137.6541691461492
 30
0.0000000000000000
  0
MTEXT
  5
32B
100
AcDbEntity
  8
A0
  6
CONTINUOUS
 62
3
100
AcDbMText
 10
-79.06893090946142
 20
75.08614271578529
 30
0.0000000000000000
 40
3.750000000000000
 41
0.0000000000000000
 71
     1
 72
     1
  1
{\H0.63x;{EXTERNAL\PGRIPPING}}
 11
1.000000000000000
 21
0.0000000000000000
 31
0.0000000000000000
  7
STANDARD
  0
MTEXT
  5
32C
100
AcDbEntity
  8
A0
  6
CONTINUOUS
 62
3
100
AcDbMText
 10
-79.14654505223768
 20
64.45306409244745
 30
0.0000000000000000
 40
3.750000000000000
 41
0.0000000000000000
 71
     1
 72
     1
  1
{\H0.63x;{INTERNALLY\PGRIPPING}}
 11
1.000000000000000
 21
0.0000000000000000
 31
0.0000000000000000
  7
STANDARD
  0
LINE
  5
32D
100
AcDbEntity
  8
A0
  6
CONTINUOUS
 62
3
100
AcDbLine
 10
-109.5326010254663
 20
54.60953259100137
 30
0.0000000000000000
 11
10.46739897453369
 21
54.60953259100145
 31
0.0000000000000000
  0
LINE
  5
32E
100
AcDbEntity
  8
A0
  6
CONTINUOUS
 62
3
100
AcDbLine
 10
-80.28260102546642
 20
54.60953259100154
 30
0.0000000000000000
 11
-80.28260102546642
 21
75.60953259100140
 31
0.0000000000000000
  0
MTEXT
  5
32F
100
AcDbEntity
  8
A0
  6
CONTINUOUS
 62
3
100
AcDbMText
 10
-55.70720064837840
 20
72.80398040001046
 30
0.0000000000000000
 40
4.649999856948853
 41
0.0000000000000000
 71
     1
 72
     1
  1
{\H0.92x;{外径把握}}
 11
1.000000000000000
 21
0.0000000000000000
 31
0.0000000000000000
  7
KNJYOKO
  0
MTEXT
  5
330
100
AcDbEntity
  8
A0
  6
CONTINUOUS
 62
3
100
AcDbMText
 10
-55.70720064837840
 20
62.09328763389647
 30
0.0000000000000000
 40
4.649999856948853
 41
0.0000000000000000
 71
     1
 72
     1
  1
{\H0.92x;{内径把握}}
 11
1.000000000000000
 21
0.0000000000000000
 31
0.0000000000000000
  7
KNJYOKO
  0
MTEXT
  5
331
100
AcDbEntity
  8
A0
  6
CONTINUOUS
 62
3
100
AcDbMText
 10
-96.84247383258382
 20
60.15817133364510
 30
0.0000000000000000
 40
4.500000000000000
 41
0.0000000000000000
 71
     1
 72
     1
  1
{\H0.63x;{(mm)}}
 11
1.000000000000000
 21
0.0000000000000000
 31
0.0000000000000000
  7
STANDARD
  0
MTEXT
  5
332
100
AcDbEntity
  8
A0
  6
CONTINUOUS
 62
3
100
AcDbMText
 10
-105.7826010254648
 20
114.3845324479975
 30
0.0000000000000000
 40
4.649999856948853
 41
0.0000000000000000
 71
     1
 72
     1
  1
{\H0.94x;{許容最高回転速度　}}
 11
1.000000000000000
 21
0.0000000000000000
 31
0.0000000000000000
  7
KNJYOKO
  0
LINE
  5
333
100
AcDbEntity
  8
A0
  6
CONTINUOUS
 62
3
100
AcDbLine
 10
-80.28260102546633
 20
65.10953259100145
 30
0.0000000000000000
 11
10.46739897453362
 21
65.10953259100154
 31
0.0000000000000000
  0
LINE
  5
334
100
AcDbEntity
  8
A0
  6
CONTINUOUS
 62
3
100
AcDbLine
 10
-109.5326010254665
 20
157.1095325910590
 30
0.0000000000000000
 11
10.46739897453359
 21
157.1095325910954
 31
0.0000000000000000
  0
LINE
  5
335
100
AcDbEntity
  8
A0
  6
CONTINUOUS
 62
3
100
AcDbLine
 10
-109.5326010254665
 20
146.6095325910560
 30
0.0000000000000000
 11
10.46739897453365
 21
146.6095325910903
 31
0.0000000000000000
  0
LINE
  5
336
100
AcDbEntity
  8
A0
  6
CONTINUOUS
 62
3
100
AcDbLine
 10
-109.5326010254664
 20
131.6095325910461
 30
0.0000000000000000
 11
10.46739897453365
 21
131.6095325910734
 31
0.0000000000000000
  0
LINE
  5
337
100
AcDbEntity
  8
A0
  6
CONTINUOUS
 62
3
100
AcDbLine
 10
-109.5326010254666
 20
116.6095325910418
 30
0.0000000000000000
 11
10.46739897453354
 21
116.6095325910660
 31
0.0000000000000000
  0
LINE
  5
338
100
AcDbEntity
  8
A0
  6
CONTINUOUS
 62
3
100
AcDbLine
 10
-109.5326010254666
 20
101.1095325910387
 30
0.0000000000000000
 11
10.46739897453365
 21
101.1095325910610
 31
0.0000000000000000
  0
LINE
  5
339
100
AcDbEntity
  8
A0
  6
CONTINUOUS
 62
3
100
AcDbLine
 10
-109.5326010254665
 20
90.60953259103570
 30
0.0000000000000000
 11
10.46739897453364
 21
90.60953259105582
 31
0.0000000000000000
  0
LINE
  5
33A
100
AcDbEntity
  8
A0
  6
CONTINUOUS
 62
3
100
AcDbLine
 10
-109.5326010254663
 20
75.60953259100140
 30
0.0000000000000000
 11
10.46739897453364
 21
75.60953259100144
 31
0.0000000000000000
  0
LINE
  5
33B
100
AcDbEntity
  8
A0
  6
CONTINUOUS
 62
3
100
AcDbLine
 10
-109.5326010254664
 20
54.60953259100143
 30
0.0000000000000000
 11
-109.5326010254664
 21
157.1095325910065
 31
0.0000000000000000
  0
LINE
  5
33C
100
AcDbEntity
  8
A0
  6
CONTINUOUS
 62
3
100
AcDbLine
 10
-34.53260102546639
 20
54.60953259100154
 30
0.0000000000000000
 11
-34.53260102546639
 21
146.6095325910771
 31
0.0000000000000000
  0
LINE
  5
33D
100
AcDbEntity
  8
A0
  6
CONTINUOUS
 62
3
100
AcDbLine
 10
10.46739897453361
 20
54.60953259100154
 30
0.0000000000000000
 11
10.46739897453361
 21
157.1095325910065
 31
0.0000000000000000
  0
MTEXT
  5
33E
100
AcDbEntity
  8
A0
  6
CONTINUOUS
 62
3
100
AcDbMText
 10
-105.7826010254647
 20
144.8845331632607
 30
0.0000000000000000
 40
4.650000572204590
 41
0.0000000000000000
 71
     1
 72
     1
  1
{\H0.94x;{許容最大ハンドルトルク}}
 11
1.000000000000000
 21
0.0000000000000000
 31
0.0000000000000000
  7
KNJYOKO
  0
MTEXT
  5
33F
100
AcDbEntity
  8
A0
  6
CONTINUOUS
 62
3
100
AcDbMText
 10
-105.7826010254648
 20
129.8845331632562
 30
0.0000000000000000
 40
4.650000572204590
 41
0.0000000000000000
 71
     1
 72
     1
  1
{\H0.94x;{最大静的把握力}}
 11
1.000000000000000
 21
0.0000000000000000
 31
0.0000000000000000
  7
KNJYOKO
  0
MTEXT
  5
340
100
AcDbEntity
  8
A0
  6
CONTINUOUS
 62
3
100
AcDbMText
 10
-106.5326010254663
 20
98.25953316324032
 30
0.0000000000000000
 40
4.650000572204590
 41
0.0000000000000000
 71
     1
 72
     1
  1
{\H0.90x;{質量}}
 11
1.000000000000000
 21
0.0000000000000000
 31
0.0000000000000000
  7
KNJYOKO
  0
MTEXT
  5
341
100
AcDbEntity
  8
A0
  6
CONTINUOUS
 62
3
100
AcDbMText
 10
-104.6806340604188
 20
73.84284645445405
 30
0.0000000000000000
 40
4.650000572204590
 41
0.0000000000000000
 71
     1
 72
     1
  1
{\H0.96x;{把握径}}
 11
1.000000000000000
 21
0.0000000000000000
 31
0.0000000000000000
  7
KNJYOKO
  0
MTEXT
  5
342
100
AcDbEntity
  8
A0
  6
CONTINUOUS
 62
3
100
AcDbMText
 10
-101.0336000140661
 20
155.4079497832616
 30
0.0000000000000000
 40
7.500000000000000
 41
0.0000000000000000
 71
     1
 72
     1
  1
{\H0.91x;{仕　様}}
 11
1.000000000000000
 21
0.0000000000000000
 31
0.0000000000000000
  7
KNJYOKO
  0
MTEXT
  5
343
100
AcDbEntity
  8
A0
  6
CONTINUOUS
 62
3
100
AcDbMText
 10
-12.03260102546639
 20
144.0595314465973
 30
0.0000000000000000
 40
4.199998855590820
 41
0.0000000000000000
 71
     1
 72
     1
  1
{\H0.58x;{　　　Ｎ・ｍ}}
 11
1.000000000000000
 21
0.0000000000000000
 31
0.0000000000000000
  7
KNJYOKO
  0
MTEXT
  5
344
100
AcDbEntity
  8
A0
  6
CONTINUOUS
 62
3
100
AcDbMText
 10
-31.53260102546639
 20
137.3095314465973
 30
0.0000000000000000
 40
4.199998855590820
 41
0.0000000000000000
 71
     1
 72
     1
  1
{\H0.48x;{（}}
 11
1.000000000000000
 21
0.0000000000000000
 31
0.0000000000000000
  7
KNJYOKO
  0
MTEXT
  5
345
100
AcDbEntity
  8
A0
  6
CONTINUOUS
 62
3
100
AcDbMText
 10
-13.53260102546639
 20
137.3095314465973
 30
0.0000000000000000
 40
4.199998855590820
 41
0.0000000000000000
 71
     1
 72
     1
  1
{\H0.58x;{　ｋｇｆ・ｍ）}}
 11
1.000000000000000
 21
0.0000000000000000
 31
0.0000000000000000
  7
KNJYOKO
  0
MTEXT
  5
346
100
AcDbEntity
  8
A0
  6
CONTINUOUS
 62
3
100
AcDbMText
 10
-12.03260102546639
 20
97.80953144659711
 30
0.0000000000000000
 40
4.199998855590820
 41
0.0000000000000000
 71
     1
 72
     1
  1
{\H0.58x;{　　　　ｋｇ}}
 11
1.000000000000000
 21
0.0000000000000000
 31
0.0000000000000000
  7
KNJYOKO
  0
MTEXT
  5
347
100
AcDbEntity
  8
A0
  6
CONTINUOUS
 62
3
100
AcDbMText
 10
-12.03260102546639
 20
129.0595314465971
 30
0.0000000000000000
 40
4.199998855590820
 41
0.0000000000000000
 71
     1
 72
     1
  1
{\H0.58x;{　　　　ｋＮ}}
 11
1.000000000000000
 21
0.0000000000000000
 31
0.0000000000000000
  7
KNJYOKO
  0
MTEXT
  5
348
100
AcDbEntity
  8
A0
  6
CONTINUOUS
 62
3
100
AcDbMText
 10
-31.53260102546639
 20
122.3095314465971
 30
0.0000000000000000
 40
4.199998855590820
 41
0.0000000000000000
 71
     1
 72
     1
  1
{\H0.48x;{（}}
 11
1.000000000000000
 21
0.0000000000000000
 31
0.0000000000000000
  7
KNJYOKO
  0
MTEXT
  5
349
100
AcDbEntity
  8
A0
  6
CONTINUOUS
 62
3
100
AcDbMText
 10
-13.53260102546639
 20
122.3095314465971
 30
0.0000000000000000
 40
4.199998855590820
 41
0.0000000000000000
 71
     1
 72
     1
  1
{\H0.58x;{　　　ｋｇｆ）}}
 11
1.000000000000000
 21
0.0000000000000000
 31
0.0000000000000000
  7
KNJYOKO
  0
MTEXT
  5
34A
100
AcDbEntity
  8
A0
  6
CONTINUOUS
 62
3
100
AcDbMText
 10
-62.28388995609970
 20
154.0775428323028
 30
0.0000000000000000
 40
4.649999856948853
 41
0.0000000000000000
 71
     1
 72
     1
  1
{\H0.93x;{SPECIFICATIONS}}
 11
1.000000000000000
 21
0.0000000000000000
 31
0.0000000000000000
  7
STANDARD
  0
MTEXT
  5
34B
100
AcDbEntity
  8
A0
  6
CONTINUOUS
 62
3
100
AcDbMText
 10
-105.7826010254668
 20
137.2345325910462
 30
0.0000000000000000
 40
3.750000000000000
 41
0.0000000000000000
 71
     1
 72
     1
  1
{\H0.62x;{MAX.PERMISSIBLE HANDLE TORQUE}}
 11
1.000000000000000
 21
0.0000000000000000
 31
0.0000000000000000
  7
STANDARD
  0
MTEXT
  5
34C
100
AcDbEntity
  8
A0
  6
CONTINUOUS
 62
3
100
AcDbMText
 10
-105.7826010254669
 20
122.2345325910418
 30
0.0000000000000000
 40
3.750000000000000
 41
0.0000000000000000
 71
     1
 72
     1
  1
{\H0.63x;{MAX STATIC GRIPPING FORCE}}
 11
1.000000000000000
 21
0.0000000000000000
 31
0.0000000000000000
  7
STANDARD
  0
MTEXT
  5
34D
100
AcDbEntity
  8
A0
  6
CONTINUOUS
 62
3
100
AcDbMText
 10
-105.7826010254669
 20
106.7345325910387
 30
0.0000000000000000
 40
3.750000000000000
 41
0.0000000000000000
 71
     1
 72
     1
  1
{\H0.63x;{MAX PREMISSIBLE SPEED}}
 11
1.000000000000000
 21
0.0000000000000000
 31
0.0000000000000000
  7
STANDARD
  0
MTEXT
  5
34E
100
AcDbEntity
  8
A0
  6
CONTINUOUS
 62
3
100
AcDbMText
 10
-108.4796256950922
 20
66.25661968208374
 30
0.0000000000000000
 40
3.750000000000000
 41
0.0000000000000000
 71
     1
 72
     1
  1
{\H0.54x;{GRIPPING RANGE}}
 11
1.000000000000000
 21
0.0000000000000000
 31
0.0000000000000000
  7
STANDARD
  0
MTEXT
  5
34F
100
AcDbEntity
  8
A0
  6
CONTINUOUS
 62
3
100
AcDbMText
 10
-81.17911414241780
 20
98.33271492730367
 30
0.0000000000000000
 40
4.650000572204590
 41
0.0000000000000000
 71
     1
 72
     1
  1
{\H0.91x;{MASS}}
 11
1.000000000000000
 21
0.0000000000000000
 31
0.0000000000000000
  7
STANDARD
  0
MTEXT
  5
350
100
AcDbEntity
  8
A0
  6
CONTINUOUS
 62
3
100
AcDbMText
 10
-9.032601025466335
 20
110.3095314465971
 30
0.0000000000000000
 40
4.199998855590820
 41
0.0000000000000000
 71
     1
 72
     1
  1
{\H0.57x;{　ｍｉｎ}}
 11
1.000000000000000
 21
0.0000000000000000
 31
0.0000000000000000
  7
KNJYOKO
  0
MTEXT
  5
351
100
AcDbEntity
  8
A0
  6
CONTINUOUS
 62
3
100
AcDbMText
 10
3.199401347013549
 20
111.3138482759393
 30
0.0000000000000000
 40
3.000000000000000
 41
0.0000000000000000
 71
     1
 72
     1
  1
{\H0.88x;{-1}}
 11
1.000000000000000
 21
0.0000000000000000
 31
0.0000000000000000
  7
STANDARD
  0
MTEXT
  5
352
100
AcDbEntity
  8
A0
  6
CONTINUOUS
 62
3
100
AcDbMText
 10
-12.03260102546639
 20
86.55953144659711
 30
0.0000000000000000
 40
4.199998855590820
 41
0.0000000000000000
 71
     1
 72
     1
  1
{\H0.64x;{　　kg・m}}
 11
1.000000000000000
 21
0.0000000000000000
 31
0.0000000000000000
  7
KNJYOKO
  0
MTEXT
  5
353
100
AcDbEntity
  8
A0
  6
CONTINUOUS
 62
3
100
AcDbMText
 10
5.833217936468856
 20
86.94288733329481
 30
0.0000000000000000
 40
3.000000000000000
 41
0.0000000000000000
 71
     1
 72
     1
  1
{\H0.81x;{2}}
 11
1.000000000000000
 21
0.0000000000000000
 31
0.0000000000000000
  7
STANDARD
  0
MTEXT
  5
354
100
AcDbEntity
  8
A0
  6
CONTINUOUS
 62
3
100
AcDbMText
 10
-105.7826010254649
 20
88.88453316324583
 30
0.0000000000000000
 40
4.650000572204590
 41
0.0000000000000000
 71
     1
 72
     1
  1
{\H0.94x;{慣性モーメント}}
 11
1.000000000000000
 21
0.0000000000000000
 31
0.0000000000000000
  7
KNJYOKO
  0
MTEXT
  5
355
100
AcDbEntity
  8
A0
  6
CONTINUOUS
 62
3
100
AcDbMText
 10
-105.7826010254670
 20
81.23453259103135
 30
0.0000000000000000
 40
3.750000000000000
 41
0.0000000000000000
 71
     1
 72
     1
  1
{\H0.63x;{MOMENT OF INERTIA}}
 11
1.000000000000000
 21
0.0000000000000000
 31
0.0000000000000000
  7
STANDARD
  0
MTEXT
  5
356
100
AcDbEntity
  8
A0
  6
CONTINUOUS
 62
3
100
AcDbMText
 10
-27.03260102546639
 20
86.68753809860775
 30
0.0000000000000000
 40
6.000000000000000
 41
0.0000000000000000
 71
     1
 72
     1
  1
{\H0.56x;{0.001}}
 11
1.000000000000000
 21
0.0000000000000000
 31
0.0000000000000000
  7
STANDARD
  0
MTEXT
  5
357
100
AcDbEntity
  8
A0
  6
CONTINUOUS
 62
3
100
AcDbMText
 10
-109.5326010254663
 20
47.32990952303675
 30
0.0000000000000000
 40
4.500000000000000
 41
0.0000000000000000
 71
     1
 72
     1
  1
{\H0.63x;{ABOVE SPECS :AT MAX PERMISSIBLE HANDLE TORQUE}}
 11
1.000000000000000
 21
0.0000000000000000
 31
0.0000000000000000
  7
STANDARD
  0
MTEXT
  5
358
100
AcDbEntity
  8
A0
  6
CONTINUOUS
 62
3
100
AcDbMText
 10
-27.03260102546639
 20
144.5095324479553
 30
0.0000000000000000
 40
4.649999856948853
 41
0.0000000000000000
 71
     1
 72
     1
  1
{\H0.81x;{29.4}}
 11
1.000000000000000
 21
0.0000000000000000
 31
0.0000000000000000
  7
STANDARD
  0
MTEXT
  5
359
100
AcDbEntity
  8
A0
  6
CONTINUOUS
 62
3
100
AcDbMText
 10
-27.03260102546639
 20
137.7595324479553
 30
0.0000000000000000
 40
4.649999856948853
 41
0.0000000000000000
 71
     1
 72
     1
  1
{\H0.76x;{3.0}}
 11
1.000000000000000
 21
0.0000000000000000
 31
0.0000000000000000
  7
STANDARD
  0
MTEXT
  5
35A
100
AcDbEntity
  8
A0
  6
CONTINUOUS
 62
3
100
AcDbMText
 10
-27.03260102546639
 20
129.5095324479552
 30
0.0000000000000000
 40
4.649999856948853
 41
0.0000000000000000
 71
     1
 72
     1
  1
{\H0.81x;{9}}
 11
1.000000000000000
 21
0.0000000000000000
 31
0.0000000000000000
  7
STANDARD
  0
MTEXT
  5
35B
100
AcDbEntity
  8
A0
  6
CONTINUOUS
 62
3
100
AcDbMText
 10
-27.03260102546639
 20
122.7595324479552
 30
0.0000000000000000
 40
4.649999856948853
 41
0.0000000000000000
 71
     1
 72
     1
  1
{\H0.90x;{918}}
 11
1.000000000000000
 21
0.0000000000000000
 31
0.0000000000000000
  7
STANDARD
  0
MTEXT
  5
35C
100
AcDbEntity
  8
A0
  6
CONTINUOUS
 62
3
100
AcDbMText
 10
-27.03260102546639
 20
110.7595324479552
 30
0.0000000000000000
 40
4.649999856948853
 41
0.0000000000000000
 71
     1
 72
     1
  1
{\H0.91x;{2500}}
 11
1.000000000000000
 21
0.0000000000000000
 31
0.0000000000000000
  7
STANDARD
  0
MTEXT
  5
35D
100
AcDbEntity
  8
A0
  6
CONTINUOUS
 62
3
100
AcDbMText
 10
-27.03260102546639
 20
98.25953244795514
 30
0.0000000000000000
 40
4.649999856948853
 41
0.0000000000000000
 71
     1
 72
     1
  1
{\H0.76x;{1.5}}
 11
1.000000000000000
 21
0.0000000000000000
 31
0.0000000000000000
  7
STANDARD
  0
MTEXT
  5
35E
100
AcDbEntity
  8
A0
  6
CONTINUOUS
 62
3
100
AcDbMText
 10
-109.5326010254663
 20
53.47991009524134
 30
0.0000000000000000
 40
4.650000572204590
 41
0.0000000000000000
 71
     1
 72
     1
  1
{\H0.95x;{○上記仕様は許容最大ハンドルトルク締込時の場合}}
 11
1.000000000000000
 21
0.0000000000000000
 31
0.0000000000000000
  7
KNJYOKO
  0
MTEXT
  5
35F
100
AcDbEntity
  8
A0
  6
CONTINUOUS
 62
3
100
AcDbMText
 10
-31.53260102550976
 20
72.75953244795028
 30
0.0000000000000000
 40
4.649999856948853
 41
0.0000000000000000
 71
     1
 72
     1
  1
{\H0.93x;{\U+22052～\U+220570}}
 11
1.000000000000000
 21
0.0000000000000000
 31
0.0000000000000000
  7
KNJYOKO
  0
MTEXT
  5
360
100
AcDbEntity
  8
A0
  6
CONTINUOUS
 62
3
100
AcDbMText
 10
-31.53260102550976
 20
62.25953244795028
 30
0.0000000000000000
 40
4.649999856948853
 41
0.0000000000000000
 71
     1
 72
     1
  1
{\H0.93x;{\U+220524～\U+220564}}
 11
1.000000000000000
 21
0.0000000000000000
 31
0.0000000000000000
  7
KNJYOKO
  0
LINE
  5
361
100
AcDbEntity
  8
WAKU0
  6
CONTINUOUS
 62
3
100
AcDbLine
 10
240.0000000000000
 20
51.00000000000000
 30
0.0000000000000000
 11
410.0000000000000
 21
51.00000000000000
 31
0.0000000000000000
  0
LINE
  5
362
100
AcDbEntity
  8
WAKU0
  6
CONTINUOUS
 62
3
100
AcDbLine
 10
240.0000000000000
 20
51.00000000000000
 30
0.0000000000000000
 11
240.0000000000000
 21
12.00000000000000
 31
0.0000000000000000
  0
LINE
  5
363
100
AcDbEntity
  8
WAKU0
  6
CONTINUOUS
 62
3
100
AcDbLine
 10
312.0000000000000
 20
51.00000000000000
 30
0.0000000000000000
 11
312.0000000000000
 21
12.00000000000000
 31
0.0000000000000000
  0
LINE
  5
364
100
AcDbEntity
  8
WAKU0
  6
CONTINUOUS
 62
3
100
AcDbLine
 10
332.0000000000000
 20
51.00000000000000
 30
0.0000000000000000
 11
332.0000000000000
 21
12.00000000000000
 31
0.0000000000000000
  0
LINE
  5
365
100
AcDbEntity
  8
WAKU0
  6
CONTINUOUS
 62
3
100
AcDbLine
 10
344.0000000000000
 20
51.00000000000000
 30
0.0000000000000000
 11
344.0000000000000
 21
12.00000000000000
 31
0.0000000000000000
  0
LINE
  5
366
100
AcDbEntity
  8
WAKU0
  6
CONTINUOUS
 62
3
100
AcDbLine
 10
344.0000000000000
 20
37.00000000000000
 30
0.0000000000000000
 11
410.0000000000000
 21
37.00000000000000
 31
0.0000000000000000
  0
LINE
  5
367
100
AcDbEntity
  8
WAKU0
  6
CONTINUOUS
 62
3
100
AcDbLine
 10
332.0000000000000
 20
23.00000000000000
 30
0.0000000000000000
 11
410.0000000000000
 21
23.00000000000000
 31
0.0000000000000000
  0
LINE
  5
368
100
AcDbEntity
  8
WAKU0
  6
CONTINUOUS
 62
3
100
AcDbLine
 10
375.0000000000000
 20
51.00000000000000
 30
0.0000000000000000
 11
375.0000000000000
 21
44.00000000000000
 31
0.0000000000000000
  0
LINE
  5
369
100
AcDbEntity
  8
WAKU0
  6
CONTINUOUS
 62
3
100
AcDbLine
 10
387.0000000000000
 20
51.00000000000000
 30
0.0000000000000000
 11
387.0000000000000
 21
44.00000000000000
 31
0.0000000000000000
  0
LINE
  5
36A
100
AcDbEntity
  8
WAKU0
  6
CONTINUOUS
 62
3
100
AcDbLine
 10
312.0000000000000
 20
31.50000000000000
 30
0.0000000000000000
 11
332.0000000000000
 21
31.50000000000000
 31
0.0000000000000000
  0
LINE
  5
36B
100
AcDbEntity
  8
WAKU0
  6
CONTINUOUS
 62
3
100
AcDbLine
 10
332.0000000000000
 20
44.00000000000000
 30
0.0000000000000000
 11
410.0000000000000
 21
44.00000000000000
 31
0.0000000000000000
  0
LINE
  5
36C
100
AcDbEntity
  8
WAKU0
  6
CONTINUOUS
 62
3
100
AcDbLine
 10
240.0000000000000
 20
37.00000000000000
 30
0.0000000000000000
 11
312.0000000000000
 21
37.00000000000000
 31
0.0000000000000000
  0
LINE
  5
36D
100
AcDbEntity
  8
WAKU0
  6
CONTINUOUS
 62
3
100
AcDbLine
 10
240.0000000000000
 20
23.00000000000000
 30
0.0000000000000000
 11
312.0000000000000
 21
23.00000000000000
 31
0.0000000000000000
  0
LINE
  5
36E
100
AcDbEntity
  8
WAKU0
  6
CONTINUOUS
 62
3
100
AcDbLine
 10
288.0000000000000
 20
37.00000000000000
 30
0.0000000000000000
 11
288.0000000000000
 21
12.00000000000000
 31
0.0000000000000000
  0
LINE
  5
36F
100
AcDbEntity
  8
WAKU0
  6
CONTINUOUS
 62
3
100
AcDbLine
 10
264.0000000000000
 20
37.00000000000000
 30
0.0000000000000000
 11
264.0000000000000
 21
23.00000000000000
 31
0.0000000000000000
  0
LINE
  5
370
100
AcDbEntity
  8
WAKU0
  6
CONTINUOUS
 62
3
100
AcDbLine
 10
300.0000000000000
 20
26.00000000000000
 30
0.0000000000000000
 11
300.0000000000000
 21
23.00000000000000
 31
0.0000000000000000
  0
LINE
  5
371
100
AcDbEntity
  8
WAKU0
  6
CONTINUOUS
 62
3
100
AcDbLine
 10
276.0000000000000
 20
26.00000000000000
 30
0.0000000000000000
 11
276.0000000000000
 21
23.00000000000000
 31
0.0000000000000000
  0
LINE
  5
372
100
AcDbEntity
  8
WAKU0
  6
CONTINUOUS
 62
3
100
AcDbLine
 10
252.0000000000000
 20
26.00000000000000
 30
0.0000000000000000
 11
252.0000000000000
 21
23.00000000000000
 31
0.0000000000000000
  0
LINE
  5
373
100
AcDbEntity
  8
WAKU0
  6
CONTINUOUS
 62
3
100
AcDbLine
 10
258.0000000000000
 20
51.00000000000000
 30
0.0000000000000000
 11
258.0000000000000
 21
37.00000000000000
 31
0.0000000000000000
  0
LINE
  5
374
100
AcDbEntity
  8
WAKU0
  6
CONTINUOUS
 62
3
100
AcDbLine
 10
240.0000000000000
 20
45.00000000000000
 30
0.0000000000000000
 11
312.0000000000000
 21
45.00000000000000
 31
0.0000000000000000
  0
LINE
  5
375
100
AcDbEntity
  8
WAKU0
  6
HIDDEN
 62
3
100
AcDbLine
 10
360.5000000000000
 20
23.00000000000000
 30
0.0000000000000000
 11
360.5000000000000
 21
12.00000000000000
 31
0.0000000000000000
  0
LINE
  5
376
100
AcDbEntity
  8
WAKU0
  6
HIDDEN
 62
3
100
AcDbLine
 10
372.9000000000000
 20
23.00000000000000
 30
0.0000000000000000
 11
372.9000000000000
 21
12.00000000000000
 31
0.0000000000000000
  0
MTEXT
  5
377
100
AcDbEntity
  8
WAKU0
  6
CONTINUOUS
 62
3
100
AcDbMText
 10
344.4820000231266
 20
49.04999995231628
 30
0.0000000000000000
 40
3.099999904632568
 41
0.0000000000000000
 71
     1
 72
     1
  1
{\H0.91x;{SC-3}}
 11
1.000000000000000
 21
0.0000000000000000
 31
0.0000000000000000
  7
STANDARD
  0
MTEXT
  5
378
100
AcDbEntity
  8
WAKU0
  6
CONTINUOUS
 62
3
100
AcDbMText
 10
344.4659999907017
 20
43.50000000000000
 30
0.0000000000000000
 40
3.000000000000000
 41
0.0000000000000000
 71
     1
 72
     1
  1
{\H0.94x;{スクロールチャック　３\PＳＣＲＯＬＬ　ＣＨＵＣＫ　３}}
 11
1.000000000000000
 21
0.0000000000000000
 31
0.0000000000000000
  7
KNJYOKO
  0
MTEXT
  5
379
100
AcDbEntity
  8
WAKU0
  6
CONTINUOUS
 62
3
100
AcDbMText
 10
344.4820000231266
 20
34.23333326975504
 30
0.0000000000000000
 40
3.099999904632568
 41
0.0000000000000000
 71
     1
 72
     1
  1
{\H0.94x;{ＳＣ－３　ガイケイ\PＳＣ－３　ＯＵＴＳＩＤＥ　ＶＩＥＷ}}
 11
1.000000000000000
 21
0.0000000000000000
 31
0.0000000000000000
  7
KNJYOKO
  0
MTEXT
  5
37A
100
AcDbEntity
  8
WAKU0
  6
CONTINUOUS
 62
3
100
AcDbMText
 10
318.0049998760223
 20
39.29999995231628
 30
0.0000000000000000
 40
3.099999904632568
 41
0.0000000000000000
 71
     1
 72
     1
  1
{\H0.90x;{1:1}}
 11
1.000000000000000
 21
0.0000000000000000
 31
0.0000000000000000
  7
STANDARD
  0
MTEXT
  5
37B
100
AcDbEntity
  8
WAKU0
  6
CONTINUOUS
 62
3
100
AcDbMText
 10
374.4000001549721
 20
20.15000009536743
 30
0.0000000000000000
 40
5.300000190734863
 41
0.0000000000000000
 71
     1
 72
     1
  1
{\H0.90x;{5075}}
 11
1.000000000000000
 21
0.0000000000000000
 31
0.0000000000000000
  7
STANDARD
  0
MTEXT
  5
37C
100
AcDbEntity
  8
WAKU0
  6
CONTINUOUS
 62
3
100
AcDbMText
 10
362.3000000834465
 20
20.15000009536743
 30
0.0000000000000000
 40
5.300000190734863
 41
0.0000000000000000
 71
     1
 72
     1
  1
{\H0.87x;{86}}
 11
1.000000000000000
 21
0.0000000000000000
 31
0.0000000000000000
  7
STANDARD
  0
MTEXT
  5
37D
100
AcDbEntity
  8
WAKU0
  6
CONTINUOUS
 62
3
100
AcDbMText
 10
345.5000001192093
 20
20.15000009536743
 30
0.0000000000000000
 40
5.300000190734863
 41
0.0000000000000000
 71
     1
 72
     1
  1
{\H0.89x;{61S}}
 11
1.000000000000000
 21
0.0000000000000000
 31
0.0000000000000000
  7
STANDARD
  0
MTEXT
  5
37E
100
AcDbEntity
  8
WAKU0
  6
CONTINUOUS
 62
3
100
AcDbMText
 10
400.0000000476837
 20
20.15000009536743
 30
0.0000000000000000
 40
5.300000190734863
 41
0.0000000000000000
 71
     1
 72
     1
  1
{\H0.81x;{0}}
 11
1.000000000000000
 21
0.0000000000000000
 31
0.0000000000000000
  7
STANDARD
  0
MTEXT
  5
37F
100
AcDbEntity
  8
WAKU0
  6
CONTINUOUS
 62
3
100
AcDbMText
 10
400.0000000819564
 20
44.84999990463257
 30
0.0000000000000000
 40
5.300000190734863
 41
0.0000000000000000
 71
     7
 72
     1
  1
{\H0.81x;{ }}
 11
1.000000000000000
 21
0.0000000000000000
 31
0.0000000000000000
  7
STANDARD
  0
MTEXT
  5
380
100
AcDbEntity
  8
WAKU0
  6
CONTINUOUS
 62
3
100
AcDbMText
 10
289.3850002884865
 20
33.00000000000000
 30
0.0000000000000000
 40
3.000000000000000
 41
0.0000000000000000
 71
     7
 72
     1
  1
{\H0.93x;{DRAWN BY}}
 11
1.000000000000000
 21
0.0000000000000000
 31
0.0000000000000000
  7
STANDARD
  0
MTEXT
  5
381
100
AcDbEntity
  8
WAKU0
  6
CONTINUOUS
 62
3
100
AcDbMText
 10
269.2149997949600
 20
32.95000004768372
 30
0.0000000000000000
 40
3.099999904632568
 41
0.0000000000000000
 71
     7
 72
     1
  1
{\H0.92x;{CHIEF}}
 11
1.000000000000000
 21
0.0000000000000000
 31
0.0000000000000000
  7
STANDARD
  0
MTEXT
  5
382
100
AcDbEntity
  8
WAKU0
  6
CONTINUOUS
 62
3
100
AcDbMText
 10
242.4249997138977
 20
32.95000004768372
 30
0.0000000000000000
 40
3.099999904632568
 41
0.0000000000000000
 71
     7
 72
     1
  1
{\H0.92x;{MANAGER}}
 11
1.000000000000000
 21
0.0000000000000000
 31
0.0000000000000000
  7
STANDARD
  0
MTEXT
  5
383
100
AcDbEntity
  8
WAKU0
  6
CONTINUOUS
 62
3
100
AcDbMText
 10
241.0850002169609
 20
46.50000000000000
 30
0.0000000000000000
 40
3.000000000000000
 41
0.0000000000000000
 71
     7
 72
     1
  1
{\H0.92x;{CAREER}}
 11
1.000000000000000
 21
0.0000000000000000
 31
0.0000000000000000
  7
STANDARD
  0
MTEXT
  5
384
100
AcDbEntity
  8
WAKU0
  6
CONTINUOUS
 62
3
100
AcDbMText
 10
294.6099998354912
 20
18.95000004768372
 30
0.0000000000000000
 40
3.099999904632568
 41
0.0000000000000000
 71
     7
 72
     1
  1
{\H0.91x;{DATE}}
 11
1.000000000000000
 21
0.0000000000000000
 31
0.0000000000000000
  7
STANDARD
  0
MTEXT
  5
385
100
AcDbEntity
  8
WAKU0
  6
CONTINUOUS
 62
3
100
AcDbMText
 10
313.9000002145767
 20
26.50000000000000
 30
0.0000000000000000
 40
3.000000000000000
 41
0.0000000000000000
 71
     7
 72
     1
  1
{\H0.63x;{3RD ANGLE}}
 11
1.000000000000000
 21
0.0000000000000000
 31
0.0000000000000000
  7
STANDARD
  0
MTEXT
  5
386
100
AcDbEntity
  8
WAKU0
  6
CONTINUOUS
 62
3
100
AcDbMText
 10
315.2149997949600
 20
45.95000004768372
 30
0.0000000000000000
 40
3.099999904632568
 41
0.0000000000000000
 71
     7
 72
     1
  1
{\H0.92x;{SCALE}}
 11
1.000000000000000
 21
0.0000000000000000
 31
0.0000000000000000
  7
STANDARD
  0
MTEXT
  5
387
100
AcDbEntity
  8
WAKU0
  6
CONTINUOUS
 62
3
100
AcDbMText
 10
405.7000000476837
 20
46.00000000000000
 30
0.0000000000000000
 40
3.000000000000000
 41
0.0000000000000000
 71
     7
 72
     1
  1
{\H0.63x;{kg}}
 11
1.000000000000000
 21
0.0000000000000000
 31
0.0000000000000000
  7
STANDARD
  0
MTEXT
  5
388
100
AcDbEntity
  8
WAKU0
  6
CONTINUOUS
 62
3
100
AcDbMText
 10
375.6000001430512
 20
46.00000000000000
 30
0.0000000000000000
 40
3.000000000000000
 41
0.0000000000000000
 71
     7
 72
     1
  1
{\H0.63x;{WEIGHT}}
 11
1.000000000000000
 21
0.0000000000000000
 31
0.0000000000000000
  7
STANDARD
  0
MTEXT
  5
389
100
AcDbEntity
  8
WAKU0
  6
CONTINUOUS
 62
3
100
AcDbMText
 10
334.0049998760223
 20
18.13333336512248
 30
0.0000000000000000
 40
3.099999904632568
 41
0.0000000000000000
 71
     7
 72
     1
  1
{\H0.90x;{DRW\PNO.}}
 11
1.000000000000000
 21
0.0000000000000000
 31
0.0000000000000000
  7
STANDARD
  0
MTEXT
  5
38A
100
AcDbEntity
  8
WAKU0
  6
CONTINUOUS
 62
3
100
AcDbMText
 10
332.6099998354912
 20
31.95000004768372
 30
0.0000000000000000
 40
3.099999904632568
 41
0.0000000000000000
 71
     7
 72
     1
  1
{\H0.91x;{NAME}}
 11
1.000000000000000
 21
0.0000000000000000
 31
0.0000000000000000
  7
STANDARD
  0
MTEXT
  5
38B
100
AcDbEntity
  8
WAKU0
  6
CONTINUOUS
 62
3
100
AcDbMText
 10
332.6099998354912
 20
45.95000004768372
 30
0.0000000000000000
 40
3.099999904632568
 41
0.0000000000000000
 71
     7
 72
     1
  1
{\H0.91x;{TYPE}}
 11
1.000000000000000
 21
0.0000000000000000
 31
0.0000000000000000
  7
STANDARD
  0
LINE
  5
38C
100
AcDbEntity
  8
WAKU0
  6
HIDDEN
 62
3
100
AcDbLine
 10
407.1599564743885
 20
13.84999990463257
 30
0.0000000000000000
 11
396.9400436209789
 21
13.84999990463257
 31
0.0000000000000000
  0
LINE
  5
38D
100
AcDbEntity
  8
WAKU0
  6
HIDDEN
 62
3
100
AcDbLine
 10
407.1599564743885
 20
13.84999990463250
 30
0.0000000000000000
 11
402.0500000476852
 21
22.70070406014901
 31
0.0000000000000000
  0
LINE
  5
38E
100
AcDbEntity
  8
WAKU0
  6
HIDDEN
 62
3
100
AcDbLine
 10
402.0500000476852
 20
22.70070406014902
 30
0.0000000000000000
 11
396.9400436209789
 21
13.84999990463248
 31
0.0000000000000000
  0
MTEXT
  5
38F
100
AcDbEntity
  8
WAKU0
  6
CONTINUOUS
 62
3
100
AcDbMText
 10
247.0000009614873
 20
20.63471521698214
 30
0.0000000000000000
 40
3.140094041824341
 41
0.0000000000000000
 71
     1
 72
     1
  1
{\H0.83x;{Ｋｉｔａｇａｗａ\PＣｏｒｐｏｒａｔｉｏｎ}}
 11
1.000000000000000
 21
0.0000000000000000
 31
0.0000000000000000
  7
KNJYOKO
  0
INSERT
  5
3C5
100
AcDbEntity
  8
WAKU0
  6
CONTINUOUS
 62
12
100
AcDbBlockReference
  2
M0
 10
0.0000000000000000
 20
0.0000000000000000
 30
0.0000000000000000
 50
0.0000000000000000
  0
INSERT
  5
3F1
100
AcDbEntity
  8
WAKU0
  6
CONTINUOUS
 62
12
100
AcDbBlockReference
  2
M1
 10
0.0000000000000000
 20
0.0000000000000000
 30
0.0000000000000000
 50
0.0000000000000000
  0
INSERT
  5
46F
100
AcDbEntity
  8
WAKU0
  6
CONTINUOUS
 62
12
100
AcDbBlockReference
  2
M2
 10
0.0000000000000000
 20
0.0000000000000000
 30
0.0000000000000000
 50
0.0000000000000000
  0
LINE
  5
470
100
AcDbEntity
  8
WAKU0
  6
CONTINUOUS
 62
3
100
AcDbLine
 10
330.4713877753800
 20
15.78041421262812
 30
0.0000000000000000
 11
330.4713877753800
 21
21.78041421262815
 31
0.0000000000000000
  0
LINE
  5
471
100
AcDbEntity
  8
WAKU0
  6
CONTINUOUS
 62
3
100
AcDbLine
 10
323.9336941228225
 20
17.28041421262811
 30
0.0000000000000000
 11
323.9336941228225
 21
20.28041421262824
 31
0.0000000000000000
  0
LINE
  5
472
100
AcDbEntity
  8
WAKU0
  6
CENTER
 62
12
100
AcDbLine
 10
313.4321805514995
 20
18.78041421262813
 30
0.0000000000000000
 11
331.2765788964694
 21
18.78041421262813
 31
0.0000000000000000
  0
LINE
  5
473
100
AcDbEntity
  8
WAKU0
  6
CENTER
 62
12
100
AcDbLine
 10
317.4474565857986
 20
14.55921662918448
 30
0.0000000000000000
 11
317.4474565857986
 21
22.89865102149943
 31
0.0000000000000000
  0
LINE
  5
474
100
AcDbEntity
  8
WAKU0
  6
CONTINUOUS
 62
3
100
AcDbLine
 10
323.9336941228225
 20
20.28041421262797
 30
0.0000000000000000
 11
330.4713877753800
 21
21.78041421262795
 31
0.0000000000000000
  0
LINE
  5
475
100
AcDbEntity
  8
WAKU0
  6
CONTINUOUS
 62
3
100
AcDbLine
 10
323.9336941228225
 20
17.28041421262811
 30
0.0000000000000000
 11
330.4713877753799
 21
15.78041421262812
 31
0.0000000000000000
  0
CIRCLE
  5
476
100
AcDbEntity
  8
WAKU0
  6
CONTINUOUS
 62
3
100
AcDbCircle
 10
317.4474565857986
 20
18.78041421262813
 30
0.0000000000000000
 40
1.499999999999972
  0
CIRCLE
  5
477
100
AcDbEntity
  8
WAKU0
  6
CONTINUOUS
 62
3
100
AcDbCircle
 10
317.4474565857986
 20
18.78041421262813
 30
0.0000000000000000
 40
2.999999999999979
  0
ENDSEC
  0
SECTION
  2
OBJECTS
  0
DICTIONARY
  5
4C4
100
AcDbDictionary
  3
ACAD_GROUP
350
4C5
  3
ACAD_MLINESTYLE
350
4C6
  3
DWGPROPS
350
4C7
  0
DICTIONARY
  5
4C5
102
{ACAD_REACTORS
330
4C4
102
}
100
AcDbDictionary
  0
DICTIONARY
  5
4C6
102
{ACAD_REACTORS
330
4C4
102
}
100
AcDbDictionary
  3
STANDARD
350
4C8
  0
MLINESTYLE
  5
4C8
102
{ACAD_REACTORS
330
4C6
102
}
100
AcDbMlineStyle
  2
STANDARD
 70
     0
  3

 62
   256
 51
90.00
 52
90.00
 71
     2
 49
0.50
 62
   256
  6
BYLAYER
 49
-0.50
 62
   256
  6
BYLAYER
  0
XRECORD
  5
4C7
102
{ACAD_REACTORS
330
4C4
102
}
100
AcDbXrecord
280
     1
  1
DWGPROPS COOKIE
  2
ＳＣ－３　クミタテ
  3

  4

  6
スクロールチャック　３
  7

  8

  9

300
=
301
=
302
=
303
=
304
=
305
=
306
=
307
=
308
=
309
=
 40
0.000000
 41
0.000000
 42
0.000000
  1

 90
        0
  0
ENDSEC
  0
EOF
