  0
SECTION
  2
HEADER
  9
$ACADVER
  1
AC1014
  9
$DWGCODEPAGE
  3
ANSI_932
  9
$LTSCALE
 40
20.0
  9
$FILLMODE
 70
     1
  9
$CLAYER
  8
0
  9
$PDMODE
 70
     0
  9
$SPLFRAME
 70
     0
  9
$SPLINETYPE
 70
     6
  9
$SPLINESEGS
 70
     8
  9
$DIMASZ
 40
2.000000
  9
$DIMEXE
 40
2.000000
  9
$DIMEXO
 40
0.800000
  9
$DIMTAD
 70
     1
  9
$DIMTIH
 70
     0
  9
$DIMTOH
 70
     0
  9
$DIMTVP
 40
0.500000
  9
$DIMTXT
 40
3.100000
  9
$EXTMIN
 10
0.000000
 20
0.000000
 30
0.000000
  9
$EXTMAX
 10
297.000000
 20
420.000000
 30
0.000000
  9
$MEASUREMENT
 70
  1
  9
$LIMMIN
 10
0.000000
 20
0.000000
  9
$LIMMAX
 10
297.000000
 20
420.000000
  9
$HANDLING
 70
     1
  9
$HANDSEED
  5
3A1
  9
$DIMBLK
  1
_OPEN
  9
$DIMDEC
 70
     3
  9
$DIMAUNIT
 70
     1
  9
$DIMZIN
 70
     8
  9
$DIMTOFL
 70
     1
  0
ENDSEC
  0
SECTION
  2
CLASSES
  0
ENDSEC
  0
SECTION
  2
TABLES
  0
TABLE
  2
VPORT
  5
35D
100
AcDbSymbolTable
 70
     1
  0
VPORT
  5
35E
100
AcDbSymbolTableRecord
100
AcDbViewportTableRecord
  2
*ACTIVE
 70
     0
 12
210.120582
 22
148.500000
 40
297.000000
 41
1.414953
  0
ENDTAB
  0
TABLE
  2
LTYPE
  5
35F
100
AcDbSymbolTable
 70
     3
  0
LTYPE
  5
360
100
AcDbSymbolTableRecord
100
AcDbLinetypeTableRecord
  2
BYBLOCK
 70
     0
  3

 72
    65
 73
     0
 40
0.0
  0
LTYPE
  5
361
100
AcDbSymbolTableRecord
100
AcDbLinetypeTableRecord
  2
BYLAYER
 70
     0
  3

 72
    65
 73
     0
 40
0.0
  0
LTYPE
  5
362
100
AcDbSymbolTableRecord
100
AcDbLinetypeTableRecord
  2
CONTINUOUS
 70
     0
  3
Solid line (NEC CAE2D for Win R14.2 : 2021.05.17)
 72
    65
 73
     0
 40
0.0
  0
LTYPE
  5
363
100
AcDbSymbolTableRecord
100
AcDbLinetypeTableRecord
  2
HIDDEN
 70
     0
  3
__ __ __ __ __ __ __ __ __ __ __ __ __ __
 72
    65
 73
     2
 40
0.375
 49
0.25
 74
     0
 49
-0.125
 74
     0
  0
LTYPE
  5
364
100
AcDbSymbolTableRecord
100
AcDbLinetypeTableRecord
  2
CENTER
 70
     0
  3
____ _ ____ _ ____ _ ____ _ ____ _ ____
 72
    65
 73
     4
 40
2.0
 49
1.25
 74
     0
 49
-0.25
 74
     0
 49
0.25
 74
     0
 49
-0.25
 74
     0
  0
ENDTAB
  0
TABLE
  2
LAYER
  5
365
100
AcDbSymbolTable
 70
     8
  0
LAYER
  5
366
100
AcDbSymbolTableRecord
100
AcDbLayerTableRecord
  2
0
 70
     0
 62
     7
  6
CONTINUOUS
  0
LAYER
  5
367
100
AcDbSymbolTableRecord
100
AcDbLayerTableRecord
  2
MAIN0
 70
     0
 62
     7
  6
CONTINUOUS
  0
LAYER
  5
368
100
AcDbSymbolTableRecord
100
AcDbLayerTableRecord
  2
MAIN1
 70
     0
 62
     7
  6
CONTINUOUS
  0
LAYER
  5
369
100
AcDbSymbolTableRecord
100
AcDbLayerTableRecord
  2
MAIN2
 70
     0
 62
     7
  6
CONTINUOUS
  0
LAYER
  5
36A
100
AcDbSymbolTableRecord
100
AcDbLayerTableRecord
  2
MAIN3
 70
     0
 62
     7
  6
CONTINUOUS
  0
LAYER
  5
36B
100
AcDbSymbolTableRecord
100
AcDbLayerTableRecord
  2
MAIN1023
 70
     0
 62
    16
  6
CONTINUOUS
  0
LAYER
  5
36C
100
AcDbSymbolTableRecord
100
AcDbLayerTableRecord
  2
WAKU0
 70
     0
 62
     7
  6
CONTINUOUS
  0
LAYER
  5
36D
100
AcDbSymbolTableRecord
100
AcDbLayerTableRecord
  2
WAKU1023
 70
     0
 62
    16
  6
CONTINUOUS
  0
ENDTAB
  0
TABLE
  2
STYLE
  5
36E
100
AcDbSymbolTable
 70
     4
  0
STYLE
  5
36F
100
AcDbSymbolTableRecord
100
AcDbTextStyleTableRecord
  2
STANDARD
 70
    64
 40
0.0
 41
1.0
 50
0.0
 71
     0
 42
3.099999904632568
  3
TXT
  4

  0
STYLE
  5
370
100
AcDbSymbolTableRecord
100
AcDbTextStyleTableRecord
  2
ANKTATE
 70
    68
 40
0.0
 41
1.0
 50
0.0
 71
     0
 42
3.099999904632568
  3
TXT
  4

  0
STYLE
  5
56
100
AcDbSymbolTableRecord
100
AcDbTextStyleTableRecord
  2
KNJYOKO
 70
    64
 40
0.0
 41
1.0
 50
0.0
 71
     0
 42
3.099999904632568
  3
TXT
  4
BIGFONT
  0
STYLE
  5
371
100
AcDbSymbolTableRecord
100
AcDbTextStyleTableRecord
  2
KNJTATE
 70
    68
 40
0.0
 41
1.0
 50
0.0
 71
     0
 42
3.099999904632568
  3
TXT
  4
BIGFONT
  0
ENDTAB
  0
TABLE
  2
VIEW
  5
372
100
AcDbSymbolTable
 70
     0
  0
ENDTAB
  0
TABLE
  2
UCS
  5
373
100
AcDbSymbolTable
 70
     0
  0
ENDTAB
  0
TABLE
  2
APPID
  5
374
100
AcDbSymbolTable
 70
     1
  0
APPID
  5
375
100
AcDbSymbolTableRecord
100
AcDbRegAppTableRecord
  2
ACAD
 70
     0
  0
ENDTAB
  0
TABLE
  2
DIMSTYLE
  5
376
100
AcDbSymbolTable
 70
     1
  0
DIMSTYLE
105
377
100
AcDbSymbolTableRecord
100
AcDbDimStyleTableRecord
  2
STANDARD
 70
     0
 41
2.000000
 44
2.000000
 42
0.800000
145
0.661290
140
3.100000
144
1.000000
146
0.903226
340
36F
  0
DIMSTYLE
105
378
100
AcDbSymbolTableRecord
100
AcDbDimStyleTableRecord
  2
MAIN001
 70
     0
 41
2.000000
 44
2.000000
 42
0.800000
145
0.661290
140
3.100000
144
1.000000
146
0.903226
 77
     1
 73
     0
 74
     0
271
     3
275
     1
 78
     8
172
     1
340
36F
  0
DIMSTYLE
105
379
100
AcDbSymbolTableRecord
100
AcDbDimStyleTableRecord
  2
WAKU002
 70
     0
 41
2.000000
 44
2.000000
 42
0.800000
145
0.661290
140
3.100000
144
1.000000
146
0.903226
 77
     1
 73
     0
 74
     0
271
     3
275
     1
 78
     8
172
     1
340
36F
  0
ENDTAB
  0
TABLE
  2
BLOCK_RECORD
  5
37A
100
AcDbSymbolTable
 70
    40
  0
BLOCK_RECORD
  5
37B
100
AcDbSymbolTableRecord
100
AcDbBlockTableRecord
  2
*MODEL_SPACE
  0
BLOCK_RECORD
  5
37C
100
AcDbSymbolTableRecord
100
AcDbBlockTableRecord
  2
*PAPER_SPACE
  0
BLOCK_RECORD
  5
1
100
AcDbSymbolTableRecord
100
AcDbBlockTableRecord
  2
_NONE
  0
BLOCK_RECORD
  5
4
100
AcDbSymbolTableRecord
100
AcDbBlockTableRecord
  2
_CLOSED
  0
BLOCK_RECORD
  5
B
100
AcDbSymbolTableRecord
100
AcDbBlockTableRecord
  2
_DOT
  0
BLOCK_RECORD
  5
13
100
AcDbSymbolTableRecord
100
AcDbBlockTableRecord
  2
_OPEN
  0
BLOCK_RECORD
  5
19
100
AcDbSymbolTableRecord
100
AcDbBlockTableRecord
  2
_ORIGIN
  0
BLOCK_RECORD
  5
1E
100
AcDbSymbolTableRecord
100
AcDbBlockTableRecord
  2
_OPEN30
  0
BLOCK_RECORD
  5
24
100
AcDbSymbolTableRecord
100
AcDbBlockTableRecord
  2
_BOXFILLED
  0
BLOCK_RECORD
  5
29
100
AcDbSymbolTableRecord
100
AcDbBlockTableRecord
  2
_BOXBLANK
  0
BLOCK_RECORD
  5
31
100
AcDbSymbolTableRecord
100
AcDbBlockTableRecord
  2
_OBLIQUE
  0
BLOCK_RECORD
  5
35
100
AcDbSymbolTableRecord
100
AcDbBlockTableRecord
  2
_OPEN90
  0
BLOCK_RECORD
  5
3B
100
AcDbSymbolTableRecord
100
AcDbBlockTableRecord
  2
_CLOSEDBLANK
  0
BLOCK_RECORD
  5
41
100
AcDbSymbolTableRecord
100
AcDbBlockTableRecord
  2
_DOTBLANK
  0
BLOCK_RECORD
  5
37D
100
AcDbSymbolTableRecord
100
AcDbBlockTableRecord
  2
*D0
  0
BLOCK_RECORD
  5
37E
100
AcDbSymbolTableRecord
100
AcDbBlockTableRecord
  2
*D1
  0
BLOCK_RECORD
  5
37F
100
AcDbSymbolTableRecord
100
AcDbBlockTableRecord
  2
*D2
  0
BLOCK_RECORD
  5
380
100
AcDbSymbolTableRecord
100
AcDbBlockTableRecord
  2
*D3
  0
BLOCK_RECORD
  5
381
100
AcDbSymbolTableRecord
100
AcDbBlockTableRecord
  2
*D4
  0
BLOCK_RECORD
  5
382
100
AcDbSymbolTableRecord
100
AcDbBlockTableRecord
  2
*D5
  0
BLOCK_RECORD
  5
383
100
AcDbSymbolTableRecord
100
AcDbBlockTableRecord
  2
*D6
  0
BLOCK_RECORD
  5
384
100
AcDbSymbolTableRecord
100
AcDbBlockTableRecord
  2
*D7
  0
BLOCK_RECORD
  5
385
100
AcDbSymbolTableRecord
100
AcDbBlockTableRecord
  2
*D8
  0
BLOCK_RECORD
  5
386
100
AcDbSymbolTableRecord
100
AcDbBlockTableRecord
  2
*D9
  0
BLOCK_RECORD
  5
387
100
AcDbSymbolTableRecord
100
AcDbBlockTableRecord
  2
*D10
  0
BLOCK_RECORD
  5
388
100
AcDbSymbolTableRecord
100
AcDbBlockTableRecord
  2
*D11
  0
BLOCK_RECORD
  5
389
100
AcDbSymbolTableRecord
100
AcDbBlockTableRecord
  2
*D12
  0
BLOCK_RECORD
  5
38A
100
AcDbSymbolTableRecord
100
AcDbBlockTableRecord
  2
*D13
  0
BLOCK_RECORD
  5
38B
100
AcDbSymbolTableRecord
100
AcDbBlockTableRecord
  2
*D14
  0
BLOCK_RECORD
  5
38C
100
AcDbSymbolTableRecord
100
AcDbBlockTableRecord
  2
*D15
  0
BLOCK_RECORD
  5
38D
100
AcDbSymbolTableRecord
100
AcDbBlockTableRecord
  2
*D16
  0
BLOCK_RECORD
  5
38E
100
AcDbSymbolTableRecord
100
AcDbBlockTableRecord
  2
*D17
  0
BLOCK_RECORD
  5
38F
100
AcDbSymbolTableRecord
100
AcDbBlockTableRecord
  2
D18
  0
BLOCK_RECORD
  5
390
100
AcDbSymbolTableRecord
100
AcDbBlockTableRecord
  2
D19
  0
BLOCK_RECORD
  5
391
100
AcDbSymbolTableRecord
100
AcDbBlockTableRecord
  2
*D20
  0
BLOCK_RECORD
  5
392
100
AcDbSymbolTableRecord
100
AcDbBlockTableRecord
  2
*D21
  0
BLOCK_RECORD
  5
393
100
AcDbSymbolTableRecord
100
AcDbBlockTableRecord
  2
*D22
  0
BLOCK_RECORD
  5
394
100
AcDbSymbolTableRecord
100
AcDbBlockTableRecord
  2
*D23
  0
BLOCK_RECORD
  5
395
100
AcDbSymbolTableRecord
100
AcDbBlockTableRecord
  2
*D24
  0
BLOCK_RECORD
  5
396
100
AcDbSymbolTableRecord
100
AcDbBlockTableRecord
  2
*D25
  0
BLOCK_RECORD
  5
397
100
AcDbSymbolTableRecord
100
AcDbBlockTableRecord
  2
*D26
  0
BLOCK_RECORD
  5
398
100
AcDbSymbolTableRecord
100
AcDbBlockTableRecord
  2
*D27
  0
ENDTAB
  0
ENDSEC
  0
SECTION
  2
BLOCKS
  0
BLOCK
  5
399
100
AcDbEntity
  8
0
100
AcDbBlockBegin
  2
*MODEL_SPACE
 70
     0
 10
0.0
 20
0.0
 30
0.0
  3
*MODEL_SPACE
  1

  0
ENDBLK
  5
39A
100
AcDbEntity
  8
0
100
AcDbBlockEnd
  0
BLOCK
  5
39B
100
AcDbEntity
  8
0
100
AcDbBlockBegin
  2
*PAPER_SPACE
 70
     0
 10
0.0
 20
0.0
 30
0.0
  3
*PAPER_SPACE
  1

  0
ENDBLK
  5
39C
100
AcDbEntity
  8
0
100
AcDbBlockEnd
  0
BLOCK
  5
2
100
AcDbEntity
  8
0
100
AcDbBlockBegin
  2
_NONE
 70
     0
 10
0.0
 20
0.0
 30
0.0
  3
_NONE
  1

  0
ENDBLK
  5
3
100
AcDbEntity
  8
0
100
AcDbBlockEnd
  0
BLOCK
  5
5
100
AcDbEntity
  8
0
100
AcDbBlockBegin
  2
_CLOSED
 70
     0
 10
0.0
 20
0.0
 30
0.0
  3
_CLOSED
  1

  0
LINE
  5
6
100
AcDbEntity
  8
0
  6
BYBLOCK
 62
     0
100
AcDbLine
 10
-1.0
 20
0.166667
 30
0.0
 11
0.0
 21
0.0
 31
0.0
  0
LINE
  5
7
100
AcDbEntity
  8
0
  6
BYBLOCK
 62
     0
100
AcDbLine
 10
0.0
 20
0.0
 30
0.0
 11
-1.0
 21
-0.166667
 31
0.0
  0
LINE
  5
8
100
AcDbEntity
  8
0
  6
BYBLOCK
 62
     0
100
AcDbLine
 10
-1.0
 20
0.166667
 30
0.0
 11
-1.0
 21
-0.166667
 31
0.0
  0
LINE
  5
9
100
AcDbEntity
  8
0
  6
BYBLOCK
 62
     0
100
AcDbLine
 10
0.0
 20
0.0
 30
0.0
 11
-1.0
 21
0.0
 31
0.0
  0
ENDBLK
  5
A
100
AcDbEntity
  8
0
100
AcDbBlockEnd
  0
BLOCK
  5
C
100
AcDbEntity
  8
0
100
AcDbBlockBegin
  2
_DOT
 70
     0
 10
0.0
 20
0.0
 30
0.0
  3
_DOT
  1

  0
POLYLINE
  5
D
100
AcDbEntity
  8
0
  6
BYBLOCK
 62
     0
100
AcDb2dPolyline
 66
     1
 10
0.0
 20
0.0
 30
0.0
 70
     1
 40
0.5
 41
0.5
  0
VERTEX
  5
E
100
AcDbEntity
  8
0
  6
BYBLOCK
 62
     0
100
AcDbVertex
100
AcDb2dVertex
 10
-0.25
 20
0.0
 30
0.0
 42
1.0
  0
VERTEX
  5
F
100
AcDbEntity
  8
0
  6
BYBLOCK
 62
     0
100
AcDbVertex
100
AcDb2dVertex
 10
0.25
 20
0.0
 30
0.0
 42
1.0
  0
SEQEND
  5
10
100
AcDbEntity
  8
0
  6
BYBLOCK
 62
     0
  0
LINE
  5
11
100
AcDbEntity
  8
0
  6
BYBLOCK
 62
     0
100
AcDbLine
 10
-0.5
 20
0.0
 30
0.0
 11
-1.0
 21
0.0
 31
0.0
  0
ENDBLK
  5
12
100
AcDbEntity
  8
0
100
AcDbBlockEnd
  0
BLOCK
  5
14
100
AcDbEntity
  8
0
100
AcDbBlockBegin
  2
_OPEN
 70
     0
 10
0.0
 20
0.0
 30
0.0
  3
_OPEN
  1

  0
LINE
  5
15
100
AcDbEntity
  8
0
  6
BYBLOCK
 62
     0
100
AcDbLine
 10
-1.0
 20
0.166667
 30
0.0
 11
0.0
 21
0.0
 31
0.0
  0
LINE
  5
16
100
AcDbEntity
  8
0
  6
BYBLOCK
 62
     0
100
AcDbLine
 10
0.0
 20
0.0
 30
0.0
 11
-1.0
 21
-0.166667
 31
0.0
  0
LINE
  5
17
100
AcDbEntity
  8
0
  6
BYBLOCK
 62
     0
100
AcDbLine
 10
0.0
 20
0.0
 30
0.0
 11
-1.0
 21
0.0
 31
0.0
  0
ENDBLK
  5
18
100
AcDbEntity
  8
0
100
AcDbBlockEnd
  0
BLOCK
  5
1A
100
AcDbEntity
  8
0
100
AcDbBlockBegin
  2
_ORIGIN
 70
     0
 10
0.0
 20
0.0
 30
0.0
  3
_ORIGIN
  1

  0
CIRCLE
  5
1B
100
AcDbEntity
  8
0
  6
BYBLOCK
 62
     0
100
AcDbCircle
 10
0.0
 20
0.0
 30
0.0
 40
0.5
  0
LINE
  5
1C
100
AcDbEntity
  8
0
  6
BYBLOCK
 62
     0
100
AcDbLine
 10
0.0
 20
0.0
 30
0.0
 11
-1.0
 21
0.0
 31
0.0
  0
ENDBLK
  5
1D
100
AcDbEntity
  8
0
100
AcDbBlockEnd
  0
BLOCK
  5
1F
100
AcDbEntity
  8
0
100
AcDbBlockBegin
  2
_OPEN30
 70
     0
 10
0.0
 20
0.0
 30
0.0
  3
_OPEN30
  1

  0
LINE
  5
20
100
AcDbEntity
  8
0
  6
BYBLOCK
 62
     0
100
AcDbLine
 10
-1.0
 20
0.267949
 30
0.0
 11
0.0
 21
0.0
 31
0.0
  0
LINE
  5
21
100
AcDbEntity
  8
0
  6
BYBLOCK
 62
     0
100
AcDbLine
 10
0.0
 20
0.0
 30
0.0
 11
-1.0
 21
-0.267949
 31
0.0
  0
LINE
  5
22
100
AcDbEntity
  8
0
  6
BYBLOCK
 62
     0
100
AcDbLine
 10
0.0
 20
0.0
 30
0.0
 11
-1.0
 21
0.0
 31
0.0
  0
ENDBLK
  5
23
100
AcDbEntity
  8
0
100
AcDbBlockEnd
  0
BLOCK
  5
25
100
AcDbEntity
  8
0
100
AcDbBlockBegin
  2
_BOXFILLED
 70
     0
 10
0.0
 20
0.0
 30
0.0
  3
_BOXFILLED
  1

  0
SOLID
  5
26
100
AcDbEntity
  8
0
  6
BYBLOCK
 62
     0
100
AcDbTrace
 10
-0.5
 20
0.5
 30
0.0
 11
0.5
 21
0.5
 31
0.0
 12
-0.5
 22
-0.5
 32
0.0
 13
0.5
 23
-0.5
 33
0.0
  0
LINE
  5
27
100
AcDbEntity
  8
0
  6
BYBLOCK
 62
     0
100
AcDbLine
 10
-0.5
 20
0.0
 30
0.0
 11
-1.0
 21
0.0
 31
0.0
  0
ENDBLK
  5
28
100
AcDbEntity
  8
0
100
AcDbBlockEnd
  0
BLOCK
  5
2A
100
AcDbEntity
  8
0
100
AcDbBlockBegin
  2
_BOXBLANK
 70
     0
 10
0.0
 20
0.0
 30
0.0
  3
_BOXBLANK
  1

  0
LINE
  5
2B
100
AcDbEntity
  8
0
  6
BYBLOCK
 62
     0
100
AcDbLine
 10
-0.5
 20
-0.5
 30
0.0
 11
0.5
 21
-0.5
 31
0.0
  0
LINE
  5
2C
100
AcDbEntity
  8
0
  6
BYBLOCK
 62
     0
100
AcDbLine
 10
0.5
 20
-0.5
 30
0.0
 11
0.5
 21
0.5
 31
0.0
  0
LINE
  5
2D
100
AcDbEntity
  8
0
  6
BYBLOCK
 62
     0
100
AcDbLine
 10
0.5
 20
0.5
 30
0.0
 11
-0.5
 21
0.5
 31
0.0
  0
LINE
  5
2E
100
AcDbEntity
  8
0
  6
BYBLOCK
 62
     0
100
AcDbLine
 10
-0.5
 20
0.5
 30
0.0
 11
-0.5
 21
-0.5
 31
0.0
  0
LINE
  5
2F
100
AcDbEntity
  8
0
  6
BYBLOCK
 62
     0
100
AcDbLine
 10
-0.5
 20
0.0
 30
0.0
 11
-1.0
 21
0.0
 31
0.0
  0
ENDBLK
  5
30
100
AcDbEntity
  8
0
100
AcDbBlockEnd
  0
BLOCK
  5
32
100
AcDbEntity
  8
0
100
AcDbBlockBegin
  2
_OBLIQUE
 70
     0
 10
0.0
 20
0.0
 30
0.0
  3
_OBLIQUE
  1

  0
LINE
  5
33
100
AcDbEntity
  8
0
  6
BYBLOCK
 62
     0
100
AcDbLine
 10
-0.5
 20
-0.5
 30
0.0
 11
0.5
 21
0.5
 31
0.0
  0
ENDBLK
  5
34
100
AcDbEntity
  8
0
100
AcDbBlockEnd
  0
BLOCK
  5
36
100
AcDbEntity
  8
0
100
AcDbBlockBegin
  2
_OPEN90
 70
     0
 10
0.0
 20
0.0
 30
0.0
  3
_OPEN90
  1

  0
LINE
  5
37
100
AcDbEntity
  8
0
  6
BYBLOCK
 62
     0
100
AcDbLine
 10
-0.5
 20
0.5
 30
0.0
 11
0.0
 21
0.0
 31
0.0
  0
LINE
  5
38
100
AcDbEntity
  8
0
  6
BYBLOCK
 62
     0
100
AcDbLine
 10
0.0
 20
0.0
 30
0.0
 11
-0.5
 21
-0.5
 31
0.0
  0
LINE
  5
39
100
AcDbEntity
  8
0
  6
BYBLOCK
 62
     0
100
AcDbLine
 10
0.0
 20
0.0
 30
0.0
 11
-1.0
 21
0.0
 31
0.0
  0
ENDBLK
  5
3A
100
AcDbEntity
  8
0
100
AcDbBlockEnd
  0
BLOCK
  5
3C
100
AcDbEntity
  8
0
100
AcDbBlockBegin
  2
_CLOSEDBLANK
 70
     0
 10
0.0
 20
0.0
 30
0.0
  3
_CLOSEDBLANK
  1

  0
LINE
  5
3D
100
AcDbEntity
  8
0
  6
BYBLOCK
 62
     0
100
AcDbLine
 10
-1.0
 20
0.1666666666666666
 30
0.0
 11
0.0
 21
0.0
 31
0.0
  0
LINE
  5
3E
100
AcDbEntity
  8
0
  6
BYBLOCK
 62
     0
100
AcDbLine
 10
0.0
 20
0.0
 30
0.0
 11
-1.0
 21
-0.1666666666666666
 31
0.0
  0
LINE
  5
3F
100
AcDbEntity
  8
0
  6
BYBLOCK
 62
     0
100
AcDbLine
 10
-1.0
 20
0.1666666666666666
 30
0.0
 11
-1.0
 21
-0.1666666666666666
 31
0.0
  0
ENDBLK
  5
40
100
AcDbEntity
  8
0
100
AcDbBlockEnd
  0
BLOCK
  5
42
100
AcDbEntity
  8
0
100
AcDbBlockBegin
  2
_DOTBLANK
 70
     0
 10
0.0
 20
0.0
 30
0.0
  3
_DOTBLANK
  1

  0
CIRCLE
  5
43
100
AcDbEntity
  8
0
  6
BYBLOCK
 62
     0
100
AcDbCircle
 10
0.0
 20
0.0
 30
0.0
 40
0.5
  0
LINE
  5
44
100
AcDbEntity
  8
0
  6
BYBLOCK
 62
     0
100
AcDbLine
 10
-0.5
 20
0.0
 30
0.0
 11
-1.0
 21
0.0
 31
0.0
  0
ENDBLK
  5
45
100
AcDbEntity
  8
0
100
AcDbBlockEnd
  0
BLOCK
  5
4D
100
AcDbEntity
  8
MAIN0
  6
CONTINUOUS
 62
3
100
AcDbBlockBegin
  2
*D0
 70
    65
 10
0.0
 20
0.0
 30
0.0
  0
LINE
  5
4E
100
AcDbEntity
  8
MAIN0
  6
BYBLOCK
 62
0
100
AcDbLine
 10
190.3108536276157
 20
179.1197464994206
 30
0.0000000000000000
 11
178.5355669034116
 21
179.1197464994206
 31
0.0000000000000000
  0
LINE
  5
4F
100
AcDbEntity
  8
MAIN0
  6
BYBLOCK
 62
0
100
AcDbLine
 10
180.5355669034116
 20
181.1197464994206
 30
0.0000000000000000
 11
180.5355669034116
 21
211.1197464994206
 31
0.0000000000000000
  0
INSERT
  5
50
100
AcDbEntity
  8
MAIN0
  6
BYBLOCK
 62
0
100
AcDbBlockReference
  2
_OPEN
 10
180.5355669034116
 20
179.1197464994206
 30
0.0000000000000000
 41
2.000000000000000
 42
2.000000000000000
 43
2.000000000000000
 50
270.0000000000000
  0
INSERT
  5
51
100
AcDbEntity
  8
MAIN0
  6
BYBLOCK
 62
0
100
AcDbBlockReference
  2
_OPEN
 10
180.5355669034116
 20
213.1197464994206
 30
0.0000000000000000
 41
2.000000000000000
 42
2.000000000000000
 43
2.000000000000000
 50
90.00000000000000
  0
LINE
  5
52
100
AcDbEntity
  8
MAIN0
  6
BYBLOCK
 62
0
100
AcDbLine
 10
190.3108536276157
 20
213.1197464994206
 30
0.0000000000000000
 11
178.5355669034116
 21
213.1197464994206
 31
0.0000000000000000
  0
MTEXT
  5
53
100
AcDbEntity
  8
MAIN0
  6
BYBLOCK
 62
0
100
AcDbMText
 10
178.4855669510953
 20
196.1197465757890
 30
0.0000000000000000
 40
3.099999904632568
 41
0.0000000000000000
 71
     5
 72
     1
  1
\A1;\U+220534h7\H0.903226x;\S　0^ －0.025;
 11
6.123233995736766e-017
 21
1.000000000000000
 31
0.0000000000000000
  7
KNJYOKO
  0
ENDBLK
  5
54
100
AcDbEntity
  8
MAIN0
  6
CONTINUOUS
 62
3
100
AcDbBlockEnd
  0
BLOCK
  5
57
100
AcDbEntity
  8
MAIN0
  6
CONTINUOUS
 62
3
100
AcDbBlockBegin
  2
*D1
 70
    65
 10
0.0
 20
0.0
 30
0.0
  0
LINE
  5
58
100
AcDbEntity
  8
MAIN0
  6
BYBLOCK
 62
0
100
AcDbLine
 10
206.3252129815689
 20
245.1197464994206
 30
0.0000000000000000
 11
152.5315235004889
 21
245.1197464994206
 31
0.0000000000000000
  0
LINE
  5
59
100
AcDbEntity
  8
MAIN0
  6
BYBLOCK
 62
0
100
AcDbLine
 10
154.5315235004889
 20
243.1197464994206
 30
0.0000000000000000
 11
154.5315235004889
 21
149.1197464994206
 31
0.0000000000000000
  0
INSERT
  5
5A
100
AcDbEntity
  8
MAIN0
  6
BYBLOCK
 62
0
100
AcDbBlockReference
  2
_OPEN
 10
154.5315235004889
 20
245.1197464994206
 30
0.0000000000000000
 41
2.000000000000000
 42
2.000000000000000
 43
2.000000000000000
 50
90.00000000000000
  0
INSERT
  5
5B
100
AcDbEntity
  8
MAIN0
  6
BYBLOCK
 62
0
100
AcDbBlockReference
  2
_OPEN
 10
154.5315235004889
 20
147.1197464994206
 30
0.0000000000000000
 41
2.000000000000000
 42
2.000000000000000
 43
2.000000000000000
 50
270.0000000000000
  0
LINE
  5
5C
100
AcDbEntity
  8
MAIN0
  6
BYBLOCK
 62
0
100
AcDbLine
 10
206.3252129815689
 20
147.1197464994206
 30
0.0000000000000000
 11
152.5315235004889
 21
147.1197464994206
 31
0.0000000000000000
  0
MTEXT
  5
5D
100
AcDbEntity
  8
MAIN0
  6
BYBLOCK
 62
0
100
AcDbMText
 10
152.4815235481726
 20
196.1197464994206
 30
0.0000000000000000
 40
3.099999904632568
 41
0.0000000000000000
 71
     5
 72
     1
  1
\A1;\U+220598
 11
6.123233995736766e-017
 21
1.000000000000000
 31
0.0000000000000000
  7
STANDARD
  0
ENDBLK
  5
5E
100
AcDbEntity
  8
MAIN0
  6
CONTINUOUS
 62
3
100
AcDbBlockEnd
  0
BLOCK
  5
60
100
AcDbEntity
  8
MAIN0
  6
CONTINUOUS
 62
3
100
AcDbBlockBegin
  2
*D2
 70
    65
 10
0.0
 20
0.0
 30
0.0
  0
LINE
  5
61
100
AcDbEntity
  8
MAIN0
  6
BYBLOCK
 62
0
100
AcDbLine
 10
194.7252129934791
 20
229.0197465113476
 30
0.0000000000000000
 11
194.7252129934791
 21
266.4835461869751
 31
0.0000000000000000
  0
LINE
  5
62
100
AcDbEntity
  8
MAIN0
  6
BYBLOCK
 62
0
100
AcDbLine
 10
196.7252129934791
 20
264.4835461869751
 30
0.0000000000000000
 11
230.2252129934866
 21
264.4835461869751
 31
0.0000000000000000
  0
INSERT
  5
63
100
AcDbEntity
  8
MAIN0
  6
BYBLOCK
 62
0
100
AcDbBlockReference
  2
_OPEN
 10
194.7252129934791
 20
264.4835461869751
 30
0.0000000000000000
 41
2.000000000000000
 42
2.000000000000000
 43
2.000000000000000
 50
180.0000000000000
  0
INSERT
  5
64
100
AcDbEntity
  8
MAIN0
  6
BYBLOCK
 62
0
100
AcDbBlockReference
  2
_OPEN
 10
232.2252129934866
 20
264.4835461869751
 30
0.0000000000000000
 41
2.000000000000000
 42
2.000000000000000
 43
2.000000000000000
 50
0.0000000000000000
  0
LINE
  5
65
100
AcDbEntity
  8
MAIN0
  6
BYBLOCK
 62
0
100
AcDbLine
 10
232.2252129934866
 20
246.2197465108922
 30
0.0000000000000000
 11
232.2252129934866
 21
266.4835461869751
 31
0.0000000000000000
  0
MTEXT
  5
66
100
AcDbEntity
  8
MAIN0
  6
BYBLOCK
 62
0
100
AcDbMText
 10
213.4752129934828
 20
266.5335461392913
 30
0.0000000000000000
 40
3.099999904632568
 41
0.0000000000000000
 71
     5
 72
     1
  1
\A1;37.5
 11
1.000000000000000
 21
0.0000000000000000
 31
0.0000000000000000
  7
STANDARD
  0
ENDBLK
  5
67
100
AcDbEntity
  8
MAIN0
  6
CONTINUOUS
 62
3
100
AcDbBlockEnd
  0
BLOCK
  5
69
100
AcDbEntity
  8
MAIN0
  6
CONTINUOUS
 62
3
100
AcDbBlockBegin
  2
*D3
 70
    65
 10
0.0
 20
0.0
 30
0.0
  0
LINE
  5
6A
100
AcDbEntity
  8
MAIN0
  6
BYBLOCK
 62
0
100
AcDbLine
 10
236.5658572229574
 20
196.1197464994206
 30
0.0000000000000000
 11
258.7628233098296
 21
196.1197464994206
 31
0.0000000000000000
  0
LINE
  5
6B
100
AcDbEntity
  8
MAIN0
  6
BYBLOCK
 62
0
100
AcDbLine
 10
256.7628233098296
 20
198.1197464994206
 30
0.0000000000000000
 11
256.7628233098296
 21
232.1197464990129
 31
0.0000000000000000
  0
INSERT
  5
6C
100
AcDbEntity
  8
MAIN0
  6
BYBLOCK
 62
0
100
AcDbBlockReference
  2
_OPEN
 10
256.7628233098296
 20
196.1197464994206
 30
0.0000000000000000
 41
2.000000000000000
 42
2.000000000000000
 43
2.000000000000000
 50
270.0000000000000
  0
INSERT
  5
6D
100
AcDbEntity
  8
MAIN0
  6
BYBLOCK
 62
0
100
AcDbBlockReference
  2
_OPEN
 10
256.7628233098296
 20
234.1197464990129
 30
0.0000000000000000
 41
2.000000000000000
 42
2.000000000000000
 43
2.000000000000000
 50
90.00000000000000
  0
LINE
  5
6E
100
AcDbEntity
  8
MAIN0
  6
BYBLOCK
 62
0
100
AcDbLine
 10
235.8008667031976
 20
234.1197464990129
 30
0.0000000000000000
 11
258.7628233098296
 21
234.1197464990129
 31
0.0000000000000000
  0
MTEXT
  5
6F
100
AcDbEntity
  8
MAIN0
  6
BYBLOCK
 62
0
100
AcDbMText
 10
254.7128233575133
 20
215.1197464992167
 30
0.0000000000000000
 40
3.099999904632568
 41
0.0000000000000000
 71
     5
 72
     1
  1
\A1;MAX 38
 11
6.123233995736766e-017
 21
1.000000000000000
 31
0.0000000000000000
  7
STANDARD
  0
ENDBLK
  5
70
100
AcDbEntity
  8
MAIN0
  6
CONTINUOUS
 62
3
100
AcDbBlockEnd
  0
BLOCK
  5
73
100
AcDbEntity
  8
MAIN0
  6
CONTINUOUS
 62
3
100
AcDbBlockBegin
  2
*D4
 70
    65
 10
0.0
 20
0.0
 30
0.0
  0
LINE
  5
74
100
AcDbEntity
  8
MAIN0
  6
BYBLOCK
 62
0
100
AcDbLine
 10
232.8252130054075
 20
231.1197464989713
 30
0.0000000000000000
 11
243.7049739195674
 21
231.1197464989713
 31
0.0000000000000000
  0
LINE
  5
75
100
AcDbEntity
  8
MAIN0
  6
BYBLOCK
 62
0
100
AcDbLine
 10
241.7049739195674
 20
231.1197464989713
 30
0.0000000000000000
 11
241.7049739195674
 21
237.1197464989713
 31
0.0000000000000000
  0
INSERT
  5
76
100
AcDbEntity
  8
MAIN0
  6
BYBLOCK
 62
0
100
AcDbBlockReference
  2
_OPEN
 10
241.7049739195674
 20
231.1197464989713
 30
0.0000000000000000
 41
2.000000000000000
 42
2.000000000000000
 43
2.000000000000000
 50
90.00000000000000
  0
INSERT
  5
77
100
AcDbEntity
  8
MAIN0
  6
BYBLOCK
 62
0
100
AcDbBlockReference
  2
_OPEN
 10
241.7049739195674
 20
237.1197464989713
 30
0.0000000000000000
 41
2.000000000000000
 42
2.000000000000000
 43
2.000000000000000
 50
270.0000000000000
  0
LINE
  5
78
100
AcDbEntity
  8
MAIN0
  6
BYBLOCK
 62
0
100
AcDbLine
 10
241.7049739195674
 20
229.1197464989713
 30
0.0000000000000000
 11
241.7049739195674
 21
228.1197464989713
 31
0.0000000000000000
  0
LINE
  5
79
100
AcDbEntity
  8
MAIN0
  6
BYBLOCK
 62
0
100
AcDbLine
 10
241.7049739195674
 20
239.1197464989713
 30
0.0000000000000000
 11
241.7049739195674
 21
252.9564469384244
 31
0.0000000000000000
  0
LINE
  5
7A
100
AcDbEntity
  8
MAIN0
  6
BYBLOCK
 62
0
100
AcDbLine
 10
232.8252130054075
 20
237.1197464989713
 30
0.0000000000000000
 11
243.7049739195674
 21
237.1197464989713
 31
0.0000000000000000
  0
MTEXT
  5
7B
100
AcDbEntity
  8
MAIN0
  6
BYBLOCK
 62
0
100
AcDbMText
 10
239.6549739672512
 20
249.8064473360754
 30
0.0000000000000000
 40
3.099999904632568
 41
0.0000000000000000
 71
     5
 72
     1
  1
\A1;6H8
 11
6.123233995736766e-017
 21
1.000000000000000
 31
0.0000000000000000
  7
STANDARD
  0
ENDBLK
  5
7C
100
AcDbEntity
  8
MAIN0
  6
CONTINUOUS
 62
3
100
AcDbBlockEnd
  0
BLOCK
  5
7E
100
AcDbEntity
  8
MAIN0
  6
CONTINUOUS
 62
3
100
AcDbBlockBegin
  2
*D5
 70
    65
 10
0.0
 20
0.0
 30
0.0
  0
LINE
  5
7F
100
AcDbEntity
  8
MAIN0
  6
BYBLOCK
 62
0
100
AcDbLine
 10
234.8350236316954
 20
226.1197464990590
 30
0.0000000000000000
 11
252.6927343216665
 21
226.1197464990590
 31
0.0000000000000000
  0
LINE
  5
80
100
AcDbEntity
  8
MAIN0
  6
BYBLOCK
 62
0
100
AcDbLine
 10
250.6927343216665
 20
228.1197464990590
 30
0.0000000000000000
 11
250.6927343216665
 21
240.1197464989733
 31
0.0000000000000000
  0
INSERT
  5
81
100
AcDbEntity
  8
MAIN0
  6
BYBLOCK
 62
0
100
AcDbBlockReference
  2
_OPEN
 10
250.6927343216665
 20
226.1197464990590
 30
0.0000000000000000
 41
2.000000000000000
 42
2.000000000000000
 43
2.000000000000000
 50
270.0000000000000
  0
INSERT
  5
82
100
AcDbEntity
  8
MAIN0
  6
BYBLOCK
 62
0
100
AcDbBlockReference
  2
_OPEN
 10
250.6927343216665
 20
242.1197464989733
 30
0.0000000000000000
 41
2.000000000000000
 42
2.000000000000000
 43
2.000000000000000
 50
90.00000000000000
  0
LINE
  5
83
100
AcDbEntity
  8
MAIN0
  6
BYBLOCK
 62
0
100
AcDbLine
 10
234.8350236316933
 20
242.1197464989733
 30
0.0000000000000000
 11
252.6927343216665
 21
242.1197464989733
 31
0.0000000000000000
  0
MTEXT
  5
84
100
AcDbEntity
  8
MAIN0
  6
BYBLOCK
 62
0
100
AcDbMText
 10
248.6427343693503
 20
237.7134247970909
 30
0.0000000000000000
 40
3.099999904632568
 41
0.0000000000000000
 71
     5
 72
     1
  1
\A1;16
 11
6.123233995736766e-017
 21
1.000000000000000
 31
0.0000000000000000
  7
STANDARD
  0
ENDBLK
  5
85
100
AcDbEntity
  8
MAIN0
  6
CONTINUOUS
 62
3
100
AcDbBlockEnd
  0
BLOCK
  5
87
100
AcDbEntity
  8
MAIN0
  6
CONTINUOUS
 62
3
100
AcDbBlockBegin
  2
*D6
 70
    65
 10
0.0
 20
0.0
 30
0.0
  0
LINE
  5
88
100
AcDbEntity
  8
MAIN0
  6
BYBLOCK
 62
0
100
AcDbLine
 10
234.8350236316933
 20
242.1197464989733
 30
0.0000000000000000
 11
252.6927343216665
 21
242.1197464989733
 31
0.0000000000000000
  0
LINE
  5
89
100
AcDbEntity
  8
MAIN0
  6
BYBLOCK
 62
0
100
AcDbLine
 10
250.6927343216665
 20
242.1197464989733
 30
0.0000000000000000
 11
250.6927343216665
 21
245.6197464989712
 31
0.0000000000000000
  0
INSERT
  5
8A
100
AcDbEntity
  8
MAIN0
  6
BYBLOCK
 62
0
100
AcDbBlockReference
  2
_OPEN
 10
250.6927343216665
 20
242.1197464989733
 30
0.0000000000000000
 41
2.000000000000000
 42
2.000000000000000
 43
2.000000000000000
 50
90.00000000000000
  0
INSERT
  5
8B
100
AcDbEntity
  8
MAIN0
  6
BYBLOCK
 62
0
100
AcDbBlockReference
  2
_OPEN
 10
250.6927343216665
 20
245.6197464989712
 30
0.0000000000000000
 41
2.000000000000000
 42
2.000000000000000
 43
2.000000000000000
 50
270.0000000000000
  0
LINE
  5
8C
100
AcDbEntity
  8
MAIN0
  6
BYBLOCK
 62
0
100
AcDbLine
 10
250.6927343216665
 20
240.1197464989733
 30
0.0000000000000000
 11
250.6927343216665
 21
239.1197464989733
 31
0.0000000000000000
  0
LINE
  5
8D
100
AcDbEntity
  8
MAIN0
  6
BYBLOCK
 62
0
100
AcDbLine
 10
250.6927343216665
 20
247.6197464989712
 30
0.0000000000000000
 11
250.6927343216665
 21
254.9072545098355
 31
0.0000000000000000
  0
LINE
  5
8E
100
AcDbEntity
  8
MAIN0
  6
BYBLOCK
 62
0
100
AcDbLine
 10
232.8252130054075
 20
245.6197464989712
 30
0.0000000000000000
 11
252.6927343216665
 21
245.6197464989712
 31
0.0000000000000000
  0
MTEXT
  5
8F
100
AcDbEntity
  8
MAIN0
  6
BYBLOCK
 62
0
100
AcDbMText
 10
248.6427343693503
 20
252.2572546425680
 30
0.0000000000000000
 40
3.099999904632568
 41
0.0000000000000000
 71
     5
 72
     1
  1
\A1;3.5
 11
6.123233995736766e-017
 21
1.000000000000000
 31
0.0000000000000000
  7
STANDARD
  0
ENDBLK
  5
90
100
AcDbEntity
  8
MAIN0
  6
CONTINUOUS
 62
3
100
AcDbBlockEnd
  0
BLOCK
  5
92
100
AcDbEntity
  8
MAIN0
  6
CONTINUOUS
 62
3
100
AcDbBlockBegin
  2
*D7
 70
    65
 10
0.0
 20
0.0
 30
0.0
  0
LINE
  5
93
100
AcDbEntity
  8
MAIN0
  6
BYBLOCK
 62
0
100
AcDbLine
 10
228.7252129934865
 20
237.9197465108922
 30
0.0000000000000000
 11
228.7252129934865
 21
259.1132138871801
 31
0.0000000000000000
  0
LINE
  5
94
100
AcDbEntity
  8
MAIN0
  6
BYBLOCK
 62
0
100
AcDbLine
 10
228.7252129934865
 20
257.1132138871801
 30
0.0000000000000000
 11
232.2252129934866
 21
257.1132138871801
 31
0.0000000000000000
  0
INSERT
  5
95
100
AcDbEntity
  8
MAIN0
  6
BYBLOCK
 62
0
100
AcDbBlockReference
  2
_OPEN
 10
228.7252129934865
 20
257.1132138871801
 30
0.0000000000000000
 41
2.000000000000000
 42
2.000000000000000
 43
2.000000000000000
 50
0.0000000000000000
  0
INSERT
  5
96
100
AcDbEntity
  8
MAIN0
  6
BYBLOCK
 62
0
100
AcDbBlockReference
  2
_OPEN
 10
232.2252129934866
 20
257.1132138871801
 30
0.0000000000000000
 41
2.000000000000000
 42
2.000000000000000
 43
2.000000000000000
 50
180.0000000000000
  0
LINE
  5
97
100
AcDbEntity
  8
MAIN0
  6
BYBLOCK
 62
0
100
AcDbLine
 10
226.7252129934865
 20
257.1132138871801
 30
0.0000000000000000
 11
225.7252129934865
 21
257.1132138871801
 31
0.0000000000000000
  0
LINE
  5
98
100
AcDbEntity
  8
MAIN0
  6
BYBLOCK
 62
0
100
AcDbLine
 10
234.2252129934866
 20
257.1132138871801
 30
0.0000000000000000
 11
239.4985198401053
 21
257.1132138871801
 31
0.0000000000000000
  0
LINE
  5
99
100
AcDbEntity
  8
MAIN0
  6
BYBLOCK
 62
0
100
AcDbLine
 10
232.2252129934866
 20
246.2197465108922
 30
0.0000000000000000
 11
232.2252129934866
 21
259.1132138871801
 31
0.0000000000000000
  0
MTEXT
  5
9A
100
AcDbEntity
  8
MAIN0
  6
BYBLOCK
 62
0
100
AcDbMText
 10
236.8485196564857
 20
259.1632138394964
 30
0.0000000000000000
 40
3.099999904632568
 41
0.0000000000000000
 71
     5
 72
     1
  1
\A1;3.5
 11
1.000000000000000
 21
0.0000000000000000
 31
0.0000000000000000
  7
STANDARD
  0
ENDBLK
  5
9B
100
AcDbEntity
  8
MAIN0
  6
CONTINUOUS
 62
3
100
AcDbBlockEnd
  0
BLOCK
  5
BD
100
AcDbEntity
  8
MAIN0
  6
CONTINUOUS
 62
3
100
AcDbBlockBegin
  2
*D8
 70
    65
 10
0.0
 20
0.0
 30
0.0
  0
LINE
  5
BE
100
AcDbEntity
  8
MAIN0
  6
BYBLOCK
 62
0
100
AcDbLine
 10
305.2252129934504
 20
165.2805171168524
 30
0.0000000000000000
 11
305.2252129934504
 21
138.7283413201733
 31
0.0000000000000000
  0
LINE
  5
BF
100
AcDbEntity
  8
MAIN0
  6
BYBLOCK
 62
0
100
AcDbLine
 10
307.2252129934504
 20
140.7283413201733
 30
0.0000000000000000
 11
319.7252129934812
 21
140.7283413201733
 31
0.0000000000000000
  0
INSERT
  5
C0
100
AcDbEntity
  8
MAIN0
  6
BYBLOCK
 62
0
100
AcDbBlockReference
  2
_OPEN
 10
305.2252129934504
 20
140.7283413201733
 30
0.0000000000000000
 41
2.000000000000000
 42
2.000000000000000
 43
2.000000000000000
 50
180.0000000000000
  0
INSERT
  5
C1
100
AcDbEntity
  8
MAIN0
  6
BYBLOCK
 62
0
100
AcDbBlockReference
  2
_OPEN
 10
321.7252129934812
 20
140.7283413201733
 30
0.0000000000000000
 41
2.000000000000000
 42
2.000000000000000
 43
2.000000000000000
 50
0.0000000000000000
  0
LINE
  5
C2
100
AcDbEntity
  8
MAIN0
  6
BYBLOCK
 62
0
100
AcDbLine
 10
321.7252129934812
 20
142.6769026360807
 30
0.0000000000000000
 11
321.7252129934812
 21
138.7283413201733
 31
0.0000000000000000
  0
MTEXT
  5
C3
100
AcDbEntity
  8
MAIN0
  6
BYBLOCK
 62
0
100
AcDbMText
 10
313.4752129934658
 20
142.7783412724896
 30
0.0000000000000000
 40
3.099999904632568
 41
0.0000000000000000
 71
     5
 72
     1
  1
\A1;16.5
 11
1.000000000000000
 21
0.0000000000000000
 31
0.0000000000000000
  7
STANDARD
  0
ENDBLK
  5
C4
100
AcDbEntity
  8
MAIN0
  6
CONTINUOUS
 62
3
100
AcDbBlockEnd
  0
BLOCK
  5
C6
100
AcDbEntity
  8
MAIN0
  6
CONTINUOUS
 62
3
100
AcDbBlockBegin
  2
*D9
 70
    65
 10
0.0
 20
0.0
 30
0.0
  0
LINE
  5
C7
100
AcDbEntity
  8
MAIN0
  6
BYBLOCK
 62
0
100
AcDbLine
 10
321.7252129934812
 20
142.6769026360807
 30
0.0000000000000000
 11
321.7252129934812
 21
138.7283413201733
 31
0.0000000000000000
  0
LINE
  5
C8
100
AcDbEntity
  8
MAIN0
  6
BYBLOCK
 62
0
100
AcDbLine
 10
323.7252129934812
 20
140.7283413201733
 30
0.0000000000000000
 11
336.2252129934506
 21
140.7283413201733
 31
0.0000000000000000
  0
INSERT
  5
C9
100
AcDbEntity
  8
MAIN0
  6
BYBLOCK
 62
0
100
AcDbBlockReference
  2
_OPEN
 10
321.7252129934812
 20
140.7283413201733
 30
0.0000000000000000
 41
2.000000000000000
 42
2.000000000000000
 43
2.000000000000000
 50
180.0000000000000
  0
INSERT
  5
CA
100
AcDbEntity
  8
MAIN0
  6
BYBLOCK
 62
0
100
AcDbBlockReference
  2
_OPEN
 10
338.2252129934506
 20
140.7283413201733
 30
0.0000000000000000
 41
2.000000000000000
 42
2.000000000000000
 43
2.000000000000000
 50
0.0000000000000000
  0
LINE
  5
CB
100
AcDbEntity
  8
MAIN0
  6
BYBLOCK
 62
0
100
AcDbLine
 10
338.2252129934506
 20
165.2805171168524
 30
0.0000000000000000
 11
338.2252129934506
 21
138.7283413201733
 31
0.0000000000000000
  0
MTEXT
  5
CC
100
AcDbEntity
  8
MAIN0
  6
BYBLOCK
 62
0
100
AcDbMText
 10
329.9752129934659
 20
142.7783412724896
 30
0.0000000000000000
 40
3.099999904632568
 41
0.0000000000000000
 71
     5
 72
     1
  1
\A1;16.5
 11
1.000000000000000
 21
0.0000000000000000
 31
0.0000000000000000
  7
STANDARD
  0
ENDBLK
  5
CD
100
AcDbEntity
  8
MAIN0
  6
CONTINUOUS
 62
3
100
AcDbBlockEnd
  0
BLOCK
  5
CF
100
AcDbEntity
  8
MAIN0
  6
CONTINUOUS
 62
3
100
AcDbBlockBegin
  2
*D10
 70
    65
 10
0.0
 20
0.0
 30
0.0
  0
LINE
  5
D0
100
AcDbEntity
  8
MAIN0
  6
BYBLOCK
 62
0
100
AcDbLine
 10
294.6168080008380
 20
171.1197464994206
 30
0.0000000000000000
 11
287.6724656761652
 21
171.1197464994206
 31
0.0000000000000000
  0
LINE
  5
D1
100
AcDbEntity
  8
MAIN0
  6
BYBLOCK
 62
0
100
AcDbLine
 10
289.6724656761652
 20
173.1197464994206
 30
0.0000000000000000
 11
289.6724656761652
 21
194.1197464994206
 31
0.0000000000000000
  0
INSERT
  5
D2
100
AcDbEntity
  8
MAIN0
  6
BYBLOCK
 62
0
100
AcDbBlockReference
  2
_OPEN
 10
289.6724656761652
 20
171.1197464994206
 30
0.0000000000000000
 41
2.000000000000000
 42
2.000000000000000
 43
2.000000000000000
 50
270.0000000000000
  0
INSERT
  5
D3
100
AcDbEntity
  8
MAIN0
  6
BYBLOCK
 62
0
100
AcDbBlockReference
  2
_OPEN
 10
289.6724656761652
 20
196.1197464994206
 30
0.0000000000000000
 41
2.000000000000000
 42
2.000000000000000
 43
2.000000000000000
 50
90.00000000000000
  0
MTEXT
  5
D4
100
AcDbEntity
  8
MAIN0
  6
BYBLOCK
 62
0
100
AcDbMText
 10
287.6224657238489
 20
183.6197464994206
 30
0.0000000000000000
 40
3.099999904632568
 41
0.0000000000000000
 71
     5
 72
     1
  1
\A1;25
 11
6.123233995736766e-017
 21
1.000000000000000
 31
0.0000000000000000
  7
STANDARD
  0
ENDBLK
  5
D5
100
AcDbEntity
  8
MAIN0
  6
CONTINUOUS
 62
3
100
AcDbBlockEnd
  0
BLOCK
  5
D7
100
AcDbEntity
  8
MAIN0
  6
CONTINUOUS
 62
3
100
AcDbBlockBegin
  2
*D11
 70
    65
 10
0.0
 20
0.0
 30
0.0
  0
LINE
  5
D8
100
AcDbEntity
  8
MAIN0
  6
BYBLOCK
 62
0
100
AcDbLine
 10
289.6724656761652
 20
198.1197464994206
 30
0.0000000000000000
 11
289.6724656761652
 21
219.1197464994206
 31
0.0000000000000000
  0
INSERT
  5
D9
100
AcDbEntity
  8
MAIN0
  6
BYBLOCK
 62
0
100
AcDbBlockReference
  2
_OPEN
 10
289.6724656761652
 20
196.1197464994206
 30
0.0000000000000000
 41
2.000000000000000
 42
2.000000000000000
 43
2.000000000000000
 50
270.0000000000000
  0
INSERT
  5
DA
100
AcDbEntity
  8
MAIN0
  6
BYBLOCK
 62
0
100
AcDbBlockReference
  2
_OPEN
 10
289.6724656761652
 20
221.1197464994206
 30
0.0000000000000000
 41
2.000000000000000
 42
2.000000000000000
 43
2.000000000000000
 50
90.00000000000000
  0
LINE
  5
DB
100
AcDbEntity
  8
MAIN0
  6
BYBLOCK
 62
0
100
AcDbLine
 10
294.8823874247725
 20
221.1197464994206
 30
0.0000000000000000
 11
287.6724656761652
 21
221.1197464994206
 31
0.0000000000000000
  0
MTEXT
  5
DC
100
AcDbEntity
  8
MAIN0
  6
BYBLOCK
 62
0
100
AcDbMText
 10
287.6224657238489
 20
208.6197464994206
 30
0.0000000000000000
 40
3.099999904632568
 41
0.0000000000000000
 71
     5
 72
     1
  1
\A1;25
 11
6.123233995736766e-017
 21
1.000000000000000
 31
0.0000000000000000
  7
STANDARD
  0
ENDBLK
  5
DD
100
AcDbEntity
  8
MAIN0
  6
CONTINUOUS
 62
3
100
AcDbBlockEnd
  0
BLOCK
  5
DF
100
AcDbEntity
  8
MAIN0
  6
CONTINUOUS
 62
3
100
AcDbBlockBegin
  2
*D12
 70
    65
 10
0.0
 20
0.0
 30
0.0
  0
LINE
  5
E0
100
AcDbEntity
  8
MAIN0
  6
BYBLOCK
 62
0
100
AcDbLine
 10
321.7252129934812
 20
142.6769026360807
 30
0.0000000000000000
 11
321.7252129934812
 21
133.8802065186338
 31
0.0000000000000000
  0
LINE
  5
E1
100
AcDbEntity
  8
MAIN0
  6
BYBLOCK
 62
0
100
AcDbLine
 10
376.4255562992638
 20
196.1197464994206
 30
0.0000000000000000
 11
383.9647529742679
 21
196.1197464994205
 31
0.0000000000000000
  0
ARC
  5
E2
100
AcDbEntity
  8
MAIN0
  6
BYBLOCK
 62
0
100
AcDbCircle
 10
321.7252129934812
 20
196.1197464994206
 30
0.0000000000000000
 40
60.23953998078672
100
AcDbArc
 50
271.9022648423729
 51
358.0977351576272
  0
INSERT
  5
E3
100
AcDbEntity
  8
MAIN0
  6
BYBLOCK
 62
0
100
AcDbBlockReference
  2
_OPEN
 10
321.7252129934812
 20
135.8802065186338
 30
0.0000000000000000
 41
2.000000000000000
 42
2.000000000000000
 43
2.000000000000000
 50
180.0000000000000
  0
INSERT
  5
E4
100
AcDbEntity
  8
MAIN0
  6
BYBLOCK
 62
0
100
AcDbBlockReference
  2
_OPEN
 10
381.9647529742679
 20
196.1197464994205
 30
0.0000000000000000
 41
2.000000000000000
 42
2.000000000000000
 43
2.000000000000000
 50
90.00000000000000
  0
MTEXT
  5
E5
100
AcDbEntity
  8
MAIN0
  6
BYBLOCK
 62
0
100
AcDbMText
 10
362.8714313417387
 20
154.9735281511631
 30
0.0000000000000000
 40
3.099999904632568
 41
0.0000000000000000
 71
     5
 72
     1
  1
\A1;90\U+00B0
 11
0.7071067811865476
 21
0.7071067811865475
 31
0.0000000000000000
  7
STANDARD
  0
ENDBLK
  5
E6
100
AcDbEntity
  8
MAIN0
  6
CONTINUOUS
 62
3
100
AcDbBlockEnd
  0
BLOCK
  5
E8
100
AcDbEntity
  8
MAIN0
  6
CONTINUOUS
 62
3
100
AcDbBlockBegin
  2
*D13
 70
    65
 10
0.0
 20
0.0
 30
0.0
  0
LINE
  5
E9
100
AcDbEntity
  8
MAIN0
  6
BYBLOCK
 62
0
100
AcDbLine
 10
376.4255562992638
 20
196.1197464994206
 30
0.0000000000000000
 11
383.9647529742679
 21
196.1197464994205
 31
0.0000000000000000
  0
LINE
  5
EA
100
AcDbEntity
  8
MAIN0
  6
BYBLOCK
 62
0
100
AcDbLine
 10
321.7252129934812
 20
249.5028456634323
 30
0.0000000000000000
 11
321.7252129934812
 21
258.3592864802073
 31
0.0000000000000000
  0
ARC
  5
EB
100
AcDbEntity
  8
MAIN0
  6
BYBLOCK
 62
0
100
AcDbCircle
 10
321.7252129934812
 20
196.1197464994206
 30
0.0000000000000000
 40
60.23953998078672
100
AcDbArc
 50
1.902264842372857
 51
88.09773515762716
  0
INSERT
  5
EC
100
AcDbEntity
  8
MAIN0
  6
BYBLOCK
 62
0
100
AcDbBlockReference
  2
_OPEN
 10
381.9647529742679
 20
196.1197464994206
 30
0.0000000000000000
 41
2.000000000000000
 42
2.000000000000000
 43
2.000000000000000
 50
270.0000000000000
  0
INSERT
  5
ED
100
AcDbEntity
  8
MAIN0
  6
BYBLOCK
 62
0
100
AcDbBlockReference
  2
_OPEN
 10
321.7252129934812
 20
256.3592864802073
 30
0.0000000000000000
 41
2.000000000000000
 42
2.000000000000000
 43
2.000000000000000
 50
180.0000000000000
  0
MTEXT
  5
EE
100
AcDbEntity
  8
MAIN0
  6
BYBLOCK
 62
0
100
AcDbMText
 10
365.7705690771686
 20
240.1651025831079
 30
0.0000000000000000
 40
3.099999904632568
 41
0.0000000000000000
 71
     5
 72
     1
  1
\A1;90\U+00B0
 11
0.7071067811865474
 21
-0.7071067811865477
 31
0.0000000000000000
  7
STANDARD
  0
ENDBLK
  5
EF
100
AcDbEntity
  8
MAIN0
  6
CONTINUOUS
 62
3
100
AcDbBlockEnd
  0
BLOCK
  5
F1
100
AcDbEntity
  8
MAIN0
  6
CONTINUOUS
 62
3
100
AcDbBlockBegin
  2
*D14
 70
    65
 10
0.0
 20
0.0
 30
0.0
  0
LINE
  5
F2
100
AcDbEntity
  8
MAIN0
  6
BYBLOCK
 62
0
100
AcDbLine
 10
314.9752129934812
 20
246.0197465109083
 30
0.0000000000000000
 11
314.9752129934812
 21
254.9011356183756
 31
0.0000000000000000
  0
LINE
  5
F3
100
AcDbEntity
  8
MAIN0
  6
BYBLOCK
 62
0
100
AcDbLine
 10
316.9752129934812
 20
252.9011356183756
 30
0.0000000000000000
 11
326.4752129934812
 21
252.9011356183756
 31
0.0000000000000000
  0
INSERT
  5
F4
100
AcDbEntity
  8
MAIN0
  6
BYBLOCK
 62
0
100
AcDbBlockReference
  2
_OPEN
 10
314.9752129934812
 20
252.9011356183756
 30
0.0000000000000000
 41
2.000000000000000
 42
2.000000000000000
 43
2.000000000000000
 50
180.0000000000000
  0
INSERT
  5
F5
100
AcDbEntity
  8
MAIN0
  6
BYBLOCK
 62
0
100
AcDbBlockReference
  2
_OPEN
 10
328.4752129934812
 20
252.9011356183756
 30
0.0000000000000000
 41
2.000000000000000
 42
2.000000000000000
 43
2.000000000000000
 50
0.0000000000000000
  0
LINE
  5
F6
100
AcDbEntity
  8
MAIN0
  6
BYBLOCK
 62
0
100
AcDbLine
 10
314.9752129934812
 20
252.9011356183756
 30
0.0000000000000000
 11
303.3320712469602
 21
252.9011356183756
 31
0.0000000000000000
  0
LINE
  5
F7
100
AcDbEntity
  8
MAIN0
  6
BYBLOCK
 62
0
100
AcDbLine
 10
328.4752129934812
 20
246.0197465109057
 30
0.0000000000000000
 11
328.4752129934812
 21
254.9011356183756
 31
0.0000000000000000
  0
MTEXT
  5
F8
100
AcDbEntity
  8
MAIN0
  6
BYBLOCK
 62
0
100
AcDbMText
 10
307.0320715866316
 20
254.9511355706919
 30
0.0000000000000000
 40
3.099999904632568
 41
0.0000000000000000
 71
     5
 72
     1
  1
\A1;13.5
 11
1.000000000000000
 21
0.0000000000000000
 31
0.0000000000000000
  7
STANDARD
  0
ENDBLK
  5
F9
100
AcDbEntity
  8
MAIN0
  6
CONTINUOUS
 62
3
100
AcDbBlockEnd
  0
BLOCK
  5
FD
100
AcDbEntity
  8
MAIN0
  6
CONTINUOUS
 62
3
100
AcDbBlockBegin
  2
*D15
 70
    65
 10
0.0
 20
0.0
 30
0.0
  0
LINE
  5
FE
100
AcDbEntity
  8
MAIN0
  6
BYBLOCK
 62
0
100
AcDbLine
 10
297.7252129934812
 20
239.6397652379292
 30
0.0000000000000000
 11
297.7252129934812
 21
261.3939917929941
 31
0.0000000000000000
  0
LINE
  5
FF
100
AcDbEntity
  8
MAIN0
  6
BYBLOCK
 62
0
100
AcDbLine
 10
299.7252129934812
 20
259.3939917929941
 30
0.0000000000000000
 11
343.7252129934812
 21
259.3939917929941
 31
0.0000000000000000
  0
INSERT
  5
100
100
AcDbEntity
  8
MAIN0
  6
BYBLOCK
 62
0
100
AcDbBlockReference
  2
_OPEN
 10
297.7252129934812
 20
259.3939917929941
 30
0.0000000000000000
 41
2.000000000000000
 42
2.000000000000000
 43
2.000000000000000
 50
180.0000000000000
  0
INSERT
  5
101
100
AcDbEntity
  8
MAIN0
  6
BYBLOCK
 62
0
100
AcDbBlockReference
  2
_OPEN
 10
345.7252129934812
 20
259.3939917929941
 30
0.0000000000000000
 41
2.000000000000000
 42
2.000000000000000
 43
2.000000000000000
 50
0.0000000000000000
  0
LINE
  5
102
100
AcDbEntity
  8
MAIN0
  6
BYBLOCK
 62
0
100
AcDbLine
 10
345.7252129934812
 20
239.6397652379292
 30
0.0000000000000000
 11
345.7252129934812
 21
261.3939917929941
 31
0.0000000000000000
  0
MTEXT
  5
103
100
AcDbEntity
  8
MAIN0
  6
BYBLOCK
 62
0
100
AcDbMText
 10
321.7252129934812
 20
261.4439917453104
 30
0.0000000000000000
 40
3.099999904632568
 41
0.0000000000000000
 71
     5
 72
     1
  1
\A1;48
 11
1.000000000000000
 21
0.0000000000000000
 31
0.0000000000000000
  7
STANDARD
  0
ENDBLK
  5
104
100
AcDbEntity
  8
MAIN0
  6
CONTINUOUS
 62
3
100
AcDbBlockEnd
  0
BLOCK
  5
11F
100
AcDbEntity
  8
MAIN0
  6
CONTINUOUS
 62
3
100
AcDbBlockBegin
  2
*D16
 70
    65
 10
0.0
 20
0.0
 30
0.0
  0
LINE
  5
120
100
AcDbEntity
  8
MAIN0
  6
BYBLOCK
 62
0
100
AcDbLine
 10
301.2252129934282
 20
109.6790616194831
 30
0.0000000000000000
 11
301.2252129934282
 21
115.4989806462557
 31
0.0000000000000000
  0
LINE
  5
121
100
AcDbEntity
  8
MAIN0
  6
BYBLOCK
 62
0
100
AcDbLine
 10
301.2252129934282
 20
113.4989806462557
 30
0.0000000000000000
 11
309.2252129934282
 21
113.4989806462557
 31
0.0000000000000000
  0
INSERT
  5
122
100
AcDbEntity
  8
MAIN0
  6
BYBLOCK
 62
0
100
AcDbBlockReference
  2
_OPEN
 10
301.2252129934282
 20
113.4989806462557
 30
0.0000000000000000
 41
2.000000000000000
 42
2.000000000000000
 43
2.000000000000000
 50
0.0000000000000000
  0
INSERT
  5
123
100
AcDbEntity
  8
MAIN0
  6
BYBLOCK
 62
0
100
AcDbBlockReference
  2
_OPEN
 10
309.2252129934282
 20
113.4989806462557
 30
0.0000000000000000
 41
2.000000000000000
 42
2.000000000000000
 43
2.000000000000000
 50
180.0000000000000
  0
LINE
  5
124
100
AcDbEntity
  8
MAIN0
  6
BYBLOCK
 62
0
100
AcDbLine
 10
299.2252129934282
 20
113.4989806462557
 30
0.0000000000000000
 11
298.2252129934282
 21
113.4989806462557
 31
0.0000000000000000
  0
LINE
  5
125
100
AcDbEntity
  8
MAIN0
  6
BYBLOCK
 62
0
100
AcDbLine
 10
311.2252129934282
 20
113.4989806462557
 30
0.0000000000000000
 11
312.2252129934282
 21
113.4989806462557
 31
0.0000000000000000
  0
LINE
  5
126
100
AcDbEntity
  8
MAIN0
  6
BYBLOCK
 62
0
100
AcDbLine
 10
309.2252129934282
 20
109.6790616194759
 30
0.0000000000000000
 11
309.2252129934282
 21
115.4989806462557
 31
0.0000000000000000
  0
MTEXT
  5
127
100
AcDbEntity
  8
MAIN0
  6
BYBLOCK
 62
0
100
AcDbMText
 10
305.2252129934282
 20
115.5489805985719
 30
0.0000000000000000
 40
3.099999904632568
 41
0.0000000000000000
 71
     5
 72
     1
  1
\A1;\U+22058
 11
1.000000000000000
 21
0.0000000000000000
 31
0.0000000000000000
  7
STANDARD
  0
ENDBLK
  5
128
100
AcDbEntity
  8
MAIN0
  6
CONTINUOUS
 62
3
100
AcDbBlockEnd
  0
BLOCK
  5
12A
100
AcDbEntity
  8
MAIN0
  6
CONTINUOUS
 62
3
100
AcDbBlockBegin
  2
*D17
 70
    65
 10
0.0
 20
0.0
 30
0.0
  0
LINE
  5
12B
100
AcDbEntity
  8
MAIN0
  6
BYBLOCK
 62
0
100
AcDbLine
 10
300.4252129815072
 20
93.87906160756205
 30
0.0000000000000000
 11
282.2314201158265
 21
93.87906160756204
 31
0.0000000000000000
  0
LINE
  5
12C
100
AcDbEntity
  8
MAIN0
  6
BYBLOCK
 62
0
100
AcDbLine
 10
284.2314201158265
 20
95.87906160756204
 30
0.0000000000000000
 11
284.2314201158265
 21
106.8790616075596
 31
0.0000000000000000
  0
INSERT
  5
12D
100
AcDbEntity
  8
MAIN0
  6
BYBLOCK
 62
0
100
AcDbBlockReference
  2
_OPEN
 10
284.2314201158265
 20
93.87906160756204
 30
0.0000000000000000
 41
2.000000000000000
 42
2.000000000000000
 43
2.000000000000000
 50
270.0000000000000
  0
INSERT
  5
12E
100
AcDbEntity
  8
MAIN0
  6
BYBLOCK
 62
0
100
AcDbBlockReference
  2
_OPEN
 10
284.2314201158265
 20
108.8790616075596
 30
0.0000000000000000
 41
2.000000000000000
 42
2.000000000000000
 43
2.000000000000000
 50
90.00000000000000
  0
LINE
  5
12F
100
AcDbEntity
  8
MAIN0
  6
BYBLOCK
 62
0
100
AcDbLine
 10
299.9252129815072
 20
108.8790616075596
 30
0.0000000000000000
 11
282.2314201158265
 21
108.8790616075596
 31
0.0000000000000000
  0
MTEXT
  5
130
100
AcDbEntity
  8
MAIN0
  6
BYBLOCK
 62
0
100
AcDbMText
 10
282.1814201635102
 20
101.3790616075608
 30
0.0000000000000000
 40
3.099999904632568
 41
0.0000000000000000
 71
     5
 72
     1
  1
\A1;15
 11
6.123233995736766e-017
 21
1.000000000000000
 31
0.0000000000000000
  7
STANDARD
  0
ENDBLK
  5
131
100
AcDbEntity
  8
MAIN0
  6
CONTINUOUS
 62
3
100
AcDbBlockEnd
  0
BLOCK
  5
15F
100
AcDbEntity
  8
MAIN0
  6
CONTINUOUS
 62
3
100
AcDbBlockBegin
  2
D18
 70
    64
 10
0.0
 20
0.0
 30
0.0
  0
LINE
  5
160
100
AcDbEntity
  8
MAIN0
  6
BYBLOCK
 62
0
100
AcDbLine
 10
-23.74927080627316
 20
-5.330431336240338
 30
0.0000000000000000
 11
-23.74927080627316
 21
32.50000000000000
 31
0.0000000000000000
  0
LINE
  5
161
100
AcDbEntity
  8
MAIN0
  6
BYBLOCK
 62
0
100
AcDbLine
 10
-24.34927083011502
 20
30.50000000000000
 30
0.0000000000000000
 11
-23.74927080627316
 21
32.50000000000000
 31
0.0000000000000000
  0
LINE
  5
162
100
AcDbEntity
  8
MAIN0
  6
BYBLOCK
 62
0
100
AcDbLine
 10
-23.74927080627316
 20
32.50000000000000
 30
0.0000000000000000
 11
-23.14927078243130
 21
30.50000000000000
 31
0.0000000000000000
  0
LINE
  5
163
100
AcDbEntity
  8
MAIN0
  6
BYBLOCK
 62
0
100
AcDbLine
 10
9.089851542905976
 20
32.50000000000000
 30
0.0000000000000000
 11
-25.74927080627316
 21
32.50000000000000
 31
0.0000000000000000
  0
MTEXT
  5
164
100
AcDbEntity
  8
MAIN0
  6
BYBLOCK
 62
0
100
AcDbMText
 10
-25.79927075858944
 20
0.06956866599483647
 30
0.0000000000000000
 40
3.099999904632568
 41
0.0000000000000000
 71
     5
 72
     1
  1
\A1;\U+220565
 11
6.123233995736766e-017
 21
1.000000000000000
 31
0.0000000000000000
  7
STANDARD
  0
ENDBLK
  5
165
100
AcDbEntity
  8
MAIN0
  6
CONTINUOUS
 62
3
100
AcDbBlockEnd
  0
BLOCK
  5
167
100
AcDbEntity
  8
MAIN0
  6
CONTINUOUS
 62
3
100
AcDbBlockBegin
  2
D19
 70
    64
 10
0.0
 20
0.0
 30
0.0
  0
LINE
  5
168
100
AcDbEntity
  8
MAIN0
  6
BYBLOCK
 62
0
100
AcDbLine
 10
-14.98046124784736
 20
4.988032967692362
 30
0.0000000000000000
 11
-14.98046124784736
 21
-29.50000000000000
 31
0.0000000000000000
  0
LINE
  5
169
100
AcDbEntity
  8
MAIN0
  6
BYBLOCK
 62
0
100
AcDbLine
 10
-14.38046122400550
 20
-27.50000000000000
 30
0.0000000000000000
 11
-14.98046124784736
 21
-29.50000000000000
 31
0.0000000000000000
  0
LINE
  5
16A
100
AcDbEntity
  8
MAIN0
  6
BYBLOCK
 62
0
100
AcDbLine
 10
-14.98046124784736
 20
-29.50000000000000
 30
0.0000000000000000
 11
-15.58046127168922
 21
-27.50000000000000
 31
0.0000000000000000
  0
LINE
  5
16B
100
AcDbEntity
  8
MAIN0
  6
BYBLOCK
 62
0
100
AcDbLine
 10
9.089851542912825
 20
-29.50000000000000
 30
0.0000000000000000
 11
-16.98046124784736
 21
-29.50000000000000
 31
0.0000000000000000
  0
MTEXT
  5
16C
100
AcDbEntity
  8
MAIN0
  6
BYBLOCK
 62
0
100
AcDbMText
 10
-17.03046120016364
 20
-0.4119670345428119
 30
0.0000000000000000
 40
3.099999904632568
 41
0.0000000000000000
 71
     5
 72
     1
  1
\A1;\U+220559
 11
6.123233995736766e-017
 21
1.000000000000000
 31
0.0000000000000000
  7
STANDARD
  0
ENDBLK
  5
16D
100
AcDbEntity
  8
MAIN0
  6
CONTINUOUS
 62
3
100
AcDbBlockEnd
  0
BLOCK
  5
16F
100
AcDbEntity
  8
MAIN0
  6
CONTINUOUS
 62
3
100
AcDbBlockBegin
  2
*D20
 70
    65
 10
0.0
 20
0.0
 30
0.0
  0
LINE
  5
170
100
AcDbEntity
  8
MAIN0
  6
BYBLOCK
 62
0
100
AcDbLine
 10
194.7252129934791
 20
229.0197465113415
 30
0.0000000000000000
 11
194.7252129934791
 21
233.7440163442695
 31
0.0000000000000000
  0
LINE
  5
171
100
AcDbEntity
  8
MAIN0
  6
BYBLOCK
 62
0
100
AcDbLine
 10
194.7252129934791
 20
231.7440163442695
 30
0.0000000000000000
 11
199.7252129934859
 21
231.7440163442695
 31
0.0000000000000000
  0
INSERT
  5
172
100
AcDbEntity
  8
MAIN0
  6
BYBLOCK
 62
0
100
AcDbBlockReference
  2
_OPEN
 10
194.7252129934791
 20
231.7440163442695
 30
0.0000000000000000
 41
2.000000000000000
 42
2.000000000000000
 43
2.000000000000000
 50
0.0000000000000000
  0
INSERT
  5
173
100
AcDbEntity
  8
MAIN0
  6
BYBLOCK
 62
0
100
AcDbBlockReference
  2
_OPEN
 10
199.7252129934859
 20
231.7440163442695
 30
0.0000000000000000
 41
2.000000000000000
 42
2.000000000000000
 43
2.000000000000000
 50
180.0000000000000
  0
LINE
  5
174
100
AcDbEntity
  8
MAIN0
  6
BYBLOCK
 62
0
100
AcDbLine
 10
192.7252129934791
 20
231.7440163442695
 30
0.0000000000000000
 11
191.7252129934791
 21
231.7440163442695
 31
0.0000000000000000
  0
LINE
  5
175
100
AcDbEntity
  8
MAIN0
  6
BYBLOCK
 62
0
100
AcDbLine
 10
201.7252129934859
 20
231.7440163442695
 30
0.0000000000000000
 11
202.7252129934859
 21
231.7440163442695
 31
0.0000000000000000
  0
LINE
  5
176
100
AcDbEntity
  8
MAIN0
  6
BYBLOCK
 62
0
100
AcDbLine
 10
199.7252129934859
 20
227.0206688934289
 30
0.0000000000000000
 11
199.7252129934859
 21
233.7440163442695
 31
0.0000000000000000
  0
MTEXT
  5
177
100
AcDbEntity
  8
MAIN0
  6
BYBLOCK
 62
0
100
AcDbMText
 10
197.2252129934824
 20
233.7940162965858
 30
0.0000000000000000
 40
3.099999904632568
 41
0.0000000000000000
 71
     5
 72
     1
  1
\A1;5
 11
1.000000000000000
 21
0.0000000000000000
 31
0.0000000000000000
  7
STANDARD
  0
ENDBLK
  5
178
100
AcDbEntity
  8
MAIN0
  6
CONTINUOUS
 62
3
100
AcDbBlockEnd
  0
BLOCK
  5
17A
100
AcDbEntity
  8
MAIN0
  6
CONTINUOUS
 62
3
100
AcDbBlockBegin
  2
*D21
 70
    65
 10
0.0
 20
0.0
 30
0.0
  0
LINE
  5
17B
100
AcDbEntity
  8
MAIN0
  6
BYBLOCK
 62
0
100
AcDbLine
 10
220.7252129934834
 20
246.0197465108919
 30
0.0000000000000000
 11
220.7252129934834
 21
253.6377157737164
 31
0.0000000000000000
  0
LINE
  5
17C
100
AcDbEntity
  8
MAIN0
  6
BYBLOCK
 62
0
100
AcDbLine
 10
220.7252129934834
 20
251.6377157737164
 30
0.0000000000000000
 11
216.7252129934834
 21
251.6377157737164
 31
0.0000000000000000
  0
INSERT
  5
17D
100
AcDbEntity
  8
MAIN0
  6
BYBLOCK
 62
0
100
AcDbBlockReference
  2
_OPEN
 10
220.7252129934834
 20
251.6377157737164
 30
0.0000000000000000
 41
2.000000000000000
 42
2.000000000000000
 43
2.000000000000000
 50
180.0000000000000
  0
INSERT
  5
17E
100
AcDbEntity
  8
MAIN0
  6
BYBLOCK
 62
0
100
AcDbBlockReference
  2
_OPEN
 10
216.7252129934834
 20
251.6377157737164
 30
0.0000000000000000
 41
2.000000000000000
 42
2.000000000000000
 43
2.000000000000000
 50
360.0000000000000
  0
LINE
  5
17F
100
AcDbEntity
  8
MAIN0
  6
BYBLOCK
 62
0
100
AcDbLine
 10
222.7252129934834
 20
251.6377157737164
 30
0.0000000000000000
 11
223.7252129934834
 21
251.6377157737164
 31
0.0000000000000000
  0
LINE
  5
180
100
AcDbEntity
  8
MAIN0
  6
BYBLOCK
 62
0
100
AcDbLine
 10
214.7252129934834
 20
251.6377157737164
 30
0.0000000000000000
 11
209.4605440519856
 21
251.6377157737164
 31
0.0000000000000000
  0
LINE
  5
181
100
AcDbEntity
  8
MAIN0
  6
BYBLOCK
 62
0
100
AcDbLine
 10
216.7252129934834
 20
246.0197465108919
 30
0.0000000000000000
 11
216.7252129934834
 21
253.6377157737164
 31
0.0000000000000000
  0
MTEXT
  5
182
100
AcDbEntity
  8
MAIN0
  6
BYBLOCK
 62
0
100
AcDbMText
 10
211.8105440348544
 20
253.6877157260327
 30
0.0000000000000000
 40
3.099999904632568
 41
0.0000000000000000
 71
     5
 72
     1
  1
\A1;\U+22054
 11
1.000000000000000
 21
0.0000000000000000
 31
0.0000000000000000
  7
STANDARD
  0
ENDBLK
  5
183
100
AcDbEntity
  8
MAIN0
  6
CONTINUOUS
 62
3
100
AcDbBlockEnd
  0
BLOCK
  5
185
100
AcDbEntity
  8
MAIN0
  6
CONTINUOUS
 62
3
100
AcDbBlockBegin
  2
*D22
 70
    65
 10
0.0
 20
0.0
 30
0.0
  0
LINE
  5
186
100
AcDbEntity
  8
MAIN0
  6
BYBLOCK
 62
0
100
AcDbLine
 10
213.6252129815624
 20
245.6197464989712
 30
0.0000000000000000
 11
199.1283243318079
 21
245.6197464989712
 31
0.0000000000000000
  0
LINE
  5
187
100
AcDbEntity
  8
MAIN0
  6
BYBLOCK
 62
0
100
AcDbLine
 10
201.1283243318079
 20
245.6197464989712
 30
0.0000000000000000
 11
201.1283243318079
 21
238.1197464989711
 31
0.0000000000000000
  0
INSERT
  5
188
100
AcDbEntity
  8
MAIN0
  6
BYBLOCK
 62
0
100
AcDbBlockReference
  2
_OPEN
 10
201.1283243318079
 20
245.6197464989712
 30
0.0000000000000000
 41
2.000000000000000
 42
2.000000000000000
 43
2.000000000000000
 50
270.0000000000000
  0
INSERT
  5
189
100
AcDbEntity
  8
MAIN0
  6
BYBLOCK
 62
0
100
AcDbBlockReference
  2
_OPEN
 10
201.1283243318079
 20
238.1197464989711
 30
0.0000000000000000
 41
2.000000000000000
 42
2.000000000000000
 43
2.000000000000000
 50
90.00000000000000
  0
LINE
  5
18A
100
AcDbEntity
  8
MAIN0
  6
BYBLOCK
 62
0
100
AcDbLine
 10
201.1283243318079
 20
247.6197464989712
 30
0.0000000000000000
 11
201.1283243318079
 21
248.6197464989712
 31
0.0000000000000000
  0
LINE
  5
18B
100
AcDbEntity
  8
MAIN0
  6
BYBLOCK
 62
0
100
AcDbLine
 10
201.1283243318079
 20
236.1197464989711
 30
0.0000000000000000
 11
201.1283243318079
 21
235.1197464989711
 31
0.0000000000000000
  0
LINE
  5
18C
100
AcDbEntity
  8
MAIN0
  6
BYBLOCK
 62
0
100
AcDbLine
 10
215.9252129815624
 20
238.1197464989711
 30
0.0000000000000000
 11
199.1283243318079
 21
238.1197464989711
 31
0.0000000000000000
  0
MTEXT
  5
18D
100
AcDbEntity
  8
MAIN0
  6
BYBLOCK
 62
0
100
AcDbMText
 10
199.0783243794916
 20
241.8697464989712
 30
0.0000000000000000
 40
3.099999904632568
 41
0.0000000000000000
 71
     5
 72
     1
  1
\A1;7.5
 11
6.123233995736766e-017
 21
1.000000000000000
 31
0.0000000000000000
  7
STANDARD
  0
ENDBLK
  5
18E
100
AcDbEntity
  8
MAIN0
  6
CONTINUOUS
 62
3
100
AcDbBlockEnd
  0
BLOCK
  5
190
100
AcDbEntity
  8
MAIN0
  6
CONTINUOUS
 62
3
100
AcDbBlockBegin
  2
*D23
 70
    65
 10
0.0
 20
0.0
 30
0.0
  0
LINE
  5
191
100
AcDbEntity
  8
MAIN0
  6
BYBLOCK
 62
0
100
AcDbLine
 10
299.9252129815072
 20
108.8790616075596
 30
0.0000000000000000
 11
288.9259567693069
 21
108.8790616075596
 31
0.0000000000000000
  0
LINE
  5
192
100
AcDbEntity
  8
MAIN0
  6
BYBLOCK
 62
0
100
AcDbLine
 10
290.9259567693069
 20
108.8790616075596
 30
0.0000000000000000
 11
290.9259567693069
 21
102.8790616075588
 31
0.0000000000000000
  0
INSERT
  5
193
100
AcDbEntity
  8
MAIN0
  6
BYBLOCK
 62
0
100
AcDbBlockReference
  2
_OPEN
 10
290.9259567693069
 20
108.8790616075596
 30
0.0000000000000000
 41
2.000000000000000
 42
2.000000000000000
 43
2.000000000000000
 50
270.0000000000000
  0
INSERT
  5
194
100
AcDbEntity
  8
MAIN0
  6
BYBLOCK
 62
0
100
AcDbBlockReference
  2
_OPEN
 10
290.9259567693069
 20
102.8790616075588
 30
0.0000000000000000
 41
2.000000000000000
 42
2.000000000000000
 43
2.000000000000000
 50
90.00000000000000
  0
LINE
  5
195
100
AcDbEntity
  8
MAIN0
  6
BYBLOCK
 62
0
100
AcDbLine
 10
290.9259567693069
 20
110.8790616075596
 30
0.0000000000000000
 11
290.9259567693069
 21
111.8790616075596
 31
0.0000000000000000
  0
LINE
  5
196
100
AcDbEntity
  8
MAIN0
  6
BYBLOCK
 62
0
100
AcDbLine
 10
290.9259567693069
 20
100.8790616075588
 30
0.0000000000000000
 11
290.9259567693069
 21
99.87906160755877
 31
0.0000000000000000
  0
LINE
  5
197
100
AcDbEntity
  8
MAIN0
  6
BYBLOCK
 62
0
100
AcDbLine
 10
296.0231156343249
 20
102.8790616075614
 30
0.0000000000000000
 11
288.9259567693069
 21
102.8790616075577
 31
0.0000000000000000
  0
MTEXT
  5
198
100
AcDbEntity
  8
MAIN0
  6
BYBLOCK
 62
0
100
AcDbMText
 10
288.8759568169907
 20
105.8790616075592
 30
0.0000000000000000
 40
3.099999904632568
 41
0.0000000000000000
 71
     5
 72
     1
  1
\A1;6
 11
6.123233995736766e-017
 21
1.000000000000000
 31
0.0000000000000000
  7
STANDARD
  0
ENDBLK
  5
199
100
AcDbEntity
  8
MAIN0
  6
CONTINUOUS
 62
3
100
AcDbBlockEnd
  0
BLOCK
  5
19D
100
AcDbEntity
  8
MAIN0
  6
CONTINUOUS
 62
3
100
AcDbBlockBegin
  2
*D24
 70
    65
 10
0.0
 20
0.0
 30
0.0
  0
LINE
  5
19E
100
AcDbEntity
  8
MAIN0
  6
BYBLOCK
 62
0
100
AcDbLine
 10
189.7252129934846
 20
179.1197464874978
 30
0.0000000000000000
 11
189.7252129934846
 21
124.0188612633106
 31
0.0000000000000000
  0
LINE
  5
19F
100
AcDbEntity
  8
MAIN0
  6
BYBLOCK
 62
0
100
AcDbLine
 10
189.7252129934846
 20
126.0188612633106
 30
0.0000000000000000
 11
194.7252129934858
 21
126.0188612633106
 31
0.0000000000000000
  0
INSERT
  5
1A0
100
AcDbEntity
  8
MAIN0
  6
BYBLOCK
 62
0
100
AcDbBlockReference
  2
_OPEN
 10
189.7252129934846
 20
126.0188612633106
 30
0.0000000000000000
 41
2.000000000000000
 42
2.000000000000000
 43
2.000000000000000
 50
0.0000000000000000
  0
INSERT
  5
1A1
100
AcDbEntity
  8
MAIN0
  6
BYBLOCK
 62
0
100
AcDbBlockReference
  2
_OPEN
 10
194.7252129934858
 20
126.0188612633106
 30
0.0000000000000000
 41
2.000000000000000
 42
2.000000000000000
 43
2.000000000000000
 50
180.0000000000000
  0
LINE
  5
1A2
100
AcDbEntity
  8
MAIN0
  6
BYBLOCK
 62
0
100
AcDbLine
 10
187.7252129934846
 20
126.0188612633106
 30
0.0000000000000000
 11
186.7252129934846
 21
126.0188612633106
 31
0.0000000000000000
  0
LINE
  5
1A3
100
AcDbEntity
  8
MAIN0
  6
BYBLOCK
 62
0
100
AcDbLine
 10
196.7252129934858
 20
126.0188612633106
 30
0.0000000000000000
 11
197.7252129934858
 21
126.0188612633106
 31
0.0000000000000000
  0
LINE
  5
1A4
100
AcDbEntity
  8
MAIN0
  6
BYBLOCK
 62
0
100
AcDbLine
 10
194.7252129934858
 20
166.2197464874996
 30
0.0000000000000000
 11
194.7252129934858
 21
124.0188612633106
 31
0.0000000000000000
  0
MTEXT
  5
1A5
100
AcDbEntity
  8
MAIN0
  6
BYBLOCK
 62
0
100
AcDbMText
 10
192.2252129934852
 20
128.0688612156269
 30
0.0000000000000000
 40
3.099999904632568
 41
0.0000000000000000
 71
     5
 72
     1
  1
\A1;5
 11
1.000000000000000
 21
0.0000000000000000
 31
0.0000000000000000
  7
STANDARD
  0
ENDBLK
  5
1A6
100
AcDbEntity
  8
MAIN0
  6
CONTINUOUS
 62
3
100
AcDbBlockEnd
  0
BLOCK
  5
1A8
100
AcDbEntity
  8
MAIN0
  6
CONTINUOUS
 62
3
100
AcDbBlockBegin
  2
*D25
 70
    65
 10
0.0
 20
0.0
 30
0.0
  0
LINE
  5
1A9
100
AcDbEntity
  8
MAIN0
  6
BYBLOCK
 62
0
100
AcDbLine
 10
194.7252129934858
 20
166.2197464874996
 30
0.0000000000000000
 11
194.7252129934858
 21
124.0188612633106
 31
0.0000000000000000
  0
LINE
  5
1AA
100
AcDbEntity
  8
MAIN0
  6
BYBLOCK
 62
0
100
AcDbLine
 10
196.7252129934858
 20
126.0188612633106
 30
0.0000000000000000
 11
229.2252129934906
 21
126.0188612633106
 31
0.0000000000000000
  0
INSERT
  5
1AB
100
AcDbEntity
  8
MAIN0
  6
BYBLOCK
 62
0
100
AcDbBlockReference
  2
_OPEN
 10
194.7252129934858
 20
126.0188612633106
 30
0.0000000000000000
 41
2.000000000000000
 42
2.000000000000000
 43
2.000000000000000
 50
180.0000000000000
  0
INSERT
  5
1AC
100
AcDbEntity
  8
MAIN0
  6
BYBLOCK
 62
0
100
AcDbBlockReference
  2
_OPEN
 10
231.2252129934906
 20
126.0188612633106
 30
0.0000000000000000
 41
2.000000000000000
 42
2.000000000000000
 43
2.000000000000000
 50
0.0000000000000000
  0
LINE
  5
1AD
100
AcDbEntity
  8
MAIN0
  6
BYBLOCK
 62
0
100
AcDbLine
 10
231.2252129934906
 20
154.3197464879495
 30
0.0000000000000000
 11
231.2252129934906
 21
124.0188612633106
 31
0.0000000000000000
  0
MTEXT
  5
1AE
100
AcDbEntity
  8
MAIN0
  6
BYBLOCK
 62
0
100
AcDbMText
 10
212.9752129934882
 20
128.0688612156269
 30
0.0000000000000000
 40
3.099999904632568
 41
0.0000000000000000
 71
     5
 72
     1
  1
\A1;36.5
 11
1.000000000000000
 21
0.0000000000000000
 31
0.0000000000000000
  7
STANDARD
  0
ENDBLK
  5
1AF
100
AcDbEntity
  8
MAIN0
  6
CONTINUOUS
 62
3
100
AcDbBlockEnd
  0
BLOCK
  5
1B1
100
AcDbEntity
  8
MAIN0
  6
CONTINUOUS
 62
3
100
AcDbBlockBegin
  2
*D26
 70
    65
 10
0.0
 20
0.0
 30
0.0
  0
LINE
  5
1B2
100
AcDbEntity
  8
MAIN0
  6
BYBLOCK
 62
0
100
AcDbLine
 10
231.2252129934906
 20
154.3197464879495
 30
0.0000000000000000
 11
231.2252129934906
 21
124.0188612633106
 31
0.0000000000000000
  0
LINE
  5
1B3
100
AcDbEntity
  8
MAIN0
  6
BYBLOCK
 62
0
100
AcDbLine
 10
231.2252129934906
 20
126.0188612633106
 30
0.0000000000000000
 11
231.7252129934813
 21
126.0188612633106
 31
0.0000000000000000
  0
INSERT
  5
1B4
100
AcDbEntity
  8
MAIN0
  6
BYBLOCK
 62
0
100
AcDbBlockReference
  2
_OPEN
 10
231.2252129934906
 20
126.0188612633106
 30
0.0000000000000000
 41
2.000000000000000
 42
2.000000000000000
 43
2.000000000000000
 50
0.0000000000000000
  0
INSERT
  5
1B5
100
AcDbEntity
  8
MAIN0
  6
BYBLOCK
 62
0
100
AcDbBlockReference
  2
_OPEN
 10
231.7252129934813
 20
126.0188612633106
 30
0.0000000000000000
 41
2.000000000000000
 42
2.000000000000000
 43
2.000000000000000
 50
180.0000000000000
  0
LINE
  5
1B6
100
AcDbEntity
  8
MAIN0
  6
BYBLOCK
 62
0
100
AcDbLine
 10
229.2252129934906
 20
126.0188612633106
 30
0.0000000000000000
 11
228.2252129934906
 21
126.0188612633106
 31
0.0000000000000000
  0
LINE
  5
1B7
100
AcDbEntity
  8
MAIN0
  6
BYBLOCK
 62
0
100
AcDbLine
 10
233.7252129934813
 20
126.0188612633106
 30
0.0000000000000000
 11
240.7257556341673
 21
126.0188612633106
 31
0.0000000000000000
  0
LINE
  5
1B8
100
AcDbEntity
  8
MAIN0
  6
BYBLOCK
 62
0
100
AcDbLine
 10
231.7252129934813
 20
177.3197464874996
 30
0.0000000000000000
 11
231.7252129934813
 21
124.0188612633106
 31
0.0000000000000000
  0
MTEXT
  5
1B9
100
AcDbEntity
  8
MAIN0
  6
BYBLOCK
 62
0
100
AcDbMText
 10
238.0757552688752
 20
128.0688612156269
 30
0.0000000000000000
 40
3.099999904632568
 41
0.0000000000000000
 71
     5
 72
     1
  1
\A1;0.5
 11
1.000000000000000
 21
0.0000000000000000
 31
0.0000000000000000
  7
STANDARD
  0
ENDBLK
  5
1BA
100
AcDbEntity
  8
MAIN0
  6
CONTINUOUS
 62
3
100
AcDbBlockEnd
  0
BLOCK
  5
1BC
100
AcDbEntity
  8
MAIN0
  6
CONTINUOUS
 62
3
100
AcDbBlockBegin
  2
*D27
 70
    65
 10
0.0
 20
0.0
 30
0.0
  0
LINE
  5
1BD
100
AcDbEntity
  8
MAIN0
  6
BYBLOCK
 62
0
100
AcDbLine
 10
194.7252129934858
 20
166.2197464874996
 30
0.0000000000000000
 11
194.7252129934858
 21
132.8313695114716
 31
0.0000000000000000
  0
LINE
  5
1BE
100
AcDbEntity
  8
MAIN0
  6
BYBLOCK
 62
0
100
AcDbLine
 10
196.7252129934858
 20
134.8313695114716
 30
0.0000000000000000
 11
206.7252129934893
 21
134.8313695114716
 31
0.0000000000000000
  0
INSERT
  5
1BF
100
AcDbEntity
  8
MAIN0
  6
BYBLOCK
 62
0
100
AcDbBlockReference
  2
_OPEN
 10
194.7252129934858
 20
134.8313695114716
 30
0.0000000000000000
 41
2.000000000000000
 42
2.000000000000000
 43
2.000000000000000
 50
180.0000000000000
  0
INSERT
  5
1C0
100
AcDbEntity
  8
MAIN0
  6
BYBLOCK
 62
0
100
AcDbBlockReference
  2
_OPEN
 10
208.7252129934893
 20
134.8313695114716
 30
0.0000000000000000
 41
2.000000000000000
 42
2.000000000000000
 43
2.000000000000000
 50
0.0000000000000000
  0
LINE
  5
1C1
100
AcDbEntity
  8
MAIN0
  6
BYBLOCK
 62
0
100
AcDbLine
 10
208.7252129934893
 20
150.2197464874996
 30
0.0000000000000000
 11
208.7252129934893
 21
132.8313695114716
 31
0.0000000000000000
  0
MTEXT
  5
1C2
100
AcDbEntity
  8
MAIN0
  6
BYBLOCK
 62
0
100
AcDbMText
 10
201.7252129934876
 20
136.8813694637879
 30
0.0000000000000000
 40
3.099999904632568
 41
0.0000000000000000
 71
     5
 72
     1
  1
\A1;14
 11
1.000000000000000
 21
0.0000000000000000
 31
0.0000000000000000
  7
STANDARD
  0
ENDBLK
  5
1C3
100
AcDbEntity
  8
MAIN0
  6
CONTINUOUS
 62
3
100
AcDbBlockEnd
  0
ENDSEC
  0
SECTION
  2
ENTITIES
  0
LINE
  5
46
100
AcDbEntity
  8
MAIN0
  6
CENTER
 62
3
100
AcDbLine
 10
185.2353614386521
 20
196.1197464994206
 30
0.0000000000000000
 11
235.7658572110364
 21
196.1197464994206
 31
0.0000000000000000
  0
LINE
  5
47
100
AcDbEntity
  8
MAIN0
  6
CENTER
 62
3
100
AcDbLine
 10
86.72521299349151
 20
143.4769026480018
 30
0.0000000000000000
 11
86.72521299349168
 21
248.7028456515116
 31
0.0000000000000000
  0
LINE
  5
48
100
AcDbEntity
  8
MAIN0
  6
CENTER
 62
3
100
AcDbLine
 10
141.0430214614896
 20
196.1197464994207
 30
0.0000000000000000
 11
32.82486969962997
 21
196.1197464994209
 31
0.0000000000000000
  0
CIRCLE
  5
49
100
AcDbEntity
  8
MAIN0
  6
CONTINUOUS
 62
3
100
AcDbCircle
 10
86.72521299349160
 20
196.1197464994210
 30
0.0000000000000000
 40
45.09999999999960
  0
CIRCLE
  5
4A
100
AcDbEntity
  8
MAIN0
  6
CONTINUOUS
 62
3
100
AcDbCircle
 10
86.72521299349160
 20
196.1197464994210
 30
0.0000000000000000
 40
48.99999999999957
  0
LINE
  5
4B
100
AcDbEntity
  8
MAIN0
  6
CENTER
 62
3
100
AcDbLine
 10
57.10952147182684
 20
179.0211190274214
 30
0.0000000000000000
 11
111.5594797563274
 21
210.4578171002738
 31
0.0000000000000000
  0
LINE
  5
4C
100
AcDbEntity
  8
MAIN0
  6
CENTER
 62
3
100
AcDbLine
 10
116.2073332859813
 20
179.0982364125414
 30
0.0000000000000000
 11
61.83909290647046
 21
210.4877546309506
 31
0.0000000000000000
  0
DIMENSION
  5
55
100
AcDbEntity
  8
MAIN0
  6
CONTINUOUS
 62
3
100
AcDbDimension
  2
*D0
 10
180.5355669034116
 20
179.1197464994206
 30
0.0000000000000000
 11
180.0355669034116
 21
189.0447463623299
 31
0.0000000000000000
 70
32
  1
\A1;\U+220534h7\H0.903226x;\S　0^ －0.025;
  3
MAIN001
100
AcDbAlignedDimension
 13
191.1108536395366
 23
213.1197464994206
 33
0.0000000000000000
 14
191.1108536395366
 24
179.1197464994206
 34
0.0000000000000000
 50
90.00000000000000
100
AcDbRotatedDimension
1001
ACAD
1000
DSTYLE
1002
{
1070
   173
1070
     1
1070
     6
1000
_OPEN
1070
     7
1000
_OPEN
1070
    41
1040
2.000000
1070
   272
1070
     3
1070
    47
1040
0.000000
1070
    48
1040
0.025000
1070
    71
1070
     1
1070
   340
1005
56
1002
}
  0
DIMENSION
  5
5F
100
AcDbEntity
  8
MAIN0
  6
CONTINUOUS
 62
3
100
AcDbDimension
  2
*D1
 10
154.5315235004889
 20
245.1197464994206
 30
0.0000000000000000
 11
154.0315235004889
 21
196.1197464994206
 31
0.0000000000000000
 70
32
  1
\A1;\U+220598
  3
MAIN001
100
AcDbAlignedDimension
 13
207.1252129934899
 23
147.1197464994206
 33
0.0000000000000000
 14
207.1252129934899
 24
245.1197464994206
 34
0.0000000000000000
 50
90.00000000000000
100
AcDbRotatedDimension
1001
ACAD
1000
DSTYLE
1002
{
1070
   173
1070
     1
1070
     6
1000
_OPEN
1070
     7
1000
_OPEN
1070
    41
1040
2.000000
1002
}
  0
DIMENSION
  5
68
100
AcDbEntity
  8
MAIN0
  6
CONTINUOUS
 62
3
100
AcDbDimension
  2
*D2
 10
194.7252129934791
 20
264.4835461869751
 30
0.0000000000000000
 11
213.4752129934828
 21
264.9835461869751
 31
0.0000000000000000
 70
32
  3
MAIN001
100
AcDbAlignedDimension
 13
232.2252129934866
 23
245.4197464989712
 33
0.0000000000000000
 14
194.7252129934791
 24
228.2197464994266
 34
0.0000000000000000
100
AcDbRotatedDimension
1001
ACAD
1000
DSTYLE
1002
{
1070
   173
1070
     1
1070
     6
1000
_OPEN
1070
     7
1000
_OPEN
1070
    41
1040
2.000000
1002
}
  0
DIMENSION
  5
71
100
AcDbEntity
  8
MAIN0
  6
CONTINUOUS
 62
3
100
AcDbDimension
  2
*D3
 10
256.7628233098296
 20
196.1197464994206
 30
0.0000000000000000
 11
256.2628233098296
 21
215.1197464992167
 31
0.0000000000000000
 70
32
  1
\A1;MAX 38
  3
MAIN001
100
AcDbAlignedDimension
 13
235.0008666912766
 23
234.1197464990129
 33
0.0000000000000000
 14
235.7658572110364
 24
196.1197464994206
 34
0.0000000000000000
 50
90.00000000000000
100
AcDbRotatedDimension
1001
ACAD
1000
DSTYLE
1002
{
1070
   173
1070
     1
1070
     6
1000
_OPEN
1070
     7
1000
_OPEN
1070
    41
1040
2.000000
1002
}
  0
MTEXT
  5
72
100
AcDbEntity
  8
MAIN0
  6
CONTINUOUS
 62
3
100
AcDbMText
 10
257.3179334431738
 20
208.5486182372030
 30
0.0000000000000000
 40
3.099999904632568
 41
0.0000000000000000
 71
     1
 72
     1
  1
{\H0.66x;{MIN 30.2}}
 11
6.123233995736766e-017
 21
1.000000000000000
 31
0.0000000000000000
  7
STANDARD
  0
DIMENSION
  5
7D
100
AcDbEntity
  8
MAIN0
  6
CONTINUOUS
 62
3
100
AcDbDimension
  2
*D4
 10
241.7049739195674
 20
231.1197464989713
 30
0.0000000000000000
 11
241.2049739195674
 21
249.8064473360754
 31
0.0000000000000000
 70
160
  1
\A1;6H8
  3
MAIN001
100
AcDbAlignedDimension
 13
232.0252129934866
 23
237.1197464989713
 33
0.0000000000000000
 14
232.0252129934866
 24
231.1197464989713
 34
0.0000000000000000
 50
90.00000000000000
100
AcDbRotatedDimension
1001
ACAD
1000
DSTYLE
1002
{
1070
   173
1070
     1
1070
     6
1000
_OPEN
1070
     7
1000
_OPEN
1070
    41
1040
2.000000
1070
   287
1070
     0
1002
}
  0
DIMENSION
  5
86
100
AcDbEntity
  8
MAIN0
  6
CONTINUOUS
 62
3
100
AcDbDimension
  2
*D5
 10
250.6927343216665
 20
226.1197464990590
 30
0.0000000000000000
 11
250.1927343216665
 21
237.7134247970909
 31
0.0000000000000000
 70
160
  3
MAIN001
100
AcDbAlignedDimension
 13
234.0350236197724
 23
242.1197464989733
 33
0.0000000000000000
 14
234.0350236197745
 24
226.1197464990590
 34
0.0000000000000000
 50
90.00000000000000
100
AcDbRotatedDimension
1001
ACAD
1000
DSTYLE
1002
{
1070
   173
1070
     1
1070
     6
1000
_OPEN
1070
     7
1000
_OPEN
1070
    41
1040
2.000000
1002
}
  0
DIMENSION
  5
91
100
AcDbEntity
  8
MAIN0
  6
CONTINUOUS
 62
3
100
AcDbDimension
  2
*D6
 10
250.6927343216665
 20
242.1197464989733
 30
0.0000000000000000
 11
250.1927343216665
 21
252.2572546425680
 31
0.0000000000000000
 70
160
  3
MAIN001
100
AcDbAlignedDimension
 13
232.0252129934866
 23
245.6197464989712
 33
0.0000000000000000
 14
234.0350236197724
 24
242.1197464989733
 34
0.0000000000000000
 50
90.00000000000000
100
AcDbRotatedDimension
1001
ACAD
1000
DSTYLE
1002
{
1070
   173
1070
     1
1070
     6
1000
_OPEN
1070
     7
1000
_OPEN
1070
    41
1040
2.000000
1070
   287
1070
     0
1002
}
  0
DIMENSION
  5
9C
100
AcDbEntity
  8
MAIN0
  6
CONTINUOUS
 62
3
100
AcDbDimension
  2
*D7
 10
228.7252129934865
 20
257.1132138871801
 30
0.0000000000000000
 11
236.8485196564857
 21
257.6132138871801
 31
0.0000000000000000
 70
160
  3
MAIN001
100
AcDbAlignedDimension
 13
232.2252129934866
 23
245.4197464989712
 33
0.0000000000000000
 14
228.7252129934865
 24
237.1197464989713
 34
0.0000000000000000
100
AcDbRotatedDimension
1001
ACAD
1000
DSTYLE
1002
{
1070
   173
1070
     1
1070
     6
1000
_OPEN
1070
     7
1000
_OPEN
1070
    41
1040
2.000000
1070
   287
1070
     0
1002
}
  0
LINE
  5
9D
100
AcDbEntity
  8
MAIN0
  6
CENTER
 62
3
100
AcDbLine
 10
321.7252129934812
 20
143.4769026480016
 30
0.0000000000000000
 11
321.7252129934812
 21
248.7028456515114
 31
0.0000000000000000
  0
LINE
  5
9E
100
AcDbEntity
  8
MAIN0
  6
CENTER
 62
3
100
AcDbLine
 10
266.9465374451300
 20
196.1197464994206
 30
0.0000000000000000
 11
375.6255562873428
 21
196.1197464994206
 31
0.0000000000000000
  0
LINE
  5
9F
100
AcDbEntity
  8
MAIN0
  6
CONTINUOUS
 62
3
100
AcDbLine
 10
314.9752129934812
 20
214.1197464994206
 30
0.0000000000000000
 11
314.9752129934812
 21
244.6525961993918
 31
0.0000000000000000
  0
LINE
  5
A0
100
AcDbEntity
  8
MAIN0
  6
CONTINUOUS
 62
3
100
AcDbLine
 10
299.7252129934812
 20
214.1197464994206
 30
0.0000000000000000
 11
314.9752129934812
 21
214.1197464994206
 31
0.0000000000000000
  0
LINE
  5
A1
100
AcDbEntity
  8
MAIN0
  6
CONTINUOUS
 62
3
100
AcDbLine
 10
297.7252129934812
 20
153.3997277728329
 30
0.0000000000000000
 11
297.7252129934812
 21
238.8397652260082
 31
0.0000000000000000
  0
LINE
  5
A2
100
AcDbEntity
  8
MAIN0
  6
CONTINUOUS
 62
3
100
AcDbLine
 10
300.7252129934812
 20
214.1197464994206
 30
0.0000000000000000
 11
300.7252129934812
 21
240.3916337417779
 31
0.0000000000000000
  0
LINE
  5
A3
100
AcDbEntity
  8
MAIN0
  6
CONTINUOUS
 62
3
100
AcDbLine
 10
299.7252129934812
 20
178.1197464994206
 30
0.0000000000000000
 11
299.7252129934812
 21
214.1197464994206
 31
0.0000000000000000
  0
LINE
  5
A4
100
AcDbEntity
  8
MAIN0
  6
CONTINUOUS
 62
3
100
AcDbLine
 10
328.4752129934812
 20
214.1197464994206
 30
0.0000000000000000
 11
328.4752129934812
 21
244.6525961993918
 31
0.0000000000000000
  0
LINE
  5
A5
100
AcDbEntity
  8
MAIN0
  6
CONTINUOUS
 62
3
100
AcDbLine
 10
345.7252129934812
 20
153.3997277728329
 30
0.0000000000000000
 11
345.7252129934812
 21
238.8397652260082
 31
0.0000000000000000
  0
LINE
  5
A6
100
AcDbEntity
  8
MAIN0
  6
CONTINUOUS
 62
3
100
AcDbLine
 10
342.7252129934812
 20
214.1197464994206
 30
0.0000000000000000
 11
342.7252129934812
 21
240.3916337417779
 31
0.0000000000000000
  0
LINE
  5
A7
100
AcDbEntity
  8
MAIN0
  6
CONTINUOUS
 62
3
100
AcDbLine
 10
343.7252129934812
 20
214.1197464994206
 30
0.0000000000000000
 11
328.4752129934812
 21
214.1197464994206
 31
0.0000000000000000
  0
LINE
  5
A8
100
AcDbEntity
  8
MAIN0
  6
CONTINUOUS
 62
3
100
AcDbLine
 10
343.7252129934812
 20
178.1197464994206
 30
0.0000000000000000
 11
343.7252129934812
 21
214.1197464994206
 31
0.0000000000000000
  0
LINE
  5
A9
100
AcDbEntity
  8
MAIN0
  6
CENTER
 62
3
100
AcDbLine
 10
338.2252129934506
 20
216.5085699553513
 30
0.0000000000000000
 11
338.2252129934506
 21
226.1589758700678
 31
0.0000000000000000
  0
LINE
  5
AA
100
AcDbEntity
  8
MAIN0
  6
CENTER
 62
3
100
AcDbLine
 10
332.5843223372314
 20
221.1197464994206
 30
0.0000000000000000
 11
347.7680385502076
 21
221.1197464994206
 31
0.0000000000000000
  0
CIRCLE
  5
AB
100
AcDbEntity
  8
MAIN0
  6
CONTINUOUS
 62
3
100
AcDbCircle
 10
338.2252129934506
 20
221.1197464994206
 30
0.0000000000000000
 40
4.000000000000000
  0
LINE
  5
AC
100
AcDbEntity
  8
MAIN0
  6
CENTER
 62
3
100
AcDbLine
 10
305.2252129934504
 20
216.5085699553513
 30
0.0000000000000000
 11
305.2252129934504
 21
226.1589758700678
 31
0.0000000000000000
  0
LINE
  5
AD
100
AcDbEntity
  8
MAIN0
  6
CENTER
 62
3
100
AcDbLine
 10
310.8661036496696
 20
221.1197464994206
 30
0.0000000000000000
 11
295.6823874366934
 21
221.1197464994206
 31
0.0000000000000000
  0
CIRCLE
  5
AE
100
AcDbEntity
  8
MAIN0
  6
CONTINUOUS
 62
3
100
AcDbCircle
 10
305.2252129934504
 20
221.1197464994206
 30
0.0000000000000000
 40
4.000000000000000
  0
ARC
  5
AF
100
AcDbEntity
  8
MAIN0
  6
CONTINUOUS
 62
3
100
AcDbCircle
 10
321.7252129934812
 20
196.1197464994206
 30
0.0000000000000000
 40
49.00000000000000
100
AcDbArc
 50
97.91796442774701
 51
262.0820355722530
  0
ARC
  5
B0
100
AcDbEntity
  8
MAIN0
  6
CONTINUOUS
 62
3
100
AcDbCircle
 10
321.7252129934812
 20
196.1197464994206
 30
0.0000000000000000
 40
49.00000000000000
100
AcDbArc
 50
277.9179644277470
 51
442.0820355722530
  0
LINE
  5
B1
100
AcDbEntity
  8
MAIN0
  6
CONTINUOUS
 62
3
100
AcDbLine
 10
314.9752129934812
 20
178.1197464994206
 30
0.0000000000000000
 11
314.9752129934812
 21
147.5868967994493
 31
0.0000000000000000
  0
LINE
  5
B2
100
AcDbEntity
  8
MAIN0
  6
CENTER
 62
3
100
AcDbLine
 10
310.8661036496696
 20
171.1197464994206
 30
0.0000000000000000
 11
295.4168080127590
 21
171.1197464994206
 31
0.0000000000000000
  0
LINE
  5
B3
100
AcDbEntity
  8
MAIN0
  6
CENTER
 62
3
100
AcDbLine
 10
305.2252129934504
 20
175.7309230434898
 30
0.0000000000000000
 11
305.2252129934504
 21
166.0805171287733
 31
0.0000000000000000
  0
CIRCLE
  5
B4
100
AcDbEntity
  8
MAIN0
  6
CONTINUOUS
 62
3
100
AcDbCircle
 10
305.2252129934504
 20
171.1197464994206
 30
0.0000000000000000
 40
4.000000000000000
  0
LINE
  5
B5
100
AcDbEntity
  8
MAIN0
  6
CONTINUOUS
 62
3
100
AcDbLine
 10
300.7252129934812
 20
178.1197464994206
 30
0.0000000000000000
 11
300.7252129934812
 21
151.8478592570633
 31
0.0000000000000000
  0
LINE
  5
B6
100
AcDbEntity
  8
MAIN0
  6
CONTINUOUS
 62
3
100
AcDbLine
 10
299.7252129934812
 20
178.1197464994206
 30
0.0000000000000000
 11
314.9752129934812
 21
178.1197464994206
 31
0.0000000000000000
  0
LINE
  5
B7
100
AcDbEntity
  8
MAIN0
  6
CONTINUOUS
 62
3
100
AcDbLine
 10
328.4752129934812
 20
178.1197464994206
 30
0.0000000000000000
 11
328.4752129934812
 21
147.5868967994493
 31
0.0000000000000000
  0
LINE
  5
B8
100
AcDbEntity
  8
MAIN0
  6
CONTINUOUS
 62
3
100
AcDbLine
 10
343.7252129934812
 20
178.1197464994206
 30
0.0000000000000000
 11
328.4752129934812
 21
178.1197464994206
 31
0.0000000000000000
  0
LINE
  5
B9
100
AcDbEntity
  8
MAIN0
  6
CENTER
 62
3
100
AcDbLine
 10
338.2252129934506
 20
175.7309230434898
 30
0.0000000000000000
 11
338.2252129934506
 21
166.0805171287733
 31
0.0000000000000000
  0
LINE
  5
BA
100
AcDbEntity
  8
MAIN0
  6
CENTER
 62
3
100
AcDbLine
 10
332.5843223372314
 20
171.1197464994206
 30
0.0000000000000000
 11
348.8327300959967
 21
171.1197464994206
 31
0.0000000000000000
  0
CIRCLE
  5
BB
100
AcDbEntity
  8
MAIN0
  6
CONTINUOUS
 62
3
100
AcDbCircle
 10
338.2252129934506
 20
171.1197464994206
 30
0.0000000000000000
 40
4.000000000000000
  0
LINE
  5
BC
100
AcDbEntity
  8
MAIN0
  6
CONTINUOUS
 62
3
100
AcDbLine
 10
342.7252129934812
 20
178.1197464994206
 30
0.0000000000000000
 11
342.7252129934812
 21
151.8478592570633
 31
0.0000000000000000
  0
DIMENSION
  5
C5
100
AcDbEntity
  8
MAIN0
  6
CONTINUOUS
 62
3
100
AcDbDimension
  2
*D8
 10
305.2252129934504
 20
140.7283413201733
 30
0.0000000000000000
 11
313.4752129934658
 21
141.2283413201733
 31
0.0000000000000000
 70
32
  3
MAIN001
100
AcDbAlignedDimension
 13
321.7252129934812
 23
143.4769026480016
 33
0.0000000000000000
 14
305.2252129934504
 24
166.0805171287733
 34
0.0000000000000000
100
AcDbRotatedDimension
1001
ACAD
1000
DSTYLE
1002
{
1070
   173
1070
     1
1070
     6
1000
_OPEN
1070
     7
1000
_OPEN
1070
    41
1040
2.000000
1002
}
  0
DIMENSION
  5
CE
100
AcDbEntity
  8
MAIN0
  6
CONTINUOUS
 62
3
100
AcDbDimension
  2
*D9
 10
321.7252129934812
 20
140.7283413201733
 30
0.0000000000000000
 11
329.9752129934659
 21
141.2283413201733
 31
0.0000000000000000
 70
32
  3
MAIN001
100
AcDbAlignedDimension
 13
338.2252129934506
 23
166.0805171287733
 33
0.0000000000000000
 14
321.7252129934812
 24
143.4769026480016
 34
0.0000000000000000
100
AcDbRotatedDimension
1001
ACAD
1000
DSTYLE
1002
{
1070
   173
1070
     1
1070
     6
1000
_OPEN
1070
     7
1000
_OPEN
1070
    41
1040
2.000000
1002
}
  0
DIMENSION
  5
D6
100
AcDbEntity
  8
MAIN0
  6
CONTINUOUS
 62
3
100
AcDbDimension
  2
*D10
 10
289.6724656761652
 20
171.1197464994206
 30
0.0000000000000000
 11
289.1724656761652
 21
183.6197464994206
 31
0.0000000000000000
 70
32
  3
MAIN001
100
AcDbAlignedDimension
 13
266.9465374451300
 23
196.1197464994206
 33
0.0000000000000000
 14
295.4168080127590
 24
171.1197464994206
 34
0.0000000000000000
 50
90.00000000000000
100
AcDbRotatedDimension
1001
ACAD
1000
DSTYLE
1002
{
1070
   173
1070
     1
1070
     6
1000
_OPEN
1070
     7
1000
_OPEN
1070
    41
1040
2.000000
1002
}
  0
DIMENSION
  5
DE
100
AcDbEntity
  8
MAIN0
  6
CONTINUOUS
 62
3
100
AcDbDimension
  2
*D11
 10
289.6724656761652
 20
196.1197464994206
 30
0.0000000000000000
 11
289.1724656761652
 21
208.6197464994206
 31
0.0000000000000000
 70
32
  3
MAIN001
100
AcDbAlignedDimension
 13
295.6823874366934
 23
221.1197464994206
 33
0.0000000000000000
 14
266.9465374451300
 24
196.1197464994206
 34
0.0000000000000000
 50
90.00000000000000
100
AcDbRotatedDimension
1001
ACAD
1000
DSTYLE
1002
{
1070
   173
1070
     1
1070
     6
1000
_OPEN
1070
     7
1000
_OPEN
1070
    41
1040
2.000000
1002
}
  0
DIMENSION
  5
E7
100
AcDbEntity
  8
MAIN0
  6
CONTINUOUS
 62
3
100
AcDbDimension
  2
*D12
 10
375.6255562873428
 20
196.1197464994206
 30
0.0000000000000000
 11
363.9674468188604
 21
153.8775126740414
 31
0.0000000000000000
 70
162
  3
MAIN001
100
AcDb2LineAngularDimension
 13
321.7252129934812
 23
143.4769026480016
 33
0.0000000000000000
 14
321.7252129934812
 24
144.4769026480016
 34
0.0000000000000000
 15
374.6255562873428
 25
196.1197464994206
 35
0.0000000000000000
 16
364.3210002094536
 26
153.5239592834481
 36
0.0000000000000000
1001
ACAD
1000
DSTYLE
1002
{
1070
   173
1070
     1
1070
     6
1000
_OPEN
1070
     7
1000
_OPEN
1070
    41
1040
2.000000
1002
}
  0
DIMENSION
  5
F0
100
AcDbEntity
  8
MAIN0
  6
CONTINUOUS
 62
3
100
AcDbDimension
  2
*D13
 10
321.7252129934812
 20
248.7028456515114
 30
0.0000000000000000
 11
364.6745536000469
 21
239.0690871059863
 31
0.0000000000000000
 70
162
  3
MAIN001
100
AcDb2LineAngularDimension
 13
375.6255562873428
 23
196.1197464994206
 33
0.0000000000000000
 14
374.6255562873428
 24
196.1197464994206
 34
0.0000000000000000
 15
321.7252129934812
 25
247.7028456515114
 35
0.0000000000000000
 16
364.3210002094536
 26
238.7155337153930
 36
0.0000000000000000
1001
ACAD
1000
DSTYLE
1002
{
1070
   173
1070
     1
1070
     6
1000
_OPEN
1070
     7
1000
_OPEN
1070
    41
1040
2.000000
1002
}
  0
DIMENSION
  5
FA
100
AcDbEntity
  8
MAIN0
  6
CONTINUOUS
 62
3
100
AcDbDimension
  2
*D14
 10
314.9752129934812
 20
252.9011356183756
 30
0.0000000000000000
 11
307.0320715866316
 21
253.4011356183756
 31
0.0000000000000000
 70
160
  3
MAIN001
100
AcDbAlignedDimension
 13
328.4752129934812
 23
245.2197464989848
 33
0.0000000000000000
 14
314.9752129934812
 24
245.2197464989874
 34
0.0000000000000000
100
AcDbRotatedDimension
1001
ACAD
1000
DSTYLE
1002
{
1070
   173
1070
     1
1070
     6
1000
_OPEN
1070
     7
1000
_OPEN
1070
    41
1040
2.000000
1002
}
  0
LEADER
  5
FB
100
AcDbEntity
  8
MAIN0
  6
CONTINUOUS
 62
3
100
AcDbLeader
  3
MAIN001
 73
     0
 74
     0
 75
     1
 40
3.099999904632568
 41
32.38100088930128
 76
     3
 10
323.5664812731507
 20
226.9005993164157
 30
0.0000000000000000
 10
367.7573841396527
 20
245.6412637721532
 30
0.0000000000000000
 10
369.6823840838628
 20
245.6412637721532
 30
0.0000000000000000
340
FC
213
0.0000000000000000
223
-0.5000000000000000
233
0.0000000000000000
1001
ACAD
1000
DSTYLE
1002
{
1070
   147
1040
0.0
1070
    77
1070
     1
1070
   173
1070
     1
1070
     6
1000
_OPEN
1070
     7
1000
_OPEN
1002
}
  0
MTEXT
  5
FC
102
{ACAD_REACTORS
330
FB
102
}
100
AcDbEntity
  8
MAIN0
  6
CONTINUOUS
 62
3
100
AcDbMText
 10
369.6833840838628
 20
249.2412636767858
 30
0.0000000000000000
 40
3.099999904632568
 41
0.0000000000000000
 71
     1
 72
     1
  1
{\H0.93x;{2X2-M4 ねじ深7\PDepth 7}}
 11
1.000000000000000
 21
0.0000000000000000
 31
0.0000000000000000
  7
KNJYOKO
  0
DIMENSION
  5
105
100
AcDbEntity
  8
MAIN0
  6
CONTINUOUS
 62
3
100
AcDbDimension
  2
*D15
 10
297.7252129934812
 20
259.3939917929941
 30
0.0000000000000000
 11
321.7252129934812
 21
259.8939917929941
 31
0.0000000000000000
 70
32
  3
MAIN001
100
AcDbAlignedDimension
 13
345.7252129934812
 23
238.8397652260082
 33
0.0000000000000000
 14
297.7252129934812
 24
238.8397652260082
 34
0.0000000000000000
100
AcDbRotatedDimension
1001
ACAD
1000
DSTYLE
1002
{
1070
   173
1070
     1
1070
     6
1000
_OPEN
1070
     7
1000
_OPEN
1070
    41
1040
2.000000
1002
}
  0
LINE
  5
106
100
AcDbEntity
  8
MAIN0
  6
CONTINUOUS
 62
3
100
AcDbLine
 10
328.4752129934282
 20
108.8790616075517
 30
0.0000000000000000
 11
342.7252129934282
 21
108.8790616075596
 31
0.0000000000000000
  0
LINE
  5
107
100
AcDbEntity
  8
MAIN0
  6
CONTINUOUS
 62
3
100
AcDbLine
 10
345.7252129934282
 20
93.37906160756128
 30
0.0000000000000000
 11
345.7252129934282
 21
105.8790616075613
 31
0.0000000000000000
  0
LINE
  5
108
100
AcDbEntity
  8
MAIN0
  6
CONTINUOUS
 62
3
100
AcDbLine
 10
342.7252129934282
 20
108.8790616075597
 30
0.0000000000000000
 11
345.7252129934282
 21
105.8790616075613
 31
0.0000000000000000
  0
LINE
  5
109
100
AcDbEntity
  8
MAIN0
  6
CONTINUOUS
 62
3
100
AcDbLine
 10
328.4752129934282
 20
98.87906160755172
 30
0.0000000000000000
 11
328.4752129934282
 21
109.8790616075517
 31
0.0000000000000000
  0
LINE
  5
10A
100
AcDbEntity
  8
MAIN0
  6
CONTINUOUS
 62
3
100
AcDbLine
 10
331.9752129934282
 20
91.87906160755367
 30
0.0000000000000000
 11
331.9752129934282
 21
98.87906160755365
 31
0.0000000000000000
  0
LINE
  5
10B
100
AcDbEntity
  8
MAIN0
  6
CONTINUOUS
 62
3
100
AcDbLine
 10
328.4752129934282
 20
98.87906160755172
 30
0.0000000000000000
 11
331.9752129934282
 21
98.87906160755367
 31
0.0000000000000000
  0
LINE
  5
10C
100
AcDbEntity
  8
MAIN0
  6
CONTINUOUS
 62
3
100
AcDbLine
 10
311.4752129934282
 20
91.87906160754233
 30
0.0000000000000000
 11
331.9752129934282
 21
91.87906160755368
 31
0.0000000000000000
  0
LINE
  5
10D
100
AcDbEntity
  8
MAIN0
  6
CONTINUOUS
 62
3
100
AcDbLine
 10
314.9752129934282
 20
109.8790616075442
 30
0.0000000000000000
 11
328.4752129934282
 21
109.8790616075517
 31
0.0000000000000000
  0
LINE
  5
10E
100
AcDbEntity
  8
MAIN0
  6
CENTER
 62
3
100
AcDbLine
 10
321.7252129934282
 20
62.79469176937317
 30
0.0000000000000000
 11
321.7252129934282
 21
111.7899692920782
 31
0.0000000000000000
  0
LINE
  5
10F
100
AcDbEntity
  8
MAIN0
  6
CONTINUOUS
 62
3
100
AcDbLine
 10
345.7252129934282
 20
93.37906160756128
 30
0.0000000000000000
 11
370.3252129934282
 21
93.37906160757491
 31
0.0000000000000000
  0
LINE
  5
110
100
AcDbEntity
  8
MAIN0
  6
CONTINUOUS
 62
3
100
AcDbLine
 10
343.7252129934282
 20
107.8790616075602
 30
0.0000000000000000
 11
343.7252129934282
 21
109.3790616075602
 31
0.0000000000000000
  0
LINE
  5
111
100
AcDbEntity
  8
MAIN0
  6
CONTINUOUS
 62
3
100
AcDbLine
 10
328.4752129934279
 20
109.3790616075517
 30
0.0000000000000000
 11
343.7252129934282
 21
109.3790616075602
 31
0.0000000000000000
  0
LINE
  5
112
100
AcDbEntity
  8
MAIN0
  6
CONTINUOUS
 62
3
100
AcDbLine
 10
314.9752129934282
 20
108.8790616075517
 30
0.0000000000000000
 11
300.7252129934282
 21
108.8790616075596
 31
0.0000000000000000
  0
LINE
  5
113
100
AcDbEntity
  8
MAIN0
  6
CONTINUOUS
 62
3
100
AcDbLine
 10
297.7252129934282
 20
93.37906160756130
 30
0.0000000000000000
 11
297.7252129934282
 21
105.8790616075613
 31
0.0000000000000000
  0
LINE
  5
114
100
AcDbEntity
  8
MAIN0
  6
CONTINUOUS
 62
3
100
AcDbLine
 10
300.7252129934282
 20
108.8790616075597
 30
0.0000000000000000
 11
297.7252129934282
 21
105.8790616075613
 31
0.0000000000000000
  0
LINE
  5
115
100
AcDbEntity
  8
MAIN0
  6
CONTINUOUS
 62
3
100
AcDbLine
 10
314.9752129934282
 20
98.87906160755173
 30
0.0000000000000000
 11
314.9752129934282
 21
109.8790616075517
 31
0.0000000000000000
  0
LINE
  5
116
100
AcDbEntity
  8
MAIN0
  6
CONTINUOUS
 62
3
100
AcDbLine
 10
311.4752129934282
 20
91.87906160755368
 30
0.0000000000000000
 11
311.4752129934282
 21
98.87906160755367
 31
0.0000000000000000
  0
LINE
  5
117
100
AcDbEntity
  8
MAIN0
  6
CONTINUOUS
 62
3
100
AcDbLine
 10
314.9752129934282
 20
98.87906160755175
 30
0.0000000000000000
 11
311.4752129934282
 21
98.87906160755370
 31
0.0000000000000000
  0
LINE
  5
118
100
AcDbEntity
  8
MAIN0
  6
CONTINUOUS
 62
3
100
AcDbLine
 10
297.7252129934282
 20
93.37906160756131
 30
0.0000000000000000
 11
273.1252129934282
 21
93.37906160757494
 31
0.0000000000000000
  0
LINE
  5
119
100
AcDbEntity
  8
MAIN0
  6
CONTINUOUS
 62
3
100
AcDbLine
 10
299.7252129934282
 20
107.8790616075602
 30
0.0000000000000000
 11
299.7252129934282
 21
109.3790616075602
 31
0.0000000000000000
  0
LINE
  5
11A
100
AcDbEntity
  8
MAIN0
  6
CONTINUOUS
 62
3
100
AcDbLine
 10
314.9752129934284
 20
109.3790616075517
 30
0.0000000000000000
 11
299.7252129934282
 21
109.3790616075602
 31
0.0000000000000000
  0
LINE
  5
11B
100
AcDbEntity
  8
MAIN0
  6
CENTER
 62
3
100
AcDbLine
 10
338.2252129934282
 20
92.51776392918383
 30
0.0000000000000000
 11
338.2252129934282
 21
111.0295133812221
 31
0.0000000000000000
  0
LINE
  5
11C
100
AcDbEntity
  8
MAIN0
  6
CENTER
 62
3
100
AcDbLine
 10
341.1721576158292
 20
102.8790616075588
 30
0.0000000000000000
 11
346.6273103406105
 21
102.8790616075618
 31
0.0000000000000000
  0
LINE
  5
11D
100
AcDbEntity
  8
MAIN0
  6
CENTER
 62
3
100
AcDbLine
 10
305.2252129934282
 20
92.51776392918384
 30
0.0000000000000000
 11
305.2252129934282
 21
111.0295133812221
 31
0.0000000000000000
  0
LINE
  5
11E
100
AcDbEntity
  8
MAIN0
  6
CENTER
 62
3
100
AcDbLine
 10
302.2782683710271
 20
102.8790616075588
 30
0.0000000000000000
 11
296.8231156462459
 21
102.8790616075618
 31
0.0000000000000000
  0
DIMENSION
  5
129
100
AcDbEntity
  8
MAIN0
  6
CONTINUOUS
 62
3
100
AcDbDimension
  2
*D16
 10
301.2252129934282
 20
113.4989806462557
 30
0.0000000000000000
 11
305.2252129934282
 21
113.9989806462557
 31
0.0000000000000000
 70
32
  1
\A1;\U+22058
  3
MAIN001
100
AcDbAlignedDimension
 13
309.2252129934282
 23
108.8790616075549
 33
0.0000000000000000
 14
301.2252129934282
 24
108.8790616075622
 34
0.0000000000000000
100
AcDbRotatedDimension
1001
ACAD
1000
DSTYLE
1002
{
1070
   173
1070
     1
1070
     6
1000
_OPEN
1070
     7
1000
_OPEN
1070
    41
1040
2.000000
1070
   287
1070
     0
1002
}
  0
DIMENSION
  5
132
100
AcDbEntity
  8
MAIN0
  6
CONTINUOUS
 62
3
100
AcDbDimension
  2
*D17
 10
284.2314201158265
 20
93.87906160756204
 30
0.0000000000000000
 11
283.7314201158265
 21
101.3790616075608
 31
0.0000000000000000
 70
32
  3
MAIN001
100
AcDbAlignedDimension
 13
300.7252129934282
 23
108.8790616075596
 33
0.0000000000000000
 14
301.2252129934282
 24
93.87906160756205
 34
0.0000000000000000
 50
90.00000000000000
100
AcDbRotatedDimension
1001
ACAD
1000
DSTYLE
1002
{
1070
   173
1070
     1
1070
     6
1000
_OPEN
1070
     7
1000
_OPEN
1070
    41
1040
2.000000
1002
}
  0
ARC
  5
133
100
AcDbEntity
  8
MAIN0
  6
CONTINUOUS
 62
3
100
AcDbCircle
 10
86.72521299308673
 20
196.1197464991871
 30
0.0000000000000000
 40
25.49999999999995
100
AcDbArc
 50
60.00000000122371
 51
120.9999999994138
  0
ARC
  5
134
100
AcDbEntity
  8
MAIN0
  6
CONTINUOUS
 62
3
100
AcDbCircle
 10
86.72521299308673
 20
196.1197464991871
 30
0.0000000000000000
 40
20.49999999999996
100
AcDbArc
 50
60.00000000122371
 51
120.9999999994390
  0
CIRCLE
  5
135
100
AcDbEntity
  8
MAIN0
  6
CONTINUOUS
 62
3
100
AcDbCircle
 10
86.72521299349160
 20
196.1197464994208
 30
0.0000000000000000
 40
13.99999999999979
  0
ARC
  5
136
100
AcDbEntity
  8
MAIN0
  6
CONTINUOUS
 62
3
100
AcDbCircle
 10
100.7252129934914
 20
196.1197464994208
 30
0.0000000000000000
 40
2.500000000000000
100
AcDbArc
 50
95.12251609978073
 51
264.8774839002193
  0
ARC
  5
137
100
AcDbEntity
  8
MAIN0
  6
CONTINUOUS
 62
3
100
AcDbCircle
 10
98.19334161361053
 20
204.1498166081030
 30
0.0000000000000000
 40
2.500000000000000
100
AcDbArc
 50
130.1225160997807
 51
299.8774839002193
  0
ARC
  5
138
100
AcDbEntity
  8
MAIN0
  6
CONTINUOUS
 62
3
100
AcDbCircle
 10
98.19334161361050
 20
188.0896763907385
 30
0.0000000000000000
 40
2.500000000000000
100
AcDbArc
 50
60.12251609978051
 51
229.8774839002191
  0
ARC
  5
139
100
AcDbEntity
  8
MAIN0
  6
CONTINUOUS
 62
3
100
AcDbCircle
 10
75.25708437337269
 20
204.1498166081031
 30
0.0000000000000000
 40
2.500000000000000
100
AcDbArc
 50
240.1225160997806
 51
409.8774839002192
  0
ARC
  5
13A
100
AcDbEntity
  8
MAIN0
  6
CONTINUOUS
 62
3
100
AcDbCircle
 10
72.72521299349182
 20
196.1197464994208
 30
0.0000000000000000
 40
2.500000000000000
100
AcDbArc
 50
275.1225160997805
 51
444.8774839002192
  0
ARC
  5
13B
100
AcDbEntity
  8
MAIN0
  6
CONTINUOUS
 62
3
100
AcDbCircle
 10
75.25708437337266
 20
188.0896763907385
 30
0.0000000000000000
 40
2.500000000000000
100
AcDbArc
 50
310.1225160997807
 51
479.8774839002193
  0
LINE
  5
13C
100
AcDbEntity
  8
MAIN0
  6
CENTER
 62
3
100
AcDbLine
 10
324.3650464611428
 20
96.37906160754953
 30
0.0000000000000000
 11
318.8183462569281
 21
96.37906160754646
 31
0.0000000000000000
  0
CIRCLE
  5
13D
100
AcDbEntity
  8
MAIN0
  6
CONTINUOUS
 62
3
100
AcDbCircle
 10
321.7252129934282
 20
96.37906160754807
 30
0.0000000000000000
 40
2.000000000000000
  0
LINE
  5
13E
100
AcDbEntity
  8
MAIN0
  6
CONTINUOUS
 62
3
100
AcDbLine
 10
272.7252129934282
 20
84.77906160757527
 30
0.0000000000000000
 11
272.7252129934282
 21
92.97906160757518
 31
0.0000000000000000
  0
LINE
  5
13F
100
AcDbEntity
  8
MAIN0
  6
CONTINUOUS
 62
3
100
AcDbLine
 10
273.1252129934282
 20
84.37906160757504
 30
0.0000000000000000
 11
370.3252129934282
 21
84.37906160752127
 31
0.0000000000000000
  0
LINE
  5
140
100
AcDbEntity
  8
MAIN0
  6
CONTINUOUS
 62
3
100
AcDbLine
 10
273.1252129934283
 20
93.37906160757497
 30
0.0000000000000000
 11
272.7252129934283
 21
92.97906160757520
 31
0.0000000000000000
  0
LINE
  5
141
100
AcDbEntity
  8
MAIN0
  6
CONTINUOUS
 62
3
100
AcDbLine
 10
272.7252129934283
 20
84.77906160757527
 30
0.0000000000000000
 11
273.1252129934283
 21
84.37906160757501
 31
0.0000000000000000
  0
LINE
  5
142
100
AcDbEntity
  8
MAIN0
  6
CONTINUOUS
 62
3
100
AcDbLine
 10
370.7252129934282
 20
84.77906160752106
 30
0.0000000000000000
 11
370.7252129934282
 21
92.97906160757515
 31
0.0000000000000000
  0
LINE
  5
143
100
AcDbEntity
  8
MAIN0
  6
CONTINUOUS
 62
3
100
AcDbLine
 10
370.3252129934282
 20
93.37906160757491
 30
0.0000000000000000
 11
370.7252129934282
 21
92.97906160757513
 31
0.0000000000000000
  0
LINE
  5
144
100
AcDbEntity
  8
MAIN0
  6
CONTINUOUS
 62
3
100
AcDbLine
 10
370.7252129934282
 20
84.77906160752106
 30
0.0000000000000000
 11
370.3252129934282
 21
84.37906160752128
 31
0.0000000000000000
  0
LINE
  5
145
100
AcDbEntity
  8
MAIN0
  6
CONTINUOUS
 62
3
100
AcDbLine
 10
350.8252129934282
 20
81.37906160753205
 30
0.0000000000000000
 11
292.6252129934282
 21
81.37906160756424
 31
0.0000000000000000
  0
LINE
  5
146
100
AcDbEntity
  8
MAIN0
  6
CONTINUOUS
 62
3
100
AcDbLine
 10
292.2252129934282
 20
81.77906160756444
 30
0.0000000000000000
 11
292.6252129934283
 21
81.37906160756421
 31
0.0000000000000000
  0
LINE
  5
147
100
AcDbEntity
  8
MAIN0
  6
CONTINUOUS
 62
3
100
AcDbLine
 10
350.8252129934282
 20
81.37906160753205
 30
0.0000000000000000
 11
351.2252129934282
 21
81.77906160753184
 31
0.0000000000000000
  0
LINE
  5
148
100
AcDbEntity
  8
MAIN0
  6
CONTINUOUS
 62
3
100
AcDbLine
 10
301.7845382475097
 20
72.37906160754532
 30
0.0000000000000000
 11
301.7845382475097
 21
77.37906160754982
 31
0.0000000000000000
  0
LINE
  5
149
100
AcDbEntity
  8
MAIN0
  6
CONTINUOUS
 62
3
100
AcDbLine
 10
341.6658877393467
 20
72.37906160754528
 30
0.0000000000000000
 11
341.6658877393467
 21
77.37906160754977
 31
0.0000000000000000
  0
ARC
  5
14A
100
AcDbEntity
  8
MAIN0
  6
CONTINUOUS
 62
3
100
AcDbCircle
 10
351.6252129934281
 20
77.77906160755072
 30
0.0000000000000000
 40
0.4000000000000000
100
AcDbArc
 50
180.0000000000000
 51
270.0000000000000
  0
LINE
  5
14B
100
AcDbEntity
  8
MAIN0
  6
HIDDEN
 62
3
100
AcDbLine
 10
276.6252129934282
 20
84.37906160757311
 30
0.0000000000000000
 11
276.6252129934282
 21
86.37906160757312
 31
0.0000000000000000
  0
LINE
  5
14C
100
AcDbEntity
  8
MAIN0
  6
HIDDEN
 62
3
100
AcDbLine
 10
366.8252129934282
 20
84.37906160752317
 30
0.0000000000000000
 11
366.8252129934282
 21
86.37906160752321
 31
0.0000000000000000
  0
LINE
  5
14D
100
AcDbEntity
  8
MAIN0
  6
HIDDEN
 62
3
100
AcDbLine
 10
292.2252129934282
 20
86.37906160756448
 30
0.0000000000000000
 11
276.6252129934283
 21
86.37906160757311
 31
0.0000000000000000
  0
LINE
  5
14E
100
AcDbEntity
  8
MAIN0
  6
HIDDEN
 62
3
100
AcDbLine
 10
366.8252129934281
 20
86.37906160752321
 30
0.0000000000000000
 11
351.2252129934282
 21
86.37906160753184
 31
0.0000000000000000
  0
LINE
  5
14F
100
AcDbEntity
  8
MAIN0
  6
CONTINUOUS
 62
3
100
AcDbLine
 10
351.2252129934282
 20
81.77906160753184
 30
0.0000000000000000
 11
351.2252129934282
 21
84.37906160753184
 31
0.0000000000000000
  0
LINE
  5
150
100
AcDbEntity
  8
MAIN0
  6
HIDDEN
 62
3
100
AcDbLine
 10
351.2252129934282
 20
84.37906160753184
 30
0.0000000000000000
 11
351.2252129934282
 21
86.37906160753184
 31
0.0000000000000000
  0
LINE
  5
151
100
AcDbEntity
  8
MAIN0
  6
CONTINUOUS
 62
3
100
AcDbLine
 10
292.2252129934282
 20
81.77906160756444
 30
0.0000000000000000
 11
292.2252129934282
 21
84.37906160756447
 31
0.0000000000000000
  0
LINE
  5
152
100
AcDbEntity
  8
MAIN0
  6
HIDDEN
 62
3
100
AcDbLine
 10
292.2252129934282
 20
84.37906160756447
 30
0.0000000000000000
 11
292.2252129934282
 21
86.37906160756450
 31
0.0000000000000000
  0
SPLINE
  5
153
100
AcDbEntity
  8
MAIN0
  6
CONTINUOUS
 62
3
100
AcDbSpline
210
0.0000000000000000
220
0.0000000000000000
230
1.000000000000000
 70
     8
 71
     3
 72
    14
 73
    10
 74
     0
 42
1.000000000000000e-007
 43
1.000000000000000e-007
 12
-1.000375474918087
 22
0.006582526132490330
 32
0.0000000000000000
 13
-0.2280855252429888
 23
0.9746215532576628
 33
0.0000000000000000
 40
0.0000000000000000
 40
0.0000000000000000
 40
0.0000000000000000
 40
0.0000000000000000
 40
4.337966565609408
 40
10.16300570425139
 40
12.23645406073680
 40
22.05126166445287
 40
26.00143119908015
 40
30.40905683128183
 40
34.43154573698113
 40
34.43154573698113
 40
34.43154573698113
 40
34.43154573698113
 10
232.2252129934834
 20
223.2925120537137
 30
0.0000000000000000
 10
230.7786812057332
 20
223.3020303131404
 30
0.0000000000000000
 10
227.3897406530711
 20
223.3243297300181
 30
0.0000000000000000
 10
223.3214097356434
 20
222.8942705664202
 30
0.0000000000000000
 10
217.3891732850980
 20
224.7921414130350
 30
0.0000000000000000
 10
217.9479951381823
 20
231.7969829166453
 30
0.0000000000000000
 10
215.9016762738753
 20
237.3403134850900
 30
0.0000000000000000
 10
216.0850933526016
 20
241.5742212622035
 30
0.0000000000000000
 10
215.4441643185230
 20
244.3129450372264
 30
0.0000000000000000
 10
215.1383404869094
 20
245.6197464989712
 30
0.0000000000000000
  0
LINE
  5
154
100
AcDbEntity
  8
MAIN0
  6
CENTER
 62
3
100
AcDbLine
 10
223.1553582798786
 20
221.1197464994206
 30
0.0000000000000000
 11
227.3760549771891
 21
221.1197464994206
 31
0.0000000000000000
  0
LINE
  5
155
100
AcDbEntity
  8
MAIN0
  6
CENTER
 62
3
100
AcDbLine
 10
222.0096466300550
 20
171.1197464994206
 30
0.0000000000000000
 11
227.5086488131493
 21
171.1197464994206
 31
0.0000000000000000
  0
LINE
  5
156
100
AcDbEntity
  8
MAIN0
  6
CENTER
 62
3
100
AcDbLine
 10
225.2252129934813
 20
168.7509754910882
 30
0.0000000000000000
 11
225.2252129934813
 21
173.4275625120610
 31
0.0000000000000000
  0
LINE
  5
157
100
AcDbEntity
  8
MAIN0
  6
CENTER
 62
3
100
AcDbLine
 10
225.2252129934813
 20
219.2020613930348
 30
0.0000000000000000
 11
225.2252129934813
 21
222.8545868451966
 31
0.0000000000000000
  0
LINE
  5
158
100
AcDbEntity
  8
MAIN0
  6
CONTINUOUS
 62
3
100
AcDbLine
 10
194.7252129934794
 20
226.2206688815080
 30
0.0000000000000000
 11
199.7252129934859
 21
226.2206688815080
 31
0.0000000000000000
  0
LINE
  5
159
100
AcDbEntity
  8
MAIN0
  6
CONTINUOUS
 62
3
100
AcDbLine
 10
194.7252129934855
 20
170.1120594610590
 30
0.0000000000000000
 11
199.3252129934812
 21
170.1120594610584
 31
0.0000000000000000
  0
LINE
  5
15A
100
AcDbEntity
  8
MAIN0
  6
CONTINUOUS
 62
3
100
AcDbLine
 10
195.1252129934834
 20
191.6824070841785
 30
0.0000000000000000
 11
199.3252129934812
 21
191.6824070841783
 31
0.0000000000000000
  0
LINE
  5
15B
100
AcDbEntity
  8
MAIN0
  6
CONTINUOUS
 62
3
100
AcDbLine
 10
199.7252129934813
 20
196.1197465005639
 30
0.0000000000000000
 11
199.7252129934813
 21
170.5120594610583
 31
0.0000000000000000
  0
LINE
  5
15C
100
AcDbEntity
  8
MAIN0
  6
CONTINUOUS
 62
3
100
AcDbLine
 10
199.3252129934812
 20
170.1120594610584
 30
0.0000000000000000
 11
199.7252129934813
 21
170.5120594610583
 31
0.0000000000000000
  0
LINE
  5
15D
100
AcDbEntity
  8
MAIN0
  6
CONTINUOUS
 62
3
100
AcDbLine
 10
199.3252129934813
 20
191.6824070841783
 30
0.0000000000000000
 11
199.7252129934813
 21
191.2824070841783
 31
0.0000000000000000
  0
LINE
  5
15E
100
AcDbEntity
  8
MAIN0
  6
CONTINUOUS
 62
3
100
AcDbLine
 10
195.1252129934834
 20
191.6824070841785
 30
0.0000000000000000
 11
194.7252129934835
 21
191.2824070841785
 31
0.0000000000000000
  0
INSERT
  5
166
100
AcDbEntity
  8
MAIN0
  6
CONTINUOUS
 62
3
100
AcDbBlockReference
  2
D18
 10
185.2353614386521
 20
196.1197464994206
 30
0.0000000000000000
 50
0.0000000000000000
  0
INSERT
  5
16E
100
AcDbEntity
  8
MAIN0
  6
CONTINUOUS
 62
3
100
AcDbBlockReference
  2
D19
 10
185.2353614386521
 20
196.1197464994206
 30
0.0000000000000000
 50
0.0000000000000000
  0
DIMENSION
  5
179
100
AcDbEntity
  8
MAIN0
  6
CONTINUOUS
 62
3
100
AcDbDimension
  2
*D20
 10
194.7252129934791
 20
231.7440163442695
 30
0.0000000000000000
 11
197.2252129934824
 21
232.2440163442695
 31
0.0000000000000000
 70
32
  3
MAIN001
100
AcDbAlignedDimension
 13
199.7252129934859
 23
226.2206688815080
 33
0.0000000000000000
 14
194.7252129934791
 24
228.2197464994206
 34
0.0000000000000000
100
AcDbRotatedDimension
1001
ACAD
1000
DSTYLE
1002
{
1070
   173
1070
     1
1070
     6
1000
_OPEN
1070
     7
1000
_OPEN
1070
    41
1040
2.000000
1070
   287
1070
     0
1002
}
  0
DIMENSION
  5
184
100
AcDbEntity
  8
MAIN0
  6
CONTINUOUS
 62
3
100
AcDbDimension
  2
*D21
 10
220.7252129934834
 20
251.6377157737164
 30
0.0000000000000000
 11
211.8105440348544
 21
252.1377157737164
 31
0.0000000000000000
 70
160
  1
\A1;\U+22054
  3
MAIN001
100
AcDbAlignedDimension
 13
216.7252129934834
 23
245.2197464989710
 33
0.0000000000000000
 14
220.7252129934834
 24
245.2197464989710
 34
0.0000000000000000
100
AcDbRotatedDimension
1001
ACAD
1000
DSTYLE
1002
{
1070
   173
1070
     1
1070
     6
1000
_OPEN
1070
     7
1000
_OPEN
1070
    41
1040
2.000000
1070
   287
1070
     0
1002
}
  0
DIMENSION
  5
18F
100
AcDbEntity
  8
MAIN0
  6
CONTINUOUS
 62
3
100
AcDbDimension
  2
*D22
 10
201.1283243318079
 20
245.6197464989712
 30
0.0000000000000000
 11
200.6283243318079
 21
241.8697464989712
 31
0.0000000000000000
 70
32
  3
MAIN001
100
AcDbAlignedDimension
 13
216.7252129934834
 23
238.1197464989711
 33
0.0000000000000000
 14
214.4252129934833
 24
245.6197464989712
 34
0.0000000000000000
 50
90.00000000000000
100
AcDbRotatedDimension
1001
ACAD
1000
DSTYLE
1002
{
1070
   173
1070
     1
1070
     6
1000
_OPEN
1070
     7
1000
_OPEN
1070
    41
1040
2.000000
1070
   287
1070
     0
1002
}
  0
DIMENSION
  5
19A
100
AcDbEntity
  8
MAIN0
  6
CONTINUOUS
 62
3
100
AcDbDimension
  2
*D23
 10
290.9259567693069
 20
108.8790616075596
 30
0.0000000000000000
 11
290.4259567693069
 21
105.8790616075592
 31
0.0000000000000000
 70
32
  3
MAIN001
100
AcDbAlignedDimension
 13
296.8231156462459
 23
102.8790616075618
 33
0.0000000000000000
 14
300.7252129934282
 24
108.8790616075596
 34
0.0000000000000000
 50
90.00000000000000
100
AcDbRotatedDimension
1001
ACAD
1000
DSTYLE
1002
{
1070
   173
1070
     1
1070
     6
1000
_OPEN
1070
     7
1000
_OPEN
1070
    41
1040
2.000000
1070
   287
1070
     0
1002
}
  0
LEADER
  5
19B
100
AcDbEntity
  8
MAIN0
  6
CONTINUOUS
 62
3
100
AcDbLeader
  3
MAIN001
 73
     0
 75
     1
 40
3.099999904632568
 41
10.77900032901766
 76
     3
 10
297.7252129934282
 20
102.8790616075613
 30
0.0000000000000000
 10
291.6715005595312
 20
117.0410672569002
 30
0.0000000000000000
 10
289.7445006153212
 20
117.0410672569002
 30
0.0000000000000000
340
19C
213
0.0000000000000000
223
-0.5000000000000000
233
0.0000000000000000
1001
ACAD
1000
DSTYLE
1002
{
1070
   147
1040
0.0
1070
    77
1070
     1
1070
   173
1070
     1
1070
     6
1000
_OPEN
1070
     7
1000
_OPEN
1002
}
  0
MTEXT
  5
19C
102
{ACAD_REACTORS
330
19B
102
}
100
AcDbEntity
  8
MAIN0
  6
CONTINUOUS
 62
3
100
AcDbMText
 10
278.9655002863035
 20
120.6410671615328
 30
0.0000000000000000
 40
3.099999904632568
 41
0.0000000000000000
 71
     1
 72
     1
  1
{\H0.91x;{4-M3}}
 11
1.000000000000000
 21
0.0000000000000000
 31
0.0000000000000000
  7
STANDARD
  0
DIMENSION
  5
1A7
100
AcDbEntity
  8
MAIN0
  6
CONTINUOUS
 62
3
100
AcDbDimension
  2
*D24
 10
189.7252129934846
 20
126.0188612633106
 30
0.0000000000000000
 11
192.2252129934852
 21
126.5188612633106
 31
0.0000000000000000
 70
32
  3
MAIN001
100
AcDbAlignedDimension
 13
194.7252129934858
 23
167.0197464994205
 33
0.0000000000000000
 14
189.7252129934846
 24
179.9197464994188
 34
0.0000000000000000
100
AcDbRotatedDimension
1001
ACAD
1000
DSTYLE
1002
{
1070
   173
1070
     1
1070
     6
1000
_OPEN
1070
     7
1000
_OPEN
1070
    41
1040
2.000000
1070
   287
1070
     0
1002
}
  0
DIMENSION
  5
1B0
100
AcDbEntity
  8
MAIN0
  6
CONTINUOUS
 62
3
100
AcDbDimension
  2
*D25
 10
194.7252129934858
 20
126.0188612633106
 30
0.0000000000000000
 11
212.9752129934882
 21
126.5188612633106
 31
0.0000000000000000
 70
32
  3
MAIN001
100
AcDbAlignedDimension
 13
231.2252129934906
 23
155.1197464998704
 33
0.0000000000000000
 14
194.7252129934858
 24
167.0197464994205
 34
0.0000000000000000
100
AcDbRotatedDimension
1001
ACAD
1000
DSTYLE
1002
{
1070
   173
1070
     1
1070
     6
1000
_OPEN
1070
     7
1000
_OPEN
1070
    41
1040
2.000000
1002
}
  0
DIMENSION
  5
1BB
100
AcDbEntity
  8
MAIN0
  6
CONTINUOUS
 62
3
100
AcDbDimension
  2
*D26
 10
231.2252129934906
 20
126.0188612633106
 30
0.0000000000000000
 11
238.0757552688752
 21
126.5188612633106
 31
0.0000000000000000
 70
160
  3
MAIN001
100
AcDbAlignedDimension
 13
231.7252129934813
 23
178.1197464994206
 33
0.0000000000000000
 14
231.2252129934906
 24
155.1197464998704
 34
0.0000000000000000
100
AcDbRotatedDimension
1001
ACAD
1000
DSTYLE
1002
{
1070
   173
1070
     1
1070
     6
1000
_OPEN
1070
     7
1000
_OPEN
1070
    41
1040
2.000000
1070
   287
1070
     0
1002
}
  0
DIMENSION
  5
1C4
100
AcDbEntity
  8
MAIN0
  6
CONTINUOUS
 62
3
100
AcDbDimension
  2
*D27
 10
194.7252129934858
 20
134.8313695114716
 30
0.0000000000000000
 11
201.7252129934876
 21
135.3313695114716
 31
0.0000000000000000
 70
32
  3
MAIN001
100
AcDbAlignedDimension
 13
208.7252129934893
 23
151.0197464994205
 33
0.0000000000000000
 14
194.7252129934858
 24
167.0197464994205
 34
0.0000000000000000
100
AcDbRotatedDimension
1001
ACAD
1000
DSTYLE
1002
{
1070
   173
1070
     1
1070
     6
1000
_OPEN
1070
     7
1000
_OPEN
1070
    41
1040
2.000000
1002
}
  0
ARC
  5
1C5
100
AcDbEntity
  8
MAIN0
  6
CONTINUOUS
 62
3
100
AcDbCircle
 10
103.9752129916698
 20
166.2418700691202
 30
0.0000000000000000
 40
6.000000000000000
100
AcDbArc
 50
54.24429209848510
 51
150.6942636807924
  0
CIRCLE
  5
1C6
100
AcDbEntity
  8
MAIN0
  6
CONTINUOUS
 62
3
100
AcDbCircle
 10
75.22521299247939
 20
176.2011622124955
 30
0.0000000000000000
 40
4.000000000000000
  0
ARC
  5
1C7
100
AcDbEntity
  8
MAIN0
  6
CONTINUOUS
 62
3
100
AcDbCircle
 10
52.22521299268124
 20
196.1197465000348
 30
0.0000000000000000
 40
6.000000000000000
100
AcDbArc
 50
294.2442920984851
 51
390.6942636807924
  0
CIRCLE
  5
1C8
100
AcDbEntity
  8
MAIN0
  6
CONTINUOUS
 62
3
100
AcDbCircle
 10
109.7252129930867
 20
196.1197464998882
 30
0.0000000000000000
 40
4.000000000000000
  0
CIRCLE
  5
1C9
100
AcDbEntity
  8
MAIN0
  6
CONTINUOUS
 62
3
100
AcDbCircle
 10
101.9910902793483
 20
214.6387365009578
 30
0.0000000000000000
 40
2.000000000000000
  0
CIRCLE
  5
1CA
100
AcDbEntity
  8
MAIN0
  6
CONTINUOUS
 62
3
100
AcDbCircle
 10
71.13845983242470
 20
214.3694896744538
 30
0.0000000000000000
 40
2.000000000000000
  0
ARC
  5
1CB
100
AcDbEntity
  8
MAIN0
  6
CONTINUOUS
 62
3
100
AcDbCircle
 10
103.9752129924799
 20
225.9976229295463
 30
0.0000000000000000
 40
6.000000000000000
100
AcDbArc
 50
174.2442920984852
 51
270.6942636807924
  0
LEADER
  5
1CC
100
AcDbEntity
  8
MAIN0
  6
CONTINUOUS
 62
3
100
AcDbLeader
  3
MAIN001
 73
     0
 75
     1
 40
2.799999952316284
 41
53.89900147372484
 76
     3
 10
302.4403173970939
 20
179.4088346036597
 30
0.0000000000000000
 10
290.1289531851875
 20
153.4339431127818
 30
0.0000000000000000
 10
288.5099532111453
 20
153.4339431127818
 30
0.0000000000000000
340
1CD
213
0.0000000000000000
223
-0.5000000000000000
233
0.0000000000000000
1001
ACAD
1000
DSTYLE
1002
{
1070
   147
1040
0.0
1070
    77
1070
     1
1070
   173
1070
     1
1070
     6
1000
_OPEN
1070
     7
1000
_OPEN
1002
}
  0
MTEXT
  5
1CD
102
{ACAD_REACTORS
330
1CC
102
}
100
AcDbEntity
  8
MAIN0
  6
CONTINUOUS
 62
3
100
AcDbMText
 10
234.6109517374204
 20
156.7339430650981
 30
0.0000000000000000
 40
2.799999952316284
 41
0.0000000000000000
 71
     1
 72
     1
  1
{\H0.67x;{十字穴付皿小ねじ 4-M3×6\PCross Recessed Flat Head Screw}}
 11
1.000000000000000
 21
0.0000000000000000
 31
0.0000000000000000
  7
KNJYOKO
  0
LINE
  5
1CE
100
AcDbEntity
  8
MAIN0
  6
CONTINUOUS
 62
3
100
AcDbLine
 10
203.7252129934872
 20
225.2197464994209
 30
0.0000000000000000
 11
204.1252129934872
 21
225.6197464994209
 31
0.0000000000000000
  0
LINE
  5
1CF
100
AcDbEntity
  8
MAIN0
  6
HIDDEN
 62
3
100
AcDbLine
 10
208.7252129934872
 20
225.6197464994209
 30
0.0000000000000000
 11
208.7252129934893
 21
241.2197464994206
 31
0.0000000000000000
  0
LINE
  5
1D0
100
AcDbEntity
  8
MAIN0
  6
CONTINUOUS
 62
3
100
AcDbLine
 10
207.1252129934899
 20
245.1197464994206
 30
0.0000000000000000
 11
215.2549753362909
 21
245.1197464994206
 31
0.0000000000000000
  0
LINE
  5
1D1
100
AcDbEntity
  8
MAIN0
  6
HIDDEN
 62
3
100
AcDbLine
 10
208.7252129934872
 20
166.6197464994202
 30
0.0000000000000000
 11
208.7252129934893
 21
151.0197464994205
 31
0.0000000000000000
  0
LINE
  5
1D2
100
AcDbEntity
  8
MAIN0
  6
CONTINUOUS
 62
3
100
AcDbLine
 10
203.7252129934872
 20
167.0197464994202
 30
0.0000000000000000
 11
204.1252129934872
 21
166.6197464994202
 31
0.0000000000000000
  0
LINE
  5
1D3
100
AcDbEntity
  8
MAIN0
  6
CONTINUOUS
 62
3
100
AcDbLine
 10
207.1252129934899
 20
147.1197464994206
 30
0.0000000000000000
 11
230.8252129934906
 21
147.1197464994206
 31
0.0000000000000000
  0
LINE
  5
1D4
100
AcDbEntity
  8
MAIN0
  6
CONTINUOUS
 62
3
100
AcDbLine
 10
215.7252129934769
 20
242.8373898344684
 30
0.0000000000000000
 11
215.7252129934898
 21
147.5197464994212
 31
0.0000000000000000
  0
LINE
  5
1D5
100
AcDbEntity
  8
MAIN0
  6
CONTINUOUS
 62
3
100
AcDbLine
 10
215.3252129934899
 20
147.1197464994204
 30
0.0000000000000000
 11
215.7252129934898
 21
147.5197464994205
 31
0.0000000000000000
  0
LINE
  5
1D6
100
AcDbEntity
  8
MAIN0
  6
HIDDEN
 62
3
100
AcDbLine
 10
206.7252129934892
 20
241.2197464994206
 30
0.0000000000000000
 11
208.7252129934893
 21
241.2197464994206
 31
0.0000000000000000
  0
LINE
  5
1D7
100
AcDbEntity
  8
MAIN0
  6
CONTINUOUS
 62
3
100
AcDbLine
 10
206.7252129934898
 20
244.7197464994206
 30
0.0000000000000000
 11
207.1252129934899
 21
245.1197464994206
 31
0.0000000000000000
  0
LINE
  5
1D8
100
AcDbEntity
  8
MAIN0
  6
HIDDEN
 62
3
100
AcDbLine
 10
206.7252129934892
 20
151.0197464994205
 30
0.0000000000000000
 11
208.7252129934893
 21
151.0197464994205
 31
0.0000000000000000
  0
LINE
  5
1D9
100
AcDbEntity
  8
MAIN0
  6
CONTINUOUS
 62
3
100
AcDbLine
 10
206.7252129934899
 20
147.5197464994204
 30
0.0000000000000000
 11
207.1252129934900
 21
147.1197464994204
 31
0.0000000000000000
  0
LINE
  5
1DA
100
AcDbEntity
  8
MAIN0
  6
CONTINUOUS
 62
3
100
AcDbLine
 10
231.2252129934906
 20
214.1197464994205
 30
0.0000000000000000
 11
231.2252129934927
 21
223.2982461885919
 31
0.0000000000000000
  0
LINE
  5
1DB
100
AcDbEntity
  8
MAIN0
  6
CONTINUOUS
 62
3
100
AcDbLine
 10
231.2252129934942
 20
231.1197464989601
 30
0.0000000000000000
 11
231.2252129934954
 21
237.1197464989601
 31
0.0000000000000000
  0
LINE
  5
1DC
100
AcDbEntity
  8
MAIN0
  6
CONTINUOUS
 62
3
100
AcDbLine
 10
230.2252129934816
 20
178.1197464994206
 30
0.0000000000000000
 11
230.2252129934841
 21
198.4287501872285
 31
0.0000000000000000
  0
LINE
  5
1DD
100
AcDbEntity
  8
MAIN0
  6
CONTINUOUS
 62
3
100
AcDbLine
 10
231.2252129934906
 20
178.1197464994206
 30
0.0000000000000000
 11
231.2252129934906
 21
147.5197464994206
 31
0.0000000000000000
  0
LINE
  5
1DE
100
AcDbEntity
  8
MAIN0
  6
CONTINUOUS
 62
3
100
AcDbLine
 10
231.2252129934906
 20
147.5197464994206
 30
0.0000000000000000
 11
230.8252129934906
 21
147.1197464994206
 31
0.0000000000000000
  0
LINE
  5
1DF
100
AcDbEntity
  8
MAIN0
  6
CONTINUOUS
 62
3
100
AcDbLine
 10
228.2252129934849
 20
147.1197464994206
 30
0.0000000000000000
 11
228.2252129934831
 21
223.2646390627535
 31
0.0000000000000000
  0
LINE
  5
1E0
100
AcDbEntity
  8
MAIN0
  6
CONTINUOUS
 62
3
100
AcDbLine
 10
203.7252129934871
 20
167.0197464994202
 30
0.0000000000000000
 11
203.7252129934871
 21
225.2197464994209
 31
0.0000000000000000
  0
LINE
  5
1E1
100
AcDbEntity
  8
MAIN0
  6
CONTINUOUS
 62
3
100
AcDbLine
 10
206.7252129934898
 20
147.5197464994204
 30
0.0000000000000000
 11
206.7252129934898
 21
244.7197464994207
 31
0.0000000000000000
  0
LINE
  5
1E2
100
AcDbEntity
  8
MAIN0
  6
CONTINUOUS
 62
3
100
AcDbLine
 10
204.1252129934872
 20
225.6197464994209
 30
0.0000000000000000
 11
206.7252129934898
 21
225.6197464994209
 31
0.0000000000000000
  0
LINE
  5
1E3
100
AcDbEntity
  8
MAIN0
  6
HIDDEN
 62
3
100
AcDbLine
 10
206.7252129934898
 20
225.6197464994209
 30
0.0000000000000000
 11
208.7252129934872
 21
225.6197464994209
 31
0.0000000000000000
  0
LINE
  5
1E4
100
AcDbEntity
  8
MAIN0
  6
CONTINUOUS
 62
3
100
AcDbLine
 10
204.1252129934872
 20
166.6197464994202
 30
0.0000000000000000
 11
206.7252129934898
 21
166.6197464994202
 31
0.0000000000000000
  0
LINE
  5
1E5
100
AcDbEntity
  8
MAIN0
  6
HIDDEN
 62
3
100
AcDbLine
 10
206.7252129934898
 20
166.6197464994202
 30
0.0000000000000000
 11
208.7252129934872
 21
166.6197464994202
 31
0.0000000000000000
  0
LINE
  5
1E6
100
AcDbEntity
  8
MAIN0
  6
CONTINUOUS
 62
3
100
AcDbLine
 10
194.7252129934843
 20
196.1197464994206
 30
0.0000000000000000
 11
194.7252129934791
 21
228.2197464994206
 31
0.0000000000000000
  0
LINE
  5
1E7
100
AcDbEntity
  8
MAIN0
  6
CONTINUOUS
 62
3
100
AcDbLine
 10
194.7252129934858
 20
167.0197464994205
 30
0.0000000000000000
 11
194.7252129934830
 21
196.1197464994206
 31
0.0000000000000000
  0
LINE
  5
1E8
100
AcDbEntity
  8
MAIN0
  6
CONTINUOUS
 62
3
100
AcDbLine
 10
195.1252129934859
 20
166.6197464994206
 30
0.0000000000000000
 11
203.3252129934859
 21
166.6197464994206
 31
0.0000000000000000
  0
LINE
  5
1E9
100
AcDbEntity
  8
MAIN0
  6
CONTINUOUS
 62
3
100
AcDbLine
 10
195.1252129934790
 20
228.6197464994206
 30
0.0000000000000000
 11
199.3252129934861
 21
228.6197464994206
 31
0.0000000000000000
  0
LINE
  5
1EA
100
AcDbEntity
  8
MAIN0
  6
CONTINUOUS
 62
3
100
AcDbLine
 10
194.7252129934791
 20
228.2197464994206
 30
0.0000000000000000
 11
195.1252129934790
 21
228.6197464994206
 31
0.0000000000000000
  0
LINE
  5
1EB
100
AcDbEntity
  8
MAIN0
  6
CONTINUOUS
 62
3
100
AcDbLine
 10
194.7252129934859
 20
167.0197464994205
 30
0.0000000000000000
 11
195.1252129934859
 21
166.6197464994206
 31
0.0000000000000000
  0
LINE
  5
1EC
100
AcDbEntity
  8
MAIN0
  6
CONTINUOUS
 62
3
100
AcDbLine
 10
203.3252129934859
 20
166.6197464994205
 30
0.0000000000000000
 11
203.7252129934859
 21
167.0197464994205
 31
0.0000000000000000
  0
LINE
  5
1ED
100
AcDbEntity
  8
MAIN0
  6
CONTINUOUS
 62
3
100
AcDbLine
 10
199.7252129934861
 20
228.2197464994208
 30
0.0000000000000000
 11
199.7252129934854
 21
221.6674959108670
 31
0.0000000000000000
  0
LINE
  5
1EE
100
AcDbEntity
  8
MAIN0
  6
CONTINUOUS
 62
3
100
AcDbLine
 10
199.3252129934861
 20
228.6197464994205
 30
0.0000000000000000
 11
199.7252129934861
 21
228.2197464994206
 31
0.0000000000000000
  0
LINE
  5
1EF
100
AcDbEntity
  8
MAIN0
  6
CONTINUOUS
 62
3
100
AcDbLine
 10
203.3252129934858
 20
225.6197464994206
 30
0.0000000000000000
 11
203.7252129934858
 21
225.2197464994206
 31
0.0000000000000000
  0
ARC
  5
1F0
100
AcDbEntity
  8
MAIN0
  6
CONTINUOUS
 62
3
100
AcDbCircle
 10
200.1252129934859
 20
226.0197464994206
 30
0.0000000000000000
 40
0.4000000000000000
100
AcDbArc
 50
180.0000000000000
 51
270.0000000000000
  0
LINE
  5
1F1
100
AcDbEntity
  8
MAIN0
  6
CONTINUOUS
 62
3
100
AcDbLine
 10
189.7252129934846
 20
179.9197464994188
 30
0.0000000000000000
 11
189.7252129934815
 21
212.3197464994206
 31
0.0000000000000000
  0
LINE
  5
1F2
100
AcDbEntity
  8
MAIN0
  6
CONTINUOUS
 62
3
100
AcDbLine
 10
191.1108536395366
 20
213.1197464994206
 30
0.0000000000000000
 11
194.7252129934815
 21
213.1197464994206
 31
0.0000000000000000
  0
LINE
  5
1F3
100
AcDbEntity
  8
MAIN0
  6
CONTINUOUS
 62
3
100
AcDbLine
 10
191.1108536395366
 20
179.1197464994206
 30
0.0000000000000000
 11
194.7252129934815
 21
179.1197464994206
 31
0.0000000000000000
  0
LINE
  5
1F4
100
AcDbEntity
  8
MAIN0
  6
CONTINUOUS
 62
3
100
AcDbLine
 10
189.7252129934816
 20
212.3197464994206
 30
0.0000000000000000
 11
191.1108536395366
 21
213.1197464994206
 31
0.0000000000000000
  0
LINE
  5
1F5
100
AcDbEntity
  8
MAIN0
  6
CONTINUOUS
 62
3
100
AcDbLine
 10
189.7252129934816
 20
179.9197464994205
 30
0.0000000000000000
 11
191.1108536395366
 21
179.1197464994206
 31
0.0000000000000000
  0
LINE
  5
1F6
100
AcDbEntity
  8
MAIN0
  6
CONTINUOUS
 62
3
100
AcDbLine
 10
203.7252129934858
 20
167.0197464994205
 30
0.0000000000000000
 11
203.7252129934858
 21
225.2197464994205
 31
0.0000000000000000
  0
LINE
  5
1F7
100
AcDbEntity
  8
MAIN0
  6
HIDDEN
 62
3
100
AcDbLine
 10
345.2252129934506
 20
219.8697464994206
 30
0.0000000000000000
 11
342.0248840318433
 21
219.8697464994206
 31
0.0000000000000000
  0
LINE
  5
1F8
100
AcDbEntity
  8
MAIN0
  6
HIDDEN
 62
3
100
AcDbLine
 10
345.4752129934506
 20
219.6197464994206
 30
0.0000000000000000
 11
341.9333122369985
 21
219.6197464994206
 31
0.0000000000000000
  0
LINE
  5
1F9
100
AcDbEntity
  8
MAIN0
  6
HIDDEN
 62
3
100
AcDbLine
 10
345.7252129934506
 20
219.3697464994206
 30
0.0000000000000000
 11
345.2252129934506
 21
219.8697464994205
 31
0.0000000000000000
  0
LINE
  5
1FA
100
AcDbEntity
  8
MAIN0
  6
HIDDEN
 62
3
100
AcDbLine
 10
345.2252129934506
 20
219.8697464994206
 30
0.0000000000000000
 11
345.2252129934506
 21
222.3697464994206
 31
0.0000000000000000
  0
LINE
  5
1FB
100
AcDbEntity
  8
MAIN0
  6
HIDDEN
 62
3
100
AcDbLine
 10
345.2252129934506
 20
222.3697464994206
 30
0.0000000000000000
 11
345.7252129934506
 21
222.8697464994206
 31
0.0000000000000000
  0
LINE
  5
1FC
100
AcDbEntity
  8
MAIN0
  6
HIDDEN
 62
3
100
AcDbLine
 10
341.9333122369985
 20
222.6197464994206
 30
0.0000000000000000
 11
345.4752129934506
 21
222.6197464994206
 31
0.0000000000000000
  0
LINE
  5
1FD
100
AcDbEntity
  8
MAIN0
  6
HIDDEN
 62
3
100
AcDbLine
 10
342.0248840318433
 20
222.3697464994206
 30
0.0000000000000000
 11
345.2252129934506
 21
222.3697464994206
 31
0.0000000000000000
  0
LINE
  5
1FE
100
AcDbEntity
  8
MAIN0
  6
CONTINUOUS
 62
3
100
AcDbLine
 10
300.7252129935094
 20
214.1197464994206
 30
0.0000000000000000
 11
342.7252129935094
 21
214.1197464994206
 31
0.0000000000000000
  0
LINE
  5
1FF
100
AcDbEntity
  8
MAIN0
  6
CONTINUOUS
 62
3
100
AcDbLine
 10
343.7252129934545
 20
179.1197464994206
 30
0.0000000000000000
 11
343.7252129935079
 21
213.1197464994206
 31
0.0000000000000000
  0
LINE
  5
200
100
AcDbEntity
  8
MAIN0
  6
CONTINUOUS
 62
3
100
AcDbLine
 10
299.7252129934545
 20
179.1197464994206
 30
0.0000000000000000
 11
299.7252129935079
 21
213.1197464994206
 31
0.0000000000000000
  0
LINE
  5
201
100
AcDbEntity
  8
MAIN0
  6
CONTINUOUS
 62
3
100
AcDbLine
 10
299.7252129935078
 20
213.1197464994206
 30
0.0000000000000000
 11
300.7252129935094
 21
214.1197464994206
 31
0.0000000000000000
  0
LINE
  5
202
100
AcDbEntity
  8
MAIN0
  6
CONTINUOUS
 62
3
100
AcDbLine
 10
342.7252129935094
 20
214.1197464994206
 30
0.0000000000000000
 11
343.7252129935079
 21
213.1197464994205
 31
0.0000000000000000
  0
LINE
  5
203
100
AcDbEntity
  8
MAIN0
  6
CENTER
 62
3
100
AcDbLine
 10
343.2890259556345
 20
210.1197464994206
 30
0.0000000000000000
 11
336.3291840878659
 21
210.1197464994206
 31
0.0000000000000000
  0
LINE
  5
204
100
AcDbEntity
  8
MAIN0
  6
CENTER
 62
3
100
AcDbLine
 10
339.7252129934812
 20
206.3848486622903
 30
0.0000000000000000
 11
339.7252129934812
 21
213.6047307918198
 31
0.0000000000000000
  0
LINE
  5
205
100
AcDbEntity
  8
MAIN0
  6
CENTER
 62
3
100
AcDbLine
 10
300.1614000313718
 20
210.1197464994882
 30
0.0000000000000000
 11
307.1212418991403
 21
210.1197464994663
 31
0.0000000000000000
  0
LINE
  5
206
100
AcDbEntity
  8
MAIN0
  6
CENTER
 62
3
100
AcDbLine
 10
303.7252129935134
 20
206.3848486623467
 30
0.0000000000000000
 11
303.7252129935361
 21
213.6047307918762
 31
0.0000000000000000
  0
LINE
  5
207
100
AcDbEntity
  8
MAIN0
  6
CENTER
 62
3
100
AcDbLine
 10
300.1614000313718
 20
182.1197464993529
 30
0.0000000000000000
 11
307.1212418991403
 21
182.1197464993748
 31
0.0000000000000000
  0
LINE
  5
208
100
AcDbEntity
  8
MAIN0
  6
CENTER
 62
3
100
AcDbLine
 10
303.7252129935134
 20
185.8546443364944
 30
0.0000000000000000
 11
303.7252129935361
 21
178.6347622069649
 31
0.0000000000000000
  0
LINE
  5
209
100
AcDbEntity
  8
MAIN0
  6
CENTER
 62
3
100
AcDbLine
 10
343.2890259555467
 20
182.1197464992853
 30
0.0000000000000000
 11
336.3291840877781
 21
182.1197464993290
 31
0.0000000000000000
  0
LINE
  5
20A
100
AcDbEntity
  8
MAIN0
  6
CENTER
 62
3
100
AcDbLine
 10
339.7252129934168
 20
185.8546443364380
 30
0.0000000000000000
 11
339.7252129933715
 21
178.6347622069085
 31
0.0000000000000000
  0
LINE
  5
20B
100
AcDbEntity
  8
MAIN0
  6
CONTINUOUS
 62
3
100
AcDbLine
 10
300.7252129935094
 20
178.1197464994206
 30
0.0000000000000000
 11
342.7252129935094
 21
178.1197464994206
 31
0.0000000000000000
  0
LINE
  5
20C
100
AcDbEntity
  8
MAIN0
  6
CONTINUOUS
 62
3
100
AcDbLine
 10
342.7252129935094
 20
178.1197464994206
 30
0.0000000000000000
 11
343.7252129935079
 21
179.1197464994206
 31
0.0000000000000000
  0
LINE
  5
20D
100
AcDbEntity
  8
MAIN0
  6
CONTINUOUS
 62
3
100
AcDbLine
 10
299.7252129935078
 20
179.1197464994206
 30
0.0000000000000000
 11
300.7252129935094
 21
178.1197464994205
 31
0.0000000000000000
  0
LINE
  5
20E
100
AcDbEntity
  8
MAIN0
  6
CONTINUOUS
 62
3
100
AcDbLine
 10
311.8752129934812
 20
245.6197464989880
 30
0.0000000000000000
 11
331.5752129934812
 21
245.6197464989842
 31
0.0000000000000000
  0
LINE
  5
20F
100
AcDbEntity
  8
MAIN0
  6
CONTINUOUS
 62
3
100
AcDbLine
 10
314.9752129934812
 20
237.1197464989521
 30
0.0000000000000000
 11
328.4752129934812
 21
237.1197464989521
 31
0.0000000000000000
  0
LINE
  5
210
100
AcDbEntity
  8
MAIN0
  6
CONTINUOUS
 62
3
100
AcDbLine
 10
314.9752129934812
 20
231.1197464989521
 30
0.0000000000000000
 11
328.4752129934812
 21
231.1197464989521
 31
0.0000000000000000
  0
LINE
  5
211
100
AcDbEntity
  8
MAIN0
  6
CONTINUOUS
 62
3
100
AcDbLine
 10
314.9752129934813
 20
222.8197464989232
 30
0.0000000000000000
 11
328.4752129934813
 21
222.8197464989219
 31
0.0000000000000000
  0
LINE
  5
212
100
AcDbEntity
  8
MAIN0
  6
CONTINUOUS
 62
3
100
AcDbLine
 10
314.9752129934812
 20
214.1197464994206
 30
0.0000000000000000
 11
314.9752129934812
 21
245.2197464989874
 31
0.0000000000000000
  0
LINE
  5
213
100
AcDbEntity
  8
MAIN0
  6
CONTINUOUS
 62
3
100
AcDbLine
 10
311.4752129934812
 20
244.0356885229267
 30
0.0000000000000000
 11
311.4752129934812
 21
245.2197464989881
 31
0.0000000000000000
  0
LINE
  5
214
100
AcDbEntity
  8
MAIN0
  6
CENTER
 62
3
100
AcDbLine
 10
318.1908054320895
 20
242.1197464989521
 30
0.0000000000000000
 11
325.0687017767997
 21
242.1197464989521
 31
0.0000000000000000
  0
LINE
  5
215
100
AcDbEntity
  8
MAIN0
  6
CENTER
 62
3
100
AcDbLine
 10
318.1908054320958
 20
226.1197464991156
 30
0.0000000000000000
 11
325.0687017768060
 21
226.1197464991183
 31
0.0000000000000000
  0
LINE
  5
216
100
AcDbEntity
  8
MAIN0
  6
CENTER
 62
3
100
AcDbLine
 10
317.7336189652487
 20
234.1197464989521
 30
0.0000000000000000
 11
325.1292053863447
 21
234.1197464989521
 31
0.0000000000000000
  0
CIRCLE
  5
217
100
AcDbEntity
  8
MAIN0
  6
CONTINUOUS
 62
3
100
AcDbCircle
 10
321.7252129934812
 20
234.1197464989521
 30
0.0000000000000000
 40
2.500000000015270
  0
LINE
  5
218
100
AcDbEntity
  8
MAIN0
  6
CONTINUOUS
 62
3
100
AcDbLine
 10
328.4752129934812
 20
214.1197464994208
 30
0.0000000000000000
 11
328.4752129934812
 21
245.2197464989848
 31
0.0000000000000000
  0
LINE
  5
219
100
AcDbEntity
  8
MAIN0
  6
CONTINUOUS
 62
3
100
AcDbLine
 10
331.9752129934812
 20
244.0356885229267
 30
0.0000000000000000
 11
331.9752129934812
 21
245.2197464989841
 31
0.0000000000000000
  0
LINE
  5
21A
100
AcDbEntity
  8
MAIN0
  6
CONTINUOUS
 62
3
100
AcDbLine
 10
311.4752129934813
 20
245.2197464989881
 30
0.0000000000000000
 11
311.8752129934812
 21
245.6197464989880
 31
0.0000000000000000
  0
LINE
  5
21B
100
AcDbEntity
  8
MAIN0
  6
CONTINUOUS
 62
3
100
AcDbLine
 10
331.5752129934812
 20
245.6197464989842
 30
0.0000000000000000
 11
331.9752129934813
 21
245.2197464989841
 31
0.0000000000000000
  0
LINE
  5
21C
100
AcDbEntity
  8
MAIN0
  6
CONTINUOUS
 62
3
100
AcDbLine
 10
314.9752129934812
 20
245.2197464989874
 30
0.0000000000000000
 11
315.3752129934812
 21
245.6197464989873
 31
0.0000000000000000
  0
LINE
  5
21D
100
AcDbEntity
  8
MAIN0
  6
CONTINUOUS
 62
3
100
AcDbLine
 10
328.4752129934812
 20
245.2197464989848
 30
0.0000000000000000
 11
328.0752129934812
 21
245.6197464989849
 31
0.0000000000000000
  0
LINE
  5
21E
100
AcDbEntity
  8
MAIN0
  6
CONTINUOUS
 62
3
100
AcDbLine
 10
311.8752129934812
 20
146.6197464998531
 30
0.0000000000000000
 11
331.5752129934812
 21
146.6197464998569
 31
0.0000000000000000
  0
LINE
  5
21F
100
AcDbEntity
  8
MAIN0
  6
CONTINUOUS
 62
3
100
AcDbLine
 10
314.9752129934812
 20
155.1197464998891
 30
0.0000000000000000
 11
328.4752129934812
 21
155.1197464998891
 31
0.0000000000000000
  0
LINE
  5
220
100
AcDbEntity
  8
MAIN0
  6
CONTINUOUS
 62
3
100
AcDbLine
 10
314.9752129934812
 20
161.1197464998891
 30
0.0000000000000000
 11
328.4752129934812
 21
161.1197464998891
 31
0.0000000000000000
  0
LINE
  5
221
100
AcDbEntity
  8
MAIN0
  6
CONTINUOUS
 62
3
100
AcDbLine
 10
314.9752129934813
 20
169.4197464999179
 30
0.0000000000000000
 11
328.4752129934813
 21
169.4197464999192
 31
0.0000000000000000
  0
LINE
  5
222
100
AcDbEntity
  8
MAIN0
  6
CONTINUOUS
 62
3
100
AcDbLine
 10
314.9752129934812
 20
178.1197464994206
 30
0.0000000000000000
 11
314.9752129934812
 21
147.0197464998537
 31
0.0000000000000000
  0
LINE
  5
223
100
AcDbEntity
  8
MAIN0
  6
CONTINUOUS
 62
3
100
AcDbLine
 10
311.4752129934812
 20
148.2038044759144
 30
0.0000000000000000
 11
311.4752129934812
 21
147.0197464998530
 31
0.0000000000000000
  0
LINE
  5
224
100
AcDbEntity
  8
MAIN0
  6
CENTER
 62
3
100
AcDbLine
 10
318.1908054320895
 20
150.1197464998891
 30
0.0000000000000000
 11
325.0687017767997
 21
150.1197464998891
 31
0.0000000000000000
  0
LINE
  5
225
100
AcDbEntity
  8
MAIN0
  6
CENTER
 62
3
100
AcDbLine
 10
318.1908054320958
 20
166.1197464997255
 30
0.0000000000000000
 11
325.0687017768060
 21
166.1197464997228
 31
0.0000000000000000
  0
LINE
  5
226
100
AcDbEntity
  8
MAIN0
  6
CENTER
 62
3
100
AcDbLine
 10
317.7336189652487
 20
158.1197464998891
 30
0.0000000000000000
 11
325.1292053863447
 21
158.1197464998891
 31
0.0000000000000000
  0
CIRCLE
  5
227
100
AcDbEntity
  8
MAIN0
  6
CONTINUOUS
 62
3
100
AcDbCircle
 10
321.7252129934812
 20
158.1197464998891
 30
0.0000000000000000
 40
2.500000000015270
  0
LINE
  5
228
100
AcDbEntity
  8
MAIN0
  6
CONTINUOUS
 62
3
100
AcDbLine
 10
328.4752129934812
 20
178.1197464994204
 30
0.0000000000000000
 11
328.4752129934812
 21
147.0197464998564
 31
0.0000000000000000
  0
LINE
  5
229
100
AcDbEntity
  8
MAIN0
  6
CONTINUOUS
 62
3
100
AcDbLine
 10
331.9752129934812
 20
148.2038044759144
 30
0.0000000000000000
 11
331.9752129934812
 21
147.0197464998570
 31
0.0000000000000000
  0
LINE
  5
22A
100
AcDbEntity
  8
MAIN0
  6
CONTINUOUS
 62
3
100
AcDbLine
 10
311.4752129934813
 20
147.0197464998530
 30
0.0000000000000000
 11
311.8752129934812
 21
146.6197464998531
 31
0.0000000000000000
  0
LINE
  5
22B
100
AcDbEntity
  8
MAIN0
  6
CONTINUOUS
 62
3
100
AcDbLine
 10
331.5752129934812
 20
146.6197464998569
 30
0.0000000000000000
 11
331.9752129934813
 21
147.0197464998570
 31
0.0000000000000000
  0
LINE
  5
22C
100
AcDbEntity
  8
MAIN0
  6
CONTINUOUS
 62
3
100
AcDbLine
 10
314.9752129934812
 20
147.0197464998537
 30
0.0000000000000000
 11
315.3752129934812
 21
146.6197464998538
 31
0.0000000000000000
  0
LINE
  5
22D
100
AcDbEntity
  8
MAIN0
  6
CONTINUOUS
 62
3
100
AcDbLine
 10
328.4752129934812
 20
147.0197464998564
 30
0.0000000000000000
 11
328.0752129934812
 21
146.6197464998563
 31
0.0000000000000000
  0
CIRCLE
  5
22E
100
AcDbEntity
  8
MAIN0
  6
CONTINUOUS
 62
3
100
AcDbCircle
 10
86.72521299349160
 20
196.1197464994208
 30
0.0000000000000000
 40
16.99999999999979
  0
CIRCLE
  5
22F
100
AcDbEntity
  8
MAIN0
  6
CONTINUOUS
 62
3
100
AcDbCircle
 10
86.72521299349160
 20
196.1197464994208
 30
0.0000000000000000
 40
16.20000000001143
  0
CIRCLE
  5
230
100
AcDbEntity
  8
MAIN0
  6
CONTINUOUS
 62
3
100
AcDbCircle
 10
106.6437972805337
 20
207.6197464994209
 30
0.0000000000000000
 40
4.749999999999996
  0
ARC
  5
231
100
AcDbEntity
  8
MAIN0
  6
CONTINUOUS
 62
3
100
AcDbCircle
 10
86.72521299349160
 20
196.1197464994210
 30
0.0000000000000000
 40
32.50000000000000
100
AcDbArc
 50
67.84730530352731
 51
112.1526946972891
  0
ARC
  5
232
100
AcDbEntity
  8
MAIN0
  6
CONTINUOUS
 62
3
100
AcDbCircle
 10
103.9752129938212
 20
225.9976229297946
 30
0.0000000000000000
 40
5.000000000000000
100
AcDbArc
 50
177.4432332015418
 51
239.9999999993683
  0
ARC
  5
233
100
AcDbEntity
  8
MAIN0
  6
CONTINUOUS
 62
3
100
AcDbCircle
 10
86.72521299349160
 20
196.1197464994210
 30
0.0000000000000000
 40
32.50000000000000
100
AcDbArc
 50
307.8473053042447
 51
352.1526946978523
  0
CIRCLE
  5
234
100
AcDbEntity
  8
MAIN0
  6
CONTINUOUS
 62
3
100
AcDbCircle
 10
86.72521299349160
 20
173.1197464994209
 30
0.0000000000000000
 40
4.749999999999996
  0
ARC
  5
235
100
AcDbEntity
  8
MAIN0
  6
CONTINUOUS
 62
3
100
AcDbCircle
 10
52.22521299349091
 20
196.1197464998012
 30
0.0000000000000000
 40
5.000000000000000
100
AcDbArc
 50
297.4432332015418
 51
359.9999999993684
  0
ARC
  5
236
100
AcDbEntity
  8
MAIN0
  6
CONTINUOUS
 62
3
100
AcDbCircle
 10
86.72521299349160
 20
196.1197464994210
 30
0.0000000000000000
 40
32.50000000000000
100
AcDbArc
 50
187.8473053035274
 51
232.1526946971917
  0
CIRCLE
  5
237
100
AcDbEntity
  8
MAIN0
  6
CONTINUOUS
 62
3
100
AcDbCircle
 10
66.80662870644949
 20
207.6197464994209
 30
0.0000000000000000
 40
4.749999999999996
  0
CIRCLE
  5
238
100
AcDbEntity
  8
MAIN0
  6
HIDDEN
 62
3
100
AcDbCircle
 10
63.72521299349165
 20
196.1197464994211
 30
0.0000000000000000
 40
2.000000000000000
  0
CIRCLE
  5
239
100
AcDbEntity
  8
MAIN0
  6
CONTINUOUS
 62
3
100
AcDbCircle
 10
66.80662870644943
 20
184.6197464994212
 30
0.0000000000000000
 40
4.749999999999996
  0
CIRCLE
  5
23A
100
AcDbEntity
  8
MAIN0
  6
CENTER
 62
3
100
AcDbCircle
 10
86.72521299349154
 20
196.1197464994209
 30
0.0000000000000000
 40
23.00000000000000
  0
ARC
  5
23B
100
AcDbEntity
  8
MAIN0
  6
CONTINUOUS
 62
3
100
AcDbCircle
 10
86.72521299349160
 20
196.1197464994210
 30
0.0000000000000000
 40
29.50000000000000
100
AcDbArc
 50
0.0000000000000000
 51
59.99999999936861
  0
ARC
  5
23C
100
AcDbEntity
  8
MAIN0
  6
HIDDEN
 62
3
100
AcDbCircle
 10
86.72521299349160
 20
196.1197464994210
 30
0.0000000000000000
 40
29.50000000000000
100
AcDbArc
 50
59.99999999936861
 51
120.0000000014078
  0
ARC
  5
23D
100
AcDbEntity
  8
MAIN0
  6
CONTINUOUS
 62
3
100
AcDbCircle
 10
86.72521299349137
 20
196.1197464994209
 30
0.0000000000000000
 40
29.50000000000000
100
AcDbArc
 50
120.0000000015389
 51
179.9999999993686
  0
ARC
  5
23E
100
AcDbEntity
  8
MAIN0
  6
HIDDEN
 62
3
100
AcDbCircle
 10
86.72521299349137
 20
196.1197464994209
 30
0.0000000000000000
 40
29.50000000000000
100
AcDbArc
 50
179.9999999993686
 51
240.0000000014080
  0
ARC
  5
23F
100
AcDbEntity
  8
MAIN0
  6
CONTINUOUS
 62
3
100
AcDbCircle
 10
86.72521299349160
 20
196.1197464994208
 30
0.0000000000000000
 40
29.50000000000000
100
AcDbArc
 50
240.0000000015392
 51
299.9999999993686
  0
ARC
  5
240
100
AcDbEntity
  8
MAIN0
  6
HIDDEN
 62
3
100
AcDbCircle
 10
86.72521299349160
 20
196.1197464994208
 30
0.0000000000000000
 40
29.50000000000000
100
AcDbArc
 50
299.9999999993686
 51
360.0000000000000
  0
CIRCLE
  5
241
100
AcDbEntity
  8
MAIN0
  6
CONTINUOUS
 62
3
100
AcDbCircle
 10
66.80662870644943
 20
207.6197464994208
 30
0.0000000000000000
 40
4.250000000000000
  0
LINE
  5
242
100
AcDbEntity
  8
MAIN0
  6
CONTINUOUS
 62
3
100
AcDbLine
 10
64.80662870644946
 20
208.7744470378001
 30
0.0000000000000000
 11
64.80662870644946
 21
206.4650459610415
 31
0.0000000000000000
  0
LINE
  5
243
100
AcDbEntity
  8
MAIN0
  6
CONTINUOUS
 62
3
100
AcDbLine
 10
64.80662870644943
 20
206.4650459610415
 30
0.0000000000000000
 11
66.80662870644943
 21
205.3103454226623
 31
0.0000000000000000
  0
LINE
  5
244
100
AcDbEntity
  8
MAIN0
  6
CONTINUOUS
 62
3
100
AcDbLine
 10
66.80662870644943
 20
205.3103454226623
 30
0.0000000000000000
 11
68.80662870644943
 21
206.4650459610415
 31
0.0000000000000000
  0
LINE
  5
245
100
AcDbEntity
  8
MAIN0
  6
CONTINUOUS
 62
3
100
AcDbLine
 10
68.80662870644940
 20
206.4650459610415
 30
0.0000000000000000
 11
68.80662870644940
 21
208.7744470378001
 31
0.0000000000000000
  0
LINE
  5
246
100
AcDbEntity
  8
MAIN0
  6
CONTINUOUS
 62
3
100
AcDbLine
 10
68.80662870644943
 20
208.7744470378001
 30
0.0000000000000000
 11
66.80662870644943
 21
209.9291475761793
 31
0.0000000000000000
  0
LINE
  5
247
100
AcDbEntity
  8
MAIN0
  6
CONTINUOUS
 62
3
100
AcDbLine
 10
66.80662870644943
 20
209.9291475761793
 30
0.0000000000000000
 11
64.80662870644943
 21
208.7744470378000
 31
0.0000000000000000
  0
CIRCLE
  5
248
100
AcDbEntity
  8
MAIN0
  6
CONTINUOUS
 62
3
100
AcDbCircle
 10
106.6437972805336
 20
207.6197464994209
 30
0.0000000000000000
 40
4.250000000000000
  0
LINE
  5
249
100
AcDbEntity
  8
MAIN0
  6
CONTINUOUS
 62
3
100
AcDbLine
 10
108.6437972805336
 20
208.7744470378002
 30
0.0000000000000000
 11
106.6437972805336
 21
209.9291475761794
 31
0.0000000000000000
  0
LINE
  5
24A
100
AcDbEntity
  8
MAIN0
  6
CONTINUOUS
 62
3
100
AcDbLine
 10
106.6437972805336
 20
209.9291475761794
 30
0.0000000000000000
 11
104.6437972805336
 21
208.7744470378002
 31
0.0000000000000000
  0
LINE
  5
24B
100
AcDbEntity
  8
MAIN0
  6
CONTINUOUS
 62
3
100
AcDbLine
 10
104.6437972805336
 20
208.7744470378001
 30
0.0000000000000000
 11
104.6437972805336
 21
206.4650459610417
 31
0.0000000000000000
  0
LINE
  5
24C
100
AcDbEntity
  8
MAIN0
  6
CONTINUOUS
 62
3
100
AcDbLine
 10
104.6437972805336
 20
206.4650459610417
 30
0.0000000000000000
 11
106.6437972805336
 21
205.3103454226624
 31
0.0000000000000000
  0
LINE
  5
24D
100
AcDbEntity
  8
MAIN0
  6
CONTINUOUS
 62
3
100
AcDbLine
 10
106.6437972805336
 20
205.3103454226624
 30
0.0000000000000000
 11
108.6437972805336
 21
206.4650459610417
 31
0.0000000000000000
  0
LINE
  5
24E
100
AcDbEntity
  8
MAIN0
  6
CONTINUOUS
 62
3
100
AcDbLine
 10
108.6437972805336
 20
206.4650459610416
 30
0.0000000000000000
 11
108.6437972805336
 21
208.7744470378001
 31
0.0000000000000000
  0
CIRCLE
  5
24F
100
AcDbEntity
  8
MAIN0
  6
CONTINUOUS
 62
3
100
AcDbCircle
 10
86.72521299326763
 20
173.1197464994208
 30
0.0000000000000000
 40
2.750000000000000
  0
CIRCLE
  5
250
100
AcDbEntity
  8
MAIN0
  6
CONTINUOUS
 62
3
100
AcDbCircle
 10
66.80662870644943
 20
184.6197464994212
 30
0.0000000000000000
 40
4.250000000000000
  0
LINE
  5
251
100
AcDbEntity
  8
MAIN0
  6
CONTINUOUS
 62
3
100
AcDbLine
 10
64.80662870644946
 20
185.7744470378005
 30
0.0000000000000000
 11
64.80662870644946
 21
183.4650459610420
 31
0.0000000000000000
  0
LINE
  5
252
100
AcDbEntity
  8
MAIN0
  6
CONTINUOUS
 62
3
100
AcDbLine
 10
64.80662870644943
 20
183.4650459610420
 30
0.0000000000000000
 11
66.80662870644943
 21
182.3103454226628
 31
0.0000000000000000
  0
LINE
  5
253
100
AcDbEntity
  8
MAIN0
  6
CONTINUOUS
 62
3
100
AcDbLine
 10
66.80662870644943
 20
182.3103454226627
 30
0.0000000000000000
 11
68.80662870644943
 21
183.4650459610420
 31
0.0000000000000000
  0
LINE
  5
254
100
AcDbEntity
  8
MAIN0
  6
CONTINUOUS
 62
3
100
AcDbLine
 10
68.80662870644940
 20
183.4650459610420
 30
0.0000000000000000
 11
68.80662870644940
 21
185.7744470378005
 31
0.0000000000000000
  0
LINE
  5
255
100
AcDbEntity
  8
MAIN0
  6
CONTINUOUS
 62
3
100
AcDbLine
 10
68.80662870644943
 20
185.7744470378005
 30
0.0000000000000000
 11
66.80662870644943
 21
186.9291475761798
 31
0.0000000000000000
  0
LINE
  5
256
100
AcDbEntity
  8
MAIN0
  6
CONTINUOUS
 62
3
100
AcDbLine
 10
66.80662870644943
 20
186.9291475761797
 30
0.0000000000000000
 11
64.80662870644943
 21
185.7744470378005
 31
0.0000000000000000
  0
CIRCLE
  5
257
100
AcDbEntity
  8
MAIN0
  6
CONTINUOUS
 62
3
100
AcDbCircle
 10
106.6437972805336
 20
184.6197464994210
 30
0.0000000000000000
 40
4.250000000000000
  0
LINE
  5
258
100
AcDbEntity
  8
MAIN0
  6
CONTINUOUS
 62
3
100
AcDbLine
 10
104.6437972805336
 20
185.7744470378002
 30
0.0000000000000000
 11
104.6437972805336
 21
183.4650459610417
 31
0.0000000000000000
  0
LINE
  5
259
100
AcDbEntity
  8
MAIN0
  6
CONTINUOUS
 62
3
100
AcDbLine
 10
104.6437972805336
 20
183.4650459610417
 30
0.0000000000000000
 11
106.6437972805336
 21
182.3103454226625
 31
0.0000000000000000
  0
LINE
  5
25A
100
AcDbEntity
  8
MAIN0
  6
CONTINUOUS
 62
3
100
AcDbLine
 10
106.6437972805336
 20
182.3103454226625
 30
0.0000000000000000
 11
108.6437972805336
 21
183.4650459610417
 31
0.0000000000000000
  0
LINE
  5
25B
100
AcDbEntity
  8
MAIN0
  6
CONTINUOUS
 62
3
100
AcDbLine
 10
108.6437972805336
 20
183.4650459610417
 30
0.0000000000000000
 11
108.6437972805336
 21
185.7744470378002
 31
0.0000000000000000
  0
LINE
  5
25C
100
AcDbEntity
  8
MAIN0
  6
CONTINUOUS
 62
3
100
AcDbLine
 10
108.6437972805336
 20
185.7744470378002
 30
0.0000000000000000
 11
106.6437972805336
 21
186.9291475761795
 31
0.0000000000000000
  0
LINE
  5
25D
100
AcDbEntity
  8
MAIN0
  6
CONTINUOUS
 62
3
100
AcDbLine
 10
106.6437972805336
 20
186.9291475761795
 30
0.0000000000000000
 11
104.6437972805336
 21
185.7744470378002
 31
0.0000000000000000
  0
LINE
  5
25E
100
AcDbEntity
  8
MAIN0
  6
HIDDEN
 62
3
100
AcDbLine
 10
342.2252129934282
 20
93.87906160756208
 30
0.0000000000000000
 11
342.2252129934282
 21
108.8790616075622
 31
0.0000000000000000
  0
LINE
  5
25F
100
AcDbEntity
  8
MAIN0
  6
HIDDEN
 62
3
100
AcDbLine
 10
334.2252129934282
 20
93.87906160756036
 30
0.0000000000000000
 11
342.2252129934282
 21
93.87906160756202
 31
0.0000000000000000
  0
LINE
  5
260
100
AcDbEntity
  8
MAIN0
  6
HIDDEN
 62
3
100
AcDbLine
 10
334.2252129934282
 20
93.87906160756047
 30
0.0000000000000000
 11
334.2252129934282
 21
108.8790616075549
 31
0.0000000000000000
  0
LINE
  5
261
100
AcDbEntity
  8
MAIN0
  6
HIDDEN
 62
3
100
AcDbLine
 10
345.7252129934282
 20
101.1290616075613
 30
0.0000000000000000
 11
345.2252129934282
 21
101.6290616075613
 31
0.0000000000000000
  0
LINE
  5
262
100
AcDbEntity
  8
MAIN0
  6
HIDDEN
 62
3
100
AcDbLine
 10
345.2252129934282
 20
101.6290616075613
 30
0.0000000000000000
 11
345.2252129934282
 21
104.1290616075613
 31
0.0000000000000000
  0
LINE
  5
263
100
AcDbEntity
  8
MAIN0
  6
HIDDEN
 62
3
100
AcDbLine
 10
345.2252129934282
 20
104.1290616075613
 30
0.0000000000000000
 11
345.7252129934282
 21
104.6290616075613
 31
0.0000000000000000
  0
LINE
  5
264
100
AcDbEntity
  8
MAIN0
  6
HIDDEN
 62
3
100
AcDbLine
 10
345.4752129934282
 20
101.3790616075613
 30
0.0000000000000000
 11
342.2252129934282
 21
101.3790616075613
 31
0.0000000000000000
  0
LINE
  5
265
100
AcDbEntity
  8
MAIN0
  6
HIDDEN
 62
3
100
AcDbLine
 10
342.2252129934282
 20
104.3790616075613
 30
0.0000000000000000
 11
345.4752129934282
 21
104.3790616075613
 31
0.0000000000000000
  0
LINE
  5
266
100
AcDbEntity
  8
MAIN0
  6
HIDDEN
 62
3
100
AcDbLine
 10
345.2252129934282
 20
101.6290616075613
 30
0.0000000000000000
 11
342.2252129934282
 21
101.6290616075613
 31
0.0000000000000000
  0
LINE
  5
267
100
AcDbEntity
  8
MAIN0
  6
HIDDEN
 62
3
100
AcDbLine
 10
342.2252129934282
 20
104.1290616075613
 30
0.0000000000000000
 11
345.2252129934282
 21
104.1290616075613
 31
0.0000000000000000
  0
LINE
  5
268
100
AcDbEntity
  8
MAIN0
  6
HIDDEN
 62
3
100
AcDbLine
 10
309.2252129934282
 20
93.87906160756049
 30
0.0000000000000000
 11
309.2252129934282
 21
108.8790616075549
 31
0.0000000000000000
  0
LINE
  5
269
100
AcDbEntity
  8
MAIN0
  6
HIDDEN
 62
3
100
AcDbLine
 10
309.2252129934282
 20
93.87906160756039
 30
0.0000000000000000
 11
301.2252129934282
 21
93.87906160756205
 31
0.0000000000000000
  0
LINE
  5
26A
100
AcDbEntity
  8
MAIN0
  6
HIDDEN
 62
3
100
AcDbLine
 10
301.2252129934282
 20
93.87906160756207
 30
0.0000000000000000
 11
301.2252129934282
 21
108.8790616075622
 31
0.0000000000000000
  0
LINE
  5
26B
100
AcDbEntity
  8
MAIN0
  6
HIDDEN
 62
3
100
AcDbLine
 10
297.9752129934282
 20
101.3790616075613
 30
0.0000000000000000
 11
301.2252129934282
 21
101.3790616075613
 31
0.0000000000000000
  0
LINE
  5
26C
100
AcDbEntity
  8
MAIN0
  6
HIDDEN
 62
3
100
AcDbLine
 10
298.2252129934282
 20
101.6290616075613
 30
0.0000000000000000
 11
301.2252129934282
 21
101.6290616075613
 31
0.0000000000000000
  0
LINE
  5
26D
100
AcDbEntity
  8
MAIN0
  6
HIDDEN
 62
3
100
AcDbLine
 10
301.2252129934282
 20
104.1290616075613
 30
0.0000000000000000
 11
298.2252129934282
 21
104.1290616075613
 31
0.0000000000000000
  0
LINE
  5
26E
100
AcDbEntity
  8
MAIN0
  6
HIDDEN
 62
3
100
AcDbLine
 10
301.2252129934282
 20
104.3790616075613
 30
0.0000000000000000
 11
297.9752129934282
 21
104.3790616075613
 31
0.0000000000000000
  0
LINE
  5
26F
100
AcDbEntity
  8
MAIN0
  6
HIDDEN
 62
3
100
AcDbLine
 10
298.2252129934282
 20
101.6290616075613
 30
0.0000000000000000
 11
298.2252129934282
 21
104.1290616075613
 31
0.0000000000000000
  0
LINE
  5
270
100
AcDbEntity
  8
MAIN0
  6
HIDDEN
 62
3
100
AcDbLine
 10
298.2252129934282
 20
104.1290616075613
 30
0.0000000000000000
 11
297.7252129934282
 21
104.6290616075613
 31
0.0000000000000000
  0
LINE
  5
271
100
AcDbEntity
  8
MAIN0
  6
HIDDEN
 62
3
100
AcDbLine
 10
297.7252129934282
 20
101.1290616075613
 30
0.0000000000000000
 11
298.2252129934282
 21
101.6290616075613
 31
0.0000000000000000
  0
LINE
  5
272
100
AcDbEntity
  8
MAIN0
  6
CONTINUOUS
 62
3
100
AcDbLine
 10
230.2252129934813
 20
214.1197464994206
 30
0.0000000000000000
 11
231.7252129934813
 21
214.1197464994206
 31
0.0000000000000000
  0
LINE
  5
273
100
AcDbEntity
  8
MAIN0
  6
CONTINUOUS
 62
3
100
AcDbLine
 10
230.2252129934813
 20
178.1197464994206
 30
0.0000000000000000
 11
231.7252129934813
 21
178.1197464994206
 31
0.0000000000000000
  0
LINE
  5
274
100
AcDbEntity
  8
MAIN0
  6
CONTINUOUS
 62
3
100
AcDbLine
 10
230.2252129934813
 20
178.1197464994206
 30
0.0000000000000000
 11
230.2252129934813
 21
214.1197464994206
 31
0.0000000000000000
  0
LINE
  5
275
100
AcDbEntity
  8
MAIN0
  6
CONTINUOUS
 62
3
100
AcDbLine
 10
231.7252129934813
 20
178.1197464994206
 30
0.0000000000000000
 11
231.7252129934813
 21
214.1197464994206
 31
0.0000000000000000
  0
ARC
  5
276
100
AcDbEntity
  8
MAIN0
  6
CONTINUOUS
 62
3
100
AcDbCircle
 10
69.47521299275715
 20
225.9976229295609
 30
0.0000000000000000
 40
5.000000000000000
100
AcDbArc
 50
300.0000000006315
 51
362.5567667984580
  0
ARC
  5
277
100
AcDbEntity
  8
MAIN0
  6
CONTINUOUS
 62
3
100
AcDbCircle
 10
69.47521299442764
 20
166.2418700687838
 30
0.0000000000000000
 40
5.000000000000000
100
AcDbArc
 50
60.00000000063146
 51
122.5567667984579
  0
ARC
  5
278
100
AcDbEntity
  8
MAIN0
  6
CONTINUOUS
 62
3
100
AcDbCircle
 10
121.2252129932900
 20
196.1197465006190
 30
0.0000000000000000
 40
5.000000000000000
100
AcDbArc
 50
180.0000000006315
 51
242.5567667984579
  0
LINE
  5
279
100
AcDbEntity
  8
MAIN0
  6
CONTINUOUS
 62
3
100
AcDbLine
 10
232.0252129934833
 20
222.6197464989707
 30
0.0000000000000000
 11
231.2252129934926
 21
222.6197464989707
 31
0.0000000000000000
  0
LINE
  5
27A
100
AcDbEntity
  8
MAIN1
  6
CONTINUOUS
 62
7
100
AcDbLine
 10
232.0252129934833
 20
237.1197464989707
 30
0.0000000000000000
 11
228.7252129934832
 21
237.1197464989707
 31
0.0000000000000000
  0
LINE
  5
27B
100
AcDbEntity
  8
MAIN0
  6
CONTINUOUS
 62
3
100
AcDbLine
 10
228.7252129934832
 20
237.1197464989707
 30
0.0000000000000000
 11
228.7252129934832
 21
231.1197464989707
 31
0.0000000000000000
  0
LINE
  5
27C
100
AcDbEntity
  8
MAIN0
  6
CONTINUOUS
 62
3
100
AcDbLine
 10
222.7252129934832
 20
236.6197464989809
 30
0.0000000000000000
 11
228.5252129934833
 21
236.6197464989809
 31
0.0000000000000000
  0
LINE
  5
27D
100
AcDbEntity
  8
MAIN0
  6
CENTER
 62
3
100
AcDbLine
 10
232.7971319761742
 20
234.1197464990112
 30
0.0000000000000000
 11
220.7958063154147
 21
234.1197464990050
 31
0.0000000000000000
  0
LINE
  5
27E
100
AcDbEntity
  8
MAIN0
  6
CONTINUOUS
 62
3
100
AcDbLine
 10
228.5252129934833
 20
231.6197464989809
 30
0.0000000000000000
 11
222.7252129934834
 21
231.6197464989809
 31
0.0000000000000000
  0
LINE
  5
27F
100
AcDbEntity
  8
MAIN1
  6
CONTINUOUS
 62
7
100
AcDbLine
 10
228.7252129934832
 20
231.1197464989707
 30
0.0000000000000000
 11
232.0252129934833
 21
231.1197464989707
 31
0.0000000000000000
  0
LINE
  5
280
100
AcDbEntity
  8
MAIN0
  6
CONTINUOUS
 62
3
100
AcDbLine
 10
231.6252129934903
 20
227.7697464990499
 30
0.0000000000000000
 11
223.2252129934903
 21
227.7697464990406
 31
0.0000000000000000
  0
LINE
  5
281
100
AcDbEntity
  8
MAIN0
  6
CONTINUOUS
 62
3
100
AcDbLine
 10
231.9752129934900
 20
228.1197464990502
 30
0.0000000000000000
 11
225.2252129934900
 21
228.1197464990427
 31
0.0000000000000000
  0
LINE
  5
282
100
AcDbEntity
  8
MAIN0
  6
CONTINUOUS
 62
3
100
AcDbLine
 10
231.6252129934904
 20
227.7697464990498
 30
0.0000000000000000
 11
231.6252129934941
 21
224.4697464990498
 31
0.0000000000000000
  0
LINE
  5
283
100
AcDbEntity
  8
MAIN0
  6
CONTINUOUS
 62
3
100
AcDbLine
 10
232.2252129934897
 20
228.3697464990504
 30
0.0000000000000000
 11
231.6252129934904
 21
227.7697464990498
 31
0.0000000000000000
  0
LINE
  5
284
100
AcDbEntity
  8
MAIN0
  6
CONTINUOUS
 62
3
100
AcDbLine
 10
223.2252129934940
 20
224.4697464990405
 30
0.0000000000000000
 11
231.6252129934939
 21
224.4697464990498
 31
0.0000000000000000
  0
LINE
  5
285
100
AcDbEntity
  8
MAIN0
  6
CONTINUOUS
 62
3
100
AcDbLine
 10
225.2252129934945
 20
224.1197464990427
 30
0.0000000000000000
 11
231.9752129934945
 21
224.1197464990502
 31
0.0000000000000000
  0
LINE
  5
286
100
AcDbEntity
  8
MAIN0
  6
CONTINUOUS
 62
3
100
AcDbLine
 10
231.6252129934941
 20
224.4697464990501
 30
0.0000000000000000
 11
232.2252129934948
 21
223.8697464990507
 31
0.0000000000000000
  0
LINE
  5
287
100
AcDbEntity
  8
MAIN0
  6
CONTINUOUS
 62
3
100
AcDbLine
 10
225.2252129934900
 20
228.1197464990426
 30
0.0000000000000000
 11
225.2252129934944
 21
224.1197464990427
 31
0.0000000000000000
  0
LINE
  5
288
100
AcDbEntity
  8
MAIN0
  6
CONTINUOUS
 62
3
100
AcDbLine
 10
222.2725850493290
 20
226.1197464990393
 30
0.0000000000000000
 11
223.2252129934937
 21
224.4697464990404
 31
0.0000000000000000
  0
LINE
  5
289
100
AcDbEntity
  8
MAIN0
  6
CONTINUOUS
 62
3
100
AcDbLine
 10
223.2252129934905
 20
227.7697464990405
 30
0.0000000000000000
 11
223.2252129934941
 21
224.4697464990406
 31
0.0000000000000000
  0
LINE
  5
28A
100
AcDbEntity
  8
MAIN0
  6
CONTINUOUS
 62
3
100
AcDbLine
 10
223.2252129934900
 20
227.7697464990402
 30
0.0000000000000000
 11
222.2725850493290
 21
226.1197464990392
 31
0.0000000000000000
  0
LINE
  5
28B
100
AcDbEntity
  8
MAIN0
  6
CENTER
 62
3
100
AcDbLine
 10
221.7496782386903
 20
226.1197464990415
 30
0.0000000000000000
 11
234.0350236197713
 21
226.1197464990585
 31
0.0000000000000000
  0
LINE
  5
28C
100
AcDbEntity
  8
MAIN0
  6
CENTER
 62
3
100
AcDbLine
 10
220.7252129934833
 20
242.1197464989711
 30
0.0000000000000000
 11
234.0350236197692
 21
242.1197464989728
 31
0.0000000000000000
  0
LINE
  5
28D
100
AcDbEntity
  8
MAIN0
  6
CONTINUOUS
 62
3
100
AcDbLine
 10
225.2252129934834
 20
240.1197464989707
 30
0.0000000000000000
 11
225.2252129934834
 21
244.1197464989707
 31
0.0000000000000000
  0
LINE
  5
28E
100
AcDbEntity
  8
MAIN0
  6
CONTINUOUS
 62
3
100
AcDbLine
 10
231.6252129934833
 20
240.4697464989706
 30
0.0000000000000000
 11
223.2252129934819
 21
240.4697464989706
 31
0.0000000000000000
  0
LINE
  5
28F
100
AcDbEntity
  8
MAIN0
  6
CONTINUOUS
 62
3
100
AcDbLine
 10
231.9752129934834
 20
240.1197464989707
 30
0.0000000000000000
 11
225.2252129934834
 21
240.1197464989707
 31
0.0000000000000000
  0
LINE
  5
290
100
AcDbEntity
  8
MAIN0
  6
CONTINUOUS
 62
3
100
AcDbLine
 10
223.2252129934841
 20
243.7697464989707
 30
0.0000000000000000
 11
231.6252129934833
 21
243.7697464989707
 31
0.0000000000000000
  0
LINE
  5
291
100
AcDbEntity
  8
MAIN0
  6
CONTINUOUS
 62
3
100
AcDbLine
 10
225.2252129934834
 20
244.1197464989707
 30
0.0000000000000000
 11
231.9752129934834
 21
244.1197464989707
 31
0.0000000000000000
  0
LINE
  5
292
100
AcDbEntity
  8
MAIN0
  6
CONTINUOUS
 62
3
100
AcDbLine
 10
231.6252129934833
 20
240.4697464989706
 30
0.0000000000000000
 11
231.6252129934833
 21
243.7697464989707
 31
0.0000000000000000
  0
LINE
  5
293
100
AcDbEntity
  8
MAIN0
  6
CONTINUOUS
 62
3
100
AcDbLine
 10
231.6252129934835
 20
243.7697464989707
 30
0.0000000000000000
 11
232.2252129934833
 21
244.3697464989707
 31
0.0000000000000000
  0
LINE
  5
294
100
AcDbEntity
  8
MAIN0
  6
CONTINUOUS
 62
3
100
AcDbLine
 10
232.2252129934834
 20
239.8697464989708
 30
0.0000000000000000
 11
231.6252129934833
 21
240.4697464989708
 31
0.0000000000000000
  0
LINE
  5
295
100
AcDbEntity
  8
MAIN0
  6
CONTINUOUS
 62
3
100
AcDbLine
 10
232.2252129934834
 20
222.8197464989706
 30
0.0000000000000000
 11
232.2252129934834
 21
230.9197464989707
 31
0.0000000000000000
  0
LINE
  5
296
100
AcDbEntity
  8
MAIN0
  6
CONTINUOUS
 62
3
100
AcDbLine
 10
232.2252129934834
 20
237.3197464989707
 30
0.0000000000000000
 11
232.2252129934834
 21
245.4197464989707
 31
0.0000000000000000
  0
LINE
  5
297
100
AcDbEntity
  8
MAIN0
  6
CONTINUOUS
 62
3
100
AcDbLine
 10
232.0252129934833
 20
245.6197464989707
 30
0.0000000000000000
 11
232.2252129934833
 21
245.4197464989707
 31
0.0000000000000000
  0
LINE
  5
298
100
AcDbEntity
  8
MAIN0
  6
CONTINUOUS
 62
3
100
AcDbLine
 10
232.2252129934833
 20
237.3197464989706
 30
0.0000000000000000
 11
232.0252129934832
 21
237.1197464989705
 31
0.0000000000000000
  0
LINE
  5
299
100
AcDbEntity
  8
MAIN0
  6
CONTINUOUS
 62
3
100
AcDbLine
 10
232.0252129934832
 20
231.1197464989706
 30
0.0000000000000000
 11
232.2252129934833
 21
230.9197464989706
 31
0.0000000000000000
  0
LINE
  5
29A
100
AcDbEntity
  8
MAIN0
  6
CONTINUOUS
 62
3
100
AcDbLine
 10
232.2252129934833
 20
222.8197464989707
 30
0.0000000000000000
 11
232.0252129934832
 21
222.6197464989707
 31
0.0000000000000000
  0
LINE
  5
29B
100
AcDbEntity
  8
MAIN1
  6
CONTINUOUS
 62
7
100
AcDbLine
 10
214.2252129934833
 20
245.4197464989713
 30
0.0000000000000000
 11
214.4252129934833
 21
245.6197464989712
 31
0.0000000000000000
  0
LINE
  5
29C
100
AcDbEntity
  8
MAIN0
  6
CONTINUOUS
 62
3
100
AcDbLine
 10
228.5252129934831
 20
236.6197464989808
 30
0.0000000000000000
 11
228.7252129934831
 21
236.8197464989808
 31
0.0000000000000000
  0
LINE
  5
29D
100
AcDbEntity
  8
MAIN0
  6
CONTINUOUS
 62
3
100
AcDbLine
 10
228.5252129934833
 20
231.6197464989809
 30
0.0000000000000000
 11
228.7252129934833
 21
231.4197464989808
 31
0.0000000000000000
  0
LINE
  5
29E
100
AcDbEntity
  8
MAIN0
  6
CONTINUOUS
 62
3
100
AcDbLine
 10
222.7252129934832
 20
236.6197464989809
 30
0.0000000000000000
 11
222.7252129934833
 21
231.6197464989811
 31
0.0000000000000000
  0
LINE
  5
29F
100
AcDbEntity
  8
MAIN0
  6
CONTINUOUS
 62
3
100
AcDbLine
 10
221.2818373195923
 20
234.1197464990053
 30
0.0000000000000000
 11
222.7252129925874
 21
231.6197464989810
 31
0.0000000000000000
  0
LINE
  5
2A0
100
AcDbEntity
  8
MAIN0
  6
CONTINUOUS
 62
3
100
AcDbLine
 10
221.2818373195925
 20
234.1197464990053
 30
0.0000000000000000
 11
222.7252129934833
 21
236.6197465005868
 31
0.0000000000000000
  0
LINE
  5
2A1
100
AcDbEntity
  8
MAIN0
  6
CONTINUOUS
 62
3
100
AcDbLine
 10
223.2252129934816
 20
243.7697464989658
 30
0.0000000000000000
 11
223.2252129934853
 21
240.4697464989658
 31
0.0000000000000000
  0
LINE
  5
2A2
100
AcDbEntity
  8
MAIN0
  6
CONTINUOUS
 62
3
100
AcDbLine
 10
221.1252129934834
 20
245.6197464989712
 30
0.0000000000000000
 11
220.7252129934833
 21
245.2197464989711
 31
0.0000000000000000
  0
LINE
  5
2A3
100
AcDbEntity
  8
MAIN0
  6
CONTINUOUS
 62
3
100
AcDbLine
 10
220.7252129934834
 20
245.2197464989710
 30
0.0000000000000000
 11
220.7252129934834
 21
238.1197464989711
 31
0.0000000000000000
  0
LINE
  5
2A4
100
AcDbEntity
  8
MAIN0
  6
CONTINUOUS
 62
3
100
AcDbLine
 10
220.7252129934834
 20
238.1197464989711
 30
0.0000000000000000
 11
216.7252129934834
 21
238.1197464989711
 31
0.0000000000000000
  0
LINE
  5
2A5
100
AcDbEntity
  8
MAIN0
  6
CONTINUOUS
 62
3
100
AcDbLine
 10
216.7252129934834
 20
238.1197464989711
 30
0.0000000000000000
 11
216.7252129934834
 21
245.2197464989710
 31
0.0000000000000000
  0
LINE
  5
2A6
100
AcDbEntity
  8
MAIN0
  6
CONTINUOUS
 62
3
100
AcDbLine
 10
216.7252129934833
 20
245.2197464989712
 30
0.0000000000000000
 11
216.3252129934833
 21
245.6197464989712
 31
0.0000000000000000
  0
LINE
  5
2A7
100
AcDbEntity
  8
MAIN0
  6
CONTINUOUS
 62
3
100
AcDbLine
 10
220.7252129934834
 20
238.1197464989711
 30
0.0000000000000000
 11
218.7252129934834
 21
236.9650459605919
 31
0.0000000000000000
  0
LINE
  5
2A8
100
AcDbEntity
  8
MAIN0
  6
CONTINUOUS
 62
3
100
AcDbLine
 10
218.7252129934832
 20
236.9650459605918
 30
0.0000000000000000
 11
216.7252129934833
 21
238.1197464989711
 31
0.0000000000000000
  0
LINE
  5
2A9
100
AcDbEntity
  8
MAIN0
  6
CONTINUOUS
 62
3
100
AcDbLine
 10
223.2252129934835
 20
240.4697464989706
 30
0.0000000000000000
 11
222.8252129934827
 21
240.8697464989714
 31
0.0000000000000000
  0
LINE
  5
2AA
100
AcDbEntity
  8
MAIN0
  6
CONTINUOUS
 62
3
100
AcDbLine
 10
222.8252129934828
 20
240.8697464989714
 30
0.0000000000000000
 11
222.8252129934828
 21
243.3697464989714
 31
0.0000000000000000
  0
LINE
  5
2AB
100
AcDbEntity
  8
MAIN0
  6
CONTINUOUS
 62
3
100
AcDbLine
 10
222.8252129934826
 20
243.3697464989715
 30
0.0000000000000000
 11
223.2252129934818
 21
243.7697464989707
 31
0.0000000000000000
  0
LINE
  5
2AC
100
AcDbEntity
  8
MAIN0
  6
CONTINUOUS
 62
3
100
AcDbLine
 10
223.0752129934828
 20
240.6197464989714
 30
0.0000000000000000
 11
220.7252129934835
 21
240.6197464989714
 31
0.0000000000000000
  0
LINE
  5
2AD
100
AcDbEntity
  8
MAIN0
  6
CONTINUOUS
 62
3
100
AcDbLine
 10
223.0752129934828
 20
243.6197464989714
 30
0.0000000000000000
 11
220.7252129934835
 21
243.6197464989714
 31
0.0000000000000000
  0
LINE
  5
2AE
100
AcDbEntity
  8
MAIN0
  6
CONTINUOUS
 62
3
100
AcDbLine
 10
222.8252129934828
 20
240.8697464989714
 30
0.0000000000000000
 11
220.7252129934835
 21
240.8697464989714
 31
0.0000000000000000
  0
LINE
  5
2AF
100
AcDbEntity
  8
MAIN0
  6
CONTINUOUS
 62
3
100
AcDbLine
 10
220.7252129934835
 20
243.3697464989714
 30
0.0000000000000000
 11
222.8252129934828
 21
243.3697464989714
 31
0.0000000000000000
  0
LINE
  5
2B0
100
AcDbEntity
  8
MAIN1
  6
CONTINUOUS
 62
7
100
AcDbLine
 10
214.4252129934833
 20
245.6197464989712
 30
0.0000000000000000
 11
232.0252129934833
 21
245.6197464989707
 31
0.0000000000000000
  0
LINE
  5
2B1
100
AcDbEntity
  8
MAIN0
  6
CENTER
 62
3
100
AcDbLine
 10
218.7252129934809
 20
235.8292671959778
 30
0.0000000000000000
 11
218.7252129934857
 21
246.9405284951255
 31
0.0000000000000000
  0
LINE
  5
2B2
100
AcDbEntity
  8
MAIN1
  6
CONTINUOUS
 62
7
100
AcDbLine
 10
214.2252129934833
 20
245.4197464989713
 30
0.0000000000000000
 11
214.2252129934833
 21
245.1197464994206
 31
0.0000000000000000
  0
LINE
  5
2B3
100
AcDbEntity
  8
MAIN0
  6
CONTINUOUS
 62
3
100
AcDbLine
 10
96.52521299349169
 20
245.6197464989750
 30
0.0000000000000000
 11
76.92521299349164
 21
245.6197464989750
 31
0.0000000000000000
  0
LINE
  5
2B4
100
AcDbEntity
  8
MAIN0
  6
CONTINUOUS
 62
3
100
AcDbLine
 10
96.92521299349167
 20
244.0463570618210
 30
0.0000000000000000
 11
96.92521299349167
 21
245.2197464989751
 31
0.0000000000000000
  0
LINE
  5
2B5
100
AcDbEntity
  8
MAIN0
  6
CONTINUOUS
 62
3
100
AcDbLine
 10
96.92521299349164
 20
245.2197464989754
 30
0.0000000000000000
 11
96.52521299349172
 21
245.6197464989754
 31
0.0000000000000000
  0
LINE
  5
2B6
100
AcDbEntity
  8
MAIN0
  6
CONTINUOUS
 62
3
100
AcDbLine
 10
92.72521299349171
 20
208.4197464987888
 30
0.0000000000000000
 11
93.05218001003351
 21
208.6085209938053
 31
0.0000000000000000
  0
LINE
  5
2B7
100
AcDbEntity
  8
MAIN0
  6
CONTINUOUS
 62
3
100
AcDbLine
 10
80.72521299349188
 20
208.4197464987888
 30
0.0000000000000000
 11
80.39824597694991
 21
208.6085209938055
 31
0.0000000000000000
  0
LINE
  5
2B8
100
AcDbEntity
  8
MAIN0
  6
CONTINUOUS
 62
3
100
AcDbLine
 10
76.52521299349166
 20
244.0463570618211
 30
0.0000000000000000
 11
76.52521299349166
 21
245.2197464989751
 31
0.0000000000000000
  0
LINE
  5
2B9
100
AcDbEntity
  8
MAIN0
  6
CONTINUOUS
 62
3
100
AcDbLine
 10
76.52521299349181
 20
245.2197464989749
 30
0.0000000000000000
 11
76.92521299349176
 21
245.6197464989749
 31
0.0000000000000000
  0
LINE
  5
2BA
100
AcDbEntity
  8
MAIN0
  6
CONTINUOUS
 62
3
100
AcDbLine
 10
92.72521299349165
 20
208.4197464987887
 30
0.0000000000000000
 11
89.35021299349162
 21
208.4197464987887
 31
0.0000000000000000
  0
LINE
  5
2BB
100
AcDbEntity
  8
MAIN0
  6
CONTINUOUS
 62
3
100
AcDbLine
 10
84.10021299349160
 20
208.4197464987887
 30
0.0000000000000000
 11
80.72521299349182
 21
208.4197464987887
 31
0.0000000000000000
  0
LINE
  5
2BC
100
AcDbEntity
  8
MAIN0
  6
CONTINUOUS
 62
3
100
AcDbLine
 10
84.10021299349160
 20
208.4197464987885
 30
0.0000000000000000
 11
84.10021299349160
 21
209.8714509392348
 31
0.0000000000000000
  0
LINE
  5
2BD
100
AcDbEntity
  8
MAIN0
  6
CONTINUOUS
 62
3
100
AcDbLine
 10
89.35021299349162
 20
208.4197464987885
 30
0.0000000000000000
 11
89.35021299349162
 21
209.8714509392348
 31
0.0000000000000000
  0
LINE
  5
2BE
100
AcDbEntity
  8
MAIN0
  6
CONTINUOUS
 62
3
100
AcDbLine
 10
76.92521299430118
 20
146.6197464998666
 30
0.0000000000000000
 11
96.52521299430123
 21
146.6197464998666
 31
0.0000000000000000
  0
LINE
  5
2BF
100
AcDbEntity
  8
MAIN0
  6
CONTINUOUS
 62
3
100
AcDbLine
 10
76.52521299430120
 20
148.1931359370205
 30
0.0000000000000000
 11
76.52521299430120
 21
147.0197464998665
 31
0.0000000000000000
  0
LINE
  5
2C0
100
AcDbEntity
  8
MAIN0
  6
CONTINUOUS
 62
3
100
AcDbLine
 10
76.52521299430117
 20
147.0197464998661
 30
0.0000000000000000
 11
76.92521299430109
 21
146.6197464998662
 31
0.0000000000000000
  0
LINE
  5
2C1
100
AcDbEntity
  8
MAIN0
  6
CONTINUOUS
 62
3
100
AcDbLine
 10
80.72521299430113
 20
183.8197465000528
 30
0.0000000000000000
 11
80.39824597775933
 21
183.6309720050362
 31
0.0000000000000000
  0
LINE
  5
2C2
100
AcDbEntity
  8
MAIN0
  6
CONTINUOUS
 62
3
100
AcDbLine
 10
92.72521299430102
 20
183.8197465000528
 30
0.0000000000000000
 11
93.05218001084299
 21
183.6309720050361
 31
0.0000000000000000
  0
LINE
  5
2C3
100
AcDbEntity
  8
MAIN0
  6
CONTINUOUS
 62
3
100
AcDbLine
 10
96.92521299430121
 20
148.1931359370205
 30
0.0000000000000000
 11
96.92521299430121
 21
147.0197464998665
 31
0.0000000000000000
  0
LINE
  5
2C4
100
AcDbEntity
  8
MAIN0
  6
CONTINUOUS
 62
3
100
AcDbLine
 10
96.92521299430101
 20
147.0197464998666
 30
0.0000000000000000
 11
96.52521299430103
 21
146.6197464998667
 31
0.0000000000000000
  0
LINE
  5
2C5
100
AcDbEntity
  8
MAIN0
  6
CONTINUOUS
 62
3
100
AcDbLine
 10
80.72521299430122
 20
183.8197465000528
 30
0.0000000000000000
 11
84.10021299430125
 21
183.8197465000528
 31
0.0000000000000000
  0
LINE
  5
2C6
100
AcDbEntity
  8
MAIN0
  6
CONTINUOUS
 62
3
100
AcDbLine
 10
89.35021299430127
 20
183.8197465000528
 30
0.0000000000000000
 11
92.72521299430105
 21
183.8197465000528
 31
0.0000000000000000
  0
LINE
  5
2C7
100
AcDbEntity
  8
MAIN0
  6
CONTINUOUS
 62
3
100
AcDbLine
 10
89.35021299430127
 20
183.8197465000531
 30
0.0000000000000000
 11
89.35021299430127
 21
182.3680420596068
 31
0.0000000000000000
  0
LINE
  5
2C8
100
AcDbEntity
  8
MAIN0
  6
CONTINUOUS
 62
3
100
AcDbLine
 10
84.10021299430125
 20
183.8197465000531
 30
0.0000000000000000
 11
84.10021299430125
 21
182.3680420596068
 31
0.0000000000000000
  0
ARC
  5
2C9
100
AcDbEntity
  8
MAIN0
  6
CONTINUOUS
 62
3
100
AcDbCircle
 10
78.47521299349680
 20
191.3566067788311
 30
0.0000000000000000
 40
5.000000000000000
100
AcDbArc
 50
0.0000000000000000
 51
60.00000000006369
  0
ARC
  5
2CA
100
AcDbEntity
  8
MAIN0
  6
CONTINUOUS
 62
3
100
AcDbCircle
 10
86.72521299349157
 20
196.1197464996545
 30
0.0000000000000000
 40
6.000000000000000
100
AcDbArc
 50
182.7971682958868
 51
237.2028317042390
  0
LINE
  5
2CB
100
AcDbEntity
  8
MAIN0
  6
CONTINUOUS
 62
3
100
AcDbLine
 10
80.97521299349199
 20
195.6867337977561
 30
0.0000000000000000
 11
78.67482390021377
 21
197.0148640599977
 31
0.0000000000000000
  0
ARC
  5
2CC
100
AcDbEntity
  8
MAIN0
  6
CONTINUOUS
 62
3
100
AcDbCircle
 10
86.72521299349157
 20
196.1197464996545
 30
0.0000000000000000
 40
8.100000000000023
100
AcDbArc
 50
126.3446200079503
 51
173.6553799921758
  0
LINE
  5
2CD
100
AcDbEntity
  8
MAIN0
  6
CONTINUOUS
 62
3
100
AcDbLine
 10
84.22521299348588
 20
201.3158989223584
 30
0.0000000000000000
 11
81.92482390020757
 21
202.6440291846001
 31
0.0000000000000000
  0
ARC
  5
2CE
100
AcDbEntity
  8
MAIN0
  6
CONTINUOUS
 62
3
100
AcDbCircle
 10
86.72521299348099
 20
205.6460259412834
 30
0.0000000000000000
 40
5.000000000000000
100
AcDbArc
 50
240.0000000000638
 51
300.0000000000641
  0
ARC
  5
2CF
100
AcDbEntity
  8
MAIN0
  6
CONTINUOUS
 62
3
100
AcDbCircle
 10
86.72521299349157
 20
196.1197464996545
 30
0.0000000000000000
 40
6.000000000000000
100
AcDbArc
 50
62.79716829588679
 51
117.2028317042390
  0
LINE
  5
2D0
100
AcDbEntity
  8
MAIN0
  6
CONTINUOUS
 62
3
100
AcDbLine
 10
89.22521299348585
 20
201.3158989223640
 30
0.0000000000000000
 11
91.52560208676104
 21
202.6440291846107
 31
0.0000000000000000
  0
ARC
  5
2D1
100
AcDbEntity
  8
MAIN0
  6
CONTINUOUS
 62
3
100
AcDbCircle
 10
86.72521299349157
 20
196.1197464996545
 30
0.0000000000000000
 40
8.100000000000023
100
AcDbArc
 50
6.344620007950876
 51
53.65537999217597
  0
LINE
  5
2D2
100
AcDbEntity
  8
MAIN0
  6
CONTINUOUS
 62
3
100
AcDbLine
 10
92.47521299349199
 20
195.6867337977686
 30
0.0000000000000000
 11
94.77560208676729
 21
197.0148640600154
 31
0.0000000000000000
  0
ARC
  5
2D3
100
AcDbEntity
  8
MAIN0
  6
CONTINUOUS
 62
3
100
AcDbCircle
 10
94.97521299349680
 20
191.3566067788493
 30
0.0000000000000000
 40
5.000000000000000
100
AcDbArc
 50
120.0000000000635
 51
180.0000000000000
  0
ARC
  5
2D4
100
AcDbEntity
  8
MAIN0
  6
CONTINUOUS
 62
3
100
AcDbCircle
 10
86.72521299349157
 20
196.1197464996545
 30
0.0000000000000000
 40
6.000000000000000
100
AcDbArc
 50
302.7971682958868
 51
357.2028317042389
  0
LINE
  5
2D5
100
AcDbEntity
  8
MAIN0
  6
CONTINUOUS
 62
3
100
AcDbLine
 10
83.47521299349671
 20
191.3566067788367
 30
0.0000000000000000
 11
83.47521299349967
 21
188.7003462543481
 31
0.0000000000000000
  0
ARC
  5
2D6
100
AcDbEntity
  8
MAIN0
  6
CONTINUOUS
 62
3
100
AcDbCircle
 10
86.72521299349157
 20
196.1197464996545
 30
0.0000000000000000
 40
8.100000000000023
100
AcDbArc
 50
246.3446200079511
 51
293.6553799921762
  0
LINE
  5
2D7
100
AcDbEntity
  8
MAIN0
  6
CONTINUOUS
 62
3
100
AcDbLine
 10
89.97521299349671
 20
191.3566067788437
 30
0.0000000000000000
 11
89.97521299349967
 21
188.7003462543553
 31
0.0000000000000000
  0
LINE
  5
2D8
100
AcDbEntity
  8
MAIN0
  6
CONTINUOUS
 62
3
100
AcDbLine
 10
81.52906057136974
 20
209.1197464996545
 30
0.0000000000000000
 11
84.02521299347652
 21
209.1197464996545
 31
0.0000000000000000
  0
LINE
  5
2D9
100
AcDbEntity
  8
MAIN0
  6
CONTINUOUS
 62
3
100
AcDbLine
 10
84.02521299347623
 20
209.8569223372674
 30
0.0000000000000000
 11
84.02521299347706
 21
209.1197464996545
 31
0.0000000000000000
  0
LINE
  5
2DA
100
AcDbEntity
  8
MAIN0
  6
CONTINUOUS
 62
3
100
AcDbLine
 10
81.97521299347702
 20
209.2893136904814
 30
0.0000000000000000
 11
81.97521299347721
 21
209.1197464996546
 31
0.0000000000000000
  0
LINE
  5
2DB
100
AcDbEntity
  8
MAIN0
  6
CONTINUOUS
 62
3
100
AcDbLine
 10
91.92136541558452
 20
209.1197464996661
 30
0.0000000000000000
 11
89.42521299347763
 21
209.1197464996606
 31
0.0000000000000000
  0
LINE
  5
2DC
100
AcDbEntity
  8
MAIN0
  6
CONTINUOUS
 62
3
100
AcDbLine
 10
89.42521299347627
 20
209.8569223372734
 30
0.0000000000000000
 11
89.42521299347709
 21
209.1197464996606
 31
0.0000000000000000
  0
LINE
  5
2DD
100
AcDbEntity
  8
MAIN0
  6
CONTINUOUS
 62
3
100
AcDbLine
 10
91.47521299347685
 20
209.2893136904920
 30
0.0000000000000000
 11
91.47521299347704
 21
209.1197464996645
 31
0.0000000000000000
  0
LINE
  5
2DE
100
AcDbEntity
  8
MAIN0
  6
CONTINUOUS
 62
3
100
AcDbLine
 10
91.92136541561339
 20
183.1197464996546
 30
0.0000000000000000
 11
89.42521299350662
 21
183.1197464996546
 31
0.0000000000000000
  0
LINE
  5
2DF
100
AcDbEntity
  8
MAIN0
  6
CONTINUOUS
 62
3
100
AcDbLine
 10
89.42521299350690
 20
182.3825706620417
 30
0.0000000000000000
 11
89.42521299350608
 21
183.1197464996546
 31
0.0000000000000000
  0
LINE
  5
2E0
100
AcDbEntity
  8
MAIN0
  6
CONTINUOUS
 62
3
100
AcDbLine
 10
91.47521299350612
 20
182.9501793088276
 30
0.0000000000000000
 11
91.47521299350592
 21
183.1197464996545
 31
0.0000000000000000
  0
LINE
  5
2E1
100
AcDbEntity
  8
MAIN0
  6
CONTINUOUS
 62
3
100
AcDbLine
 10
81.52906057139865
 20
183.1197464996430
 30
0.0000000000000000
 11
84.02521299350553
 21
183.1197464996485
 31
0.0000000000000000
  0
LINE
  5
2E2
100
AcDbEntity
  8
MAIN0
  6
CONTINUOUS
 62
3
100
AcDbLine
 10
84.02521299350687
 20
182.3825706620357
 30
0.0000000000000000
 11
84.02521299350605
 21
183.1197464996485
 31
0.0000000000000000
  0
LINE
  5
2E3
100
AcDbEntity
  8
MAIN0
  6
CONTINUOUS
 62
3
100
AcDbLine
 10
81.97521299350629
 20
182.9501793088171
 30
0.0000000000000000
 11
81.97521299350609
 21
183.1197464996446
 31
0.0000000000000000
  0
LEADER
  5
2E4
100
AcDbEntity
  8
MAIN0
  6
CONTINUOUS
 62
3
100
AcDbLeader
  3
MAIN001
 73
     0
 74
     0
 75
     1
 40
3.099999904632568
 41
26.11100072956083
 76
     3
 10
323.9505011438051
 20
235.2590851878872
 30
0.0000000000000000
 10
362.6785402145230
 20
255.0876872740653
 30
0.0000000000000000
 10
364.6035401587331
 20
255.0876872740653
 30
0.0000000000000000
340
2E5
213
0.0000000000000000
223
-0.5000000000000000
233
0.0000000000000000
1001
ACAD
1000
DSTYLE
1002
{
1070
   147
1040
0.0
1070
    77
1070
     1
1070
   173
1070
     1
1070
     6
1000
_OPEN
1070
     7
1000
_OPEN
1002
}
  0
MTEXT
  5
2E5
102
{ACAD_REACTORS
330
2E4
102
}
100
AcDbEntity
  8
MAIN0
  6
CONTINUOUS
 62
3
100
AcDbMText
 10
364.6045401587331
 20
258.6876871786978
 30
0.0000000000000000
 40
3.099999904632568
 41
0.0000000000000000
 71
     1
 72
     1
  1
{\H0.93x;{2-\U+22055H8 深6\PDepth 6}}
 11
1.000000000000000
 21
0.0000000000000000
 31
0.0000000000000000
  7
KNJYOKO
  0
LINE
  5
2E6
100
AcDbEntity
  8
MAIN0
  6
CONTINUOUS
 62
3
100
AcDbLine
 10
351.2252129934282
 20
77.77906160755072
 30
0.0000000000000000
 11
351.2252129934282
 21
80.97906160755076
 31
0.0000000000000000
  0
LINE
  5
2E7
100
AcDbEntity
  8
MAIN0
  6
CONTINUOUS
 62
3
100
AcDbLine
 10
289.2252129934282
 20
72.77906160754394
 30
0.0000000000000000
 11
289.2252129934282
 21
76.97906160755100
 31
0.0000000000000000
  0
LINE
  5
2E8
100
AcDbEntity
  8
MAIN0
  6
CONTINUOUS
 62
3
100
AcDbLine
 10
289.6252129934281
 20
72.37906160754400
 30
0.0000000000000000
 11
289.2252129934281
 21
72.77906160754392
 31
0.0000000000000000
  0
LINE
  5
2E9
100
AcDbEntity
  8
MAIN0
  6
CONTINUOUS
 62
3
100
AcDbLine
 10
351.2252129934282
 20
80.97906160755078
 30
0.0000000000000000
 11
350.8252129934282
 21
81.37906160755078
 31
0.0000000000000000
  0
LINE
  5
2EA
100
AcDbEntity
  8
MAIN0
  6
CONTINUOUS
 62
3
100
AcDbLine
 10
289.6252129934279
 20
77.37906160755098
 30
0.0000000000000000
 11
306.9752129943159
 21
77.37906160754930
 31
0.0000000000000000
  0
LINE
  5
2EB
100
AcDbEntity
  8
MAIN0
  6
CONTINUOUS
 62
3
100
AcDbLine
 10
289.2252129934282
 20
76.97906160755107
 30
0.0000000000000000
 11
289.6252129934281
 21
77.37906160755097
 31
0.0000000000000000
  0
LINE
  5
2EC
100
AcDbEntity
  8
MAIN0
  6
CONTINUOUS
 62
3
100
AcDbLine
 10
292.2252129934280
 20
80.97906160755071
 30
0.0000000000000000
 11
292.6252129934280
 21
81.37906160755068
 31
0.0000000000000000
  0
ARC
  5
2ED
100
AcDbEntity
  8
MAIN0
  6
CONTINUOUS
 62
3
100
AcDbCircle
 10
291.8252129934281
 20
77.77906160755077
 30
0.0000000000000000
 40
0.4000000000000000
100
AcDbArc
 50
270.0000000000000
 51
360.0000000000000
  0
LINE
  5
2EE
100
AcDbEntity
  8
MAIN0
  6
CONTINUOUS
 62
3
100
AcDbLine
 10
337.9252129934300
 20
67.37906160754955
 30
0.0000000000000000
 11
305.5252129934281
 21
67.37906160754645
 31
0.0000000000000000
  0
LINE
  5
2EF
100
AcDbEntity
  8
MAIN0
  6
CONTINUOUS
 62
3
100
AcDbLine
 10
304.7252129934282
 20
68.76470225360154
 30
0.0000000000000000
 11
304.7252129934282
 21
72.37906160754645
 31
0.0000000000000000
  0
LINE
  5
2F0
100
AcDbEntity
  8
MAIN0
  6
CONTINUOUS
 62
3
100
AcDbLine
 10
338.7252129934282
 20
68.76470225360151
 30
0.0000000000000000
 11
338.7252129934282
 21
72.37906160754645
 31
0.0000000000000000
  0
LINE
  5
2F1
100
AcDbEntity
  8
MAIN0
  6
CONTINUOUS
 62
3
100
AcDbLine
 10
305.5252129934281
 20
67.37906160754648
 30
0.0000000000000000
 11
304.7252129934281
 21
68.76470225360156
 31
0.0000000000000000
  0
LINE
  5
2F2
100
AcDbEntity
  8
MAIN0
  6
CONTINUOUS
 62
3
100
AcDbLine
 10
337.9252129934282
 20
67.37906160754645
 30
0.0000000000000000
 11
338.7252129934282
 21
68.76470225360151
 31
0.0000000000000000
  0
LINE
  5
2F3
100
AcDbEntity
  8
MAIN0
  6
CONTINUOUS
 62
3
100
AcDbLine
 10
292.6252129934282
 20
81.37906160755072
 30
0.0000000000000000
 11
350.8252129934281
 21
81.37906160755068
 31
0.0000000000000000
  0
LINE
  5
2F4
100
AcDbEntity
  8
MAIN0
  6
CONTINUOUS
 62
3
100
AcDbLine
 10
289.6252129934281
 20
72.37906160754399
 30
0.0000000000000000
 11
353.8252129934282
 21
72.37906160755108
 31
0.0000000000000000
  0
LINE
  5
2F5
100
AcDbEntity
  8
MAIN0
  6
CONTINUOUS
 62
3
100
AcDbLine
 10
354.2252129934282
 20
72.77906160754387
 30
0.0000000000000000
 11
354.2252129934282
 21
76.97906160755093
 31
0.0000000000000000
  0
LINE
  5
2F6
100
AcDbEntity
  8
MAIN0
  6
CONTINUOUS
 62
3
100
AcDbLine
 10
354.2252129934282
 20
76.97906160755099
 30
0.0000000000000000
 11
353.8252129934283
 21
77.37906160755087
 31
0.0000000000000000
  0
LINE
  5
2F7
100
AcDbEntity
  8
MAIN0
  6
CONTINUOUS
 62
3
100
AcDbLine
 10
353.8252129934285
 20
77.37906160755092
 30
0.0000000000000000
 11
336.4752129925404
 21
77.37906160754928
 31
0.0000000000000000
  0
LINE
  5
2F8
100
AcDbEntity
  8
MAIN0
  6
CONTINUOUS
 62
3
100
AcDbLine
 10
353.8252129934283
 20
72.37906160754388
 30
0.0000000000000000
 11
354.2252129934283
 21
72.77906160754381
 31
0.0000000000000000
  0
LINE
  5
2F9
100
AcDbEntity
  8
MAIN0
  6
CONTINUOUS
 62
3
100
AcDbLine
 10
232.0252129934833
 20
169.6197464998704
 30
0.0000000000000000
 11
231.2252129934906
 21
169.6197464998704
 31
0.0000000000000000
  0
LINE
  5
2FA
100
AcDbEntity
  8
MAIN1
  6
CONTINUOUS
 62
7
100
AcDbLine
 10
232.0252129934833
 20
155.1197464998704
 30
0.0000000000000000
 11
231.2252129934906
 21
155.1197464998704
 31
0.0000000000000000
  0
LINE
  5
2FB
100
AcDbEntity
  8
MAIN1
  6
CONTINUOUS
 62
7
100
AcDbLine
 10
231.2252129934906
 20
161.1197464998704
 30
0.0000000000000000
 11
232.0252129934833
 21
161.1197464998704
 31
0.0000000000000000
  0
LINE
  5
2FC
100
AcDbEntity
  8
MAIN0
  6
CONTINUOUS
 62
3
100
AcDbLine
 10
232.2252129934834
 20
169.4197464998705
 30
0.0000000000000000
 11
232.2252129934834
 21
161.3197464998705
 31
0.0000000000000000
  0
LINE
  5
2FD
100
AcDbEntity
  8
MAIN0
  6
CONTINUOUS
 62
3
100
AcDbLine
 10
232.2252129934834
 20
154.9197464998704
 30
0.0000000000000000
 11
232.2252129934834
 21
146.8197464998704
 31
0.0000000000000000
  0
LINE
  5
2FE
100
AcDbEntity
  8
MAIN0
  6
CONTINUOUS
 62
3
100
AcDbLine
 10
232.0252129934833
 20
146.6197464998704
 30
0.0000000000000000
 11
232.2252129934833
 21
146.8197464998705
 31
0.0000000000000000
  0
LINE
  5
2FF
100
AcDbEntity
  8
MAIN0
  6
CONTINUOUS
 62
3
100
AcDbLine
 10
232.2252129934833
 20
154.9197464998705
 30
0.0000000000000000
 11
232.0252129934832
 21
155.1197464998706
 31
0.0000000000000000
  0
LINE
  5
300
100
AcDbEntity
  8
MAIN0
  6
CONTINUOUS
 62
3
100
AcDbLine
 10
232.0252129934832
 20
161.1197464998705
 30
0.0000000000000000
 11
232.2252129934833
 21
161.3197464998705
 31
0.0000000000000000
  0
LINE
  5
301
100
AcDbEntity
  8
MAIN0
  6
CONTINUOUS
 62
3
100
AcDbLine
 10
232.2252129934833
 20
169.4197464998704
 30
0.0000000000000000
 11
232.0252129934832
 21
169.6197464998704
 31
0.0000000000000000
  0
LINE
  5
302
100
AcDbEntity
  8
MAIN1
  6
CONTINUOUS
 62
7
100
AcDbLine
 10
214.2252129934833
 20
146.8197464998698
 30
0.0000000000000000
 11
214.4252129934833
 21
146.6197464998699
 31
0.0000000000000000
  0
LINE
  5
303
100
AcDbEntity
  8
MAIN1
  6
CONTINUOUS
 62
7
100
AcDbLine
 10
214.4252129934833
 20
146.6197464998699
 30
0.0000000000000000
 11
232.0252129934833
 21
146.6197464998704
 31
0.0000000000000000
  0
LINE
  5
304
100
AcDbEntity
  8
MAIN1
  6
CONTINUOUS
 62
7
100
AcDbLine
 10
214.2252129934833
 20
146.8197464998698
 30
0.0000000000000000
 11
214.2252129934833
 21
147.1197464994206
 31
0.0000000000000000
  0
CIRCLE
  5
305
100
AcDbEntity
  8
MAIN0
  6
CONTINUOUS
 62
3
100
AcDbCircle
 10
225.2252129934813
 20
171.1197464994206
 30
0.0000000000000000
 40
1.500000000000000
  0
CIRCLE
  5
306
100
AcDbEntity
  8
MAIN0
  6
CONTINUOUS
 62
3
100
AcDbCircle
 10
225.2252129934813
 20
171.1197464994206
 30
0.0000000000000000
 40
1.250000000000000
  0
CIRCLE
  5
307
100
AcDbEntity
  8
MAIN0
  6
CONTINUOUS
 62
3
100
AcDbCircle
 10
225.2252129934813
 20
221.1197464994206
 30
0.0000000000000000
 40
1.500000000000000
  0
CIRCLE
  5
308
100
AcDbEntity
  8
MAIN0
  6
CONTINUOUS
 62
3
100
AcDbCircle
 10
225.2252129934813
 20
221.1197464994206
 30
0.0000000000000000
 40
1.250000000000000
  0
ARC
  5
309
100
AcDbEntity
  8
MAIN0
  6
CONTINUOUS
 62
3
100
AcDbCircle
 10
103.9752129929601
 20
166.2418700692513
 30
0.0000000000000000
 40
5.000000000000000
100
AcDbArc
 50
57.44323319441863
 51
119.9999999993683
  0
ARC
  5
30A
100
AcDbEntity
  8
MAIN0
  6
CONTINUOUS
 62
3
100
AcDbCircle
 10
52.22521299308608
 20
196.1197465000350
 30
0.0000000000000000
 40
5.000000000000000
100
AcDbArc
 50
297.4432332015418
 51
359.9999999993684
  0
ARC
  5
30B
100
AcDbEntity
  8
MAIN0
  6
CONTINUOUS
 62
3
100
AcDbCircle
 10
98.22521299276400
 20
216.0383307866526
 30
0.0000000000000000
 40
2.500000000000000
100
AcDbArc
 50
239.9999999997635
 51
315.8917771720974
  0
ARC
  5
30C
100
AcDbEntity
  8
MAIN0
  6
CONTINUOUS
 62
3
100
AcDbCircle
 10
98.22521299276400
 20
216.0383307866526
 30
0.0000000000000000
 40
2.500000000000000
100
AcDbArc
 50
3.332896130044380
 51
59.99999999976360
  0
ARC
  5
30D
100
AcDbEntity
  8
MAIN0
  6
CONTINUOUS
 62
3
100
AcDbCircle
 10
74.87933727003144
 20
215.8345944159793
 30
0.0000000000000000
 40
2.500000000000000
100
AcDbArc
 50
225.1082228076507
 51
300.9999999991815
  0
ARC
  5
30E
100
AcDbEntity
  8
MAIN0
  6
CONTINUOUS
 62
3
100
AcDbCircle
 10
74.87933727003144
 20
215.8345944159793
 30
0.0000000000000000
 40
2.500000000000000
100
AcDbArc
 50
120.9999999991814
 51
177.6671038782297
  0
LINE
  5
30F
100
AcDbEntity
  8
MAIN0
  6
CONTINUOUS
 62
3
100
AcDbLine
 10
200.1252129934859
 20
225.6197464994206
 30
0.0000000000000000
 11
203.3252129934858
 21
225.6197464994206
 31
0.0000000000000000
  0
CIRCLE
  5
310
100
AcDbEntity
  8
MAIN0
  6
CONTINUOUS
 62
3
100
AcDbCircle
 10
339.7252129934812
 20
210.1197464994206
 30
0.0000000000000000
 40
3.000000000000000
  0
LINE
  5
311
100
AcDbEntity
  8
MAIN0
  6
CONTINUOUS
 62
3
100
AcDbLine
 10
340.9626498605577
 20
211.3571833664971
 30
0.0000000000000000
 11
338.4877761264048
 21
208.8823096323441
 31
0.0000000000000000
  0
LINE
  5
312
100
AcDbEntity
  8
MAIN0
  6
CONTINUOUS
 62
3
100
AcDbLine
 10
340.9626498605577
 20
208.8823096323441
 30
0.0000000000000000
 11
338.4877761264047
 21
211.3571833664970
 31
0.0000000000000000
  0
CIRCLE
  5
313
100
AcDbEntity
  8
MAIN0
  6
CONTINUOUS
 62
3
100
AcDbCircle
 10
303.7252129935251
 20
210.1197464994770
 30
0.0000000000000000
 40
3.000000000000000
  0
LINE
  5
314
100
AcDbEntity
  8
MAIN0
  6
CONTINUOUS
 62
3
100
AcDbLine
 10
302.4877761264525
 20
211.3571833665573
 30
0.0000000000000000
 11
304.9626498605977
 21
208.8823096323967
 31
0.0000000000000000
  0
LINE
  5
315
100
AcDbEntity
  8
MAIN0
  6
CONTINUOUS
 62
3
100
AcDbLine
 10
302.4877761264447
 20
208.8823096324044
 30
0.0000000000000000
 11
304.9626498606054
 21
211.3571833665496
 31
0.0000000000000000
  0
CIRCLE
  5
316
100
AcDbEntity
  8
MAIN0
  6
CONTINUOUS
 62
3
100
AcDbCircle
 10
303.7252129935251
 20
182.1197464993641
 30
0.0000000000000000
 40
3.000000000000000
  0
LINE
  5
317
100
AcDbEntity
  8
MAIN0
  6
CONTINUOUS
 62
3
100
AcDbLine
 10
302.4877761264525
 20
180.8823096322838
 30
0.0000000000000000
 11
304.9626498605977
 21
183.3571833664445
 31
0.0000000000000000
  0
LINE
  5
318
100
AcDbEntity
  8
MAIN0
  6
CONTINUOUS
 62
3
100
AcDbLine
 10
302.4877761264447
 20
183.3571833664367
 30
0.0000000000000000
 11
304.9626498606054
 21
180.8823096322915
 31
0.0000000000000000
  0
CIRCLE
  5
319
100
AcDbEntity
  8
MAIN0
  6
CONTINUOUS
 62
3
100
AcDbCircle
 10
339.7252129933934
 20
182.1197464993077
 30
0.0000000000000000
 40
3.000000000000000
  0
LINE
  5
31A
100
AcDbEntity
  8
MAIN0
  6
CONTINUOUS
 62
3
100
AcDbLine
 10
340.9626498604621
 20
180.8823096322234
 30
0.0000000000000000
 11
338.4877761263247
 21
183.3571833663919
 31
0.0000000000000000
  0
LINE
  5
31B
100
AcDbEntity
  8
MAIN0
  6
CONTINUOUS
 62
3
100
AcDbLine
 10
340.9626498604777
 20
183.3571833663764
 30
0.0000000000000000
 11
338.4877761263091
 21
180.8823096322390
 31
0.0000000000000000
  0
CIRCLE
  5
31C
100
AcDbEntity
  8
MAIN0
  6
CONTINUOUS
 62
3
100
AcDbCircle
 10
321.7252129934812
 20
242.1197464989521
 30
0.0000000000000000
 40
2.000000000000000
  0
CIRCLE
  5
31D
100
AcDbEntity
  8
MAIN0
  6
CONTINUOUS
 62
3
100
AcDbCircle
 10
321.7252129934812
 20
242.1197464989521
 30
0.0000000000000000
 40
1.650000000000000
  0
CIRCLE
  5
31E
100
AcDbEntity
  8
MAIN0
  6
CONTINUOUS
 62
3
100
AcDbCircle
 10
321.7252129934812
 20
226.1197464991170
 30
0.0000000000000000
 40
1.650000000000000
  0
CIRCLE
  5
31F
100
AcDbEntity
  8
MAIN0
  6
CONTINUOUS
 62
3
100
AcDbCircle
 10
321.7252129934812
 20
226.1197464991170
 30
0.0000000000000000
 40
2.000000000000000
  0
CIRCLE
  5
320
100
AcDbEntity
  8
MAIN0
  6
CONTINUOUS
 62
3
100
AcDbCircle
 10
321.7252129934812
 20
150.1197464998891
 30
0.0000000000000000
 40
2.000000000000000
  0
CIRCLE
  5
321
100
AcDbEntity
  8
MAIN0
  6
CONTINUOUS
 62
3
100
AcDbCircle
 10
321.7252129934812
 20
150.1197464998891
 30
0.0000000000000000
 40
1.650000000000000
  0
CIRCLE
  5
322
100
AcDbEntity
  8
MAIN0
  6
CONTINUOUS
 62
3
100
AcDbCircle
 10
321.7252129934812
 20
166.1197464997241
 30
0.0000000000000000
 40
1.650000000000000
  0
CIRCLE
  5
323
100
AcDbEntity
  8
MAIN0
  6
CONTINUOUS
 62
3
100
AcDbCircle
 10
321.7252129934812
 20
166.1197464997241
 30
0.0000000000000000
 40
2.000000000000000
  0
CIRCLE
  5
324
100
AcDbEntity
  8
MAIN0
  6
CONTINUOUS
 62
3
100
AcDbCircle
 10
106.6437972805336
 20
184.6197464994210
 30
0.0000000000000000
 40
4.749999999999996
  0
LINE
  5
325
100
AcDbEntity
  8
MAIN0
  6
CONTINUOUS
 62
3
100
AcDbLine
 10
292.2252129934282
 20
77.77906160755077
 30
0.0000000000000000
 11
292.2252129934282
 21
80.97906160755075
 31
0.0000000000000000
  0
LINE
  5
326
100
AcDbEntity
  8
WAKU0
  6
CONTINUOUS
 62
3
100
AcDbLine
 10
240.0000000000000
 20
51.00000000000000
 30
0.0000000000000000
 11
410.0000000000000
 21
51.00000000000000
 31
0.0000000000000000
  0
LINE
  5
327
100
AcDbEntity
  8
WAKU0
  6
CONTINUOUS
 62
3
100
AcDbLine
 10
240.0000000000000
 20
51.00000000000000
 30
0.0000000000000000
 11
240.0000000000000
 21
12.00000000000000
 31
0.0000000000000000
  0
LINE
  5
328
100
AcDbEntity
  8
WAKU0
  6
CONTINUOUS
 62
3
100
AcDbLine
 10
312.0000000000000
 20
51.00000000000000
 30
0.0000000000000000
 11
312.0000000000000
 21
12.00000000000000
 31
0.0000000000000000
  0
LINE
  5
329
100
AcDbEntity
  8
WAKU0
  6
CONTINUOUS
 62
3
100
AcDbLine
 10
332.0000000000000
 20
51.00000000000000
 30
0.0000000000000000
 11
332.0000000000000
 21
12.00000000000000
 31
0.0000000000000000
  0
LINE
  5
32A
100
AcDbEntity
  8
WAKU0
  6
CONTINUOUS
 62
3
100
AcDbLine
 10
344.0000000000000
 20
51.00000000000000
 30
0.0000000000000000
 11
344.0000000000000
 21
12.00000000000000
 31
0.0000000000000000
  0
LINE
  5
32B
100
AcDbEntity
  8
WAKU0
  6
CONTINUOUS
 62
3
100
AcDbLine
 10
344.0000000000000
 20
37.00000000000000
 30
0.0000000000000000
 11
410.0000000000000
 21
37.00000000000000
 31
0.0000000000000000
  0
LINE
  5
32C
100
AcDbEntity
  8
WAKU0
  6
CONTINUOUS
 62
3
100
AcDbLine
 10
332.0000000000000
 20
23.00000000000000
 30
0.0000000000000000
 11
410.0000000000000
 21
23.00000000000000
 31
0.0000000000000000
  0
LINE
  5
32D
100
AcDbEntity
  8
WAKU0
  6
CONTINUOUS
 62
3
100
AcDbLine
 10
375.0000000000000
 20
51.00000000000000
 30
0.0000000000000000
 11
375.0000000000000
 21
44.00000000000000
 31
0.0000000000000000
  0
LINE
  5
32E
100
AcDbEntity
  8
WAKU0
  6
CONTINUOUS
 62
3
100
AcDbLine
 10
387.0000000000000
 20
51.00000000000000
 30
0.0000000000000000
 11
387.0000000000000
 21
44.00000000000000
 31
0.0000000000000000
  0
LINE
  5
32F
100
AcDbEntity
  8
WAKU0
  6
CONTINUOUS
 62
3
100
AcDbLine
 10
312.0000000000000
 20
31.50000000000000
 30
0.0000000000000000
 11
332.0000000000000
 21
31.50000000000000
 31
0.0000000000000000
  0
LINE
  5
330
100
AcDbEntity
  8
WAKU0
  6
CONTINUOUS
 62
3
100
AcDbLine
 10
332.0000000000000
 20
44.00000000000000
 30
0.0000000000000000
 11
410.0000000000000
 21
44.00000000000000
 31
0.0000000000000000
  0
LINE
  5
331
100
AcDbEntity
  8
WAKU0
  6
CONTINUOUS
 62
3
100
AcDbLine
 10
240.0000000000000
 20
37.00000000000000
 30
0.0000000000000000
 11
312.0000000000000
 21
37.00000000000000
 31
0.0000000000000000
  0
LINE
  5
332
100
AcDbEntity
  8
WAKU0
  6
CONTINUOUS
 62
3
100
AcDbLine
 10
240.0000000000000
 20
23.00000000000000
 30
0.0000000000000000
 11
312.0000000000000
 21
23.00000000000000
 31
0.0000000000000000
  0
LINE
  5
333
100
AcDbEntity
  8
WAKU0
  6
CONTINUOUS
 62
3
100
AcDbLine
 10
288.0000000000000
 20
37.00000000000000
 30
0.0000000000000000
 11
288.0000000000000
 21
12.00000000000000
 31
0.0000000000000000
  0
LINE
  5
334
100
AcDbEntity
  8
WAKU0
  6
CONTINUOUS
 62
3
100
AcDbLine
 10
264.0000000000000
 20
37.00000000000000
 30
0.0000000000000000
 11
264.0000000000000
 21
23.00000000000000
 31
0.0000000000000000
  0
LINE
  5
335
100
AcDbEntity
  8
WAKU0
  6
CONTINUOUS
 62
3
100
AcDbLine
 10
300.0000000000000
 20
26.00000000000000
 30
0.0000000000000000
 11
300.0000000000000
 21
23.00000000000000
 31
0.0000000000000000
  0
LINE
  5
336
100
AcDbEntity
  8
WAKU0
  6
CONTINUOUS
 62
3
100
AcDbLine
 10
276.0000000000000
 20
26.00000000000000
 30
0.0000000000000000
 11
276.0000000000000
 21
23.00000000000000
 31
0.0000000000000000
  0
LINE
  5
337
100
AcDbEntity
  8
WAKU0
  6
CONTINUOUS
 62
3
100
AcDbLine
 10
252.0000000000000
 20
26.00000000000000
 30
0.0000000000000000
 11
252.0000000000000
 21
23.00000000000000
 31
0.0000000000000000
  0
LINE
  5
338
100
AcDbEntity
  8
WAKU0
  6
CONTINUOUS
 62
3
100
AcDbLine
 10
258.0000000000000
 20
51.00000000000000
 30
0.0000000000000000
 11
258.0000000000000
 21
37.00000000000000
 31
0.0000000000000000
  0
LINE
  5
339
100
AcDbEntity
  8
WAKU0
  6
CONTINUOUS
 62
3
100
AcDbLine
 10
240.0000000000000
 20
45.00000000000000
 30
0.0000000000000000
 11
312.0000000000000
 21
45.00000000000000
 31
0.0000000000000000
  0
LINE
  5
33A
100
AcDbEntity
  8
WAKU0
  6
HIDDEN
 62
3
100
AcDbLine
 10
360.5000000000000
 20
23.00000000000000
 30
0.0000000000000000
 11
360.5000000000000
 21
12.00000000000000
 31
0.0000000000000000
  0
LINE
  5
33B
100
AcDbEntity
  8
WAKU0
  6
HIDDEN
 62
3
100
AcDbLine
 10
372.9000000000000
 20
23.00000000000000
 30
0.0000000000000000
 11
372.9000000000000
 21
12.00000000000000
 31
0.0000000000000000
  0
MTEXT
  5
33C
100
AcDbEntity
  8
WAKU0
  6
CONTINUOUS
 62
3
100
AcDbMText
 10
344.4820000243485
 20
49.04999995231628
 30
0.0000000000000000
 40
3.099999904632568
 41
0.0000000000000000
 71
     1
 72
     1
  1
{\H0.92x;{QG20810}}
 11
1.000000000000000
 21
0.0000000000000000
 31
0.0000000000000000
  7
STANDARD
  0
MTEXT
  5
33D
100
AcDbEntity
  8
WAKU0
  6
CONTINUOUS
 62
3
100
AcDbMText
 10
365.3900001943111
 20
43.50000000000000
 30
0.0000000000000000
 40
3.000000000000000
 41
0.0000000000000000
 71
     1
 72
     1
  1
{\H0.93x;{グリッパ\PＧＲＩＰＰＥＲ}}
 11
1.000000000000000
 21
0.0000000000000000
 31
0.0000000000000000
  7
KNJYOKO
  0
MTEXT
  5
33E
100
AcDbEntity
  8
WAKU0
  6
CONTINUOUS
 62
3
100
AcDbMText
 10
351.0499999858439
 20
34.23333326975504
 30
0.0000000000000000
 40
3.099999904632568
 41
0.0000000000000000
 71
     1
 72
     1
  1
{\H0.70x;{ＱＧ２０８１０　ガイケイ\PＱＧ２０８１０　ＯＵＴＳＩＤＥ　ＶＩＥＷ}}
 11
1.000000000000000
 21
0.0000000000000000
 31
0.0000000000000000
  7
KNJYOKO
  0
MTEXT
  5
33F
100
AcDbEntity
  8
WAKU0
  6
CONTINUOUS
 62
3
100
AcDbMText
 10
318.0049998760223
 20
39.29999995231628
 30
0.0000000000000000
 40
3.099999904632568
 41
0.0000000000000000
 71
     1
 72
     1
  1
{\H0.90x;{1:1}}
 11
1.000000000000000
 21
0.0000000000000000
 31
0.0000000000000000
  7
STANDARD
  0
MTEXT
  5
340
100
AcDbEntity
  8
WAKU0
  6
CONTINUOUS
 62
3
100
AcDbMText
 10
374.4000001549721
 20
20.15000009536743
 30
0.0000000000000000
 40
5.300000190734863
 41
0.0000000000000000
 71
     1
 72
     1
  1
{\H0.90x;{1490}}
 11
1.000000000000000
 21
0.0000000000000000
 31
0.0000000000000000
  7
STANDARD
  0
MTEXT
  5
341
100
AcDbEntity
  8
WAKU0
  6
CONTINUOUS
 62
3
100
AcDbMText
 10
362.3000000834465
 20
20.15000009536743
 30
0.0000000000000000
 40
5.300000190734863
 41
0.0000000000000000
 71
     1
 72
     1
  1
{\H0.87x;{84}}
 11
1.000000000000000
 21
0.0000000000000000
 31
0.0000000000000000
  7
STANDARD
  0
MTEXT
  5
342
100
AcDbEntity
  8
WAKU0
  6
CONTINUOUS
 62
3
100
AcDbMText
 10
345.5000001192093
 20
20.15000009536743
 30
0.0000000000000000
 40
5.300000190734863
 41
0.0000000000000000
 71
     1
 72
     1
  1
{\H0.89x;{61G}}
 11
1.000000000000000
 21
0.0000000000000000
 31
0.0000000000000000
  7
STANDARD
  0
MTEXT
  5
343
100
AcDbEntity
  8
WAKU0
  6
CONTINUOUS
 62
3
100
AcDbMText
 10
400.0000000476837
 20
20.15000009536743
 30
0.0000000000000000
 40
5.300000190734863
 41
0.0000000000000000
 71
     1
 72
     1
  1
{\H0.81x;{3}}
 11
1.000000000000000
 21
0.0000000000000000
 31
0.0000000000000000
  7
STANDARD
  0
MTEXT
  5
344
100
AcDbEntity
  8
WAKU0
  6
CONTINUOUS
 62
3
100
AcDbMText
 10
400.0000000819564
 20
44.84999990463257
 30
0.0000000000000000
 40
5.300000190734863
 41
0.0000000000000000
 71
     7
 72
     1
  1
{\H0.81x;{ }}
 11
1.000000000000000
 21
0.0000000000000000
 31
0.0000000000000000
  7
STANDARD
  0
MTEXT
  5
345
100
AcDbEntity
  8
WAKU0
  6
CONTINUOUS
 62
3
100
AcDbMText
 10
289.3850002884865
 20
33.00000000000000
 30
0.0000000000000000
 40
3.000000000000000
 41
0.0000000000000000
 71
     7
 72
     1
  1
{\H0.93x;{DRAWN BY}}
 11
1.000000000000000
 21
0.0000000000000000
 31
0.0000000000000000
  7
STANDARD
  0
MTEXT
  5
346
100
AcDbEntity
  8
WAKU0
  6
CONTINUOUS
 62
3
100
AcDbMText
 10
269.2149997949600
 20
32.95000004768372
 30
0.0000000000000000
 40
3.099999904632568
 41
0.0000000000000000
 71
     7
 72
     1
  1
{\H0.92x;{CHIEF}}
 11
1.000000000000000
 21
0.0000000000000000
 31
0.0000000000000000
  7
STANDARD
  0
MTEXT
  5
347
100
AcDbEntity
  8
WAKU0
  6
CONTINUOUS
 62
3
100
AcDbMText
 10
242.4249997138977
 20
32.95000004768372
 30
0.0000000000000000
 40
3.099999904632568
 41
0.0000000000000000
 71
     7
 72
     1
  1
{\H0.92x;{MANAGER}}
 11
1.000000000000000
 21
0.0000000000000000
 31
0.0000000000000000
  7
STANDARD
  0
MTEXT
  5
348
100
AcDbEntity
  8
WAKU0
  6
CONTINUOUS
 62
3
100
AcDbMText
 10
244.6599994301796
 20
18.13333336512248
 30
0.0000000000000000
 40
3.099999904632568
 41
0.0000000000000000
 71
     7
 72
     1
  1
{\H0.93x;{KITAGAWA IRON\PWORKS CO.,LTD.}}
 11
1.000000000000000
 21
0.0000000000000000
 31
0.0000000000000000
  7
STANDARD
  0
MTEXT
  5
349
100
AcDbEntity
  8
WAKU0
  6
CONTINUOUS
 62
3
100
AcDbMText
 10
241.0850002169609
 20
46.50000000000000
 30
0.0000000000000000
 40
3.000000000000000
 41
0.0000000000000000
 71
     7
 72
     1
  1
{\H0.92x;{CAREER}}
 11
1.000000000000000
 21
0.0000000000000000
 31
0.0000000000000000
  7
STANDARD
  0
MTEXT
  5
34A
100
AcDbEntity
  8
WAKU0
  6
CONTINUOUS
 62
3
100
AcDbMText
 10
294.6099998354912
 20
18.95000004768372
 30
0.0000000000000000
 40
3.099999904632568
 41
0.0000000000000000
 71
     7
 72
     1
  1
{\H0.91x;{DATE}}
 11
1.000000000000000
 21
0.0000000000000000
 31
0.0000000000000000
  7
STANDARD
  0
MTEXT
  5
34B
100
AcDbEntity
  8
WAKU0
  6
CONTINUOUS
 62
3
100
AcDbMText
 10
313.9000002145767
 20
26.50000000000000
 30
0.0000000000000000
 40
3.000000000000000
 41
0.0000000000000000
 71
     7
 72
     1
  1
{\H0.63x;{3RD ANGLE}}
 11
1.000000000000000
 21
0.0000000000000000
 31
0.0000000000000000
  7
STANDARD
  0
MTEXT
  5
34C
100
AcDbEntity
  8
WAKU0
  6
CONTINUOUS
 62
3
100
AcDbMText
 10
315.2149997949600
 20
45.95000004768372
 30
0.0000000000000000
 40
3.099999904632568
 41
0.0000000000000000
 71
     7
 72
     1
  1
{\H0.92x;{SCALE}}
 11
1.000000000000000
 21
0.0000000000000000
 31
0.0000000000000000
  7
STANDARD
  0
MTEXT
  5
34D
100
AcDbEntity
  8
WAKU0
  6
CONTINUOUS
 62
3
100
AcDbMText
 10
405.7000000476837
 20
46.00000000000000
 30
0.0000000000000000
 40
3.000000000000000
 41
0.0000000000000000
 71
     7
 72
     1
  1
{\H0.63x;{kg}}
 11
1.000000000000000
 21
0.0000000000000000
 31
0.0000000000000000
  7
STANDARD
  0
MTEXT
  5
34E
100
AcDbEntity
  8
WAKU0
  6
CONTINUOUS
 62
3
100
AcDbMText
 10
375.6000001430512
 20
46.00000000000000
 30
0.0000000000000000
 40
3.000000000000000
 41
0.0000000000000000
 71
     7
 72
     1
  1
{\H0.63x;{WEIGHT}}
 11
1.000000000000000
 21
0.0000000000000000
 31
0.0000000000000000
  7
STANDARD
  0
MTEXT
  5
34F
100
AcDbEntity
  8
WAKU0
  6
CONTINUOUS
 62
3
100
AcDbMText
 10
334.0049998760223
 20
18.13333336512248
 30
0.0000000000000000
 40
3.099999904632568
 41
0.0000000000000000
 71
     7
 72
     1
  1
{\H0.90x;{DRW\PNO.}}
 11
1.000000000000000
 21
0.0000000000000000
 31
0.0000000000000000
  7
STANDARD
  0
MTEXT
  5
350
100
AcDbEntity
  8
WAKU0
  6
CONTINUOUS
 62
3
100
AcDbMText
 10
332.6099998354912
 20
31.95000004768372
 30
0.0000000000000000
 40
3.099999904632568
 41
0.0000000000000000
 71
     7
 72
     1
  1
{\H0.91x;{NAME}}
 11
1.000000000000000
 21
0.0000000000000000
 31
0.0000000000000000
  7
STANDARD
  0
MTEXT
  5
351
100
AcDbEntity
  8
WAKU0
  6
CONTINUOUS
 62
3
100
AcDbMText
 10
332.6099998354912
 20
45.95000004768372
 30
0.0000000000000000
 40
3.099999904632568
 41
0.0000000000000000
 71
     7
 72
     1
  1
{\H0.91x;{TYPE}}
 11
1.000000000000000
 21
0.0000000000000000
 31
0.0000000000000000
  7
STANDARD
  0
LINE
  5
352
100
AcDbEntity
  8
WAKU0
  6
HIDDEN
 62
3
100
AcDbLine
 10
407.1599564743885
 20
13.84999990463257
 30
0.0000000000000000
 11
396.9400436209789
 21
13.84999990463257
 31
0.0000000000000000
  0
LINE
  5
353
100
AcDbEntity
  8
WAKU0
  6
HIDDEN
 62
3
100
AcDbLine
 10
407.1599564743885
 20
13.84999990463250
 30
0.0000000000000000
 11
402.0500000476852
 21
22.70070406014901
 31
0.0000000000000000
  0
LINE
  5
354
100
AcDbEntity
  8
WAKU0
  6
HIDDEN
 62
3
100
AcDbLine
 10
402.0500000476852
 20
22.70070406014902
 30
0.0000000000000000
 11
396.9400436209789
 21
13.84999990463248
 31
0.0000000000000000
  0
LINE
  5
355
100
AcDbEntity
  8
WAKU0
  6
CONTINUOUS
 62
3
100
AcDbLine
 10
330.4713877753800
 20
15.78041421262812
 30
0.0000000000000000
 11
330.4713877753800
 21
21.78041421262815
 31
0.0000000000000000
  0
LINE
  5
356
100
AcDbEntity
  8
WAKU0
  6
CONTINUOUS
 62
3
100
AcDbLine
 10
323.9336941228225
 20
17.28041421262811
 30
0.0000000000000000
 11
323.9336941228225
 21
20.28041421262824
 31
0.0000000000000000
  0
LINE
  5
357
100
AcDbEntity
  8
WAKU0
  6
CENTER
 62
12
100
AcDbLine
 10
313.4321805514995
 20
18.78041421262813
 30
0.0000000000000000
 11
331.2765788964694
 21
18.78041421262813
 31
0.0000000000000000
  0
LINE
  5
358
100
AcDbEntity
  8
WAKU0
  6
CENTER
 62
12
100
AcDbLine
 10
317.4474565857986
 20
14.55921662918448
 30
0.0000000000000000
 11
317.4474565857986
 21
22.89865102149943
 31
0.0000000000000000
  0
LINE
  5
359
100
AcDbEntity
  8
WAKU0
  6
CONTINUOUS
 62
3
100
AcDbLine
 10
323.9336941228225
 20
20.28041421262797
 30
0.0000000000000000
 11
330.4713877753800
 21
21.78041421262795
 31
0.0000000000000000
  0
LINE
  5
35A
100
AcDbEntity
  8
WAKU0
  6
CONTINUOUS
 62
3
100
AcDbLine
 10
323.9336941228225
 20
17.28041421262811
 30
0.0000000000000000
 11
330.4713877753799
 21
15.78041421262812
 31
0.0000000000000000
  0
CIRCLE
  5
35B
100
AcDbEntity
  8
WAKU0
  6
CONTINUOUS
 62
3
100
AcDbCircle
 10
317.4474565857986
 20
18.78041421262813
 30
0.0000000000000000
 40
1.499999999999972
  0
CIRCLE
  5
35C
100
AcDbEntity
  8
WAKU0
  6
CONTINUOUS
 62
3
100
AcDbCircle
 10
317.4474565857986
 20
18.78041421262813
 30
0.0000000000000000
 40
2.999999999999979
  0
ENDSEC
  0
SECTION
  2
OBJECTS
  0
DICTIONARY
  5
39D
100
AcDbDictionary
  3
ACAD_GROUP
350
39E
  3
ACAD_MLINESTYLE
350
39F
  0
DICTIONARY
  5
39E
102
{ACAD_REACTORS
330
39D
102
}
100
AcDbDictionary
  0
DICTIONARY
  5
39F
102
{ACAD_REACTORS
330
39D
102
}
100
AcDbDictionary
  3
STANDARD
350
3A0
  0
MLINESTYLE
  5
3A0
102
{ACAD_REACTORS
330
39F
102
}
100
AcDbMlineStyle
  2
STANDARD
 70
     0
  3

 62
   256
 51
90.00
 52
90.00
 71
     2
 49
0.50
 62
   256
  6
BYLAYER
 49
-0.50
 62
   256
  6
BYLAYER
  0
ENDSEC
  0
EOF
