  0
SECTION
  2
HEADER
  9
$ACADVER
  1
AC1014
  9
$DWGCODEPAGE
  3
ANSI_932
  9
$LTSCALE
 40
20.0
  9
$FILLMODE
 70
     1
  9
$CLAYER
  8
0
  9
$PDMODE
 70
     0
  9
$SPLFRAME
 70
     0
  9
$SPLINETYPE
 70
     6
  9
$SPLINESEGS
 70
     8
  9
$DIMASZ
 40
2.000000
  9
$DIMEXE
 40
2.000000
  9
$DIMEXO
 40
0.800000
  9
$DIMTAD
 70
     1
  9
$DIMTIH
 70
     0
  9
$DIMTOH
 70
     0
  9
$DIMTVP
 40
0.500000
  9
$DIMTXT
 40
3.100000
  9
$EXTMIN
 10
0.000000
 20
0.000000
 30
0.000000
  9
$EXTMAX
 10
297.000000
 20
420.000000
 30
0.000000
  9
$MEASUREMENT
 70
  1
  9
$LIMMIN
 10
0.000000
 20
0.000000
  9
$LIMMAX
 10
297.000000
 20
420.000000
  9
$HANDLING
 70
     1
  9
$HANDSEED
  5
3A4
  9
$DIMBLK
  1
_OPEN
  9
$DIMDEC
 70
     3
  9
$DIMAUNIT
 70
     1
  9
$DIMZIN
 70
     8
  9
$DIMTOFL
 70
     1
  0
ENDSEC
  0
SECTION
  2
CLASSES
  0
ENDSEC
  0
SECTION
  2
TABLES
  0
TABLE
  2
VPORT
  5
362
100
AcDbSymbolTable
 70
     1
  0
VPORT
  5
363
100
AcDbSymbolTableRecord
100
AcDbViewportTableRecord
  2
*ACTIVE
 70
     0
 12
340.718194
 22
199.626403
 40
399.252805
 41
2.062880
  0
ENDTAB
  0
TABLE
  2
LTYPE
  5
364
100
AcDbSymbolTable
 70
     3
  0
LTYPE
  5
365
100
AcDbSymbolTableRecord
100
AcDbLinetypeTableRecord
  2
BYBLOCK
 70
     0
  3

 72
    65
 73
     0
 40
0.0
  0
LTYPE
  5
366
100
AcDbSymbolTableRecord
100
AcDbLinetypeTableRecord
  2
BYLAYER
 70
     0
  3

 72
    65
 73
     0
 40
0.0
  0
LTYPE
  5
367
100
AcDbSymbolTableRecord
100
AcDbLinetypeTableRecord
  2
CONTINUOUS
 70
     0
  3
Solid line (NEC CAE2D for Win R14.2 : 2021.05.17)
 72
    65
 73
     0
 40
0.0
  0
LTYPE
  5
368
100
AcDbSymbolTableRecord
100
AcDbLinetypeTableRecord
  2
HIDDEN
 70
     0
  3
__ __ __ __ __ __ __ __ __ __ __ __ __ __
 72
    65
 73
     2
 40
0.375
 49
0.25
 74
     0
 49
-0.125
 74
     0
  0
LTYPE
  5
369
100
AcDbSymbolTableRecord
100
AcDbLinetypeTableRecord
  2
CENTER
 70
     0
  3
____ _ ____ _ ____ _ ____ _ ____ _ ____
 72
    65
 73
     4
 40
2.0
 49
1.25
 74
     0
 49
-0.25
 74
     0
 49
0.25
 74
     0
 49
-0.25
 74
     0
  0
ENDTAB
  0
TABLE
  2
LAYER
  5
36A
100
AcDbSymbolTable
 70
     8
  0
LAYER
  5
36B
100
AcDbSymbolTableRecord
100
AcDbLayerTableRecord
  2
0
 70
     0
 62
     7
  6
CONTINUOUS
  0
LAYER
  5
36C
100
AcDbSymbolTableRecord
100
AcDbLayerTableRecord
  2
MAIN0
 70
     0
 62
     7
  6
CONTINUOUS
  0
LAYER
  5
36D
100
AcDbSymbolTableRecord
100
AcDbLayerTableRecord
  2
MAIN1
 70
     0
 62
     7
  6
CONTINUOUS
  0
LAYER
  5
36E
100
AcDbSymbolTableRecord
100
AcDbLayerTableRecord
  2
MAIN2
 70
     0
 62
     7
  6
CONTINUOUS
  0
LAYER
  5
36F
100
AcDbSymbolTableRecord
100
AcDbLayerTableRecord
  2
MAIN10
 70
     0
 62
     7
  6
CONTINUOUS
  0
LAYER
  5
370
100
AcDbSymbolTableRecord
100
AcDbLayerTableRecord
  2
MAIN1023
 70
     0
 62
    16
  6
CONTINUOUS
  0
LAYER
  5
371
100
AcDbSymbolTableRecord
100
AcDbLayerTableRecord
  2
WAKU0
 70
     0
 62
     7
  6
CONTINUOUS
  0
LAYER
  5
372
100
AcDbSymbolTableRecord
100
AcDbLayerTableRecord
  2
WAKU1023
 70
     0
 62
    16
  6
CONTINUOUS
  0
ENDTAB
  0
TABLE
  2
STYLE
  5
373
100
AcDbSymbolTable
 70
     4
  0
STYLE
  5
374
100
AcDbSymbolTableRecord
100
AcDbTextStyleTableRecord
  2
STANDARD
 70
    64
 40
0.0
 41
1.0
 50
0.0
 71
     0
 42
3.140094041824341
  3
TXT
  4

  0
STYLE
  5
375
100
AcDbSymbolTableRecord
100
AcDbTextStyleTableRecord
  2
ANKTATE
 70
    68
 40
0.0
 41
1.0
 50
0.0
 71
     0
 42
3.140094041824341
  3
TXT
  4

  0
STYLE
  5
FB
100
AcDbSymbolTableRecord
100
AcDbTextStyleTableRecord
  2
KNJYOKO
 70
    64
 40
0.0
 41
1.0
 50
0.0
 71
     0
 42
3.140094041824341
  3
TXT
  4
BIGFONT
  0
STYLE
  5
376
100
AcDbSymbolTableRecord
100
AcDbTextStyleTableRecord
  2
KNJTATE
 70
    68
 40
0.0
 41
1.0
 50
0.0
 71
     0
 42
3.140094041824341
  3
TXT
  4
BIGFONT
  0
ENDTAB
  0
TABLE
  2
VIEW
  5
377
100
AcDbSymbolTable
 70
     0
  0
ENDTAB
  0
TABLE
  2
UCS
  5
378
100
AcDbSymbolTable
 70
     0
  0
ENDTAB
  0
TABLE
  2
APPID
  5
379
100
AcDbSymbolTable
 70
     1
  0
APPID
  5
37A
100
AcDbSymbolTableRecord
100
AcDbRegAppTableRecord
  2
ACAD
 70
     0
  0
ENDTAB
  0
TABLE
  2
DIMSTYLE
  5
37B
100
AcDbSymbolTable
 70
     1
  0
DIMSTYLE
105
37C
100
AcDbSymbolTableRecord
100
AcDbDimStyleTableRecord
  2
STANDARD
 70
     0
 41
2.000000
 44
2.000000
 42
0.800000
145
0.661290
140
3.100000
144
1.000000
146
0.903226
340
374
  0
DIMSTYLE
105
37D
100
AcDbSymbolTableRecord
100
AcDbDimStyleTableRecord
  2
MAIN001
 70
     0
 41
2.000000
 44
2.000000
 42
0.800000
145
0.661290
140
3.100000
144
1.000000
146
0.903226
 77
     1
 73
     0
 74
     0
271
     3
275
     1
 78
     8
172
     1
340
374
  0
DIMSTYLE
105
37E
100
AcDbSymbolTableRecord
100
AcDbDimStyleTableRecord
  2
WAKU002
 70
     0
 41
2.000000
 44
2.000000
 42
0.800000
145
0.661290
140
3.100000
144
1.000000
146
0.903226
 77
     1
 73
     0
 74
     0
271
     3
275
     1
 78
     8
172
     1
340
374
  0
ENDTAB
  0
TABLE
  2
BLOCK_RECORD
  5
37F
100
AcDbSymbolTable
 70
    38
  0
BLOCK_RECORD
  5
380
100
AcDbSymbolTableRecord
100
AcDbBlockTableRecord
  2
*MODEL_SPACE
  0
BLOCK_RECORD
  5
381
100
AcDbSymbolTableRecord
100
AcDbBlockTableRecord
  2
*PAPER_SPACE
  0
BLOCK_RECORD
  5
1
100
AcDbSymbolTableRecord
100
AcDbBlockTableRecord
  2
_NONE
  0
BLOCK_RECORD
  5
4
100
AcDbSymbolTableRecord
100
AcDbBlockTableRecord
  2
_CLOSED
  0
BLOCK_RECORD
  5
B
100
AcDbSymbolTableRecord
100
AcDbBlockTableRecord
  2
_DOT
  0
BLOCK_RECORD
  5
13
100
AcDbSymbolTableRecord
100
AcDbBlockTableRecord
  2
_OPEN
  0
BLOCK_RECORD
  5
19
100
AcDbSymbolTableRecord
100
AcDbBlockTableRecord
  2
_ORIGIN
  0
BLOCK_RECORD
  5
1E
100
AcDbSymbolTableRecord
100
AcDbBlockTableRecord
  2
_OPEN30
  0
BLOCK_RECORD
  5
24
100
AcDbSymbolTableRecord
100
AcDbBlockTableRecord
  2
_BOXFILLED
  0
BLOCK_RECORD
  5
29
100
AcDbSymbolTableRecord
100
AcDbBlockTableRecord
  2
_BOXBLANK
  0
BLOCK_RECORD
  5
31
100
AcDbSymbolTableRecord
100
AcDbBlockTableRecord
  2
_OBLIQUE
  0
BLOCK_RECORD
  5
35
100
AcDbSymbolTableRecord
100
AcDbBlockTableRecord
  2
_OPEN90
  0
BLOCK_RECORD
  5
3B
100
AcDbSymbolTableRecord
100
AcDbBlockTableRecord
  2
_CLOSEDBLANK
  0
BLOCK_RECORD
  5
41
100
AcDbSymbolTableRecord
100
AcDbBlockTableRecord
  2
_DOTBLANK
  0
BLOCK_RECORD
  5
382
100
AcDbSymbolTableRecord
100
AcDbBlockTableRecord
  2
*D0
  0
BLOCK_RECORD
  5
383
100
AcDbSymbolTableRecord
100
AcDbBlockTableRecord
  2
*D1
  0
BLOCK_RECORD
  5
384
100
AcDbSymbolTableRecord
100
AcDbBlockTableRecord
  2
*D2
  0
BLOCK_RECORD
  5
385
100
AcDbSymbolTableRecord
100
AcDbBlockTableRecord
  2
*D3
  0
BLOCK_RECORD
  5
386
100
AcDbSymbolTableRecord
100
AcDbBlockTableRecord
  2
*D4
  0
BLOCK_RECORD
  5
387
100
AcDbSymbolTableRecord
100
AcDbBlockTableRecord
  2
*D5
  0
BLOCK_RECORD
  5
388
100
AcDbSymbolTableRecord
100
AcDbBlockTableRecord
  2
*D6
  0
BLOCK_RECORD
  5
389
100
AcDbSymbolTableRecord
100
AcDbBlockTableRecord
  2
*D7
  0
BLOCK_RECORD
  5
38A
100
AcDbSymbolTableRecord
100
AcDbBlockTableRecord
  2
*D8
  0
BLOCK_RECORD
  5
38B
100
AcDbSymbolTableRecord
100
AcDbBlockTableRecord
  2
*D9
  0
BLOCK_RECORD
  5
38C
100
AcDbSymbolTableRecord
100
AcDbBlockTableRecord
  2
*D10
  0
BLOCK_RECORD
  5
38D
100
AcDbSymbolTableRecord
100
AcDbBlockTableRecord
  2
*D11
  0
BLOCK_RECORD
  5
38E
100
AcDbSymbolTableRecord
100
AcDbBlockTableRecord
  2
*D12
  0
BLOCK_RECORD
  5
38F
100
AcDbSymbolTableRecord
100
AcDbBlockTableRecord
  2
*D13
  0
BLOCK_RECORD
  5
390
100
AcDbSymbolTableRecord
100
AcDbBlockTableRecord
  2
*D14
  0
BLOCK_RECORD
  5
391
100
AcDbSymbolTableRecord
100
AcDbBlockTableRecord
  2
*D15
  0
BLOCK_RECORD
  5
392
100
AcDbSymbolTableRecord
100
AcDbBlockTableRecord
  2
*D16
  0
BLOCK_RECORD
  5
393
100
AcDbSymbolTableRecord
100
AcDbBlockTableRecord
  2
D17
  0
BLOCK_RECORD
  5
394
100
AcDbSymbolTableRecord
100
AcDbBlockTableRecord
  2
D18
  0
BLOCK_RECORD
  5
395
100
AcDbSymbolTableRecord
100
AcDbBlockTableRecord
  2
*D19
  0
BLOCK_RECORD
  5
396
100
AcDbSymbolTableRecord
100
AcDbBlockTableRecord
  2
*D20
  0
BLOCK_RECORD
  5
397
100
AcDbSymbolTableRecord
100
AcDbBlockTableRecord
  2
*D21
  0
BLOCK_RECORD
  5
398
100
AcDbSymbolTableRecord
100
AcDbBlockTableRecord
  2
*D22
  0
BLOCK_RECORD
  5
399
100
AcDbSymbolTableRecord
100
AcDbBlockTableRecord
  2
*D23
  0
BLOCK_RECORD
  5
39A
100
AcDbSymbolTableRecord
100
AcDbBlockTableRecord
  2
*D24
  0
BLOCK_RECORD
  5
39B
100
AcDbSymbolTableRecord
100
AcDbBlockTableRecord
  2
*D25
  0
ENDTAB
  0
ENDSEC
  0
SECTION
  2
BLOCKS
  0
BLOCK
  5
39C
100
AcDbEntity
  8
0
100
AcDbBlockBegin
  2
*MODEL_SPACE
 70
     0
 10
0.0
 20
0.0
 30
0.0
  3
*MODEL_SPACE
  1

  0
ENDBLK
  5
39D
100
AcDbEntity
  8
0
100
AcDbBlockEnd
  0
BLOCK
  5
39E
100
AcDbEntity
  8
0
100
AcDbBlockBegin
  2
*PAPER_SPACE
 70
     0
 10
0.0
 20
0.0
 30
0.0
  3
*PAPER_SPACE
  1

  0
ENDBLK
  5
39F
100
AcDbEntity
  8
0
100
AcDbBlockEnd
  0
BLOCK
  5
2
100
AcDbEntity
  8
0
100
AcDbBlockBegin
  2
_NONE
 70
     0
 10
0.0
 20
0.0
 30
0.0
  3
_NONE
  1

  0
ENDBLK
  5
3
100
AcDbEntity
  8
0
100
AcDbBlockEnd
  0
BLOCK
  5
5
100
AcDbEntity
  8
0
100
AcDbBlockBegin
  2
_CLOSED
 70
     0
 10
0.0
 20
0.0
 30
0.0
  3
_CLOSED
  1

  0
LINE
  5
6
100
AcDbEntity
  8
0
  6
BYBLOCK
 62
     0
100
AcDbLine
 10
-1.0
 20
0.166667
 30
0.0
 11
0.0
 21
0.0
 31
0.0
  0
LINE
  5
7
100
AcDbEntity
  8
0
  6
BYBLOCK
 62
     0
100
AcDbLine
 10
0.0
 20
0.0
 30
0.0
 11
-1.0
 21
-0.166667
 31
0.0
  0
LINE
  5
8
100
AcDbEntity
  8
0
  6
BYBLOCK
 62
     0
100
AcDbLine
 10
-1.0
 20
0.166667
 30
0.0
 11
-1.0
 21
-0.166667
 31
0.0
  0
LINE
  5
9
100
AcDbEntity
  8
0
  6
BYBLOCK
 62
     0
100
AcDbLine
 10
0.0
 20
0.0
 30
0.0
 11
-1.0
 21
0.0
 31
0.0
  0
ENDBLK
  5
A
100
AcDbEntity
  8
0
100
AcDbBlockEnd
  0
BLOCK
  5
C
100
AcDbEntity
  8
0
100
AcDbBlockBegin
  2
_DOT
 70
     0
 10
0.0
 20
0.0
 30
0.0
  3
_DOT
  1

  0
POLYLINE
  5
D
100
AcDbEntity
  8
0
  6
BYBLOCK
 62
     0
100
AcDb2dPolyline
 66
     1
 10
0.0
 20
0.0
 30
0.0
 70
     1
 40
0.5
 41
0.5
  0
VERTEX
  5
E
100
AcDbEntity
  8
0
  6
BYBLOCK
 62
     0
100
AcDbVertex
100
AcDb2dVertex
 10
-0.25
 20
0.0
 30
0.0
 42
1.0
  0
VERTEX
  5
F
100
AcDbEntity
  8
0
  6
BYBLOCK
 62
     0
100
AcDbVertex
100
AcDb2dVertex
 10
0.25
 20
0.0
 30
0.0
 42
1.0
  0
SEQEND
  5
10
100
AcDbEntity
  8
0
  6
BYBLOCK
 62
     0
  0
LINE
  5
11
100
AcDbEntity
  8
0
  6
BYBLOCK
 62
     0
100
AcDbLine
 10
-0.5
 20
0.0
 30
0.0
 11
-1.0
 21
0.0
 31
0.0
  0
ENDBLK
  5
12
100
AcDbEntity
  8
0
100
AcDbBlockEnd
  0
BLOCK
  5
14
100
AcDbEntity
  8
0
100
AcDbBlockBegin
  2
_OPEN
 70
     0
 10
0.0
 20
0.0
 30
0.0
  3
_OPEN
  1

  0
LINE
  5
15
100
AcDbEntity
  8
0
  6
BYBLOCK
 62
     0
100
AcDbLine
 10
-1.0
 20
0.166667
 30
0.0
 11
0.0
 21
0.0
 31
0.0
  0
LINE
  5
16
100
AcDbEntity
  8
0
  6
BYBLOCK
 62
     0
100
AcDbLine
 10
0.0
 20
0.0
 30
0.0
 11
-1.0
 21
-0.166667
 31
0.0
  0
LINE
  5
17
100
AcDbEntity
  8
0
  6
BYBLOCK
 62
     0
100
AcDbLine
 10
0.0
 20
0.0
 30
0.0
 11
-1.0
 21
0.0
 31
0.0
  0
ENDBLK
  5
18
100
AcDbEntity
  8
0
100
AcDbBlockEnd
  0
BLOCK
  5
1A
100
AcDbEntity
  8
0
100
AcDbBlockBegin
  2
_ORIGIN
 70
     0
 10
0.0
 20
0.0
 30
0.0
  3
_ORIGIN
  1

  0
CIRCLE
  5
1B
100
AcDbEntity
  8
0
  6
BYBLOCK
 62
     0
100
AcDbCircle
 10
0.0
 20
0.0
 30
0.0
 40
0.5
  0
LINE
  5
1C
100
AcDbEntity
  8
0
  6
BYBLOCK
 62
     0
100
AcDbLine
 10
0.0
 20
0.0
 30
0.0
 11
-1.0
 21
0.0
 31
0.0
  0
ENDBLK
  5
1D
100
AcDbEntity
  8
0
100
AcDbBlockEnd
  0
BLOCK
  5
1F
100
AcDbEntity
  8
0
100
AcDbBlockBegin
  2
_OPEN30
 70
     0
 10
0.0
 20
0.0
 30
0.0
  3
_OPEN30
  1

  0
LINE
  5
20
100
AcDbEntity
  8
0
  6
BYBLOCK
 62
     0
100
AcDbLine
 10
-1.0
 20
0.267949
 30
0.0
 11
0.0
 21
0.0
 31
0.0
  0
LINE
  5
21
100
AcDbEntity
  8
0
  6
BYBLOCK
 62
     0
100
AcDbLine
 10
0.0
 20
0.0
 30
0.0
 11
-1.0
 21
-0.267949
 31
0.0
  0
LINE
  5
22
100
AcDbEntity
  8
0
  6
BYBLOCK
 62
     0
100
AcDbLine
 10
0.0
 20
0.0
 30
0.0
 11
-1.0
 21
0.0
 31
0.0
  0
ENDBLK
  5
23
100
AcDbEntity
  8
0
100
AcDbBlockEnd
  0
BLOCK
  5
25
100
AcDbEntity
  8
0
100
AcDbBlockBegin
  2
_BOXFILLED
 70
     0
 10
0.0
 20
0.0
 30
0.0
  3
_BOXFILLED
  1

  0
SOLID
  5
26
100
AcDbEntity
  8
0
  6
BYBLOCK
 62
     0
100
AcDbTrace
 10
-0.5
 20
0.5
 30
0.0
 11
0.5
 21
0.5
 31
0.0
 12
-0.5
 22
-0.5
 32
0.0
 13
0.5
 23
-0.5
 33
0.0
  0
LINE
  5
27
100
AcDbEntity
  8
0
  6
BYBLOCK
 62
     0
100
AcDbLine
 10
-0.5
 20
0.0
 30
0.0
 11
-1.0
 21
0.0
 31
0.0
  0
ENDBLK
  5
28
100
AcDbEntity
  8
0
100
AcDbBlockEnd
  0
BLOCK
  5
2A
100
AcDbEntity
  8
0
100
AcDbBlockBegin
  2
_BOXBLANK
 70
     0
 10
0.0
 20
0.0
 30
0.0
  3
_BOXBLANK
  1

  0
LINE
  5
2B
100
AcDbEntity
  8
0
  6
BYBLOCK
 62
     0
100
AcDbLine
 10
-0.5
 20
-0.5
 30
0.0
 11
0.5
 21
-0.5
 31
0.0
  0
LINE
  5
2C
100
AcDbEntity
  8
0
  6
BYBLOCK
 62
     0
100
AcDbLine
 10
0.5
 20
-0.5
 30
0.0
 11
0.5
 21
0.5
 31
0.0
  0
LINE
  5
2D
100
AcDbEntity
  8
0
  6
BYBLOCK
 62
     0
100
AcDbLine
 10
0.5
 20
0.5
 30
0.0
 11
-0.5
 21
0.5
 31
0.0
  0
LINE
  5
2E
100
AcDbEntity
  8
0
  6
BYBLOCK
 62
     0
100
AcDbLine
 10
-0.5
 20
0.5
 30
0.0
 11
-0.5
 21
-0.5
 31
0.0
  0
LINE
  5
2F
100
AcDbEntity
  8
0
  6
BYBLOCK
 62
     0
100
AcDbLine
 10
-0.5
 20
0.0
 30
0.0
 11
-1.0
 21
0.0
 31
0.0
  0
ENDBLK
  5
30
100
AcDbEntity
  8
0
100
AcDbBlockEnd
  0
BLOCK
  5
32
100
AcDbEntity
  8
0
100
AcDbBlockBegin
  2
_OBLIQUE
 70
     0
 10
0.0
 20
0.0
 30
0.0
  3
_OBLIQUE
  1

  0
LINE
  5
33
100
AcDbEntity
  8
0
  6
BYBLOCK
 62
     0
100
AcDbLine
 10
-0.5
 20
-0.5
 30
0.0
 11
0.5
 21
0.5
 31
0.0
  0
ENDBLK
  5
34
100
AcDbEntity
  8
0
100
AcDbBlockEnd
  0
BLOCK
  5
36
100
AcDbEntity
  8
0
100
AcDbBlockBegin
  2
_OPEN90
 70
     0
 10
0.0
 20
0.0
 30
0.0
  3
_OPEN90
  1

  0
LINE
  5
37
100
AcDbEntity
  8
0
  6
BYBLOCK
 62
     0
100
AcDbLine
 10
-0.5
 20
0.5
 30
0.0
 11
0.0
 21
0.0
 31
0.0
  0
LINE
  5
38
100
AcDbEntity
  8
0
  6
BYBLOCK
 62
     0
100
AcDbLine
 10
0.0
 20
0.0
 30
0.0
 11
-0.5
 21
-0.5
 31
0.0
  0
LINE
  5
39
100
AcDbEntity
  8
0
  6
BYBLOCK
 62
     0
100
AcDbLine
 10
0.0
 20
0.0
 30
0.0
 11
-1.0
 21
0.0
 31
0.0
  0
ENDBLK
  5
3A
100
AcDbEntity
  8
0
100
AcDbBlockEnd
  0
BLOCK
  5
3C
100
AcDbEntity
  8
0
100
AcDbBlockBegin
  2
_CLOSEDBLANK
 70
     0
 10
0.0
 20
0.0
 30
0.0
  3
_CLOSEDBLANK
  1

  0
LINE
  5
3D
100
AcDbEntity
  8
0
  6
BYBLOCK
 62
     0
100
AcDbLine
 10
-1.0
 20
0.1666666666666666
 30
0.0
 11
0.0
 21
0.0
 31
0.0
  0
LINE
  5
3E
100
AcDbEntity
  8
0
  6
BYBLOCK
 62
     0
100
AcDbLine
 10
0.0
 20
0.0
 30
0.0
 11
-1.0
 21
-0.1666666666666666
 31
0.0
  0
LINE
  5
3F
100
AcDbEntity
  8
0
  6
BYBLOCK
 62
     0
100
AcDbLine
 10
-1.0
 20
0.1666666666666666
 30
0.0
 11
-1.0
 21
-0.1666666666666666
 31
0.0
  0
ENDBLK
  5
40
100
AcDbEntity
  8
0
100
AcDbBlockEnd
  0
BLOCK
  5
42
100
AcDbEntity
  8
0
100
AcDbBlockBegin
  2
_DOTBLANK
 70
     0
 10
0.0
 20
0.0
 30
0.0
  3
_DOTBLANK
  1

  0
CIRCLE
  5
43
100
AcDbEntity
  8
0
  6
BYBLOCK
 62
     0
100
AcDbCircle
 10
0.0
 20
0.0
 30
0.0
 40
0.5
  0
LINE
  5
44
100
AcDbEntity
  8
0
  6
BYBLOCK
 62
     0
100
AcDbLine
 10
-0.5
 20
0.0
 30
0.0
 11
-1.0
 21
0.0
 31
0.0
  0
ENDBLK
  5
45
100
AcDbEntity
  8
0
100
AcDbBlockEnd
  0
BLOCK
  5
50
100
AcDbEntity
  8
MAIN0
  6
CONTINUOUS
 62
3
100
AcDbBlockBegin
  2
*D0
 70
    65
 10
0.0
 20
0.0
 30
0.0
  0
LINE
  5
51
100
AcDbEntity
  8
MAIN0
  6
BYBLOCK
 62
0
100
AcDbLine
 10
229.5210880632650
 20
195.5279388066296
 30
0.0000000000000000
 11
253.2107200393405
 21
195.5279388066296
 31
0.0000000000000000
  0
LINE
  5
52
100
AcDbEntity
  8
MAIN0
  6
BYBLOCK
 62
0
100
AcDbLine
 10
251.2107200393405
 20
197.5279388066296
 30
0.0000000000000000
 11
251.2107200393405
 21
224.0279388068613
 31
0.0000000000000000
  0
INSERT
  5
53
100
AcDbEntity
  8
MAIN0
  6
BYBLOCK
 62
0
100
AcDbBlockReference
  2
_OPEN
 10
251.2107200393405
 20
195.5279388066296
 30
0.0000000000000000
 41
2.000000000000000
 42
2.000000000000000
 43
2.000000000000000
 50
270.0000000000000
  0
INSERT
  5
54
100
AcDbEntity
  8
MAIN0
  6
BYBLOCK
 62
0
100
AcDbBlockReference
  2
_OPEN
 10
251.2107200393405
 20
226.0279388068613
 30
0.0000000000000000
 41
2.000000000000000
 42
2.000000000000000
 43
2.000000000000000
 50
90.00000000000000
  0
LINE
  5
55
100
AcDbEntity
  8
MAIN0
  6
BYBLOCK
 62
0
100
AcDbLine
 10
229.9394834418503
 20
226.0279388068613
 30
0.0000000000000000
 11
253.2107200393405
 21
226.0279388068613
 31
0.0000000000000000
  0
MTEXT
  5
56
100
AcDbEntity
  8
MAIN0
  6
BYBLOCK
 62
0
100
AcDbMText
 10
249.1607200870242
 20
210.7779388067455
 30
0.0000000000000000
 40
3.099999904632568
 41
0.0000000000000000
 71
     5
 72
     1
  1
\A1;MAX 30.5
 11
6.123233995736766e-017
 21
1.000000000000000
 31
0.0000000000000000
  7
STANDARD
  0
ENDBLK
  5
57
100
AcDbEntity
  8
MAIN0
  6
CONTINUOUS
 62
3
100
AcDbBlockEnd
  0
BLOCK
  5
59
100
AcDbEntity
  8
MAIN0
  6
CONTINUOUS
 62
3
100
AcDbBlockBegin
  2
*D1
 70
    65
 10
0.0
 20
0.0
 30
0.0
  0
LINE
  5
5A
100
AcDbEntity
  8
MAIN0
  6
BYBLOCK
 62
0
100
AcDbLine
 10
227.9700410943057
 20
228.5279388068186
 30
0.0000000000000000
 11
240.5875208012637
 21
228.5279388068186
 31
0.0000000000000000
  0
LINE
  5
5B
100
AcDbEntity
  8
MAIN0
  6
BYBLOCK
 62
0
100
AcDbLine
 10
238.5875208012637
 20
228.5279388068186
 30
0.0000000000000000
 11
238.5875208012637
 21
223.5279388068952
 31
0.0000000000000000
  0
INSERT
  5
5C
100
AcDbEntity
  8
MAIN0
  6
BYBLOCK
 62
0
100
AcDbBlockReference
  2
_OPEN
 10
238.5875208012637
 20
228.5279388068186
 30
0.0000000000000000
 41
2.000000000000000
 42
2.000000000000000
 43
2.000000000000000
 50
270.0000000000000
  0
INSERT
  5
5D
100
AcDbEntity
  8
MAIN0
  6
BYBLOCK
 62
0
100
AcDbBlockReference
  2
_OPEN
 10
238.5875208012637
 20
223.5279388068952
 30
0.0000000000000000
 41
2.000000000000000
 42
2.000000000000000
 43
2.000000000000000
 50
90.00000000000000
  0
LINE
  5
5E
100
AcDbEntity
  8
MAIN0
  6
BYBLOCK
 62
0
100
AcDbLine
 10
238.5875208012637
 20
230.5279388068186
 30
0.0000000000000000
 11
238.5875208012637
 21
245.9032077429758
 31
0.0000000000000000
  0
LINE
  5
5F
100
AcDbEntity
  8
MAIN0
  6
BYBLOCK
 62
0
100
AcDbLine
 10
238.5875208012637
 20
221.5279388068952
 30
0.0000000000000000
 11
238.5875208012637
 21
220.5279388068952
 31
0.0000000000000000
  0
LINE
  5
60
100
AcDbEntity
  8
MAIN0
  6
BYBLOCK
 62
0
100
AcDbLine
 10
227.9700410943082
 20
223.5279388068983
 30
0.0000000000000000
 11
240.5875208012637
 21
223.5279388068946
 31
0.0000000000000000
  0
MTEXT
  5
61
100
AcDbEntity
  8
MAIN0
  6
BYBLOCK
 62
0
100
AcDbMText
 10
236.5375208489474
 20
242.7532083254471
 30
0.0000000000000000
 40
3.099999904632568
 41
0.0000000000000000
 71
     5
 72
     1
  1
\A1;5H8
 11
6.123233995736766e-017
 21
1.000000000000000
 31
0.0000000000000000
  7
STANDARD
  0
ENDBLK
  5
62
100
AcDbEntity
  8
MAIN0
  6
CONTINUOUS
 62
3
100
AcDbBlockEnd
  0
BLOCK
  5
64
100
AcDbEntity
  8
MAIN0
  6
CONTINUOUS
 62
3
100
AcDbBlockBegin
  2
*D2
 70
    65
 10
0.0
 20
0.0
 30
0.0
  0
LINE
  5
65
100
AcDbEntity
  8
MAIN0
  6
BYBLOCK
 62
0
100
AcDbLine
 10
227.9700410943057
 20
236.5279388068186
 30
0.0000000000000000
 11
248.9359001506779
 21
236.5279388068186
 31
0.0000000000000000
  0
LINE
  5
66
100
AcDbEntity
  8
MAIN0
  6
BYBLOCK
 62
0
100
AcDbLine
 10
246.9359001506779
 20
236.5279388068186
 30
0.0000000000000000
 11
246.9359001506779
 21
232.5279388068581
 31
0.0000000000000000
  0
INSERT
  5
67
100
AcDbEntity
  8
MAIN0
  6
BYBLOCK
 62
0
100
AcDbBlockReference
  2
_OPEN
 10
246.9359001506779
 20
236.5279388068186
 30
0.0000000000000000
 41
2.000000000000000
 42
2.000000000000000
 43
2.000000000000000
 50
270.0000000000000
  0
INSERT
  5
68
100
AcDbEntity
  8
MAIN0
  6
BYBLOCK
 62
0
100
AcDbBlockReference
  2
_OPEN
 10
246.9359001506779
 20
232.5279388068581
 30
0.0000000000000000
 41
2.000000000000000
 42
2.000000000000000
 43
2.000000000000000
 50
90.00000000000000
  0
LINE
  5
69
100
AcDbEntity
  8
MAIN0
  6
BYBLOCK
 62
0
100
AcDbLine
 10
246.9359001506779
 20
238.5279388068186
 30
0.0000000000000000
 11
246.9359001506779
 21
239.5279388068186
 31
0.0000000000000000
  0
LINE
  5
6A
100
AcDbEntity
  8
MAIN0
  6
BYBLOCK
 62
0
100
AcDbLine
 10
246.9359001506779
 20
230.5279388068581
 30
0.0000000000000000
 11
246.9359001506779
 21
229.5279388068581
 31
0.0000000000000000
  0
LINE
  5
6B
100
AcDbEntity
  8
MAIN0
  6
BYBLOCK
 62
0
100
AcDbLine
 10
229.9798517205886
 20
232.5279388068581
 30
0.0000000000000000
 11
248.9359001506779
 21
232.5279388068581
 31
0.0000000000000000
  0
MTEXT
  5
6C
100
AcDbEntity
  8
MAIN0
  6
BYBLOCK
 62
0
100
AcDbMText
 10
244.8859001983616
 20
234.5279388068383
 30
0.0000000000000000
 40
3.099999904632568
 41
0.0000000000000000
 71
     5
 72
     1
  1
\A1;4
 11
6.123233995736766e-017
 21
1.000000000000000
 31
0.0000000000000000
  7
STANDARD
  0
ENDBLK
  5
6D
100
AcDbEntity
  8
MAIN0
  6
CONTINUOUS
 62
3
100
AcDbBlockEnd
  0
BLOCK
  5
6F
100
AcDbEntity
  8
MAIN0
  6
CONTINUOUS
 62
3
100
AcDbBlockBegin
  2
*D3
 70
    65
 10
0.0
 20
0.0
 30
0.0
  0
LINE
  5
70
100
AcDbEntity
  8
MAIN0
  6
BYBLOCK
 62
0
100
AcDbLine
 10
229.9798517205886
 20
232.5279388068581
 30
0.0000000000000000
 11
248.9359001506779
 21
232.5279388068581
 31
0.0000000000000000
  0
LINE
  5
71
100
AcDbEntity
  8
MAIN0
  6
BYBLOCK
 62
0
100
AcDbLine
 10
246.9359001506779
 20
230.5279388068581
 30
0.0000000000000000
 11
246.9359001506779
 21
221.5279388068599
 31
0.0000000000000000
  0
INSERT
  5
72
100
AcDbEntity
  8
MAIN0
  6
BYBLOCK
 62
0
100
AcDbBlockReference
  2
_OPEN
 10
246.9359001506779
 20
232.5279388068581
 30
0.0000000000000000
 41
2.000000000000000
 42
2.000000000000000
 43
2.000000000000000
 50
90.00000000000000
  0
INSERT
  5
73
100
AcDbEntity
  8
MAIN0
  6
BYBLOCK
 62
0
100
AcDbBlockReference
  2
_OPEN
 10
246.9359001506779
 20
219.5279388068599
 30
0.0000000000000000
 41
2.000000000000000
 42
2.000000000000000
 43
2.000000000000000
 50
270.0000000000000
  0
LINE
  5
74
100
AcDbEntity
  8
MAIN0
  6
BYBLOCK
 62
0
100
AcDbLine
 10
229.9798517205937
 20
219.5279388068599
 30
0.0000000000000000
 11
248.9359001506779
 21
219.5279388068599
 31
0.0000000000000000
  0
MTEXT
  5
75
100
AcDbEntity
  8
MAIN0
  6
BYBLOCK
 62
0
100
AcDbMText
 10
244.8859001983616
 20
228.5609514889792
 30
0.0000000000000000
 40
3.099999904632568
 41
0.0000000000000000
 71
     5
 72
     1
  1
\A1;13
 11
6.123233995736766e-017
 21
1.000000000000000
 31
0.0000000000000000
  7
STANDARD
  0
ENDBLK
  5
76
100
AcDbEntity
  8
MAIN0
  6
CONTINUOUS
 62
3
100
AcDbBlockEnd
  0
BLOCK
  5
78
100
AcDbEntity
  8
MAIN0
  6
CONTINUOUS
 62
3
100
AcDbBlockBegin
  2
*D4
 70
    65
 10
0.0
 20
0.0
 30
0.0
  0
LINE
  5
79
100
AcDbEntity
  8
MAIN0
  6
BYBLOCK
 62
0
100
AcDbLine
 10
227.3700410823848
 20
237.1279388187394
 30
0.0000000000000000
 11
227.3700410823848
 21
250.4991296302054
 31
0.0000000000000000
  0
LINE
  5
7A
100
AcDbEntity
  8
MAIN0
  6
BYBLOCK
 62
0
100
AcDbLine
 10
227.3700410823848
 20
248.4991296302054
 30
0.0000000000000000
 11
224.3700410823848
 21
248.4991296302054
 31
0.0000000000000000
  0
INSERT
  5
7B
100
AcDbEntity
  8
MAIN0
  6
BYBLOCK
 62
0
100
AcDbBlockReference
  2
_OPEN
 10
227.3700410823848
 20
248.4991296302054
 30
0.0000000000000000
 41
2.000000000000000
 42
2.000000000000000
 43
2.000000000000000
 50
180.0000000000000
  0
INSERT
  5
7C
100
AcDbEntity
  8
MAIN0
  6
BYBLOCK
 62
0
100
AcDbBlockReference
  2
_OPEN
 10
224.3700410823848
 20
248.4991296302054
 30
0.0000000000000000
 41
2.000000000000000
 42
2.000000000000000
 43
2.000000000000000
 50
360.0000000000000
  0
LINE
  5
7D
100
AcDbEntity
  8
MAIN0
  6
BYBLOCK
 62
0
100
AcDbLine
 10
229.3700410823848
 20
248.4991296302054
 30
0.0000000000000000
 11
230.3700410823848
 21
248.4991296302054
 31
0.0000000000000000
  0
LINE
  5
7E
100
AcDbEntity
  8
MAIN0
  6
BYBLOCK
 62
0
100
AcDbLine
 10
222.3700410823848
 20
248.4991296302054
 30
0.0000000000000000
 11
219.8873588542965
 21
248.4991296302054
 31
0.0000000000000000
  0
LINE
  5
7F
100
AcDbEntity
  8
MAIN0
  6
BYBLOCK
 62
0
100
AcDbLine
 10
224.3700410823848
 20
229.3279388187395
 30
0.0000000000000000
 11
224.3700410823848
 21
250.4991296302054
 31
0.0000000000000000
  0
MTEXT
  5
80
100
AcDbEntity
  8
MAIN0
  6
BYBLOCK
 62
0
100
AcDbMText
 10
220.9373586226411
 20
250.5491295825217
 30
0.0000000000000000
 40
3.099999904632568
 41
0.0000000000000000
 71
     5
 72
     1
  1
\A1;3
 11
1.000000000000000
 21
0.0000000000000000
 31
0.0000000000000000
  7
STANDARD
  0
ENDBLK
  5
81
100
AcDbEntity
  8
MAIN0
  6
CONTINUOUS
 62
3
100
AcDbBlockEnd
  0
BLOCK
  5
84
100
AcDbEntity
  8
MAIN0
  6
CONTINUOUS
 62
3
100
AcDbBlockBegin
  2
*D5
 70
    65
 10
0.0
 20
0.0
 30
0.0
  0
LINE
  5
85
100
AcDbEntity
  8
MAIN0
  6
BYBLOCK
 62
0
100
AcDbLine
 10
297.2700410822329
 20
230.6025650016250
 30
0.0000000000000000
 11
297.2700410822329
 21
257.0068441132776
 31
0.0000000000000000
  0
LINE
  5
86
100
AcDbEntity
  8
MAIN0
  6
BYBLOCK
 62
0
100
AcDbLine
 10
299.2700410822329
 20
255.0068441132776
 30
0.0000000000000000
 11
340.2700410824225
 21
255.0068441132776
 31
0.0000000000000000
  0
INSERT
  5
87
100
AcDbEntity
  8
MAIN0
  6
BYBLOCK
 62
0
100
AcDbBlockReference
  2
_OPEN
 10
297.2700410822329
 20
255.0068441132776
 30
0.0000000000000000
 41
2.000000000000000
 42
2.000000000000000
 43
2.000000000000000
 50
180.0000000000000
  0
INSERT
  5
88
100
AcDbEntity
  8
MAIN0
  6
BYBLOCK
 62
0
100
AcDbBlockReference
  2
_OPEN
 10
342.2700410824225
 20
255.0068441132776
 30
0.0000000000000000
 41
2.000000000000000
 42
2.000000000000000
 43
2.000000000000000
 50
0.0000000000000000
  0
LINE
  5
89
100
AcDbEntity
  8
MAIN0
  6
BYBLOCK
 62
0
100
AcDbLine
 10
342.2700410824225
 20
230.6025650017248
 30
0.0000000000000000
 11
342.2700410824225
 21
257.0068441132776
 31
0.0000000000000000
  0
MTEXT
  5
8A
100
AcDbEntity
  8
MAIN0
  6
BYBLOCK
 62
0
100
AcDbMText
 10
319.7700410823277
 20
257.0568440655939
 30
0.0000000000000000
 40
3.099999904632568
 41
0.0000000000000000
 71
     5
 72
     1
  1
\A1;45
 11
1.000000000000000
 21
0.0000000000000000
 31
0.0000000000000000
  7
STANDARD
  0
ENDBLK
  5
8B
100
AcDbEntity
  8
MAIN0
  6
CONTINUOUS
 62
3
100
AcDbBlockEnd
  0
BLOCK
  5
8D
100
AcDbEntity
  8
MAIN0
  6
CONTINUOUS
 62
3
100
AcDbBlockBegin
  2
*D6
 70
    65
 10
0.0
 20
0.0
 30
0.0
  0
LINE
  5
8E
100
AcDbEntity
  8
MAIN0
  6
BYBLOCK
 62
0
100
AcDbLine
 10
294.3377650874568
 20
218.0279388065709
 30
0.0000000000000000
 11
290.2041762710995
 21
218.0279388066652
 31
0.0000000000000000
  0
LINE
  5
8F
100
AcDbEntity
  8
MAIN0
  6
BYBLOCK
 62
0
100
AcDbLine
 10
292.2041762710995
 20
216.0279388066196
 30
0.0000000000000000
 11
292.2041762710995
 21
197.5279388065466
 31
0.0000000000000000
  0
INSERT
  5
90
100
AcDbEntity
  8
MAIN0
  6
BYBLOCK
 62
0
100
AcDbBlockReference
  2
_OPEN
 10
292.2041762710995
 20
218.0279388066196
 30
0.0000000000000000
 41
2.000000000000000
 42
2.000000000000000
 43
2.000000000000000
 50
90.00000000000000
  0
INSERT
  5
91
100
AcDbEntity
  8
MAIN0
  6
BYBLOCK
 62
0
100
AcDbBlockReference
  2
_OPEN
 10
292.2041762710995
 20
195.5279388065466
 30
0.0000000000000000
 41
2.000000000000000
 42
2.000000000000000
 43
2.000000000000000
 50
270.0000000000000
  0
MTEXT
  5
92
100
AcDbEntity
  8
MAIN0
  6
BYBLOCK
 62
0
100
AcDbMText
 10
290.1541763187832
 20
206.7779388065831
 30
0.0000000000000000
 40
3.099999904632568
 41
0.0000000000000000
 71
     5
 72
     1
  1
\A1;22.5
 11
6.123233995736766e-017
 21
1.000000000000000
 31
0.0000000000000000
  7
STANDARD
  0
ENDBLK
  5
93
100
AcDbEntity
  8
MAIN0
  6
CONTINUOUS
 62
3
100
AcDbBlockEnd
  0
BLOCK
  5
95
100
AcDbEntity
  8
MAIN0
  6
CONTINUOUS
 62
3
100
AcDbBlockBegin
  2
*D7
 70
    65
 10
0.0
 20
0.0
 30
0.0
  0
LINE
  5
96
100
AcDbEntity
  8
MAIN0
  6
BYBLOCK
 62
0
100
AcDbLine
 10
292.2041762710995
 20
193.5279388065466
 30
0.0000000000000000
 11
292.2041762710995
 21
175.0279388065860
 31
0.0000000000000000
  0
INSERT
  5
97
100
AcDbEntity
  8
MAIN0
  6
BYBLOCK
 62
0
100
AcDbBlockReference
  2
_OPEN
 10
292.2041762710995
 20
195.5279388065466
 30
0.0000000000000000
 41
2.000000000000000
 42
2.000000000000000
 43
2.000000000000000
 50
90.00000000000000
  0
INSERT
  5
98
100
AcDbEntity
  8
MAIN0
  6
BYBLOCK
 62
0
100
AcDbBlockReference
  2
_OPEN
 10
292.2041762710995
 20
173.0279388065860
 30
0.0000000000000000
 41
2.000000000000000
 42
2.000000000000000
 43
2.000000000000000
 50
270.0000000000000
  0
LINE
  5
99
100
AcDbEntity
  8
MAIN0
  6
BYBLOCK
 62
0
100
AcDbLine
 10
294.3377650875274
 20
173.0279388065996
 30
0.0000000000000000
 11
290.2041762710995
 21
173.0279388065733
 31
0.0000000000000000
  0
MTEXT
  5
9A
100
AcDbEntity
  8
MAIN0
  6
BYBLOCK
 62
0
100
AcDbMText
 10
290.1541763187832
 20
184.2779388065663
 30
0.0000000000000000
 40
3.099999904632568
 41
0.0000000000000000
 71
     5
 72
     1
  1
\A1;22.5
 11
6.123233995736766e-017
 21
1.000000000000000
 31
0.0000000000000000
  7
STANDARD
  0
ENDBLK
  5
9B
100
AcDbEntity
  8
MAIN0
  6
CONTINUOUS
 62
3
100
AcDbBlockEnd
  0
BLOCK
  5
9D
100
AcDbEntity
  8
MAIN0
  6
CONTINUOUS
 62
3
100
AcDbBlockBegin
  2
*D8
 70
    65
 10
0.0
 20
0.0
 30
0.0
  0
LINE
  5
9E
100
AcDbEntity
  8
MAIN0
  6
BYBLOCK
 62
0
100
AcDbLine
 10
304.7700410823479
 20
166.2270772788283
 30
0.0000000000000000
 11
304.7700410823479
 21
146.7091743320354
 31
0.0000000000000000
  0
LINE
  5
9F
100
AcDbEntity
  8
MAIN0
  6
BYBLOCK
 62
0
100
AcDbLine
 10
306.7700410823479
 20
148.7091743320354
 30
0.0000000000000000
 11
317.7700410824959
 21
148.7091743320354
 31
0.0000000000000000
  0
INSERT
  5
A0
100
AcDbEntity
  8
MAIN0
  6
BYBLOCK
 62
0
100
AcDbBlockReference
  2
_OPEN
 10
304.7700410823479
 20
148.7091743320354
 30
0.0000000000000000
 41
2.000000000000000
 42
2.000000000000000
 43
2.000000000000000
 50
180.0000000000000
  0
INSERT
  5
A1
100
AcDbEntity
  8
MAIN0
  6
BYBLOCK
 62
0
100
AcDbBlockReference
  2
_OPEN
 10
319.7700410824959
 20
148.7091743320354
 30
0.0000000000000000
 41
2.000000000000000
 42
2.000000000000000
 43
2.000000000000000
 50
0.0000000000000000
  0
LINE
  5
A2
100
AcDbEntity
  8
MAIN0
  6
BYBLOCK
 62
0
100
AcDbLine
 10
319.7700410824959
 20
153.1591861135086
 30
0.0000000000000000
 11
319.7700410824959
 21
146.7091743320354
 31
0.0000000000000000
  0
MTEXT
  5
A3
100
AcDbEntity
  8
MAIN0
  6
BYBLOCK
 62
0
100
AcDbMText
 10
312.2700410824219
 20
150.7591742843516
 30
0.0000000000000000
 40
3.099999904632568
 41
0.0000000000000000
 71
     5
 72
     1
  1
\A1;15
 11
1.000000000000000
 21
0.0000000000000000
 31
0.0000000000000000
  7
STANDARD
  0
ENDBLK
  5
A4
100
AcDbEntity
  8
MAIN0
  6
CONTINUOUS
 62
3
100
AcDbBlockEnd
  0
BLOCK
  5
A6
100
AcDbEntity
  8
MAIN0
  6
CONTINUOUS
 62
3
100
AcDbBlockBegin
  2
*D9
 70
    65
 10
0.0
 20
0.0
 30
0.0
  0
LINE
  5
A7
100
AcDbEntity
  8
MAIN0
  6
BYBLOCK
 62
0
100
AcDbLine
 10
319.7700410824959
 20
153.1591861135086
 30
0.0000000000000000
 11
319.7700410824959
 21
146.7091743320354
 31
0.0000000000000000
  0
LINE
  5
A8
100
AcDbEntity
  8
MAIN0
  6
BYBLOCK
 62
0
100
AcDbLine
 10
321.7700410824959
 20
148.7091743320354
 30
0.0000000000000000
 11
332.7700410825859
 21
148.7091743320354
 31
0.0000000000000000
  0
INSERT
  5
A9
100
AcDbEntity
  8
MAIN0
  6
BYBLOCK
 62
0
100
AcDbBlockReference
  2
_OPEN
 10
319.7700410824959
 20
148.7091743320354
 30
0.0000000000000000
 41
2.000000000000000
 42
2.000000000000000
 43
2.000000000000000
 50
180.0000000000000
  0
INSERT
  5
AA
100
AcDbEntity
  8
MAIN0
  6
BYBLOCK
 62
0
100
AcDbBlockReference
  2
_OPEN
 10
334.7700410825859
 20
148.7091743320354
 30
0.0000000000000000
 41
2.000000000000000
 42
2.000000000000000
 43
2.000000000000000
 50
0.0000000000000000
  0
LINE
  5
AB
100
AcDbEntity
  8
MAIN0
  6
BYBLOCK
 62
0
100
AcDbLine
 10
334.7700410825859
 20
166.2270772788948
 30
0.0000000000000000
 11
334.7700410825859
 21
146.7091743320354
 31
0.0000000000000000
  0
MTEXT
  5
AC
100
AcDbEntity
  8
MAIN0
  6
BYBLOCK
 62
0
100
AcDbMText
 10
327.2700410825410
 20
150.7591742843516
 30
0.0000000000000000
 40
3.099999904632568
 41
0.0000000000000000
 71
     5
 72
     1
  1
\A1;15
 11
1.000000000000000
 21
0.0000000000000000
 31
0.0000000000000000
  7
STANDARD
  0
ENDBLK
  5
AD
100
AcDbEntity
  8
MAIN0
  6
CONTINUOUS
 62
3
100
AcDbBlockEnd
  0
BLOCK
  5
AF
100
AcDbEntity
  8
MAIN0
  6
CONTINUOUS
 62
3
100
AcDbBlockBegin
  2
*D10
 70
    65
 10
0.0
 20
0.0
 30
0.0
  0
LINE
  5
B0
100
AcDbEntity
  8
MAIN0
  6
BYBLOCK
 62
0
100
AcDbLine
 10
319.7700410824977
 20
153.1591861135086
 30
0.0000000000000000
 11
319.7700410825304
 21
138.4007539600142
 31
0.0000000000000000
  0
LINE
  5
B1
100
AcDbEntity
  8
MAIN0
  6
BYBLOCK
 62
0
100
AcDbLine
 10
364.7665293365083
 20
195.5279388066816
 30
0.0000000000000000
 11
376.8972259290069
 21
195.5279388066046
 31
0.0000000000000000
  0
ARC
  5
B2
100
AcDbEntity
  8
MAIN0
  6
BYBLOCK
 62
0
100
AcDbCircle
 10
319.7700410824038
 20
195.5279388066173
 30
0.0000000000000000
 40
55.12718484660316
100
AcDbArc
 50
272.0786760534213
 51
357.9213239467057
  0
INSERT
  5
B3
100
AcDbEntity
  8
MAIN0
  6
BYBLOCK
 62
0
100
AcDbBlockReference
  2
_OPEN
 10
319.7700410825260
 20
140.4007539600142
 30
0.0000000000000000
 41
2.000000000000000
 42
2.000000000000000
 43
2.000000000000000
 50
180.0000000001269
  0
INSERT
  5
B4
100
AcDbEntity
  8
MAIN0
  6
BYBLOCK
 62
0
100
AcDbBlockReference
  2
_OPEN
 10
374.8972259290069
 20
195.5279388066173
 30
0.0000000000000000
 41
2.000000000000000
 42
2.000000000000000
 43
2.000000000000000
 50
90.00000000000000
  0
MTEXT
  5
B5
100
AcDbEntity
  8
MAIN0
  6
BYBLOCK
 62
0
100
AcDbMText
 10
357.3012784474878
 20
157.9967014416165
 30
0.0000000000000000
 40
3.099999904632568
 41
0.0000000000000000
 71
     5
 72
     1
  1
\A1;90\U+00B0
 11
0.7071067811857644
 21
0.7071067811873306
 31
0.0000000000000000
  7
STANDARD
  0
ENDBLK
  5
B6
100
AcDbEntity
  8
MAIN0
  6
CONTINUOUS
 62
3
100
AcDbBlockEnd
  0
BLOCK
  5
B8
100
AcDbEntity
  8
MAIN0
  6
CONTINUOUS
 62
3
100
AcDbBlockBegin
  2
*D11
 70
    65
 10
0.0
 20
0.0
 30
0.0
  0
LINE
  5
B9
100
AcDbEntity
  8
MAIN0
  6
BYBLOCK
 62
0
100
AcDbLine
 10
364.7665293365083
 20
195.5279388066816
 30
0.0000000000000000
 11
376.8972259290069
 21
195.5279388066046
 31
0.0000000000000000
  0
LINE
  5
BA
100
AcDbEntity
  8
MAIN0
  6
BYBLOCK
 62
0
100
AcDbLine
 10
319.7700410823026
 20
241.1461565053399
 30
0.0000000000000000
 11
319.7700410822770
 21
252.6551236532205
 31
0.0000000000000000
  0
ARC
  5
BB
100
AcDbEntity
  8
MAIN0
  6
BYBLOCK
 62
0
100
AcDbCircle
 10
319.7700410824038
 20
195.5279388066173
 30
0.0000000000000000
 40
55.12718484660316
100
AcDbArc
 50
2.078676053294341
 51
87.92132394683280
  0
INSERT
  5
BC
100
AcDbEntity
  8
MAIN0
  6
BYBLOCK
 62
0
100
AcDbBlockReference
  2
_OPEN
 10
374.8972259290069
 20
195.5279388066173
 30
0.0000000000000000
 41
2.000000000000000
 42
2.000000000000000
 43
2.000000000000000
 50
270.0000000000000
  0
INSERT
  5
BD
100
AcDbEntity
  8
MAIN0
  6
BYBLOCK
 62
0
100
AcDbBlockReference
  2
_OPEN
 10
319.7700410822815
 20
250.6551236532205
 30
0.0000000000000000
 41
2.000000000000000
 42
2.000000000000000
 43
2.000000000000000
 50
180.0000000001271
  0
MTEXT
  5
BE
100
AcDbEntity
  8
MAIN0
  6
BYBLOCK
 62
0
100
AcDbMText
 10
360.2004161828313
 20
235.9583139071346
 30
0.0000000000000000
 40
3.099999904632568
 41
0.0000000000000000
 71
     5
 72
     1
  1
\A1;90\U+00B0
 11
0.7071067811873318
 21
-0.7071067811857633
 31
0.0000000000000000
  7
STANDARD
  0
ENDBLK
  5
BF
100
AcDbEntity
  8
MAIN0
  6
CONTINUOUS
 62
3
100
AcDbBlockEnd
  0
BLOCK
  5
C1
100
AcDbEntity
  8
MAIN0
  6
CONTINUOUS
 62
3
100
AcDbBlockBegin
  2
*D12
 70
    65
 10
0.0
 20
0.0
 30
0.0
  0
LINE
  5
C2
100
AcDbEntity
  8
MAIN0
  6
BYBLOCK
 62
0
100
AcDbLine
 10
300.7700410825291
 20
118.1739410091382
 30
0.0000000000000000
 11
300.7700410825020
 21
128.2545977458939
 31
0.0000000000000000
  0
LINE
  5
C3
100
AcDbEntity
  8
MAIN0
  6
BYBLOCK
 62
0
100
AcDbLine
 10
300.7700410825074
 20
126.2545977458939
 30
0.0000000000000000
 11
308.7700410825073
 21
126.2545977458939
 31
0.0000000000000000
  0
INSERT
  5
C4
100
AcDbEntity
  8
MAIN0
  6
BYBLOCK
 62
0
100
AcDbBlockReference
  2
_OPEN
 10
300.7700410825074
 20
126.2545977458939
 30
0.0000000000000000
 41
2.000000000000000
 42
2.000000000000000
 43
2.000000000000000
 50
0.0000000000000000
  0
INSERT
  5
C5
100
AcDbEntity
  8
MAIN0
  6
BYBLOCK
 62
0
100
AcDbBlockReference
  2
_OPEN
 10
308.7700410825073
 20
126.2545977458939
 30
0.0000000000000000
 41
2.000000000000000
 42
2.000000000000000
 43
2.000000000000000
 50
180.0000000000000
  0
LINE
  5
C6
100
AcDbEntity
  8
MAIN0
  6
BYBLOCK
 62
0
100
AcDbLine
 10
298.7700410825074
 20
126.2545977458939
 30
0.0000000000000000
 11
297.7700410825074
 21
126.2545977458939
 31
0.0000000000000000
  0
LINE
  5
C7
100
AcDbEntity
  8
MAIN0
  6
BYBLOCK
 62
0
100
AcDbLine
 10
310.7700410825073
 20
126.2545977458939
 30
0.0000000000000000
 11
320.3884111386597
 21
126.2545977458939
 31
0.0000000000000000
  0
LINE
  5
C8
100
AcDbEntity
  8
MAIN0
  6
BYBLOCK
 62
0
100
AcDbLine
 10
308.7700410825291
 20
118.1739410091182
 30
0.0000000000000000
 11
308.7700410825019
 21
128.2545977458939
 31
0.0000000000000000
  0
MTEXT
  5
C9
100
AcDbEntity
  8
MAIN0
  6
BYBLOCK
 62
0
100
AcDbMText
 10
315.9384110895226
 20
128.3045976982102
 30
0.0000000000000000
 40
3.099999904632568
 41
0.0000000000000000
 71
     5
 72
     1
  1
\A1;4-\U+22058
 11
1.000000000000000
 21
0.0000000000000000
 31
0.0000000000000000
  7
STANDARD
  0
ENDBLK
  5
CA
100
AcDbEntity
  8
MAIN0
  6
CONTINUOUS
 62
3
100
AcDbBlockEnd
  0
BLOCK
  5
CC
100
AcDbEntity
  8
MAIN0
  6
CONTINUOUS
 62
3
100
AcDbBlockBegin
  2
*D13
 70
    65
 10
0.0
 20
0.0
 30
0.0
  0
LINE
  5
CD
100
AcDbEntity
  8
MAIN0
  6
BYBLOCK
 62
0
100
AcDbLine
 10
299.4700410706039
 20
117.3739409972091
 30
0.0000000000000000
 11
280.6821415556620
 21
117.3739409972245
 31
0.0000000000000000
  0
LINE
  5
CE
100
AcDbEntity
  8
MAIN0
  6
BYBLOCK
 62
0
100
AcDbLine
 10
282.6821415556620
 20
115.3739409972228
 30
0.0000000000000000
 11
282.6821415556620
 21
104.3739409972171
 31
0.0000000000000000
  0
INSERT
  5
CF
100
AcDbEntity
  8
MAIN0
  6
BYBLOCK
 62
0
100
AcDbBlockReference
  2
_OPEN
 10
282.6821415556620
 20
117.3739409972228
 30
0.0000000000000000
 41
2.000000000000000
 42
2.000000000000000
 43
2.000000000000000
 50
90.00000000000000
  0
INSERT
  5
D0
100
AcDbEntity
  8
MAIN0
  6
BYBLOCK
 62
0
100
AcDbBlockReference
  2
_OPEN
 10
282.6821415556620
 20
102.3739409972171
 30
0.0000000000000000
 41
2.000000000000000
 42
2.000000000000000
 43
2.000000000000000
 50
270.0000000000000
  0
LINE
  5
D1
100
AcDbEntity
  8
MAIN0
  6
BYBLOCK
 62
0
100
AcDbLine
 10
299.9700410705864
 20
102.3739409972171
 30
0.0000000000000000
 11
280.6821415556620
 21
102.3739409972171
 31
0.0000000000000000
  0
MTEXT
  5
D2
100
AcDbEntity
  8
MAIN0
  6
BYBLOCK
 62
0
100
AcDbMText
 10
280.6321416033458
 20
109.8739409972200
 30
0.0000000000000000
 40
3.099999904632568
 41
0.0000000000000000
 71
     5
 72
     1
  1
\A1;15
 11
6.123233995736766e-017
 21
1.000000000000000
 31
0.0000000000000000
  7
STANDARD
  0
ENDBLK
  5
D3
100
AcDbEntity
  8
MAIN0
  6
CONTINUOUS
 62
3
100
AcDbBlockEnd
  0
BLOCK
  5
D5
100
AcDbEntity
  8
MAIN0
  6
CONTINUOUS
 62
3
100
AcDbBlockBegin
  2
*D14
 70
    65
 10
0.0
 20
0.0
 30
0.0
  0
LINE
  5
D6
100
AcDbEntity
  8
MAIN0
  6
BYBLOCK
 62
0
100
AcDbLine
 10
299.4700410706038
 20
117.3739409972092
 30
0.0000000000000000
 11
286.9334077736577
 21
117.3739409972222
 31
0.0000000000000000
  0
LINE
  5
D7
100
AcDbEntity
  8
MAIN0
  6
BYBLOCK
 62
0
100
AcDbLine
 10
288.9334077736577
 20
117.3739409972201
 30
0.0000000000000000
 11
288.9334077736577
 21
111.3739409972239
 31
0.0000000000000000
  0
INSERT
  5
D8
100
AcDbEntity
  8
MAIN0
  6
BYBLOCK
 62
0
100
AcDbBlockReference
  2
_OPEN
 10
288.9334077736577
 20
117.3739409972201
 30
0.0000000000000000
 41
2.000000000000000
 42
2.000000000000000
 43
2.000000000000000
 50
270.0000000000000
  0
INSERT
  5
D9
100
AcDbEntity
  8
MAIN0
  6
BYBLOCK
 62
0
100
AcDbBlockReference
  2
_OPEN
 10
288.9334077736577
 20
111.3739409972239
 30
0.0000000000000000
 41
2.000000000000000
 42
2.000000000000000
 43
2.000000000000000
 50
90.00000000000000
  0
LINE
  5
DA
100
AcDbEntity
  8
MAIN0
  6
BYBLOCK
 62
0
100
AcDbLine
 10
288.9334077736577
 20
119.3739409972201
 30
0.0000000000000000
 11
288.9334077736577
 21
120.3739409972201
 31
0.0000000000000000
  0
LINE
  5
DB
100
AcDbEntity
  8
MAIN0
  6
BYBLOCK
 62
0
100
AcDbLine
 10
288.9334077736577
 20
109.3739409972239
 30
0.0000000000000000
 11
288.9334077736577
 21
108.3739409972239
 31
0.0000000000000000
  0
LINE
  5
DC
100
AcDbEntity
  8
MAIN0
  6
BYBLOCK
 62
0
100
AcDbLine
 10
295.5679437234185
 20
111.3739409972239
 30
0.0000000000000000
 11
286.9334077736577
 21
111.3739409972239
 31
0.0000000000000000
  0
MTEXT
  5
DD
100
AcDbEntity
  8
MAIN0
  6
BYBLOCK
 62
0
100
AcDbMText
 10
286.8834078213414
 20
114.3739409972220
 30
0.0000000000000000
 40
3.099999904632568
 41
0.0000000000000000
 71
     5
 72
     1
  1
\A1;6
 11
6.123233995736766e-017
 21
1.000000000000000
 31
0.0000000000000000
  7
STANDARD
  0
ENDBLK
  5
DE
100
AcDbEntity
  8
MAIN0
  6
CONTINUOUS
 62
3
100
AcDbBlockEnd
  0
BLOCK
  5
E9
100
AcDbEntity
  8
MAIN0
  6
CONTINUOUS
 62
3
100
AcDbBlockBegin
  2
*D15
 70
    65
 10
0.0
 20
0.0
 30
0.0
  0
LINE
  5
EA
100
AcDbEntity
  8
MAIN0
  6
BYBLOCK
 62
0
100
AcDbLine
 10
227.3700410823848
 20
237.1279388187394
 30
0.0000000000000000
 11
227.3700410823848
 21
257.0068441132776
 31
0.0000000000000000
  0
LINE
  5
EB
100
AcDbEntity
  8
MAIN0
  6
BYBLOCK
 62
0
100
AcDbLine
 10
225.3700410823848
 20
255.0068441132776
 30
0.0000000000000000
 11
196.7700410823155
 21
255.0068441132776
 31
0.0000000000000000
  0
INSERT
  5
EC
100
AcDbEntity
  8
MAIN0
  6
BYBLOCK
 62
0
100
AcDbBlockReference
  2
_OPEN
 10
227.3700410823848
 20
255.0068441132776
 30
0.0000000000000000
 41
2.000000000000000
 42
2.000000000000000
 43
2.000000000000000
 50
360.0000000000000
  0
INSERT
  5
ED
100
AcDbEntity
  8
MAIN0
  6
BYBLOCK
 62
0
100
AcDbBlockReference
  2
_OPEN
 10
194.7700410823155
 20
255.0068441132776
 30
0.0000000000000000
 41
2.000000000000000
 42
2.000000000000000
 43
2.000000000000000
 50
180.0000000000000
  0
LINE
  5
EE
100
AcDbEntity
  8
MAIN0
  6
BYBLOCK
 62
0
100
AcDbLine
 10
194.7700410823155
 20
222.4279388189634
 30
0.0000000000000000
 11
194.7700410823155
 21
257.0068441132776
 31
0.0000000000000000
  0
MTEXT
  5
EF
100
AcDbEntity
  8
MAIN0
  6
BYBLOCK
 62
0
100
AcDbMText
 10
211.0700410823501
 20
257.0568440655939
 30
0.0000000000000000
 40
3.099999904632568
 41
0.0000000000000000
 71
     5
 72
     1
  1
\A1;32.6
 11
1.000000000000000
 21
0.0000000000000000
 31
0.0000000000000000
  7
STANDARD
  0
ENDBLK
  5
F0
100
AcDbEntity
  8
MAIN0
  6
CONTINUOUS
 62
3
100
AcDbBlockEnd
  0
BLOCK
  5
F2
100
AcDbEntity
  8
MAIN0
  6
CONTINUOUS
 62
3
100
AcDbBlockBegin
  2
*D16
 70
    65
 10
0.0
 20
0.0
 30
0.0
  0
LINE
  5
F3
100
AcDbEntity
  8
MAIN0
  6
BYBLOCK
 62
0
100
AcDbLine
 10
190.3556817166944
 20
209.0279388065662
 30
0.0000000000000000
 11
178.0057727558996
 21
209.0279388065662
 31
0.0000000000000000
  0
LINE
  5
F4
100
AcDbEntity
  8
MAIN0
  6
BYBLOCK
 62
0
100
AcDbLine
 10
180.0057727558996
 20
207.0279388065662
 30
0.0000000000000000
 11
180.0057727558996
 21
184.0279388065743
 31
0.0000000000000000
  0
INSERT
  5
F5
100
AcDbEntity
  8
MAIN0
  6
BYBLOCK
 62
0
100
AcDbBlockReference
  2
_OPEN
 10
180.0057727558996
 20
209.0279388065662
 30
0.0000000000000000
 41
2.000000000000000
 42
2.000000000000000
 43
2.000000000000000
 50
90.00000000000000
  0
INSERT
  5
F6
100
AcDbEntity
  8
MAIN0
  6
BYBLOCK
 62
0
100
AcDbBlockReference
  2
_OPEN
 10
180.0057727558996
 20
182.0279388065743
 30
0.0000000000000000
 41
2.000000000000000
 42
2.000000000000000
 43
2.000000000000000
 50
270.0000000000000
  0
LINE
  5
F7
100
AcDbEntity
  8
MAIN0
  6
BYBLOCK
 62
0
100
AcDbLine
 10
190.3556817179245
 20
182.0279388065669
 30
0.0000000000000000
 11
178.0057727558996
 21
182.0279388065757
 31
0.0000000000000000
  0
MTEXT
  5
F8
100
AcDbEntity
  8
MAIN0
  6
BYBLOCK
 62
0
100
AcDbMText
 10
177.9557728035833
 20
195.5279388829387
 30
0.0000000000000000
 40
3.099999904632568
 41
0.0000000000000000
 71
     5
 72
     1
  1
\A1;\U+220527h7\H0.903226x;\S　0^ －0.021;
 11
6.123233995736766e-017
 21
1.000000000000000
 31
0.0000000000000000
  7
KNJYOKO
  0
ENDBLK
  5
F9
100
AcDbEntity
  8
MAIN0
  6
CONTINUOUS
 62
3
100
AcDbBlockEnd
  0
BLOCK
  5
FC
100
AcDbEntity
  8
MAIN0
  6
CONTINUOUS
 62
3
100
AcDbBlockBegin
  2
D17
 70
    64
 10
0.0
 20
0.0
 30
0.0
  0
LINE
  5
FD
100
AcDbEntity
  8
MAIN0
  6
BYBLOCK
 62
0
100
AcDbLine
 10
-19.26011760968345
 20
5.276196126707875
 30
0.0000000000000000
 11
-19.26011760964630
 21
-23.49999999956878
 31
0.0000000000000000
  0
LINE
  5
FE
100
AcDbEntity
  8
MAIN0
  6
BYBLOCK
 62
0
100
AcDbLine
 10
-18.66011758580703
 20
-21.49999999956801
 30
0.0000000000000000
 11
-19.26011760964630
 21
-23.49999999956878
 31
0.0000000000000000
  0
LINE
  5
FF
100
AcDbEntity
  8
MAIN0
  6
BYBLOCK
 62
0
100
AcDbLine
 10
-19.26011760964630
 20
-23.49999999956878
 30
0.0000000000000000
 11
-19.86011763349074
 21
-21.49999999956956
 31
0.0000000000000000
  0
LINE
  5
100
100
AcDbEntity
  8
MAIN0
  6
BYBLOCK
 62
0
100
AcDbLine
 10
5.520898177517651
 20
-23.49999999953679
 30
0.0000000000000000
 11
-21.26011760964630
 21
-23.49999999957137
 31
0.0000000000000000
  0
MTEXT
  5
101
100
AcDbEntity
  8
MAIN0
  6
BYBLOCK
 62
0
100
AcDbMText
 10
-21.31011756199274
 20
-0.1238038755279442
 30
0.0000000000000000
 40
3.099999904632568
 41
0.0000000000000000
 71
     5
 72
     1
  1
\A1;\U+220547
 11
6.123233995736766e-017
 21
1.000000000000000
 31
0.0000000000000000
  7
STANDARD
  0
ENDBLK
  5
102
100
AcDbEntity
  8
MAIN0
  6
CONTINUOUS
 62
3
100
AcDbBlockEnd
  0
BLOCK
  5
104
100
AcDbEntity
  8
MAIN0
  6
CONTINUOUS
 62
3
100
AcDbBlockBegin
  2
D18
 70
    64
 10
0.0
 20
0.0
 30
0.0
  0
LINE
  5
105
100
AcDbEntity
  8
MAIN0
  6
BYBLOCK
 62
0
100
AcDbLine
 10
-28.81876514533803
 20
-6.029727714359266
 30
0.0000000000000000
 11
-28.81876514538004
 21
26.50000000041487
 31
0.0000000000000000
  0
LINE
  5
106
100
AcDbEntity
  8
MAIN0
  6
BYBLOCK
 62
0
100
AcDbLine
 10
-29.41876516921932
 20
24.50000000041409
 30
0.0000000000000000
 11
-28.81876514538004
 21
26.50000000041487
 31
0.0000000000000000
  0
LINE
  5
107
100
AcDbEntity
  8
MAIN0
  6
BYBLOCK
 62
0
100
AcDbLine
 10
-28.81876514538004
 20
26.50000000041487
 30
0.0000000000000000
 11
-28.21876512153560
 21
24.50000000041564
 31
0.0000000000000000
  0
LINE
  5
108
100
AcDbEntity
  8
MAIN0
  6
BYBLOCK
 62
0
100
AcDbLine
 10
5.520898177510716
 20
26.50000000046323
 30
0.0000000000000000
 11
-30.81876514538004
 21
26.50000000041205
 31
0.0000000000000000
  0
MTEXT
  5
109
100
AcDbEntity
  8
MAIN0
  6
BYBLOCK
 62
0
100
AcDbMText
 10
-30.86876509766128
 20
-0.6297277121247372
 30
0.0000000000000000
 40
3.099999904632568
 41
0.0000000000000000
 71
     5
 72
     1
  1
\A1;\U+220553
 11
6.123233995736766e-017
 21
1.000000000000000
 31
0.0000000000000000
  7
STANDARD
  0
ENDBLK
  5
10A
100
AcDbEntity
  8
MAIN0
  6
CONTINUOUS
 62
3
100
AcDbBlockEnd
  0
BLOCK
  5
10C
100
AcDbEntity
  8
MAIN0
  6
CONTINUOUS
 62
3
100
AcDbBlockBegin
  2
*D19
 70
    65
 10
0.0
 20
0.0
 30
0.0
  0
LINE
  5
10D
100
AcDbEntity
  8
MAIN0
  6
BYBLOCK
 62
0
100
AcDbLine
 10
189.7700410823213
 20
182.0279387954910
 30
0.0000000000000000
 11
189.7700410823213
 21
132.7640445538901
 31
0.0000000000000000
  0
LINE
  5
10E
100
AcDbEntity
  8
MAIN0
  6
BYBLOCK
 62
0
100
AcDbLine
 10
189.7700410823213
 20
134.7640445538901
 30
0.0000000000000000
 11
194.7700410823224
 21
134.7640445538901
 31
0.0000000000000000
  0
INSERT
  5
10F
100
AcDbEntity
  8
MAIN0
  6
BYBLOCK
 62
0
100
AcDbBlockReference
  2
_OPEN
 10
189.7700410823213
 20
134.7640445538901
 30
0.0000000000000000
 41
2.000000000000000
 42
2.000000000000000
 43
2.000000000000000
 50
0.0000000000000000
  0
INSERT
  5
110
100
AcDbEntity
  8
MAIN0
  6
BYBLOCK
 62
0
100
AcDbBlockReference
  2
_OPEN
 10
194.7700410823224
 20
134.7640445538901
 30
0.0000000000000000
 41
2.000000000000000
 42
2.000000000000000
 43
2.000000000000000
 50
180.0000000000000
  0
LINE
  5
111
100
AcDbEntity
  8
MAIN0
  6
BYBLOCK
 62
0
100
AcDbLine
 10
187.7700410823213
 20
134.7640445538901
 30
0.0000000000000000
 11
186.7700410823213
 21
134.7640445538901
 31
0.0000000000000000
  0
LINE
  5
112
100
AcDbEntity
  8
MAIN0
  6
BYBLOCK
 62
0
100
AcDbLine
 10
196.7700410823224
 20
134.7640445538901
 30
0.0000000000000000
 11
197.7700410823224
 21
134.7640445538901
 31
0.0000000000000000
  0
LINE
  5
113
100
AcDbEntity
  8
MAIN0
  6
BYBLOCK
 62
0
100
AcDbLine
 10
194.7700410823224
 20
171.6279387951214
 30
0.0000000000000000
 11
194.7700410823224
 21
132.7640445538901
 31
0.0000000000000000
  0
MTEXT
  5
114
100
AcDbEntity
  8
MAIN0
  6
BYBLOCK
 62
0
100
AcDbMText
 10
192.2700410823219
 20
136.8140445062064
 30
0.0000000000000000
 40
3.099999904632568
 41
0.0000000000000000
 71
     5
 72
     1
  1
\A1;5
 11
1.000000000000000
 21
0.0000000000000000
 31
0.0000000000000000
  7
STANDARD
  0
ENDBLK
  5
115
100
AcDbEntity
  8
MAIN0
  6
CONTINUOUS
 62
3
100
AcDbBlockEnd
  0
BLOCK
  5
117
100
AcDbEntity
  8
MAIN0
  6
CONTINUOUS
 62
3
100
AcDbBlockBegin
  2
*D20
 70
    65
 10
0.0
 20
0.0
 30
0.0
  0
LINE
  5
118
100
AcDbEntity
  8
MAIN0
  6
BYBLOCK
 62
0
100
AcDbLine
 10
194.7700410823224
 20
171.6279387951214
 30
0.0000000000000000
 11
194.7700410823224
 21
132.7640445538901
 31
0.0000000000000000
  0
LINE
  5
119
100
AcDbEntity
  8
MAIN0
  6
BYBLOCK
 62
0
100
AcDbLine
 10
196.7700410823224
 20
134.7640445538901
 30
0.0000000000000000
 11
224.3700410823848
 21
134.7640445538901
 31
0.0000000000000000
  0
INSERT
  5
11A
100
AcDbEntity
  8
MAIN0
  6
BYBLOCK
 62
0
100
AcDbBlockReference
  2
_OPEN
 10
194.7700410823224
 20
134.7640445538901
 30
0.0000000000000000
 41
2.000000000000000
 42
2.000000000000000
 43
2.000000000000000
 50
180.0000000000000
  0
INSERT
  5
11B
100
AcDbEntity
  8
MAIN0
  6
BYBLOCK
 62
0
100
AcDbBlockReference
  2
_OPEN
 10
226.3700410823848
 20
134.7640445538901
 30
0.0000000000000000
 41
2.000000000000000
 42
2.000000000000000
 43
2.000000000000000
 50
0.0000000000000000
  0
LINE
  5
11C
100
AcDbEntity
  8
MAIN0
  6
BYBLOCK
 62
0
100
AcDbLine
 10
226.3700410823848
 20
153.9279387951926
 30
0.0000000000000000
 11
226.3700410823848
 21
132.7640445538901
 31
0.0000000000000000
  0
MTEXT
  5
11D
100
AcDbEntity
  8
MAIN0
  6
BYBLOCK
 62
0
100
AcDbMText
 10
210.5700410823536
 20
136.8140445062064
 30
0.0000000000000000
 40
3.099999904632568
 41
0.0000000000000000
 71
     5
 72
     1
  1
\A1;31.6
 11
1.000000000000000
 21
0.0000000000000000
 31
0.0000000000000000
  7
STANDARD
  0
ENDBLK
  5
11E
100
AcDbEntity
  8
MAIN0
  6
CONTINUOUS
 62
3
100
AcDbBlockEnd
  0
BLOCK
  5
120
100
AcDbEntity
  8
MAIN0
  6
CONTINUOUS
 62
3
100
AcDbBlockBegin
  2
*D21
 70
    65
 10
0.0
 20
0.0
 30
0.0
  0
LINE
  5
121
100
AcDbEntity
  8
MAIN0
  6
BYBLOCK
 62
0
100
AcDbLine
 10
226.3700410823848
 20
153.9279387951926
 30
0.0000000000000000
 11
226.3700410823848
 21
132.7640445538901
 31
0.0000000000000000
  0
LINE
  5
122
100
AcDbEntity
  8
MAIN0
  6
BYBLOCK
 62
0
100
AcDbLine
 10
226.3700410823848
 20
134.7640445538901
 30
0.0000000000000000
 11
226.8700410823848
 21
134.7640445538901
 31
0.0000000000000000
  0
INSERT
  5
123
100
AcDbEntity
  8
MAIN0
  6
BYBLOCK
 62
0
100
AcDbBlockReference
  2
_OPEN
 10
226.3700410823848
 20
134.7640445538901
 30
0.0000000000000000
 41
2.000000000000000
 42
2.000000000000000
 43
2.000000000000000
 50
0.0000000000000000
  0
INSERT
  5
124
100
AcDbEntity
  8
MAIN0
  6
BYBLOCK
 62
0
100
AcDbBlockReference
  2
_OPEN
 10
226.8700410823848
 20
134.7640445538901
 30
0.0000000000000000
 41
2.000000000000000
 42
2.000000000000000
 43
2.000000000000000
 50
180.0000000000000
  0
LINE
  5
125
100
AcDbEntity
  8
MAIN0
  6
BYBLOCK
 62
0
100
AcDbLine
 10
224.3700410823848
 20
134.7640445538901
 30
0.0000000000000000
 11
223.3700410823848
 21
134.7640445538901
 31
0.0000000000000000
  0
LINE
  5
126
100
AcDbEntity
  8
MAIN0
  6
BYBLOCK
 62
0
100
AcDbLine
 10
228.8700410823848
 20
134.7640445538901
 30
0.0000000000000000
 11
235.0655986766842
 21
134.7640445538901
 31
0.0000000000000000
  0
LINE
  5
127
100
AcDbEntity
  8
MAIN0
  6
BYBLOCK
 62
0
100
AcDbLine
 10
226.8700410823848
 20
180.2279387946885
 30
0.0000000000000000
 11
226.8700410823848
 21
132.7640445538901
 31
0.0000000000000000
  0
MTEXT
  5
128
100
AcDbEntity
  8
MAIN0
  6
BYBLOCK
 62
0
100
AcDbMText
 10
232.4155987810140
 20
136.8140445062064
 30
0.0000000000000000
 40
3.099999904632568
 41
0.0000000000000000
 71
     5
 72
     1
  1
\A1;0.5
 11
1.000000000000000
 21
0.0000000000000000
 31
0.0000000000000000
  7
STANDARD
  0
ENDBLK
  5
129
100
AcDbEntity
  8
MAIN0
  6
CONTINUOUS
 62
3
100
AcDbBlockEnd
  0
BLOCK
  5
12B
100
AcDbEntity
  8
MAIN0
  6
CONTINUOUS
 62
3
100
AcDbBlockBegin
  2
*D22
 70
    65
 10
0.0
 20
0.0
 30
0.0
  0
LINE
  5
12C
100
AcDbEntity
  8
MAIN0
  6
BYBLOCK
 62
0
100
AcDbLine
 10
194.7700410823224
 20
171.6279387951214
 30
0.0000000000000000
 11
194.7700410823224
 21
141.7975431036441
 31
0.0000000000000000
  0
LINE
  5
12D
100
AcDbEntity
  8
MAIN0
  6
BYBLOCK
 62
0
100
AcDbLine
 10
196.7700410823224
 20
143.7975431036441
 30
0.0000000000000000
 11
205.7700410824896
 21
143.7975431036441
 31
0.0000000000000000
  0
INSERT
  5
12E
100
AcDbEntity
  8
MAIN0
  6
BYBLOCK
 62
0
100
AcDbBlockReference
  2
_OPEN
 10
194.7700410823224
 20
143.7975431036441
 30
0.0000000000000000
 41
2.000000000000000
 42
2.000000000000000
 43
2.000000000000000
 50
180.0000000000000
  0
INSERT
  5
12F
100
AcDbEntity
  8
MAIN0
  6
BYBLOCK
 62
0
100
AcDbBlockReference
  2
_OPEN
 10
207.7700410824896
 20
143.7975431036441
 30
0.0000000000000000
 41
2.000000000000000
 42
2.000000000000000
 43
2.000000000000000
 50
0.0000000000000000
  0
LINE
  5
130
100
AcDbEntity
  8
MAIN0
  6
BYBLOCK
 62
0
100
AcDbLine
 10
207.7700410824896
 20
157.6279387945711
 30
0.0000000000000000
 11
207.7700410824896
 21
141.7975431036441
 31
0.0000000000000000
  0
MTEXT
  5
131
100
AcDbEntity
  8
MAIN0
  6
BYBLOCK
 62
0
100
AcDbMText
 10
201.2700410824060
 20
145.8475430559604
 30
0.0000000000000000
 40
3.099999904632568
 41
0.0000000000000000
 71
     5
 72
     1
  1
\A1;13
 11
1.000000000000000
 21
0.0000000000000000
 31
0.0000000000000000
  7
STANDARD
  0
ENDBLK
  5
132
100
AcDbEntity
  8
MAIN0
  6
CONTINUOUS
 62
3
100
AcDbBlockEnd
  0
BLOCK
  5
134
100
AcDbEntity
  8
MAIN0
  6
CONTINUOUS
 62
3
100
AcDbBlockBegin
  2
*D23
 70
    65
 10
0.0
 20
0.0
 30
0.0
  0
LINE
  5
135
100
AcDbEntity
  8
MAIN0
  6
BYBLOCK
 62
0
100
AcDbLine
 10
213.8700410823845
 20
236.9279388187396
 30
0.0000000000000000
 11
213.8700410823845
 21
244.4966568123458
 31
0.0000000000000000
  0
LINE
  5
136
100
AcDbEntity
  8
MAIN0
  6
BYBLOCK
 62
0
100
AcDbLine
 10
213.8700410823845
 20
242.4966568123458
 30
0.0000000000000000
 11
217.8700410823846
 21
242.4966568123458
 31
0.0000000000000000
  0
INSERT
  5
137
100
AcDbEntity
  8
MAIN0
  6
BYBLOCK
 62
0
100
AcDbBlockReference
  2
_OPEN
 10
213.8700410823845
 20
242.4966568123458
 30
0.0000000000000000
 41
2.000000000000000
 42
2.000000000000000
 43
2.000000000000000
 50
0.0000000000000000
  0
INSERT
  5
138
100
AcDbEntity
  8
MAIN0
  6
BYBLOCK
 62
0
100
AcDbBlockReference
  2
_OPEN
 10
217.8700410823846
 20
242.4966568123458
 30
0.0000000000000000
 41
2.000000000000000
 42
2.000000000000000
 43
2.000000000000000
 50
180.0000000000000
  0
LINE
  5
139
100
AcDbEntity
  8
MAIN0
  6
BYBLOCK
 62
0
100
AcDbLine
 10
211.8700410823845
 20
242.4966568123458
 30
0.0000000000000000
 11
205.8455392818474
 21
242.4966568123458
 31
0.0000000000000000
  0
LINE
  5
13A
100
AcDbEntity
  8
MAIN0
  6
BYBLOCK
 62
0
100
AcDbLine
 10
219.8700410823846
 20
242.4966568123458
 30
0.0000000000000000
 11
220.8700410823846
 21
242.4966568123458
 31
0.0000000000000000
  0
LINE
  5
13B
100
AcDbEntity
  8
MAIN0
  6
BYBLOCK
 62
0
100
AcDbLine
 10
217.8700410823846
 20
236.9279388187396
 30
0.0000000000000000
 11
217.8700410823846
 21
244.4966568123458
 31
0.0000000000000000
  0
MTEXT
  5
13C
100
AcDbEntity
  8
MAIN0
  6
BYBLOCK
 62
0
100
AcDbMText
 10
208.1955396957796
 20
244.5466567646621
 30
0.0000000000000000
 40
3.099999904632568
 41
0.0000000000000000
 71
     5
 72
     1
  1
\A1;\U+22054
 11
1.000000000000000
 21
0.0000000000000000
 31
0.0000000000000000
  7
STANDARD
  0
ENDBLK
  5
13D
100
AcDbEntity
  8
MAIN0
  6
CONTINUOUS
 62
3
100
AcDbBlockEnd
  0
BLOCK
  5
177
100
AcDbEntity
  8
MAIN0
  6
CONTINUOUS
 62
3
100
AcDbBlockBegin
  2
*D24
 70
    65
 10
0.0
 20
0.0
 30
0.0
  0
LINE
  5
178
100
AcDbEntity
  8
MAIN0
  6
BYBLOCK
 62
0
100
AcDbLine
 10
205.1700410704639
 20
236.5279388071135
 30
0.0000000000000000
 11
148.8963089760242
 21
236.5279388071135
 31
0.0000000000000000
  0
LINE
  5
179
100
AcDbEntity
  8
MAIN0
  6
BYBLOCK
 62
0
100
AcDbLine
 10
150.8963089760242
 20
234.5279388071135
 30
0.0000000000000000
 11
150.8963089760242
 21
156.5279388071135
 31
0.0000000000000000
  0
INSERT
  5
17A
100
AcDbEntity
  8
MAIN0
  6
BYBLOCK
 62
0
100
AcDbBlockReference
  2
_OPEN
 10
150.8963089760242
 20
236.5279388071135
 30
0.0000000000000000
 41
2.000000000000000
 42
2.000000000000000
 43
2.000000000000000
 50
90.00000000000000
  0
INSERT
  5
17B
100
AcDbEntity
  8
MAIN0
  6
BYBLOCK
 62
0
100
AcDbBlockReference
  2
_OPEN
 10
150.8963089760242
 20
154.5279388071135
 30
0.0000000000000000
 41
2.000000000000000
 42
2.000000000000000
 43
2.000000000000000
 50
270.0000000000000
  0
LINE
  5
17C
100
AcDbEntity
  8
MAIN0
  6
BYBLOCK
 62
0
100
AcDbLine
 10
205.3700410704640
 20
154.5279388071135
 30
0.0000000000000000
 11
148.8963089760242
 21
154.5279388071135
 31
0.0000000000000000
  0
MTEXT
  5
17D
100
AcDbEntity
  8
MAIN0
  6
BYBLOCK
 62
0
100
AcDbMText
 10
148.8463090237079
 20
195.5279388071135
 30
0.0000000000000000
 40
3.099999904632568
 41
0.0000000000000000
 71
     5
 72
     1
  1
\A1;\U+220582
 11
6.123233995736766e-017
 21
1.000000000000000
 31
0.0000000000000000
  7
STANDARD
  0
ENDBLK
  5
17E
100
AcDbEntity
  8
MAIN0
  6
CONTINUOUS
 62
3
100
AcDbBlockEnd
  0
BLOCK
  5
1AC
100
AcDbEntity
  8
MAIN0
  6
CONTINUOUS
 62
3
100
AcDbBlockBegin
  2
*D25
 70
    65
 10
0.0
 20
0.0
 30
0.0
  0
LINE
  5
1AD
100
AcDbEntity
  8
MAIN0
  6
BYBLOCK
 62
0
100
AcDbLine
 10
314.2700410823047
 20
237.3279388185493
 30
0.0000000000000000
 11
314.2700410823047
 21
244.0734165986896
 31
0.0000000000000000
  0
LINE
  5
1AE
100
AcDbEntity
  8
MAIN0
  6
BYBLOCK
 62
0
100
AcDbLine
 10
316.2700410823047
 20
242.0734165986896
 30
0.0000000000000000
 11
323.2700410823047
 21
242.0734165986896
 31
0.0000000000000000
  0
INSERT
  5
1AF
100
AcDbEntity
  8
MAIN0
  6
BYBLOCK
 62
0
100
AcDbBlockReference
  2
_OPEN
 10
314.2700410823047
 20
242.0734165986896
 30
0.0000000000000000
 41
2.000000000000000
 42
2.000000000000000
 43
2.000000000000000
 50
180.0000000000000
  0
INSERT
  5
1B0
100
AcDbEntity
  8
MAIN0
  6
BYBLOCK
 62
0
100
AcDbBlockReference
  2
_OPEN
 10
325.2700410823047
 20
242.0734165986896
 30
0.0000000000000000
 41
2.000000000000000
 42
2.000000000000000
 43
2.000000000000000
 50
0.0000000000000000
  0
LINE
  5
1B1
100
AcDbEntity
  8
MAIN0
  6
BYBLOCK
 62
0
100
AcDbLine
 10
314.2700410823047
 20
242.0734165986896
 30
0.0000000000000000
 11
307.3967815379322
 21
242.0734165986896
 31
0.0000000000000000
  0
LINE
  5
1B2
100
AcDbEntity
  8
MAIN0
  6
BYBLOCK
 62
0
100
AcDbLine
 10
325.2700410823047
 20
237.3279388185493
 30
0.0000000000000000
 11
325.2700410823047
 21
244.0734165986896
 31
0.0000000000000000
  0
MTEXT
  5
1B3
100
AcDbEntity
  8
MAIN0
  6
BYBLOCK
 62
0
100
AcDbMText
 10
309.4967813269261
 20
244.1234165510059
 30
0.0000000000000000
 40
3.099999904632568
 41
0.0000000000000000
 71
     5
 72
     1
  1
\A1;11
 11
1.000000000000000
 21
0.0000000000000000
 31
0.0000000000000000
  7
STANDARD
  0
ENDBLK
  5
1B4
100
AcDbEntity
  8
MAIN0
  6
CONTINUOUS
 62
3
100
AcDbBlockEnd
  0
ENDSEC
  0
SECTION
  2
ENTITIES
  0
LINE
  5
46
100
AcDbEntity
  8
MAIN0
  6
CONTINUOUS
 62
3
100
AcDbLine
 10
342.2700410825214
 20
105.2739409971852
 30
0.0000000000000000
 11
342.2700410825287
 21
114.3739409971849
 31
0.0000000000000000
  0
LINE
  5
47
100
AcDbEntity
  8
MAIN0
  6
CONTINUOUS
 62
3
100
AcDbLine
 10
342.2700410825287
 20
114.3739409971849
 30
0.0000000000000000
 11
339.2700410825311
 21
117.3739409971838
 31
0.0000000000000000
  0
LINE
  5
48
100
AcDbEntity
  8
MAIN0
  6
CONTINUOUS
 62
3
100
AcDbLine
 10
360.7700410824225
 20
96.97394099716200
 30
0.0000000000000000
 11
360.7700410824225
 21
105.2739409971921
 31
0.0000000000000000
  0
LINE
  5
49
100
AcDbEntity
  8
MAIN0
  6
CONTINUOUS
 62
3
100
AcDbLine
 10
297.2700410825289
 20
114.3739409972208
 30
0.0000000000000000
 11
300.2700410825313
 21
117.3739409972149
 31
0.0000000000000000
  0
LINE
  5
4A
100
AcDbEntity
  8
MAIN0
  6
CONTINUOUS
 62
3
100
AcDbLine
 10
297.2700410825216
 20
105.2739409972211
 30
0.0000000000000000
 11
297.2700410825289
 21
114.3739409972208
 31
0.0000000000000000
  0
LINE
  5
4B
100
AcDbEntity
  8
MAIN0
  6
CONTINUOUS
 62
3
100
AcDbLine
 10
278.7700410826073
 20
96.97394099721880
 30
0.0000000000000000
 11
278.7700410826205
 21
105.2739409972575
 31
0.0000000000000000
  0
LINE
  5
4C
100
AcDbEntity
  8
MAIN0
  6
CONTINUOUS
 62
3
100
AcDbLine
 10
339.7700410823716
 20
210.0279388066616
 30
0.0000000000000000
 11
339.7700410824359
 21
181.0279388066359
 31
0.0000000000000000
  0
LINE
  5
4D
100
AcDbEntity
  8
MAIN0
  6
CONTINUOUS
 62
3
100
AcDbLine
 10
299.7700410823716
 20
210.0279388066577
 30
0.0000000000000000
 11
299.7700410824359
 21
181.0279388065143
 31
0.0000000000000000
  0
LINE
  5
4E
100
AcDbEntity
  8
MAIN0
  6
CENTER
 62
3
100
AcDbLine
 10
228.7210880513441
 20
195.5279388066296
 30
0.0000000000000000
 11
188.8491428928838
 21
195.5279388065782
 31
0.0000000000000000
  0
MTEXT
  5
4F
100
AcDbEntity
  8
MAIN0
  6
CONTINUOUS
 62
3
100
AcDbMText
 10
251.6979193187014
 20
203.6238471836518
 30
0.0000000000000000
 40
3.099999904632568
 41
0.0000000000000000
 71
     1
 72
     1
  1
{\H0.66x;{MIN 24.9}}
 11
6.123233995736766e-017
 21
1.000000000000000
 31
0.0000000000000000
  7
STANDARD
  0
DIMENSION
  5
58
100
AcDbEntity
  8
MAIN0
  6
CONTINUOUS
 62
3
100
AcDbDimension
  2
*D0
 10
251.2107200393405
 20
195.5279388066296
 30
0.0000000000000000
 11
250.7107200393405
 21
210.7779388067455
 31
0.0000000000000000
 70
32
  1
\A1;MAX 30.5
  3
MAIN001
100
AcDbAlignedDimension
 13
229.1394834299294
 23
226.0279388068613
 33
0.0000000000000000
 14
228.7210880513441
 24
195.5279388066296
 34
0.0000000000000000
 50
90.00000000000000
100
AcDbRotatedDimension
1001
ACAD
1000
DSTYLE
1002
{
1070
   173
1070
     1
1070
     6
1000
_OPEN
1070
     7
1000
_OPEN
1070
    41
1040
2.000000
1002
}
  0
DIMENSION
  5
63
100
AcDbEntity
  8
MAIN0
  6
CONTINUOUS
 62
3
100
AcDbDimension
  2
*D1
 10
238.5875208012637
 20
228.5279388068186
 30
0.0000000000000000
 11
238.0875208012637
 21
242.7532083254471
 31
0.0000000000000000
 70
160
  1
\A1;5H8
  3
MAIN001
100
AcDbAlignedDimension
 13
227.1700410823872
 23
223.5279388068986
 33
0.0000000000000000
 14
227.1700410823848
 24
228.5279388068186
 34
0.0000000000000000
 50
90.00000000000000
100
AcDbRotatedDimension
1001
ACAD
1000
DSTYLE
1002
{
1070
   173
1070
     1
1070
     6
1000
_OPEN
1070
     7
1000
_OPEN
1070
    41
1040
2.000000
1070
   287
1070
     0
1002
}
  0
DIMENSION
  5
6E
100
AcDbEntity
  8
MAIN0
  6
CONTINUOUS
 62
3
100
AcDbDimension
  2
*D2
 10
246.9359001506779
 20
236.5279388068186
 30
0.0000000000000000
 11
246.4359001506779
 21
234.5279388068383
 31
0.0000000000000000
 70
32
  3
MAIN001
100
AcDbAlignedDimension
 13
229.1798517086677
 23
232.5279388068581
 33
0.0000000000000000
 14
227.1700410823848
 24
236.5279388068186
 34
0.0000000000000000
 50
90.00000000000000
100
AcDbRotatedDimension
1001
ACAD
1000
DSTYLE
1002
{
1070
   173
1070
     1
1070
     6
1000
_OPEN
1070
     7
1000
_OPEN
1070
    41
1040
2.000000
1070
   287
1070
     0
1002
}
  0
DIMENSION
  5
77
100
AcDbEntity
  8
MAIN0
  6
CONTINUOUS
 62
3
100
AcDbDimension
  2
*D3
 10
246.9359001506779
 20
232.5279388068581
 30
0.0000000000000000
 11
246.4359001506779
 21
228.5609514889792
 31
0.0000000000000000
 70
160
  3
MAIN001
100
AcDbAlignedDimension
 13
229.1798517086728
 23
219.5279388068599
 33
0.0000000000000000
 14
229.1798517086677
 24
232.5279388068581
 34
0.0000000000000000
 50
90.00000000000000
100
AcDbRotatedDimension
1001
ACAD
1000
DSTYLE
1002
{
1070
   173
1070
     1
1070
     6
1000
_OPEN
1070
     7
1000
_OPEN
1070
    41
1040
2.000000
1002
}
  0
DIMENSION
  5
82
100
AcDbEntity
  8
MAIN0
  6
CONTINUOUS
 62
3
100
AcDbDimension
  2
*D4
 10
227.3700410823848
 20
248.4991296302054
 30
0.0000000000000000
 11
220.9373586226411
 21
248.9991296302054
 31
0.0000000000000000
 70
160
  3
MAIN001
100
AcDbAlignedDimension
 13
224.3700410823848
 23
228.5279388068186
 33
0.0000000000000000
 14
227.3700410823848
 24
236.3279388068185
 34
0.0000000000000000
100
AcDbRotatedDimension
1001
ACAD
1000
DSTYLE
1002
{
1070
   173
1070
     1
1070
     6
1000
_OPEN
1070
     7
1000
_OPEN
1070
    41
1040
2.000000
1070
   287
1070
     0
1002
}
  0
CIRCLE
  5
83
100
AcDbEntity
  8
MAIN0
  6
HIDDEN
 62
3
100
AcDbCircle
 10
61.27004108231461
 20
195.5279388066345
 30
0.0000000000000000
 40
2.000000000000000
  0
DIMENSION
  5
8C
100
AcDbEntity
  8
MAIN0
  6
CONTINUOUS
 62
3
100
AcDbDimension
  2
*D5
 10
297.2700410822329
 20
255.0068441132776
 30
0.0000000000000000
 11
319.7700410823277
 21
255.5068441132776
 31
0.0000000000000000
 70
32
  3
MAIN001
100
AcDbAlignedDimension
 13
342.2700410824225
 23
229.8025649898038
 33
0.0000000000000000
 14
297.2700410822329
 24
229.8025649897041
 34
0.0000000000000000
100
AcDbRotatedDimension
1001
ACAD
1000
DSTYLE
1002
{
1070
   173
1070
     1
1070
     6
1000
_OPEN
1070
     7
1000
_OPEN
1070
    41
1040
2.000000
1002
}
  0
DIMENSION
  5
94
100
AcDbEntity
  8
MAIN0
  6
CONTINUOUS
 62
3
100
AcDbDimension
  2
*D6
 10
292.2041762710995
 20
218.0279388066196
 30
0.0000000000000000
 11
291.7041762710995
 21
206.7779388065831
 31
0.0000000000000000
 70
32
  3
MAIN001
100
AcDbAlignedDimension
 13
274.6879271851755
 23
195.5279388065466
 33
0.0000000000000000
 14
295.1377650993777
 24
218.0279388065527
 34
0.0000000000000000
 50
90.00000000000000
100
AcDbRotatedDimension
1001
ACAD
1000
DSTYLE
1002
{
1070
   173
1070
     1
1070
     6
1000
_OPEN
1070
     7
1000
_OPEN
1070
    41
1040
2.000000
1002
}
  0
DIMENSION
  5
9C
100
AcDbEntity
  8
MAIN0
  6
CONTINUOUS
 62
3
100
AcDbDimension
  2
*D7
 10
292.2041762710995
 20
195.5279388065466
 30
0.0000000000000000
 11
291.7041762710995
 21
184.2779388065663
 31
0.0000000000000000
 70
32
  3
MAIN001
100
AcDbAlignedDimension
 13
295.1377650994483
 23
173.0279388066047
 33
0.0000000000000000
 14
274.6879271851755
 24
195.5279388065466
 34
0.0000000000000000
 50
90.00000000000000
100
AcDbRotatedDimension
1001
ACAD
1000
DSTYLE
1002
{
1070
   173
1070
     1
1070
     6
1000
_OPEN
1070
     7
1000
_OPEN
1070
    41
1040
2.000000
1002
}
  0
DIMENSION
  5
A5
100
AcDbEntity
  8
MAIN0
  6
CONTINUOUS
 62
3
100
AcDbDimension
  2
*D8
 10
304.7700410823479
 20
148.7091743320354
 30
0.0000000000000000
 11
312.2700410824219
 21
149.2091743320354
 31
0.0000000000000000
 70
32
  3
MAIN001
100
AcDbAlignedDimension
 13
319.7700410824959
 23
153.9591861254295
 33
0.0000000000000000
 14
304.7700410823479
 24
167.0270772907493
 34
0.0000000000000000
100
AcDbRotatedDimension
1001
ACAD
1000
DSTYLE
1002
{
1070
   173
1070
     1
1070
     6
1000
_OPEN
1070
     7
1000
_OPEN
1070
    41
1040
2.000000
1002
}
  0
DIMENSION
  5
AE
100
AcDbEntity
  8
MAIN0
  6
CONTINUOUS
 62
3
100
AcDbDimension
  2
*D9
 10
319.7700410824959
 20
148.7091743320354
 30
0.0000000000000000
 11
327.2700410825410
 21
149.2091743320354
 31
0.0000000000000000
 70
32
  3
MAIN001
100
AcDbAlignedDimension
 13
334.7700410825859
 23
167.0270772908158
 33
0.0000000000000000
 14
319.7700410824959
 24
153.9591861254295
 34
0.0000000000000000
100
AcDbRotatedDimension
1001
ACAD
1000
DSTYLE
1002
{
1070
   173
1070
     1
1070
     6
1000
_OPEN
1070
     7
1000
_OPEN
1070
    41
1040
2.000000
1002
}
  0
DIMENSION
  5
B7
100
AcDbEntity
  8
MAIN0
  6
CONTINUOUS
 62
3
100
AcDbDimension
  2
*D10
 10
363.9665293245874
 20
195.5279388066867
 30
0.0000000000000000
 11
358.3972939246107
 21
156.9006859644960
 31
0.0000000000000000
 70
162
  3
MAIN001
100
AcDb2LineAngularDimension
 13
319.7700410824959
 23
153.9591861254295
 33
0.0000000000000000
 14
319.7700410824937
 24
154.9591861254295
 34
0.0000000000000000
 15
362.9665293245874
 25
195.5279388066851
 35
0.0000000000000000
 16
358.7508473152043
 26
156.5471325739031
 36
0.0000000000000000
1001
ACAD
1000
DSTYLE
1002
{
1070
   173
1070
     1
1070
     6
1000
_OPEN
1070
     7
1000
_OPEN
1070
    41
1040
2.000000
1002
}
  0
DIMENSION
  5
C0
100
AcDbEntity
  8
MAIN0
  6
CONTINUOUS
 62
3
100
AcDbDimension
  2
*D11
 10
319.7700410823044
 20
240.3461564934190
 30
0.0000000000000000
 11
359.1044007057109
 21
234.8622984300117
 31
0.0000000000000000
 70
162
  3
MAIN001
100
AcDb2LineAngularDimension
 13
363.9665293245874
 23
195.5279388066867
 33
0.0000000000000000
 14
362.9665293245874
 24
195.5279388066851
 34
0.0000000000000000
 15
319.7700410823066
 25
239.3461564934190
 35
0.0000000000000000
 16
358.7508473151179
 26
234.5087450394180
 36
0.0000000000000000
1001
ACAD
1000
DSTYLE
1002
{
1070
   173
1070
     1
1070
     6
1000
_OPEN
1070
     7
1000
_OPEN
1070
    41
1040
2.000000
1002
}
  0
DIMENSION
  5
CB
100
AcDbEntity
  8
MAIN0
  6
CONTINUOUS
 62
3
100
AcDbDimension
  2
*D12
 10
300.7700410825074
 20
126.2545977458939
 30
0.0000000000000000
 11
315.9384110895226
 21
126.7545977458939
 31
0.0000000000000000
 70
160
  1
\A1;4-\U+22058
  3
MAIN001
100
AcDbAlignedDimension
 13
308.7700410825313
 23
117.3739409971972
 33
0.0000000000000000
 14
300.7700410825313
 24
117.3739409972173
 34
0.0000000000000000
100
AcDbRotatedDimension
1001
ACAD
1000
DSTYLE
1002
{
1070
   173
1070
     1
1070
     6
1000
_OPEN
1070
     7
1000
_OPEN
1070
    41
1040
2.000000
1070
   287
1070
     0
1002
}
  0
DIMENSION
  5
D4
100
AcDbEntity
  8
MAIN0
  6
CONTINUOUS
 62
3
100
AcDbDimension
  2
*D13
 10
282.6821415556620
 20
117.3739409972228
 30
0.0000000000000000
 11
282.1821415556620
 21
109.8739409972200
 31
0.0000000000000000
 70
32
  3
MAIN001
100
AcDbAlignedDimension
 13
300.7700410825074
 23
102.3739409972171
 33
0.0000000000000000
 14
300.2700410825248
 24
117.3739409972084
 34
0.0000000000000000
 50
90.00000000000000
100
AcDbRotatedDimension
1001
ACAD
1000
DSTYLE
1002
{
1070
   173
1070
     1
1070
     6
1000
_OPEN
1070
     7
1000
_OPEN
1070
    41
1040
2.000000
1002
}
  0
DIMENSION
  5
DF
100
AcDbEntity
  8
MAIN0
  6
CONTINUOUS
 62
3
100
AcDbDimension
  2
*D14
 10
288.9334077736577
 20
117.3739409972201
 30
0.0000000000000000
 11
288.4334077736577
 21
114.3739409972220
 31
0.0000000000000000
 70
32
  3
MAIN001
100
AcDbAlignedDimension
 13
296.3679437353394
 23
111.3739409972239
 33
0.0000000000000000
 14
300.2700410825248
 24
117.3739409972084
 34
0.0000000000000000
 50
90.00000000000000
100
AcDbRotatedDimension
1001
ACAD
1000
DSTYLE
1002
{
1070
   173
1070
     1
1070
     6
1000
_OPEN
1070
     7
1000
_OPEN
1070
    41
1040
2.000000
1070
   287
1070
     0
1002
}
  0
LEADER
  5
E0
100
AcDbEntity
  8
MAIN0
  6
CONTINUOUS
 62
3
100
AcDbLeader
  3
MAIN001
 73
     0
 75
     1
 40
3.099999904632568
 41
10.77900032901766
 76
     3
 10
297.2700410825265
 20
111.3739409972220
 30
0.0000000000000000
 10
289.7882825833551
 20
126.0253706060746
 30
0.0000000000000000
 10
287.8612826391451
 20
126.0253706060746
 30
0.0000000000000000
340
E1
213
0.0000000000000000
223
-0.5000000000000000
233
0.0000000000000000
1001
ACAD
1000
DSTYLE
1002
{
1070
   147
1040
0.0
1070
    77
1070
     1
1070
   173
1070
     1
1070
     6
1000
_OPEN
1070
     7
1000
_OPEN
1002
}
  0
MTEXT
  5
E1
102
{ACAD_REACTORS
330
E0
102
}
100
AcDbEntity
  8
MAIN0
  6
CONTINUOUS
 62
3
100
AcDbMText
 10
277.0822823101274
 20
129.6253705107071
 30
0.0000000000000000
 40
3.099999904632568
 41
0.0000000000000000
 71
     1
 72
     1
  1
{\H0.91x;{4-M3}}
 11
1.000000000000000
 21
0.0000000000000000
 31
0.0000000000000000
  7
STANDARD
  0
LINE
  5
E2
100
AcDbEntity
  8
MAIN0
  6
CONTINUOUS
 62
3
100
AcDbLine
 10
339.7700410825781
 20
116.8739409971365
 30
0.0000000000000000
 11
339.7700410825759
 21
117.8739409971838
 31
0.0000000000000000
  0
LINE
  5
E3
100
AcDbEntity
  8
MAIN0
  6
CONTINUOUS
 62
3
100
AcDbLine
 10
299.7700410825781
 20
116.8739409972631
 30
0.0000000000000000
 11
299.7700410825760
 21
117.8739409971686
 31
0.0000000000000000
  0
LINE
  5
E4
100
AcDbEntity
  8
MAIN0
  6
CONTINUOUS
 62
3
100
AcDbLine
 10
299.7700410825760
 20
117.8739409971686
 30
0.0000000000000000
 11
314.2800410826243
 21
117.8739409971741
 31
0.0000000000000000
  0
LINE
  5
E5
100
AcDbEntity
  8
MAIN0
  6
CONTINUOUS
 62
3
100
AcDbLine
 10
325.2600410827387
 20
117.8739409971783
 30
0.0000000000000000
 11
339.7700410825760
 21
117.8739409971838
 31
0.0000000000000000
  0
LINE
  5
E6
100
AcDbEntity
  8
MAIN0
  6
CONTINUOUS
 62
3
100
AcDbLine
 10
360.5700410824225
 20
96.77394099716214
 30
0.0000000000000000
 11
278.9700410826070
 21
96.77394099721866
 31
0.0000000000000000
  0
LINE
  5
E7
100
AcDbEntity
  8
MAIN0
  6
CONTINUOUS
 62
3
100
AcDbLine
 10
360.7700410824225
 20
96.97394099716199
 30
0.0000000000000000
 11
360.5700410824225
 21
96.77394099716213
 31
0.0000000000000000
  0
LINE
  5
E8
100
AcDbEntity
  8
MAIN0
  6
CONTINUOUS
 62
3
100
AcDbLine
 10
278.7700410826073
 20
96.97394099721882
 30
0.0000000000000000
 11
278.9700410826070
 21
96.77394099721867
 31
0.0000000000000000
  0
DIMENSION
  5
F1
100
AcDbEntity
  8
MAIN0
  6
CONTINUOUS
 62
3
100
AcDbDimension
  2
*D15
 10
227.3700410823848
 20
255.0068441132776
 30
0.0000000000000000
 11
211.0700410823501
 21
255.5068441132776
 31
0.0000000000000000
 70
32
  3
MAIN001
100
AcDbAlignedDimension
 13
194.7700410823155
 23
221.6279388070425
 33
0.0000000000000000
 14
227.3700410823848
 24
236.3279388068185
 34
0.0000000000000000
100
AcDbRotatedDimension
1001
ACAD
1000
DSTYLE
1002
{
1070
   173
1070
     1
1070
     6
1000
_OPEN
1070
     7
1000
_OPEN
1070
    41
1040
2.000000
1002
}
  0
DIMENSION
  5
FA
100
AcDbEntity
  8
MAIN0
  6
CONTINUOUS
 62
3
100
AcDbDimension
  2
*D16
 10
180.0057727558996
 20
209.0279388065662
 30
0.0000000000000000
 11
179.5057727558996
 21
188.4529386694796
 31
0.0000000000000000
 70
32
  1
\A1;\U+220527h7\H0.903226x;\S　0^ －0.021;
  3
MAIN001
100
AcDbAlignedDimension
 13
191.1556817298454
 23
182.0279388065663
 33
0.0000000000000000
 14
191.1556817286153
 24
209.0279388065662
 34
0.0000000000000000
 50
90.00000000000000
100
AcDbRotatedDimension
1001
ACAD
1000
DSTYLE
1002
{
1070
   173
1070
     1
1070
     6
1000
_OPEN
1070
     7
1000
_OPEN
1070
    41
1040
2.000000
1070
   272
1070
     3
1070
    47
1040
0.000000
1070
    48
1040
0.021000
1070
    71
1070
     1
1070
   340
1005
FB
1002
}
  0
INSERT
  5
103
100
AcDbEntity
  8
MAIN0
  6
CONTINUOUS
 62
3
100
AcDbBlockReference
  2
D17
 10
188.8491428928838
 20
195.5279388065782
 30
0.0000000000000000
 50
0.0000000000000000
  0
INSERT
  5
10B
100
AcDbEntity
  8
MAIN0
  6
CONTINUOUS
 62
3
100
AcDbBlockReference
  2
D18
 10
188.8491428928838
 20
195.5279388065782
 30
0.0000000000000000
 50
0.0000000000000000
  0
DIMENSION
  5
116
100
AcDbEntity
  8
MAIN0
  6
CONTINUOUS
 62
3
100
AcDbDimension
  2
*D19
 10
189.7700410823213
 20
134.7640445538901
 30
0.0000000000000000
 11
192.2700410823219
 21
135.2640445538901
 31
0.0000000000000000
 70
32
  3
MAIN001
100
AcDbAlignedDimension
 13
194.7700410823224
 23
172.4279388070424
 33
0.0000000000000000
 14
189.7700410823213
 24
182.8279388074120
 34
0.0000000000000000
100
AcDbRotatedDimension
1001
ACAD
1000
DSTYLE
1002
{
1070
   173
1070
     1
1070
     6
1000
_OPEN
1070
     7
1000
_OPEN
1070
    41
1040
2.000000
1070
   287
1070
     0
1002
}
  0
DIMENSION
  5
11F
100
AcDbEntity
  8
MAIN0
  6
CONTINUOUS
 62
3
100
AcDbDimension
  2
*D20
 10
194.7700410823224
 20
134.7640445538901
 30
0.0000000000000000
 11
210.5700410823536
 21
135.2640445538901
 31
0.0000000000000000
 70
32
  3
MAIN001
100
AcDbAlignedDimension
 13
226.3700410823848
 23
154.7279388071135
 33
0.0000000000000000
 14
194.7700410823224
 24
172.4279388070424
 34
0.0000000000000000
100
AcDbRotatedDimension
1001
ACAD
1000
DSTYLE
1002
{
1070
   173
1070
     1
1070
     6
1000
_OPEN
1070
     7
1000
_OPEN
1070
    41
1040
2.000000
1002
}
  0
DIMENSION
  5
12A
100
AcDbEntity
  8
MAIN0
  6
CONTINUOUS
 62
3
100
AcDbDimension
  2
*D21
 10
226.3700410823848
 20
134.7640445538901
 30
0.0000000000000000
 11
232.4155987810140
 21
135.2640445538901
 31
0.0000000000000000
 70
160
  3
MAIN001
100
AcDbAlignedDimension
 13
226.8700410823848
 23
181.0279388066095
 33
0.0000000000000000
 14
226.3700410823848
 24
154.7279388071135
 34
0.0000000000000000
100
AcDbRotatedDimension
1001
ACAD
1000
DSTYLE
1002
{
1070
   173
1070
     1
1070
     6
1000
_OPEN
1070
     7
1000
_OPEN
1070
    41
1040
2.000000
1070
   287
1070
     0
1002
}
  0
DIMENSION
  5
133
100
AcDbEntity
  8
MAIN0
  6
CONTINUOUS
 62
3
100
AcDbDimension
  2
*D22
 10
194.7700410823224
 20
143.7975431036441
 30
0.0000000000000000
 11
201.2700410824060
 21
144.2975431036441
 31
0.0000000000000000
 70
32
  3
MAIN001
100
AcDbAlignedDimension
 13
207.7700410824896
 23
158.4279388064921
 33
0.0000000000000000
 14
194.7700410823224
 24
172.4279388070424
 34
0.0000000000000000
100
AcDbRotatedDimension
1001
ACAD
1000
DSTYLE
1002
{
1070
   173
1070
     1
1070
     6
1000
_OPEN
1070
     7
1000
_OPEN
1070
    41
1040
2.000000
1002
}
  0
DIMENSION
  5
13E
100
AcDbEntity
  8
MAIN0
  6
CONTINUOUS
 62
3
100
AcDbDimension
  2
*D23
 10
213.8700410823845
 20
242.4966568123458
 30
0.0000000000000000
 11
208.1955396957796
 21
242.9966568123458
 31
0.0000000000000000
 70
160
  1
\A1;\U+22054
  3
MAIN001
100
AcDbAlignedDimension
 13
217.8700410823846
 23
236.1279388068187
 33
0.0000000000000000
 14
213.8700410823845
 24
236.1279388068187
 34
0.0000000000000000
100
AcDbRotatedDimension
1001
ACAD
1000
DSTYLE
1002
{
1070
   173
1070
     1
1070
     6
1000
_OPEN
1070
     7
1000
_OPEN
1070
    41
1040
2.000000
1070
   287
1070
     0
1002
}
  0
LEADER
  5
13F
100
AcDbEntity
  8
MAIN0
  6
CONTINUOUS
 62
3
100
AcDbLeader
  3
MAIN001
 73
     0
 75
     1
 40
2.799999952316284
 41
53.89900147372481
 76
     3
 10
302.6660098180125
 20
182.9534232091586
 30
0.0000000000000000
 10
286.9342463392479
 20
153.3928575282511
 30
0.0000000000000000
 10
285.3152463652057
 20
153.3928575282511
 30
0.0000000000000000
340
140
213
0.0000000000000000
223
-0.5000000000000000
233
0.0000000000000000
1001
ACAD
1000
DSTYLE
1002
{
1070
   147
1040
0.0
1070
    77
1070
     1
1070
   173
1070
     1
1070
     6
1000
_OPEN
1070
     7
1000
_OPEN
1002
}
  0
MTEXT
  5
140
102
{ACAD_REACTORS
330
13F
102
}
100
AcDbEntity
  8
MAIN0
  6
CONTINUOUS
 62
3
100
AcDbMText
 10
231.4162448914809
 20
156.6928574805674
 30
0.0000000000000000
 40
2.799999952316284
 41
0.0000000000000000
 71
     1
 72
     1
  1
{\H0.67x;{十字穴付皿小ねじ 4-M2.5×6\PCross Recessed Flat Head Screw}}
 11
1.000000000000000
 21
0.0000000000000000
 31
0.0000000000000000
  7
KNJYOKO
  0
LEADER
  5
141
100
AcDbEntity
  8
MAIN0
  6
CONTINUOUS
 62
3
100
AcDbLeader
  3
MAIN001
 73
     0
 74
     0
 75
     1
 40
3.099999904632568
 41
32.38100088930128
 76
     3
 10
321.5798887258078
 20
220.3790859780905
 30
0.0000000000000000
 10
359.9073705483150
 20
243.4123500007861
 30
0.0000000000000000
 10
361.8323704925251
 20
243.4123500007861
 30
0.0000000000000000
340
142
213
0.0000000000000000
223
-0.5000000000000000
233
0.0000000000000000
1001
ACAD
1000
DSTYLE
1002
{
1070
   147
1040
0.0
1070
    77
1070
     1
1070
   173
1070
     1
1070
     6
1000
_OPEN
1070
     7
1000
_OPEN
1002
}
  0
MTEXT
  5
142
102
{ACAD_REACTORS
330
141
102
}
100
AcDbEntity
  8
MAIN0
  6
CONTINUOUS
 62
3
100
AcDbMText
 10
361.8333704925251
 20
247.0123499054187
 30
0.0000000000000000
 40
3.099999904632568
 41
0.0000000000000000
 71
     1
 72
     1
  1
{\H0.93x;{2X2-M4 ねじ深7\PDepth 7}}
 11
1.000000000000000
 21
0.0000000000000000
 31
0.0000000000000000
  7
KNJYOKO
  0
LINE
  5
143
100
AcDbEntity
  8
MAIN0
  6
CENTER
 62
3
100
AcDbLine
 10
304.7700410825320
 20
118.3802647155709
 30
0.0000000000000000
 11
304.7700410825173
 21
99.94698553740383
 31
0.0000000000000000
  0
LINE
  5
144
100
AcDbEntity
  8
MAIN0
  6
HIDDEN
 62
3
100
AcDbLine
 10
308.7700410825073
 20
102.3739409972028
 30
0.0000000000000000
 11
308.7700410825313
 21
117.3739409971972
 31
0.0000000000000000
  0
LINE
  5
145
100
AcDbEntity
  8
MAIN0
  6
HIDDEN
 62
3
100
AcDbLine
 10
300.7700410825074
 20
102.3739409972172
 30
0.0000000000000000
 11
300.7700410825313
 21
117.3739409972173
 31
0.0000000000000000
  0
LINE
  5
146
100
AcDbEntity
  8
MAIN0
  6
HIDDEN
 62
3
100
AcDbLine
 10
308.7700410825074
 20
102.3739409972027
 30
0.0000000000000000
 11
300.7700410825074
 21
102.3739409972171
 31
0.0000000000000000
  0
LINE
  5
147
100
AcDbEntity
  8
MAIN0
  6
CENTER
 62
3
100
AcDbLine
 10
301.8230964601207
 20
111.3739409972122
 30
0.0000000000000000
 11
296.3679437353394
 21
111.3739409972239
 31
0.0000000000000000
  0
LINE
  5
148
100
AcDbEntity
  8
MAIN0
  6
CENTER
 62
3
100
AcDbLine
 10
316.6956876418279
 20
165.0279388064882
 30
0.0000000000000000
 11
323.2748529253717
 21
165.0279388065088
 31
0.0000000000000000
  0
LINE
  5
149
100
AcDbEntity
  8
MAIN0
  6
CONTINUOUS
 62
3
100
AcDbLine
 10
311.4700410824336
 20
154.5279388065791
 30
0.0000000000000000
 11
328.0700410824335
 21
154.5279388066376
 31
0.0000000000000000
  0
LINE
  5
14A
100
AcDbEntity
  8
MAIN0
  6
CONTINUOUS
 62
3
100
AcDbLine
 10
311.2700410824326
 20
154.7279388065782
 30
0.0000000000000000
 11
311.4700410824332
 21
154.5279388065789
 31
0.0000000000000000
  0
LINE
  5
14B
100
AcDbEntity
  8
MAIN0
  6
CONTINUOUS
 62
3
100
AcDbLine
 10
314.2700410823708
 20
174.5279388065970
 30
0.0000000000000000
 11
325.2700410823708
 21
174.5279388066315
 31
0.0000000000000000
  0
LINE
  5
14C
100
AcDbEntity
  8
MAIN0
  6
CONTINUOUS
 62
3
100
AcDbLine
 10
314.2700410823925
 20
167.5279388064264
 30
0.0000000000000000
 11
325.2700410823925
 21
167.5279388064587
 31
0.0000000000000000
  0
LINE
  5
14D
100
AcDbEntity
  8
MAIN0
  6
CONTINUOUS
 62
3
100
AcDbLine
 10
314.2700410824084
 20
162.5279388064805
 30
0.0000000000000000
 11
325.2700410824084
 21
162.5279388065150
 31
0.0000000000000000
  0
LINE
  5
14E
100
AcDbEntity
  8
MAIN0
  6
CENTER
 62
3
100
AcDbLine
 10
316.3970363516115
 20
158.5279388064872
 30
0.0000000000000000
 11
323.5536554771301
 21
158.5279388065097
 31
0.0000000000000000
  0
CIRCLE
  5
14F
100
AcDbEntity
  8
MAIN0
  6
CONTINUOUS
 62
3
100
AcDbCircle
 10
319.7700410824209
 20
158.5279388064978
 30
0.0000000000000000
 40
2.000000000000000
  0
CIRCLE
  5
150
100
AcDbEntity
  8
MAIN0
  6
CONTINUOUS
 62
3
100
AcDbCircle
 10
319.7700410824209
 20
158.5279388064978
 30
0.0000000000000000
 40
1.650000000000000
  0
LINE
  5
151
100
AcDbEntity
  8
MAIN0
  6
CENTER
 62
3
100
AcDbLine
 10
316.3970363515707
 20
171.5279388064893
 30
0.0000000000000000
 11
323.5536554770894
 21
171.5279388065117
 31
0.0000000000000000
  0
CIRCLE
  5
152
100
AcDbEntity
  8
MAIN0
  6
CONTINUOUS
 62
3
100
AcDbCircle
 10
319.7700410824004
 20
165.0279388064978
 30
0.0000000000000000
 40
1.999999999970200
  0
LINE
  5
153
100
AcDbEntity
  8
MAIN0
  6
CONTINUOUS
 62
3
100
AcDbLine
 10
328.2700410824328
 20
154.7279388066311
 30
0.0000000000000000
 11
328.0700410824335
 21
154.5279388066305
 31
0.0000000000000000
  0
LINE
  5
154
100
AcDbEntity
  8
MAIN0
  6
CONTINUOUS
 62
3
100
AcDbLine
 10
328.2700410824306
 20
155.4187129353085
 30
0.0000000000000000
 11
328.2700410824328
 21
154.7279388066312
 31
0.0000000000000000
  0
LINE
  5
155
100
AcDbEntity
  8
MAIN0
  6
CONTINUOUS
 62
3
100
AcDbLine
 10
311.2700410824306
 20
155.4187129353158
 30
0.0000000000000000
 11
311.2700410824328
 21
154.7279388065783
 31
0.0000000000000000
  0
LINE
  5
156
100
AcDbEntity
  8
MAIN0
  6
CONTINUOUS
 62
3
100
AcDbLine
 10
314.2700410823502
 20
181.0279388065571
 30
0.0000000000000000
 11
314.2700410824334
 21
154.5279388065890
 31
0.0000000000000000
  0
LINE
  5
157
100
AcDbEntity
  8
MAIN0
  6
CONTINUOUS
 62
3
100
AcDbLine
 10
325.2700410823502
 20
181.0279388065916
 30
0.0000000000000000
 11
325.2700410824334
 21
154.5279388066235
 31
0.0000000000000000
  0
LINE
  5
158
100
AcDbEntity
  8
MAIN0
  6
CENTER
 62
3
100
AcDbLine
 10
335.7700410823734
 20
209.1863358516887
 30
0.0000000000000000
 11
335.7700410823882
 21
202.5114556249394
 31
0.0000000000000000
  0
LINE
  5
159
100
AcDbEntity
  8
MAIN0
  6
CENTER
 62
3
100
AcDbLine
 10
339.2092778649711
 20
206.0279388066615
 30
0.0000000000000000
 11
332.3429041558832
 21
206.0279388066608
 31
0.0000000000000000
  0
CIRCLE
  5
15A
100
AcDbEntity
  8
MAIN0
  6
CONTINUOUS
 62
3
100
AcDbCircle
 10
335.7700410819070
 20
206.0279388061094
 30
0.0000000000000000
 40
2.350000000000165
  0
LINE
  5
15B
100
AcDbEntity
  8
MAIN0
  6
CONTINUOUS
 62
3
100
AcDbLine
 10
335.3818125146856
 20
204.5790500665854
 30
0.0000000000000000
 11
336.1582696499831
 21
207.4768275454039
 31
0.0000000000000000
  0
LINE
  5
15C
100
AcDbEntity
  8
MAIN0
  6
CONTINUOUS
 62
3
100
AcDbLine
 10
337.2189298214989
 20
205.6397102390581
 30
0.0000000000000000
 11
334.3211523426369
 21
206.4161673743602
 31
0.0000000000000000
  0
CIRCLE
  5
15D
100
AcDbEntity
  8
MAIN0
  6
CONTINUOUS
 62
3
100
AcDbCircle
 10
335.7700410822470
 20
206.0279388066612
 30
0.0000000000000000
 40
2.750000000000000
  0
LINE
  5
15E
100
AcDbEntity
  8
MAIN0
  6
CENTER
 62
3
100
AcDbLine
 10
335.7700410824163
 20
181.8695417615962
 30
0.0000000000000000
 11
335.7700410824102
 21
188.5444219883455
 31
0.0000000000000000
  0
LINE
  5
15F
100
AcDbEntity
  8
MAIN0
  6
CENTER
 62
3
100
AcDbLine
 10
339.2092778650040
 20
185.0279388066341
 30
0.0000000000000000
 11
332.3429041559161
 21
185.0279388066133
 31
0.0000000000000000
  0
CIRCLE
  5
160
100
AcDbEntity
  8
MAIN0
  6
CONTINUOUS
 62
3
100
AcDbCircle
 10
335.7700410819400
 20
185.0279388071755
 30
0.0000000000000000
 40
2.350000000000165
  0
LINE
  5
161
100
AcDbEntity
  8
MAIN0
  6
CONTINUOUS
 62
3
100
AcDbLine
 10
335.3818125147140
 20
186.4768275466983
 30
0.0000000000000000
 11
336.1582696500206
 21
183.5790500678822
 31
0.0000000000000000
  0
LINE
  5
162
100
AcDbEntity
  8
MAIN0
  6
CONTINUOUS
 62
3
100
AcDbLine
 10
337.2189298215306
 20
185.4161673742314
 30
0.0000000000000000
 11
334.3211523426710
 21
184.6397102389201
 31
0.0000000000000000
  0
CIRCLE
  5
163
100
AcDbEntity
  8
MAIN0
  6
CONTINUOUS
 62
3
100
AcDbCircle
 10
335.7700410822799
 20
185.0279388066237
 30
0.0000000000000000
 40
2.750000000000000
  0
LINE
  5
164
100
AcDbEntity
  8
MAIN0
  6
CENTER
 62
3
100
AcDbLine
 10
303.7700410824517
 20
181.8695417615252
 30
0.0000000000000000
 11
303.7700410824282
 21
188.5444219882745
 31
0.0000000000000000
  0
LINE
  5
165
100
AcDbEntity
  8
MAIN0
  6
CENTER
 62
3
100
AcDbLine
 10
300.3308042998500
 20
185.0279388065479
 30
0.0000000000000000
 11
307.1971780089378
 21
185.0279388065575
 31
0.0000000000000000
  0
CIRCLE
  5
166
100
AcDbEntity
  8
MAIN0
  6
CONTINUOUS
 62
3
100
AcDbCircle
 10
303.7700410829140
 20
185.0279388071045
 30
0.0000000000000000
 40
2.350000000000165
  0
LINE
  5
167
100
AcDbEntity
  8
MAIN0
  6
CONTINUOUS
 62
3
100
AcDbLine
 10
304.1582696501336
 20
186.4768275466290
 30
0.0000000000000000
 11
303.3818125148398
 21
183.5790500678095
 31
0.0000000000000000
  0
LINE
  5
168
100
AcDbEntity
  8
MAIN0
  6
CONTINUOUS
 62
3
100
AcDbLine
 10
302.3211523433217
 20
185.4161673741540
 30
0.0000000000000000
 11
305.2189298221848
 21
184.6397102388555
 31
0.0000000000000000
  0
CIRCLE
  5
169
100
AcDbEntity
  8
MAIN0
  6
CONTINUOUS
 62
3
100
AcDbCircle
 10
303.7700410825740
 20
185.0279388065527
 30
0.0000000000000000
 40
2.750000000000000
  0
LINE
  5
16A
100
AcDbEntity
  8
MAIN0
  6
CENTER
 62
3
100
AcDbLine
 10
303.7700410824089
 20
209.1863358516593
 30
0.0000000000000000
 11
303.7700410824064
 21
202.5114556249100
 31
0.0000000000000000
  0
LINE
  5
16B
100
AcDbEntity
  8
MAIN0
  6
CENTER
 62
3
100
AcDbLine
 10
300.3308042998170
 20
206.0279388066258
 30
0.0000000000000000
 11
307.1971780089049
 21
206.0279388066377
 31
0.0000000000000000
  0
CIRCLE
  5
16C
100
AcDbEntity
  8
MAIN0
  6
CONTINUOUS
 62
3
100
AcDbCircle
 10
303.7700410828811
 20
206.0279388060799
 30
0.0000000000000000
 40
2.350000000000165
  0
LINE
  5
16D
100
AcDbEntity
  8
MAIN0
  6
CONTINUOUS
 62
3
100
AcDbLine
 10
304.1582696501051
 20
204.5790500665567
 30
0.0000000000000000
 11
303.3818125148023
 21
207.4768275453738
 31
0.0000000000000000
  0
LINE
  5
16E
100
AcDbEntity
  8
MAIN0
  6
CONTINUOUS
 62
3
100
AcDbLine
 10
302.3211523432900
 20
205.6397102390260
 30
0.0000000000000000
 11
305.2189298221506
 21
206.4161673743335
 31
0.0000000000000000
  0
CIRCLE
  5
16F
100
AcDbEntity
  8
MAIN0
  6
CONTINUOUS
 62
3
100
AcDbCircle
 10
303.7700410825411
 20
206.0279388066318
 30
0.0000000000000000
 40
2.750000000000000
  0
LINE
  5
170
100
AcDbEntity
  8
MAIN0
  6
HIDDEN
 62
3
100
AcDbLine
 10
318.2700410827002
 20
110.2239409971899
 30
0.0000000000000000
 11
318.2700410826998
 21
108.1968166528972
 31
0.0000000000000000
  0
LINE
  5
171
100
AcDbEntity
  8
MAIN0
  6
HIDDEN
 62
3
100
AcDbLine
 10
318.5200410826998
 20
108.4351904969499
 30
0.0000000000000000
 11
318.5200410827002
 21
109.9739409971899
 31
0.0000000000000000
  0
LINE
  5
172
100
AcDbEntity
  8
MAIN0
  6
HIDDEN
 62
3
100
AcDbLine
 10
321.0200410827002
 20
109.9739409971900
 30
0.0000000000000000
 11
318.5200410827002
 21
109.9739409971900
 31
0.0000000000000000
  0
LINE
  5
173
100
AcDbEntity
  8
MAIN0
  6
HIDDEN
 62
3
100
AcDbLine
 10
318.5200410827001
 20
109.9739409971896
 30
0.0000000000000000
 11
318.1200410827009
 21
110.3739409971888
 31
0.0000000000000000
  0
LINE
  5
174
100
AcDbEntity
  8
MAIN0
  6
HIDDEN
 62
3
100
AcDbLine
 10
321.0200410827002
 20
109.9739409971899
 30
0.0000000000000000
 11
321.0200410826998
 21
108.4351904968796
 31
0.0000000000000000
  0
LINE
  5
175
100
AcDbEntity
  8
MAIN0
  6
HIDDEN
 62
3
100
AcDbLine
 10
321.2700410827002
 20
110.2239409971900
 30
0.0000000000000000
 11
321.2700410826998
 21
108.1968166527977
 31
0.0000000000000000
  0
LINE
  5
176
100
AcDbEntity
  8
MAIN0
  6
HIDDEN
 62
3
100
AcDbLine
 10
321.4200410827009
 20
110.3739409971905
 30
0.0000000000000000
 11
321.0200410827002
 21
109.9739409971897
 31
0.0000000000000000
  0
DIMENSION
  5
17F
100
AcDbEntity
  8
MAIN0
  6
CONTINUOUS
 62
3
100
AcDbDimension
  2
*D24
 10
150.8963089760242
 20
236.5279388071135
 30
0.0000000000000000
 11
150.3963089760242
 21
195.5279388071135
 31
0.0000000000000000
 70
32
  1
\A1;\U+220582
  3
MAIN001
100
AcDbAlignedDimension
 13
206.1700410823849
 23
154.5279388071135
 33
0.0000000000000000
 14
205.9700410823849
 24
236.5279388071135
 34
0.0000000000000000
 50
90.00000000000000
100
AcDbRotatedDimension
1001
ACAD
1000
DSTYLE
1002
{
1070
   173
1070
     1
1070
     6
1000
_OPEN
1070
     7
1000
_OPEN
1070
    41
1040
2.000000
1002
}
  0
CIRCLE
  5
180
100
AcDbEntity
  8
MAIN0
  6
CONTINUOUS
 62
3
100
AcDbCircle
 10
63.74857111200140
 20
186.2779388064296
 30
0.0000000000000000
 40
3.500000000000000
  0
LINE
  5
181
100
AcDbEntity
  8
MAIN0
  6
CONTINUOUS
 62
3
100
AcDbLine
 10
65.24857111200163
 20
187.1439642102137
 30
0.0000000000000000
 11
65.24857111200120
 21
185.4119134026448
 31
0.0000000000000000
  0
LINE
  5
182
100
AcDbEntity
  8
MAIN0
  6
CONTINUOUS
 62
3
100
AcDbLine
 10
65.24857111200123
 20
185.4119134026448
 30
0.0000000000000000
 11
63.74857111200100
 21
184.5458879988608
 31
0.0000000000000000
  0
LINE
  5
183
100
AcDbEntity
  8
MAIN0
  6
CONTINUOUS
 62
3
100
AcDbLine
 10
63.74857111200100
 20
184.5458879988608
 30
0.0000000000000000
 11
62.24857111200123
 21
185.4119134026456
 31
0.0000000000000000
  0
LINE
  5
184
100
AcDbEntity
  8
MAIN0
  6
CONTINUOUS
 62
3
100
AcDbLine
 10
62.24857111200123
 20
185.4119134026456
 30
0.0000000000000000
 11
62.24857111200168
 21
187.1439642102144
 31
0.0000000000000000
  0
LINE
  5
185
100
AcDbEntity
  8
MAIN0
  6
CONTINUOUS
 62
3
100
AcDbLine
 10
62.24857111200168
 20
187.1439642102145
 30
0.0000000000000000
 11
63.74857111200191
 21
188.0099896139985
 31
0.0000000000000000
  0
LINE
  5
186
100
AcDbEntity
  8
MAIN0
  6
CONTINUOUS
 62
3
100
AcDbLine
 10
63.74857111200186
 20
188.0099896139985
 30
0.0000000000000000
 11
65.24857111200166
 21
187.1439642102137
 31
0.0000000000000000
  0
LINE
  5
187
100
AcDbEntity
  8
MAIN0
  6
CONTINUOUS
 62
3
100
AcDbLine
 10
195.1700410823224
 20
172.0279388070424
 30
0.0000000000000000
 11
202.3700410823223
 21
172.0279388070424
 31
0.0000000000000000
  0
LINE
  5
188
100
AcDbEntity
  8
MAIN0
  6
CONTINUOUS
 62
3
100
AcDbLine
 10
195.1700410823154
 20
222.0279388070425
 30
0.0000000000000000
 11
198.3700410823225
 21
222.0279388070425
 31
0.0000000000000000
  0
LINE
  5
189
100
AcDbEntity
  8
MAIN0
  6
CONTINUOUS
 62
3
100
AcDbLine
 10
194.7700410823157
 20
221.6279388070426
 30
0.0000000000000000
 11
195.1700410823156
 21
222.0279388070425
 31
0.0000000000000000
  0
LINE
  5
18A
100
AcDbEntity
  8
MAIN0
  6
CONTINUOUS
 62
3
100
AcDbLine
 10
194.7700410823224
 20
172.4279388070424
 30
0.0000000000000000
 11
195.1700410823224
 21
172.0279388070424
 31
0.0000000000000000
  0
LINE
  5
18B
100
AcDbEntity
  8
MAIN0
  6
CONTINUOUS
 62
3
100
AcDbLine
 10
202.3700410823224
 20
172.0279388070424
 30
0.0000000000000000
 11
202.7700410823224
 21
172.4279388070424
 31
0.0000000000000000
  0
LINE
  5
18C
100
AcDbEntity
  8
MAIN0
  6
CONTINUOUS
 62
3
100
AcDbLine
 10
198.7700410823225
 20
221.6279388070428
 30
0.0000000000000000
 11
198.7700410823220
 21
215.8795357949763
 31
0.0000000000000000
  0
LINE
  5
18D
100
AcDbEntity
  8
MAIN0
  6
CONTINUOUS
 62
3
100
AcDbLine
 10
198.3700410823225
 20
222.0279388070424
 30
0.0000000000000000
 11
198.7700410823225
 21
221.6279388070424
 31
0.0000000000000000
  0
LINE
  5
18E
100
AcDbEntity
  8
MAIN0
  6
CONTINUOUS
 62
3
100
AcDbLine
 10
202.3700410823223
 20
219.0279388070425
 30
0.0000000000000000
 11
202.7700410823222
 21
218.6279388070425
 31
0.0000000000000000
  0
LINE
  5
18F
100
AcDbEntity
  8
MAIN0
  6
CONTINUOUS
 62
3
100
AcDbLine
 10
189.7700410823213
 20
182.8279388074120
 30
0.0000000000000000
 11
189.7700410823180
 21
208.2279388064236
 31
0.0000000000000000
  0
LINE
  5
190
100
AcDbEntity
  8
MAIN0
  6
CONTINUOUS
 62
3
100
AcDbLine
 10
191.1556817286153
 20
209.0279388065662
 30
0.0000000000000000
 11
194.7700410823180
 21
209.0279388065742
 31
0.0000000000000000
  0
LINE
  5
191
100
AcDbEntity
  8
MAIN0
  6
CONTINUOUS
 62
3
100
AcDbLine
 10
191.1556817298454
 20
182.0279388065663
 30
0.0000000000000000
 11
194.7700410823211
 21
182.0279388065743
 31
0.0000000000000000
  0
LINE
  5
192
100
AcDbEntity
  8
MAIN0
  6
CONTINUOUS
 62
3
100
AcDbLine
 10
189.7700410823178
 20
208.2279388064236
 30
0.0000000000000000
 11
191.1556817286145
 21
209.0279388065662
 31
0.0000000000000000
  0
LINE
  5
193
100
AcDbEntity
  8
MAIN0
  6
CONTINUOUS
 62
3
100
AcDbLine
 10
189.7700410823211
 20
182.8279388074120
 30
0.0000000000000000
 11
191.1556817298453
 21
182.0279388065664
 31
0.0000000000000000
  0
ARC
  5
194
100
AcDbEntity
  8
MAIN0
  6
CONTINUOUS
 62
3
100
AcDbCircle
 10
199.1700410823223
 20
219.4279388070425
 30
0.0000000000000000
 40
0.4000000000000000
100
AcDbArc
 50
180.0000000000000
 51
270.0000000000000
  0
LINE
  5
195
100
AcDbEntity
  8
MAIN0
  6
CONTINUOUS
 62
3
100
AcDbLine
 10
202.7700410823222
 20
172.4279388070425
 30
0.0000000000000000
 11
202.7700410823223
 21
218.6279388070423
 31
0.0000000000000000
  0
LINE
  5
196
100
AcDbEntity
  8
MAIN0
  6
CONTINUOUS
 62
3
100
AcDbLine
 10
194.7700410823224
 20
172.4279388070424
 30
0.0000000000000000
 11
194.7700410823155
 21
221.6279388070425
 31
0.0000000000000000
  0
LINE
  5
197
100
AcDbEntity
  8
MAIN0
  6
CONTINUOUS
 62
3
100
AcDbLine
 10
198.7700410823664
 20
195.5279388066028
 30
0.0000000000000000
 11
198.7700410824042
 21
175.0990645084701
 31
0.0000000000000000
  0
LINE
  5
198
100
AcDbEntity
  8
MAIN0
  6
CONTINUOUS
 62
3
100
AcDbLine
 10
194.7700410823220
 20
175.0990645084833
 30
0.0000000000000000
 11
198.7700410824042
 21
175.0990645084700
 31
0.0000000000000000
  0
LINE
  5
199
100
AcDbEntity
  8
MAIN0
  6
CONTINUOUS
 62
3
100
AcDbLine
 10
194.7700410823198
 20
191.1244649822664
 30
0.0000000000000000
 11
198.7700410823746
 21
191.1244649822664
 31
0.0000000000000000
  0
LINE
  5
19A
100
AcDbEntity
  8
MAIN0
  6
CONTINUOUS
 62
3
100
AcDbLine
 10
194.7700410823192
 20
195.5279388065290
 30
0.0000000000000000
 11
198.7700410823665
 21
195.5279388065290
 31
0.0000000000000000
  0
LINE
  5
19B
100
AcDbEntity
  8
MAIN1
  6
CONTINUOUS
 62
7
100
AcDbLine
 10
227.1700410824700
 20
162.5279388064367
 30
0.0000000000000000
 11
226.3700410823848
 21
162.5279388064346
 31
0.0000000000000000
  0
LINE
  5
19C
100
AcDbEntity
  8
MAIN0
  6
CONTINUOUS
 62
3
100
AcDbLine
 10
227.3700410824704
 20
162.3279388064371
 30
0.0000000000000000
 11
227.1700410824697
 21
162.5279388064367
 31
0.0000000000000000
  0
LINE
  5
19D
100
AcDbEntity
  8
MAIN1
  6
CONTINUOUS
 62
7
100
AcDbLine
 10
227.1700410824596
 20
167.5279388063567
 30
0.0000000000000000
 11
226.3700410823848
 21
167.5279388063556
 31
0.0000000000000000
  0
LINE
  5
19E
100
AcDbEntity
  8
MAIN0
  6
CONTINUOUS
 62
3
100
AcDbLine
 10
227.3700410824593
 20
167.7279388063570
 30
0.0000000000000000
 11
227.1700410824596
 21
167.5279388063567
 31
0.0000000000000000
  0
LINE
  5
19F
100
AcDbEntity
  8
MAIN0
  6
CONTINUOUS
 62
3
100
AcDbLine
 10
227.3700410824395
 20
174.3279388064838
 30
0.0000000000000000
 11
227.1700410824389
 21
174.5279388064834
 31
0.0000000000000000
  0
LINE
  5
1A0
100
AcDbEntity
  8
MAIN0
  6
CONTINUOUS
 62
3
100
AcDbLine
 10
227.1700410824390
 20
174.5279388064832
 30
0.0000000000000000
 11
226.3700410824391
 21
174.5279388064811
 31
0.0000000000000000
  0
LINE
  5
1A1
100
AcDbEntity
  8
MAIN0
  6
CONTINUOUS
 62
3
100
AcDbLine
 10
227.1700410824906
 20
154.5279388064367
 30
0.0000000000000000
 11
226.1700410817055
 21
154.5279388064341
 31
0.0000000000000000
  0
LINE
  5
1A2
100
AcDbEntity
  8
MAIN0
  6
CONTINUOUS
 62
3
100
AcDbLine
 10
227.3700410824396
 20
174.3279388064838
 30
0.0000000000000000
 11
227.3700410824566
 21
167.7279388063570
 31
0.0000000000000000
  0
LINE
  5
1A3
100
AcDbEntity
  8
MAIN0
  6
CONTINUOUS
 62
3
100
AcDbLine
 10
227.3700410824706
 20
162.3279388064372
 30
0.0000000000000000
 11
227.3700410824902
 21
154.7279388064373
 31
0.0000000000000000
  0
LINE
  5
1A4
100
AcDbEntity
  8
MAIN0
  6
CONTINUOUS
 62
3
100
AcDbLine
 10
227.3700410824902
 20
154.7279388064372
 30
0.0000000000000000
 11
227.1700410824907
 21
154.5279388064367
 31
0.0000000000000000
  0
LINE
  5
1A5
100
AcDbEntity
  8
MAIN0
  6
CENTER
 62
3
100
AcDbLine
 10
223.1917799317036
 20
173.0279388067195
 30
0.0000000000000000
 11
217.8979204727083
 21
173.0279388067276
 31
0.0000000000000000
  0
LINE
  5
1A6
100
AcDbEntity
  8
MAIN0
  6
CENTER
 62
3
100
AcDbLine
 10
220.3700410823848
 20
170.5823841071112
 30
0.0000000000000000
 11
220.3700410823848
 21
175.2748641898057
 31
0.0000000000000000
  0
CIRCLE
  5
1A7
100
AcDbEntity
  8
MAIN0
  6
CONTINUOUS
 62
3
100
AcDbCircle
 10
220.3700410823848
 20
173.0279388067239
 30
0.0000000000000000
 40
1.500000000000000
  0
CIRCLE
  5
1A8
100
AcDbEntity
  8
MAIN0
  6
CONTINUOUS
 62
3
100
AcDbCircle
 10
220.3700410823848
 20
173.0279388067239
 30
0.0000000000000000
 40
1.250000000000000
  0
LINE
  5
1A9
100
AcDbEntity
  8
MAIN0
  6
CENTER
 62
3
100
AcDbLine
 10
220.3700410823291
 20
217.1075389516153
 30
0.0000000000000000
 11
220.3700410823325
 21
215.7810134234320
 31
0.0000000000000000
  0
ARC
  5
1AA
100
AcDbEntity
  8
MAIN0
  6
CONTINUOUS
 62
3
100
AcDbCircle
 10
220.3700410823267
 20
218.0279388065138
 30
0.0000000000000000
 40
1.500000000000000
100
AcDbArc
 50
200.1422158631772
 51
314.1294521866510
  0
ARC
  5
1AB
100
AcDbEntity
  8
MAIN0
  6
CONTINUOUS
 62
3
100
AcDbCircle
 10
220.3700410823267
 20
218.0279388065138
 30
0.0000000000000000
 40
1.250000000000000
100
AcDbArc
 50
210.7982235160483
 51
304.0452608182141
  0
DIMENSION
  5
1B5
100
AcDbEntity
  8
MAIN0
  6
CONTINUOUS
 62
3
100
AcDbDimension
  2
*D25
 10
314.2700410823047
 20
242.0734165986896
 30
0.0000000000000000
 11
309.4967813269261
 21
242.5734165986896
 31
0.0000000000000000
 70
160
  3
MAIN001
100
AcDbAlignedDimension
 13
325.2700410823047
 23
236.5279388066284
 33
0.0000000000000000
 14
314.2700410823047
 24
236.5279388066284
 34
0.0000000000000000
100
AcDbRotatedDimension
1001
ACAD
1000
DSTYLE
1002
{
1070
   173
1070
     1
1070
     6
1000
_OPEN
1070
     7
1000
_OPEN
1070
    41
1040
2.000000
1002
}
  0
LINE
  5
1B6
100
AcDbEntity
  8
MAIN0
  6
CENTER
 62
3
100
AcDbLine
 10
337.7169857049321
 20
111.3739409971835
 30
0.0000000000000000
 11
343.1721384297134
 21
111.3739409971865
 31
0.0000000000000000
  0
LINE
  5
1B7
100
AcDbEntity
  8
MAIN0
  6
HIDDEN
 62
3
100
AcDbLine
 10
300.7700410825241
 20
112.8739409972163
 30
0.0000000000000000
 11
297.5200410825241
 21
112.8739409972215
 31
0.0000000000000000
  0
LINE
  5
1B8
100
AcDbEntity
  8
MAIN0
  6
HIDDEN
 62
3
100
AcDbLine
 10
300.7700410825237
 20
112.6239409972163
 30
0.0000000000000000
 11
297.7700410825237
 21
112.6239409972211
 31
0.0000000000000000
  0
LINE
  5
1B9
100
AcDbEntity
  8
MAIN0
  6
HIDDEN
 62
3
100
AcDbLine
 10
297.7700410825236
 20
112.6239409972211
 30
0.0000000000000000
 11
297.2700410825244
 21
113.1239409972219
 31
0.0000000000000000
  0
LINE
  5
1BA
100
AcDbEntity
  8
MAIN0
  6
HIDDEN
 62
3
100
AcDbLine
 10
297.7700410825197
 20
110.1239409972211
 30
0.0000000000000000
 11
297.7700410825237
 21
112.6239409972211
 31
0.0000000000000000
  0
LINE
  5
1BB
100
AcDbEntity
  8
MAIN0
  6
HIDDEN
 62
3
100
AcDbLine
 10
297.7700410825197
 20
110.1239409972211
 30
0.0000000000000000
 11
300.7700410825197
 21
110.1239409972163
 31
0.0000000000000000
  0
LINE
  5
1BC
100
AcDbEntity
  8
MAIN0
  6
HIDDEN
 62
3
100
AcDbLine
 10
297.2700410825188
 20
109.6239409972219
 30
0.0000000000000000
 11
297.7700410825196
 21
110.1239409972211
 31
0.0000000000000000
  0
LINE
  5
1BD
100
AcDbEntity
  8
MAIN0
  6
HIDDEN
 62
3
100
AcDbLine
 10
297.5200410825193
 20
109.8739409972215
 30
0.0000000000000000
 11
300.7700410825193
 21
109.8739409972163
 31
0.0000000000000000
  0
CIRCLE
  5
1BE
100
AcDbEntity
  8
MAIN0
  6
CONTINUOUS
 62
3
100
AcDbCircle
 10
319.7700410823801
 20
171.5279388064999
 30
0.0000000000000000
 40
2.000000000000000
  0
CIRCLE
  5
1BF
100
AcDbEntity
  8
MAIN0
  6
CONTINUOUS
 62
3
100
AcDbCircle
 10
319.7700410823801
 20
171.5279388064999
 30
0.0000000000000000
 40
1.650000000000000
  0
CIRCLE
  5
1C0
100
AcDbEntity
  8
MAIN0
  6
CONTINUOUS
 62
3
100
AcDbCircle
 10
319.7700410824209
 20
158.5279388064978
 30
0.0000000000000000
 40
1.500000000000000
  0
CIRCLE
  5
1C1
100
AcDbEntity
  8
MAIN0
  6
CONTINUOUS
 62
3
100
AcDbCircle
 10
319.7700410824209
 20
158.5279388064978
 30
0.0000000000000000
 40
1.250000000000000
  0
LINE
  5
1C2
100
AcDbEntity
  8
MAIN0
  6
CONTINUOUS
 62
3
100
AcDbLine
 10
205.9700410823849
 20
236.5279388071135
 30
0.0000000000000000
 11
225.9700410823849
 21
236.5279388071135
 31
0.0000000000000000
  0
LINE
  5
1C3
100
AcDbEntity
  8
MAIN0
  6
CONTINUOUS
 62
3
100
AcDbLine
 10
205.7700410823849
 20
236.3279388071135
 30
0.0000000000000000
 11
205.9700410823849
 21
236.5279388071135
 31
0.0000000000000000
  0
LINE
  5
1C4
100
AcDbEntity
  8
MAIN0
  6
CONTINUOUS
 62
3
100
AcDbLine
 10
206.1700410823849
 20
154.5279388071135
 30
0.0000000000000000
 11
226.1700410823848
 21
154.5279388071135
 31
0.0000000000000000
  0
LINE
  5
1C5
100
AcDbEntity
  8
MAIN0
  6
CONTINUOUS
 62
3
100
AcDbLine
 10
212.3700410823848
 20
235.1036669468319
 30
0.0000000000000000
 11
212.3700410823848
 21
236.5279388071135
 31
0.0000000000000000
  0
LINE
  5
1C6
100
AcDbEntity
  8
MAIN0
  6
CONTINUOUS
 62
3
100
AcDbLine
 10
202.7700410823846
 20
218.8279388071137
 30
0.0000000000000000
 11
202.9700410823851
 21
219.0279388071136
 31
0.0000000000000000
  0
LINE
  5
1C7
100
AcDbEntity
  8
MAIN0
  6
CONTINUOUS
 62
3
100
AcDbLine
 10
202.9700410823850
 20
172.0279388071134
 30
0.0000000000000000
 11
202.7700410823844
 21
172.2279388071134
 31
0.0000000000000000
  0
LINE
  5
1C8
100
AcDbEntity
  8
MAIN0
  6
CONTINUOUS
 62
3
100
AcDbLine
 10
225.3700410823848
 20
210.0279388070338
 30
0.0000000000000000
 11
226.3700410823848
 21
210.0279388070354
 31
0.0000000000000000
  0
LINE
  5
1C9
100
AcDbEntity
  8
MAIN0
  6
CONTINUOUS
 62
3
100
AcDbLine
 10
205.7700410823850
 20
154.9279388071136
 30
0.0000000000000000
 11
206.1700410823849
 21
154.5279388071137
 31
0.0000000000000000
  0
LINE
  5
1CA
100
AcDbEntity
  8
MAIN0
  6
CONTINUOUS
 62
3
100
AcDbLine
 10
225.3700410823848
 20
181.0279388066095
 30
0.0000000000000000
 11
225.3700410823848
 21
210.0279388070338
 31
0.0000000000000000
  0
LINE
  5
1CB
100
AcDbEntity
  8
MAIN0
  6
HIDDEN
 62
3
100
AcDbLine
 10
205.7700410823849
 20
232.6279388066672
 30
0.0000000000000000
 11
207.7700410823848
 21
232.6279388066717
 31
0.0000000000000000
  0
LINE
  5
1CC
100
AcDbEntity
  8
MAIN0
  6
HIDDEN
 62
3
100
AcDbLine
 10
207.7700410823848
 20
219.0279388071135
 30
0.0000000000000000
 11
207.7700410823848
 21
232.6279388066717
 31
0.0000000000000000
  0
LINE
  5
1CD
100
AcDbEntity
  8
MAIN0
  6
HIDDEN
 62
3
100
AcDbLine
 10
207.7700410824512
 20
172.0279388060502
 30
0.0000000000000000
 11
207.7700410824896
 21
158.4279388064921
 31
0.0000000000000000
  0
LINE
  5
1CE
100
AcDbEntity
  8
MAIN0
  6
HIDDEN
 62
3
100
AcDbLine
 10
205.7700410824898
 20
158.4279388064908
 30
0.0000000000000000
 11
207.7700410824897
 21
158.4279388064920
 31
0.0000000000000000
  0
LINE
  5
1CF
100
AcDbEntity
  8
MAIN0
  6
CONTINUOUS
 62
3
100
AcDbLine
 10
226.3700410823848
 20
223.5279388068977
 30
0.0000000000000000
 11
226.3700410823848
 21
228.5279388068186
 31
0.0000000000000000
  0
LINE
  5
1D0
100
AcDbEntity
  8
MAIN0
  6
CONTINUOUS
 62
3
100
AcDbLine
 10
202.7700410823844
 20
172.2279388071137
 30
0.0000000000000000
 11
202.7700410823842
 21
218.8279388071133
 31
0.0000000000000000
  0
LINE
  5
1D1
100
AcDbEntity
  8
MAIN0
  6
CONTINUOUS
 62
3
100
AcDbLine
 10
202.9700410823850
 20
219.0279388071135
 30
0.0000000000000000
 11
205.7700410823849
 21
219.0279388071135
 31
0.0000000000000000
  0
LINE
  5
1D2
100
AcDbEntity
  8
MAIN0
  6
HIDDEN
 62
3
100
AcDbLine
 10
205.7700410823849
 20
219.0279388071135
 30
0.0000000000000000
 11
207.7700410823848
 21
219.0279388071135
 31
0.0000000000000000
  0
LINE
  5
1D3
100
AcDbEntity
  8
MAIN0
  6
CONTINUOUS
 62
3
100
AcDbLine
 10
202.9700410823850
 20
172.0279388071136
 30
0.0000000000000000
 11
205.7700410823849
 21
172.0279388071136
 31
0.0000000000000000
  0
LINE
  5
1D4
100
AcDbEntity
  8
MAIN0
  6
HIDDEN
 62
3
100
AcDbLine
 10
205.7700410823849
 20
172.0279388071136
 30
0.0000000000000000
 11
207.7700410824513
 21
172.0279388071136
 31
0.0000000000000000
  0
LINE
  5
1D5
100
AcDbEntity
  8
MAIN0
  6
CONTINUOUS
 62
3
100
AcDbLine
 10
226.3700410823848
 20
154.7279388071135
 30
0.0000000000000000
 11
226.1700410823848
 21
154.5279388071135
 31
0.0000000000000000
  0
LINE
  5
1D6
100
AcDbEntity
  8
MAIN0
  6
CONTINUOUS
 62
3
100
AcDbLine
 10
226.3700410823848
 20
154.7279388071135
 30
0.0000000000000000
 11
226.3700410823848
 21
181.0279388066095
 31
0.0000000000000000
  0
LINE
  5
1D7
100
AcDbEntity
  8
MAIN0
  6
CONTINUOUS
 62
3
100
AcDbLine
 10
226.3700410823848
 20
210.0279388066749
 30
0.0000000000000000
 11
226.3700410823848
 21
216.9818021264282
 31
0.0000000000000000
  0
LINE
  5
1D8
100
AcDbEntity
  8
MAIN0
  6
CONTINUOUS
 62
3
100
AcDbLine
 10
205.7700410823849
 20
154.9279388071136
 30
0.0000000000000000
 11
205.7700410823849
 21
236.3279388071134
 31
0.0000000000000000
  0
LINE
  5
1D9
100
AcDbEntity
  8
MAIN1
  6
CONTINUOUS
 62
7
100
AcDbLine
 10
227.1700410823848
 20
228.5279388068186
 30
0.0000000000000000
 11
224.3700410823848
 21
228.5279388068186
 31
0.0000000000000000
  0
LINE
  5
1DA
100
AcDbEntity
  8
MAIN0
  6
CONTINUOUS
 62
3
100
AcDbLine
 10
227.3700410823847
 20
228.7279388068187
 30
0.0000000000000000
 11
227.1700410823845
 21
228.5279388068185
 31
0.0000000000000000
  0
LINE
  5
1DB
100
AcDbEntity
  8
MAIN0
  6
CONTINUOUS
 62
3
100
AcDbLine
 10
224.3700410823848
 20
228.5279388068186
 30
0.0000000000000000
 11
224.3700410823848
 21
223.5279388068951
 31
0.0000000000000000
  0
LINE
  5
1DC
100
AcDbEntity
  8
MAIN0
  6
CONTINUOUS
 62
3
100
AcDbLine
 10
219.3700410823848
 20
228.0279388068287
 30
0.0000000000000000
 11
224.1700410823849
 21
228.0279388068287
 31
0.0000000000000000
  0
LINE
  5
1DD
100
AcDbEntity
  8
MAIN0
  6
CONTINUOUS
 62
3
100
AcDbLine
 10
224.1700410823847
 20
228.0279388068285
 30
0.0000000000000000
 11
224.3700410823849
 21
228.2279388068287
 31
0.0000000000000000
  0
LINE
  5
1DE
100
AcDbEntity
  8
MAIN0
  6
CONTINUOUS
 62
3
100
AcDbLine
 10
219.3700410823868
 20
224.0279388068786
 30
0.0000000000000000
 11
224.1700410823868
 21
224.0279388068848
 31
0.0000000000000000
  0
LINE
  5
1DF
100
AcDbEntity
  8
MAIN0
  6
CONTINUOUS
 62
3
100
AcDbLine
 10
224.1700410823868
 20
224.0279388068849
 30
0.0000000000000000
 11
224.3700410823871
 21
223.8279388068851
 31
0.0000000000000000
  0
LINE
  5
1E0
100
AcDbEntity
  8
MAIN1
  6
CONTINUOUS
 62
7
100
AcDbLine
 10
227.1700410823873
 20
223.5279388068986
 30
0.0000000000000000
 11
224.3700410823873
 21
223.5279388068952
 31
0.0000000000000000
  0
LINE
  5
1E1
100
AcDbEntity
  8
MAIN0
  6
CONTINUOUS
 62
3
100
AcDbLine
 10
227.3700410823875
 20
223.3279388068988
 30
0.0000000000000000
 11
227.1700410823873
 21
223.5279388068986
 31
0.0000000000000000
  0
LINE
  5
1E2
100
AcDbEntity
  8
MAIN0
  6
CONTINUOUS
 62
3
100
AcDbLine
 10
219.3700410823847
 20
228.0279388068286
 30
0.0000000000000000
 11
219.3700410823848
 21
224.0279388068785
 31
0.0000000000000000
  0
LINE
  5
1E3
100
AcDbEntity
  8
MAIN0
  6
CONTINUOUS
 62
3
100
AcDbLine
 10
218.2153405440162
 20
226.0279388068531
 30
0.0000000000000000
 11
219.3700410823864
 21
224.0279388068785
 31
0.0000000000000000
  0
LINE
  5
1E4
100
AcDbEntity
  8
MAIN0
  6
CONTINUOUS
 62
3
100
AcDbLine
 10
218.2153405440164
 20
226.0279388068524
 30
0.0000000000000000
 11
219.3700410823847
 21
228.0279388068283
 31
0.0000000000000000
  0
LINE
  5
1E5
100
AcDbEntity
  8
MAIN0
  6
CONTINUOUS
 62
3
100
AcDbLine
 10
227.1200410823848
 20
230.5279388068577
 30
0.0000000000000000
 11
220.3700410823848
 21
230.5279388068577
 31
0.0000000000000000
  0
LINE
  5
1E6
100
AcDbEntity
  8
MAIN0
  6
CONTINUOUS
 62
3
100
AcDbLine
 10
227.3700410823847
 20
230.2779388068577
 30
0.0000000000000000
 11
226.7700410823846
 21
230.8779388068577
 31
0.0000000000000000
  0
LINE
  5
1E7
100
AcDbEntity
  8
MAIN0
  6
CONTINUOUS
 62
3
100
AcDbLine
 10
226.7700410823848
 20
230.8779388068577
 30
0.0000000000000000
 11
226.7700410823848
 21
234.1779388068578
 31
0.0000000000000000
  0
LINE
  5
1E8
100
AcDbEntity
  8
MAIN0
  6
CONTINUOUS
 62
3
100
AcDbLine
 10
226.7700410823848
 20
230.8779388068577
 30
0.0000000000000000
 11
219.3700410823952
 21
230.8779388068577
 31
0.0000000000000000
  0
LINE
  5
1E9
100
AcDbEntity
  8
MAIN0
  6
CENTER
 62
3
100
AcDbLine
 10
215.8700410822329
 20
232.5279388068564
 30
0.0000000000000000
 11
229.1798517086677
 21
232.5279388068581
 31
0.0000000000000000
  0
LINE
  5
1EA
100
AcDbEntity
  8
MAIN0
  6
CONTINUOUS
 62
3
100
AcDbLine
 10
220.3700410823848
 20
234.5279388068578
 30
0.0000000000000000
 11
227.1200410823848
 21
234.5279388068578
 31
0.0000000000000000
  0
LINE
  5
1EB
100
AcDbEntity
  8
MAIN0
  6
CONTINUOUS
 62
3
100
AcDbLine
 10
219.3700410823915
 20
234.1779388068578
 30
0.0000000000000000
 11
226.7700410823848
 21
234.1779388068578
 31
0.0000000000000000
  0
LINE
  5
1EC
100
AcDbEntity
  8
MAIN0
  6
CONTINUOUS
 62
3
100
AcDbLine
 10
226.7700410823850
 20
234.1779388068579
 30
0.0000000000000000
 11
227.3700410823848
 21
234.7779388068579
 31
0.0000000000000000
  0
LINE
  5
1ED
100
AcDbEntity
  8
MAIN0
  6
CONTINUOUS
 62
3
100
AcDbLine
 10
220.3700410823848
 20
230.5279388068577
 30
0.0000000000000000
 11
220.3700410823848
 21
234.5279388068578
 31
0.0000000000000000
  0
LINE
  5
1EE
100
AcDbEntity
  8
MAIN0
  6
CONTINUOUS
 62
3
100
AcDbLine
 10
219.3700410823916
 20
234.1779388068441
 30
0.0000000000000000
 11
219.1391009747244
 21
233.7779388068581
 31
0.0000000000000000
  0
LINE
  5
1EF
100
AcDbEntity
  8
MAIN0
  6
CONTINUOUS
 62
3
100
AcDbLine
 10
219.1391009747103
 20
231.2779388068579
 30
0.0000000000000000
 11
219.3700410823948
 21
230.8779388068438
 31
0.0000000000000000
  0
LINE
  5
1F0
100
AcDbEntity
  8
MAIN0
  6
CONTINUOUS
 62
3
100
AcDbLine
 10
219.3700410823918
 20
234.1779388068441
 30
0.0000000000000000
 11
219.3700410823954
 21
230.8779388068442
 31
0.0000000000000000
  0
LINE
  5
1F1
100
AcDbEntity
  8
MAIN0
  6
CONTINUOUS
 62
3
100
AcDbLine
 10
219.3700410823918
 20
221.1779388068432
 30
0.0000000000000000
 11
219.3700410823954
 21
217.8779388068433
 31
0.0000000000000000
  0
LINE
  5
1F2
100
AcDbEntity
  8
MAIN0
  6
CONTINUOUS
 62
3
100
AcDbLine
 10
219.3700410823915
 20
221.1779388068430
 30
0.0000000000000000
 11
218.4174131382305
 21
219.5279388068420
 31
0.0000000000000000
  0
LINE
  5
1F3
100
AcDbEntity
  8
MAIN0
  6
CONTINUOUS
 62
3
100
AcDbLine
 10
218.4174131382304
 20
219.5279388068420
 30
0.0000000000000000
 11
219.3700410823951
 21
217.8779388068431
 31
0.0000000000000000
  0
LINE
  5
1F4
100
AcDbEntity
  8
MAIN0
  6
CENTER
 62
3
100
AcDbLine
 10
217.8945063275918
 20
219.5279388068443
 30
0.0000000000000000
 11
229.1798517086729
 21
219.5279388068599
 31
0.0000000000000000
  0
LINE
  5
1F5
100
AcDbEntity
  8
MAIN0
  6
CONTINUOUS
 62
3
100
AcDbLine
 10
226.7700410823917
 20
221.1779388068512
 30
0.0000000000000000
 11
219.3700410823918
 21
221.1779388068433
 31
0.0000000000000000
  0
LINE
  5
1F6
100
AcDbEntity
  8
MAIN0
  6
CONTINUOUS
 62
3
100
AcDbLine
 10
227.1200410823915
 20
221.5279388068516
 30
0.0000000000000000
 11
220.3700410823915
 21
221.5279388068441
 31
0.0000000000000000
  0
LINE
  5
1F7
100
AcDbEntity
  8
MAIN0
  6
CONTINUOUS
 62
3
100
AcDbLine
 10
220.3700410823914
 20
221.5279388068442
 30
0.0000000000000000
 11
220.3700410823958
 21
217.5279388068442
 31
0.0000000000000000
  0
LINE
  5
1F8
100
AcDbEntity
  8
MAIN0
  6
CONTINUOUS
 62
3
100
AcDbLine
 10
219.3700410823953
 20
217.8779388068432
 30
0.0000000000000000
 11
226.7700410823953
 21
217.8779388068512
 31
0.0000000000000000
  0
LINE
  5
1F9
100
AcDbEntity
  8
MAIN0
  6
CONTINUOUS
 62
3
100
AcDbLine
 10
220.3700410823960
 20
217.5279388068441
 30
0.0000000000000000
 11
227.1200410823960
 21
217.5279388068516
 31
0.0000000000000000
  0
LINE
  5
1FA
100
AcDbEntity
  8
MAIN0
  6
CONTINUOUS
 62
3
100
AcDbLine
 10
226.7700410823952
 20
217.8779388068512
 30
0.0000000000000000
 11
227.3700410823959
 21
217.2779388068518
 31
0.0000000000000000
  0
LINE
  5
1FB
100
AcDbEntity
  8
MAIN0
  6
CONTINUOUS
 62
3
100
AcDbLine
 10
226.7700410823919
 20
221.1779388068511
 30
0.0000000000000000
 11
226.7700410823955
 21
217.8779388068511
 31
0.0000000000000000
  0
LINE
  5
1FC
100
AcDbEntity
  8
MAIN0
  6
CONTINUOUS
 62
3
100
AcDbLine
 10
227.3700410823912
 20
221.7779388068517
 30
0.0000000000000000
 11
226.7700410823918
 21
221.1779388068510
 31
0.0000000000000000
  0
LINE
  5
1FD
100
AcDbEntity
  8
MAIN0
  6
CONTINUOUS
 62
3
100
AcDbLine
 10
227.3700410823848
 20
216.7279388067720
 30
0.0000000000000000
 11
227.1700410823846
 21
216.5279388067719
 31
0.0000000000000000
  0
LINE
  5
1FE
100
AcDbEntity
  8
MAIN0
  6
CONTINUOUS
 62
3
100
AcDbLine
 10
227.1700410823848
 20
216.5279388067721
 30
0.0000000000000000
 11
226.3700410823848
 21
216.5279388067721
 31
0.0000000000000000
  0
LINE
  5
1FF
100
AcDbEntity
  8
MAIN0
  6
CONTINUOUS
 62
3
100
AcDbLine
 10
227.1700410823848
 20
236.5279388068186
 30
0.0000000000000000
 11
212.3700410823848
 21
236.5279388068186
 31
0.0000000000000000
  0
LINE
  5
200
100
AcDbEntity
  8
MAIN0
  6
CONTINUOUS
 62
3
100
AcDbLine
 10
227.3700410823848
 20
216.7279388067720
 30
0.0000000000000000
 11
227.3700410823848
 21
223.3279388068988
 31
0.0000000000000000
  0
LINE
  5
201
100
AcDbEntity
  8
MAIN0
  6
CONTINUOUS
 62
3
100
AcDbLine
 10
227.3700410823848
 20
228.7279388068186
 30
0.0000000000000000
 11
227.3700410823848
 21
236.3279388068185
 31
0.0000000000000000
  0
LINE
  5
202
100
AcDbEntity
  8
MAIN0
  6
CONTINUOUS
 62
3
100
AcDbLine
 10
213.8700410823847
 20
228.5279388068186
 30
0.0000000000000000
 11
213.8700410823845
 21
236.1279388068187
 31
0.0000000000000000
  0
LINE
  5
203
100
AcDbEntity
  8
MAIN0
  6
CONTINUOUS
 62
3
100
AcDbLine
 10
213.8700410823847
 20
236.1279388068186
 30
0.0000000000000000
 11
213.4700410823847
 21
236.5279388068185
 31
0.0000000000000000
  0
LINE
  5
204
100
AcDbEntity
  8
MAIN0
  6
CONTINUOUS
 62
3
100
AcDbLine
 10
217.8700410823851
 20
228.5279388068186
 30
0.0000000000000000
 11
213.8700410823851
 21
228.5279388068186
 31
0.0000000000000000
  0
LINE
  5
205
100
AcDbEntity
  8
MAIN0
  6
CONTINUOUS
 62
3
100
AcDbLine
 10
215.8700410823848
 20
227.3732382684391
 30
0.0000000000000000
 11
213.8700410823848
 21
228.5279388068184
 31
0.0000000000000000
  0
LINE
  5
206
100
AcDbEntity
  8
MAIN0
  6
CONTINUOUS
 62
3
100
AcDbLine
 10
217.8700410823849
 20
228.5279388068187
 30
0.0000000000000000
 11
215.8700410823848
 21
227.3732382684394
 31
0.0000000000000000
  0
LINE
  5
207
100
AcDbEntity
  8
MAIN0
  6
CONTINUOUS
 62
3
100
AcDbLine
 10
217.8700410823846
 20
236.1279388068187
 30
0.0000000000000000
 11
217.8700410823848
 21
228.5279388068186
 31
0.0000000000000000
  0
LINE
  5
208
100
AcDbEntity
  8
MAIN0
  6
CONTINUOUS
 62
3
100
AcDbLine
 10
218.2700410823846
 20
236.5279388068186
 30
0.0000000000000000
 11
217.8700410823847
 21
236.1279388068187
 31
0.0000000000000000
  0
LINE
  5
209
100
AcDbEntity
  8
MAIN0
  6
CONTINUOUS
 62
3
100
AcDbLine
 10
219.1391009747106
 20
231.2779388068580
 30
0.0000000000000000
 11
217.8700410823848
 21
231.2779388068580
 31
0.0000000000000000
  0
LINE
  5
20A
100
AcDbEntity
  8
MAIN0
  6
CONTINUOUS
 62
3
100
AcDbLine
 10
219.2834385420084
 20
231.0279388068580
 30
0.0000000000000000
 11
217.8700410823849
 21
231.0279388068580
 31
0.0000000000000000
  0
LINE
  5
20B
100
AcDbEntity
  8
MAIN0
  6
CONTINUOUS
 62
3
100
AcDbLine
 10
217.8700410823848
 20
233.7779388068580
 30
0.0000000000000000
 11
219.1391009747244
 21
233.7779388068580
 31
0.0000000000000000
  0
LINE
  5
20C
100
AcDbEntity
  8
MAIN0
  6
CONTINUOUS
 62
3
100
AcDbLine
 10
217.8700410823848
 20
234.0279388068580
 30
0.0000000000000000
 11
219.2834385420214
 21
234.0279388068580
 31
0.0000000000000000
  0
LINE
  5
20D
100
AcDbEntity
  8
MAIN0
  6
CONTINUOUS
 62
3
100
AcDbLine
 10
219.1391009747106
 20
231.2779388068580
 30
0.0000000000000000
 11
219.1391009747243
 21
233.7779388068580
 31
0.0000000000000000
  0
LINE
  5
20E
100
AcDbEntity
  8
MAIN0
  6
CENTER
 62
3
100
AcDbLine
 10
217.3253659571146
 20
226.0279388068613
 30
0.0000000000000000
 11
229.1394834299294
 21
226.0279388068613
 31
0.0000000000000000
  0
LINE
  5
20F
100
AcDbEntity
  8
MAIN0
  6
CENTER
 62
3
100
AcDbLine
 10
215.8700410822331
 20
226.3067088982902
 30
0.0000000000000000
 11
215.8700410822331
 21
237.7441499342838
 31
0.0000000000000000
  0
LINE
  5
210
100
AcDbEntity
  8
MAIN0
  6
CONTINUOUS
 62
3
100
AcDbLine
 10
227.3700410823848
 20
236.3279388068186
 30
0.0000000000000000
 11
227.1700410823848
 21
236.5279388068186
 31
0.0000000000000000
  0
LINE
  5
211
100
AcDbEntity
  8
MAIN0
  6
CONTINUOUS
 62
3
100
AcDbLine
 10
212.3700410823848
 20
235.1036669468319
 30
0.0000000000000000
 11
212.3700410823848
 21
236.5279388068186
 31
0.0000000000000000
  0
LINE
  5
212
100
AcDbEntity
  8
MAIN0
  6
CONTINUOUS
 62
3
100
AcDbLine
 10
225.3700410823848
 20
181.0279388066095
 30
0.0000000000000000
 11
226.8700410823848
 21
181.0279388066095
 31
0.0000000000000000
  0
LINE
  5
213
100
AcDbEntity
  8
MAIN0
  6
CONTINUOUS
 62
3
100
AcDbLine
 10
226.8700410823848
 20
181.0279388066095
 30
0.0000000000000000
 11
226.8700410823848
 21
210.0279388066760
 31
0.0000000000000000
  0
LINE
  5
214
100
AcDbEntity
  8
MAIN0
  6
CONTINUOUS
 62
3
100
AcDbLine
 10
225.3700410823848
 20
210.0279388066727
 30
0.0000000000000000
 11
226.8700410823848
 21
210.0279388066760
 31
0.0000000000000000
  0
LINE
  5
215
100
AcDbEntity
  8
MAIN0
  6
CONTINUOUS
 62
3
100
AcDbLine
 10
225.3700410823848
 20
181.0279388066095
 30
0.0000000000000000
 11
225.3700410823848
 21
210.0279388066727
 31
0.0000000000000000
  0
CIRCLE
  5
216
100
AcDbEntity
  8
MAIN0
  6
CONTINUOUS
 62
3
100
AcDbCircle
 10
79.77004108231466
 20
195.5279388066008
 30
0.0000000000000000
 40
37.09999999961798
  0
LINE
  5
217
100
AcDbEntity
  8
MAIN0
  6
CONTINUOUS
 62
3
100
AcDbLine
 10
199.1700410823223
 20
219.0279388070425
 30
0.0000000000000000
 11
202.3700410823223
 21
219.0279388070425
 31
0.0000000000000000
  0
LINE
  5
218
100
AcDbEntity
  8
MAIN0
  6
CONTINUOUS
 62
3
100
AcDbLine
 10
328.1200410829963
 20
109.3739409971794
 30
0.0000000000000000
 11
325.6700410829174
 21
109.3739409971784
 31
0.0000000000000000
  0
LINE
  5
219
100
AcDbEntity
  8
MAIN0
  6
CONTINUOUS
 62
3
100
AcDbLine
 10
324.7700410829194
 20
103.2739409971780
 30
0.0000000000000000
 11
314.7700410829160
 21
103.2739409971741
 31
0.0000000000000000
  0
LINE
  5
21A
100
AcDbEntity
  8
MAIN0
  6
CONTINUOUS
 62
3
100
AcDbLine
 10
324.7700410829192
 20
103.3739409971782
 30
0.0000000000000000
 11
324.7700410829192
 21
103.2739409971782
 31
0.0000000000000000
  0
LINE
  5
21B
100
AcDbEntity
  8
MAIN0
  6
CONTINUOUS
 62
3
100
AcDbLine
 10
328.1200410829949
 20
103.3739409971793
 30
0.0000000000000000
 11
324.7700410829194
 21
103.3739409971780
 31
0.0000000000000000
  0
LINE
  5
21C
100
AcDbEntity
  8
MAIN0
  6
CONTINUOUS
 62
3
100
AcDbLine
 10
328.3200410829963
 20
109.1739409971793
 30
0.0000000000000000
 11
328.3200410829948
 21
103.5739409971794
 31
0.0000000000000000
  0
ARC
  5
21D
100
AcDbEntity
  8
MAIN0
  6
CONTINUOUS
 62
3
100
AcDbCircle
 10
328.1200410829964
 20
109.1739409971794
 30
0.0000000000000000
 40
0.2000000000000000
100
AcDbArc
 50
0.0000000000000000
 51
90.00000000000000
  0
ARC
  5
21E
100
AcDbEntity
  8
MAIN0
  6
CONTINUOUS
 62
3
100
AcDbCircle
 10
328.1200410829948
 20
103.5739409971795
 30
0.0000000000000000
 40
0.2000000000000000
100
AcDbArc
 50
270.0000000000001
 51
360.0000000000000
  0
LINE
  5
21F
100
AcDbEntity
  8
MAIN0
  6
CONTINUOUS
 62
3
100
AcDbLine
 10
325.2700410829154
 20
116.9739409971782
 30
0.0000000000000000
 11
325.2700410829174
 21
109.7739409971782
 31
0.0000000000000000
  0
LINE
  5
220
100
AcDbEntity
  8
MAIN0
  6
CONTINUOUS
 62
3
100
AcDbLine
 10
311.4200410828491
 20
109.3739409971896
 30
0.0000000000000000
 11
313.8700410829280
 21
109.3739409971851
 31
0.0000000000000000
  0
LINE
  5
221
100
AcDbEntity
  8
MAIN0
  6
CONTINUOUS
 62
3
100
AcDbLine
 10
314.7700410829195
 20
103.3739409971836
 30
0.0000000000000000
 11
314.7700410829194
 21
103.2739409971836
 31
0.0000000000000000
  0
LINE
  5
222
100
AcDbEntity
  8
MAIN0
  6
CONTINUOUS
 62
3
100
AcDbLine
 10
311.4200410828440
 20
103.3739409971897
 30
0.0000000000000000
 11
314.7700410829195
 21
103.3739409971837
 31
0.0000000000000000
  0
LINE
  5
223
100
AcDbEntity
  8
MAIN0
  6
CONTINUOUS
 62
3
100
AcDbLine
 10
311.2200410828488
 20
109.1739409971898
 30
0.0000000000000000
 11
311.2200410828441
 21
103.5739409971899
 31
0.0000000000000000
  0
ARC
  5
224
100
AcDbEntity
  8
MAIN0
  6
CONTINUOUS
 62
3
100
AcDbCircle
 10
311.4200410828489
 20
109.1739409971897
 30
0.0000000000000000
 40
0.2000000000000000
100
AcDbArc
 50
89.99999999993649
 51
179.9999999999365
  0
ARC
  5
225
100
AcDbEntity
  8
MAIN0
  6
CONTINUOUS
 62
3
100
AcDbCircle
 10
311.4200410828443
 20
103.5739409971897
 30
0.0000000000000000
 40
0.2000000000000000
100
AcDbArc
 50
179.9999999999365
 51
269.9999999999366
  0
LINE
  5
226
100
AcDbEntity
  8
MAIN0
  6
CONTINUOUS
 62
3
100
AcDbLine
 10
314.2700410829386
 20
116.9739409971846
 30
0.0000000000000000
 11
314.2700410829286
 21
109.7739409971845
 31
0.0000000000000000
  0
LINE
  5
227
100
AcDbEntity
  8
MAIN0
  6
CONTINUOUS
 62
3
100
AcDbLine
 10
300.2700410825248
 20
117.3739409972084
 30
0.0000000000000000
 11
313.8700410829391
 21
117.3739409971853
 31
0.0000000000000000
  0
LINE
  5
228
100
AcDbEntity
  8
MAIN0
  6
CONTINUOUS
 62
3
100
AcDbLine
 10
325.6700410829153
 20
117.3739409971784
 30
0.0000000000000000
 11
339.2700410825312
 21
117.3739409971836
 31
0.0000000000000000
  0
LINE
  5
229
100
AcDbEntity
  8
MAIN0
  6
CONTINUOUS
 62
3
100
AcDbLine
 10
342.2700410825215
 20
105.2739409971850
 30
0.0000000000000000
 11
360.7700410824225
 21
105.2739409971921
 31
0.0000000000000000
  0
LINE
  5
22A
100
AcDbEntity
  8
MAIN0
  6
CONTINUOUS
 62
3
100
AcDbLine
 10
325.6700410829153
 20
117.3739409971784
 30
0.0000000000000000
 11
325.2700410829154
 21
116.9739409971783
 31
0.0000000000000000
  0
LINE
  5
22B
100
AcDbEntity
  8
MAIN0
  6
CONTINUOUS
 62
3
100
AcDbLine
 10
314.2700410829385
 20
116.9739409971846
 30
0.0000000000000000
 11
313.8700410829392
 21
117.3739409971853
 31
0.0000000000000000
  0
LINE
  5
22C
100
AcDbEntity
  8
MAIN0
  6
CONTINUOUS
 62
3
100
AcDbLine
 10
313.8700410829281
 20
109.3739409971851
 30
0.0000000000000000
 11
314.2700410829287
 21
109.7739409971844
 31
0.0000000000000000
  0
LINE
  5
22D
100
AcDbEntity
  8
MAIN0
  6
CONTINUOUS
 62
3
100
AcDbLine
 10
325.6700410829175
 20
109.3739409971784
 30
0.0000000000000000
 11
325.2700410829174
 21
109.7739409971782
 31
0.0000000000000000
  0
LINE
  5
22E
100
AcDbEntity
  8
MAIN0
  6
CENTER
 62
3
100
AcDbLine
 10
319.7700410825331
 20
119.8780616572735
 30
0.0000000000000000
 11
319.7700410825007
 21
79.19982172472331
 31
0.0000000000000000
  0
LINE
  5
22F
100
AcDbEntity
  8
MAIN0
  6
CENTER
 62
3
100
AcDbLine
 10
334.7700410825319
 20
118.3802647155469
 30
0.0000000000000000
 11
334.7700410825172
 21
99.94698553737989
 31
0.0000000000000000
  0
LINE
  5
230
100
AcDbEntity
  8
MAIN0
  6
HIDDEN
 62
3
100
AcDbLine
 10
330.7700410825311
 20
102.3739409971852
 30
0.0000000000000000
 11
330.7700410825311
 21
117.3739409971797
 31
0.0000000000000000
  0
LINE
  5
231
100
AcDbEntity
  8
MAIN0
  6
HIDDEN
 62
3
100
AcDbLine
 10
338.7700410825311
 20
102.3739409971868
 30
0.0000000000000000
 11
338.7700410825311
 21
117.3739409971870
 31
0.0000000000000000
  0
LINE
  5
232
100
AcDbEntity
  8
MAIN0
  6
HIDDEN
 62
3
100
AcDbLine
 10
330.7700410825311
 20
102.3739409971851
 30
0.0000000000000000
 11
338.7700410825311
 21
102.3739409971868
 31
0.0000000000000000
  0
LINE
  5
233
100
AcDbEntity
  8
MAIN0
  6
HIDDEN
 62
3
100
AcDbLine
 10
338.7700410825311
 20
112.8739409971860
 30
0.0000000000000000
 11
342.0200410825311
 21
112.8739409971860
 31
0.0000000000000000
  0
LINE
  5
234
100
AcDbEntity
  8
MAIN0
  6
HIDDEN
 62
3
100
AcDbLine
 10
338.7700410825311
 20
112.6239409971860
 30
0.0000000000000000
 11
341.7700410825311
 21
112.6239409971860
 31
0.0000000000000000
  0
LINE
  5
235
100
AcDbEntity
  8
MAIN0
  6
HIDDEN
 62
3
100
AcDbLine
 10
341.7700410825311
 20
112.6239409971860
 30
0.0000000000000000
 11
342.2700410825311
 21
113.1239409971860
 31
0.0000000000000000
  0
LINE
  5
236
100
AcDbEntity
  8
MAIN0
  6
HIDDEN
 62
3
100
AcDbLine
 10
341.7700410825311
 20
110.1239409971860
 30
0.0000000000000000
 11
341.7700410825311
 21
112.6239409971860
 31
0.0000000000000000
  0
LINE
  5
237
100
AcDbEntity
  8
MAIN0
  6
HIDDEN
 62
3
100
AcDbLine
 10
341.7700410825311
 20
110.1239409971860
 30
0.0000000000000000
 11
338.7700410825311
 21
110.1239409971860
 31
0.0000000000000000
  0
LINE
  5
238
100
AcDbEntity
  8
MAIN0
  6
HIDDEN
 62
3
100
AcDbLine
 10
342.2700410825311
 20
109.6239409971860
 30
0.0000000000000000
 11
341.7700410825311
 21
110.1239409971860
 31
0.0000000000000000
  0
LINE
  5
239
100
AcDbEntity
  8
MAIN0
  6
HIDDEN
 62
3
100
AcDbLine
 10
342.0200410825311
 20
109.8739409971860
 30
0.0000000000000000
 11
338.7700410825311
 21
109.8739409971860
 31
0.0000000000000000
  0
LINE
  5
23A
100
AcDbEntity
  8
MAIN0
  6
CONTINUOUS
 62
3
100
AcDbLine
 10
297.2700410825216
 20
105.2739409972209
 30
0.0000000000000000
 11
278.7700410826207
 21
105.2739409972575
 31
0.0000000000000000
  0
LINE
  5
23B
100
AcDbEntity
  8
MAIN0
  6
CONTINUOUS
 62
3
100
AcDbLine
 10
327.9200410827879
 20
103.3739409971850
 30
0.0000000000000000
 11
311.6200410827881
 21
103.3739409971961
 31
0.0000000000000000
  0
LINE
  5
23C
100
AcDbEntity
  8
MAIN0
  6
CONTINUOUS
 62
3
100
AcDbLine
 10
328.2200410827869
 20
103.6739409971848
 30
0.0000000000000000
 11
328.2200410827688
 21
109.0739409971849
 31
0.0000000000000000
  0
LINE
  5
23D
100
AcDbEntity
  8
MAIN0
  6
CONTINUOUS
 62
3
100
AcDbLine
 10
325.2600410827678
 20
109.4739409971864
 30
0.0000000000000000
 11
325.2600410827383
 21
117.9739409971867
 31
0.0000000000000000
  0
LINE
  5
23E
100
AcDbEntity
  8
MAIN0
  6
CONTINUOUS
 62
3
100
AcDbLine
 10
314.2800410825938
 20
109.4739409971940
 30
0.0000000000000000
 11
314.2800410826247
 21
117.9739409971943
 31
0.0000000000000000
  0
LINE
  5
23F
100
AcDbEntity
  8
MAIN0
  6
CONTINUOUS
 62
3
100
AcDbLine
 10
311.3200410827873
 20
103.6739409971964
 30
0.0000000000000000
 11
311.3200410827692
 21
109.0739409971960
 31
0.0000000000000000
  0
LINE
  5
240
100
AcDbEntity
  8
MAIN0
  6
CONTINUOUS
 62
3
100
AcDbLine
 10
324.8600410827372
 20
118.3739409971869
 30
0.0000000000000000
 11
314.6800410826258
 21
118.3739409971940
 31
0.0000000000000000
  0
LINE
  5
241
100
AcDbEntity
  8
MAIN0
  6
CONTINUOUS
 62
3
100
AcDbLine
 10
328.2200410827869
 20
103.6739409971848
 30
0.0000000000000000
 11
327.9200410827880
 21
103.3739409971851
 31
0.0000000000000000
  0
LINE
  5
242
100
AcDbEntity
  8
MAIN0
  6
CONTINUOUS
 62
3
100
AcDbLine
 10
311.6200410827881
 20
103.3739409971961
 30
0.0000000000000000
 11
311.3200410827872
 21
103.6739409971964
 31
0.0000000000000000
  0
LINE
  5
243
100
AcDbEntity
  8
MAIN0
  6
CONTINUOUS
 62
3
100
AcDbLine
 10
311.3200410827691
 20
109.0739409971961
 30
0.0000000000000000
 11
311.6200410827684
 21
109.3739409971960
 31
0.0000000000000000
  0
LINE
  5
244
100
AcDbEntity
  8
MAIN0
  6
CONTINUOUS
 62
3
100
AcDbLine
 10
328.2200410827687
 20
109.0739409971850
 30
0.0000000000000000
 11
327.9200410827681
 21
109.3739409971850
 31
0.0000000000000000
  0
LINE
  5
245
100
AcDbEntity
  8
MAIN0
  6
CONTINUOUS
 62
3
100
AcDbLine
 10
325.2600410827384
 20
117.9739409971867
 30
0.0000000000000000
 11
324.8600410827373
 21
118.3739409971869
 31
0.0000000000000000
  0
LINE
  5
246
100
AcDbEntity
  8
MAIN0
  6
CONTINUOUS
 62
3
100
AcDbLine
 10
314.6800410826257
 20
118.3739409971940
 30
0.0000000000000000
 11
314.2800410826246
 21
117.9739409971943
 31
0.0000000000000000
  0
LINE
  5
247
100
AcDbEntity
  8
MAIN0
  6
CONTINUOUS
 62
3
100
AcDbLine
 10
327.9200410827681
 20
109.3739409971850
 30
0.0000000000000000
 11
325.3600410827678
 21
109.3739409971867
 31
0.0000000000000000
  0
LINE
  5
248
100
AcDbEntity
  8
MAIN0
  6
CONTINUOUS
 62
3
100
AcDbLine
 10
314.1800410825937
 20
109.3739409971944
 30
0.0000000000000000
 11
311.6200410827686
 21
109.3739409971961
 31
0.0000000000000000
  0
LINE
  5
249
100
AcDbEntity
  8
MAIN0
  6
CENTER
 62
3
100
AcDbLine
 10
317.2558713991680
 20
106.8739409973165
 30
0.0000000000000000
 11
322.6828249403693
 21
106.8739409973135
 31
0.0000000000000000
  0
CIRCLE
  5
24A
100
AcDbEntity
  8
MAIN0
  6
CONTINUOUS
 62
3
100
AcDbCircle
 10
319.7700410826559
 20
106.8739409973151
 30
0.0000000000000000
 40
2.000000000000000
  0
ARC
  5
24B
100
AcDbEntity
  8
MAIN0
  6
CONTINUOUS
 62
3
100
AcDbCircle
 10
325.3600410827678
 20
109.4739409971867
 30
0.0000000000000000
 40
0.1000000000000000
100
AcDbArc
 50
180.0000000000000
 51
270.0000000000000
  0
ARC
  5
24C
100
AcDbEntity
  8
MAIN0
  6
CONTINUOUS
 62
3
100
AcDbCircle
 10
314.1800410825937
 20
109.4739409971943
 30
0.0000000000000000
 40
0.1000000000000000
100
AcDbArc
 50
270.0000000000000
 51
360.0000000000000
  0
LINE
  5
24D
100
AcDbEntity
  8
MAIN0
  6
CONTINUOUS
 62
3
100
AcDbLine
 10
71.47004108221569
 20
236.5279388066363
 30
0.0000000000000000
 11
88.07004108221557
 21
236.5279388066298
 31
0.0000000000000000
  0
LINE
  5
24E
100
AcDbEntity
  8
MAIN0
  6
CONTINUOUS
 62
3
100
AcDbLine
 10
71.27004108221541
 20
236.3279388066365
 30
0.0000000000000000
 11
71.47004108221540
 21
236.5279388066364
 31
0.0000000000000000
  0
LINE
  5
24F
100
AcDbEntity
  8
MAIN0
  6
CONTINUOUS
 62
3
100
AcDbLine
 10
88.27004108221541
 20
236.3279388066368
 30
0.0000000000000000
 11
88.07004108221543
 21
236.5279388066368
 31
0.0000000000000000
  0
LINE
  5
250
100
AcDbEntity
  8
MAIN0
  6
CONTINUOUS
 62
3
100
AcDbLine
 10
88.27004108221553
 20
235.6371646779595
 30
0.0000000000000000
 11
88.27004108221553
 21
236.3279388066368
 31
0.0000000000000000
  0
LINE
  5
251
100
AcDbEntity
  8
MAIN0
  6
CONTINUOUS
 62
3
100
AcDbLine
 10
71.27004108221556
 20
235.6371646778989
 30
0.0000000000000000
 11
71.27004108221556
 21
236.3279388066363
 31
0.0000000000000000
  0
LINE
  5
252
100
AcDbEntity
  8
MAIN0
  6
CONTINUOUS
 62
3
100
AcDbLine
 10
88.07004108241375
 20
154.5279388065653
 30
0.0000000000000000
 11
71.47004108241384
 21
154.5279388065718
 31
0.0000000000000000
  0
LINE
  5
253
100
AcDbEntity
  8
MAIN0
  6
CONTINUOUS
 62
3
100
AcDbLine
 10
88.27004108241403
 20
154.7279388065651
 30
0.0000000000000000
 11
88.07004108241398
 21
154.5279388065652
 31
0.0000000000000000
  0
LINE
  5
254
100
AcDbEntity
  8
MAIN0
  6
CONTINUOUS
 62
3
100
AcDbLine
 10
71.27004108241374
 20
154.7279388065647
 30
0.0000000000000000
 11
71.47004108241373
 21
154.5279388065648
 31
0.0000000000000000
  0
LINE
  5
255
100
AcDbEntity
  8
MAIN0
  6
CONTINUOUS
 62
3
100
AcDbLine
 10
71.27004108241385
 20
155.4187129352420
 30
0.0000000000000000
 11
71.27004108241385
 21
154.7279388065647
 31
0.0000000000000000
  0
LINE
  5
256
100
AcDbEntity
  8
MAIN0
  6
CONTINUOUS
 62
3
100
AcDbLine
 10
88.27004108241385
 20
155.4187129353027
 30
0.0000000000000000
 11
88.27004108241385
 21
154.7279388065652
 31
0.0000000000000000
  0
LINE
  5
257
100
AcDbEntity
  8
MAIN0
  6
CENTER
 62
3
100
AcDbLine
 10
64.20407176522389
 20
213.1220665442252
 30
0.0000000000000000
 11
68.03163333944849
 21
208.7957951834234
 31
0.0000000000000000
  0
CIRCLE
  5
258
100
AcDbEntity
  8
MAIN0
  6
CONTINUOUS
 62
3
100
AcDbCircle
 10
66.25259209883555
 20
210.8066355107956
 30
0.0000000000000000
 40
2.000000000000000
  0
CIRCLE
  5
259
100
AcDbEntity
  8
MAIN0
  6
CONTINUOUS
 62
3
100
AcDbCircle
 10
95.79151105262554
 20
186.2779388064255
 30
0.0000000000000000
 40
3.500000000000000
  0
LINE
  5
25A
100
AcDbEntity
  8
MAIN0
  6
CONTINUOUS
 62
3
100
AcDbLine
 10
94.29151105262548
 20
187.1439642102099
 30
0.0000000000000000
 11
94.29151105262548
 21
185.4119134026411
 31
0.0000000000000000
  0
LINE
  5
25B
100
AcDbEntity
  8
MAIN0
  6
CONTINUOUS
 62
3
100
AcDbLine
 10
94.29151105262548
 20
185.4119134026411
 30
0.0000000000000000
 11
95.79151105262548
 21
184.5458879988566
 31
0.0000000000000000
  0
LINE
  5
25C
100
AcDbEntity
  8
MAIN0
  6
CONTINUOUS
 62
3
100
AcDbLine
 10
95.79151105262551
 20
184.5458879988567
 30
0.0000000000000000
 11
97.29151105262548
 21
185.4119134026411
 31
0.0000000000000000
  0
LINE
  5
25D
100
AcDbEntity
  8
MAIN0
  6
CONTINUOUS
 62
3
100
AcDbLine
 10
97.29151105262542
 20
185.4119134026411
 30
0.0000000000000000
 11
97.29151105262542
 21
187.1439642102099
 31
0.0000000000000000
  0
LINE
  5
25E
100
AcDbEntity
  8
MAIN0
  6
CONTINUOUS
 62
3
100
AcDbLine
 10
97.29151105262548
 20
187.1439642102099
 30
0.0000000000000000
 11
95.79151105262548
 21
188.0099896139944
 31
0.0000000000000000
  0
LINE
  5
25F
100
AcDbEntity
  8
MAIN0
  6
CONTINUOUS
 62
3
100
AcDbLine
 10
95.79151105262548
 20
188.0099896139944
 30
0.0000000000000000
 11
94.29151105262551
 21
187.1439642102100
 31
0.0000000000000000
  0
CIRCLE
  5
260
100
AcDbEntity
  8
MAIN0
  6
CONTINUOUS
 62
3
100
AcDbCircle
 10
95.79151105262790
 20
204.7779388067719
 30
0.0000000000000000
 40
3.500000000000000
  0
LINE
  5
261
100
AcDbEntity
  8
MAIN0
  6
CONTINUOUS
 62
3
100
AcDbLine
 10
94.29151105262798
 20
203.9119134029875
 30
0.0000000000000000
 11
95.79151105262801
 21
203.0458879992031
 31
0.0000000000000000
  0
LINE
  5
262
100
AcDbEntity
  8
MAIN0
  6
CONTINUOUS
 62
3
100
AcDbLine
 10
95.79151105262793
 20
203.0458879992030
 30
0.0000000000000000
 11
97.29151105262790
 21
203.9119134029874
 31
0.0000000000000000
  0
LINE
  5
263
100
AcDbEntity
  8
MAIN0
  6
CONTINUOUS
 62
3
100
AcDbLine
 10
97.29151105262790
 20
203.9119134029874
 30
0.0000000000000000
 11
97.29151105262790
 21
205.6439642105563
 31
0.0000000000000000
  0
LINE
  5
264
100
AcDbEntity
  8
MAIN0
  6
CONTINUOUS
 62
3
100
AcDbLine
 10
97.29151105262795
 20
205.6439642105563
 30
0.0000000000000000
 11
95.79151105262793
 21
206.5099896143407
 31
0.0000000000000000
  0
LINE
  5
265
100
AcDbEntity
  8
MAIN0
  6
CONTINUOUS
 62
3
100
AcDbLine
 10
95.79151105262790
 20
206.5099896143407
 30
0.0000000000000000
 11
94.29151105262793
 21
205.6439642105563
 31
0.0000000000000000
  0
LINE
  5
266
100
AcDbEntity
  8
MAIN0
  6
CONTINUOUS
 62
3
100
AcDbLine
 10
94.29151105262790
 20
205.6439642105563
 30
0.0000000000000000
 11
94.29151105262790
 21
203.9119134029874
 31
0.0000000000000000
  0
CIRCLE
  5
267
100
AcDbEntity
  8
MAIN0
  6
CONTINUOUS
 62
3
100
AcDbCircle
 10
63.74857111200379
 20
204.7779388067760
 30
0.0000000000000000
 40
3.500000000000000
  0
LINE
  5
268
100
AcDbEntity
  8
MAIN0
  6
CONTINUOUS
 62
3
100
AcDbLine
 10
65.24857111200387
 20
203.9119134029916
 30
0.0000000000000000
 11
65.24857111200387
 21
205.6439642105605
 31
0.0000000000000000
  0
LINE
  5
269
100
AcDbEntity
  8
MAIN0
  6
CONTINUOUS
 62
3
100
AcDbLine
 10
65.24857111200396
 20
205.6439642105605
 30
0.0000000000000000
 11
63.74857111200390
 21
206.5099896143449
 31
0.0000000000000000
  0
LINE
  5
26A
100
AcDbEntity
  8
MAIN0
  6
CONTINUOUS
 62
3
100
AcDbLine
 10
63.74857111200390
 20
206.5099896143449
 30
0.0000000000000000
 11
62.24857111200390
 21
205.6439642105605
 31
0.0000000000000000
  0
LINE
  5
26B
100
AcDbEntity
  8
MAIN0
  6
CONTINUOUS
 62
3
100
AcDbLine
 10
62.24857111200396
 20
205.6439642105605
 30
0.0000000000000000
 11
62.24857111200396
 21
203.9119134029916
 31
0.0000000000000000
  0
LINE
  5
26C
100
AcDbEntity
  8
MAIN0
  6
CONTINUOUS
 62
3
100
AcDbLine
 10
62.24857111200390
 20
203.9119134029916
 30
0.0000000000000000
 11
63.74857111200396
 21
203.0458879992071
 31
0.0000000000000000
  0
LINE
  5
26D
100
AcDbEntity
  8
MAIN0
  6
CONTINUOUS
 62
3
100
AcDbLine
 10
63.74857111200390
 20
203.0458879992071
 30
0.0000000000000000
 11
65.24857111200390
 21
203.9119134029916
 31
0.0000000000000000
  0
LINE
  5
26E
100
AcDbEntity
  8
MAIN0
  6
CONTINUOUS
 62
3
100
AcDbLine
 10
77.02004108231466
 20
188.9821386263326
 30
0.0000000000000000
 11
77.02004108231466
 21
191.0534742203811
 31
0.0000000000000000
  0
LINE
  5
26F
100
AcDbEntity
  8
MAIN0
  6
CONTINUOUS
 62
3
100
AcDbLine
 10
82.52004108231466
 20
188.9821386263326
 30
0.0000000000000000
 11
82.52004108231466
 21
191.0534742203812
 31
0.0000000000000000
  0
LINE
  5
270
100
AcDbEntity
  8
MAIN0
  6
CONTINUOUS
 62
3
100
AcDbLine
 10
84.06387032652367
 20
201.1824087571421
 30
0.0000000000000000
 11
82.27004108231466
 21
200.1467409601178
 31
0.0000000000000000
  0
LINE
  5
271
100
AcDbEntity
  8
MAIN0
  6
CONTINUOUS
 62
3
100
AcDbLine
 10
86.81387032652370
 20
196.4192690363278
 30
0.0000000000000000
 11
85.02004108231469
 21
195.3836012393035
 31
0.0000000000000000
  0
LINE
  5
272
100
AcDbEntity
  8
MAIN0
  6
CONTINUOUS
 62
3
100
AcDbLine
 10
72.72621183810560
 20
196.4192690363278
 30
0.0000000000000000
 11
74.52004108231466
 21
195.3836012393035
 31
0.0000000000000000
  0
LINE
  5
273
100
AcDbEntity
  8
MAIN0
  6
CONTINUOUS
 62
3
100
AcDbLine
 10
75.47621183810557
 20
201.1824087571424
 30
0.0000000000000000
 11
77.27004108231461
 21
200.1467409601180
 31
0.0000000000000000
  0
ARC
  5
274
100
AcDbEntity
  8
MAIN0
  6
CONTINUOUS
 62
3
100
AcDbCircle
 10
79.77004108231455
 20
204.4768679790400
 30
0.0000000000000000
 40
5.000000000000000
100
AcDbArc
 50
240.0000000000003
 51
299.9999999999999
  0
ARC
  5
275
100
AcDbEntity
  8
MAIN0
  6
CONTINUOUS
 62
3
100
AcDbCircle
 10
87.52004108231466
 20
191.0534742203812
 30
0.0000000000000000
 40
5.000000000000000
100
AcDbArc
 50
120.0000000000000
 51
180.0000000000000
  0
ARC
  5
276
100
AcDbEntity
  8
MAIN0
  6
CONTINUOUS
 62
3
100
AcDbCircle
 10
72.02004108231478
 20
191.0534742203811
 30
0.0000000000000000
 40
5.000000000000000
100
AcDbArc
 50
0.0000000000000000
 51
60.00000000000002
  0
ARC
  5
277
100
AcDbEntity
  8
MAIN0
  6
CONTINUOUS
 62
3
100
AcDbCircle
 10
79.77004108231466
 20
195.5279388066008
 30
0.0000000000000000
 40
7.100000000000000
100
AcDbArc
 50
7.211910491681876
 51
52.78808950831827
  0
ARC
  5
278
100
AcDbEntity
  8
MAIN0
  6
CONTINUOUS
 62
3
100
AcDbCircle
 10
79.77004108231466
 20
195.5279388066008
 30
0.0000000000000000
 40
7.100000000000000
100
AcDbArc
 50
127.2119104916818
 51
172.7880895083184
  0
ARC
  5
279
100
AcDbEntity
  8
MAIN0
  6
CONTINUOUS
 62
3
100
AcDbCircle
 10
79.77004108231466
 20
195.5279388066008
 30
0.0000000000000000
 40
7.100000000000000
100
AcDbArc
 50
247.2119104916818
 51
292.7880895083182
  0
ARC
  5
27A
100
AcDbEntity
  8
MAIN0
  6
CONTINUOUS
 62
3
100
AcDbCircle
 10
79.77004108231466
 20
195.5279388066008
 30
0.0000000000000000
 40
5.000000000000000
100
AcDbArc
 50
63.49467867033077
 51
116.5053213296707
  0
ARC
  5
27B
100
AcDbEntity
  8
MAIN0
  6
CONTINUOUS
 62
3
100
AcDbCircle
 10
79.77004108231466
 20
195.5279388066008
 30
0.0000000000000000
 40
5.000000000000000
100
AcDbArc
 50
183.3670129692315
 51
236.5053213296712
  0
ARC
  5
27C
100
AcDbEntity
  8
MAIN0
  6
CONTINUOUS
 62
3
100
AcDbCircle
 10
79.77004108231466
 20
195.5279388066008
 30
0.0000000000000000
 40
5.000000000000000
100
AcDbArc
 50
303.4946786703297
 51
356.6329870307687
  0
LINE
  5
27D
100
AcDbEntity
  8
MAIN0
  6
HIDDEN
 62
3
100
AcDbLine
 10
321.4200410827010
 20
117.7739409971905
 30
0.0000000000000000
 11
321.4200410827010
 21
110.3739409971890
 31
0.0000000000000000
  0
LINE
  5
27E
100
AcDbEntity
  8
MAIN0
  6
HIDDEN
 62
3
100
AcDbLine
 10
321.7700410827010
 20
111.3739409971905
 30
0.0000000000000000
 11
317.7700410827010
 21
111.3739409971905
 31
0.0000000000000000
  0
LINE
  5
27F
100
AcDbEntity
  8
MAIN0
  6
HIDDEN
 62
3
100
AcDbLine
 10
318.1200410827009
 20
110.3739409971912
 30
0.0000000000000000
 11
318.1200410827009
 21
117.7739409971905
 31
0.0000000000000000
  0
LINE
  5
280
100
AcDbEntity
  8
MAIN0
  6
HIDDEN
 62
3
100
AcDbLine
 10
317.7700410827010
 20
111.3739409971905
 30
0.0000000000000000
 11
317.7700410827010
 21
118.1239409971905
 31
0.0000000000000000
  0
LINE
  5
281
100
AcDbEntity
  8
MAIN0
  6
HIDDEN
 62
3
100
AcDbLine
 10
321.7700410827010
 20
118.1239409971905
 30
0.0000000000000000
 11
321.7700410827010
 21
111.3739409971905
 31
0.0000000000000000
  0
LINE
  5
282
100
AcDbEntity
  8
MAIN0
  6
HIDDEN
 62
3
100
AcDbLine
 10
322.0200410827008
 20
118.3739409971905
 30
0.0000000000000000
 11
321.4200410827008
 21
117.7739409971904
 31
0.0000000000000000
  0
LINE
  5
283
100
AcDbEntity
  8
MAIN0
  6
HIDDEN
 62
3
100
AcDbLine
 10
318.1200410827010
 20
117.7739409971906
 30
0.0000000000000000
 11
317.5200410827010
 21
118.3739409971904
 31
0.0000000000000000
  0
LINE
  5
284
100
AcDbEntity
  8
MAIN0
  6
HIDDEN
 62
3
100
AcDbLine
 10
321.4200410827010
 20
117.7739409971905
 30
0.0000000000000000
 11
318.1200410827009
 21
117.7739409971905
 31
0.0000000000000000
  0
LINE
  5
285
100
AcDbEntity
  8
MAIN0
  6
CENTER
 62
3
100
AcDbLine
 10
319.7700410824959
 20
153.9591861254295
 30
0.0000000000000000
 11
319.7700410823044
 21
240.3461564934190
 31
0.0000000000000000
  0
LINE
  5
286
100
AcDbEntity
  8
MAIN0
  6
CENTER
 62
3
100
AcDbLine
 10
274.6879271851755
 20
195.5279388065466
 30
0.0000000000000000
 11
363.9665293245874
 21
195.5279388066867
 31
0.0000000000000000
  0
LINE
  5
287
100
AcDbEntity
  8
MAIN0
  6
CONTINUOUS
 62
3
100
AcDbLine
 10
325.2700410823717
 20
210.0279388066604
 30
0.0000000000000000
 11
325.2700410823138
 21
236.1573616427326
 31
0.0000000000000000
  0
LINE
  5
288
100
AcDbEntity
  8
MAIN0
  6
CONTINUOUS
 62
3
100
AcDbLine
 10
314.2700410823718
 20
210.0279388066604
 30
0.0000000000000000
 11
314.2700410823138
 21
236.1573616427081
 31
0.0000000000000000
  0
ARC
  5
289
100
AcDbEntity
  8
MAIN0
  6
CONTINUOUS
 62
3
100
AcDbCircle
 10
319.7700410824479
 20
195.5279388065597
 30
0.0000000000000000
 40
41.00000000000001
100
AcDbArc
 50
277.7092598600331
 51
442.2907401401340
  0
ARC
  5
28A
100
AcDbEntity
  8
MAIN0
  6
CONTINUOUS
 62
3
100
AcDbCircle
 10
319.7700410824479
 20
195.5279388065597
 30
0.0000000000000000
 40
41.00000000000001
100
AcDbArc
 50
97.70925986025682
 51
262.2907401399228
  0
LINE
  5
28B
100
AcDbEntity
  8
MAIN0
  6
CONTINUOUS
 62
3
100
AcDbLine
 10
342.2700410824225
 20
161.2533126233153
 30
0.0000000000000000
 11
342.2700410824225
 21
229.8025649898038
 31
0.0000000000000000
  0
LINE
  5
28C
100
AcDbEntity
  8
MAIN0
  6
CONTINUOUS
 62
3
100
AcDbLine
 10
297.2700410825369
 20
161.2533126232155
 30
0.0000000000000000
 11
297.2700410822329
 21
229.8025649897041
 31
0.0000000000000000
  0
LINE
  5
28D
100
AcDbEntity
  8
MAIN0
  6
CONTINUOUS
 62
3
100
AcDbLine
 10
339.2700410824225
 20
159.4620269228850
 30
0.0000000000000000
 11
339.2700410824225
 21
181.0279388066343
 31
0.0000000000000000
  0
LINE
  5
28E
100
AcDbEntity
  8
MAIN0
  6
CONTINUOUS
 62
3
100
AcDbLine
 10
339.2700410824225
 20
210.0279388066615
 30
0.0000000000000000
 11
339.2700410824225
 21
231.5938506902342
 31
0.0000000000000000
  0
LINE
  5
28F
100
AcDbEntity
  8
MAIN0
  6
CONTINUOUS
 62
3
100
AcDbLine
 10
300.2700410825449
 20
159.4620269227985
 30
0.0000000000000000
 11
300.2700410824493
 21
181.0279388065158
 31
0.0000000000000000
  0
LINE
  5
290
100
AcDbEntity
  8
MAIN0
  6
CONTINUOUS
 62
3
100
AcDbLine
 10
300.2700410823206
 20
210.0279388066577
 30
0.0000000000000000
 11
300.2700410822249
 21
231.5938506901477
 31
0.0000000000000000
  0
CIRCLE
  5
291
100
AcDbEntity
  8
MAIN0
  6
HIDDEN
 62
3
100
AcDbCircle
 10
319.7700410824040
 20
195.5279388065941
 30
0.0000000000000000
 40
15.00000000000000
  0
LINE
  5
292
100
AcDbEntity
  8
MAIN0
  6
CONTINUOUS
 62
3
100
AcDbLine
 10
340.2700410824225
 20
210.0279388066616
 30
0.0000000000000000
 11
340.2700410824225
 21
181.0279388066374
 31
0.0000000000000000
  0
LINE
  5
293
100
AcDbEntity
  8
MAIN0
  6
CONTINUOUS
 62
3
100
AcDbLine
 10
299.2700410827518
 20
210.0279388066576
 30
0.0000000000000000
 11
299.2700410827063
 21
181.0279388065127
 31
0.0000000000000000
  0
LINE
  5
294
100
AcDbEntity
  8
MAIN0
  6
CONTINUOUS
 62
3
100
AcDbLine
 10
299.2700410827518
 20
210.0279388066576
 30
0.0000000000000000
 11
340.2700410824224
 21
210.0279388066616
 31
0.0000000000000000
  0
LINE
  5
295
100
AcDbEntity
  8
MAIN0
  6
CENTER
 62
3
100
AcDbLine
 10
316.6956876417323
 20
226.0279388067369
 30
0.0000000000000000
 11
323.2748529252760
 21
226.0279388067369
 31
0.0000000000000000
  0
LINE
  5
296
100
AcDbEntity
  8
MAIN0
  6
CONTINUOUS
 62
3
100
AcDbLine
 10
311.4700410823050
 20
236.5279388066296
 30
0.0000000000000000
 11
328.0700410823049
 21
236.5279388066231
 31
0.0000000000000000
  0
LINE
  5
297
100
AcDbEntity
  8
MAIN0
  6
CONTINUOUS
 62
3
100
AcDbLine
 10
311.2700410823047
 20
236.3279388066298
 30
0.0000000000000000
 11
311.4700410823047
 21
236.5279388066297
 31
0.0000000000000000
  0
LINE
  5
298
100
AcDbEntity
  8
MAIN0
  6
CONTINUOUS
 62
3
100
AcDbLine
 10
314.2700410823049
 20
216.5279388066205
 30
0.0000000000000000
 11
325.2700410823049
 21
216.5279388066205
 31
0.0000000000000000
  0
LINE
  5
299
100
AcDbEntity
  8
MAIN0
  6
CONTINUOUS
 62
3
100
AcDbLine
 10
314.2700410823047
 20
223.5279388067910
 30
0.0000000000000000
 11
325.2700410823047
 21
223.5279388067932
 31
0.0000000000000000
  0
LINE
  5
29A
100
AcDbEntity
  8
MAIN0
  6
CONTINUOUS
 62
3
100
AcDbLine
 10
314.2700410823049
 20
228.5279388067369
 30
0.0000000000000000
 11
325.2700410823049
 21
228.5279388067369
 31
0.0000000000000000
  0
LINE
  5
29B
100
AcDbEntity
  8
MAIN0
  6
CENTER
 62
3
100
AcDbLine
 10
316.3970363514954
 20
232.5279388067369
 30
0.0000000000000000
 11
323.5536554770141
 21
232.5279388067369
 31
0.0000000000000000
  0
CIRCLE
  5
29C
100
AcDbEntity
  8
MAIN0
  6
CONTINUOUS
 62
3
100
AcDbCircle
 10
319.7700410823048
 20
232.5279388067368
 30
0.0000000000000000
 40
2.000000000000000
  0
CIRCLE
  5
29D
100
AcDbEntity
  8
MAIN0
  6
CONTINUOUS
 62
3
100
AcDbCircle
 10
319.7700410823048
 20
232.5279388067368
 30
0.0000000000000000
 40
1.650000000000000
  0
LINE
  5
29E
100
AcDbEntity
  8
MAIN0
  6
CENTER
 62
3
100
AcDbLine
 10
316.3970363514954
 20
219.5279388067348
 30
0.0000000000000000
 11
323.5536554770141
 21
219.5279388067348
 31
0.0000000000000000
  0
CIRCLE
  5
29F
100
AcDbEntity
  8
MAIN0
  6
CONTINUOUS
 62
3
100
AcDbCircle
 10
319.7700410823048
 20
226.0279388067368
 30
0.0000000000000000
 40
1.999999999970200
  0
LINE
  5
2A0
100
AcDbEntity
  8
MAIN0
  6
CONTINUOUS
 62
3
100
AcDbLine
 10
328.2700410823049
 20
236.3279388066302
 30
0.0000000000000000
 11
328.0700410823049
 21
236.5279388066301
 31
0.0000000000000000
  0
LINE
  5
2A1
100
AcDbEntity
  8
MAIN0
  6
CONTINUOUS
 62
3
100
AcDbLine
 10
328.2700410823048
 20
235.6371646779529
 30
0.0000000000000000
 11
328.2700410823048
 21
236.3279388066301
 31
0.0000000000000000
  0
LINE
  5
2A2
100
AcDbEntity
  8
MAIN0
  6
CONTINUOUS
 62
3
100
AcDbLine
 10
311.2700410823048
 20
235.6371646778922
 30
0.0000000000000000
 11
311.2700410823048
 21
236.3279388066297
 31
0.0000000000000000
  0
LINE
  5
2A3
100
AcDbEntity
  8
MAIN0
  6
CONTINUOUS
 62
3
100
AcDbLine
 10
314.2700410823047
 20
210.0279388066604
 30
0.0000000000000000
 11
314.2700410823048
 21
236.5279388066284
 31
0.0000000000000000
  0
LINE
  5
2A4
100
AcDbEntity
  8
MAIN0
  6
CONTINUOUS
 62
3
100
AcDbLine
 10
325.2700410823047
 20
210.0279388066604
 30
0.0000000000000000
 11
325.2700410823048
 21
236.5279388066284
 31
0.0000000000000000
  0
LEADER
  5
2A5
100
AcDbEntity
  8
MAIN0
  6
CONTINUOUS
 62
3
100
AcDbLeader
  3
MAIN001
 73
     0
 74
     0
 75
     1
 40
3.099999904632568
 41
26.11100072956083
 76
     3
 10
321.2437481671458
 20
227.3800436207103
 30
0.0000000000000000
 10
349.5706341505899
 20
253.3695494715527
 30
0.0000000000000000
 10
351.4956340947999
 20
253.3695494715527
 30
0.0000000000000000
340
2A6
213
0.0000000000000000
223
-0.5000000000000000
233
0.0000000000000000
1001
ACAD
1000
DSTYLE
1002
{
1070
   147
1040
0.0
1070
    77
1070
     1
1070
   173
1070
     1
1070
     6
1000
_OPEN
1070
     7
1000
_OPEN
1002
}
  0
MTEXT
  5
2A6
102
{ACAD_REACTORS
330
2A5
102
}
100
AcDbEntity
  8
MAIN0
  6
CONTINUOUS
 62
3
100
AcDbMText
 10
351.4966340947999
 20
256.9695493761853
 30
0.0000000000000000
 40
3.099999904632568
 41
0.0000000000000000
 71
     1
 72
     1
  1
{\H0.93x;{2-\U+22054H8 深5\PDepth 5}}
 11
1.000000000000000
 21
0.0000000000000000
 31
0.0000000000000000
  7
KNJYOKO
  0
LINE
  5
2A7
100
AcDbEntity
  8
MAIN0
  6
HIDDEN
 62
3
100
AcDbLine
 10
318.1200410827058
 20
110.3739409971887
 30
0.0000000000000000
 11
321.4200410827057
 21
110.3739409971924
 31
0.0000000000000000
  0
CIRCLE
  5
2A8
100
AcDbEntity
  8
MAIN0
  6
CONTINUOUS
 62
3
100
AcDbCircle
 10
79.77004108235855
 20
195.5279388065663
 30
0.0000000000000000
 40
41.00000000000001
  0
LINE
  5
2A9
100
AcDbEntity
  8
MAIN0
  6
CENTER
 62
3
100
AcDbLine
 10
125.2713963369884
 20
195.5279388065181
 30
0.0000000000000000
 11
36.36340219948420
 21
195.5279388066798
 31
0.0000000000000000
  0
LINE
  5
2AA
100
AcDbEntity
  8
MAIN0
  6
CENTER
 62
3
100
AcDbLine
 10
79.77004108230864
 20
148.6104140776480
 30
0.0000000000000000
 11
79.77004108232029
 21
239.7505613417631
 31
0.0000000000000000
  0
ARC
  5
2AB
100
AcDbEntity
  8
MAIN0
  6
CONTINUOUS
 62
3
100
AcDbCircle
 10
79.77004108231466
 20
195.5279388066008
 30
0.0000000000000000
 40
26.50000000032736
100
AcDbArc
 50
189.5651405306170
 51
230.4348594691721
  0
CIRCLE
  5
2AC
100
AcDbEntity
  8
MAIN0
  6
CONTINUOUS
 62
3
100
AcDbCircle
 10
79.77004108231466
 20
195.5279388066008
 30
0.0000000000000000
 40
11.00000000032736
  0
CIRCLE
  5
2AD
100
AcDbEntity
  8
MAIN0
  6
CONTINUOUS
 62
3
100
AcDbCircle
 10
79.77004108231466
 20
195.5279388066008
 30
0.0000000000000000
 40
13.49999999970764
  0
CIRCLE
  5
2AE
100
AcDbEntity
  8
MAIN0
  6
CONTINUOUS
 62
3
100
AcDbCircle
 10
79.77004108231466
 20
195.5279388066008
 30
0.0000000000000000
 40
12.69999999977492
  0
LINE
  5
2AF
100
AcDbEntity
  8
MAIN0
  6
CENTER
 62
3
100
AcDbLine
 10
54.41186123302975
 20
180.8873868445134
 30
0.0000000000000000
 11
105.0578845001276
 21
210.1278820111170
 31
0.0000000000000000
  0
LINE
  5
2B0
100
AcDbEntity
  8
MAIN0
  6
CENTER
 62
3
100
AcDbLine
 10
53.99835266814853
 20
210.4072300501259
 30
0.0000000000000000
 11
106.2251204484732
 21
180.2540916132932
 31
0.0000000000000000
  0
CIRCLE
  5
2B1
100
AcDbEntity
  8
MAIN0
  6
CENTER
 62
3
100
AcDbCircle
 10
79.77004108231466
 20
195.5279388066008
 30
0.0000000000000000
 40
18.50000000000000
  0
LINE
  5
2B2
100
AcDbEntity
  8
MAIN0
  6
CENTER
 62
3
100
AcDbLine
 10
68.36385922705247
 20
214.5110132413015
 30
0.0000000000000000
 11
72.35945198491635
 21
207.8612301945585
 31
0.0000000000000000
  0
LINE
  5
2B3
100
AcDbEntity
  8
MAIN0
  6
CENTER
 62
3
100
AcDbLine
 10
91.03677781402828
 20
215.0424992612445
 30
0.0000000000000000
 11
87.02508096316996
 21
208.0940364909895
 31
0.0000000000000000
  0
ARC
  5
2B4
100
AcDbEntity
  8
MAIN0
  6
CONTINUOUS
 62
3
100
AcDbCircle
 10
79.77004108231466
 20
195.5279388066008
 30
0.0000000000000000
 40
16.00000000034635
100
AcDbArc
 50
59.99999999970722
 51
120.9999999983600
  0
ARC
  5
2B5
100
AcDbEntity
  8
MAIN0
  6
CONTINUOUS
 62
3
100
AcDbCircle
 10
79.77004108231466
 20
195.5279388066008
 30
0.0000000000000000
 40
21.00000000034635
100
AcDbArc
 50
59.99999999970722
 51
120.9999999983601
  0
LINE
  5
2B6
100
AcDbEntity
  8
MAIN0
  6
CENTER
 62
3
100
AcDbLine
 10
95.02657975870096
 20
213.3910504964599
 30
0.0000000000000000
 11
91.27510498678885
 21
208.9986378874850
 31
0.0000000000000000
  0
CIRCLE
  5
2B7
100
AcDbEntity
  8
MAIN0
  6
CONTINUOUS
 62
3
100
AcDbCircle
 10
93.01878126813065
 20
211.0402205049350
 30
0.0000000000000000
 40
2.000000000000000
  0
ARC
  5
2B8
100
AcDbEntity
  8
MAIN0
  6
CONTINUOUS
 62
3
100
AcDbCircle
 10
65.52004108262756
 20
170.8462147993761
 30
0.0000000000000000
 40
5.000000000000000
100
AcDbArc
 50
59.99999999996390
 51
121.7262863808990
  0
ARC
  5
2B9
100
AcDbEntity
  8
MAIN0
  6
CONTINUOUS
 62
3
100
AcDbCircle
 10
51.27004108298672
 20
195.5279388066438
 30
0.0000000000000000
 40
5.000000000000000
100
AcDbArc
 50
298.2737136190340
 51
359.9999999999691
  0
ARC
  5
2BA
100
AcDbEntity
  8
MAIN0
  6
HIDDEN
 62
3
100
AcDbCircle
 10
79.77004108231466
 20
195.5279388066008
 30
0.0000000000000000
 40
23.49999999965371
100
AcDbArc
 50
180.0000000000000
 51
239.9999999999098
  0
ARC
  5
2BB
100
AcDbEntity
  8
MAIN0
  6
CONTINUOUS
 62
3
100
AcDbCircle
 10
108.2700410816111
 20
195.5279388065559
 30
0.0000000000000000
 40
5.000000000000000
100
AcDbArc
 50
179.9999999999639
 51
241.7262863808989
  0
ARC
  5
2BC
100
AcDbEntity
  8
MAIN0
  6
CONTINUOUS
 62
3
100
AcDbCircle
 10
79.77004108231466
 20
195.5279388066008
 30
0.0000000000000000
 40
26.50000000032736
100
AcDbArc
 50
309.5651405306170
 51
350.4348594691720
  0
ARC
  5
2BD
100
AcDbEntity
  8
MAIN0
  6
CONTINUOUS
 62
3
100
AcDbCircle
 10
94.02004108194137
 20
170.8462147993047
 30
0.0000000000000000
 40
5.000000000000000
100
AcDbArc
 50
58.27371361903404
 51
119.9999999999691
  0
ARC
  5
2BE
100
AcDbEntity
  8
MAIN0
  6
CONTINUOUS
 62
3
100
AcDbCircle
 10
65.52004108270532
 20
220.2096628138704
 30
0.0000000000000000
 40
5.000000000000000
100
AcDbArc
 50
299.9999999999639
 51
361.7262863808989
  0
ARC
  5
2BF
100
AcDbEntity
  8
MAIN0
  6
CONTINUOUS
 62
3
100
AcDbCircle
 10
79.77004108231466
 20
195.5279388066008
 30
0.0000000000000000
 40
26.50000000032736
100
AcDbArc
 50
69.56514053061699
 51
110.4348594691720
  0
ARC
  5
2C0
100
AcDbEntity
  8
MAIN0
  6
CONTINUOUS
 62
3
100
AcDbCircle
 10
94.02004108201592
 20
220.2096628138538
 30
0.0000000000000000
 40
5.000000000000000
100
AcDbArc
 50
178.2737136190340
 51
239.9999999999691
  0
ARC
  5
2C1
100
AcDbEntity
  8
MAIN0
  6
CONTINUOUS
 62
3
100
AcDbCircle
 10
79.77004108231466
 20
195.5279388066008
 30
0.0000000000000000
 40
23.49999999965371
100
AcDbArc
 50
119.9999999999097
 51
180.0000000000000
  0
ARC
  5
2C2
100
AcDbEntity
  8
MAIN0
  6
CONTINUOUS
 62
3
100
AcDbCircle
 10
79.77004108231466
 20
195.5279388066008
 30
0.0000000000000000
 40
23.49999999965371
100
AcDbArc
 50
239.9999999999098
 51
299.9999999999134
  0
ARC
  5
2C3
100
AcDbEntity
  8
MAIN0
  6
CONTINUOUS
 62
3
100
AcDbCircle
 10
79.77004108231466
 20
195.5279388066008
 30
0.0000000000000000
 40
23.49999999965371
100
AcDbArc
 50
0.0000000000000000
 51
59.99999999991341
  0
ARC
  5
2C4
100
AcDbEntity
  8
MAIN0
  6
HIDDEN
 62
3
100
AcDbCircle
 10
79.77004108231466
 20
195.5279388066008
 30
0.0000000000000000
 40
23.49999999965371
100
AcDbArc
 50
299.9999999999999
 51
359.9999999999097
  0
ARC
  5
2C5
100
AcDbEntity
  8
MAIN0
  6
HIDDEN
 62
3
100
AcDbCircle
 10
79.77004108231466
 20
195.5279388066008
 30
0.0000000000000000
 40
23.49999999965371
100
AcDbArc
 50
59.99999999999993
 51
119.9999999999097
  0
LINE
  5
2C6
100
AcDbEntity
  8
MAIN0
  6
CENTER
 62
3
100
AcDbLine
 10
65.45455982341844
 20
170.7327979314826
 30
0.0000000000000000
 11
79.77004108229158
 21
195.5279388066142
 31
0.0000000000000000
  0
CIRCLE
  5
2C7
100
AcDbEntity
  8
MAIN0
  6
CONTINUOUS
 62
3
100
AcDbCircle
 10
70.52004108228127
 20
179.5064688366080
 30
0.0000000000000000
 40
3.000000000000000
  0
CIRCLE
  5
2C8
100
AcDbEntity
  8
MAIN0
  6
CONTINUOUS
 62
3
100
AcDbCircle
 10
98.27004108231463
 20
195.5279388065623
 30
0.0000000000000000
 40
3.000000000000000
  0
ARC
  5
2C9
100
AcDbEntity
  8
MAIN0
  6
CENTER
 62
3
100
AcDbCircle
 10
79.77004108231466
 20
195.5279388066008
 30
0.0000000000000000
 40
20.40000000000000
100
AcDbArc
 50
40.27779954844056
 51
139.9598966212494
  0
ARC
  5
2CA
100
AcDbEntity
  8
MAIN0
  6
CONTINUOUS
 62
3
100
AcDbCircle
 10
94.02004108194137
 20
170.8462147993047
 30
0.0000000000000000
 40
6.000000000000000
100
AcDbArc
 50
55.27102365042295
 51
150.0604866178241
  0
ARC
  5
2CB
100
AcDbEntity
  8
MAIN0
  6
CONTINUOUS
 62
3
100
AcDbCircle
 10
94.02004108201592
 20
220.2096628138538
 30
0.0000000000000000
 40
6.000000000000000
100
AcDbArc
 50
175.2710236504229
 51
270.0604866178240
  0
ARC
  5
2CC
100
AcDbEntity
  8
MAIN0
  6
CONTINUOUS
 62
3
100
AcDbCircle
 10
51.27004108298672
 20
195.5279388066438
 30
0.0000000000000000
 40
6.000000000000000
100
AcDbArc
 50
295.2710236504229
 51
390.0604866178240
  0
ARC
  5
2CD
100
AcDbEntity
  8
MAIN0
  6
CONTINUOUS
 62
3
100
AcDbCircle
 10
89.02004108239257
 20
211.5494087765588
 30
0.0000000000000000
 40
2.500000000000000
100
AcDbArc
 50
240.0000000000159
 51
329.3554696624508
  0
ARC
  5
2CE
100
AcDbEntity
  8
MAIN0
  6
CONTINUOUS
 62
3
100
AcDbCircle
 10
89.02004108239257
 20
211.5494087765588
 30
0.0000000000000000
 40
2.500000000000000
100
AcDbArc
 50
16.13087392849408
 51
60.00000000001423
  0
ARC
  5
2CF
100
AcDbEntity
  8
MAIN0
  6
CONTINUOUS
 62
3
100
AcDbCircle
 10
70.24183669693238
 20
211.3855338698630
 30
0.0000000000000000
 40
2.500000000000000
100
AcDbArc
 50
120.9999999999934
 51
164.8691260891317
  0
ARC
  5
2D0
100
AcDbEntity
  8
MAIN0
  6
CONTINUOUS
 62
3
100
AcDbCircle
 10
70.24183669693238
 20
211.3855338698630
 30
0.0000000000000000
 40
2.500000000000000
100
AcDbArc
 50
211.6445303269193
 51
300.9999999999926
  0
LINE
  5
2D1
100
AcDbEntity
  8
MAIN0
  6
CENTER
 62
3
100
AcDbLine
 10
334.7700410825205
 20
178.4310111689299
 30
0.0000000000000000
 11
334.7700410825859
 21
167.0270772908158
 31
0.0000000000000000
  0
LINE
  5
2D2
100
AcDbEntity
  8
MAIN0
  6
CENTER
 62
3
100
AcDbLine
 10
329.0278771514643
 20
173.0279388066271
 30
0.0000000000000000
 11
344.4023170654590
 21
173.0279388067139
 31
0.0000000000000000
  0
CIRCLE
  5
2D3
100
AcDbEntity
  8
MAIN0
  6
CONTINUOUS
 62
3
100
AcDbCircle
 10
334.7700410825515
 20
173.0279388066595
 30
0.0000000000000000
 40
4.000000000000000
  0
LINE
  5
2D4
100
AcDbEntity
  8
MAIN0
  6
HIDDEN
 62
3
100
AcDbLine
 10
338.4781403261077
 20
171.5279388066802
 30
0.0000000000000000
 11
342.0200410825649
 21
171.5279388067005
 31
0.0000000000000000
  0
LINE
  5
2D5
100
AcDbEntity
  8
MAIN0
  6
HIDDEN
 62
3
100
AcDbLine
 10
338.5697121209512
 20
171.7779388066807
 30
0.0000000000000000
 11
341.7700410825635
 21
171.7779388066990
 31
0.0000000000000000
  0
LINE
  5
2D6
100
AcDbEntity
  8
MAIN0
  6
HIDDEN
 62
3
100
AcDbLine
 10
341.7700410825634
 20
171.7779388066991
 30
0.0000000000000000
 11
342.2700410825663
 21
171.2779388067020
 31
0.0000000000000000
  0
LINE
  5
2D7
100
AcDbEntity
  8
MAIN0
  6
HIDDEN
 62
3
100
AcDbLine
 10
341.7700410825491
 20
174.2779388066990
 30
0.0000000000000000
 11
341.7700410825635
 21
171.7779388066990
 31
0.0000000000000000
  0
LINE
  5
2D8
100
AcDbEntity
  8
MAIN0
  6
HIDDEN
 62
3
100
AcDbLine
 10
341.7700410825491
 20
174.2779388066990
 30
0.0000000000000000
 11
338.5697121209371
 21
174.2779388066807
 31
0.0000000000000000
  0
LINE
  5
2D9
100
AcDbEntity
  8
MAIN0
  6
HIDDEN
 62
3
100
AcDbLine
 10
342.2700410825462
 20
174.7779388067020
 30
0.0000000000000000
 11
341.7700410825491
 21
174.2779388066991
 31
0.0000000000000000
  0
LINE
  5
2DA
100
AcDbEntity
  8
MAIN0
  6
HIDDEN
 62
3
100
AcDbLine
 10
342.0200410825477
 20
174.5279388067005
 30
0.0000000000000000
 11
338.4781403260910
 21
174.5279388066802
 31
0.0000000000000000
  0
LINE
  5
2DB
100
AcDbEntity
  8
MAIN0
  6
CENTER
 62
3
100
AcDbLine
 10
304.7700410823627
 20
178.4310111688634
 30
0.0000000000000000
 11
304.7700410823479
 21
167.0270772907493
 31
0.0000000000000000
  0
LINE
  5
2DC
100
AcDbEntity
  8
MAIN0
  6
CENTER
 62
3
100
AcDbLine
 10
310.5122050134430
 20
173.0279388065860
 30
0.0000000000000000
 11
295.1377650994483
 21
173.0279388066047
 31
0.0000000000000000
  0
CIRCLE
  5
2DD
100
AcDbEntity
  8
MAIN0
  6
CONTINUOUS
 62
3
100
AcDbCircle
 10
304.7700410823557
 20
173.0279388065930
 30
0.0000000000000000
 40
4.000000000000000
  0
LINE
  5
2DE
100
AcDbEntity
  8
MAIN0
  6
HIDDEN
 62
3
100
AcDbLine
 10
301.0619418388062
 20
171.5279388065972
 30
0.0000000000000000
 11
297.5200410823490
 21
171.5279388066018
 31
0.0000000000000000
  0
LINE
  5
2DF
100
AcDbEntity
  8
MAIN0
  6
HIDDEN
 62
3
100
AcDbLine
 10
300.9703700439616
 20
171.7779388065973
 30
0.0000000000000000
 11
297.7700410823493
 21
171.7779388066015
 31
0.0000000000000000
  0
LINE
  5
2E0
100
AcDbEntity
  8
MAIN0
  6
HIDDEN
 62
3
100
AcDbLine
 10
297.7700410823493
 20
171.7779388066015
 30
0.0000000000000000
 11
297.2700410823487
 21
171.2779388066022
 31
0.0000000000000000
  0
LINE
  5
2E1
100
AcDbEntity
  8
MAIN0
  6
HIDDEN
 62
3
100
AcDbLine
 10
297.7700410823525
 20
174.2779388066015
 30
0.0000000000000000
 11
297.7700410823493
 21
171.7779388066015
 31
0.0000000000000000
  0
LINE
  5
2E2
100
AcDbEntity
  8
MAIN0
  6
HIDDEN
 62
3
100
AcDbLine
 10
297.7700410823526
 20
174.2779388066015
 30
0.0000000000000000
 11
300.9703700439645
 21
174.2779388065973
 31
0.0000000000000000
  0
LINE
  5
2E3
100
AcDbEntity
  8
MAIN0
  6
HIDDEN
 62
3
100
AcDbLine
 10
297.2700410823532
 20
174.7779388066022
 30
0.0000000000000000
 11
297.7700410823525
 21
174.2779388066016
 31
0.0000000000000000
  0
LINE
  5
2E4
100
AcDbEntity
  8
MAIN0
  6
HIDDEN
 62
3
100
AcDbLine
 10
297.5200410823529
 20
174.5279388066018
 30
0.0000000000000000
 11
301.0619418388096
 21
174.5279388065972
 31
0.0000000000000000
  0
LINE
  5
2E5
100
AcDbEntity
  8
MAIN0
  6
CENTER
 62
3
100
AcDbLine
 10
304.7700410823091
 20
212.6248664443243
 30
0.0000000000000000
 11
304.7700410822585
 21
224.0288003224384
 31
0.0000000000000000
  0
LINE
  5
2E6
100
AcDbEntity
  8
MAIN0
  6
CENTER
 62
3
100
AcDbLine
 10
310.5122050133724
 20
218.0279388066196
 30
0.0000000000000000
 11
295.1377650993777
 21
218.0279388065527
 31
0.0000000000000000
  0
CIRCLE
  5
2E7
100
AcDbEntity
  8
MAIN0
  6
CONTINUOUS
 62
3
100
AcDbCircle
 10
304.7700410822852
 20
218.0279388065946
 30
0.0000000000000000
 40
4.000000000000000
  0
LINE
  5
2E8
100
AcDbEntity
  8
MAIN0
  6
HIDDEN
 62
3
100
AcDbLine
 10
301.0619418387310
 20
219.5279388065788
 30
0.0000000000000000
 11
297.5200410822737
 21
219.5279388065631
 31
0.0000000000000000
  0
LINE
  5
2E9
100
AcDbEntity
  8
MAIN0
  6
HIDDEN
 62
3
100
AcDbLine
 10
300.9703700438872
 20
219.2779388065784
 30
0.0000000000000000
 11
297.7700410822748
 21
219.2779388065642
 31
0.0000000000000000
  0
LINE
  5
2EA
100
AcDbEntity
  8
MAIN0
  6
HIDDEN
 62
3
100
AcDbLine
 10
297.7700410822748
 20
219.2779388065641
 30
0.0000000000000000
 11
297.2700410822725
 21
219.7779388065619
 31
0.0000000000000000
  0
LINE
  5
2EB
100
AcDbEntity
  8
MAIN0
  6
HIDDEN
 62
3
100
AcDbLine
 10
297.7700410822859
 20
216.7779388065642
 30
0.0000000000000000
 11
297.7700410822748
 21
219.2779388065642
 31
0.0000000000000000
  0
LINE
  5
2EC
100
AcDbEntity
  8
MAIN0
  6
HIDDEN
 62
3
100
AcDbLine
 10
297.7700410822859
 20
216.7779388065642
 30
0.0000000000000000
 11
300.9703700438978
 21
216.7779388065784
 31
0.0000000000000000
  0
LINE
  5
2ED
100
AcDbEntity
  8
MAIN0
  6
HIDDEN
 62
3
100
AcDbLine
 10
297.2700410822881
 20
216.2779388065619
 30
0.0000000000000000
 11
297.7700410822858
 21
216.7779388065641
 31
0.0000000000000000
  0
LINE
  5
2EE
100
AcDbEntity
  8
MAIN0
  6
HIDDEN
 62
3
100
AcDbLine
 10
297.5200410822870
 20
216.5279388065631
 30
0.0000000000000000
 11
301.0619418387437
 21
216.5279388065788
 31
0.0000000000000000
  0
CIRCLE
  5
2EF
100
AcDbEntity
  8
MAIN0
  6
CONTINUOUS
 62
3
100
AcDbCircle
 10
319.7700410823048
 20
219.5279388067348
 30
0.0000000000000000
 40
2.000000000000000
  0
CIRCLE
  5
2F0
100
AcDbEntity
  8
MAIN0
  6
CONTINUOUS
 62
3
100
AcDbCircle
 10
319.7700410823048
 20
219.5279388067348
 30
0.0000000000000000
 40
1.650000000000000
  0
CIRCLE
  5
2F1
100
AcDbEntity
  8
MAIN0
  6
CONTINUOUS
 62
3
100
AcDbCircle
 10
319.7700410823048
 20
232.5279388067368
 30
0.0000000000000000
 40
1.500000000000000
  0
CIRCLE
  5
2F2
100
AcDbEntity
  8
MAIN0
  6
CONTINUOUS
 62
3
100
AcDbCircle
 10
319.7700410823048
 20
232.5279388067368
 30
0.0000000000000000
 40
1.250000000000000
  0
CIRCLE
  5
2F3
100
AcDbEntity
  8
MAIN0
  6
CONTINUOUS
 62
3
100
AcDbCircle
 10
79.77004108231225
 20
177.0279388062544
 30
0.0000000000000000
 40
4.000000000000000
  0
CIRCLE
  5
2F4
100
AcDbEntity
  8
MAIN0
  6
CONTINUOUS
 62
3
100
AcDbCircle
 10
95.79151105262548
 20
186.2779388064255
 30
0.0000000000000000
 40
4.000000000000000
  0
CIRCLE
  5
2F5
100
AcDbEntity
  8
MAIN0
  6
CONTINUOUS
 62
3
100
AcDbCircle
 10
95.79151105262787
 20
204.7779388067719
 30
0.0000000000000000
 40
4.000000000000000
  0
CIRCLE
  5
2F6
100
AcDbEntity
  8
MAIN0
  6
CONTINUOUS
 62
3
100
AcDbCircle
 10
63.74857111200390
 20
204.7779388067760
 30
0.0000000000000000
 40
4.000000000000000
  0
CIRCLE
  5
2F7
100
AcDbEntity
  8
MAIN0
  6
CONTINUOUS
 62
3
100
AcDbCircle
 10
63.74857111200151
 20
186.2779388064298
 30
0.0000000000000000
 40
4.000000000000000
  0
ARC
  5
2F8
100
AcDbEntity
  8
MAIN0
  6
HIDDEN
 62
3
100
AcDbCircle
 10
60.27004108231472
 20
195.5279388066342
 30
0.0000000000000000
 40
2.000000000000000
100
AcDbArc
 50
90.00000000001516
 51
270.0000000000152
  0
LINE
  5
2F9
100
AcDbEntity
  8
MAIN0
  6
HIDDEN
 62
3
100
AcDbLine
 10
60.27004108231097
 20
193.5279388066363
 30
0.0000000000000000
 11
62.27004108231097
 21
193.5279388066326
 31
0.0000000000000000
  0
ARC
  5
2FA
100
AcDbEntity
  8
MAIN0
  6
HIDDEN
 62
3
100
AcDbCircle
 10
62.27004108231472
 20
195.5279388066347
 30
0.0000000000000000
 40
2.000000000000000
100
AcDbArc
 50
270.0000000000152
 51
450.0000000000152
  0
LINE
  5
2FB
100
AcDbEntity
  8
MAIN0
  6
HIDDEN
 62
3
100
AcDbLine
 10
60.27004108231824
 20
197.5279388066363
 30
0.0000000000000000
 11
62.27004108231824
 21
197.5279388066326
 31
0.0000000000000000
  0
CIRCLE
  5
2FC
100
AcDbEntity
  8
MAIN0
  6
CONTINUOUS
 62
3
100
AcDbCircle
 10
79.77004108231225
 20
177.0279388062544
 30
0.0000000000000000
 40
2.250000000000000
  0
SPLINE
  5
2FD
100
AcDbEntity
  8
MAIN0
  6
CONTINUOUS
 62
3
100
AcDbSpline
210
0.0000000000000000
220
0.0000000000000000
230
1.000000000000000
 70
     8
 71
     3
 72
    14
 73
    10
 74
     0
 42
1.000000000000000e-007
 43
1.000000000000000e-007
 12
-1.001522590761283
 22
-0.04257640356610182
 32
0.0000000000000000
 13
-0.4899089337272926
 23
0.8993782668378856
 33
0.0000000000000000
 40
0.0000000000000000
 40
0.0000000000000000
 40
0.0000000000000000
 40
0.0000000000000000
 40
2.502009662420939
 40
7.008362888035727
 40
9.998005935477272
 40
14.11453036316244
 40
19.23184005883064
 40
24.71111431509295
 40
27.94057315797495
 40
27.94057315797495
 40
27.94057315797495
 40
27.94057315797495
 10
227.3700410823848
 20
217.0242142468120
 30
0.0000000000000000
 10
226.5347680159790
 20
216.9887053891075
 30
0.0000000000000000
 10
224.1950900971055
 20
216.8892417602215
 30
0.0000000000000000
 10
220.9245221115103
 20
216.7677177414449
 30
0.0000000000000000
 10
216.8662202174928
 20
218.1641356504651
 30
0.0000000000000000
 10
216.3397204758945
 20
222.6943052875441
 30
0.0000000000000000
 10
212.5650288573621
 20
226.4601909420228
 30
0.0000000000000000
 10
214.3195833773680
 20
231.5246834874993
 30
0.0000000000000000
 10
212.8974213284623
 20
234.1354985811868
 30
0.0000000000000000
 10
212.3700410823848
 20
235.1036669468319
 30
0.0000000000000000
  0
LINE
  5
2FE
100
AcDbEntity
  8
MAIN0
  6
CENTER
 62
3
100
AcDbLine
 10
334.7700410824225
 20
212.6248664443908
 30
0.0000000000000000
 11
334.7700410824225
 21
224.0288003225049
 31
0.0000000000000000
  0
LINE
  5
2FF
100
AcDbEntity
  8
MAIN0
  6
CENTER
 62
3
100
AcDbLine
 10
329.0278771513353
 20
218.0279388066606
 30
0.0000000000000000
 11
344.4023170653300
 21
218.0279388066620
 31
0.0000000000000000
  0
CIRCLE
  5
300
100
AcDbEntity
  8
MAIN0
  6
CONTINUOUS
 62
3
100
AcDbCircle
 10
334.7700410824225
 20
218.0279388066611
 30
0.0000000000000000
 40
4.000000000000000
  0
LINE
  5
301
100
AcDbEntity
  8
MAIN0
  6
HIDDEN
 62
3
100
AcDbLine
 10
338.4781403259701
 20
219.5279388066618
 30
0.0000000000000000
 11
342.0200410824273
 21
219.5279388066618
 31
0.0000000000000000
  0
LINE
  5
302
100
AcDbEntity
  8
MAIN0
  6
HIDDEN
 62
3
100
AcDbLine
 10
338.5697121208150
 20
219.2779388066618
 30
0.0000000000000000
 11
341.7700410824273
 21
219.2779388066618
 31
0.0000000000000000
  0
LINE
  5
303
100
AcDbEntity
  8
MAIN0
  6
HIDDEN
 62
3
100
AcDbLine
 10
341.7700410824273
 20
219.2779388066617
 30
0.0000000000000000
 11
342.2700410824273
 21
219.7779388066617
 31
0.0000000000000000
  0
LINE
  5
304
100
AcDbEntity
  8
MAIN0
  6
HIDDEN
 62
3
100
AcDbLine
 10
341.7700410824273
 20
216.7779388066618
 30
0.0000000000000000
 11
341.7700410824273
 21
219.2779388066618
 31
0.0000000000000000
  0
LINE
  5
305
100
AcDbEntity
  8
MAIN0
  6
HIDDEN
 62
3
100
AcDbLine
 10
341.7700410824273
 20
216.7779388066618
 30
0.0000000000000000
 11
338.5697121208153
 21
216.7779388066618
 31
0.0000000000000000
  0
LINE
  5
306
100
AcDbEntity
  8
MAIN0
  6
HIDDEN
 62
3
100
AcDbLine
 10
342.2700410824273
 20
216.2779388066617
 30
0.0000000000000000
 11
341.7700410824273
 21
216.7779388066617
 31
0.0000000000000000
  0
LINE
  5
307
100
AcDbEntity
  8
MAIN0
  6
HIDDEN
 62
3
100
AcDbLine
 10
342.0200410824273
 20
216.5279388066618
 30
0.0000000000000000
 11
338.4781403259706
 21
216.5279388066618
 31
0.0000000000000000
  0
LINE
  5
308
100
AcDbEntity
  8
MAIN0
  6
CONTINUOUS
 62
3
100
AcDbLine
 10
343.2700410820399
 20
89.77394099728446
 30
0.0000000000000000
 11
343.2700410820399
 21
93.37394099717557
 31
0.0000000000000000
  0
LINE
  5
309
100
AcDbEntity
  8
MAIN0
  6
CONTINUOUS
 62
3
100
AcDbLine
 10
293.6384621349462
 20
86.17394099716870
 30
0.0000000000000000
 11
293.6384621349462
 21
89.37394099717579
 31
0.0000000000000000
  0
LINE
  5
30A
100
AcDbEntity
  8
MAIN0
  6
CONTINUOUS
 62
3
100
AcDbLine
 10
294.0384621349461
 20
85.77394099716892
 30
0.0000000000000000
 11
293.6384621349463
 21
86.17394099716867
 31
0.0000000000000000
  0
LINE
  5
30B
100
AcDbEntity
  8
MAIN0
  6
CONTINUOUS
 62
3
100
AcDbLine
 10
343.2700410820399
 20
93.37394099717560
 30
0.0000000000000000
 11
342.8700410820399
 21
93.77394099717557
 31
0.0000000000000000
  0
LINE
  5
30C
100
AcDbEntity
  8
MAIN0
  6
CONTINUOUS
 62
3
100
AcDbLine
 10
294.0384621349464
 20
89.77394099717566
 30
0.0000000000000000
 11
308.0200410828926
 21
89.77394099717441
 31
0.0000000000000000
  0
LINE
  5
30D
100
AcDbEntity
  8
MAIN0
  6
CONTINUOUS
 62
3
100
AcDbLine
 10
293.6384621349463
 20
89.37394099717585
 30
0.0000000000000000
 11
294.0384621349463
 21
89.77394099717583
 31
0.0000000000000000
  0
LINE
  5
30E
100
AcDbEntity
  8
MAIN0
  6
CONTINUOUS
 62
3
100
AcDbLine
 10
296.2700410820398
 20
93.37394099717564
 30
0.0000000000000000
 11
296.6700410820398
 21
93.77394099717562
 31
0.0000000000000000
  0
LINE
  5
30F
100
AcDbEntity
  8
MAIN0
  6
CONTINUOUS
 62
3
100
AcDbLine
 10
332.4700410816703
 20
80.77394099717444
 30
0.0000000000000000
 11
307.0700410826588
 21
80.77394099717108
 31
0.0000000000000000
  0
LINE
  5
310
100
AcDbEntity
  8
MAIN0
  6
CONTINUOUS
 62
3
100
AcDbLine
 10
306.2700410825161
 20
82.15958164346857
 30
0.0000000000000000
 11
306.2700410825080
 21
85.77394099717121
 31
0.0000000000000000
  0
LINE
  5
311
100
AcDbEntity
  8
MAIN0
  6
CONTINUOUS
 62
3
100
AcDbLine
 10
333.2700410825161
 20
82.15958164469863
 30
0.0000000000000000
 11
333.2700410825080
 21
85.77394099717436
 31
0.0000000000000000
  0
LINE
  5
312
100
AcDbEntity
  8
MAIN0
  6
CONTINUOUS
 62
3
100
AcDbLine
 10
307.0700410826589
 20
80.77394099717093
 30
0.0000000000000000
 11
306.2700410825163
 21
82.15958164346770
 31
0.0000000000000000
  0
LINE
  5
313
100
AcDbEntity
  8
MAIN0
  6
CONTINUOUS
 62
3
100
AcDbLine
 10
332.4700410816702
 20
80.77394099717434
 30
0.0000000000000000
 11
333.2700410825160
 21
82.15958164469861
 31
0.0000000000000000
  0
ARC
  5
314
100
AcDbEntity
  8
MAIN0
  6
CONTINUOUS
 62
3
100
AcDbCircle
 10
295.8700410820398
 20
90.17394099717563
 30
0.0000000000000000
 40
0.4000000000000000
100
AcDbArc
 50
270.0000000000000
 51
360.0000000000000
  0
LINE
  5
315
100
AcDbEntity
  8
MAIN0
  6
CONTINUOUS
 62
3
100
AcDbLine
 10
302.8907314119239
 20
85.77394099717057
 30
0.0000000000000000
 11
302.8907314119255
 21
89.77394099717489
 31
0.0000000000000000
  0
LINE
  5
316
100
AcDbEntity
  8
MAIN0
  6
CONTINUOUS
 62
3
100
AcDbLine
 10
336.6493507530909
 20
85.77394099724872
 30
0.0000000000000000
 11
336.6493507530708
 21
89.77394099725315
 31
0.0000000000000000
  0
LINE
  5
317
100
AcDbEntity
  8
MAIN0
  6
CONTINUOUS
 62
3
100
AcDbLine
 10
296.6700410820399
 20
93.77394099717549
 30
0.0000000000000000
 11
342.8700410820399
 21
93.77394099717543
 31
0.0000000000000000
  0
LINE
  5
318
100
AcDbEntity
  8
MAIN0
  6
CONTINUOUS
 62
3
100
AcDbLine
 10
294.0384621349462
 20
85.77394099716869
 30
0.0000000000000000
 11
345.5016200299565
 21
85.77394099717580
 31
0.0000000000000000
  0
ARC
  5
319
100
AcDbEntity
  8
MAIN0
  6
CONTINUOUS
 62
3
100
AcDbCircle
 10
88.99541732971426
 20
201.5189681917661
 30
0.0000000000000000
 40
2.500000000000000
100
AcDbArc
 50
129.5249788365918
 51
296.4750211634089
  0
ARC
  5
31A
100
AcDbEntity
  8
MAIN0
  6
CONTINUOUS
 62
3
100
AcDbCircle
 10
88.99541732971429
 20
189.5369094214353
 30
0.0000000000000000
 40
2.500000000000000
100
AcDbArc
 50
63.52497883659265
 51
230.4750211634056
  0
ARC
  5
31B
100
AcDbEntity
  8
MAIN0
  6
CONTINUOUS
 62
3
100
AcDbCircle
 10
90.77004108231472
 20
195.5279388066006
 30
0.0000000000000000
 40
2.500000000000000
100
AcDbArc
 50
96.52497883659291
 51
263.4750211634058
  0
ARC
  5
31C
100
AcDbEntity
  8
MAIN0
  6
CONTINUOUS
 62
3
100
AcDbCircle
 10
70.54466483491504
 20
189.5369094214353
 30
0.0000000000000000
 40
2.500000000000000
100
AcDbArc
 50
309.5249788365945
 51
476.4750211634074
  0
ARC
  5
31D
100
AcDbEntity
  8
MAIN0
  6
CONTINUOUS
 62
3
100
AcDbCircle
 10
68.77004108231461
 20
195.5279388066006
 30
0.0000000000000000
 40
2.500000000000000
100
AcDbArc
 50
276.5249788365942
 51
443.4750211634071
  0
ARC
  5
31E
100
AcDbEntity
  8
MAIN0
  6
CONTINUOUS
 62
3
100
AcDbCircle
 10
70.54466483491507
 20
201.5189681917661
 30
0.0000000000000000
 40
2.500000000000000
100
AcDbArc
 50
243.5249788365912
 51
410.4750211634081
  0
LINE
  5
31F
100
AcDbEntity
  8
MAIN0
  6
CONTINUOUS
 62
3
100
AcDbLine
 10
296.2700410820398
 20
90.17394099717563
 30
0.0000000000000000
 11
296.2700410820398
 21
93.37394099717568
 31
0.0000000000000000
  0
LINE
  5
320
100
AcDbEntity
  8
MAIN0
  6
CONTINUOUS
 62
3
100
AcDbLine
 10
345.9016200300517
 20
89.37394099729687
 30
0.0000000000000000
 11
345.5016200300499
 21
89.77394099729494
 31
0.0000000000000000
  0
LINE
  5
321
100
AcDbEntity
  8
MAIN0
  6
CONTINUOUS
 62
3
100
AcDbLine
 10
345.5016200300499
 20
89.77394099729496
 30
0.0000000000000000
 11
331.5200410821037
 21
89.77394099722889
 31
0.0000000000000000
  0
LINE
  5
322
100
AcDbEntity
  8
MAIN0
  6
CONTINUOUS
 62
3
100
AcDbLine
 10
345.9016200300668
 20
86.17394099728978
 30
0.0000000000000000
 11
345.9016200300520
 21
89.37394099729687
 31
0.0000000000000000
  0
LINE
  5
323
100
AcDbEntity
  8
MAIN0
  6
CONTINUOUS
 62
3
100
AcDbLine
 10
345.5016200300688
 20
85.77394099728802
 30
0.0000000000000000
 11
345.9016200300668
 21
86.17394099728972
 31
0.0000000000000000
  0
LINE
  5
324
100
AcDbEntity
  8
MAIN0
  6
CONTINUOUS
 62
3
100
AcDbLine
 10
296.2700410825138
 20
96.77394099713951
 30
0.0000000000000000
 11
296.2700410825138
 21
93.97394099717548
 31
0.0000000000000000
  0
LINE
  5
325
100
AcDbEntity
  8
MAIN0
  6
CONTINUOUS
 62
3
100
AcDbLine
 10
296.2700410825137
 20
93.97394099717579
 30
0.0000000000000000
 11
296.4700410825137
 21
93.77394099717583
 31
0.0000000000000000
  0
LINE
  5
326
100
AcDbEntity
  8
MAIN0
  6
CONTINUOUS
 62
3
100
AcDbLine
 10
343.2700410825138
 20
96.77394099724148
 30
0.0000000000000000
 11
343.2700410825138
 21
93.97394099717548
 31
0.0000000000000000
  0
LINE
  5
327
100
AcDbEntity
  8
MAIN0
  6
CONTINUOUS
 62
3
100
AcDbLine
 10
343.2700410825139
 20
93.97394099717535
 30
0.0000000000000000
 11
343.0700410825140
 21
93.77394099717543
 31
0.0000000000000000
  0
LINE
  5
328
100
AcDbEntity
  8
MAIN0
  6
CONTINUOUS
 62
3
100
AcDbLine
 10
296.4700410825137
 20
93.77394099717543
 30
0.0000000000000000
 11
343.0700410825137
 21
93.77394099717543
 31
0.0000000000000000
  0
LINE
  5
329
100
AcDbEntity
  8
MAIN0
  6
CONTINUOUS
 62
3
100
AcDbLine
 10
299.2700410827063
 20
181.0279388065127
 30
0.0000000000000000
 11
340.2700410824224
 21
181.0279388066374
 31
0.0000000000000000
  0
LINE
  5
32A
100
AcDbEntity
  8
WAKU0
  6
CONTINUOUS
 62
3
100
AcDbLine
 10
240.0000000000000
 20
51.00000000000000
 30
0.0000000000000000
 11
410.0000000000000
 21
51.00000000000000
 31
0.0000000000000000
  0
LINE
  5
32B
100
AcDbEntity
  8
WAKU0
  6
CONTINUOUS
 62
3
100
AcDbLine
 10
240.0000000000000
 20
51.00000000000000
 30
0.0000000000000000
 11
240.0000000000000
 21
12.00000000000000
 31
0.0000000000000000
  0
LINE
  5
32C
100
AcDbEntity
  8
WAKU0
  6
CONTINUOUS
 62
3
100
AcDbLine
 10
312.0000000000000
 20
51.00000000000000
 30
0.0000000000000000
 11
312.0000000000000
 21
12.00000000000000
 31
0.0000000000000000
  0
LINE
  5
32D
100
AcDbEntity
  8
WAKU0
  6
CONTINUOUS
 62
3
100
AcDbLine
 10
332.0000000000000
 20
51.00000000000000
 30
0.0000000000000000
 11
332.0000000000000
 21
12.00000000000000
 31
0.0000000000000000
  0
LINE
  5
32E
100
AcDbEntity
  8
WAKU0
  6
CONTINUOUS
 62
3
100
AcDbLine
 10
344.0000000000000
 20
51.00000000000000
 30
0.0000000000000000
 11
344.0000000000000
 21
12.00000000000000
 31
0.0000000000000000
  0
LINE
  5
32F
100
AcDbEntity
  8
WAKU0
  6
CONTINUOUS
 62
3
100
AcDbLine
 10
344.0000000000000
 20
37.00000000000000
 30
0.0000000000000000
 11
410.0000000000000
 21
37.00000000000000
 31
0.0000000000000000
  0
LINE
  5
330
100
AcDbEntity
  8
WAKU0
  6
CONTINUOUS
 62
3
100
AcDbLine
 10
332.0000000000000
 20
23.00000000000000
 30
0.0000000000000000
 11
410.0000000000000
 21
23.00000000000000
 31
0.0000000000000000
  0
LINE
  5
331
100
AcDbEntity
  8
WAKU0
  6
CONTINUOUS
 62
3
100
AcDbLine
 10
375.0000000000000
 20
51.00000000000000
 30
0.0000000000000000
 11
375.0000000000000
 21
44.00000000000000
 31
0.0000000000000000
  0
LINE
  5
332
100
AcDbEntity
  8
WAKU0
  6
CONTINUOUS
 62
3
100
AcDbLine
 10
387.0000000000000
 20
51.00000000000000
 30
0.0000000000000000
 11
387.0000000000000
 21
44.00000000000000
 31
0.0000000000000000
  0
LINE
  5
333
100
AcDbEntity
  8
WAKU0
  6
CONTINUOUS
 62
3
100
AcDbLine
 10
312.0000000000000
 20
31.50000000000000
 30
0.0000000000000000
 11
332.0000000000000
 21
31.50000000000000
 31
0.0000000000000000
  0
LINE
  5
334
100
AcDbEntity
  8
WAKU0
  6
CONTINUOUS
 62
3
100
AcDbLine
 10
332.0000000000000
 20
44.00000000000000
 30
0.0000000000000000
 11
410.0000000000000
 21
44.00000000000000
 31
0.0000000000000000
  0
LINE
  5
335
100
AcDbEntity
  8
WAKU0
  6
CONTINUOUS
 62
3
100
AcDbLine
 10
240.0000000000000
 20
37.00000000000000
 30
0.0000000000000000
 11
312.0000000000000
 21
37.00000000000000
 31
0.0000000000000000
  0
LINE
  5
336
100
AcDbEntity
  8
WAKU0
  6
CONTINUOUS
 62
3
100
AcDbLine
 10
240.0000000000000
 20
23.00000000000000
 30
0.0000000000000000
 11
312.0000000000000
 21
23.00000000000000
 31
0.0000000000000000
  0
LINE
  5
337
100
AcDbEntity
  8
WAKU0
  6
CONTINUOUS
 62
3
100
AcDbLine
 10
288.0000000000000
 20
37.00000000000000
 30
0.0000000000000000
 11
288.0000000000000
 21
12.00000000000000
 31
0.0000000000000000
  0
LINE
  5
338
100
AcDbEntity
  8
WAKU0
  6
CONTINUOUS
 62
3
100
AcDbLine
 10
264.0000000000000
 20
37.00000000000000
 30
0.0000000000000000
 11
264.0000000000000
 21
23.00000000000000
 31
0.0000000000000000
  0
LINE
  5
339
100
AcDbEntity
  8
WAKU0
  6
CONTINUOUS
 62
3
100
AcDbLine
 10
300.0000000000000
 20
26.00000000000000
 30
0.0000000000000000
 11
300.0000000000000
 21
23.00000000000000
 31
0.0000000000000000
  0
LINE
  5
33A
100
AcDbEntity
  8
WAKU0
  6
CONTINUOUS
 62
3
100
AcDbLine
 10
276.0000000000000
 20
26.00000000000000
 30
0.0000000000000000
 11
276.0000000000000
 21
23.00000000000000
 31
0.0000000000000000
  0
LINE
  5
33B
100
AcDbEntity
  8
WAKU0
  6
CONTINUOUS
 62
3
100
AcDbLine
 10
252.0000000000000
 20
26.00000000000000
 30
0.0000000000000000
 11
252.0000000000000
 21
23.00000000000000
 31
0.0000000000000000
  0
LINE
  5
33C
100
AcDbEntity
  8
WAKU0
  6
CONTINUOUS
 62
3
100
AcDbLine
 10
258.0000000000000
 20
51.00000000000000
 30
0.0000000000000000
 11
258.0000000000000
 21
37.00000000000000
 31
0.0000000000000000
  0
LINE
  5
33D
100
AcDbEntity
  8
WAKU0
  6
CONTINUOUS
 62
3
100
AcDbLine
 10
240.0000000000000
 20
45.00000000000000
 30
0.0000000000000000
 11
312.0000000000000
 21
45.00000000000000
 31
0.0000000000000000
  0
LINE
  5
33E
100
AcDbEntity
  8
WAKU0
  6
HIDDEN
 62
3
100
AcDbLine
 10
360.5000000000000
 20
23.00000000000000
 30
0.0000000000000000
 11
360.5000000000000
 21
12.00000000000000
 31
0.0000000000000000
  0
LINE
  5
33F
100
AcDbEntity
  8
WAKU0
  6
HIDDEN
 62
3
100
AcDbLine
 10
372.9000000000000
 20
23.00000000000000
 30
0.0000000000000000
 11
372.9000000000000
 21
12.00000000000000
 31
0.0000000000000000
  0
MTEXT
  5
340
100
AcDbEntity
  8
WAKU0
  6
CONTINUOUS
 62
3
100
AcDbMText
 10
344.4820000243485
 20
49.04999995231628
 30
0.0000000000000000
 40
3.099999904632568
 41
0.0000000000000000
 71
     1
 72
     1
  1
{\H0.92x;{QG20608}}
 11
1.000000000000000
 21
0.0000000000000000
 31
0.0000000000000000
  7
STANDARD
  0
MTEXT
  5
341
100
AcDbEntity
  8
WAKU0
  6
CONTINUOUS
 62
3
100
AcDbMText
 10
365.3900001943111
 20
43.50000000000000
 30
0.0000000000000000
 40
3.000000000000000
 41
0.0000000000000000
 71
     1
 72
     1
  1
{\H0.93x;{グリッパ\PＧＲＩＰＰＥＲ}}
 11
1.000000000000000
 21
0.0000000000000000
 31
0.0000000000000000
  7
KNJYOKO
  0
MTEXT
  5
342
100
AcDbEntity
  8
WAKU0
  6
CONTINUOUS
 62
3
100
AcDbMText
 10
351.0499999858439
 20
34.23333326975504
 30
0.0000000000000000
 40
3.099999904632568
 41
0.0000000000000000
 71
     1
 72
     1
  1
{\H0.70x;{ＱＧ２０６０８　ガイケイ\PＱＧ２０６０８　ＯＵＴＳＩＤＥ　ＶＩＥＷ}}
 11
1.000000000000000
 21
0.0000000000000000
 31
0.0000000000000000
  7
KNJYOKO
  0
MTEXT
  5
343
100
AcDbEntity
  8
WAKU0
  6
CONTINUOUS
 62
3
100
AcDbMText
 10
318.0049998760223
 20
39.29999995231628
 30
0.0000000000000000
 40
3.099999904632568
 41
0.0000000000000000
 71
     1
 72
     1
  1
{\H0.90x;{1:1}}
 11
1.000000000000000
 21
0.0000000000000000
 31
0.0000000000000000
  7
STANDARD
  0
MTEXT
  5
344
100
AcDbEntity
  8
WAKU0
  6
CONTINUOUS
 62
3
100
AcDbMText
 10
289.0299996733666
 20
16.54999995231628
 30
0.0000000000000000
 40
3.099999904632568
 41
0.0000000000000000
 71
     1
 72
     1
  1
{\H0.93x;{19.08.22}}
 11
1.000000000000000
 21
0.0000000000000000
 31
0.0000000000000000
  7
STANDARD
  0
MTEXT
  5
345
100
AcDbEntity
  8
WAKU0
  6
CONTINUOUS
 62
3
100
AcDbMText
 10
374.4000001549721
 20
20.15000009536743
 30
0.0000000000000000
 40
5.300000190734863
 41
0.0000000000000000
 71
     1
 72
     1
  1
{\H0.90x;{1077}}
 11
1.000000000000000
 21
0.0000000000000000
 31
0.0000000000000000
  7
STANDARD
  0
MTEXT
  5
346
100
AcDbEntity
  8
WAKU0
  6
CONTINUOUS
 62
3
100
AcDbMText
 10
362.3000000834465
 20
20.15000009536743
 30
0.0000000000000000
 40
5.300000190734863
 41
0.0000000000000000
 71
     1
 72
     1
  1
{\H0.87x;{85}}
 11
1.000000000000000
 21
0.0000000000000000
 31
0.0000000000000000
  7
STANDARD
  0
MTEXT
  5
347
100
AcDbEntity
  8
WAKU0
  6
CONTINUOUS
 62
3
100
AcDbMText
 10
345.5000001192093
 20
20.15000009536743
 30
0.0000000000000000
 40
5.300000190734863
 41
0.0000000000000000
 71
     1
 72
     1
  1
{\H0.89x;{61G}}
 11
1.000000000000000
 21
0.0000000000000000
 31
0.0000000000000000
  7
STANDARD
  0
MTEXT
  5
348
100
AcDbEntity
  8
WAKU0
  6
CONTINUOUS
 62
3
100
AcDbMText
 10
400.0000000476837
 20
20.15000009536743
 30
0.0000000000000000
 40
5.300000190734863
 41
0.0000000000000000
 71
     1
 72
     1
  1
{\H0.81x;{1}}
 11
1.000000000000000
 21
0.0000000000000000
 31
0.0000000000000000
  7
STANDARD
  0
MTEXT
  5
349
100
AcDbEntity
  8
WAKU0
  6
CONTINUOUS
 62
3
100
AcDbMText
 10
400.0000000819564
 20
44.84999990463257
 30
0.0000000000000000
 40
5.300000190734863
 41
0.0000000000000000
 71
     7
 72
     1
  1
{\H0.81x;{ }}
 11
1.000000000000000
 21
0.0000000000000000
 31
0.0000000000000000
  7
STANDARD
  0
MTEXT
  5
34A
100
AcDbEntity
  8
WAKU0
  6
CONTINUOUS
 62
3
100
AcDbMText
 10
289.3850002884865
 20
33.00000000000000
 30
0.0000000000000000
 40
3.000000000000000
 41
0.0000000000000000
 71
     7
 72
     1
  1
{\H0.93x;{DRAWN BY}}
 11
1.000000000000000
 21
0.0000000000000000
 31
0.0000000000000000
  7
STANDARD
  0
MTEXT
  5
34B
100
AcDbEntity
  8
WAKU0
  6
CONTINUOUS
 62
3
100
AcDbMText
 10
269.2149997949600
 20
32.95000004768372
 30
0.0000000000000000
 40
3.099999904632568
 41
0.0000000000000000
 71
     7
 72
     1
  1
{\H0.92x;{CHIEF}}
 11
1.000000000000000
 21
0.0000000000000000
 31
0.0000000000000000
  7
STANDARD
  0
MTEXT
  5
34C
100
AcDbEntity
  8
WAKU0
  6
CONTINUOUS
 62
3
100
AcDbMText
 10
242.4249997138977
 20
32.95000004768372
 30
0.0000000000000000
 40
3.099999904632568
 41
0.0000000000000000
 71
     7
 72
     1
  1
{\H0.92x;{MANAGER}}
 11
1.000000000000000
 21
0.0000000000000000
 31
0.0000000000000000
  7
STANDARD
  0
MTEXT
  5
34D
100
AcDbEntity
  8
WAKU0
  6
CONTINUOUS
 62
3
100
AcDbMText
 10
241.0850002169609
 20
46.50000000000000
 30
0.0000000000000000
 40
3.000000000000000
 41
0.0000000000000000
 71
     7
 72
     1
  1
{\H0.92x;{CAREER}}
 11
1.000000000000000
 21
0.0000000000000000
 31
0.0000000000000000
  7
STANDARD
  0
MTEXT
  5
34E
100
AcDbEntity
  8
WAKU0
  6
CONTINUOUS
 62
3
100
AcDbMText
 10
294.6099998354912
 20
18.95000004768372
 30
0.0000000000000000
 40
3.099999904632568
 41
0.0000000000000000
 71
     7
 72
     1
  1
{\H0.91x;{DATE}}
 11
1.000000000000000
 21
0.0000000000000000
 31
0.0000000000000000
  7
STANDARD
  0
MTEXT
  5
34F
100
AcDbEntity
  8
WAKU0
  6
CONTINUOUS
 62
3
100
AcDbMText
 10
313.9000002145767
 20
26.50000000000000
 30
0.0000000000000000
 40
3.000000000000000
 41
0.0000000000000000
 71
     7
 72
     1
  1
{\H0.63x;{3RD ANGLE}}
 11
1.000000000000000
 21
0.0000000000000000
 31
0.0000000000000000
  7
STANDARD
  0
MTEXT
  5
350
100
AcDbEntity
  8
WAKU0
  6
CONTINUOUS
 62
3
100
AcDbMText
 10
315.2149997949600
 20
45.95000004768372
 30
0.0000000000000000
 40
3.099999904632568
 41
0.0000000000000000
 71
     7
 72
     1
  1
{\H0.92x;{SCALE}}
 11
1.000000000000000
 21
0.0000000000000000
 31
0.0000000000000000
  7
STANDARD
  0
MTEXT
  5
351
100
AcDbEntity
  8
WAKU0
  6
CONTINUOUS
 62
3
100
AcDbMText
 10
405.7000000476837
 20
46.00000000000000
 30
0.0000000000000000
 40
3.000000000000000
 41
0.0000000000000000
 71
     7
 72
     1
  1
{\H0.63x;{kg}}
 11
1.000000000000000
 21
0.0000000000000000
 31
0.0000000000000000
  7
STANDARD
  0
MTEXT
  5
352
100
AcDbEntity
  8
WAKU0
  6
CONTINUOUS
 62
3
100
AcDbMText
 10
375.6000001430512
 20
46.00000000000000
 30
0.0000000000000000
 40
3.000000000000000
 41
0.0000000000000000
 71
     7
 72
     1
  1
{\H0.63x;{WEIGHT}}
 11
1.000000000000000
 21
0.0000000000000000
 31
0.0000000000000000
  7
STANDARD
  0
MTEXT
  5
353
100
AcDbEntity
  8
WAKU0
  6
CONTINUOUS
 62
3
100
AcDbMText
 10
334.0049998760223
 20
18.13333336512248
 30
0.0000000000000000
 40
3.099999904632568
 41
0.0000000000000000
 71
     7
 72
     1
  1
{\H0.90x;{DRW\PNO.}}
 11
1.000000000000000
 21
0.0000000000000000
 31
0.0000000000000000
  7
STANDARD
  0
MTEXT
  5
354
100
AcDbEntity
  8
WAKU0
  6
CONTINUOUS
 62
3
100
AcDbMText
 10
332.6099998354912
 20
31.95000004768372
 30
0.0000000000000000
 40
3.099999904632568
 41
0.0000000000000000
 71
     7
 72
     1
  1
{\H0.91x;{NAME}}
 11
1.000000000000000
 21
0.0000000000000000
 31
0.0000000000000000
  7
STANDARD
  0
MTEXT
  5
355
100
AcDbEntity
  8
WAKU0
  6
CONTINUOUS
 62
3
100
AcDbMText
 10
332.6099998354912
 20
45.95000004768372
 30
0.0000000000000000
 40
3.099999904632568
 41
0.0000000000000000
 71
     7
 72
     1
  1
{\H0.91x;{TYPE}}
 11
1.000000000000000
 21
0.0000000000000000
 31
0.0000000000000000
  7
STANDARD
  0
LINE
  5
356
100
AcDbEntity
  8
WAKU0
  6
HIDDEN
 62
3
100
AcDbLine
 10
407.1599564743885
 20
13.84999990463257
 30
0.0000000000000000
 11
396.9400436209789
 21
13.84999990463257
 31
0.0000000000000000
  0
LINE
  5
357
100
AcDbEntity
  8
WAKU0
  6
HIDDEN
 62
3
100
AcDbLine
 10
407.1599564743885
 20
13.84999990463250
 30
0.0000000000000000
 11
402.0500000476852
 21
22.70070406014901
 31
0.0000000000000000
  0
LINE
  5
358
100
AcDbEntity
  8
WAKU0
  6
HIDDEN
 62
3
100
AcDbLine
 10
402.0500000476852
 20
22.70070406014902
 30
0.0000000000000000
 11
396.9400436209789
 21
13.84999990463248
 31
0.0000000000000000
  0
MTEXT
  5
359
100
AcDbEntity
  8
WAKU0
  6
CONTINUOUS
 62
3
100
AcDbMText
 10
247.0000009614873
 20
20.63471521698214
 30
0.0000000000000000
 40
3.140094041824341
 41
0.0000000000000000
 71
     1
 72
     1
  1
{\H0.83x;{Ｋｉｔａｇａｗａ\PＣｏｒｐｏｒａｔｉｏｎ}}
 11
1.000000000000000
 21
0.0000000000000000
 31
0.0000000000000000
  7
KNJYOKO
  0
LINE
  5
35A
100
AcDbEntity
  8
WAKU0
  6
CONTINUOUS
 62
3
100
AcDbLine
 10
330.4713877753800
 20
15.78041421262812
 30
0.0000000000000000
 11
330.4713877753800
 21
21.78041421262815
 31
0.0000000000000000
  0
LINE
  5
35B
100
AcDbEntity
  8
WAKU0
  6
CONTINUOUS
 62
3
100
AcDbLine
 10
323.9336941228225
 20
17.28041421262811
 30
0.0000000000000000
 11
323.9336941228225
 21
20.28041421262824
 31
0.0000000000000000
  0
LINE
  5
35C
100
AcDbEntity
  8
WAKU0
  6
CENTER
 62
12
100
AcDbLine
 10
313.4321805514995
 20
18.78041421262813
 30
0.0000000000000000
 11
331.2765788964694
 21
18.78041421262813
 31
0.0000000000000000
  0
LINE
  5
35D
100
AcDbEntity
  8
WAKU0
  6
CENTER
 62
12
100
AcDbLine
 10
317.4474565857986
 20
14.55921662918448
 30
0.0000000000000000
 11
317.4474565857986
 21
22.89865102149943
 31
0.0000000000000000
  0
LINE
  5
35E
100
AcDbEntity
  8
WAKU0
  6
CONTINUOUS
 62
3
100
AcDbLine
 10
323.9336941228225
 20
20.28041421262797
 30
0.0000000000000000
 11
330.4713877753800
 21
21.78041421262795
 31
0.0000000000000000
  0
LINE
  5
35F
100
AcDbEntity
  8
WAKU0
  6
CONTINUOUS
 62
3
100
AcDbLine
 10
323.9336941228225
 20
17.28041421262811
 30
0.0000000000000000
 11
330.4713877753799
 21
15.78041421262812
 31
0.0000000000000000
  0
CIRCLE
  5
360
100
AcDbEntity
  8
WAKU0
  6
CONTINUOUS
 62
3
100
AcDbCircle
 10
317.4474565857986
 20
18.78041421262813
 30
0.0000000000000000
 40
1.499999999999972
  0
CIRCLE
  5
361
100
AcDbEntity
  8
WAKU0
  6
CONTINUOUS
 62
3
100
AcDbCircle
 10
317.4474565857986
 20
18.78041421262813
 30
0.0000000000000000
 40
2.999999999999979
  0
ENDSEC
  0
SECTION
  2
OBJECTS
  0
DICTIONARY
  5
3A0
100
AcDbDictionary
  3
ACAD_GROUP
350
3A1
  3
ACAD_MLINESTYLE
350
3A2
  0
DICTIONARY
  5
3A1
102
{ACAD_REACTORS
330
3A0
102
}
100
AcDbDictionary
  0
DICTIONARY
  5
3A2
102
{ACAD_REACTORS
330
3A0
102
}
100
AcDbDictionary
  3
STANDARD
350
3A3
  0
MLINESTYLE
  5
3A3
102
{ACAD_REACTORS
330
3A2
102
}
100
AcDbMlineStyle
  2
STANDARD
 70
     0
  3

 62
   256
 51
90.00
 52
90.00
 71
     2
 49
0.50
 62
   256
  6
BYLAYER
 49
-0.50
 62
   256
  6
BYLAYER
  0
ENDSEC
  0
EOF
