  0
SECTION
  2
HEADER
  9
$ACADVER
  1
AC1018
  9
$DWGCODEPAGE
  3
ANSI_932
  9
$LTSCALE
 40
20.0
  9
$FILLMODE
 70
     1
  9
$CLAYER
  8
0
  9
$PDMODE
 70
     0
  9
$SPLFRAME
 70
     0
  9
$SPLINETYPE
 70
     6
  9
$SPLINESEGS
 70
     8
  9
$DIMASZ
 40
2.000000
  9
$DIMEXE
 40
2.000000
  9
$DIMEXO
 40
0.800000
  9
$DIMTAD
 70
     1
  9
$DIMTIH
 70
     0
  9
$DIMTOH
 70
     0
  9
$DIMTVP
 40
0.500000
  9
$DIMTXT
 40
3.100000
  9
$EXTMIN
 10
0.000000
 20
0.000000
 30
0.000000
  9
$EXTMAX
 10
297.000000
 20
420.000000
 30
0.000000
  9
$MEASUREMENT
 70
  1
  9
$LIMMIN
 10
0.000000
 20
0.000000
  9
$LIMMAX
 10
297.000000
 20
420.000000
  9
$HANDSEED
  5
4CC
  9
$LWDISPLAY
290
     0
  9
$DIMBLK
  1
_OPEN
  9
$DIMDEC
 70
     3
  9
$DIMADEC
 70
     4
  9
$DIMAUNIT
 70
     1
  9
$DIMZIN
 70
     8
  9
$DIMAZIN
 70
     2
  9
$DIMTOFL
 70
     1
  0
ENDSEC
  0
SECTION
  2
CLASSES
  0
ENDSEC
  0
SECTION
  2
TABLES
  0
TABLE
  2
VPORT
  5
474
100
AcDbSymbolTable
 70
     1
  0
VPORT
  5
475
100
AcDbSymbolTableRecord
100
AcDbViewportTableRecord
  2
*ACTIVE
 70
     0
 12
210.120582
 22
148.500000
 40
297.000000
 41
1.414953
  0
ENDTAB
  0
TABLE
  2
LTYPE
  5
476
100
AcDbSymbolTable
 70
     3
  0
LTYPE
  5
477
100
AcDbSymbolTableRecord
100
AcDbLinetypeTableRecord
  2
BYBLOCK
 70
     0
  3

 72
    65
 73
     0
 40
0.0
  0
LTYPE
  5
478
100
AcDbSymbolTableRecord
100
AcDbLinetypeTableRecord
  2
BYLAYER
 70
     0
  3

 72
    65
 73
     0
 40
0.0
  0
LTYPE
  5
479
100
AcDbSymbolTableRecord
100
AcDbLinetypeTableRecord
  2
CONTINUOUS
 70
     0
  3
Solid line (NEC CAE2D for Win R12.1 : 2018.05.28)
 72
    65
 73
     0
 40
0.0
  0
LTYPE
  5
47A
100
AcDbSymbolTableRecord
100
AcDbLinetypeTableRecord
  2
HIDDEN
 70
     0
  3
__ __ __ __ __ __ __ __ __ __ __ __ __ __
 72
    65
 73
     2
 40
0.375
 49
0.25
 74
     0
 49
-0.125
 74
     0
  0
LTYPE
  5
47B
100
AcDbSymbolTableRecord
100
AcDbLinetypeTableRecord
  2
CENTER
 70
     0
  3
____ _ ____ _ ____ _ ____ _ ____ _ ____
 72
    65
 73
     4
 40
2.0
 49
1.25
 74
     0
 49
-0.25
 74
     0
 49
0.25
 74
     0
 49
-0.25
 74
     0
  0
ENDTAB
  0
TABLE
  2
LAYER
  5
47C
100
AcDbSymbolTable
 70
     6
  0
LAYER
  5
47D
100
AcDbSymbolTableRecord
100
AcDbLayerTableRecord
  2
0
 70
     0
 62
     7
  6
CONTINUOUS
370
    -3
390

  0
LAYER
  5
47E
100
AcDbSymbolTableRecord
100
AcDbLayerTableRecord
  2
MAIN0
 70
     0
 62
     7
  6
CONTINUOUS
370
    -3
390

  0
LAYER
  5
47F
100
AcDbSymbolTableRecord
100
AcDbLayerTableRecord
  2
MAIN2
 70
     0
 62
     7
  6
CONTINUOUS
370
    -3
390

  0
LAYER
  5
480
100
AcDbSymbolTableRecord
100
AcDbLayerTableRecord
  2
MAIN1023
 70
     0
 62
    16
  6
CONTINUOUS
370
    -3
390

  0
LAYER
  5
481
100
AcDbSymbolTableRecord
100
AcDbLayerTableRecord
  2
WAKU0
 70
     0
 62
     7
  6
CONTINUOUS
370
    -3
390

  0
LAYER
  5
482
100
AcDbSymbolTableRecord
100
AcDbLayerTableRecord
  2
WAKU1023
 70
     0
 62
    16
  6
CONTINUOUS
370
    -3
390

  0
ENDTAB
  0
TABLE
  2
STYLE
  5
483
100
AcDbSymbolTable
 70
     4
  0
STYLE
  5
484
100
AcDbSymbolTableRecord
100
AcDbTextStyleTableRecord
  2
STANDARD
 70
    64
 40
0.0
 41
1.0
 50
0.0
 71
     0
 42
3.100000381469727
  3
TXT
  4

  0
STYLE
  5
485
100
AcDbSymbolTableRecord
100
AcDbTextStyleTableRecord
  2
ANKTATE
 70
    68
 40
0.0
 41
1.0
 50
0.0
 71
     0
 42
3.100000381469727
  3
TXT
  4

  0
STYLE
  5
1CE
100
AcDbSymbolTableRecord
100
AcDbTextStyleTableRecord
  2
KNJYOKO
 70
    64
 40
0.0
 41
1.0
 50
0.0
 71
     0
 42
3.100000381469727
  3
TXT
  4
BIGFONT
  0
STYLE
  5
486
100
AcDbSymbolTableRecord
100
AcDbTextStyleTableRecord
  2
KNJTATE
 70
    68
 40
0.0
 41
1.0
 50
0.0
 71
     0
 42
3.100000381469727
  3
TXT
  4
BIGFONT
  0
ENDTAB
  0
TABLE
  2
VIEW
  5
487
100
AcDbSymbolTable
 70
     0
  0
ENDTAB
  0
TABLE
  2
UCS
  5
488
100
AcDbSymbolTable
 70
     0
  0
ENDTAB
  0
TABLE
  2
APPID
  5
489
100
AcDbSymbolTable
 70
     1
  0
APPID
  5
48A
100
AcDbSymbolTableRecord
100
AcDbRegAppTableRecord
  2
ACAD
 70
     0
  0
ENDTAB
  0
TABLE
  2
DIMSTYLE
  5
48B
100
AcDbSymbolTable
 70
     3
100
AcDbDimStyleTable
  0
DIMSTYLE
105
48C
100
AcDbSymbolTableRecord
100
AcDbDimStyleTableRecord
  2
STANDARD
 70
     0
 41
2.000000
 44
2.000000
 42
0.800000
145
0.661290
140
3.100000
144
1.000000
146
0.903226
340
484
  0
DIMSTYLE
105
48D
100
AcDbSymbolTableRecord
100
AcDbDimStyleTableRecord
  2
MAIN001
 70
     0
 41
2.000000
 44
2.000000
 42
0.800000
145
0.661290
140
3.100000
144
1.000000
146
0.903226
 77
     1
 73
     0
 74
     0
271
     3
179
     4
275
     1
 78
     8
 79
     2
172
     1
340
484
  0
DIMSTYLE
105
48E
100
AcDbSymbolTableRecord
100
AcDbDimStyleTableRecord
  2
WAKU002
 70
     0
 41
2.000000
 44
2.000000
 42
0.800000
145
0.661290
140
3.100000
144
1.000000
146
0.903226
 77
     1
 73
     0
 74
     0
271
     3
179
     4
275
     1
 78
     8
 79
     2
172
     1
340
484
  0
ENDTAB
  0
TABLE
  2
BLOCK_RECORD
  5
48F
100
AcDbSymbolTable
 70
    55
  0
BLOCK_RECORD
  5
490
100
AcDbSymbolTableRecord
100
AcDbBlockTableRecord
  2
*MODEL_SPACE
  0
BLOCK_RECORD
  5
491
100
AcDbSymbolTableRecord
100
AcDbBlockTableRecord
  2
*PAPER_SPACE
  0
BLOCK_RECORD
  5
492
100
AcDbSymbolTableRecord
100
AcDbBlockTableRecord
  2
*PAPER_SPACE0
  0
BLOCK_RECORD
  5
1
100
AcDbSymbolTableRecord
100
AcDbBlockTableRecord
  2
_NONE
  0
BLOCK_RECORD
  5
4
100
AcDbSymbolTableRecord
100
AcDbBlockTableRecord
  2
_CLOSED
  0
BLOCK_RECORD
  5
B
100
AcDbSymbolTableRecord
100
AcDbBlockTableRecord
  2
_DOT
  0
BLOCK_RECORD
  5
13
100
AcDbSymbolTableRecord
100
AcDbBlockTableRecord
  2
_OPEN
  0
BLOCK_RECORD
  5
19
100
AcDbSymbolTableRecord
100
AcDbBlockTableRecord
  2
_ORIGIN
  0
BLOCK_RECORD
  5
1E
100
AcDbSymbolTableRecord
100
AcDbBlockTableRecord
  2
_OPEN30
  0
BLOCK_RECORD
  5
24
100
AcDbSymbolTableRecord
100
AcDbBlockTableRecord
  2
_BOXFILLED
  0
BLOCK_RECORD
  5
29
100
AcDbSymbolTableRecord
100
AcDbBlockTableRecord
  2
_BOXBLANK
  0
BLOCK_RECORD
  5
31
100
AcDbSymbolTableRecord
100
AcDbBlockTableRecord
  2
_OBLIQUE
  0
BLOCK_RECORD
  5
35
100
AcDbSymbolTableRecord
100
AcDbBlockTableRecord
  2
_OPEN90
  0
BLOCK_RECORD
  5
3B
100
AcDbSymbolTableRecord
100
AcDbBlockTableRecord
  2
_CLOSEDBLANK
  0
BLOCK_RECORD
  5
41
100
AcDbSymbolTableRecord
100
AcDbBlockTableRecord
  2
_DOTBLANK
  0
BLOCK_RECORD
  5
493
100
AcDbSymbolTableRecord
100
AcDbBlockTableRecord
  2
*D0
  0
BLOCK_RECORD
  5
494
100
AcDbSymbolTableRecord
100
AcDbBlockTableRecord
  2
*D1
  0
BLOCK_RECORD
  5
495
100
AcDbSymbolTableRecord
100
AcDbBlockTableRecord
  2
*D2
  0
BLOCK_RECORD
  5
496
100
AcDbSymbolTableRecord
100
AcDbBlockTableRecord
  2
*D3
  0
BLOCK_RECORD
  5
497
100
AcDbSymbolTableRecord
100
AcDbBlockTableRecord
  2
*D4
  0
BLOCK_RECORD
  5
498
100
AcDbSymbolTableRecord
100
AcDbBlockTableRecord
  2
*D5
  0
BLOCK_RECORD
  5
499
100
AcDbSymbolTableRecord
100
AcDbBlockTableRecord
  2
*D6
  0
BLOCK_RECORD
  5
49A
100
AcDbSymbolTableRecord
100
AcDbBlockTableRecord
  2
*D7
  0
BLOCK_RECORD
  5
49B
100
AcDbSymbolTableRecord
100
AcDbBlockTableRecord
  2
*D8
  0
BLOCK_RECORD
  5
49C
100
AcDbSymbolTableRecord
100
AcDbBlockTableRecord
  2
*D9
  0
BLOCK_RECORD
  5
49D
100
AcDbSymbolTableRecord
100
AcDbBlockTableRecord
  2
*D10
  0
BLOCK_RECORD
  5
49E
100
AcDbSymbolTableRecord
100
AcDbBlockTableRecord
  2
*D11
  0
BLOCK_RECORD
  5
49F
100
AcDbSymbolTableRecord
100
AcDbBlockTableRecord
  2
*D12
  0
BLOCK_RECORD
  5
4A0
100
AcDbSymbolTableRecord
100
AcDbBlockTableRecord
  2
*D13
  0
BLOCK_RECORD
  5
4A1
100
AcDbSymbolTableRecord
100
AcDbBlockTableRecord
  2
*D14
  0
BLOCK_RECORD
  5
4A2
100
AcDbSymbolTableRecord
100
AcDbBlockTableRecord
  2
*D15
  0
BLOCK_RECORD
  5
4A3
100
AcDbSymbolTableRecord
100
AcDbBlockTableRecord
  2
*D16
  0
BLOCK_RECORD
  5
4A4
100
AcDbSymbolTableRecord
100
AcDbBlockTableRecord
  2
*D17
  0
BLOCK_RECORD
  5
4A5
100
AcDbSymbolTableRecord
100
AcDbBlockTableRecord
  2
*D18
  0
BLOCK_RECORD
  5
4A6
100
AcDbSymbolTableRecord
100
AcDbBlockTableRecord
  2
*D19
  0
BLOCK_RECORD
  5
4A7
100
AcDbSymbolTableRecord
100
AcDbBlockTableRecord
  2
*D20
  0
BLOCK_RECORD
  5
4A8
100
AcDbSymbolTableRecord
100
AcDbBlockTableRecord
  2
*D21
  0
BLOCK_RECORD
  5
4A9
100
AcDbSymbolTableRecord
100
AcDbBlockTableRecord
  2
*D22
  0
BLOCK_RECORD
  5
4AA
100
AcDbSymbolTableRecord
100
AcDbBlockTableRecord
  2
*D23
  0
BLOCK_RECORD
  5
4AB
100
AcDbSymbolTableRecord
100
AcDbBlockTableRecord
  2
*D24
  0
BLOCK_RECORD
  5
4AC
100
AcDbSymbolTableRecord
100
AcDbBlockTableRecord
  2
*D25
  0
BLOCK_RECORD
  5
4AD
100
AcDbSymbolTableRecord
100
AcDbBlockTableRecord
  2
*D26
  0
BLOCK_RECORD
  5
4AE
100
AcDbSymbolTableRecord
100
AcDbBlockTableRecord
  2
*D27
  0
BLOCK_RECORD
  5
4AF
100
AcDbSymbolTableRecord
100
AcDbBlockTableRecord
  2
*D28
  0
BLOCK_RECORD
  5
4B0
100
AcDbSymbolTableRecord
100
AcDbBlockTableRecord
  2
*D29
  0
BLOCK_RECORD
  5
4B1
100
AcDbSymbolTableRecord
100
AcDbBlockTableRecord
  2
*D30
  0
BLOCK_RECORD
  5
4B2
100
AcDbSymbolTableRecord
100
AcDbBlockTableRecord
  2
*D31
  0
BLOCK_RECORD
  5
4B3
100
AcDbSymbolTableRecord
100
AcDbBlockTableRecord
  2
*D32
  0
BLOCK_RECORD
  5
4B4
100
AcDbSymbolTableRecord
100
AcDbBlockTableRecord
  2
*D33
  0
BLOCK_RECORD
  5
4B5
100
AcDbSymbolTableRecord
100
AcDbBlockTableRecord
  2
*D34
  0
BLOCK_RECORD
  5
4B6
100
AcDbSymbolTableRecord
100
AcDbBlockTableRecord
  2
*D35
  0
BLOCK_RECORD
  5
4B7
100
AcDbSymbolTableRecord
100
AcDbBlockTableRecord
  2
*D36
  0
BLOCK_RECORD
  5
4B8
100
AcDbSymbolTableRecord
100
AcDbBlockTableRecord
  2
*D37
  0
BLOCK_RECORD
  5
4B9
100
AcDbSymbolTableRecord
100
AcDbBlockTableRecord
  2
*X0
  0
BLOCK_RECORD
  5
4BA
100
AcDbSymbolTableRecord
100
AcDbBlockTableRecord
  2
*X1
  0
BLOCK_RECORD
  5
4BB
100
AcDbSymbolTableRecord
100
AcDbBlockTableRecord
  2
*X2
  0
BLOCK_RECORD
  5
4BC
100
AcDbSymbolTableRecord
100
AcDbBlockTableRecord
  2
*X3
  0
BLOCK_RECORD
  5
4BD
100
AcDbSymbolTableRecord
100
AcDbBlockTableRecord
  2
M0
  0
ENDTAB
  0
ENDSEC
  0
SECTION
  2
BLOCKS
  0
BLOCK
  5
4BE
100
AcDbEntity
  8
0
100
AcDbBlockBegin
  2
*MODEL_SPACE
 70
     0
 10
0.0
 20
0.0
 30
0.0
  3
*MODEL_SPACE
  1

  0
ENDBLK
  5
4BF
100
AcDbEntity
  8
0
100
AcDbBlockEnd
  0
BLOCK
  5
4C0
100
AcDbEntity
  8
0
100
AcDbBlockBegin
  2
*PAPER_SPACE
 70
     0
 10
0.0
 20
0.0
 30
0.0
  3
*PAPER_SPACE
  1

  0
ENDBLK
  5
4C1
100
AcDbEntity
  8
0
100
AcDbBlockEnd
  0
BLOCK
  5
4C2
100
AcDbEntity
  8
0
100
AcDbBlockBegin
  2
*PAPER_SPACE0
 70
     0
 10
0.0
 20
0.0
 30
0.0
  3
*PAPER_SPACE0
  1

  0
ENDBLK
  5
4C3
100
AcDbEntity
  8
0
100
AcDbBlockEnd
  0
BLOCK
  5
2
330
1
100
AcDbEntity
  8
0
100
AcDbBlockBegin
  2
_NONE
 70
     0
 10
0.0
 20
0.0
 30
0.0
  3
_NONE
  1

  0
ENDBLK
  5
3
330
1
100
AcDbEntity
  8
0
100
AcDbBlockEnd
  0
BLOCK
  5
5
330
4
100
AcDbEntity
  8
0
100
AcDbBlockBegin
  2
_CLOSED
 70
     0
 10
0.0
 20
0.0
 30
0.0
  3
_CLOSED
  1

  0
LINE
  5
6
330
4
100
AcDbEntity
  8
0
  6
BYBLOCK
 62
     0
370
    -2
100
AcDbLine
 10
-1.0
 20
0.166667
 30
0.0
 11
0.0
 21
0.0
 31
0.0
  0
LINE
  5
7
330
4
100
AcDbEntity
  8
0
  6
BYBLOCK
 62
     0
370
    -2
100
AcDbLine
 10
0.0
 20
0.0
 30
0.0
 11
-1.0
 21
-0.166667
 31
0.0
  0
LINE
  5
8
330
4
100
AcDbEntity
  8
0
  6
BYBLOCK
 62
     0
370
    -2
100
AcDbLine
 10
-1.0
 20
0.166667
 30
0.0
 11
-1.0
 21
-0.166667
 31
0.0
  0
LINE
  5
9
330
4
100
AcDbEntity
  8
0
  6
BYBLOCK
 62
     0
370
    -2
100
AcDbLine
 10
0.0
 20
0.0
 30
0.0
 11
-1.0
 21
0.0
 31
0.0
  0
ENDBLK
  5
A
330
4
100
AcDbEntity
  8
0
100
AcDbBlockEnd
  0
BLOCK
  5
C
330
B
100
AcDbEntity
  8
0
100
AcDbBlockBegin
  2
_DOT
 70
     0
 10
0.0
 20
0.0
 30
0.0
  3
_DOT
  1

  0
POLYLINE
  5
D
330
B
100
AcDbEntity
  8
0
  6
BYBLOCK
 62
     0
370
    -2
100
AcDb2dPolyline
 66
     1
 10
0.0
 20
0.0
 30
0.0
 70
     1
 40
0.5
 41
0.5
  0
VERTEX
  5
E
330
B
100
AcDbEntity
  8
0
  6
BYBLOCK
 62
     0
370
    -2
100
AcDbVertex
100
AcDb2dVertex
 10
-0.25
 20
0.0
 30
0.0
 42
1.0
  0
VERTEX
  5
F
330
B
100
AcDbEntity
  8
0
  6
BYBLOCK
 62
     0
370
    -2
100
AcDbVertex
100
AcDb2dVertex
 10
0.25
 20
0.0
 30
0.0
 42
1.0
  0
SEQEND
  5
10
330
B
100
AcDbEntity
  8
0
  6
BYBLOCK
 62
     0
370
    -2
  0
LINE
  5
11
330
B
100
AcDbEntity
  8
0
  6
BYBLOCK
 62
     0
370
    -2
100
AcDbLine
 10
-0.5
 20
0.0
 30
0.0
 11
-1.0
 21
0.0
 31
0.0
  0
ENDBLK
  5
12
330
B
100
AcDbEntity
  8
0
100
AcDbBlockEnd
  0
BLOCK
  5
14
330
13
100
AcDbEntity
  8
0
100
AcDbBlockBegin
  2
_OPEN
 70
     0
 10
0.0
 20
0.0
 30
0.0
  3
_OPEN
  1

  0
LINE
  5
15
330
13
100
AcDbEntity
  8
0
  6
BYBLOCK
 62
     0
370
    -2
100
AcDbLine
 10
-1.0
 20
0.166667
 30
0.0
 11
0.0
 21
0.0
 31
0.0
  0
LINE
  5
16
330
13
100
AcDbEntity
  8
0
  6
BYBLOCK
 62
     0
370
    -2
100
AcDbLine
 10
0.0
 20
0.0
 30
0.0
 11
-1.0
 21
-0.166667
 31
0.0
  0
LINE
  5
17
330
13
100
AcDbEntity
  8
0
  6
BYBLOCK
 62
     0
370
    -2
100
AcDbLine
 10
0.0
 20
0.0
 30
0.0
 11
-1.0
 21
0.0
 31
0.0
  0
ENDBLK
  5
18
330
13
100
AcDbEntity
  8
0
100
AcDbBlockEnd
  0
BLOCK
  5
1A
330
19
100
AcDbEntity
  8
0
100
AcDbBlockBegin
  2
_ORIGIN
 70
     0
 10
0.0
 20
0.0
 30
0.0
  3
_ORIGIN
  1

  0
CIRCLE
  5
1B
330
19
100
AcDbEntity
  8
0
  6
BYBLOCK
 62
     0
370
    -2
100
AcDbCircle
 10
0.0
 20
0.0
 30
0.0
 40
0.5
  0
LINE
  5
1C
330
19
100
AcDbEntity
  8
0
  6
BYBLOCK
 62
     0
370
    -2
100
AcDbLine
 10
0.0
 20
0.0
 30
0.0
 11
-1.0
 21
0.0
 31
0.0
  0
ENDBLK
  5
1D
330
19
100
AcDbEntity
  8
0
100
AcDbBlockEnd
  0
BLOCK
  5
1F
330
1E
100
AcDbEntity
  8
0
100
AcDbBlockBegin
  2
_OPEN30
 70
     0
 10
0.0
 20
0.0
 30
0.0
  3
_OPEN30
  1

  0
LINE
  5
20
330
1E
100
AcDbEntity
  8
0
  6
BYBLOCK
 62
     0
370
    -2
100
AcDbLine
 10
-1.0
 20
0.267949
 30
0.0
 11
0.0
 21
0.0
 31
0.0
  0
LINE
  5
21
330
1E
100
AcDbEntity
  8
0
  6
BYBLOCK
 62
     0
370
    -2
100
AcDbLine
 10
0.0
 20
0.0
 30
0.0
 11
-1.0
 21
-0.267949
 31
0.0
  0
LINE
  5
22
330
1E
100
AcDbEntity
  8
0
  6
BYBLOCK
 62
     0
370
    -2
100
AcDbLine
 10
0.0
 20
0.0
 30
0.0
 11
-1.0
 21
0.0
 31
0.0
  0
ENDBLK
  5
23
330
1E
100
AcDbEntity
  8
0
100
AcDbBlockEnd
  0
BLOCK
  5
25
330
24
100
AcDbEntity
  8
0
100
AcDbBlockBegin
  2
_BOXFILLED
 70
     0
 10
0.0
 20
0.0
 30
0.0
  3
_BOXFILLED
  1

  0
SOLID
  5
26
330
24
100
AcDbEntity
  8
0
  6
BYBLOCK
 62
     0
370
    -2
100
AcDbTrace
 10
-0.5
 20
0.5
 30
0.0
 11
0.5
 21
0.5
 31
0.0
 12
-0.5
 22
-0.5
 32
0.0
 13
0.5
 23
-0.5
 33
0.0
  0
LINE
  5
27
330
24
100
AcDbEntity
  8
0
  6
BYBLOCK
 62
     0
370
    -2
100
AcDbLine
 10
-0.5
 20
0.0
 30
0.0
 11
-1.0
 21
0.0
 31
0.0
  0
ENDBLK
  5
28
330
24
100
AcDbEntity
  8
0
100
AcDbBlockEnd
  0
BLOCK
  5
2A
330
29
100
AcDbEntity
  8
0
100
AcDbBlockBegin
  2
_BOXBLANK
 70
     0
 10
0.0
 20
0.0
 30
0.0
  3
_BOXBLANK
  1

  0
LINE
  5
2B
330
29
100
AcDbEntity
  8
0
  6
BYBLOCK
 62
     0
370
    -2
100
AcDbLine
 10
-0.5
 20
-0.5
 30
0.0
 11
0.5
 21
-0.5
 31
0.0
  0
LINE
  5
2C
330
29
100
AcDbEntity
  8
0
  6
BYBLOCK
 62
     0
370
    -2
100
AcDbLine
 10
0.5
 20
-0.5
 30
0.0
 11
0.5
 21
0.5
 31
0.0
  0
LINE
  5
2D
330
29
100
AcDbEntity
  8
0
  6
BYBLOCK
 62
     0
370
    -2
100
AcDbLine
 10
0.5
 20
0.5
 30
0.0
 11
-0.5
 21
0.5
 31
0.0
  0
LINE
  5
2E
330
29
100
AcDbEntity
  8
0
  6
BYBLOCK
 62
     0
370
    -2
100
AcDbLine
 10
-0.5
 20
0.5
 30
0.0
 11
-0.5
 21
-0.5
 31
0.0
  0
LINE
  5
2F
330
29
100
AcDbEntity
  8
0
  6
BYBLOCK
 62
     0
370
    -2
100
AcDbLine
 10
-0.5
 20
0.0
 30
0.0
 11
-1.0
 21
0.0
 31
0.0
  0
ENDBLK
  5
30
330
29
100
AcDbEntity
  8
0
100
AcDbBlockEnd
  0
BLOCK
  5
32
330
31
100
AcDbEntity
  8
0
100
AcDbBlockBegin
  2
_OBLIQUE
 70
     0
 10
0.0
 20
0.0
 30
0.0
  3
_OBLIQUE
  1

  0
LINE
  5
33
330
31
100
AcDbEntity
  8
0
  6
BYBLOCK
 62
     0
370
    -2
100
AcDbLine
 10
-0.5
 20
-0.5
 30
0.0
 11
0.5
 21
0.5
 31
0.0
  0
ENDBLK
  5
34
330
31
100
AcDbEntity
  8
0
100
AcDbBlockEnd
  0
BLOCK
  5
36
330
35
100
AcDbEntity
  8
0
100
AcDbBlockBegin
  2
_OPEN90
 70
     0
 10
0.0
 20
0.0
 30
0.0
  3
_OPEN90
  1

  0
LINE
  5
37
330
35
100
AcDbEntity
  8
0
  6
BYBLOCK
 62
     0
370
    -2
100
AcDbLine
 10
-0.5
 20
0.5
 30
0.0
 11
0.0
 21
0.0
 31
0.0
  0
LINE
  5
38
330
35
100
AcDbEntity
  8
0
  6
BYBLOCK
 62
     0
370
    -2
100
AcDbLine
 10
0.0
 20
0.0
 30
0.0
 11
-0.5
 21
-0.5
 31
0.0
  0
LINE
  5
39
330
35
100
AcDbEntity
  8
0
  6
BYBLOCK
 62
     0
370
    -2
100
AcDbLine
 10
0.0
 20
0.0
 30
0.0
 11
-1.0
 21
0.0
 31
0.0
  0
ENDBLK
  5
3A
330
35
100
AcDbEntity
  8
0
100
AcDbBlockEnd
  0
BLOCK
  5
3C
330
3B
100
AcDbEntity
  8
0
100
AcDbBlockBegin
  2
_CLOSEDBLANK
 70
     0
 10
0.0
 20
0.0
 30
0.0
  3
_CLOSEDBLANK
  1

  0
LINE
  5
3D
330
3B
100
AcDbEntity
  8
0
  6
BYBLOCK
 62
     0
370
    -2
100
AcDbLine
 10
-1.0
 20
0.1666666666666666
 30
0.0
 11
0.0
 21
0.0
 31
0.0
  0
LINE
  5
3E
330
3B
100
AcDbEntity
  8
0
  6
BYBLOCK
 62
     0
370
    -2
100
AcDbLine
 10
0.0
 20
0.0
 30
0.0
 11
-1.0
 21
-0.1666666666666666
 31
0.0
  0
LINE
  5
3F
330
3B
100
AcDbEntity
  8
0
  6
BYBLOCK
 62
     0
370
    -2
100
AcDbLine
 10
-1.0
 20
0.1666666666666666
 30
0.0
 11
-1.0
 21
-0.1666666666666666
 31
0.0
  0
ENDBLK
  5
40
330
3B
100
AcDbEntity
  8
0
100
AcDbBlockEnd
  0
BLOCK
  5
42
330
41
100
AcDbEntity
  8
0
100
AcDbBlockBegin
  2
_DOTBLANK
 70
     0
 10
0.0
 20
0.0
 30
0.0
  3
_DOTBLANK
  1

  0
CIRCLE
  5
43
330
41
100
AcDbEntity
  8
0
  6
BYBLOCK
 62
     0
370
    -2
100
AcDbCircle
 10
0.0
 20
0.0
 30
0.0
 40
0.5
  0
LINE
  5
44
330
41
100
AcDbEntity
  8
0
  6
BYBLOCK
 62
     0
370
    -2
100
AcDbLine
 10
-0.5
 20
0.0
 30
0.0
 11
-1.0
 21
0.0
 31
0.0
  0
ENDBLK
  5
45
330
41
100
AcDbEntity
  8
0
100
AcDbBlockEnd
  0
BLOCK
  5
5C
100
AcDbEntity
  8
MAIN0
  6
CONTINUOUS
 62
3
100
AcDbBlockBegin
  2
*D0
 70
    65
 10
0.0
 20
0.0
 30
0.0
  0
LINE
  5
5D
100
AcDbEntity
  8
MAIN0
  6
BYBLOCK
 62
0
370
    -2
100
AcDbLine
 10
339.6991138003715
 20
152.5572951849019
 30
0.0000000000000000
 11
339.6991138003715
 21
149.4791112609502
 31
0.0000000000000000
  0
LINE
  5
5E
100
AcDbEntity
  8
MAIN0
  6
BYBLOCK
 62
0
370
    -2
100
AcDbLine
 10
386.3779561682007
 20
181.5994033663867
 30
0.0000000000000000
 11
390.8555239246155
 21
179.0142784168949
 31
0.0000000000000000
  0
ARC
  5
5F
100
AcDbEntity
  8
MAIN0
  6
BYBLOCK
 62
0
370
    -2
100
AcDbCircle
 10
339.6991138003715
 20
208.5494455730270
 30
0.0000000000000000
 40
57.07033431207677
100
AcDbArc
 50
272.0079006090896
 51
327.9920993908056
  0
INSERT
  5
60
100
AcDbEntity
  8
MAIN0
  6
BYBLOCK
 62
0
100
AcDbBlockReference
  2
_OPEN
 10
339.6991138003715
 20
151.4791112609502
 30
0.0000000000000000
 41
2.000000000000000
 42
2.000000000000000
 43
2.000000000000000
 50
180.0000000000000
  0
INSERT
  5
61
100
AcDbEntity
  8
MAIN0
  6
BYBLOCK
 62
0
100
AcDbBlockReference
  2
_OPEN
 10
389.1234731170484
 20
180.0142784168981
 30
0.0000000000000000
 41
2.000000000000000
 42
2.000000000000000
 43
2.000000000000000
 50
59.99999999989507
  0
MTEXT
  5
62
100
AcDbEntity
  8
MAIN0
  6
BYBLOCK
 62
0
100
AcDbMText
 10
367.2092809802081
 20
160.9004382927354
 30
0.0000000000000000
 40
3.099999904632568
 41
0.0000000000000000
 44
0.7741935722041460
 71
     5
 72
     1
  1
\A1;60\U+00B0
 11
0.8660254037848963
 21
0.4999999999992072
 31
0.0000000000000000
  7
STANDARD
  0
ENDBLK
  5
63
100
AcDbEntity
  8
MAIN0
  6
CONTINUOUS
 62
3
100
AcDbBlockEnd
  0
BLOCK
  5
65
100
AcDbEntity
  8
MAIN0
  6
CONTINUOUS
 62
3
100
AcDbBlockBegin
  2
*D1
 70
    65
 10
0.0
 20
0.0
 30
0.0
  0
LINE
  5
66
100
AcDbEntity
  8
MAIN0
  6
BYBLOCK
 62
0
370
    -2
100
AcDbLine
 10
386.3779561682007
 20
181.5994033663867
 30
0.0000000000000000
 11
390.8555239246155
 21
179.0142784168949
 31
0.0000000000000000
  0
LINE
  5
67
100
AcDbEntity
  8
MAIN0
  6
BYBLOCK
 62
0
370
    -2
100
AcDbLine
 10
391.8126364944046
 20
208.5494455729888
 30
0.0000000000000000
 11
398.7694481124482
 21
208.5494455730424
 31
0.0000000000000000
  0
ARC
  5
68
100
AcDbEntity
  8
MAIN0
  6
BYBLOCK
 62
0
370
    -2
100
AcDbCircle
 10
339.6991138003715
 20
208.5494455730270
 30
0.0000000000000000
 40
57.07033431207677
100
AcDbArc
 50
332.0079006089847
 51
357.9920993909104
  0
INSERT
  5
69
100
AcDbEntity
  8
MAIN0
  6
BYBLOCK
 62
0
100
AcDbBlockReference
  2
_OPEN
 10
389.1234731170484
 20
180.0142784168981
 30
0.0000000000000000
 41
2.000000000000000
 42
2.000000000000000
 43
2.000000000000000
 50
239.9999999998951
  0
INSERT
  5
6A
100
AcDbEntity
  8
MAIN0
  6
BYBLOCK
 62
0
100
AcDbBlockReference
  2
_OPEN
 10
396.7694481124482
 20
208.5494455730270
 30
0.0000000000000000
 41
2.000000000000000
 42
2.000000000000000
 43
2.000000000000000
 50
90.00000000000000
  0
MTEXT
  5
6B
100
AcDbEntity
  8
MAIN0
  6
BYBLOCK
 62
0
100
AcDbMText
 10
392.8446757295110
 20
194.3091351727637
 30
0.0000000000000000
 40
3.099999904632568
 41
0.0000000000000000
 44
0.7741935722041460
 71
     5
 72
     1
  1
\A1;30\U+00B0
 11
0.2588190451034050
 21
0.9659258262888314
 31
0.0000000000000000
  7
STANDARD
  0
ENDBLK
  5
6C
100
AcDbEntity
  8
MAIN0
  6
CONTINUOUS
 62
3
100
AcDbBlockEnd
  0
BLOCK
  5
6E
100
AcDbEntity
  8
MAIN0
  6
CONTINUOUS
 62
3
100
AcDbBlockBegin
  2
*D2
 70
    65
 10
0.0
 20
0.0
 30
0.0
  0
LINE
  5
6F
100
AcDbEntity
  8
MAIN0
  6
BYBLOCK
 62
0
370
    -2
100
AcDbLine
 10
391.8126364944046
 20
208.5494455729888
 30
0.0000000000000000
 11
398.7694481124482
 21
208.5494455730424
 31
0.0000000000000000
  0
LINE
  5
70
100
AcDbEntity
  8
MAIN0
  6
BYBLOCK
 62
0
370
    -2
100
AcDbLine
 10
385.4173451682872
 20
234.9448787599649
 30
0.0000000000000000
 11
390.8555239247673
 21
238.0846127288960
 31
0.0000000000000000
  0
ARC
  5
71
100
AcDbEntity
  8
MAIN0
  6
BYBLOCK
 62
0
370
    -2
100
AcDbCircle
 10
339.6991138003715
 20
208.5494455730270
 30
0.0000000000000000
 40
57.07033431207677
100
AcDbArc
 50
2.007900609089576
 51
27.99209939072076
  0
INSERT
  5
72
100
AcDbEntity
  8
MAIN0
  6
BYBLOCK
 62
0
100
AcDbBlockReference
  2
_OPEN
 10
396.7694481124482
 20
208.5494455730270
 30
0.0000000000000000
 41
2.000000000000000
 42
2.000000000000000
 43
2.000000000000000
 50
270.0000000000000
  0
INSERT
  5
73
100
AcDbEntity
  8
MAIN0
  6
BYBLOCK
 62
0
100
AcDbBlockReference
  2
_OPEN
 10
389.1234731171952
 20
237.0846127289018
 30
0.0000000000000000
 41
2.000000000000000
 42
2.000000000000000
 43
2.000000000000000
 50
119.9999999998103
  0
MTEXT
  5
74
100
AcDbEntity
  8
MAIN0
  6
BYBLOCK
 62
0
100
AcDbMText
 10
392.8446757295476
 20
222.7897559731537
 30
0.0000000000000000
 40
3.099999904632568
 41
0.0000000000000000
 44
0.7741935722041460
 71
     5
 72
     1
  1
\A1;30\U+00B0
 11
-0.2588190451009221
 21
0.9659258262894966
 31
0.0000000000000000
  7
STANDARD
  0
ENDBLK
  5
75
100
AcDbEntity
  8
MAIN0
  6
CONTINUOUS
 62
3
100
AcDbBlockEnd
  0
BLOCK
  5
77
100
AcDbEntity
  8
MAIN0
  6
CONTINUOUS
 62
3
100
AcDbBlockBegin
  2
*D3
 70
    65
 10
0.0
 20
0.0
 30
0.0
  0
LINE
  5
78
100
AcDbEntity
  8
MAIN0
  6
BYBLOCK
 62
0
370
    -2
100
AcDbLine
 10
385.4173451682872
 20
234.9448787599649
 30
0.0000000000000000
 11
390.8555239247673
 21
238.0846127288960
 31
0.0000000000000000
  0
LINE
  5
79
100
AcDbEntity
  8
MAIN0
  6
BYBLOCK
 62
0
370
    -2
100
AcDbLine
 10
339.6991138003715
 20
265.7414143649462
 30
0.0000000000000000
 11
339.6991138003715
 21
267.6197798851038
 31
0.0000000000000000
  0
ARC
  5
7A
100
AcDbEntity
  8
MAIN0
  6
BYBLOCK
 62
0
370
    -2
100
AcDbCircle
 10
339.6991138003715
 20
208.5494455730270
 30
0.0000000000000000
 40
57.07033431207677
100
AcDbArc
 50
32.00790060889991
 51
87.99209939091043
  0
INSERT
  5
7B
100
AcDbEntity
  8
MAIN0
  6
BYBLOCK
 62
0
100
AcDbBlockReference
  2
_OPEN
 10
389.1234731171952
 20
237.0846127289018
 30
0.0000000000000000
 41
2.000000000000000
 42
2.000000000000000
 43
2.000000000000000
 50
299.9999999998104
  0
INSERT
  5
7C
100
AcDbEntity
  8
MAIN0
  6
BYBLOCK
 62
0
100
AcDbBlockReference
  2
_OPEN
 10
339.6991138003715
 20
265.6197798851038
 30
0.0000000000000000
 41
2.000000000000000
 42
2.000000000000000
 43
2.000000000000000
 50
180.0000000000000
  0
MTEXT
  5
7D
100
AcDbEntity
  8
MAIN0
  6
BYBLOCK
 62
0
100
AcDbMText
 10
369.2592809326528
 20
259.7491569261700
 30
0.0000000000000000
 40
3.099999904632568
 41
0.0000000000000000
 44
0.7741935722041460
 71
     5
 72
     1
  1
\A1;60\U+00B0
 11
0.8660254037836110
 21
-0.5000000000014334
 31
0.0000000000000000
  7
STANDARD
  0
ENDBLK
  5
7E
100
AcDbEntity
  8
MAIN0
  6
CONTINUOUS
 62
3
100
AcDbBlockEnd
  0
BLOCK
  5
80
100
AcDbEntity
  8
MAIN0
  6
CONTINUOUS
 62
3
100
AcDbBlockBegin
  2
*D4
 70
    65
 10
0.0
 20
0.0
 30
0.0
  0
LINE
  5
81
100
AcDbEntity
  8
MAIN0
  6
BYBLOCK
 62
0
370
    -2
100
AcDbLine
 10
335.6991138003715
 20
258.1859073738859
 30
0.0000000000000000
 11
335.6991138003715
 21
263.9297979749115
 31
0.0000000000000000
  0
LINE
  5
82
100
AcDbEntity
  8
MAIN0
  6
BYBLOCK
 62
0
370
    -2
100
AcDbLine
 10
337.6991138003715
 20
261.9297979749115
 30
0.0000000000000000
 11
341.6991138003715
 21
261.9297979749115
 31
0.0000000000000000
  0
INSERT
  5
83
100
AcDbEntity
  8
MAIN0
  6
BYBLOCK
 62
0
100
AcDbBlockReference
  2
_OPEN
 10
335.6991138003715
 20
261.9297979749115
 30
0.0000000000000000
 41
2.000000000000000
 42
2.000000000000000
 43
2.000000000000000
 50
180.0000000000000
  0
INSERT
  5
84
100
AcDbEntity
  8
MAIN0
  6
BYBLOCK
 62
0
100
AcDbBlockReference
  2
_OPEN
 10
343.6991138003715
 20
261.9297979749115
 30
0.0000000000000000
 41
2.000000000000000
 42
2.000000000000000
 43
2.000000000000000
 50
0.0000000000000000
  0
LINE
  5
85
100
AcDbEntity
  8
MAIN0
  6
BYBLOCK
 62
0
370
    -2
100
AcDbLine
 10
335.6991138003715
 20
261.9297979749115
 30
0.0000000000000000
 11
330.0312866710075
 21
261.9297979749115
 31
0.0000000000000000
  0
LINE
  5
86
100
AcDbEntity
  8
MAIN0
  6
BYBLOCK
 62
0
370
    -2
100
AcDbLine
 10
343.6991138003715
 20
258.1859073738859
 30
0.0000000000000000
 11
343.6991138003715
 21
263.9297979749115
 31
0.0000000000000000
  0
MTEXT
  5
87
100
AcDbEntity
  8
MAIN0
  6
BYBLOCK
 62
0
100
AcDbMText
 10
331.0812867155200
 20
263.9797979272278
 30
0.0000000000000000
 40
3.099999904632568
 41
0.0000000000000000
 44
0.7741935722041460
 71
     5
 72
     1
  1
\A1;8
 11
1.000000000000000
 21
0.0000000000000000
 31
0.0000000000000000
  7
STANDARD
  0
ENDBLK
  5
88
100
AcDbEntity
  8
MAIN0
  6
CONTINUOUS
 62
3
100
AcDbBlockEnd
  0
BLOCK
  5
8A
100
AcDbEntity
  8
MAIN0
  6
CONTINUOUS
 62
3
100
AcDbBlockBegin
  2
*D5
 70
    65
 10
0.0
 20
0.0
 30
0.0
  0
LINE
  5
8B
100
AcDbEntity
  8
MAIN0
  6
BYBLOCK
 62
0
370
    -2
100
AcDbLine
 10
362.1573330568024
 20
232.7285354614497
 30
0.0000000000000000
 11
335.1973539847902
 21
203.7027364913048
 31
0.0000000000000000
  0
INSERT
  5
8C
100
AcDbEntity
  8
MAIN0
  6
BYBLOCK
 62
0
100
AcDbBlockReference
  2
_OPEN
 10
363.5184372541689
 20
234.1939348486174
 30
0.0000000000000000
 41
2.000000000000000
 42
2.000000000000000
 43
2.000000000000000
 50
47.11319893990435
  0
MTEXT
  5
8D
100
AcDbEntity
  8
MAIN0
  6
BYBLOCK
 62
0
100
AcDbMText
 10
354.3387541111803
 20
227.3231146971619
 30
0.0000000000000000
 40
3.099999904632568
 41
0.0000000000000000
 44
0.7741935722041460
 71
     5
 72
     1
  1
\A1;\U+220570
 11
0.6805520986832373
 21
0.7326996935838319
 31
0.0000000000000000
  7
STANDARD
  0
ENDBLK
  5
8E
100
AcDbEntity
  8
MAIN0
  6
CONTINUOUS
 62
3
100
AcDbBlockEnd
  0
BLOCK
  5
B2
100
AcDbEntity
  8
MAIN0
  6
CONTINUOUS
 62
3
100
AcDbBlockBegin
  2
*D6
 70
    65
 10
0.0
 20
0.0
 30
0.0
  0
LINE
  5
B3
100
AcDbEntity
  8
MAIN0
  6
BYBLOCK
 62
0
370
    -2
100
AcDbLine
 10
94.69911380045060
 20
152.5572951847679
 30
0.0000000000000000
 11
94.69911380045842
 21
144.5491427777758
 31
0.0000000000000000
  0
LINE
  5
B4
100
AcDbEntity
  8
MAIN0
  6
BYBLOCK
 62
0
370
    -2
100
AcDbLine
 10
142.2914296866178
 20
181.0720091848014
 30
0.0000000000000000
 11
150.1250018709752
 21
176.5492941754650
 31
0.0000000000000000
  0
ARC
  5
B5
100
AcDbEntity
  8
MAIN0
  6
BYBLOCK
 62
0
370
    -2
100
AcDbCircle
 10
94.69911380039602
 20
208.5494455729557
 30
0.0000000000000000
 40
62.00030279517981
100
AcDbArc
 50
271.8482419256594
 51
328.1517580744991
  0
INSERT
  5
B6
100
AcDbEntity
  8
MAIN0
  6
BYBLOCK
 62
0
100
AcDbBlockReference
  2
_OPEN
 10
94.69911380045647
 20
146.5491427777758
 30
0.0000000000000000
 41
2.000000000000000
 42
2.000000000000000
 43
2.000000000000000
 50
180.0000000000559
  0
INSERT
  5
B7
100
AcDbEntity
  8
MAIN0
  6
BYBLOCK
 62
0
100
AcDbBlockReference
  2
_OPEN
 10
148.3929510634046
 20
177.5492941754619
 30
0.0000000000000000
 41
2.000000000000000
 42
2.000000000000000
 43
2.000000000000000
 50
60.00000000010260
  0
MTEXT
  5
B8
100
AcDbEntity
  8
MAIN0
  6
BYBLOCK
 62
0
100
AcDbMText
 10
124.6742652218996
 20
156.6309603465069
 30
0.0000000000000000
 40
3.099999904632568
 41
0.0000000000000000
 44
0.7741935722041460
 71
     5
 72
     1
  1
\A1;60\U+00B0
 11
0.8660254037837470
 21
0.5000000000011978
 31
0.0000000000000000
  7
STANDARD
  0
ENDBLK
  5
B9
100
AcDbEntity
  8
MAIN0
  6
CONTINUOUS
 62
3
100
AcDbBlockEnd
  0
BLOCK
  5
BB
100
AcDbEntity
  8
MAIN0
  6
CONTINUOUS
 62
3
100
AcDbBlockBegin
  2
*D7
 70
    65
 10
0.0
 20
0.0
 30
0.0
  0
LINE
  5
BC
100
AcDbEntity
  8
MAIN0
  6
BYBLOCK
 62
0
370
    -2
100
AcDbLine
 10
142.2914296866178
 20
181.0720091848014
 30
0.0000000000000000
 11
150.1250018709752
 21
176.5492941754650
 31
0.0000000000000000
  0
LINE
  5
BD
100
AcDbEntity
  8
MAIN0
  6
BYBLOCK
 62
0
370
    -2
100
AcDbLine
 10
150.8169531979679
 20
208.5494455729088
 30
0.0000000000000000
 11
158.6994165955758
 21
208.5494455729715
 31
0.0000000000000000
  0
ARC
  5
BE
100
AcDbEntity
  8
MAIN0
  6
BYBLOCK
 62
0
370
    -2
100
AcDbCircle
 10
94.69911380039602
 20
208.5494455729557
 30
0.0000000000000000
 40
62.00030279517981
100
AcDbArc
 50
331.8482419257061
 51
358.1517580743965
  0
INSERT
  5
BF
100
AcDbEntity
  8
MAIN0
  6
BYBLOCK
 62
0
100
AcDbBlockReference
  2
_OPEN
 10
148.3929510634046
 20
177.5492941754619
 30
0.0000000000000000
 41
2.000000000000000
 42
2.000000000000000
 43
2.000000000000000
 50
240.0000000001026
  0
INSERT
  5
C0
100
AcDbEntity
  8
MAIN0
  6
BYBLOCK
 62
0
100
AcDbBlockReference
  2
_OPEN
 10
156.6994165955758
 20
208.5494455729556
 30
0.0000000000000000
 41
2.000000000000000
 42
2.000000000000000
 43
2.000000000000000
 50
90.00000000000000
  0
MTEXT
  5
C1
100
AcDbEntity
  8
MAIN0
  6
BYBLOCK
 62
0
100
AcDbMText
 10
152.6066596101828
 20
193.0331654376106
 30
0.0000000000000000
 40
3.099999904632568
 41
0.0000000000000000
 44
0.7741935722041460
 71
     5
 72
     1
  1
\A1;30\U+00B0
 11
0.2588190451016558
 21
0.9659258262893000
 31
0.0000000000000000
  7
STANDARD
  0
ENDBLK
  5
C2
100
AcDbEntity
  8
MAIN0
  6
CONTINUOUS
 62
3
100
AcDbBlockEnd
  0
BLOCK
  5
C4
100
AcDbEntity
  8
MAIN0
  6
CONTINUOUS
 62
3
100
AcDbBlockBegin
  2
*D8
 70
    65
 10
0.0
 20
0.0
 30
0.0
  0
LINE
  5
C5
100
AcDbEntity
  8
MAIN0
  6
BYBLOCK
 62
0
370
    -2
100
AcDbLine
 10
150.8169531979679
 20
208.5494455729088
 30
0.0000000000000000
 11
158.6994165955758
 21
208.5494455729715
 31
0.0000000000000000
  0
LINE
  5
C6
100
AcDbEntity
  8
MAIN0
  6
BYBLOCK
 62
0
370
    -2
100
AcDbLine
 10
142.4927335481366
 20
236.1431047998705
 30
0.0000000000000000
 11
150.1250018709129
 21
240.5495969705544
 31
0.0000000000000000
  0
ARC
  5
C7
100
AcDbEntity
  8
MAIN0
  6
BYBLOCK
 62
0
370
    -2
100
AcDbCircle
 10
94.69911380039602
 20
208.5494455729557
 30
0.0000000000000000
 40
62.00030279517981
100
AcDbArc
 50
1.848241925603523
 51
28.15175807440563
  0
INSERT
  5
C8
100
AcDbEntity
  8
MAIN0
  6
BYBLOCK
 62
0
100
AcDbBlockReference
  2
_OPEN
 10
156.6994165955758
 20
208.5494455729557
 30
0.0000000000000000
 41
2.000000000000000
 42
2.000000000000000
 43
2.000000000000000
 50
270.0000000000000
  0
INSERT
  5
C9
100
AcDbEntity
  8
MAIN0
  6
BYBLOCK
 62
0
100
AcDbBlockReference
  2
_OPEN
 10
148.3929510633441
 20
239.5495969705541
 30
0.0000000000000000
 41
2.000000000000000
 42
2.000000000000000
 43
2.000000000000000
 50
120.0000000000092
  0
MTEXT
  5
CA
100
AcDbEntity
  8
MAIN0
  6
BYBLOCK
 62
0
100
AcDbMText
 10
152.6066596101676
 20
224.0657257083572
 30
0.0000000000000000
 40
3.099999904632568
 41
0.0000000000000000
 44
0.7741935722041460
 71
     5
 72
     1
  1
\A1;30\U+00B0
 11
-0.2588190451025978
 21
0.9659258262890477
 31
0.0000000000000000
  7
STANDARD
  0
ENDBLK
  5
CB
100
AcDbEntity
  8
MAIN0
  6
CONTINUOUS
 62
3
100
AcDbBlockEnd
  0
BLOCK
  5
CD
100
AcDbEntity
  8
MAIN0
  6
CONTINUOUS
 62
3
100
AcDbBlockBegin
  2
*D9
 70
    65
 10
0.0
 20
0.0
 30
0.0
  0
LINE
  5
CE
100
AcDbEntity
  8
MAIN0
  6
BYBLOCK
 62
0
370
    -2
100
AcDbLine
 10
136.0020218881729
 20
218.0849732668684
 30
0.0000000000000000
 11
150.9340353150784
 21
221.5323001966612
 31
0.0000000000000000
  0
LINE
  5
CF
100
AcDbEntity
  8
MAIN0
  6
BYBLOCK
 62
0
370
    -2
100
AcDbLine
 10
142.4927335481365
 20
236.1431047998705
 30
0.0000000000000000
 11
144.6810173670812
 21
237.4065110518021
 31
0.0000000000000000
  0
ARC
  5
D0
100
AcDbEntity
  8
MAIN0
  6
BYBLOCK
 62
0
370
    -2
100
AcDbCircle
 10
94.69911384453923
 20
208.5494455984418
 30
0.0000000000000000
 40
55.71413090670443
100
AcDbArc
 50
15.05677728744143
 51
27.94322271278822
  0
INSERT
  5
D1
100
AcDbEntity
  8
MAIN0
  6
BYBLOCK
 62
0
100
AcDbBlockReference
  2
_OPEN
 10
148.9852951855097
 20
221.0823980879660
 30
0.0000000000000000
 41
2.000000000000000
 42
2.000000000000000
 43
2.000000000000000
 50
283.0000000002205
  0
INSERT
  5
D2
100
AcDbEntity
  8
MAIN0
  6
BYBLOCK
 62
0
100
AcDbBlockReference
  2
_OPEN
 10
142.9489665595125
 20
236.4065110518017
 30
0.0000000000000000
 41
2.000000000000000
 42
2.000000000000000
 43
2.000000000000000
 50
120.0000000000092
  0
MTEXT
  5
D3
100
AcDbEntity
  8
MAIN0
  6
BYBLOCK
 62
0
100
AcDbMText
 10
144.6291640549505
 20
228.2174154244185
 30
0.0000000000000000
 40
3.099999904632568
 41
0.0000000000000000
 44
0.7741935722041460
 71
     5
 72
     1
  1
\A1;17\U+00B0
 11
-0.3665012267261619
 21
0.9304175679812901
 31
0.0000000000000000
  7
STANDARD
  0
ENDBLK
  5
D4
100
AcDbEntity
  8
MAIN0
  6
CONTINUOUS
 62
3
100
AcDbBlockEnd
  0
BLOCK
  5
D6
100
AcDbEntity
  8
MAIN0
  6
CONTINUOUS
 62
3
100
AcDbBlockBegin
  2
*D10
 70
    65
 10
0.0
 20
0.0
 30
0.0
  0
LINE
  5
D7
100
AcDbEntity
  8
MAIN0
  6
BYBLOCK
 62
0
370
    -2
100
AcDbLine
 10
142.4927335481365
 20
236.1431047998705
 30
0.0000000000000000
 11
144.6810173670812
 21
237.4065110518021
 31
0.0000000000000000
  0
LINE
  5
D8
100
AcDbEntity
  8
MAIN0
  6
BYBLOCK
 62
0
370
    -2
100
AcDbLine
 10
124.1452265817792
 20
239.0417880048608
 30
0.0000000000000000
 11
134.7907179311917
 21
250.0655170416230
 31
0.0000000000000000
  0
ARC
  5
D9
100
AcDbEntity
  8
MAIN0
  6
BYBLOCK
 62
0
370
    -2
100
AcDbCircle
 10
94.69911384453923
 20
208.5494455984418
 30
0.0000000000000000
 40
55.71413090670443
100
AcDbArc
 50
32.05677728723013
 51
43.94322276838643
  0
INSERT
  5
DA
100
AcDbEntity
  8
MAIN0
  6
BYBLOCK
 62
0
100
AcDbBlockReference
  2
_OPEN
 10
142.9489665595125
 20
236.4065110518017
 30
0.0000000000000000
 41
2.000000000000000
 42
2.000000000000000
 43
2.000000000000000
 50
300.0000000000092
  0
INSERT
  5
DB
100
AcDbEntity
  8
MAIN0
  6
BYBLOCK
 62
0
100
AcDbBlockReference
  2
_OPEN
 10
133.4014011928334
 20
248.6268374384738
 30
0.0000000000000000
 41
2.000000000000000
 42
2.000000000000000
 43
2.000000000000000
 50
136.0000000556074
  0
MTEXT
  5
DC
100
AcDbEntity
  8
MAIN0
  6
BYBLOCK
 62
0
100
AcDbMText
 10
140.2178701169330
 20
244.1125956461032
 30
0.0000000000000000
 40
3.099999904632568
 41
0.0000000000000000
 44
0.7741935722041460
 71
     5
 72
     1
  1
\A1;16\U+00B0
 11
0.6156614757081164
 21
-0.7880107533079129
 31
0.0000000000000000
  7
STANDARD
  0
ENDBLK
  5
DD
100
AcDbEntity
  8
MAIN0
  6
CONTINUOUS
 62
3
100
AcDbBlockEnd
  0
BLOCK
  5
DF
100
AcDbEntity
  8
MAIN0
  6
CONTINUOUS
 62
3
100
AcDbBlockBegin
  2
*D11
 70
    65
 10
0.0
 20
0.0
 30
0.0
  0
LINE
  5
E0
100
AcDbEntity
  8
MAIN0
  6
BYBLOCK
 62
0
370
    -2
100
AcDbLine
 10
124.1452265817792
 20
239.0417880048608
 30
0.0000000000000000
 11
134.7907179311917
 21
250.0655170416230
 31
0.0000000000000000
  0
LINE
  5
E1
100
AcDbEntity
  8
MAIN0
  6
BYBLOCK
 62
0
370
    -2
100
AcDbLine
 10
106.7247299263262
 20
250.4877530117010
 30
0.0000000000000000
 11
110.6072841828844
 21
264.0278289815434
 31
0.0000000000000000
  0
ARC
  5
E2
100
AcDbEntity
  8
MAIN0
  6
BYBLOCK
 62
0
370
    -2
100
AcDbCircle
 10
94.69911384453923
 20
208.5494455984418
 30
0.0000000000000000
 40
55.71413090670443
100
AcDbArc
 50
48.05677734282833
 51
71.94322281057657
  0
INSERT
  5
E3
100
AcDbEntity
  8
MAIN0
  6
BYBLOCK
 62
0
100
AcDbBlockReference
  2
_OPEN
 10
133.4014011928334
 20
248.6268374384738
 30
0.0000000000000000
 41
2.000000000000000
 42
2.000000000000000
 43
2.000000000000000
 50
316.0000000556074
  0
INSERT
  5
E4
100
AcDbEntity
  8
MAIN0
  6
BYBLOCK
 62
0
100
AcDbBlockReference
  2
_OPEN
 10
110.0560094778915
 20
262.1053055877625
 30
0.0000000000000000
 41
2.000000000000000
 42
2.000000000000000
 43
2.000000000000000
 50
164.0000000977975
  0
MTEXT
  5
E5
100
AcDbEntity
  8
MAIN0
  6
BYBLOCK
 62
0
100
AcDbMText
 10
123.5811792070803
 20
258.5746503885471
 30
0.0000000000000000
 40
3.099999904632568
 41
0.0000000000000000
 44
0.7741935722041460
 71
     5
 72
     1
  1
\A1;28\U+00B0
 11
0.8660254044537936
 21
-0.4999999988406432
 31
0.0000000000000000
  7
STANDARD
  0
ENDBLK
  5
E6
100
AcDbEntity
  8
MAIN0
  6
CONTINUOUS
 62
3
100
AcDbBlockEnd
  0
BLOCK
  5
E8
100
AcDbEntity
  8
MAIN0
  6
CONTINUOUS
 62
3
100
AcDbBlockBegin
  2
*D12
 70
    65
 10
0.0
 20
0.0
 30
0.0
  0
LINE
  5
E9
100
AcDbEntity
  8
MAIN0
  6
BYBLOCK
 62
0
370
    -2
100
AcDbLine
 10
142.4927335481366
 20
236.1431047998704
 30
0.0000000000000000
 11
150.1250018709129
 21
240.5495969705544
 31
0.0000000000000000
  0
LINE
  5
EA
100
AcDbEntity
  8
MAIN0
  6
BYBLOCK
 62
0
370
    -2
100
AcDbLine
 10
94.69911380034024
 20
265.7414143648122
 30
0.0000000000000000
 11
94.69911380033361
 21
272.5497483681355
 31
0.0000000000000000
  0
ARC
  5
EB
100
AcDbEntity
  8
MAIN0
  6
BYBLOCK
 62
0
370
    -2
100
AcDbCircle
 10
94.69911380039601
 20
208.5494455729557
 30
0.0000000000000000
 40
62.00030279517982
100
AcDbArc
 50
31.84824192561268
 51
88.15175807445235
  0
INSERT
  5
EC
100
AcDbEntity
  8
MAIN0
  6
BYBLOCK
 62
0
100
AcDbBlockReference
  2
_OPEN
 10
148.3929510633441
 20
239.5495969705542
 30
0.0000000000000000
 41
2.000000000000000
 42
2.000000000000000
 43
2.000000000000000
 50
300.0000000000092
  0
INSERT
  5
ED
100
AcDbEntity
  8
MAIN0
  6
BYBLOCK
 62
0
100
AcDbBlockReference
  2
_OPEN
 10
94.69911380033555
 20
270.5497483681355
 30
0.0000000000000000
 41
2.000000000000000
 42
2.000000000000000
 43
2.000000000000000
 50
180.0000000000559
  0
MTEXT
  5
EE
100
AcDbEntity
  8
MAIN0
  6
BYBLOCK
 62
0
100
AcDbMText
 10
126.7242651741126
 20
264.0186348723897
 30
0.0000000000000000
 40
3.099999904632568
 41
0.0000000000000000
 44
0.7741935722041460
 71
     5
 72
     1
  1
\A1;60\U+00B0
 11
0.8660254037847222
 21
-0.4999999999995090
 31
0.0000000000000000
  7
STANDARD
  0
ENDBLK
  5
EF
100
AcDbEntity
  8
MAIN0
  6
CONTINUOUS
 62
3
100
AcDbBlockEnd
  0
BLOCK
  5
F1
100
AcDbEntity
  8
MAIN0
  6
CONTINUOUS
 62
3
100
AcDbBlockBegin
  2
*D13
 70
    65
 10
0.0
 20
0.0
 30
0.0
  0
LINE
  5
F2
100
AcDbEntity
  8
MAIN0
  6
BYBLOCK
 62
0
370
    -2
100
AcDbLine
 10
72.01892185457470
 20
238.8494455732792
 30
0.0000000000000000
 11
38.64223146386479
 21
238.8494455732792
 31
0.0000000000000000
  0
LINE
  5
F3
100
AcDbEntity
  8
MAIN0
  6
BYBLOCK
 62
0
370
    -2
100
AcDbLine
 10
40.64223146386479
 20
236.8494455732792
 30
0.0000000000000000
 11
40.64223146386479
 21
210.5494455727985
 31
0.0000000000000000
  0
INSERT
  5
F4
100
AcDbEntity
  8
MAIN0
  6
BYBLOCK
 62
0
100
AcDbBlockReference
  2
_OPEN
 10
40.64223146386479
 20
238.8494455732792
 30
0.0000000000000000
 41
2.000000000000000
 42
2.000000000000000
 43
2.000000000000000
 50
90.00000000000000
  0
INSERT
  5
F5
100
AcDbEntity
  8
MAIN0
  6
BYBLOCK
 62
0
100
AcDbBlockReference
  2
_OPEN
 10
40.64223146386479
 20
208.5494455727985
 30
0.0000000000000000
 41
2.000000000000000
 42
2.000000000000000
 43
2.000000000000000
 50
270.0000000000000
  0
LINE
  5
F6
100
AcDbEntity
  8
MAIN0
  6
BYBLOCK
 62
0
370
    -2
100
AcDbLine
 10
42.58559110636293
 20
208.5494455727985
 30
0.0000000000000000
 11
38.64223146386479
 21
208.5494455727985
 31
0.0000000000000000
  0
MTEXT
  5
F7
100
AcDbEntity
  8
MAIN0
  6
BYBLOCK
 62
0
100
AcDbMText
 10
38.59223151154851
 20
223.6994454836319
 30
0.0000000000000000
 40
3.099999904632568
 41
0.0000000000000000
 44
0.7741935722041460
 71
     5
 72
     1
  1
\A1;30.3\H0.903226x;\U+00B10.1
 11
6.123233995736766e-017
 21
1.000000000000000
 31
0.0000000000000000
  7
STANDARD
  0
ENDBLK
  5
F8
100
AcDbEntity
  8
MAIN0
  6
CONTINUOUS
 62
3
100
AcDbBlockEnd
  0
BLOCK
  5
FA
100
AcDbEntity
  8
MAIN0
  6
CONTINUOUS
 62
3
100
AcDbBlockBegin
  2
*D14
 70
    65
 10
0.0
 20
0.0
 30
0.0
  0
LINE
  5
FB
100
AcDbEntity
  8
MAIN0
  6
BYBLOCK
 62
0
370
    -2
100
AcDbLine
 10
42.58559110636293
 20
208.5494455727985
 30
0.0000000000000000
 11
38.64223146386479
 21
208.5494455727985
 31
0.0000000000000000
  0
LINE
  5
FC
100
AcDbEntity
  8
MAIN0
  6
BYBLOCK
 62
0
370
    -2
100
AcDbLine
 10
40.64223146386479
 20
206.5494455727985
 30
0.0000000000000000
 11
40.64223146386479
 21
183.7494455733874
 31
0.0000000000000000
  0
INSERT
  5
FD
100
AcDbEntity
  8
MAIN0
  6
BYBLOCK
 62
0
100
AcDbBlockReference
  2
_OPEN
 10
40.64223146386479
 20
208.5494455727985
 30
0.0000000000000000
 41
2.000000000000000
 42
2.000000000000000
 43
2.000000000000000
 50
90.00000000000000
  0
INSERT
  5
FE
100
AcDbEntity
  8
MAIN0
  6
BYBLOCK
 62
0
100
AcDbBlockReference
  2
_OPEN
 10
40.64223146386479
 20
181.7494455733874
 30
0.0000000000000000
 41
2.000000000000000
 42
2.000000000000000
 43
2.000000000000000
 50
270.0000000000000
  0
LINE
  5
FF
100
AcDbEntity
  8
MAIN0
  6
BYBLOCK
 62
0
370
    -2
100
AcDbLine
 10
67.02547845316678
 20
181.7494455733874
 30
0.0000000000000000
 11
38.64223146386479
 21
181.7494455733874
 31
0.0000000000000000
  0
MTEXT
  5
100
100
AcDbEntity
  8
MAIN0
  6
BYBLOCK
 62
0
100
AcDbMText
 10
38.59223151154851
 20
195.1494454836860
 30
0.0000000000000000
 40
3.099999904632568
 41
0.0000000000000000
 44
0.7741935722041460
 71
     5
 72
     1
  1
\A1;26.8\H0.903226x;\U+00B10.1
 11
6.123233995736766e-017
 21
1.000000000000000
 31
0.0000000000000000
  7
STANDARD
  0
ENDBLK
  5
101
100
AcDbEntity
  8
MAIN0
  6
CONTINUOUS
 62
3
100
AcDbBlockEnd
  0
BLOCK
  5
103
100
AcDbEntity
  8
MAIN0
  6
CONTINUOUS
 62
3
100
AcDbBlockBegin
  2
*D15
 70
    65
 10
0.0
 20
0.0
 30
0.0
  0
LINE
  5
104
100
AcDbEntity
  8
MAIN0
  6
BYBLOCK
 62
0
370
    -2
100
AcDbLine
 10
42.58559110636293
 20
208.5494455727985
 30
0.0000000000000000
 11
32.32416983345019
 21
208.5494455727985
 31
0.0000000000000000
  0
LINE
  5
105
100
AcDbEntity
  8
MAIN0
  6
BYBLOCK
 62
0
370
    -2
100
AcDbLine
 10
34.32416983345019
 20
206.5494455727985
 30
0.0000000000000000
 11
34.32416983345019
 21
178.5994455732428
 31
0.0000000000000000
  0
INSERT
  5
106
100
AcDbEntity
  8
MAIN0
  6
BYBLOCK
 62
0
100
AcDbBlockReference
  2
_OPEN
 10
34.32416983345019
 20
208.5494455727985
 30
0.0000000000000000
 41
2.000000000000000
 42
2.000000000000000
 43
2.000000000000000
 50
90.00000000000000
  0
INSERT
  5
107
100
AcDbEntity
  8
MAIN0
  6
BYBLOCK
 62
0
100
AcDbBlockReference
  2
_OPEN
 10
34.32416983345019
 20
176.5994455732428
 30
0.0000000000000000
 41
2.000000000000000
 42
2.000000000000000
 43
2.000000000000000
 50
270.0000000000000
  0
LINE
  5
108
100
AcDbEntity
  8
MAIN0
  6
BYBLOCK
 62
0
370
    -2
100
AcDbLine
 10
78.30059240708005
 20
176.5994455732428
 30
0.0000000000000000
 11
32.32416983345019
 21
176.5994455732428
 31
0.0000000000000000
  0
MTEXT
  5
109
100
AcDbEntity
  8
MAIN0
  6
BYBLOCK
 62
0
100
AcDbMText
 10
32.27416988113390
 20
192.5744456270373
 30
0.0000000000000000
 40
3.099999904632568
 41
0.0000000000000000
 44
0.7741935722041460
 71
     5
 72
     1
  1
\A1;31.95\H0.903226x;\U+00B10.1
 11
6.123233995736766e-017
 21
1.000000000000000
 31
0.0000000000000000
  7
STANDARD
  0
ENDBLK
  5
10A
100
AcDbEntity
  8
MAIN0
  6
CONTINUOUS
 62
3
100
AcDbBlockEnd
  0
BLOCK
  5
10C
100
AcDbEntity
  8
MAIN0
  6
CONTINUOUS
 62
3
100
AcDbBlockBegin
  2
*D16
 70
    65
 10
0.0
 20
0.0
 30
0.0
  0
LINE
  5
10D
100
AcDbEntity
  8
MAIN0
  6
BYBLOCK
 62
0
370
    -2
100
AcDbLine
 10
83.04911380062063
 20
171.9653154843549
 30
0.0000000000000000
 11
83.04911380062063
 21
135.5649359108111
 31
0.0000000000000000
  0
LINE
  5
10E
100
AcDbEntity
  8
MAIN0
  6
BYBLOCK
 62
0
370
    -2
100
AcDbLine
 10
85.04911380062063
 20
137.5649359108111
 30
0.0000000000000000
 11
104.3491138002412
 21
137.5649359108111
 31
0.0000000000000000
  0
INSERT
  5
10F
100
AcDbEntity
  8
MAIN0
  6
BYBLOCK
 62
0
100
AcDbBlockReference
  2
_OPEN
 10
83.04911380062063
 20
137.5649359108111
 30
0.0000000000000000
 41
2.000000000000000
 42
2.000000000000000
 43
2.000000000000000
 50
180.0000000000000
  0
INSERT
  5
110
100
AcDbEntity
  8
MAIN0
  6
BYBLOCK
 62
0
100
AcDbBlockReference
  2
_OPEN
 10
106.3491138002412
 20
137.5649359108111
 30
0.0000000000000000
 41
2.000000000000000
 42
2.000000000000000
 43
2.000000000000000
 50
0.0000000000000000
  0
LINE
  5
111
100
AcDbEntity
  8
MAIN0
  6
BYBLOCK
 62
0
370
    -2
100
AcDbLine
 10
106.3491138002412
 20
171.9653154843776
 30
0.0000000000000000
 11
106.3491138002412
 21
135.5649359108111
 31
0.0000000000000000
  0
MTEXT
  5
112
100
AcDbEntity
  8
MAIN0
  6
BYBLOCK
 62
0
100
AcDbMText
 10
94.69911371102394
 20
139.6149358631274
 30
0.0000000000000000
 40
3.099999904632568
 41
0.0000000000000000
 44
0.7741935722041460
 71
     5
 72
     1
  1
\A1;23.3\H0.903226x;\U+00B10.1
 11
1.000000000000000
 21
0.0000000000000000
 31
0.0000000000000000
  7
STANDARD
  0
ENDBLK
  5
113
100
AcDbEntity
  8
MAIN0
  6
CONTINUOUS
 62
3
100
AcDbBlockEnd
  0
BLOCK
  5
115
100
AcDbEntity
  8
MAIN0
  6
CONTINUOUS
 62
3
100
AcDbBlockBegin
  2
*D17
 70
    65
 10
0.0
 20
0.0
 30
0.0
  0
LINE
  5
116
100
AcDbEntity
  8
MAIN0
  6
BYBLOCK
 62
0
370
    -2
100
AcDbLine
 10
72.19911380023297
 20
176.6073566812976
 30
0.0000000000000000
 11
72.19911380023297
 21
127.5857421215460
 31
0.0000000000000000
  0
LINE
  5
117
100
AcDbEntity
  8
MAIN0
  6
BYBLOCK
 62
0
370
    -2
100
AcDbLine
 10
74.19911380023297
 20
129.5857421215460
 30
0.0000000000000000
 11
115.1991138006198
 21
129.5857421215460
 31
0.0000000000000000
  0
INSERT
  5
118
100
AcDbEntity
  8
MAIN0
  6
BYBLOCK
 62
0
100
AcDbBlockReference
  2
_OPEN
 10
72.19911380023297
 20
129.5857421215460
 30
0.0000000000000000
 41
2.000000000000000
 42
2.000000000000000
 43
2.000000000000000
 50
180.0000000000000
  0
INSERT
  5
119
100
AcDbEntity
  8
MAIN0
  6
BYBLOCK
 62
0
100
AcDbBlockReference
  2
_OPEN
 10
117.1991138006198
 20
129.5857421215460
 30
0.0000000000000000
 41
2.000000000000000
 42
2.000000000000000
 43
2.000000000000000
 50
0.0000000000000000
  0
LINE
  5
11A
100
AcDbEntity
  8
MAIN0
  6
BYBLOCK
 62
0
370
    -2
100
AcDbLine
 10
117.1991138006198
 20
176.6073566813415
 30
0.0000000000000000
 11
117.1991138006198
 21
127.5857421215460
 31
0.0000000000000000
  0
MTEXT
  5
11B
100
AcDbEntity
  8
MAIN0
  6
BYBLOCK
 62
0
100
AcDbMText
 10
94.69911378179992
 20
131.6357420738623
 30
0.0000000000000000
 40
3.099999904632568
 41
0.0000000000000000
 44
0.7741935722041460
 71
     5
 72
     1
  1
\A1;45\H0.903226x;\U+00B10.2
 11
1.000000000000000
 21
0.0000000000000000
 31
0.0000000000000000
  7
STANDARD
  0
ENDBLK
  5
11C
100
AcDbEntity
  8
MAIN0
  6
CONTINUOUS
 62
3
100
AcDbBlockEnd
  0
BLOCK
  5
11E
100
AcDbEntity
  8
MAIN0
  6
CONTINUOUS
 62
3
100
AcDbBlockBegin
  2
*D18
 70
    65
 10
0.0
 20
0.0
 30
0.0
  0
LINE
  5
11F
100
AcDbEntity
  8
MAIN0
  6
BYBLOCK
 62
0
370
    -2
100
AcDbLine
 10
77.19911380025059
 20
243.8701827576264
 30
0.0000000000000000
 11
77.19911380025059
 21
278.7176229233708
 31
0.0000000000000000
  0
LINE
  5
120
100
AcDbEntity
  8
MAIN0
  6
BYBLOCK
 62
0
370
    -2
100
AcDbLine
 10
79.19911380025059
 20
276.7176229233708
 30
0.0000000000000000
 11
110.1991138004741
 21
276.7176229233708
 31
0.0000000000000000
  0
INSERT
  5
121
100
AcDbEntity
  8
MAIN0
  6
BYBLOCK
 62
0
100
AcDbBlockReference
  2
_OPEN
 10
77.19911380025059
 20
276.7176229233708
 30
0.0000000000000000
 41
2.000000000000000
 42
2.000000000000000
 43
2.000000000000000
 50
180.0000000000000
  0
INSERT
  5
122
100
AcDbEntity
  8
MAIN0
  6
BYBLOCK
 62
0
100
AcDbBlockReference
  2
_OPEN
 10
112.1991138004741
 20
276.7176229233708
 30
0.0000000000000000
 41
2.000000000000000
 42
2.000000000000000
 43
2.000000000000000
 50
0.0000000000000000
  0
LINE
  5
123
100
AcDbEntity
  8
MAIN0
  6
BYBLOCK
 62
0
370
    -2
100
AcDbLine
 10
112.1991138004741
 20
243.8701827576605
 30
0.0000000000000000
 11
112.1991138004741
 21
278.7176229233708
 31
0.0000000000000000
  0
MTEXT
  5
124
100
AcDbEntity
  8
MAIN0
  6
BYBLOCK
 62
0
100
AcDbMText
 10
94.69911378173592
 20
278.7676228756870
 30
0.0000000000000000
 40
3.099999904632568
 41
0.0000000000000000
 44
0.7741935722041460
 71
     5
 72
     1
  1
\A1;35\H0.903226x;\U+00B10.2
 11
1.000000000000000
 21
0.0000000000000000
 31
0.0000000000000000
  7
STANDARD
  0
ENDBLK
  5
125
100
AcDbEntity
  8
MAIN0
  6
CONTINUOUS
 62
3
100
AcDbBlockEnd
  0
BLOCK
  5
127
100
AcDbEntity
  8
MAIN0
  6
CONTINUOUS
 62
3
100
AcDbBlockBegin
  2
*D19
 70
    65
 10
0.0
 20
0.0
 30
0.0
  0
LINE
  5
128
100
AcDbEntity
  8
MAIN0
  6
BYBLOCK
 62
0
370
    -2
100
AcDbLine
 10
59.69911380027116
 20
203.2494455613615
 30
0.0000000000000000
 11
59.69911380027116
 21
119.3054699438073
 31
0.0000000000000000
  0
LINE
  5
129
100
AcDbEntity
  8
MAIN0
  6
BYBLOCK
 62
0
370
    -2
100
AcDbLine
 10
61.69911380027116
 20
121.3054699438073
 30
0.0000000000000000
 11
127.6991138005297
 21
121.3054699438073
 31
0.0000000000000000
  0
INSERT
  5
12A
100
AcDbEntity
  8
MAIN0
  6
BYBLOCK
 62
0
100
AcDbBlockReference
  2
_OPEN
 10
59.69911380027116
 20
121.3054699438073
 30
0.0000000000000000
 41
2.000000000000000
 42
2.000000000000000
 43
2.000000000000000
 50
180.0000000000000
  0
INSERT
  5
12B
100
AcDbEntity
  8
MAIN0
  6
BYBLOCK
 62
0
100
AcDbBlockReference
  2
_OPEN
 10
129.6991138005297
 20
121.3054699438073
 30
0.0000000000000000
 41
2.000000000000000
 42
2.000000000000000
 43
2.000000000000000
 50
0.0000000000000000
  0
LINE
  5
12C
100
AcDbEntity
  8
MAIN0
  6
BYBLOCK
 62
0
370
    -2
100
AcDbLine
 10
129.6991138005297
 20
203.2494455614297
 30
0.0000000000000000
 11
129.6991138005297
 21
119.3054699438073
 31
0.0000000000000000
  0
MTEXT
  5
12D
100
AcDbEntity
  8
MAIN0
  6
BYBLOCK
 62
0
100
AcDbMText
 10
94.69911381716422
 20
123.3554698961235
 30
0.0000000000000000
 40
3.099999904632568
 41
0.0000000000000000
 44
0.7741935722041460
 71
     5
 72
     1
  1
\A1;70\H0.903226x;\U+00B10.02
 11
1.000000000000000
 21
0.0000000000000000
 31
0.0000000000000000
  7
STANDARD
  0
ENDBLK
  5
12E
100
AcDbEntity
  8
MAIN0
  6
CONTINUOUS
 62
3
100
AcDbBlockEnd
  0
BLOCK
  5
1AE
100
AcDbEntity
  8
MAIN0
  6
CONTINUOUS
 62
3
100
AcDbBlockBegin
  2
*D20
 70
    65
 10
0.0
 20
0.0
 30
0.0
  0
LINE
  5
1AF
100
AcDbEntity
  8
MAIN0
  6
BYBLOCK
 62
0
370
    -2
100
AcDbLine
 10
380.0991138122924
 20
71.94317608402380
 30
0.0000000000000000
 11
392.9795429395226
 21
71.94317608402380
 31
0.0000000000000000
  0
LINE
  5
1B0
100
AcDbEntity
  8
MAIN0
  6
BYBLOCK
 62
0
370
    -2
100
AcDbLine
 10
390.9795429395226
 20
71.94317608402380
 30
0.0000000000000000
 11
390.9795429395226
 21
77.94317608402392
 31
0.0000000000000000
  0
INSERT
  5
1B1
100
AcDbEntity
  8
MAIN0
  6
BYBLOCK
 62
0
100
AcDbBlockReference
  2
_OPEN
 10
390.9795429395226
 20
71.94317608402380
 30
0.0000000000000000
 41
2.000000000000000
 42
2.000000000000000
 43
2.000000000000000
 50
90.00000000000000
  0
INSERT
  5
1B2
100
AcDbEntity
  8
MAIN0
  6
BYBLOCK
 62
0
100
AcDbBlockReference
  2
_OPEN
 10
390.9795429395226
 20
77.94317608402392
 30
0.0000000000000000
 41
2.000000000000000
 42
2.000000000000000
 43
2.000000000000000
 50
270.0000000000000
  0
LINE
  5
1B3
100
AcDbEntity
  8
MAIN0
  6
BYBLOCK
 62
0
370
    -2
100
AcDbLine
 10
390.9795429395226
 20
69.94317608402380
 30
0.0000000000000000
 11
390.9795429395226
 21
68.94317608402380
 31
0.0000000000000000
  0
LINE
  5
1B4
100
AcDbEntity
  8
MAIN0
  6
BYBLOCK
 62
0
370
    -2
100
AcDbLine
 10
390.9795429395226
 20
79.94317608402392
 30
0.0000000000000000
 11
390.9795429395226
 21
80.94317608402392
 31
0.0000000000000000
  0
LINE
  5
1B5
100
AcDbEntity
  8
MAIN0
  6
BYBLOCK
 62
0
370
    -2
100
AcDbLine
 10
358.2213329672904
 20
77.94317608402392
 30
0.0000000000000000
 11
392.9795429395226
 21
77.94317608402392
 31
0.0000000000000000
  0
MTEXT
  5
1B6
100
AcDbEntity
  8
MAIN0
  6
BYBLOCK
 62
0
100
AcDbMText
 10
388.9295429872063
 20
74.94317608402386
 30
0.0000000000000000
 40
3.099999904632568
 41
0.0000000000000000
 44
0.7741935722041460
 71
     5
 72
     1
  1
\A1;6
 11
6.123233995736766e-017
 21
1.000000000000000
 31
0.0000000000000000
  7
STANDARD
  0
ENDBLK
  5
1B7
100
AcDbEntity
  8
MAIN0
  6
CONTINUOUS
 62
3
100
AcDbBlockEnd
  0
BLOCK
  5
1B9
100
AcDbEntity
  8
MAIN0
  6
CONTINUOUS
 62
3
100
AcDbBlockBegin
  2
*D21
 70
    65
 10
0.0
 20
0.0
 30
0.0
  0
LINE
  5
1BA
100
AcDbEntity
  8
MAIN0
  6
BYBLOCK
 62
0
370
    -2
100
AcDbLine
 10
299.2991137884505
 20
71.94317608402380
 30
0.0000000000000000
 11
291.2527332975830
 21
71.94317608402380
 31
0.0000000000000000
  0
LINE
  5
1BB
100
AcDbEntity
  8
MAIN0
  6
BYBLOCK
 62
0
370
    -2
100
AcDbLine
 10
293.2527332975830
 20
73.94317608402380
 30
0.0000000000000000
 11
293.2527332975830
 21
85.94317608402392
 31
0.0000000000000000
  0
INSERT
  5
1BC
100
AcDbEntity
  8
MAIN0
  6
BYBLOCK
 62
0
100
AcDbBlockReference
  2
_OPEN
 10
293.2527332975830
 20
71.94317608402380
 30
0.0000000000000000
 41
2.000000000000000
 42
2.000000000000000
 43
2.000000000000000
 50
270.0000000000000
  0
INSERT
  5
1BD
100
AcDbEntity
  8
MAIN0
  6
BYBLOCK
 62
0
100
AcDbBlockReference
  2
_OPEN
 10
293.2527332975830
 20
87.94317608402392
 30
0.0000000000000000
 41
2.000000000000000
 42
2.000000000000000
 43
2.000000000000000
 50
90.00000000000000
  0
LINE
  5
1BE
100
AcDbEntity
  8
MAIN0
  6
BYBLOCK
 62
0
370
    -2
100
AcDbLine
 10
321.1768946334525
 20
87.94317608402392
 30
0.0000000000000000
 11
291.2527332975830
 21
87.94317608402392
 31
0.0000000000000000
  0
MTEXT
  5
1BF
100
AcDbEntity
  8
MAIN0
  6
BYBLOCK
 62
0
100
AcDbMText
 10
291.2027333452667
 20
79.94317608402386
 30
0.0000000000000000
 40
3.099999904632568
 41
0.0000000000000000
 44
0.7741935722041460
 71
     5
 72
     1
  1
\A1;16
 11
6.123233995736766e-017
 21
1.000000000000000
 31
0.0000000000000000
  7
STANDARD
  0
ENDBLK
  5
1C0
100
AcDbEntity
  8
MAIN0
  6
CONTINUOUS
 62
3
100
AcDbBlockEnd
  0
BLOCK
  5
1C3
100
AcDbEntity
  8
MAIN0
  6
CONTINUOUS
 62
3
100
AcDbBlockBegin
  2
*D22
 70
    65
 10
0.0
 20
0.0
 30
0.0
  0
LINE
  5
1C4
100
AcDbEntity
  8
MAIN0
  6
BYBLOCK
 62
0
370
    -2
100
AcDbLine
 10
189.2991137884507
 20
218.5494455729826
 30
0.0000000000000000
 11
179.9850012759808
 21
218.5494455729826
 31
0.0000000000000000
  0
LINE
  5
1C5
100
AcDbEntity
  8
MAIN0
  6
BYBLOCK
 62
0
370
    -2
100
AcDbLine
 10
181.9850012759808
 20
218.5494455729826
 30
0.0000000000000000
 11
181.9850012759808
 21
198.5494455729826
 31
0.0000000000000000
  0
INSERT
  5
1C6
100
AcDbEntity
  8
MAIN0
  6
BYBLOCK
 62
0
100
AcDbBlockReference
  2
_OPEN
 10
181.9850012759808
 20
218.5494455729826
 30
0.0000000000000000
 41
2.000000000000000
 42
2.000000000000000
 43
2.000000000000000
 50
270.0000000000000
  0
INSERT
  5
1C7
100
AcDbEntity
  8
MAIN0
  6
BYBLOCK
 62
0
100
AcDbBlockReference
  2
_OPEN
 10
181.9850012759808
 20
198.5494455729826
 30
0.0000000000000000
 41
2.000000000000000
 42
2.000000000000000
 43
2.000000000000000
 50
90.00000000000000
  0
LINE
  5
1C8
100
AcDbEntity
  8
MAIN0
  6
BYBLOCK
 62
0
370
    -2
100
AcDbLine
 10
181.9850012759808
 20
220.5494455729826
 30
0.0000000000000000
 11
181.9850012759808
 21
221.5494455729826
 31
0.0000000000000000
  0
LINE
  5
1C9
100
AcDbEntity
  8
MAIN0
  6
BYBLOCK
 62
0
370
    -2
100
AcDbLine
 10
181.9850012759808
 20
196.5494455729826
 30
0.0000000000000000
 11
181.9850012759808
 21
195.5494455729826
 31
0.0000000000000000
  0
LINE
  5
1CA
100
AcDbEntity
  8
MAIN0
  6
BYBLOCK
 62
0
370
    -2
100
AcDbLine
 10
189.2991137884507
 20
198.5494455729826
 30
0.0000000000000000
 11
179.9850012759808
 21
198.5494455729826
 31
0.0000000000000000
  0
MTEXT
  5
1CB
100
AcDbEntity
  8
MAIN0
  6
BYBLOCK
 62
0
100
AcDbMText
 10
179.9350013236646
 20
209.9035320908874
 30
0.0000000000000000
 40
3.099999904632568
 41
0.0000000000000000
 44
0.7741935722041460
 71
     5
 72
     1
  1
\A1;\U+220520H8\H0.903226x;\S＋0.033^ 　0;
 11
6.123233995736766e-017
 21
1.000000000000000
 31
0.0000000000000000
  7
KNJYOKO
  0
ENDBLK
  5
1CC
100
AcDbEntity
  8
MAIN0
  6
CONTINUOUS
 62
3
100
AcDbBlockEnd
  0
BLOCK
  5
1CF
100
AcDbEntity
  8
MAIN0
  6
CONTINUOUS
 62
3
100
AcDbBlockBegin
  2
*D23
 70
    65
 10
0.0
 20
0.0
 30
0.0
  0
LINE
  5
1D0
100
AcDbEntity
  8
MAIN0
  6
BYBLOCK
 62
0
370
    -2
100
AcDbLine
 10
189.2991137884513
 20
248.5494455729824
 30
0.0000000000000000
 11
169.0809974162960
 21
248.5494455729824
 31
0.0000000000000000
  0
LINE
  5
1D1
100
AcDbEntity
  8
MAIN0
  6
BYBLOCK
 62
0
370
    -2
100
AcDbLine
 10
171.0809974162960
 20
246.5494455729824
 30
0.0000000000000000
 11
171.0809974162960
 21
170.5494455729826
 31
0.0000000000000000
  0
INSERT
  5
1D2
100
AcDbEntity
  8
MAIN0
  6
BYBLOCK
 62
0
100
AcDbBlockReference
  2
_OPEN
 10
171.0809974162960
 20
248.5494455729824
 30
0.0000000000000000
 41
2.000000000000000
 42
2.000000000000000
 43
2.000000000000000
 50
90.00000000000000
  0
INSERT
  5
1D3
100
AcDbEntity
  8
MAIN0
  6
BYBLOCK
 62
0
100
AcDbBlockReference
  2
_OPEN
 10
171.0809974162960
 20
168.5494455729826
 30
0.0000000000000000
 41
2.000000000000000
 42
2.000000000000000
 43
2.000000000000000
 50
270.0000000000000
  0
LINE
  5
1D4
100
AcDbEntity
  8
MAIN0
  6
BYBLOCK
 62
0
370
    -2
100
AcDbLine
 10
189.2991137884507
 20
168.5494455729826
 30
0.0000000000000000
 11
169.0809974162960
 21
168.5494455729826
 31
0.0000000000000000
  0
MTEXT
  5
1D5
100
AcDbEntity
  8
MAIN0
  6
BYBLOCK
 62
0
100
AcDbMText
 10
169.0309974639797
 20
208.5494455729825
 30
0.0000000000000000
 40
3.099999904632568
 41
0.0000000000000000
 44
0.7741935722041460
 71
     5
 72
     1
  1
\A1;\U+220580
 11
6.123233995736766e-017
 21
1.000000000000000
 31
0.0000000000000000
  7
STANDARD
  0
ENDBLK
  5
1D6
100
AcDbEntity
  8
MAIN0
  6
CONTINUOUS
 62
3
100
AcDbBlockEnd
  0
BLOCK
  5
1DC
100
AcDbEntity
  8
MAIN0
  6
CONTINUOUS
 62
3
100
AcDbBlockBegin
  2
*D24
 70
    65
 10
0.0
 20
0.0
 30
0.0
  0
LINE
  5
1DD
100
AcDbEntity
  8
MAIN0
  6
BYBLOCK
 62
0
370
    -2
100
AcDbLine
 10
336.3991138003715
 20
71.74317607210301
 30
0.0000000000000000
 11
336.3991138003715
 21
59.91615251757045
 31
0.0000000000000000
  0
LINE
  5
1DE
100
AcDbEntity
  8
MAIN0
  6
BYBLOCK
 62
0
370
    -2
100
AcDbLine
 10
336.3991138003715
 20
61.91615251757045
 30
0.0000000000000000
 11
342.9991138003715
 21
61.91615251757045
 31
0.0000000000000000
  0
INSERT
  5
1DF
100
AcDbEntity
  8
MAIN0
  6
BYBLOCK
 62
0
100
AcDbBlockReference
  2
_OPEN
 10
336.3991138003715
 20
61.91615251757045
 30
0.0000000000000000
 41
2.000000000000000
 42
2.000000000000000
 43
2.000000000000000
 50
0.0000000000000000
  0
INSERT
  5
1E0
100
AcDbEntity
  8
MAIN0
  6
BYBLOCK
 62
0
100
AcDbBlockReference
  2
_OPEN
 10
342.9991138003715
 20
61.91615251757045
 30
0.0000000000000000
 41
2.000000000000000
 42
2.000000000000000
 43
2.000000000000000
 50
180.0000000000000
  0
LINE
  5
1E1
100
AcDbEntity
  8
MAIN0
  6
BYBLOCK
 62
0
370
    -2
100
AcDbLine
 10
334.3991138003715
 20
61.91615251757045
 30
0.0000000000000000
 11
333.3991138003715
 21
61.91615251757045
 31
0.0000000000000000
  0
LINE
  5
1E2
100
AcDbEntity
  8
MAIN0
  6
BYBLOCK
 62
0
370
    -2
100
AcDbLine
 10
344.9991138003715
 20
61.91615251757045
 30
0.0000000000000000
 11
357.8857333682425
 21
61.91615251757045
 31
0.0000000000000000
  0
LINE
  5
1E3
100
AcDbEntity
  8
MAIN0
  6
BYBLOCK
 62
0
370
    -2
100
AcDbLine
 10
342.9991138003715
 20
71.74317607210301
 30
0.0000000000000000
 11
342.9991138003715
 21
59.91615251757045
 31
0.0000000000000000
  0
MTEXT
  5
1E4
100
AcDbEntity
  8
MAIN0
  6
BYBLOCK
 62
0
100
AcDbMText
 10
351.8357334998533
 20
63.96615246988674
 30
0.0000000000000000
 40
3.099999904632568
 41
0.0000000000000000
 44
0.7741935722041460
 71
     5
 72
     1
  1
\A1;3-\U+22056.6
 11
1.000000000000000
 21
0.0000000000000000
 31
0.0000000000000000
  7
STANDARD
  0
ENDBLK
  5
1E5
100
AcDbEntity
  8
MAIN0
  6
CONTINUOUS
 62
3
100
AcDbBlockEnd
  0
BLOCK
  5
1E7
100
AcDbEntity
  8
MAIN0
  6
CONTINUOUS
 62
3
100
AcDbBlockBegin
  2
*D25
 70
    65
 10
0.0
 20
0.0
 30
0.0
  0
LINE
  5
1E8
100
AcDbEntity
  8
MAIN0
  6
BYBLOCK
 62
0
370
    -2
100
AcDbLine
 10
334.1991138003715
 20
108.3431760959532
 30
0.0000000000000000
 11
334.1991138003715
 21
141.5482821916316
 31
0.0000000000000000
  0
LINE
  5
1E9
100
AcDbEntity
  8
MAIN0
  6
BYBLOCK
 62
0
370
    -2
100
AcDbLine
 10
336.1991138003715
 20
139.5482821916316
 30
0.0000000000000000
 11
343.1991138003715
 21
139.5482821916316
 31
0.0000000000000000
  0
INSERT
  5
1EA
100
AcDbEntity
  8
MAIN0
  6
BYBLOCK
 62
0
100
AcDbBlockReference
  2
_OPEN
 10
334.1991138003715
 20
139.5482821916316
 30
0.0000000000000000
 41
2.000000000000000
 42
2.000000000000000
 43
2.000000000000000
 50
180.0000000000000
  0
INSERT
  5
1EB
100
AcDbEntity
  8
MAIN0
  6
BYBLOCK
 62
0
100
AcDbBlockReference
  2
_OPEN
 10
345.1991138003715
 20
139.5482821916316
 30
0.0000000000000000
 41
2.000000000000000
 42
2.000000000000000
 43
2.000000000000000
 50
0.0000000000000000
  0
LINE
  5
1EC
100
AcDbEntity
  8
MAIN0
  6
BYBLOCK
 62
0
370
    -2
100
AcDbLine
 10
345.1991138003715
 20
139.5482821916316
 30
0.0000000000000000
 11
357.1467542193778
 21
139.5482821916316
 31
0.0000000000000000
  0
LINE
  5
1ED
100
AcDbEntity
  8
MAIN0
  6
BYBLOCK
 62
0
370
    -2
100
AcDbLine
 10
345.1991138003715
 20
108.3431760959532
 30
0.0000000000000000
 11
345.1991138003715
 21
141.5482821916316
 31
0.0000000000000000
  0
MTEXT
  5
1EE
100
AcDbEntity
  8
MAIN0
  6
BYBLOCK
 62
0
100
AcDbMText
 10
351.6467542955382
 20
141.5982821439479
 30
0.0000000000000000
 40
3.099999904632568
 41
0.0000000000000000
 44
0.7741935722041460
 71
     5
 72
     1
  1
\A1;3-\U+220511
 11
1.000000000000000
 21
0.0000000000000000
 31
0.0000000000000000
  7
STANDARD
  0
ENDBLK
  5
1EF
100
AcDbEntity
  8
MAIN0
  6
CONTINUOUS
 62
3
100
AcDbBlockEnd
  0
BLOCK
  5
1F1
100
AcDbEntity
  8
MAIN0
  6
CONTINUOUS
 62
3
100
AcDbBlockBegin
  2
*D26
 70
    65
 10
0.0
 20
0.0
 30
0.0
  0
LINE
  5
1F2
100
AcDbEntity
  8
MAIN0
  6
BYBLOCK
 62
0
370
    -2
100
AcDbLine
 10
380.0991138122924
 20
71.94317608402380
 30
0.0000000000000000
 11
401.6497152629300
 21
71.94317608402380
 31
0.0000000000000000
  0
LINE
  5
1F3
100
AcDbEntity
  8
MAIN0
  6
BYBLOCK
 62
0
370
    -2
100
AcDbLine
 10
399.6497152629300
 20
73.94317608402380
 30
0.0000000000000000
 11
399.6497152629300
 21
99.44317608403223
 31
0.0000000000000000
  0
INSERT
  5
1F4
100
AcDbEntity
  8
MAIN0
  6
BYBLOCK
 62
0
100
AcDbBlockReference
  2
_OPEN
 10
399.6497152629300
 20
71.94317608402380
 30
0.0000000000000000
 41
2.000000000000000
 42
2.000000000000000
 43
2.000000000000000
 50
270.0000000000000
  0
INSERT
  5
1F5
100
AcDbEntity
  8
MAIN0
  6
BYBLOCK
 62
0
100
AcDbBlockReference
  2
_OPEN
 10
399.6497152629300
 20
101.4431760840322
 30
0.0000000000000000
 41
2.000000000000000
 42
2.000000000000000
 43
2.000000000000000
 50
90.00000000000000
  0
LINE
  5
1F6
100
AcDbEntity
  8
MAIN0
  6
BYBLOCK
 62
0
370
    -2
100
AcDbLine
 10
345.9991138122924
 20
101.4431760840322
 30
0.0000000000000000
 11
401.6497152629300
 21
101.4431760840322
 31
0.0000000000000000
  0
MTEXT
  5
1F7
100
AcDbEntity
  8
MAIN0
  6
BYBLOCK
 62
0
100
AcDbMText
 10
397.5997153106138
 20
86.69317608402801
 30
0.0000000000000000
 40
3.099999904632568
 41
0.0000000000000000
 44
0.7741935722041460
 71
     5
 72
     1
  1
\A1;29.5
 11
6.123233995736766e-017
 21
1.000000000000000
 31
0.0000000000000000
  7
STANDARD
  0
ENDBLK
  5
1F8
100
AcDbEntity
  8
MAIN0
  6
CONTINUOUS
 62
3
100
AcDbBlockEnd
  0
BLOCK
  5
1FA
100
AcDbEntity
  8
MAIN0
  6
CONTINUOUS
 62
3
100
AcDbBlockBegin
  2
*D27
 70
    65
 10
0.0
 20
0.0
 30
0.0
  0
LINE
  5
1FB
100
AcDbEntity
  8
MAIN0
  6
BYBLOCK
 62
0
370
    -2
100
AcDbLine
 10
249.2813791123159
 20
222.2494455729824
 30
0.0000000000000000
 11
262.1032131190204
 21
222.2494455729825
 31
0.0000000000000000
  0
LINE
  5
1FC
100
AcDbEntity
  8
MAIN0
  6
BYBLOCK
 62
0
370
    -2
100
AcDbLine
 10
260.1032131190204
 20
222.2494455729825
 30
0.0000000000000000
 11
260.1032131190204
 21
194.8494455729825
 31
0.0000000000000000
  0
INSERT
  5
1FD
100
AcDbEntity
  8
MAIN0
  6
BYBLOCK
 62
0
100
AcDbBlockReference
  2
_OPEN
 10
260.1032131190204
 20
222.2494455729825
 30
0.0000000000000000
 41
2.000000000000000
 42
2.000000000000000
 43
2.000000000000000
 50
270.0000000000000
  0
INSERT
  5
1FE
100
AcDbEntity
  8
MAIN0
  6
BYBLOCK
 62
0
100
AcDbBlockReference
  2
_OPEN
 10
260.1032131190204
 20
194.8494455729825
 30
0.0000000000000000
 41
2.000000000000000
 42
2.000000000000000
 43
2.000000000000000
 50
90.00000000000000
  0
LINE
  5
1FF
100
AcDbEntity
  8
MAIN0
  6
BYBLOCK
 62
0
370
    -2
100
AcDbLine
 10
260.1032131190204
 20
224.2494455729825
 30
0.0000000000000000
 11
260.1032131190204
 21
225.2494455729825
 31
0.0000000000000000
  0
LINE
  5
200
100
AcDbEntity
  8
MAIN0
  6
BYBLOCK
 62
0
370
    -2
100
AcDbLine
 10
260.1032131190204
 20
192.8494455729825
 30
0.0000000000000000
 11
260.1032131190204
 21
191.8494455729825
 31
0.0000000000000000
  0
LINE
  5
201
100
AcDbEntity
  8
MAIN0
  6
BYBLOCK
 62
0
370
    -2
100
AcDbLine
 10
249.2813791123141
 20
194.8494455729825
 30
0.0000000000000000
 11
262.1032131190204
 21
194.8494455729825
 31
0.0000000000000000
  0
MTEXT
  5
202
100
AcDbEntity
  8
MAIN0
  6
BYBLOCK
 62
0
100
AcDbMText
 10
258.0532131667041
 20
208.5494455729825
 30
0.0000000000000000
 40
3.099999904632568
 41
0.0000000000000000
 44
0.7741935722041460
 71
     5
 72
     1
  1
\A1;\U+220527.4
 11
6.123233995736766e-017
 21
1.000000000000000
 31
0.0000000000000000
  7
STANDARD
  0
ENDBLK
  5
203
100
AcDbEntity
  8
MAIN0
  6
CONTINUOUS
 62
3
100
AcDbBlockEnd
  0
BLOCK
  5
205
100
AcDbEntity
  8
MAIN0
  6
CONTINUOUS
 62
3
100
AcDbBlockBegin
  2
*D28
 70
    65
 10
0.0
 20
0.0
 30
0.0
  0
LINE
  5
206
100
AcDbEntity
  8
MAIN0
  6
BYBLOCK
 62
0
370
    -2
100
AcDbLine
 10
237.4991138128808
 20
257.5494455729995
 30
0.0000000000000000
 11
278.5684353826616
 21
257.5494455729995
 31
0.0000000000000000
  0
LINE
  5
207
100
AcDbEntity
  8
MAIN0
  6
BYBLOCK
 62
0
370
    -2
100
AcDbLine
 10
276.5684353826616
 20
255.5494455729995
 30
0.0000000000000000
 11
276.5684353826616
 21
161.5494455730010
 31
0.0000000000000000
  0
INSERT
  5
208
100
AcDbEntity
  8
MAIN0
  6
BYBLOCK
 62
0
100
AcDbBlockReference
  2
_OPEN
 10
276.5684353826616
 20
257.5494455729995
 30
0.0000000000000000
 41
2.000000000000000
 42
2.000000000000000
 43
2.000000000000000
 50
90.00000000000000
  0
INSERT
  5
209
100
AcDbEntity
  8
MAIN0
  6
BYBLOCK
 62
0
100
AcDbBlockReference
  2
_OPEN
 10
276.5684353826616
 20
159.5494455730010
 30
0.0000000000000000
 41
2.000000000000000
 42
2.000000000000000
 43
2.000000000000000
 50
270.0000000000000
  0
LINE
  5
20A
100
AcDbEntity
  8
MAIN0
  6
BYBLOCK
 62
0
370
    -2
100
AcDbLine
 10
237.4991138128808
 20
159.5494455729678
 30
0.0000000000000000
 11
278.5684353826616
 21
159.5494455730027
 31
0.0000000000000000
  0
MTEXT
  5
20B
100
AcDbEntity
  8
MAIN0
  6
BYBLOCK
 62
0
100
AcDbMText
 10
274.5184354303453
 20
208.5494455730003
 30
0.0000000000000000
 40
3.099999904632568
 41
0.0000000000000000
 44
0.7741935722041460
 71
     5
 72
     1
  1
\A1;\U+220598
 11
6.123233995736766e-017
 21
1.000000000000000
 31
0.0000000000000000
  7
STANDARD
  0
ENDBLK
  5
20C
100
AcDbEntity
  8
MAIN0
  6
CONTINUOUS
 62
3
100
AcDbBlockEnd
  0
BLOCK
  5
20F
100
AcDbEntity
  8
MAIN0
  6
CONTINUOUS
 62
3
100
AcDbBlockBegin
  2
*D29
 70
    65
 10
0.0
 20
0.0
 30
0.0
  0
LINE
  5
210
100
AcDbEntity
  8
MAIN0
  6
BYBLOCK
 62
0
370
    -2
100
AcDbLine
 10
189.6991138003715
 20
168.1494455610615
 30
0.0000000000000000
 11
189.6991138003715
 21
150.1137250902623
 31
0.0000000000000000
  0
LINE
  5
211
100
AcDbEntity
  8
MAIN0
  6
BYBLOCK
 62
0
370
    -2
100
AcDbLine
 10
191.6991138003715
 20
152.1137250902623
 30
0.0000000000000000
 11
223.6991138003785
 21
152.1137250902623
 31
0.0000000000000000
  0
INSERT
  5
212
100
AcDbEntity
  8
MAIN0
  6
BYBLOCK
 62
0
100
AcDbBlockReference
  2
_OPEN
 10
189.6991138003715
 20
152.1137250902623
 30
0.0000000000000000
 41
2.000000000000000
 42
2.000000000000000
 43
2.000000000000000
 50
180.0000000000000
  0
INSERT
  5
213
100
AcDbEntity
  8
MAIN0
  6
BYBLOCK
 62
0
100
AcDbBlockReference
  2
_OPEN
 10
225.6991138003785
 20
152.1137250902623
 30
0.0000000000000000
 41
2.000000000000000
 42
2.000000000000000
 43
2.000000000000000
 50
0.0000000000000000
  0
LINE
  5
214
100
AcDbEntity
  8
MAIN0
  6
BYBLOCK
 62
0
370
    -2
100
AcDbLine
 10
225.6991138003785
 20
184.2752523675411
 30
0.0000000000000000
 11
225.6991138003785
 21
150.1137250902623
 31
0.0000000000000000
  0
MTEXT
  5
215
100
AcDbEntity
  8
MAIN0
  6
BYBLOCK
 62
0
100
AcDbMText
 10
207.6991138003750
 20
154.1637250425786
 30
0.0000000000000000
 40
3.099999904632568
 41
0.0000000000000000
 44
0.7741935722041460
 71
     5
 72
     1
  1
\A1;36
 11
1.000000000000000
 21
0.0000000000000000
 31
0.0000000000000000
  7
STANDARD
  0
ENDBLK
  5
216
100
AcDbEntity
  8
MAIN0
  6
CONTINUOUS
 62
3
100
AcDbBlockEnd
  0
BLOCK
  5
218
100
AcDbEntity
  8
MAIN0
  6
CONTINUOUS
 62
3
100
AcDbBlockBegin
  2
*D30
 70
    65
 10
0.0
 20
0.0
 30
0.0
  0
LINE
  5
219
100
AcDbEntity
  8
MAIN0
  6
BYBLOCK
 62
0
370
    -2
100
AcDbLine
 10
225.6991138003785
 20
184.2752523675411
 30
0.0000000000000000
 11
225.6991138003785
 21
150.1137250902623
 31
0.0000000000000000
  0
LINE
  5
21A
100
AcDbEntity
  8
MAIN0
  6
BYBLOCK
 62
0
370
    -2
100
AcDbLine
 10
227.6991138003785
 20
152.1137250902623
 30
0.0000000000000000
 11
236.6991138003682
 21
152.1137250902623
 31
0.0000000000000000
  0
INSERT
  5
21B
100
AcDbEntity
  8
MAIN0
  6
BYBLOCK
 62
0
100
AcDbBlockReference
  2
_OPEN
 10
225.6991138003785
 20
152.1137250902623
 30
0.0000000000000000
 41
2.000000000000000
 42
2.000000000000000
 43
2.000000000000000
 50
180.0000000000000
  0
INSERT
  5
21C
100
AcDbEntity
  8
MAIN0
  6
BYBLOCK
 62
0
100
AcDbBlockReference
  2
_OPEN
 10
238.6991138003682
 20
152.1137250902623
 30
0.0000000000000000
 41
2.000000000000000
 42
2.000000000000000
 43
2.000000000000000
 50
0.0000000000000000
  0
LINE
  5
21D
100
AcDbEntity
  8
MAIN0
  6
BYBLOCK
 62
0
370
    -2
100
AcDbLine
 10
238.6991138003682
 20
152.1137250902623
 30
0.0000000000000000
 11
247.8904408953999
 21
152.1137250902623
 31
0.0000000000000000
  0
LINE
  5
21E
100
AcDbEntity
  8
MAIN0
  6
BYBLOCK
 62
0
370
    -2
100
AcDbLine
 10
238.6991138003682
 20
162.7494455610623
 30
0.0000000000000000
 11
238.6991138003682
 21
150.1137250902623
 31
0.0000000000000000
  0
MTEXT
  5
21F
100
AcDbEntity
  8
MAIN0
  6
BYBLOCK
 62
0
100
AcDbMText
 10
245.7904406492782
 20
154.1637250425786
 30
0.0000000000000000
 40
3.099999904632568
 41
0.0000000000000000
 44
0.7741935722041460
 71
     5
 72
     1
  1
\A1;13
 11
1.000000000000000
 21
0.0000000000000000
 31
0.0000000000000000
  7
STANDARD
  0
ENDBLK
  5
220
100
AcDbEntity
  8
MAIN0
  6
CONTINUOUS
 62
3
100
AcDbBlockEnd
  0
BLOCK
  5
222
100
AcDbEntity
  8
MAIN0
  6
CONTINUOUS
 62
3
100
AcDbBlockBegin
  2
*D31
 70
    65
 10
0.0
 20
0.0
 30
0.0
  0
LINE
  5
223
100
AcDbEntity
  8
MAIN0
  6
BYBLOCK
 62
0
370
    -2
100
AcDbLine
 10
227.6991138003743
 20
231.2955881540995
 30
0.0000000000000000
 11
249.6991138003968
 21
231.2955881540995
 31
0.0000000000000000
  0
INSERT
  5
224
100
AcDbEntity
  8
MAIN0
  6
BYBLOCK
 62
0
100
AcDbBlockReference
  2
_OPEN
 10
225.6991138003743
 20
231.2955881540995
 30
0.0000000000000000
 41
2.000000000000000
 42
2.000000000000000
 43
2.000000000000000
 50
180.0000000000000
  0
INSERT
  5
225
100
AcDbEntity
  8
MAIN0
  6
BYBLOCK
 62
0
100
AcDbBlockReference
  2
_OPEN
 10
251.6991138003968
 20
231.2955881540995
 30
0.0000000000000000
 41
2.000000000000000
 42
2.000000000000000
 43
2.000000000000000
 50
0.0000000000000000
  0
LINE
  5
226
100
AcDbEntity
  8
MAIN0
  6
BYBLOCK
 62
0
370
    -2
100
AcDbLine
 10
251.6991138003968
 20
231.2955881540995
 30
0.0000000000000000
 11
265.2344026111268
 21
231.2955881540995
 31
0.0000000000000000
  0
LINE
  5
227
100
AcDbEntity
  8
MAIN0
  6
BYBLOCK
 62
0
370
    -2
100
AcDbLine
 10
251.6991138003968
 20
220.3494455849040
 30
0.0000000000000000
 11
251.6991138003968
 21
233.2955881540995
 31
0.0000000000000000
  0
MTEXT
  5
228
100
AcDbEntity
  8
MAIN0
  6
BYBLOCK
 62
0
100
AcDbMText
 10
258.9344027969730
 20
233.3455881064158
 30
0.0000000000000000
 40
3.099999904632568
 41
0.0000000000000000
 44
0.7741935722041460
 71
     5
 72
     1
  1
\A1;MAX 26
 11
1.000000000000000
 21
0.0000000000000000
 31
0.0000000000000000
  7
STANDARD
  0
ENDBLK
  5
229
100
AcDbEntity
  8
MAIN0
  6
CONTINUOUS
 62
3
100
AcDbBlockEnd
  0
BLOCK
  5
22E
100
AcDbEntity
  8
MAIN0
  6
CONTINUOUS
 62
3
100
AcDbBlockBegin
  2
*D32
 70
    65
 10
0.0
 20
0.0
 30
0.0
  0
LINE
  5
22F
100
AcDbEntity
  8
MAIN0
  6
BYBLOCK
 62
0
370
    -2
100
AcDbLine
 10
214.6991138004040
 20
258.3494455848866
 30
0.0000000000000000
 11
214.6991138004040
 21
264.9260144290345
 31
0.0000000000000000
  0
LINE
  5
230
100
AcDbEntity
  8
MAIN0
  6
BYBLOCK
 62
0
370
    -2
100
AcDbLine
 10
216.6991138004040
 20
262.9260144290345
 30
0.0000000000000000
 11
224.1991138004040
 21
262.9260144290345
 31
0.0000000000000000
  0
INSERT
  5
231
100
AcDbEntity
  8
MAIN0
  6
BYBLOCK
 62
0
100
AcDbBlockReference
  2
_OPEN
 10
214.6991138004040
 20
262.9260144290345
 30
0.0000000000000000
 41
2.000000000000000
 42
2.000000000000000
 43
2.000000000000000
 50
180.0000000000000
  0
INSERT
  5
232
100
AcDbEntity
  8
MAIN0
  6
BYBLOCK
 62
0
100
AcDbBlockReference
  2
_OPEN
 10
226.1991138004040
 20
262.9260144290345
 30
0.0000000000000000
 41
2.000000000000000
 42
2.000000000000000
 43
2.000000000000000
 50
0.0000000000000000
  0
LINE
  5
233
100
AcDbEntity
  8
MAIN0
  6
BYBLOCK
 62
0
370
    -2
100
AcDbLine
 10
226.1991138004040
 20
258.3494455849043
 30
0.0000000000000000
 11
226.1991138004040
 21
264.9260144290345
 31
0.0000000000000000
  0
MTEXT
  5
234
100
AcDbEntity
  8
MAIN0
  6
BYBLOCK
 62
0
100
AcDbMText
 10
220.4491138004040
 20
264.9760143813508
 30
0.0000000000000000
 40
3.099999904632568
 41
0.0000000000000000
 44
0.7741935722041460
 71
     5
 72
     1
  1
\A1;11.5
 11
1.000000000000000
 21
0.0000000000000000
 31
0.0000000000000000
  7
STANDARD
  0
ENDBLK
  5
235
100
AcDbEntity
  8
MAIN0
  6
CONTINUOUS
 62
3
100
AcDbBlockEnd
  0
BLOCK
  5
239
100
AcDbEntity
  8
MAIN0
  6
CONTINUOUS
 62
3
100
AcDbBlockBegin
  2
*D33
 70
    65
 10
0.0
 20
0.0
 30
0.0
  0
LINE
  5
23A
100
AcDbEntity
  8
MAIN0
  6
BYBLOCK
 62
0
370
    -2
100
AcDbLine
 10
224.7670630047298
 20
225.5494455729826
 30
0.0000000000000000
 11
270.5865424175181
 21
225.5494455729826
 31
0.0000000000000000
  0
LINE
  5
23B
100
AcDbEntity
  8
MAIN0
  6
BYBLOCK
 62
0
370
    -2
100
AcDbLine
 10
268.5865424175181
 20
223.5494455729826
 30
0.0000000000000000
 11
268.5865424175181
 21
193.5494455729826
 31
0.0000000000000000
  0
INSERT
  5
23C
100
AcDbEntity
  8
MAIN0
  6
BYBLOCK
 62
0
100
AcDbBlockReference
  2
_OPEN
 10
268.5865424175181
 20
225.5494455729826
 30
0.0000000000000000
 41
2.000000000000000
 42
2.000000000000000
 43
2.000000000000000
 50
90.00000000000000
  0
INSERT
  5
23D
100
AcDbEntity
  8
MAIN0
  6
BYBLOCK
 62
0
100
AcDbBlockReference
  2
_OPEN
 10
268.5865424175181
 20
191.5494455729826
 30
0.0000000000000000
 41
2.000000000000000
 42
2.000000000000000
 43
2.000000000000000
 50
270.0000000000000
  0
LINE
  5
23E
100
AcDbEntity
  8
MAIN0
  6
BYBLOCK
 62
0
370
    -2
100
AcDbLine
 10
224.7670630047298
 20
191.5494455729826
 30
0.0000000000000000
 11
270.5865424175181
 21
191.5494455729826
 31
0.0000000000000000
  0
MTEXT
  5
23F
100
AcDbEntity
  8
MAIN0
  6
BYBLOCK
 62
0
100
AcDbMText
 10
266.5365424652018
 20
208.5494456493510
 30
0.0000000000000000
 40
3.099999904632568
 41
0.0000000000000000
 44
0.7741935722041460
 71
     5
 72
     1
  1
\A1;\U+220534H7\H0.903226x;\S＋0.025^ 　0;
 11
6.123233995736766e-017
 21
1.000000000000000
 31
0.0000000000000000
  7
KNJYOKO
  0
ENDBLK
  5
240
100
AcDbEntity
  8
MAIN0
  6
CONTINUOUS
 62
3
100
AcDbBlockEnd
  0
BLOCK
  5
245
100
AcDbEntity
  8
MAIN0
  6
CONTINUOUS
 62
3
100
AcDbBlockBegin
  2
*D34
 70
    65
 10
0.0
 20
0.0
 30
0.0
  0
LINE
  5
246
100
AcDbEntity
  8
MAIN0
  6
BYBLOCK
 62
0
370
    -2
100
AcDbLine
 10
189.6991138003715
 20
227.5339600468026
 30
0.0000000000000000
 11
193.1991138003715
 21
227.5339600468026
 31
0.0000000000000000
  0
INSERT
  5
247
100
AcDbEntity
  8
MAIN0
  6
BYBLOCK
 62
0
100
AcDbBlockReference
  2
_OPEN
 10
189.6991138003715
 20
227.5339600468026
 30
0.0000000000000000
 41
2.000000000000000
 42
2.000000000000000
 43
2.000000000000000
 50
0.0000000000000000
  0
INSERT
  5
248
100
AcDbEntity
  8
MAIN0
  6
BYBLOCK
 62
0
100
AcDbBlockReference
  2
_OPEN
 10
193.1991138003715
 20
227.5339600468026
 30
0.0000000000000000
 41
2.000000000000000
 42
2.000000000000000
 43
2.000000000000000
 50
180.0000000000000
  0
LINE
  5
249
100
AcDbEntity
  8
MAIN0
  6
BYBLOCK
 62
0
370
    -2
100
AcDbLine
 10
187.6991138003715
 20
227.5339600468026
 30
0.0000000000000000
 11
182.5459904216178
 21
227.5339600468026
 31
0.0000000000000000
  0
LINE
  5
24A
100
AcDbEntity
  8
MAIN0
  6
BYBLOCK
 62
0
370
    -2
100
AcDbLine
 10
195.1991138003715
 20
227.5339600468026
 30
0.0000000000000000
 11
196.1991138003715
 21
227.5339600468026
 31
0.0000000000000000
  0
LINE
  5
24B
100
AcDbEntity
  8
MAIN0
  6
BYBLOCK
 62
0
370
    -2
100
AcDbLine
 10
193.1991138003715
 20
219.3494455849035
 30
0.0000000000000000
 11
193.1991138003715
 21
229.5339600468026
 31
0.0000000000000000
  0
MTEXT
  5
24C
100
AcDbEntity
  8
MAIN0
  6
BYBLOCK
 62
0
100
AcDbMText
 10
185.1959904946195
 20
229.5839599991189
 30
0.0000000000000000
 40
3.099999904632568
 41
0.0000000000000000
 44
0.7741935722041460
 71
     5
 72
     1
  1
\A1;3.5
 11
1.000000000000000
 21
0.0000000000000000
 31
0.0000000000000000
  7
STANDARD
  0
ENDBLK
  5
24D
100
AcDbEntity
  8
MAIN0
  6
CONTINUOUS
 62
3
100
AcDbBlockEnd
  0
BLOCK
  5
3A2
100
AcDbEntity
  8
MAIN0
  6
CONTINUOUS
 62
3
100
AcDbBlockBegin
  2
*D35
 70
    65
 10
0.0
 20
0.0
 30
0.0
  0
LINE
  5
3A3
100
AcDbEntity
  8
MAIN0
  6
BYBLOCK
 62
0
370
    -2
100
AcDbLine
 10
240.3709934182071
 20
131.5311945586453
 30
0.0000000000000000
 11
233.5160987871251
 21
131.5311945586453
 31
0.0000000000000000
  0
LINE
  5
3A4
100
AcDbEntity
  8
MAIN0
  6
BYBLOCK
 62
0
370
    -2
100
AcDbLine
 10
235.5160987871251
 20
131.5311945586453
 30
0.0000000000000000
 11
235.5160987871251
 21
128.5311945586453
 31
0.0000000000000000
  0
INSERT
  5
3A5
100
AcDbEntity
  8
MAIN0
  6
BYBLOCK
 62
0
100
AcDbBlockReference
  2
_OPEN
 10
235.5160987871251
 20
131.5311945586453
 30
0.0000000000000000
 41
2.000000000000000
 42
2.000000000000000
 43
2.000000000000000
 50
270.0000000000000
  0
INSERT
  5
3A6
100
AcDbEntity
  8
MAIN0
  6
BYBLOCK
 62
0
100
AcDbBlockReference
  2
_OPEN
 10
235.5160987871251
 20
128.5311945586453
 30
0.0000000000000000
 41
2.000000000000000
 42
2.000000000000000
 43
2.000000000000000
 50
90.00000000000000
  0
LINE
  5
3A7
100
AcDbEntity
  8
MAIN0
  6
BYBLOCK
 62
0
370
    -2
100
AcDbLine
 10
235.5160987871251
 20
133.5311945586453
 30
0.0000000000000000
 11
235.5160987871251
 21
138.9133618979703
 31
0.0000000000000000
  0
LINE
  5
3A8
100
AcDbEntity
  8
MAIN0
  6
BYBLOCK
 62
0
370
    -2
100
AcDbLine
 10
235.5160987871251
 20
126.5311945586453
 30
0.0000000000000000
 11
235.5160987871251
 21
125.5311945586453
 31
0.0000000000000000
  0
LINE
  5
3A9
100
AcDbEntity
  8
MAIN0
  6
BYBLOCK
 62
0
370
    -2
100
AcDbLine
 10
240.3709934182071
 20
128.5311945586453
 30
0.0000000000000000
 11
233.5160987871251
 21
128.5311945586453
 31
0.0000000000000000
  0
MTEXT
  5
3AA
100
AcDbEntity
  8
MAIN0
  6
BYBLOCK
 62
0
100
AcDbMText
 10
233.4660988348088
 20
136.5633621193074
 30
0.0000000000000000
 40
3.099999904632568
 41
0.0000000000000000
 44
0.7741935722041460
 71
     5
 72
     1
  1
\A1;\U+22053
 11
6.123233995736766e-017
 21
1.000000000000000
 31
0.0000000000000000
  7
STANDARD
  0
ENDBLK
  5
3AB
100
AcDbEntity
  8
MAIN0
  6
CONTINUOUS
 62
3
100
AcDbBlockEnd
  0
BLOCK
  5
3AD
100
AcDbEntity
  8
MAIN0
  6
CONTINUOUS
 62
3
100
AcDbBlockBegin
  2
*D36
 70
    65
 10
0.0
 20
0.0
 30
0.0
  0
LINE
  5
3AE
100
AcDbEntity
  8
MAIN0
  6
BYBLOCK
 62
0
370
    -2
100
AcDbLine
 10
249.3709934182073
 20
133.3311945586449
 30
0.0000000000000000
 11
225.9767866752847
 21
133.3311945586449
 31
0.0000000000000000
  0
LINE
  5
3AF
100
AcDbEntity
  8
MAIN0
  6
BYBLOCK
 62
0
370
    -2
100
AcDbLine
 10
227.9767866752847
 20
131.3311945586449
 30
0.0000000000000000
 11
227.9767866752847
 21
128.7311945586449
 31
0.0000000000000000
  0
INSERT
  5
3B0
100
AcDbEntity
  8
MAIN0
  6
BYBLOCK
 62
0
100
AcDbBlockReference
  2
_OPEN
 10
227.9767866752847
 20
133.3311945586449
 30
0.0000000000000000
 41
2.000000000000000
 42
2.000000000000000
 43
2.000000000000000
 50
90.00000000000000
  0
INSERT
  5
3B1
100
AcDbEntity
  8
MAIN0
  6
BYBLOCK
 62
0
100
AcDbBlockReference
  2
_OPEN
 10
227.9767866752847
 20
126.7311945586449
 30
0.0000000000000000
 41
2.000000000000000
 42
2.000000000000000
 43
2.000000000000000
 50
270.0000000000000
  0
LINE
  5
3B2
100
AcDbEntity
  8
MAIN0
  6
BYBLOCK
 62
0
370
    -2
100
AcDbLine
 10
227.9767866752847
 20
133.3311945586449
 30
0.0000000000000000
 11
227.9767866752847
 21
141.9865585952049
 31
0.0000000000000000
  0
LINE
  5
3B3
100
AcDbEntity
  8
MAIN0
  6
BYBLOCK
 62
0
370
    -2
100
AcDbLine
 10
249.3709934182071
 20
126.7311945586449
 30
0.0000000000000000
 11
225.9767866752847
 21
126.7311945586449
 31
0.0000000000000000
  0
MTEXT
  5
3B4
100
AcDbEntity
  8
MAIN0
  6
BYBLOCK
 62
0
100
AcDbMText
 10
225.9267867229684
 20
138.0365585868837
 30
0.0000000000000000
 40
3.099999904632568
 41
0.0000000000000000
 44
0.7741935722041460
 71
     5
 72
     1
  1
\A1;\U+22056.6
 11
6.123233995736766e-017
 21
1.000000000000000
 31
0.0000000000000000
  7
STANDARD
  0
ENDBLK
  5
3B5
100
AcDbEntity
  8
MAIN0
  6
CONTINUOUS
 62
3
100
AcDbBlockEnd
  0
BLOCK
  5
3B7
100
AcDbEntity
  8
MAIN0
  6
CONTINUOUS
 62
3
100
AcDbBlockBegin
  2
*D37
 70
    65
 10
0.0
 20
0.0
 30
0.0
  0
LINE
  5
3B8
100
AcDbEntity
  8
MAIN0
  6
BYBLOCK
 62
0
370
    -2
100
AcDbLine
 10
251.1709934301280
 20
122.8778604591887
 30
0.0000000000000000
 11
251.1709934301281
 21
118.3368324393036
 31
0.0000000000000000
  0
LINE
  5
3B9
100
AcDbEntity
  8
MAIN0
  6
BYBLOCK
 62
0
370
    -2
100
AcDbLine
 10
251.1709934301281
 20
120.3368324393036
 30
0.0000000000000000
 11
250.1709934301280
 21
120.3368324393036
 31
0.0000000000000000
  0
INSERT
  5
3BA
100
AcDbEntity
  8
MAIN0
  6
BYBLOCK
 62
0
100
AcDbBlockReference
  2
_OPEN
 10
251.1709934301281
 20
120.3368324393036
 30
0.0000000000000000
 41
2.000000000000000
 42
2.000000000000000
 43
2.000000000000000
 50
180.0000000000000
  0
INSERT
  5
3BB
100
AcDbEntity
  8
MAIN0
  6
BYBLOCK
 62
0
100
AcDbBlockReference
  2
_OPEN
 10
250.1709934301280
 20
120.3368324393036
 30
0.0000000000000000
 41
2.000000000000000
 42
2.000000000000000
 43
2.000000000000000
 50
360.0000000000000
  0
LINE
  5
3BC
100
AcDbEntity
  8
MAIN0
  6
BYBLOCK
 62
0
370
    -2
100
AcDbLine
 10
253.1709934301281
 20
120.3368324393036
 30
0.0000000000000000
 11
254.1709934301281
 21
120.3368324393036
 31
0.0000000000000000
  0
LINE
  5
3BD
100
AcDbEntity
  8
MAIN0
  6
BYBLOCK
 62
0
370
    -2
100
AcDbLine
 10
248.1709934301280
 20
120.3368324393036
 30
0.0000000000000000
 11
246.8621605462932
 21
120.3368324393036
 31
0.0000000000000000
  0
LINE
  5
3BE
100
AcDbEntity
  8
MAIN0
  6
BYBLOCK
 62
0
370
    -2
100
AcDbLine
 10
250.1709934301280
 20
127.5481982259995
 30
0.0000000000000000
 11
250.1709934301280
 21
118.3368324393036
 31
0.0000000000000000
  0
MTEXT
  5
3BF
100
AcDbEntity
  8
MAIN0
  6
BYBLOCK
 62
0
100
AcDbMText
 10
247.9121606284269
 20
122.2201657249533
 30
0.0000000000000000
 40
3.099999904632568
 41
0.0000000000000000
 44
0.7741935722041460
 71
     5
 72
     1
  1
\A1;1
 11
1.000000000000000
 21
0.0000000000000000
 31
0.0000000000000000
  7
STANDARD
  0
ENDBLK
  5
3C0
100
AcDbEntity
  8
MAIN0
  6
CONTINUOUS
 62
3
100
AcDbBlockEnd
  0
BLOCK
  5
3C2
100
AcDbEntity
  8
MAIN0
  6
BYBLOCK
 62
3
100
AcDbBlockBegin
  2
*X0
 70
     1
 10
0.0
 20
0.0
 30
0.0
  0
LINE
  5
3C3
100
AcDbEntity
  8
MAIN0
  6
BYBLOCK
 62
0
370
    -2
100
AcDbLine
 10
252.6709934301213
 20
131.5311945586448
 30
0.0000000000000000
 11
257.5243275176555
 21
136.3845286461790
 31
0.0000000000000000
  0
LINE
  5
3C4
100
AcDbEntity
  8
MAIN0
  6
BYBLOCK
 62
0
370
    -2
100
AcDbLine
 10
251.7281843604410
 20
131.5311945586448
 30
0.0000000000000000
 11
256.5815184479748
 21
136.3845286461786
 31
0.0000000000000000
  0
LINE
  5
3C5
100
AcDbEntity
  8
MAIN0
  6
BYBLOCK
 62
0
370
    -2
100
AcDbLine
 10
251.1709934301282
 20
131.9168126980121
 30
0.0000000000000000
 11
255.6387093782947
 21
136.3845286461786
 31
0.0000000000000000
  0
LINE
  5
3C6
100
AcDbEntity
  8
MAIN0
  6
BYBLOCK
 62
0
370
    -2
100
AcDbLine
 10
251.2067798256048
 20
132.8954081631685
 30
0.0000000000000000
 11
254.6959003086149
 21
136.3845286461790
 31
0.0000000000000000
  0
LINE
  5
3C7
100
AcDbEntity
  8
MAIN0
  6
BYBLOCK
 62
0
370
    -2
100
AcDbLine
 10
251.1709934301285
 20
133.8024308373726
 30
0.0000000000000000
 11
253.7530912389330
 21
136.3845286461772
 31
0.0000000000000000
  0
LINE
  5
3C8
100
AcDbEntity
  8
MAIN0
  6
BYBLOCK
 62
0
370
    -2
100
AcDbLine
 10
251.1709934301289
 20
134.7452399070533
 30
0.0000000000000000
 11
252.8102821692542
 21
136.3845286461786
 31
0.0000000000000000
  0
LINE
  5
3C9
100
AcDbEntity
  8
MAIN0
  6
BYBLOCK
 62
0
370
    -2
100
AcDbLine
 10
251.1709934301289
 20
135.6880489767339
 30
0.0000000000000000
 11
251.8674730995740
 21
136.3845286461782
 31
0.0000000000000000
  0
LINE
  5
3CA
100
AcDbEntity
  8
MAIN0
  6
BYBLOCK
 62
0
370
    -2
100
AcDbLine
 10
253.6138024998020
 20
131.5311945586448
 30
0.0000000000000000
 11
258.4671365873341
 21
136.3845286461780
 31
0.0000000000000000
  0
LINE
  5
3CB
100
AcDbEntity
  8
MAIN0
  6
BYBLOCK
 62
0
370
    -2
100
AcDbLine
 10
254.5566115694810
 20
131.5311945586448
 30
0.0000000000000000
 11
259.4099456570130
 21
136.3845286461763
 31
0.0000000000000000
  0
LINE
  5
3CC
100
AcDbEntity
  8
MAIN0
  6
BYBLOCK
 62
0
370
    -2
100
AcDbLine
 10
255.2494206391618
 20
131.2811945586448
 30
0.0000000000000000
 11
260.3527547266945
 21
136.3845286461782
 31
0.0000000000000000
  0
LINE
  5
3CD
100
AcDbEntity
  8
MAIN0
  6
BYBLOCK
 62
0
370
    -2
100
AcDbLine
 10
256.1922297088423
 20
131.2811945586448
 30
0.0000000000000000
 11
261.1709934301257
 21
136.2599582799288
 31
0.0000000000000000
  0
LINE
  5
3CE
100
AcDbEntity
  8
MAIN0
  6
BYBLOCK
 62
0
370
    -2
100
AcDbLine
 10
257.1350387785220
 20
131.2811945586448
 30
0.0000000000000000
 11
261.1709934301280
 21
135.3171492102508
 31
0.0000000000000000
  0
LINE
  5
3CF
100
AcDbEntity
  8
MAIN0
  6
BYBLOCK
 62
0
370
    -2
100
AcDbLine
 10
258.0778478482019
 20
131.2811945586448
 30
0.0000000000000000
 11
261.1709934301280
 21
134.3743401405702
 31
0.0000000000000000
  0
LINE
  5
3D0
100
AcDbEntity
  8
MAIN0
  6
BYBLOCK
 62
0
370
    -2
100
AcDbLine
 10
259.0206569178826
 20
131.2811945586447
 30
0.0000000000000000
 11
261.1709934301275
 21
133.4315310708905
 31
0.0000000000000000
  0
LINE
  5
3D1
100
AcDbEntity
  8
MAIN0
  6
BYBLOCK
 62
0
370
    -2
100
AcDbLine
 10
259.9634659875624
 20
131.2811945586448
 30
0.0000000000000000
 11
261.1709934301276
 21
132.4887220012099
 31
0.0000000000000000
  0
ENDBLK
  5
3D2
100
AcDbEntity
  8
MAIN0
  6
BYBLOCK
 62
3
100
AcDbBlockEnd
  0
BLOCK
  5
3D4
100
AcDbEntity
  8
MAIN0
  6
BYBLOCK
 62
3
100
AcDbBlockBegin
  2
*X1
 70
     1
 10
0.0
 20
0.0
 30
0.0
  0
LINE
  5
3D5
100
AcDbEntity
  8
MAIN0
  6
BYBLOCK
 62
0
370
    -2
100
AcDbLine
 10
251.1709934301289
 20
124.8311945586454
 30
0.0000000000000000
 11
254.8709934301282
 21
128.5311945586448
 31
0.0000000000000000
  0
LINE
  5
3D6
100
AcDbEntity
  8
MAIN0
  6
BYBLOCK
 62
0
370
    -2
100
AcDbLine
 10
251.1709934301284
 20
125.7740036283247
 30
0.0000000000000000
 11
253.9281843604478
 21
128.5311945586448
 31
0.0000000000000000
  0
LINE
  5
3D7
100
AcDbEntity
  8
MAIN0
  6
BYBLOCK
 62
0
370
    -2
100
AcDbLine
 10
251.1709934301280
 20
126.7168126980048
 30
0.0000000000000000
 11
252.9853752907680
 21
128.5311945586448
 31
0.0000000000000000
  0
LINE
  5
3D8
100
AcDbEntity
  8
MAIN0
  6
BYBLOCK
 62
0
370
    -2
100
AcDbLine
 10
251.1709934301279
 20
123.8883854889640
 30
0.0000000000000000
 11
256.0638024998083
 21
128.7811945586449
 31
0.0000000000000000
  0
LINE
  5
3D9
100
AcDbEntity
  8
MAIN0
  6
BYBLOCK
 62
0
370
    -2
100
AcDbLine
 10
251.9032774819526
 20
123.6778604711087
 30
0.0000000000000000
 11
257.0066115694886
 21
128.7811945586448
 31
0.0000000000000000
  0
LINE
  5
3DA
100
AcDbEntity
  8
MAIN0
  6
BYBLOCK
 62
0
370
    -2
100
AcDbLine
 10
252.8460865516327
 20
123.6778604711092
 30
0.0000000000000000
 11
257.9494206391694
 21
128.7811945586448
 31
0.0000000000000000
  0
LINE
  5
3DB
100
AcDbEntity
  8
MAIN0
  6
BYBLOCK
 62
0
370
    -2
100
AcDbLine
 10
253.7888956213134
 20
123.6778604711088
 30
0.0000000000000000
 11
258.8922297088483
 21
128.7811945586448
 31
0.0000000000000000
  0
LINE
  5
3DC
100
AcDbEntity
  8
MAIN0
  6
BYBLOCK
 62
0
370
    -2
100
AcDbLine
 10
254.7317046909938
 20
123.6778604711097
 30
0.0000000000000000
 11
259.8350387785284
 21
128.7811945586448
 31
0.0000000000000000
  0
LINE
  5
3DD
100
AcDbEntity
  8
MAIN0
  6
BYBLOCK
 62
0
370
    -2
100
AcDbLine
 10
255.6745137606739
 20
123.6778604711096
 30
0.0000000000000000
 11
260.7778478482096
 21
128.7811945586448
 31
0.0000000000000000
  0
LINE
  5
3DE
100
AcDbEntity
  8
MAIN0
  6
BYBLOCK
 62
0
370
    -2
100
AcDbLine
 10
256.6173228303528
 20
123.6778604711083
 30
0.0000000000000000
 11
261.1709934301280
 21
128.2315310708835
 31
0.0000000000000000
  0
LINE
  5
3DF
100
AcDbEntity
  8
MAIN0
  6
BYBLOCK
 62
0
370
    -2
100
AcDbLine
 10
257.5601319000330
 20
123.6778604711083
 30
0.0000000000000000
 11
261.1709934301294
 21
127.2887220012047
 31
0.0000000000000000
  0
LINE
  5
3E0
100
AcDbEntity
  8
MAIN0
  6
BYBLOCK
 62
0
370
    -2
100
AcDbLine
 10
258.5029409697131
 20
123.6778604711087
 30
0.0000000000000000
 11
261.1709934301284
 21
126.3459129315231
 31
0.0000000000000000
  0
LINE
  5
3E1
100
AcDbEntity
  8
MAIN0
  6
BYBLOCK
 62
0
370
    -2
100
AcDbLine
 10
259.4457500393933
 20
123.6778604711083
 30
0.0000000000000000
 11
261.1709934301303
 21
125.4031038618453
 31
0.0000000000000000
  0
LINE
  5
3E2
100
AcDbEntity
  8
MAIN0
  6
BYBLOCK
 62
0
370
    -2
100
AcDbLine
 10
260.3885591090735
 20
123.6778604711083
 30
0.0000000000000000
 11
261.1709934301289
 21
124.4602947921637
 31
0.0000000000000000
  0
ENDBLK
  5
3E3
100
AcDbEntity
  8
MAIN0
  6
BYBLOCK
 62
3
100
AcDbBlockEnd
  0
BLOCK
  5
3E5
100
AcDbEntity
  8
MAIN0
  6
BYBLOCK
 62
3
100
AcDbBlockBegin
  2
*X2
 70
     1
 10
0.0
 20
0.0
 30
0.0
  0
LINE
  5
3E6
100
AcDbEntity
  8
MAIN0
  6
BYBLOCK
 62
0
370
    -2
100
AcDbLine
 10
246.3176593425931
 20
131.5311945586450
 30
0.0000000000000000
 11
251.1709934301302
 21
136.3845286461822
 31
0.0000000000000000
  0
LINE
  5
3E7
100
AcDbEntity
  8
MAIN0
  6
BYBLOCK
 62
0
370
    -2
100
AcDbLine
 10
244.4320412032334
 20
131.5311945586451
 30
0.0000000000000000
 11
249.2853752907695
 21
136.3845286461818
 31
0.0000000000000000
  0
LINE
  5
3E8
100
AcDbEntity
  8
MAIN0
  6
BYBLOCK
 62
0
370
    -2
100
AcDbLine
 10
242.5464230638721
 20
131.5311945586452
 30
0.0000000000000000
 11
247.3997571514101
 21
136.3845286461827
 31
0.0000000000000000
  0
LINE
  5
3E9
100
AcDbEntity
  8
MAIN0
  6
BYBLOCK
 62
0
370
    -2
100
AcDbLine
 10
241.1709934301281
 20
132.0413830642610
 30
0.0000000000000000
 11
245.5141390120484
 21
136.3845286461813
 31
0.0000000000000000
  0
LINE
  5
3EA
100
AcDbEntity
  8
MAIN0
  6
BYBLOCK
 62
0
370
    -2
100
AcDbLine
 10
241.1709934301285
 20
133.9270012036216
 30
0.0000000000000000
 11
243.6285208726895
 21
136.3845286461827
 31
0.0000000000000000
  0
LINE
  5
3EB
100
AcDbEntity
  8
MAIN0
  6
BYBLOCK
 62
0
370
    -2
100
AcDbLine
 10
241.1709934301288
 20
135.8126193429823
 30
0.0000000000000000
 11
241.7429027333292
 21
136.3845286461831
 31
0.0000000000000000
  0
LINE
  5
3EC
100
AcDbEntity
  8
MAIN0
  6
BYBLOCK
 62
0
370
    -2
100
AcDbLine
 10
248.2032774819538
 20
131.5311945586450
 30
0.0000000000000000
 11
251.1709934301282
 21
134.4989105068208
 31
0.0000000000000000
  0
ENDBLK
  5
3ED
100
AcDbEntity
  8
MAIN0
  6
BYBLOCK
 62
3
100
AcDbBlockEnd
  0
BLOCK
  5
3EF
100
AcDbEntity
  8
MAIN0
  6
BYBLOCK
 62
3
100
AcDbBlockBegin
  2
*X3
 70
     1
 10
0.0
 20
0.0
 30
0.0
  0
LINE
  5
3F0
100
AcDbEntity
  8
MAIN0
  6
BYBLOCK
 62
0
370
    -2
100
AcDbLine
 10
241.8176593425965
 20
123.6778604711129
 30
0.0000000000000000
 11
246.6709934301287
 21
128.5311945586450
 31
0.0000000000000000
  0
LINE
  5
3F1
100
AcDbEntity
  8
MAIN0
  6
BYBLOCK
 62
0
370
    -2
100
AcDbLine
 10
241.1709934301267
 20
124.9168126980038
 30
0.0000000000000000
 11
244.7853752907686
 21
128.5311945586451
 31
0.0000000000000000
  0
LINE
  5
3F2
100
AcDbEntity
  8
MAIN0
  6
BYBLOCK
 62
0
370
    -2
100
AcDbLine
 10
241.1709934301298
 20
126.8024308373672
 30
0.0000000000000000
 11
242.8997571514099
 21
128.5311945586452
 31
0.0000000000000000
  0
LINE
  5
3F3
100
AcDbEntity
  8
MAIN0
  6
BYBLOCK
 62
0
370
    -2
100
AcDbLine
 10
243.7032774819563
 20
123.6778604711120
 30
0.0000000000000000
 11
248.5566115694887
 21
128.5311945586450
 31
0.0000000000000000
  0
LINE
  5
3F4
100
AcDbEntity
  8
MAIN0
  6
BYBLOCK
 62
0
370
    -2
100
AcDbLine
 10
245.5888956213153
 20
123.6778604711111
 30
0.0000000000000000
 11
250.1709934301281
 21
128.2599582799233
 31
0.0000000000000000
  0
LINE
  5
3F5
100
AcDbEntity
  8
MAIN0
  6
BYBLOCK
 62
0
370
    -2
100
AcDbLine
 10
247.4745137606770
 20
123.6778604711124
 30
0.0000000000000000
 11
250.5994206391687
 21
126.8027673496042
 31
0.0000000000000000
  0
LINE
  5
3F6
100
AcDbEntity
  8
MAIN0
  6
BYBLOCK
 62
0
370
    -2
100
AcDbLine
 10
249.3601319000373
 20
123.6778604711129
 30
0.0000000000000000
 11
251.1709934301280
 21
125.4887220012023
 31
0.0000000000000000
  0
ENDBLK
  5
3F7
100
AcDbEntity
  8
MAIN0
  6
BYBLOCK
 62
3
100
AcDbBlockEnd
  0
BLOCK
  5
42F
100
AcDbEntity
  8
WAKU0
  6
BYBLOCK
 62
2
100
AcDbBlockBegin
  2
M0
 70
    64
 10
0.0
 20
0.0
 30
0.0
  0
LINE
  5
430
100
AcDbEntity
  8
WAKU0
  6
BYBLOCK
 62
0
370
    -2
100
AcDbLine
 10
20.00000000000364
 20
12.00000000000010
 30
0.0000000000000000
 11
410.0000000000001
 21
12.00000000000000
 31
0.0000000000000000
  0
LINE
  5
431
100
AcDbEntity
  8
WAKU0
  6
BYBLOCK
 62
0
370
    -2
100
AcDbLine
 10
20.00000000000370
 20
286.9999999999964
 30
0.0000000000000000
 11
410.0000000000000
 21
286.9999999999964
 31
0.0000000000000000
  0
LINE
  5
432
100
AcDbEntity
  8
WAKU0
  6
BYBLOCK
 62
0
370
    -2
100
AcDbLine
 10
20.00000000000364
 20
12.00000000000010
 30
0.0000000000000000
 11
20.00000000000370
 21
286.9999999999964
 31
0.0000000000000000
  0
LINE
  5
433
100
AcDbEntity
  8
WAKU0
  6
BYBLOCK
 62
0
370
    -2
100
AcDbLine
 10
210.0000000000001
 20
-3.552713678800501e-015
 30
0.0000000000000000
 11
210.0000000000001
 21
12.00000000000013
 31
0.0000000000000000
  0
LINE
  5
434
100
AcDbEntity
  8
WAKU0
  6
BYBLOCK
 62
0
370
    -2
100
AcDbLine
 10
210.0000000000001
 20
286.9999999999964
 30
0.0000000000000000
 11
210.0000000000002
 21
296.9999999999964
 31
0.0000000000000000
  0
LINE
  5
435
100
AcDbEntity
  8
WAKU0
  6
BYBLOCK
 62
0
370
    -2
100
AcDbLine
 10
3.637978807091713e-012
 20
148.4999999999999
 30
0.0000000000000000
 11
20.00000000000364
 21
148.4999999999999
 31
0.0000000000000000
  0
LINE
  5
436
100
AcDbEntity
  8
WAKU0
  6
BYBLOCK
 62
0
370
    -2
100
AcDbLine
 10
410.0000000000000
 20
148.5000000000000
 30
0.0000000000000000
 11
420.0000000000001
 21
148.5000000000000
 31
0.0000000000000000
  0
LINE
  5
437
100
AcDbEntity
  8
WAKU0
  6
BYBLOCK
 62
0
370
    -2
100
AcDbLine
 10
160.0000000000002
 20
6.999999999999995
 30
0.0000000000000000
 11
260.0000000000000
 21
6.999999999999996
 31
0.0000000000000000
  0
LINE
  5
438
100
AcDbEntity
  8
WAKU0
  6
BYBLOCK
 62
0
370
    -2
100
AcDbLine
 10
160.0000000000002
 20
7.000000000000007
 30
0.0000000000000000
 11
160.0000000000002
 21
12.00000000000016
 31
0.0000000000000000
  0
LINE
  5
439
100
AcDbEntity
  8
WAKU0
  6
BYBLOCK
 62
0
370
    -2
100
AcDbLine
 10
170.0000000000002
 20
10.00000000000003
 30
0.0000000000000000
 11
170.0000000000002
 21
7.000000000000025
 31
0.0000000000000000
  0
LINE
  5
43A
100
AcDbEntity
  8
WAKU0
  6
BYBLOCK
 62
0
370
    -2
100
AcDbLine
 10
260.0000000000001
 20
7.000000000000007
 30
0.0000000000000000
 11
260.0000000000001
 21
12.00000000000011
 31
0.0000000000000000
  0
LINE
  5
43B
100
AcDbEntity
  8
WAKU0
  6
BYBLOCK
 62
0
370
    -2
100
AcDbLine
 10
180.0000000000002
 20
10.00000000000003
 30
0.0000000000000000
 11
180.0000000000002
 21
7.000000000000025
 31
0.0000000000000000
  0
LINE
  5
43C
100
AcDbEntity
  8
WAKU0
  6
BYBLOCK
 62
0
370
    -2
100
AcDbLine
 10
190.0000000000002
 20
10.00000000000003
 30
0.0000000000000000
 11
190.0000000000002
 21
7.000000000000025
 31
0.0000000000000000
  0
LINE
  5
43D
100
AcDbEntity
  8
WAKU0
  6
BYBLOCK
 62
0
370
    -2
100
AcDbLine
 10
200.0000000000002
 20
10.00000000000003
 30
0.0000000000000000
 11
200.0000000000002
 21
7.000000000000025
 31
0.0000000000000000
  0
LINE
  5
43E
100
AcDbEntity
  8
WAKU0
  6
BYBLOCK
 62
0
370
    -2
100
AcDbLine
 10
220.0000000000002
 20
10.00000000000003
 30
0.0000000000000000
 11
220.0000000000002
 21
7.000000000000025
 31
0.0000000000000000
  0
LINE
  5
43F
100
AcDbEntity
  8
WAKU0
  6
BYBLOCK
 62
0
370
    -2
100
AcDbLine
 10
230.0000000000002
 20
10.00000000000003
 30
0.0000000000000000
 11
230.0000000000002
 21
7.000000000000025
 31
0.0000000000000000
  0
LINE
  5
440
100
AcDbEntity
  8
WAKU0
  6
BYBLOCK
 62
0
370
    -2
100
AcDbLine
 10
240.0000000000002
 20
10.00000000000003
 30
0.0000000000000000
 11
240.0000000000002
 21
7.000000000000025
 31
0.0000000000000000
  0
LINE
  5
441
100
AcDbEntity
  8
WAKU0
  6
BYBLOCK
 62
0
370
    -2
100
AcDbLine
 10
250.0000000000002
 20
10.00000000000003
 30
0.0000000000000000
 11
250.0000000000002
 21
7.000000000000025
 31
0.0000000000000000
  0
LINE
  5
442
100
AcDbEntity
  8
WAKU0
  6
BYBLOCK
 62
0
370
    -2
100
AcDbLine
 10
80.00000000000364
 20
286.9999999999964
 30
0.0000000000000000
 11
80.00000000000364
 21
290.9999999999964
 31
0.0000000000000000
  0
LINE
  5
443
100
AcDbEntity
  8
WAKU0
  6
BYBLOCK
 62
0
370
    -2
100
AcDbLine
 10
145.0000000000036
 20
286.9999999999964
 30
0.0000000000000000
 11
145.0000000000036
 21
290.9999999999964
 31
0.0000000000000000
  0
LINE
  5
444
100
AcDbEntity
  8
WAKU0
  6
BYBLOCK
 62
0
370
    -2
100
AcDbLine
 10
275.0000000000000
 20
286.9999999999964
 30
0.0000000000000000
 11
275.0000000000000
 21
290.9999999999964
 31
0.0000000000000000
  0
LINE
  5
445
100
AcDbEntity
  8
WAKU0
  6
BYBLOCK
 62
0
370
    -2
100
AcDbLine
 10
339.9999999999999
 20
286.9999999999964
 30
0.0000000000000000
 11
339.9999999999999
 21
290.9999999999964
 31
0.0000000000000000
  0
LINE
  5
446
100
AcDbEntity
  8
WAKU0
  6
BYBLOCK
 62
0
370
    -2
100
AcDbLine
 10
274.9824199069989
 20
7.999999999999996
 30
0.0000000000000000
 11
274.9824199069989
 21
12.00000000000015
 31
0.0000000000000000
  0
LINE
  5
447
100
AcDbEntity
  8
WAKU0
  6
BYBLOCK
 62
0
370
    -2
100
AcDbLine
 10
340.0873184256148
 20
7.999999999999996
 30
0.0000000000000000
 11
340.0873184256148
 21
12.00000000000010
 31
0.0000000000000000
  0
LINE
  5
448
100
AcDbEntity
  8
WAKU0
  6
BYBLOCK
 62
0
370
    -2
100
AcDbLine
 10
145.0000000000036
 20
7.999999999999996
 30
0.0000000000000000
 11
145.0000000000036
 21
12.00000000000015
 31
0.0000000000000000
  0
LINE
  5
449
100
AcDbEntity
  8
WAKU0
  6
BYBLOCK
 62
0
370
    -2
100
AcDbLine
 10
80.00000000000364
 20
7.999999999999996
 30
0.0000000000000000
 11
80.00000000000364
 21
12.00000000000015
 31
0.0000000000000000
  0
LINE
  5
44A
100
AcDbEntity
  8
WAKU0
  6
BYBLOCK
 62
0
370
    -2
100
AcDbLine
 10
16.00000000000381
 20
218.4999999999999
 30
0.0000000000000000
 11
20.00000000000381
 21
218.4999999999999
 31
0.0000000000000000
  0
LINE
  5
44B
100
AcDbEntity
  8
WAKU0
  6
BYBLOCK
 62
0
370
    -2
100
AcDbLine
 10
410.0000000000000
 20
218.5000000000000
 30
0.0000000000000000
 11
413.9999999999999
 21
218.5000000000000
 31
0.0000000000000000
  0
LINE
  5
44C
100
AcDbEntity
  8
WAKU0
  6
BYBLOCK
 62
0
370
    -2
100
AcDbLine
 10
16.00000000000370
 20
78.49999999999994
 30
0.0000000000000000
 11
20.00000000000370
 21
78.49999999999993
 31
0.0000000000000000
  0
LINE
  5
44D
100
AcDbEntity
  8
WAKU0
  6
BYBLOCK
 62
0
370
    -2
100
AcDbLine
 10
410.0000000000000
 20
78.49999999999994
 30
0.0000000000000000
 11
413.9999999999999
 21
78.49999999999994
 31
0.0000000000000000
  0
LINE
  5
44E
100
AcDbEntity
  8
WAKU0
  6
BYBLOCK
 62
0
370
    -2
100
AcDbLine
 10
418.0000000000001
 20
1.999999999999998
 30
0.0000000000000000
 11
418.0000000000001
 21
7.999999999999987
 31
0.0000000000000000
  0
LINE
  5
44F
100
AcDbEntity
  8
WAKU0
  6
BYBLOCK
 62
0
370
    -2
100
AcDbLine
 10
417.9999999999999
 20
288.9999999999963
 30
0.0000000000000000
 11
418.0000000000000
 21
294.9999999999963
 31
0.0000000000000000
  0
LINE
  5
450
100
AcDbEntity
  8
WAKU0
  6
BYBLOCK
 62
0
370
    -2
100
AcDbLine
 10
2.000000000003638
 20
2.000000000000037
 30
0.0000000000000000
 11
2.000000000003638
 21
8.000000000000050
 31
0.0000000000000000
  0
LINE
  5
451
100
AcDbEntity
  8
WAKU0
  6
BYBLOCK
 62
0
370
    -2
100
AcDbLine
 10
2.000000000003638
 20
288.9999999999964
 30
0.0000000000000000
 11
2.000000000003638
 21
294.9999999999964
 31
0.0000000000000000
  0
LINE
  5
452
100
AcDbEntity
  8
WAKU0
  6
BYBLOCK
 62
0
370
    -2
100
AcDbLine
 10
2.000000000002672
 20
294.9999999999966
 30
0.0000000000000000
 11
8.000000000002672
 21
294.9999999999965
 31
0.0000000000000000
  0
LINE
  5
453
100
AcDbEntity
  8
WAKU0
  6
BYBLOCK
 62
0
370
    -2
100
AcDbLine
 10
411.9999999999999
 20
294.9999999999963
 30
0.0000000000000000
 11
418.0000000000000
 21
294.9999999999964
 31
0.0000000000000000
  0
LINE
  5
454
100
AcDbEntity
  8
WAKU0
  6
BYBLOCK
 62
0
370
    -2
100
AcDbLine
 10
2.000000000003638
 20
2.000000000000037
 30
0.0000000000000000
 11
8.000000000003638
 21
2.000000000000036
 31
0.0000000000000000
  0
LINE
  5
455
100
AcDbEntity
  8
WAKU0
  6
BYBLOCK
 62
0
370
    -2
100
AcDbLine
 10
412.0000000000001
 20
1.999999999999998
 30
0.0000000000000000
 11
418.0000000000001
 21
1.999999999999998
 31
0.0000000000000000
  0
LINE
  5
456
100
AcDbEntity
  8
WAKU0
  6
BYBLOCK
 62
0
370
    -2
100
AcDbLine
 10
420.2411645794610
 20
53.79556398365287
 30
0.0000000000000000
 11
420.2411645794610
 21
46.79556398365287
 31
0.0000000000000000
  0
LINE
  5
457
100
AcDbEntity
  8
WAKU0
  6
BYBLOCK
 62
0
370
    -2
100
AcDbLine
 10
410.0000000000001
 20
12.00000000000011
 30
0.0000000000000000
 11
410.0000000000001
 21
286.9999999999964
 31
0.0000000000000000
  0
MTEXT
  5
458
100
AcDbEntity
  8
WAKU0
  6
BYBLOCK
 62
0
370
    -2
100
AcDbMText
 10
52.00000000000364
 20
292.1000003814661
 30
0.0000000000000000
 40
3.100000381469727
 41
0.0000000000000000
 44
0.6719999870792528
 71
     1
 72
     1
  1
{\H0.81x;1}
 11
1.000000000000000
 21
0.0000000000000000
 31
0.0000000000000000
  7
STANDARD
  0
MTEXT
  5
459
100
AcDbEntity
  8
WAKU0
  6
BYBLOCK
 62
0
370
    -2
100
AcDbMText
 10
112.0000000000036
 20
292.1000003814661
 30
0.0000000000000000
 40
3.100000381469727
 41
0.0000000000000000
 44
0.6719999870792528
 71
     1
 72
     1
  1
{\H0.81x;2}
 11
1.000000000000000
 21
0.0000000000000000
 31
0.0000000000000000
  7
STANDARD
  0
MTEXT
  5
45A
100
AcDbEntity
  8
WAKU0
  6
BYBLOCK
 62
0
370
    -2
100
AcDbMText
 10
177.0000000000002
 20
292.1000003814661
 30
0.0000000000000000
 40
3.100000381469727
 41
0.0000000000000000
 44
0.6719999870792528
 71
     1
 72
     1
  1
{\H0.81x;3}
 11
1.000000000000000
 21
0.0000000000000000
 31
0.0000000000000000
  7
STANDARD
  0
MTEXT
  5
45B
100
AcDbEntity
  8
WAKU0
  6
BYBLOCK
 62
0
370
    -2
100
AcDbMText
 10
242.0000000000002
 20
292.1000003814661
 30
0.0000000000000000
 40
3.100000381469727
 41
0.0000000000000000
 44
0.6719999870792528
 71
     1
 72
     1
  1
{\H0.81x;4}
 11
1.000000000000000
 21
0.0000000000000000
 31
0.0000000000000000
  7
STANDARD
  0
MTEXT
  5
45C
100
AcDbEntity
  8
WAKU0
  6
BYBLOCK
 62
0
370
    -2
100
AcDbMText
 10
307.0000000000002
 20
292.1000003814661
 30
0.0000000000000000
 40
3.100000381469727
 41
0.0000000000000000
 44
0.6719999870792528
 71
     1
 72
     1
  1
{\H0.81x;5}
 11
1.000000000000000
 21
0.0000000000000000
 31
0.0000000000000000
  7
STANDARD
  0
MTEXT
  5
45D
100
AcDbEntity
  8
WAKU0
  6
BYBLOCK
 62
0
370
    -2
100
AcDbMText
 10
377.0000000000001
 20
292.1000003814661
 30
0.0000000000000000
 40
3.100000381469727
 41
0.0000000000000000
 44
0.6719999870792528
 71
     1
 72
     1
  1
{\H0.81x;6}
 11
1.000000000000000
 21
0.0000000000000000
 31
0.0000000000000000
  7
STANDARD
  0
MTEXT
  5
45E
100
AcDbEntity
  8
WAKU0
  6
BYBLOCK
 62
0
370
    -2
100
AcDbMText
 10
52.00000000000364
 20
11.10000038146984
 30
0.0000000000000000
 40
3.100000381469727
 41
0.0000000000000000
 44
0.6719999870792528
 71
     1
 72
     1
  1
{\H0.81x;1}
 11
1.000000000000000
 21
0.0000000000000000
 31
0.0000000000000000
  7
STANDARD
  0
MTEXT
  5
45F
100
AcDbEntity
  8
WAKU0
  6
BYBLOCK
 62
0
370
    -2
100
AcDbMText
 10
112.0000000000036
 20
11.10000038146984
 30
0.0000000000000000
 40
3.100000381469727
 41
0.0000000000000000
 44
0.6719999870792528
 71
     1
 72
     1
  1
{\H0.81x;2}
 11
1.000000000000000
 21
0.0000000000000000
 31
0.0000000000000000
  7
STANDARD
  0
MTEXT
  5
460
100
AcDbEntity
  8
WAKU0
  6
BYBLOCK
 62
0
370
    -2
100
AcDbMText
 10
307.0000000000001
 20
11.10000038146984
 30
0.0000000000000000
 40
3.100000381469727
 41
0.0000000000000000
 44
0.6719999870792528
 71
     1
 72
     1
  1
{\H0.81x;5}
 11
1.000000000000000
 21
0.0000000000000000
 31
0.0000000000000000
  7
STANDARD
  0
MTEXT
  5
461
100
AcDbEntity
  8
WAKU0
  6
BYBLOCK
 62
0
370
    -2
100
AcDbMText
 10
377.0000000000001
 20
11.10000038146984
 30
0.0000000000000000
 40
3.100000381469727
 41
0.0000000000000000
 44
0.6719999870792528
 71
     1
 72
     1
  1
{\H0.81x;6}
 11
1.000000000000000
 21
0.0000000000000000
 31
0.0000000000000000
  7
STANDARD
  0
MTEXT
  5
462
100
AcDbEntity
  8
WAKU0
  6
BYBLOCK
 62
0
370
    -2
100
AcDbMText
 10
17.00000000000364
 20
255.1000003814696
 30
0.0000000000000000
 40
3.100000381469727
 41
0.0000000000000000
 44
0.6719999870792528
 71
     1
 72
     1
  1
{\H0.81x;A}
 11
1.000000000000000
 21
0.0000000000000000
 31
0.0000000000000000
  7
STANDARD
  0
MTEXT
  5
463
100
AcDbEntity
  8
WAKU0
  6
BYBLOCK
 62
0
370
    -2
100
AcDbMText
 10
17.00000000000364
 20
187.1000003814696
 30
0.0000000000000000
 40
3.100000381469727
 41
0.0000000000000000
 44
0.6719999870792528
 71
     1
 72
     1
  1
{\H0.81x;B}
 11
1.000000000000000
 21
0.0000000000000000
 31
0.0000000000000000
  7
STANDARD
  0
MTEXT
  5
464
100
AcDbEntity
  8
WAKU0
  6
BYBLOCK
 62
0
370
    -2
100
AcDbMText
 10
17.00000000000364
 20
117.1000003814696
 30
0.0000000000000000
 40
3.100000381469727
 41
0.0000000000000000
 44
0.6719999870792528
 71
     1
 72
     1
  1
{\H0.81x;C}
 11
1.000000000000000
 21
0.0000000000000000
 31
0.0000000000000000
  7
STANDARD
  0
MTEXT
  5
465
100
AcDbEntity
  8
WAKU0
  6
BYBLOCK
 62
0
370
    -2
100
AcDbMText
 10
17.00000000000364
 20
49.10000038146950
 30
0.0000000000000000
 40
3.100000381469727
 41
0.0000000000000000
 44
0.6719999870792528
 71
     1
 72
     1
  1
{\H0.81x;D}
 11
1.000000000000000
 21
0.0000000000000000
 31
0.0000000000000000
  7
STANDARD
  0
MTEXT
  5
466
100
AcDbEntity
  8
WAKU0
  6
BYBLOCK
 62
0
370
    -2
100
AcDbMText
 10
412.0000000000000
 20
255.1000003814694
 30
0.0000000000000000
 40
3.100000381469727
 41
0.0000000000000000
 44
0.6719999870792528
 71
     1
 72
     1
  1
{\H0.81x;A}
 11
1.000000000000000
 21
0.0000000000000000
 31
0.0000000000000000
  7
STANDARD
  0
MTEXT
  5
467
100
AcDbEntity
  8
WAKU0
  6
BYBLOCK
 62
0
370
    -2
100
AcDbMText
 10
412.0000000000000
 20
187.1000003814694
 30
0.0000000000000000
 40
3.100000381469727
 41
0.0000000000000000
 44
0.6719999870792528
 71
     1
 72
     1
  1
{\H0.81x;B}
 11
1.000000000000000
 21
0.0000000000000000
 31
0.0000000000000000
  7
STANDARD
  0
MTEXT
  5
468
100
AcDbEntity
  8
WAKU0
  6
BYBLOCK
 62
0
370
    -2
100
AcDbMText
 10
412.0000000000000
 20
117.1000003814694
 30
0.0000000000000000
 40
3.100000381469727
 41
0.0000000000000000
 44
0.6719999870792528
 71
     1
 72
     1
  1
{\H0.81x;C}
 11
1.000000000000000
 21
0.0000000000000000
 31
0.0000000000000000
  7
STANDARD
  0
MTEXT
  5
469
100
AcDbEntity
  8
WAKU0
  6
BYBLOCK
 62
0
370
    -2
100
AcDbMText
 10
412.0000000000000
 20
49.10000038146939
 30
0.0000000000000000
 40
3.100000381469727
 41
0.0000000000000000
 44
0.6719999870792528
 71
     1
 72
     1
  1
{\H0.81x;D}
 11
1.000000000000000
 21
0.0000000000000000
 31
0.0000000000000000
  7
STANDARD
  0
ENDBLK
  5
46A
100
AcDbEntity
  8
WAKU0
  6
BYBLOCK
 62
2
100
AcDbBlockEnd
  0
ENDSEC
  0
SECTION
  2
ENTITIES
  0
ARC
  5
46
100
AcDbEntity
  8
MAIN0
  6
CENTER
 62
3
100
AcDbCircle
 10
339.6991138002556
 20
208.5494455731833
 30
0.0000000000000000
 40
35.00000000000000
100
AcDbArc
 50
17.64264775383912
 51
49.97534025627000
  0
ARC
  5
47
100
AcDbEntity
  8
MAIN0
  6
CONTINUOUS
 62
3
100
AcDbCircle
 10
370.0100029328269
 20
226.0494455729826
 30
0.0000000000000000
 40
5.499999999999993
100
AcDbArc
 50
145.5830019774026
 51
274.4169980225976
  0
ARC
  5
48
100
AcDbEntity
  8
MAIN0
  6
HIDDEN
 62
3
100
AcDbCircle
 10
370.0100029328269
 20
226.0494455729826
 30
0.0000000000000000
 40
5.499999999999993
100
AcDbArc
 50
274.4169980225976
 51
505.5830019774026
  0
ARC
  5
49
100
AcDbEntity
  8
MAIN0
  6
HIDDEN
 62
3
100
AcDbCircle
 10
370.0100029328269
 20
226.0494455729826
 30
0.0000000000000000
 40
3.299999999999947
100
AcDbArc
 50
260.5141642115997
 51
519.4858357884002
  0
ARC
  5
4A
100
AcDbEntity
  8
MAIN0
  6
CONTINUOUS
 62
3
100
AcDbCircle
 10
370.0100029328269
 20
226.0494455729826
 30
0.0000000000000000
 40
3.299999999999947
100
AcDbArc
 50
159.4858357884002
 51
260.5141642115997
  0
LINE
  5
4B
100
AcDbEntity
  8
MAIN0
  6
CENTER
 62
3
100
AcDbLine
 10
292.3721219710102
 20
181.2251941004369
 30
0.0000000000000000
 11
384.7245248349344
 21
234.5448787540067
 31
0.0000000000000000
  0
ARC
  5
4C
100
AcDbEntity
  8
MAIN0
  6
CONTINUOUS
 62
3
100
AcDbCircle
 10
309.3882246679161
 20
226.0494455729826
 30
0.0000000000000000
 40
5.499999999999993
100
AcDbArc
 50
265.5830019774025
 51
394.4169980225975
  0
ARC
  5
4D
100
AcDbEntity
  8
MAIN0
  6
CONTINUOUS
 62
3
100
AcDbCircle
 10
309.3882246679161
 20
226.0494455729826
 30
0.0000000000000000
 40
3.299999999999947
100
AcDbArc
 50
279.4858357884002
 51
380.5141642115996
  0
LINE
  5
4E
100
AcDbEntity
  8
MAIN0
  6
CENTER
 62
3
100
AcDbLine
 10
385.6851358348500
 20
181.9994033723485
 30
0.0000000000000000
 11
294.9121582458907
 21
234.4072064186995
 31
0.0000000000000000
  0
ARC
  5
4F
100
AcDbEntity
  8
MAIN0
  6
CENTER
 62
3
100
AcDbCircle
 10
339.6991138002556
 20
208.5494455727819
 30
0.0000000000000000
 40
35.00000000000000
100
AcDbArc
 50
137.6426477538391
 51
162.2024223847052
  0
ARC
  5
50
100
AcDbEntity
  8
MAIN0
  6
HIDDEN
 62
3
100
AcDbCircle
 10
309.3882246679161
 20
226.0494455729826
 30
0.0000000000000000
 40
3.299999999999947
100
AcDbArc
 50
20.51416421159969
 51
279.4858357884002
  0
ARC
  5
51
100
AcDbEntity
  8
MAIN0
  6
HIDDEN
 62
3
100
AcDbCircle
 10
309.3882246679161
 20
226.0494455729826
 30
0.0000000000000000
 40
5.499999999999993
100
AcDbArc
 50
34.41699802259750
 51
265.5830019774025
  0
ARC
  5
52
100
AcDbEntity
  8
MAIN0
  6
CONTINUOUS
 62
3
100
AcDbCircle
 10
339.6991138003715
 20
173.5494455729826
 30
0.0000000000000000
 40
5.499999999999993
100
AcDbArc
 50
25.58300197740254
 51
154.4169980225975
  0
ARC
  5
53
100
AcDbEntity
  8
MAIN0
  6
CONTINUOUS
 62
3
100
AcDbCircle
 10
339.6991138003715
 20
173.5494455729826
 30
0.0000000000000000
 40
3.299999999999947
100
AcDbArc
 50
39.48583578840020
 51
140.5141642115997
  0
ARC
  5
54
100
AcDbEntity
  8
MAIN0
  6
CENTER
 62
3
100
AcDbCircle
 10
339.6991138006033
 20
208.5494455729826
 30
0.0000000000000000
 40
35.00000000000000
100
AcDbArc
 50
257.6426477538391
 51
282.2024223847052
  0
ARC
  5
55
100
AcDbEntity
  8
MAIN0
  6
HIDDEN
 62
3
100
AcDbCircle
 10
339.6991138003715
 20
173.5494455729826
 30
0.0000000000000000
 40
3.299999999999947
100
AcDbArc
 50
140.5141642115997
 51
399.4858357884002
  0
ARC
  5
56
100
AcDbEntity
  8
MAIN0
  6
HIDDEN
 62
3
100
AcDbCircle
 10
339.6991138003715
 20
173.5494455729826
 30
0.0000000000000000
 40
5.499999999999993
100
AcDbArc
 50
154.4169980225975
 51
385.5830019774024
  0
ARC
  5
57
100
AcDbEntity
  8
MAIN0
  6
HIDDEN
 62
3
100
AcDbCircle
 10
355.3241138003704
 20
181.4861517047185
 30
0.0000000000000000
 40
1.500000000000000
100
AcDbArc
 50
272.3809650235569
 51
399.6566902028031
  0
LINE
  5
58
100
AcDbEntity
  8
MAIN0
  6
CENTER
 62
3
100
AcDbLine
 10
339.6991138003715
 20
153.3572951968229
 30
0.0000000000000000
 11
339.6991138003715
 21
264.9414143530253
 31
0.0000000000000000
  0
CIRCLE
  5
59
100
AcDbEntity
  8
MAIN0
  6
CONTINUOUS
 62
3
100
AcDbCircle
 10
339.6991138003715
 20
208.5494455729826
 30
0.0000000000000000
 40
17.00000000000000
  0
CIRCLE
  5
5A
100
AcDbEntity
  8
MAIN0
  6
CONTINUOUS
 62
3
100
AcDbCircle
 10
339.6991138003715
 20
208.5494455729826
 30
0.0000000000000000
 40
18.00000000000000
  0
LINE
  5
5B
100
AcDbEntity
  8
MAIN0
  6
CENTER
 62
3
100
AcDbLine
 10
284.3812744147206
 20
208.5494455729826
 30
0.0000000000000000
 11
391.0126364824837
 21
208.5494455729826
 31
0.0000000000000000
  0
DIMENSION
  5
64
100
AcDbEntity
  8
MAIN0
  6
CONTINUOUS
 62
3
100
AcDbDimension
  2
*D0
 10
385.6851358348500
 20
181.9994033723485
 30
0.0000000000000000
 11
367.9842809563650
 21
159.5580989581641
 31
0.0000000000000000
 70
162
 71
5
 42
1.047198
  3
MAIN001
100
AcDb2LineAngularDimension
 13
339.6991138003715
 23
153.3572951968229
 33
0.0000000000000000
 14
339.6991138003715
 24
154.3572951968229
 34
0.0000000000000000
 15
384.8191104310665
 25
182.4994033723500
 35
0.0000000000000000
 16
368.2342809563646
 26
159.1250862562717
 36
0.0000000000000000
1001
ACAD
1000
DSTYLE
1002
{
1070
   173
1070
     1
1070
     6
1000
_OPEN
1070
     7
1000
_OPEN
1070
    41
1040
2.000000
1002
}
  0
DIMENSION
  5
6D
100
AcDbEntity
  8
MAIN0
  6
CONTINUOUS
 62
3
100
AcDbDimension
  2
*D1
 10
391.0126364824837
 20
208.5494455729826
 30
0.0000000000000000
 11
394.3418607141997
 21
193.9079656651949
 31
0.0000000000000000
 70
162
 71
5
 42
0.523599
  3
MAIN001
100
AcDb2LineAngularDimension
 13
385.6851358348500
 23
181.9994033723485
 33
0.0000000000000000
 14
384.8191104310665
 24
182.4994033723500
 34
0.0000000000000000
 15
390.0126364824837
 25
208.5494455729834
 35
0.0000000000000000
 16
394.8248236273441
 26
193.7785561426432
 36
0.0000000000000000
1001
ACAD
1000
DSTYLE
1002
{
1070
   173
1070
     1
1070
     6
1000
_OPEN
1070
     7
1000
_OPEN
1070
    41
1040
2.000000
1002
}
  0
DIMENSION
  5
76
100
AcDbEntity
  8
MAIN0
  6
CONTINUOUS
 62
3
100
AcDbDimension
  2
*D2
 10
384.7245248349344
 20
234.5448787540067
 30
0.0000000000000000
 11
394.3418607142373
 21
223.1909254807186
 31
0.0000000000000000
 70
162
 71
5
 42
0.523599
  3
MAIN001
100
AcDb2LineAngularDimension
 13
391.0126364824837
 23
208.5494455729826
 33
0.0000000000000000
 14
390.0126364824837
 24
208.5494455729834
 34
0.0000000000000000
 15
383.8584994311484
 25
234.0448787540096
 35
0.0000000000000000
 16
394.8248236273821
 26
223.3203350032691
 36
0.0000000000000000
1001
ACAD
1000
DSTYLE
1002
{
1070
   173
1070
     1
1070
     6
1000
_OPEN
1070
     7
1000
_OPEN
1070
    41
1040
2.000000
1002
}
  0
DIMENSION
  5
7F
100
AcDbEntity
  8
MAIN0
  6
CONTINUOUS
 62
3
100
AcDbDimension
  2
*D3
 10
339.6991138003715
 20
264.9414143530253
 30
0.0000000000000000
 11
368.4842809564924
 21
258.4068175916008
 31
0.0000000000000000
 70
162
 71
5
 42
1.047198
  3
MAIN001
100
AcDb2LineAngularDimension
 13
384.7245248349344
 23
234.5448787540067
 33
0.0000000000000000
 14
383.8584994311484
 24
234.0448787540096
 34
0.0000000000000000
 15
339.6991138003715
 25
263.9414143530253
 35
0.0000000000000000
 16
368.2342809564917
 26
257.9738048897090
 36
0.0000000000000000
1001
ACAD
1000
DSTYLE
1002
{
1070
   173
1070
     1
1070
     6
1000
_OPEN
1070
     7
1000
_OPEN
1070
    41
1040
2.000000
1002
}
  0
DIMENSION
  5
89
100
AcDbEntity
  8
MAIN0
  6
CONTINUOUS
 62
3
100
AcDbDimension
  2
*D4
 10
335.6991138003715
 20
261.9297979749115
 30
0.0000000000000000
 11
331.0812867155200
 21
262.4297979749115
 31
0.0000000000000000
 70
160
 71
5
 42
8.000000
  3
MAIN001
100
AcDbAlignedDimension
 13
343.6991138003715
 23
257.3859073619650
 33
0.0000000000000000
 14
335.6991138003715
 24
257.3859073619650
 34
0.0000000000000000
100
AcDbRotatedDimension
1001
ACAD
1000
DSTYLE
1002
{
1070
   173
1070
     1
1070
     6
1000
_OPEN
1070
     7
1000
_OPEN
1070
    41
1040
2.000000
1002
}
  0
DIMENSION
  5
8F
100
AcDbEntity
  8
MAIN0
  6
CONTINUOUS
 62
3
100
AcDbDimension
  2
*D5
 10
363.5184372541689
 20
234.1939348486174
 30
0.0000000000000000
 11
355.4744386012974
 21
226.2682589766542
 31
0.0000000000000000
 70
163
 71
5
 42
70.000000
  3
MAIN001
100
AcDbDiametricDimension
 15
315.8797903463424
 25
182.9049562977492
 35
0.0000000000000000
1001
ACAD
1000
DSTYLE
1002
{
1070
   289
1070
     2
1070
   173
1070
     1
1070
     6
1000
_OPEN
1070
     7
1000
_NONE
1070
    41
1040
2.000000
1002
}
  0
LINE
  5
90
100
AcDbEntity
  8
MAIN0
  6
CENTER
 62
3
100
AcDbLine
 10
94.69911380044982
 20
153.3572951966888
 30
0.0000000000000000
 11
94.69911380034102
 21
264.9414143528912
 31
0.0000000000000000
  0
LINE
  5
91
100
AcDbEntity
  8
MAIN0
  6
CENTER
 62
3
100
AcDbLine
 10
150.0169531860469
 20
208.5494455729025
 30
0.0000000000000000
 11
43.38559111828386
 21
208.5494455727985
 31
0.0000000000000000
  0
CIRCLE
  5
92
100
AcDbEntity
  8
MAIN0
  6
CONTINUOUS
 62
3
100
AcDbCircle
 10
94.69911380039602
 20
208.5494455728485
 30
0.0000000000000000
 40
10.00000000013407
  0
ARC
  5
93
100
AcDbEntity
  8
MAIN0
  6
CENTER
 62
3
100
AcDbCircle
 10
94.69911380039605
 20
208.5494455728485
 30
0.0000000000000000
 40
35.00000000000000
100
AcDbArc
 50
79.11073676139299
 51
101.3184114900168
  0
ARC
  5
94
100
AcDbEntity
  8
MAIN0
  6
CENTER
 62
3
100
AcDbCircle
 10
94.69911380045426
 20
208.5494455728485
 30
0.0000000000000000
 40
35.00000000000000
100
AcDbArc
 50
18.37080877949261
 51
40.33676556942655
  0
CIRCLE
  5
95
100
AcDbEntity
  8
MAIN0
  6
CONTINUOUS
 62
3
100
AcDbCircle
 10
125.0100029328321
 20
226.0494455728822
 30
0.0000000000000000
 40
3.300000000000011
  0
LINE
  5
96
100
AcDbEntity
  8
MAIN0
  6
CENTER
 62
3
100
AcDbLine
 10
129.6991138005097
 20
213.0494455733507
 30
0.0000000000000000
 11
129.6991138005297
 21
204.0494455733507
 31
0.0000000000000000
  0
ARC
  5
97
100
AcDbEntity
  8
MAIN0
  6
CENTER
 62
3
100
AcDbCircle
 10
94.69911380039605
 20
208.5494455728485
 30
0.0000000000000000
 40
35.00000000000000
100
AcDbArc
 50
319.1107367613930
 51
341.3184114900167
  0
ARC
  5
98
100
AcDbEntity
  8
MAIN0
  6
CONTINUOUS
 62
3
100
AcDbCircle
 10
94.69911380039602
 20
208.5494455728485
 30
0.0000000000000000
 40
40.00000000013223
100
AcDbArc
 50
16.94219453695492
 51
42.05780550645675
  0
ARC
  5
99
100
AcDbEntity
  8
MAIN0
  6
CONTINUOUS
 62
3
100
AcDbCircle
 10
94.69911380039602
 20
208.5494455728485
 30
0.0000000000000000
 40
40.00000000013223
100
AcDbArc
 50
49.94219453707459
 51
70.05780550639236
  0
LINE
  5
9A
100
AcDbEntity
  8
MAIN0
  6
CENTER
 62
3
100
AcDbLine
 10
102.8592774199863
 20
237.0073180988881
 30
0.0000000000000000
 11
106.5042200410432
 21
249.7187436427295
 31
0.0000000000000000
  0
LINE
  5
9B
100
AcDbEntity
  8
MAIN0
  6
CENTER
 62
3
100
AcDbLine
 10
47.94361669368547
 20
181.5551467322916
 30
0.0000000000000000
 11
141.7999132147853
 21
235.7431047939099
 31
0.0000000000000000
  0
LINE
  5
9C
100
AcDbEntity
  8
MAIN0
  6
CENTER
 62
3
100
AcDbLine
 10
141.5986093532657
 20
181.4720091907606
 30
0.0000000000000000
 11
47.54168239145326
 21
235.7758012910875
 31
0.0000000000000000
  0
ARC
  5
9D
100
AcDbEntity
  8
MAIN0
  6
CENTER
 62
3
100
AcDbCircle
 10
94.69911380045426
 20
208.5494455729557
 30
0.0000000000000000
 40
35.00000000000000
100
AcDbArc
 50
260.8436681217846
 51
278.2142485552576
  0
CIRCLE
  5
9E
100
AcDbEntity
  8
MAIN0
  6
CONTINUOUS
 62
3
100
AcDbCircle
 10
94.69911380043482
 20
173.5494455729557
 30
0.0000000000000000
 40
3.300000000000011
  0
ARC
  5
9F
100
AcDbEntity
  8
MAIN0
  6
CENTER
 62
3
100
AcDbCircle
 10
94.69911380033778
 20
208.5494455728485
 30
0.0000000000000000
 40
35.00000000000000
100
AcDbArc
 50
139.6632344306852
 51
161.6291912206191
  0
CIRCLE
  5
A0
100
AcDbEntity
  8
MAIN0
  6
CONTINUOUS
 62
3
100
AcDbCircle
 10
64.38822466792583
 20
226.0494455728231
 30
0.0000000000000000
 40
3.300000000000011
  0
LINE
  5
A1
100
AcDbEntity
  8
MAIN0
  6
CENTER
 62
3
100
AcDbLine
 10
59.69911380027355
 20
213.0494455732824
 30
0.0000000000000000
 11
59.69911380027116
 21
204.0494455732824
 31
0.0000000000000000
  0
ARC
  5
A2
100
AcDbEntity
  8
MAIN0
  6
CENTER
 62
3
100
AcDbCircle
 10
94.69911380039599
 20
208.5494455728485
 30
0.0000000000000000
 40
35.00000000000000
100
AcDbArc
 50
198.6815885100950
 51
220.8892632387188
  0
ARC
  5
A3
100
AcDbEntity
  8
MAIN0
  6
CONTINUOUS
 62
3
100
AcDbCircle
 10
94.69911380039602
 20
208.5494455728485
 30
0.0000000000000000
 40
40.00000000013223
100
AcDbArc
 50
137.9421944936550
 51
163.0578054631569
  0
ARC
  5
A4
100
AcDbEntity
  8
MAIN0
  6
CONTINUOUS
 62
3
100
AcDbCircle
 10
94.69911380039602
 20
208.5494455728485
 30
0.0000000000000000
 40
40.00000000013223
100
AcDbArc
 50
109.9421944937193
 51
130.0578054630372
  0
ARC
  5
A5
100
AcDbEntity
  8
MAIN0
  6
CONTINUOUS
 62
3
100
AcDbCircle
 10
94.69911380039602
 20
208.5494455728485
 30
0.0000000000000000
 40
40.00000000013223
100
AcDbArc
 50
77.94219453701010
 51
102.0578054631016
  0
ARC
  5
A6
100
AcDbEntity
  8
MAIN0
  6
CONTINUOUS
 62
3
100
AcDbCircle
 10
94.69911380039602
 20
208.5494455728485
 30
0.0000000000000000
 40
40.00000000013223
100
AcDbArc
 50
170.9421944937747
 51
369.0578055063371
  0
ARC
  5
A7
100
AcDbEntity
  8
MAIN0
  6
CONTINUOUS
 62
3
100
AcDbCircle
 10
94.69911380021051
 20
243.5494455728485
 30
0.0000000000000000
 40
4.749999999999986
100
AcDbArc
 50
180.0000000000000
 51
360.0000000000000
  0
LINE
  5
A8
100
AcDbEntity
  8
MAIN0
  6
CONTINUOUS
 62
3
100
AcDbLine
 10
89.94911380021051
 20
243.5494455728485
 30
0.0000000000000000
 11
89.94911380021051
 21
248.2664129797417
 31
0.0000000000000000
  0
LINE
  5
A9
100
AcDbEntity
  8
MAIN0
  6
CONTINUOUS
 62
3
100
AcDbLine
 10
99.44911380021051
 20
243.5494455728485
 30
0.0000000000000000
 11
99.44911380021051
 21
248.2664129797417
 31
0.0000000000000000
  0
ARC
  5
AA
100
AcDbEntity
  8
MAIN0
  6
CONTINUOUS
 62
3
100
AcDbCircle
 10
64.38822466775517
 20
191.0494455728485
 30
0.0000000000000000
 40
4.749999999999986
100
AcDbArc
 50
299.9999999999999
 51
479.9999999999999
  0
LINE
  5
AB
100
AcDbEntity
  8
MAIN0
  6
CONTINUOUS
 62
3
100
AcDbLine
 10
66.76322466775518
 20
186.9358249048724
 30
0.0000000000000000
 11
62.67821106456249
 21
184.5773412014258
 31
0.0000000000000000
  0
LINE
  5
AC
100
AcDbEntity
  8
MAIN0
  6
CONTINUOUS
 62
3
100
AcDbLine
 10
62.01322466775518
 20
195.1630662408246
 30
0.0000000000000000
 11
57.92821106456250
 21
192.8045825373780
 31
0.0000000000000000
  0
ARC
  5
AD
100
AcDbEntity
  8
MAIN0
  6
CONTINUOUS
 62
3
100
AcDbCircle
 10
125.0100029326659
 20
191.0494455728485
 30
0.0000000000000000
 40
4.749999999999986
100
AcDbArc
 50
59.99999999999999
 51
239.9999999999999
  0
LINE
  5
AE
100
AcDbEntity
  8
MAIN0
  6
CONTINUOUS
 62
3
100
AcDbLine
 10
127.3850029326659
 20
195.1630662408246
 30
0.0000000000000000
 11
131.4700165358586
 21
192.8045825373781
 31
0.0000000000000000
  0
LINE
  5
AF
100
AcDbEntity
  8
MAIN0
  6
CONTINUOUS
 62
3
100
AcDbLine
 10
122.6350029326659
 20
186.9358249048725
 30
0.0000000000000000
 11
126.7200165358586
 21
184.5773412014259
 31
0.0000000000000000
  0
CIRCLE
  5
B0
100
AcDbEntity
  8
MAIN0
  6
CONTINUOUS
 62
3
100
AcDbCircle
 10
94.69911380039602
 20
208.5494455728485
 30
0.0000000000000000
 40
48.99999999993659
  0
CIRCLE
  5
B1
100
AcDbEntity
  8
MAIN0
  6
CONTINUOUS
 62
3
100
AcDbCircle
 10
94.69911380039602
 20
208.5494455728485
 30
0.0000000000000000
 40
40.25000000013407
  0
DIMENSION
  5
BA
100
AcDbEntity
  8
MAIN0
  6
CONTINUOUS
 62
3
100
AcDbDimension
  2
*D6
 10
141.5986093532657
 20
181.4720091907606
 30
0.0000000000000000
 11
125.4492651980596
 21
155.2886210119374
 31
0.0000000000000000
 70
162
 71
5
 42
1.047198
  3
MAIN001
100
AcDb2LineAngularDimension
 13
94.69911380044982
 23
153.3572951966888
 33
0.0000000000000000
 14
94.69911380044884
 24
154.3572951966888
 34
0.0000000000000000
 15
140.7325839494804
 25
181.9720091907591
 35
0.0000000000000000
 16
125.6992651980602
 26
154.8556083100455
 36
0.0000000000000000
1001
ACAD
1000
DSTYLE
1002
{
1070
   173
1070
     1
1070
     6
1000
_OPEN
1070
     7
1000
_OPEN
1070
    41
1040
2.000000
1002
}
  0
DIMENSION
  5
C3
100
AcDbEntity
  8
MAIN0
  6
CONTINUOUS
 62
3
100
AcDbDimension
  2
*D7
 10
150.0169531860469
 20
208.5494455729025
 30
0.0000000000000000
 11
154.1038445948722
 21
192.6319959300445
 31
0.0000000000000000
 70
162
 71
5
 42
0.523599
  3
MAIN001
100
AcDb2LineAngularDimension
 13
141.5986093532657
 23
181.4720091907606
 33
0.0000000000000000
 14
140.7325839494804
 24
181.9720091907591
 34
0.0000000000000000
 15
149.0169531860469
 25
208.5494455729034
 35
0.0000000000000000
 16
154.5868075080169
 26
192.5025864074937
 36
0.0000000000000000
1001
ACAD
1000
DSTYLE
1002
{
1070
   173
1070
     1
1070
     6
1000
_OPEN
1070
     7
1000
_OPEN
1070
    41
1040
2.000000
1002
}
  0
DIMENSION
  5
CC
100
AcDbEntity
  8
MAIN0
  6
CONTINUOUS
 62
3
100
AcDbDimension
  2
*D8
 10
141.7999132147853
 20
235.7431047939099
 30
0.0000000000000000
 11
154.1038445948567
 21
224.4668952159247
 31
0.0000000000000000
 70
162
 71
5
 42
0.523599
  3
MAIN001
100
AcDb2LineAngularDimension
 13
150.0169531860469
 23
208.5494455729025
 33
0.0000000000000000
 14
149.0169531860469
 24
208.5494455729034
 34
0.0000000000000000
 15
140.9338878110009
 25
235.2431047939097
 35
0.0000000000000000
 16
154.5868075080012
 26
224.5963047384760
 36
0.0000000000000000
1001
ACAD
1000
DSTYLE
1002
{
1070
   173
1070
     1
1070
     6
1000
_OPEN
1070
     7
1000
_OPEN
1070
    41
1040
2.000000
1002
}
  0
DIMENSION
  5
D5
100
AcDbEntity
  8
MAIN0
  6
CONTINUOUS
 62
3
100
AcDbDimension
  2
*D9
 10
141.7999132147853
 20
235.7431047939099
 30
0.0000000000000000
 11
146.0713112409557
 21
228.7854923083679
 31
0.0000000000000000
 70
162
 71
5
 42
0.296706
  3
MAIN001
100
AcDb2LineAngularDimension
 13
135.2225258247300
 23
217.9050124207087
 33
0.0000000000000000
 14
134.2481557599457
 24
217.6800613663610
 34
0.0000000000000000
 15
140.9338878110009
 25
235.2431047939097
 35
0.0000000000000000
 16
146.5365200249464
 26
228.9687429217309
 36
0.0000000000000000
1001
ACAD
1000
DSTYLE
1002
{
1070
   173
1070
     1
1070
     6
1000
_OPEN
1070
     7
1000
_OPEN
1070
    41
1040
2.000000
1002
}
  0
DIMENSION
  5
DE
100
AcDbEntity
  8
MAIN0
  6
CONTINUOUS
 62
3
100
AcDbDimension
  2
*D10
 10
123.5894998781549
 20
238.4663161550260
 30
0.0000000000000000
 11
138.9964534868810
 21
243.1583203881127
 31
0.0000000000000000
 70
162
 71
5
 42
0.279253
  3
MAIN001
100
AcDb2LineAngularDimension
 13
141.7999132147853
 23
235.7431047939099
 33
0.0000000000000000
 14
140.9338878110009
 24
235.2431047939097
 34
0.0000000000000000
 15
122.8948415081965
 25
237.7469763542039
 35
0.0000000000000000
 16
138.6024481102271
 26
242.8504896502586
 36
0.0000000000000000
1001
ACAD
1000
DSTYLE
1002
{
1070
   173
1070
     1
1070
     6
1000
_OPEN
1070
     7
1000
_OPEN
1070
    41
1040
2.000000
1002
}
  0
DIMENSION
  5
E7
100
AcDbEntity
  8
MAIN0
  6
CONTINUOUS
 62
3
100
AcDbDimension
  2
*D11
 10
106.5042200410432
 20
249.7187436427295
 30
0.0000000000000000
 11
122.8061792327192
 21
257.2323110529390
 31
0.0000000000000000
 70
162
 71
5
 42
0.488692
  3
MAIN001
100
AcDb2LineAngularDimension
 13
123.5894998781549
 23
238.4663161550260
 33
0.0000000000000000
 14
122.8948415081965
 24
237.7469763542039
 34
0.0000000000000000
 15
106.2285826863616
 25
248.7574819464656
 35
0.0000000000000000
 16
122.5561792332989
 26
256.7992983507121
 36
0.0000000000000000
1001
ACAD
1000
DSTYLE
1002
{
1070
   173
1070
     1
1070
     6
1000
_OPEN
1070
     7
1000
_OPEN
1070
    41
1040
2.000000
1002
}
  0
DIMENSION
  5
F0
100
AcDbEntity
  8
MAIN0
  6
CONTINUOUS
 62
3
100
AcDbDimension
  2
*D12
 10
94.69911380034102
 20
264.9414143528912
 30
0.0000000000000000
 11
125.9492651979552
 21
262.6762955378187
 31
0.0000000000000000
 70
162
 71
5
 42
1.047198
  3
MAIN001
100
AcDb2LineAngularDimension
 13
141.7999132147853
 23
235.7431047939099
 33
0.0000000000000000
 14
140.9338878110009
 24
235.2431047939097
 34
0.0000000000000000
 15
94.69911380034201
 25
263.9414143528912
 35
0.0000000000000000
 16
125.6992651979555
 26
262.2432828359263
 36
0.0000000000000000
1001
ACAD
1000
DSTYLE
1002
{
1070
   173
1070
     1
1070
     6
1000
_OPEN
1070
     7
1000
_OPEN
1070
    41
1040
2.000000
1002
}
  0
DIMENSION
  5
F9
100
AcDbEntity
  8
MAIN0
  6
CONTINUOUS
 62
3
100
AcDbDimension
  2
*D13
 10
40.64223146386479
 20
238.8494455732792
 30
0.0000000000000000
 11
40.14223146386479
 21
220.5244454866121
 31
0.0000000000000000
 70
32
 71
5
 42
30.300000
  3
MAIN001
100
AcDbAlignedDimension
 13
43.38559111828386
 23
208.5494455727985
 33
0.0000000000000000
 14
72.81892186649563
 24
238.8494455732792
 34
0.0000000000000000
 50
90.00000000000000
100
AcDbRotatedDimension
1001
ACAD
1000
DSTYLE
1002
{
1070
   173
1070
     1
1070
     6
1000
_OPEN
1070
     7
1000
_OPEN
1070
    41
1040
2.000000
1070
   272
1070
     1
1070
    47
1040
0.100000
1070
    48
1040
0.100000
1070
    71
1070
     1
1002
}
  0
DIMENSION
  5
102
100
AcDbEntity
  8
MAIN0
  6
CONTINUOUS
 62
3
100
AcDbDimension
  2
*D14
 10
40.64223146386479
 20
208.5494455727985
 30
0.0000000000000000
 11
40.14223146386479
 21
191.9744454866662
 31
0.0000000000000000
 70
32
 71
5
 42
26.800000
  3
MAIN001
100
AcDbAlignedDimension
 13
67.82547846508771
 23
181.7494455733874
 33
0.0000000000000000
 14
43.38559111828386
 24
208.5494455727985
 34
0.0000000000000000
 50
90.00000000000000
100
AcDbRotatedDimension
1001
ACAD
1000
DSTYLE
1002
{
1070
   173
1070
     1
1070
     6
1000
_OPEN
1070
     7
1000
_OPEN
1070
    41
1040
2.000000
1070
   272
1070
     1
1070
    47
1040
0.100000
1070
    48
1040
0.100000
1070
    71
1070
     1
1002
}
  0
DIMENSION
  5
10B
100
AcDbEntity
  8
MAIN0
  6
CONTINUOUS
 62
3
100
AcDbDimension
  2
*D15
 10
34.32416983345019
 20
208.5494455727985
 30
0.0000000000000000
 11
33.82416983345019
 21
189.3994454865939
 31
0.0000000000000000
 70
32
 71
5
 42
31.950000
  3
MAIN001
100
AcDbAlignedDimension
 13
79.10059241900098
 23
176.5994455732428
 33
0.0000000000000000
 14
43.38559111828386
 24
208.5494455727985
 34
0.0000000000000000
 50
90.00000000000000
100
AcDbRotatedDimension
1001
ACAD
1000
DSTYLE
1002
{
1070
   173
1070
     1
1070
     6
1000
_OPEN
1070
     7
1000
_OPEN
1070
    41
1040
2.000000
1070
   272
1070
     1
1070
    47
1040
0.100000
1070
    48
1040
0.100000
1070
    71
1070
     1
1002
}
  0
DIMENSION
  5
114
100
AcDbEntity
  8
MAIN0
  6
CONTINUOUS
 62
3
100
AcDbDimension
  2
*D16
 10
83.04911380062063
 20
137.5649359108111
 30
0.0000000000000000
 11
91.52411371400417
 21
138.0649359108111
 31
0.0000000000000000
 70
32
 71
5
 42
23.300000
  3
MAIN001
100
AcDbAlignedDimension
 13
106.3491138002412
 23
172.7653154962985
 33
0.0000000000000000
 14
83.04911380062063
 24
172.7653154962758
 34
0.0000000000000000
100
AcDbRotatedDimension
1001
ACAD
1000
DSTYLE
1002
{
1070
   173
1070
     1
1070
     6
1000
_OPEN
1070
     7
1000
_OPEN
1070
    41
1040
2.000000
1070
   272
1070
     1
1070
    47
1040
0.100000
1070
    48
1040
0.100000
1070
    71
1070
     1
1002
}
  0
DIMENSION
  5
11D
100
AcDbEntity
  8
MAIN0
  6
CONTINUOUS
 62
3
100
AcDbDimension
  2
*D17
 10
72.19911380023297
 20
129.5857421215460
 30
0.0000000000000000
 11
91.52411371399964
 21
130.0857421215460
 31
0.0000000000000000
 70
32
 71
5
 42
45.000000
  3
MAIN001
100
AcDbAlignedDimension
 13
117.1991138006198
 23
177.4073566932624
 33
0.0000000000000000
 14
72.19911380023297
 24
177.4073566932185
 34
0.0000000000000000
100
AcDbRotatedDimension
1001
ACAD
1000
DSTYLE
1002
{
1070
   173
1070
     1
1070
     6
1000
_OPEN
1070
     7
1000
_OPEN
1070
    41
1040
2.000000
1070
   272
1070
     1
1070
    47
1040
0.200000
1070
    48
1040
0.200000
1070
    71
1070
     1
1002
}
  0
DIMENSION
  5
126
100
AcDbEntity
  8
MAIN0
  6
CONTINUOUS
 62
3
100
AcDbDimension
  2
*D18
 10
77.19911380025059
 20
276.7176229233708
 30
0.0000000000000000
 11
91.52411371393563
 21
277.2176229233708
 31
0.0000000000000000
 70
32
 71
5
 42
35.000000
  3
MAIN001
100
AcDbAlignedDimension
 13
112.1991138004741
 23
243.0701827457396
 33
0.0000000000000000
 14
77.19911380025059
 24
243.0701827457055
 34
0.0000000000000000
100
AcDbRotatedDimension
1001
ACAD
1000
DSTYLE
1002
{
1070
   173
1070
     1
1070
     6
1000
_OPEN
1070
     7
1000
_OPEN
1070
    41
1040
2.000000
1070
   272
1070
     1
1070
    47
1040
0.200000
1070
    48
1040
0.200000
1070
    71
1070
     1
1002
}
  0
DIMENSION
  5
12F
100
AcDbEntity
  8
MAIN0
  6
CONTINUOUS
 62
3
100
AcDbDimension
  2
*D19
 10
59.69911380027116
 20
121.3054699438073
 30
0.0000000000000000
 11
90.62411368938676
 21
121.8054699438073
 31
0.0000000000000000
 70
32
 71
5
 42
70.000000
  3
MAIN001
100
AcDbAlignedDimension
 13
129.6991138005297
 23
204.0494455733507
 33
0.0000000000000000
 14
59.69911380027116
 24
204.0494455732824
 34
0.0000000000000000
100
AcDbRotatedDimension
1001
ACAD
1000
DSTYLE
1002
{
1070
   173
1070
     1
1070
     6
1000
_OPEN
1070
     7
1000
_OPEN
1070
    41
1040
2.000000
1070
   272
1070
     2
1070
    47
1040
0.020000
1070
    48
1040
0.020000
1070
    71
1070
     1
1002
}
  0
LINE
  5
130
100
AcDbEntity
  8
MAIN0
  6
HIDDEN
 62
3
100
AcDbLine
 10
102.2843729147786
 20
169.2752320968459
 30
0.0000000000000000
 11
114.1334460088518
 21
173.5879420067565
 31
0.0000000000000000
  0
LINE
  5
131
100
AcDbEntity
  8
MAIN0
  6
HIDDEN
 62
3
100
AcDbLine
 10
87.11385468610041
 20
169.2752320968290
 30
0.0000000000000000
 11
75.26478159201773
 21
173.5879420067133
 31
0.0000000000000000
  0
LINE
  5
132
100
AcDbEntity
  8
MAIN0
  6
CENTER
 62
3
100
AcDbLine
 10
80.77367053683459
 20
170.2896046490515
 30
0.0000000000000000
 11
84.31827766227441
 21
180.0283326870460
 31
0.0000000000000000
  0
LEADER
  5
133
100
AcDbEntity
  8
MAIN0
  6
CONTINUOUS
 62
3
100
AcDbLeader
  3
MAIN001
 73
     0
 75
     1
 40
3.099999904632568
 41
24.72900073432925
 76
     3
 10
325.0494723208798
 20
85.84454742753810
 30
0.0000000000000000
 10
314.0416585725801
 20
63.76698690479321
 30
0.0000000000000000
 10
312.1146586283700
 20
63.76698690479321
 30
0.0000000000000000
340
134
213
0.0000000000000000
223
-0.5000000000000000
233
0.0000000000000000
1001
ACAD
1000
DSTYLE
1002
{
1070
   147
1040
0.0
1070
    77
1070
     1
1070
   341
1005
13
1070
    41
1040
2.000000
1002
}
  0
MTEXT
  5
134
102
{ACAD_REACTORS
330
133
102
}
100
AcDbEntity
  8
MAIN0
  6
CONTINUOUS
 62
3
100
AcDbMText
 10
287.3856578940408
 20
67.36698680942578
 30
0.0000000000000000
 40
3.099999904632568
 41
0.0000000000000000
 44
0.7935483930510365
 71
     1
 72
     1
  1
{\H0.93x;{引ポート M5\PPull Port}}
 11
1.000000000000000
 21
0.0000000000000000
 31
0.0000000000000000
  7
KNJYOKO
  0
LINE
  5
135
100
AcDbEntity
  8
MAIN0
  6
CENTER
 62
3
100
AcDbLine
 10
104.5651880881941
 20
181.4426292462758
 30
0.0000000000000000
 11
108.8436502554275
 21
169.6876510518787
 31
0.0000000000000000
  0
LEADER
  5
136
100
AcDbEntity
  8
MAIN0
  6
CONTINUOUS
 62
3
100
AcDbLeader
  3
MAIN001
 73
     0
 74
     0
 75
     1
 40
3.099999904632568
 41
24.73100073432920
 76
     3
 10
354.4063543405451
 20
75.88552348891406
 30
0.0000000000000000
 10
364.8374156591405
 20
63.17748165598398
 30
0.0000000000000000
 10
366.7624156033506
 20
63.17748165598398
 30
0.0000000000000000
340
137
213
0.0000000000000000
223
-0.5000000000000000
233
0.0000000000000000
1001
ACAD
1000
DSTYLE
1002
{
1070
   147
1040
0.0
1070
    77
1070
     1
1070
   341
1005
13
1070
    41
1040
2.000000
1002
}
  0
MTEXT
  5
137
102
{ACAD_REACTORS
330
136
102
}
100
AcDbEntity
  8
MAIN0
  6
CONTINUOUS
 62
3
100
AcDbMText
 10
366.7634156033506
 20
66.77748156061655
 30
0.0000000000000000
 40
3.099999904632568
 41
0.0000000000000000
 44
0.7935483930510365
 71
     1
 72
     1
  1
{\H0.93x;{押ポート M5\PPush Port}}
 11
1.000000000000000
 21
0.0000000000000000
 31
0.0000000000000000
  7
KNJYOKO
  0
LEADER
  5
138
100
AcDbEntity
  8
MAIN0
  6
CONTINUOUS
 62
3
100
AcDbLeader
  3
MAIN001
 73
     0
 75
     1
 40
3.099999904632568
 41
29.58900080823898
 76
     3
 10
75.23591984784693
 20
241.1178964775847
 30
0.0000000000000000
 10
64.30180167579957
 20
262.0426743996395
 30
0.0000000000000000
 10
62.37480173158951
 20
262.0426743996395
 30
0.0000000000000000
340
139
213
0.0000000000000000
223
-0.5000000000000000
233
0.0000000000000000
1001
ACAD
1000
DSTYLE
1002
{
1070
   147
1040
0.0
1070
    77
1070
     1
1070
   341
1005
13
1070
    41
1040
2.000000
1002
}
  0
MTEXT
  5
139
102
{ACAD_REACTORS
330
138
102
}
100
AcDbEntity
  8
MAIN0
  6
CONTINUOUS
 62
3
100
AcDbMText
 10
32.78580092335054
 20
265.6426743042720
 30
0.0000000000000000
 40
3.099999904632568
 41
0.0000000000000000
 44
0.7935483930510365
 71
     1
 72
     1
  1
{\H0.93x;{4-M6 ねじ深11\PDepth 11}}
 11
1.000000000000000
 21
0.0000000000000000
 31
0.0000000000000000
  7
KNJYOKO
  0
LEADER
  5
13A
100
AcDbEntity
  8
MAIN0
  6
CONTINUOUS
 62
3
100
AcDbLeader
  3
MAIN001
 73
     0
 75
     1
 40
3.099999904632568
 41
30.96900080347061
 76
     3
 10
58.66665328918046
 20
210.8262910430268
 30
0.0000000000000000
 10
54.34818910978225
 20
249.2312660565792
 30
0.0000000000000000
 10
52.42118916557220
 20
249.2312660565792
 30
0.0000000000000000
340
13B
213
0.0000000000000000
223
-0.5000000000000000
233
0.0000000000000000
1001
ACAD
1000
DSTYLE
1002
{
1070
   147
1040
0.0
1070
    77
1070
     1
1070
   341
1005
13
1070
    41
1040
2.000000
1002
}
  0
MTEXT
  5
13B
102
{ACAD_REACTORS
330
13A
102
}
100
AcDbEntity
  8
MAIN0
  6
CONTINUOUS
 62
3
100
AcDbMText
 10
21.45218836210159
 20
252.8312659612118
 30
0.0000000000000000
 40
3.099999904632568
 41
0.0000000000000000
 44
0.7935483930510365
 71
     1
 72
     1
  1
{\H0.93x;{2-\U+22055　　　深10\PDepth 10}}
 11
1.000000000000000
 21
0.0000000000000000
 31
0.0000000000000000
  7
KNJYOKO
  0
ARC
  5
13C
100
AcDbEntity
  8
MAIN0
  6
CENTER
 62
3
100
AcDbCircle
 10
339.6991138003715
 20
208.5494455729826
 30
0.0000000000000000
 40
23.00000000000000
100
AcDbArc
 50
111.7832647762262
 51
128.9263931478670
  0
LINE
  5
13D
100
AcDbEntity
  8
MAIN0
  6
CENTER
 62
3
100
AcDbLine
 10
326.3381276784026
 20
231.6913523748096
 30
0.0000000000000000
 11
329.7596559164637
 21
225.7650916269610
 31
0.0000000000000000
  0
CIRCLE
  5
13E
100
AcDbEntity
  8
MAIN0
  6
CONTINUOUS
 62
3
100
AcDbCircle
 10
328.1991138000929
 20
228.4680298598641
 30
0.0000000000000000
 40
2.000000000000000
  0
LINE
  5
13F
100
AcDbEntity
  8
MAIN0
  6
CONTINUOUS
 62
3
100
AcDbLine
 10
134.2003142716599
 20
214.8466799919782
 30
0.0000000000000000
 11
132.1976361485828
 21
214.3843253162967
 31
0.0000000000000000
  0
LINE
  5
140
100
AcDbEntity
  8
MAIN0
  6
CONTINUOUS
 62
3
100
AcDbLine
 10
132.1976361485821
 20
214.3843253162965
 30
0.0000000000000000
 11
132.4788249665138
 21
213.1663627353155
 31
0.0000000000000000
  0
LINE
  5
141
100
AcDbEntity
  8
MAIN0
  6
CONTINUOUS
 62
3
100
AcDbLine
 10
132.4788249665137
 20
213.1663627353154
 30
0.0000000000000000
 11
129.3608407592010
 21
212.4465193614151
 31
0.0000000000000000
  0
LINE
  5
142
100
AcDbEntity
  8
MAIN0
  6
CONTINUOUS
 62
3
100
AcDbLine
 10
129.0796519412693
 20
213.6644819423962
 30
0.0000000000000000
 11
129.3608407592010
 21
212.4465193614151
 31
0.0000000000000000
  0
LINE
  5
143
100
AcDbEntity
  8
MAIN0
  6
CONTINUOUS
 62
3
100
AcDbLine
 10
129.0796519412693
 20
213.6644819423962
 30
0.0000000000000000
 11
125.7667937209994
 21
212.8996483576272
 31
0.0000000000000000
  0
LINE
  5
144
100
AcDbEntity
  8
MAIN0
  6
CONTINUOUS
 62
3
100
AcDbLine
 10
125.7667937209912
 20
212.8996483576253
 30
0.0000000000000000
 11
124.5295629221084
 21
218.2586837139461
 31
0.0000000000000000
  0
LINE
  5
145
100
AcDbEntity
  8
MAIN0
  6
CONTINUOUS
 62
3
100
AcDbLine
 10
127.8424211423782
 20
219.0235172987151
 30
0.0000000000000000
 11
124.5295629221083
 21
218.2586837139461
 31
0.0000000000000000
  0
LINE
  5
146
100
AcDbEntity
  8
MAIN0
  6
CONTINUOUS
 62
3
100
AcDbLine
 10
127.8424211423782
 20
219.0235172987151
 30
0.0000000000000000
 11
127.5612323244503
 21
220.2414798796971
 31
0.0000000000000000
  0
LINE
  5
147
100
AcDbEntity
  8
MAIN0
  6
CONTINUOUS
 62
3
100
AcDbLine
 10
130.6792165317631
 20
220.9613232535974
 30
0.0000000000000000
 11
127.5612323244503
 21
220.2414798796971
 31
0.0000000000000000
  0
LINE
  5
148
100
AcDbEntity
  8
MAIN0
  6
CONTINUOUS
 62
3
100
AcDbLine
 10
130.9604053496910
 20
219.7433606726154
 30
0.0000000000000000
 11
130.6792165317631
 21
220.9613232535974
 31
0.0000000000000000
  0
LINE
  5
149
100
AcDbEntity
  8
MAIN0
  6
CONTINUOUS
 62
3
100
AcDbLine
 10
132.9630834707467
 20
220.2057153478302
 30
0.0000000000000000
 11
130.9604053496916
 21
219.7433606726155
 31
0.0000000000000000
  0
LINE
  5
14A
100
AcDbEntity
  8
MAIN0
  6
CONTINUOUS
 62
3
100
AcDbLine
 10
118.3853723174382
 20
229.1185038253782
 30
0.0000000000000000
 11
114.4290034155816
 21
232.9391248629089
 31
0.0000000000000000
  0
LINE
  5
14B
100
AcDbEntity
  8
MAIN0
  6
CONTINUOUS
 62
3
100
AcDbLine
 10
116.7908418751423
 20
235.3848801840603
 30
0.0000000000000000
 11
114.4290034155815
 21
232.9391248629088
 31
0.0000000000000000
  0
LINE
  5
14C
100
AcDbEntity
  8
MAIN0
  6
CONTINUOUS
 62
3
100
AcDbLine
 10
116.7908418751423
 20
235.3848801840603
 30
0.0000000000000000
 11
115.8916671247204
 21
236.2532031471354
 31
0.0000000000000000
  0
LINE
  5
14D
100
AcDbEntity
  8
MAIN0
  6
CONTINUOUS
 62
3
100
AcDbLine
 10
118.1145739101892
 20
238.5550905082190
 30
0.0000000000000000
 11
115.8916671247204
 21
236.2532031471354
 31
0.0000000000000000
  0
LINE
  5
14E
100
AcDbEntity
  8
MAIN0
  6
CONTINUOUS
 62
3
100
AcDbLine
 10
119.0137486606112
 20
237.6867675451439
 30
0.0000000000000000
 11
118.1145739101892
 21
238.5550905082190
 31
0.0000000000000000
  0
LINE
  5
14F
100
AcDbEntity
  8
MAIN0
  6
CONTINUOUS
 62
3
100
AcDbLine
 10
120.4415194536652
 20
239.1652674824960
 30
0.0000000000000000
 11
119.0137486606116
 21
237.6867675451443
 31
0.0000000000000000
  0
LINE
  5
150
100
AcDbEntity
  8
MAIN0
  6
CONTINUOUS
 62
3
100
AcDbLine
 10
124.3978883569693
 20
235.3446464464642
 30
0.0000000000000000
 11
122.9701175624741
 21
233.8661465076197
 31
0.0000000000000000
  0
LINE
  5
151
100
AcDbEntity
  8
MAIN0
  6
CONTINUOUS
 62
3
100
AcDbLine
 10
122.9701175624737
 20
233.8661465076193
 30
0.0000000000000000
 11
123.8692923128982
 21
232.9978235445469
 31
0.0000000000000000
  0
LINE
  5
152
100
AcDbEntity
  8
MAIN0
  6
CONTINUOUS
 62
3
100
AcDbLine
 10
120.7472107770048
 20
231.5642591465356
 30
0.0000000000000000
 11
118.3853723174441
 21
229.1185038253842
 31
0.0000000000000000
  0
LINE
  5
153
100
AcDbEntity
  8
MAIN0
  6
CONTINUOUS
 62
3
100
AcDbLine
 10
120.7472107770048
 20
231.5642591465356
 30
0.0000000000000000
 11
121.6463855274294
 21
230.6959361834632
 31
0.0000000000000000
  0
LINE
  5
154
100
AcDbEntity
  8
MAIN0
  6
CONTINUOUS
 62
3
100
AcDbLine
 10
123.8692923128982
 20
232.9978235445468
 30
0.0000000000000000
 11
121.6463855274294
 21
230.6959361834632
 31
0.0000000000000000
  0
LINE
  5
155
100
AcDbEntity
  8
MAIN0
  6
CONTINUOUS
 62
3
100
AcDbLine
 10
105.9562508190305
 20
237.8308708467723
 30
0.0000000000000000
 11
100.6693114913721
 21
239.3468763037741
 31
0.0000000000000000
  0
LINE
  5
156
100
AcDbEntity
  8
MAIN0
  6
CONTINUOUS
 62
3
100
AcDbLine
 10
106.8934178288108
 20
241.0991606129707
 30
0.0000000000000000
 11
105.9562508190328
 21
237.8308708467804
 31
0.0000000000000000
  0
LINE
  5
157
100
AcDbEntity
  8
MAIN0
  6
CONTINUOUS
 62
3
100
AcDbLine
 10
106.8934178288107
 20
241.0991606129708
 30
0.0000000000000000
 11
108.0949949487341
 21
240.7546139182012
 31
0.0000000000000000
  0
LINE
  5
158
100
AcDbEntity
  8
MAIN0
  6
CONTINUOUS
 62
3
100
AcDbLine
 10
108.9770344873487
 20
243.8306513452039
 30
0.0000000000000000
 11
108.0949949487342
 21
240.7546139182013
 31
0.0000000000000000
  0
LINE
  5
159
100
AcDbEntity
  8
MAIN0
  6
CONTINUOUS
 62
3
100
AcDbLine
 10
107.7754573674252
 20
244.1751980399733
 30
0.0000000000000000
 11
108.9770344873486
 21
243.8306513452039
 31
0.0000000000000000
  0
LINE
  5
15A
100
AcDbEntity
  8
MAIN0
  6
CONTINUOUS
 62
3
100
AcDbLine
 10
108.3419904767111
 20
246.1509337882105
 30
0.0000000000000000
 11
107.7754573674255
 21
244.1751980399740
 31
0.0000000000000000
  0
LINE
  5
15B
100
AcDbEntity
  8
MAIN0
  6
CONTINUOUS
 62
3
100
AcDbLine
 10
102.4885180397645
 20
245.6912034969670
 30
0.0000000000000000
 11
101.2869409198421
 21
246.0357501917401
 31
0.0000000000000000
  0
LINE
  5
15C
100
AcDbEntity
  8
MAIN0
  6
CONTINUOUS
 62
3
100
AcDbLine
 10
103.0550511484784
 20
247.6669392432092
 30
0.0000000000000000
 11
102.4885180397648
 21
245.6912034969676
 31
0.0000000000000000
  0
LINE
  5
15D
100
AcDbEntity
  8
MAIN0
  6
CONTINUOUS
 62
3
100
AcDbLine
 10
101.2869409198421
 20
246.0357501917401
 30
0.0000000000000000
 11
100.4049013812277
 21
242.9597127647376
 31
0.0000000000000000
  0
LINE
  5
15E
100
AcDbEntity
  8
MAIN0
  6
CONTINUOUS
 62
3
100
AcDbLine
 10
101.6064785011500
 20
242.6151660699644
 30
0.0000000000000000
 11
100.6693114913721
 21
239.3468763037740
 31
0.0000000000000000
  0
LINE
  5
15F
100
AcDbEntity
  8
MAIN0
  6
CONTINUOUS
 62
3
100
AcDbLine
 10
101.6064785011500
 20
242.6151660699644
 30
0.0000000000000000
 11
100.4049013812277
 21
242.9597127647375
 31
0.0000000000000000
  0
LINE
  5
160
100
AcDbEntity
  8
MAIN0
  6
CONTINUOUS
 62
3
100
AcDbLine
 10
55.19791332911984
 20
214.8466799919012
 30
0.0000000000000000
 11
57.20059145219790
 21
214.3843253162236
 31
0.0000000000000000
  0
LINE
  5
161
100
AcDbEntity
  8
MAIN0
  6
CONTINUOUS
 62
3
100
AcDbLine
 10
57.20059145219855
 20
214.3843253162234
 30
0.0000000000000000
 11
56.91940263426929
 21
213.1663627352418
 31
0.0000000000000000
  0
LINE
  5
162
100
AcDbEntity
  8
MAIN0
  6
CONTINUOUS
 62
3
100
AcDbLine
 10
56.91940263426926
 20
213.1663627352418
 30
0.0000000000000000
 11
60.03738684158347
 21
212.4465193613476
 31
0.0000000000000000
  0
LINE
  5
163
100
AcDbEntity
  8
MAIN0
  6
CONTINUOUS
 62
3
100
AcDbLine
 10
60.31857565951270
 20
213.6644819423292
 30
0.0000000000000000
 11
60.03738684158350
 21
212.4465193613475
 31
0.0000000000000000
  0
LINE
  5
164
100
AcDbEntity
  8
MAIN0
  6
CONTINUOUS
 62
3
100
AcDbLine
 10
60.31857565951279
 20
213.6644819423292
 30
0.0000000000000000
 11
63.63143387978420
 21
212.8996483575666
 31
0.0000000000000000
  0
LINE
  5
165
100
AcDbEntity
  8
MAIN0
  6
CONTINUOUS
 62
3
100
AcDbLine
 10
63.63143387979235
 20
212.8996483575647
 30
0.0000000000000000
 11
64.86866467866474
 21
218.2586837138879
 31
0.0000000000000000
  0
LINE
  5
166
100
AcDbEntity
  8
MAIN0
  6
CONTINUOUS
 62
3
100
AcDbLine
 10
61.55580645839342
 20
219.0235172986505
 30
0.0000000000000000
 11
64.86866467866481
 21
218.2586837138879
 31
0.0000000000000000
  0
LINE
  5
167
100
AcDbEntity
  8
MAIN0
  6
CONTINUOUS
 62
3
100
AcDbLine
 10
61.55580645839339
 20
219.0235172986505
 30
0.0000000000000000
 11
61.83699527631897
 21
220.2414798796330
 31
0.0000000000000000
  0
LINE
  5
168
100
AcDbEntity
  8
MAIN0
  6
CONTINUOUS
 62
3
100
AcDbLine
 10
58.71901106900481
 20
220.9613232535272
 30
0.0000000000000000
 11
61.83699527631893
 21
220.2414798796330
 31
0.0000000000000000
  0
LINE
  5
169
100
AcDbEntity
  8
MAIN0
  6
CONTINUOUS
 62
3
100
AcDbLine
 10
58.43782225107921
 20
219.7433606725447
 30
0.0000000000000000
 11
58.71901106900478
 21
220.9613232535272
 31
0.0000000000000000
  0
LINE
  5
16A
100
AcDbEntity
  8
MAIN0
  6
CONTINUOUS
 62
3
100
AcDbLine
 10
56.43514413002262
 20
220.2057153477556
 30
0.0000000000000000
 11
58.43782225107867
 21
219.7433606725448
 31
0.0000000000000000
  0
LINE
  5
16B
100
AcDbEntity
  8
MAIN0
  6
CONTINUOUS
 62
3
100
AcDbLine
 10
71.01285528331368
 20
229.1185038253320
 30
0.0000000000000000
 11
74.96922418516284
 21
232.9391248628704
 31
0.0000000000000000
  0
LINE
  5
16C
100
AcDbEntity
  8
MAIN0
  6
CONTINUOUS
 62
3
100
AcDbLine
 10
68.65101682374238
 20
231.5642591464848
 30
0.0000000000000000
 11
71.01285528330789
 21
229.1185038253380
 31
0.0000000000000000
  0
LINE
  5
16D
100
AcDbEntity
  8
MAIN0
  6
CONTINUOUS
 62
3
100
AcDbLine
 10
68.65101682374231
 20
231.5642591464848
 30
0.0000000000000000
 11
67.75184207331944
 21
230.6959361834106
 31
0.0000000000000000
  0
LINE
  5
16E
100
AcDbEntity
  8
MAIN0
  6
CONTINUOUS
 62
3
100
AcDbLine
 10
65.52893528784611
 20
232.9978235444899
 30
0.0000000000000000
 11
67.75184207331944
 21
230.6959361834107
 31
0.0000000000000000
  0
LINE
  5
16F
100
AcDbEntity
  8
MAIN0
  6
CONTINUOUS
 62
3
100
AcDbLine
 10
66.42811003826904
 20
233.8661465075641
 30
0.0000000000000000
 11
65.52893528784617
 21
232.9978235444900
 31
0.0000000000000000
  0
LINE
  5
170
100
AcDbEntity
  8
MAIN0
  6
CONTINUOUS
 62
3
100
AcDbLine
 10
65.00033924377054
 20
235.3446464464062
 30
0.0000000000000000
 11
66.42811003826859
 21
233.8661465075646
 31
0.0000000000000000
  0
LINE
  5
171
100
AcDbEntity
  8
MAIN0
  6
CONTINUOUS
 62
3
100
AcDbLine
 10
70.38447894012403
 20
237.6867675450964
 30
0.0000000000000000
 11
71.28365369054433
 21
238.5550905081734
 31
0.0000000000000000
  0
LINE
  5
172
100
AcDbEntity
  8
MAIN0
  6
CONTINUOUS
 62
3
100
AcDbLine
 10
68.95670814706719
 20
239.1652674824458
 30
0.0000000000000000
 11
70.38447894012364
 21
237.6867675450968
 31
0.0000000000000000
  0
LINE
  5
173
100
AcDbEntity
  8
MAIN0
  6
CONTINUOUS
 62
3
100
AcDbLine
 10
71.28365369054436
 20
238.5550905081733
 30
0.0000000000000000
 11
73.50656047601765
 21
236.2532031470941
 31
0.0000000000000000
  0
LINE
  5
174
100
AcDbEntity
  8
MAIN0
  6
CONTINUOUS
 62
3
100
AcDbLine
 10
72.60738572559740
 20
235.3848801840172
 30
0.0000000000000000
 11
73.50656047601765
 21
236.2532031470940
 31
0.0000000000000000
  0
LINE
  5
175
100
AcDbEntity
  8
MAIN0
  6
CONTINUOUS
 62
3
100
AcDbLine
 10
72.60738572559745
 20
235.3848801840172
 30
0.0000000000000000
 11
74.96922418516296
 21
232.9391248628703
 31
0.0000000000000000
  0
LINE
  5
176
100
AcDbEntity
  8
MAIN0
  6
CONTINUOUS
 62
3
100
AcDbLine
 10
83.44197678170440
 20
237.8308708467504
 30
0.0000000000000000
 11
88.72891610935983
 21
239.3468763037625
 31
0.0000000000000000
  0
LINE
  5
177
100
AcDbEntity
  8
MAIN0
  6
CONTINUOUS
 62
3
100
AcDbLine
 10
87.79174909957557
 20
242.6151660699509
 30
0.0000000000000000
 11
88.72891610935986
 21
239.3468763037624
 31
0.0000000000000000
  0
LINE
  5
178
100
AcDbEntity
  8
MAIN0
  6
CONTINUOUS
 62
3
100
AcDbLine
 10
87.79174909957555
 20
242.6151660699510
 30
0.0000000000000000
 11
88.99332621949725
 21
242.9597127647264
 31
0.0000000000000000
  0
LINE
  5
179
100
AcDbEntity
  8
MAIN0
  6
CONTINUOUS
 62
3
100
AcDbLine
 10
88.11128668087679
 20
246.0357501917272
 30
0.0000000000000000
 11
88.99332621949725
 21
242.9597127647264
 31
0.0000000000000000
  0
LINE
  5
17A
100
AcDbEntity
  8
MAIN0
  6
CONTINUOUS
 62
3
100
AcDbLine
 10
86.90970956095507
 20
245.6912034969518
 30
0.0000000000000000
 11
88.11128668087680
 21
246.0357501917273
 31
0.0000000000000000
  0
LINE
  5
17B
100
AcDbEntity
  8
MAIN0
  6
CONTINUOUS
 62
3
100
AcDbLine
 10
86.34317645223739
 20
247.6669392431929
 30
0.0000000000000000
 11
86.90970956095482
 21
245.6912034969524
 31
0.0000000000000000
  0
LINE
  5
17C
100
AcDbEntity
  8
MAIN0
  6
CENTER
 62
3
100
AcDbLine
 10
86.53895018075016
 20
237.0073180988723
 30
0.0000000000000000
 11
82.89400755966851
 21
249.7187436427064
 31
0.0000000000000000
  0
LINE
  5
17D
100
AcDbEntity
  8
MAIN0
  6
CONTINUOUS
 62
3
100
AcDbLine
 10
81.62277023329732
 20
244.1751980399478
 30
0.0000000000000000
 11
80.42119311337463
 21
243.8306513451761
 31
0.0000000000000000
  0
LINE
  5
17E
100
AcDbEntity
  8
MAIN0
  6
CONTINUOUS
 62
3
100
AcDbLine
 10
81.05623712400765
 20
246.1509337881839
 30
0.0000000000000000
 11
81.62277023329710
 21
244.1751980399485
 31
0.0000000000000000
  0
LINE
  5
17F
100
AcDbEntity
  8
MAIN0
  6
CONTINUOUS
 62
3
100
AcDbLine
 10
80.42119311337453
 20
243.8306513451760
 30
0.0000000000000000
 11
81.30323265199502
 21
240.7546139181752
 31
0.0000000000000000
  0
LINE
  5
180
100
AcDbEntity
  8
MAIN0
  6
CONTINUOUS
 62
3
100
AcDbLine
 10
82.50480977191775
 20
241.0991606129470
 30
0.0000000000000000
 11
81.30323265199502
 21
240.7546139181751
 31
0.0000000000000000
  0
LINE
  5
181
100
AcDbEntity
  8
MAIN0
  6
CONTINUOUS
 62
3
100
AcDbLine
 10
82.50480977191781
 20
241.0991606129470
 30
0.0000000000000000
 11
83.44197678170211
 21
237.8308708467584
 31
0.0000000000000000
  0
LINE
  5
182
100
AcDbEntity
  8
MAIN0
  6
CENTER
 62
3
100
AcDbLine
 10
339.6991138003715
 20
68.79473894095955
 30
0.0000000000000000
 11
339.6991138003715
 21
135.6895517735538
 31
0.0000000000000000
  0
LINE
  5
183
100
AcDbEntity
  8
MAIN0
  6
CONTINUOUS
 62
3
100
AcDbLine
 10
335.6991138005569
 20
96.94317608405622
 30
0.0000000000000000
 11
335.6991138005569
 21
108.4431760841459
 31
0.0000000000000000
  0
LINE
  5
184
100
AcDbEntity
  8
MAIN0
  6
CONTINUOUS
 62
3
100
AcDbLine
 10
343.6991138003019
 20
96.94317608405633
 30
0.0000000000000000
 11
343.6991138003147
 21
108.4431760841415
 31
0.0000000000000000
  0
LINE
  5
185
100
AcDbEntity
  8
MAIN0
  6
CONTINUOUS
 62
3
100
AcDbLine
 10
302.9282110644988
 20
77.44317608402380
 30
0.0000000000000000
 11
309.3882246680092
 21
77.44317608402380
 31
0.0000000000000000
  0
LINE
  5
186
100
AcDbEntity
  8
MAIN0
  6
CONTINUOUS
 62
3
100
AcDbLine
 10
302.9282110644988
 20
77.44317608402386
 30
0.0000000000000000
 11
302.9282110645061
 21
71.94317608402386
 31
0.0000000000000000
  0
LINE
  5
187
100
AcDbEntity
  8
MAIN0
  6
CONTINUOUS
 62
3
100
AcDbLine
 10
309.3882246680092
 20
77.44317608402378
 30
0.0000000000000000
 11
309.3882246680055
 21
71.94317608402378
 31
0.0000000000000000
  0
LINE
  5
188
100
AcDbEntity
  8
MAIN0
  6
CONTINUOUS
 62
3
100
AcDbLine
 10
376.4700165362443
 20
77.44317608402380
 30
0.0000000000000000
 11
370.0100029327339
 21
77.44317608402380
 31
0.0000000000000000
  0
LINE
  5
189
100
AcDbEntity
  8
MAIN0
  6
CONTINUOUS
 62
3
100
AcDbLine
 10
376.4700165362444
 20
77.44317608402372
 30
0.0000000000000000
 11
376.4700165362372
 21
71.94317608402383
 31
0.0000000000000000
  0
LINE
  5
18A
100
AcDbEntity
  8
MAIN0
  6
CONTINUOUS
 62
3
100
AcDbLine
 10
370.0100029327340
 20
77.44317608402389
 30
0.0000000000000000
 11
370.0100029327377
 21
71.94317608402389
 31
0.0000000000000000
  0
LINE
  5
18B
100
AcDbEntity
  8
MAIN0
  6
CONTINUOUS
 62
3
100
AcDbLine
 10
359.1334460087794
 20
82.44317608402380
 30
0.0000000000000000
 11
347.2843729148143
 21
82.44317608402380
 31
0.0000000000000000
  0
LINE
  5
18C
100
AcDbEntity
  8
MAIN0
  6
CONTINUOUS
 62
3
100
AcDbLine
 10
347.2843729148099
 20
71.94317608402378
 30
0.0000000000000000
 11
347.2843729148142
 21
82.44317608402376
 31
0.0000000000000000
  0
LINE
  5
18D
100
AcDbEntity
  8
MAIN0
  6
CONTINUOUS
 62
3
100
AcDbLine
 10
359.1334460087830
 20
71.94317608402378
 30
0.0000000000000000
 11
359.1334460087794
 21
82.44317608402378
 31
0.0000000000000000
  0
LINE
  5
18E
100
AcDbEntity
  8
MAIN0
  6
CONTINUOUS
 62
3
100
AcDbLine
 10
320.2647815921353
 20
82.94317608402386
 30
0.0000000000000000
 11
320.2647815921462
 21
92.94317608402386
 31
0.0000000000000000
  0
LINE
  5
18F
100
AcDbEntity
  8
MAIN0
  6
CONTINUOUS
 62
3
100
AcDbLine
 10
332.1138546861170
 20
82.94317608402392
 30
0.0000000000000000
 11
332.1138546861200
 21
92.94317608402380
 31
0.0000000000000000
  0
LINE
  5
190
100
AcDbEntity
  8
MAIN0
  6
CONTINUOUS
 62
3
100
AcDbLine
 10
332.1138546861200
 20
92.94317608402392
 30
0.0000000000000000
 11
320.2647815921462
 21
92.94317608402392
 31
0.0000000000000000
  0
LINE
  5
191
100
AcDbEntity
  8
MAIN0
  6
CONTINUOUS
 62
3
100
AcDbLine
 10
332.1138546861170
 20
82.94317608402392
 30
0.0000000000000000
 11
320.2647815921353
 21
82.94317608402392
 31
0.0000000000000000
  0
ELLIPSE
  5
192
100
AcDbEntity
  8
MAIN0
  6
CONTINUOUS
 62
3
100
AcDbEllipse
 10
326.3261261967734
 20
87.94317608402392
 30
0.0000000000000000
 11
0.0000000000000000
 21
2.500000000000000
 31
0.0000000000000000
210
0.0000000000000000
220
0.0000000000000000
230
1.000000000000000
 40
0.9396926205600000
 41
0.0000000000000000
 42
6.283185307179586
  0
ELLIPSE
  5
193
100
AcDbEntity
  8
MAIN0
  6
CONTINUOUS
 62
3
100
AcDbEllipse
 10
326.4629342540997
 20
87.94317608402392
 30
0.0000000000000000
 11
0.0000000000000000
 21
2.100000000000000
 31
0.0000000000000000
210
0.0000000000000000
220
0.0000000000000000
230
1.000000000000000
 40
0.9396926207142856
 41
0.0000000000000000
 42
6.283185307179586
  0
ELLIPSE
  5
194
100
AcDbEntity
  8
MAIN0
  6
CONTINUOUS
 62
3
100
AcDbEllipse
 10
353.0721014039695
 20
77.94317608402392
 30
0.0000000000000000
 11
0.0000000000000000
 21
2.500000000000000
 31
0.0000000000000000
210
0.0000000000000000
220
0.0000000000000000
230
1.000000000000000
 40
0.9396926205600000
 41
0.0000000000000000
 42
6.283185307179586
  0
ELLIPSE
  5
195
100
AcDbEntity
  8
MAIN0
  6
CONTINUOUS
 62
3
100
AcDbEllipse
 10
352.9352933466432
 20
77.94317608402392
 30
0.0000000000000000
 11
0.0000000000000000
 21
2.100000000000000
 31
0.0000000000000000
210
0.0000000000000000
220
0.0000000000000000
230
1.000000000000000
 40
0.9396926207142856
 41
0.0000000000000000
 42
6.283185307179586
  0
LEADER
  5
196
100
AcDbEntity
  8
MAIN0
  6
CONTINUOUS
 62
3
100
AcDbLeader
  3
MAIN001
 73
     0
 74
     0
 75
     1
 40
3.099999904632568
 41
56.80100162124634
 76
     3
 10
107.1385683872321
 20
175.3239999824779
 30
0.0000000000000000
 10
134.9863660621616
 20
130.3330006987428
 30
0.0000000000000000
 10
136.9113660063717
 20
130.3330006987428
 30
0.0000000000000000
340
197
213
-0.001000000000004775
223
-0.5000000000000000
233
0.0000000000000000
1001
ACAD
1000
DSTYLE
1002
{
1070
   147
1040
0.0
1070
    77
1070
     1
1070
   341
1005
13
1070
    41
1040
2.000000
1002
}
  0
MTEXT
  5
197
102
{ACAD_REACTORS
330
196
102
}
100
AcDbEntity
  8
MAIN0
  6
CONTINUOUS
 62
3
100
AcDbMText
 10
136.9123660063717
 20
133.9330006033754
 30
0.0000000000000000
 40
3.099999904632568
 41
0.0000000000000000
 44
0.7935483930510365
 71
     1
 72
     1
  1
{\H0.94x;{引ポート M3（ベース配管用）\PPull Port\P（for direct connect）}}
 11
1.000000000000000
 21
0.0000000000000000
 31
0.0000000000000000
  7
KNJYOKO
  0
LEADER
  5
198
100
AcDbEntity
  8
MAIN0
  6
CONTINUOUS
 62
3
100
AcDbLeader
  3
MAIN001
 73
     0
 75
     1
 40
3.099999904632568
 41
33.78900097513198
 76
     3
 10
82.07821167906864
 20
175.4560519094669
 30
0.0000000000000000
 10
57.18682148517439
 20
146.1424298677440
 30
0.0000000000000000
 10
55.25982154096434
 20
146.1424298677440
 30
0.0000000000000000
340
199
213
0.0000000000000000
223
-0.5000000000000000
233
0.0000000000000000
1001
ACAD
1000
DSTYLE
1002
{
1070
   147
1040
0.0
1070
    77
1070
     1
1070
   341
1005
13
1070
    41
1040
2.000000
1002
}
  0
MTEXT
  5
199
102
{ACAD_REACTORS
330
198
102
}
100
AcDbEntity
  8
MAIN0
  6
CONTINUOUS
 62
3
100
AcDbMText
 10
21.47082056583236
 20
149.7424297723766
 30
0.0000000000000000
 40
3.099999904632568
 41
0.0000000000000000
 44
0.7935483930510365
 71
     1
 72
     1
  1
{\H0.93x;{押ポート M3\P（ベース配管用）\PPush Port\P（for direct \P　　connect）\P}
 11
1.000000000000000
 21
0.0000000000000000
 31
0.0000000000000000
  7
KNJYOKO
  0
LINE
  5
19A
100
AcDbEntity
  8
MAIN0
  6
CENTER
 62
3
100
AcDbLine
 10
326.3261261967734
 20
92.44317608402392
 30
0.0000000000000000
 11
326.3261261967734
 21
83.44317608402392
 31
0.0000000000000000
  0
LINE
  5
19B
100
AcDbEntity
  8
MAIN0
  6
CENTER
 62
3
100
AcDbLine
 10
321.9768946453734
 20
87.94317608402392
 30
0.0000000000000000
 11
330.6753577481734
 21
87.94317608402392
 31
0.0000000000000000
  0
LINE
  5
19C
100
AcDbEntity
  8
MAIN0
  6
CENTER
 62
3
100
AcDbLine
 10
353.0721014039695
 20
82.44317608402392
 30
0.0000000000000000
 11
353.0721014039695
 21
73.44317608402392
 31
0.0000000000000000
  0
LINE
  5
19D
100
AcDbEntity
  8
MAIN0
  6
CENTER
 62
3
100
AcDbLine
 10
348.7228698525695
 20
77.94317608402392
 30
0.0000000000000000
 11
357.4213329553695
 21
77.94317608402392
 31
0.0000000000000000
  0
MTEXT
  5
19E
100
AcDbEntity
  8
MAIN0
  6
CONTINUOUS
 62
3
100
AcDbMText
 10
287.8284818873628
 20
70.91867411614021
 30
0.0000000000000000
 40
3.099999904632568
 41
0.0000000000000000
 44
0.6677419652551825
 71
     1
 72
     1
  1
{\H0.84x;{★}}
 11
1.000000000000000
 21
0.0000000000000000
 31
0.0000000000000000
  7
KNJYOKO
  0
LINE
  5
19F
100
AcDbEntity
  8
MAIN0
  6
CENTER
 62
3
100
AcDbLine
 10
186.5506766573073
 20
208.5494455729826
 30
0.0000000000000000
 11
253.4047588424730
 21
208.5494455729826
 31
0.0000000000000000
  0
LINE
  5
1A0
100
AcDbEntity
  8
MAIN0
  6
CONTINUOUS
 62
3
100
AcDbLine
 10
214.6991138004040
 20
204.5494455731680
 30
0.0000000000000000
 11
218.5471702447690
 21
204.5494455731680
 31
0.0000000000000000
  0
LINE
  5
1A1
100
AcDbEntity
  8
MAIN0
  6
CONTINUOUS
 62
3
100
AcDbLine
 10
214.6991138004040
 20
212.5494455729130
 30
0.0000000000000000
 11
218.6802501133406
 21
212.5494455729174
 31
0.0000000000000000
  0
LINE
  5
1A2
100
AcDbEntity
  8
MAIN0
  6
CONTINUOUS
 62
3
100
AcDbLine
 10
189.6991138003715
 20
192.8045825369965
 30
0.0000000000000000
 11
195.1991138003715
 21
192.8045825369782
 31
0.0000000000000000
  0
LINE
  5
1A3
100
AcDbEntity
  8
MAIN0
  6
CONTINUOUS
 62
3
100
AcDbLine
 10
189.6991138003715
 20
184.5773412012770
 30
0.0000000000000000
 11
195.1991138003715
 21
184.5773412012647
 31
0.0000000000000000
  0
LINE
  5
1A4
100
AcDbEntity
  8
MAIN0
  6
CONTINUOUS
 62
3
100
AcDbLine
 10
195.1991138003715
 20
184.5773412012648
 30
0.0000000000000000
 11
195.1991138003715
 21
192.8045825369783
 31
0.0000000000000000
  0
LINE
  5
1A5
100
AcDbEntity
  8
MAIN0
  6
CONTINUOUS
 62
3
100
AcDbLine
 10
189.8160812067320
 20
248.2664129793434
 30
0.0000000000000000
 11
195.1991138003715
 21
248.2664129793344
 31
0.0000000000000000
  0
LINE
  5
1A6
100
AcDbEntity
  8
MAIN0
  6
CONTINUOUS
 62
3
100
AcDbLine
 10
195.1991138003715
 20
248.5494455729825
 30
0.0000000000000000
 11
195.1991138003715
 21
248.2664129793344
 31
0.0000000000000000
  0
LINE
  5
1A7
100
AcDbEntity
  8
MAIN0
  6
CONTINUOUS
 62
3
100
AcDbLine
 10
195.0271603643520
 20
214.4006636014389
 30
0.0000000000000000
 11
214.6991138004040
 21
214.4006636014172
 31
0.0000000000000000
  0
LINE
  5
1A8
100
AcDbEntity
  8
MAIN0
  6
CONTINUOUS
 62
3
100
AcDbLine
 10
195.7501476229207
 20
220.6366320155800
 30
0.0000000000000000
 11
214.6991138004040
 21
220.6366320156010
 31
0.0000000000000000
  0
LINE
  5
1A9
100
AcDbEntity
  8
MAIN0
  6
CONTINUOUS
 62
3
100
AcDbLine
 10
195.8660110691444
 20
218.6971502420630
 30
0.0000000000000000
 11
214.6991138004040
 21
218.6971502420212
 31
0.0000000000000000
  0
LINE
  5
1AA
100
AcDbEntity
  8
MAIN0
  6
CONTINUOUS
 62
3
100
AcDbLine
 10
189.6991138003715
 20
235.5274353604039
 30
0.0000000000000000
 11
214.6991138004040
 21
235.5274353604039
 31
0.0000000000000000
  0
LINE
  5
1AB
100
AcDbEntity
  8
MAIN0
  6
CONTINUOUS
 62
3
100
AcDbLine
 10
189.6991138003715
 20
239.8922248630991
 30
0.0000000000000000
 11
214.6991138004040
 21
239.8922248630991
 31
0.0000000000000000
  0
LINE
  5
1AC
100
AcDbEntity
  8
MAIN0
  6
CONTINUOUS
 62
3
100
AcDbLine
 10
189.6991138003715
 20
247.6146217797260
 30
0.0000000000000000
 11
214.6991138004040
 21
247.6146217796429
 31
0.0000000000000000
  0
LINE
  5
1AD
100
AcDbEntity
  8
MAIN0
  6
CONTINUOUS
 62
3
100
AcDbLine
 10
189.6991138003716
 20
245.7434428727495
 30
0.0000000000000000
 11
214.6991138004040
 21
245.7434428727217
 31
0.0000000000000000
  0
DIMENSION
  5
1B8
100
AcDbEntity
  8
MAIN0
  6
CONTINUOUS
 62
3
100
AcDbDimension
  2
*D20
 10
390.9795429395226
 20
71.94317608402380
 30
0.0000000000000000
 11
390.4795429395226
 21
74.94317608402386
 31
0.0000000000000000
 70
32
 71
5
 42
6.000000
  3
MAIN001
100
AcDbAlignedDimension
 13
357.4213329553695
 23
77.94317608402392
 33
0.0000000000000000
 14
379.2991138003715
 24
71.94317608402380
 34
0.0000000000000000
 50
90.00000000000000
100
AcDbRotatedDimension
1001
ACAD
1000
DSTYLE
1002
{
1070
   173
1070
     1
1070
     6
1000
_OPEN
1070
     7
1000
_OPEN
1070
    41
1040
2.000000
1070
   289
1070
     0
1002
}
  0
DIMENSION
  5
1C1
100
AcDbEntity
  8
MAIN0
  6
CONTINUOUS
 62
3
100
AcDbDimension
  2
*D21
 10
293.2527332975830
 20
71.94317608402380
 30
0.0000000000000000
 11
292.7527332975830
 21
79.94317608402386
 31
0.0000000000000000
 70
32
 71
5
 42
16.000000
  3
MAIN001
100
AcDbAlignedDimension
 13
321.9768946453734
 23
87.94317608402392
 33
0.0000000000000000
 14
300.0991138003715
 24
71.94317608402380
 34
0.0000000000000000
 50
90.00000000000000
100
AcDbRotatedDimension
1001
ACAD
1000
DSTYLE
1002
{
1070
   173
1070
     1
1070
     6
1000
_OPEN
1070
     7
1000
_OPEN
1070
    41
1040
2.000000
1002
}
  0
SPLINE
  5
1C2
100
AcDbEntity
  8
MAIN0
  6
CONTINUOUS
 62
3
100
AcDbSpline
210
0.0000000000000000
220
0.0000000000000000
230
1.000000000000000
 70
     8
 71
     3
 72
    15
 73
    11
 74
     0
 42
1.000000000000000e-007
 43
1.000000000000000e-007
 12
1.053002132893852
 22
0.04849620168050706
 32
0.0000000000000000
 13
-0.9675649942881535
 23
-0.2970051595810048
 33
0.0000000000000000
 40
0.0000000000000000
 40
0.0000000000000000
 40
0.0000000000000000
 40
0.0000000000000000
 40
3.913657443745386
 40
7.441071901046718
 40
12.30104495132958
 40
21.01020905101453
 40
26.02193381045640
 40
30.22044833143928
 40
33.21500254004653
 40
36.75995434445417
 40
36.75995434445417
 40
36.75995434445417
 40
36.75995434445417
 10
189.6991138003715
 20
223.9034213254552
 30
0.0000000000000000
 10
191.0728103455981
 20
223.9666871656886
 30
0.0000000000000000
 10
193.6846318732043
 20
224.0869750735660
 30
0.0000000000000000
 10
196.5833017799243
 20
220.2604230271350
 30
0.0000000000000000
 10
194.6291226215659
 20
214.5005207044956
 30
0.0000000000000000
 10
194.7143412103906
 20
208.2673384407781
 30
0.0000000000000000
 10
196.1702780621552
 20
202.4652252227897
 30
0.0000000000000000
 10
195.5705882568639
 20
198.2032598347271
 30
0.0000000000000000
 10
192.9515699238760
 20
195.4942105638343
 30
0.0000000000000000
 10
190.8424375578327
 20
194.8467882215089
 30
0.0000000000000000
 10
189.6991138003715
 20
194.4958318960505
 30
0.0000000000000000
  0
DIMENSION
  5
1CD
100
AcDbEntity
  8
MAIN0
  6
CONTINUOUS
 62
3
100
AcDbDimension
  2
*D22
 10
181.9850012759808
 20
218.5494455729826
 30
0.0000000000000000
 11
181.4850012759808
 21
202.8285318774283
 31
0.0000000000000000
 70
160
 71
5
  1
\A1;\U+220520H8\H0.903226x;\S＋0.033^ 　0;
 42
20.000000
  3
MAIN001
100
AcDbAlignedDimension
 13
190.0991138003716
 23
198.5494455729826
 33
0.0000000000000000
 14
190.0991138003716
 24
218.5494455729826
 34
0.0000000000000000
 50
90.00000000000000
100
AcDbRotatedDimension
1001
ACAD
1000
DSTYLE
1002
{
1070
   173
1070
     1
1070
     6
1000
_OPEN
1070
     7
1000
_OPEN
1070
    41
1040
2.000000
1070
   289
1070
     0
1070
   272
1070
     3
1070
    47
1040
0.033000
1070
    48
1040
0.000000
1070
    71
1070
     1
1070
   340
1005
1CE
1002
}
  0
DIMENSION
  5
1D7
100
AcDbEntity
  8
MAIN0
  6
CONTINUOUS
 62
3
100
AcDbDimension
  2
*D23
 10
171.0809974162960
 20
248.5494455729824
 30
0.0000000000000000
 11
170.5809974162960
 21
208.5494455729825
 31
0.0000000000000000
 70
32
 71
5
  1
\A1;\U+220580
 42
80.000000
  3
MAIN001
100
AcDbAlignedDimension
 13
190.0991138003716
 23
168.5494455729826
 33
0.0000000000000000
 14
190.0991138003723
 24
248.5494455729824
 34
0.0000000000000000
 50
90.00000000000000
100
AcDbRotatedDimension
1001
ACAD
1000
DSTYLE
1002
{
1070
   173
1070
     1
1070
     6
1000
_OPEN
1070
     7
1000
_OPEN
1070
    41
1040
2.000000
1002
}
  0
LINE
  5
1D8
100
AcDbEntity
  8
MAIN0
  6
HIDDEN
 62
3
100
AcDbLine
 10
328.0576154821391
 20
107.9431760840311
 30
0.0000000000000000
 11
333.7991138003715
 21
107.9431760840326
 31
0.0000000000000000
  0
LINE
  5
1D9
100
AcDbEntity
  8
MAIN0
  6
HIDDEN
 62
3
100
AcDbLine
 10
345.5991138003715
 20
107.9431760840359
 30
0.0000000000000000
 11
351.5274822805230
 21
107.9431760840376
 31
0.0000000000000000
  0
LINE
  5
1DA
100
AcDbEntity
  8
MAIN0
  6
HIDDEN
 62
3
100
AcDbLine
 10
331.2777560226692
 20
97.94317608403195
 30
0.0000000000000000
 11
335.9991138003715
 21
97.94317608403325
 31
0.0000000000000000
  0
LINE
  5
1DB
100
AcDbEntity
  8
MAIN0
  6
HIDDEN
 62
3
100
AcDbLine
 10
343.3991138003714
 20
97.94317608403530
 30
0.0000000000000000
 11
347.3784587253171
 21
97.94317608403641
 31
0.0000000000000000
  0
DIMENSION
  5
1E6
100
AcDbEntity
  8
MAIN0
  6
CONTINUOUS
 62
3
100
AcDbDimension
  2
*D24
 10
336.3991138003715
 20
61.91615251757045
 30
0.0000000000000000
 11
351.8357334998533
 21
62.41615251757045
 31
0.0000000000000000
 70
160
 71
5
  1
\A1;3-\U+22056.6
 42
6.600000
  3
MAIN001
100
AcDbAlignedDimension
 13
342.9991138003715
 23
72.54317608402394
 33
0.0000000000000000
 14
336.3991138003715
 24
72.54317608402394
 34
0.0000000000000000
100
AcDbRotatedDimension
1001
ACAD
1000
DSTYLE
1002
{
1070
   173
1070
     1
1070
     6
1000
_OPEN
1070
     7
1000
_OPEN
1070
    41
1040
2.000000
1070
   289
1070
     0
1002
}
  0
DIMENSION
  5
1F0
100
AcDbEntity
  8
MAIN0
  6
CONTINUOUS
 62
3
100
AcDbDimension
  2
*D25
 10
334.1991138003715
 20
139.5482821916316
 30
0.0000000000000000
 11
351.6467542955382
 21
140.0482821916316
 31
0.0000000000000000
 70
160
 71
5
  1
\A1;3-\U+220511
 42
11.000000
  3
MAIN001
100
AcDbAlignedDimension
 13
345.1991138003715
 23
107.5431760840322
 33
0.0000000000000000
 14
334.1991138003715
 24
107.5431760840322
 34
0.0000000000000000
100
AcDbRotatedDimension
1001
ACAD
1000
DSTYLE
1002
{
1070
   173
1070
     1
1070
     6
1000
_OPEN
1070
     7
1000
_OPEN
1070
    41
1040
2.000000
1002
}
  0
DIMENSION
  5
1F9
100
AcDbEntity
  8
MAIN0
  6
CONTINUOUS
 62
3
100
AcDbDimension
  2
*D26
 10
399.6497152629300
 20
71.94317608402380
 30
0.0000000000000000
 11
399.1497152629300
 21
86.69317608402801
 31
0.0000000000000000
 70
32
 71
5
 42
29.500000
  3
MAIN001
100
AcDbAlignedDimension
 13
345.1991138003715
 23
101.4431760840322
 33
0.0000000000000000
 14
379.2991138003715
 24
71.94317608402380
 34
0.0000000000000000
 50
90.00000000000000
100
AcDbRotatedDimension
1001
ACAD
1000
DSTYLE
1002
{
1070
   173
1070
     1
1070
     6
1000
_OPEN
1070
     7
1000
_OPEN
1070
    41
1040
2.000000
1002
}
  0
DIMENSION
  5
204
100
AcDbEntity
  8
MAIN0
  6
CONTINUOUS
 62
3
100
AcDbDimension
  2
*D27
 10
260.1032131190204
 20
222.2494455729825
 30
0.0000000000000000
 11
259.6032131190204
 21
208.5494455729825
 31
0.0000000000000000
 70
32
 71
5
  1
\A1;\U+220527.4
 42
27.400000
  3
MAIN001
100
AcDbAlignedDimension
 13
248.4813791003931
 23
194.8494455729825
 33
0.0000000000000000
 14
248.4813791003950
 24
222.2494455729824
 34
0.0000000000000000
 50
90.00000000000000
100
AcDbRotatedDimension
1001
ACAD
1000
DSTYLE
1002
{
1070
   173
1070
     1
1070
     6
1000
_OPEN
1070
     7
1000
_OPEN
1070
    41
1040
2.000000
1070
   289
1070
     0
1002
}
  0
DIMENSION
  5
20D
100
AcDbEntity
  8
MAIN0
  6
CONTINUOUS
 62
3
100
AcDbDimension
  2
*D28
 10
276.5684353826616
 20
257.5494455729995
 30
0.0000000000000000
 11
276.0684353826616
 21
208.5494455730003
 31
0.0000000000000000
 70
32
 71
5
  1
\A1;\U+220598
 42
98.000000
  3
MAIN001
100
AcDbAlignedDimension
 13
236.6991138009599
 23
159.5494455729671
 33
0.0000000000000000
 14
236.6991138009598
 24
257.5494455729995
 34
0.0000000000000000
 50
90.00000000000000
100
AcDbRotatedDimension
1001
ACAD
1000
DSTYLE
1002
{
1070
   173
1070
     1
1070
     6
1000
_OPEN
1070
     7
1000
_OPEN
1070
    41
1040
2.000000
1002
}
  0
SPLINE
  5
20E
100
AcDbEntity
  8
MAIN0
  6
CONTINUOUS
 62
3
100
AcDbSpline
210
0.0000000000000000
220
0.0000000000000000
230
1.000000000000000
 70
     8
 71
     3
 72
    22
 73
    18
 74
     0
 42
1.000000000000000e-007
 43
1.000000000000000e-007
 12
-0.9944824384039350
 22
0.002525481377986694
 32
0.0000000000000000
 13
1.013547908022119
 23
0.01455116847679960
 33
0.0000000000000000
 40
0.0000000000000000
 40
0.0000000000000000
 40
0.0000000000000000
 40
0.0000000000000000
 40
5.892970327268778
 40
10.81701629647438
 40
15.15215175212122
 40
18.69411191941592
 40
23.23086248970936
 40
29.92625709023612
 40
33.74172279798692
 40
40.55482073598564
 40
49.14810027871130
 40
55.17057005221763
 40
60.90785029957895
 40
64.09542079999744
 40
70.58066546133044
 40
76.12303919381053
 40
82.58191479412884
 40
82.58191479412884
 40
82.58191479412884
 40
82.58191479412884
 10
238.6991138003682
 20
233.6185925933224
 30
0.0000000000000000
 10
236.7456286335334
 20
233.6235534555966
 30
0.0000000000000000
 10
233.1598510526092
 20
233.6326595133374
 30
0.0000000000000000
 10
227.9835416089593
 20
233.5751738398240
 30
0.0000000000000000
 10
224.1968293439043
 20
231.5704690285409
 30
0.0000000000000000
 10
219.5695891945049
 20
231.6511041535964
 30
0.0000000000000000
 10
217.7089443052772
 20
226.1394485387760
 30
0.0000000000000000
 10
217.6639189493734
 20
221.3324706603637
 30
0.0000000000000000
 10
218.4912740770458
 20
215.5687260561466
 30
0.0000000000000000
 10
218.9802687647893
 20
209.1815548930885
 30
0.0000000000000000
 10
218.3047378123459
 20
202.0257248619965
 30
0.0000000000000000
 10
218.0411858821068
 20
195.3063816463373
 30
0.0000000000000000
 10
218.1246162443552
 20
190.1576768562880
 30
0.0000000000000000
 10
221.2856316460325
 20
185.7047272627467
 30
0.0000000000000000
 10
226.7281470115354
 20
185.1187128074852
 30
0.0000000000000000
 10
232.4623734644390
 20
182.9303969895761
 30
0.0000000000000000
 10
236.5169871827422
 20
182.9886077232339
 30
0.0000000000000000
 10
238.6991138003682
 20
183.0199357855776
 30
0.0000000000000000
  0
DIMENSION
  5
217
100
AcDbEntity
  8
MAIN0
  6
CONTINUOUS
 62
3
100
AcDbDimension
  2
*D29
 10
189.6991138003715
 20
152.1137250902623
 30
0.0000000000000000
 11
207.6991138003750
 21
152.6137250902623
 31
0.0000000000000000
 70
32
 71
5
 42
36.000000
  3
MAIN001
100
AcDbAlignedDimension
 13
225.6991138003785
 23
185.0752523794620
 33
0.0000000000000000
 14
189.6991138003715
 24
168.9494455729825
 34
0.0000000000000000
100
AcDbRotatedDimension
1001
ACAD
1000
DSTYLE
1002
{
1070
   173
1070
     1
1070
     6
1000
_OPEN
1070
     7
1000
_OPEN
1070
    41
1040
2.000000
1002
}
  0
DIMENSION
  5
221
100
AcDbEntity
  8
MAIN0
  6
CONTINUOUS
 62
3
100
AcDbDimension
  2
*D30
 10
225.6991138003785
 20
152.1137250902623
 30
0.0000000000000000
 11
245.7904406492782
 21
152.6137250902623
 31
0.0000000000000000
 70
160
 71
5
 42
13.000000
  3
MAIN001
100
AcDbAlignedDimension
 13
238.6991138003682
 23
163.5494455729833
 33
0.0000000000000000
 14
225.6991138003785
 24
185.0752523794620
 34
0.0000000000000000
100
AcDbRotatedDimension
1001
ACAD
1000
DSTYLE
1002
{
1070
   173
1070
     1
1070
     6
1000
_OPEN
1070
     7
1000
_OPEN
1070
    41
1040
2.000000
1002
}
  0
DIMENSION
  5
22A
100
AcDbEntity
  8
MAIN0
  6
CONTINUOUS
 62
3
100
AcDbDimension
  2
*D31
 10
225.6991138003743
 20
231.2955881540995
 30
0.0000000000000000
 11
258.9344027969730
 21
231.7955881540995
 31
0.0000000000000000
 70
160
 71
5
  1
\A1;MAX 26
 42
26.000000
  3
MAIN001
100
AcDbAlignedDimension
 13
251.6991138003968
 23
219.5494455729830
 33
0.0000000000000000
 14
225.6991138003751
 24
220.4381632311525
 34
0.0000000000000000
100
AcDbRotatedDimension
1001
ACAD
1000
DSTYLE
1002
{
1070
   173
1070
     1
1070
     6
1000
_OPEN
1070
     7
1000
_OPEN
1070
    41
1040
2.000000
1002
}
  0
MTEXT
  5
22B
100
AcDbEntity
  8
MAIN0
  6
CONTINUOUS
 62
3
100
AcDbMText
 10
252.5982878526656
 20
230.9896663651075
 30
0.0000000000000000
 40
3.099999904632568
 41
0.0000000000000000
 44
0.7741935722041460
 71
     1
 72
     1
  1
{\H0.70x;{MIN 16}}
 11
1.000000000000000
 21
0.0000000000000000
 31
0.0000000000000000
  7
STANDARD
  0
MTEXT
  5
22C
100
AcDbEntity
  8
MAIN0
  6
CONTINUOUS
 62
3
100
AcDbMText
 10
240.0376626116328
 20
151.4348024675805
 30
0.0000000000000000
 40
3.099999904632568
 41
0.0000000000000000
 44
0.7741935722041460
 71
     1
 72
     1
  1
{\H0.66x;{MAX 14\PMIN 12.5}}
 11
1.000000000000000
 21
0.0000000000000000
 31
0.0000000000000000
  7
STANDARD
  0
POINT
  5
22D
100
AcDbEntity
  8
MAIN0
  6
CONTINUOUS
 62
3
100
AcDbPoint
 10
226.1991138004040
 20
257.5494455729834
 30
0.0000000000000000
  0
DIMENSION
  5
236
100
AcDbEntity
  8
MAIN0
  6
CONTINUOUS
 62
3
100
AcDbDimension
  2
*D32
 10
214.6991138004040
 20
262.9260144290345
 30
0.0000000000000000
 11
220.4491138004040
 21
263.4260144290345
 31
0.0000000000000000
 70
32
 71
5
 42
11.500000
  3
MAIN001
100
AcDbAlignedDimension
 13
226.1991138004040
 23
257.5494455729834
 33
0.0000000000000000
 14
214.6991138004040
 24
257.5494455729656
 34
0.0000000000000000
100
AcDbRotatedDimension
1001
ACAD
1000
DSTYLE
1002
{
1070
   173
1070
     1
1070
     6
1000
_OPEN
1070
     7
1000
_OPEN
1070
    41
1040
2.000000
1002
}
  0
LEADER
  5
237
100
AcDbEntity
  8
MAIN0
  6
CONTINUOUS
 62
3
100
AcDbLeader
  3
MAIN001
 73
     0
 74
     0
 75
     1
 40
3.099999904632568
 41
38.68100113964081
 76
     3
 10
221.0858919674184
 20
268.6136635178575
 30
0.0000000000000000
 10
223.6266953766444
 20
273.0467160890218
 30
0.0000000000000000
 10
225.5516953208544
 20
273.0467160890218
 30
0.0000000000000000
340
238
213
-0.001000000000004775
223
-0.5000000000000000
233
0.0000000000000000
1001
ACAD
1000
DSTYLE
1002
{
1070
   147
1040
0.0
1070
    77
1070
     1
1070
   341
1005
13
1070
    41
1040
2.000000
1002
}
  0
MTEXT
  5
238
102
{ACAD_REACTORS
330
237
102
}
100
AcDbEntity
  8
MAIN0
  6
CONTINUOUS
 62
3
100
AcDbMText
 10
225.5526953208544
 20
276.6467159936544
 30
0.0000000000000000
 40
3.099999904632568
 41
0.0000000000000000
 44
0.7935483930510365
 71
     1
 72
     1
  1
{\H0.93x;{8mm幅長さ\P8 Width Length}}
 11
1.000000000000000
 21
0.0000000000000000
 31
0.0000000000000000
  7
KNJYOKO
  0
DIMENSION
  5
241
100
AcDbEntity
  8
MAIN0
  6
CONTINUOUS
 62
3
100
AcDbDimension
  2
*D33
 10
268.5865424175181
 20
225.5494455729826
 30
0.0000000000000000
 11
268.0865424175181
 21
201.4744454358919
 31
0.0000000000000000
 70
32
 71
5
  1
\A1;\U+220534H7\H0.903226x;\S＋0.025^ 　0;
 42
34.000000
  3
MAIN001
100
AcDbAlignedDimension
 13
223.9670629928089
 23
191.5494455729826
 33
0.0000000000000000
 14
223.9670629928089
 24
225.5494455729826
 34
0.0000000000000000
 50
90.00000000000000
100
AcDbRotatedDimension
1001
ACAD
1000
DSTYLE
1002
{
1070
   173
1070
     1
1070
     6
1000
_OPEN
1070
     7
1000
_OPEN
1070
    41
1040
2.000000
1070
   272
1070
     3
1070
    47
1040
0.025000
1070
    48
1040
0.000000
1070
    71
1070
     1
1070
   340
1005
1CE
1002
}
  0
ARC
  5
242
100
AcDbEntity
  8
MAIN0
  6
CONTINUOUS
 62
3
100
AcDbCircle
 10
339.6991138004332
 20
108.4431760841459
 30
0.0000000000000000
 40
3.999999999885887
100
AcDbArc
 50
0.0000000000000000
 51
180.0000000000000
  0
MTEXT
  5
243
100
AcDbEntity
  8
MAIN0
  6
CONTINUOUS
 62
3
100
AcDbMText
 10
33.95734423086972
 20
254.8033956131258
 30
0.0000000000000000
 40
2.799999952316284
 41
0.0000000000000000
 44
0.7500000127724241
 71
     1
 72
     1
  1
{\H0.61x;{+0.025}}
 11
1.000000000000000
 21
0.0000000000000000
 31
0.0000000000000000
  7
STANDARD
  0
MTEXT
  5
244
100
AcDbEntity
  8
MAIN0
  6
CONTINUOUS
 62
3
100
AcDbMText
 10
35.46836358554964
 20
252.0949879805578
 30
0.0000000000000000
 40
2.799999952316284
 41
0.0000000000000000
 44
0.7500000127724241
 71
     1
 72
     1
  1
{\H0.63x;{0}}
 11
1.000000000000000
 21
0.0000000000000000
 31
0.0000000000000000
  7
STANDARD
  0
DIMENSION
  5
24E
100
AcDbEntity
  8
MAIN0
  6
CONTINUOUS
 62
3
100
AcDbDimension
  2
*D34
 10
189.6991138003715
 20
227.5339600468026
 30
0.0000000000000000
 11
185.1959904946195
 21
228.0339600468026
 31
0.0000000000000000
 70
160
 71
5
 42
3.500000
  3
MAIN001
100
AcDbAlignedDimension
 13
193.1991138003715
 23
218.5494455729826
 33
0.0000000000000000
 14
189.6991138003715
 24
248.1494455729826
 34
0.0000000000000000
100
AcDbRotatedDimension
1001
ACAD
1000
DSTYLE
1002
{
1070
   173
1070
     1
1070
     6
1000
_OPEN
1070
     7
1000
_OPEN
1070
    41
1040
2.000000
1070
   289
1070
     0
1002
}
  0
CIRCLE
  5
24F
100
AcDbEntity
  8
MAIN0
  6
CONTINUOUS
 62
3
100
AcDbCircle
 10
339.6991138003715
 20
208.5494455729826
 30
0.0000000000000000
 40
49.00000000068101
  0
CIRCLE
  5
250
100
AcDbEntity
  8
MAIN0
  6
CONTINUOUS
 62
3
100
AcDbCircle
 10
339.6991138003715
 20
208.5494455729826
 30
0.0000000000000000
 40
36.99999999999977
  0
LINE
  5
251
100
AcDbEntity
  8
MAIN0
  6
HIDDEN
 62
3
100
AcDbLine
 10
335.6991138003715
 20
254.0494455729826
 30
0.0000000000000000
 11
343.6991138003715
 21
254.0494455729826
 31
0.0000000000000000
  0
LINE
  5
252
100
AcDbEntity
  8
MAIN0
  6
HIDDEN
 62
3
100
AcDbLine
 10
335.6991138003715
 20
254.0494455729826
 30
0.0000000000000000
 11
335.6991138003715
 21
257.3859073619650
 31
0.0000000000000000
  0
LINE
  5
253
100
AcDbEntity
  8
MAIN0
  6
HIDDEN
 62
3
100
AcDbLine
 10
343.6991138003715
 20
254.0494455729826
 30
0.0000000000000000
 11
343.6991138003715
 21
257.3859073619650
 31
0.0000000000000000
  0
LINE
  5
254
100
AcDbEntity
  8
MAIN0
  6
HIDDEN
 62
3
100
AcDbLine
 10
294.1991138003715
 20
204.5494455729826
 30
0.0000000000000000
 11
290.8626520113891
 21
204.5494455729826
 31
0.0000000000000000
  0
LINE
  5
255
100
AcDbEntity
  8
MAIN0
  6
HIDDEN
 62
3
100
AcDbLine
 10
294.1991138003715
 20
204.5494455729826
 30
0.0000000000000000
 11
294.1991138003715
 21
212.5494455729826
 31
0.0000000000000000
  0
LINE
  5
256
100
AcDbEntity
  8
MAIN0
  6
HIDDEN
 62
3
100
AcDbLine
 10
294.1991138003715
 20
212.5494455729826
 30
0.0000000000000000
 11
290.8626520113891
 21
212.5494455729826
 31
0.0000000000000000
  0
LINE
  5
257
100
AcDbEntity
  8
MAIN0
  6
HIDDEN
 62
3
100
AcDbLine
 10
343.6991138003715
 20
163.0494455729826
 30
0.0000000000000000
 11
343.6991138003715
 21
159.7129837840002
 31
0.0000000000000000
  0
LINE
  5
258
100
AcDbEntity
  8
MAIN0
  6
HIDDEN
 62
3
100
AcDbLine
 10
343.6991138003715
 20
163.0494455729826
 30
0.0000000000000000
 11
335.6991138003715
 21
163.0494455729826
 31
0.0000000000000000
  0
LINE
  5
259
100
AcDbEntity
  8
MAIN0
  6
HIDDEN
 62
3
100
AcDbLine
 10
335.6991138003715
 20
163.0494455729826
 30
0.0000000000000000
 11
335.6991138003715
 21
159.7129837840002
 31
0.0000000000000000
  0
LINE
  5
25A
100
AcDbEntity
  8
MAIN0
  6
HIDDEN
 62
3
100
AcDbLine
 10
385.1991138003715
 20
212.5494455729826
 30
0.0000000000000000
 11
388.5355755893539
 21
212.5494455729826
 31
0.0000000000000000
  0
LINE
  5
25B
100
AcDbEntity
  8
MAIN0
  6
HIDDEN
 62
3
100
AcDbLine
 10
385.1991138003715
 20
212.5494455729826
 30
0.0000000000000000
 11
385.1991138003715
 21
204.5494455729826
 31
0.0000000000000000
  0
LINE
  5
25C
100
AcDbEntity
  8
MAIN0
  6
HIDDEN
 62
3
100
AcDbLine
 10
385.1991138003715
 20
204.5494455729826
 30
0.0000000000000000
 11
388.5355755893539
 21
204.5494455729826
 31
0.0000000000000000
  0
CIRCLE
  5
25D
100
AcDbEntity
  8
MAIN0
  6
CONTINUOUS
 62
3
100
AcDbCircle
 10
339.6991138003715
 20
208.5494455729826
 30
0.0000000000000000
 40
45.00000000000000
  0
LINE
  5
25E
100
AcDbEntity
  8
MAIN0
  6
CONTINUOUS
 62
3
100
AcDbLine
 10
338.9491138003715
 20
218.0494455729826
 30
0.0000000000000000
 11
340.4491138003715
 21
218.0494455729826
 31
0.0000000000000000
  0
LINE
  5
25F
100
AcDbEntity
  8
MAIN0
  6
CONTINUOUS
 62
3
100
AcDbLine
 10
335.9491138003715
 20
212.5728148078404
 30
0.0000000000000000
 11
335.9491138003715
 21
215.0494455729826
 31
0.0000000000000000
  0
ARC
  5
260
100
AcDbEntity
  8
MAIN0
  6
CONTINUOUS
 62
3
100
AcDbCircle
 10
338.9491138003715
 20
215.0494455729826
 30
0.0000000000000000
 40
3.000000000000000
100
AcDbArc
 50
90.00000000000000
 51
180.0000000000000
  0
LINE
  5
261
100
AcDbEntity
  8
MAIN0
  6
CONTINUOUS
 62
3
100
AcDbLine
 10
343.4491138003715
 20
212.5728148078404
 30
0.0000000000000000
 11
343.4491138003715
 21
215.0494455729826
 31
0.0000000000000000
  0
ARC
  5
262
100
AcDbEntity
  8
MAIN0
  6
CONTINUOUS
 62
3
100
AcDbCircle
 10
340.4491138003715
 20
215.0494455729826
 30
0.0000000000000000
 40
3.000000000000000
100
AcDbArc
 50
0.0000000000000000
 51
90.00000000000000
  0
CIRCLE
  5
263
100
AcDbEntity
  8
MAIN0
  6
CONTINUOUS
 62
3
100
AcDbCircle
 10
339.6991138003715
 20
208.5494455729826
 30
0.0000000000000000
 40
11.00000000000000
  0
CIRCLE
  5
264
100
AcDbEntity
  8
MAIN0
  6
CONTINUOUS
 62
3
100
AcDbCircle
 10
339.6991138003715
 20
208.5494455729826
 30
0.0000000000000000
 40
5.500000000000000
  0
CIRCLE
  5
265
100
AcDbEntity
  8
MAIN0
  6
CONTINUOUS
 62
3
100
AcDbCircle
 10
339.6991138003715
 20
208.5494455729826
 30
0.0000000000000000
 40
3.300000000000000
  0
ARC
  5
266
100
AcDbEntity
  8
MAIN0
  6
HIDDEN
 62
3
100
AcDbCircle
 10
339.6991138003715
 20
208.5494455729826
 30
0.0000000000000000
 40
8.500000000014952
100
AcDbArc
 50
354.1203352204776
 51
425.8796647795232
  0
ARC
  5
267
100
AcDbEntity
  8
MAIN0
  6
CONTINUOUS
 62
3
100
AcDbCircle
 10
339.6991138003715
 20
208.5494455729826
 30
0.0000000000000000
 40
6.249999999995130
100
AcDbArc
 50
6.869897645877840
 51
53.13010235412281
  0
ARC
  5
268
100
AcDbEntity
  8
MAIN0
  6
CONTINUOUS
 62
3
100
AcDbCircle
 10
339.6991138003715
 20
208.5494455729826
 30
0.0000000000000000
 40
6.249999999995130
100
AcDbArc
 50
126.8698976458775
 51
173.1301023541229
  0
ARC
  5
269
100
AcDbEntity
  8
MAIN0
  6
HIDDEN
 62
3
100
AcDbCircle
 10
339.6991138003715
 20
208.5494455729826
 30
0.0000000000000000
 40
8.500000000014952
100
AcDbArc
 50
114.1203352204772
 51
185.8796647795235
  0
ARC
  5
26A
100
AcDbEntity
  8
MAIN0
  6
CONTINUOUS
 62
3
100
AcDbCircle
 10
339.6991138003715
 20
208.5494455729826
 30
0.0000000000000000
 40
6.249999999995130
100
AcDbArc
 50
246.8698976458776
 51
293.1301023541231
  0
ARC
  5
26B
100
AcDbEntity
  8
MAIN0
  6
HIDDEN
 62
3
100
AcDbCircle
 10
339.6991138003715
 20
208.5494455729826
 30
0.0000000000000000
 40
8.500000000014952
100
AcDbArc
 50
234.1203352204773
 51
305.8796647795232
  0
LINE
  5
26C
100
AcDbEntity
  8
MAIN0
  6
CONTINUOUS
 62
3
100
AcDbLine
 10
338.0897738341799
 20
203.2901656913621
 30
0.0000000000000000
 11
335.9449486757726
 21
202.0518503087909
 31
0.0000000000000000
  0
ARC
  5
26D
100
AcDbEntity
  8
MAIN0
  6
CONTINUOUS
 62
3
100
AcDbCircle
 10
334.4449486757727
 20
204.6499265201442
 30
0.0000000000000000
 40
3.000000000000000
100
AcDbArc
 50
210.0000000000000
 51
299.9999999999999
  0
LINE
  5
26E
100
AcDbEntity
  8
MAIN0
  6
CONTINUOUS
 62
3
100
AcDbLine
 10
331.8468724644193
 20
203.1499265201443
 30
0.0000000000000000
 11
331.0968724644193
 21
204.4489646258209
 31
0.0000000000000000
  0
ARC
  5
26F
100
AcDbEntity
  8
MAIN0
  6
CONTINUOUS
 62
3
100
AcDbCircle
 10
333.6949486757727
 20
205.9489646258209
 30
0.0000000000000000
 40
3.000000000000000
100
AcDbArc
 50
120.0000000000000
 51
210.0000000000000
  0
LINE
  5
270
100
AcDbEntity
  8
MAIN0
  6
CONTINUOUS
 62
3
100
AcDbLine
 10
334.3397738341799
 20
209.7853562197453
 30
0.0000000000000000
 11
332.1949486757727
 21
208.5470408371742
 31
0.0000000000000000
  0
LINE
  5
271
100
AcDbEntity
  8
MAIN0
  6
CONTINUOUS
 62
3
100
AcDbLine
 10
345.0584537665631
 20
209.7853562197454
 30
0.0000000000000000
 11
347.2032789249705
 21
208.5470408371742
 31
0.0000000000000000
  0
ARC
  5
272
100
AcDbEntity
  8
MAIN0
  6
CONTINUOUS
 62
3
100
AcDbCircle
 10
345.7032789249704
 20
205.9489646258209
 30
0.0000000000000000
 40
3.000000000000000
100
AcDbArc
 50
329.9999999999999
 51
419.9999999999999
  0
LINE
  5
273
100
AcDbEntity
  8
MAIN0
  6
CONTINUOUS
 62
3
100
AcDbLine
 10
348.3013551363238
 20
204.4489646258210
 30
0.0000000000000000
 11
347.5513551363238
 21
203.1499265201443
 31
0.0000000000000000
  0
ARC
  5
274
100
AcDbEntity
  8
MAIN0
  6
CONTINUOUS
 62
3
100
AcDbCircle
 10
344.9532789249704
 20
204.6499265201443
 30
0.0000000000000000
 40
3.000000000000000
100
AcDbArc
 50
240.0000000000000
 51
329.9999999999999
  0
LINE
  5
275
100
AcDbEntity
  8
MAIN0
  6
CONTINUOUS
 62
3
100
AcDbLine
 10
341.3084537665631
 20
203.2901656913621
 30
0.0000000000000000
 11
343.4532789249705
 21
202.0518503087910
 31
0.0000000000000000
  0
CIRCLE
  5
276
100
AcDbEntity
  8
MAIN0
  6
CONTINUOUS
 62
3
100
AcDbCircle
 10
339.6991138003715
 20
208.5494455729826
 30
0.0000000000000000
 40
13.70000000000000
  0
LINE
  5
277
100
AcDbEntity
  8
MAIN0
  6
CENTER
 62
3
100
AcDbLine
 10
112.1991138004926
 20
234.7235313423593
 30
0.0000000000000000
 11
112.1991138004741
 21
243.0701827457396
 31
0.0000000000000000
  0
LINE
  5
278
100
AcDbEntity
  8
MAIN0
  6
CENTER
 62
3
100
AcDbLine
 10
107.5297809104241
 20
238.8494455733018
 30
0.0000000000000000
 11
116.5793057342373
 21
238.8494455733218
 31
0.0000000000000000
  0
LINE
  5
279
100
AcDbEntity
  8
MAIN0
  6
CENTER
 62
3
100
AcDbLine
 10
117.1991138006198
 20
177.4073566932624
 30
0.0000000000000000
 11
117.1991138005996
 21
186.5227767675916
 31
0.0000000000000000
  0
LINE
  5
27A
100
AcDbEntity
  8
MAIN0
  6
CENTER
 62
3
100
AcDbLine
 10
115.3817216147367
 20
229.9669129543196
 30
0.0000000000000000
 11
123.5894998781550
 21
238.4663161550260
 31
0.0000000000000000
  0
LINE
  5
27B
100
AcDbEntity
  8
MAIN0
  6
CENTER
 62
3
100
AcDbLine
 10
123.7097970095427
 20
215.2470895441805
 30
0.0000000000000000
 11
135.2225258247300
 21
217.9050124207087
 31
0.0000000000000000
  0
CIRCLE
  5
27C
100
AcDbEntity
  8
MAIN0
  6
CONTINUOUS
 62
3
100
AcDbCircle
 10
129.6991138005483
 20
208.5494455733508
 30
0.0000000000000000
 40
2.500000000000000
  0
LINE
  5
27D
100
AcDbEntity
  8
MAIN0
  6
CENTER
 62
3
100
AcDbLine
 10
106.3491138002412
 20
172.7653154962985
 30
0.0000000000000000
 11
106.3491138002412
 21
180.3063096404891
 31
0.0000000000000000
  0
LINE
  5
27E
100
AcDbEntity
  8
MAIN0
  6
CENTER
 62
3
100
AcDbLine
 10
102.7509857109058
 20
176.5994455732732
 30
0.0000000000000000
 11
110.2976351818534
 21
176.5994455732732
 31
0.0000000000000000
  0
LINE
  5
27F
100
AcDbEntity
  8
MAIN0
  6
CENTER
 62
3
100
AcDbLine
 10
112.5122414450707
 20
181.7494455734197
 30
0.0000000000000000
 11
121.5727491357566
 21
181.7494455734398
 31
0.0000000000000000
  0
LINE
  5
280
100
AcDbEntity
  8
MAIN0
  6
CENTER
 62
3
100
AcDbLine
 10
77.19911380024838
 20
234.7235313423252
 30
0.0000000000000000
 11
77.19911380025059
 21
243.0701827457055
 31
0.0000000000000000
  0
LINE
  5
281
100
AcDbEntity
  8
MAIN0
  6
CENTER
 62
3
100
AcDbLine
 10
81.86844669030890
 20
238.8494455732767
 30
0.0000000000000000
 11
72.81892186649563
 21
238.8494455732792
 31
0.0000000000000000
  0
LINE
  5
282
100
AcDbEntity
  8
MAIN0
  6
CENTER
 62
3
100
AcDbLine
 10
72.19911380023297
 20
177.4073566932185
 30
0.0000000000000000
 11
72.19911380023544
 21
186.5227767675477
 31
0.0000000000000000
  0
CIRCLE
  5
283
100
AcDbEntity
  8
MAIN0
  6
CONTINUOUS
 62
3
100
AcDbCircle
 10
59.69911380024377
 20
208.5494455732825
 30
0.0000000000000000
 40
2.500000000000000
  0
LINE
  5
284
100
AcDbEntity
  8
MAIN0
  6
CENTER
 62
3
100
AcDbLine
 10
83.04911380062063
 20
172.7653154962758
 30
0.0000000000000000
 11
83.04911380060594
 21
180.3063096404663
 31
0.0000000000000000
  0
LINE
  5
285
100
AcDbEntity
  8
MAIN0
  6
CENTER
 62
3
100
AcDbLine
 10
86.64724188994859
 20
176.5994455732575
 30
0.0000000000000000
 11
79.10059241900098
 21
176.5994455732428
 31
0.0000000000000000
  0
LINE
  5
286
100
AcDbEntity
  8
MAIN0
  6
CENTER
 62
3
100
AcDbLine
 10
76.88598615577359
 20
181.7494455733850
 30
0.0000000000000000
 11
67.82547846508771
 21
181.7494455733874
 31
0.0000000000000000
  0
CIRCLE
  5
287
100
AcDbEntity
  8
MAIN0
  6
CONTINUOUS
 62
3
100
AcDbCircle
 10
94.69911380036189
 20
243.5494455728485
 30
0.0000000000000000
 40
4.250000000000000
  0
LINE
  5
288
100
AcDbEntity
  8
MAIN0
  6
CONTINUOUS
 62
3
100
AcDbLine
 10
94.69911380036189
 20
245.8588466496070
 30
0.0000000000000000
 11
92.69911380036187
 21
244.7041461112278
 31
0.0000000000000000
  0
LINE
  5
289
100
AcDbEntity
  8
MAIN0
  6
CONTINUOUS
 62
3
100
AcDbLine
 10
92.69911380036189
 20
244.7041461112278
 30
0.0000000000000000
 11
92.69911380036189
 21
242.3947450344693
 31
0.0000000000000000
  0
LINE
  5
28A
100
AcDbEntity
  8
MAIN0
  6
CONTINUOUS
 62
3
100
AcDbLine
 10
92.69911380036186
 20
242.3947450344693
 30
0.0000000000000000
 11
94.69911380036189
 21
241.2400444960900
 31
0.0000000000000000
  0
LINE
  5
28B
100
AcDbEntity
  8
MAIN0
  6
CONTINUOUS
 62
3
100
AcDbLine
 10
94.69911380036187
 20
241.2400444960900
 30
0.0000000000000000
 11
96.69911380036189
 21
242.3947450344693
 31
0.0000000000000000
  0
LINE
  5
28C
100
AcDbEntity
  8
MAIN0
  6
CONTINUOUS
 62
3
100
AcDbLine
 10
96.69911380036189
 20
242.3947450344693
 30
0.0000000000000000
 11
96.69911380036189
 21
244.7041461112278
 31
0.0000000000000000
  0
LINE
  5
28D
100
AcDbEntity
  8
MAIN0
  6
CONTINUOUS
 62
3
100
AcDbLine
 10
96.69911380036189
 20
244.7041461112278
 30
0.0000000000000000
 11
94.69911380036187
 21
245.8588466496071
 31
0.0000000000000000
  0
CIRCLE
  5
28E
100
AcDbEntity
  8
MAIN0
  6
CONTINUOUS
 62
3
100
AcDbCircle
 10
64.38822466767948
 20
191.0494455729796
 30
0.0000000000000000
 40
4.250000000000000
  0
LINE
  5
28F
100
AcDbEntity
  8
MAIN0
  6
CONTINUOUS
 62
3
100
AcDbLine
 10
62.38822466767948
 20
189.8947450346004
 30
0.0000000000000000
 11
64.38822466767950
 21
188.7400444962211
 31
0.0000000000000000
  0
LINE
  5
290
100
AcDbEntity
  8
MAIN0
  6
CONTINUOUS
 62
3
100
AcDbLine
 10
64.38822466767947
 20
188.7400444962211
 30
0.0000000000000000
 11
66.38822466767948
 21
189.8947450346003
 31
0.0000000000000000
  0
LINE
  5
291
100
AcDbEntity
  8
MAIN0
  6
CONTINUOUS
 62
3
100
AcDbLine
 10
66.38822466767948
 20
189.8947450346003
 30
0.0000000000000000
 11
66.38822466767948
 21
192.2041461113589
 31
0.0000000000000000
  0
LINE
  5
292
100
AcDbEntity
  8
MAIN0
  6
CONTINUOUS
 62
3
100
AcDbLine
 10
66.38822466767950
 20
192.2041461113589
 30
0.0000000000000000
 11
64.38822466767948
 21
193.3588466497381
 31
0.0000000000000000
  0
LINE
  5
293
100
AcDbEntity
  8
MAIN0
  6
CONTINUOUS
 62
3
100
AcDbLine
 10
64.38822466767948
 20
193.3588466497381
 30
0.0000000000000000
 11
62.38822466767947
 21
192.2041461113589
 31
0.0000000000000000
  0
LINE
  5
294
100
AcDbEntity
  8
MAIN0
  6
CONTINUOUS
 62
3
100
AcDbLine
 10
62.38822466767948
 20
192.2041461113589
 30
0.0000000000000000
 11
62.38822466767948
 21
189.8947450346003
 31
0.0000000000000000
  0
CIRCLE
  5
295
100
AcDbEntity
  8
MAIN0
  6
CONTINUOUS
 62
3
100
AcDbCircle
 10
125.0100029325902
 20
191.0494455727175
 30
0.0000000000000000
 40
4.250000000000000
  0
LINE
  5
296
100
AcDbEntity
  8
MAIN0
  6
CONTINUOUS
 62
3
100
AcDbLine
 10
127.0100029325902
 20
189.8947450343382
 30
0.0000000000000000
 11
127.0100029325902
 21
192.2041461110967
 31
0.0000000000000000
  0
LINE
  5
297
100
AcDbEntity
  8
MAIN0
  6
CONTINUOUS
 62
3
100
AcDbLine
 10
127.0100029325902
 20
192.2041461110967
 30
0.0000000000000000
 11
125.0100029325902
 21
193.3588466494759
 31
0.0000000000000000
  0
LINE
  5
298
100
AcDbEntity
  8
MAIN0
  6
CONTINUOUS
 62
3
100
AcDbLine
 10
125.0100029325902
 20
193.3588466494759
 30
0.0000000000000000
 11
123.0100029325902
 21
192.2041461110967
 31
0.0000000000000000
  0
LINE
  5
299
100
AcDbEntity
  8
MAIN0
  6
CONTINUOUS
 62
3
100
AcDbLine
 10
123.0100029325902
 20
192.2041461110967
 30
0.0000000000000000
 11
123.0100029325902
 21
189.8947450343382
 31
0.0000000000000000
  0
LINE
  5
29A
100
AcDbEntity
  8
MAIN0
  6
CONTINUOUS
 62
3
100
AcDbLine
 10
123.0100029325902
 20
189.8947450343382
 30
0.0000000000000000
 11
125.0100029325902
 21
188.7400444959589
 31
0.0000000000000000
  0
LINE
  5
29B
100
AcDbEntity
  8
MAIN0
  6
CONTINUOUS
 62
3
100
AcDbLine
 10
125.0100029325902
 20
188.7400444959589
 30
0.0000000000000000
 11
127.0100029325902
 21
189.8947450343382
 31
0.0000000000000000
  0
LINE
  5
29C
100
AcDbEntity
  8
MAIN0
  6
CONTINUOUS
 62
3
100
AcDbLine
 10
90.69911380031917
 20
254.0494455729557
 30
0.0000000000000000
 11
90.69911380031917
 21
257.3859073619381
 31
0.0000000000000000
  0
LINE
  5
29D
100
AcDbEntity
  8
MAIN0
  6
CONTINUOUS
 62
3
100
AcDbLine
 10
90.69911380031917
 20
254.0494455729557
 30
0.0000000000000000
 11
98.69911380031917
 21
254.0494455729557
 31
0.0000000000000000
  0
LINE
  5
29E
100
AcDbEntity
  8
MAIN0
  6
CONTINUOUS
 62
3
100
AcDbLine
 10
98.69911380031917
 20
254.0494455729557
 30
0.0000000000000000
 11
98.69911380031917
 21
257.3859073619381
 31
0.0000000000000000
  0
LINE
  5
29F
100
AcDbEntity
  8
MAIN0
  6
CONTINUOUS
 62
3
100
AcDbLine
 10
49.19911380047444
 20
204.5494455725861
 30
0.0000000000000000
 11
45.86265201149203
 21
204.5494455725861
 31
0.0000000000000000
  0
LINE
  5
2A0
100
AcDbEntity
  8
MAIN0
  6
CONTINUOUS
 62
3
100
AcDbLine
 10
49.19911380047444
 20
204.5494455725861
 30
0.0000000000000000
 11
49.19911380047444
 21
212.5494455725861
 31
0.0000000000000000
  0
LINE
  5
2A1
100
AcDbEntity
  8
MAIN0
  6
CONTINUOUS
 62
3
100
AcDbLine
 10
49.19911380047444
 20
212.5494455725861
 30
0.0000000000000000
 11
45.86265201149203
 21
212.5494455725861
 31
0.0000000000000000
  0
LINE
  5
2A2
100
AcDbEntity
  8
MAIN0
  6
CONTINUOUS
 62
3
100
AcDbLine
 10
98.69911380084400
 20
163.0494455727413
 30
0.0000000000000000
 11
98.69911380084400
 21
159.7129837837589
 31
0.0000000000000000
  0
LINE
  5
2A3
100
AcDbEntity
  8
MAIN0
  6
CONTINUOUS
 62
3
100
AcDbLine
 10
98.69911380084400
 20
163.0494455727413
 30
0.0000000000000000
 11
90.69911380084400
 21
163.0494455727413
 31
0.0000000000000000
  0
LINE
  5
2A4
100
AcDbEntity
  8
MAIN0
  6
CONTINUOUS
 62
3
100
AcDbLine
 10
90.69911380084400
 20
163.0494455727413
 30
0.0000000000000000
 11
90.69911380084400
 21
159.7129837837589
 31
0.0000000000000000
  0
LINE
  5
2A5
100
AcDbEntity
  8
MAIN0
  6
CONTINUOUS
 62
3
100
AcDbLine
 10
140.1991138006887
 20
212.5494455731109
 30
0.0000000000000000
 11
143.5355755896712
 21
212.5494455731109
 31
0.0000000000000000
  0
LINE
  5
2A6
100
AcDbEntity
  8
MAIN0
  6
CONTINUOUS
 62
3
100
AcDbLine
 10
140.1991138006887
 20
212.5494455731109
 30
0.0000000000000000
 11
140.1991138006887
 21
204.5494455731109
 31
0.0000000000000000
  0
LINE
  5
2A7
100
AcDbEntity
  8
MAIN0
  6
CONTINUOUS
 62
3
100
AcDbLine
 10
140.1991138006887
 20
204.5494455731109
 30
0.0000000000000000
 11
143.5355755896712
 21
204.5494455731109
 31
0.0000000000000000
  0
LINE
  5
2A8
100
AcDbEntity
  8
MAIN0
  6
HIDDEN
 62
3
100
AcDbLine
 10
109.9086478504308
 20
172.9015834492821
 30
0.0000000000000000
 11
105.9619388431328
 21
171.4650988473066
 31
0.0000000000000000
  0
LINE
  5
2A9
100
AcDbEntity
  8
MAIN0
  6
HIDDEN
 62
3
100
AcDbLine
 10
105.9619388431327
 20
171.4650988473067
 30
0.0000000000000000
 11
105.4838008611665
 21
170.4397286360164
 31
0.0000000000000000
  0
LINE
  5
2AA
100
AcDbEntity
  8
MAIN0
  6
HIDDEN
 62
3
100
AcDbLine
 10
103.6896166564036
 20
177.7082527450329
 30
0.0000000000000000
 11
105.9619388431327
 21
171.4650988473066
 31
0.0000000000000000
  0
LINE
  5
2AB
100
AcDbEntity
  8
MAIN0
  6
HIDDEN
 62
3
100
AcDbLine
 10
104.1495771928431
 20
175.2749997972734
 30
0.0000000000000000
 11
105.7228698521495
 21
170.9524137416614
 31
0.0000000000000000
  0
LINE
  5
2AC
100
AcDbEntity
  8
MAIN0
  6
HIDDEN
 62
3
100
AcDbLine
 10
108.8480402967695
 20
176.9851005139109
 30
0.0000000000000000
 11
104.1495771928432
 21
175.2749997972734
 31
0.0000000000000000
  0
LINE
  5
2AD
100
AcDbEntity
  8
MAIN0
  6
HIDDEN
 62
3
100
AcDbLine
 10
107.6363256637012
 20
179.1447373470080
 30
0.0000000000000000
 11
103.6896166564031
 21
177.7082527450324
 31
0.0000000000000000
  0
LINE
  5
2AE
100
AcDbEntity
  8
MAIN0
  6
HIDDEN
 62
3
100
AcDbLine
 10
105.2482937742335
 20
179.5658117999085
 30
0.0000000000000000
 11
103.6896166564032
 21
177.7082527450325
 31
0.0000000000000000
  0
LINE
  5
2AF
100
AcDbEntity
  8
MAIN0
  6
HIDDEN
 62
3
100
AcDbLine
 10
107.6363256637012
 20
179.1447373470080
 30
0.0000000000000000
 11
105.2482937742335
 21
179.5658117999085
 31
0.0000000000000000
  0
LINE
  5
2B0
100
AcDbEntity
  8
MAIN0
  6
HIDDEN
 62
3
100
AcDbLine
 10
109.9086478504305
 20
172.9015834492820
 30
0.0000000000000000
 11
107.6363256637014
 21
179.1447373470081
 31
0.0000000000000000
  0
LINE
  5
2B1
100
AcDbEntity
  8
MAIN0
  6
HIDDEN
 62
3
100
AcDbLine
 10
110.4213329560759
 20
172.6625144582988
 30
0.0000000000000000
 11
108.8480402967694
 21
176.9851005139110
 31
0.0000000000000000
  0
LINE
  5
2B2
100
AcDbEntity
  8
MAIN0
  6
HIDDEN
 62
3
100
AcDbLine
 10
110.9340180617210
 20
172.4234454673158
 30
0.0000000000000000
 11
109.9086478504308
 21
172.9015834492820
 31
0.0000000000000000
  0
LINE
  5
2B3
100
AcDbEntity
  8
MAIN0
  6
HIDDEN
 62
3
100
AcDbLine
 10
78.46420953915111
 20
172.4234454672798
 30
0.0000000000000000
 11
79.48957975044024
 21
172.9015834492483
 31
0.0000000000000000
  0
LINE
  5
2B4
100
AcDbEntity
  8
MAIN0
  6
HIDDEN
 62
3
100
AcDbLine
 10
79.48957975044024
 20
172.9015834492483
 30
0.0000000000000000
 11
83.43628875774144
 21
171.4650988472816
 31
0.0000000000000000
  0
LINE
  5
2B5
100
AcDbEntity
  8
MAIN0
  6
HIDDEN
 62
3
100
AcDbLine
 10
78.97689464479576
 20
172.6625144582640
 30
0.0000000000000000
 11
80.55018730409266
 21
176.9851005138797
 31
0.0000000000000000
  0
LINE
  5
2B6
100
AcDbEntity
  8
MAIN0
  6
HIDDEN
 62
3
100
AcDbLine
 10
79.48957975044026
 20
172.9015834492482
 30
0.0000000000000000
 11
81.76190193715553
 21
179.1447373469796
 31
0.0000000000000000
  0
LINE
  5
2B7
100
AcDbEntity
  8
MAIN0
  6
HIDDEN
 62
3
100
AcDbLine
 10
80.55018730409259
 20
176.9851005138797
 30
0.0000000000000000
 11
85.24865040802258
 21
175.2749997972526
 31
0.0000000000000000
  0
LINE
  5
2B8
100
AcDbEntity
  8
MAIN0
  6
HIDDEN
 62
3
100
AcDbLine
 10
81.76190193715584
 20
179.1447373469794
 30
0.0000000000000000
 11
85.70861094445704
 21
177.7082527450127
 31
0.0000000000000000
  0
LINE
  5
2B9
100
AcDbEntity
  8
MAIN0
  6
HIDDEN
 62
3
100
AcDbLine
 10
81.76190193715597
 20
179.1447373469796
 30
0.0000000000000000
 11
84.14993382662266
 21
179.5658117998854
 31
0.0000000000000000
  0
LINE
  5
2BA
100
AcDbEntity
  8
MAIN0
  6
HIDDEN
 62
3
100
AcDbLine
 10
84.14993382662279
 20
179.5658117998854
 30
0.0000000000000000
 11
85.70861094445722
 21
177.7082527450128
 31
0.0000000000000000
  0
LINE
  5
2BB
100
AcDbEntity
  8
MAIN0
  6
HIDDEN
 62
3
100
AcDbLine
 10
85.70861094445664
 20
177.7082527450127
 30
0.0000000000000000
 11
83.43628875774132
 21
171.4650988472814
 31
0.0000000000000000
  0
LINE
  5
2BC
100
AcDbEntity
  8
MAIN0
  6
HIDDEN
 62
3
100
AcDbLine
 10
85.24865040802231
 20
175.2749997972526
 30
0.0000000000000000
 11
83.67535774872547
 21
170.9524137416370
 31
0.0000000000000000
  0
LINE
  5
2BD
100
AcDbEntity
  8
MAIN0
  6
HIDDEN
 62
3
100
AcDbLine
 10
83.43628875774139
 20
171.4650988472817
 30
0.0000000000000000
 11
83.91442673970992
 21
170.4397286359925
 31
0.0000000000000000
  0
LINE
  5
2BE
100
AcDbEntity
  8
MAIN0
  6
CENTER
 62
3
100
AcDbLine
 10
65.68843059123631
 20
215.2470895441240
 30
0.0000000000000000
 11
54.17570177604375
 21
217.9050124206296
 31
0.0000000000000000
  0
LINE
  5
2BF
100
AcDbEntity
  8
MAIN0
  6
CENTER
 62
3
100
AcDbLine
 10
74.01650598601356
 20
229.9669129542793
 30
0.0000000000000000
 11
65.80872772257874
 21
238.4663161549696
 31
0.0000000000000000
  0
LINE
  5
2C0
100
AcDbEntity
  8
MAIN0
  6
CONTINUOUS
 62
3
100
AcDbLine
 10
379.6991138003713
 20
72.34317608402398
 30
0.0000000000000000
 11
379.6991138003717
 21
96.94317608402197
 31
0.0000000000000000
  0
LINE
  5
2C1
100
AcDbEntity
  8
MAIN0
  6
CONTINUOUS
 62
3
100
AcDbLine
 10
379.2991138003716
 20
71.94317608402375
 30
0.0000000000000000
 11
379.6991138003716
 21
72.34317608402381
 31
0.0000000000000000
  0
LINE
  5
2C2
100
AcDbEntity
  8
MAIN0
  6
CONTINUOUS
 62
3
100
AcDbLine
 10
299.6991138003715
 20
72.34317608402390
 30
0.0000000000000000
 11
299.6991138003715
 21
96.94317608405632
 31
0.0000000000000000
  0
LINE
  5
2C3
100
AcDbEntity
  8
MAIN0
  6
CONTINUOUS
 62
3
100
AcDbLine
 10
300.0991138003714
 20
71.94317608402386
 30
0.0000000000000000
 11
299.6991138003714
 21
72.34317608402387
 31
0.0000000000000000
  0
LINE
  5
2C4
100
AcDbEntity
  8
MAIN0
  6
CONTINUOUS
 62
3
100
AcDbLine
 10
300.0991138003715
 20
71.94317608402380
 30
0.0000000000000000
 11
379.2991138003715
 21
71.94317608402380
 31
0.0000000000000000
  0
LINE
  5
2C5
100
AcDbEntity
  8
MAIN0
  6
CONTINUOUS
 62
3
100
AcDbLine
 10
325.9991138003715
 20
120.9431760840205
 30
0.0000000000000000
 11
325.9991138003715
 21
130.7254413840454
 31
0.0000000000000000
  0
LINE
  5
2C6
100
AcDbEntity
  8
MAIN0
  6
CONTINUOUS
 62
3
100
AcDbLine
 10
353.3991138003713
 20
130.7254413840474
 30
0.0000000000000000
 11
350.6991138003714
 21
133.9431760840498
 31
0.0000000000000000
  0
LINE
  5
2C7
100
AcDbEntity
  8
MAIN0
  6
CONTINUOUS
 62
3
100
AcDbLine
 10
328.6991138003714
 20
133.9431760840482
 30
0.0000000000000000
 11
325.9991138003714
 21
130.7254413840455
 31
0.0000000000000000
  0
LINE
  5
2C8
100
AcDbEntity
  8
MAIN0
  6
CONTINUOUS
 62
3
100
AcDbLine
 10
353.3991138003714
 20
120.9431760840204
 30
0.0000000000000000
 11
353.3991138003714
 21
130.7254413840473
 31
0.0000000000000000
  0
LINE
  5
2C9
100
AcDbEntity
  8
MAIN0
  6
CONTINUOUS
 62
3
100
AcDbLine
 10
328.6991138003710
 20
133.9431760840478
 30
0.0000000000000000
 11
350.6991138003720
 21
133.9431760840492
 31
0.0000000000000000
  0
LINE
  5
2CA
100
AcDbEntity
  8
MAIN0
  6
CONTINUOUS
 62
3
100
AcDbLine
 10
384.6991138003715
 20
118.9431760840517
 30
0.0000000000000000
 11
384.6991138003715
 21
120.9431760840205
 31
0.0000000000000000
  0
LINE
  5
2CB
100
AcDbEntity
  8
MAIN0
  6
CONTINUOUS
 62
3
100
AcDbLine
 10
388.6991138003884
 20
118.9431760846123
 30
0.0000000000000000
 11
388.6991138003546
 21
96.94317608405632
 31
0.0000000000000000
  0
LINE
  5
2CC
100
AcDbEntity
  8
MAIN0
  6
CONTINUOUS
 62
3
100
AcDbLine
 10
294.6991138003730
 20
118.9431760840517
 30
0.0000000000000000
 11
294.6991138003723
 21
120.9431760840205
 31
0.0000000000000000
  0
LINE
  5
2CD
100
AcDbEntity
  8
MAIN0
  6
CONTINUOUS
 62
3
100
AcDbLine
 10
290.6991138003561
 20
118.9431760846121
 30
0.0000000000000000
 11
290.6991138003900
 21
96.94317608405632
 31
0.0000000000000000
  0
LINE
  5
2CE
100
AcDbEntity
  8
MAIN0
  6
CONTINUOUS
 62
3
100
AcDbLine
 10
294.6991138003722
 20
120.9431760840205
 30
0.0000000000000000
 11
384.6991138003715
 21
120.9431760840205
 31
0.0000000000000000
  0
LINE
  5
2CF
100
AcDbEntity
  8
MAIN0
  6
CONTINUOUS
 62
3
100
AcDbLine
 10
290.6991138003899
 20
96.94317608405632
 30
0.0000000000000000
 11
388.6991138003546
 21
96.94317608405633
 31
0.0000000000000000
  0
LINE
  5
2D0
100
AcDbEntity
  8
MAIN0
  6
CONTINUOUS
 62
3
100
AcDbLine
 10
290.6991138003560
 20
118.9431760840548
 30
0.0000000000000000
 11
388.6991138003884
 21
118.9431760840548
 31
0.0000000000000000
  0
LINE
  5
2D1
100
AcDbEntity
  8
MAIN0
  6
CONTINUOUS
 62
3
100
AcDbLine
 10
290.6991138003714
 20
96.94317608402115
 30
0.0000000000000000
 11
292.6991138003715
 21
96.94317608402133
 31
0.0000000000000000
  0
LINE
  5
2D2
100
AcDbEntity
  8
MAIN0
  6
CONTINUOUS
 62
3
100
AcDbLine
 10
295.6991138003715
 20
96.94317608402173
 30
0.0000000000000000
 11
299.4491138003715
 21
96.94317608402197
 31
0.0000000000000000
  0
LINE
  5
2D3
100
AcDbEntity
  8
MAIN0
  6
CONTINUOUS
 62
3
100
AcDbLine
 10
379.9491138003715
 20
96.94317608402196
 30
0.0000000000000000
 11
388.6991138003715
 21
96.94317608402130
 31
0.0000000000000000
  0
LINE
  5
2D4
100
AcDbEntity
  8
MAIN0
  6
CONTINUOUS
 62
3
100
AcDbLine
 10
303.4282110646161
 20
77.44317608402369
 30
0.0000000000000000
 11
303.4282110646161
 21
72.94317608402380
 31
0.0000000000000000
  0
LINE
  5
2D5
100
AcDbEntity
  8
MAIN0
  6
CONTINUOUS
 62
3
100
AcDbLine
 10
303.4282110646161
 20
72.94317608402386
 30
0.0000000000000000
 11
304.2942364684005
 21
72.44317608402383
 31
0.0000000000000000
  0
LINE
  5
2D6
100
AcDbEntity
  8
MAIN0
  6
CONTINUOUS
 62
3
100
AcDbLine
 10
304.2942364684005
 20
72.44317608402380
 30
0.0000000000000000
 11
309.3882246680058
 21
72.44317608402380
 31
0.0000000000000000
  0
LINE
  5
2D7
100
AcDbEntity
  8
MAIN0
  6
CONTINUOUS
 62
3
100
AcDbLine
 10
303.4282110646161
 20
72.94317608402380
 30
0.0000000000000000
 11
309.3882246680062
 21
72.94317608402380
 31
0.0000000000000000
  0
LINE
  5
2D8
100
AcDbEntity
  8
MAIN0
  6
CONTINUOUS
 62
3
100
AcDbLine
 10
375.9700165361271
 20
77.44317608402369
 30
0.0000000000000000
 11
375.9700165361271
 21
72.94317608402380
 31
0.0000000000000000
  0
LINE
  5
2D9
100
AcDbEntity
  8
MAIN0
  6
CONTINUOUS
 62
3
100
AcDbLine
 10
375.9700165361271
 20
72.94317608402389
 30
0.0000000000000000
 11
375.1039911323427
 21
72.44317608402389
 31
0.0000000000000000
  0
LINE
  5
2DA
100
AcDbEntity
  8
MAIN0
  6
CONTINUOUS
 62
3
100
AcDbLine
 10
375.1039911323427
 20
72.44317608402380
 30
0.0000000000000000
 11
370.0100029327373
 21
72.44317608402380
 31
0.0000000000000000
  0
LINE
  5
2DB
100
AcDbEntity
  8
MAIN0
  6
CONTINUOUS
 62
3
100
AcDbLine
 10
375.9700165361271
 20
72.94317608402380
 30
0.0000000000000000
 11
370.0100029327369
 21
72.94317608402380
 31
0.0000000000000000
  0
MTEXT
  5
2DC
100
AcDbEntity
  8
MAIN0
  6
CONTINUOUS
 62
3
100
AcDbMText
 10
366.5904906810399
 20
70.62839532356901
 30
0.0000000000000000
 40
3.099999904632568
 41
0.0000000000000000
 44
0.6677419652551825
 71
     1
 72
     1
  1
{\H0.84x;{★}}
 11
1.000000000000000
 21
0.0000000000000000
 31
0.0000000000000000
  7
KNJYOKO
  0
LINE
  5
2DD
100
AcDbEntity
  8
MAIN0
  6
CONTINUOUS
 62
3
100
AcDbLine
 10
190.0991138003716
 20
248.5494455729824
 30
0.0000000000000000
 11
214.6991138004040
 21
248.5494455729829
 31
0.0000000000000000
  0
LINE
  5
2DE
100
AcDbEntity
  8
MAIN0
  6
CONTINUOUS
 62
3
100
AcDbLine
 10
189.6991138003714
 20
248.1494455729826
 30
0.0000000000000000
 11
190.0991138003714
 21
248.5494455729826
 31
0.0000000000000000
  0
LINE
  5
2DF
100
AcDbEntity
  8
MAIN0
  6
CONTINUOUS
 62
3
100
AcDbLine
 10
190.0991138003716
 20
168.5494455729826
 30
0.0000000000000000
 11
214.6991138004040
 21
168.5494455729826
 31
0.0000000000000000
  0
LINE
  5
2E0
100
AcDbEntity
  8
MAIN0
  6
CONTINUOUS
 62
3
100
AcDbLine
 10
189.6991138003716
 20
168.9494455729825
 30
0.0000000000000000
 11
190.0991138003716
 21
168.5494455729825
 31
0.0000000000000000
  0
LINE
  5
2E1
100
AcDbEntity
  8
MAIN0
  6
CONTINUOUS
 62
3
100
AcDbLine
 10
189.6991138003715
 20
168.9494455729825
 30
0.0000000000000000
 11
189.6991138003715
 21
248.1494455729826
 31
0.0000000000000000
  0
LINE
  5
2E2
100
AcDbEntity
  8
MAIN0
  6
CONTINUOUS
 62
3
100
AcDbLine
 10
231.0991138003964
 20
194.8494455729826
 30
0.0000000000000000
 11
248.4813791003931
 21
194.8494455729825
 31
0.0000000000000000
  0
LINE
  5
2E3
100
AcDbEntity
  8
MAIN0
  6
CONTINUOUS
 62
3
100
AcDbLine
 10
248.4813791003950
 20
222.2494455729824
 30
0.0000000000000000
 11
251.6991138003974
 21
219.5494455729825
 31
0.0000000000000000
  0
LINE
  5
2E4
100
AcDbEntity
  8
MAIN0
  6
CONTINUOUS
 62
3
100
AcDbLine
 10
251.6991138003958
 20
197.5494455729825
 30
0.0000000000000000
 11
248.4813791003931
 21
194.8494455729824
 31
0.0000000000000000
  0
LINE
  5
2E5
100
AcDbEntity
  8
MAIN0
  6
CONTINUOUS
 62
3
100
AcDbLine
 10
231.0991138003977
 20
222.2494455729826
 30
0.0000000000000000
 11
248.4813791003950
 21
222.2494455729824
 31
0.0000000000000000
  0
LINE
  5
2E6
100
AcDbEntity
  8
MAIN0
  6
CONTINUOUS
 62
3
100
AcDbLine
 10
251.6991138003955
 20
197.5494455729821
 30
0.0000000000000000
 11
251.6991138003968
 21
219.5494455729830
 31
0.0000000000000000
  0
LINE
  5
2E7
100
AcDbEntity
  8
MAIN0
  6
CONTINUOUS
 62
3
100
AcDbLine
 10
238.6991138003959
 20
218.0494455729836
 30
0.0000000000000000
 11
251.6991138003956
 21
218.0494455729825
 31
0.0000000000000000
  0
LINE
  5
2E8
100
AcDbEntity
  8
MAIN0
  6
CONTINUOUS
 62
3
100
AcDbLine
 10
238.6991138003934
 20
214.3494455729815
 30
0.0000000000000000
 11
238.6991138003959
 21
218.0494455729836
 31
0.0000000000000000
  0
LINE
  5
2E9
100
AcDbEntity
  8
MAIN0
  6
CONTINUOUS
 62
3
100
AcDbLine
 10
245.5991138003956
 20
209.2970408371770
 30
0.0000000000000000
 11
251.6991138003962
 21
209.2970408371770
 31
0.0000000000000000
  0
LINE
  5
2EA
100
AcDbEntity
  8
MAIN0
  6
CONTINUOUS
 62
3
100
AcDbLine
 10
245.5991138003962
 20
207.6787098754507
 30
0.0000000000000000
 11
245.5991138003928
 21
216.3073037432719
 31
0.0000000000000000
  0
LINE
  5
2EB
100
AcDbEntity
  8
MAIN0
  6
CONTINUOUS
 62
3
100
AcDbLine
 10
238.7991138003955
 20
207.6787098754507
 30
0.0000000000000000
 11
245.5991138003962
 21
207.6787098754507
 31
0.0000000000000000
  0
LINE
  5
2EC
100
AcDbEntity
  8
MAIN0
  6
CONTINUOUS
 62
3
100
AcDbLine
 10
245.5991138003939
 20
213.5494455729799
 30
0.0000000000000000
 11
251.6991138003965
 21
213.5494455729798
 31
0.0000000000000000
  0
LINE
  5
2ED
100
AcDbEntity
  8
MAIN0
  6
CONTINUOUS
 62
3
100
AcDbLine
 10
238.7991138003953
 20
216.3073037432716
 30
0.0000000000000000
 11
245.5991138003928
 21
216.3073037432719
 31
0.0000000000000000
  0
LINE
  5
2EE
100
AcDbEntity
  8
MAIN0
  6
CONTINUOUS
 62
3
100
AcDbLine
 10
236.6991138003994
 20
253.5494455729825
 30
0.0000000000000000
 11
238.6991138003681
 21
253.5494455729825
 31
0.0000000000000000
  0
LINE
  5
2EF
100
AcDbEntity
  8
MAIN0
  6
CONTINUOUS
 62
3
100
AcDbLine
 10
236.6991138009598
 20
257.5494455729995
 30
0.0000000000000000
 11
214.6991138004040
 21
257.5494455729657
 31
0.0000000000000000
  0
LINE
  5
2F0
100
AcDbEntity
  8
MAIN0
  6
CONTINUOUS
 62
3
100
AcDbLine
 10
236.6991138003994
 20
163.5494455729841
 30
0.0000000000000000
 11
238.6991138003681
 21
163.5494455729834
 31
0.0000000000000000
  0
LINE
  5
2F1
100
AcDbEntity
  8
MAIN0
  6
CONTINUOUS
 62
3
100
AcDbLine
 10
236.6991138009599
 20
159.5494455729671
 30
0.0000000000000000
 11
214.6991138004040
 21
159.5494455730010
 31
0.0000000000000000
  0
LINE
  5
2F2
100
AcDbEntity
  8
MAIN0
  6
CONTINUOUS
 62
3
100
AcDbLine
 10
214.6991138004040
 20
159.5494455730010
 30
0.0000000000000000
 11
214.6991138004040
 21
257.5494455729656
 31
0.0000000000000000
  0
LINE
  5
2F3
100
AcDbEntity
  8
MAIN0
  6
CONTINUOUS
 62
3
100
AcDbLine
 10
238.6991138003682
 20
163.5494455729833
 30
0.0000000000000000
 11
238.6991138003682
 21
193.0505072347793
 31
0.0000000000000000
  0
LINE
  5
2F4
100
AcDbEntity
  8
MAIN0
  6
CONTINUOUS
 62
3
100
AcDbLine
 10
238.6991138003682
 20
224.5464983996291
 30
0.0000000000000000
 11
238.6991138003682
 21
253.5494455729825
 31
0.0000000000000000
  0
LINE
  5
2F5
100
AcDbEntity
  8
MAIN0
  6
CONTINUOUS
 62
3
100
AcDbLine
 10
236.6991138004025
 20
159.5494455729671
 30
0.0000000000000000
 11
236.6991138004025
 21
183.0034477693059
 31
0.0000000000000000
  0
LINE
  5
2F6
100
AcDbEntity
  8
MAIN0
  6
CONTINUOUS
 62
3
100
AcDbLine
 10
236.6991138004025
 20
233.6230779212595
 30
0.0000000000000000
 11
236.6991138004025
 21
257.5494455729995
 31
0.0000000000000000
  0
LINE
  5
2F7
100
AcDbEntity
  8
MAIN0
  6
CONTINUOUS
 62
3
100
AcDbLine
 10
214.6991138003689
 20
159.5494455729824
 30
0.0000000000000000
 11
214.6991138003691
 21
161.5494455729825
 31
0.0000000000000000
  0
LINE
  5
2F8
100
AcDbEntity
  8
MAIN0
  6
CONTINUOUS
 62
3
100
AcDbLine
 10
214.6991138003693
 20
164.5494455729825
 30
0.0000000000000000
 11
214.6991138003696
 21
168.2994455729825
 31
0.0000000000000000
  0
LINE
  5
2F9
100
AcDbEntity
  8
MAIN0
  6
CONTINUOUS
 62
3
100
AcDbLine
 10
214.6991138003696
 20
248.7994455729825
 30
0.0000000000000000
 11
214.6991138003689
 21
257.5494455729825
 31
0.0000000000000000
  0
LINE
  5
2FA
100
AcDbEntity
  8
MAIN0
  6
CONTINUOUS
 62
3
100
AcDbLine
 10
190.1991138003715
 20
192.8045825369949
 30
0.0000000000000000
 11
190.1991138003715
 21
187.6654709766758
 31
0.0000000000000000
  0
LINE
  5
2FB
100
AcDbEntity
  8
MAIN0
  6
CONTINUOUS
 62
3
100
AcDbLine
 10
190.1991138003715
 20
187.6654709766758
 30
0.0000000000000000
 11
190.6991138003715
 21
186.7994455728914
 31
0.0000000000000000
  0
LINE
  5
2FC
100
AcDbEntity
  8
MAIN0
  6
CONTINUOUS
 62
3
100
AcDbLine
 10
190.6991138003715
 20
186.7994455728913
 30
0.0000000000000000
 11
195.1991138003715
 21
186.7994455728913
 31
0.0000000000000000
  0
LINE
  5
2FD
100
AcDbEntity
  8
MAIN0
  6
CONTINUOUS
 62
3
100
AcDbLine
 10
190.6991138003715
 20
192.8045825369932
 30
0.0000000000000000
 11
190.6991138003715
 21
186.7994455728913
 31
0.0000000000000000
  0
LINE
  5
2FE
100
AcDbEntity
  8
MAIN0
  6
CONTINUOUS
 62
3
100
AcDbLine
 10
190.0991138003716
 20
218.5494455729826
 30
0.0000000000000000
 11
193.1991138003715
 21
218.5494455729826
 31
0.0000000000000000
  0
LINE
  5
2FF
100
AcDbEntity
  8
MAIN0
  6
CONTINUOUS
 62
3
100
AcDbLine
 10
190.0991138003715
 20
218.5494455729825
 30
0.0000000000000000
 11
189.6991138003715
 21
218.9494455729826
 31
0.0000000000000000
  0
LINE
  5
300
100
AcDbEntity
  8
MAIN0
  6
CONTINUOUS
 62
3
100
AcDbLine
 10
193.1991138003715
 20
198.5494455729826
 30
0.0000000000000000
 11
193.1991138003715
 21
218.5494455729826
 31
0.0000000000000000
  0
LINE
  5
301
100
AcDbEntity
  8
MAIN0
  6
CONTINUOUS
 62
3
100
AcDbLine
 10
190.0991138003716
 20
198.5494455729826
 30
0.0000000000000000
 11
193.1991138003715
 21
198.5494455729826
 31
0.0000000000000000
  0
LINE
  5
302
100
AcDbEntity
  8
MAIN0
  6
CONTINUOUS
 62
3
100
AcDbLine
 10
190.0991138003715
 20
198.5494455729827
 30
0.0000000000000000
 11
189.6991138003715
 21
198.1494455729827
 31
0.0000000000000000
  0
LINE
  5
303
100
AcDbEntity
  8
MAIN0
  6
HIDDEN
 62
3
100
AcDbLine
 10
336.3991138003715
 20
72.54317608402408
 30
0.0000000000000000
 11
335.7991138003714
 21
71.94317608402400
 31
0.0000000000000000
  0
LINE
  5
304
100
AcDbEntity
  8
MAIN0
  6
HIDDEN
 62
3
100
AcDbLine
 10
336.3991138003715
 20
97.34317608402394
 30
0.0000000000000000
 11
336.3991138003715
 21
72.54317608402394
 31
0.0000000000000000
  0
LINE
  5
305
100
AcDbEntity
  8
MAIN0
  6
HIDDEN
 62
3
100
AcDbLine
 10
342.9991138003715
 20
72.54317608402386
 30
0.0000000000000000
 11
343.5991138003714
 21
71.94317608402395
 31
0.0000000000000000
  0
LINE
  5
306
100
AcDbEntity
  8
MAIN0
  6
HIDDEN
 62
3
100
AcDbLine
 10
342.9991138003715
 20
97.34317608402394
 30
0.0000000000000000
 11
342.9991138003715
 21
72.54317608402394
 31
0.0000000000000000
  0
LINE
  5
307
100
AcDbEntity
  8
MAIN0
  6
HIDDEN
 62
3
100
AcDbLine
 10
343.5991138003714
 20
97.94317608402386
 30
0.0000000000000000
 11
342.9991138003715
 21
97.34317608402395
 31
0.0000000000000000
  0
LINE
  5
308
100
AcDbEntity
  8
MAIN0
  6
HIDDEN
 62
3
100
AcDbLine
 10
335.7991138003713
 20
97.94317608402386
 30
0.0000000000000000
 11
336.3991138003713
 21
97.34317608402390
 31
0.0000000000000000
  0
LINE
  5
309
100
AcDbEntity
  8
MAIN0
  6
HIDDEN
 62
3
100
AcDbLine
 10
336.3991138003715
 20
98.34317608402805
 30
0.0000000000000000
 11
335.9991138003715
 21
97.94317608402804
 31
0.0000000000000000
  0
LINE
  5
30A
100
AcDbEntity
  8
MAIN0
  6
HIDDEN
 62
3
100
AcDbLine
 10
336.3991138003715
 20
101.4431760840322
 30
0.0000000000000000
 11
336.3991138003715
 21
98.34317608402803
 31
0.0000000000000000
  0
LINE
  5
30B
100
AcDbEntity
  8
MAIN0
  6
HIDDEN
 62
3
100
AcDbLine
 10
345.1991138003715
 20
101.4431760840322
 30
0.0000000000000000
 11
334.1991138003715
 21
101.4431760840322
 31
0.0000000000000000
  0
LINE
  5
30C
100
AcDbEntity
  8
MAIN0
  6
HIDDEN
 62
3
100
AcDbLine
 10
334.1991138003715
 20
101.4431760840322
 30
0.0000000000000000
 11
334.1991138003715
 21
107.5431760840322
 31
0.0000000000000000
  0
LINE
  5
30D
100
AcDbEntity
  8
MAIN0
  6
HIDDEN
 62
3
100
AcDbLine
 10
334.1991138003714
 20
107.5431760840323
 30
0.0000000000000000
 11
333.7991138003715
 21
107.9431760840322
 31
0.0000000000000000
  0
LINE
  5
30E
100
AcDbEntity
  8
MAIN0
  6
HIDDEN
 62
3
100
AcDbLine
 10
345.1991138003715
 20
107.5431760840322
 30
0.0000000000000000
 11
345.1991138003715
 21
101.4431760840322
 31
0.0000000000000000
  0
LINE
  5
30F
100
AcDbEntity
  8
MAIN0
  6
HIDDEN
 62
3
100
AcDbLine
 10
345.5991138003715
 20
107.9431760840323
 30
0.0000000000000000
 11
345.1991138003714
 21
107.5431760840322
 31
0.0000000000000000
  0
LINE
  5
310
100
AcDbEntity
  8
MAIN0
  6
HIDDEN
 62
3
100
AcDbLine
 10
342.9991138003715
 20
101.4431760840322
 30
0.0000000000000000
 11
342.9991138003715
 21
98.34317608402803
 31
0.0000000000000000
  0
LINE
  5
311
100
AcDbEntity
  8
MAIN0
  6
HIDDEN
 62
3
100
AcDbLine
 10
342.9991138003715
 20
98.34317608402805
 30
0.0000000000000000
 11
343.3991138003714
 21
97.94317608402804
 31
0.0000000000000000
  0
LINE
  5
312
100
AcDbEntity
  8
MAIN0
  6
HIDDEN
 62
3
100
AcDbLine
 10
230.1991138003666
 20
254.0494455730046
 30
0.0000000000000000
 11
214.6991138003667
 21
254.0494455729825
 31
0.0000000000000000
  0
LINE
  5
313
100
AcDbEntity
  8
MAIN0
  6
HIDDEN
 62
3
100
AcDbLine
 10
230.1991138003666
 20
254.0494455730046
 30
0.0000000000000000
 11
230.1991138003689
 21
257.5494455729736
 31
0.0000000000000000
  0
LINE
  5
314
100
AcDbEntity
  8
MAIN0
  6
CONTINUOUS
 62
3
100
AcDbLine
 10
225.6991138003751
 20
220.4381632311525
 30
0.0000000000000000
 11
225.6991138003743
 21
232.4094587108294
 31
0.0000000000000000
  0
LINE
  5
315
100
AcDbEntity
  8
MAIN0
  6
CONTINUOUS
 62
3
100
AcDbLine
 10
223.9670629928089
 20
225.5494455729825
 30
0.0000000000000000
 11
225.6991138003779
 21
226.5494455729826
 31
0.0000000000000000
  0
LINE
  5
316
100
AcDbEntity
  8
MAIN0
  6
CONTINUOUS
 62
3
100
AcDbLine
 10
221.6991138003746
 20
225.5494455729826
 30
0.0000000000000000
 11
223.9670629928089
 21
225.5494455729826
 31
0.0000000000000000
  0
LINE
  5
317
100
AcDbEntity
  8
MAIN0
  6
CONTINUOUS
 62
3
100
AcDbLine
 10
221.6991138003746
 20
225.5494455729826
 30
0.0000000000000000
 11
221.6991138003746
 21
225.7494455729826
 31
0.0000000000000000
  0
LINE
  5
318
100
AcDbEntity
  8
MAIN0
  6
CONTINUOUS
 62
3
100
AcDbLine
 10
220.1991138003732
 20
225.7494455729826
 30
0.0000000000000000
 11
221.6991138003746
 21
225.7494455729826
 31
0.0000000000000000
  0
LINE
  5
319
100
AcDbEntity
  8
MAIN0
  6
CONTINUOUS
 62
3
100
AcDbLine
 10
220.1991138003755
 20
218.1994455729826
 30
0.0000000000000000
 11
220.1991138003746
 21
225.7494455729826
 31
0.0000000000000000
  0
LINE
  5
31A
100
AcDbEntity
  8
MAIN0
  6
CONTINUOUS
 62
3
100
AcDbLine
 10
219.7991138003756
 20
217.7994455729826
 30
0.0000000000000000
 11
220.1991138003756
 21
218.1994455729826
 31
0.0000000000000000
  0
LINE
  5
31B
100
AcDbEntity
  8
MAIN0
  6
CONTINUOUS
 62
3
100
AcDbLine
 10
220.1991138003755
 20
198.8994455729826
 30
0.0000000000000000
 11
220.1991138003731
 21
191.3494455729826
 31
0.0000000000000000
  0
LINE
  5
31C
100
AcDbEntity
  8
MAIN0
  6
CONTINUOUS
 62
3
100
AcDbLine
 10
219.7991138003756
 20
199.2994455729825
 30
0.0000000000000000
 11
220.1991138003755
 21
198.8994455729826
 31
0.0000000000000000
  0
LINE
  5
31D
100
AcDbEntity
  8
MAIN0
  6
CONTINUOUS
 62
3
100
AcDbLine
 10
220.1991138003732
 20
191.3494455729826
 30
0.0000000000000000
 11
221.6991138003746
 21
191.3494455729826
 31
0.0000000000000000
  0
LINE
  5
31E
100
AcDbEntity
  8
MAIN0
  6
CONTINUOUS
 62
3
100
AcDbLine
 10
221.6991138003746
 20
191.5494455729826
 30
0.0000000000000000
 11
221.6991138003746
 21
191.3494455729826
 31
0.0000000000000000
  0
LINE
  5
31F
100
AcDbEntity
  8
MAIN0
  6
CONTINUOUS
 62
3
100
AcDbLine
 10
221.6991138003746
 20
191.5494455729826
 30
0.0000000000000000
 11
223.9670629928089
 21
191.5494455729826
 31
0.0000000000000000
  0
LINE
  5
320
100
AcDbEntity
  8
MAIN0
  6
CONTINUOUS
 62
3
100
AcDbLine
 10
223.9670629928089
 20
191.5494455729827
 30
0.0000000000000000
 11
225.6991138003779
 21
190.5494455729826
 31
0.0000000000000000
  0
LINE
  5
321
100
AcDbEntity
  8
MAIN0
  6
CONTINUOUS
 62
3
100
AcDbLine
 10
225.6991138003785
 20
185.0752523794620
 30
0.0000000000000000
 11
225.6991138003771
 21
196.7179458324552
 31
0.0000000000000000
  0
LINE
  5
322
100
AcDbEntity
  8
MAIN0
  6
CONTINUOUS
 62
3
100
AcDbLine
 10
232.7991138003955
 20
203.5494455729835
 30
0.0000000000000000
 11
238.1991138003955
 21
203.5494455729835
 31
0.0000000000000000
  0
LINE
  5
323
100
AcDbEntity
  8
MAIN0
  6
CONTINUOUS
 62
3
100
AcDbLine
 10
238.1991138003956
 20
203.5494455729836
 30
0.0000000000000000
 11
238.7991138003956
 21
204.5886760575249
 31
0.0000000000000000
  0
LINE
  5
324
100
AcDbEntity
  8
MAIN0
  6
CONTINUOUS
 62
3
100
AcDbLine
 10
238.7991138003955
 20
204.5886760575249
 30
0.0000000000000000
 11
238.7991138003955
 21
212.5102150884422
 31
0.0000000000000000
  0
LINE
  5
325
100
AcDbEntity
  8
MAIN0
  6
CONTINUOUS
 62
3
100
AcDbLine
 10
238.7991138003955
 20
212.5102150884422
 30
0.0000000000000000
 11
238.1991138003956
 21
213.5494455729834
 31
0.0000000000000000
  0
LINE
  5
326
100
AcDbEntity
  8
MAIN0
  6
CONTINUOUS
 62
3
100
AcDbLine
 10
238.1991138003955
 20
213.5494455729835
 30
0.0000000000000000
 11
232.7991138003955
 21
213.5494455729835
 31
0.0000000000000000
  0
LINE
  5
327
100
AcDbEntity
  8
MAIN0
  6
CONTINUOUS
 62
3
100
AcDbLine
 10
238.1991138003955
 20
203.5494455729835
 30
0.0000000000000000
 11
238.1991138003955
 21
213.5494455729835
 31
0.0000000000000000
  0
LINE
  5
328
100
AcDbEntity
  8
MAIN0
  6
CONTINUOUS
 62
3
100
AcDbLine
 10
232.7991138003955
 20
205.5494455729835
 30
0.0000000000000000
 11
218.6124035987692
 21
205.5494455729827
 31
0.0000000000000000
  0
LINE
  5
329
100
AcDbEntity
  8
MAIN0
  6
CONTINUOUS
 62
3
100
AcDbLine
 10
218.7280544944533
 20
211.5494455729827
 30
0.0000000000000000
 11
232.7991138003955
 21
211.5494455729835
 31
0.0000000000000000
  0
LINE
  5
32A
100
AcDbEntity
  8
MAIN0
  6
CONTINUOUS
 62
3
100
AcDbLine
 10
232.7991138003955
 20
206.0907115729836
 30
0.0000000000000000
 11
218.6447705242252
 21
206.0907115729827
 31
0.0000000000000000
  0
LINE
  5
32B
100
AcDbEntity
  8
MAIN0
  6
CONTINUOUS
 62
3
100
AcDbLine
 10
232.7991138003955
 20
211.0081795729834
 30
0.0000000000000000
 11
218.7457743275201
 21
211.0081795729826
 31
0.0000000000000000
  0
LINE
  5
32C
100
AcDbEntity
  8
MAIN0
  6
CONTINUOUS
 62
3
100
AcDbLine
 10
218.1639486756994
 20
217.7994455729826
 30
0.0000000000000000
 11
227.6991138003897
 21
217.7994455729826
 31
0.0000000000000000
  0
LINE
  5
32D
100
AcDbEntity
  8
MAIN0
  6
CONTINUOUS
 62
3
100
AcDbLine
 10
228.1991138003897
 20
217.5107704409000
 30
0.0000000000000000
 11
227.6991138003898
 21
217.7994455754947
 31
0.0000000000000000
  0
LINE
  5
32E
100
AcDbEntity
  8
MAIN0
  6
CONTINUOUS
 62
3
100
AcDbLine
 10
228.1991138003897
 20
216.5494455725253
 30
0.0000000000000000
 11
228.1991138003897
 21
217.5107704408997
 31
0.0000000000000000
  0
LINE
  5
32F
100
AcDbEntity
  8
MAIN0
  6
CONTINUOUS
 62
3
100
AcDbLine
 10
227.7991138003897
 20
216.5494455729826
 30
0.0000000000000000
 11
228.1991138003896
 21
216.9494455729825
 31
0.0000000000000000
  0
LINE
  5
330
100
AcDbEntity
  8
MAIN0
  6
CONTINUOUS
 62
3
100
AcDbLine
 10
225.1991138003897
 20
216.5494455729826
 30
0.0000000000000000
 11
227.7991138003897
 21
216.5494455729826
 31
0.0000000000000000
  0
LINE
  5
331
100
AcDbEntity
  8
MAIN0
  6
CONTINUOUS
 62
3
100
AcDbLine
 10
225.1991138003897
 20
211.5494455729826
 30
0.0000000000000000
 11
225.1991138003897
 21
216.5494455729826
 31
0.0000000000000000
  0
LINE
  5
332
100
AcDbEntity
  8
MAIN0
  6
CONTINUOUS
 62
3
100
AcDbLine
 10
218.2143409814383
 20
199.2994455729826
 30
0.0000000000000000
 11
227.6991138003897
 21
199.2994455729826
 31
0.0000000000000000
  0
LINE
  5
333
100
AcDbEntity
  8
MAIN0
  6
CONTINUOUS
 62
3
100
AcDbLine
 10
228.1991138003898
 20
199.5881207050655
 30
0.0000000000000000
 11
227.6991138003897
 21
199.2994455704707
 31
0.0000000000000000
  0
LINE
  5
334
100
AcDbEntity
  8
MAIN0
  6
CONTINUOUS
 62
3
100
AcDbLine
 10
228.1991138003897
 20
199.5881207050655
 30
0.0000000000000000
 11
228.1991138003897
 21
201.0494455729848
 31
0.0000000000000000
  0
LINE
  5
335
100
AcDbEntity
  8
MAIN0
  6
CONTINUOUS
 62
3
100
AcDbLine
 10
225.1991138003897
 20
201.0494455729826
 30
0.0000000000000000
 11
228.1991138003897
 21
201.0494455729826
 31
0.0000000000000000
  0
CIRCLE
  5
336
100
AcDbEntity
  8
MAIN0
  6
HIDDEN
 62
3
100
AcDbCircle
 10
339.6991138003715
 20
208.5494455729826
 30
0.0000000000000000
 40
40.50000000000023
  0
CIRCLE
  5
337
100
AcDbEntity
  8
MAIN0
  6
CONTINUOUS
 62
3
100
AcDbCircle
 10
339.6991138003715
 20
208.5494455729826
 30
0.0000000000000000
 40
36.90000000000023
  0
ARC
  5
338
100
AcDbEntity
  8
MAIN0
  6
CONTINUOUS
 62
3
100
AcDbCircle
 10
339.6991138003715
 20
208.5494455729826
 30
0.0000000000000000
 40
30.00000000000034
100
AcDbArc
 50
64.06872154667596
 51
115.9312784538367
  0
ARC
  5
339
100
AcDbEntity
  8
MAIN0
  6
CONTINUOUS
 62
3
100
AcDbCircle
 10
355.7592540179290
 20
231.4857028132446
 30
0.0000000000000000
 40
5.000000000000000
100
AcDbArc
 50
55.00000000067468
 51
126.0344250115917
  0
ARC
  5
33A
100
AcDbEntity
  8
MAIN0
  6
CONTINUOUS
 62
3
100
AcDbCircle
 10
323.6389735824110
 20
231.4857028132446
 30
0.0000000000000000
 40
5.000000000000000
100
AcDbArc
 50
53.96557498612152
 51
124.9999999993253
  0
ARC
  5
33B
100
AcDbEntity
  8
MAIN0
  6
HIDDEN
 62
3
100
AcDbCircle
 10
339.6991138003715
 20
208.5494455729826
 30
0.0000000000000000
 40
32.99999999999966
100
AcDbArc
 50
55.00000000065518
 51
125.0000000000200
  0
ARC
  5
33C
100
AcDbEntity
  8
MAIN0
  6
CONTINUOUS
 62
3
100
AcDbCircle
 10
339.6991138003715
 20
208.5494455729826
 30
0.0000000000000000
 40
32.99999999999966
100
AcDbArc
 50
4.999999999718376
 51
55.00000000065518
  0
ARC
  5
33D
100
AcDbEntity
  8
MAIN0
  6
CONTINUOUS
 62
3
100
AcDbCircle
 10
339.6991138003715
 20
208.5494455729826
 30
0.0000000000000000
 40
32.99999999999966
100
AcDbArc
 50
125.0000000000200
 51
175.0000000003535
  0
ARC
  5
33E
100
AcDbEntity
  8
MAIN0
  6
CONTINUOUS
 62
3
100
AcDbCircle
 10
339.6991138003715
 20
208.5494455729826
 30
0.0000000000000000
 40
32.99999999999966
100
AcDbArc
 50
244.9999999993089
 51
294.9999999999439
  0
ARC
  5
33F
100
AcDbEntity
  8
MAIN0
  6
CONTINUOUS
 62
3
100
AcDbCircle
 10
327.8658024712479
 20
183.1728275359322
 30
0.0000000000000000
 40
5.000000000000000
100
AcDbArc
 50
173.9655749861215
 51
244.9999999993254
  0
ARC
  5
340
100
AcDbEntity
  8
MAIN0
  6
HIDDEN
 62
3
100
AcDbCircle
 10
339.6991138000693
 20
208.5494455731570
 30
0.0000000000000000
 40
32.99999999999966
100
AcDbArc
 50
175.0000000006552
 51
245.0000000000200
  0
ARC
  5
341
100
AcDbEntity
  8
MAIN0
  6
CONTINUOUS
 62
3
100
AcDbCircle
 10
339.6991138000693
 20
208.5494455731570
 30
0.0000000000000000
 40
30.00000000000034
100
AcDbArc
 50
184.0687215466760
 51
235.9312784538367
  0
ARC
  5
342
100
AcDbEntity
  8
MAIN0
  6
CONTINUOUS
 62
3
100
AcDbCircle
 10
311.8056622534889
 20
210.9898063697711
 30
0.0000000000000000
 40
5.000000000000000
100
AcDbArc
 50
175.0000000006747
 51
246.0344250115917
  0
ARC
  5
343
100
AcDbEntity
  8
MAIN0
  6
CONTINUOUS
 62
3
100
AcDbCircle
 10
367.5925653468511
 20
210.9898063697711
 30
0.0000000000000000
 40
5.000000000000000
100
AcDbArc
 50
293.9655749861215
 51
364.9999999993253
  0
ARC
  5
344
100
AcDbEntity
  8
MAIN0
  6
HIDDEN
 62
3
100
AcDbCircle
 10
339.6991138000693
 20
208.5494455728082
 30
0.0000000000000000
 40
32.99999999999966
100
AcDbArc
 50
295.0000000006552
 51
365.0000000000200
  0
ARC
  5
345
100
AcDbEntity
  8
MAIN0
  6
CONTINUOUS
 62
3
100
AcDbCircle
 10
339.6991138000693
 20
208.5494455728082
 30
0.0000000000000000
 40
30.00000000000034
100
AcDbArc
 50
304.0687215466760
 51
355.9312784538367
  0
ARC
  5
346
100
AcDbEntity
  8
MAIN0
  6
CONTINUOUS
 62
3
100
AcDbCircle
 10
351.5324251290921
 20
183.1728275359322
 30
0.0000000000000000
 40
5.000000000000000
100
AcDbArc
 50
295.0000000006747
 51
366.0344250115916
  0
CIRCLE
  5
347
100
AcDbEntity
  8
MAIN0
  6
CONTINUOUS
 62
3
100
AcDbCircle
 10
117.1991138006101
 20
181.7494455733231
 30
0.0000000000000000
 40
3.000000000000000
  0
CIRCLE
  5
348
100
AcDbEntity
  8
MAIN0
  6
CONTINUOUS
 62
3
100
AcDbCircle
 10
117.1991138006101
 20
181.7494455733231
 30
0.0000000000000000
 40
2.500000000000000
  0
CIRCLE
  5
349
100
AcDbEntity
  8
MAIN0
  6
CONTINUOUS
 62
3
100
AcDbCircle
 10
112.1991138004835
 20
238.8494455733121
 30
0.0000000000000000
 40
2.500000000000000
  0
CIRCLE
  5
34A
100
AcDbEntity
  8
MAIN0
  6
CONTINUOUS
 62
3
100
AcDbCircle
 10
112.1991138004835
 20
238.8494455733121
 30
0.0000000000000000
 40
3.000000000000000
  0
CIRCLE
  5
34B
100
AcDbEntity
  8
MAIN0
  6
CONTINUOUS
 62
3
100
AcDbCircle
 10
106.3491138002412
 20
176.5994455732732
 30
0.0000000000000000
 40
1.250000000000000
  0
CIRCLE
  5
34C
100
AcDbEntity
  8
MAIN0
  6
CONTINUOUS
 62
3
100
AcDbCircle
 10
106.3491138002412
 20
176.5994455732732
 30
0.0000000000000000
 40
1.500000000000000
  0
CIRCLE
  5
34D
100
AcDbEntity
  8
MAIN0
  6
CONTINUOUS
 62
3
100
AcDbCircle
 10
72.19911380023419
 20
181.7494455732792
 30
0.0000000000000000
 40
3.000000000000000
  0
CIRCLE
  5
34E
100
AcDbEntity
  8
MAIN0
  6
CONTINUOUS
 62
3
100
AcDbCircle
 10
72.19911380023419
 20
181.7494455732792
 30
0.0000000000000000
 40
2.500000000000000
  0
CIRCLE
  5
34F
100
AcDbEntity
  8
MAIN0
  6
CONTINUOUS
 62
3
100
AcDbCircle
 10
77.19911380024948
 20
238.8494455732780
 30
0.0000000000000000
 40
2.500000000000000
  0
CIRCLE
  5
350
100
AcDbEntity
  8
MAIN0
  6
CONTINUOUS
 62
3
100
AcDbCircle
 10
77.19911380024948
 20
238.8494455732780
 30
0.0000000000000000
 40
3.000000000000000
  0
CIRCLE
  5
351
100
AcDbEntity
  8
MAIN0
  6
CONTINUOUS
 62
3
100
AcDbCircle
 10
83.04911380061316
 20
176.5994455732505
 30
0.0000000000000000
 40
1.250000000000000
  0
CIRCLE
  5
352
100
AcDbEntity
  8
MAIN0
  6
CONTINUOUS
 62
3
100
AcDbCircle
 10
83.04911380061316
 20
176.5994455732505
 30
0.0000000000000000
 40
1.500000000000000
  0
CIRCLE
  5
353
100
AcDbEntity
  8
MAIN0
  6
CONTINUOUS
 62
3
100
AcDbCircle
 10
106.3491138002412
 20
176.5994455732732
 30
0.0000000000000000
 40
1.500000000000000
  0
CIRCLE
  5
354
100
AcDbEntity
  8
MAIN0
  6
CONTINUOUS
 62
3
100
AcDbCircle
 10
106.3491138002412
 20
176.5994455732732
 30
0.0000000000000000
 40
1.229367000000000
  0
LINE
  5
355
100
AcDbEntity
  8
MAIN0
  6
CONTINUOUS
 62
3
100
AcDbLine
 10
106.3491138002412
 20
177.4654709770577
 30
0.0000000000000000
 11
105.5991138002412
 21
177.0324582751654
 31
0.0000000000000000
  0
LINE
  5
356
100
AcDbEntity
  8
MAIN0
  6
CONTINUOUS
 62
3
100
AcDbLine
 10
105.5991138002412
 20
177.0324582751655
 30
0.0000000000000000
 11
105.5991138002412
 21
176.1664328713810
 31
0.0000000000000000
  0
LINE
  5
357
100
AcDbEntity
  8
MAIN0
  6
CONTINUOUS
 62
3
100
AcDbLine
 10
105.5991138002412
 20
176.1664328713810
 30
0.0000000000000000
 11
106.3491138002412
 21
175.7334201694888
 31
0.0000000000000000
  0
LINE
  5
358
100
AcDbEntity
  8
MAIN0
  6
CONTINUOUS
 62
3
100
AcDbLine
 10
106.3491138002412
 20
175.7334201694888
 30
0.0000000000000000
 11
107.0991138002412
 21
176.1664328713810
 31
0.0000000000000000
  0
LINE
  5
359
100
AcDbEntity
  8
MAIN0
  6
CONTINUOUS
 62
3
100
AcDbLine
 10
107.0991138002412
 20
176.1664328713810
 30
0.0000000000000000
 11
107.0991138002412
 21
177.0324582751655
 31
0.0000000000000000
  0
LINE
  5
35A
100
AcDbEntity
  8
MAIN0
  6
CONTINUOUS
 62
3
100
AcDbLine
 10
107.0991138002412
 20
177.0324582751655
 30
0.0000000000000000
 11
106.3491138002412
 21
177.4654709770577
 31
0.0000000000000000
  0
CIRCLE
  5
35B
100
AcDbEntity
  8
MAIN0
  6
CONTINUOUS
 62
3
100
AcDbCircle
 10
83.04911380061319
 20
176.6575575120537
 30
0.0000000000000000
 40
1.500000000000000
  0
CIRCLE
  5
35C
100
AcDbEntity
  8
MAIN0
  6
CONTINUOUS
 62
3
100
AcDbCircle
 10
83.04911380061319
 20
176.6575575120537
 30
0.0000000000000000
 40
1.229367000000000
  0
LINE
  5
35D
100
AcDbEntity
  8
MAIN0
  6
CONTINUOUS
 62
3
100
AcDbLine
 10
83.04911380061321
 20
177.5235829158382
 30
0.0000000000000000
 11
82.29911380061319
 21
177.0905702139459
 31
0.0000000000000000
  0
LINE
  5
35E
100
AcDbEntity
  8
MAIN0
  6
CONTINUOUS
 62
3
100
AcDbLine
 10
82.29911380061319
 20
177.0905702139459
 30
0.0000000000000000
 11
82.29911380061319
 21
176.2245448101615
 31
0.0000000000000000
  0
LINE
  5
35F
100
AcDbEntity
  8
MAIN0
  6
CONTINUOUS
 62
3
100
AcDbLine
 10
82.29911380061316
 20
176.2245448101615
 30
0.0000000000000000
 11
83.04911380061316
 21
175.7915321082693
 31
0.0000000000000000
  0
LINE
  5
360
100
AcDbEntity
  8
MAIN0
  6
CONTINUOUS
 62
3
100
AcDbLine
 10
83.04911380061321
 20
175.7915321082693
 30
0.0000000000000000
 11
83.79911380061320
 21
176.2245448101615
 31
0.0000000000000000
  0
LINE
  5
361
100
AcDbEntity
  8
MAIN0
  6
CONTINUOUS
 62
3
100
AcDbLine
 10
83.79911380061319
 20
176.2245448101615
 30
0.0000000000000000
 11
83.79911380061319
 21
177.0905702139459
 31
0.0000000000000000
  0
LINE
  5
362
100
AcDbEntity
  8
MAIN0
  6
CONTINUOUS
 62
3
100
AcDbLine
 10
83.79911380061317
 20
177.0905702139459
 30
0.0000000000000000
 11
83.04911380061317
 21
177.5235829158382
 31
0.0000000000000000
  0
LINE
  5
363
100
AcDbEntity
  8
MAIN0
  6
CONTINUOUS
 62
3
100
AcDbLine
 10
230.8991138003945
 20
217.5494455729839
 30
0.0000000000000000
 11
230.8991138003983
 21
222.0494455729835
 31
0.0000000000000000
  0
LINE
  5
364
100
AcDbEntity
  8
MAIN0
  6
CONTINUOUS
 62
3
100
AcDbLine
 10
231.0991138003977
 20
222.2494455729828
 30
0.0000000000000000
 11
230.8991138003975
 21
222.0494455729827
 31
0.0000000000000000
  0
ARC
  5
365
100
AcDbEntity
  8
MAIN0
  6
CONTINUOUS
 62
3
100
AcDbCircle
 10
229.8991138003945
 20
217.5494455729848
 30
0.0000000000000000
 40
1.000000000000000
100
AcDbArc
 50
270.0000000000000
 51
360.0000000000000
  0
LINE
  5
366
100
AcDbEntity
  8
MAIN0
  6
CONTINUOUS
 62
3
100
AcDbLine
 10
225.1991138003856
 20
216.5494455729848
 30
0.0000000000000000
 11
229.8991138003945
 21
216.5494455729848
 31
0.0000000000000000
  0
LINE
  5
367
100
AcDbEntity
  8
MAIN0
  6
CONTINUOUS
 62
3
100
AcDbLine
 10
225.1991138003935
 20
201.0494455729848
 30
0.0000000000000000
 11
225.1991138003912
 21
205.5494455729826
 31
0.0000000000000000
  0
LINE
  5
368
100
AcDbEntity
  8
MAIN0
  6
CONTINUOUS
 62
3
100
AcDbLine
 10
225.1991138003934
 20
201.0494455729848
 30
0.0000000000000000
 11
228.6991138003935
 21
201.0494455729848
 31
0.0000000000000000
  0
LINE
  5
369
100
AcDbEntity
  8
MAIN0
  6
CONTINUOUS
 62
3
100
AcDbLine
 10
228.6991138003937
 20
200.5494455729804
 30
0.0000000000000000
 11
228.6991138003935
 21
201.0494455729847
 31
0.0000000000000000
  0
LINE
  5
36A
100
AcDbEntity
  8
MAIN0
  6
CONTINUOUS
 62
3
100
AcDbLine
 10
228.6991138003937
 20
200.5494455729804
 30
0.0000000000000000
 11
229.8991138003943
 21
200.5494455729804
 31
0.0000000000000000
  0
ARC
  5
36B
100
AcDbEntity
  8
MAIN0
  6
CONTINUOUS
 62
3
100
AcDbCircle
 10
229.8991138003943
 20
199.5494455729804
 30
0.0000000000000000
 40
1.000000000000000
100
AcDbArc
 50
0.0000000000000000
 51
90.00000000000000
  0
LINE
  5
36C
100
AcDbEntity
  8
MAIN0
  6
CONTINUOUS
 62
3
100
AcDbLine
 10
230.8991138003943
 20
199.5494455729810
 30
0.0000000000000000
 11
230.8991138003969
 21
195.0494455729820
 31
0.0000000000000000
  0
LINE
  5
36D
100
AcDbEntity
  8
MAIN0
  6
CONTINUOUS
 62
3
100
AcDbLine
 10
231.0991138003964
 20
194.8494455729827
 30
0.0000000000000000
 11
230.8991138003963
 21
195.0494455729827
 31
0.0000000000000000
  0
LINE
  5
36E
100
AcDbEntity
  8
MAIN0
  6
CONTINUOUS
 62
3
100
AcDbLine
 10
225.1991138003897
 20
211.5494455729826
 30
0.0000000000000000
 11
225.1991138003897
 21
216.5494455729826
 31
0.0000000000000000
  0
LINE
  5
36F
100
AcDbEntity
  8
MAIN0
  6
CONTINUOUS
 62
3
100
AcDbLine
 10
238.7991138003955
 20
214.4494455729836
 30
0.0000000000000000
 11
238.3991138003955
 21
214.0494455729836
 31
0.0000000000000000
  0
LINE
  5
370
100
AcDbEntity
  8
MAIN0
  6
CONTINUOUS
 62
3
100
AcDbLine
 10
238.3991138003955
 20
214.0494455729835
 30
0.0000000000000000
 11
232.7991138003955
 21
214.0494455729835
 31
0.0000000000000000
  0
LINE
  5
371
100
AcDbEntity
  8
MAIN0
  6
CONTINUOUS
 62
3
100
AcDbLine
 10
232.7991138003955
 20
214.0494455729835
 30
0.0000000000000000
 11
232.7991138003955
 21
203.0494455729835
 31
0.0000000000000000
  0
LINE
  5
372
100
AcDbEntity
  8
MAIN0
  6
CONTINUOUS
 62
3
100
AcDbLine
 10
232.7991138003955
 20
211.8494455729835
 30
0.0000000000000000
 11
225.5991138003893
 21
211.8494455729826
 31
0.0000000000000000
  0
LINE
  5
373
100
AcDbEntity
  8
MAIN0
  6
CONTINUOUS
 62
3
100
AcDbLine
 10
225.5991138003894
 20
211.8494455729827
 30
0.0000000000000000
 11
225.1991138003893
 21
212.2494455729827
 31
0.0000000000000000
  0
LINE
  5
374
100
AcDbEntity
  8
MAIN0
  6
CONTINUOUS
 62
3
100
AcDbLine
 10
225.5991138003892
 20
205.2494455729826
 30
0.0000000000000000
 11
225.1991138003893
 21
204.8494455729827
 31
0.0000000000000000
  0
LINE
  5
375
100
AcDbEntity
  8
MAIN0
  6
CONTINUOUS
 62
3
100
AcDbLine
 10
232.7991138003955
 20
205.2494455729835
 30
0.0000000000000000
 11
225.5991138003893
 21
205.2494455729826
 31
0.0000000000000000
  0
LINE
  5
376
100
AcDbEntity
  8
MAIN0
  6
CONTINUOUS
 62
3
100
AcDbLine
 10
232.7991138003955
 20
203.0494455729835
 30
0.0000000000000000
 11
238.3991138003955
 21
203.0494455729835
 31
0.0000000000000000
  0
LINE
  5
377
100
AcDbEntity
  8
MAIN0
  6
CONTINUOUS
 62
3
100
AcDbLine
 10
238.3991138003953
 20
203.0494455729837
 30
0.0000000000000000
 11
238.7991138003953
 21
202.6494455729836
 31
0.0000000000000000
  0
LINE
  5
378
100
AcDbEntity
  8
MAIN0
  6
CONTINUOUS
 62
3
100
AcDbLine
 10
238.7991138003953
 20
216.3073037432716
 30
0.0000000000000000
 11
238.7991138003937
 21
200.4494455729833
 31
0.0000000000000000
  0
LINE
  5
379
100
AcDbEntity
  8
MAIN0
  6
CONTINUOUS
 62
3
100
AcDbLine
 10
239.1991138003937
 20
200.0494455729833
 30
0.0000000000000000
 11
245.1991138003934
 21
200.0494455729821
 31
0.0000000000000000
  0
ARC
  5
37A
100
AcDbEntity
  8
MAIN0
  6
CONTINUOUS
 62
3
100
AcDbCircle
 10
239.1991138003938
 20
200.4494455729833
 30
0.0000000000000000
 40
0.4000000000000000
100
AcDbArc
 50
180.0000000000000
 51
270.0000000000000
  0
ARC
  5
37B
100
AcDbEntity
  8
MAIN0
  6
CONTINUOUS
 62
3
100
AcDbCircle
 10
245.1991138003935
 20
200.4494455729821
 30
0.0000000000000000
 40
0.4000000000000000
100
AcDbArc
 50
270.0000000000000
 51
360.0000000000000
  0
LINE
  5
37C
100
AcDbEntity
  8
MAIN0
  6
CONTINUOUS
 62
3
100
AcDbLine
 10
245.5991138003929
 20
201.8994455729821
 30
0.0000000000000000
 11
245.5991138003936
 21
200.4494455729822
 31
0.0000000000000000
  0
LINE
  5
37D
100
AcDbEntity
  8
MAIN0
  6
CONTINUOUS
 62
3
100
AcDbLine
 10
245.5991138003929
 20
201.8994455729821
 30
0.0000000000000000
 11
245.9991138003927
 21
202.2994455729822
 31
0.0000000000000000
  0
LINE
  5
37E
100
AcDbEntity
  8
MAIN0
  6
CONTINUOUS
 62
3
100
AcDbLine
 10
245.9991138003927
 20
202.2994455729821
 30
0.0000000000000000
 11
251.2991138003927
 21
202.2994455729826
 31
0.0000000000000000
  0
LINE
  5
37F
100
AcDbEntity
  8
MAIN0
  6
CONTINUOUS
 62
3
100
AcDbLine
 10
251.2991138003927
 20
202.2994455729826
 30
0.0000000000000000
 11
251.6991138003929
 21
201.8994455729826
 31
0.0000000000000000
  0
LINE
  5
380
100
AcDbEntity
  8
MAIN0
  6
CONTINUOUS
 62
3
100
AcDbLine
 10
225.1991138003935
 20
201.0494455729848
 30
0.0000000000000000
 11
225.1991138003912
 21
205.5494455729826
 31
0.0000000000000000
  0
POINT
  5
381
100
AcDbEntity
  8
MAIN0
  6
CONTINUOUS
 62
3
100
AcDbPoint
 10
251.1709934301281
 20
130.0311945586448
 30
0.0000000000000000
  0
LINE
  5
382
100
AcDbEntity
  8
MAIN0
  6
CONTINUOUS
 62
3
100
AcDbLine
 10
251.1709934301281
 20
131.7811945586448
 30
0.0000000000000000
 11
251.6709934301281
 21
131.2811945586448
 31
0.0000000000000000
  0
LINE
  5
383
100
AcDbEntity
  8
MAIN0
  6
CONTINUOUS
 62
3
100
AcDbLine
 10
251.6709934301281
 20
131.2811945586448
 30
0.0000000000000000
 11
251.6709934301281
 21
128.7811945586448
 31
0.0000000000000000
  0
LINE
  5
384
100
AcDbEntity
  8
MAIN0
  6
CONTINUOUS
 62
3
100
AcDbLine
 10
251.6709934301281
 20
128.7811945586448
 30
0.0000000000000000
 11
251.1709934301281
 21
128.2811945586448
 31
0.0000000000000000
  0
LINE
  5
385
100
AcDbEntity
  8
MAIN0
  6
CONTINUOUS
 62
3
100
AcDbLine
 10
251.4209934301281
 20
131.5311945586448
 30
0.0000000000000000
 11
255.1709934301281
 21
131.5311945586448
 31
0.0000000000000000
  0
LINE
  5
386
100
AcDbEntity
  8
MAIN0
  6
CONTINUOUS
 62
3
100
AcDbLine
 10
255.1709934301281
 20
131.5311945586448
 30
0.0000000000000000
 11
255.1709934301281
 21
128.5311945586448
 31
0.0000000000000000
  0
LINE
  5
387
100
AcDbEntity
  8
MAIN0
  6
CONTINUOUS
 62
3
100
AcDbLine
 10
255.1709934301281
 20
128.5311945586448
 30
0.0000000000000000
 11
251.4209934301281
 21
128.5311945586448
 31
0.0000000000000000
  0
LINE
  5
388
100
AcDbEntity
  8
MAIN0
  6
CONTINUOUS
 62
3
100
AcDbLine
 10
251.6709934301281
 20
131.2811945586448
 30
0.0000000000000000
 11
261.1709934301281
 21
131.2811945586448
 31
0.0000000000000000
  0
LINE
  5
389
100
AcDbEntity
  8
MAIN0
  6
CONTINUOUS
 62
3
100
AcDbLine
 10
261.1709934301281
 20
128.7811945586448
 30
0.0000000000000000
 11
251.6709934301281
 21
128.7811945586448
 31
0.0000000000000000
  0
LINE
  5
38A
100
AcDbEntity
  8
MAIN0
  6
CONTINUOUS
 62
3
100
AcDbLine
 10
222.1358992985304
 20
102.6156908350526
 30
0.0000000000000000
 11
280.8685766920745
 21
102.6156908350520
 31
0.0000000000000000
  0
MTEXT
  5
38B
100
AcDbEntity
  8
MAIN0
  6
CONTINUOUS
 62
3
100
AcDbMText
 10
238.6839006975025
 20
106.1824706786016
 30
0.0000000000000000
 40
3.099999904632568
 41
0.0000000000000000
 44
0.6677419652551825
 71
     1
 72
     1
  1
{\H0.93x;{ベース配管詳細}}
 11
1.000000000000000
 21
0.0000000000000000
 31
0.0000000000000000
  7
KNJYOKO
  0
LINE
  5
38C
100
AcDbEntity
  8
MAIN0
  6
CONTINUOUS
 62
3
100
AcDbLine
 10
241.1709934301280
 20
123.6778604711099
 30
0.0000000000000000
 11
241.1709934301283
 21
136.3845286461949
 31
0.0000000000000000
  0
LINE
  5
38D
100
AcDbEntity
  8
MAIN0
  6
CENTER
 62
3
100
AcDbLine
 10
240.1868425503707
 20
130.0311945586454
 30
0.0000000000000000
 11
262.0171867495621
 21
130.0311945586444
 31
0.0000000000000000
  0
LINE
  5
38E
100
AcDbEntity
  8
MAIN0
  6
CONTINUOUS
 62
3
100
AcDbLine
 10
241.1709934301281
 20
131.5311945586454
 30
0.0000000000000000
 11
250.1709934301281
 21
131.5311945586449
 31
0.0000000000000000
  0
LINE
  5
38F
100
AcDbEntity
  8
MAIN0
  6
CONTINUOUS
 62
3
100
AcDbLine
 10
241.1709934301280
 20
128.5311945586454
 30
0.0000000000000000
 11
250.1709934301280
 21
128.5311945586449
 31
0.0000000000000000
  0
LINE
  5
390
100
AcDbEntity
  8
MAIN0
  6
CONTINUOUS
 62
3
100
AcDbLine
 10
251.1709934301280
 20
123.6778604711096
 30
0.0000000000000000
 11
251.1709934301283
 21
136.3845286461947
 31
0.0000000000000000
  0
LINE
  5
391
100
AcDbEntity
  8
MAIN0
  6
CONTINUOUS
 62
3
100
AcDbLine
 10
250.1709934301281
 20
133.3311945586449
 30
0.0000000000000000
 11
251.1709934301281
 21
133.3311945586448
 31
0.0000000000000000
  0
LINE
  5
392
100
AcDbEntity
  8
MAIN0
  6
CONTINUOUS
 62
3
100
AcDbLine
 10
250.1709934301279
 20
126.7311945586449
 30
0.0000000000000000
 11
251.1709934301279
 21
126.7311945586448
 31
0.0000000000000000
  0
LINE
  5
393
100
AcDbEntity
  8
MAIN0
  6
CONTINUOUS
 62
3
100
AcDbLine
 10
250.1709934301282
 20
133.3311945586448
 30
0.0000000000000000
 11
250.1709934301280
 21
126.7311945586448
 31
0.0000000000000000
  0
LINE
  5
394
100
AcDbEntity
  8
MAIN0
  6
CONTINUOUS
 62
3
100
AcDbLine
 10
241.1709934301282
 20
136.3845286461808
 30
0.0000000000000000
 11
261.1709934301282
 21
136.3845286461793
 31
0.0000000000000000
  0
LINE
  5
395
100
AcDbEntity
  8
MAIN0
  6
CONTINUOUS
 62
3
100
AcDbLine
 10
241.1709934301280
 20
123.6778604711099
 30
0.0000000000000000
 11
261.1709934301280
 21
123.6778604711094
 31
0.0000000000000000
  0
MTEXT
  5
396
100
AcDbEntity
  8
MAIN0
  6
CONTINUOUS
 62
3
100
AcDbMText
 10
217.9057803286151
 20
116.3213949931865
 30
0.0000000000000000
 40
3.099999904632568
 41
0.0000000000000000
 44
0.7741935722041460
 71
     1
 72
     1
  1
{\H0.71x;{(お客様にて手配)\P(Customer prepare)}}
 11
1.000000000000000
 21
0.0000000000000000
 31
0.0000000000000000
  7
KNJYOKO
  0
LINE
  5
397
100
AcDbEntity
  8
MAIN0
  6
CONTINUOUS
 62
3
100
AcDbLine
 10
261.1709934301280
 20
123.6778604711094
 30
0.0000000000000000
 11
261.1709934301283
 21
136.3845286461944
 31
0.0000000000000000
  0
POINT
  5
398
100
AcDbEntity
  8
MAIN0
  6
CONTINUOUS
 62
3
100
AcDbPoint
 10
251.1709934301281
 20
130.0311945586448
 30
0.0000000000000000
  0
LEADER
  5
399
100
AcDbEntity
  8
MAIN0
  6
CONTINUOUS
 62
3
100
AcDbLeader
  3
MAIN001
 73
     0
 75
     1
 40
3.099999904632568
 41
14.59900000894069
 76
     3
 10
242.6193535375656
 20
125.3344211318028
 30
0.0000000000000000
 10
234.7060846052019
 20
120.8672538928785
 30
0.0000000000000000
 10
232.9190846578626
 20
120.8672538928785
 30
0.0000000000000000
340
39A
213
0.0000000000000000
223
-0.5000000000000000
233
0.0000000000000000
1001
ACAD
1000
DSTYLE
1002
{
1070
   147
1040
0.0
1070
    77
1070
     1
1070
   341
1005
B
1070
    41
1040
1.000000
1002
}
  0
MTEXT
  5
39A
102
{ACAD_REACTORS
330
399
102
}
100
AcDbEntity
  8
MAIN0
  6
CONTINUOUS
 62
3
100
AcDbMText
 10
218.3200846489220
 20
124.4672537975111
 30
0.0000000000000000
 40
3.099999904632568
 41
0.0000000000000000
 44
0.7935483930510365
 71
     1
 72
     1
  1
{\H0.70x;{アダプタ\PAdaptor}}
 11
1.000000000000000
 21
0.0000000000000000
 31
0.0000000000000000
  7
KNJYOKO
  0
LEADER
  5
39B
100
AcDbEntity
  8
MAIN0
  6
CONTINUOUS
 62
3
100
AcDbLeader
  3
MAIN001
 73
     0
 74
     0
 75
     1
 40
3.099999904632568
 41
14.60100000894073
 76
     3
 10
254.3985034921817
 20
126.1730864813380
 30
0.0000000000000000
 10
260.9071181184583
 20
115.6785970776825
 30
0.0000000000000000
 10
262.6921180657976
 20
115.6785970776825
 30
0.0000000000000000
340
39C
213
-0.001000000000033197
223
-0.5000000000000000
233
0.0000000000000000
1001
ACAD
1000
DSTYLE
1002
{
1070
   147
1040
0.0
1070
    77
1070
     1
1070
   341
1005
B
1070
    41
1040
1.000000
1002
}
  0
MTEXT
  5
39C
102
{ACAD_REACTORS
330
39B
102
}
100
AcDbEntity
  8
MAIN0
  6
CONTINUOUS
 62
3
100
AcDbMText
 10
262.6931180657977
 20
119.2785969823150
 30
0.0000000000000000
 40
3.099999904632568
 41
0.0000000000000000
 44
0.7935483930510365
 71
     1
 72
     1
  1
{\H0.70x;{グリッパ\PGripper}}
 11
1.000000000000000
 21
0.0000000000000000
 31
0.0000000000000000
  7
KNJYOKO
  0
LEADER
  5
39D
100
AcDbEntity
  8
MAIN0
  6
CONTINUOUS
 62
3
100
AcDbLeader
  3
MAIN001
 73
     0
 74
     0
 75
     1
 40
3.099999904632568
 41
17.10100000894073
 76
     3
 10
251.2067798256048
 20
132.8954081631685
 30
0.0000000000000000
 10
260.7548196789444
 20
143.3970938716185
 30
0.0000000000000000
 10
262.5398196262838
 20
143.3970938716185
 30
0.0000000000000000
340
39E
213
-0.001000000000033197
223
-0.5000000000000000
233
0.0000000000000000
1001
ACAD
1000
DSTYLE
1002
{
1070
   147
1040
0.0
1070
    77
1070
     1
1070
   341
1005
13
1070
    41
1040
2.000000
1002
}
  0
MTEXT
  5
39E
102
{ACAD_REACTORS
330
39D
102
}
100
AcDbEntity
  8
MAIN0
  6
CONTINUOUS
 62
3
100
AcDbMText
 10
262.5408196262838
 20
146.9970937762511
 30
0.0000000000000000
 40
3.099999904632568
 41
0.0000000000000000
 44
0.7935483930510365
 71
     1
 72
     1
  1
{\H0.70x;{Ｏリング　S4\PO-ring\P}
 11
1.000000000000000
 21
0.0000000000000000
 31
0.0000000000000000
  7
KNJYOKO
  0
MTEXT
  5
39F
100
AcDbEntity
  8
MAIN0
  6
CONTINUOUS
 62
3
100
AcDbMText
 10
223.1784901459144
 20
102.0344445278965
 30
0.0000000000000000
 40
3.099999904632568
 41
0.0000000000000000
 44
0.7741935722041460
 71
     1
 72
     1
  1
{\H0.71x;{Ditail of direct connecting}}
 11
1.000000000000000
 21
0.0000000000000000
 31
0.0000000000000000
  7
STANDARD
  0
ELLIPSE
  5
3A0
100
AcDbEntity
  8
MAIN0
  6
CONTINUOUS
 62
3
100
AcDbEllipse
 10
250.6709934301282
 20
132.5811945586448
 30
0.0000000000000000
 11
0.0000000000000000
 21
0.7500000000000000
 31
0.0000000000000000
210
0.0000000000000000
220
0.0000000000000000
230
1.000000000000000
 40
0.6666666666666666
 41
0.0000000000000000
 42
6.283185307179586
  0
ELLIPSE
  5
3A1
100
AcDbEntity
  8
MAIN0
  6
CONTINUOUS
 62
3
100
AcDbEllipse
 10
250.6709934301279
 20
127.4811945586449
 30
0.0000000000000000
 11
0.0000000000000000
 21
-0.7500000000000000
 31
0.0000000000000000
210
0.0000000000000000
220
0.0000000000000000
230
1.000000000000000
 40
0.6666666666666666
 41
0.0000000000000000
 42
6.283185307179586
  0
DIMENSION
  5
3AC
100
AcDbEntity
  8
MAIN0
  6
CONTINUOUS
 62
3
100
AcDbDimension
  2
*D35
 10
235.5160987871251
 20
131.5311945586453
 30
0.0000000000000000
 11
235.0160987871251
 21
136.5633621193074
 31
0.0000000000000000
 70
160
 71
5
  1
\A1;\U+22053
 42
3.000000
  3
MAIN001
100
AcDbAlignedDimension
 13
241.1709934301281
 23
128.5311945586453
 33
0.0000000000000000
 14
241.1709934301281
 24
131.5311945586453
 34
0.0000000000000000
 50
90.00000000000000
100
AcDbRotatedDimension
1001
ACAD
1000
DSTYLE
1002
{
1070
   173
1070
     1
1070
     6
1000
_OPEN
1070
     7
1000
_OPEN
1070
    41
1040
2.000000
1070
   289
1070
     0
1002
}
  0
DIMENSION
  5
3B6
100
AcDbEntity
  8
MAIN0
  6
CONTINUOUS
 62
3
100
AcDbDimension
  2
*D36
 10
227.9767866752847
 20
133.3311945586449
 30
0.0000000000000000
 11
227.4767866752847
 21
138.0365585868837
 31
0.0000000000000000
 70
160
 71
5
  1
\A1;\U+22056.6
 42
6.600000
  3
MAIN001
100
AcDbAlignedDimension
 13
250.1709934301280
 23
126.7311945586449
 33
0.0000000000000000
 14
250.1709934301282
 24
133.3311945586449
 34
0.0000000000000000
 50
90.00000000000000
100
AcDbRotatedDimension
1001
ACAD
1000
DSTYLE
1002
{
1070
   173
1070
     1
1070
     6
1000
_OPEN
1070
     7
1000
_OPEN
1070
    41
1040
2.000000
1002
}
  0
DIMENSION
  5
3C1
100
AcDbEntity
  8
MAIN0
  6
CONTINUOUS
 62
3
100
AcDbDimension
  2
*D37
 10
251.1709934301281
 20
120.3368324393036
 30
0.0000000000000000
 11
247.9121606284269
 21
120.6701657726370
 31
0.0000000000000000
 70
160
 71
5
 42
1.000000
  3
MAIN001
100
AcDbAlignedDimension
 13
250.1709934301280
 23
126.7311945586449
 33
0.0000000000000000
 14
251.1709934301280
 24
123.6778604711096
 34
0.0000000000000000
100
AcDbRotatedDimension
1001
ACAD
1000
DSTYLE
1002
{
1070
   173
1070
     1
1070
     6
1000
_OPEN
1070
     7
1000
_OPEN
1070
    41
1040
2.000000
1070
   289
1070
     0
1002
}
  0
INSERT
  5
3D3
100
AcDbEntity
  8
MAIN0
  6
CONTINUOUS
 62
3
100
AcDbBlockReference
  2
*X0
 10
0.0000000000000000
 20
0.0000000000000000
 30
0.0000000000000000
 50
0.0000000000000000
  0
INSERT
  5
3E4
100
AcDbEntity
  8
MAIN0
  6
CONTINUOUS
 62
3
100
AcDbBlockReference
  2
*X1
 10
0.0000000000000000
 20
0.0000000000000000
 30
0.0000000000000000
 50
0.0000000000000000
  0
INSERT
  5
3EE
100
AcDbEntity
  8
MAIN0
  6
CONTINUOUS
 62
3
100
AcDbBlockReference
  2
*X2
 10
0.0000000000000000
 20
0.0000000000000000
 30
0.0000000000000000
 50
0.0000000000000000
  0
INSERT
  5
3F8
100
AcDbEntity
  8
MAIN0
  6
CONTINUOUS
 62
3
100
AcDbBlockReference
  2
*X3
 10
0.0000000000000000
 20
0.0000000000000000
 30
0.0000000000000000
 50
0.0000000000000000
  0
LINE
  5
3F9
100
AcDbEntity
  8
MAIN0
  6
CONTINUOUS
 62
3
100
AcDbLine
 10
57.19911380027244
 20
208.5494455726586
 30
0.0000000000000000
 11
62.19911380027131
 21
208.5494455726664
 31
0.0000000000000000
  0
LINE
  5
3FA
100
AcDbEntity
  8
MAIN0
  6
CONTINUOUS
 62
3
100
AcDbLine
 10
59.69911380025988
 20
206.0494455728142
 30
0.0000000000000000
 11
59.69911380026267
 21
211.0494455728142
 31
0.0000000000000000
  0
HATCH
  5
3FB
100
AcDbEntity
  8
MAIN0
  6
CONTINUOUS
 62
3
100
AcDbHatch
 10
0.000000
 20
0.000000
 30
0.000000
210
0.000000
220
0.000000
230
1.000000
  2
SOLID
 70
1
 71
0
 91
2
 92
7
 72
1
 73
1
 93
3
 10
59.69911380026133
 20
208.5494455726625
 42
0.0000000000000000
 10
59.69911380026269
 20
211.0494455728142
 42
-0.4142135623915505
 10
62.19911380027236
 20
208.5494455726664
 42
0.0000000000000000
 97
0
 92
7
 72
1
 73
1
 93
3
 10
59.69911380025991
 20
206.0494455728142
 42
-0.4142135623534061
 10
57.19911380027236
 20
208.5494455726586
 42
0.0000000000000000
 10
59.69911380026133
 20
208.5494455726625
 42
0.0000000000000000
 97
0
 75
0
 76
1
 47
0.100000
 98
1
 10
0.000000
 20
0.000000
  0
LINE
  5
3FC
100
AcDbEntity
  8
MAIN0
  6
CONTINUOUS
 62
3
100
AcDbLine
 10
127.1991138005198
 20
208.5494455727268
 30
0.0000000000000000
 11
132.1991138005186
 21
208.5494455727347
 31
0.0000000000000000
  0
LINE
  5
3FD
100
AcDbEntity
  8
MAIN0
  6
CONTINUOUS
 62
3
100
AcDbLine
 10
129.6991138005072
 20
206.0494455728824
 30
0.0000000000000000
 11
129.6991138005100
 21
211.0494455728824
 31
0.0000000000000000
  0
HATCH
  5
3FE
100
AcDbEntity
  8
MAIN0
  6
CONTINUOUS
 62
3
100
AcDbHatch
 10
0.000000
 20
0.000000
 30
0.000000
210
0.000000
220
0.000000
230
1.000000
  2
SOLID
 70
1
 71
0
 91
2
 92
7
 72
1
 73
1
 93
3
 10
129.6991138005087
 20
208.5494455727308
 42
0.0000000000000000
 10
129.6991138005100
 20
211.0494455728824
 42
-0.4142135623915391
 10
132.1991138005197
 20
208.5494455727347
 42
0.0000000000000000
 97
0
 92
7
 72
1
 73
1
 93
3
 10
129.6991138005072
 20
206.0494455728824
 42
-0.4142135623534176
 10
127.1991138005197
 20
208.5494455727268
 42
0.0000000000000000
 10
129.6991138005087
 20
208.5494455727308
 42
0.0000000000000000
 97
0
 75
0
 76
1
 47
0.100000
 98
1
 10
0.000000
 20
0.000000
  0
LINE
  5
3FF
100
AcDbEntity
  8
WAKU0
  6
CONTINUOUS
 62
3
100
AcDbLine
 10
240.0000000000000
 20
51.00000000000000
 30
0.0000000000000000
 11
410.0000000000000
 21
51.00000000000000
 31
0.0000000000000000
  0
LINE
  5
400
100
AcDbEntity
  8
WAKU0
  6
CONTINUOUS
 62
3
100
AcDbLine
 10
240.0000000000000
 20
51.00000000000000
 30
0.0000000000000000
 11
240.0000000000000
 21
12.00000000000000
 31
0.0000000000000000
  0
LINE
  5
401
100
AcDbEntity
  8
WAKU0
  6
CONTINUOUS
 62
3
100
AcDbLine
 10
312.0000000000000
 20
51.00000000000000
 30
0.0000000000000000
 11
312.0000000000000
 21
12.00000000000000
 31
0.0000000000000000
  0
LINE
  5
402
100
AcDbEntity
  8
WAKU0
  6
CONTINUOUS
 62
3
100
AcDbLine
 10
332.0000000000000
 20
51.00000000000000
 30
0.0000000000000000
 11
332.0000000000000
 21
12.00000000000000
 31
0.0000000000000000
  0
LINE
  5
403
100
AcDbEntity
  8
WAKU0
  6
CONTINUOUS
 62
3
100
AcDbLine
 10
344.0000000000000
 20
51.00000000000000
 30
0.0000000000000000
 11
344.0000000000000
 21
12.00000000000000
 31
0.0000000000000000
  0
LINE
  5
404
100
AcDbEntity
  8
WAKU0
  6
CONTINUOUS
 62
3
100
AcDbLine
 10
344.0000000000000
 20
37.00000000000000
 30
0.0000000000000000
 11
410.0000000000000
 21
37.00000000000000
 31
0.0000000000000000
  0
LINE
  5
405
100
AcDbEntity
  8
WAKU0
  6
CONTINUOUS
 62
3
100
AcDbLine
 10
332.0000000000000
 20
23.00000000000000
 30
0.0000000000000000
 11
410.0000000000000
 21
23.00000000000000
 31
0.0000000000000000
  0
LINE
  5
406
100
AcDbEntity
  8
WAKU0
  6
CONTINUOUS
 62
3
100
AcDbLine
 10
375.0000000000000
 20
51.00000000000000
 30
0.0000000000000000
 11
375.0000000000000
 21
44.00000000000000
 31
0.0000000000000000
  0
LINE
  5
407
100
AcDbEntity
  8
WAKU0
  6
CONTINUOUS
 62
3
100
AcDbLine
 10
387.0000000000000
 20
51.00000000000000
 30
0.0000000000000000
 11
387.0000000000000
 21
44.00000000000000
 31
0.0000000000000000
  0
LINE
  5
408
100
AcDbEntity
  8
WAKU0
  6
CONTINUOUS
 62
3
100
AcDbLine
 10
312.0000000000000
 20
31.50000000000000
 30
0.0000000000000000
 11
332.0000000000000
 21
31.50000000000000
 31
0.0000000000000000
  0
LINE
  5
409
100
AcDbEntity
  8
WAKU0
  6
CONTINUOUS
 62
3
100
AcDbLine
 10
332.0000000000000
 20
44.00000000000000
 30
0.0000000000000000
 11
410.0000000000000
 21
44.00000000000000
 31
0.0000000000000000
  0
LINE
  5
40A
100
AcDbEntity
  8
WAKU0
  6
CONTINUOUS
 62
3
100
AcDbLine
 10
240.0000000000000
 20
37.00000000000000
 30
0.0000000000000000
 11
312.0000000000000
 21
37.00000000000000
 31
0.0000000000000000
  0
LINE
  5
40B
100
AcDbEntity
  8
WAKU0
  6
CONTINUOUS
 62
3
100
AcDbLine
 10
240.0000000000000
 20
23.00000000000000
 30
0.0000000000000000
 11
312.0000000000000
 21
23.00000000000000
 31
0.0000000000000000
  0
LINE
  5
40C
100
AcDbEntity
  8
WAKU0
  6
CONTINUOUS
 62
3
100
AcDbLine
 10
288.0000000000000
 20
37.00000000000000
 30
0.0000000000000000
 11
288.0000000000000
 21
12.00000000000000
 31
0.0000000000000000
  0
LINE
  5
40D
100
AcDbEntity
  8
WAKU0
  6
CONTINUOUS
 62
3
100
AcDbLine
 10
264.0000000000000
 20
37.00000000000000
 30
0.0000000000000000
 11
264.0000000000000
 21
23.00000000000000
 31
0.0000000000000000
  0
LINE
  5
40E
100
AcDbEntity
  8
WAKU0
  6
CONTINUOUS
 62
3
100
AcDbLine
 10
300.0000000000000
 20
26.00000000000000
 30
0.0000000000000000
 11
300.0000000000000
 21
23.00000000000000
 31
0.0000000000000000
  0
LINE
  5
40F
100
AcDbEntity
  8
WAKU0
  6
CONTINUOUS
 62
3
100
AcDbLine
 10
276.0000000000000
 20
26.00000000000000
 30
0.0000000000000000
 11
276.0000000000000
 21
23.00000000000000
 31
0.0000000000000000
  0
LINE
  5
410
100
AcDbEntity
  8
WAKU0
  6
CONTINUOUS
 62
3
100
AcDbLine
 10
252.0000000000000
 20
26.00000000000000
 30
0.0000000000000000
 11
252.0000000000000
 21
23.00000000000000
 31
0.0000000000000000
  0
LINE
  5
411
100
AcDbEntity
  8
WAKU0
  6
CONTINUOUS
 62
3
100
AcDbLine
 10
258.0000000000000
 20
51.00000000000000
 30
0.0000000000000000
 11
258.0000000000000
 21
37.00000000000000
 31
0.0000000000000000
  0
LINE
  5
412
100
AcDbEntity
  8
WAKU0
  6
CONTINUOUS
 62
3
100
AcDbLine
 10
240.0000000000000
 20
45.00000000000000
 30
0.0000000000000000
 11
312.0000000000000
 21
45.00000000000000
 31
0.0000000000000000
  0
LINE
  5
413
100
AcDbEntity
  8
WAKU0
  6
HIDDEN
 62
3
100
AcDbLine
 10
360.5000000000000
 20
23.00000000000000
 30
0.0000000000000000
 11
360.5000000000000
 21
12.00000000000000
 31
0.0000000000000000
  0
LINE
  5
414
100
AcDbEntity
  8
WAKU0
  6
HIDDEN
 62
3
100
AcDbLine
 10
372.9000000000000
 20
23.00000000000000
 30
0.0000000000000000
 11
372.9000000000000
 21
12.00000000000000
 31
0.0000000000000000
  0
MTEXT
  5
415
100
AcDbEntity
  8
WAKU0
  6
CONTINUOUS
 62
3
100
AcDbMText
 10
344.4820000243485
 20
49.04999995231628
 30
0.0000000000000000
 40
3.099999904632568
 41
0.0000000000000000
 44
0.8806452252986423
 71
     1
 72
     1
  1
{\H0.92x;{QGB08}}
 11
1.000000000000000
 21
0.0000000000000000
 31
0.0000000000000000
  7
STANDARD
  0
MTEXT
  5
416
100
AcDbEntity
  8
WAKU0
  6
CONTINUOUS
 62
3
100
AcDbMText
 10
365.3900001943111
 20
43.50000000000000
 30
0.0000000000000000
 40
3.000000000000000
 41
0.0000000000000000
 44
0.6000000000000000
 71
     1
 72
     1
  1
{\H0.93x;{グリッパ\PＧＲＩＰＰＥＲ}}
 11
1.000000000000000
 21
0.0000000000000000
 31
0.0000000000000000
  7
KNJYOKO
  0
MTEXT
  5
417
100
AcDbEntity
  8
WAKU0
  6
CONTINUOUS
 62
3
100
AcDbMText
 10
345.8699992895126
 20
34.23333326975504
 30
0.0000000000000000
 40
3.099999904632568
 41
0.0000000000000000
 44
1.038709733984847
 71
     1
 72
     1
  1
{\H0.94x;{ＱＧＢ０８　ガイケイ\PＱＧＢ０８　ＯＵＴＳＩＤＥ　ＶＩＥＷ}}
 11
1.000000000000000
 21
0.0000000000000000
 31
0.0000000000000000
  7
KNJYOKO
  0
MTEXT
  5
418
100
AcDbEntity
  8
WAKU0
  6
CONTINUOUS
 62
3
100
AcDbMText
 10
318.0049998760223
 20
39.29999995231628
 30
0.0000000000000000
 40
3.099999904632568
 41
0.0000000000000000
 44
1.412903306188993
 71
     1
 72
     1
  1
{\H0.90x;{1:1}}
 11
1.000000000000000
 21
0.0000000000000000
 31
0.0000000000000000
  7
STANDARD
  0
MTEXT
  5
419
100
AcDbEntity
  8
WAKU0
  6
CONTINUOUS
 62
3
100
AcDbMText
 10
374.4000001549721
 20
20.15000009536743
 30
0.0000000000000000
 40
5.300000190734863
 41
0.0000000000000000
 44
0.8660377154786555
 71
     1
 72
     1
  1
{\H0.90x;{1488}}
 11
1.000000000000000
 21
0.0000000000000000
 31
0.0000000000000000
  7
STANDARD
  0
MTEXT
  5
41A
100
AcDbEntity
  8
WAKU0
  6
CONTINUOUS
 62
3
100
AcDbMText
 10
362.3000000834465
 20
20.15000009536743
 30
0.0000000000000000
 40
5.300000190734863
 41
0.0000000000000000
 44
0.8660377154786555
 71
     1
 72
     1
  1
{\H0.87x;{84}}
 11
1.000000000000000
 21
0.0000000000000000
 31
0.0000000000000000
  7
STANDARD
  0
MTEXT
  5
41B
100
AcDbEntity
  8
WAKU0
  6
CONTINUOUS
 62
3
100
AcDbMText
 10
345.5000001192093
 20
20.15000009536743
 30
0.0000000000000000
 40
5.300000190734863
 41
0.0000000000000000
 44
0.8660377154786555
 71
     1
 72
     1
  1
{\H0.89x;{61G}}
 11
1.000000000000000
 21
0.0000000000000000
 31
0.0000000000000000
  7
STANDARD
  0
MTEXT
  5
41C
100
AcDbEntity
  8
WAKU0
  6
CONTINUOUS
 62
3
100
AcDbMText
 10
400.0000000476837
 20
20.15000009536743
 30
0.0000000000000000
 40
5.300000190734863
 41
0.0000000000000000
 44
0.8660377154786555
 71
     1
 72
     1
  1
{\H0.81x;{2}}
 11
1.000000000000000
 21
0.0000000000000000
 31
0.0000000000000000
  7
STANDARD
  0
MTEXT
  5
41D
100
AcDbEntity
  8
WAKU0
  6
CONTINUOUS
 62
3
100
AcDbMText
 10
400.0000000819564
 20
44.84999990463257
 30
0.0000000000000000
 40
5.300000190734863
 41
0.0000000000000000
 44
0.6396226292871933
 71
     7
 72
     1
  1
{\H0.81x;{ }}
 11
1.000000000000000
 21
0.0000000000000000
 31
0.0000000000000000
  7
STANDARD
  0
MTEXT
  5
41E
100
AcDbEntity
  8
WAKU0
  6
CONTINUOUS
 62
3
100
AcDbMText
 10
289.3850002884865
 20
33.00000000000000
 30
0.0000000000000000
 40
3.000000000000000
 41
0.0000000000000000
 44
0.7000000000000000
 71
     7
 72
     1
  1
{\H0.93x;{DRAWN BY}}
 11
1.000000000000000
 21
0.0000000000000000
 31
0.0000000000000000
  7
STANDARD
  0
MTEXT
  5
41F
100
AcDbEntity
  8
WAKU0
  6
CONTINUOUS
 62
3
100
AcDbMText
 10
269.2149997949600
 20
32.95000004768372
 30
0.0000000000000000
 40
3.099999904632568
 41
0.0000000000000000
 44
0.6870967861020730
 71
     7
 72
     1
  1
{\H0.92x;{CHIEF}}
 11
1.000000000000000
 21
0.0000000000000000
 31
0.0000000000000000
  7
STANDARD
  0
MTEXT
  5
420
100
AcDbEntity
  8
WAKU0
  6
CONTINUOUS
 62
3
100
AcDbMText
 10
242.4249997138977
 20
32.95000004768372
 30
0.0000000000000000
 40
3.099999904632568
 41
0.0000000000000000
 44
0.6870967861020730
 71
     7
 72
     1
  1
{\H0.92x;{MANAGER}}
 11
1.000000000000000
 21
0.0000000000000000
 31
0.0000000000000000
  7
STANDARD
  0
MTEXT
  5
421
100
AcDbEntity
  8
WAKU0
  6
CONTINUOUS
 62
3
100
AcDbMText
 10
244.6599994301796
 20
18.13333336512248
 30
0.0000000000000000
 40
3.099999904632568
 41
0.0000000000000000
 44
0.8451613409338102
 71
     7
 72
     1
  1
{\H0.93x;{KITAGAWA IRON\PWORKS CO.,LTD.}}
 11
1.000000000000000
 21
0.0000000000000000
 31
0.0000000000000000
  7
STANDARD
  0
MTEXT
  5
422
100
AcDbEntity
  8
WAKU0
  6
CONTINUOUS
 62
3
100
AcDbMText
 10
241.0850002169609
 20
46.50000000000000
 30
0.0000000000000000
 40
3.000000000000000
 41
0.0000000000000000
 44
0.8000000000000000
 71
     7
 72
     1
  1
{\H0.92x;{CAREER}}
 11
1.000000000000000
 21
0.0000000000000000
 31
0.0000000000000000
  7
STANDARD
  0
MTEXT
  5
423
100
AcDbEntity
  8
WAKU0
  6
CONTINUOUS
 62
3
100
AcDbMText
 10
294.6099998354912
 20
18.95000004768372
 30
0.0000000000000000
 40
3.099999904632568
 41
0.0000000000000000
 44
0.6870967861020730
 71
     7
 72
     1
  1
{\H0.91x;{DATE}}
 11
1.000000000000000
 21
0.0000000000000000
 31
0.0000000000000000
  7
STANDARD
  0
MTEXT
  5
424
100
AcDbEntity
  8
WAKU0
  6
CONTINUOUS
 62
3
100
AcDbMText
 10
313.9000002145767
 20
26.50000000000000
 30
0.0000000000000000
 40
3.000000000000000
 41
0.0000000000000000
 44
0.9000000000000000
 71
     7
 72
     1
  1
{\H0.63x;{3RD ANGLE}}
 11
1.000000000000000
 21
0.0000000000000000
 31
0.0000000000000000
  7
STANDARD
  0
MTEXT
  5
425
100
AcDbEntity
  8
WAKU0
  6
CONTINUOUS
 62
3
100
AcDbMText
 10
315.2149997949600
 20
45.95000004768372
 30
0.0000000000000000
 40
3.099999904632568
 41
0.0000000000000000
 44
0.8806452252986423
 71
     7
 72
     1
  1
{\H0.92x;{SCALE}}
 11
1.000000000000000
 21
0.0000000000000000
 31
0.0000000000000000
  7
STANDARD
  0
MTEXT
  5
426
100
AcDbEntity
  8
WAKU0
  6
CONTINUOUS
 62
3
100
AcDbMText
 10
405.7000000476837
 20
46.00000000000000
 30
0.0000000000000000
 40
3.000000000000000
 41
0.0000000000000000
 44
0.9000000000000000
 71
     7
 72
     1
  1
{\H0.63x;{kg}}
 11
1.000000000000000
 21
0.0000000000000000
 31
0.0000000000000000
  7
STANDARD
  0
MTEXT
  5
427
100
AcDbEntity
  8
WAKU0
  6
CONTINUOUS
 62
3
100
AcDbMText
 10
375.6000001430512
 20
46.00000000000000
 30
0.0000000000000000
 40
3.000000000000000
 41
0.0000000000000000
 44
0.9000000000000000
 71
     7
 72
     1
  1
{\H0.63x;{WEIGHT}}
 11
1.000000000000000
 21
0.0000000000000000
 31
0.0000000000000000
  7
STANDARD
  0
MTEXT
  5
428
100
AcDbEntity
  8
WAKU0
  6
CONTINUOUS
 62
3
100
AcDbMText
 10
334.0049998760223
 20
18.13333336512248
 30
0.0000000000000000
 40
3.099999904632568
 41
0.0000000000000000
 44
0.8451613409338102
 71
     7
 72
     1
  1
{\H0.90x;{DRW\PNO.}}
 11
1.000000000000000
 21
0.0000000000000000
 31
0.0000000000000000
  7
STANDARD
  0
MTEXT
  5
429
100
AcDbEntity
  8
WAKU0
  6
CONTINUOUS
 62
3
100
AcDbMText
 10
332.6099998354912
 20
31.95000004768372
 30
0.0000000000000000
 40
3.099999904632568
 41
0.0000000000000000
 44
2.235483976655898
 71
     7
 72
     1
  1
{\H0.91x;{NAME}}
 11
1.000000000000000
 21
0.0000000000000000
 31
0.0000000000000000
  7
STANDARD
  0
MTEXT
  5
42A
100
AcDbEntity
  8
WAKU0
  6
CONTINUOUS
 62
3
100
AcDbMText
 10
332.6099998354912
 20
45.95000004768372
 30
0.0000000000000000
 40
3.099999904632568
 41
0.0000000000000000
 44
0.8806452252986423
 71
     7
 72
     1
  1
{\H0.91x;{TYPE}}
 11
1.000000000000000
 21
0.0000000000000000
 31
0.0000000000000000
  7
STANDARD
  0
LINE
  5
42B
100
AcDbEntity
  8
WAKU0
  6
HIDDEN
 62
3
100
AcDbLine
 10
407.1599564743885
 20
13.84999990463257
 30
0.0000000000000000
 11
396.9400436209789
 21
13.84999990463257
 31
0.0000000000000000
  0
LINE
  5
42C
100
AcDbEntity
  8
WAKU0
  6
HIDDEN
 62
3
100
AcDbLine
 10
407.1599564743885
 20
13.84999990463250
 30
0.0000000000000000
 11
402.0500000476852
 21
22.70070406014901
 31
0.0000000000000000
  0
LINE
  5
42D
100
AcDbEntity
  8
WAKU0
  6
HIDDEN
 62
3
100
AcDbLine
 10
402.0500000476852
 20
22.70070406014902
 30
0.0000000000000000
 11
396.9400436209789
 21
13.84999990463248
 31
0.0000000000000000
  0
POINT
  5
42E
100
AcDbEntity
  8
WAKU0
  6
CONTINUOUS
 62
3
100
AcDbPoint
 10
270.0000000000000
 20
51.00000000000000
 30
0.0000000000000000
  0
INSERT
  5
46B
100
AcDbEntity
  8
WAKU0
  6
CONTINUOUS
 62
2
100
AcDbBlockReference
  2
M0
 10
0.0000000000000000
 20
0.0000000000000000
 30
0.0000000000000000
 50
0.0000000000000000
  0
LINE
  5
46C
100
AcDbEntity
  8
WAKU0
  6
CONTINUOUS
 62
3
100
AcDbLine
 10
330.4713877753800
 20
15.78041421262812
 30
0.0000000000000000
 11
330.4713877753800
 21
21.78041421262815
 31
0.0000000000000000
  0
LINE
  5
46D
100
AcDbEntity
  8
WAKU0
  6
CONTINUOUS
 62
3
100
AcDbLine
 10
323.9336941228225
 20
17.28041421262811
 30
0.0000000000000000
 11
323.9336941228225
 21
20.28041421262824
 31
0.0000000000000000
  0
LINE
  5
46E
100
AcDbEntity
  8
WAKU0
  6
CENTER
 62
12
100
AcDbLine
 10
313.4321805514995
 20
18.78041421262813
 30
0.0000000000000000
 11
331.2765788964694
 21
18.78041421262813
 31
0.0000000000000000
  0
LINE
  5
46F
100
AcDbEntity
  8
WAKU0
  6
CENTER
 62
12
100
AcDbLine
 10
317.4474565857986
 20
14.55921662918448
 30
0.0000000000000000
 11
317.4474565857986
 21
22.89865102149943
 31
0.0000000000000000
  0
LINE
  5
470
100
AcDbEntity
  8
WAKU0
  6
CONTINUOUS
 62
3
100
AcDbLine
 10
323.9336941228225
 20
20.28041421262797
 30
0.0000000000000000
 11
330.4713877753800
 21
21.78041421262795
 31
0.0000000000000000
  0
LINE
  5
471
100
AcDbEntity
  8
WAKU0
  6
CONTINUOUS
 62
3
100
AcDbLine
 10
323.9336941228225
 20
17.28041421262811
 30
0.0000000000000000
 11
330.4713877753799
 21
15.78041421262812
 31
0.0000000000000000
  0
CIRCLE
  5
472
100
AcDbEntity
  8
WAKU0
  6
CONTINUOUS
 62
3
100
AcDbCircle
 10
317.4474565857986
 20
18.78041421262813
 30
0.0000000000000000
 40
1.499999999999972
  0
CIRCLE
  5
473
100
AcDbEntity
  8
WAKU0
  6
CONTINUOUS
 62
3
100
AcDbCircle
 10
317.4474565857986
 20
18.78041421262813
 30
0.0000000000000000
 40
2.999999999999979
  0
ENDSEC
  0
SECTION
  2
OBJECTS
  0
DICTIONARY
  5
4C4
100
AcDbDictionary
  3
ACAD_GROUP
350
4C5
  3
ACAD_LAYOUT
350
4C6
  3
ACAD_MLINESTYLE
350
4C7
  0
DICTIONARY
  5
4C5
102
{ACAD_REACTORS
330
4C4
102
}
330
4C4
100
AcDbDictionary
  0
DICTIONARY
  5
4C6
102
{ACAD_REACTORS
330
4C4
102
}
330
4C4
100
AcDbDictionary
  3
Model
350
4C8
  3
ﾚｲｱｳﾄ1
350
4C9
  3
ﾚｲｱｳﾄ2
350
4CA
  0
DICTIONARY
  5
4C7
102
{ACAD_REACTORS
330
4C4
102
}
330
4C4
100
AcDbDictionary
  3
STANDARD
350
4CB
  0
LAYOUT
  5
4C8
102
{ACAD_REACTORS
330
4C6
102
}
330
4C6
100
AcDbPlotSettings
 70
11952
  4
A3
 44
297.000000
 45
420.000000
 73
  1
 72
  1
100
AcDbLayout
  1
Model
 71
0
330
490
  0
LAYOUT
  5
4C9
102
{ACAD_REACTORS
330
4C6
102
}
330
4C6
100
AcDbPlotSettings
100
AcDbLayout
  1
ﾚｲｱｳﾄ1
 71
1
330
491
  0
LAYOUT
  5
4CA
102
{ACAD_REACTORS
330
4C6
102
}
330
4C6
100
AcDbPlotSettings
100
AcDbLayout
  1
ﾚｲｱｳﾄ2
 71
2
330
492
  0
MLINESTYLE
  5
4CB
102
{ACAD_REACTORS
330
4C7
102
}
330
4C7
100
AcDbMlineStyle
  2
STANDARD
 70
     0
  3

 62
   256
 51
90.00
 52
90.00
 71
     2
 49
0.50
 62
   256
  6
BYLAYER
 49
-0.50
 62
   256
  6
BYLAYER
  0
ENDSEC
  0
EOF
