  0
SECTION
  2
HEADER
  9
$ACADVER
  1
AC1014
  9
$DWGCODEPAGE
  3
ANSI_932
  9
$LTSCALE
 40
20.0
  9
$FILLMODE
 70
     1
  9
$CLAYER
  8
0
  9
$PDMODE
 70
     0
  9
$SPLFRAME
 70
     0
  9
$SPLINETYPE
 70
     6
  9
$SPLINESEGS
 70
     8
  9
$DIMASZ
 40
2.000000
  9
$DIMEXE
 40
2.000000
  9
$DIMEXO
 40
0.800000
  9
$DIMTAD
 70
     1
  9
$DIMTIH
 70
     0
  9
$DIMTOH
 70
     0
  9
$DIMTVP
 40
0.500000
  9
$DIMTXT
 40
3.100000
  9
$EXTMIN
 10
0.000000
 20
0.000000
 30
0.000000
  9
$EXTMAX
 10
297.000000
 20
420.000000
 30
0.000000
  9
$MEASUREMENT
 70
  1
  9
$LIMMIN
 10
0.000000
 20
0.000000
  9
$LIMMAX
 10
297.000000
 20
420.000000
  9
$HANDLING
 70
     1
  9
$HANDSEED
  5
4EF
  9
$DIMBLK
  1
_OPEN
  9
$DIMDEC
 70
     3
  9
$DIMAUNIT
 70
     1
  9
$DIMZIN
 70
     8
  9
$DIMTOFL
 70
     1
  0
ENDSEC
  0
SECTION
  2
CLASSES
  0
ENDSEC
  0
SECTION
  2
TABLES
  0
TABLE
  2
VPORT
  5
49E
100
AcDbSymbolTable
 70
     1
  0
VPORT
  5
49F
100
AcDbSymbolTableRecord
100
AcDbViewportTableRecord
  2
*ACTIVE
 70
     0
 12
397.191503
 22
331.747180
 40
1051.437323
 41
1.517753
  0
ENDTAB
  0
TABLE
  2
LTYPE
  5
4A0
100
AcDbSymbolTable
 70
     4
  0
LTYPE
  5
4A1
100
AcDbSymbolTableRecord
100
AcDbLinetypeTableRecord
  2
BYBLOCK
 70
     0
  3

 72
    65
 73
     0
 40
0.0
  0
LTYPE
  5
4A2
100
AcDbSymbolTableRecord
100
AcDbLinetypeTableRecord
  2
BYLAYER
 70
     0
  3

 72
    65
 73
     0
 40
0.0
  0
LTYPE
  5
4A3
100
AcDbSymbolTableRecord
100
AcDbLinetypeTableRecord
  2
CONTINUOUS
 70
     0
  3
Solid line (NEC CAE2D for Win R12.1 : 2020.02.28)
 72
    65
 73
     0
 40
0.0
  0
LTYPE
  5
4A4
100
AcDbSymbolTableRecord
100
AcDbLinetypeTableRecord
  2
HIDDEN
 70
     0
  3
__ __ __ __ __ __ __ __ __ __ __ __ __ __
 72
    65
 73
     2
 40
0.375
 49
0.25
 74
     0
 49
-0.125
 74
     0
  0
LTYPE
  5
4A5
100
AcDbSymbolTableRecord
100
AcDbLinetypeTableRecord
  2
CENTER
 70
     0
  3
____ _ ____ _ ____ _ ____ _ ____ _ ____
 72
    65
 73
     4
 40
2.0
 49
1.25
 74
     0
 49
-0.25
 74
     0
 49
0.25
 74
     0
 49
-0.25
 74
     0
  0
LTYPE
  5
4A6
100
AcDbSymbolTableRecord
100
AcDbLinetypeTableRecord
  2
PHANTOM
 70
     0
  3
______  __  __  ______  __  __  ______ 
 72
    65
 73
     6
 40
2.5
 49
1.25
 74
     0
 49
-0.25
 74
     0
 49
0.25
 74
     0
 49
-0.25
 74
     0
 49
0.25
 74
     0
 49
-0.25
 74
     0
  0
ENDTAB
  0
TABLE
  2
LAYER
  5
4A7
100
AcDbSymbolTable
 70
    12
  0
LAYER
  5
4A8
100
AcDbSymbolTableRecord
100
AcDbLayerTableRecord
  2
0
 70
     0
 62
     7
  6
CONTINUOUS
  0
LAYER
  5
4A9
100
AcDbSymbolTableRecord
100
AcDbLayerTableRecord
  2
MAIN0
 70
     0
 62
     7
  6
CONTINUOUS
  0
LAYER
  5
4AA
100
AcDbSymbolTableRecord
100
AcDbLayerTableRecord
  2
MAIN1
 70
     0
 62
     7
  6
CONTINUOUS
  0
LAYER
  5
4AB
100
AcDbSymbolTableRecord
100
AcDbLayerTableRecord
  2
MAIN2
 70
     0
 62
     7
  6
CONTINUOUS
  0
LAYER
  5
4AC
100
AcDbSymbolTableRecord
100
AcDbLayerTableRecord
  2
MAIN3
 70
     0
 62
     7
  6
CONTINUOUS
  0
LAYER
  5
4AD
100
AcDbSymbolTableRecord
100
AcDbLayerTableRecord
  2
MAIN5
 70
     0
 62
     7
  6
CONTINUOUS
  0
LAYER
  5
4AE
100
AcDbSymbolTableRecord
100
AcDbLayerTableRecord
  2
MAIN120
 70
     0
 62
     7
  6
CONTINUOUS
  0
LAYER
  5
4AF
100
AcDbSymbolTableRecord
100
AcDbLayerTableRecord
  2
MAIN1023
 70
     0
 62
    16
  6
CONTINUOUS
  0
LAYER
  5
4B0
100
AcDbSymbolTableRecord
100
AcDbLayerTableRecord
  2
WAKU0
 70
     0
 62
     7
  6
CONTINUOUS
  0
LAYER
  5
4B1
100
AcDbSymbolTableRecord
100
AcDbLayerTableRecord
  2
WAKU1023
 70
     0
 62
    16
  6
CONTINUOUS
  0
LAYER
  5
4B2
100
AcDbSymbolTableRecord
100
AcDbLayerTableRecord
  2
NOTE0
 70
     0
 62
     7
  6
CONTINUOUS
  0
LAYER
  5
4B3
100
AcDbSymbolTableRecord
100
AcDbLayerTableRecord
  2
NOTE1023
 70
     0
 62
    16
  6
CONTINUOUS
  0
ENDTAB
  0
TABLE
  2
STYLE
  5
4B4
100
AcDbSymbolTable
 70
     4
  0
STYLE
  5
4B5
100
AcDbSymbolTableRecord
100
AcDbTextStyleTableRecord
  2
STANDARD
 70
    64
 40
0.0
 41
1.0
 50
0.0
 71
     0
 42
7.500000000000000
  3
TXT
  4

  0
STYLE
  5
4B6
100
AcDbSymbolTableRecord
100
AcDbTextStyleTableRecord
  2
ANKTATE
 70
    68
 40
0.0
 41
1.0
 50
0.0
 71
     0
 42
7.500000000000000
  3
TXT
  4

  0
STYLE
  5
FE
100
AcDbSymbolTableRecord
100
AcDbTextStyleTableRecord
  2
KNJYOKO
 70
    64
 40
0.0
 41
1.0
 50
0.0
 71
     0
 42
7.500000000000000
  3
TXT
  4
BIGFONT
  0
STYLE
  5
4B7
100
AcDbSymbolTableRecord
100
AcDbTextStyleTableRecord
  2
KNJTATE
 70
    68
 40
0.0
 41
1.0
 50
0.0
 71
     0
 42
7.500000000000000
  3
TXT
  4
BIGFONT
  0
ENDTAB
  0
TABLE
  2
VIEW
  5
4B8
100
AcDbSymbolTable
 70
     0
  0
ENDTAB
  0
TABLE
  2
UCS
  5
4B9
100
AcDbSymbolTable
 70
     0
  0
ENDTAB
  0
TABLE
  2
APPID
  5
4BA
100
AcDbSymbolTable
 70
     1
  0
APPID
  5
4BB
100
AcDbSymbolTableRecord
100
AcDbRegAppTableRecord
  2
ACAD
 70
     0
  0
ENDTAB
  0
TABLE
  2
DIMSTYLE
  5
4BC
100
AcDbSymbolTable
 70
     1
  0
DIMSTYLE
105
4BD
100
AcDbSymbolTableRecord
100
AcDbDimStyleTableRecord
  2
STANDARD
 70
     0
 41
2.000000
 44
2.000000
 42
0.800000
145
0.661290
140
3.100000
144
1.000000
146
0.903226
340
4B5
  0
DIMSTYLE
105
4BE
100
AcDbSymbolTableRecord
100
AcDbDimStyleTableRecord
  2
MAIN001
 70
     0
 41
6.000000
 44
6.000000
 42
2.400000
145
0.553763
140
9.300000
144
1.000000
146
0.903226
 77
     1
 73
     0
 74
     0
271
     3
275
     1
 78
     8
172
     1
340
4B5
  0
DIMSTYLE
105
4BF
100
AcDbSymbolTableRecord
100
AcDbDimStyleTableRecord
  2
WAKU002
 70
     0
 41
2.000000
 44
2.000000
 42
0.800000
145
0.661290
140
3.100000
144
1.000000
146
0.903226
 77
     1
 73
     0
 74
     0
271
     3
275
     1
 78
     8
172
     1
340
4B5
  0
DIMSTYLE
105
4C0
100
AcDbSymbolTableRecord
100
AcDbDimStyleTableRecord
  2
NOTE003
 70
     0
 41
5.000000
 44
5.000000
 42
2.000000
145
0.564516
140
7.750000
144
1.000000
146
0.903226
 77
     1
 73
     0
 74
     0
271
     3
275
     1
 78
     8
172
     1
340
4B5
  0
ENDTAB
  0
TABLE
  2
BLOCK_RECORD
  5
4C1
100
AcDbSymbolTable
 70
    46
  0
BLOCK_RECORD
  5
4C2
100
AcDbSymbolTableRecord
100
AcDbBlockTableRecord
  2
*MODEL_SPACE
  0
BLOCK_RECORD
  5
4C3
100
AcDbSymbolTableRecord
100
AcDbBlockTableRecord
  2
*PAPER_SPACE
  0
BLOCK_RECORD
  5
1
100
AcDbSymbolTableRecord
100
AcDbBlockTableRecord
  2
_NONE
  0
BLOCK_RECORD
  5
4
100
AcDbSymbolTableRecord
100
AcDbBlockTableRecord
  2
_CLOSED
  0
BLOCK_RECORD
  5
B
100
AcDbSymbolTableRecord
100
AcDbBlockTableRecord
  2
_DOT
  0
BLOCK_RECORD
  5
13
100
AcDbSymbolTableRecord
100
AcDbBlockTableRecord
  2
_OPEN
  0
BLOCK_RECORD
  5
19
100
AcDbSymbolTableRecord
100
AcDbBlockTableRecord
  2
_ORIGIN
  0
BLOCK_RECORD
  5
1E
100
AcDbSymbolTableRecord
100
AcDbBlockTableRecord
  2
_OPEN30
  0
BLOCK_RECORD
  5
24
100
AcDbSymbolTableRecord
100
AcDbBlockTableRecord
  2
_BOXFILLED
  0
BLOCK_RECORD
  5
29
100
AcDbSymbolTableRecord
100
AcDbBlockTableRecord
  2
_BOXBLANK
  0
BLOCK_RECORD
  5
31
100
AcDbSymbolTableRecord
100
AcDbBlockTableRecord
  2
_OBLIQUE
  0
BLOCK_RECORD
  5
35
100
AcDbSymbolTableRecord
100
AcDbBlockTableRecord
  2
_OPEN90
  0
BLOCK_RECORD
  5
3B
100
AcDbSymbolTableRecord
100
AcDbBlockTableRecord
  2
_CLOSEDBLANK
  0
BLOCK_RECORD
  5
41
100
AcDbSymbolTableRecord
100
AcDbBlockTableRecord
  2
_DOTBLANK
  0
BLOCK_RECORD
  5
4C4
100
AcDbSymbolTableRecord
100
AcDbBlockTableRecord
  2
*D0
  0
BLOCK_RECORD
  5
4C5
100
AcDbSymbolTableRecord
100
AcDbBlockTableRecord
  2
*D1
  0
BLOCK_RECORD
  5
4C6
100
AcDbSymbolTableRecord
100
AcDbBlockTableRecord
  2
*D2
  0
BLOCK_RECORD
  5
4C7
100
AcDbSymbolTableRecord
100
AcDbBlockTableRecord
  2
*D3
  0
BLOCK_RECORD
  5
4C8
100
AcDbSymbolTableRecord
100
AcDbBlockTableRecord
  2
*D4
  0
BLOCK_RECORD
  5
4C9
100
AcDbSymbolTableRecord
100
AcDbBlockTableRecord
  2
*D5
  0
BLOCK_RECORD
  5
4CA
100
AcDbSymbolTableRecord
100
AcDbBlockTableRecord
  2
*D6
  0
BLOCK_RECORD
  5
4CB
100
AcDbSymbolTableRecord
100
AcDbBlockTableRecord
  2
*D7
  0
BLOCK_RECORD
  5
4CC
100
AcDbSymbolTableRecord
100
AcDbBlockTableRecord
  2
*D8
  0
BLOCK_RECORD
  5
4CD
100
AcDbSymbolTableRecord
100
AcDbBlockTableRecord
  2
*D9
  0
BLOCK_RECORD
  5
4CE
100
AcDbSymbolTableRecord
100
AcDbBlockTableRecord
  2
*D10
  0
BLOCK_RECORD
  5
4CF
100
AcDbSymbolTableRecord
100
AcDbBlockTableRecord
  2
*D11
  0
BLOCK_RECORD
  5
4D0
100
AcDbSymbolTableRecord
100
AcDbBlockTableRecord
  2
*D12
  0
BLOCK_RECORD
  5
4D1
100
AcDbSymbolTableRecord
100
AcDbBlockTableRecord
  2
*D13
  0
BLOCK_RECORD
  5
4D2
100
AcDbSymbolTableRecord
100
AcDbBlockTableRecord
  2
*D14
  0
BLOCK_RECORD
  5
4D3
100
AcDbSymbolTableRecord
100
AcDbBlockTableRecord
  2
*D15
  0
BLOCK_RECORD
  5
4D4
100
AcDbSymbolTableRecord
100
AcDbBlockTableRecord
  2
*D16
  0
BLOCK_RECORD
  5
4D5
100
AcDbSymbolTableRecord
100
AcDbBlockTableRecord
  2
*D17
  0
BLOCK_RECORD
  5
4D6
100
AcDbSymbolTableRecord
100
AcDbBlockTableRecord
  2
*D18
  0
BLOCK_RECORD
  5
4D7
100
AcDbSymbolTableRecord
100
AcDbBlockTableRecord
  2
*D19
  0
BLOCK_RECORD
  5
4D8
100
AcDbSymbolTableRecord
100
AcDbBlockTableRecord
  2
*D20
  0
BLOCK_RECORD
  5
4D9
100
AcDbSymbolTableRecord
100
AcDbBlockTableRecord
  2
*D21
  0
BLOCK_RECORD
  5
4DA
100
AcDbSymbolTableRecord
100
AcDbBlockTableRecord
  2
*D22
  0
BLOCK_RECORD
  5
4DB
100
AcDbSymbolTableRecord
100
AcDbBlockTableRecord
  2
*D23
  0
BLOCK_RECORD
  5
4DC
100
AcDbSymbolTableRecord
100
AcDbBlockTableRecord
  2
*D24
  0
BLOCK_RECORD
  5
4DD
100
AcDbSymbolTableRecord
100
AcDbBlockTableRecord
  2
*D25
  0
BLOCK_RECORD
  5
4DE
100
AcDbSymbolTableRecord
100
AcDbBlockTableRecord
  2
*D26
  0
BLOCK_RECORD
  5
4DF
100
AcDbSymbolTableRecord
100
AcDbBlockTableRecord
  2
*D27
  0
BLOCK_RECORD
  5
4E0
100
AcDbSymbolTableRecord
100
AcDbBlockTableRecord
  2
*D28
  0
BLOCK_RECORD
  5
4E1
100
AcDbSymbolTableRecord
100
AcDbBlockTableRecord
  2
*D29
  0
BLOCK_RECORD
  5
4E2
100
AcDbSymbolTableRecord
100
AcDbBlockTableRecord
  2
*D30
  0
BLOCK_RECORD
  5
4E3
100
AcDbSymbolTableRecord
100
AcDbBlockTableRecord
  2
*X0
  0
BLOCK_RECORD
  5
4E4
100
AcDbSymbolTableRecord
100
AcDbBlockTableRecord
  2
*X1
  0
BLOCK_RECORD
  5
4E5
100
AcDbSymbolTableRecord
100
AcDbBlockTableRecord
  2
*X2
  0
ENDTAB
  0
ENDSEC
  0
SECTION
  2
BLOCKS
  0
BLOCK
  5
4E6
100
AcDbEntity
  8
0
100
AcDbBlockBegin
  2
*MODEL_SPACE
 70
     0
 10
0.0
 20
0.0
 30
0.0
  3
*MODEL_SPACE
  1

  0
ENDBLK
  5
4E7
100
AcDbEntity
  8
0
100
AcDbBlockEnd
  0
BLOCK
  5
4E8
100
AcDbEntity
  8
0
100
AcDbBlockBegin
  2
*PAPER_SPACE
 70
     0
 10
0.0
 20
0.0
 30
0.0
  3
*PAPER_SPACE
  1

  0
ENDBLK
  5
4E9
100
AcDbEntity
  8
0
100
AcDbBlockEnd
  0
BLOCK
  5
2
100
AcDbEntity
  8
0
100
AcDbBlockBegin
  2
_NONE
 70
     0
 10
0.0
 20
0.0
 30
0.0
  3
_NONE
  1

  0
ENDBLK
  5
3
100
AcDbEntity
  8
0
100
AcDbBlockEnd
  0
BLOCK
  5
5
100
AcDbEntity
  8
0
100
AcDbBlockBegin
  2
_CLOSED
 70
     0
 10
0.0
 20
0.0
 30
0.0
  3
_CLOSED
  1

  0
LINE
  5
6
100
AcDbEntity
  8
0
  6
BYBLOCK
 62
     0
100
AcDbLine
 10
-1.0
 20
0.166667
 30
0.0
 11
0.0
 21
0.0
 31
0.0
  0
LINE
  5
7
100
AcDbEntity
  8
0
  6
BYBLOCK
 62
     0
100
AcDbLine
 10
0.0
 20
0.0
 30
0.0
 11
-1.0
 21
-0.166667
 31
0.0
  0
LINE
  5
8
100
AcDbEntity
  8
0
  6
BYBLOCK
 62
     0
100
AcDbLine
 10
-1.0
 20
0.166667
 30
0.0
 11
-1.0
 21
-0.166667
 31
0.0
  0
LINE
  5
9
100
AcDbEntity
  8
0
  6
BYBLOCK
 62
     0
100
AcDbLine
 10
0.0
 20
0.0
 30
0.0
 11
-1.0
 21
0.0
 31
0.0
  0
ENDBLK
  5
A
100
AcDbEntity
  8
0
100
AcDbBlockEnd
  0
BLOCK
  5
C
100
AcDbEntity
  8
0
100
AcDbBlockBegin
  2
_DOT
 70
     0
 10
0.0
 20
0.0
 30
0.0
  3
_DOT
  1

  0
POLYLINE
  5
D
100
AcDbEntity
  8
0
  6
BYBLOCK
 62
     0
100
AcDb2dPolyline
 66
     1
 10
0.0
 20
0.0
 30
0.0
 70
     1
 40
0.5
 41
0.5
  0
VERTEX
  5
E
100
AcDbEntity
  8
0
  6
BYBLOCK
 62
     0
100
AcDbVertex
100
AcDb2dVertex
 10
-0.25
 20
0.0
 30
0.0
 42
1.0
  0
VERTEX
  5
F
100
AcDbEntity
  8
0
  6
BYBLOCK
 62
     0
100
AcDbVertex
100
AcDb2dVertex
 10
0.25
 20
0.0
 30
0.0
 42
1.0
  0
SEQEND
  5
10
100
AcDbEntity
  8
0
  6
BYBLOCK
 62
     0
  0
LINE
  5
11
100
AcDbEntity
  8
0
  6
BYBLOCK
 62
     0
100
AcDbLine
 10
-0.5
 20
0.0
 30
0.0
 11
-1.0
 21
0.0
 31
0.0
  0
ENDBLK
  5
12
100
AcDbEntity
  8
0
100
AcDbBlockEnd
  0
BLOCK
  5
14
100
AcDbEntity
  8
0
100
AcDbBlockBegin
  2
_OPEN
 70
     0
 10
0.0
 20
0.0
 30
0.0
  3
_OPEN
  1

  0
LINE
  5
15
100
AcDbEntity
  8
0
  6
BYBLOCK
 62
     0
100
AcDbLine
 10
-1.0
 20
0.166667
 30
0.0
 11
0.0
 21
0.0
 31
0.0
  0
LINE
  5
16
100
AcDbEntity
  8
0
  6
BYBLOCK
 62
     0
100
AcDbLine
 10
0.0
 20
0.0
 30
0.0
 11
-1.0
 21
-0.166667
 31
0.0
  0
LINE
  5
17
100
AcDbEntity
  8
0
  6
BYBLOCK
 62
     0
100
AcDbLine
 10
0.0
 20
0.0
 30
0.0
 11
-1.0
 21
0.0
 31
0.0
  0
ENDBLK
  5
18
100
AcDbEntity
  8
0
100
AcDbBlockEnd
  0
BLOCK
  5
1A
100
AcDbEntity
  8
0
100
AcDbBlockBegin
  2
_ORIGIN
 70
     0
 10
0.0
 20
0.0
 30
0.0
  3
_ORIGIN
  1

  0
CIRCLE
  5
1B
100
AcDbEntity
  8
0
  6
BYBLOCK
 62
     0
100
AcDbCircle
 10
0.0
 20
0.0
 30
0.0
 40
0.5
  0
LINE
  5
1C
100
AcDbEntity
  8
0
  6
BYBLOCK
 62
     0
100
AcDbLine
 10
0.0
 20
0.0
 30
0.0
 11
-1.0
 21
0.0
 31
0.0
  0
ENDBLK
  5
1D
100
AcDbEntity
  8
0
100
AcDbBlockEnd
  0
BLOCK
  5
1F
100
AcDbEntity
  8
0
100
AcDbBlockBegin
  2
_OPEN30
 70
     0
 10
0.0
 20
0.0
 30
0.0
  3
_OPEN30
  1

  0
LINE
  5
20
100
AcDbEntity
  8
0
  6
BYBLOCK
 62
     0
100
AcDbLine
 10
-1.0
 20
0.267949
 30
0.0
 11
0.0
 21
0.0
 31
0.0
  0
LINE
  5
21
100
AcDbEntity
  8
0
  6
BYBLOCK
 62
     0
100
AcDbLine
 10
0.0
 20
0.0
 30
0.0
 11
-1.0
 21
-0.267949
 31
0.0
  0
LINE
  5
22
100
AcDbEntity
  8
0
  6
BYBLOCK
 62
     0
100
AcDbLine
 10
0.0
 20
0.0
 30
0.0
 11
-1.0
 21
0.0
 31
0.0
  0
ENDBLK
  5
23
100
AcDbEntity
  8
0
100
AcDbBlockEnd
  0
BLOCK
  5
25
100
AcDbEntity
  8
0
100
AcDbBlockBegin
  2
_BOXFILLED
 70
     0
 10
0.0
 20
0.0
 30
0.0
  3
_BOXFILLED
  1

  0
SOLID
  5
26
100
AcDbEntity
  8
0
  6
BYBLOCK
 62
     0
100
AcDbTrace
 10
-0.5
 20
0.5
 30
0.0
 11
0.5
 21
0.5
 31
0.0
 12
-0.5
 22
-0.5
 32
0.0
 13
0.5
 23
-0.5
 33
0.0
  0
LINE
  5
27
100
AcDbEntity
  8
0
  6
BYBLOCK
 62
     0
100
AcDbLine
 10
-0.5
 20
0.0
 30
0.0
 11
-1.0
 21
0.0
 31
0.0
  0
ENDBLK
  5
28
100
AcDbEntity
  8
0
100
AcDbBlockEnd
  0
BLOCK
  5
2A
100
AcDbEntity
  8
0
100
AcDbBlockBegin
  2
_BOXBLANK
 70
     0
 10
0.0
 20
0.0
 30
0.0
  3
_BOXBLANK
  1

  0
LINE
  5
2B
100
AcDbEntity
  8
0
  6
BYBLOCK
 62
     0
100
AcDbLine
 10
-0.5
 20
-0.5
 30
0.0
 11
0.5
 21
-0.5
 31
0.0
  0
LINE
  5
2C
100
AcDbEntity
  8
0
  6
BYBLOCK
 62
     0
100
AcDbLine
 10
0.5
 20
-0.5
 30
0.0
 11
0.5
 21
0.5
 31
0.0
  0
LINE
  5
2D
100
AcDbEntity
  8
0
  6
BYBLOCK
 62
     0
100
AcDbLine
 10
0.5
 20
0.5
 30
0.0
 11
-0.5
 21
0.5
 31
0.0
  0
LINE
  5
2E
100
AcDbEntity
  8
0
  6
BYBLOCK
 62
     0
100
AcDbLine
 10
-0.5
 20
0.5
 30
0.0
 11
-0.5
 21
-0.5
 31
0.0
  0
LINE
  5
2F
100
AcDbEntity
  8
0
  6
BYBLOCK
 62
     0
100
AcDbLine
 10
-0.5
 20
0.0
 30
0.0
 11
-1.0
 21
0.0
 31
0.0
  0
ENDBLK
  5
30
100
AcDbEntity
  8
0
100
AcDbBlockEnd
  0
BLOCK
  5
32
100
AcDbEntity
  8
0
100
AcDbBlockBegin
  2
_OBLIQUE
 70
     0
 10
0.0
 20
0.0
 30
0.0
  3
_OBLIQUE
  1

  0
LINE
  5
33
100
AcDbEntity
  8
0
  6
BYBLOCK
 62
     0
100
AcDbLine
 10
-0.5
 20
-0.5
 30
0.0
 11
0.5
 21
0.5
 31
0.0
  0
ENDBLK
  5
34
100
AcDbEntity
  8
0
100
AcDbBlockEnd
  0
BLOCK
  5
36
100
AcDbEntity
  8
0
100
AcDbBlockBegin
  2
_OPEN90
 70
     0
 10
0.0
 20
0.0
 30
0.0
  3
_OPEN90
  1

  0
LINE
  5
37
100
AcDbEntity
  8
0
  6
BYBLOCK
 62
     0
100
AcDbLine
 10
-0.5
 20
0.5
 30
0.0
 11
0.0
 21
0.0
 31
0.0
  0
LINE
  5
38
100
AcDbEntity
  8
0
  6
BYBLOCK
 62
     0
100
AcDbLine
 10
0.0
 20
0.0
 30
0.0
 11
-0.5
 21
-0.5
 31
0.0
  0
LINE
  5
39
100
AcDbEntity
  8
0
  6
BYBLOCK
 62
     0
100
AcDbLine
 10
0.0
 20
0.0
 30
0.0
 11
-1.0
 21
0.0
 31
0.0
  0
ENDBLK
  5
3A
100
AcDbEntity
  8
0
100
AcDbBlockEnd
  0
BLOCK
  5
3C
100
AcDbEntity
  8
0
100
AcDbBlockBegin
  2
_CLOSEDBLANK
 70
     0
 10
0.0
 20
0.0
 30
0.0
  3
_CLOSEDBLANK
  1

  0
LINE
  5
3D
100
AcDbEntity
  8
0
  6
BYBLOCK
 62
     0
100
AcDbLine
 10
-1.0
 20
0.1666666666666666
 30
0.0
 11
0.0
 21
0.0
 31
0.0
  0
LINE
  5
3E
100
AcDbEntity
  8
0
  6
BYBLOCK
 62
     0
100
AcDbLine
 10
0.0
 20
0.0
 30
0.0
 11
-1.0
 21
-0.1666666666666666
 31
0.0
  0
LINE
  5
3F
100
AcDbEntity
  8
0
  6
BYBLOCK
 62
     0
100
AcDbLine
 10
-1.0
 20
0.1666666666666666
 30
0.0
 11
-1.0
 21
-0.1666666666666666
 31
0.0
  0
ENDBLK
  5
40
100
AcDbEntity
  8
0
100
AcDbBlockEnd
  0
BLOCK
  5
42
100
AcDbEntity
  8
0
100
AcDbBlockBegin
  2
_DOTBLANK
 70
     0
 10
0.0
 20
0.0
 30
0.0
  3
_DOTBLANK
  1

  0
CIRCLE
  5
43
100
AcDbEntity
  8
0
  6
BYBLOCK
 62
     0
100
AcDbCircle
 10
0.0
 20
0.0
 30
0.0
 40
0.5
  0
LINE
  5
44
100
AcDbEntity
  8
0
  6
BYBLOCK
 62
     0
100
AcDbLine
 10
-0.5
 20
0.0
 30
0.0
 11
-1.0
 21
0.0
 31
0.0
  0
ENDBLK
  5
45
100
AcDbEntity
  8
0
100
AcDbBlockEnd
  0
BLOCK
  5
B3
100
AcDbEntity
  8
MAIN0
  6
CONTINUOUS
 62
3
100
AcDbBlockBegin
  2
*D0
 70
    65
 10
0.0
 20
0.0
 30
0.0
  0
LINE
  5
B4
100
AcDbEntity
  8
MAIN0
  6
BYBLOCK
 62
0
100
AcDbLine
 10
903.4516803800750
 20
200.7450204436079
 30
0.0000000000000000
 11
903.4516803800750
 21
155.6752232762494
 31
0.0000000000000000
  0
LINE
  5
B5
100
AcDbEntity
  8
MAIN0
  6
BYBLOCK
 62
0
100
AcDbLine
 10
897.4516803800750
 20
161.6752232762494
 30
0.0000000000000000
 11
589.4516803800750
 21
161.6752232762494
 31
0.0000000000000000
  0
INSERT
  5
B6
100
AcDbEntity
  8
MAIN0
  6
BYBLOCK
 62
0
100
AcDbBlockReference
  2
_OPEN
 10
903.4516803800750
 20
161.6752232762494
 30
0.0000000000000000
 41
6.000000000000000
 42
6.000000000000000
 43
6.000000000000000
 50
360.0000000000000
  0
INSERT
  5
B7
100
AcDbEntity
  8
MAIN0
  6
BYBLOCK
 62
0
100
AcDbBlockReference
  2
_OPEN
 10
583.4516803800750
 20
161.6752232762494
 30
0.0000000000000000
 41
6.000000000000000
 42
6.000000000000000
 43
6.000000000000000
 50
180.0000000000000
  0
LINE
  5
B8
100
AcDbEntity
  8
MAIN0
  6
BYBLOCK
 62
0
100
AcDbLine
 10
583.4516803800750
 20
200.7450204436079
 30
0.0000000000000000
 11
583.4516803800750
 21
155.6752232762494
 31
0.0000000000000000
  0
MTEXT
  5
B9
100
AcDbEntity
  8
MAIN0
  6
BYBLOCK
 62
0
100
AcDbMText
 10
743.4516803800750
 20
166.8252231331982
 30
0.0000000000000000
 40
9.299999713897705
 41
0.0000000000000000
 71
     5
 72
     1
  1
\A1;320
 11
1.000000000000000
 21
0.0000000000000000
 31
0.0000000000000000
  7
STANDARD
  0
ENDBLK
  5
BA
100
AcDbEntity
  8
MAIN0
  6
CONTINUOUS
 62
3
100
AcDbBlockEnd
  0
BLOCK
  5
C4
100
AcDbEntity
  8
MAIN0
  6
CONTINUOUS
 62
3
100
AcDbBlockBegin
  2
*D1
 70
    65
 10
0.0
 20
0.0
 30
0.0
  0
LINE
  5
C5
100
AcDbEntity
  8
MAIN0
  6
BYBLOCK
 62
0
100
AcDbLine
 10
1023.286775591237
 20
458.1450204793707
 30
0.0000000000000000
 11
1070.799587902942
 21
458.1450204793707
 31
0.0000000000000000
  0
LINE
  5
C6
100
AcDbEntity
  8
MAIN0
  6
BYBLOCK
 62
0
100
AcDbLine
 10
1064.799587902942
 20
452.1450204793707
 30
0.0000000000000000
 11
1064.799587902942
 21
209.1450204793707
 31
0.0000000000000000
  0
INSERT
  5
C7
100
AcDbEntity
  8
MAIN0
  6
BYBLOCK
 62
0
100
AcDbBlockReference
  2
_OPEN
 10
1064.799587902942
 20
458.1450204793707
 30
0.0000000000000000
 41
6.000000000000000
 42
6.000000000000000
 43
6.000000000000000
 50
90.00000000000000
  0
INSERT
  5
C8
100
AcDbEntity
  8
MAIN0
  6
BYBLOCK
 62
0
100
AcDbBlockReference
  2
_OPEN
 10
1064.799587902942
 20
203.1450204793707
 30
0.0000000000000000
 41
6.000000000000000
 42
6.000000000000000
 43
6.000000000000000
 50
270.0000000000000
  0
LINE
  5
C9
100
AcDbEntity
  8
MAIN0
  6
BYBLOCK
 62
0
100
AcDbLine
 10
905.8516804158378
 20
203.1450204793707
 30
0.0000000000000000
 11
1070.799587902942
 21
203.1450204793707
 31
0.0000000000000000
  0
MTEXT
  5
CA
100
AcDbEntity
  8
MAIN0
  6
BYBLOCK
 62
0
100
AcDbMText
 10
1059.649588045993
 20
330.6450204793707
 30
0.0000000000000000
 40
9.299999713897705
 41
0.0000000000000000
 71
     5
 72
     1
  1
\A1;255
 11
6.123233995736766e-017
 21
1.000000000000000
 31
0.0000000000000000
  7
STANDARD
  0
ENDBLK
  5
CB
100
AcDbEntity
  8
MAIN0
  6
CONTINUOUS
 62
3
100
AcDbBlockEnd
  0
BLOCK
  5
CD
100
AcDbEntity
  8
MAIN0
  6
CONTINUOUS
 62
3
100
AcDbBlockBegin
  2
*D2
 70
    65
 10
0.0
 20
0.0
 30
0.0
  0
LINE
  5
CE
100
AcDbEntity
  8
MAIN0
  6
BYBLOCK
 62
0
100
AcDbLine
 10
1003.004932166233
 20
465.1450204794051
 30
0.0000000000000000
 11
1048.809921229127
 21
465.1450204794051
 31
0.0000000000000000
  0
LINE
  5
CF
100
AcDbEntity
  8
MAIN0
  6
BYBLOCK
 62
0
100
AcDbLine
 10
1042.809921229127
 20
465.1450204794051
 30
0.0000000000000000
 11
1042.809921229127
 21
451.1450204793503
 31
0.0000000000000000
  0
INSERT
  5
D0
100
AcDbEntity
  8
MAIN0
  6
BYBLOCK
 62
0
100
AcDbBlockReference
  2
_OPEN
 10
1042.809921229127
 20
465.1450204794051
 30
0.0000000000000000
 41
6.000000000000000
 42
6.000000000000000
 43
6.000000000000000
 50
270.0000000000000
  0
INSERT
  5
D1
100
AcDbEntity
  8
MAIN0
  6
BYBLOCK
 62
0
100
AcDbBlockReference
  2
_OPEN
 10
1042.809921229127
 20
451.1450204793503
 30
0.0000000000000000
 41
6.000000000000000
 42
6.000000000000000
 43
6.000000000000000
 50
90.00000000000000
  0
LINE
  5
D2
100
AcDbEntity
  8
MAIN0
  6
BYBLOCK
 62
0
100
AcDbLine
 10
1042.809921229127
 20
471.1450204794051
 30
0.0000000000000000
 11
1042.809921229127
 21
474.1450204794051
 31
0.0000000000000000
  0
LINE
  5
D3
100
AcDbEntity
  8
MAIN0
  6
BYBLOCK
 62
0
100
AcDbLine
 10
1042.809921229127
 20
445.1450204793503
 30
0.0000000000000000
 11
1042.809921229127
 21
422.3842107462456
 31
0.0000000000000000
  0
LINE
  5
D4
100
AcDbEntity
  8
MAIN0
  6
BYBLOCK
 62
0
100
AcDbLine
 10
1003.004932166233
 20
451.1450204793503
 30
0.0000000000000000
 11
1048.809921229127
 21
451.1450204793503
 31
0.0000000000000000
  0
MTEXT
  5
D5
100
AcDbEntity
  8
MAIN0
  6
BYBLOCK
 62
0
100
AcDbMText
 10
1036.659921372178
 20
432.4342104601433
 30
0.0000000000000000
 40
9.299999713897705
 41
0.0000000000000000
 71
     5
 72
     1
  1
\A1;\U+220514
 11
6.123233995736766e-017
 21
1.000000000000000
 31
0.0000000000000000
  7
STANDARD
  0
ENDBLK
  5
D6
100
AcDbEntity
  8
MAIN0
  6
CONTINUOUS
 62
3
100
AcDbBlockEnd
  0
BLOCK
  5
D8
100
AcDbEntity
  8
MAIN0
  6
CONTINUOUS
 62
3
100
AcDbBlockBegin
  2
*D3
 70
    65
 10
0.0
 20
0.0
 30
0.0
  0
LINE
  5
D9
100
AcDbEntity
  8
MAIN0
  6
BYBLOCK
 62
0
100
AcDbLine
 10
888.8516804158378
 20
508.1450204793705
 30
0.0000000000000000
 11
1095.232509449759
 21
508.1450204793705
 31
0.0000000000000000
  0
LINE
  5
DA
100
AcDbEntity
  8
MAIN0
  6
BYBLOCK
 62
0
100
AcDbLine
 10
1089.232509449759
 20
502.1450204793705
 30
0.0000000000000000
 11
1089.232509449759
 21
209.1450204793707
 31
0.0000000000000000
  0
INSERT
  5
DB
100
AcDbEntity
  8
MAIN0
  6
BYBLOCK
 62
0
100
AcDbBlockReference
  2
_OPEN
 10
1089.232509449759
 20
508.1450204793705
 30
0.0000000000000000
 41
6.000000000000000
 42
6.000000000000000
 43
6.000000000000000
 50
90.00000000000000
  0
INSERT
  5
DC
100
AcDbEntity
  8
MAIN0
  6
BYBLOCK
 62
0
100
AcDbBlockReference
  2
_OPEN
 10
1089.232509449759
 20
203.1450204793707
 30
0.0000000000000000
 41
6.000000000000000
 42
6.000000000000000
 43
6.000000000000000
 50
270.0000000000000
  0
LINE
  5
DD
100
AcDbEntity
  8
MAIN0
  6
BYBLOCK
 62
0
100
AcDbLine
 10
905.8516804158378
 20
203.1450204793707
 30
0.0000000000000000
 11
1095.232509449759
 21
203.1450204793707
 31
0.0000000000000000
  0
MTEXT
  5
DE
100
AcDbEntity
  8
MAIN0
  6
BYBLOCK
 62
0
100
AcDbMText
 10
1084.082509592810
 20
355.6450204793706
 30
0.0000000000000000
 40
9.299999713897705
 41
0.0000000000000000
 71
     5
 72
     1
  1
\A1;305
 11
6.123233995736766e-017
 21
1.000000000000000
 31
0.0000000000000000
  7
STANDARD
  0
ENDBLK
  5
DF
100
AcDbEntity
  8
MAIN0
  6
CONTINUOUS
 62
3
100
AcDbBlockEnd
  0
BLOCK
  5
E1
100
AcDbEntity
  8
MAIN0
  6
CONTINUOUS
 62
3
100
AcDbBlockBegin
  2
*D4
 70
    65
 10
0.0
 20
0.0
 30
0.0
  0
LINE
  5
E2
100
AcDbEntity
  8
MAIN0
  6
BYBLOCK
 62
0
100
AcDbLine
 10
623.4516803800750
 20
493.0450205151337
 30
0.0000000000000000
 11
623.4516803800750
 21
521.1147953140858
 31
0.0000000000000000
  0
LINE
  5
E3
100
AcDbEntity
  8
MAIN0
  6
BYBLOCK
 62
0
100
AcDbLine
 10
623.4516803800750
 20
515.1147953140858
 30
0.0000000000000000
 11
619.4516803800750
 21
515.1147953140858
 31
0.0000000000000000
  0
INSERT
  5
E4
100
AcDbEntity
  8
MAIN0
  6
BYBLOCK
 62
0
100
AcDbBlockReference
  2
_OPEN
 10
623.4516803800750
 20
515.1147953140858
 30
0.0000000000000000
 41
6.000000000000000
 42
6.000000000000000
 43
6.000000000000000
 50
180.0000000000000
  0
INSERT
  5
E5
100
AcDbEntity
  8
MAIN0
  6
BYBLOCK
 62
0
100
AcDbBlockReference
  2
_OPEN
 10
619.4516803800750
 20
515.1147953140858
 30
0.0000000000000000
 41
6.000000000000000
 42
6.000000000000000
 43
6.000000000000000
 50
360.0000000000000
  0
LINE
  5
E6
100
AcDbEntity
  8
MAIN0
  6
BYBLOCK
 62
0
100
AcDbLine
 10
629.4516803800750
 20
515.1147953140858
 30
0.0000000000000000
 11
632.4516803800750
 21
515.1147953140858
 31
0.0000000000000000
  0
LINE
  5
E7
100
AcDbEntity
  8
MAIN0
  6
BYBLOCK
 62
0
100
AcDbLine
 10
613.4516803800750
 20
515.1147953140858
 30
0.0000000000000000
 11
601.0506228591885
 21
515.1147953140858
 31
0.0000000000000000
  0
LINE
  5
E8
100
AcDbEntity
  8
MAIN0
  6
BYBLOCK
 62
0
100
AcDbLine
 10
619.4516803800750
 20
478.0450205151333
 30
0.0000000000000000
 11
619.4516803800750
 21
521.1147953140858
 31
0.0000000000000000
  0
MTEXT
  5
E9
100
AcDbEntity
  8
MAIN0
  6
BYBLOCK
 62
0
100
AcDbMText
 10
604.0506228591885
 20
521.2647951710346
 30
0.0000000000000000
 40
9.299999713897705
 41
0.0000000000000000
 71
     5
 72
     1
  1
\A1;4
 11
1.000000000000000
 21
0.0000000000000000
 31
0.0000000000000000
  7
STANDARD
  0
ENDBLK
  5
EA
100
AcDbEntity
  8
MAIN0
  6
CONTINUOUS
 62
3
100
AcDbBlockEnd
  0
BLOCK
  5
EC
100
AcDbEntity
  8
MAIN0
  6
CONTINUOUS
 62
3
100
AcDbBlockBegin
  2
*D5
 70
    65
 10
0.0
 20
0.0
 30
0.0
  0
LINE
  5
ED
100
AcDbEntity
  8
MAIN0
  6
BYBLOCK
 62
0
100
AcDbLine
 10
885.8516804158378
 20
823.3482592576963
 30
0.0000000000000000
 11
985.2349082042309
 21
823.3482592576963
 31
0.0000000000000000
  0
LINE
  5
EE
100
AcDbEntity
  8
MAIN0
  6
BYBLOCK
 62
0
100
AcDbLine
 10
979.2349082042309
 20
817.3482592576963
 30
0.0000000000000000
 11
979.2349082042309
 21
619.3482592576963
 31
0.0000000000000000
  0
INSERT
  5
EF
100
AcDbEntity
  8
MAIN0
  6
BYBLOCK
 62
0
100
AcDbBlockReference
  2
_OPEN
 10
979.2349082042309
 20
823.3482592576963
 30
0.0000000000000000
 41
6.000000000000000
 42
6.000000000000000
 43
6.000000000000000
 50
90.00000000000000
  0
INSERT
  5
F0
100
AcDbEntity
  8
MAIN0
  6
BYBLOCK
 62
0
100
AcDbBlockReference
  2
_OPEN
 10
979.2349082042309
 20
613.3482592576963
 30
0.0000000000000000
 41
6.000000000000000
 42
6.000000000000000
 43
6.000000000000000
 50
270.0000000000000
  0
LINE
  5
F1
100
AcDbEntity
  8
MAIN0
  6
BYBLOCK
 62
0
100
AcDbLine
 10
885.8516804158378
 20
613.3482592576963
 30
0.0000000000000000
 11
985.2349082042309
 21
613.3482592576963
 31
0.0000000000000000
  0
MTEXT
  5
F2
100
AcDbEntity
  8
MAIN0
  6
BYBLOCK
 62
0
100
AcDbMText
 10
974.0849083472821
 20
718.3482592576963
 30
0.0000000000000000
 40
9.299999713897705
 41
0.0000000000000000
 71
     5
 72
     1
  1
\A1;210
 11
6.123233995736766e-017
 21
1.000000000000000
 31
0.0000000000000000
  7
STANDARD
  0
ENDBLK
  5
F3
100
AcDbEntity
  8
MAIN0
  6
CONTINUOUS
 62
3
100
AcDbBlockEnd
  0
BLOCK
  5
F5
100
AcDbEntity
  8
MAIN0
  6
CONTINUOUS
 62
3
100
AcDbBlockBegin
  2
*D6
 70
    65
 10
0.0
 20
0.0
 30
0.0
  0
LINE
  5
F6
100
AcDbEntity
  8
MAIN0
  6
BYBLOCK
 62
0
100
AcDbLine
 10
885.8516804158378
 20
823.3482592576963
 30
0.0000000000000000
 11
1007.120145665024
 21
823.3482592576963
 31
0.0000000000000000
  0
LINE
  5
F7
100
AcDbEntity
  8
MAIN0
  6
BYBLOCK
 62
0
100
AcDbLine
 10
1001.120145665024
 20
817.3482592576963
 30
0.0000000000000000
 11
1001.120145665024
 21
568.4914996221078
 31
0.0000000000000000
  0
INSERT
  5
F8
100
AcDbEntity
  8
MAIN0
  6
BYBLOCK
 62
0
100
AcDbBlockReference
  2
_OPEN
 10
1001.120145665024
 20
823.3482592576963
 30
0.0000000000000000
 41
6.000000000000000
 42
6.000000000000000
 43
6.000000000000000
 50
90.00000000000000
  0
INSERT
  5
F9
100
AcDbEntity
  8
MAIN0
  6
BYBLOCK
 62
0
100
AcDbBlockReference
  2
_OPEN
 10
1001.120145665024
 20
562.4914996221078
 30
0.0000000000000000
 41
6.000000000000000
 42
6.000000000000000
 43
6.000000000000000
 50
270.0000000000000
  0
LINE
  5
FA
100
AcDbEntity
  8
MAIN0
  6
BYBLOCK
 62
0
100
AcDbLine
 10
745.7872895501971
 20
562.4914996221078
 30
0.0000000000000000
 11
1007.120145665024
 21
562.4914996221078
 31
0.0000000000000000
  0
MTEXT
  5
FB
100
AcDbEntity
  8
MAIN0
  6
BYBLOCK
 62
0
100
AcDbMText
 10
995.9701458080756
 20
692.9198794399021
 30
0.0000000000000000
 40
9.299999713897705
 41
0.0000000000000000
 71
     5
 72
     1
  1
\A1;約 261
 11
6.123233995736766e-017
 21
1.000000000000000
 31
0.0000000000000000
  7
KNJYOKO
  0
ENDBLK
  5
FC
100
AcDbEntity
  8
MAIN0
  6
CONTINUOUS
 62
3
100
AcDbBlockEnd
  0
BLOCK
  5
105
100
AcDbEntity
  8
MAIN0
  6
CONTINUOUS
 62
3
100
AcDbBlockBegin
  2
*D7
 70
    65
 10
0.0
 20
0.0
 30
0.0
  0
LINE
  5
106
100
AcDbEntity
  8
MAIN0
  6
BYBLOCK
 62
0
100
AcDbLine
 10
179.6400666599019
 20
195.7450204436261
 30
0.0000000000000000
 11
179.6400666599019
 21
166.2899552389125
 31
0.0000000000000000
  0
LINE
  5
107
100
AcDbEntity
  8
MAIN0
  6
BYBLOCK
 62
0
100
AcDbLine
 10
179.6400666599019
 20
172.2899552389125
 30
0.0000000000000000
 11
197.6400666599019
 21
172.2899552389125
 31
0.0000000000000000
  0
INSERT
  5
108
100
AcDbEntity
  8
MAIN0
  6
BYBLOCK
 62
0
100
AcDbBlockReference
  2
_OPEN
 10
179.6400666599019
 20
172.2899552389125
 30
0.0000000000000000
 41
6.000000000000000
 42
6.000000000000000
 43
6.000000000000000
 50
0.0000000000000000
  0
INSERT
  5
109
100
AcDbEntity
  8
MAIN0
  6
BYBLOCK
 62
0
100
AcDbBlockReference
  2
_OPEN
 10
197.6400666599019
 20
172.2899552389125
 30
0.0000000000000000
 41
6.000000000000000
 42
6.000000000000000
 43
6.000000000000000
 50
180.0000000000000
  0
LINE
  5
10A
100
AcDbEntity
  8
MAIN0
  6
BYBLOCK
 62
0
100
AcDbLine
 10
173.6400666599019
 20
172.2899552389125
 30
0.0000000000000000
 11
170.6400666599019
 21
172.2899552389125
 31
0.0000000000000000
  0
LINE
  5
10B
100
AcDbEntity
  8
MAIN0
  6
BYBLOCK
 62
0
100
AcDbLine
 10
203.6400666599019
 20
172.2899552389125
 30
0.0000000000000000
 11
231.2600868750839
 21
172.2899552389125
 31
0.0000000000000000
  0
LINE
  5
10C
100
AcDbEntity
  8
MAIN0
  6
BYBLOCK
 62
0
100
AcDbLine
 10
197.6400666599019
 20
195.7450204435899
 30
0.0000000000000000
 11
197.6400666599019
 21
166.2899552389125
 31
0.0000000000000000
  0
MTEXT
  5
10D
100
AcDbEntity
  8
MAIN0
  6
BYBLOCK
 62
0
100
AcDbMText
 10
218.8100865889816
 20
178.4399550958613
 30
0.0000000000000000
 40
9.299999713897705
 41
0.0000000000000000
 71
     5
 72
     1
  1
\A1;18h7
 11
1.000000000000000
 21
0.0000000000000000
 31
0.0000000000000000
  7
STANDARD
  0
ENDBLK
  5
10E
100
AcDbEntity
  8
MAIN0
  6
CONTINUOUS
 62
3
100
AcDbBlockEnd
  0
BLOCK
  5
11F
100
AcDbEntity
  8
MAIN0
  6
CONTINUOUS
 62
3
100
AcDbBlockBegin
  2
*D8
 70
    65
 10
0.0
 20
0.0
 30
0.0
  0
LINE
  5
120
100
AcDbEntity
  8
MAIN0
  6
BYBLOCK
 62
0
100
AcDbLine
 10
886.4516803800750
 20
395.7450204436079
 30
0.0000000000000000
 11
886.4516803800750
 21
317.6484329823099
 31
0.0000000000000000
  0
LINE
  5
121
100
AcDbEntity
  8
MAIN0
  6
BYBLOCK
 62
0
100
AcDbLine
 10
886.4516803800750
 20
323.6484329823099
 30
0.0000000000000000
 11
903.4516803800750
 21
323.6484329823099
 31
0.0000000000000000
  0
INSERT
  5
122
100
AcDbEntity
  8
MAIN0
  6
BYBLOCK
 62
0
100
AcDbBlockReference
  2
_OPEN
 10
886.4516803800750
 20
323.6484329823099
 30
0.0000000000000000
 41
6.000000000000000
 42
6.000000000000000
 43
6.000000000000000
 50
0.0000000000000000
  0
INSERT
  5
123
100
AcDbEntity
  8
MAIN0
  6
BYBLOCK
 62
0
100
AcDbBlockReference
  2
_OPEN
 10
903.4516803800750
 20
323.6484329823099
 30
0.0000000000000000
 41
6.000000000000000
 42
6.000000000000000
 43
6.000000000000000
 50
180.0000000000000
  0
LINE
  5
124
100
AcDbEntity
  8
MAIN0
  6
BYBLOCK
 62
0
100
AcDbLine
 10
880.4516803800750
 20
323.6484329823099
 30
0.0000000000000000
 11
877.4516803800750
 21
323.6484329823099
 31
0.0000000000000000
  0
LINE
  5
125
100
AcDbEntity
  8
MAIN0
  6
BYBLOCK
 62
0
100
AcDbLine
 10
909.4516803800750
 20
323.6484329823099
 30
0.0000000000000000
 11
912.4516803800750
 21
323.6484329823099
 31
0.0000000000000000
  0
LINE
  5
126
100
AcDbEntity
  8
MAIN0
  6
BYBLOCK
 62
0
100
AcDbLine
 10
903.4516803800750
 20
240.5450205151335
 30
0.0000000000000000
 11
903.4516803800750
 21
329.6484329823099
 31
0.0000000000000000
  0
MTEXT
  5
127
100
AcDbEntity
  8
MAIN0
  6
BYBLOCK
 62
0
100
AcDbMText
 10
894.9516803800750
 20
328.7984328392588
 30
0.0000000000000000
 40
9.299999713897705
 41
0.0000000000000000
 71
     5
 72
     1
  1
\A1;17
 11
1.000000000000000
 21
0.0000000000000000
 31
0.0000000000000000
  7
STANDARD
  0
ENDBLK
  5
128
100
AcDbEntity
  8
MAIN0
  6
CONTINUOUS
 62
3
100
AcDbBlockEnd
  0
BLOCK
  5
12E
100
AcDbEntity
  8
MAIN0
  6
CONTINUOUS
 62
3
100
AcDbBlockBegin
  2
*D9
 70
    65
 10
0.0
 20
0.0
 30
0.0
  0
LINE
  5
12F
100
AcDbEntity
  8
MAIN0
  6
BYBLOCK
 62
0
100
AcDbLine
 10
889.8516804158378
 20
750.8482592576963
 30
0.0000000000000000
 11
962.4213621020816
 21
750.8482592576963
 31
0.0000000000000000
  0
LINE
  5
130
100
AcDbEntity
  8
MAIN0
  6
BYBLOCK
 62
0
100
AcDbLine
 10
956.4213621020816
 20
744.8482592576963
 30
0.0000000000000000
 11
956.4213621020816
 21
691.8482592576963
 31
0.0000000000000000
  0
INSERT
  5
131
100
AcDbEntity
  8
MAIN0
  6
BYBLOCK
 62
0
100
AcDbBlockReference
  2
_OPEN
 10
956.4213621020816
 20
750.8482592576963
 30
0.0000000000000000
 41
6.000000000000000
 42
6.000000000000000
 43
6.000000000000000
 50
90.00000000000000
  0
INSERT
  5
132
100
AcDbEntity
  8
MAIN0
  6
BYBLOCK
 62
0
100
AcDbBlockReference
  2
_OPEN
 10
956.4213621020816
 20
685.8482592576963
 30
0.0000000000000000
 41
6.000000000000000
 42
6.000000000000000
 43
6.000000000000000
 50
270.0000000000000
  0
LINE
  5
133
100
AcDbEntity
  8
MAIN0
  6
BYBLOCK
 62
0
100
AcDbLine
 10
889.8516804158378
 20
685.8482592576963
 30
0.0000000000000000
 11
962.4213621020816
 21
685.8482592576963
 31
0.0000000000000000
  0
MTEXT
  5
134
100
AcDbEntity
  8
MAIN0
  6
BYBLOCK
 62
0
100
AcDbMText
 10
951.2713622451328
 20
718.3482592576963
 30
0.0000000000000000
 40
9.299999713897705
 41
0.0000000000000000
 71
     5
 72
     1
  1
\A1;\U+220565
 11
6.123233995736766e-017
 21
1.000000000000000
 31
0.0000000000000000
  7
STANDARD
  0
ENDBLK
  5
135
100
AcDbEntity
  8
MAIN0
  6
CONTINUOUS
 62
3
100
AcDbBlockEnd
  0
BLOCK
  5
1E3
100
AcDbEntity
  8
MAIN0
  6
CONTINUOUS
 62
3
100
AcDbBlockBegin
  2
*D10
 70
    65
 10
0.0
 20
0.0
 30
0.0
  0
LINE
  5
1E4
100
AcDbEntity
  8
MAIN0
  6
BYBLOCK
 62
0
100
AcDbLine
 10
585.0516803442670
 20
117.8952410008065
 30
0.0000000000000000
 11
544.8280094487182
 21
117.8952410008065
 31
0.0000000000000000
  0
LINE
  5
1E5
100
AcDbEntity
  8
MAIN0
  6
BYBLOCK
 62
0
100
AcDbLine
 10
550.8280094487182
 20
111.8952410008065
 30
0.0000000000000000
 11
550.8280094487182
 21
95.39524100080654
 31
0.0000000000000000
  0
INSERT
  5
1E6
100
AcDbEntity
  8
MAIN0
  6
BYBLOCK
 62
0
100
AcDbBlockReference
  2
_OPEN
 10
550.8280094487182
 20
117.8952410008065
 30
0.0000000000000000
 41
6.000000000000000
 42
6.000000000000000
 43
6.000000000000000
 50
90.00000000000000
  0
INSERT
  5
1E7
100
AcDbEntity
  8
MAIN0
  6
BYBLOCK
 62
0
100
AcDbBlockReference
  2
_OPEN
 10
550.8280094487182
 20
89.39524100080654
 30
0.0000000000000000
 41
6.000000000000000
 42
6.000000000000000
 43
6.000000000000000
 50
270.0000000000000
  0
LINE
  5
1E8
100
AcDbEntity
  8
MAIN0
  6
BYBLOCK
 62
0
100
AcDbLine
 10
585.0516803443020
 20
89.39524100080654
 30
0.0000000000000000
 11
544.8280094487182
 21
89.39524100080654
 31
0.0000000000000000
  0
MTEXT
  5
1E9
100
AcDbEntity
  8
MAIN0
  6
BYBLOCK
 62
0
100
AcDbMText
 10
545.6780095917693
 20
103.6452410008065
 30
0.0000000000000000
 40
9.299999713897705
 41
0.0000000000000000
 71
     5
 72
     1
  1
\A1;28.5
 11
6.123233995736766e-017
 21
1.000000000000000
 31
0.0000000000000000
  7
STANDARD
  0
ENDBLK
  5
1EA
100
AcDbEntity
  8
MAIN0
  6
CONTINUOUS
 62
3
100
AcDbBlockEnd
  0
BLOCK
  5
1EC
100
AcDbEntity
  8
MAIN0
  6
CONTINUOUS
 62
3
100
AcDbBlockBegin
  2
*D11
 70
    65
 10
0.0
 20
0.0
 30
0.0
  0
LINE
  5
1ED
100
AcDbEntity
  8
MAIN0
  6
BYBLOCK
 62
0
100
AcDbLine
 10
587.4516803800650
 20
86.99524096504374
 30
0.0000000000000000
 11
587.4516803800648
 21
51.04706411916513
 31
0.0000000000000000
  0
LINE
  5
1EE
100
AcDbEntity
  8
MAIN0
  6
BYBLOCK
 62
0
100
AcDbLine
 10
593.4516803800648
 20
57.04706411916507
 30
0.0000000000000000
 11
611.4516803801869
 21
57.04706411916507
 31
0.0000000000000000
  0
INSERT
  5
1EF
100
AcDbEntity
  8
MAIN0
  6
BYBLOCK
 62
0
100
AcDbBlockReference
  2
_OPEN
 10
587.4516803800648
 20
57.04706411916507
 30
0.0000000000000000
 41
6.000000000000000
 42
6.000000000000000
 43
6.000000000000000
 50
180.0000000000000
  0
INSERT
  5
1F0
100
AcDbEntity
  8
MAIN0
  6
BYBLOCK
 62
0
100
AcDbBlockReference
  2
_OPEN
 10
617.4516803801869
 20
57.04706411916507
 30
0.0000000000000000
 41
6.000000000000000
 42
6.000000000000000
 43
6.000000000000000
 50
0.0000000000000000
  0
LINE
  5
1F1
100
AcDbEntity
  8
MAIN0
  6
BYBLOCK
 62
0
100
AcDbLine
 10
617.4516803801869
 20
86.99524096503706
 30
0.0000000000000000
 11
617.4516803801869
 21
51.04706411916507
 31
0.0000000000000000
  0
MTEXT
  5
1F2
100
AcDbEntity
  8
MAIN0
  6
BYBLOCK
 62
0
100
AcDbMText
 10
602.4516803801257
 20
62.19706397611392
 30
0.0000000000000000
 40
9.299999713897705
 41
0.0000000000000000
 71
     5
 72
     1
  1
\A1;30
 11
1.000000000000000
 21
0.0000000000000000
 31
0.0000000000000000
  7
STANDARD
  0
ENDBLK
  5
1F3
100
AcDbEntity
  8
MAIN0
  6
CONTINUOUS
 62
3
100
AcDbBlockEnd
  0
BLOCK
  5
1F5
100
AcDbEntity
  8
MAIN0
  6
CONTINUOUS
 62
3
100
AcDbBlockBegin
  2
*D12
 70
    65
 10
0.0
 20
0.0
 30
0.0
  0
LINE
  5
1F6
100
AcDbEntity
  8
MAIN0
  6
BYBLOCK
 62
0
100
AcDbLine
 10
618.8516804159497
 20
112.3952410008001
 30
0.0000000000000000
 11
646.2636194098183
 21
112.3952410008001
 31
0.0000000000000000
  0
LINE
  5
1F7
100
AcDbEntity
  8
MAIN0
  6
BYBLOCK
 62
0
100
AcDbLine
 10
640.2636194098183
 20
112.3952410008001
 30
0.0000000000000000
 11
640.2636194098183
 21
94.89524100080008
 31
0.0000000000000000
  0
INSERT
  5
1F8
100
AcDbEntity
  8
MAIN0
  6
BYBLOCK
 62
0
100
AcDbBlockReference
  2
_OPEN
 10
640.2636194098183
 20
112.3952410008001
 30
0.0000000000000000
 41
6.000000000000000
 42
6.000000000000000
 43
6.000000000000000
 50
270.0000000000000
  0
INSERT
  5
1F9
100
AcDbEntity
  8
MAIN0
  6
BYBLOCK
 62
0
100
AcDbBlockReference
  2
_OPEN
 10
640.2636194098183
 20
94.89524100080008
 30
0.0000000000000000
 41
6.000000000000000
 42
6.000000000000000
 43
6.000000000000000
 50
90.00000000000000
  0
LINE
  5
1FA
100
AcDbEntity
  8
MAIN0
  6
BYBLOCK
 62
0
100
AcDbLine
 10
640.2636194098183
 20
118.3952410008001
 30
0.0000000000000000
 11
640.2636194098183
 21
140.1490011654628
 31
0.0000000000000000
  0
LINE
  5
1FB
100
AcDbEntity
  8
MAIN0
  6
BYBLOCK
 62
0
100
AcDbLine
 10
640.2636194098183
 20
88.89524100080008
 30
0.0000000000000000
 11
640.2636194098183
 21
85.89524100080008
 31
0.0000000000000000
  0
LINE
  5
1FC
100
AcDbEntity
  8
MAIN0
  6
BYBLOCK
 62
0
100
AcDbLine
 10
618.8516804159497
 20
94.89524100080008
 30
0.0000000000000000
 11
646.2636194098183
 21
94.89524100080008
 31
0.0000000000000000
  0
MTEXT
  5
1FD
100
AcDbEntity
  8
MAIN0
  6
BYBLOCK
 62
0
100
AcDbMText
 10
634.1136195528694
 20
129.1990008793605
 30
0.0000000000000000
 40
9.299999713897705
 41
0.0000000000000000
 71
     5
 72
     1
  1
\A1;17.5
 11
6.123233995736766e-017
 21
1.000000000000000
 31
0.0000000000000000
  7
STANDARD
  0
ENDBLK
  5
1FE
100
AcDbEntity
  8
MAIN0
  6
CONTINUOUS
 62
3
100
AcDbBlockEnd
  0
BLOCK
  5
211
100
AcDbEntity
  8
MAIN0
  6
CONTINUOUS
 62
3
100
AcDbBlockBegin
  2
*D13
 70
    65
 10
0.0
 20
0.0
 30
0.0
  0
LINE
  5
212
100
AcDbEntity
  8
MAIN0
  6
BYBLOCK
 62
0
100
AcDbLine
 10
1151.809790318110
 20
684.6870865910186
 30
0.0000000000000000
 11
1151.809790318110
 21
659.1099892670334
 31
0.0000000000000000
  0
LINE
  5
213
100
AcDbEntity
  8
MAIN0
  6
BYBLOCK
 62
0
100
AcDbLine
 10
1145.809790318110
 20
665.1099892670334
 30
0.0000000000000000
 11
1129.309790318089
 21
665.1099892670334
 31
0.0000000000000000
  0
INSERT
  5
214
100
AcDbEntity
  8
MAIN0
  6
BYBLOCK
 62
0
100
AcDbBlockReference
  2
_OPEN
 10
1151.809790318110
 20
665.1099892670334
 30
0.0000000000000000
 41
6.000000000000000
 42
6.000000000000000
 43
6.000000000000000
 50
360.0000000000000
  0
INSERT
  5
215
100
AcDbEntity
  8
MAIN0
  6
BYBLOCK
 62
0
100
AcDbBlockReference
  2
_OPEN
 10
1123.309790318089
 20
665.1099892670334
 30
0.0000000000000000
 41
6.000000000000000
 42
6.000000000000000
 43
6.000000000000000
 50
180.0000000000000
  0
LINE
  5
216
100
AcDbEntity
  8
MAIN0
  6
BYBLOCK
 62
0
100
AcDbLine
 10
1123.309790318089
 20
725.1379851730961
 30
0.0000000000000000
 11
1123.309790318089
 21
659.1099892670334
 31
0.0000000000000000
  0
MTEXT
  5
217
100
AcDbEntity
  8
MAIN0
  6
BYBLOCK
 62
0
100
AcDbMText
 10
1137.559790318099
 20
670.2599891239822
 30
0.0000000000000000
 40
9.299999713897705
 41
0.0000000000000000
 71
     5
 72
     1
  1
\A1;28.5
 11
1.000000000000000
 21
0.0000000000000000
 31
0.0000000000000000
  7
STANDARD
  0
ENDBLK
  5
218
100
AcDbEntity
  8
MAIN0
  6
CONTINUOUS
 62
3
100
AcDbBlockEnd
  0
BLOCK
  5
21A
100
AcDbEntity
  8
MAIN0
  6
CONTINUOUS
 62
3
100
AcDbBlockBegin
  2
*D14
 70
    65
 10
0.0
 20
0.0
 30
0.0
  0
LINE
  5
21B
100
AcDbEntity
  8
MAIN0
  6
BYBLOCK
 62
0
100
AcDbLine
 10
1153.209790353846
 20
737.0379852088687
 30
0.0000000000000000
 11
1188.527643440187
 21
737.0379852088687
 31
0.0000000000000000
  0
LINE
  5
21C
100
AcDbEntity
  8
MAIN0
  6
BYBLOCK
 62
0
100
AcDbLine
 10
1182.527643440187
 20
737.0379852088687
 30
0.0000000000000000
 11
1182.527643440187
 21
718.0379852088687
 31
0.0000000000000000
  0
INSERT
  5
21D
100
AcDbEntity
  8
MAIN0
  6
BYBLOCK
 62
0
100
AcDbBlockReference
  2
_OPEN
 10
1182.527643440187
 20
737.0379852088687
 30
0.0000000000000000
 41
6.000000000000000
 42
6.000000000000000
 43
6.000000000000000
 50
270.0000000000000
  0
INSERT
  5
21E
100
AcDbEntity
  8
MAIN0
  6
BYBLOCK
 62
0
100
AcDbBlockReference
  2
_OPEN
 10
1182.527643440187
 20
718.0379852088687
 30
0.0000000000000000
 41
6.000000000000000
 42
6.000000000000000
 43
6.000000000000000
 50
90.00000000000000
  0
LINE
  5
21F
100
AcDbEntity
  8
MAIN0
  6
BYBLOCK
 62
0
100
AcDbLine
 10
1182.527643440187
 20
743.0379852088687
 30
0.0000000000000000
 11
1182.527643440187
 21
746.0379852088687
 31
0.0000000000000000
  0
LINE
  5
220
100
AcDbEntity
  8
MAIN0
  6
BYBLOCK
 62
0
100
AcDbLine
 10
1182.527643440187
 20
712.0379852088687
 30
0.0000000000000000
 11
1182.527643440187
 21
709.0379852088687
 31
0.0000000000000000
  0
LINE
  5
221
100
AcDbEntity
  8
MAIN0
  6
BYBLOCK
 62
0
100
AcDbLine
 10
1153.209790353857
 20
718.0379852088687
 30
0.0000000000000000
 11
1188.527643440187
 21
718.0379852088687
 31
0.0000000000000000
  0
MTEXT
  5
222
100
AcDbEntity
  8
MAIN0
  6
BYBLOCK
 62
0
100
AcDbMText
 10
1177.377643583238
 20
727.5379852088687
 30
0.0000000000000000
 40
9.299999713897705
 41
0.0000000000000000
 71
     5
 72
     1
  1
\A1;19
 11
6.123233995736766e-017
 21
1.000000000000000
 31
0.0000000000000000
  7
STANDARD
  0
ENDBLK
  5
223
100
AcDbEntity
  8
MAIN0
  6
CONTINUOUS
 62
3
100
AcDbBlockEnd
  0
BLOCK
  5
225
100
AcDbEntity
  8
MAIN0
  6
CONTINUOUS
 62
3
100
AcDbBlockBegin
  2
*D15
 70
    65
 10
0.0
 20
0.0
 30
0.0
  0
LINE
  5
226
100
AcDbEntity
  8
MAIN0
  6
BYBLOCK
 62
0
100
AcDbLine
 10
1151.809790318072
 20
771.2682544683956
 30
0.0000000000000000
 11
1151.809790318096
 21
782.5622145247000
 31
0.0000000000000000
  0
LINE
  5
227
100
AcDbEntity
  8
MAIN0
  6
BYBLOCK
 62
0
100
AcDbLine
 10
1145.809790318083
 20
776.5622145246999
 30
0.0000000000000000
 11
1117.809790318089
 21
776.5622145246999
 31
0.0000000000000000
  0
INSERT
  5
228
100
AcDbEntity
  8
MAIN0
  6
BYBLOCK
 62
0
100
AcDbBlockReference
  2
_OPEN
 10
1151.809790318083
 20
776.5622145246999
 30
0.0000000000000000
 41
6.000000000000000
 42
6.000000000000000
 43
6.000000000000000
 50
360.0000000000000
  0
INSERT
  5
229
100
AcDbEntity
  8
MAIN0
  6
BYBLOCK
 62
0
100
AcDbBlockReference
  2
_OPEN
 10
1111.809790318089
 20
776.5622145246999
 30
0.0000000000000000
 41
6.000000000000000
 42
6.000000000000000
 43
6.000000000000000
 50
180.0000000000000
  0
LINE
  5
22A
100
AcDbEntity
  8
MAIN0
  6
BYBLOCK
 62
0
100
AcDbLine
 10
1111.809790318089
 20
729.9379852446170
 30
0.0000000000000000
 11
1111.809790318089
 21
782.5622145246999
 31
0.0000000000000000
  0
MTEXT
  5
22B
100
AcDbEntity
  8
MAIN0
  6
BYBLOCK
 62
0
100
AcDbMText
 10
1131.809790318086
 20
781.7122143816488
 30
0.0000000000000000
 40
9.299999713897705
 41
0.0000000000000000
 71
     5
 72
     1
  1
\A1;40
 11
1.000000000000000
 21
0.0000000000000000
 31
0.0000000000000000
  7
STANDARD
  0
ENDBLK
  5
22C
100
AcDbEntity
  8
MAIN0
  6
CONTINUOUS
 62
3
100
AcDbBlockEnd
  0
BLOCK
  5
237
100
AcDbEntity
  8
MAIN0
  6
CONTINUOUS
 62
3
100
AcDbBlockBegin
  2
*D16
 70
    65
 10
0.0
 20
0.0
 30
0.0
  0
LINE
  5
238
100
AcDbEntity
  8
MAIN0
  6
BYBLOCK
 62
0
100
AcDbLine
 10
237.7664024928686
 20
203.1450204793707
 30
0.0000000000000000
 11
237.7664024928686
 21
198.1450204793526
 31
0.0000000000000000
  0
INSERT
  5
239
100
AcDbEntity
  8
MAIN0
  6
BYBLOCK
 62
0
100
AcDbBlockReference
  2
_OPEN
 10
237.7664024928686
 20
203.1450204793707
 30
0.0000000000000000
 41
6.000000000000000
 42
6.000000000000000
 43
6.000000000000000
 50
270.0000000000000
  0
INSERT
  5
23A
100
AcDbEntity
  8
MAIN0
  6
BYBLOCK
 62
0
100
AcDbBlockReference
  2
_OPEN
 10
237.7664024928686
 20
198.1450204793526
 30
0.0000000000000000
 41
6.000000000000000
 42
6.000000000000000
 43
6.000000000000000
 50
90.00000000000000
  0
LINE
  5
23B
100
AcDbEntity
  8
MAIN0
  6
BYBLOCK
 62
0
100
AcDbLine
 10
237.7664024928686
 20
209.1450204793707
 30
0.0000000000000000
 11
237.7664024928686
 21
212.1450204793707
 31
0.0000000000000000
  0
LINE
  5
23C
100
AcDbEntity
  8
MAIN0
  6
BYBLOCK
 62
0
100
AcDbLine
 10
237.7664024928686
 20
192.1450204793526
 30
0.0000000000000000
 11
237.7664024928686
 21
186.3022656916265
 31
0.0000000000000000
  0
LINE
  5
23D
100
AcDbEntity
  8
MAIN0
  6
BYBLOCK
 62
0
100
AcDbLine
 10
200.0400666956647
 20
198.1450204793526
 30
0.0000000000000000
 11
243.7664024928686
 21
198.1450204793526
 31
0.0000000000000000
  0
MTEXT
  5
23E
100
AcDbEntity
  8
MAIN0
  6
BYBLOCK
 62
0
100
AcDbMText
 10
231.6164026359197
 20
189.3022656916265
 30
0.0000000000000000
 40
9.299999713897705
 41
0.0000000000000000
 71
     5
 72
     1
  1
\A1;5
 11
6.123233995736766e-017
 21
1.000000000000000
 31
0.0000000000000000
  7
STANDARD
  0
ENDBLK
  5
23F
100
AcDbEntity
  8
MAIN0
  6
CONTINUOUS
 62
3
100
AcDbBlockEnd
  0
BLOCK
  5
24A
100
AcDbEntity
  8
MAIN0
  6
CONTINUOUS
 62
3
100
AcDbBlockBegin
  2
*D17
 70
    65
 10
0.0
 20
0.0
 30
0.0
  0
LINE
  5
24B
100
AcDbEntity
  8
MAIN0
  6
BYBLOCK
 62
0
100
AcDbLine
 10
845.9516803800750
 20
195.7450204436832
 30
0.0000000000000000
 11
845.9516803800750
 21
168.7967867182741
 31
0.0000000000000000
  0
LINE
  5
24C
100
AcDbEntity
  8
MAIN0
  6
BYBLOCK
 62
0
100
AcDbLine
 10
851.9516803800750
 20
174.7967867182741
 30
0.0000000000000000
 11
864.9516803800750
 21
174.7967867182741
 31
0.0000000000000000
  0
INSERT
  5
24D
100
AcDbEntity
  8
MAIN0
  6
BYBLOCK
 62
0
100
AcDbBlockReference
  2
_OPEN
 10
845.9516803800750
 20
174.7967867182741
 30
0.0000000000000000
 41
6.000000000000000
 42
6.000000000000000
 43
6.000000000000000
 50
180.0000000000000
  0
INSERT
  5
24E
100
AcDbEntity
  8
MAIN0
  6
BYBLOCK
 62
0
100
AcDbBlockReference
  2
_OPEN
 10
870.9516803800750
 20
174.7967867182741
 30
0.0000000000000000
 41
6.000000000000000
 42
6.000000000000000
 43
6.000000000000000
 50
0.0000000000000000
  0
LINE
  5
24F
100
AcDbEntity
  8
MAIN0
  6
BYBLOCK
 62
0
100
AcDbLine
 10
870.9516803800750
 20
195.7450204436418
 30
0.0000000000000000
 11
870.9516803800750
 21
168.7967867182741
 31
0.0000000000000000
  0
MTEXT
  5
250
100
AcDbEntity
  8
MAIN0
  6
BYBLOCK
 62
0
100
AcDbMText
 10
858.4516803800750
 20
179.9467865752230
 30
0.0000000000000000
 40
9.299999713897705
 41
0.0000000000000000
 71
     5
 72
     1
  1
\A1;25
 11
1.000000000000000
 21
0.0000000000000000
 31
0.0000000000000000
  7
STANDARD
  0
ENDBLK
  5
251
100
AcDbEntity
  8
MAIN0
  6
CONTINUOUS
 62
3
100
AcDbBlockEnd
  0
BLOCK
  5
253
100
AcDbEntity
  8
MAIN0
  6
CONTINUOUS
 62
3
100
AcDbBlockBegin
  2
*D18
 70
    65
 10
0.0
 20
0.0
 30
0.0
  0
LINE
  5
254
100
AcDbEntity
  8
MAIN0
  6
BYBLOCK
 62
0
100
AcDbLine
 10
870.9516803800750
 20
195.7450204436418
 30
0.0000000000000000
 11
870.9516803800750
 21
168.7967867182741
 31
0.0000000000000000
  0
LINE
  5
255
100
AcDbEntity
  8
MAIN0
  6
BYBLOCK
 62
0
100
AcDbLine
 10
870.9516803800750
 20
174.7967867182741
 30
0.0000000000000000
 11
903.4516803800750
 21
174.7967867182741
 31
0.0000000000000000
  0
INSERT
  5
256
100
AcDbEntity
  8
MAIN0
  6
BYBLOCK
 62
0
100
AcDbBlockReference
  2
_OPEN
 10
870.9516803800750
 20
174.7967867182741
 30
0.0000000000000000
 41
6.000000000000000
 42
6.000000000000000
 43
6.000000000000000
 50
0.0000000000000000
  0
INSERT
  5
257
100
AcDbEntity
  8
MAIN0
  6
BYBLOCK
 62
0
100
AcDbBlockReference
  2
_OPEN
 10
903.4516803800750
 20
174.7967867182741
 30
0.0000000000000000
 41
6.000000000000000
 42
6.000000000000000
 43
6.000000000000000
 50
180.0000000000000
  0
LINE
  5
258
100
AcDbEntity
  8
MAIN0
  6
BYBLOCK
 62
0
100
AcDbLine
 10
864.9516803800750
 20
174.7967867182741
 30
0.0000000000000000
 11
861.9516803800750
 21
174.7967867182741
 31
0.0000000000000000
  0
LINE
  5
259
100
AcDbEntity
  8
MAIN0
  6
BYBLOCK
 62
0
100
AcDbLine
 10
909.4516803800750
 20
174.7967867182741
 30
0.0000000000000000
 11
912.4516803800750
 21
174.7967867182741
 31
0.0000000000000000
  0
LINE
  5
25A
100
AcDbEntity
  8
MAIN0
  6
BYBLOCK
 62
0
100
AcDbLine
 10
903.4516803800750
 20
200.7450204436079
 30
0.0000000000000000
 11
903.4516803800750
 21
168.7967867182741
 31
0.0000000000000000
  0
MTEXT
  5
25B
100
AcDbEntity
  8
MAIN0
  6
BYBLOCK
 62
0
100
AcDbMText
 10
887.2016803800750
 20
179.9467865752230
 30
0.0000000000000000
 40
9.299999713897705
 41
0.0000000000000000
 71
     5
 72
     1
  1
\A1;32.5
 11
1.000000000000000
 21
0.0000000000000000
 31
0.0000000000000000
  7
STANDARD
  0
ENDBLK
  5
25C
100
AcDbEntity
  8
MAIN0
  6
CONTINUOUS
 62
3
100
AcDbBlockEnd
  0
BLOCK
  5
25E
100
AcDbEntity
  8
MAIN0
  6
CONTINUOUS
 62
3
100
AcDbBlockBegin
  2
*D19
 70
    65
 10
0.0
 20
0.0
 30
0.0
  0
LINE
  5
25F
100
AcDbEntity
  8
MAIN0
  6
BYBLOCK
 62
0
100
AcDbLine
 10
583.4516803800750
 20
215.5638819453934
 30
0.0000000000000000
 11
615.9516803800750
 21
215.5638819453934
 31
0.0000000000000000
  0
INSERT
  5
260
100
AcDbEntity
  8
MAIN0
  6
BYBLOCK
 62
0
100
AcDbBlockReference
  2
_OPEN
 10
583.4516803800750
 20
215.5638819453934
 30
0.0000000000000000
 41
6.000000000000000
 42
6.000000000000000
 43
6.000000000000000
 50
0.0000000000000000
  0
INSERT
  5
261
100
AcDbEntity
  8
MAIN0
  6
BYBLOCK
 62
0
100
AcDbBlockReference
  2
_OPEN
 10
615.9516803800750
 20
215.5638819453934
 30
0.0000000000000000
 41
6.000000000000000
 42
6.000000000000000
 43
6.000000000000000
 50
180.0000000000000
  0
LINE
  5
262
100
AcDbEntity
  8
MAIN0
  6
BYBLOCK
 62
0
100
AcDbLine
 10
577.4516803800750
 20
215.5638819453934
 30
0.0000000000000000
 11
574.4516803800750
 21
215.5638819453934
 31
0.0000000000000000
  0
LINE
  5
263
100
AcDbEntity
  8
MAIN0
  6
BYBLOCK
 62
0
100
AcDbLine
 10
621.9516803800750
 20
215.5638819453934
 30
0.0000000000000000
 11
624.9516803800750
 21
215.5638819453934
 31
0.0000000000000000
  0
LINE
  5
264
100
AcDbEntity
  8
MAIN0
  6
BYBLOCK
 62
0
100
AcDbLine
 10
615.9516803800750
 20
205.5450205151335
 30
0.0000000000000000
 11
615.9516803800750
 21
221.5638819453934
 31
0.0000000000000000
  0
MTEXT
  5
265
100
AcDbEntity
  8
MAIN0
  6
BYBLOCK
 62
0
100
AcDbMText
 10
599.7016803800750
 20
220.7138818023422
 30
0.0000000000000000
 40
9.299999713897705
 41
0.0000000000000000
 71
     5
 72
     1
  1
\A1;32.5
 11
1.000000000000000
 21
0.0000000000000000
 31
0.0000000000000000
  7
STANDARD
  0
ENDBLK
  5
266
100
AcDbEntity
  8
MAIN0
  6
CONTINUOUS
 62
3
100
AcDbBlockEnd
  0
BLOCK
  5
268
100
AcDbEntity
  8
MAIN0
  6
CONTINUOUS
 62
3
100
AcDbBlockBegin
  2
*D20
 70
    65
 10
0.0
 20
0.0
 30
0.0
  0
LINE
  5
269
100
AcDbEntity
  8
MAIN0
  6
BYBLOCK
 62
0
100
AcDbLine
 10
615.9516803800750
 20
205.5450205151335
 30
0.0000000000000000
 11
615.9516803800750
 21
221.5638819453934
 31
0.0000000000000000
  0
LINE
  5
26A
100
AcDbEntity
  8
MAIN0
  6
BYBLOCK
 62
0
100
AcDbLine
 10
621.9516803800750
 20
215.5638819453934
 30
0.0000000000000000
 11
634.9516803800750
 21
215.5638819453934
 31
0.0000000000000000
  0
INSERT
  5
26B
100
AcDbEntity
  8
MAIN0
  6
BYBLOCK
 62
0
100
AcDbBlockReference
  2
_OPEN
 10
615.9516803800750
 20
215.5638819453934
 30
0.0000000000000000
 41
6.000000000000000
 42
6.000000000000000
 43
6.000000000000000
 50
180.0000000000000
  0
INSERT
  5
26C
100
AcDbEntity
  8
MAIN0
  6
BYBLOCK
 62
0
100
AcDbBlockReference
  2
_OPEN
 10
640.9516803800750
 20
215.5638819453934
 30
0.0000000000000000
 41
6.000000000000000
 42
6.000000000000000
 43
6.000000000000000
 50
0.0000000000000000
  0
LINE
  5
26D
100
AcDbEntity
  8
MAIN0
  6
BYBLOCK
 62
0
100
AcDbLine
 10
640.9516803800750
 20
205.5450205151335
 30
0.0000000000000000
 11
640.9516803800750
 21
221.5638819453934
 31
0.0000000000000000
  0
MTEXT
  5
26E
100
AcDbEntity
  8
MAIN0
  6
BYBLOCK
 62
0
100
AcDbMText
 10
628.4516803800750
 20
220.7138818023422
 30
0.0000000000000000
 40
9.299999713897705
 41
0.0000000000000000
 71
     5
 72
     1
  1
\A1;25
 11
1.000000000000000
 21
0.0000000000000000
 31
0.0000000000000000
  7
STANDARD
  0
ENDBLK
  5
26F
100
AcDbEntity
  8
MAIN0
  6
CONTINUOUS
 62
3
100
AcDbBlockEnd
  0
BLOCK
  5
275
100
AcDbEntity
  8
MAIN0
  6
CONTINUOUS
 62
3
100
AcDbBlockBegin
  2
*D21
 70
    65
 10
0.0
 20
0.0
 30
0.0
  0
LINE
  5
276
100
AcDbEntity
  8
MAIN0
  6
BYBLOCK
 62
0
100
AcDbLine
 10
581.0516803443122
 20
238.1450204793707
 30
0.0000000000000000
 11
545.8669405567682
 21
238.1450204793707
 31
0.0000000000000000
  0
LINE
  5
277
100
AcDbEntity
  8
MAIN0
  6
BYBLOCK
 62
0
100
AcDbLine
 10
551.8669405567682
 20
232.1450204793707
 30
0.0000000000000000
 11
551.8669405567682
 21
209.1450204793707
 31
0.0000000000000000
  0
INSERT
  5
278
100
AcDbEntity
  8
MAIN0
  6
BYBLOCK
 62
0
100
AcDbBlockReference
  2
_OPEN
 10
551.8669405567682
 20
238.1450204793707
 30
0.0000000000000000
 41
6.000000000000000
 42
6.000000000000000
 43
6.000000000000000
 50
90.00000000000000
  0
INSERT
  5
279
100
AcDbEntity
  8
MAIN0
  6
BYBLOCK
 62
0
100
AcDbBlockReference
  2
_OPEN
 10
551.8669405567682
 20
203.1450204793707
 30
0.0000000000000000
 41
6.000000000000000
 42
6.000000000000000
 43
6.000000000000000
 50
270.0000000000000
  0
LINE
  5
27A
100
AcDbEntity
  8
MAIN0
  6
BYBLOCK
 62
0
100
AcDbLine
 10
581.0516803443122
 20
203.1450204793707
 30
0.0000000000000000
 11
545.8669405567682
 21
203.1450204793707
 31
0.0000000000000000
  0
MTEXT
  5
27B
100
AcDbEntity
  8
MAIN0
  6
BYBLOCK
 62
0
100
AcDbMText
 10
546.7169406998194
 20
220.6450204793707
 30
0.0000000000000000
 40
9.299999713897705
 41
0.0000000000000000
 71
     5
 72
     1
  1
\A1;35
 11
6.123233995736766e-017
 21
1.000000000000000
 31
0.0000000000000000
  7
STANDARD
  0
ENDBLK
  5
27C
100
AcDbEntity
  8
MAIN0
  6
CONTINUOUS
 62
3
100
AcDbBlockEnd
  0
BLOCK
  5
27E
100
AcDbEntity
  8
MAIN0
  6
CONTINUOUS
 62
3
100
AcDbBlockBegin
  2
*D22
 70
    65
 10
0.0
 20
0.0
 30
0.0
  0
LINE
  5
27F
100
AcDbEntity
  8
MAIN0
  6
BYBLOCK
 62
0
100
AcDbLine
 10
585.0516803442843
 20
183.1450204793970
 30
0.0000000000000000
 11
545.8669405567682
 21
183.1450204793970
 31
0.0000000000000000
  0
LINE
  5
280
100
AcDbEntity
  8
MAIN0
  6
BYBLOCK
 62
0
100
AcDbLine
 10
551.8669405567682
 20
183.1450204793970
 30
0.0000000000000000
 11
551.8669405567682
 21
172.1450204793970
 31
0.0000000000000000
  0
INSERT
  5
281
100
AcDbEntity
  8
MAIN0
  6
BYBLOCK
 62
0
100
AcDbBlockReference
  2
_OPEN
 10
551.8669405567682
 20
183.1450204793970
 30
0.0000000000000000
 41
6.000000000000000
 42
6.000000000000000
 43
6.000000000000000
 50
270.0000000000000
  0
INSERT
  5
282
100
AcDbEntity
  8
MAIN0
  6
BYBLOCK
 62
0
100
AcDbBlockReference
  2
_OPEN
 10
551.8669405567682
 20
172.1450204793970
 30
0.0000000000000000
 41
6.000000000000000
 42
6.000000000000000
 43
6.000000000000000
 50
90.00000000000000
  0
LINE
  5
283
100
AcDbEntity
  8
MAIN0
  6
BYBLOCK
 62
0
100
AcDbLine
 10
551.8669405567682
 20
189.1450204793970
 30
0.0000000000000000
 11
551.8669405567682
 21
192.1450204793970
 31
0.0000000000000000
  0
LINE
  5
284
100
AcDbEntity
  8
MAIN0
  6
BYBLOCK
 62
0
100
AcDbLine
 10
551.8669405567682
 20
166.1450204793970
 30
0.0000000000000000
 11
551.8669405567682
 21
163.1450204793970
 31
0.0000000000000000
  0
LINE
  5
285
100
AcDbEntity
  8
MAIN0
  6
BYBLOCK
 62
0
100
AcDbLine
 10
585.0516803442843
 20
172.1450204793969
 30
0.0000000000000000
 11
545.8669405567682
 21
172.1450204793970
 31
0.0000000000000000
  0
MTEXT
  5
286
100
AcDbEntity
  8
MAIN0
  6
BYBLOCK
 62
0
100
AcDbMText
 10
546.7169406998194
 20
177.6450204793970
 30
0.0000000000000000
 40
9.299999713897705
 41
0.0000000000000000
 71
     5
 72
     1
  1
\A1;11
 11
6.123233995736766e-017
 21
1.000000000000000
 31
0.0000000000000000
  7
STANDARD
  0
ENDBLK
  5
287
100
AcDbEntity
  8
MAIN0
  6
CONTINUOUS
 62
3
100
AcDbBlockEnd
  0
BLOCK
  5
289
100
AcDbEntity
  8
MAIN0
  6
CONTINUOUS
 62
3
100
AcDbBlockBegin
  2
*D23
 70
    65
 10
0.0
 20
0.0
 30
0.0
  0
LINE
  5
28A
100
AcDbEntity
  8
MAIN0
  6
BYBLOCK
 62
0
100
AcDbLine
 10
589.6593754988580
 20
252.6450204793969
 30
0.0000000000000000
 11
523.8786225653282
 21
252.6450204793969
 31
0.0000000000000000
  0
LINE
  5
28B
100
AcDbEntity
  8
MAIN0
  6
BYBLOCK
 62
0
100
AcDbLine
 10
529.8786225653282
 20
246.6450204793969
 30
0.0000000000000000
 11
529.8786225653282
 21
209.1450204793707
 31
0.0000000000000000
  0
INSERT
  5
28C
100
AcDbEntity
  8
MAIN0
  6
BYBLOCK
 62
0
100
AcDbBlockReference
  2
_OPEN
 10
529.8786225653282
 20
252.6450204793969
 30
0.0000000000000000
 41
6.000000000000000
 42
6.000000000000000
 43
6.000000000000000
 50
90.00000000000000
  0
INSERT
  5
28D
100
AcDbEntity
  8
MAIN0
  6
BYBLOCK
 62
0
100
AcDbBlockReference
  2
_OPEN
 10
529.8786225653282
 20
203.1450204793707
 30
0.0000000000000000
 41
6.000000000000000
 42
6.000000000000000
 43
6.000000000000000
 50
270.0000000000000
  0
LINE
  5
28E
100
AcDbEntity
  8
MAIN0
  6
BYBLOCK
 62
0
100
AcDbLine
 10
581.0516803443122
 20
203.1450204793707
 30
0.0000000000000000
 11
523.8786225653282
 21
203.1450204793707
 31
0.0000000000000000
  0
MTEXT
  5
28F
100
AcDbEntity
  8
MAIN0
  6
BYBLOCK
 62
0
100
AcDbMText
 10
524.7286227083794
 20
227.8950204793838
 30
0.0000000000000000
 40
9.299999713897705
 41
0.0000000000000000
 71
     5
 72
     1
  1
\A1;49.5
 11
6.123233995736766e-017
 21
1.000000000000000
 31
0.0000000000000000
  7
STANDARD
  0
ENDBLK
  5
290
100
AcDbEntity
  8
MAIN0
  6
CONTINUOUS
 62
3
100
AcDbBlockEnd
  0
BLOCK
  5
292
100
AcDbEntity
  8
MAIN0
  6
CONTINUOUS
 62
3
100
AcDbBlockBegin
  2
*D24
 70
    65
 10
0.0
 20
0.0
 30
0.0
  0
LINE
  5
293
100
AcDbEntity
  8
MAIN0
  6
BYBLOCK
 62
0
100
AcDbLine
 10
581.0516803443122
 20
203.1450204793707
 30
0.0000000000000000
 11
523.8786225653282
 21
203.1450204793707
 31
0.0000000000000000
  0
LINE
  5
294
100
AcDbEntity
  8
MAIN0
  6
BYBLOCK
 62
0
100
AcDbLine
 10
529.8786225653282
 20
203.1450204793707
 30
0.0000000000000000
 11
529.8786225653282
 21
183.1450204793970
 31
0.0000000000000000
  0
INSERT
  5
295
100
AcDbEntity
  8
MAIN0
  6
BYBLOCK
 62
0
100
AcDbBlockReference
  2
_OPEN
 10
529.8786225653282
 20
203.1450204793707
 30
0.0000000000000000
 41
6.000000000000000
 42
6.000000000000000
 43
6.000000000000000
 50
270.0000000000000
  0
INSERT
  5
296
100
AcDbEntity
  8
MAIN0
  6
BYBLOCK
 62
0
100
AcDbBlockReference
  2
_OPEN
 10
529.8786225653282
 20
183.1450204793970
 30
0.0000000000000000
 41
6.000000000000000
 42
6.000000000000000
 43
6.000000000000000
 50
90.00000000000000
  0
LINE
  5
297
100
AcDbEntity
  8
MAIN0
  6
BYBLOCK
 62
0
100
AcDbLine
 10
529.8786225653282
 20
209.1450204793707
 30
0.0000000000000000
 11
529.8786225653282
 21
212.1450204793707
 31
0.0000000000000000
  0
LINE
  5
298
100
AcDbEntity
  8
MAIN0
  6
BYBLOCK
 62
0
100
AcDbLine
 10
529.8786225653282
 20
177.1450204793970
 30
0.0000000000000000
 11
529.8786225653282
 21
152.8944274480563
 31
0.0000000000000000
  0
LINE
  5
299
100
AcDbEntity
  8
MAIN0
  6
BYBLOCK
 62
0
100
AcDbLine
 10
585.0516803442843
 20
183.1450204793970
 30
0.0000000000000000
 11
523.8786225653282
 21
183.1450204793970
 31
0.0000000000000000
  0
MTEXT
  5
29A
100
AcDbEntity
  8
MAIN0
  6
BYBLOCK
 62
0
100
AcDbMText
 10
523.7286227083794
 20
166.8444277341586
 30
0.0000000000000000
 40
9.299999713897705
 41
0.0000000000000000
 71
     5
 72
     1
  1
\A1;（20）
 11
6.123233995736766e-017
 21
1.000000000000000
 31
0.0000000000000000
  7
KNJYOKO
  0
ENDBLK
  5
29B
100
AcDbEntity
  8
MAIN0
  6
CONTINUOUS
 62
3
100
AcDbBlockEnd
  0
BLOCK
  5
2A4
100
AcDbEntity
  8
MAIN0
  6
CONTINUOUS
 62
3
100
AcDbBlockBegin
  2
*D25
 70
    65
 10
0.0
 20
0.0
 30
0.0
  0
LINE
  5
2A5
100
AcDbEntity
  8
MAIN0
  6
BYBLOCK
 62
0
100
AcDbLine
 10
542.5516803443118
 20
788.3482592578209
 30
0.0000000000000000
 11
384.3642110331505
 21
788.3482592578209
 31
0.0000000000000000
  0
LINE
  5
2A6
100
AcDbEntity
  8
MAIN0
  6
BYBLOCK
 62
0
100
AcDbLine
 10
390.3642110331505
 20
782.3482592578209
 30
0.0000000000000000
 11
390.3642110331505
 21
654.3482592578212
 31
0.0000000000000000
  0
INSERT
  5
2A7
100
AcDbEntity
  8
MAIN0
  6
BYBLOCK
 62
0
100
AcDbBlockReference
  2
_OPEN
 10
390.3642110331505
 20
788.3482592578209
 30
0.0000000000000000
 41
6.000000000000000
 42
6.000000000000000
 43
6.000000000000000
 50
90.00000000000000
  0
INSERT
  5
2A8
100
AcDbEntity
  8
MAIN0
  6
BYBLOCK
 62
0
100
AcDbBlockReference
  2
_OPEN
 10
390.3642110331505
 20
648.3482592578212
 30
0.0000000000000000
 41
6.000000000000000
 42
6.000000000000000
 43
6.000000000000000
 50
270.0000000000000
  0
LINE
  5
2A9
100
AcDbEntity
  8
MAIN0
  6
BYBLOCK
 62
0
100
AcDbLine
 10
542.5516803443119
 20
648.3482592578212
 30
0.0000000000000000
 11
384.3642110331505
 21
648.3482592578212
 31
0.0000000000000000
  0
MTEXT
  5
2AA
100
AcDbEntity
  8
MAIN0
  6
BYBLOCK
 62
0
100
AcDbMText
 10
385.2142111762017
 20
718.3482592578210
 30
0.0000000000000000
 40
9.299999713897705
 41
0.0000000000000000
 71
     5
 72
     1
  1
\A1;\U+2205140
 11
6.123233995736766e-017
 21
1.000000000000000
 31
0.0000000000000000
  7
STANDARD
  0
ENDBLK
  5
2AB
100
AcDbEntity
  8
MAIN0
  6
CONTINUOUS
 62
3
100
AcDbBlockEnd
  0
BLOCK
  5
2AD
100
AcDbEntity
  8
MAIN0
  6
CONTINUOUS
 62
3
100
AcDbBlockBegin
  2
*D26
 70
    65
 10
0.0
 20
0.0
 30
0.0
  0
LINE
  5
2AE
100
AcDbEntity
  8
MAIN0
  6
BYBLOCK
 62
0
100
AcDbLine
 10
485.4516803800767
 20
518.5450205151335
 30
0.0000000000000000
 11
485.4516803800767
 21
544.5864771450752
 31
0.0000000000000000
  0
LINE
  5
2AF
100
AcDbEntity
  8
MAIN0
  6
BYBLOCK
 62
0
100
AcDbLine
 10
491.4516803800767
 20
538.5864771450752
 30
0.0000000000000000
 11
880.4516803800750
 21
538.5864771450752
 31
0.0000000000000000
  0
INSERT
  5
2B0
100
AcDbEntity
  8
MAIN0
  6
BYBLOCK
 62
0
100
AcDbBlockReference
  2
_OPEN
 10
485.4516803800767
 20
538.5864771450752
 30
0.0000000000000000
 41
6.000000000000000
 42
6.000000000000000
 43
6.000000000000000
 50
180.0000000000000
  0
INSERT
  5
2B1
100
AcDbEntity
  8
MAIN0
  6
BYBLOCK
 62
0
100
AcDbBlockReference
  2
_OPEN
 10
886.4516803800750
 20
538.5864771450752
 30
0.0000000000000000
 41
6.000000000000000
 42
6.000000000000000
 43
6.000000000000000
 50
0.0000000000000000
  0
LINE
  5
2B2
100
AcDbEntity
  8
MAIN0
  6
BYBLOCK
 62
0
100
AcDbLine
 10
886.4516803800750
 20
510.5450205151333
 30
0.0000000000000000
 11
886.4516803800750
 21
544.5864771450752
 31
0.0000000000000000
  0
MTEXT
  5
2B3
100
AcDbEntity
  8
MAIN0
  6
BYBLOCK
 62
0
100
AcDbMText
 10
685.9516803800759
 20
543.7364770020240
 30
0.0000000000000000
 40
9.299999713897705
 41
0.0000000000000000
 71
     5
 72
     1
  1
\A1;401
 11
1.000000000000000
 21
0.0000000000000000
 31
0.0000000000000000
  7
STANDARD
  0
ENDBLK
  5
2B4
100
AcDbEntity
  8
MAIN0
  6
CONTINUOUS
 62
3
100
AcDbBlockEnd
  0
BLOCK
  5
2B6
100
AcDbEntity
  8
MAIN0
  6
CONTINUOUS
 62
3
100
AcDbBlockBegin
  2
*D27
 70
    65
 10
0.0
 20
0.0
 30
0.0
  0
LINE
  5
2B7
100
AcDbEntity
  8
MAIN0
  6
BYBLOCK
 62
0
100
AcDbLine
 10
886.4516803800750
 20
510.5450205151333
 30
0.0000000000000000
 11
886.4516803800750
 21
544.5864771450752
 31
0.0000000000000000
  0
LINE
  5
2B8
100
AcDbEntity
  8
MAIN0
  6
BYBLOCK
 62
0
100
AcDbLine
 10
886.4516803800750
 20
538.5864771450752
 30
0.0000000000000000
 11
889.4516803800750
 21
538.5864771450752
 31
0.0000000000000000
  0
INSERT
  5
2B9
100
AcDbEntity
  8
MAIN0
  6
BYBLOCK
 62
0
100
AcDbBlockReference
  2
_OPEN
 10
886.4516803800750
 20
538.5864771450752
 30
0.0000000000000000
 41
6.000000000000000
 42
6.000000000000000
 43
6.000000000000000
 50
0.0000000000000000
  0
INSERT
  5
2BA
100
AcDbEntity
  8
MAIN0
  6
BYBLOCK
 62
0
100
AcDbBlockReference
  2
_OPEN
 10
889.4516803800750
 20
538.5864771450752
 30
0.0000000000000000
 41
6.000000000000000
 42
6.000000000000000
 43
6.000000000000000
 50
180.0000000000000
  0
LINE
  5
2BB
100
AcDbEntity
  8
MAIN0
  6
BYBLOCK
 62
0
100
AcDbLine
 10
880.4516803800750
 20
538.5864771450752
 30
0.0000000000000000
 11
873.4638134907374
 21
538.5864771450752
 31
0.0000000000000000
  0
LINE
  5
2BC
100
AcDbEntity
  8
MAIN0
  6
BYBLOCK
 62
0
100
AcDbLine
 10
895.4516803800750
 20
538.5864771450752
 30
0.0000000000000000
 11
898.4516803800750
 21
538.5864771450752
 31
0.0000000000000000
  0
LINE
  5
2BD
100
AcDbEntity
  8
MAIN0
  6
BYBLOCK
 62
0
100
AcDbLine
 10
889.4516803800750
 20
491.8903199768979
 30
0.0000000000000000
 11
889.4516803800750
 21
544.5864771450752
 31
0.0000000000000000
  0
MTEXT
  5
2BE
100
AcDbEntity
  8
MAIN0
  6
BYBLOCK
 62
0
100
AcDbMText
 10
876.4638134907374
 20
544.7364770020240
 30
0.0000000000000000
 40
9.299999713897705
 41
0.0000000000000000
 71
     5
 72
     1
  1
\A1;3
 11
1.000000000000000
 21
0.0000000000000000
 31
0.0000000000000000
  7
STANDARD
  0
ENDBLK
  5
2BF
100
AcDbEntity
  8
MAIN0
  6
CONTINUOUS
 62
3
100
AcDbBlockEnd
  0
BLOCK
  5
2C1
100
AcDbEntity
  8
MAIN0
  6
CONTINUOUS
 62
3
100
AcDbBlockBegin
  2
*D28
 70
    65
 10
0.0
 20
0.0
 30
0.0
  0
LINE
  5
2C2
100
AcDbEntity
  8
MAIN0
  6
BYBLOCK
 62
0
100
AcDbLine
 10
889.4516803800750
 20
491.8903199768979
 30
0.0000000000000000
 11
889.4516803800750
 21
544.5864771450752
 31
0.0000000000000000
  0
LINE
  5
2C3
100
AcDbEntity
  8
MAIN0
  6
BYBLOCK
 62
0
100
AcDbLine
 10
895.4516803800750
 20
538.5864771450752
 30
0.0000000000000000
 11
935.8632623800763
 21
538.5864771450752
 31
0.0000000000000000
  0
INSERT
  5
2C4
100
AcDbEntity
  8
MAIN0
  6
BYBLOCK
 62
0
100
AcDbBlockReference
  2
_OPEN
 10
889.4516803800750
 20
538.5864771450752
 30
0.0000000000000000
 41
6.000000000000000
 42
6.000000000000000
 43
6.000000000000000
 50
180.0000000000000
  0
INSERT
  5
2C5
100
AcDbEntity
  8
MAIN0
  6
BYBLOCK
 62
0
100
AcDbBlockReference
  2
_OPEN
 10
941.8632623800763
 20
538.5864771450752
 30
0.0000000000000000
 41
6.000000000000000
 42
6.000000000000000
 43
6.000000000000000
 50
0.0000000000000000
  0
LINE
  5
2C6
100
AcDbEntity
  8
MAIN0
  6
BYBLOCK
 62
0
100
AcDbLine
 10
941.8632623800763
 20
461.0450205149393
 30
0.0000000000000000
 11
941.8632623800763
 21
544.5864771450752
 31
0.0000000000000000
  0
MTEXT
  5
2C7
100
AcDbEntity
  8
MAIN0
  6
BYBLOCK
 62
0
100
AcDbMText
 10
915.6574713800757
 20
543.7364770020240
 30
0.0000000000000000
 40
9.299999713897705
 41
0.0000000000000000
 71
     5
 72
     1
  1
\A1;52.4
 11
1.000000000000000
 21
0.0000000000000000
 31
0.0000000000000000
  7
STANDARD
  0
ENDBLK
  5
2C8
100
AcDbEntity
  8
MAIN0
  6
CONTINUOUS
 62
3
100
AcDbBlockEnd
  0
BLOCK
  5
2CA
100
AcDbEntity
  8
MAIN0
  6
CONTINUOUS
 62
3
100
AcDbBlockBegin
  2
*D29
 70
    65
 10
0.0
 20
0.0
 30
0.0
  0
LINE
  5
2CB
100
AcDbEntity
  8
MAIN0
  6
BYBLOCK
 62
0
100
AcDbLine
 10
941.8632623800763
 20
461.0450205149393
 30
0.0000000000000000
 11
941.8632623800763
 21
544.5864771450752
 31
0.0000000000000000
  0
LINE
  5
2CC
100
AcDbEntity
  8
MAIN0
  6
BYBLOCK
 62
0
100
AcDbLine
 10
947.8632623800763
 20
538.5864771450752
 30
0.0000000000000000
 11
1005.863262380076
 21
538.5864771450752
 31
0.0000000000000000
  0
INSERT
  5
2CD
100
AcDbEntity
  8
MAIN0
  6
BYBLOCK
 62
0
100
AcDbBlockReference
  2
_OPEN
 10
941.8632623800763
 20
538.5864771450752
 30
0.0000000000000000
 41
6.000000000000000
 42
6.000000000000000
 43
6.000000000000000
 50
180.0000000000000
  0
INSERT
  5
2CE
100
AcDbEntity
  8
MAIN0
  6
BYBLOCK
 62
0
100
AcDbBlockReference
  2
_OPEN
 10
1011.863262380076
 20
538.5864771450752
 30
0.0000000000000000
 41
6.000000000000000
 42
6.000000000000000
 43
6.000000000000000
 50
0.0000000000000000
  0
LINE
  5
2CF
100
AcDbEntity
  8
MAIN0
  6
BYBLOCK
 62
0
100
AcDbLine
 10
1011.863262380076
 20
461.0450205149393
 30
0.0000000000000000
 11
1011.863262380076
 21
544.5864771450752
 31
0.0000000000000000
  0
MTEXT
  5
2D0
100
AcDbEntity
  8
MAIN0
  6
BYBLOCK
 62
0
100
AcDbMText
 10
976.8632623800763
 20
543.7364770020240
 30
0.0000000000000000
 40
9.299999713897705
 41
0.0000000000000000
 71
     5
 72
     1
  1
\A1;0～MAX　70
 11
1.000000000000000
 21
0.0000000000000000
 31
0.0000000000000000
  7
KNJYOKO
  0
ENDBLK
  5
2D1
100
AcDbEntity
  8
MAIN0
  6
CONTINUOUS
 62
3
100
AcDbBlockEnd
  0
BLOCK
  5
2D3
100
AcDbEntity
  8
MAIN0
  6
CONTINUOUS
 62
3
100
AcDbBlockBegin
  2
*D30
 70
    65
 10
0.0
 20
0.0
 30
0.0
  0
LINE
  5
2D4
100
AcDbEntity
  8
MAIN0
  6
BYBLOCK
 62
0
100
AcDbLine
 10
542.5516803443115
 20
528.1450204793711
 30
0.0000000000000000
 11
384.3642110331505
 21
528.1450204793711
 31
0.0000000000000000
  0
LINE
  5
2D5
100
AcDbEntity
  8
MAIN0
  6
BYBLOCK
 62
0
100
AcDbLine
 10
390.3642110331505
 20
522.1450204793711
 30
0.0000000000000000
 11
390.3642110331505
 21
209.1450204793707
 31
0.0000000000000000
  0
INSERT
  5
2D6
100
AcDbEntity
  8
MAIN0
  6
BYBLOCK
 62
0
100
AcDbBlockReference
  2
_OPEN
 10
390.3642110331505
 20
528.1450204793711
 30
0.0000000000000000
 41
6.000000000000000
 42
6.000000000000000
 43
6.000000000000000
 50
90.00000000000000
  0
INSERT
  5
2D7
100
AcDbEntity
  8
MAIN0
  6
BYBLOCK
 62
0
100
AcDbBlockReference
  2
_OPEN
 10
390.3642110331505
 20
203.1450204793707
 30
0.0000000000000000
 41
6.000000000000000
 42
6.000000000000000
 43
6.000000000000000
 50
270.0000000000000
  0
LINE
  5
2D8
100
AcDbEntity
  8
MAIN0
  6
BYBLOCK
 62
0
100
AcDbLine
 10
581.0516803443122
 20
203.1450204793707
 30
0.0000000000000000
 11
384.3642110331505
 21
203.1450204793707
 31
0.0000000000000000
  0
MTEXT
  5
2D9
100
AcDbEntity
  8
MAIN0
  6
BYBLOCK
 62
0
100
AcDbMText
 10
385.2142111762017
 20
365.6450204793709
 30
0.0000000000000000
 40
9.299999713897705
 41
0.0000000000000000
 71
     5
 72
     1
  1
\A1;325
 11
6.123233995736766e-017
 21
1.000000000000000
 31
0.0000000000000000
  7
STANDARD
  0
ENDBLK
  5
2DA
100
AcDbEntity
  8
MAIN0
  6
CONTINUOUS
 62
3
100
AcDbBlockEnd
  0
BLOCK
  5
2F7
100
AcDbEntity
  8
MAIN0
  6
BYBLOCK
 62
3
100
AcDbBlockBegin
  2
*X0
 70
     1
 10
0.0
 20
0.0
 30
0.0
  0
LINE
  5
2F8
100
AcDbEntity
  8
MAIN0
  6
BYBLOCK
 62
0
100
AcDbLine
 10
1000.604932130470
 20
458.1450204793782
 30
0.0000000000000000
 11
1005.042754303998
 21
462.5828426529063
 31
0.0000000000000000
  0
LINE
  5
2F9
100
AcDbEntity
  8
MAIN0
  6
BYBLOCK
 62
0
100
AcDbLine
 10
1000.604932130470
 20
462.3876611664975
 30
0.0000000000000000
 11
1002.353027887493
 21
464.1357569235215
 31
0.0000000000000000
  0
LINE
  5
2FA
100
AcDbEntity
  8
MAIN0
  6
BYBLOCK
 62
0
100
AcDbLine
 10
1000.604932130470
 20
453.9023797922585
 30
0.0000000000000000
 11
1007.732480720505
 21
461.0299283822931
 31
0.0000000000000000
  0
LINE
  5
2FB
100
AcDbEntity
  8
MAIN0
  6
BYBLOCK
 62
0
100
AcDbLine
 10
1004.119145593623
 20
453.1739525682909
 30
0.0000000000000000
 11
1010.422207137009
 21
459.4770141116779
 31
0.0000000000000000
  0
ENDBLK
  5
2FC
100
AcDbEntity
  8
MAIN0
  6
BYBLOCK
 62
3
100
AcDbBlockEnd
  0
BLOCK
  5
339
100
AcDbEntity
  8
MAIN0
  6
BYBLOCK
 62
3
100
AcDbBlockBegin
  2
*X1
 70
     1
 10
0.0
 20
0.0
 30
0.0
  0
LINE
  5
33A
100
AcDbEntity
  8
MAIN0
  6
BYBLOCK
 62
0
100
AcDbLine
 10
930.6049321307312
 20
718.3482592575526
 30
0.0000000000000000
 11
935.0427543042599
 21
722.7860814310810
 31
0.0000000000000000
  0
LINE
  5
33B
100
AcDbEntity
  8
MAIN0
  6
BYBLOCK
 62
0
100
AcDbLine
 10
930.6049321307312
 20
722.5908999446724
 30
0.0000000000000000
 11
932.3530278877545
 21
724.3389957016962
 31
0.0000000000000000
  0
LINE
  5
33C
100
AcDbEntity
  8
MAIN0
  6
BYBLOCK
 62
0
100
AcDbLine
 10
930.6049321307314
 20
714.1056185704331
 30
0.0000000000000000
 11
937.7324807207663
 21
721.2331671604679
 31
0.0000000000000000
  0
LINE
  5
33D
100
AcDbEntity
  8
MAIN0
  6
BYBLOCK
 62
0
100
AcDbLine
 10
934.1191455938845
 20
713.3771913464653
 30
0.0000000000000000
 11
940.4222071372714
 21
719.6802528898527
 31
0.0000000000000000
  0
ENDBLK
  5
33E
100
AcDbEntity
  8
MAIN0
  6
BYBLOCK
 62
3
100
AcDbBlockEnd
  0
BLOCK
  5
43B
100
AcDbEntity
  8
MAIN0
  6
BYBLOCK
 62
3
100
AcDbBlockBegin
  2
*X2
 70
     1
 10
0.0
 20
0.0
 30
0.0
  0
LINE
  5
43C
100
AcDbEntity
  8
MAIN0
  6
BYBLOCK
 62
0
100
AcDbLine
 10
930.6049321307313
 20
458.1450204792271
 30
0.0000000000000000
 11
935.0427543042601
 21
462.5828426527554
 31
0.0000000000000000
  0
LINE
  5
43D
100
AcDbEntity
  8
MAIN0
  6
BYBLOCK
 62
0
100
AcDbLine
 10
930.6049321307312
 20
462.3876611663467
 30
0.0000000000000000
 11
932.3530278877544
 21
464.1357569233705
 31
0.0000000000000000
  0
LINE
  5
43E
100
AcDbEntity
  8
MAIN0
  6
BYBLOCK
 62
0
100
AcDbLine
 10
930.6049321307315
 20
453.9023797921076
 30
0.0000000000000000
 11
937.7324807207663
 21
461.0299283821423
 31
0.0000000000000000
  0
LINE
  5
43F
100
AcDbEntity
  8
MAIN0
  6
BYBLOCK
 62
0
100
AcDbLine
 10
934.1191455938844
 20
453.1739525681398
 30
0.0000000000000000
 11
940.4222071372712
 21
459.4770141115271
 31
0.0000000000000000
  0
ENDBLK
  5
440
100
AcDbEntity
  8
MAIN0
  6
BYBLOCK
 62
3
100
AcDbBlockEnd
  0
ENDSEC
  0
SECTION
  2
ENTITIES
  0
LINE
  5
46
100
AcDbEntity
  8
MAIN0
  6
CONTINUOUS
 62
3
100
AcDbLine
 10
583.4516803800750
 20
203.1450204793707
 30
0.0000000000000000
 11
903.4516803800750
 21
203.1450204793707
 31
0.0000000000000000
  0
LINE
  5
47
100
AcDbEntity
  8
MAIN0
  6
CONTINUOUS
 62
3
100
AcDbLine
 10
863.4516803800750
 20
238.1450204793707
 30
0.0000000000000000
 11
903.4516803800750
 21
238.1450204793707
 31
0.0000000000000000
  0
LINE
  5
48
100
AcDbEntity
  8
MAIN0
  6
CONTINUOUS
 62
3
100
AcDbLine
 10
583.4516803800750
 20
403.1450204793707
 30
0.0000000000000000
 11
623.4516803800750
 21
403.1450204793707
 31
0.0000000000000000
  0
LINE
  5
49
100
AcDbEntity
  8
MAIN0
  6
CENTER
 62
3
100
AcDbLine
 10
531.7660313873898
 20
458.1450204793707
 30
0.0000000000000000
 11
1020.886775555474
 21
458.1450204793707
 31
0.0000000000000000
  0
LINE
  5
4A
100
AcDbEntity
  8
MAIN0
  6
CONTINUOUS
 62
3
100
AcDbLine
 10
903.4516803800750
 20
238.1450204793707
 30
0.0000000000000000
 11
903.4516803800750
 21
203.1450204793707
 31
0.0000000000000000
  0
LINE
  5
4B
100
AcDbEntity
  8
MAIN0
  6
CONTINUOUS
 62
3
100
AcDbLine
 10
583.4516803800750
 20
238.1450204793707
 30
0.0000000000000000
 11
583.4516803800750
 21
203.1450204793707
 31
0.0000000000000000
  0
LINE
  5
4C
100
AcDbEntity
  8
MAIN0
  6
CONTINUOUS
 62
3
100
AcDbLine
 10
629.4516803800750
 20
397.1450204793707
 30
0.0000000000000000
 11
629.4516803800750
 21
242.1450204793707
 31
0.0000000000000000
  0
ARC
  5
4D
100
AcDbEntity
  8
MAIN0
  6
CONTINUOUS
 62
3
100
AcDbCircle
 10
899.4516803800750
 20
232.1450204793707
 30
0.0000000000000000
 40
4.000000000000000
100
AcDbArc
 50
0.0000000000000000
 51
90.00000000000000
  0
ARC
  5
4E
100
AcDbEntity
  8
MAIN0
  6
CONTINUOUS
 62
3
100
AcDbCircle
 10
587.4516803800750
 20
232.1450204793707
 30
0.0000000000000000
 40
4.000000000000000
100
AcDbArc
 50
90.00000000000000
 51
180.0000000000000
  0
LINE
  5
4F
100
AcDbEntity
  8
MAIN0
  6
CONTINUOUS
 62
3
100
AcDbLine
 10
623.4516803800750
 20
238.1450204793707
 30
0.0000000000000000
 11
583.4516803800750
 21
238.1450204793707
 31
0.0000000000000000
  0
LINE
  5
50
100
AcDbEntity
  8
MAIN0
  6
CONTINUOUS
 62
3
100
AcDbLine
 10
587.4516803800750
 20
236.1450204793707
 30
0.0000000000000000
 11
623.4516803800750
 21
236.1450204793707
 31
0.0000000000000000
  0
LINE
  5
51
100
AcDbEntity
  8
MAIN0
  6
CONTINUOUS
 62
3
100
AcDbLine
 10
861.6529256092640
 20
236.1450204793707
 30
0.0000000000000000
 11
899.4516803800750
 21
236.1450204793707
 31
0.0000000000000000
  0
ARC
  5
52
100
AcDbEntity
  8
MAIN0
  6
CONTINUOUS
 62
3
100
AcDbCircle
 10
863.4516803800750
 20
242.1450204793707
 30
0.0000000000000000
 40
6.000000000000000
100
AcDbArc
 50
180.0000000000000
 51
270.0000000000000
  0
LINE
  5
53
100
AcDbEntity
  8
MAIN0
  6
CONTINUOUS
 62
3
100
AcDbLine
 10
598.4516803800750
 20
503.6450204793705
 30
0.0000000000000000
 11
878.4516803800750
 21
503.6450204793705
 31
0.0000000000000000
  0
ARC
  5
54
100
AcDbEntity
  8
MAIN0
  6
CONTINUOUS
 62
3
100
AcDbCircle
 10
623.4516803800750
 20
242.1450204793707
 30
0.0000000000000000
 40
6.000000000000000
100
AcDbArc
 50
270.0000000000000
 51
360.0000000000000
  0
LINE
  5
55
100
AcDbEntity
  8
MAIN0
  6
CONTINUOUS
 62
3
100
AcDbLine
 10
615.9516803800750
 20
198.1450204794046
 30
0.0000000000000000
 11
615.9516803800750
 21
203.1450204793707
 31
0.0000000000000000
  0
LINE
  5
56
100
AcDbEntity
  8
MAIN0
  6
CONTINUOUS
 62
3
100
AcDbLine
 10
615.9516803800750
 20
198.1450204794047
 30
0.0000000000000000
 11
640.9516803800752
 21
198.1450204794459
 31
0.0000000000000000
  0
LINE
  5
57
100
AcDbEntity
  8
MAIN0
  6
CONTINUOUS
 62
3
100
AcDbLine
 10
640.9516803800750
 20
198.1450204794460
 30
0.0000000000000000
 11
640.9516803800750
 21
203.1450204793707
 31
0.0000000000000000
  0
LINE
  5
58
100
AcDbEntity
  8
MAIN0
  6
HIDDEN
 62
3
100
AcDbLine
 10
623.4516803800750
 20
425.6450204793707
 30
0.0000000000000000
 11
598.4516803800750
 21
425.6450204793707
 31
0.0000000000000000
  0
LINE
  5
59
100
AcDbEntity
  8
MAIN0
  6
HIDDEN
 62
3
100
AcDbLine
 10
623.4516803800750
 20
490.6450204793705
 30
0.0000000000000000
 11
598.4516803800750
 21
490.6450204793705
 31
0.0000000000000000
  0
LINE
  5
5A
100
AcDbEntity
  8
MAIN0
  6
CONTINUOUS
 62
3
100
AcDbLine
 10
598.4516803800750
 20
508.1450204793705
 30
0.0000000000000000
 11
878.4516803800750
 21
508.1450204793705
 31
0.0000000000000000
  0
LINE
  5
5B
100
AcDbEntity
  8
MAIN0
  6
CONTINUOUS
 62
3
100
AcDbLine
 10
583.4516803800750
 20
508.1450204793705
 30
0.0000000000000000
 11
878.4516803800751
 21
508.1450204793705
 31
0.0000000000000000
  0
LINE
  5
5C
100
AcDbEntity
  8
MAIN0
  6
CENTER
 62
3
100
AcDbLine
 10
482.2204752446548
 20
718.3482592576963
 30
0.0000000000000000
 11
943.1847257409625
 21
718.3482592576963
 31
0.0000000000000000
  0
LINE
  5
5D
100
AcDbEntity
  8
MAIN0
  6
CONTINUOUS
 62
3
100
AcDbLine
 10
603.4516803800750
 20
823.3482592576963
 30
0.0000000000000000
 11
883.4516803800750
 21
823.3482592576963
 31
0.0000000000000000
  0
LINE
  5
5E
100
AcDbEntity
  8
MAIN0
  6
CENTER
 62
3
100
AcDbLine
 10
851.4516803800758
 20
617.2520238583533
 30
0.0000000000000000
 11
851.4516803800750
 21
801.5081343112225
 31
0.0000000000000000
  0
LINE
  5
5F
100
AcDbEntity
  8
MAIN0
  6
CONTINUOUS
 62
3
100
AcDbLine
 10
598.4516803800750
 20
656.3482592576963
 30
0.0000000000000000
 11
878.4516803800750
 21
656.3482592576963
 31
0.0000000000000000
  0
LINE
  5
60
100
AcDbEntity
  8
MAIN0
  6
CONTINUOUS
 62
3
100
AcDbLine
 10
598.4516803800750
 20
780.3482592576963
 30
0.0000000000000000
 11
878.4516803800750
 21
780.3482592576963
 31
0.0000000000000000
  0
LINE
  5
61
100
AcDbEntity
  8
MAIN0
  6
CONTINUOUS
 62
3
100
AcDbLine
 10
824.4516803800751
 20
656.3482592577093
 30
0.0000000000000000
 11
824.4516803800960
 21
637.3482592613086
 31
0.0000000000000000
  0
LINE
  5
62
100
AcDbEntity
  8
MAIN0
  6
CONTINUOUS
 62
3
100
AcDbLine
 10
824.4516803814061
 20
637.3482592577088
 30
0.0000000000000000
 11
878.4516803787856
 21
637.3482592577680
 31
0.0000000000000000
  0
LINE
  5
63
100
AcDbEntity
  8
MAIN0
  6
CONTINUOUS
 62
3
100
AcDbLine
 10
830.2752041296750
 20
621.3482592577057
 30
0.0000000000000000
 11
824.4516803814061
 21
637.3482592577085
 31
0.0000000000000000
  0
LINE
  5
64
100
AcDbEntity
  8
MAIN0
  6
CONTINUOUS
 62
3
100
AcDbLine
 10
830.2752041296749
 20
621.3482592577065
 30
0.0000000000000000
 11
872.6281566305518
 21
621.3482592577529
 31
0.0000000000000000
  0
LINE
  5
65
100
AcDbEntity
  8
MAIN0
  6
CONTINUOUS
 62
3
100
AcDbLine
 10
872.6281566305522
 20
621.3482592577529
 30
0.0000000000000000
 11
878.4516803787858
 21
637.3482592577677
 31
0.0000000000000000
  0
LINE
  5
66
100
AcDbEntity
  8
MAIN0
  6
CONTINUOUS
 62
3
100
AcDbLine
 10
878.4516803800750
 20
656.3482592577681
 30
0.0000000000000000
 11
878.4516803800958
 21
637.3482592613674
 31
0.0000000000000000
  0
ARC
  5
67
100
AcDbEntity
  8
MAIN0
  6
CONTINUOUS
 62
3
100
AcDbCircle
 10
743.3872895144442
 20
582.4914996221080
 30
0.0000000000000000
 40
20.00000000000000
100
AcDbArc
 50
47.40104515702484
 51
366.4264149275795
  0
LINE
  5
68
100
AcDbEntity
  8
MAIN0
  6
CONTINUOUS
 62
3
100
AcDbLine
 10
878.4516803800750
 20
656.3482592576963
 30
0.0000000000000000
 11
878.4516803800750
 21
793.3482592576963
 31
0.0000000000000000
  0
LINE
  5
69
100
AcDbEntity
  8
MAIN0
  6
CONTINUOUS
 62
3
100
AcDbLine
 10
886.4516803800750
 20
673.3482592576963
 30
0.0000000000000000
 11
886.4516803800750
 21
763.3482592576963
 31
0.0000000000000000
  0
LINE
  5
6A
100
AcDbEntity
  8
MAIN0
  6
CONTINUOUS
 62
3
100
AcDbLine
 10
824.4516803800750
 20
793.3482592576963
 30
0.0000000000000000
 11
824.4516803800750
 21
780.3482592576963
 31
0.0000000000000000
  0
LINE
  5
6B
100
AcDbEntity
  8
MAIN0
  6
CONTINUOUS
 62
3
100
AcDbLine
 10
824.4516803800750
 20
793.3482592576963
 30
0.0000000000000000
 11
878.4516803800750
 21
793.3482592576963
 31
0.0000000000000000
  0
LINE
  5
6C
100
AcDbEntity
  8
MAIN0
  6
CONTINUOUS
 62
3
100
AcDbLine
 10
583.4516803800750
 20
663.3482592576963
 30
0.0000000000000000
 11
583.4516803800750
 21
773.3482592576963
 31
0.0000000000000000
  0
LINE
  5
6D
100
AcDbEntity
  8
MAIN0
  6
CONTINUOUS
 62
3
100
AcDbLine
 10
598.4516803800750
 20
656.3482592576963
 30
0.0000000000000000
 11
598.4516803800750
 21
780.3482592576962
 31
0.0000000000000000
  0
ARC
  5
6E
100
AcDbEntity
  8
MAIN0
  6
CONTINUOUS
 62
3
100
AcDbCircle
 10
883.4516803800750
 20
803.3482592576963
 30
0.0000000000000000
 40
20.00000000000000
100
AcDbArc
 50
0.0000000000000000
 51
90.00000000000000
  0
ARC
  5
6F
100
AcDbEntity
  8
MAIN0
  6
CONTINUOUS
 62
3
100
AcDbCircle
 10
883.4516803800750
 20
633.3482592576963
 30
0.0000000000000000
 40
20.00000000000000
100
AcDbArc
 50
270.0000000000000
 51
360.0000000000000
  0
ARC
  5
70
100
AcDbEntity
  8
MAIN0
  6
CONTINUOUS
 62
3
100
AcDbCircle
 10
603.4516803800750
 20
633.3482592576963
 30
0.0000000000000000
 40
20.00000000000000
100
AcDbArc
 50
180.0000000000000
 51
270.0000000000000
  0
ARC
  5
71
100
AcDbEntity
  8
MAIN0
  6
CONTINUOUS
 62
3
100
AcDbCircle
 10
603.4516803800750
 20
803.3482592576963
 30
0.0000000000000000
 40
20.00000000000000
100
AcDbArc
 50
90.00000000000000
 51
180.0000000000000
  0
LINE
  5
72
100
AcDbEntity
  8
MAIN0
  6
CONTINUOUS
 62
3
100
AcDbLine
 10
863.4516803800750
 20
241.1450204793707
 30
0.0000000000000000
 11
863.4516803800750
 21
238.1450204793707
 31
0.0000000000000000
  0
LINE
  5
73
100
AcDbEntity
  8
MAIN0
  6
CONTINUOUS
 62
3
100
AcDbLine
 10
623.4516803800750
 20
241.1450204793707
 30
0.0000000000000000
 11
623.4516803800750
 21
238.1450204793707
 31
0.0000000000000000
  0
ARC
  5
74
100
AcDbEntity
  8
MAIN0
  6
CONTINUOUS
 62
3
100
AcDbCircle
 10
623.4516803800750
 20
247.1450204793707
 30
0.0000000000000000
 40
6.000000000000000
100
AcDbArc
 50
270.0000000000000
 51
360.0000000000000
  0
LINE
  5
75
100
AcDbEntity
  8
MAIN0
  6
CENTER
 62
3
100
AcDbLine
 10
574.2669511129152
 20
484.1450204793705
 30
0.0000000000000000
 11
625.5456294821192
 21
484.1450204793705
 31
0.0000000000000000
  0
LINE
  5
76
100
AcDbEntity
  8
MAIN0
  6
CENTER
 62
3
100
AcDbLine
 10
188.6400666599019
 20
183.5674993899370
 30
0.0000000000000000
 11
188.6400666599019
 21
539.3389143582658
 31
0.0000000000000000
  0
LINE
  5
77
100
AcDbEntity
  8
MAIN0
  6
CONTINUOUS
 62
3
100
AcDbLine
 10
293.6400666599019
 20
203.1450204793709
 30
0.0000000000000000
 11
293.6400666599019
 21
236.1450204793707
 31
0.0000000000000000
  0
LINE
  5
78
100
AcDbEntity
  8
MAIN0
  6
CONTINUOUS
 62
3
100
AcDbLine
 10
83.64006665990189
 20
203.1450204793707
 30
0.0000000000000000
 11
83.64006665990189
 21
236.1450204793707
 31
0.0000000000000000
  0
LINE
  5
79
100
AcDbEntity
  8
MAIN0
  6
CONTINUOUS
 62
3
100
AcDbLine
 10
197.6400666599019
 20
208.1450204793707
 30
0.0000000000000000
 11
179.6400666599019
 21
208.1450204793707
 31
0.0000000000000000
  0
LINE
  5
7A
100
AcDbEntity
  8
MAIN0
  6
CONTINUOUS
 62
3
100
AcDbLine
 10
197.6400666599019
 20
198.1450204793526
 30
0.0000000000000000
 11
197.6400666599019
 21
208.1450204793707
 31
0.0000000000000000
  0
LINE
  5
7B
100
AcDbEntity
  8
MAIN0
  6
CONTINUOUS
 62
3
100
AcDbLine
 10
179.6400666599019
 20
198.1450204793889
 30
0.0000000000000000
 11
179.6400666599019
 21
208.1450204793707
 31
0.0000000000000000
  0
LINE
  5
7C
100
AcDbEntity
  8
MAIN0
  6
CONTINUOUS
 62
3
100
AcDbLine
 10
293.6400666599019
 20
203.1450204793707
 30
0.0000000000000000
 11
197.6400666599019
 21
203.1450204793707
 31
0.0000000000000000
  0
LINE
  5
7D
100
AcDbEntity
  8
MAIN0
  6
CONTINUOUS
 62
3
100
AcDbLine
 10
179.6400666599019
 20
203.1450204793707
 30
0.0000000000000000
 11
83.64006665990189
 21
203.1450204793707
 31
0.0000000000000000
  0
LINE
  5
7E
100
AcDbEntity
  8
MAIN0
  6
CONTINUOUS
 62
3
100
AcDbLine
 10
208.6400666599024
 20
238.1450204793707
 30
0.0000000000000000
 11
168.6400666599019
 21
238.1450204793707
 31
0.0000000000000000
  0
LINE
  5
7F
100
AcDbEntity
  8
MAIN0
  6
CENTER
 62
3
100
AcDbLine
 10
267.1730168206083
 20
458.1450204793707
 30
0.0000000000000000
 11
109.3119289956170
 21
458.1450204793707
 31
0.0000000000000000
  0
LINE
  5
80
100
AcDbEntity
  8
MAIN0
  6
CONTINUOUS
 62
3
100
AcDbLine
 10
293.6400666599019
 20
236.1450204793707
 30
0.0000000000000000
 11
212.1041682750398
 21
236.1450204793707
 31
0.0000000000000000
  0
LINE
  5
81
100
AcDbEntity
  8
MAIN0
  6
CONTINUOUS
 62
3
100
AcDbLine
 10
165.1759650447640
 20
236.1450204793707
 30
0.0000000000000000
 11
83.64006665990189
 21
236.1450204793707
 31
0.0000000000000000
  0
LINE
  5
82
100
AcDbEntity
  8
MAIN0
  6
CONTINUOUS
 62
3
100
AcDbLine
 10
113.6400666599019
 20
368.1450204793707
 30
0.0000000000000000
 11
113.6400666599019
 21
503.6450204793705
 31
0.0000000000000000
  0
LINE
  5
83
100
AcDbEntity
  8
MAIN0
  6
CONTINUOUS
 62
3
100
AcDbLine
 10
126.6400666599021
 20
368.1450204793707
 30
0.0000000000000000
 11
113.6400666599019
 21
368.1450204793707
 31
0.0000000000000000
  0
LINE
  5
84
100
AcDbEntity
  8
MAIN0
  6
CENTER
 62
3
100
AcDbLine
 10
292.1060181447105
 20
415.6450204793707
 30
0.0000000000000000
 11
241.2673210646238
 21
415.6450204793707
 31
0.0000000000000000
  0
LINE
  5
85
100
AcDbEntity
  8
MAIN0
  6
CONTINUOUS
 62
3
100
AcDbLine
 10
204.6879697879443
 20
241.1450204793707
 30
0.0000000000000000
 11
172.5921635318595
 21
241.1450204793707
 31
0.0000000000000000
  0
ARC
  5
86
100
AcDbEntity
  8
MAIN0
  6
CONTINUOUS
 62
3
100
AcDbCircle
 10
172.5921635318595
 20
237.1450204793707
 30
0.0000000000000000
 40
4.000000000000000
100
AcDbArc
 50
90.00000000000000
 51
157.9756871629579
  0
ARC
  5
87
100
AcDbEntity
  8
MAIN0
  6
CONTINUOUS
 62
3
100
AcDbCircle
 10
204.6879697879443
 20
237.1450204793707
 30
0.0000000000000000
 40
4.000000000000000
100
AcDbArc
 50
22.02431283704215
 51
90.00000000000000
  0
ARC
  5
88
100
AcDbEntity
  8
MAIN0
  6
CONTINUOUS
 62
3
100
AcDbCircle
 10
165.1759650447638
 20
240.1450204793707
 30
0.0000000000000000
 40
4.000000000000000
100
AcDbArc
 50
330.0000000000003
 51
337.9756871629580
  0
ARC
  5
89
100
AcDbEntity
  8
MAIN0
  6
CONTINUOUS
 62
3
100
AcDbCircle
 10
165.1759650447638
 20
240.1450204793707
 30
0.0000000000000000
 40
4.000000000000000
100
AcDbArc
 50
270.0000000000000
 51
330.0000000000003
  0
ARC
  5
8A
100
AcDbEntity
  8
MAIN0
  6
CONTINUOUS
 62
3
100
AcDbCircle
 10
212.1041682750400
 20
240.1450204793707
 30
0.0000000000000000
 40
4.000000000000000
100
AcDbArc
 50
210.0000000000000
 51
270.0000000000000
  0
ARC
  5
8B
100
AcDbEntity
  8
MAIN0
  6
CONTINUOUS
 62
3
100
AcDbCircle
 10
212.1041682750400
 20
240.1450204793707
 30
0.0000000000000000
 40
4.000000000000000
100
AcDbArc
 50
202.0243128370421
 51
210.0000000000000
  0
ARC
  5
8C
100
AcDbEntity
  8
MAIN0
  6
CONTINUOUS
 62
3
100
AcDbCircle
 10
623.4516803800750
 20
397.1450204793707
 30
0.0000000000000000
 40
6.000000000000000
100
AcDbArc
 50
0.0000000000000000
 51
90.00000000000000
  0
LINE
  5
8D
100
AcDbEntity
  8
MAIN0
  6
CONTINUOUS
 62
3
100
AcDbLine
 10
878.4516803800750
 20
398.1450204793707
 30
0.0000000000000000
 11
886.4516803800750
 21
398.1450204793707
 31
0.0000000000000000
  0
LINE
  5
8E
100
AcDbEntity
  8
MAIN0
  6
CONTINUOUS
 62
3
100
AcDbLine
 10
886.4516803800750
 20
763.3482592576963
 30
0.0000000000000000
 11
878.4516803800750
 21
763.3482592576963
 31
0.0000000000000000
  0
LINE
  5
8F
100
AcDbEntity
  8
MAIN0
  6
CONTINUOUS
 62
3
100
AcDbLine
 10
886.4516803800750
 20
673.3482592576963
 30
0.0000000000000000
 11
878.4516803800750
 21
673.3482592576963
 31
0.0000000000000000
  0
LINE
  5
90
100
AcDbEntity
  8
MAIN0
  6
CONTINUOUS
 62
3
100
AcDbLine
 10
583.4516803800750
 20
773.3482592576963
 30
0.0000000000000000
 11
598.4516803800750
 21
773.3482592576963
 31
0.0000000000000000
  0
LINE
  5
91
100
AcDbEntity
  8
MAIN0
  6
CONTINUOUS
 62
3
100
AcDbLine
 10
583.4516803800750
 20
663.3482592576963
 30
0.0000000000000000
 11
598.4516803800750
 21
663.3482592576963
 31
0.0000000000000000
  0
LINE
  5
92
100
AcDbEntity
  8
MAIN0
  6
CONTINUOUS
 62
3
100
AcDbLine
 10
598.4516803800750
 20
741.2611377332551
 30
0.0000000000000000
 11
583.4516803800750
 21
741.2611377332238
 31
0.0000000000000000
  0
LINE
  5
93
100
AcDbEntity
  8
MAIN0
  6
CONTINUOUS
 62
3
100
AcDbLine
 10
598.4516803800750
 20
695.4353807821381
 30
0.0000000000000000
 11
583.4516803800750
 21
695.4353807821694
 31
0.0000000000000000
  0
LINE
  5
94
100
AcDbEntity
  8
MAIN0
  6
CONTINUOUS
 62
3
100
AcDbLine
 10
870.9516803800750
 20
198.1450204794046
 30
0.0000000000000000
 11
870.9516803800750
 21
203.1450204793707
 31
0.0000000000000000
  0
LINE
  5
95
100
AcDbEntity
  8
MAIN0
  6
CONTINUOUS
 62
3
100
AcDbLine
 10
870.9516803800751
 20
198.1450204794047
 30
0.0000000000000000
 11
845.9516803800749
 21
198.1450204794459
 31
0.0000000000000000
  0
LINE
  5
96
100
AcDbEntity
  8
MAIN0
  6
CONTINUOUS
 62
3
100
AcDbLine
 10
845.9516803800750
 20
198.1450204794460
 30
0.0000000000000000
 11
845.9516803800750
 21
203.1450204793707
 31
0.0000000000000000
  0
LINE
  5
97
100
AcDbEntity
  8
MAIN0
  6
CONTINUOUS
 62
3
100
AcDbLine
 10
250.6400666599019
 20
368.1450204793705
 30
0.0000000000000000
 11
250.6400666599019
 21
425.6488668608407
 31
0.0000000000000000
  0
LINE
  5
98
100
AcDbEntity
  8
MAIN0
  6
CONTINUOUS
 62
3
100
AcDbLine
 10
250.6400666599019
 20
490.6411740979007
 30
0.0000000000000000
 11
250.6400666599019
 21
508.1450204793705
 31
0.0000000000000000
  0
LINE
  5
99
100
AcDbEntity
  8
MAIN0
  6
CONTINUOUS
 62
3
100
AcDbLine
 10
126.6400666599019
 20
403.1450204793707
 30
0.0000000000000000
 11
145.3387964706903
 21
403.1450204793707
 31
0.0000000000000000
  0
LINE
  5
9A
100
AcDbEntity
  8
MAIN0
  6
CONTINUOUS
 62
3
100
AcDbLine
 10
231.9413368491134
 20
403.1450204793707
 30
0.0000000000000000
 11
250.6400666599019
 21
403.1450204793707
 31
0.0000000000000000
  0
LINE
  5
9B
100
AcDbEntity
  8
MAIN0
  6
CONTINUOUS
 62
3
100
AcDbLine
 10
126.6400666599019
 20
368.1450204793705
 30
0.0000000000000000
 11
126.6400666599019
 21
425.6488668608407
 31
0.0000000000000000
  0
LINE
  5
9C
100
AcDbEntity
  8
MAIN0
  6
CONTINUOUS
 62
3
100
AcDbLine
 10
126.6400666599019
 20
490.6411740979007
 30
0.0000000000000000
 11
126.6400666599019
 21
508.1450204793705
 31
0.0000000000000000
  0
LINE
  5
9D
100
AcDbEntity
  8
MAIN0
  6
CONTINUOUS
 62
3
100
AcDbLine
 10
135.4446721224128
 20
503.6450204793705
 30
0.0000000000000000
 11
113.6400666599019
 21
503.6450204793705
 31
0.0000000000000000
  0
LINE
  5
9E
100
AcDbEntity
  8
MAIN0
  6
CONTINUOUS
 62
3
100
AcDbLine
 10
176.6005164797841
 20
503.6450204793705
 30
0.0000000000000000
 11
163.4656749095617
 21
503.6450204793705
 31
0.0000000000000000
  0
LINE
  5
9F
100
AcDbEntity
  8
MAIN0
  6
CONTINUOUS
 62
3
100
AcDbLine
 10
213.8144584102421
 20
503.6450204793705
 30
0.0000000000000000
 11
200.6796168400194
 21
503.6450204793705
 31
0.0000000000000000
  0
LINE
  5
A0
100
AcDbEntity
  8
MAIN0
  6
CONTINUOUS
 62
3
100
AcDbLine
 10
250.6400666599019
 20
503.6450204793705
 30
0.0000000000000000
 11
241.8354611973909
 21
503.6450204793705
 31
0.0000000000000000
  0
LINE
  5
A1
100
AcDbEntity
  8
MAIN0
  6
CONTINUOUS
 62
3
100
AcDbLine
 10
139.6502718042473
 20
508.1450204793705
 30
0.0000000000000000
 11
126.6400666599019
 21
508.1450204793705
 31
0.0000000000000000
  0
LINE
  5
A2
100
AcDbEntity
  8
MAIN0
  6
CONTINUOUS
 62
3
100
AcDbLine
 10
250.6400666599019
 20
508.1450204793705
 30
0.0000000000000000
 11
237.6298615155565
 21
508.1450204793705
 31
0.0000000000000000
  0
LINE
  5
A3
100
AcDbEntity
  8
MAIN0
  6
CONTINUOUS
 62
3
100
AcDbLine
 10
889.4516803800750
 20
738.3482592576963
 30
0.0000000000000000
 11
899.4516803800750
 21
738.3482592576963
 31
0.0000000000000000
  0
LINE
  5
A4
100
AcDbEntity
  8
MAIN0
  6
CONTINUOUS
 62
3
100
AcDbLine
 10
889.4516803800750
 20
698.3482592576963
 30
0.0000000000000000
 11
899.4516803800750
 21
698.3482592576963
 31
0.0000000000000000
  0
ARC
  5
A5
100
AcDbEntity
  8
MAIN0
  6
CONTINUOUS
 62
3
100
AcDbCircle
 10
899.4516803800750
 20
734.3482592576963
 30
0.0000000000000000
 40
4.000000000000000
100
AcDbArc
 50
0.0000000000000000
 51
90.00000000000000
  0
ARC
  5
A6
100
AcDbEntity
  8
MAIN0
  6
CONTINUOUS
 62
3
100
AcDbCircle
 10
899.4516803800751
 20
702.3482592576963
 30
0.0000000000000000
 40
4.000000000000000
100
AcDbArc
 50
270.0000000000000
 51
360.0000000000000
  0
LINE
  5
A7
100
AcDbEntity
  8
MAIN0
  6
CONTINUOUS
 62
3
100
AcDbLine
 10
903.4516803800750
 20
633.3482592576963
 30
0.0000000000000000
 11
903.4516803800750
 21
702.5482592576993
 31
0.0000000000000000
  0
LINE
  5
A8
100
AcDbEntity
  8
MAIN0
  6
CONTINUOUS
 62
3
100
AcDbLine
 10
903.4516803800750
 20
734.1482592576992
 30
0.0000000000000000
 11
903.4516803800750
 21
803.3482592576963
 31
0.0000000000000000
  0
LINE
  5
A9
100
AcDbEntity
  8
MAIN0
  6
CONTINUOUS
 62
3
100
AcDbLine
 10
603.4516803800750
 20
613.3482592576963
 30
0.0000000000000000
 11
788.7086375831688
 21
613.3482592576963
 31
0.0000000000000000
  0
LINE
  5
AA
100
AcDbEntity
  8
MAIN0
  6
CONTINUOUS
 62
3
100
AcDbLine
 10
819.6377206123027
 20
613.3482592576963
 30
0.0000000000000000
 11
883.4516803800750
 21
613.3482592576963
 31
0.0000000000000000
  0
LINE
  5
AB
100
AcDbEntity
  8
MAIN0
  6
CONTINUOUS
 62
3
100
AcDbLine
 10
583.4516803800750
 20
633.3482592576963
 30
0.0000000000000000
 11
583.4516803800750
 21
663.3482592576963
 31
0.0000000000000000
  0
LINE
  5
AC
100
AcDbEntity
  8
MAIN0
  6
CONTINUOUS
 62
3
100
AcDbLine
 10
583.4516803800750
 20
773.3482592576963
 30
0.0000000000000000
 11
583.4516803800750
 21
803.3482592576963
 31
0.0000000000000000
  0
LINE
  5
AD
100
AcDbEntity
  8
MAIN0
  6
CONTINUOUS
 62
3
100
AcDbLine
 10
878.4516803800750
 20
368.1450204793707
 30
0.0000000000000000
 11
878.4516803800750
 21
508.1450204793705
 31
0.0000000000000000
  0
LINE
  5
AE
100
AcDbEntity
  8
MAIN0
  6
CONTINUOUS
 62
3
100
AcDbLine
 10
857.4516803800750
 20
242.1450204793707
 30
0.0000000000000000
 11
857.4516803800750
 21
243.7401092790553
 31
0.0000000000000000
  0
LINE
  5
AF
100
AcDbEntity
  8
MAIN0
  6
CONTINUOUS
 62
3
100
AcDbLine
 10
857.4516803800750
 20
243.7401092790553
 30
0.0000000000000000
 11
857.4516803800750
 21
362.1450204793707
 31
0.0000000000000000
  0
ARC
  5
B0
100
AcDbEntity
  8
MAIN0
  6
CONTINUOUS
 62
3
100
AcDbCircle
 10
863.4516803800750
 20
362.1450204793707
 30
0.0000000000000000
 40
6.000000000000000
100
AcDbArc
 50
90.00000000000000
 51
146.4426902371849
  0
ARC
  5
B1
100
AcDbEntity
  8
MAIN0
  6
CONTINUOUS
 62
3
100
AcDbCircle
 10
863.4516803800750
 20
362.1450204793707
 30
0.0000000000000000
 40
6.000000000000000
100
AcDbArc
 50
146.4426902371849
 51
180.0000000000000
  0
LINE
  5
B2
100
AcDbEntity
  8
MAIN0
  6
CONTINUOUS
 62
3
100
AcDbLine
 10
598.4516803800750
 20
403.1450204793707
 30
0.0000000000000000
 11
598.4516803800750
 21
508.1450204793705
 31
0.0000000000000000
  0
DIMENSION
  5
BB
100
AcDbEntity
  8
MAIN0
  6
CONTINUOUS
 62
3
100
AcDbDimension
  2
*D0
 10
903.4516803800750
 20
161.6752232762494
 30
0.0000000000000000
 11
743.4516803800750
 21
162.1752232762494
 31
0.0000000000000000
 70
32
  3
MAIN001
100
AcDbAlignedDimension
 13
583.4516803800750
 23
203.1450204793707
 33
0.0000000000000000
 14
903.4516803800750
 24
203.1450204793707
 34
0.0000000000000000
100
AcDbRotatedDimension
1001
ACAD
1000
DSTYLE
1002
{
1070
   173
1070
     1
1070
     6
1000
_OPEN
1070
     7
1000
_OPEN
1070
    41
1040
6.000000
1002
}
  0
LINE
  5
BC
100
AcDbEntity
  8
MAIN0
  6
CONTINUOUS
 62
3
100
AcDbLine
 10
583.4516803800750
 20
403.1450204793707
 30
0.0000000000000000
 11
583.4516803800750
 21
508.1450204793705
 31
0.0000000000000000
  0
ARC
  5
BD
100
AcDbEntity
  8
MAIN0
  6
CONTINUOUS
 62
3
100
AcDbCircle
 10
633.4516803800750
 20
819.3482592576963
 30
0.0000000000000000
 40
4.000000000000000
100
AcDbArc
 50
90.00000000000000
 51
180.0000000000000
  0
ARC
  5
BE
100
AcDbEntity
  8
MAIN0
  6
CONTINUOUS
 62
3
100
AcDbCircle
 10
633.4516803800750
 20
617.3482592576963
 30
0.0000000000000000
 40
4.000000000000000
100
AcDbArc
 50
180.0000000000000
 51
270.0000000000000
  0
LINE
  5
BF
100
AcDbEntity
  8
MAIN0
  6
CONTINUOUS
 62
3
100
AcDbLine
 10
629.4516803800750
 20
617.3482592576963
 30
0.0000000000000000
 11
629.4516803800750
 21
656.3482592576963
 31
0.0000000000000000
  0
LINE
  5
C0
100
AcDbEntity
  8
MAIN0
  6
CONTINUOUS
 62
3
100
AcDbLine
 10
629.4516803800750
 20
780.3482592576963
 30
0.0000000000000000
 11
629.4516803800750
 21
819.3482592576963
 31
0.0000000000000000
  0
LINE
  5
C1
100
AcDbEntity
  8
MAIN0
  6
CONTINUOUS
 62
3
100
AcDbLine
 10
853.4775168773371
 20
819.9602891820207
 30
0.0000000000000000
 11
809.1443978305924
 21
782.1663532787161
 31
0.0000000000000000
  0
LINE
  5
C2
100
AcDbEntity
  8
MAIN0
  6
CONTINUOUS
 62
3
100
AcDbLine
 10
857.4516803800750
 20
793.3482592576963
 30
0.0000000000000000
 11
857.4516803800750
 21
819.3482592576963
 31
0.0000000000000000
  0
ARC
  5
C3
100
AcDbEntity
  8
MAIN0
  6
CONTINUOUS
 62
3
100
AcDbCircle
 10
853.4516803800750
 20
819.3482592576963
 30
0.0000000000000000
 40
4.000000000000000
100
AcDbArc
 50
0.0000000000000000
 51
90.00000000000000
  0
DIMENSION
  5
CC
100
AcDbEntity
  8
MAIN0
  6
CONTINUOUS
 62
3
100
AcDbDimension
  2
*D1
 10
1064.799587902942
 20
458.1450204793707
 30
0.0000000000000000
 11
1064.299587902942
 21
330.6450204793707
 31
0.0000000000000000
 70
32
  3
MAIN001
100
AcDbAlignedDimension
 13
903.4516803800750
 23
203.1450204793707
 33
0.0000000000000000
 14
1020.886775555474
 24
458.1450204793707
 34
0.0000000000000000
 50
90.00000000000000
100
AcDbRotatedDimension
1001
ACAD
1000
DSTYLE
1002
{
1070
   173
1070
     1
1070
     6
1000
_OPEN
1070
     7
1000
_OPEN
1070
    41
1040
6.000000
1002
}
  0
DIMENSION
  5
D7
100
AcDbEntity
  8
MAIN0
  6
CONTINUOUS
 62
3
100
AcDbDimension
  2
*D2
 10
1042.809921229127
 20
465.1450204794051
 30
0.0000000000000000
 11
1041.309921229127
 21
432.4342104601433
 31
0.0000000000000000
 70
160
  1
\A1;\U+220514
  3
MAIN001
100
AcDbAlignedDimension
 13
1000.604932130470
 23
451.1450204793503
 33
0.0000000000000000
 14
1000.604932130470
 24
465.1450204794051
 34
0.0000000000000000
 50
90.00000000000000
100
AcDbRotatedDimension
1001
ACAD
1000
DSTYLE
1002
{
1070
   173
1070
     1
1070
     6
1000
_OPEN
1070
     7
1000
_OPEN
1070
    41
1040
6.000000
1070
   287
1070
     0
1002
}
  0
DIMENSION
  5
E0
100
AcDbEntity
  8
MAIN0
  6
CONTINUOUS
 62
3
100
AcDbDimension
  2
*D3
 10
1089.232509449759
 20
508.1450204793705
 30
0.0000000000000000
 11
1088.732509449759
 21
355.6450204793706
 31
0.0000000000000000
 70
32
  3
MAIN001
100
AcDbAlignedDimension
 13
903.4516803800750
 23
203.1450204793707
 33
0.0000000000000000
 14
886.4516803800750
 24
508.1450204793705
 34
0.0000000000000000
 50
90.00000000000000
100
AcDbRotatedDimension
1001
ACAD
1000
DSTYLE
1002
{
1070
   173
1070
     1
1070
     6
1000
_OPEN
1070
     7
1000
_OPEN
1070
    41
1040
6.000000
1002
}
  0
DIMENSION
  5
EB
100
AcDbEntity
  8
MAIN0
  6
CONTINUOUS
 62
3
100
AcDbDimension
  2
*D4
 10
623.4516803800750
 20
515.1147953140858
 30
0.0000000000000000
 11
604.0506228591885
 21
516.6147953140858
 31
0.0000000000000000
 70
160
  3
MAIN001
100
AcDbAlignedDimension
 13
619.4516803800750
 23
475.6450204793705
 33
0.0000000000000000
 14
623.4516803800750
 24
490.6450204793709
 34
0.0000000000000000
100
AcDbRotatedDimension
1001
ACAD
1000
DSTYLE
1002
{
1070
   173
1070
     1
1070
     6
1000
_OPEN
1070
     7
1000
_OPEN
1070
    41
1040
6.000000
1070
   287
1070
     0
1002
}
  0
DIMENSION
  5
F4
100
AcDbEntity
  8
MAIN0
  6
CONTINUOUS
 62
3
100
AcDbDimension
  2
*D5
 10
979.2349082042309
 20
823.3482592576963
 30
0.0000000000000000
 11
978.7349082042309
 21
718.3482592576963
 31
0.0000000000000000
 70
32
  3
MAIN001
100
AcDbAlignedDimension
 13
883.4516803800750
 23
613.3482592576963
 33
0.0000000000000000
 14
883.4516803800750
 24
823.3482592576963
 34
0.0000000000000000
 50
90.00000000000000
100
AcDbRotatedDimension
1001
ACAD
1000
DSTYLE
1002
{
1070
   173
1070
     1
1070
     6
1000
_OPEN
1070
     7
1000
_OPEN
1070
    41
1040
6.000000
1002
}
  0
DIMENSION
  5
FD
100
AcDbEntity
  8
MAIN0
  6
CONTINUOUS
 62
3
100
AcDbDimension
  2
*D6
 10
1001.120145665024
 20
823.3482592576963
 30
0.0000000000000000
 11
1000.620145665024
 21
692.9198794399021
 31
0.0000000000000000
 70
32
  1
\A1;約 261
  3
MAIN001
100
AcDbAlignedDimension
 13
743.3872895144343
 23
562.4914996221078
 33
0.0000000000000000
 14
883.4516803800750
 24
823.3482592576963
 34
0.0000000000000000
 50
90.00000000000000
100
AcDbRotatedDimension
1001
ACAD
1000
DSTYLE
1002
{
1070
   173
1070
     1
1070
     6
1000
_OPEN
1070
     7
1000
_OPEN
1070
    41
1040
6.000000
1070
   340
1005
FE
1002
}
  0
MTEXT
  5
FF
100
AcDbEntity
  8
MAIN0
  6
CONTINUOUS
 62
3
100
AcDbMText
 10
1083.616760910010
 20
627.3656219761073
 30
0.0000000000000000
 40
12.00000000000000
 41
0.0000000000000000
 71
     1
 72
     1
  1
{\H0.94x;{取付ボルト取付部}}
 11
1.000000000000000
 21
0.0000000000000000
 31
0.0000000000000000
  7
KNJYOKO
  0
LINE
  5
100
100
AcDbEntity
  8
MAIN0
  6
CONTINUOUS
 62
3
100
AcDbLine
 10
1079.138768416748
 20
613.5656219763444
 30
0.0000000000000000
 11
1195.102787698500
 21
613.5656219763696
 31
0.0000000000000000
  0
LINE
  5
101
100
AcDbEntity
  8
MAIN0
  6
CONTINUOUS
 62
3
100
AcDbLine
 10
197.6400666599019
 20
198.1450204793526
 30
0.0000000000000000
 11
179.6400666599019
 21
198.1450204793889
 31
0.0000000000000000
  0
LINE
  5
102
100
AcDbEntity
  8
MAIN0
  6
CONTINUOUS
 62
3
100
AcDbLine
 10
83.64006665990155
 20
236.1450204793708
 30
0.0000000000000000
 11
126.6400666599016
 21
368.1450204793705
 31
0.0000000000000000
  0
LINE
  5
103
100
AcDbEntity
  8
MAIN0
  6
CONTINUOUS
 62
3
100
AcDbLine
 10
250.6400666599018
 20
368.1450204793704
 30
0.0000000000000000
 11
293.6400666599018
 21
236.1450204793707
 31
0.0000000000000000
  0
LINE
  5
104
100
AcDbEntity
  8
MAIN0
  6
CONTINUOUS
 62
3
100
AcDbLine
 10
824.4516803800916
 20
641.4807234656259
 30
0.0000000000000000
 11
809.1443978305925
 21
654.5301652366763
 31
0.0000000000000000
  0
DIMENSION
  5
10F
100
AcDbEntity
  8
MAIN0
  6
CONTINUOUS
 62
3
100
AcDbDimension
  2
*D7
 10
179.6400666599019
 20
172.2899552389125
 30
0.0000000000000000
 11
218.8100865889816
 21
173.7899552389125
 31
0.0000000000000000
 70
160
  1
\A1;18h7
  3
MAIN001
100
AcDbAlignedDimension
 13
197.6400666599019
 23
198.1450204793526
 33
0.0000000000000000
 14
179.6400666599019
 24
198.1450204793889
 34
0.0000000000000000
100
AcDbRotatedDimension
1001
ACAD
1000
DSTYLE
1002
{
1070
   173
1070
     1
1070
     6
1000
_OPEN
1070
     7
1000
_OPEN
1070
    41
1040
6.000000
1070
   287
1070
     0
1002
}
  0
LINE
  5
110
100
AcDbEntity
  8
MAIN0
  6
CONTINUOUS
 62
3
100
AcDbLine
 10
886.4516803800749
 20
757.4602778708411
 30
0.0000000000000000
 11
878.4516803800749
 21
757.4602778708411
 31
0.0000000000000000
  0
LINE
  5
111
100
AcDbEntity
  8
MAIN0
  6
CONTINUOUS
 62
3
100
AcDbLine
 10
886.4516803800749
 20
679.2362406445513
 30
0.0000000000000000
 11
878.4516803800749
 21
679.2362406445513
 31
0.0000000000000000
  0
LINE
  5
112
100
AcDbEntity
  8
MAIN0
  6
CONTINUOUS
 62
3
100
AcDbLine
 10
617.4516803801866
 20
192.1450204793971
 30
0.0000000000000000
 11
587.4516803800470
 21
192.1450204793971
 31
0.0000000000000000
  0
LINE
  5
113
100
AcDbEntity
  8
MAIN0
  6
CONTINUOUS
 62
3
100
AcDbLine
 10
617.4516803801868
 20
183.1450204793970
 30
0.0000000000000000
 11
587.4516803800470
 21
183.1450204793970
 31
0.0000000000000000
  0
LINE
  5
114
100
AcDbEntity
  8
MAIN0
  6
CONTINUOUS
 62
3
100
AcDbLine
 10
617.4516803801868
 20
172.1450204793970
 30
0.0000000000000000
 11
587.4516803800470
 21
172.1450204793969
 31
0.0000000000000000
  0
LINE
  5
115
100
AcDbEntity
  8
MAIN0
  6
CONTINUOUS
 62
3
100
AcDbLine
 10
587.4516803800470
 20
192.1450204793972
 30
0.0000000000000000
 11
587.4516803800470
 21
172.1450204793970
 31
0.0000000000000000
  0
LINE
  5
116
100
AcDbEntity
  8
MAIN0
  6
CONTINUOUS
 62
3
100
AcDbLine
 10
617.4516803801866
 20
192.1450204793972
 30
0.0000000000000000
 11
617.4516803801866
 21
172.1450204793970
 31
0.0000000000000000
  0
LINE
  5
117
100
AcDbEntity
  8
MAIN0
  6
CONTINUOUS
 62
3
100
AcDbLine
 10
878.4516803800750
 20
497.8312901463703
 30
0.0000000000000000
 11
886.4516803800751
 21
497.8312901463703
 31
0.0000000000000000
  0
LINE
  5
118
100
AcDbEntity
  8
MAIN0
  6
CONTINUOUS
 62
3
100
AcDbLine
 10
878.4516803800750
 20
418.4587508127465
 30
0.0000000000000000
 11
886.4516803800751
 21
418.4587508127527
 31
0.0000000000000000
  0
LINE
  5
119
100
AcDbEntity
  8
MAIN0
  6
HIDDEN
 62
3
100
AcDbLine
 10
868.5516117890718
 20
750.8482592576963
 30
0.0000000000000000
 11
886.4516803800750
 21
750.8482592576963
 31
0.0000000000000000
  0
LINE
  5
11A
100
AcDbEntity
  8
MAIN0
  6
CONTINUOUS
 62
3
100
AcDbLine
 10
886.4516803800750
 20
750.8482592576963
 30
0.0000000000000000
 11
887.4516803800750
 21
750.8482592576963
 31
0.0000000000000000
  0
LINE
  5
11B
100
AcDbEntity
  8
MAIN0
  6
HIDDEN
 62
3
100
AcDbLine
 10
868.5516117890718
 20
685.8482592576963
 30
0.0000000000000000
 11
886.4516803800750
 21
685.8482592576963
 31
0.0000000000000000
  0
LINE
  5
11C
100
AcDbEntity
  8
MAIN0
  6
CONTINUOUS
 62
3
100
AcDbLine
 10
886.4516803800750
 20
685.8482592576963
 30
0.0000000000000000
 11
887.4516803800750
 21
685.8482592576963
 31
0.0000000000000000
  0
LINE
  5
11D
100
AcDbEntity
  8
MAIN0
  6
CONTINUOUS
 62
3
100
AcDbLine
 10
198.1400666599019
 20
203.1450204793707
 30
0.0000000000000000
 11
198.1400666599019
 21
238.1450204793707
 31
0.0000000000000000
  0
LINE
  5
11E
100
AcDbEntity
  8
MAIN0
  6
CONTINUOUS
 62
3
100
AcDbLine
 10
179.1400666599019
 20
203.1450204793707
 30
0.0000000000000000
 11
179.1400666599019
 21
238.1450204793705
 31
0.0000000000000000
  0
DIMENSION
  5
129
100
AcDbEntity
  8
MAIN0
  6
CONTINUOUS
 62
3
100
AcDbDimension
  2
*D8
 10
886.4516803800750
 20
323.6484329823099
 30
0.0000000000000000
 11
894.9516803800750
 21
324.1484329823099
 31
0.0000000000000000
 70
32
  3
MAIN001
100
AcDbAlignedDimension
 13
903.4516803800750
 23
238.1450204793707
 33
0.0000000000000000
 14
886.4516803800750
 24
398.1450204793707
 34
0.0000000000000000
100
AcDbRotatedDimension
1001
ACAD
1000
DSTYLE
1002
{
1070
   173
1070
     1
1070
     6
1000
_OPEN
1070
     7
1000
_OPEN
1070
    41
1040
6.000000
1070
   287
1070
     0
1002
}
  0
ARC
  5
12A
100
AcDbEntity
  8
MAIN0
  6
CONTINUOUS
 62
3
100
AcDbCircle
 10
861.6529256092640
 20
242.1450204793707
 30
0.0000000000000000
 40
6.000000000000000
100
AcDbArc
 50
200.0000000000078
 51
270.0000000000000
  0
ARC
  5
12B
100
AcDbEntity
  8
MAIN0
  6
CONTINUOUS
 62
3
100
AcDbCircle
 10
817.9764974975381
 20
362.1450204793714
 30
0.0000000000000000
 40
6.000000000000000
100
AcDbArc
 50
90.00000000000000
 51
199.9999999999993
  0
ARC
  5
12C
100
AcDbEntity
  8
MAIN0
  6
CONTINUOUS
 62
3
100
AcDbCircle
 10
863.4516803800750
 20
247.1450204793707
 30
0.0000000000000000
 40
6.000000000000000
100
AcDbArc
 50
180.0000000000000
 51
211.2166159314401
  0
ARC
  5
12D
100
AcDbEntity
  8
MAIN0
  6
CONTINUOUS
 62
3
100
AcDbCircle
 10
863.4516803800750
 20
247.1450204793707
 30
0.0000000000000000
 40
6.000000000000000
100
AcDbArc
 50
211.2166159314401
 51
270.0000000000000
  0
DIMENSION
  5
136
100
AcDbEntity
  8
MAIN0
  6
CONTINUOUS
 62
3
100
AcDbDimension
  2
*D9
 10
956.4213621020816
 20
750.8482592576963
 30
0.0000000000000000
 11
955.9213621020816
 21
718.3482592576963
 31
0.0000000000000000
 70
32
  1
\A1;\U+220565
  3
MAIN001
100
AcDbAlignedDimension
 13
887.4516803800750
 23
685.8482592576963
 33
0.0000000000000000
 14
887.4516803800750
 24
750.8482592576963
 34
0.0000000000000000
 50
90.00000000000000
100
AcDbRotatedDimension
1001
ACAD
1000
DSTYLE
1002
{
1070
   173
1070
     1
1070
     6
1000
_OPEN
1070
     7
1000
_OPEN
1070
    41
1040
6.000000
1002
}
  0
MTEXT
  5
137
100
AcDbEntity
  8
MAIN0
  6
CONTINUOUS
 62
3
100
AcDbMText
 10
365.5716659747661
 20
613.2397903577122
 30
0.0000000000000000
 40
9.299999713897705
 41
0.0000000000000000
 71
     1
 72
     1
  1
{\H0.94x;{　通常　　　； 締め切り}}
 11
1.000000000000000
 21
0.0000000000000000
 31
0.0000000000000000
  7
KNJYOKO
  0
MTEXT
  5
138
100
AcDbEntity
  8
MAIN0
  6
CONTINUOUS
 62
3
100
AcDbMText
 10
357.6750392203362
 20
641.8872071183954
 30
0.0000000000000000
 40
9.299999713897705
 41
0.0000000000000000
 71
     1
 72
     1
  1
{\H0.94x;{センタ取外し用ネジ}}
 11
1.000000000000000
 21
0.0000000000000000
 31
0.0000000000000000
  7
KNJYOKO
  0
MTEXT
  5
139
100
AcDbEntity
  8
MAIN0
  6
CONTINUOUS
 62
3
100
AcDbMText
 10
365.5716659747661
 20
601.2397903577122
 30
0.0000000000000000
 40
9.299999713897705
 41
0.0000000000000000
 71
     1
 72
     1
  1
{\H0.94x;{取り外し時　； 4mm緩める}}
 11
1.000000000000000
 21
0.0000000000000000
 31
0.0000000000000000
  7
KNJYOKO
  0
MTEXT
  5
13A
100
AcDbEntity
  8
MAIN0
  6
CONTINUOUS
 62
3
100
AcDbMText
 10
365.5716659747661
 20
583.8397905007633
 30
0.0000000000000000
 40
8.399999856948853
 41
0.0000000000000000
 71
     1
 72
     1
  1
{\H0.67x;{NOMAL USE ; TIGHTENING}}
 11
1.000000000000000
 21
0.0000000000000000
 31
0.0000000000000000
  7
STANDARD
  0
MTEXT
  5
13B
100
AcDbEntity
  8
MAIN0
  6
CONTINUOUS
 62
3
100
AcDbMText
 10
350.8852104344741
 20
586.3074048606669
 30
0.0000000000000000
 40
24.00000000000000
 41
0.0000000000000000
 71
     1
 72
     1
  1
{\H0.83x;{(      )}}
 11
1.000000000000000
 21
0.0000000000000000
 31
0.0000000000000000
  7
STANDARD
  0
MTEXT
  5
13C
100
AcDbEntity
  8
MAIN0
  6
CONTINUOUS
 62
3
100
AcDbMText
 10
365.5716659747661
 20
571.8397905007633
 30
0.0000000000000000
 40
8.399999856948853
 41
0.0000000000000000
 71
     1
 72
     1
  1
{\H0.67x;{DETACHING ; LOOSE 4mm}}
 11
1.000000000000000
 21
0.0000000000000000
 31
0.0000000000000000
  7
STANDARD
  0
MTEXT
  5
13D
100
AcDbEntity
  8
MAIN0
  6
CONTINUOUS
 62
3
100
AcDbMText
 10
350.8852104344741
 20
614.8074048606669
 30
0.0000000000000000
 40
24.00000000000000
 41
0.0000000000000000
 71
     1
 72
     1
  1
{\H0.83x;{(       )}}
 11
1.000000000000000
 21
0.0000000000000000
 31
0.0000000000000000
  7
STANDARD
  0
LEADER
  5
13E
100
AcDbEntity
  8
MAIN0
  6
CONTINUOUS
 62
3
100
AcDbLeader
  3
MAIN001
 73
     0
 75
     1
 40
8.399999856948853
 41
156.2990042736529
 76
     3
 10
579.5812660671229
 20
485.7889100551532
 30
0.0000000000000000
 10
518.8290434161158
 20
619.0872074044975
 30
0.0000000000000000
 10
513.9740434939893
 20
619.0872074044975
 30
0.0000000000000000
340
13F
213
0.0000000000000000
223
-1.500000000000000
233
0.0000000000000000
1001
ACAD
1000
DSTYLE
1002
{
1070
   147
1040
0.0
1070
    77
1070
     1
1070
   173
1070
     1
1070
     6
1000
_DOT
1070
     7
1000
_DOT
1002
}
  0
MTEXT
  5
13F
102
{ACAD_REACTORS
330
13E
102
}
100
AcDbEntity
  8
MAIN0
  6
CONTINUOUS
 62
3
100
AcDbMText
 10
357.6750392203363
 20
628.9872072614463
 30
0.0000000000000000
 40
8.399999856948853
 41
0.0000000000000000
 71
     1
 72
     1
  1
{\H0.67x;{BOLT FOR CENTER DETACHING    }}
 11
1.000000000000000
 21
0.0000000000000000
 31
0.0000000000000000
  7
STANDARD
  0
MTEXT
  5
140
100
AcDbEntity
  8
MAIN0
  6
CONTINUOUS
 62
3
100
AcDbMText
 10
1114.272526478231
 20
612.1668369398980
 30
0.0000000000000000
 40
9.299999713897705
 41
0.0000000000000000
 71
     1
 72
     1
  1
{\H0.70x;{U-SLOT}}
 11
1.000000000000000
 21
0.0000000000000000
 31
0.0000000000000000
  7
STANDARD
  0
MTEXT
  5
141
100
AcDbEntity
  8
MAIN0
  6
CONTINUOUS
 62
3
100
AcDbMText
 10
1085.144469897027
 20
599.1230235895669
 30
0.0000000000000000
 40
9.299999713897705
 41
0.0000000000000000
 71
     1
 72
     1
  1
{\H0.71x;{FOR CLAMPING BOLT}}
 11
1.000000000000000
 21
0.0000000000000000
 31
0.0000000000000000
  7
STANDARD
  0
LEADER
  5
142
100
AcDbEntity
  8
MAIN0
  6
CONTINUOUS
 62
3
100
AcDbLeader
  3
MAIN001
 73
     0
 74
     0
 75
     1
 40
9.299999713897705
 41
113.1010000759959
 76
     3
 10
316.2143778279634
 20
251.2976072595762
 30
0.0000000000000000
 10
321.9338941406060
 20
184.9304235415258
 30
0.0000000000000000
 10
327.2908939826239
 20
184.9304235415258
 30
0.0000000000000000
340
143
213
0.0000000000000000
223
-1.500000000000000
233
0.0000000000000000
1001
ACAD
1000
DSTYLE
1002
{
1070
   147
1040
0.0
1070
    77
1070
     1
1070
   173
1070
     1
1070
     6
1000
_DOT
1070
     7
1000
_DOT
1002
}
  0
MTEXT
  5
143
102
{ACAD_REACTORS
330
142
102
}
100
AcDbEntity
  8
MAIN0
  6
CONTINUOUS
 62
3
100
AcDbMText
 10
327.2918939826238
 20
195.7304232554236
 30
0.0000000000000000
 40
9.299999713897705
 41
0.0000000000000000
 71
     1
 72
     1
  1
{\H0.71x;{センタクランプレバー\PCENTER CLAMP LEVER}}
 11
1.000000000000000
 21
0.0000000000000000
 31
0.0000000000000000
  7
KNJYOKO
  0
LEADER
  5
144
100
AcDbEntity
  8
MAIN0
  6
CONTINUOUS
 62
3
100
AcDbLeader
  3
MAIN001
 73
     0
 74
     0
 75
     1
 40
9.299999713897705
 41
144.6010000983478
 76
     3
 10
900.2914127393898
 20
450.7557601009530
 30
0.0000000000000000
 10
905.7421667021893
 20
382.2985338272453
 30
0.0000000000000000
 10
911.0991665442072
 20
382.2985338272453
 30
0.0000000000000000
340
145
213
0.0000000000000000
223
-1.500000000000000
233
0.0000000000000000
1001
ACAD
1000
DSTYLE
1002
{
1070
   147
1040
0.0
1070
    77
1070
     1
1070
   173
1070
     1
1070
     6
1000
_DOT
1070
     7
1000
_DOT
1002
}
  0
MTEXT
  5
145
102
{ACAD_REACTORS
330
144
102
}
100
AcDbEntity
  8
MAIN0
  6
CONTINUOUS
 62
3
100
AcDbMText
 10
911.1001665442071
 20
393.0985335411430
 30
0.0000000000000000
 40
9.299999713897705
 41
0.0000000000000000
 71
     1
 72
     1
  1
{\H0.71x;{超硬センタ\PCEMENTED CARBIDE CENTER\PMT-4}}
 11
1.000000000000000
 21
0.0000000000000000
 31
0.0000000000000000
  7
KNJYOKO
  0
MTEXT
  5
146
100
AcDbEntity
  8
MAIN0
  6
CONTINUOUS
 62
3
100
AcDbMText
 10
1007.742947183543
 20
664.8461044015952
 30
0.0000000000000000
 40
9.299999713897705
 41
0.0000000000000000
 71
     1
 72
     1
  1
{\H0.70x;{ABOUT 261}}
 11
6.123233995736766e-017
 21
1.000000000000000
 31
0.0000000000000000
  7
STANDARD
  0
LINE
  5
147
100
AcDbEntity
  8
MAIN0
  6
CONTINUOUS
 62
3
100
AcDbLine
 10
867.2016803800750
 20
755.6265714212093
 30
0.0000000000000000
 11
868.4516803800750
 21
754.9048835847223
 31
0.0000000000000000
  0
LINE
  5
148
100
AcDbEntity
  8
MAIN0
  6
CONTINUOUS
 62
3
100
AcDbLine
 10
867.2016803800750
 20
757.0699470941834
 30
0.0000000000000000
 11
867.2016803800750
 21
755.6265714212093
 31
0.0000000000000000
  0
LINE
  5
149
100
AcDbEntity
  8
MAIN0
  6
CONTINUOUS
 62
3
100
AcDbLine
 10
868.4516803800752
 20
757.7916349306706
 30
0.0000000000000000
 11
867.2016803800752
 21
757.0699470941836
 31
0.0000000000000000
  0
LINE
  5
14A
100
AcDbEntity
  8
MAIN0
  6
CONTINUOUS
 62
3
100
AcDbLine
 10
869.7016803800750
 20
757.0699470941831
 30
0.0000000000000000
 11
868.4516803800750
 21
757.7916349306702
 31
0.0000000000000000
  0
LINE
  5
14B
100
AcDbEntity
  8
MAIN0
  6
CONTINUOUS
 62
3
100
AcDbLine
 10
869.7016803800750
 20
755.6265714212093
 30
0.0000000000000000
 11
869.7016803800750
 21
757.0699470941834
 31
0.0000000000000000
  0
LINE
  5
14C
100
AcDbEntity
  8
MAIN0
  6
CONTINUOUS
 62
3
100
AcDbLine
 10
868.4516803800749
 20
754.9048835847223
 30
0.0000000000000000
 11
869.7016803800751
 21
755.6265714212093
 31
0.0000000000000000
  0
CIRCLE
  5
14D
100
AcDbEntity
  8
MAIN0
  6
CONTINUOUS
 62
3
100
AcDbCircle
 10
868.4516803800750
 20
756.3482592576963
 30
0.0000000000000000
 40
3.500000000000000
  0
CIRCLE
  5
14E
100
AcDbEntity
  8
MAIN0
  6
CONTINUOUS
 62
3
100
AcDbCircle
 10
868.4516803800750
 20
756.3482592576963
 30
0.0000000000000000
 40
4.000000000000000
  0
LINE
  5
14F
100
AcDbEntity
  8
MAIN0
  6
CONTINUOUS
 62
3
100
AcDbLine
 10
867.2016803800751
 20
679.6265714212091
 30
0.0000000000000000
 11
868.4516803800751
 21
678.9048835847220
 31
0.0000000000000000
  0
LINE
  5
150
100
AcDbEntity
  8
MAIN0
  6
CONTINUOUS
 62
3
100
AcDbLine
 10
867.2016803800750
 20
681.0699470941831
 30
0.0000000000000000
 11
867.2016803800750
 21
679.6265714212091
 31
0.0000000000000000
  0
LINE
  5
151
100
AcDbEntity
  8
MAIN0
  6
CONTINUOUS
 62
3
100
AcDbLine
 10
868.4516803800751
 20
681.7916349306704
 30
0.0000000000000000
 11
867.2016803800751
 21
681.0699470941834
 31
0.0000000000000000
  0
LINE
  5
152
100
AcDbEntity
  8
MAIN0
  6
CONTINUOUS
 62
3
100
AcDbLine
 10
869.7016803800750
 20
681.0699470941829
 30
0.0000000000000000
 11
868.4516803800750
 21
681.7916349306699
 31
0.0000000000000000
  0
LINE
  5
153
100
AcDbEntity
  8
MAIN0
  6
CONTINUOUS
 62
3
100
AcDbLine
 10
869.7016803800750
 20
679.6265714212091
 30
0.0000000000000000
 11
869.7016803800750
 21
681.0699470941831
 31
0.0000000000000000
  0
LINE
  5
154
100
AcDbEntity
  8
MAIN0
  6
CONTINUOUS
 62
3
100
AcDbLine
 10
868.4516803800750
 20
678.9048835847220
 30
0.0000000000000000
 11
869.7016803800752
 21
679.6265714212091
 31
0.0000000000000000
  0
CIRCLE
  5
155
100
AcDbEntity
  8
MAIN0
  6
CONTINUOUS
 62
3
100
AcDbCircle
 10
868.4516803800750
 20
680.3482592576961
 30
0.0000000000000000
 40
3.500000000000000
  0
CIRCLE
  5
156
100
AcDbEntity
  8
MAIN0
  6
CONTINUOUS
 62
3
100
AcDbCircle
 10
868.4516803800750
 20
680.3482592576961
 30
0.0000000000000000
 40
4.000000000000000
  0
LINE
  5
157
100
AcDbEntity
  8
MAIN0
  6
CONTINUOUS
 62
3
100
AcDbLine
 10
737.2016803800750
 20
767.6265714212092
 30
0.0000000000000000
 11
738.4516803800750
 21
766.9048835847221
 31
0.0000000000000000
  0
LINE
  5
158
100
AcDbEntity
  8
MAIN0
  6
CONTINUOUS
 62
3
100
AcDbLine
 10
737.2016803800750
 20
769.0699470941834
 30
0.0000000000000000
 11
737.2016803800750
 21
767.6265714212093
 31
0.0000000000000000
  0
LINE
  5
159
100
AcDbEntity
  8
MAIN0
  6
CONTINUOUS
 62
3
100
AcDbLine
 10
738.4516803800751
 20
769.7916349306706
 30
0.0000000000000000
 11
737.2016803800751
 21
769.0699470941836
 31
0.0000000000000000
  0
LINE
  5
15A
100
AcDbEntity
  8
MAIN0
  6
CONTINUOUS
 62
3
100
AcDbLine
 10
739.7016803800749
 20
769.0699470941831
 30
0.0000000000000000
 11
738.4516803800749
 21
769.7916349306702
 31
0.0000000000000000
  0
LINE
  5
15B
100
AcDbEntity
  8
MAIN0
  6
CONTINUOUS
 62
3
100
AcDbLine
 10
739.7016803800750
 20
767.6265714212093
 30
0.0000000000000000
 11
739.7016803800750
 21
769.0699470941834
 31
0.0000000000000000
  0
LINE
  5
15C
100
AcDbEntity
  8
MAIN0
  6
CONTINUOUS
 62
3
100
AcDbLine
 10
738.4516803800750
 20
766.9048835847221
 30
0.0000000000000000
 11
739.7016803800752
 21
767.6265714212093
 31
0.0000000000000000
  0
CIRCLE
  5
15D
100
AcDbEntity
  8
MAIN0
  6
CONTINUOUS
 62
3
100
AcDbCircle
 10
738.4516803800750
 20
768.3482592576963
 30
0.0000000000000000
 40
3.500000000000000
  0
CIRCLE
  5
15E
100
AcDbEntity
  8
MAIN0
  6
CONTINUOUS
 62
3
100
AcDbCircle
 10
738.4516803800750
 20
768.3482592576963
 30
0.0000000000000000
 40
4.000000000000000
  0
LINE
  5
15F
100
AcDbEntity
  8
MAIN0
  6
CONTINUOUS
 62
3
100
AcDbLine
 10
737.2016803800750
 20
667.6265714212091
 30
0.0000000000000000
 11
738.4516803800750
 21
666.9048835847220
 31
0.0000000000000000
  0
LINE
  5
160
100
AcDbEntity
  8
MAIN0
  6
CONTINUOUS
 62
3
100
AcDbLine
 10
737.2016803800750
 20
669.0699470941831
 30
0.0000000000000000
 11
737.2016803800750
 21
667.6265714212091
 31
0.0000000000000000
  0
LINE
  5
161
100
AcDbEntity
  8
MAIN0
  6
CONTINUOUS
 62
3
100
AcDbLine
 10
738.4516803800752
 20
669.7916349306703
 30
0.0000000000000000
 11
737.2016803800751
 21
669.0699470941833
 31
0.0000000000000000
  0
LINE
  5
162
100
AcDbEntity
  8
MAIN0
  6
CONTINUOUS
 62
3
100
AcDbLine
 10
739.7016803800750
 20
669.0699470941829
 30
0.0000000000000000
 11
738.4516803800750
 21
669.7916349306699
 31
0.0000000000000000
  0
LINE
  5
163
100
AcDbEntity
  8
MAIN0
  6
CONTINUOUS
 62
3
100
AcDbLine
 10
739.7016803800750
 20
667.6265714212091
 30
0.0000000000000000
 11
739.7016803800750
 21
669.0699470941831
 31
0.0000000000000000
  0
LINE
  5
164
100
AcDbEntity
  8
MAIN0
  6
CONTINUOUS
 62
3
100
AcDbLine
 10
738.4516803800749
 20
666.9048835847220
 30
0.0000000000000000
 11
739.7016803800751
 21
667.6265714212091
 31
0.0000000000000000
  0
CIRCLE
  5
165
100
AcDbEntity
  8
MAIN0
  6
CONTINUOUS
 62
3
100
AcDbCircle
 10
738.4516803800750
 20
668.3482592576961
 30
0.0000000000000000
 40
3.500000000000000
  0
CIRCLE
  5
166
100
AcDbEntity
  8
MAIN0
  6
CONTINUOUS
 62
3
100
AcDbCircle
 10
738.4516803800750
 20
668.3482592576961
 30
0.0000000000000000
 40
4.000000000000000
  0
LINE
  5
167
100
AcDbEntity
  8
MAIN0
  6
CONTINUOUS
 62
3
100
AcDbLine
 10
607.2016803800750
 20
767.6265714212093
 30
0.0000000000000000
 11
608.4516803800750
 21
766.9048835847223
 31
0.0000000000000000
  0
LINE
  5
168
100
AcDbEntity
  8
MAIN0
  6
CONTINUOUS
 62
3
100
AcDbLine
 10
607.2016803800750
 20
769.0699470941834
 30
0.0000000000000000
 11
607.2016803800750
 21
767.6265714212093
 31
0.0000000000000000
  0
LINE
  5
169
100
AcDbEntity
  8
MAIN0
  6
CONTINUOUS
 62
3
100
AcDbLine
 10
608.4516803800750
 20
769.7916349306706
 30
0.0000000000000000
 11
607.2016803800750
 21
769.0699470941836
 31
0.0000000000000000
  0
LINE
  5
16A
100
AcDbEntity
  8
MAIN0
  6
CONTINUOUS
 62
3
100
AcDbLine
 10
609.7016803800749
 20
769.0699470941831
 30
0.0000000000000000
 11
608.4516803800749
 21
769.7916349306702
 31
0.0000000000000000
  0
LINE
  5
16B
100
AcDbEntity
  8
MAIN0
  6
CONTINUOUS
 62
3
100
AcDbLine
 10
609.7016803800750
 20
767.6265714212093
 30
0.0000000000000000
 11
609.7016803800750
 21
769.0699470941834
 31
0.0000000000000000
  0
LINE
  5
16C
100
AcDbEntity
  8
MAIN0
  6
CONTINUOUS
 62
3
100
AcDbLine
 10
608.4516803800750
 20
766.9048835847223
 30
0.0000000000000000
 11
609.7016803800752
 21
767.6265714212093
 31
0.0000000000000000
  0
CIRCLE
  5
16D
100
AcDbEntity
  8
MAIN0
  6
CONTINUOUS
 62
3
100
AcDbCircle
 10
608.4516803800750
 20
768.3482592576963
 30
0.0000000000000000
 40
3.500000000000000
  0
CIRCLE
  5
16E
100
AcDbEntity
  8
MAIN0
  6
CONTINUOUS
 62
3
100
AcDbCircle
 10
608.4516803800750
 20
768.3482592576963
 30
0.0000000000000000
 40
4.000000000000000
  0
LINE
  5
16F
100
AcDbEntity
  8
MAIN0
  6
CONTINUOUS
 62
3
100
AcDbLine
 10
607.2016803800750
 20
667.6265714212091
 30
0.0000000000000000
 11
608.4516803800750
 21
666.9048835847220
 31
0.0000000000000000
  0
LINE
  5
170
100
AcDbEntity
  8
MAIN0
  6
CONTINUOUS
 62
3
100
AcDbLine
 10
607.2016803800750
 20
669.0699470941831
 30
0.0000000000000000
 11
607.2016803800750
 21
667.6265714212091
 31
0.0000000000000000
  0
LINE
  5
171
100
AcDbEntity
  8
MAIN0
  6
CONTINUOUS
 62
3
100
AcDbLine
 10
608.4516803800750
 20
669.7916349306704
 30
0.0000000000000000
 11
607.2016803800750
 21
669.0699470941834
 31
0.0000000000000000
  0
LINE
  5
172
100
AcDbEntity
  8
MAIN0
  6
CONTINUOUS
 62
3
100
AcDbLine
 10
609.7016803800749
 20
669.0699470941829
 30
0.0000000000000000
 11
608.4516803800749
 21
669.7916349306699
 31
0.0000000000000000
  0
LINE
  5
173
100
AcDbEntity
  8
MAIN0
  6
CONTINUOUS
 62
3
100
AcDbLine
 10
609.7016803800750
 20
667.6265714212091
 30
0.0000000000000000
 11
609.7016803800750
 21
669.0699470941831
 31
0.0000000000000000
  0
LINE
  5
174
100
AcDbEntity
  8
MAIN0
  6
CONTINUOUS
 62
3
100
AcDbLine
 10
608.4516803800750
 20
666.9048835847220
 30
0.0000000000000000
 11
609.7016803800752
 21
667.6265714212091
 31
0.0000000000000000
  0
CIRCLE
  5
175
100
AcDbEntity
  8
MAIN0
  6
CONTINUOUS
 62
3
100
AcDbCircle
 10
608.4516803800750
 20
668.3482592576961
 30
0.0000000000000000
 40
3.500000000000000
  0
CIRCLE
  5
176
100
AcDbEntity
  8
MAIN0
  6
CONTINUOUS
 62
3
100
AcDbCircle
 10
608.4516803800750
 20
668.3482592576961
 30
0.0000000000000000
 40
4.000000000000000
  0
CIRCLE
  5
177
100
AcDbEntity
  8
MAIN0
  6
CONTINUOUS
 62
3
100
AcDbCircle
 10
638.4516803800750
 20
718.3482592578419
 30
0.0000000000000000
 40
6.500000000000000
  0
CIRCLE
  5
178
100
AcDbEntity
  8
MAIN0
  6
CONTINUOUS
 62
3
100
AcDbCircle
 10
638.4516803800750
 20
718.3482592578419
 30
0.0000000000000000
 40
6.750000000318323
  0
LINE
  5
179
100
AcDbEntity
  8
MAIN0
  6
CENTER
 62
3
100
AcDbLine
 10
638.4516803800750
 20
708.7081987897332
 30
0.0000000000000000
 11
638.4516803800750
 21
727.8588468997475
 31
0.0000000000000000
  0
LINE
  5
17A
100
AcDbEntity
  8
MAIN0
  6
CONTINUOUS
 62
3
100
AcDbLine
 10
636.4516803800750
 20
717.1935587194628
 30
0.0000000000000000
 11
638.4516803800751
 21
716.0388581810836
 31
0.0000000000000000
  0
LINE
  5
17B
100
AcDbEntity
  8
MAIN0
  6
CONTINUOUS
 62
3
100
AcDbLine
 10
636.4516803800750
 20
719.5029597962212
 30
0.0000000000000000
 11
636.4516803800750
 21
717.1935587194625
 31
0.0000000000000000
  0
LINE
  5
17C
100
AcDbEntity
  8
MAIN0
  6
CONTINUOUS
 62
3
100
AcDbLine
 10
638.4516803800750
 20
720.6576603345999
 30
0.0000000000000000
 11
636.4516803800751
 21
719.5029597962207
 31
0.0000000000000000
  0
LINE
  5
17D
100
AcDbEntity
  8
MAIN0
  6
CONTINUOUS
 62
3
100
AcDbLine
 10
640.4516803800750
 20
719.5029597962213
 30
0.0000000000000000
 11
638.4516803800750
 21
720.6576603346005
 31
0.0000000000000000
  0
LINE
  5
17E
100
AcDbEntity
  8
MAIN0
  6
CONTINUOUS
 62
3
100
AcDbLine
 10
640.4516803800750
 20
717.1935587194625
 30
0.0000000000000000
 11
640.4516803800750
 21
719.5029597962212
 31
0.0000000000000000
  0
LINE
  5
17F
100
AcDbEntity
  8
MAIN0
  6
CONTINUOUS
 62
3
100
AcDbLine
 10
638.4516803800746
 20
716.0388581810828
 30
0.0000000000000000
 11
640.4516803800746
 21
717.1935587194619
 31
0.0000000000000000
  0
LINE
  5
180
100
AcDbEntity
  8
MAIN0
  6
CONTINUOUS
 62
3
100
AcDbLine
 10
661.9516803800749
 20
699.8482592576970
 30
0.0000000000000000
 11
661.9516803800750
 21
736.8482592576968
 31
0.0000000000000000
  0
MTEXT
  5
181
100
AcDbEntity
  8
MAIN0
  6
CONTINUOUS
 62
3
100
AcDbMText
 10
657.2893732283653
 20
704.6482572035141
 30
0.0000000000000000
 40
3.000000000000000
 41
0.0000000000000000
 71
     1
 72
     1
  1
{\H0.59x;{LUBRICATION PORT}}
 11
1.393499969507555e-015
 21
1.000000000000000
 31
0.0000000000000000
  7
STANDARD
  0
LINE
  5
182
100
AcDbEntity
  8
MAIN0
  6
CONTINUOUS
 62
3
100
AcDbLine
 10
651.9516803800751
 20
697.8482592576962
 30
0.0000000000000000
 11
659.9516803800751
 21
697.8482592576967
 31
0.0000000000000000
  0
LINE
  5
183
100
AcDbEntity
  8
MAIN0
  6
CONTINUOUS
 62
3
100
AcDbLine
 10
649.9516803800749
 20
699.8482592576966
 30
0.0000000000000000
 11
649.9516803800750
 21
736.8482592576966
 31
0.0000000000000000
  0
LINE
  5
184
100
AcDbEntity
  8
MAIN0
  6
CONTINUOUS
 62
3
100
AcDbLine
 10
651.9516803800750
 20
738.8482592576962
 30
0.0000000000000000
 11
659.9516803800750
 21
738.8482592576967
 31
0.0000000000000000
  0
MTEXT
  5
185
100
AcDbEntity
  8
MAIN0
  6
CONTINUOUS
 62
3
100
AcDbMText
 10
651.6516803800749
 20
705.2282592576969
 30
0.0000000000000000
 40
4.000000000000000
 41
0.0000000000000000
 71
     1
 72
     1
  1
{\H0.93x;{潤滑油供給口}}
 11
1.393499969507555e-015
 21
1.000000000000000
 31
0.0000000000000000
  7
KNJYOKO
  0
LINE
  5
186
100
AcDbEntity
  8
MAIN0
  6
CENTER
 62
3
100
AcDbLine
 10
652.0130386429065
 20
701.8482592576964
 30
0.0000000000000000
 11
659.0996180456905
 21
701.8482592576968
 31
0.0000000000000000
  0
LINE
  5
187
100
AcDbEntity
  8
MAIN0
  6
CENTER
 62
3
100
AcDbLine
 10
652.1932069013718
 20
734.8482592576964
 30
0.0000000000000000
 11
660.3607890143268
 21
734.8482592576968
 31
0.0000000000000000
  0
LINE
  5
188
100
AcDbEntity
  8
MAIN0
  6
CENTER
 62
3
100
AcDbLine
 10
655.9516803800728
 20
697.0688282762014
 30
0.0000000000000000
 11
655.9516803800728
 21
704.3160212063810
 31
0.0000000000000000
  0
LINE
  5
189
100
AcDbEntity
  8
MAIN0
  6
CENTER
 62
3
100
AcDbLine
 10
655.9516803800730
 20
732.8425093561887
 30
0.0000000000000000
 11
655.9516803800730
 21
739.4290910391795
 31
0.0000000000000000
  0
ARC
  5
18A
100
AcDbEntity
  8
MAIN0
  6
CONTINUOUS
 62
3
100
AcDbCircle
 10
651.9516803800750
 20
736.8482592576964
 30
0.0000000000000000
 40
2.000000000000000
100
AcDbArc
 50
89.99999999999993
 51
179.9999999999999
  0
ARC
  5
18B
100
AcDbEntity
  8
MAIN0
  6
CONTINUOUS
 62
3
100
AcDbCircle
 10
659.9516803800750
 20
736.8482592576968
 30
0.0000000000000000
 40
2.000000000000000
100
AcDbArc
 50
359.9999999999999
 51
449.9999999999999
  0
ARC
  5
18C
100
AcDbEntity
  8
MAIN0
  6
CONTINUOUS
 62
3
100
AcDbCircle
 10
659.9516803800750
 20
699.8482592576969
 30
0.0000000000000000
 40
2.000000000000000
100
AcDbArc
 50
269.9999999999999
 51
359.9999999999999
  0
ARC
  5
18D
100
AcDbEntity
  8
MAIN0
  6
CONTINUOUS
 62
3
100
AcDbCircle
 10
651.9516803800750
 20
699.8482592576964
 30
0.0000000000000000
 40
2.000000000000000
100
AcDbArc
 50
179.9999999999999
 51
269.9999999999999
  0
LINE
  5
18E
100
AcDbEntity
  8
MAIN0
  6
CONTINUOUS
 62
3
100
AcDbLine
 10
657.1891172471494
 20
736.0856961247728
 30
0.0000000000000000
 11
654.7142435129964
 21
733.6108223906199
 31
0.0000000000000000
  0
LINE
  5
18F
100
AcDbEntity
  8
MAIN0
  6
CONTINUOUS
 62
3
100
AcDbLine
 10
657.1891172471495
 20
733.6108223906200
 30
0.0000000000000000
 11
654.7142435129965
 21
736.0856961247729
 31
0.0000000000000000
  0
CIRCLE
  5
190
100
AcDbEntity
  8
MAIN0
  6
CONTINUOUS
 62
3
100
AcDbCircle
 10
655.9516803800728
 20
734.8482592576966
 30
0.0000000000000000
 40
2.750000000000000
  0
CIRCLE
  5
191
100
AcDbEntity
  8
MAIN0
  6
CONTINUOUS
 62
3
100
AcDbCircle
 10
655.9516803800730
 20
701.8482592576968
 30
0.0000000000000000
 40
2.750000000000000
  0
LINE
  5
192
100
AcDbEntity
  8
MAIN0
  6
CONTINUOUS
 62
3
100
AcDbLine
 10
657.1891172471496
 20
703.0856961247731
 30
0.0000000000000000
 11
654.7142435129968
 21
700.6108223906201
 31
0.0000000000000000
  0
LINE
  5
193
100
AcDbEntity
  8
MAIN0
  6
CONTINUOUS
 62
3
100
AcDbLine
 10
657.1891172471496
 20
700.6108223906201
 30
0.0000000000000000
 11
654.7142435129968
 21
703.0856961247731
 31
0.0000000000000000
  0
LINE
  5
194
100
AcDbEntity
  8
MAIN0
  6
CENTER
 62
3
100
AcDbLine
 10
638.4516803800340
 20
500.0677256001887
 30
0.0000000000000000
 11
638.4516803800300
 21
515.3855830319615
 31
0.0000000000000000
  0
LINE
  5
195
100
AcDbEntity
  8
MAIN0
  6
CONTINUOUS
 62
3
100
AcDbLine
 10
662.0639540799016
 20
509.1450204793702
 30
0.0000000000000000
 11
662.0639540799011
 21
508.1450204793702
 31
0.0000000000000000
  0
LINE
  5
196
100
AcDbEntity
  8
MAIN0
  6
CONTINUOUS
 62
3
100
AcDbLine
 10
650.0639540798394
 20
509.1450204794240
 30
0.0000000000000000
 11
662.0639540799016
 21
509.1450204793702
 31
0.0000000000000000
  0
LINE
  5
197
100
AcDbEntity
  8
MAIN0
  6
CONTINUOUS
 62
3
100
AcDbLine
 10
650.0639540798394
 20
509.1450204794241
 30
0.0000000000000000
 11
650.0639540798391
 21
508.1450204794240
 31
0.0000000000000000
  0
LINE
  5
198
100
AcDbEntity
  8
MAIN0
  6
CONTINUOUS
 62
3
100
AcDbLine
 10
653.3139540801186
 20
510.1450204793972
 30
0.0000000000000000
 11
653.3139540801186
 21
509.1450204793972
 31
0.0000000000000000
  0
ARC
  5
199
100
AcDbEntity
  8
MAIN0
  6
CONTINUOUS
 62
3
100
AcDbCircle
 10
654.3139540801186
 20
510.1450204793972
 30
0.0000000000000000
 40
1.000000000000000
100
AcDbArc
 50
90.00000000000000
 51
180.0000000000000
  0
LINE
  5
19A
100
AcDbEntity
  8
MAIN0
  6
CONTINUOUS
 62
3
100
AcDbLine
 10
657.8139540801186
 20
511.1450204793972
 30
0.0000000000000000
 11
654.3139540801186
 21
511.1450204793972
 31
0.0000000000000000
  0
ARC
  5
19B
100
AcDbEntity
  8
MAIN0
  6
CONTINUOUS
 62
3
100
AcDbCircle
 10
657.8139540801186
 20
510.1450204793972
 30
0.0000000000000000
 40
1.000000000000000
100
AcDbArc
 50
0.0000000000000000
 51
90.00000000000000
  0
LINE
  5
19C
100
AcDbEntity
  8
MAIN0
  6
CONTINUOUS
 62
3
100
AcDbLine
 10
658.8139540801186
 20
509.1450204793972
 30
0.0000000000000000
 11
658.8139540801186
 21
510.1450204793972
 31
0.0000000000000000
  0
LINE
  5
19D
100
AcDbEntity
  8
MAIN0
  6
CONTINUOUS
 62
3
100
AcDbLine
 10
631.7016803800187
 20
509.3450204794769
 30
0.0000000000000000
 11
645.2016803800187
 21
509.3450204794791
 31
0.0000000000000000
  0
LINE
  5
19E
100
AcDbEntity
  8
MAIN0
  6
CONTINUOUS
 62
3
100
AcDbLine
 10
645.2016803800134
 20
508.1450204794761
 30
0.0000000000000000
 11
645.2016803800186
 21
509.3450204794761
 31
0.0000000000000000
  0
LINE
  5
19F
100
AcDbEntity
  8
MAIN0
  6
CONTINUOUS
 62
3
100
AcDbLine
 10
644.9516803800241
 20
509.3450204794792
 30
0.0000000000000000
 11
644.9516803799479
 21
510.8450204794793
 31
0.0000000000000000
  0
LINE
  5
1A0
100
AcDbEntity
  8
MAIN0
  6
CONTINUOUS
 62
3
100
AcDbLine
 10
644.9516803799480
 20
510.8450204794792
 30
0.0000000000000000
 11
631.9516803799479
 21
510.8450204794792
 31
0.0000000000000000
  0
LINE
  5
1A1
100
AcDbEntity
  8
MAIN0
  6
CONTINUOUS
 62
3
100
AcDbLine
 10
631.9516803799479
 20
510.8450204794792
 30
0.0000000000000000
 11
631.9516803800241
 21
509.3450204794792
 31
0.0000000000000000
  0
LINE
  5
1A2
100
AcDbEntity
  8
MAIN0
  6
CONTINUOUS
 62
3
100
AcDbLine
 10
631.7016803800134
 20
508.1450204794762
 30
0.0000000000000000
 11
631.7016803800186
 21
509.3450204794762
 31
0.0000000000000000
  0
LINE
  5
1A3
100
AcDbEntity
  8
MAIN0
  6
CENTER
 62
3
100
AcDbLine
 10
656.0639540801180
 20
512.2576082115178
 30
0.0000000000000000
 11
656.0639540801191
 21
506.2537886275546
 31
0.0000000000000000
  0
LINE
  5
1A4
100
AcDbEntity
  8
MAIN0
  6
CENTER
 62
3
100
AcDbLine
 10
869.4516803800996
 20
504.9488626007795
 30
0.0000000000000000
 11
869.4516803800983
 21
514.1327352822341
 31
0.0000000000000000
  0
CIRCLE
  5
1A5
100
AcDbEntity
  8
MAIN0
  6
CONTINUOUS
 62
3
100
AcDbCircle
 10
869.4516803800691
 20
718.3482592578419
 30
0.0000000000000000
 40
6.500000000000000
  0
CIRCLE
  5
1A6
100
AcDbEntity
  8
MAIN0
  6
CONTINUOUS
 62
3
100
AcDbCircle
 10
869.4516803800691
 20
718.3482592578419
 30
0.0000000000000000
 40
6.750000000318323
  0
LINE
  5
1A7
100
AcDbEntity
  8
MAIN0
  6
CENTER
 62
3
100
AcDbLine
 10
869.4516803800691
 20
708.7081987897332
 30
0.0000000000000000
 11
869.4516803800691
 21
727.8588468997475
 31
0.0000000000000000
  0
LINE
  5
1A8
100
AcDbEntity
  8
MAIN0
  6
CONTINUOUS
 62
3
100
AcDbLine
 10
867.4516803800691
 20
717.1935587194628
 30
0.0000000000000000
 11
869.4516803800691
 21
716.0388581810836
 31
0.0000000000000000
  0
LINE
  5
1A9
100
AcDbEntity
  8
MAIN0
  6
CONTINUOUS
 62
3
100
AcDbLine
 10
867.4516803800691
 20
719.5029597962212
 30
0.0000000000000000
 11
867.4516803800691
 21
717.1935587194625
 31
0.0000000000000000
  0
LINE
  5
1AA
100
AcDbEntity
  8
MAIN0
  6
CONTINUOUS
 62
3
100
AcDbLine
 10
869.4516803800691
 20
720.6576603345998
 30
0.0000000000000000
 11
867.4516803800691
 21
719.5029597962207
 31
0.0000000000000000
  0
LINE
  5
1AB
100
AcDbEntity
  8
MAIN0
  6
CONTINUOUS
 62
3
100
AcDbLine
 10
871.4516803800691
 20
719.5029597962213
 30
0.0000000000000000
 11
869.4516803800690
 21
720.6576603346005
 31
0.0000000000000000
  0
LINE
  5
1AC
100
AcDbEntity
  8
MAIN0
  6
CONTINUOUS
 62
3
100
AcDbLine
 10
871.4516803800691
 20
717.1935587194625
 30
0.0000000000000000
 11
871.4516803800691
 21
719.5029597962212
 31
0.0000000000000000
  0
LINE
  5
1AD
100
AcDbEntity
  8
MAIN0
  6
CONTINUOUS
 62
3
100
AcDbLine
 10
869.4516803800685
 20
716.0388581810827
 30
0.0000000000000000
 11
871.4516803800686
 21
717.1935587194619
 31
0.0000000000000000
  0
LINE
  5
1AE
100
AcDbEntity
  8
MAIN0
  6
CONTINUOUS
 62
3
100
AcDbLine
 10
862.7016803800860
 20
509.3450204794769
 30
0.0000000000000000
 11
876.2016803800860
 21
509.3450204794791
 31
0.0000000000000000
  0
LINE
  5
1AF
100
AcDbEntity
  8
MAIN0
  6
CONTINUOUS
 62
3
100
AcDbLine
 10
876.2016803800807
 20
508.1450204794761
 30
0.0000000000000000
 11
876.2016803800860
 21
509.3450204794761
 31
0.0000000000000000
  0
LINE
  5
1B0
100
AcDbEntity
  8
MAIN0
  6
CONTINUOUS
 62
3
100
AcDbLine
 10
875.9516803800913
 20
509.3450204794792
 30
0.0000000000000000
 11
875.9516803800151
 21
510.8450204794793
 31
0.0000000000000000
  0
LINE
  5
1B1
100
AcDbEntity
  8
MAIN0
  6
CONTINUOUS
 62
3
100
AcDbLine
 10
875.9516803800153
 20
510.8450204794792
 30
0.0000000000000000
 11
862.9516803800152
 21
510.8450204794792
 31
0.0000000000000000
  0
LINE
  5
1B2
100
AcDbEntity
  8
MAIN0
  6
CONTINUOUS
 62
3
100
AcDbLine
 10
862.9516803800151
 20
510.8450204794792
 30
0.0000000000000000
 11
862.9516803800913
 21
509.3450204794792
 31
0.0000000000000000
  0
LINE
  5
1B3
100
AcDbEntity
  8
MAIN0
  6
CONTINUOUS
 62
3
100
AcDbLine
 10
862.7016803800807
 20
508.1450204794762
 30
0.0000000000000000
 11
862.7016803800860
 21
509.3450204794762
 31
0.0000000000000000
  0
LINE
  5
1B4
100
AcDbEntity
  8
MAIN0
  6
HIDDEN
 62
3
100
AcDbLine
 10
633.9516803800311
 20
489.6450204793703
 30
0.0000000000000000
 11
642.9516803800311
 21
489.6450204793703
 31
0.0000000000000000
  0
LINE
  5
1B5
100
AcDbEntity
  8
MAIN0
  6
HIDDEN
 62
3
100
AcDbLine
 10
632.9516803796811
 20
490.6450204793708
 30
0.0000000000000000
 11
633.9516803796857
 21
489.6450204793700
 31
0.0000000000000000
  0
LINE
  5
1B6
100
AcDbEntity
  8
MAIN0
  6
HIDDEN
 62
3
100
AcDbLine
 10
643.9516803803811
 20
490.6450204793704
 30
0.0000000000000000
 11
642.9516803803765
 21
489.6450204793700
 31
0.0000000000000000
  0
LINE
  5
1B7
100
AcDbEntity
  8
MAIN0
  6
HIDDEN
 62
3
100
AcDbLine
 10
633.9516803800311
 20
426.6450204793703
 30
0.0000000000000000
 11
642.9516803800311
 21
426.6450204793703
 31
0.0000000000000000
  0
LINE
  5
1B8
100
AcDbEntity
  8
MAIN0
  6
HIDDEN
 62
3
100
AcDbLine
 10
632.9516803796814
 20
425.6450204793701
 30
0.0000000000000000
 11
633.9516803796859
 21
426.6450204793705
 31
0.0000000000000000
  0
LINE
  5
1B9
100
AcDbEntity
  8
MAIN0
  6
HIDDEN
 62
3
100
AcDbLine
 10
643.9516803803808
 20
425.6450204793707
 30
0.0000000000000000
 11
642.9516803803767
 21
426.6450204793708
 31
0.0000000000000000
  0
LINE
  5
1BA
100
AcDbEntity
  8
MAIN0
  6
CONTINUOUS
 62
3
100
AcDbLine
 10
857.9516803798820
 20
509.1450204793702
 30
0.0000000000000000
 11
857.9516803798815
 21
508.1450204793702
 31
0.0000000000000000
  0
LINE
  5
1BB
100
AcDbEntity
  8
MAIN0
  6
CONTINUOUS
 62
3
100
AcDbLine
 10
845.9516803798198
 20
509.1450204794240
 30
0.0000000000000000
 11
857.9516803798820
 21
509.1450204793702
 31
0.0000000000000000
  0
LINE
  5
1BC
100
AcDbEntity
  8
MAIN0
  6
CONTINUOUS
 62
3
100
AcDbLine
 10
845.9516803798198
 20
509.1450204794241
 30
0.0000000000000000
 11
845.9516803798194
 21
508.1450204794240
 31
0.0000000000000000
  0
LINE
  5
1BD
100
AcDbEntity
  8
MAIN0
  6
CONTINUOUS
 62
3
100
AcDbLine
 10
849.2016803800990
 20
510.1450204793972
 30
0.0000000000000000
 11
849.2016803800990
 21
509.1450204793972
 31
0.0000000000000000
  0
ARC
  5
1BE
100
AcDbEntity
  8
MAIN0
  6
CONTINUOUS
 62
3
100
AcDbCircle
 10
850.2016803800990
 20
510.1450204793972
 30
0.0000000000000000
 40
1.000000000000000
100
AcDbArc
 50
90.00000000000000
 51
180.0000000000000
  0
LINE
  5
1BF
100
AcDbEntity
  8
MAIN0
  6
CONTINUOUS
 62
3
100
AcDbLine
 10
853.7016803800990
 20
511.1450204793972
 30
0.0000000000000000
 11
850.2016803800990
 21
511.1450204793972
 31
0.0000000000000000
  0
ARC
  5
1C0
100
AcDbEntity
  8
MAIN0
  6
CONTINUOUS
 62
3
100
AcDbCircle
 10
853.7016803800990
 20
510.1450204793972
 30
0.0000000000000000
 40
1.000000000000000
100
AcDbArc
 50
0.0000000000000000
 51
90.00000000000000
  0
LINE
  5
1C1
100
AcDbEntity
  8
MAIN0
  6
CONTINUOUS
 62
3
100
AcDbLine
 10
854.7016803800990
 20
509.1450204793972
 30
0.0000000000000000
 11
854.7016803800990
 21
510.1450204793972
 31
0.0000000000000000
  0
LINE
  5
1C2
100
AcDbEntity
  8
MAIN0
  6
CENTER
 62
3
100
AcDbLine
 10
851.9516803800984
 20
512.2576082115178
 30
0.0000000000000000
 11
851.9516803800995
 21
506.2537886275546
 31
0.0000000000000000
  0
LINE
  5
1C3
100
AcDbEntity
  8
MAIN0
  6
CONTINUOUS
 62
3
100
AcDbLine
 10
857.9516803800710
 20
699.8482592576971
 30
0.0000000000000000
 11
857.9516803800711
 21
736.8482592576969
 31
0.0000000000000000
  0
MTEXT
  5
1C4
100
AcDbEntity
  8
MAIN0
  6
CONTINUOUS
 62
3
100
AcDbMText
 10
853.2893732283615
 20
704.6482572035143
 30
0.0000000000000000
 40
3.000000000000000
 41
0.0000000000000000
 71
     1
 72
     1
  1
{\H0.59x;{LUBRICATION PORT}}
 11
1.393499969507555e-015
 21
1.000000000000000
 31
0.0000000000000000
  7
STANDARD
  0
LINE
  5
1C5
100
AcDbEntity
  8
MAIN0
  6
CONTINUOUS
 62
3
100
AcDbLine
 10
847.9516803800711
 20
697.8482592576963
 30
0.0000000000000000
 11
855.9516803800711
 21
697.8482592576968
 31
0.0000000000000000
  0
LINE
  5
1C6
100
AcDbEntity
  8
MAIN0
  6
CONTINUOUS
 62
3
100
AcDbLine
 10
845.9516803800710
 20
699.8482592576968
 30
0.0000000000000000
 11
845.9516803800711
 21
736.8482592576967
 31
0.0000000000000000
  0
LINE
  5
1C7
100
AcDbEntity
  8
MAIN0
  6
CONTINUOUS
 62
3
100
AcDbLine
 10
847.9516803800710
 20
738.8482592576964
 30
0.0000000000000000
 11
855.9516803800710
 21
738.8482592576968
 31
0.0000000000000000
  0
MTEXT
  5
1C8
100
AcDbEntity
  8
MAIN0
  6
CONTINUOUS
 62
3
100
AcDbMText
 10
847.6516803800711
 20
705.2282592576971
 30
0.0000000000000000
 40
4.000000000000000
 41
0.0000000000000000
 71
     1
 72
     1
  1
{\H0.93x;{潤滑油供給口}}
 11
1.393499969507555e-015
 21
1.000000000000000
 31
0.0000000000000000
  7
KNJYOKO
  0
LINE
  5
1C9
100
AcDbEntity
  8
MAIN0
  6
CENTER
 62
3
100
AcDbLine
 10
848.0130386429025
 20
701.8482592576966
 30
0.0000000000000000
 11
855.0996180456865
 21
701.8482592576970
 31
0.0000000000000000
  0
LINE
  5
1CA
100
AcDbEntity
  8
MAIN0
  6
CENTER
 62
3
100
AcDbLine
 10
848.1932069013679
 20
734.8482592576967
 30
0.0000000000000000
 11
856.3607890143229
 21
734.8482592576971
 31
0.0000000000000000
  0
LINE
  5
1CB
100
AcDbEntity
  8
MAIN0
  6
CENTER
 62
3
100
AcDbLine
 10
851.9516803800690
 20
697.0688282762015
 30
0.0000000000000000
 11
851.9516803800690
 21
704.3160212063812
 31
0.0000000000000000
  0
LINE
  5
1CC
100
AcDbEntity
  8
MAIN0
  6
CENTER
 62
3
100
AcDbLine
 10
851.9516803800690
 20
732.8425093561888
 30
0.0000000000000000
 11
851.9516803800691
 21
739.4290910391796
 31
0.0000000000000000
  0
ARC
  5
1CD
100
AcDbEntity
  8
MAIN0
  6
CONTINUOUS
 62
3
100
AcDbCircle
 10
847.9516803800711
 20
736.8482592576967
 30
0.0000000000000000
 40
2.000000000000000
100
AcDbArc
 50
89.99999999999993
 51
179.9999999999999
  0
ARC
  5
1CE
100
AcDbEntity
  8
MAIN0
  6
CONTINUOUS
 62
3
100
AcDbCircle
 10
855.9516803800711
 20
736.8482592576970
 30
0.0000000000000000
 40
2.000000000000000
100
AcDbArc
 50
359.9999999999999
 51
449.9999999999999
  0
ARC
  5
1CF
100
AcDbEntity
  8
MAIN0
  6
CONTINUOUS
 62
3
100
AcDbCircle
 10
855.9516803800711
 20
699.8482592576971
 30
0.0000000000000000
 40
2.000000000000000
100
AcDbArc
 50
269.9999999999999
 51
359.9999999999999
  0
ARC
  5
1D0
100
AcDbEntity
  8
MAIN0
  6
CONTINUOUS
 62
3
100
AcDbCircle
 10
847.9516803800711
 20
699.8482592576967
 30
0.0000000000000000
 40
2.000000000000000
100
AcDbArc
 50
179.9999999999999
 51
269.9999999999999
  0
LINE
  5
1D1
100
AcDbEntity
  8
MAIN0
  6
CONTINUOUS
 62
3
100
AcDbLine
 10
853.1891172471453
 20
736.0856961247730
 30
0.0000000000000000
 11
850.7142435129923
 21
733.6108223906201
 31
0.0000000000000000
  0
LINE
  5
1D2
100
AcDbEntity
  8
MAIN0
  6
CONTINUOUS
 62
3
100
AcDbLine
 10
853.1891172471454
 20
733.6108223906202
 30
0.0000000000000000
 11
850.7142435129925
 21
736.0856961247732
 31
0.0000000000000000
  0
CIRCLE
  5
1D3
100
AcDbEntity
  8
MAIN0
  6
CONTINUOUS
 62
3
100
AcDbCircle
 10
851.9516803800689
 20
734.8482592576968
 30
0.0000000000000000
 40
2.750000000000000
  0
CIRCLE
  5
1D4
100
AcDbEntity
  8
MAIN0
  6
CONTINUOUS
 62
3
100
AcDbCircle
 10
851.9516803800691
 20
701.8482592576970
 30
0.0000000000000000
 40
2.750000000000000
  0
LINE
  5
1D5
100
AcDbEntity
  8
MAIN0
  6
CONTINUOUS
 62
3
100
AcDbLine
 10
853.1891172471455
 20
703.0856961247732
 30
0.0000000000000000
 11
850.7142435129927
 21
700.6108223906203
 31
0.0000000000000000
  0
LINE
  5
1D6
100
AcDbEntity
  8
MAIN0
  6
CONTINUOUS
 62
3
100
AcDbLine
 10
853.1891172471457
 20
700.6108223906203
 30
0.0000000000000000
 11
850.7142435129928
 21
703.0856961247733
 31
0.0000000000000000
  0
LINE
  5
1D7
100
AcDbEntity
  8
MAIN0
  6
CONTINUOUS
 62
3
100
AcDbLine
 10
587.4516803800651
 20
89.39524100080654
 30
0.0000000000000000
 11
587.4516803800293
 21
117.8952410008065
 31
0.0000000000000000
  0
LINE
  5
1D8
100
AcDbEntity
  8
MAIN0
  6
CONTINUOUS
 62
3
100
AcDbLine
 10
617.4516803801869
 20
89.39524100079984
 30
0.0000000000000000
 11
617.4516803801869
 21
117.8952410007999
 31
0.0000000000000000
  0
LINE
  5
1D9
100
AcDbEntity
  8
MAIN0
  6
CONTINUOUS
 62
3
100
AcDbLine
 10
587.4516803800298
 20
117.8952410008065
 30
0.0000000000000000
 11
617.4516803801870
 21
117.8952410007999
 31
0.0000000000000000
  0
LINE
  5
1DA
100
AcDbEntity
  8
MAIN0
  6
CONTINUOUS
 62
3
100
AcDbLine
 10
587.4516803800649
 20
89.39524100080652
 30
0.0000000000000000
 11
617.4516803801869
 21
89.39524100079986
 31
0.0000000000000000
  0
LINE
  5
1DB
100
AcDbEntity
  8
MAIN0
  6
CENTER
 62
3
100
AcDbLine
 10
578.8346671690224
 20
103.6452410008084
 30
0.0000000000000000
 11
626.9001295957435
 21
103.6452410007978
 31
0.0000000000000000
  0
CIRCLE
  5
1DC
100
AcDbEntity
  8
MAIN0
  6
CONTINUOUS
 62
3
100
AcDbCircle
 10
602.4516803800595
 20
103.6452410008032
 30
0.0000000000000000
 40
8.000000000000000
  0
CIRCLE
  5
1DD
100
AcDbEntity
  8
MAIN0
  6
CONTINUOUS
 62
3
100
AcDbCircle
 10
602.4516803800595
 20
103.6452410008032
 30
0.0000000000000000
 40
7.000000000000000
  0
LINE
  5
1DE
100
AcDbEntity
  8
MAIN0
  6
HIDDEN
 62
3
100
AcDbLine
 10
587.4516803800362
 20
112.3952410008065
 30
0.0000000000000000
 11
617.4516803801869
 21
112.3952410007999
 31
0.0000000000000000
  0
LINE
  5
1DF
100
AcDbEntity
  8
MAIN0
  6
HIDDEN
 62
3
100
AcDbLine
 10
587.4516803800583
 20
94.89524100080652
 30
0.0000000000000000
 11
617.4516803801870
 21
94.89524100079986
 31
0.0000000000000000
  0
LINE
  5
1E0
100
AcDbEntity
  8
MAIN0
  6
CENTER
 62
3
100
AcDbLine
 10
602.4516803800595
 20
81.21894170998513
 30
0.0000000000000000
 11
602.4516803800595
 21
129.2917703692906
 31
0.0000000000000000
  0
LEADER
  5
1E1
100
AcDbEntity
  8
MAIN0
  6
CONTINUOUS
 62
3
100
AcDbLeader
  3
MAIN001
 73
     0
 75
     1
 40
9.299999713897705
 41
23.96900074386599
 76
     3
 10
597.7032128394708
 20
97.20691388764914
 30
0.0000000000000000
 10
576.3917306925287
 20
68.69660833957460
 30
0.0000000000000000
 10
570.6127308598985
 20
68.69660833957460
 30
0.0000000000000000
340
1E2
213
0.0000000000000000
223
-1.500000000000000
233
0.0000000000000000
1001
ACAD
1000
DSTYLE
1002
{
1070
   147
1040
0.0
1070
    77
1070
     1
1070
   173
1070
     1
1070
     6
1000
_OPEN
1070
     7
1000
_OPEN
1002
}
  0
MTEXT
  5
1E2
102
{ACAD_REACTORS
330
1E1
102
}
100
AcDbEntity
  8
MAIN0
  6
CONTINUOUS
 62
3
100
AcDbMText
 10
546.6437301160325
 20
79.49660805347230
 30
0.0000000000000000
 40
9.299999713897705
 41
0.0000000000000000
 71
     1
 72
     1
  1
{\H0.90x;{M16}}
 11
1.000000000000000
 21
0.0000000000000000
 31
0.0000000000000000
  7
STANDARD
  0
DIMENSION
  5
1EB
100
AcDbEntity
  8
MAIN0
  6
CONTINUOUS
 62
3
100
AcDbDimension
  2
*D10
 10
550.8280094487182
 20
117.8952410008065
 30
0.0000000000000000
 11
550.3280094487182
 21
103.6452410008065
 31
0.0000000000000000
 70
32
  3
MAIN001
100
AcDbAlignedDimension
 13
587.4516803800648
 23
89.39524100080654
 33
0.0000000000000000
 14
587.4516803800298
 24
117.8952410008065
 34
0.0000000000000000
 50
90.00000000000000
100
AcDbRotatedDimension
1001
ACAD
1000
DSTYLE
1002
{
1070
   173
1070
     1
1070
     6
1000
_OPEN
1070
     7
1000
_OPEN
1070
    41
1040
6.000000
1002
}
  0
DIMENSION
  5
1F4
100
AcDbEntity
  8
MAIN0
  6
CONTINUOUS
 62
3
100
AcDbDimension
  2
*D11
 10
587.4516803800648
 20
57.04706411916507
 30
0.0000000000000000
 11
602.4516803801257
 21
57.54706411916507
 31
0.0000000000000000
 70
32
  3
MAIN001
100
AcDbAlignedDimension
 13
617.4516803801869
 23
89.39524100079984
 33
0.0000000000000000
 14
587.4516803800651
 24
89.39524100080652
 34
0.0000000000000000
100
AcDbRotatedDimension
1001
ACAD
1000
DSTYLE
1002
{
1070
   173
1070
     1
1070
     6
1000
_OPEN
1070
     7
1000
_OPEN
1070
    41
1040
6.000000
1002
}
  0
DIMENSION
  5
1FF
100
AcDbEntity
  8
MAIN0
  6
CONTINUOUS
 62
3
100
AcDbDimension
  2
*D12
 10
640.2636194098183
 20
112.3952410008001
 30
0.0000000000000000
 11
638.7636194098183
 21
129.1990008793605
 31
0.0000000000000000
 70
160
  3
MAIN001
100
AcDbAlignedDimension
 13
616.4516803801869
 23
94.89524100080008
 33
0.0000000000000000
 14
616.4516803801869
 24
112.3952410008001
 34
0.0000000000000000
 50
90.00000000000000
100
AcDbRotatedDimension
1001
ACAD
1000
DSTYLE
1002
{
1070
   173
1070
     1
1070
     6
1000
_OPEN
1070
     7
1000
_OPEN
1070
    41
1040
6.000000
1070
   287
1070
     0
1002
}
  0
LINE
  5
200
100
AcDbEntity
  8
MAIN0
  6
CENTER
 62
3
100
AcDbLine
 10
1157.965368040468
 20
727.5379852088714
 30
0.0000000000000000
 11
1095.969980977126
 21
727.5379852088485
 31
0.0000000000000000
  0
LINE
  5
201
100
AcDbEntity
  8
MAIN0
  6
CONTINUOUS
 62
3
100
AcDbLine
 10
1147.809790318079
 20
747.5379852088679
 30
0.0000000000000000
 11
1111.809790318077
 21
747.5379852088546
 31
0.0000000000000000
  0
LINE
  5
202
100
AcDbEntity
  8
MAIN0
  6
CONTINUOUS
 62
3
100
AcDbLine
 10
1147.809790318098
 20
707.5379852088676
 30
0.0000000000000000
 11
1111.809790318100
 21
707.5379852088543
 31
0.0000000000000000
  0
LINE
  5
203
100
AcDbEntity
  8
MAIN0
  6
CENTER
 62
3
100
AcDbLine
 10
1132.809790318102
 20
702.9157078662645
 30
0.0000000000000000
 11
1132.809790318075
 21
753.4793269004770
 31
0.0000000000000000
  0
LINE
  5
204
100
AcDbEntity
  8
MAIN0
  6
CONTINUOUS
 62
3
100
AcDbLine
 10
1105.809790318110
 20
687.0870866267574
 30
0.0000000000000000
 11
1105.809790318067
 21
768.8682544326091
 31
0.0000000000000000
  0
LINE
  5
205
100
AcDbEntity
  8
MAIN0
  6
CONTINUOUS
 62
3
100
AcDbLine
 10
1151.809790318110
 20
687.0870866267813
 30
0.0000000000000000
 11
1151.809790318094
 21
717.0379852088689
 31
0.0000000000000000
  0
LINE
  5
206
100
AcDbEntity
  8
MAIN0
  6
CONTINUOUS
 62
3
100
AcDbLine
 10
1151.809790318083
 20
738.0379852088689
 30
0.0000000000000000
 11
1151.809790318067
 21
768.8682544326326
 31
0.0000000000000000
  0
ARC
  5
207
100
AcDbEntity
  8
MAIN0
  6
CONTINUOUS
 62
3
100
AcDbCircle
 10
1111.809790318075
 20
753.5379852088545
 30
0.0000000000000000
 40
6.000000000000000
100
AcDbArc
 50
180.0000000000000
 51
270.0000000000000
  0
ARC
  5
208
100
AcDbEntity
  8
MAIN0
  6
CONTINUOUS
 62
3
100
AcDbCircle
 10
1111.809790318102
 20
701.5379852088545
 30
0.0000000000000000
 40
6.000000000000000
100
AcDbArc
 50
90.00000000000000
 51
180.0000000000000
  0
ARC
  5
209
100
AcDbEntity
  8
MAIN0
  6
CONTINUOUS
 62
3
100
AcDbCircle
 10
1147.809790318097
 20
711.5379852088677
 30
0.0000000000000000
 40
4.000000000000000
100
AcDbArc
 50
270.0000000000000
 51
360.0000000000000
  0
ARC
  5
20A
100
AcDbEntity
  8
MAIN0
  6
CONTINUOUS
 62
3
100
AcDbCircle
 10
1147.809790318080
 20
743.5379852088677
 30
0.0000000000000000
 40
4.000000000000000
100
AcDbArc
 50
0.0000000000000000
 51
90.00000000000000
  0
LINE
  5
20B
100
AcDbEntity
  8
MAIN0
  6
CONTINUOUS
 62
3
100
AcDbLine
 10
1150.809790318084
 20
737.0379852088687
 30
0.0000000000000000
 11
1132.809790318085
 21
737.0379852088621
 31
0.0000000000000000
  0
LINE
  5
20C
100
AcDbEntity
  8
MAIN0
  6
CONTINUOUS
 62
3
100
AcDbLine
 10
1150.809790318094
 20
718.0379852088686
 30
0.0000000000000000
 11
1132.809790318092
 21
718.0379852088620
 31
0.0000000000000000
  0
ARC
  5
20D
100
AcDbEntity
  8
MAIN0
  6
CONTINUOUS
 62
3
100
AcDbCircle
 10
1132.809790318089
 20
727.5379852088585
 30
0.0000000000000000
 40
9.500000000003574
100
AcDbArc
 50
90.00000000000000
 51
270.0000000000000
  0
LINE
  5
20E
100
AcDbEntity
  8
MAIN0
  6
CONTINUOUS
 62
3
100
AcDbLine
 10
1150.809790318084
 20
737.0379852088687
 30
0.0000000000000000
 11
1151.809790318083
 21
738.0379852088692
 31
0.0000000000000000
  0
LINE
  5
20F
100
AcDbEntity
  8
MAIN0
  6
CONTINUOUS
 62
3
100
AcDbLine
 10
1150.809790318094
 20
718.0379852088686
 30
0.0000000000000000
 11
1151.809790318094
 21
717.0379852088689
 31
0.0000000000000000
  0
ARC
  5
210
100
AcDbEntity
  8
MAIN0
  6
CONTINUOUS
 62
3
100
AcDbCircle
 10
1134.309790318089
 20
727.5379852088626
 30
0.0000000000000000
 40
22.50000000000000
100
AcDbArc
 50
117.2660444507519
 51
242.7339555492883
  0
DIMENSION
  5
219
100
AcDbEntity
  8
MAIN0
  6
CONTINUOUS
 62
3
100
AcDbDimension
  2
*D13
 10
1151.809790318110
 20
665.1099892670334
 30
0.0000000000000000
 11
1137.559790318099
 21
665.6099892670334
 31
0.0000000000000000
 70
32
  3
MAIN001
100
AcDbAlignedDimension
 13
1123.309790318089
 23
727.5379852088589
 33
0.0000000000000000
 14
1151.809790318110
 24
687.0870866267813
 34
0.0000000000000000
100
AcDbRotatedDimension
1001
ACAD
1000
DSTYLE
1002
{
1070
   173
1070
     1
1070
     6
1000
_OPEN
1070
     7
1000
_OPEN
1070
    41
1040
6.000000
1002
}
  0
DIMENSION
  5
224
100
AcDbEntity
  8
MAIN0
  6
CONTINUOUS
 62
3
100
AcDbDimension
  2
*D14
 10
1182.527643440187
 20
737.0379852088687
 30
0.0000000000000000
 11
1182.027643440187
 21
727.5379852088687
 31
0.0000000000000000
 70
32
  3
MAIN001
100
AcDbAlignedDimension
 13
1150.809790318094
 23
718.0379852088687
 33
0.0000000000000000
 14
1150.809790318084
 24
737.0379852088687
 34
0.0000000000000000
 50
90.00000000000000
100
AcDbRotatedDimension
1001
ACAD
1000
DSTYLE
1002
{
1070
   173
1070
     1
1070
     6
1000
_OPEN
1070
     7
1000
_OPEN
1070
    41
1040
6.000000
1070
   287
1070
     0
1002
}
  0
DIMENSION
  5
22D
100
AcDbEntity
  8
MAIN0
  6
CONTINUOUS
 62
3
100
AcDbDimension
  2
*D15
 10
1151.809790318083
 20
776.5622145246999
 30
0.0000000000000000
 11
1131.809790318086
 21
777.0622145246999
 31
0.0000000000000000
 70
32
  3
MAIN001
100
AcDbAlignedDimension
 13
1111.809790318089
 23
727.5379852088543
 33
0.0000000000000000
 14
1151.809790318067
 24
768.8682544326329
 34
0.0000000000000000
100
AcDbRotatedDimension
1001
ACAD
1000
DSTYLE
1002
{
1070
   173
1070
     1
1070
     6
1000
_OPEN
1070
     7
1000
_OPEN
1070
    41
1040
6.000000
1002
}
  0
LEADER
  5
22E
100
AcDbEntity
  8
MAIN0
  6
CONTINUOUS
 62
3
100
AcDbLeader
  3
MAIN001
 73
     0
 75
     1
 40
9.299999713897705
 41
106.7990000715255
 76
     3
 10
596.5259307866038
 20
252.6450204793968
 30
0.0000000000000000
 10
553.8529325126566
 20
297.9808166377771
 30
0.0000000000000000
 10
548.4939326706387
 20
297.9808166377771
 30
0.0000000000000000
340
22F
213
0.0000000000000000
223
-1.500000000000000
233
0.0000000000000000
1001
ACAD
1000
DSTYLE
1002
{
1070
   147
1040
0.0
1070
    77
1070
     1
1070
   173
1070
     1
1070
     6
1000
_OPEN
1070
     7
1000
_OPEN
1002
}
  0
MTEXT
  5
22F
102
{ACAD_REACTORS
330
22E
102
}
100
AcDbEntity
  8
MAIN0
  6
CONTINUOUS
 62
3
100
AcDbMText
 10
441.6949325991132
 20
308.7808163516748
 30
0.0000000000000000
 40
9.299999713897705
 41
0.0000000000000000
 71
     1
 72
     1
  1
{\H0.71x;{六角ボルト M16×65\PHEXAGON HEAD BOLT\P(2 SETS)}}
 11
1.000000000000000
 21
0.0000000000000000
 31
0.0000000000000000
  7
KNJYOKO
  0
LEADER
  5
230
100
AcDbEntity
  8
MAIN0
  6
CONTINUOUS
 62
3
100
AcDbLeader
  3
MAIN001
 73
     0
 75
     1
 40
9.299999713897705
 41
150.8176419700550
 76
     3
 10
549.1269554889541
 20
388.1450204794130
 30
0.0000000000000000
 10
565.0783963314698
 20
353.5281911485403
 30
0.0000000000000000
 10
559.7193964894519
 20
353.5281911485403
 30
0.0000000000000000
340
231
213
0.0000000000000000
223
-1.500000000000000
233
0.0000000000000000
1001
ACAD
1000
DSTYLE
1002
{
1070
   147
1040
0.0
1070
    77
1070
     1
1070
   173
1070
     1
1070
     6
1000
_OPEN
1070
     7
1000
_OPEN
1002
}
  0
MTEXT
  5
231
102
{ACAD_REACTORS
330
230
102
}
100
AcDbEntity
  8
MAIN0
  6
CONTINUOUS
 62
3
100
AcDbMText
 10
408.9017545193970
 20
364.3281908624380
 30
0.0000000000000000
 40
9.299999713897705
 41
0.0000000000000000
 71
     1
 72
     1
  1
{\H0.71x;{センタ前後進用ハンドル\PHANDLE FOR CENTER TRAVEL}}
 11
1.000000000000000
 21
0.0000000000000000
 31
0.0000000000000000
  7
KNJYOKO
  0
LEADER
  5
232
100
AcDbEntity
  8
MAIN0
  6
CONTINUOUS
 62
3
100
AcDbLeader
  3
MAIN001
 73
     0
 75
     1
 40
9.299999713897705
 41
50.09900003129246
 76
     3
 10
809.1805570632436
 20
665.7487389918744
 30
0.0000000000000000
 10
683.6368389022138
 20
589.3394631650335
 30
0.0000000000000000
 10
678.2778390601959
 20
589.3394631650335
 30
0.0000000000000000
340
233
213
0.0000000000000000
223
-1.500000000000000
233
0.0000000000000000
1001
ACAD
1000
DSTYLE
1002
{
1070
   147
1040
0.0
1070
    77
1070
     1
1070
   173
1070
     1
1070
     6
1000
_OPEN
1070
     7
1000
_OPEN
1002
}
  0
MTEXT
  5
233
102
{ACAD_REACTORS
330
232
102
}
100
AcDbEntity
  8
MAIN0
  6
CONTINUOUS
 62
3
100
AcDbMText
 10
628.1788390289034
 20
600.1394628789312
 30
0.0000000000000000
 40
9.299999713897705
 41
0.0000000000000000
 71
     1
 72
     1
  1
{\H0.70x;{2-M10\Pアイボルト\PEYE BOLT}}
 11
1.000000000000000
 21
0.0000000000000000
 31
0.0000000000000000
  7
KNJYOKO
  0
LEADER
  5
234
100
AcDbEntity
  8
MAIN0
  6
CONTINUOUS
 62
3
100
AcDbLeader
  3
MAIN001
 73
     0
 74
     0
 75
     1
 40
9.299999713897705
 41
106.8010000715257
 76
     3
 10
643.0340582074716
 20
723.3044991078973
 30
0.0000000000000000
 10
788.7797795342901
 20
846.6658420477238
 30
0.0000000000000000
 10
794.1367793763080
 20
846.6658420477238
 30
0.0000000000000000
340
235
213
-0.001000000000090040
223
-1.500000000000000
233
0.0000000000000000
1001
ACAD
1000
DSTYLE
1002
{
1070
   147
1040
0.0
1070
    77
1070
     1
1070
   173
1070
     1
1070
     6
1000
_OPEN
1070
     7
1000
_OPEN
1002
}
  0
MTEXT
  5
235
102
{ACAD_REACTORS
330
234
102
}
100
AcDbEntity
  8
MAIN0
  6
CONTINUOUS
 62
3
100
AcDbMText
 10
794.1377793763081
 20
857.4658417616215
 30
0.0000000000000000
 40
9.299999713897705
 41
0.0000000000000000
 71
     1
 72
     1
  1
{\H0.71x;{ 潤滑油供給口\P LUBRICATION PORT}}
 11
1.000000000000000
 21
0.0000000000000000
 31
0.0000000000000000
  7
KNJYOKO
  0
LEADER
  5
236
100
AcDbEntity
  8
MAIN0
  6
CONTINUOUS
 62
3
100
AcDbLeader
  3
MAIN001
 73
     3
 74
     0
 75
     0
 76
     2
 10
865.8590393433198
 20
724.0627522699439
 30
0.0000000000000000
 10
788.7797795342901
 20
846.6658420477238
 30
0.0000000000000000
1001
ACAD
1000
DSTYLE
1002
{
1070
   173
1070
     1
1070
     6
1000
_OPEN
1070
     7
1000
_OPEN
1002
}
  0
DIMENSION
  5
240
100
AcDbEntity
  8
MAIN0
  6
CONTINUOUS
 62
3
100
AcDbDimension
  2
*D16
 10
237.7664024928686
 20
203.1450204793707
 30
0.0000000000000000
 11
236.2664024928686
 21
189.3022656916265
 31
0.0000000000000000
 70
160
  3
MAIN001
100
AcDbAlignedDimension
 13
197.6400666599019
 23
198.1450204793526
 33
0.0000000000000000
 14
197.6400666599019
 24
203.1450204793707
 34
0.0000000000000000
 50
90.00000000000000
100
AcDbRotatedDimension
1001
ACAD
1000
DSTYLE
1002
{
1070
   173
1070
     1
1070
     6
1000
_OPEN
1070
     7
1000
_OPEN
1070
    41
1040
6.000000
1070
   287
1070
     0
1002
}
  0
LINE
  5
241
100
AcDbEntity
  8
MAIN0
  6
CENTER
 62
3
100
AcDbLine
 10
851.4516803800750
 20
415.6450204793707
 30
0.0000000000000000
 11
875.8598899843699
 21
440.0532300837191
 31
0.0000000000000000
  0
ELLIPSE
  5
242
100
AcDbEntity
  8
MAIN0
  6
CONTINUOUS
 62
3
100
AcDbEllipse
 10
277.6400666597220
 20
391.5567823547923
 30
0.0000000000000000
 11
-6.443533974167088
 21
-2.735117899424903
 31
0.0000000000000000
210
0.0000000000000000
220
0.0000000000000000
230
1.000000000000000
 40
0.3928975396428572
 41
3.008987504254718
 42
6.150580157844463
  0
LINE
  5
243
100
AcDbEntity
  8
MAIN0
  6
CONTINUOUS
 62
3
100
AcDbLine
 10
812.3383417726230
 20
360.0928996193444
 30
0.0000000000000000
 11
841.4412323229941
 21
280.1333649913549
 31
0.0000000000000000
  0
LINE
  5
244
100
AcDbEntity
  8
MAIN0
  6
CONTINUOUS
 62
3
100
AcDbLine
 10
841.4412323229941
 20
280.1333649913549
 30
0.0000000000000000
 11
854.9127601395438
 21
243.1206465098361
 31
0.0000000000000000
  0
LINE
  5
245
100
AcDbEntity
  8
MAIN0
  6
CONTINUOUS
 62
3
100
AcDbLine
 10
854.9127601395438
 20
243.1206465098361
 30
0.0000000000000000
 11
856.0147698845492
 21
240.0928996194155
 31
0.0000000000000000
  0
LINE
  5
246
100
AcDbEntity
  8
MAIN0
  6
CONTINUOUS
 62
3
100
AcDbLine
 10
817.9764974975381
 20
368.1450204793707
 30
0.0000000000000000
 11
844.4516803801431
 21
368.1450204793707
 31
0.0000000000000000
  0
LINE
  5
247
100
AcDbEntity
  8
MAIN0
  6
CONTINUOUS
 62
3
100
AcDbLine
 10
844.4516803801431
 20
368.1450204793707
 30
0.0000000000000000
 11
858.4516803801430
 21
368.1450204793707
 31
0.0000000000000000
  0
LINE
  5
248
100
AcDbEntity
  8
MAIN0
  6
CONTINUOUS
 62
3
100
AcDbLine
 10
858.4516803801430
 20
368.1450204793707
 30
0.0000000000000000
 11
878.4516803800750
 21
368.1450204793707
 31
0.0000000000000000
  0
LINE
  5
249
100
AcDbEntity
  8
MAIN0
  6
CENTER
 62
3
100
AcDbLine
 10
756.6033165497042
 20
556.4567178368124
 30
0.0000000000000000
 11
730.1712624791477
 21
608.5262814073191
 31
0.0000000000000000
  0
DIMENSION
  5
252
100
AcDbEntity
  8
MAIN0
  6
CONTINUOUS
 62
3
100
AcDbDimension
  2
*D17
 10
845.9516803800750
 20
174.7967867182741
 30
0.0000000000000000
 11
858.4516803800750
 21
175.2967867182741
 31
0.0000000000000000
 70
32
  3
MAIN001
100
AcDbAlignedDimension
 13
870.9516803800750
 23
198.1450204794046
 33
0.0000000000000000
 14
845.9516803800750
 24
198.1450204794460
 34
0.0000000000000000
100
AcDbRotatedDimension
1001
ACAD
1000
DSTYLE
1002
{
1070
   173
1070
     1
1070
     6
1000
_OPEN
1070
     7
1000
_OPEN
1070
    41
1040
6.000000
1002
}
  0
DIMENSION
  5
25D
100
AcDbEntity
  8
MAIN0
  6
CONTINUOUS
 62
3
100
AcDbDimension
  2
*D18
 10
870.9516803800750
 20
174.7967867182741
 30
0.0000000000000000
 11
887.2016803800750
 21
175.2967867182741
 31
0.0000000000000000
 70
32
  3
MAIN001
100
AcDbAlignedDimension
 13
903.4516803800750
 23
203.1450204793707
 33
0.0000000000000000
 14
870.9516803800750
 24
198.1450204794046
 34
0.0000000000000000
100
AcDbRotatedDimension
1001
ACAD
1000
DSTYLE
1002
{
1070
   173
1070
     1
1070
     6
1000
_OPEN
1070
     7
1000
_OPEN
1070
    41
1040
6.000000
1070
   287
1070
     0
1002
}
  0
DIMENSION
  5
267
100
AcDbEntity
  8
MAIN0
  6
CONTINUOUS
 62
3
100
AcDbDimension
  2
*D19
 10
583.4516803800750
 20
215.5638819453934
 30
0.0000000000000000
 11
599.7016803800750
 21
216.0638819453934
 31
0.0000000000000000
 70
32
  3
MAIN001
100
AcDbAlignedDimension
 13
615.9516803800750
 23
203.1450204793707
 33
0.0000000000000000
 14
583.4516803800750
 24
203.1450204793707
 34
0.0000000000000000
100
AcDbRotatedDimension
1001
ACAD
1000
DSTYLE
1002
{
1070
   173
1070
     1
1070
     6
1000
_OPEN
1070
     7
1000
_OPEN
1070
    41
1040
6.000000
1070
   287
1070
     0
1002
}
  0
DIMENSION
  5
270
100
AcDbEntity
  8
MAIN0
  6
CONTINUOUS
 62
3
100
AcDbDimension
  2
*D20
 10
615.9516803800750
 20
215.5638819453934
 30
0.0000000000000000
 11
628.4516803800750
 21
216.0638819453934
 31
0.0000000000000000
 70
32
  3
MAIN001
100
AcDbAlignedDimension
 13
640.9516803800750
 23
203.1450204793707
 33
0.0000000000000000
 14
615.9516803800750
 24
203.1450204793707
 34
0.0000000000000000
100
AcDbRotatedDimension
1001
ACAD
1000
DSTYLE
1002
{
1070
   173
1070
     1
1070
     6
1000
_OPEN
1070
     7
1000
_OPEN
1070
    41
1040
6.000000
1002
}
  0
LINE
  5
271
100
AcDbEntity
  8
MAIN0
  6
CENTER
 62
3
100
AcDbLine
 10
602.4516803800750
 20
161.3958481748733
 30
0.0000000000000000
 11
602.4516803800750
 21
213.1092720585117
 31
0.0000000000000000
  0
LINE
  5
272
100
AcDbEntity
  8
MAIN0
  6
CENTER
 62
3
100
AcDbLine
 10
602.4516803800750
 20
227.0187540942228
 30
0.0000000000000000
 11
602.4516803800750
 21
263.0665136462988
 31
0.0000000000000000
  0
LINE
  5
273
100
AcDbEntity
  8
MAIN0
  6
CONTINUOUS
 62
3
100
AcDbLine
 10
635.1871384448405
 20
236.1450204793707
 30
0.0000000000000000
 11
850.6446334668226
 21
236.1450204793707
 31
0.0000000000000000
  0
LINE
  5
274
100
AcDbEntity
  8
MAIN0
  6
CONTINUOUS
 62
3
100
AcDbLine
 10
634.1729215731893
 20
368.1450204793707
 30
0.0000000000000000
 11
794.0521854435995
 21
368.1450204793707
 31
0.0000000000000000
  0
DIMENSION
  5
27D
100
AcDbEntity
  8
MAIN0
  6
CONTINUOUS
 62
3
100
AcDbDimension
  2
*D21
 10
551.8669405567682
 20
238.1450204793707
 30
0.0000000000000000
 11
551.3669405567682
 21
220.6450204793707
 31
0.0000000000000000
 70
32
  3
MAIN001
100
AcDbAlignedDimension
 13
583.4516803800750
 23
203.1450204793707
 33
0.0000000000000000
 14
583.4516803800750
 24
238.1450204793707
 34
0.0000000000000000
 50
90.00000000000000
100
AcDbRotatedDimension
1001
ACAD
1000
DSTYLE
1002
{
1070
   173
1070
     1
1070
     6
1000
_OPEN
1070
     7
1000
_OPEN
1070
    41
1040
6.000000
1002
}
  0
DIMENSION
  5
288
100
AcDbEntity
  8
MAIN0
  6
CONTINUOUS
 62
3
100
AcDbDimension
  2
*D22
 10
551.8669405567682
 20
183.1450204793970
 30
0.0000000000000000
 11
551.3669405567682
 21
177.6450204793970
 31
0.0000000000000000
 70
32
  3
MAIN001
100
AcDbAlignedDimension
 13
587.4516803800470
 23
172.1450204793969
 33
0.0000000000000000
 14
587.4516803800470
 24
183.1450204793970
 34
0.0000000000000000
 50
90.00000000000000
100
AcDbRotatedDimension
1001
ACAD
1000
DSTYLE
1002
{
1070
   173
1070
     1
1070
     6
1000
_OPEN
1070
     7
1000
_OPEN
1070
    41
1040
6.000000
1070
   287
1070
     0
1002
}
  0
DIMENSION
  5
291
100
AcDbEntity
  8
MAIN0
  6
CONTINUOUS
 62
3
100
AcDbDimension
  2
*D23
 10
529.8786225653282
 20
252.6450204793969
 30
0.0000000000000000
 11
529.3786225653282
 21
227.8950204793838
 31
0.0000000000000000
 70
32
  3
MAIN001
100
AcDbAlignedDimension
 13
583.4516803800750
 23
203.1450204793707
 33
0.0000000000000000
 14
592.0593755346208
 24
252.6450204793969
 34
0.0000000000000000
 50
90.00000000000000
100
AcDbRotatedDimension
1001
ACAD
1000
DSTYLE
1002
{
1070
   173
1070
     1
1070
     6
1000
_OPEN
1070
     7
1000
_OPEN
1070
    41
1040
6.000000
1002
}
  0
DIMENSION
  5
29C
100
AcDbEntity
  8
MAIN0
  6
CONTINUOUS
 62
3
100
AcDbDimension
  2
*D24
 10
529.8786225653282
 20
203.1450204793707
 30
0.0000000000000000
 11
528.3786225653282
 21
166.8444277341586
 31
0.0000000000000000
 70
160
  1
\A1;（20）
  3
MAIN001
100
AcDbAlignedDimension
 13
587.4516803800470
 23
183.1450204793970
 33
0.0000000000000000
 14
583.4516803800750
 24
203.1450204793707
 34
0.0000000000000000
 50
90.00000000000000
100
AcDbRotatedDimension
1001
ACAD
1000
DSTYLE
1002
{
1070
   173
1070
     1
1070
     6
1000
_OPEN
1070
     7
1000
_OPEN
1070
    41
1040
6.000000
1070
   287
1070
     0
1070
   340
1005
FE
1002
}
  0
LINE
  5
29D
100
AcDbEntity
  8
MAIN0
  6
CONTINUOUS
 62
3
100
AcDbLine
 10
824.4516803800750
 20
368.1450204793707
 30
0.0000000000000000
 11
824.4516803800750
 21
378.7455255426763
 31
0.0000000000000000
  0
LINE
  5
29E
100
AcDbEntity
  8
MAIN0
  6
CONTINUOUS
 62
3
100
AcDbLine
 10
824.4516803800750
 20
398.5445154159252
 30
0.0000000000000000
 11
824.4516803800750
 21
503.6450204793705
 31
0.0000000000000000
  0
LINE
  5
29F
100
AcDbEntity
  8
MAIN0
  6
CENTER
 62
3
100
AcDbLine
 10
831.8912825257173
 20
627.4188085397062
 30
0.0000000000000000
 11
717.3525146588444
 21
569.2754589357583
 31
0.0000000000000000
  0
LINE
  5
2A0
100
AcDbEntity
  8
MAIN0
  6
CONTINUOUS
 62
3
100
AcDbLine
 10
826.2506218601351
 20
632.4057081659877
 30
0.0000000000000000
 11
753.9635488024977
 21
595.7105992617130
 31
0.0000000000000000
  0
LINE
  5
2A1
100
AcDbEntity
  8
MAIN0
  6
CONTINUOUS
 62
3
100
AcDbLine
 10
835.3972210397527
 20
621.3482592577121
 30
0.0000000000000000
 11
760.3006264266669
 21
583.2269520708775
 31
0.0000000000000000
  0
ELLIPSE
  5
2A2
100
AcDbEntity
  8
MAIN0
  6
CONTINUOUS
 62
3
100
AcDbEllipse
 10
757.1320876145824
 20
589.4687756662952
 30
0.0000000000000000
 11
-3.168538812084575
 21
6.241823595417742
 31
0.0000000000000000
210
0.0000000000000000
220
0.0000000000000000
230
1.000000000000000
 40
0.9099971915428576
 41
0.0000000000000000
 42
3.141592541088493
  0
LINE
  5
2A3
100
AcDbEntity
  8
MAIN0
  6
CENTER
 62
3
100
AcDbLine
 10
851.4516803801104
 20
383.4078289519781
 30
0.0000000000000000
 11
851.4516803800372
 21
450.1634415350477
 31
0.0000000000000000
  0
DIMENSION
  5
2AC
100
AcDbEntity
  8
MAIN0
  6
CONTINUOUS
 62
3
100
AcDbDimension
  2
*D25
 10
390.3642110331505
 20
788.3482592578209
 30
0.0000000000000000
 11
389.8642110331505
 21
718.3482592578210
 31
0.0000000000000000
 70
32
  1
\A1;\U+2205140
  3
MAIN001
100
AcDbAlignedDimension
 13
544.9516803800747
 23
648.3482592578212
 33
0.0000000000000000
 14
544.9516803800746
 24
788.3482592578209
 34
0.0000000000000000
 50
90.00000000000000
100
AcDbRotatedDimension
1001
ACAD
1000
DSTYLE
1002
{
1070
   173
1070
     1
1070
     6
1000
_OPEN
1070
     7
1000
_OPEN
1070
    41
1040
6.000000
1002
}
  0
DIMENSION
  5
2B5
100
AcDbEntity
  8
MAIN0
  6
CONTINUOUS
 62
3
100
AcDbDimension
  2
*D26
 10
485.4516803800767
 20
538.5864771450752
 30
0.0000000000000000
 11
685.9516803800759
 21
539.0864771450752
 31
0.0000000000000000
 70
32
  3
MAIN001
100
AcDbAlignedDimension
 13
886.4516803800750
 23
508.1450204793705
 33
0.0000000000000000
 14
485.4516803800767
 24
516.1450204793707
 34
0.0000000000000000
100
AcDbRotatedDimension
1001
ACAD
1000
DSTYLE
1002
{
1070
   173
1070
     1
1070
     6
1000
_OPEN
1070
     7
1000
_OPEN
1070
    41
1040
6.000000
1002
}
  0
DIMENSION
  5
2C0
100
AcDbEntity
  8
MAIN0
  6
CONTINUOUS
 62
3
100
AcDbDimension
  2
*D27
 10
886.4516803800750
 20
538.5864771450752
 30
0.0000000000000000
 11
876.4638134907374
 21
540.0864771450752
 31
0.0000000000000000
 70
160
  3
MAIN001
100
AcDbAlignedDimension
 13
889.4516803800750
 23
489.4903199411351
 33
0.0000000000000000
 14
886.4516803800750
 24
508.1450204793705
 34
0.0000000000000000
100
AcDbRotatedDimension
1001
ACAD
1000
DSTYLE
1002
{
1070
   173
1070
     1
1070
     6
1000
_OPEN
1070
     7
1000
_OPEN
1070
    41
1040
6.000000
1070
   287
1070
     0
1002
}
  0
DIMENSION
  5
2C9
100
AcDbEntity
  8
MAIN0
  6
CONTINUOUS
 62
3
100
AcDbDimension
  2
*D28
 10
889.4516803800750
 20
538.5864771450752
 30
0.0000000000000000
 11
915.6574713800757
 21
539.0864771450752
 31
0.0000000000000000
 70
32
  3
MAIN001
100
AcDbAlignedDimension
 13
941.8632623800763
 23
458.6450204791765
 33
0.0000000000000000
 14
889.4516803800750
 24
489.4903199411351
 34
0.0000000000000000
100
AcDbRotatedDimension
1001
ACAD
1000
DSTYLE
1002
{
1070
   173
1070
     1
1070
     6
1000
_OPEN
1070
     7
1000
_OPEN
1070
    41
1040
6.000000
1002
}
  0
DIMENSION
  5
2D2
100
AcDbEntity
  8
MAIN0
  6
CONTINUOUS
 62
3
100
AcDbDimension
  2
*D29
 10
941.8632623800763
 20
538.5864771450752
 30
0.0000000000000000
 11
976.8632623800763
 21
539.0864771450752
 31
0.0000000000000000
 70
32
  1
\A1;0～MAX　70
  3
MAIN001
100
AcDbAlignedDimension
 13
1011.863262380076
 23
458.6450204791765
 33
0.0000000000000000
 14
941.8632623800763
 24
458.6450204791765
 34
0.0000000000000000
100
AcDbRotatedDimension
1001
ACAD
1000
DSTYLE
1002
{
1070
   173
1070
     1
1070
     6
1000
_OPEN
1070
     7
1000
_OPEN
1070
    41
1040
6.000000
1070
   340
1005
FE
1002
}
  0
DIMENSION
  5
2DB
100
AcDbEntity
  8
MAIN0
  6
CONTINUOUS
 62
3
100
AcDbDimension
  2
*D30
 10
390.3642110331505
 20
528.1450204793711
 30
0.0000000000000000
 11
389.8642110331505
 21
365.6450204793709
 31
0.0000000000000000
 70
32
  3
MAIN001
100
AcDbAlignedDimension
 13
583.4516803800750
 23
203.1450204793707
 33
0.0000000000000000
 14
544.9516803800743
 24
528.1450204793711
 34
0.0000000000000000
 50
90.00000000000000
100
AcDbRotatedDimension
1001
ACAD
1000
DSTYLE
1002
{
1070
   173
1070
     1
1070
     6
1000
_OPEN
1070
     7
1000
_OPEN
1070
    41
1040
6.000000
1002
}
  0
LINE
  5
2DC
100
AcDbEntity
  8
MAIN0
  6
CONTINUOUS
 62
3
100
AcDbLine
 10
571.4516803797394
 20
440.6450204793717
 30
0.0000000000000000
 11
571.4516803797669
 21
475.6450204793696
 31
0.0000000000000000
  0
LINE
  5
2DD
100
AcDbEntity
  8
MAIN0
  6
CONTINUOUS
 62
3
100
AcDbLine
 10
570.5856549762520
 20
439.1450204793052
 30
0.0000000000000000
 11
570.5856549762520
 21
477.1450204794364
 31
0.0000000000000000
  0
LINE
  5
2DE
100
AcDbEntity
  8
MAIN0
  6
CENTER
 62
3
100
AcDbLine
 10
724.8734783094185
 20
289.0668184083856
 30
0.0000000000000000
 11
851.4516803800750
 21
415.6450204793708
 31
0.0000000000000000
  0
ARC
  5
2DF
100
AcDbEntity
  8
MAIN0
  6
CONTINUOUS
 62
3
100
AcDbCircle
 10
851.4516803800750
 20
415.6450204793705
 30
0.0000000000000000
 40
27.00000000000000
100
AcDbArc
 50
240.0261137591932
 51
569.9738862409545
  0
CIRCLE
  5
2E0
100
AcDbEntity
  8
MAIN0
  6
CONTINUOUS
 62
3
100
AcDbCircle
 10
851.4516803800749
 20
415.6450204793706
 30
0.0000000000000000
 40
21.17650000000000
  0
LINE
  5
2E1
100
AcDbEntity
  8
MAIN0
  6
CENTER
 62
3
100
AcDbLine
 10
817.0074530464954
 20
415.6450204793330
 30
0.0000000000000000
 11
885.9701014357520
 21
415.6450204794086
 31
0.0000000000000000
  0
LINE
  5
2E2
100
AcDbEntity
  8
MAIN0
  6
CONTINUOUS
 62
3
100
AcDbLine
 10
761.5846782822640
 20
315.8785234447021
 30
0.0000000000000000
 11
838.0134751330312
 21
392.3073202956678
 31
0.0000000000000000
  0
LINE
  5
2E3
100
AcDbEntity
  8
MAIN0
  6
CONTINUOUS
 62
3
100
AcDbLine
 10
751.6851833456395
 20
325.7780183813008
 30
0.0000000000000000
 11
828.1139801964193
 21
402.2068152322790
 31
0.0000000000000000
  0
ELLIPSE
  5
2E4
100
AcDbEntity
  8
MAIN0
  6
CONTINUOUS
 62
3
100
AcDbEllipse
 10
833.0637276647243
 20
397.2570677639743
 30
0.0000000000000000
 11
4.949747468305832
 21
-4.949747468305834
 31
0.0000000000000000
210
0.0000000000000000
220
0.0000000000000000
230
1.000000000000000
 40
0.3928975396428572
 41
0.0000000000000000
 42
3.141592653589793
  0
LINE
  5
2E5
100
AcDbEntity
  8
MAIN0
  6
CENTER
 62
3
100
AcDbLine
 10
724.5279058384796
 20
326.4400132894899
 30
0.0000000000000000
 11
761.9012294537565
 21
289.0666896742130
 31
0.0000000000000000
  0
CIRCLE
  5
2E6
100
AcDbEntity
  8
MAIN0
  6
CONTINUOUS
 62
3
100
AcDbCircle
 10
743.3872895144771
 20
307.5806296134924
 30
0.0000000000000000
 40
20.00000000000000
  0
LINE
  5
2E7
100
AcDbEntity
  8
MAIN0
  6
PHANTOM
 62
3
100
AcDbLine
 10
965.8632623800693
 20
442.3450204793722
 30
0.0000000000000000
 11
959.4516803800807
 21
442.5115204793707
 31
0.0000000000000000
  0
LINE
  5
2E8
100
AcDbEntity
  8
MAIN0
  6
PHANTOM
 62
3
100
AcDbLine
 10
965.8632623801068
 20
473.9450204793724
 30
0.0000000000000000
 11
959.4516803800750
 21
473.7785204793704
 31
0.0000000000000000
  0
LINE
  5
2E9
100
AcDbEntity
  8
MAIN0
  6
PHANTOM
 62
3
100
AcDbLine
 10
965.8632623801069
 20
473.9450204793722
 30
0.0000000000000000
 11
985.3628850238982
 21
473.9450204793757
 31
0.0000000000000000
  0
LINE
  5
2EA
100
AcDbEntity
  8
MAIN0
  6
PHANTOM
 62
3
100
AcDbLine
 10
965.8632623800758
 20
442.3450204793717
 30
0.0000000000000000
 11
965.8632623800768
 21
473.9450204793718
 31
0.0000000000000000
  0
LINE
  5
2EB
100
AcDbEntity
  8
MAIN0
  6
PHANTOM
 62
3
100
AcDbLine
 10
1011.863262380076
 20
457.6450204795847
 30
0.0000000000000000
 11
1011.863262380076
 21
458.6450204791765
 31
0.0000000000000000
  0
LINE
  5
2EC
100
AcDbEntity
  8
MAIN0
  6
PHANTOM
 62
3
100
AcDbLine
 10
985.3628850238982
 20
473.9450204793753
 30
0.0000000000000000
 11
1011.863262380076
 21
458.6450204791762
 31
0.0000000000000000
  0
LINE
  5
2ED
100
AcDbEntity
  8
MAIN0
  6
PHANTOM
 62
3
100
AcDbLine
 10
985.4122484719195
 20
442.3735204793759
 30
0.0000000000000000
 11
1011.863262380077
 21
457.6450204795849
 31
0.0000000000000000
  0
LINE
  5
2EE
100
AcDbEntity
  8
MAIN0
  6
PHANTOM
 62
3
100
AcDbLine
 10
965.8632623801128
 20
442.3450204793719
 30
0.0000000000000000
 11
985.3628850239043
 21
442.3450204793755
 31
0.0000000000000000
  0
LINE
  5
2EF
100
AcDbEntity
  8
MAIN0
  6
PHANTOM
 62
3
100
AcDbLine
 10
985.3628850238990
 20
442.3450204793754
 30
0.0000000000000000
 11
985.3628850238981
 21
473.9450204793756
 31
0.0000000000000000
  0
LINE
  5
2F0
100
AcDbEntity
  8
MAIN0
  6
PHANTOM
 62
3
100
AcDbLine
 10
957.4516803803223
 20
490.6450204793708
 30
0.0000000000000000
 11
959.4516803800750
 21
489.4903199411349
 31
0.0000000000000000
  0
LINE
  5
2F1
100
AcDbEntity
  8
MAIN0
  6
PHANTOM
 62
3
100
AcDbLine
 10
959.4516803800750
 20
489.4903199411350
 30
0.0000000000000000
 11
959.4516803800750
 21
426.7997210176065
 31
0.0000000000000000
  0
LINE
  5
2F2
100
AcDbEntity
  8
MAIN0
  6
PHANTOM
 62
3
100
AcDbLine
 10
957.4516803803221
 20
425.6450204793706
 30
0.0000000000000000
 11
959.4516803800750
 21
426.7997210176065
 31
0.0000000000000000
  0
LINE
  5
2F3
100
AcDbEntity
  8
MAIN0
  6
PHANTOM
 62
3
100
AcDbLine
 10
957.4516803800750
 20
490.6450204793705
 30
0.0000000000000000
 11
957.4516803800750
 21
425.6450204793707
 31
0.0000000000000000
  0
LINE
  5
2F4
100
AcDbEntity
  8
MAIN0
  6
PHANTOM
 62
3
100
AcDbLine
 10
904.9831018397673
 20
425.6450204793707
 30
0.0000000000000000
 11
957.4516803800750
 21
425.6450204793707
 31
0.0000000000000000
  0
LINE
  5
2F5
100
AcDbEntity
  8
MAIN0
  6
PHANTOM
 62
3
100
AcDbLine
 10
904.9831018397673
 20
490.6450204793705
 30
0.0000000000000000
 11
957.4516803800750
 21
490.6450204793705
 31
0.0000000000000000
  0
LINE
  5
2F6
100
AcDbEntity
  8
MAIN0
  6
PHANTOM
 62
3
100
AcDbLine
 10
1000.604932130470
 20
451.1450204793503
 30
0.0000000000000000
 11
1000.604932130470
 21
465.1450204794051
 31
0.0000000000000000
  0
INSERT
  5
2FD
100
AcDbEntity
  8
MAIN0
  6
CONTINUOUS
 62
3
100
AcDbBlockReference
  2
*X0
 10
0.0000000000000000
 20
0.0000000000000000
 30
0.0000000000000000
 50
0.0000000000000000
  0
LINE
  5
2FE
100
AcDbEntity
  8
MAIN0
  6
CONTINUOUS
 62
3
100
AcDbLine
 10
889.4516803800750
 20
489.4903199411351
 30
0.0000000000000000
 11
889.4516803800750
 21
426.7997210176065
 31
0.0000000000000000
  0
LINE
  5
2FF
100
AcDbEntity
  8
MAIN0
  6
HIDDEN
 62
3
100
AcDbLine
 10
782.4516803800750
 20
471.3950204793705
 30
0.0000000000000000
 11
797.6678623793723
 21
471.3950204793705
 31
0.0000000000000000
  0
LINE
  5
300
100
AcDbEntity
  8
MAIN0
  6
HIDDEN
 62
3
100
AcDbLine
 10
782.4516803800750
 20
444.8950204793707
 30
0.0000000000000000
 11
797.6678623793723
 21
444.8950204793707
 31
0.0000000000000000
  0
LINE
  5
301
100
AcDbEntity
  8
MAIN0
  6
HIDDEN
 62
3
100
AcDbLine
 10
797.6678623791474
 20
444.8950204793707
 30
0.0000000000000000
 11
797.6678623791474
 21
471.3950204793705
 31
0.0000000000000000
  0
LINE
  5
302
100
AcDbEntity
  8
MAIN0
  6
HIDDEN
 62
3
100
AcDbLine
 10
775.4516803796562
 20
470.1450204793705
 30
0.0000000000000000
 11
782.4516803800750
 21
470.1450204793705
 31
0.0000000000000000
  0
LINE
  5
303
100
AcDbEntity
  8
MAIN0
  6
HIDDEN
 62
3
100
AcDbLine
 10
774.8743301104676
 20
469.1450204793705
 30
0.0000000000000000
 11
775.4516803796560
 21
470.1450204793708
 31
0.0000000000000000
  0
LINE
  5
304
100
AcDbEntity
  8
MAIN0
  6
HIDDEN
 62
3
100
AcDbLine
 10
775.4516803796562
 20
446.1450204793707
 30
0.0000000000000000
 11
782.4516803800750
 21
446.1450204793707
 31
0.0000000000000000
  0
LINE
  5
305
100
AcDbEntity
  8
MAIN0
  6
HIDDEN
 62
3
100
AcDbLine
 10
774.8743301104676
 20
447.1450204793707
 30
0.0000000000000000
 11
775.4516803796557
 21
446.1450204793707
 31
0.0000000000000000
  0
LINE
  5
306
100
AcDbEntity
  8
MAIN0
  6
CONTINUOUS
 62
3
100
AcDbLine
 10
887.4516803800750
 20
490.6450204793705
 30
0.0000000000000000
 11
887.4516803800750
 21
425.6450204793707
 31
0.0000000000000000
  0
LINE
  5
307
100
AcDbEntity
  8
MAIN0
  6
CONTINUOUS
 62
3
100
AcDbLine
 10
887.4516803803222
 20
490.6450204793711
 30
0.0000000000000000
 11
889.4516803800750
 21
489.4903199411351
 31
0.0000000000000000
  0
LINE
  5
308
100
AcDbEntity
  8
MAIN0
  6
CONTINUOUS
 62
3
100
AcDbLine
 10
887.4516803803222
 20
425.6450204793707
 30
0.0000000000000000
 11
889.4516803800750
 21
426.7997210176066
 31
0.0000000000000000
  0
LINE
  5
309
100
AcDbEntity
  8
MAIN0
  6
HIDDEN
 62
3
100
AcDbLine
 10
619.4516803800750
 20
468.1450204793705
 30
0.0000000000000000
 11
756.4516803800750
 21
468.1450204793705
 31
0.0000000000000000
  0
LINE
  5
30A
100
AcDbEntity
  8
MAIN0
  6
HIDDEN
 62
3
100
AcDbLine
 10
623.4516803800751
 20
467.3330204793622
 30
0.0000000000000000
 11
757.2636803801042
 21
467.3330204793417
 31
0.0000000000000000
  0
LINE
  5
30B
100
AcDbEntity
  8
MAIN0
  6
HIDDEN
 62
3
100
AcDbLine
 10
784.9516803800750
 20
466.1450204793705
 30
0.0000000000000000
 11
784.9516803800750
 21
450.1450204793707
 31
0.0000000000000000
  0
LINE
  5
30C
100
AcDbEntity
  8
MAIN0
  6
HIDDEN
 62
3
100
AcDbLine
 10
758.4516803800750
 20
466.1450204793705
 30
0.0000000000000000
 11
758.4516803800750
 21
450.1450204793707
 31
0.0000000000000000
  0
LINE
  5
30D
100
AcDbEntity
  8
MAIN0
  6
HIDDEN
 62
3
100
AcDbLine
 10
756.4516803800750
 20
468.1450204793705
 30
0.0000000000000000
 11
756.4516803800750
 21
448.1450204793707
 31
0.0000000000000000
  0
LINE
  5
30E
100
AcDbEntity
  8
MAIN0
  6
HIDDEN
 62
3
100
AcDbLine
 10
619.4516803800750
 20
448.1450204793707
 30
0.0000000000000000
 11
756.4516803800750
 21
448.1450204793707
 31
0.0000000000000000
  0
LINE
  5
30F
100
AcDbEntity
  8
MAIN0
  6
HIDDEN
 62
3
100
AcDbLine
 10
623.4516803800750
 20
448.9570204793798
 30
0.0000000000000000
 11
757.2636803801042
 21
448.9570204793997
 31
0.0000000000000000
  0
LINE
  5
310
100
AcDbEntity
  8
MAIN0
  6
HIDDEN
 62
3
100
AcDbLine
 10
758.4516803800749
 20
466.1450204793705
 30
0.0000000000000000
 11
756.4516803800749
 21
468.1450204793705
 31
0.0000000000000000
  0
LINE
  5
311
100
AcDbEntity
  8
MAIN0
  6
HIDDEN
 62
3
100
AcDbLine
 10
758.4516803800750
 20
450.1450204793704
 30
0.0000000000000000
 11
756.4516803800750
 21
448.1450204793704
 31
0.0000000000000000
  0
LINE
  5
312
100
AcDbEntity
  8
MAIN0
  6
HIDDEN
 62
3
100
AcDbLine
 10
782.4516803800750
 20
447.2731989437868
 30
0.0000000000000000
 11
782.4516803800750
 21
444.8950204793707
 31
0.0000000000000000
  0
LINE
  5
313
100
AcDbEntity
  8
MAIN0
  6
HIDDEN
 62
3
100
AcDbLine
 10
782.4516803800750
 20
471.3950204793705
 30
0.0000000000000000
 11
782.4516803800750
 21
469.1843726628235
 31
0.0000000000000000
  0
LINE
  5
314
100
AcDbEntity
  8
MAIN0
  6
HIDDEN
 62
3
100
AcDbLine
 10
758.4516803800750
 20
466.1450204793705
 30
0.0000000000000000
 11
784.9516803800751
 21
466.1450204793705
 31
0.0000000000000000
  0
LINE
  5
315
100
AcDbEntity
  8
MAIN0
  6
HIDDEN
 62
3
100
AcDbLine
 10
758.4516803800750
 20
450.1450204793707
 30
0.0000000000000000
 11
784.9516803800751
 21
450.1450204793707
 31
0.0000000000000000
  0
LINE
  5
316
100
AcDbEntity
  8
MAIN0
  6
HIDDEN
 62
3
100
AcDbLine
 10
756.4516803800750
 20
469.1450204793705
 30
0.0000000000000000
 11
774.8743301104676
 21
469.1450204793705
 31
0.0000000000000000
  0
LINE
  5
317
100
AcDbEntity
  8
MAIN0
  6
HIDDEN
 62
3
100
AcDbLine
 10
756.4516803800750
 20
447.1450204793707
 30
0.0000000000000000
 11
774.8743301104676
 21
447.1450204793707
 31
0.0000000000000000
  0
LINE
  5
318
100
AcDbEntity
  8
MAIN0
  6
HIDDEN
 62
3
100
AcDbLine
 10
623.4516803800750
 20
448.1450204793707
 30
0.0000000000000000
 11
623.4516803800750
 21
425.6450204793707
 31
0.0000000000000000
  0
LINE
  5
319
100
AcDbEntity
  8
MAIN0
  6
HIDDEN
 62
3
100
AcDbLine
 10
623.4516803800750
 20
490.6450204793709
 30
0.0000000000000000
 11
623.4516803800750
 21
468.1450204793705
 31
0.0000000000000000
  0
LINE
  5
31A
100
AcDbEntity
  8
MAIN0
  6
HIDDEN
 62
3
100
AcDbLine
 10
553.4516803800736
 20
465.1450204793705
 30
0.0000000000000000
 11
598.4516803800750
 21
465.1450204793705
 31
0.0000000000000000
  0
LINE
  5
31B
100
AcDbEntity
  8
MAIN0
  6
HIDDEN
 62
3
100
AcDbLine
 10
553.4516803800738
 20
451.1450204793707
 30
0.0000000000000000
 11
598.4516803800750
 21
451.1450204793707
 31
0.0000000000000000
  0
LINE
  5
31C
100
AcDbEntity
  8
MAIN0
  6
CENTER
 62
3
100
AcDbLine
 10
577.4516803800750
 20
463.4268371294729
 30
0.0000000000000000
 11
577.4516803800750
 21
452.8162583541316
 31
0.0000000000000000
  0
CIRCLE
  5
31D
100
AcDbEntity
  8
MAIN0
  6
CONTINUOUS
 62
3
100
AcDbCircle
 10
577.4516803800750
 20
458.1450204793707
 30
0.0000000000000000
 40
2.000000000000000
  0
LINE
  5
31E
100
AcDbEntity
  8
MAIN0
  6
HIDDEN
 62
3
100
AcDbLine
 10
623.4516803800750
 20
468.1450204793705
 30
0.0000000000000000
 11
623.4516803800750
 21
448.1450204793707
 31
0.0000000000000000
  0
LINE
  5
31F
100
AcDbEntity
  8
MAIN0
  6
HIDDEN
 62
3
100
AcDbLine
 10
598.4516803800750
 20
440.6450204793707
 30
0.0000000000000000
 11
619.4516803800750
 21
440.6450204793707
 31
0.0000000000000000
  0
LINE
  5
320
100
AcDbEntity
  8
MAIN0
  6
HIDDEN
 62
3
100
AcDbLine
 10
619.4516803800750
 20
448.1450204793707
 30
0.0000000000000000
 11
619.4516803800750
 21
440.6450204793707
 31
0.0000000000000000
  0
LINE
  5
321
100
AcDbEntity
  8
MAIN0
  6
HIDDEN
 62
3
100
AcDbLine
 10
598.4516803800750
 20
475.6450204793705
 30
0.0000000000000000
 11
619.4516803800750
 21
475.6450204793705
 31
0.0000000000000000
  0
LINE
  5
322
100
AcDbEntity
  8
MAIN0
  6
HIDDEN
 62
3
100
AcDbLine
 10
619.4516803800750
 20
468.1450204793709
 30
0.0000000000000000
 11
619.4516803800750
 21
475.6450204793705
 31
0.0000000000000000
  0
LINE
  5
323
100
AcDbEntity
  8
MAIN0
  6
HIDDEN
 62
3
100
AcDbLine
 10
775.4516803800750
 20
447.1450204793707
 30
0.0000000000000000
 11
775.4516803800750
 21
446.1450204793707
 31
0.0000000000000000
  0
LINE
  5
324
100
AcDbEntity
  8
MAIN0
  6
HIDDEN
 62
3
100
AcDbLine
 10
775.4516803800750
 20
470.1450204793705
 30
0.0000000000000000
 11
775.4516803800750
 21
469.1450204793705
 31
0.0000000000000000
  0
LINE
  5
325
100
AcDbEntity
  8
MAIN0
  6
HIDDEN
 62
3
100
AcDbLine
 10
623.4516803800750
 20
490.6450204793705
 30
0.0000000000000000
 11
886.4516803800750
 21
490.6450204793705
 31
0.0000000000000000
  0
LINE
  5
326
100
AcDbEntity
  8
MAIN0
  6
CONTINUOUS
 62
3
100
AcDbLine
 10
886.4516803800750
 20
490.6450204793705
 30
0.0000000000000000
 11
887.4516803800750
 21
490.6450204793705
 31
0.0000000000000000
  0
LINE
  5
327
100
AcDbEntity
  8
MAIN0
  6
HIDDEN
 62
3
100
AcDbLine
 10
623.4516803800750
 20
425.6450204793707
 30
0.0000000000000000
 11
886.4516803800750
 21
425.6450204793707
 31
0.0000000000000000
  0
LINE
  5
328
100
AcDbEntity
  8
MAIN0
  6
CONTINUOUS
 62
3
100
AcDbLine
 10
886.4516803800750
 20
425.6450204793707
 30
0.0000000000000000
 11
887.4516803800750
 21
425.6450204793707
 31
0.0000000000000000
  0
LINE
  5
329
100
AcDbEntity
  8
MAIN0
  6
CONTINUOUS
 62
3
100
AcDbLine
 10
878.4516803800750
 20
508.1450204793705
 30
0.0000000000000000
 11
886.4516803800750
 21
508.1450204793705
 31
0.0000000000000000
  0
LINE
  5
32A
100
AcDbEntity
  8
MAIN0
  6
CONTINUOUS
 62
3
100
AcDbLine
 10
886.4516803800750
 20
398.1450204793707
 30
0.0000000000000000
 11
886.4516803800750
 21
508.1450204793705
 31
0.0000000000000000
  0
LINE
  5
32B
100
AcDbEntity
  8
MAIN0
  6
CONTINUOUS
 62
3
100
AcDbLine
 10
895.8632623800692
 20
702.5482592576979
 30
0.0000000000000000
 11
889.4516803800806
 21
702.7147592576964
 31
0.0000000000000000
  0
LINE
  5
32C
100
AcDbEntity
  8
MAIN0
  6
CONTINUOUS
 62
3
100
AcDbLine
 10
895.8632623801067
 20
734.1482592576986
 30
0.0000000000000000
 11
889.4516803800750
 21
733.9817592576965
 31
0.0000000000000000
  0
LINE
  5
32D
100
AcDbEntity
  8
MAIN0
  6
CONTINUOUS
 62
3
100
AcDbLine
 10
895.8632623801069
 20
734.1482592576978
 30
0.0000000000000000
 11
915.3628850238982
 21
734.1482592577014
 31
0.0000000000000000
  0
LINE
  5
32E
100
AcDbEntity
  8
MAIN0
  6
CONTINUOUS
 62
3
100
AcDbLine
 10
895.8632623800758
 20
702.5482592576977
 30
0.0000000000000000
 11
895.8632623800768
 21
734.1482592576977
 31
0.0000000000000000
  0
LINE
  5
32F
100
AcDbEntity
  8
MAIN0
  6
CONTINUOUS
 62
3
100
AcDbLine
 10
941.8632623800762
 20
717.8482592579103
 30
0.0000000000000000
 11
941.8632623800763
 21
718.8482592575019
 31
0.0000000000000000
  0
LINE
  5
330
100
AcDbEntity
  8
MAIN0
  6
CONTINUOUS
 62
3
100
AcDbLine
 10
915.3628850238983
 20
734.1482592577014
 30
0.0000000000000000
 11
941.8632623800766
 21
718.8482592575024
 31
0.0000000000000000
  0
LINE
  5
331
100
AcDbEntity
  8
MAIN0
  6
CONTINUOUS
 62
3
100
AcDbLine
 10
915.4122484719194
 20
702.5767592577015
 30
0.0000000000000000
 11
941.8632623800767
 21
717.8482592579106
 31
0.0000000000000000
  0
LINE
  5
332
100
AcDbEntity
  8
MAIN0
  6
CONTINUOUS
 62
3
100
AcDbLine
 10
895.8632623801128
 20
702.5482592576979
 30
0.0000000000000000
 11
915.3628850239043
 21
702.5482592577014
 31
0.0000000000000000
  0
LINE
  5
333
100
AcDbEntity
  8
MAIN0
  6
CONTINUOUS
 62
3
100
AcDbLine
 10
915.3628850238990
 20
702.5482592577015
 30
0.0000000000000000
 11
915.3628850238980
 21
734.1482592577013
 31
0.0000000000000000
  0
LINE
  5
334
100
AcDbEntity
  8
MAIN0
  6
CONTINUOUS
 62
3
100
AcDbLine
 10
887.4516803803222
 20
750.8482592576966
 30
0.0000000000000000
 11
889.4516803800750
 21
749.6935587194606
 31
0.0000000000000000
  0
LINE
  5
335
100
AcDbEntity
  8
MAIN0
  6
CONTINUOUS
 62
3
100
AcDbLine
 10
889.4516803800750
 20
749.6935587194607
 30
0.0000000000000000
 11
889.4516803800750
 21
687.0029597959322
 31
0.0000000000000000
  0
LINE
  5
336
100
AcDbEntity
  8
MAIN0
  6
CONTINUOUS
 62
3
100
AcDbLine
 10
887.4516803803223
 20
685.8482592576963
 30
0.0000000000000000
 11
889.4516803800750
 21
687.0029597959322
 31
0.0000000000000000
  0
LINE
  5
337
100
AcDbEntity
  8
MAIN0
  6
CONTINUOUS
 62
3
100
AcDbLine
 10
887.4516803800750
 20
750.8482592576963
 30
0.0000000000000000
 11
887.4516803800750
 21
685.8482592576963
 31
0.0000000000000000
  0
LINE
  5
338
100
AcDbEntity
  8
MAIN0
  6
CONTINUOUS
 62
3
100
AcDbLine
 10
930.6049321307386
 20
711.3482592578314
 30
0.0000000000000000
 11
930.6049321307312
 21
725.3482592575799
 31
0.0000000000000000
  0
INSERT
  5
33F
100
AcDbEntity
  8
MAIN0
  6
CONTINUOUS
 62
3
100
AcDbBlockReference
  2
*X1
 10
0.0000000000000000
 20
0.0000000000000000
 30
0.0000000000000000
 50
0.0000000000000000
  0
LINE
  5
340
100
AcDbEntity
  8
MAIN0
  6
CONTINUOUS
 62
3
100
AcDbLine
 10
583.4516803800750
 20
479.1450204793705
 30
0.0000000000000000
 11
578.0516803800751
 21
479.1450204793705
 31
0.0000000000000000
  0
LINE
  5
341
100
AcDbEntity
  8
MAIN0
  6
CONTINUOUS
 62
3
100
AcDbLine
 10
578.0516803800751
 20
479.1450204793709
 30
0.0000000000000000
 11
577.4516803800751
 21
480.1842509639120
 31
0.0000000000000000
  0
LINE
  5
342
100
AcDbEntity
  8
MAIN0
  6
CONTINUOUS
 62
3
100
AcDbLine
 10
577.4516803800750
 20
480.1842509639118
 30
0.0000000000000000
 11
577.4516803800750
 21
488.1057899948296
 31
0.0000000000000000
  0
LINE
  5
343
100
AcDbEntity
  8
MAIN0
  6
CONTINUOUS
 62
3
100
AcDbLine
 10
577.4516803800750
 20
488.1057899948297
 30
0.0000000000000000
 11
578.0516803800749
 21
489.1450204793708
 31
0.0000000000000000
  0
LINE
  5
344
100
AcDbEntity
  8
MAIN0
  6
CONTINUOUS
 62
3
100
AcDbLine
 10
578.0516803800751
 20
489.1450204793705
 30
0.0000000000000000
 11
583.4516803800750
 21
489.1450204793705
 31
0.0000000000000000
  0
LINE
  5
345
100
AcDbEntity
  8
MAIN0
  6
CONTINUOUS
 62
3
100
AcDbLine
 10
578.0516803800751
 20
479.1450204793705
 30
0.0000000000000000
 11
578.0516803800751
 21
489.1450204793705
 31
0.0000000000000000
  0
LINE
  5
346
100
AcDbEntity
  8
MAIN0
  6
HIDDEN
 62
3
100
AcDbLine
 10
583.4516803800750
 20
481.1450204793705
 30
0.0000000000000000
 11
623.4516803800750
 21
481.1450204793705
 31
0.0000000000000000
  0
LINE
  5
347
100
AcDbEntity
  8
MAIN0
  6
HIDDEN
 62
3
100
AcDbLine
 10
623.4516803800750
 20
487.1450204793705
 30
0.0000000000000000
 11
583.4516803800750
 21
487.1450204793705
 31
0.0000000000000000
  0
LINE
  5
348
100
AcDbEntity
  8
MAIN0
  6
HIDDEN
 62
3
100
AcDbLine
 10
583.4516803800750
 20
481.6862864793707
 30
0.0000000000000000
 11
623.4516803800750
 21
481.6862864793707
 31
0.0000000000000000
  0
LINE
  5
349
100
AcDbEntity
  8
MAIN0
  6
HIDDEN
 62
3
100
AcDbLine
 10
583.4516803800750
 20
486.6037544793708
 30
0.0000000000000000
 11
623.4516803800750
 21
486.6037544793708
 31
0.0000000000000000
  0
CIRCLE
  5
34A
100
AcDbEntity
  8
MAIN0
  6
CONTINUOUS
 62
3
100
AcDbCircle
 10
228.4772352339854
 20
481.1450204793708
 30
0.0000000000000000
 40
6.500000000000000
  0
LINE
  5
34B
100
AcDbEntity
  8
MAIN0
  6
CONTINUOUS
 62
3
100
AcDbLine
 10
228.4772352339853
 20
484.6091220945087
 30
0.0000000000000000
 11
225.4772352339853
 21
482.8770712869398
 31
0.0000000000000000
  0
LINE
  5
34C
100
AcDbEntity
  8
MAIN0
  6
CONTINUOUS
 62
3
100
AcDbLine
 10
225.4772352339854
 20
482.8770712869394
 30
0.0000000000000000
 11
225.4772352339854
 21
479.4129696718018
 31
0.0000000000000000
  0
LINE
  5
34D
100
AcDbEntity
  8
MAIN0
  6
CONTINUOUS
 62
3
100
AcDbLine
 10
225.4772352339853
 20
479.4129696718019
 30
0.0000000000000000
 11
228.4772352339852
 21
477.6809188642331
 31
0.0000000000000000
  0
LINE
  5
34E
100
AcDbEntity
  8
MAIN0
  6
CONTINUOUS
 62
3
100
AcDbLine
 10
228.4772352339853
 20
477.6809188642332
 30
0.0000000000000000
 11
231.4772352339853
 21
479.4129696718020
 31
0.0000000000000000
  0
LINE
  5
34F
100
AcDbEntity
  8
MAIN0
  6
CONTINUOUS
 62
3
100
AcDbLine
 10
231.4772352339854
 20
479.4129696718018
 30
0.0000000000000000
 11
231.4772352339854
 21
482.8770712869394
 31
0.0000000000000000
  0
LINE
  5
350
100
AcDbEntity
  8
MAIN0
  6
CONTINUOUS
 62
3
100
AcDbLine
 10
231.4772352339854
 20
482.8770712869396
 30
0.0000000000000000
 11
228.4772352339853
 21
484.6091220945085
 31
0.0000000000000000
  0
ARC
  5
351
100
AcDbEntity
  8
MAIN0
  6
CENTER
 62
3
100
AcDbCircle
 10
188.6400666599018
 20
458.1450204793706
 30
0.0000000000000000
 40
45.99999999999966
100
AcDbArc
 50
16.04130904843998
 51
43.97645860220287
  0
LINE
  5
352
100
AcDbEntity
  8
MAIN0
  6
CONTINUOUS
 62
3
100
AcDbLine
 10
583.4516803800750
 20
723.3482592576963
 30
0.0000000000000000
 11
578.0516803800751
 21
723.3482592576963
 31
0.0000000000000000
  0
LINE
  5
353
100
AcDbEntity
  8
MAIN0
  6
CONTINUOUS
 62
3
100
AcDbLine
 10
578.0516803800750
 20
723.3482592576963
 30
0.0000000000000000
 11
577.4516803800750
 21
722.3090287731550
 31
0.0000000000000000
  0
LINE
  5
354
100
AcDbEntity
  8
MAIN0
  6
CONTINUOUS
 62
3
100
AcDbLine
 10
577.4516803800750
 20
722.3090287731550
 30
0.0000000000000000
 11
577.4516803800750
 21
714.3874897422377
 31
0.0000000000000000
  0
LINE
  5
355
100
AcDbEntity
  8
MAIN0
  6
CONTINUOUS
 62
3
100
AcDbLine
 10
577.4516803800750
 20
714.3874897422377
 30
0.0000000000000000
 11
578.0516803800749
 21
713.3482592576966
 31
0.0000000000000000
  0
LINE
  5
356
100
AcDbEntity
  8
MAIN0
  6
CONTINUOUS
 62
3
100
AcDbLine
 10
578.0516803800751
 20
713.3482592576963
 30
0.0000000000000000
 11
583.4516803800750
 21
713.3482592576963
 31
0.0000000000000000
  0
LINE
  5
357
100
AcDbEntity
  8
MAIN0
  6
CONTINUOUS
 62
3
100
AcDbLine
 10
578.0516803800751
 20
723.3482592576963
 30
0.0000000000000000
 11
578.0516803800751
 21
713.3482592576963
 31
0.0000000000000000
  0
LINE
  5
358
100
AcDbEntity
  8
MAIN0
  6
CONTINUOUS
 62
3
100
AcDbLine
 10
586.4516803800341
 20
238.1450204793969
 30
0.0000000000000000
 11
586.4516803800341
 21
242.6450204793969
 31
0.0000000000000000
  0
LINE
  5
359
100
AcDbEntity
  8
MAIN0
  6
CONTINUOUS
 62
3
100
AcDbLine
 10
586.4516803800341
 20
242.6450204793969
 30
0.0000000000000000
 11
618.4516803800341
 21
242.6450204793969
 31
0.0000000000000000
  0
LINE
  5
35A
100
AcDbEntity
  8
MAIN0
  6
CONTINUOUS
 62
3
100
AcDbLine
 10
618.4516803800341
 20
242.6450204793969
 30
0.0000000000000000
 11
618.4516803800341
 21
238.1450204793969
 31
0.0000000000000000
  0
LINE
  5
35B
100
AcDbEntity
  8
MAIN0
  6
CONTINUOUS
 62
3
100
AcDbLine
 10
610.4516803800341
 20
203.1450204793707
 30
0.0000000000000000
 11
610.4516803800341
 21
192.1450204793971
 31
0.0000000000000000
  0
LINE
  5
35C
100
AcDbEntity
  8
MAIN0
  6
CONTINUOUS
 62
3
100
AcDbLine
 10
594.4516803800341
 20
192.1450204793971
 30
0.0000000000000000
 11
594.4516803800341
 21
203.1450204793707
 31
0.0000000000000000
  0
LINE
  5
35D
100
AcDbEntity
  8
MAIN0
  6
CONTINUOUS
 62
3
100
AcDbLine
 10
612.8439852254473
 20
252.6450204793969
 30
0.0000000000000000
 11
592.0593755346208
 21
252.6450204793969
 31
0.0000000000000000
  0
LINE
  5
35E
100
AcDbEntity
  8
MAIN0
  6
CONTINUOUS
 62
3
100
AcDbLine
 10
616.3080868405850
 20
242.6450204793969
 30
0.0000000000000000
 11
616.3080868405850
 21
250.6450204793969
 31
0.0000000000000000
  0
LINE
  5
35F
100
AcDbEntity
  8
MAIN0
  6
CONTINUOUS
 62
3
100
AcDbLine
 10
588.5952739194831
 20
242.6450204793969
 30
0.0000000000000000
 11
588.5952739194831
 21
250.6450204793969
 31
0.0000000000000000
  0
LINE
  5
360
100
AcDbEntity
  8
MAIN0
  6
CONTINUOUS
 62
3
100
AcDbLine
 10
609.3798836103097
 20
250.6450204793969
 30
0.0000000000000000
 11
609.3798836103097
 21
242.6450204793969
 31
0.0000000000000000
  0
LINE
  5
361
100
AcDbEntity
  8
MAIN0
  6
CONTINUOUS
 62
3
100
AcDbLine
 10
595.5234771497585
 20
250.6450204793969
 30
0.0000000000000000
 11
595.5234771497585
 21
242.6450204793969
 31
0.0000000000000000
  0
LINE
  5
362
100
AcDbEntity
  8
MAIN0
  6
CONTINUOUS
 62
3
100
AcDbLine
 10
609.3691483800342
 20
203.1450204793707
 30
0.0000000000000000
 11
609.3691483800342
 21
192.1450204793971
 31
0.0000000000000000
  0
LINE
  5
363
100
AcDbEntity
  8
MAIN0
  6
CONTINUOUS
 62
3
100
AcDbLine
 10
595.5342123800342
 20
203.1450204793707
 30
0.0000000000000000
 11
595.5342123800342
 21
192.1450204793971
 31
0.0000000000000000
  0
ARC
  5
364
100
AcDbEntity
  8
MAIN0
  6
CONTINUOUS
 62
3
100
AcDbCircle
 10
602.4516803800341
 20
239.6450204793967
 30
0.0000000000000000
 40
13.00000000000013
100
AcDbArc
 50
57.79577249602824
 51
122.2042275039718
  0
ARC
  5
365
100
AcDbEntity
  8
MAIN0
  6
CONTINUOUS
 62
3
100
AcDbCircle
 10
612.8439852254473
 20
248.6450204793969
 30
0.0000000000000000
 40
3.999999999999977
100
AcDbArc
 50
29.99999999999996
 51
150.0000000000000
  0
ARC
  5
366
100
AcDbEntity
  8
MAIN0
  6
CONTINUOUS
 62
3
100
AcDbCircle
 10
592.0593755346208
 20
248.6450204793969
 30
0.0000000000000000
 40
3.999999999999977
100
AcDbArc
 50
29.99999999999996
 51
150.0000000000000
  0
LINE
  5
367
100
AcDbEntity
  8
MAIN0
  6
CENTER
 62
3
100
AcDbLine
 10
862.4516803800734
 20
756.3482592581904
 30
0.0000000000000000
 11
874.4516803800767
 21
756.3482592581904
 31
0.0000000000000000
  0
LINE
  5
368
100
AcDbEntity
  8
MAIN0
  6
CENTER
 62
3
100
AcDbLine
 10
868.4516803795809
 20
750.3482592576947
 30
0.0000000000000000
 11
868.4516803795809
 21
762.3482592576980
 31
0.0000000000000000
  0
LINE
  5
369
100
AcDbEntity
  8
MAIN0
  6
CENTER
 62
3
100
AcDbLine
 10
862.4516803800734
 20
680.3482592581902
 30
0.0000000000000000
 11
874.4516803800767
 21
680.3482592581902
 31
0.0000000000000000
  0
LINE
  5
36A
100
AcDbEntity
  8
MAIN0
  6
CENTER
 62
3
100
AcDbLine
 10
868.4516803795809
 20
674.3482592576945
 30
0.0000000000000000
 11
868.4516803795809
 21
686.3482592576978
 31
0.0000000000000000
  0
LINE
  5
36B
100
AcDbEntity
  8
MAIN0
  6
CENTER
 62
3
100
AcDbLine
 10
732.4516803800734
 20
668.3482592581902
 30
0.0000000000000000
 11
744.4516803800767
 21
668.3482592581902
 31
0.0000000000000000
  0
LINE
  5
36C
100
AcDbEntity
  8
MAIN0
  6
CENTER
 62
3
100
AcDbLine
 10
738.4516803795809
 20
662.3482592576945
 30
0.0000000000000000
 11
738.4516803795809
 21
674.3482592576978
 31
0.0000000000000000
  0
LINE
  5
36D
100
AcDbEntity
  8
MAIN0
  6
CENTER
 62
3
100
AcDbLine
 10
602.4516803800734
 20
668.3482592581902
 30
0.0000000000000000
 11
614.4516803800768
 21
668.3482592581902
 31
0.0000000000000000
  0
LINE
  5
36E
100
AcDbEntity
  8
MAIN0
  6
CENTER
 62
3
100
AcDbLine
 10
608.4516803795809
 20
662.3482592576945
 30
0.0000000000000000
 11
608.4516803795809
 21
674.3482592576978
 31
0.0000000000000000
  0
LINE
  5
36F
100
AcDbEntity
  8
MAIN0
  6
CENTER
 62
3
100
AcDbLine
 10
602.4516803800734
 20
768.3482592581904
 30
0.0000000000000000
 11
614.4516803800768
 21
768.3482592581904
 31
0.0000000000000000
  0
LINE
  5
370
100
AcDbEntity
  8
MAIN0
  6
CENTER
 62
3
100
AcDbLine
 10
608.4516803795809
 20
762.3482592576947
 30
0.0000000000000000
 11
608.4516803795809
 21
774.3482592576980
 31
0.0000000000000000
  0
LINE
  5
371
100
AcDbEntity
  8
MAIN0
  6
CENTER
 62
3
100
AcDbLine
 10
732.4516803800734
 20
768.3482592581904
 30
0.0000000000000000
 11
744.4516803800767
 21
768.3482592581904
 31
0.0000000000000000
  0
LINE
  5
372
100
AcDbEntity
  8
MAIN0
  6
CENTER
 62
3
100
AcDbLine
 10
738.4516803795809
 20
762.3482592576947
 30
0.0000000000000000
 11
738.4516803795809
 21
774.3482592576980
 31
0.0000000000000000
  0
CIRCLE
  5
373
100
AcDbEntity
  8
MAIN0
  6
CONTINUOUS
 62
3
100
AcDbCircle
 10
813.4516803800750
 20
668.3482592576962
 30
0.0000000000000000
 40
5.000000000000000
  0
CIRCLE
  5
374
100
AcDbEntity
  8
MAIN0
  6
CONTINUOUS
 62
3
100
AcDbCircle
 10
813.4516803800750
 20
668.3482592576962
 30
0.0000000000000000
 40
4.250000000000000
  0
LINE
  5
375
100
AcDbEntity
  8
MAIN0
  6
CENTER
 62
3
100
AcDbLine
 10
813.4516803800750
 20
658.3482592576991
 30
0.0000000000000000
 11
813.4516803800750
 21
678.3482592576933
 31
0.0000000000000000
  0
LINE
  5
376
100
AcDbEntity
  8
MAIN0
  6
CENTER
 62
3
100
AcDbLine
 10
823.4516803800722
 20
668.3482592576962
 30
0.0000000000000000
 11
803.4516803800780
 21
668.3482592576962
 31
0.0000000000000000
  0
CIRCLE
  5
377
100
AcDbEntity
  8
MAIN0
  6
CONTINUOUS
 62
3
100
AcDbCircle
 10
663.4516803790868
 20
768.3482592576963
 30
0.0000000000000000
 40
5.000000000000000
  0
CIRCLE
  5
378
100
AcDbEntity
  8
MAIN0
  6
CONTINUOUS
 62
3
100
AcDbCircle
 10
663.4516803790868
 20
768.3482592576963
 30
0.0000000000000000
 40
4.250000000000000
  0
LINE
  5
379
100
AcDbEntity
  8
MAIN0
  6
CENTER
 62
3
100
AcDbLine
 10
663.4516803790868
 20
758.3482592576992
 30
0.0000000000000000
 11
663.4516803790868
 21
778.3482592576934
 31
0.0000000000000000
  0
LINE
  5
37A
100
AcDbEntity
  8
MAIN0
  6
CENTER
 62
3
100
AcDbLine
 10
673.4516803790840
 20
768.3482592576963
 30
0.0000000000000000
 11
653.4516803790898
 21
768.3482592576963
 31
0.0000000000000000
  0
CIRCLE
  5
37B
100
AcDbEntity
  8
MAIN0
  6
CONTINUOUS
 62
3
100
AcDbCircle
 10
148.8028980858179
 20
481.1450204793700
 30
0.0000000000000000
 40
6.500000000000000
  0
LINE
  5
37C
100
AcDbEntity
  8
MAIN0
  6
CONTINUOUS
 62
3
100
AcDbLine
 10
145.8028980858178
 20
479.4129696718011
 30
0.0000000000000000
 11
148.8028980858178
 21
477.6809188642322
 31
0.0000000000000000
  0
LINE
  5
37D
100
AcDbEntity
  8
MAIN0
  6
CONTINUOUS
 62
3
100
AcDbLine
 10
148.8028980858182
 20
477.6809188642321
 30
0.0000000000000000
 11
151.8028980858181
 21
479.4129696718010
 31
0.0000000000000000
  0
LINE
  5
37E
100
AcDbEntity
  8
MAIN0
  6
CONTINUOUS
 62
3
100
AcDbLine
 10
151.8028980858181
 20
479.4129696718009
 30
0.0000000000000000
 11
151.8028980858181
 21
482.8770712869385
 31
0.0000000000000000
  0
LINE
  5
37F
100
AcDbEntity
  8
MAIN0
  6
CONTINUOUS
 62
3
100
AcDbLine
 10
151.8028980858177
 20
482.8770712869389
 30
0.0000000000000000
 11
148.8028980858178
 21
484.6091220945077
 31
0.0000000000000000
  0
LINE
  5
380
100
AcDbEntity
  8
MAIN0
  6
CONTINUOUS
 62
3
100
AcDbLine
 10
148.8028980858181
 20
484.6091220945076
 30
0.0000000000000000
 11
145.8028980858182
 21
482.8770712869388
 31
0.0000000000000000
  0
LINE
  5
381
100
AcDbEntity
  8
MAIN0
  6
CONTINUOUS
 62
3
100
AcDbLine
 10
145.8028980858181
 20
482.8770712869387
 30
0.0000000000000000
 11
145.8028980858181
 21
479.4129696718008
 31
0.0000000000000000
  0
ARC
  5
382
100
AcDbEntity
  8
MAIN0
  6
CENTER
 62
3
100
AcDbCircle
 10
188.6400666599019
 20
458.1450204793706
 30
0.0000000000000000
 40
45.99999999999966
100
AcDbArc
 50
136.0413090484400
 51
163.9764586022029
  0
LINE
  5
383
100
AcDbEntity
  8
MAIN0
  6
CENTER
 62
3
100
AcDbLine
 10
271.7314374936498
 20
407.7906075684290
 30
0.0000000000000000
 11
333.3242749584950
 21
238.5656774344359
 31
0.0000000000000000
  0
LINE
  5
384
100
AcDbEntity
  8
MAIN0
  6
CONTINUOUS
 62
3
100
AcDbLine
 10
284.2179150052198
 20
393.9509233580819
 30
0.0000000000000000
 11
325.2603322044165
 21
281.1878088639928
 31
0.0000000000000000
  0
LINE
  5
385
100
AcDbEntity
  8
MAIN0
  6
CONTINUOUS
 62
3
100
AcDbLine
 10
271.0622183142241
 20
389.1626413515027
 30
0.0000000000000000
 11
312.1046355134201
 21
276.3995268574140
 31
0.0000000000000000
  0
LINE
  5
386
100
AcDbEntity
  8
MAIN0
  6
CONTINUOUS
 62
3
100
AcDbLine
 10
328.5827599456247
 20
282.3970736672984
 30
0.0000000000000000
 11
308.7822077722134
 21
275.1902620541090
 31
0.0000000000000000
  0
LINE
  5
387
100
AcDbEntity
  8
MAIN0
  6
CONTINUOUS
 62
3
100
AcDbLine
 10
285.6400666598249
 20
436.8214967298817
 30
0.0000000000000000
 11
269.6400666598037
 21
442.6450204780998
 31
0.0000000000000000
  0
LINE
  5
388
100
AcDbEntity
  8
MAIN0
  6
CONTINUOUS
 62
3
100
AcDbLine
 10
285.6400666599127
 20
394.4685442290049
 30
0.0000000000000000
 11
285.6400666598247
 21
436.8214967298815
 31
0.0000000000000000
  0
LINE
  5
389
100
AcDbEntity
  8
MAIN0
  6
CONTINUOUS
 62
3
100
AcDbLine
 10
251.6400666599158
 20
388.6450204793723
 30
0.0000000000000000
 11
269.6400666563164
 21
388.6450204794097
 31
0.0000000000000000
  0
LINE
  5
38A
100
AcDbEntity
  8
MAIN0
  6
CONTINUOUS
 62
3
100
AcDbLine
 10
256.9024281777947
 20
442.6450204793835
 30
0.0000000000000000
 11
269.6400666562040
 21
442.6450204794099
 31
0.0000000000000000
  0
LINE
  5
38B
100
AcDbEntity
  8
MAIN0
  6
CONTINUOUS
 62
3
100
AcDbLine
 10
250.6400666599097
 20
400.6450204793709
 30
0.0000000000000000
 11
251.6400666599097
 21
400.6450204793730
 31
0.0000000000000000
  0
LINE
  5
38C
100
AcDbEntity
  8
MAIN0
  6
CENTER
 62
3
100
AcDbLine
 10
353.1023539608333
 20
273.2304539130668
 30
0.0000000000000000
 11
297.4320459785041
 21
252.9681188749747
 31
0.0000000000000000
  0
ARC
  5
38D
100
AcDbEntity
  8
MAIN0
  6
CONTINUOUS
 62
3
100
AcDbCircle
 10
324.4968262954790
 20
262.8188933073521
 30
0.0000000000000000
 40
20.00000000000000
100
AcDbArc
 50
141.7883306171352
 51
438.2116693830320
  0
LINE
  5
38E
100
AcDbEntity
  8
MAIN0
  6
CONTINUOUS
 62
3
100
AcDbLine
 10
251.6400666599158
 20
388.6450204793724
 30
0.0000000000000000
 11
251.6400666598956
 21
427.6327278745880
 31
0.0000000000000000
  0
LINE
  5
38F
100
AcDbEntity
  8
MAIN0
  6
CONTINUOUS
 62
3
100
AcDbLine
 10
269.6400666599164
 20
388.6450204807197
 30
0.0000000000000000
 11
271.0622183142240
 21
389.1626413515025
 31
0.0000000000000000
  0
LINE
  5
390
100
AcDbEntity
  8
MAIN0
  6
CONTINUOUS
 62
3
100
AcDbLine
 10
284.2179150052197
 20
393.9509233580819
 30
0.0000000000000000
 11
285.6400666599129
 21
394.4685442290052
 31
0.0000000000000000
  0
CIRCLE
  5
391
100
AcDbEntity
  8
MAIN0
  6
HIDDEN
 62
3
100
AcDbCircle
 10
851.4516803803838
 20
415.6450204794387
 30
0.0000000000000000
 40
8.250000000000000
  0
LINE
  5
392
100
AcDbEntity
  8
MAIN1
  6
CONTINUOUS
 62
7
100
AcDbLine
 10
553.4516803800736
 20
519.6450204793708
 30
0.0000000000000000
 11
553.4516803800736
 21
396.6450204793707
 31
0.0000000000000000
  0
LINE
  5
393
100
AcDbEntity
  8
MAIN1
  6
CONTINUOUS
 62
7
100
AcDbLine
 10
571.4516803800748
 20
475.6450204793698
 30
0.0000000000000000
 11
570.5856549762906
 21
477.1450204793699
 31
0.0000000000000000
  0
LINE
  5
394
100
AcDbEntity
  8
MAIN1
  6
CONTINUOUS
 62
7
100
AcDbLine
 10
571.4516803800748
 20
440.6450204793717
 30
0.0000000000000000
 11
570.5856549762905
 21
439.1450204793716
 31
0.0000000000000000
  0
LINE
  5
395
100
AcDbEntity
  8
MAIN1
  6
CONTINUOUS
 62
7
100
AcDbLine
 10
570.5856549762905
 20
477.1450204793698
 30
0.0000000000000000
 11
567.9459195363686
 21
477.1450204793698
 31
0.0000000000000000
  0
LINE
  5
396
100
AcDbEntity
  8
MAIN1
  6
CONTINUOUS
 62
7
100
AcDbLine
 10
536.4516803800752
 20
396.6450204793707
 30
0.0000000000000000
 11
536.4516803800752
 21
519.6450204793708
 31
0.0000000000000000
  0
ARC
  5
397
100
AcDbEntity
  8
MAIN1
  6
CONTINUOUS
 62
7
100
AcDbCircle
 10
544.9516803800743
 20
519.6450204793708
 30
0.0000000000000000
 40
8.499999999999901
100
AcDbArc
 50
0.0000000000000000
 51
180.0000000000000
  0
ARC
  5
398
100
AcDbEntity
  8
MAIN1
  6
CONTINUOUS
 62
7
100
AcDbCircle
 10
544.9516803800743
 20
396.6450204793707
 30
0.0000000000000000
 40
8.499999999999901
100
AcDbArc
 50
180.0000000000000
 51
360.0000000000000
  0
LINE
  5
399
100
AcDbEntity
  8
MAIN1
  6
CONTINUOUS
 62
7
100
AcDbLine
 10
583.4516803800750
 20
441.6450204793717
 30
0.0000000000000000
 11
583.4516803800750
 21
474.6450204793696
 31
0.0000000000000000
  0
LINE
  5
39A
100
AcDbEntity
  8
MAIN2
  6
CENTER
 62
1
100
AcDbLine
 10
544.9516803800743
 20
384.6886649945017
 30
0.0000000000000000
 11
544.9516803800743
 21
529.8467493478654
 31
0.0000000000000000
  0
ARC
  5
39B
100
AcDbEntity
  8
MAIN3
  6
CONTINUOUS
 62
2
100
AcDbCircle
 10
560.9516803800802
 20
458.1450204793707
 30
0.0000000000000000
 40
20.00000000000000
100
AcDbArc
 50
71.80512766122467
 51
112.0243128370632
  0
LINE
  5
39C
100
AcDbEntity
  8
MAIN1
  6
CONTINUOUS
 62
7
100
AcDbLine
 10
553.4516803800736
 20
504.7868115241510
 30
0.0000000000000000
 11
564.9669156687925
 21
480.7251258462400
 31
0.0000000000000000
  0
ARC
  5
39D
100
AcDbEntity
  8
MAIN1
  6
CONTINUOUS
 62
7
100
AcDbCircle
 10
573.5361546585812
 20
484.8261187913547
 30
0.0000000000000000
 40
9.500000000000000
100
AcDbArc
 50
205.5744447721023
 51
233.9532049802872
  0
ARC
  5
39E
100
AcDbEntity
  8
MAIN3
  6
CONTINUOUS
 62
2
100
AcDbCircle
 10
560.9516803800802
 20
458.1450204793707
 30
0.0000000000000000
 40
20.00000000000000
100
AcDbArc
 50
247.9756871629368
 51
276.2460642093892
  0
LINE
  5
39F
100
AcDbEntity
  8
MAIN1
  6
CONTINUOUS
 62
7
100
AcDbLine
 10
570.5856549762906
 20
439.1450204793717
 30
0.0000000000000000
 11
567.1966783784828
 21
439.1450204793716
 31
0.0000000000000000
  0
LINE
  5
3A0
100
AcDbEntity
  8
MAIN1
  6
CONTINUOUS
 62
7
100
AcDbLine
 10
553.4516803800746
 20
429.0364580720807
 30
0.0000000000000000
 11
554.1642694307828
 21
429.7028813641900
 31
0.0000000000000000
  0
LINE
  5
3A1
100
AcDbEntity
  8
MAIN1
  6
CONTINUOUS
 62
7
100
AcDbLine
 10
554.1642694307830
 20
429.7028813641899
 30
0.0000000000000000
 11
555.4374558820095
 21
430.8971630668858
 31
0.0000000000000000
  0
LINE
  5
3A2
100
AcDbEntity
  8
MAIN1
  6
CONTINUOUS
 62
7
100
AcDbLine
 10
555.4374558820093
 20
430.8971630668859
 30
0.0000000000000000
 11
556.5130850156045
 21
431.9093458669075
 31
0.0000000000000000
  0
LINE
  5
3A3
100
AcDbEntity
  8
MAIN1
  6
CONTINUOUS
 62
7
100
AcDbLine
 10
556.5130850156047
 20
431.9093458669076
 30
0.0000000000000000
 11
557.4049902201351
 21
432.7513471323825
 31
0.0000000000000000
  0
LINE
  5
3A4
100
AcDbEntity
  8
MAIN1
  6
CONTINUOUS
 62
7
100
AcDbLine
 10
557.4049902201348
 20
432.7513471323825
 30
0.0000000000000000
 11
558.6685741039153
 21
433.9493339265566
 31
0.0000000000000000
  0
LINE
  5
3A5
100
AcDbEntity
  8
MAIN1
  6
CONTINUOUS
 62
7
100
AcDbLine
 10
558.6685741039153
 20
433.9493339265565
 30
0.0000000000000000
 11
560.2481016258656
 21
435.4577341978927
 31
0.0000000000000000
  0
LINE
  5
3A6
100
AcDbEntity
  8
MAIN1
  6
CONTINUOUS
 62
7
100
AcDbLine
 10
560.2481016258657
 20
435.4577341978928
 30
0.0000000000000000
 11
562.1294671550908
 21
437.2765737229978
 31
0.0000000000000000
  0
LINE
  5
3A7
100
AcDbEntity
  8
MAIN1
  6
CONTINUOUS
 62
7
100
AcDbLine
 10
562.1294671550909
 20
437.2765737229979
 30
0.0000000000000000
 11
563.1276521875875
 21
438.2637441950641
 31
0.0000000000000000
  0
LINE
  5
3A8
100
AcDbEntity
  8
MAIN3
  6
CONTINUOUS
 62
2
100
AcDbLine
 10
567.1966783784815
 20
477.1450204793698
 30
0.0000000000000000
 11
567.9459195363684
 21
477.1450204793698
 31
0.0000000000000000
  0
ARC
  5
3A9
100
AcDbEntity
  8
MAIN1
  6
CONTINUOUS
 62
7
100
AcDbCircle
 10
560.9516803800802
 20
458.1450204793707
 30
0.0000000000000000
 40
20.00000000000000
100
AcDbArc
 50
276.2460642093892
 51
288.1948723387753
  0
ARC
  5
3AA
100
AcDbEntity
  8
MAIN1
  6
CONTINUOUS
 62
7
100
AcDbCircle
 10
488.4516803800765
 20
516.1450204793707
 30
0.0000000000000000
 40
3.000000000000000
100
AcDbArc
 50
126.8698976458441
 51
233.1301023541565
  0
ARC
  5
3AB
100
AcDbEntity
  8
MAIN1
  6
CONTINUOUS
 62
7
100
AcDbCircle
 10
503.4516803800764
 20
496.1450204793707
 30
0.0000000000000000
 40
28.00000000000000
100
AcDbArc
 50
66.56924438292488
 51
126.8698976458440
  0
ARC
  5
3AC
100
AcDbEntity
  8
MAIN1
  6
CONTINUOUS
 62
7
100
AcDbCircle
 10
503.4516803800764
 20
536.1450204793707
 30
0.0000000000000000
 40
28.00000000000000
100
AcDbArc
 50
233.1301023541559
 51
293.4307556170751
  0
LINE
  5
3AD
100
AcDbEntity
  8
MAIN1
  6
CONTINUOUS
 62
7
100
AcDbLine
 10
531.4516803800750
 20
521.1450204793706
 30
0.0000000000000000
 11
531.4516803800751
 21
511.1450204793706
 31
0.0000000000000000
  0
ARC
  5
3AE
100
AcDbEntity
  8
MAIN1
  6
CONTINUOUS
 62
7
100
AcDbCircle
 10
522.4216803800753
 20
493.1450204793707
 30
0.0000000000000000
 40
19.00000000000000
100
AcDbArc
 50
71.32828193599299
 51
114.3572336206431
  0
ARC
  5
3AF
100
AcDbEntity
  8
MAIN1
  6
CONTINUOUS
 62
7
100
AcDbCircle
 10
522.4216803800753
 20
539.1450204793707
 30
0.0000000000000000
 40
19.00000000000000
100
AcDbArc
 50
245.6427663793568
 51
288.6717180640079
  0
LINE
  5
3B0
100
AcDbEntity
  8
MAIN1
  6
CONTINUOUS
 62
7
100
AcDbLine
 10
531.4516803800752
 20
521.1450204793706
 30
0.0000000000000000
 11
536.5850801147337
 21
521.1450204793707
 31
0.0000000000000000
  0
LINE
  5
3B1
100
AcDbEntity
  8
MAIN1
  6
CONTINUOUS
 62
7
100
AcDbLine
 10
531.4516803800752
 20
511.1450204793707
 30
0.0000000000000000
 11
536.4516803800752
 21
511.1450204793707
 31
0.0000000000000000
  0
LINE
  5
3B2
100
AcDbEntity
  8
MAIN1
  6
CONTINUOUS
 62
7
100
AcDbLine
 10
531.4516803800752
 20
511.1450204793709
 30
0.0000000000000000
 11
528.5044429103732
 21
511.1450204793709
 31
0.0000000000000000
  0
LINE
  5
3B3
100
AcDbEntity
  8
MAIN1
  6
CONTINUOUS
 62
7
100
AcDbLine
 10
531.4516803800752
 20
521.1450204793705
 30
0.0000000000000000
 11
528.5044429103732
 21
521.1450204793705
 31
0.0000000000000000
  0
LINE
  5
3B4
100
AcDbEntity
  8
MAIN1
  6
CONTINUOUS
 62
7
100
AcDbLine
 10
528.5044429103732
 20
521.1450204793707
 30
0.0000000000000000
 11
528.5044429103732
 21
511.1450204793708
 31
0.0000000000000000
  0
LINE
  5
3B5
100
AcDbEntity
  8
MAIN2
  6
CENTER
 62
1
100
AcDbLine
 10
551.9516803800766
 20
516.1450204793707
 30
0.0000000000000000
 11
480.9516803800767
 21
516.1450204793707
 31
0.0000000000000000
  0
CIRCLE
  5
3B6
100
AcDbEntity
  8
MAIN0
  6
CONTINUOUS
 62
3
100
AcDbCircle
 10
577.4516803800750
 20
458.1450204793707
 30
0.0000000000000000
 40
2.000000000000000
  0
LINE
  5
3B7
100
AcDbEntity
  8
MAIN0
  6
CENTER
 62
3
100
AcDbLine
 10
577.4516803800750
 20
462.1450204793707
 30
0.0000000000000000
 11
577.4516803800750
 21
454.1450204793707
 31
0.0000000000000000
  0
LINE
  5
3B8
100
AcDbEntity
  8
MAIN0
  6
CONTINUOUS
 62
3
100
AcDbLine
 10
583.0516803800749
 20
465.1450204793708
 30
0.0000000000000000
 11
583.4516803800749
 21
465.5450204793707
 31
0.0000000000000000
  0
LINE
  5
3B9
100
AcDbEntity
  8
MAIN0
  6
CONTINUOUS
 62
3
100
AcDbLine
 10
583.0516803800748
 20
451.1450204793708
 30
0.0000000000000000
 11
583.4516803800749
 21
450.7450204793707
 31
0.0000000000000000
  0
LINE
  5
3BA
100
AcDbEntity
  8
MAIN1
  6
CONTINUOUS
 62
7
100
AcDbLine
 10
536.4516803800752
 20
513.1450204793707
 30
0.0000000000000000
 11
533.4516803800764
 21
513.1450204793707
 31
0.0000000000000000
  0
LINE
  5
3BB
100
AcDbEntity
  8
MAIN1
  6
CONTINUOUS
 62
7
100
AcDbLine
 10
533.4516803800764
 20
519.1450204793707
 30
0.0000000000000000
 11
533.4516803800764
 21
513.1450204793707
 31
0.0000000000000000
  0
LINE
  5
3BC
100
AcDbEntity
  8
MAIN3
  6
CONTINUOUS
 62
3
100
AcDbLine
 10
533.4516803800766
 20
519.1450204793707
 30
0.0000000000000000
 11
536.4516803800755
 21
515.5450204793719
 31
0.0000000000000000
  0
LINE
  5
3BD
100
AcDbEntity
  8
MAIN1
  6
CONTINUOUS
 62
7
100
AcDbLine
 10
536.4516803800752
 20
519.1450204793707
 30
0.0000000000000000
 11
533.4516803800764
 21
519.1450204793707
 31
0.0000000000000000
  0
LINE
  5
3BE
100
AcDbEntity
  8
MAIN3
  6
CONTINUOUS
 62
3
100
AcDbLine
 10
533.4516803800764
 20
513.1450204793706
 30
0.0000000000000000
 11
536.4516803800752
 21
516.7450204793693
 31
0.0000000000000000
  0
LINE
  5
3BF
100
AcDbEntity
  8
MAIN1
  6
CONTINUOUS
 62
7
100
AcDbLine
 10
571.4516803800748
 20
475.6450204793696
 30
0.0000000000000000
 11
582.4516803800750
 21
475.6450204793696
 31
0.0000000000000000
  0
LINE
  5
3C0
100
AcDbEntity
  8
MAIN1
  6
PHANTOM
 62
7
100
AcDbLine
 10
581.8799717723950
 20
475.6450204793696
 30
0.0000000000000000
 11
582.4516803800750
 21
475.6450204793696
 31
0.0000000000000000
  0
LINE
  5
3C1
100
AcDbEntity
  8
MAIN1
  6
CONTINUOUS
 62
7
100
AcDbLine
 10
571.4516803800748
 20
440.6450204793717
 30
0.0000000000000000
 11
582.4516803800750
 21
440.6450204793717
 31
0.0000000000000000
  0
ARC
  5
3C2
100
AcDbEntity
  8
MAIN1
  6
CONTINUOUS
 62
7
100
AcDbCircle
 10
582.4516803800750
 20
441.6450204793717
 30
0.0000000000000000
 40
1.000000000000000
100
AcDbArc
 50
270.0000000000000
 51
360.0000000000000
  0
ARC
  5
3C3
100
AcDbEntity
  8
MAIN1
  6
CONTINUOUS
 62
7
100
AcDbCircle
 10
582.4516803800750
 20
474.6450204793696
 30
0.0000000000000000
 40
1.000000000000000
100
AcDbArc
 50
0.0000000000000000
 51
90.00000000000000
  0
CIRCLE
  5
3C4
100
AcDbEntity
  8
MAIN1
  6
CONTINUOUS
 62
7
100
AcDbCircle
 10
188.6400666599019
 20
458.1450204793708
 30
0.0000000000000000
 40
18.10386699022856
  0
ARC
  5
3C5
100
AcDbEntity
  8
MAIN1
  6
CONTINUOUS
 62
7
100
AcDbCircle
 10
221.2784110853521
 20
422.9493037916020
 30
0.0000000000000000
 40
5.000000000000000
100
AcDbArc
 50
312.8409478433765
 51
423.9909130984315
  0
ARC
  5
3C6
100
AcDbEntity
  8
MAIN1
  6
CONTINUOUS
 62
7
100
AcDbCircle
 10
197.2488766319226
 20
434.6740087656496
 30
0.0000000000000000
 40
5.000000000000000
100
AcDbArc
 50
63.99091309843147
 51
110.1422688076731
  0
ARC
  5
3C7
100
AcDbEntity
  8
MAIN1
  6
CONTINUOUS
 62
7
100
AcDbCircle
 10
180.0312566878814
 20
434.6740087656497
 30
0.0000000000000000
 40
5.000000000000000
100
AcDbArc
 50
69.85773119232698
 51
116.0090869015685
  0
ARC
  5
3C8
100
AcDbEntity
  8
MAIN1
  6
CONTINUOUS
 62
7
100
AcDbCircle
 10
156.0017222344515
 20
422.9493037916020
 30
0.0000000000000000
 40
5.000000000000000
100
AcDbArc
 50
116.0090869015685
 51
227.1590521566233
  0
ARC
  5
3C9
100
AcDbEntity
  8
MAIN1
  6
CONTINUOUS
 62
7
100
AcDbCircle
 10
141.8405096911689
 20
447.4772434133492
 30
0.0000000000000000
 40
5.000000000000000
100
AcDbArc
 50
192.8409478433762
 51
303.9909130984262
  0
ARC
  5
3CA
100
AcDbEntity
  8
MAIN1
  6
CONTINUOUS
 62
7
100
AcDbCircle
 10
164.0091692772870
 20
462.4250782041087
 30
0.0000000000000000
 40
5.000000000000000
100
AcDbArc
 50
303.9909130984262
 51
350.1422688076747
  0
ARC
  5
3CB
100
AcDbEntity
  8
MAIN1
  6
CONTINUOUS
 62
7
100
AcDbCircle
 10
172.6179792493073
 20
477.3359744683538
 30
0.0000000000000000
 40
5.000000000000000
100
AcDbArc
 50
309.8577311923236
 51
356.0090869015709
  0
ARC
  5
3CC
100
AcDbEntity
  8
MAIN1
  6
CONTINUOUS
 62
7
100
AcDbCircle
 10
235.4396236286348
 20
447.4772434133492
 30
0.0000000000000000
 40
5.000000000000000
100
AcDbArc
 50
236.0090869015738
 51
347.1590521566255
  0
ARC
  5
3CD
100
AcDbEntity
  8
MAIN1
  6
CONTINUOUS
 62
7
100
AcDbCircle
 10
213.2709640425168
 20
462.4250782041088
 30
0.0000000000000000
 40
5.000000000000000
100
AcDbArc
 50
189.8577311923254
 51
236.0090869015738
  0
ARC
  5
3CE
100
AcDbEntity
  8
MAIN1
  6
CONTINUOUS
 62
7
100
AcDbCircle
 10
204.6621540704961
 20
477.3359744683538
 30
0.0000000000000000
 40
5.000000000000000
100
AcDbArc
 50
183.9909130984286
 51
230.1422688076767
  0
ARC
  5
3CF
100
AcDbEntity
  8
MAIN1
  6
CONTINUOUS
 62
7
100
AcDbCircle
 10
174.4788541166191
 20
504.0085142331614
 30
0.0000000000000000
 40
5.000000000000000
100
AcDbArc
 50
356.0090869015709
 51
467.1590521566262
  0
ARC
  5
3D0
100
AcDbEntity
  8
MAIN1
  6
CONTINUOUS
 62
7
100
AcDbCircle
 10
175.0037379649069
 20
512.9747618586812
 30
0.0000000000000000
 40
5.000000000000000
100
AcDbArc
 50
13.08798417152311
 51
103.9662882617980
  0
ARC
  5
3D1
100
AcDbEntity
  8
MAIN1
  6
CONTINUOUS
 62
7
100
AcDbCircle
 10
202.2763953548969
 20
512.9747618586814
 30
0.0000000000000000
 40
5.000000000000000
100
AcDbArc
 50
76.03371173820197
 51
166.9120158284773
  0
ARC
  5
3D2
100
AcDbEntity
  8
MAIN1
  6
CONTINUOUS
 62
7
100
AcDbCircle
 10
202.8012792031844
 20
504.0085142331614
 30
0.0000000000000000
 40
5.000000000000000
100
AcDbArc
 50
72.84094784337380
 51
183.9909130984286
  0
ARC
  5
3D3
100
AcDbEntity
  8
MAIN1
  6
CONTINUOUS
 62
7
100
AcDbCircle
 10
188.6400666599019
 20
458.1450204793707
 30
0.0000000000000000
 40
53.00000000000008
100
AcDbArc
 50
227.1590521566233
 51
312.8409478433767
  0
ARC
  5
3D4
100
AcDbEntity
  8
MAIN1
  6
CONTINUOUS
 62
7
100
AcDbCircle
 10
188.6400666599019
 20
458.1450204793707
 30
0.0000000000000000
 40
53.00000000000008
100
AcDbArc
 50
107.1590521566262
 51
192.8409478433744
  0
ARC
  5
3D5
100
AcDbEntity
  8
MAIN1
  6
CONTINUOUS
 62
7
100
AcDbCircle
 10
188.6400666599019
 20
458.1450204793707
 30
0.0000000000000000
 40
20.00000000000000
100
AcDbArc
 50
129.8577311923285
 51
170.1422688076746
  0
ARC
  5
3D6
100
AcDbEntity
  8
MAIN1
  6
CONTINUOUS
 62
7
100
AcDbCircle
 10
188.6400666599019
 20
458.1450204793707
 30
0.0000000000000000
 40
20.00000000000000
100
AcDbArc
 50
249.8577311923268
 51
290.1422688076732
  0
LINE
  5
3D7
100
AcDbEntity
  8
MAIN1
  6
CONTINUOUS
 62
7
100
AcDbLine
 10
144.6358167616922
 20
443.3316121729369
 30
0.0000000000000000
 11
166.8044763478104
 21
458.2794469636964
 31
0.0000000000000000
  0
LINE
  5
3D8
100
AcDbEntity
  8
MAIN1
  6
CONTINUOUS
 62
7
100
AcDbLine
 10
177.8386882542236
 20
439.1676313203075
 30
0.0000000000000000
 11
153.8091538007940
 21
427.4429263462598
 31
0.0000000000000000
  0
LINE
  5
3D9
100
AcDbEntity
  8
MAIN1
  6
CONTINUOUS
 62
7
100
AcDbLine
 10
232.6443165581113
 20
443.3316121729370
 30
0.0000000000000000
 11
210.4756569719934
 21
458.2794469636965
 31
0.0000000000000000
  0
LINE
  5
3DA
100
AcDbEntity
  8
MAIN1
  6
CONTINUOUS
 62
7
100
AcDbLine
 10
199.4414450655806
 20
439.1676313203071
 30
0.0000000000000000
 11
223.4709795190103
 21
427.4429263462594
 31
0.0000000000000000
  0
LINE
  5
3DB
100
AcDbEntity
  8
MAIN1
  6
CONTINUOUS
 62
7
100
AcDbLine
 10
197.8134036990033
 20
503.6605229189163
 30
0.0000000000000000
 11
199.6742785663151
 21
476.9879831541088
 31
0.0000000000000000
  0
LINE
  5
3DC
100
AcDbEntity
  8
MAIN1
  6
CONTINUOUS
 62
7
100
AcDbLine
 10
177.6058547534883
 20
476.9879831541086
 30
0.0000000000000000
 11
179.4667296208000
 21
503.6605229189160
 31
0.0000000000000000
  0
ARC
  5
3DD
100
AcDbEntity
  8
MAIN1
  6
CONTINUOUS
 62
7
100
AcDbCircle
 10
188.6400666599019
 20
516.1450204793707
 30
0.0000000000000000
 40
9.000000000000000
100
AcDbArc
 50
193.0879841715231
 51
346.9120158284769
  0
ARC
  5
3DE
100
AcDbEntity
  8
MAIN1
  6
CONTINUOUS
 62
7
100
AcDbCircle
 10
188.6400666599019
 20
458.1450204793707
 30
0.0000000000000000
 40
61.50000000000012
100
AcDbArc
 50
103.9662882617980
 51
436.0337117382020
  0
ARC
  5
3DF
100
AcDbEntity
  8
MAIN1
  6
CONTINUOUS
 62
7
100
AcDbCircle
 10
188.6400666599019
 20
458.1450204793707
 30
0.0000000000000000
 40
53.00000000000008
100
AcDbArc
 50
347.1590521566255
 51
432.8409478433737
  0
ARC
  5
3E0
100
AcDbEntity
  8
MAIN1
  6
CONTINUOUS
 62
7
100
AcDbCircle
 10
188.6400666599019
 20
458.1450204793707
 30
0.0000000000000000
 40
20.00000000000000
100
AcDbArc
 50
9.857731192325375
 51
50.14226880767669
  0
CIRCLE
  5
3E1
100
AcDbEntity
  8
MAIN1
  6
CONTINUOUS
 62
7
100
AcDbCircle
 10
188.6400666599019
 20
458.1450204793707
 30
0.0000000000000000
 40
70.00000000000000
  0
LINE
  5
3E2
100
AcDbEntity
  8
MAIN2
  6
CENTER
 62
1
100
AcDbLine
 10
198.8900666599019
 20
516.1450204793707
 30
0.0000000000000000
 11
178.3900666599019
 21
516.1450204793707
 31
0.0000000000000000
  0
LINE
  5
3E3
100
AcDbEntity
  8
MAIN2
  6
CENTER
 62
1
100
AcDbLine
 10
188.6400666599018
 20
458.1450204793707
 30
0.0000000000000000
 11
257.9220989626567
 21
418.1450204793709
 31
0.0000000000000000
  0
LINE
  5
3E4
100
AcDbEntity
  8
MAIN2
  6
CENTER
 62
1
100
AcDbLine
 10
188.6400666599016
 20
458.1450204793708
 30
0.0000000000000000
 11
119.3580343571466
 21
418.1450204793709
 31
0.0000000000000000
  0
LINE
  5
3E5
100
AcDbEntity
  8
MAIN1
  6
CONTINUOUS
 62
7
100
AcDbLine
 10
570.5856549762908
 20
699.3482592578221
 30
0.0000000000000000
 11
567.1966783784829
 21
699.3482592578218
 31
0.0000000000000000
  0
ARC
  5
3E6
100
AcDbEntity
  8
MAIN1
  6
CONTINUOUS
 62
7
100
AcDbCircle
 10
573.5361546585816
 20
691.6671609458367
 30
0.0000000000000000
 40
9.500000000000000
100
AcDbArc
 50
126.0467950197129
 51
154.4255552279021
  0
LINE
  5
3E7
100
AcDbEntity
  8
MAIN1
  6
CONTINUOUS
 62
7
100
AcDbLine
 10
553.4516803800741
 20
671.7064682130400
 30
0.0000000000000000
 11
564.9669156687929
 21
695.7681538909516
 31
0.0000000000000000
  0
LINE
  5
3E8
100
AcDbEntity
  8
MAIN1
  6
CONTINUOUS
 62
7
100
AcDbLine
 10
553.4516803800739
 20
693.1843248315785
 30
0.0000000000000000
 11
553.9037282591804
 21
694.2218117672325
 31
0.0000000000000000
  0
ARC
  5
3E9
100
AcDbEntity
  8
MAIN1
  6
CONTINUOUS
 62
7
100
AcDbCircle
 10
549.3199409746046
 20
696.2190333697988
 30
0.0000000000000000
 40
5.000000000000000
100
AcDbArc
 50
336.4565551325584
 51
394.2746153623827
  0
ARC
  5
3EA
100
AcDbEntity
  8
MAIN1
  6
CONTINUOUS
 62
7
100
AcDbCircle
 10
560.9516803800807
 20
718.3482592578209
 30
0.0000000000000000
 40
20.00000000000000
100
AcDbArc
 50
247.9756871629368
 51
288.1948723387753
  0
ARC
  5
3EB
100
AcDbEntity
  8
MAIN1
  6
CONTINUOUS
 62
7
100
AcDbCircle
 10
573.5361546585816
 20
745.0293575698049
 30
0.0000000000000000
 40
9.500000000000000
100
AcDbArc
 50
205.5744447721023
 51
233.9532049802871
  0
ARC
  5
3EC
100
AcDbEntity
  8
MAIN1
  6
CONTINUOUS
 62
7
100
AcDbCircle
 10
549.3199409746046
 20
740.4774851458431
 30
0.0000000000000000
 40
5.000000000000000
100
AcDbArc
 50
325.7253846376173
 51
383.5434448674449
  0
LINE
  5
3ED
100
AcDbEntity
  8
MAIN1
  6
CONTINUOUS
 62
7
100
AcDbLine
 10
553.4516803800739
 20
764.9900503026018
 30
0.0000000000000000
 11
564.9669156687927
 21
740.9283646246903
 31
0.0000000000000000
  0
LINE
  5
3EE
100
AcDbEntity
  8
MAIN1
  6
CONTINUOUS
 62
7
100
AcDbLine
 10
553.4516803800744
 20
743.5121936840629
 30
0.0000000000000000
 11
553.9037282591811
 21
742.4747067484091
 31
0.0000000000000000
  0
ARC
  5
3EF
100
AcDbEntity
  8
MAIN1
  6
CONTINUOUS
 62
7
100
AcDbCircle
 10
560.9516803800807
 20
718.3482592578209
 30
0.0000000000000000
 40
20.00000000000000
100
AcDbArc
 50
71.80512766122470
 51
112.0243128370633
  0
LINE
  5
3F0
100
AcDbEntity
  8
MAIN2
  6
CENTER
 62
1
100
AcDbLine
 10
544.9516803800747
 20
638.3482592578209
 30
0.0000000000000000
 11
544.9516803800746
 21
798.3482592578209
 31
0.0000000000000000
  0
LINE
  5
3F1
100
AcDbEntity
  8
MAIN1
  6
CONTINUOUS
 62
7
100
AcDbLine
 10
583.4516803800750
 20
701.8482592578221
 30
0.0000000000000000
 11
583.4516803800750
 21
734.8482592578200
 31
0.0000000000000000
  0
ARC
  5
3F2
100
AcDbEntity
  8
MAIN1
  6
CONTINUOUS
 62
7
100
AcDbCircle
 10
544.9516803800748
 20
656.8482592578212
 30
0.0000000000000000
 40
8.499999999999901
100
AcDbArc
 50
180.0000000000000
 51
360.0000000000000
  0
ARC
  5
3F3
100
AcDbEntity
  8
MAIN1
  6
CONTINUOUS
 62
7
100
AcDbCircle
 10
544.9516803800748
 20
779.8482592578209
 30
0.0000000000000000
 40
8.499999999999901
100
AcDbArc
 50
0.0000000000000000
 51
180.0000000000000
  0
LINE
  5
3F4
100
AcDbEntity
  8
MAIN1
  6
CONTINUOUS
 62
7
100
AcDbLine
 10
536.4516803800757
 20
656.8482592578209
 30
0.0000000000000000
 11
536.4516803800757
 21
779.8482592578212
 31
0.0000000000000000
  0
LINE
  5
3F5
100
AcDbEntity
  8
MAIN1
  6
CONTINUOUS
 62
7
100
AcDbLine
 10
570.5856549762907
 20
737.3482592578200
 30
0.0000000000000000
 11
567.1966783784828
 21
737.3482592578200
 31
0.0000000000000000
  0
LINE
  5
3F6
100
AcDbEntity
  8
MAIN1
  6
CONTINUOUS
 62
7
100
AcDbLine
 10
582.4516803800750
 20
700.8482592578221
 30
0.0000000000000000
 11
571.4516803800750
 21
700.8482592578221
 31
0.0000000000000000
  0
LINE
  5
3F7
100
AcDbEntity
  8
MAIN1
  6
CONTINUOUS
 62
7
100
AcDbLine
 10
582.4516803800750
 20
735.8482592578200
 30
0.0000000000000000
 11
571.4516803800750
 21
735.8482592578200
 31
0.0000000000000000
  0
LINE
  5
3F8
100
AcDbEntity
  8
MAIN1
  6
CONTINUOUS
 62
7
100
AcDbLine
 10
571.4516803800750
 20
700.8482592578212
 30
0.0000000000000000
 11
571.4516803800750
 21
735.8482592578200
 31
0.0000000000000000
  0
LINE
  5
3F9
100
AcDbEntity
  8
MAIN1
  6
CONTINUOUS
 62
7
100
AcDbLine
 10
571.4516803800752
 20
700.8482592578220
 30
0.0000000000000000
 11
570.5856549762909
 21
699.3482592578220
 31
0.0000000000000000
  0
LINE
  5
3FA
100
AcDbEntity
  8
MAIN1
  6
CONTINUOUS
 62
7
100
AcDbLine
 10
571.4516803800752
 20
735.8482592578198
 30
0.0000000000000000
 11
570.5856549762909
 21
737.3482592578199
 31
0.0000000000000000
  0
LINE
  5
3FB
100
AcDbEntity
  8
MAIN1
  6
CONTINUOUS
 62
7
100
AcDbLine
 10
570.5856549762907
 20
699.3482592578221
 30
0.0000000000000000
 11
570.5856549762907
 21
737.3482592578203
 31
0.0000000000000000
  0
ARC
  5
3FC
100
AcDbEntity
  8
MAIN1
  6
CONTINUOUS
 62
7
100
AcDbCircle
 10
582.4516803800752
 20
701.8482592578218
 30
0.0000000000000000
 40
1.000000000000000
100
AcDbArc
 50
270.0000000000000
 51
360.0000000000000
  0
ARC
  5
3FD
100
AcDbEntity
  8
MAIN1
  6
CONTINUOUS
 62
7
100
AcDbCircle
 10
582.4516803800752
 20
734.8482592578198
 30
0.0000000000000000
 40
1.000000000000000
100
AcDbArc
 50
0.0000000000000000
 51
90.00000000000000
  0
LINE
  5
3FE
100
AcDbEntity
  8
MAIN1
  6
CONTINUOUS
 62
7
100
AcDbLine
 10
553.4516803800739
 20
779.8482592578212
 30
0.0000000000000000
 11
553.4516803800740
 21
656.8482592578209
 31
0.0000000000000000
  0
LINE
  5
3FF
100
AcDbEntity
  8
MAIN1
  6
CONTINUOUS
 62
7
100
AcDbLine
 10
563.6748960094925
 20
707.1483394915783
 30
0.0000000000000000
 11
562.5740160919528
 21
707.2611722817387
 31
0.0000000000000000
  0
LINE
  5
400
100
AcDbEntity
  8
MAIN1
  6
CONTINUOUS
 62
7
100
AcDbLine
 10
562.5740160919531
 20
707.2611722817389
 30
0.0000000000000000
 11
561.6745238470745
 21
707.3834288455950
 31
0.0000000000000000
  0
LINE
  5
401
100
AcDbEntity
  8
MAIN1
  6
CONTINUOUS
 62
7
100
AcDbLine
 10
561.6745238470749
 20
707.3834288455950
 30
0.0000000000000000
 11
560.1991511753379
 21
707.6159352233419
 31
0.0000000000000000
  0
LINE
  5
402
100
AcDbEntity
  8
MAIN1
  6
CONTINUOUS
 62
7
100
AcDbLine
 10
560.1991511753377
 20
707.6159352233417
 30
0.0000000000000000
 11
558.4708461730751
 21
707.8827477549405
 31
0.0000000000000000
  0
LINE
  5
403
100
AcDbEntity
  8
MAIN1
  6
CONTINUOUS
 62
7
100
AcDbLine
 10
558.4708461730750
 20
707.8827477549412
 30
0.0000000000000000
 11
556.9289155952105
 21
708.1174898496041
 31
0.0000000000000000
  0
LINE
  5
404
100
AcDbEntity
  8
MAIN1
  6
CONTINUOUS
 62
7
100
AcDbLine
 10
556.9289155952106
 20
708.1174898496040
 30
0.0000000000000000
 11
555.1907556970750
 21
708.3796194773004
 31
0.0000000000000000
  0
LINE
  5
405
100
AcDbEntity
  8
MAIN1
  6
CONTINUOUS
 62
7
100
AcDbLine
 10
555.1907556970750
 20
708.3796194773001
 30
0.0000000000000000
 11
553.7453933577828
 21
708.5961315390118
 31
0.0000000000000000
  0
LINE
  5
406
100
AcDbEntity
  8
MAIN1
  6
CONTINUOUS
 62
7
100
AcDbLine
 10
553.7453933577829
 20
708.5961315390118
 30
0.0000000000000000
 11
553.4516803800750
 21
708.6399212236106
 31
0.0000000000000000
  0
LINE
  5
407
100
AcDbEntity
  8
MAIN1
  6
CONTINUOUS
 62
7
100
AcDbLine
 10
563.6748959843753
 20
729.5481790253690
 30
0.0000000000000000
 11
562.5740160909469
 21
729.4353462339326
 31
0.0000000000000000
  0
LINE
  5
408
100
AcDbEntity
  8
MAIN1
  6
CONTINUOUS
 62
7
100
AcDbLine
 10
562.5740160909468
 20
729.4353462339323
 30
0.0000000000000000
 11
561.6745238470749
 21
729.3130896700461
 31
0.0000000000000000
  0
LINE
  5
409
100
AcDbEntity
  8
MAIN1
  6
CONTINUOUS
 62
7
100
AcDbLine
 10
561.6745238470746
 20
729.3130896700463
 30
0.0000000000000000
 11
560.1991143072922
 21
729.0805772424774
 31
0.0000000000000000
  0
LINE
  5
40A
100
AcDbEntity
  8
MAIN1
  6
CONTINUOUS
 62
7
100
AcDbLine
 10
560.1991143072921
 20
729.0805772424776
 30
0.0000000000000000
 11
558.4709461409938
 21
728.8137860656093
 31
0.0000000000000000
  0
LINE
  5
40B
100
AcDbEntity
  8
MAIN1
  6
CONTINUOUS
 62
7
100
AcDbLine
 10
558.4709461409938
 20
728.8137860656091
 30
0.0000000000000000
 11
556.9287848435920
 21
728.5790088962521
 31
0.0000000000000000
  0
LINE
  5
40C
100
AcDbEntity
  8
MAIN1
  6
CONTINUOUS
 62
7
100
AcDbLine
 10
556.9287848435918
 20
728.5790088962521
 30
0.0000000000000000
 11
555.1908485202418
 21
728.3169129811504
 31
0.0000000000000000
  0
LINE
  5
40D
100
AcDbEntity
  8
MAIN1
  6
CONTINUOUS
 62
7
100
AcDbLine
 10
555.1908485202420
 20
728.3169129811503
 30
0.0000000000000000
 11
553.7453521497534
 21
728.1003810134732
 31
0.0000000000000000
  0
LINE
  5
40E
100
AcDbEntity
  8
MAIN1
  6
CONTINUOUS
 62
7
100
AcDbLine
 10
553.7453521497536
 20
728.1003810134732
 30
0.0000000000000000
 11
553.4516803800749
 21
728.0565974741141
 31
0.0000000000000000
  0
LINE
  5
40F
100
AcDbEntity
  8
MAIN1
  6
CONTINUOUS
 62
7
100
AcDbLine
 10
563.6748958587696
 20
729.5481790012019
 30
0.0000000000000000
 11
564.8602349540942
 21
729.4046284483251
 31
0.0000000000000000
  0
LINE
  5
410
100
AcDbEntity
  8
MAIN1
  6
CONTINUOUS
 62
7
100
AcDbLine
 10
564.8602349540944
 20
729.4046284483251
 30
0.0000000000000000
 11
565.7214048463026
 21
729.0443140902014
 31
0.0000000000000000
  0
LINE
  5
411
100
AcDbEntity
  8
MAIN1
  6
CONTINUOUS
 62
7
100
AcDbLine
 10
565.7214048463022
 20
729.0443140902011
 30
0.0000000000000000
 11
566.3782476918834
 21
728.4364421744316
 31
0.0000000000000000
  0
LINE
  5
412
100
AcDbEntity
  8
MAIN1
  6
CONTINUOUS
 62
7
100
AcDbLine
 10
566.3782476918832
 20
728.4364421744316
 30
0.0000000000000000
 11
566.6954119027901
 21
727.7575427768745
 31
0.0000000000000000
  0
LINE
  5
413
100
AcDbEntity
  8
MAIN1
  6
CONTINUOUS
 62
7
100
AcDbLine
 10
566.6954119027901
 20
727.7575427768744
 30
0.0000000000000000
 11
566.7824125936500
 21
727.0702770908737
 31
0.0000000000000000
  0
LINE
  5
414
100
AcDbEntity
  8
MAIN1
  6
CONTINUOUS
 62
7
100
AcDbLine
 10
566.7824122651252
 20
709.6262413452039
 30
0.0000000000000000
 11
566.6478462686766
 21
708.7849165159310
 31
0.0000000000000000
  0
LINE
  5
415
100
AcDbEntity
  8
MAIN1
  6
CONTINUOUS
 62
7
100
AcDbLine
 10
566.6478462686764
 20
708.7849165159310
 30
0.0000000000000000
 11
566.2027981336095
 21
708.0445986407967
 31
0.0000000000000000
  0
LINE
  5
416
100
AcDbEntity
  8
MAIN1
  6
CONTINUOUS
 62
7
100
AcDbLine
 10
566.2027981336097
 20
708.0445986407970
 30
0.0000000000000000
 11
565.5584661586050
 21
707.5589477596841
 31
0.0000000000000000
  0
LINE
  5
417
100
AcDbEntity
  8
MAIN1
  6
CONTINUOUS
 62
7
100
AcDbLine
 10
565.5584661586051
 20
707.5589477596841
 30
0.0000000000000000
 11
564.7757448666372
 21
707.2707064896287
 31
0.0000000000000000
  0
LINE
  5
418
100
AcDbEntity
  8
MAIN1
  6
CONTINUOUS
 62
7
100
AcDbLine
 10
564.7757448666368
 20
707.2707064896288
 30
0.0000000000000000
 11
563.6748958637784
 21
707.1483395147101
 31
0.0000000000000000
  0
LINE
  5
419
100
AcDbEntity
  8
MAIN1
  6
CONTINUOUS
 62
7
100
AcDbLine
 10
528.5044429104444
 20
723.3482592577441
 30
0.0000000000000000
 11
528.5044429104446
 21
713.3482592577441
 31
0.0000000000000000
  0
LINE
  5
41A
100
AcDbEntity
  8
MAIN1
  6
CONTINUOUS
 62
7
100
AcDbLine
 10
531.4516803801469
 20
723.3482592577441
 30
0.0000000000000000
 11
531.4516803801469
 21
713.3482592577441
 31
0.0000000000000000
  0
LINE
  5
41B
100
AcDbEntity
  8
MAIN1
  6
CONTINUOUS
 62
7
100
AcDbLine
 10
528.5044429104451
 20
723.3482592577441
 30
0.0000000000000000
 11
533.4516803801480
 21
723.3482592577441
 31
0.0000000000000000
  0
LINE
  5
41C
100
AcDbEntity
  8
MAIN1
  6
CONTINUOUS
 62
7
100
AcDbLine
 10
528.5044429104447
 20
713.3482592577441
 30
0.0000000000000000
 11
533.4516803801480
 21
713.3482592577441
 31
0.0000000000000000
  0
ARC
  5
41D
100
AcDbEntity
  8
MAIN1
  6
CONTINUOUS
 62
7
100
AcDbCircle
 10
522.4216803801468
 20
695.3482592577441
 30
0.0000000000000000
 40
19.00000000000000
100
AcDbArc
 50
71.32828193599291
 51
114.3572336206432
  0
ARC
  5
41E
100
AcDbEntity
  8
MAIN1
  6
CONTINUOUS
 62
7
100
AcDbCircle
 10
522.4216803801468
 20
741.3482592577441
 30
0.0000000000000000
 40
19.00000000000000
100
AcDbArc
 50
245.6427663793569
 51
288.6717180640078
  0
LINE
  5
41F
100
AcDbEntity
  8
MAIN1
  6
CONTINUOUS
 62
7
100
AcDbLine
 10
536.4516803800757
 20
714.3482592577441
 30
0.0000000000000000
 11
533.4516803801480
 21
714.3482592577441
 31
0.0000000000000000
  0
LINE
  5
420
100
AcDbEntity
  8
MAIN1
  6
CONTINUOUS
 62
7
100
AcDbLine
 10
533.4516803801480
 20
713.3482592577441
 30
0.0000000000000000
 11
533.4516803801480
 21
714.3482592577441
 31
0.0000000000000000
  0
LINE
  5
421
100
AcDbEntity
  8
MAIN1
  6
CONTINUOUS
 62
7
100
AcDbLine
 10
533.4516803801480
 20
723.3482592577441
 30
0.0000000000000000
 11
533.4516803801480
 21
722.3482592577440
 31
0.0000000000000000
  0
ARC
  5
422
100
AcDbEntity
  8
MAIN1
  6
CONTINUOUS
 62
7
100
AcDbCircle
 10
488.4516803801481
 20
718.3482592577441
 30
0.0000000000000000
 40
3.000000000000000
100
AcDbArc
 50
126.8698976458440
 51
233.1301023541565
  0
ARC
  5
423
100
AcDbEntity
  8
MAIN1
  6
CONTINUOUS
 62
7
100
AcDbCircle
 10
503.4516803801480
 20
698.3482592577441
 30
0.0000000000000000
 40
28.00000000000000
100
AcDbArc
 50
66.56924438292478
 51
126.8698976458440
  0
ARC
  5
424
100
AcDbEntity
  8
MAIN1
  6
CONTINUOUS
 62
7
100
AcDbCircle
 10
503.4516803801480
 20
738.3482592577441
 30
0.0000000000000000
 40
28.00000000000000
100
AcDbArc
 50
233.1301023541560
 51
293.4307556170751
  0
LINE
  5
425
100
AcDbEntity
  8
MAIN1
  6
CONTINUOUS
 62
7
100
AcDbLine
 10
536.4516803800757
 20
722.3482592577441
 30
0.0000000000000000
 11
533.4516803801480
 21
722.3482592577441
 31
0.0000000000000000
  0
CIRCLE
  5
426
100
AcDbEntity
  8
MAIN1
  6
CONTINUOUS
 62
7
100
AcDbCircle
 10
188.6400666599019
 20
516.1450204793707
 30
0.0000000000000000
 40
8.000000000000000
  0
LINE
  5
427
100
AcDbEntity
  8
MAIN2
  6
CENTER
 62
1
100
AcDbLine
 10
188.6400666599019
 20
526.6450204793707
 30
0.0000000000000000
 11
188.6400666599019
 21
505.6450204793707
 31
0.0000000000000000
  0
LINE
  5
428
100
AcDbEntity
  8
MAIN0
  6
HIDDEN
 62
3
100
AcDbLine
 10
555.2516803800752
 20
451.3450204793708
 30
0.0000000000000000
 11
555.2516803800752
 21
464.9450204793707
 31
0.0000000000000000
  0
LINE
  5
429
100
AcDbEntity
  8
MAIN0
  6
HIDDEN
 62
3
100
AcDbLine
 10
555.2516803800751
 20
464.9450204793709
 30
0.0000000000000000
 11
555.4516803800750
 21
465.1450204793708
 31
0.0000000000000000
  0
LINE
  5
42A
100
AcDbEntity
  8
MAIN0
  6
HIDDEN
 62
3
100
AcDbLine
 10
555.2516803800752
 20
451.3450204793708
 30
0.0000000000000000
 11
555.4516803800751
 21
451.1450204793708
 31
0.0000000000000000
  0
LINE
  5
42B
100
AcDbEntity
  8
MAIN0
  6
CONTINUOUS
 62
3
100
AcDbLine
 10
895.8632623801069
 20
473.9450204793720
 30
0.0000000000000000
 11
915.3628850238982
 21
473.9450204793756
 31
0.0000000000000000
  0
LINE
  5
42C
100
AcDbEntity
  8
MAIN0
  6
CONTINUOUS
 62
3
100
AcDbLine
 10
895.8632623800758
 20
442.3450204793717
 30
0.0000000000000000
 11
895.8632623800768
 21
473.9450204793718
 31
0.0000000000000000
  0
LINE
  5
42D
100
AcDbEntity
  8
MAIN0
  6
HIDDEN
 62
3
100
AcDbLine
 10
786.8632623800750
 20
445.6450204793522
 30
0.0000000000000000
 11
786.8632623800775
 21
470.6450204793517
 31
0.0000000000000000
  0
LINE
  5
42E
100
AcDbEntity
  8
MAIN0
  6
HIDDEN
 62
3
100
AcDbLine
 10
786.8632623800776
 20
470.6450204793519
 30
0.0000000000000000
 11
795.8632623800776
 21
470.6450204793536
 31
0.0000000000000000
  0
LINE
  5
42F
100
AcDbEntity
  8
MAIN0
  6
HIDDEN
 62
3
100
AcDbLine
 10
786.8632623800821
 20
445.6450204793521
 30
0.0000000000000000
 11
795.8632623800821
 21
445.6450204793537
 31
0.0000000000000000
  0
LINE
  5
430
100
AcDbEntity
  8
MAIN0
  6
HIDDEN
 62
3
100
AcDbLine
 10
795.8632623800752
 20
444.9418834688624
 30
0.0000000000000000
 11
795.8632623800778
 21
471.3481574898444
 31
0.0000000000000000
  0
LINE
  5
431
100
AcDbEntity
  8
MAIN0
  6
CONTINUOUS
 62
3
100
AcDbLine
 10
941.8632623800763
 20
457.6450204795847
 30
0.0000000000000000
 11
941.8632623800763
 21
458.6450204791765
 31
0.0000000000000000
  0
LINE
  5
432
100
AcDbEntity
  8
MAIN0
  6
CONTINUOUS
 62
3
100
AcDbLine
 10
915.3628850238981
 20
473.9450204793753
 30
0.0000000000000000
 11
941.8632623800763
 21
458.6450204791763
 31
0.0000000000000000
  0
LINE
  5
433
100
AcDbEntity
  8
MAIN0
  6
CONTINUOUS
 62
3
100
AcDbLine
 10
915.4122484719195
 20
442.3735204793758
 30
0.0000000000000000
 11
941.8632623800769
 21
457.6450204795849
 31
0.0000000000000000
  0
LINE
  5
434
100
AcDbEntity
  8
MAIN0
  6
CONTINUOUS
 62
3
100
AcDbLine
 10
895.8632623801128
 20
442.3450204793719
 30
0.0000000000000000
 11
915.3628850239043
 21
442.3450204793755
 31
0.0000000000000000
  0
LINE
  5
435
100
AcDbEntity
  8
MAIN0
  6
CONTINUOUS
 62
3
100
AcDbLine
 10
915.3628850238990
 20
442.3450204793752
 30
0.0000000000000000
 11
915.3628850238981
 21
473.9450204793757
 31
0.0000000000000000
  0
LINE
  5
436
100
AcDbEntity
  8
MAIN0
  6
CONTINUOUS
 62
3
100
AcDbLine
 10
930.6049321307386
 20
451.1450204795057
 30
0.0000000000000000
 11
930.6049321307312
 21
465.1450204792542
 31
0.0000000000000000
  0
LINE
  5
437
100
AcDbEntity
  8
MAIN0
  6
HIDDEN
 62
3
100
AcDbLine
 10
795.8632623800778
 20
471.3481574898441
 30
0.0000000000000000
 11
889.4516803800750
 21
473.7785204793703
 31
0.0000000000000000
  0
LINE
  5
438
100
AcDbEntity
  8
MAIN0
  6
CONTINUOUS
 62
3
100
AcDbLine
 10
889.4516803800750
 20
473.7785204793705
 30
0.0000000000000000
 11
895.8632623801068
 21
473.9450204793725
 31
0.0000000000000000
  0
LINE
  5
439
100
AcDbEntity
  8
MAIN0
  6
HIDDEN
 62
3
100
AcDbLine
 10
795.8632623800752
 20
444.9418834688623
 30
0.0000000000000000
 11
889.4516803800750
 21
442.5115204793708
 31
0.0000000000000000
  0
LINE
  5
43A
100
AcDbEntity
  8
MAIN0
  6
CONTINUOUS
 62
3
100
AcDbLine
 10
889.4516803800750
 20
442.5115204793709
 30
0.0000000000000000
 11
895.8632623800694
 21
442.3450204793722
 31
0.0000000000000000
  0
INSERT
  5
441
100
AcDbEntity
  8
MAIN0
  6
CONTINUOUS
 62
3
100
AcDbBlockReference
  2
*X2
 10
0.0000000000000000
 20
0.0000000000000000
 30
0.0000000000000000
 50
0.0000000000000000
  0
CIRCLE
  5
442
100
AcDbEntity
  8
MAIN0
  6
CONTINUOUS
 62
3
100
AcDbCircle
 10
228.4772352339854
 20
481.1450204793708
 30
0.0000000000000000
 40
7.000000000000000
  0
LINE
  5
443
100
AcDbEntity
  8
MAIN0
  6
CENTER
 62
3
100
AcDbLine
 10
220.0334875470844
 20
476.2700204793753
 30
0.0000000000000000
 11
236.9209829208867
 21
486.0200204793659
 31
0.0000000000000000
  0
CIRCLE
  5
444
100
AcDbEntity
  8
MAIN0
  6
CONTINUOUS
 62
3
100
AcDbCircle
 10
148.8028980858179
 20
481.1450204793700
 30
0.0000000000000000
 40
7.000000000000000
  0
LINE
  5
445
100
AcDbEntity
  8
MAIN0
  6
CENTER
 62
3
100
AcDbLine
 10
157.2466457727135
 20
476.2700204793653
 30
0.0000000000000000
 11
140.3591503989222
 21
486.0200204793748
 31
0.0000000000000000
  0
LINE
  5
446
100
AcDbEntity
  8
WAKU0
  6
CONTINUOUS
 62
3
100
AcDbLine
 10
240.0000000000000
 20
51.00000000000000
 30
0.0000000000000000
 11
410.0000000000000
 21
51.00000000000000
 31
0.0000000000000000
  0
LINE
  5
447
100
AcDbEntity
  8
WAKU0
  6
CONTINUOUS
 62
3
100
AcDbLine
 10
240.0000000000000
 20
51.00000000000000
 30
0.0000000000000000
 11
240.0000000000000
 21
12.00000000000000
 31
0.0000000000000000
  0
LINE
  5
448
100
AcDbEntity
  8
WAKU0
  6
CONTINUOUS
 62
3
100
AcDbLine
 10
312.0000000000000
 20
51.00000000000000
 30
0.0000000000000000
 11
312.0000000000000
 21
12.00000000000000
 31
0.0000000000000000
  0
LINE
  5
449
100
AcDbEntity
  8
WAKU0
  6
CONTINUOUS
 62
3
100
AcDbLine
 10
332.0000000000000
 20
51.00000000000000
 30
0.0000000000000000
 11
332.0000000000000
 21
12.00000000000000
 31
0.0000000000000000
  0
LINE
  5
44A
100
AcDbEntity
  8
WAKU0
  6
CONTINUOUS
 62
3
100
AcDbLine
 10
344.0000000000000
 20
51.00000000000000
 30
0.0000000000000000
 11
344.0000000000000
 21
12.00000000000000
 31
0.0000000000000000
  0
LINE
  5
44B
100
AcDbEntity
  8
WAKU0
  6
CONTINUOUS
 62
3
100
AcDbLine
 10
344.0000000000000
 20
37.00000000000000
 30
0.0000000000000000
 11
410.0000000000000
 21
37.00000000000000
 31
0.0000000000000000
  0
LINE
  5
44C
100
AcDbEntity
  8
WAKU0
  6
CONTINUOUS
 62
3
100
AcDbLine
 10
332.0000000000000
 20
23.00000000000000
 30
0.0000000000000000
 11
410.0000000000000
 21
23.00000000000000
 31
0.0000000000000000
  0
LINE
  5
44D
100
AcDbEntity
  8
WAKU0
  6
CONTINUOUS
 62
3
100
AcDbLine
 10
375.0000000000000
 20
51.00000000000000
 30
0.0000000000000000
 11
375.0000000000000
 21
44.00000000000000
 31
0.0000000000000000
  0
LINE
  5
44E
100
AcDbEntity
  8
WAKU0
  6
CONTINUOUS
 62
3
100
AcDbLine
 10
387.0000000000000
 20
51.00000000000000
 30
0.0000000000000000
 11
387.0000000000000
 21
44.00000000000000
 31
0.0000000000000000
  0
LINE
  5
44F
100
AcDbEntity
  8
WAKU0
  6
CONTINUOUS
 62
3
100
AcDbLine
 10
312.0000000000000
 20
31.50000000000000
 30
0.0000000000000000
 11
332.0000000000000
 21
31.50000000000000
 31
0.0000000000000000
  0
LINE
  5
450
100
AcDbEntity
  8
WAKU0
  6
CONTINUOUS
 62
3
100
AcDbLine
 10
332.0000000000000
 20
44.00000000000000
 30
0.0000000000000000
 11
410.0000000000000
 21
44.00000000000000
 31
0.0000000000000000
  0
LINE
  5
451
100
AcDbEntity
  8
WAKU0
  6
CONTINUOUS
 62
3
100
AcDbLine
 10
240.0000000000000
 20
37.00000000000000
 30
0.0000000000000000
 11
312.0000000000000
 21
37.00000000000000
 31
0.0000000000000000
  0
LINE
  5
452
100
AcDbEntity
  8
WAKU0
  6
CONTINUOUS
 62
3
100
AcDbLine
 10
240.0000000000000
 20
23.00000000000000
 30
0.0000000000000000
 11
312.0000000000000
 21
23.00000000000000
 31
0.0000000000000000
  0
LINE
  5
453
100
AcDbEntity
  8
WAKU0
  6
CONTINUOUS
 62
3
100
AcDbLine
 10
288.0000000000000
 20
37.00000000000000
 30
0.0000000000000000
 11
288.0000000000000
 21
12.00000000000000
 31
0.0000000000000000
  0
LINE
  5
454
100
AcDbEntity
  8
WAKU0
  6
CONTINUOUS
 62
3
100
AcDbLine
 10
264.0000000000000
 20
37.00000000000000
 30
0.0000000000000000
 11
264.0000000000000
 21
23.00000000000000
 31
0.0000000000000000
  0
LINE
  5
455
100
AcDbEntity
  8
WAKU0
  6
CONTINUOUS
 62
3
100
AcDbLine
 10
300.0000000000000
 20
26.00000000000000
 30
0.0000000000000000
 11
300.0000000000000
 21
23.00000000000000
 31
0.0000000000000000
  0
LINE
  5
456
100
AcDbEntity
  8
WAKU0
  6
CONTINUOUS
 62
3
100
AcDbLine
 10
276.0000000000000
 20
26.00000000000000
 30
0.0000000000000000
 11
276.0000000000000
 21
23.00000000000000
 31
0.0000000000000000
  0
LINE
  5
457
100
AcDbEntity
  8
WAKU0
  6
CONTINUOUS
 62
3
100
AcDbLine
 10
252.0000000000000
 20
26.00000000000000
 30
0.0000000000000000
 11
252.0000000000000
 21
23.00000000000000
 31
0.0000000000000000
  0
LINE
  5
458
100
AcDbEntity
  8
WAKU0
  6
CONTINUOUS
 62
3
100
AcDbLine
 10
258.0000000000000
 20
51.00000000000000
 30
0.0000000000000000
 11
258.0000000000000
 21
37.00000000000000
 31
0.0000000000000000
  0
LINE
  5
459
100
AcDbEntity
  8
WAKU0
  6
CONTINUOUS
 62
3
100
AcDbLine
 10
240.0000000000000
 20
45.00000000000000
 30
0.0000000000000000
 11
312.0000000000000
 21
45.00000000000000
 31
0.0000000000000000
  0
LINE
  5
45A
100
AcDbEntity
  8
WAKU0
  6
HIDDEN
 62
3
100
AcDbLine
 10
360.5000000000000
 20
23.00000000000000
 30
0.0000000000000000
 11
360.5000000000000
 21
12.00000000000000
 31
0.0000000000000000
  0
LINE
  5
45B
100
AcDbEntity
  8
WAKU0
  6
HIDDEN
 62
3
100
AcDbLine
 10
372.9000000000000
 20
23.00000000000000
 30
0.0000000000000000
 11
372.9000000000000
 21
12.00000000000000
 31
0.0000000000000000
  0
MTEXT
  5
45C
100
AcDbEntity
  8
WAKU0
  6
CONTINUOUS
 62
3
100
AcDbMText
 10
344.4820000243485
 20
49.04999995231628
 30
0.0000000000000000
 40
3.099999904632568
 41
0.0000000000000000
 71
     1
 72
     1
  1
{\H0.92x;{TS400RN}}
 11
1.000000000000000
 21
0.0000000000000000
 31
0.0000000000000000
  7
STANDARD
  0
MTEXT
  5
45D
100
AcDbEntity
  8
WAKU0
  6
CONTINUOUS
 62
3
100
AcDbMText
 10
348.4499999843538
 20
42.04999995231628
 30
0.0000000000000000
 40
3.099999904632568
 41
0.0000000000000000
 71
     1
 72
     1
  1
{\H0.71x;{ＮＣテーブル　ＮＣ　ＲＯＴＡＲＹ　ＴＡＢＬＥ}}
 11
1.000000000000000
 21
0.0000000000000000
 31
0.0000000000000000
  7
KNJYOKO
  0
MTEXT
  5
45E
100
AcDbEntity
  8
WAKU0
  6
CONTINUOUS
 62
3
100
AcDbMText
 10
348.4499999843538
 20
34.23333326975504
 30
0.0000000000000000
 40
3.099999904632568
 41
0.0000000000000000
 71
     1
 72
     1
  1
{\H0.71x;{テールストック　ガイケイ\PＴＡＩＬＳＴＯＣＫ　ＯＵＴＳＩＤＥ　ＶＩＥＷ}}
 11
1.000000000000000
 21
0.0000000000000000
 31
0.0000000000000000
  7
KNJYOKO
  0
MTEXT
  5
45F
100
AcDbEntity
  8
WAKU0
  6
CONTINUOUS
 62
3
100
AcDbMText
 10
318.0049998760223
 20
39.29999995231628
 30
0.0000000000000000
 40
3.099999904632568
 41
0.0000000000000000
 71
     1
 72
     1
  1
{\H0.90x;{1:3}}
 11
1.000000000000000
 21
0.0000000000000000
 31
0.0000000000000000
  7
STANDARD
  0
MTEXT
  5
460
100
AcDbEntity
  8
WAKU0
  6
CONTINUOUS
 62
3
100
AcDbMText
 10
374.4000001549721
 20
20.15000009536743
 30
0.0000000000000000
 40
5.300000190734863
 41
0.0000000000000000
 71
     1
 72
     1
  1
{\H0.90x;{2129}}
 11
1.000000000000000
 21
0.0000000000000000
 31
0.0000000000000000
  7
STANDARD
  0
MTEXT
  5
461
100
AcDbEntity
  8
WAKU0
  6
CONTINUOUS
 62
3
100
AcDbMText
 10
362.3000000834465
 20
20.15000009536743
 30
0.0000000000000000
 40
5.300000190734863
 41
0.0000000000000000
 71
     1
 72
     1
  1
{\H0.87x;{37}}
 11
1.000000000000000
 21
0.0000000000000000
 31
0.0000000000000000
  7
STANDARD
  0
MTEXT
  5
462
100
AcDbEntity
  8
WAKU0
  6
CONTINUOUS
 62
3
100
AcDbMText
 10
345.5000001192093
 20
20.15000009536743
 30
0.0000000000000000
 40
5.300000190734863
 41
0.0000000000000000
 71
     1
 72
     1
  1
{\H0.89x;{61E}}
 11
1.000000000000000
 21
0.0000000000000000
 31
0.0000000000000000
  7
STANDARD
  0
MTEXT
  5
463
100
AcDbEntity
  8
WAKU0
  6
CONTINUOUS
 62
3
100
AcDbMText
 10
400.0000000476837
 20
20.15000009536743
 30
0.0000000000000000
 40
5.300000190734863
 41
0.0000000000000000
 71
     1
 72
     1
  1
{\H0.81x;{1}}
 11
1.000000000000000
 21
0.0000000000000000
 31
0.0000000000000000
  7
STANDARD
  0
MTEXT
  5
464
100
AcDbEntity
  8
WAKU0
  6
CONTINUOUS
 62
3
100
AcDbMText
 10
289.3850002884865
 20
33.00000000000000
 30
0.0000000000000000
 40
3.000000000000000
 41
0.0000000000000000
 71
     7
 72
     1
  1
{\H0.93x;{DRAWN BY}}
 11
1.000000000000000
 21
0.0000000000000000
 31
0.0000000000000000
  7
STANDARD
  0
MTEXT
  5
465
100
AcDbEntity
  8
WAKU0
  6
CONTINUOUS
 62
3
100
AcDbMText
 10
269.2149997949600
 20
32.95000004768372
 30
0.0000000000000000
 40
3.099999904632568
 41
0.0000000000000000
 71
     7
 72
     1
  1
{\H0.92x;{CHIEF}}
 11
1.000000000000000
 21
0.0000000000000000
 31
0.0000000000000000
  7
STANDARD
  0
MTEXT
  5
466
100
AcDbEntity
  8
WAKU0
  6
CONTINUOUS
 62
3
100
AcDbMText
 10
242.4249997138977
 20
32.95000004768372
 30
0.0000000000000000
 40
3.099999904632568
 41
0.0000000000000000
 71
     7
 72
     1
  1
{\H0.92x;{MANAGER}}
 11
1.000000000000000
 21
0.0000000000000000
 31
0.0000000000000000
  7
STANDARD
  0
MTEXT
  5
467
100
AcDbEntity
  8
WAKU0
  6
CONTINUOUS
 62
3
100
AcDbMText
 10
244.6599994301796
 20
18.13333336512248
 30
0.0000000000000000
 40
3.099999904632568
 41
0.0000000000000000
 71
     7
 72
     1
  1
{\H0.93x;{KITAGAWA IRON\PWORKS CO.,LTD.}}
 11
1.000000000000000
 21
0.0000000000000000
 31
0.0000000000000000
  7
STANDARD
  0
MTEXT
  5
468
100
AcDbEntity
  8
WAKU0
  6
CONTINUOUS
 62
3
100
AcDbMText
 10
241.0850002169609
 20
46.50000000000000
 30
0.0000000000000000
 40
3.000000000000000
 41
0.0000000000000000
 71
     7
 72
     1
  1
{\H0.92x;{CAREER}}
 11
1.000000000000000
 21
0.0000000000000000
 31
0.0000000000000000
  7
STANDARD
  0
MTEXT
  5
469
100
AcDbEntity
  8
WAKU0
  6
CONTINUOUS
 62
3
100
AcDbMText
 10
294.6099998354912
 20
18.95000004768372
 30
0.0000000000000000
 40
3.099999904632568
 41
0.0000000000000000
 71
     7
 72
     1
  1
{\H0.91x;{DATE}}
 11
1.000000000000000
 21
0.0000000000000000
 31
0.0000000000000000
  7
STANDARD
  0
MTEXT
  5
46A
100
AcDbEntity
  8
WAKU0
  6
CONTINUOUS
 62
3
100
AcDbMText
 10
313.9000002145767
 20
26.50000000000000
 30
0.0000000000000000
 40
3.000000000000000
 41
0.0000000000000000
 71
     7
 72
     1
  1
{\H0.63x;{3RD ANGLE}}
 11
1.000000000000000
 21
0.0000000000000000
 31
0.0000000000000000
  7
STANDARD
  0
MTEXT
  5
46B
100
AcDbEntity
  8
WAKU0
  6
CONTINUOUS
 62
3
100
AcDbMText
 10
315.2149997949600
 20
45.95000004768372
 30
0.0000000000000000
 40
3.099999904632568
 41
0.0000000000000000
 71
     7
 72
     1
  1
{\H0.92x;{SCALE}}
 11
1.000000000000000
 21
0.0000000000000000
 31
0.0000000000000000
  7
STANDARD
  0
MTEXT
  5
46C
100
AcDbEntity
  8
WAKU0
  6
CONTINUOUS
 62
3
100
AcDbMText
 10
405.7000000476837
 20
46.00000000000000
 30
0.0000000000000000
 40
3.000000000000000
 41
0.0000000000000000
 71
     7
 72
     1
  1
{\H0.63x;{kg}}
 11
1.000000000000000
 21
0.0000000000000000
 31
0.0000000000000000
  7
STANDARD
  0
MTEXT
  5
46D
100
AcDbEntity
  8
WAKU0
  6
CONTINUOUS
 62
3
100
AcDbMText
 10
375.6000001430512
 20
46.00000000000000
 30
0.0000000000000000
 40
3.000000000000000
 41
0.0000000000000000
 71
     7
 72
     1
  1
{\H0.63x;{WEIGHT}}
 11
1.000000000000000
 21
0.0000000000000000
 31
0.0000000000000000
  7
STANDARD
  0
MTEXT
  5
46E
100
AcDbEntity
  8
WAKU0
  6
CONTINUOUS
 62
3
100
AcDbMText
 10
334.0049998760223
 20
18.13333336512248
 30
0.0000000000000000
 40
3.099999904632568
 41
0.0000000000000000
 71
     7
 72
     1
  1
{\H0.90x;{DRW\PNO.}}
 11
1.000000000000000
 21
0.0000000000000000
 31
0.0000000000000000
  7
STANDARD
  0
MTEXT
  5
46F
100
AcDbEntity
  8
WAKU0
  6
CONTINUOUS
 62
3
100
AcDbMText
 10
332.6099998354912
 20
31.95000004768372
 30
0.0000000000000000
 40
3.099999904632568
 41
0.0000000000000000
 71
     7
 72
     1
  1
{\H0.91x;{NAME}}
 11
1.000000000000000
 21
0.0000000000000000
 31
0.0000000000000000
  7
STANDARD
  0
MTEXT
  5
470
100
AcDbEntity
  8
WAKU0
  6
CONTINUOUS
 62
3
100
AcDbMText
 10
332.6099998354912
 20
45.95000004768372
 30
0.0000000000000000
 40
3.099999904632568
 41
0.0000000000000000
 71
     7
 72
     1
  1
{\H0.91x;{TYPE}}
 11
1.000000000000000
 21
0.0000000000000000
 31
0.0000000000000000
  7
STANDARD
  0
LINE
  5
471
100
AcDbEntity
  8
WAKU0
  6
HIDDEN
 62
3
100
AcDbLine
 10
407.1599564743885
 20
13.84999990463257
 30
0.0000000000000000
 11
396.9400436209789
 21
13.84999990463257
 31
0.0000000000000000
  0
LINE
  5
472
100
AcDbEntity
  8
WAKU0
  6
HIDDEN
 62
3
100
AcDbLine
 10
407.1599564743885
 20
13.84999990463250
 30
0.0000000000000000
 11
402.0500000476852
 21
22.70070406014901
 31
0.0000000000000000
  0
LINE
  5
473
100
AcDbEntity
  8
WAKU0
  6
HIDDEN
 62
3
100
AcDbLine
 10
402.0500000476852
 20
22.70070406014902
 30
0.0000000000000000
 11
396.9400436209789
 21
13.84999990463248
 31
0.0000000000000000
  0
LINE
  5
474
100
AcDbEntity
  8
WAKU0
  6
CONTINUOUS
 62
3
100
AcDbLine
 10
330.4713877753800
 20
15.78041421262812
 30
0.0000000000000000
 11
330.4713877753800
 21
21.78041421262815
 31
0.0000000000000000
  0
LINE
  5
475
100
AcDbEntity
  8
WAKU0
  6
CONTINUOUS
 62
3
100
AcDbLine
 10
323.9336941228225
 20
17.28041421262811
 30
0.0000000000000000
 11
323.9336941228225
 21
20.28041421262824
 31
0.0000000000000000
  0
LINE
  5
476
100
AcDbEntity
  8
WAKU0
  6
CENTER
 62
12
100
AcDbLine
 10
313.4321805514995
 20
18.78041421262813
 30
0.0000000000000000
 11
331.2765788964694
 21
18.78041421262813
 31
0.0000000000000000
  0
LINE
  5
477
100
AcDbEntity
  8
WAKU0
  6
CENTER
 62
12
100
AcDbLine
 10
317.4474565857986
 20
14.55921662918448
 30
0.0000000000000000
 11
317.4474565857986
 21
22.89865102149943
 31
0.0000000000000000
  0
LINE
  5
478
100
AcDbEntity
  8
WAKU0
  6
CONTINUOUS
 62
3
100
AcDbLine
 10
323.9336941228225
 20
20.28041421262797
 30
0.0000000000000000
 11
330.4713877753800
 21
21.78041421262795
 31
0.0000000000000000
  0
LINE
  5
479
100
AcDbEntity
  8
WAKU0
  6
CONTINUOUS
 62
3
100
AcDbLine
 10
323.9336941228225
 20
17.28041421262811
 30
0.0000000000000000
 11
330.4713877753799
 21
15.78041421262812
 31
0.0000000000000000
  0
CIRCLE
  5
47A
100
AcDbEntity
  8
WAKU0
  6
CONTINUOUS
 62
3
100
AcDbCircle
 10
317.4474565857986
 20
18.78041421262813
 30
0.0000000000000000
 40
1.499999999999972
  0
CIRCLE
  5
47B
100
AcDbEntity
  8
WAKU0
  6
CONTINUOUS
 62
3
100
AcDbCircle
 10
317.4474565857986
 20
18.78041421262813
 30
0.0000000000000000
 40
2.999999999999979
  0
MTEXT
  5
47C
100
AcDbEntity
  8
NOTE0
  6
CONTINUOUS
 62
3
100
AcDbMText
 10
68.99357234910140
 20
655.3633197295789
 30
0.0000000000000000
 40
7.749999761581421
 41
0.0000000000000000
 71
     1
 72
     1
  1
{\H0.89x;{仕様}}
 11
1.000000000000000
 21
0.0000000000000000
 31
0.0000000000000000
  7
KNJYOKO
  0
LINE
  5
47D
100
AcDbEntity
  8
NOTE0
  6
CONTINUOUS
 62
3
100
AcDbLine
 10
70.93413433413123
 20
632.8849303868921
 30
0.0000000000000000
 11
262.2544773136563
 21
632.8849303869383
 31
0.0000000000000000
  0
MTEXT
  5
47E
100
AcDbEntity
  8
NOTE0
  6
CONTINUOUS
 62
3
100
AcDbMText
 10
79.16640636186112
 20
640.8626154769878
 30
0.0000000000000000
 40
7.500000000000000
 41
0.0000000000000000
 71
     1
 72
     1
  1
{\H0.93x;{センタ高さ　}}
 11
1.000000000000000
 21
0.0000000000000000
 31
0.0000000000000000
  7
KNJYOKO
  0
MTEXT
  5
47F
100
AcDbEntity
  8
NOTE0
  6
CONTINUOUS
 62
3
100
AcDbMText
 10
79.16640636191114
 20
628.6126164306621
 30
0.0000000000000000
 40
7.750000953674316
 41
0.0000000000000000
 71
     1
 72
     1
  1
{\H0.94x;{ストローク　　　}}
 11
1.000000000000000
 21
0.0000000000000000
 31
0.0000000000000000
  7
KNJYOKO
  0
LINE
  5
480
100
AcDbEntity
  8
NOTE0
  6
CONTINUOUS
 62
3
100
AcDbLine
 10
70.63592942732140
 20
620.3849303868923
 30
0.0000000000000000
 11
262.2544773136593
 21
620.3849303869384
 31
0.0000000000000000
  0
MTEXT
  5
481
100
AcDbEntity
  8
NOTE0
  6
CONTINUOUS
 62
3
100
AcDbMText
 10
79.16640636196117
 20
616.1126152385692
 30
0.0000000000000000
 40
7.749999761581421
 41
0.0000000000000000
 71
     1
 72
     1
  1
{\H0.91x;{センタ}}
 11
1.000000000000000
 21
0.0000000000000000
 31
0.0000000000000000
  7
KNJYOKO
  0
LINE
  5
482
100
AcDbEntity
  8
NOTE0
  6
CONTINUOUS
 62
3
100
AcDbLine
 10
70.63592942742120
 20
567.0515970535587
 30
0.0000000000000000
 11
262.2544773136721
 21
567.0515970536046
 31
0.0000000000000000
  0
MTEXT
  5
483
100
AcDbEntity
  8
NOTE0
  6
CONTINUOUS
 62
3
100
AcDbMText
 10
79.16640636206121
 20
562.7792819052363
 30
0.0000000000000000
 40
7.749999761581421
 41
0.0000000000000000
 71
     1
 72
     1
  1
{\H0.93x;{超硬チップ径}}
 11
1.000000000000000
 21
0.0000000000000000
 31
0.0000000000000000
  7
KNJYOKO
  0
MTEXT
  5
484
100
AcDbEntity
  8
NOTE0
  6
CONTINUOUS
 62
3
100
AcDbMText
 10
219.4164063620612
 20
562.7792819052363
 30
0.0000000000000000
 40
7.749999761581421
 41
0.0000000000000000
 71
     1
 72
     1
  1
{\H0.90x;{\U+220514}}
 11
1.000000000000000
 21
0.0000000000000000
 31
0.0000000000000000
  7
STANDARD
  0
MTEXT
  5
485
100
AcDbEntity
  8
NOTE0
  6
CONTINUOUS
 62
3
100
AcDbMText
 10
219.4164063618611
 20
641.1126152385692
 30
0.0000000000000000
 40
7.749999761581421
 41
0.0000000000000000
 71
     1
 72
     1
  1
{\H0.90x;{255}}
 11
1.000000000000000
 21
0.0000000000000000
 31
0.0000000000000000
  7
STANDARD
  0
MTEXT
  5
486
100
AcDbEntity
  8
NOTE0
  6
CONTINUOUS
 62
3
100
AcDbMText
 10
219.4164063619111
 20
628.6126152385692
 30
0.0000000000000000
 40
7.749999761581421
 41
0.0000000000000000
 71
     1
 72
     1
  1
{\H0.90x;{ 70}}
 11
1.000000000000000
 21
0.0000000000000000
 31
0.0000000000000000
  7
STANDARD
  0
MTEXT
  5
487
100
AcDbEntity
  8
NOTE0
  6
CONTINUOUS
 62
3
100
AcDbMText
 10
246.0744057458045
 20
641.1126152385692
 30
0.0000000000000000
 40
7.749999761581421
 41
0.0000000000000000
 71
     1
 72
     1
  1
{\H0.88x;{mm}}
 11
1.000000000000000
 21
0.0000000000000000
 31
0.0000000000000000
  7
STANDARD
  0
MTEXT
  5
488
100
AcDbEntity
  8
NOTE0
  6
CONTINUOUS
 62
3
100
AcDbMText
 10
246.0744057458546
 20
628.6126152385692
 30
0.0000000000000000
 40
7.749999761581421
 41
0.0000000000000000
 71
     1
 72
     1
  1
{\H0.88x;{mm}}
 11
1.000000000000000
 21
0.0000000000000000
 31
0.0000000000000000
  7
STANDARD
  0
LINE
  5
489
100
AcDbEntity
  8
NOTE0
  6
CONTINUOUS
 62
3
100
AcDbLine
 10
70.63592942747172
 20
554.5515970535587
 30
0.0000000000000000
 11
262.2544773136750
 21
554.5515970536046
 31
0.0000000000000000
  0
MTEXT
  5
48A
100
AcDbEntity
  8
NOTE0
  6
CONTINUOUS
 62
3
100
AcDbMText
 10
246.0744057460046
 20
562.7792819052363
 30
0.0000000000000000
 40
7.749999761581421
 41
0.0000000000000000
 71
     1
 72
     1
  1
{\H0.88x;{mm}}
 11
1.000000000000000
 21
0.0000000000000000
 31
0.0000000000000000
  7
STANDARD
  0
LINE
  5
48B
100
AcDbEntity
  8
NOTE0
  6
CONTINUOUS
 62
3
100
AcDbLine
 10
66.84292059771299
 20
645.0750926560677
 30
0.0000000000000000
 11
191.7096170510868
 21
645.0750926559292
 31
0.0000000000000000
  0
MTEXT
  5
48C
100
AcDbEntity
  8
NOTE0
  6
CONTINUOUS
 62
3
100
AcDbMText
 10
98.99357234910140
 20
655.3633197295789
 30
0.0000000000000000
 40
7.749999761581421
 41
0.0000000000000000
 71
     1
 72
     1
  1
{\H0.93x;{SPECIFICATION}}
 11
1.000000000000000
 21
0.0000000000000000
 31
0.0000000000000000
  7
STANDARD
  0
LINE
  5
48D
100
AcDbEntity
  8
NOTE0
  6
CONTINUOUS
 62
3
100
AcDbLine
 10
66.84292059771289
 20
645.0750926560677
 30
0.0000000000000000
 11
66.84292059770050
 21
658.0750926560675
 31
0.0000000000000000
  0
LINE
  5
48E
100
AcDbEntity
  8
NOTE0
  6
CONTINUOUS
 62
3
100
AcDbLine
 10
66.84292059770081
 20
658.0750926560675
 30
0.0000000000000000
 11
191.7096170510870
 21
658.0750926559290
 31
0.0000000000000000
  0
LINE
  5
48F
100
AcDbEntity
  8
NOTE0
  6
CONTINUOUS
 62
3
100
AcDbLine
 10
191.7096170510868
 20
645.0750926559293
 30
0.0000000000000000
 11
191.7096170510868
 21
658.0750926559292
 31
0.0000000000000000
  0
MTEXT
  5
490
100
AcDbEntity
  8
NOTE0
  6
CONTINUOUS
 62
3
100
AcDbMText
 10
129.1664063618611
 20
640.8626154769878
 30
0.0000000000000000
 40
7.500000000000000
 41
0.0000000000000000
 71
     1
 72
     1
  1
{\H0.63x;{CENTER HEIGHT}}
 11
1.000000000000000
 21
0.0000000000000000
 31
0.0000000000000000
  7
STANDARD
  0
MTEXT
  5
491
100
AcDbEntity
  8
NOTE0
  6
CONTINUOUS
 62
3
100
AcDbMText
 10
129.1664063619111
 20
628.3626154769878
 30
0.0000000000000000
 40
7.500000000000000
 41
0.0000000000000000
 71
     1
 72
     1
  1
{\H0.63x;{STROKE}}
 11
1.000000000000000
 21
0.0000000000000000
 31
0.0000000000000000
  7
STANDARD
  0
MTEXT
  5
492
100
AcDbEntity
  8
NOTE0
  6
CONTINUOUS
 62
3
100
AcDbMText
 10
79.16640636201119
 20
590.8626154769879
 30
0.0000000000000000
 40
7.500000000000000
 41
0.0000000000000000
 71
     1
 72
     1
  1
{\H0.63x;{CENTER}}
 11
1.000000000000000
 21
0.0000000000000000
 31
0.0000000000000000
  7
STANDARD
  0
MTEXT
  5
493
100
AcDbEntity
  8
NOTE0
  6
CONTINUOUS
 62
3
100
AcDbMText
 10
160.4164063620112
 20
578.3626154769884
 30
0.0000000000000000
 40
7.500000000000000
 41
0.0000000000000000
 71
     1
 72
     1
  1
{\H0.63x;{(DETACHABLE)}}
 11
1.000000000000000
 21
0.0000000000000000
 31
0.0000000000000000
  7
STANDARD
  0
MTEXT
  5
494
100
AcDbEntity
  8
NOTE0
  6
CONTINUOUS
 62
3
100
AcDbMText
 10
139.1664063620612
 20
562.5292821436549
 30
0.0000000000000000
 40
7.500000000000000
 41
0.0000000000000000
 71
     1
 72
     1
  1
{\H0.61x;{CARBIDE CHIP DIA.}}
 11
1.000000000000000
 21
0.0000000000000000
 31
0.0000000000000000
  7
STANDARD
  0
MTEXT
  5
495
100
AcDbEntity
  8
NOTE0
  6
CONTINUOUS
 62
3
100
AcDbMText
 10
129.1664063620142
 20
590.8626154769900
 30
0.0000000000000000
 40
7.500000000000000
 41
0.0000000000000000
 71
     1
 72
     1
  1
{\H0.63x;{CENTER W/CARBIDE CHIP MT-4}}
 11
1.000000000000000
 21
0.0000000000000000
 31
0.0000000000000000
  7
STANDARD
  0
MTEXT
  5
496
100
AcDbEntity
  8
NOTE0
  6
CONTINUOUS
 62
3
100
AcDbMText
 10
129.1664063619612
 20
616.1126152385692
 30
0.0000000000000000
 40
7.749999761581421
 41
0.0000000000000000
 71
     1
 72
     1
  1
{\H0.70x;{超硬センタ MT-4}}
 11
1.000000000000000
 21
0.0000000000000000
 31
0.0000000000000000
  7
KNJYOKO
  0
MTEXT
  5
497
100
AcDbEntity
  8
NOTE0
  6
CONTINUOUS
 62
3
100
AcDbMText
 10
129.1664063620112
 20
603.6126152385692
 30
0.0000000000000000
 40
7.749999761581421
 41
0.0000000000000000
 71
     1
 72
     1
  1
{\H0.70x;{（着脱式）}}
 11
1.000000000000000
 21
0.0000000000000000
 31
0.0000000000000000
  7
KNJYOKO
  0
LINE
  5
498
100
AcDbEntity
  8
NOTE0
  6
CONTINUOUS
 62
3
100
AcDbLine
 10
70.63592942737137
 20
607.8849303868923
 30
0.0000000000000000
 11
262.2544773137093
 21
607.8849303869384
 31
0.0000000000000000
  0
LINE
  5
499
100
AcDbEntity
  8
NOTE0
  6
CONTINUOUS
 62
3
100
AcDbLine
 10
70.63592942742143
 20
595.3849303868923
 30
0.0000000000000000
 11
262.2544773137593
 21
595.3849303869384
 31
0.0000000000000000
  0
LINE
  5
49A
100
AcDbEntity
  8
NOTE0
  6
CONTINUOUS
 62
3
100
AcDbLine
 10
70.63592942747140
 20
582.8849303868923
 30
0.0000000000000000
 11
262.2544773138093
 21
582.8849303869384
 31
0.0000000000000000
  0
MTEXT
  5
49B
100
AcDbEntity
  8
NOTE0
  6
CONTINUOUS
 62
3
100
AcDbMText
 10
79.16640636206422
 20
550.2792819052363
 30
0.0000000000000000
 40
7.749999761581421
 41
0.0000000000000000
 71
     1
 72
     1
  1
{\H0.92x;{製品重量}}
 11
1.000000000000000
 21
0.0000000000000000
 31
0.0000000000000000
  7
KNJYOKO
  0
LINE
  5
49C
100
AcDbEntity
  8
NOTE0
  6
CONTINUOUS
 62
3
100
AcDbLine
 10
70.63592942747474
 20
542.0515970535588
 30
0.0000000000000000
 11
262.2544773136781
 21
542.0515970536050
 31
0.0000000000000000
  0
MTEXT
  5
49D
100
AcDbEntity
  8
NOTE0
  6
CONTINUOUS
 62
3
100
AcDbMText
 10
139.1664063620612
 20
550.1248191616735
 30
0.0000000000000000
 40
7.500000000000000
 41
0.0000000000000000
 71
     1
 72
     1
  1
{\H0.62x;{MASS OF TAILSTOCK   ６７ kg}}
 11
1.000000000000000
 21
0.0000000000000000
 31
0.0000000000000000
  7
KNJYOKO
  0
ENDSEC
  0
SECTION
  2
OBJECTS
  0
DICTIONARY
  5
4EA
100
AcDbDictionary
  3
ACAD_GROUP
350
4EB
  3
ACAD_MLINESTYLE
350
4EC
  3
DWGPROPS
350
4ED
  0
DICTIONARY
  5
4EB
102
{ACAD_REACTORS
330
4EA
102
}
100
AcDbDictionary
  0
DICTIONARY
  5
4EC
102
{ACAD_REACTORS
330
4EA
102
}
100
AcDbDictionary
  3
STANDARD
350
4EE
  0
MLINESTYLE
  5
4EE
102
{ACAD_REACTORS
330
4EC
102
}
100
AcDbMlineStyle
  2
STANDARD
 70
     0
  3

 62
   256
 51
90.00
 52
90.00
 71
     2
 49
0.50
 62
   256
  6
BYLAYER
 49
-0.50
 62
   256
  6
BYLAYER
  0
XRECORD
  5
4ED
102
{ACAD_REACTORS
330
4EA
102
}
100
AcDbXrecord
280
     1
  1
DWGPROPS COOKIE
  2
テールストック　ガイケイ
  3

  4

  6
ＮＣテーブル
  7

  8

  9

300
=
301
=
302
=
303
=
304
=
305
=
306
=
307
=
308
=
309
=
 40
0.000000
 41
0.000000
 42
0.000000
  1

 90
        0
  0
ENDSEC
  0
EOF
