  0
SECTION
  2
HEADER
  9
$ACADVER
  1
AC1014
  9
$DWGCODEPAGE
  3
ANSI_932
  9
$LTSCALE
 40
20.0
  9
$FILLMODE
 70
     1
  9
$CLAYER
  8
0
  9
$PDMODE
 70
     0
  9
$SPLFRAME
 70
     0
  9
$SPLINETYPE
 70
     6
  9
$SPLINESEGS
 70
     8
  9
$DIMASZ
 40
2.000000
  9
$DIMEXE
 40
2.000000
  9
$DIMEXO
 40
0.800000
  9
$DIMTAD
 70
     1
  9
$DIMTIH
 70
     0
  9
$DIMTOH
 70
     0
  9
$DIMTVP
 40
0.500000
  9
$DIMTXT
 40
3.100000
  9
$EXTMIN
 10
0.000000
 20
0.000000
 30
0.000000
  9
$EXTMAX
 10
297.000000
 20
420.000000
 30
0.000000
  9
$MEASUREMENT
 70
  1
  9
$LIMMIN
 10
0.000000
 20
0.000000
  9
$LIMMAX
 10
297.000000
 20
420.000000
  9
$HANDLING
 70
     1
  9
$HANDSEED
  5
61C
  9
$DIMBLK
  1
_OPEN
  9
$DIMDEC
 70
     3
  9
$DIMAUNIT
 70
     1
  9
$DIMZIN
 70
     8
  9
$DIMTOFL
 70
     1
  0
ENDSEC
  0
SECTION
  2
CLASSES
  0
ENDSEC
  0
SECTION
  2
TABLES
  0
TABLE
  2
VPORT
  5
5B7
100
AcDbSymbolTable
 70
     1
  0
VPORT
  5
5B8
100
AcDbSymbolTableRecord
100
AcDbViewportTableRecord
  2
*ACTIVE
 70
     0
 12
840.000000
 22
849.982417
 40
1801.742856
 41
0.932431
  0
ENDTAB
  0
TABLE
  2
LTYPE
  5
5B9
100
AcDbSymbolTable
 70
     4
  0
LTYPE
  5
5BA
100
AcDbSymbolTableRecord
100
AcDbLinetypeTableRecord
  2
BYBLOCK
 70
     0
  3

 72
    65
 73
     0
 40
0.0
  0
LTYPE
  5
5BB
100
AcDbSymbolTableRecord
100
AcDbLinetypeTableRecord
  2
BYLAYER
 70
     0
  3

 72
    65
 73
     0
 40
0.0
  0
LTYPE
  5
5BC
100
AcDbSymbolTableRecord
100
AcDbLinetypeTableRecord
  2
CONTINUOUS
 70
     0
  3
Solid line (NEC CAE2D for Win R12.1 : 2016.08.08)
 72
    65
 73
     0
 40
0.0
  0
LTYPE
  5
5BD
100
AcDbSymbolTableRecord
100
AcDbLinetypeTableRecord
  2
HIDDEN
 70
     0
  3
__ __ __ __ __ __ __ __ __ __ __ __ __ __
 72
    65
 73
     2
 40
0.375
 49
0.25
 74
     0
 49
-0.125
 74
     0
  0
LTYPE
  5
5BE
100
AcDbSymbolTableRecord
100
AcDbLinetypeTableRecord
  2
CENTER
 70
     0
  3
____ _ ____ _ ____ _ ____ _ ____ _ ____
 72
    65
 73
     4
 40
2.0
 49
1.25
 74
     0
 49
-0.25
 74
     0
 49
0.25
 74
     0
 49
-0.25
 74
     0
  0
LTYPE
  5
5BF
100
AcDbSymbolTableRecord
100
AcDbLinetypeTableRecord
  2
PHANTOM
 70
     0
  3
______  __  __  ______  __  __  ______ 
 72
    65
 73
     6
 40
2.5
 49
1.25
 74
     0
 49
-0.25
 74
     0
 49
0.25
 74
     0
 49
-0.25
 74
     0
 49
0.25
 74
     0
 49
-0.25
 74
     0
  0
ENDTAB
  0
TABLE
  2
LAYER
  5
5C0
100
AcDbSymbolTable
 70
    10
  0
LAYER
  5
5C1
100
AcDbSymbolTableRecord
100
AcDbLayerTableRecord
  2
0
 70
     0
 62
     7
  6
CONTINUOUS
  0
LAYER
  5
5C2
100
AcDbSymbolTableRecord
100
AcDbLayerTableRecord
  2
MAIN0
 70
     0
 62
     7
  6
CONTINUOUS
  0
LAYER
  5
5C3
100
AcDbSymbolTableRecord
100
AcDbLayerTableRecord
  2
MAIN1
 70
     0
 62
     7
  6
CONTINUOUS
  0
LAYER
  5
5C4
100
AcDbSymbolTableRecord
100
AcDbLayerTableRecord
  2
MAIN3
 70
     0
 62
     7
  6
CONTINUOUS
  0
LAYER
  5
5C5
100
AcDbSymbolTableRecord
100
AcDbLayerTableRecord
  2
MAIN10
 70
     0
 62
     7
  6
CONTINUOUS
  0
LAYER
  5
5C6
100
AcDbSymbolTableRecord
100
AcDbLayerTableRecord
  2
MAIN1023
 70
     0
 62
    16
  6
CONTINUOUS
  0
LAYER
  5
5C7
100
AcDbSymbolTableRecord
100
AcDbLayerTableRecord
  2
WAKU0
 70
     0
 62
     7
  6
CONTINUOUS
  0
LAYER
  5
5C8
100
AcDbSymbolTableRecord
100
AcDbLayerTableRecord
  2
WAKU1023
 70
     0
 62
    16
  6
CONTINUOUS
  0
LAYER
  5
5C9
100
AcDbSymbolTableRecord
100
AcDbLayerTableRecord
  2
A0
 70
     0
 62
     7
  6
CONTINUOUS
  0
LAYER
  5
5CA
100
AcDbSymbolTableRecord
100
AcDbLayerTableRecord
  2
A1023
 70
     0
 62
    16
  6
CONTINUOUS
  0
ENDTAB
  0
TABLE
  2
STYLE
  5
5CB
100
AcDbSymbolTable
 70
     4
  0
STYLE
  5
5CC
100
AcDbSymbolTableRecord
100
AcDbTextStyleTableRecord
  2
STANDARD
 70
    64
 40
0.0
 41
1.0
 50
0.0
 71
     0
 42
7.749999761581421
  3
TXT
  4

  0
STYLE
  5
5CD
100
AcDbSymbolTableRecord
100
AcDbTextStyleTableRecord
  2
ANKTATE
 70
    68
 40
0.0
 41
1.0
 50
0.0
 71
     0
 42
7.749999761581421
  3
TXT
  4

  0
STYLE
  5
F8
100
AcDbSymbolTableRecord
100
AcDbTextStyleTableRecord
  2
KNJYOKO
 70
    64
 40
0.0
 41
1.0
 50
0.0
 71
     0
 42
7.749999761581421
  3
TXT
  4
BIGFONT
  0
STYLE
  5
5CE
100
AcDbSymbolTableRecord
100
AcDbTextStyleTableRecord
  2
KNJTATE
 70
    68
 40
0.0
 41
1.0
 50
0.0
 71
     0
 42
7.749999761581421
  3
TXT
  4
BIGFONT
  0
ENDTAB
  0
TABLE
  2
VIEW
  5
5CF
100
AcDbSymbolTable
 70
     0
  0
ENDTAB
  0
TABLE
  2
UCS
  5
5D0
100
AcDbSymbolTable
 70
     0
  0
ENDTAB
  0
TABLE
  2
APPID
  5
5D1
100
AcDbSymbolTable
 70
     1
  0
APPID
  5
5D2
100
AcDbSymbolTableRecord
100
AcDbRegAppTableRecord
  2
ACAD
 70
     0
  0
ENDTAB
  0
TABLE
  2
DIMSTYLE
  5
5D3
100
AcDbSymbolTable
 70
     1
  0
DIMSTYLE
105
5D4
100
AcDbSymbolTableRecord
100
AcDbDimStyleTableRecord
  2
STANDARD
 70
     0
 41
2.000000
 44
2.000000
 42
0.800000
145
0.661290
140
3.100000
144
1.000000
146
0.903226
340
5CC
  0
DIMSTYLE
105
5D5
100
AcDbSymbolTableRecord
100
AcDbDimStyleTableRecord
  2
MAIN001
 70
     0
 41
8.000000
 44
8.000000
 42
3.200000
145
0.540323
140
12.400000
144
1.000000
146
0.903226
 77
     1
 73
     0
 74
     0
271
     3
275
     1
 78
     8
172
     1
340
5CC
  0
DIMSTYLE
105
5D6
100
AcDbSymbolTableRecord
100
AcDbDimStyleTableRecord
  2
WAKU002
 70
     0
 41
2.000000
 44
2.000000
 42
0.800000
145
0.661290
140
3.100000
144
1.000000
146
0.903226
 77
     1
 73
     0
 74
     0
271
     3
275
     1
 78
     8
172
     1
340
5CC
  0
DIMSTYLE
105
5D7
100
AcDbSymbolTableRecord
100
AcDbDimStyleTableRecord
  2
A003
 70
     0
 41
5.000000
 44
5.000000
 42
2.000000
145
0.564516
140
7.750000
144
1.000000
146
0.903226
 77
     1
 73
     0
 74
     0
271
     3
275
     1
 78
     8
172
     1
340
5CC
  0
ENDTAB
  0
TABLE
  2
BLOCK_RECORD
  5
5D8
100
AcDbSymbolTable
 70
    68
  0
BLOCK_RECORD
  5
5D9
100
AcDbSymbolTableRecord
100
AcDbBlockTableRecord
  2
*MODEL_SPACE
  0
BLOCK_RECORD
  5
5DA
100
AcDbSymbolTableRecord
100
AcDbBlockTableRecord
  2
*PAPER_SPACE
  0
BLOCK_RECORD
  5
1
100
AcDbSymbolTableRecord
100
AcDbBlockTableRecord
  2
_NONE
  0
BLOCK_RECORD
  5
4
100
AcDbSymbolTableRecord
100
AcDbBlockTableRecord
  2
_CLOSED
  0
BLOCK_RECORD
  5
B
100
AcDbSymbolTableRecord
100
AcDbBlockTableRecord
  2
_DOT
  0
BLOCK_RECORD
  5
13
100
AcDbSymbolTableRecord
100
AcDbBlockTableRecord
  2
_OPEN
  0
BLOCK_RECORD
  5
19
100
AcDbSymbolTableRecord
100
AcDbBlockTableRecord
  2
_ORIGIN
  0
BLOCK_RECORD
  5
1E
100
AcDbSymbolTableRecord
100
AcDbBlockTableRecord
  2
_OPEN30
  0
BLOCK_RECORD
  5
24
100
AcDbSymbolTableRecord
100
AcDbBlockTableRecord
  2
_BOXFILLED
  0
BLOCK_RECORD
  5
29
100
AcDbSymbolTableRecord
100
AcDbBlockTableRecord
  2
_BOXBLANK
  0
BLOCK_RECORD
  5
31
100
AcDbSymbolTableRecord
100
AcDbBlockTableRecord
  2
_OBLIQUE
  0
BLOCK_RECORD
  5
35
100
AcDbSymbolTableRecord
100
AcDbBlockTableRecord
  2
_OPEN90
  0
BLOCK_RECORD
  5
3B
100
AcDbSymbolTableRecord
100
AcDbBlockTableRecord
  2
_CLOSEDBLANK
  0
BLOCK_RECORD
  5
41
100
AcDbSymbolTableRecord
100
AcDbBlockTableRecord
  2
_DOTBLANK
  0
BLOCK_RECORD
  5
5DB
100
AcDbSymbolTableRecord
100
AcDbBlockTableRecord
  2
*D0
  0
BLOCK_RECORD
  5
5DC
100
AcDbSymbolTableRecord
100
AcDbBlockTableRecord
  2
*D1
  0
BLOCK_RECORD
  5
5DD
100
AcDbSymbolTableRecord
100
AcDbBlockTableRecord
  2
*D2
  0
BLOCK_RECORD
  5
5DE
100
AcDbSymbolTableRecord
100
AcDbBlockTableRecord
  2
*D3
  0
BLOCK_RECORD
  5
5DF
100
AcDbSymbolTableRecord
100
AcDbBlockTableRecord
  2
*D4
  0
BLOCK_RECORD
  5
5E0
100
AcDbSymbolTableRecord
100
AcDbBlockTableRecord
  2
*D5
  0
BLOCK_RECORD
  5
5E1
100
AcDbSymbolTableRecord
100
AcDbBlockTableRecord
  2
*D6
  0
BLOCK_RECORD
  5
5E2
100
AcDbSymbolTableRecord
100
AcDbBlockTableRecord
  2
*D7
  0
BLOCK_RECORD
  5
5E3
100
AcDbSymbolTableRecord
100
AcDbBlockTableRecord
  2
*D8
  0
BLOCK_RECORD
  5
5E4
100
AcDbSymbolTableRecord
100
AcDbBlockTableRecord
  2
*D9
  0
BLOCK_RECORD
  5
5E5
100
AcDbSymbolTableRecord
100
AcDbBlockTableRecord
  2
*D10
  0
BLOCK_RECORD
  5
5E6
100
AcDbSymbolTableRecord
100
AcDbBlockTableRecord
  2
*D11
  0
BLOCK_RECORD
  5
5E7
100
AcDbSymbolTableRecord
100
AcDbBlockTableRecord
  2
*D12
  0
BLOCK_RECORD
  5
5E8
100
AcDbSymbolTableRecord
100
AcDbBlockTableRecord
  2
*D13
  0
BLOCK_RECORD
  5
5E9
100
AcDbSymbolTableRecord
100
AcDbBlockTableRecord
  2
*D14
  0
BLOCK_RECORD
  5
5EA
100
AcDbSymbolTableRecord
100
AcDbBlockTableRecord
  2
*D15
  0
BLOCK_RECORD
  5
5EB
100
AcDbSymbolTableRecord
100
AcDbBlockTableRecord
  2
*D16
  0
BLOCK_RECORD
  5
5EC
100
AcDbSymbolTableRecord
100
AcDbBlockTableRecord
  2
*D17
  0
BLOCK_RECORD
  5
5ED
100
AcDbSymbolTableRecord
100
AcDbBlockTableRecord
  2
*D18
  0
BLOCK_RECORD
  5
5EE
100
AcDbSymbolTableRecord
100
AcDbBlockTableRecord
  2
*D19
  0
BLOCK_RECORD
  5
5EF
100
AcDbSymbolTableRecord
100
AcDbBlockTableRecord
  2
*D20
  0
BLOCK_RECORD
  5
5F0
100
AcDbSymbolTableRecord
100
AcDbBlockTableRecord
  2
*D21
  0
BLOCK_RECORD
  5
5F1
100
AcDbSymbolTableRecord
100
AcDbBlockTableRecord
  2
*D22
  0
BLOCK_RECORD
  5
5F2
100
AcDbSymbolTableRecord
100
AcDbBlockTableRecord
  2
*D23
  0
BLOCK_RECORD
  5
5F3
100
AcDbSymbolTableRecord
100
AcDbBlockTableRecord
  2
*D24
  0
BLOCK_RECORD
  5
5F4
100
AcDbSymbolTableRecord
100
AcDbBlockTableRecord
  2
*D25
  0
BLOCK_RECORD
  5
5F5
100
AcDbSymbolTableRecord
100
AcDbBlockTableRecord
  2
*D26
  0
BLOCK_RECORD
  5
5F6
100
AcDbSymbolTableRecord
100
AcDbBlockTableRecord
  2
*D27
  0
BLOCK_RECORD
  5
5F7
100
AcDbSymbolTableRecord
100
AcDbBlockTableRecord
  2
*D28
  0
BLOCK_RECORD
  5
5F8
100
AcDbSymbolTableRecord
100
AcDbBlockTableRecord
  2
*D29
  0
BLOCK_RECORD
  5
5F9
100
AcDbSymbolTableRecord
100
AcDbBlockTableRecord
  2
*D30
  0
BLOCK_RECORD
  5
5FA
100
AcDbSymbolTableRecord
100
AcDbBlockTableRecord
  2
*D31
  0
BLOCK_RECORD
  5
5FB
100
AcDbSymbolTableRecord
100
AcDbBlockTableRecord
  2
*D32
  0
BLOCK_RECORD
  5
5FC
100
AcDbSymbolTableRecord
100
AcDbBlockTableRecord
  2
*D33
  0
BLOCK_RECORD
  5
5FD
100
AcDbSymbolTableRecord
100
AcDbBlockTableRecord
  2
*D34
  0
BLOCK_RECORD
  5
5FE
100
AcDbSymbolTableRecord
100
AcDbBlockTableRecord
  2
*D35
  0
BLOCK_RECORD
  5
5FF
100
AcDbSymbolTableRecord
100
AcDbBlockTableRecord
  2
*D36
  0
BLOCK_RECORD
  5
600
100
AcDbSymbolTableRecord
100
AcDbBlockTableRecord
  2
*D37
  0
BLOCK_RECORD
  5
601
100
AcDbSymbolTableRecord
100
AcDbBlockTableRecord
  2
*D38
  0
BLOCK_RECORD
  5
602
100
AcDbSymbolTableRecord
100
AcDbBlockTableRecord
  2
*D39
  0
BLOCK_RECORD
  5
603
100
AcDbSymbolTableRecord
100
AcDbBlockTableRecord
  2
*D40
  0
BLOCK_RECORD
  5
604
100
AcDbSymbolTableRecord
100
AcDbBlockTableRecord
  2
*D41
  0
BLOCK_RECORD
  5
605
100
AcDbSymbolTableRecord
100
AcDbBlockTableRecord
  2
*D42
  0
BLOCK_RECORD
  5
606
100
AcDbSymbolTableRecord
100
AcDbBlockTableRecord
  2
*D43
  0
BLOCK_RECORD
  5
607
100
AcDbSymbolTableRecord
100
AcDbBlockTableRecord
  2
*D44
  0
BLOCK_RECORD
  5
608
100
AcDbSymbolTableRecord
100
AcDbBlockTableRecord
  2
D45
  0
BLOCK_RECORD
  5
609
100
AcDbSymbolTableRecord
100
AcDbBlockTableRecord
  2
*D46
  0
BLOCK_RECORD
  5
60A
100
AcDbSymbolTableRecord
100
AcDbBlockTableRecord
  2
*D47
  0
BLOCK_RECORD
  5
60B
100
AcDbSymbolTableRecord
100
AcDbBlockTableRecord
  2
*D48
  0
BLOCK_RECORD
  5
60C
100
AcDbSymbolTableRecord
100
AcDbBlockTableRecord
  2
*D49
  0
BLOCK_RECORD
  5
60D
100
AcDbSymbolTableRecord
100
AcDbBlockTableRecord
  2
*D50
  0
BLOCK_RECORD
  5
60E
100
AcDbSymbolTableRecord
100
AcDbBlockTableRecord
  2
*D51
  0
BLOCK_RECORD
  5
60F
100
AcDbSymbolTableRecord
100
AcDbBlockTableRecord
  2
*D52
  0
BLOCK_RECORD
  5
610
100
AcDbSymbolTableRecord
100
AcDbBlockTableRecord
  2
*D53
  0
BLOCK_RECORD
  5
611
100
AcDbSymbolTableRecord
100
AcDbBlockTableRecord
  2
*D54
  0
BLOCK_RECORD
  5
612
100
AcDbSymbolTableRecord
100
AcDbBlockTableRecord
  2
*D55
  0
ENDTAB
  0
ENDSEC
  0
SECTION
  2
BLOCKS
  0
BLOCK
  5
613
100
AcDbEntity
  8
0
100
AcDbBlockBegin
  2
*MODEL_SPACE
 70
     0
 10
0.0
 20
0.0
 30
0.0
  3
*MODEL_SPACE
  1

  0
ENDBLK
  5
614
100
AcDbEntity
  8
0
100
AcDbBlockEnd
  0
BLOCK
  5
615
100
AcDbEntity
  8
0
100
AcDbBlockBegin
  2
*PAPER_SPACE
 70
     0
 10
0.0
 20
0.0
 30
0.0
  3
*PAPER_SPACE
  1

  0
ENDBLK
  5
616
100
AcDbEntity
  8
0
100
AcDbBlockEnd
  0
BLOCK
  5
2
100
AcDbEntity
  8
0
100
AcDbBlockBegin
  2
_NONE
 70
     0
 10
0.0
 20
0.0
 30
0.0
  3
_NONE
  1

  0
ENDBLK
  5
3
100
AcDbEntity
  8
0
100
AcDbBlockEnd
  0
BLOCK
  5
5
100
AcDbEntity
  8
0
100
AcDbBlockBegin
  2
_CLOSED
 70
     0
 10
0.0
 20
0.0
 30
0.0
  3
_CLOSED
  1

  0
LINE
  5
6
100
AcDbEntity
  8
0
  6
BYBLOCK
 62
     0
100
AcDbLine
 10
-1.0
 20
0.166667
 30
0.0
 11
0.0
 21
0.0
 31
0.0
  0
LINE
  5
7
100
AcDbEntity
  8
0
  6
BYBLOCK
 62
     0
100
AcDbLine
 10
0.0
 20
0.0
 30
0.0
 11
-1.0
 21
-0.166667
 31
0.0
  0
LINE
  5
8
100
AcDbEntity
  8
0
  6
BYBLOCK
 62
     0
100
AcDbLine
 10
-1.0
 20
0.166667
 30
0.0
 11
-1.0
 21
-0.166667
 31
0.0
  0
LINE
  5
9
100
AcDbEntity
  8
0
  6
BYBLOCK
 62
     0
100
AcDbLine
 10
0.0
 20
0.0
 30
0.0
 11
-1.0
 21
0.0
 31
0.0
  0
ENDBLK
  5
A
100
AcDbEntity
  8
0
100
AcDbBlockEnd
  0
BLOCK
  5
C
100
AcDbEntity
  8
0
100
AcDbBlockBegin
  2
_DOT
 70
     0
 10
0.0
 20
0.0
 30
0.0
  3
_DOT
  1

  0
POLYLINE
  5
D
100
AcDbEntity
  8
0
  6
BYBLOCK
 62
     0
100
AcDb2dPolyline
 66
     1
 10
0.0
 20
0.0
 30
0.0
 70
     1
 40
0.5
 41
0.5
  0
VERTEX
  5
E
100
AcDbEntity
  8
0
  6
BYBLOCK
 62
     0
100
AcDbVertex
100
AcDb2dVertex
 10
-0.25
 20
0.0
 30
0.0
 42
1.0
  0
VERTEX
  5
F
100
AcDbEntity
  8
0
  6
BYBLOCK
 62
     0
100
AcDbVertex
100
AcDb2dVertex
 10
0.25
 20
0.0
 30
0.0
 42
1.0
  0
SEQEND
  5
10
100
AcDbEntity
  8
0
  6
BYBLOCK
 62
     0
  0
LINE
  5
11
100
AcDbEntity
  8
0
  6
BYBLOCK
 62
     0
100
AcDbLine
 10
-0.5
 20
0.0
 30
0.0
 11
-1.0
 21
0.0
 31
0.0
  0
ENDBLK
  5
12
100
AcDbEntity
  8
0
100
AcDbBlockEnd
  0
BLOCK
  5
14
100
AcDbEntity
  8
0
100
AcDbBlockBegin
  2
_OPEN
 70
     0
 10
0.0
 20
0.0
 30
0.0
  3
_OPEN
  1

  0
LINE
  5
15
100
AcDbEntity
  8
0
  6
BYBLOCK
 62
     0
100
AcDbLine
 10
-1.0
 20
0.166667
 30
0.0
 11
0.0
 21
0.0
 31
0.0
  0
LINE
  5
16
100
AcDbEntity
  8
0
  6
BYBLOCK
 62
     0
100
AcDbLine
 10
0.0
 20
0.0
 30
0.0
 11
-1.0
 21
-0.166667
 31
0.0
  0
LINE
  5
17
100
AcDbEntity
  8
0
  6
BYBLOCK
 62
     0
100
AcDbLine
 10
0.0
 20
0.0
 30
0.0
 11
-1.0
 21
0.0
 31
0.0
  0
ENDBLK
  5
18
100
AcDbEntity
  8
0
100
AcDbBlockEnd
  0
BLOCK
  5
1A
100
AcDbEntity
  8
0
100
AcDbBlockBegin
  2
_ORIGIN
 70
     0
 10
0.0
 20
0.0
 30
0.0
  3
_ORIGIN
  1

  0
CIRCLE
  5
1B
100
AcDbEntity
  8
0
  6
BYBLOCK
 62
     0
100
AcDbCircle
 10
0.0
 20
0.0
 30
0.0
 40
0.5
  0
LINE
  5
1C
100
AcDbEntity
  8
0
  6
BYBLOCK
 62
     0
100
AcDbLine
 10
0.0
 20
0.0
 30
0.0
 11
-1.0
 21
0.0
 31
0.0
  0
ENDBLK
  5
1D
100
AcDbEntity
  8
0
100
AcDbBlockEnd
  0
BLOCK
  5
1F
100
AcDbEntity
  8
0
100
AcDbBlockBegin
  2
_OPEN30
 70
     0
 10
0.0
 20
0.0
 30
0.0
  3
_OPEN30
  1

  0
LINE
  5
20
100
AcDbEntity
  8
0
  6
BYBLOCK
 62
     0
100
AcDbLine
 10
-1.0
 20
0.267949
 30
0.0
 11
0.0
 21
0.0
 31
0.0
  0
LINE
  5
21
100
AcDbEntity
  8
0
  6
BYBLOCK
 62
     0
100
AcDbLine
 10
0.0
 20
0.0
 30
0.0
 11
-1.0
 21
-0.267949
 31
0.0
  0
LINE
  5
22
100
AcDbEntity
  8
0
  6
BYBLOCK
 62
     0
100
AcDbLine
 10
0.0
 20
0.0
 30
0.0
 11
-1.0
 21
0.0
 31
0.0
  0
ENDBLK
  5
23
100
AcDbEntity
  8
0
100
AcDbBlockEnd
  0
BLOCK
  5
25
100
AcDbEntity
  8
0
100
AcDbBlockBegin
  2
_BOXFILLED
 70
     0
 10
0.0
 20
0.0
 30
0.0
  3
_BOXFILLED
  1

  0
SOLID
  5
26
100
AcDbEntity
  8
0
  6
BYBLOCK
 62
     0
100
AcDbTrace
 10
-0.5
 20
0.5
 30
0.0
 11
0.5
 21
0.5
 31
0.0
 12
-0.5
 22
-0.5
 32
0.0
 13
0.5
 23
-0.5
 33
0.0
  0
LINE
  5
27
100
AcDbEntity
  8
0
  6
BYBLOCK
 62
     0
100
AcDbLine
 10
-0.5
 20
0.0
 30
0.0
 11
-1.0
 21
0.0
 31
0.0
  0
ENDBLK
  5
28
100
AcDbEntity
  8
0
100
AcDbBlockEnd
  0
BLOCK
  5
2A
100
AcDbEntity
  8
0
100
AcDbBlockBegin
  2
_BOXBLANK
 70
     0
 10
0.0
 20
0.0
 30
0.0
  3
_BOXBLANK
  1

  0
LINE
  5
2B
100
AcDbEntity
  8
0
  6
BYBLOCK
 62
     0
100
AcDbLine
 10
-0.5
 20
-0.5
 30
0.0
 11
0.5
 21
-0.5
 31
0.0
  0
LINE
  5
2C
100
AcDbEntity
  8
0
  6
BYBLOCK
 62
     0
100
AcDbLine
 10
0.5
 20
-0.5
 30
0.0
 11
0.5
 21
0.5
 31
0.0
  0
LINE
  5
2D
100
AcDbEntity
  8
0
  6
BYBLOCK
 62
     0
100
AcDbLine
 10
0.5
 20
0.5
 30
0.0
 11
-0.5
 21
0.5
 31
0.0
  0
LINE
  5
2E
100
AcDbEntity
  8
0
  6
BYBLOCK
 62
     0
100
AcDbLine
 10
-0.5
 20
0.5
 30
0.0
 11
-0.5
 21
-0.5
 31
0.0
  0
LINE
  5
2F
100
AcDbEntity
  8
0
  6
BYBLOCK
 62
     0
100
AcDbLine
 10
-0.5
 20
0.0
 30
0.0
 11
-1.0
 21
0.0
 31
0.0
  0
ENDBLK
  5
30
100
AcDbEntity
  8
0
100
AcDbBlockEnd
  0
BLOCK
  5
32
100
AcDbEntity
  8
0
100
AcDbBlockBegin
  2
_OBLIQUE
 70
     0
 10
0.0
 20
0.0
 30
0.0
  3
_OBLIQUE
  1

  0
LINE
  5
33
100
AcDbEntity
  8
0
  6
BYBLOCK
 62
     0
100
AcDbLine
 10
-0.5
 20
-0.5
 30
0.0
 11
0.5
 21
0.5
 31
0.0
  0
ENDBLK
  5
34
100
AcDbEntity
  8
0
100
AcDbBlockEnd
  0
BLOCK
  5
36
100
AcDbEntity
  8
0
100
AcDbBlockBegin
  2
_OPEN90
 70
     0
 10
0.0
 20
0.0
 30
0.0
  3
_OPEN90
  1

  0
LINE
  5
37
100
AcDbEntity
  8
0
  6
BYBLOCK
 62
     0
100
AcDbLine
 10
-0.5
 20
0.5
 30
0.0
 11
0.0
 21
0.0
 31
0.0
  0
LINE
  5
38
100
AcDbEntity
  8
0
  6
BYBLOCK
 62
     0
100
AcDbLine
 10
0.0
 20
0.0
 30
0.0
 11
-0.5
 21
-0.5
 31
0.0
  0
LINE
  5
39
100
AcDbEntity
  8
0
  6
BYBLOCK
 62
     0
100
AcDbLine
 10
0.0
 20
0.0
 30
0.0
 11
-1.0
 21
0.0
 31
0.0
  0
ENDBLK
  5
3A
100
AcDbEntity
  8
0
100
AcDbBlockEnd
  0
BLOCK
  5
3C
100
AcDbEntity
  8
0
100
AcDbBlockBegin
  2
_CLOSEDBLANK
 70
     0
 10
0.0
 20
0.0
 30
0.0
  3
_CLOSEDBLANK
  1

  0
LINE
  5
3D
100
AcDbEntity
  8
0
  6
BYBLOCK
 62
     0
100
AcDbLine
 10
-1.0
 20
0.1666666666666666
 30
0.0
 11
0.0
 21
0.0
 31
0.0
  0
LINE
  5
3E
100
AcDbEntity
  8
0
  6
BYBLOCK
 62
     0
100
AcDbLine
 10
0.0
 20
0.0
 30
0.0
 11
-1.0
 21
-0.1666666666666666
 31
0.0
  0
LINE
  5
3F
100
AcDbEntity
  8
0
  6
BYBLOCK
 62
     0
100
AcDbLine
 10
-1.0
 20
0.1666666666666666
 30
0.0
 11
-1.0
 21
-0.1666666666666666
 31
0.0
  0
ENDBLK
  5
40
100
AcDbEntity
  8
0
100
AcDbBlockEnd
  0
BLOCK
  5
42
100
AcDbEntity
  8
0
100
AcDbBlockBegin
  2
_DOTBLANK
 70
     0
 10
0.0
 20
0.0
 30
0.0
  3
_DOTBLANK
  1

  0
CIRCLE
  5
43
100
AcDbEntity
  8
0
  6
BYBLOCK
 62
     0
100
AcDbCircle
 10
0.0
 20
0.0
 30
0.0
 40
0.5
  0
LINE
  5
44
100
AcDbEntity
  8
0
  6
BYBLOCK
 62
     0
100
AcDbLine
 10
-0.5
 20
0.0
 30
0.0
 11
-1.0
 21
0.0
 31
0.0
  0
ENDBLK
  5
45
100
AcDbEntity
  8
0
100
AcDbBlockEnd
  0
BLOCK
  5
47
100
AcDbEntity
  8
MAIN0
  6
CONTINUOUS
 62
3
100
AcDbBlockBegin
  2
*D0
 70
    65
 10
0.0
 20
0.0
 30
0.0
  0
LINE
  5
48
100
AcDbEntity
  8
MAIN0
  6
BYBLOCK
 62
0
100
AcDbLine
 10
644.9985261630854
 20
405.0773818014454
 30
0.0000000000000000
 11
691.3941890734005
 21
405.0773818014454
 31
0.0000000000000000
  0
LINE
  5
49
100
AcDbEntity
  8
MAIN0
  6
BYBLOCK
 62
0
100
AcDbLine
 10
683.3941890734005
 20
405.0773818014454
 30
0.0000000000000000
 11
683.3941890734005
 21
410.0773818014456
 31
0.0000000000000000
  0
INSERT
  5
4A
100
AcDbEntity
  8
MAIN0
  6
BYBLOCK
 62
0
100
AcDbBlockReference
  2
_OPEN
 10
683.3941890734005
 20
405.0773818014454
 30
0.0000000000000000
 41
8.000000000000000
 42
8.000000000000000
 43
8.000000000000000
 50
90.00000000000000
  0
INSERT
  5
4B
100
AcDbEntity
  8
MAIN0
  6
BYBLOCK
 62
0
100
AcDbBlockReference
  2
_OPEN
 10
683.3941890734005
 20
410.0773818014456
 30
0.0000000000000000
 41
8.000000000000000
 42
8.000000000000000
 43
8.000000000000000
 50
270.0000000000000
  0
LINE
  5
4C
100
AcDbEntity
  8
MAIN0
  6
BYBLOCK
 62
0
100
AcDbLine
 10
683.3941890734005
 20
397.0773818014454
 30
0.0000000000000000
 11
683.3941890734005
 21
388.6789649069132
 31
0.0000000000000000
  0
LINE
  5
4D
100
AcDbEntity
  8
MAIN0
  6
BYBLOCK
 62
0
100
AcDbLine
 10
683.3941890734005
 20
418.0773818014456
 30
0.0000000000000000
 11
683.3941890734005
 21
422.0773818014456
 31
0.0000000000000000
  0
MTEXT
  5
4E
100
AcDbEntity
  8
MAIN0
  6
BYBLOCK
 62
0
100
AcDbMText
 10
675.6941892641354
 20
392.6789649069132
 30
0.0000000000000000
 40
12.39999961853027
 41
0.0000000000000000
 71
     5
 72
     1
  1
\A1;5
 11
6.123233995736766e-017
 21
1.000000000000000
 31
0.0000000000000000
  7
STANDARD
  0
ENDBLK
  5
4F
100
AcDbEntity
  8
MAIN0
  6
CONTINUOUS
 62
3
100
AcDbBlockEnd
  0
BLOCK
  5
51
100
AcDbEntity
  8
MAIN0
  6
CONTINUOUS
 62
3
100
AcDbBlockBegin
  2
*D1
 70
    65
 10
0.0
 20
0.0
 30
0.0
  0
LINE
  5
52
100
AcDbEntity
  8
MAIN0
  6
BYBLOCK
 62
0
100
AcDbLine
 10
463.7985261154016
 20
445.3898587667829
 30
0.0000000000000000
 11
532.7985261154017
 21
445.3898587667829
 31
0.0000000000000000
  0
INSERT
  5
53
100
AcDbEntity
  8
MAIN0
  6
BYBLOCK
 62
0
100
AcDbBlockReference
  2
_OPEN
 10
455.7985261154016
 20
445.3898587667829
 30
0.0000000000000000
 41
8.000000000000000
 42
8.000000000000000
 43
8.000000000000000
 50
180.0000000000000
  0
INSERT
  5
54
100
AcDbEntity
  8
MAIN0
  6
BYBLOCK
 62
0
100
AcDbBlockReference
  2
_OPEN
 10
540.7985261154017
 20
445.3898587667829
 30
0.0000000000000000
 41
8.000000000000000
 42
8.000000000000000
 43
8.000000000000000
 50
0.0000000000000000
  0
LINE
  5
55
100
AcDbEntity
  8
MAIN0
  6
BYBLOCK
 62
0
100
AcDbLine
 10
540.7985261154017
 20
446.3773817511805
 30
0.0000000000000000
 11
540.7985261154017
 21
437.3898587667829
 31
0.0000000000000000
  0
MTEXT
  5
56
100
AcDbEntity
  8
MAIN0
  6
BYBLOCK
 62
0
100
AcDbMText
 10
498.2985261154017
 20
452.0898585760480
 30
0.0000000000000000
 40
12.39999961853027
 41
0.0000000000000000
 71
     5
 72
     1
  1
\A1;85
 11
1.000000000000000
 21
0.0000000000000000
 31
0.0000000000000000
  7
STANDARD
  0
ENDBLK
  5
57
100
AcDbEntity
  8
MAIN0
  6
CONTINUOUS
 62
3
100
AcDbBlockEnd
  0
BLOCK
  5
59
100
AcDbEntity
  8
MAIN0
  6
CONTINUOUS
 62
3
100
AcDbBlockBegin
  2
*D2
 70
    65
 10
0.0
 20
0.0
 30
0.0
  0
LINE
  5
5A
100
AcDbEntity
  8
MAIN0
  6
BYBLOCK
 62
0
100
AcDbLine
 10
540.7985261154017
 20
446.3773817511805
 30
0.0000000000000000
 11
540.7985261154017
 21
437.3898587667829
 31
0.0000000000000000
  0
LINE
  5
5B
100
AcDbEntity
  8
MAIN0
  6
BYBLOCK
 62
0
100
AcDbLine
 10
548.7985261154017
 20
445.3898587667829
 30
0.0000000000000000
 11
902.7985261154020
 21
445.3898587667829
 31
0.0000000000000000
  0
INSERT
  5
5C
100
AcDbEntity
  8
MAIN0
  6
BYBLOCK
 62
0
100
AcDbBlockReference
  2
_OPEN
 10
540.7985261154017
 20
445.3898587667829
 30
0.0000000000000000
 41
8.000000000000000
 42
8.000000000000000
 43
8.000000000000000
 50
180.0000000000000
  0
INSERT
  5
5D
100
AcDbEntity
  8
MAIN0
  6
BYBLOCK
 62
0
100
AcDbBlockReference
  2
_OPEN
 10
910.7985261154020
 20
445.3898587667829
 30
0.0000000000000000
 41
8.000000000000000
 42
8.000000000000000
 43
8.000000000000000
 50
0.0000000000000000
  0
LINE
  5
5E
100
AcDbEntity
  8
MAIN0
  6
BYBLOCK
 62
0
100
AcDbLine
 10
910.7985261154020
 20
446.3773817511805
 30
0.0000000000000000
 11
910.7985261154020
 21
437.3898587667829
 31
0.0000000000000000
  0
MTEXT
  5
5F
100
AcDbEntity
  8
MAIN0
  6
BYBLOCK
 62
0
100
AcDbMText
 10
725.7985261154018
 20
452.0898585760480
 30
0.0000000000000000
 40
12.39999961853027
 41
0.0000000000000000
 71
     5
 72
     1
  1
\A1;370
 11
1.000000000000000
 21
0.0000000000000000
 31
0.0000000000000000
  7
STANDARD
  0
ENDBLK
  5
60
100
AcDbEntity
  8
MAIN0
  6
CONTINUOUS
 62
3
100
AcDbBlockEnd
  0
BLOCK
  5
62
100
AcDbEntity
  8
MAIN0
  6
CONTINUOUS
 62
3
100
AcDbBlockBegin
  2
*D3
 70
    65
 10
0.0
 20
0.0
 30
0.0
  0
LINE
  5
63
100
AcDbEntity
  8
MAIN0
  6
BYBLOCK
 62
0
100
AcDbLine
 10
910.7985261154020
 20
446.3773817511805
 30
0.0000000000000000
 11
910.7985261154020
 21
437.3898587667829
 31
0.0000000000000000
  0
LINE
  5
64
100
AcDbEntity
  8
MAIN0
  6
BYBLOCK
 62
0
100
AcDbLine
 10
918.7985261154020
 20
445.3898587667829
 30
0.0000000000000000
 11
987.7985261154020
 21
445.3898587667829
 31
0.0000000000000000
  0
INSERT
  5
65
100
AcDbEntity
  8
MAIN0
  6
BYBLOCK
 62
0
100
AcDbBlockReference
  2
_OPEN
 10
910.7985261154020
 20
445.3898587667829
 30
0.0000000000000000
 41
8.000000000000000
 42
8.000000000000000
 43
8.000000000000000
 50
180.0000000000000
  0
INSERT
  5
66
100
AcDbEntity
  8
MAIN0
  6
BYBLOCK
 62
0
100
AcDbBlockReference
  2
_OPEN
 10
995.7985261154020
 20
445.3898587667829
 30
0.0000000000000000
 41
8.000000000000000
 42
8.000000000000000
 43
8.000000000000000
 50
0.0000000000000000
  0
MTEXT
  5
67
100
AcDbEntity
  8
MAIN0
  6
BYBLOCK
 62
0
100
AcDbMText
 10
953.2985261154020
 20
452.0898585760480
 30
0.0000000000000000
 40
12.39999961853027
 41
0.0000000000000000
 71
     5
 72
     1
  1
\A1;85
 11
1.000000000000000
 21
0.0000000000000000
 31
0.0000000000000000
  7
STANDARD
  0
ENDBLK
  5
68
100
AcDbEntity
  8
MAIN0
  6
CONTINUOUS
 62
3
100
AcDbBlockEnd
  0
BLOCK
  5
6A
100
AcDbEntity
  8
MAIN0
  6
CONTINUOUS
 62
3
100
AcDbBlockBegin
  2
*D4
 70
    65
 10
0.0
 20
0.0
 30
0.0
  0
LINE
  5
6B
100
AcDbEntity
  8
MAIN0
  6
BYBLOCK
 62
0
100
AcDbLine
 10
503.7985261152091
 20
573.2773818491294
 30
0.0000000000000000
 11
503.7985261152091
 21
611.0210315290951
 31
0.0000000000000000
  0
LINE
  5
6C
100
AcDbEntity
  8
MAIN0
  6
BYBLOCK
 62
0
100
AcDbLine
 10
511.7985261152091
 20
603.0210315290951
 30
0.0000000000000000
 11
542.7985261154013
 21
603.0210315290951
 31
0.0000000000000000
  0
INSERT
  5
6D
100
AcDbEntity
  8
MAIN0
  6
BYBLOCK
 62
0
100
AcDbBlockReference
  2
_OPEN
 10
503.7985261152091
 20
603.0210315290951
 30
0.0000000000000000
 41
8.000000000000000
 42
8.000000000000000
 43
8.000000000000000
 50
180.0000000000000
  0
INSERT
  5
6E
100
AcDbEntity
  8
MAIN0
  6
BYBLOCK
 62
0
100
AcDbBlockReference
  2
_OPEN
 10
550.7985261154013
 20
603.0210315290951
 30
0.0000000000000000
 41
8.000000000000000
 42
8.000000000000000
 43
8.000000000000000
 50
0.0000000000000000
  0
LINE
  5
6F
100
AcDbEntity
  8
MAIN0
  6
BYBLOCK
 62
0
100
AcDbLine
 10
550.7985261154014
 20
573.2773818491293
 30
0.0000000000000000
 11
550.7985261154013
 21
611.0210315290951
 31
0.0000000000000000
  0
MTEXT
  5
70
100
AcDbEntity
  8
MAIN0
  6
BYBLOCK
 62
0
100
AcDbMText
 10
527.2985261153052
 20
609.7210313383603
 30
0.0000000000000000
 40
12.39999961853027
 41
0.0000000000000000
 71
     5
 72
     1
  1
\A1;47
 11
1.000000000000000
 21
0.0000000000000000
 31
0.0000000000000000
  7
STANDARD
  0
ENDBLK
  5
71
100
AcDbEntity
  8
MAIN0
  6
CONTINUOUS
 62
3
100
AcDbBlockEnd
  0
BLOCK
  5
73
100
AcDbEntity
  8
MAIN0
  6
CONTINUOUS
 62
3
100
AcDbBlockBegin
  2
*D5
 70
    65
 10
0.0
 20
0.0
 30
0.0
  0
LINE
  5
74
100
AcDbEntity
  8
MAIN0
  6
BYBLOCK
 62
0
100
AcDbLine
 10
455.7985261154014
 20
513.2773818491291
 30
0.0000000000000000
 11
455.7985261154014
 21
634.7920297842193
 31
0.0000000000000000
  0
LINE
  5
75
100
AcDbEntity
  8
MAIN0
  6
BYBLOCK
 62
0
100
AcDbLine
 10
455.7985261154014
 20
626.7920297842193
 30
0.0000000000000000
 11
456.7985261154015
 21
626.7920297842193
 31
0.0000000000000000
  0
INSERT
  5
76
100
AcDbEntity
  8
MAIN0
  6
BYBLOCK
 62
0
100
AcDbBlockReference
  2
_OPEN
 10
455.7985261154014
 20
626.7920297842193
 30
0.0000000000000000
 41
8.000000000000000
 42
8.000000000000000
 43
8.000000000000000
 50
0.0000000000000000
  0
INSERT
  5
77
100
AcDbEntity
  8
MAIN0
  6
BYBLOCK
 62
0
100
AcDbBlockReference
  2
_OPEN
 10
456.7985261154015
 20
626.7920297842193
 30
0.0000000000000000
 41
8.000000000000000
 42
8.000000000000000
 43
8.000000000000000
 50
180.0000000000000
  0
LINE
  5
78
100
AcDbEntity
  8
MAIN0
  6
BYBLOCK
 62
0
100
AcDbLine
 10
447.7985261154014
 20
626.7920297842193
 30
0.0000000000000000
 11
439.5111789936980
 21
626.7920297842193
 31
0.0000000000000000
  0
LINE
  5
79
100
AcDbEntity
  8
MAIN0
  6
BYBLOCK
 62
0
100
AcDbLine
 10
464.7985261154015
 20
626.7920297842193
 30
0.0000000000000000
 11
468.7985261154015
 21
626.7920297842193
 31
0.0000000000000000
  0
LINE
  5
7A
100
AcDbEntity
  8
MAIN0
  6
BYBLOCK
 62
0
100
AcDbLine
 10
456.7985261154014
 20
573.2773818491291
 30
0.0000000000000000
 11
456.7985261154015
 21
634.7920297842193
 31
0.0000000000000000
  0
MTEXT
  5
7B
100
AcDbEntity
  8
MAIN0
  6
BYBLOCK
 62
0
100
AcDbMText
 10
443.5111789936980
 20
634.4920295934844
 30
0.0000000000000000
 40
12.39999961853027
 41
0.0000000000000000
 71
     5
 72
     1
  1
\A1;1
 11
1.000000000000000
 21
0.0000000000000000
 31
0.0000000000000000
  7
STANDARD
  0
ENDBLK
  5
7C
100
AcDbEntity
  8
MAIN0
  6
CONTINUOUS
 62
3
100
AcDbBlockEnd
  0
BLOCK
  5
7E
100
AcDbEntity
  8
MAIN0
  6
CONTINUOUS
 62
3
100
AcDbBlockBegin
  2
*D6
 70
    65
 10
0.0
 20
0.0
 30
0.0
  0
LINE
  5
7F
100
AcDbEntity
  8
MAIN0
  6
BYBLOCK
 62
0
100
AcDbLine
 10
456.7985261154014
 20
573.2773818491291
 30
0.0000000000000000
 11
456.7985261154015
 21
634.7920297842193
 31
0.0000000000000000
  0
LINE
  5
80
100
AcDbEntity
  8
MAIN0
  6
BYBLOCK
 62
0
100
AcDbLine
 10
464.7985261154015
 20
626.7920297842193
 30
0.0000000000000000
 11
542.7985261154014
 21
626.7920297842193
 31
0.0000000000000000
  0
INSERT
  5
81
100
AcDbEntity
  8
MAIN0
  6
BYBLOCK
 62
0
100
AcDbBlockReference
  2
_OPEN
 10
456.7985261154015
 20
626.7920297842193
 30
0.0000000000000000
 41
8.000000000000000
 42
8.000000000000000
 43
8.000000000000000
 50
180.0000000000000
  0
INSERT
  5
82
100
AcDbEntity
  8
MAIN0
  6
BYBLOCK
 62
0
100
AcDbBlockReference
  2
_OPEN
 10
550.7985261154014
 20
626.7920297842193
 30
0.0000000000000000
 41
8.000000000000000
 42
8.000000000000000
 43
8.000000000000000
 50
0.0000000000000000
  0
LINE
  5
83
100
AcDbEntity
  8
MAIN0
  6
BYBLOCK
 62
0
100
AcDbLine
 10
550.7985261154014
 20
573.2773818491293
 30
0.0000000000000000
 11
550.7985261154014
 21
634.7920297842193
 31
0.0000000000000000
  0
MTEXT
  5
84
100
AcDbEntity
  8
MAIN0
  6
BYBLOCK
 62
0
100
AcDbMText
 10
503.7985261154014
 20
633.4920295934844
 30
0.0000000000000000
 40
12.39999961853027
 41
0.0000000000000000
 71
     5
 72
     1
  1
\A1;94
 11
1.000000000000000
 21
0.0000000000000000
 31
0.0000000000000000
  7
STANDARD
  0
ENDBLK
  5
85
100
AcDbEntity
  8
MAIN0
  6
CONTINUOUS
 62
3
100
AcDbBlockEnd
  0
BLOCK
  5
87
100
AcDbEntity
  8
MAIN0
  6
CONTINUOUS
 62
3
100
AcDbBlockBegin
  2
*D7
 70
    65
 10
0.0
 20
0.0
 30
0.0
  0
LINE
  5
88
100
AcDbEntity
  8
MAIN0
  6
BYBLOCK
 62
0
100
AcDbLine
 10
550.7985261154014
 20
573.2773818491293
 30
0.0000000000000000
 11
550.7985261154014
 21
634.7920297842193
 31
0.0000000000000000
  0
LINE
  5
89
100
AcDbEntity
  8
MAIN0
  6
BYBLOCK
 62
0
100
AcDbLine
 10
558.7985261154014
 20
626.7920297842193
 30
0.0000000000000000
 11
637.7985261154013
 21
626.7920297842193
 31
0.0000000000000000
  0
INSERT
  5
8A
100
AcDbEntity
  8
MAIN0
  6
BYBLOCK
 62
0
100
AcDbBlockReference
  2
_OPEN
 10
550.7985261154014
 20
626.7920297842193
 30
0.0000000000000000
 41
8.000000000000000
 42
8.000000000000000
 43
8.000000000000000
 50
180.0000000000000
  0
INSERT
  5
8B
100
AcDbEntity
  8
MAIN0
  6
BYBLOCK
 62
0
100
AcDbBlockReference
  2
_OPEN
 10
645.7985261154013
 20
626.7920297842193
 30
0.0000000000000000
 41
8.000000000000000
 42
8.000000000000000
 43
8.000000000000000
 50
0.0000000000000000
  0
LINE
  5
8C
100
AcDbEntity
  8
MAIN0
  6
BYBLOCK
 62
0
100
AcDbLine
 10
645.7985261154013
 20
573.2773818491291
 30
0.0000000000000000
 11
645.7985261154013
 21
634.7920297842193
 31
0.0000000000000000
  0
MTEXT
  5
8D
100
AcDbEntity
  8
MAIN0
  6
BYBLOCK
 62
0
100
AcDbMText
 10
598.2985261154013
 20
633.4920295934844
 30
0.0000000000000000
 40
12.39999961853027
 41
0.0000000000000000
 71
     5
 72
     1
  1
\A1;MAX 354
 11
1.000000000000000
 21
0.0000000000000000
 31
0.0000000000000000
  7
STANDARD
  0
ENDBLK
  5
8E
100
AcDbEntity
  8
MAIN0
  6
CONTINUOUS
 62
3
100
AcDbBlockEnd
  0
BLOCK
  5
90
100
AcDbEntity
  8
MAIN0
  6
CONTINUOUS
 62
1
100
AcDbBlockBegin
  2
*D8
 70
    65
 10
0.0
 20
0.0
 30
0.0
  0
LINE
  5
91
100
AcDbEntity
  8
MAIN0
  6
BYBLOCK
 62
0
100
AcDbLine
 10
645.7985261154013
 20
573.2773818491291
 30
0.0000000000000000
 11
645.7985261154013
 21
634.7920297842193
 31
0.0000000000000000
  0
LINE
  5
92
100
AcDbEntity
  8
MAIN0
  6
BYBLOCK
 62
0
100
AcDbLine
 10
653.7985261154013
 20
626.7920297842193
 30
0.0000000000000000
 11
723.7985261154014
 21
626.7920297842193
 31
0.0000000000000000
  0
INSERT
  5
93
100
AcDbEntity
  8
MAIN0
  6
BYBLOCK
 62
0
100
AcDbBlockReference
  2
_OPEN
 10
645.7985261154013
 20
626.7920297842193
 30
0.0000000000000000
 41
8.000000000000000
 42
8.000000000000000
 43
8.000000000000000
 50
180.0000000000000
  0
INSERT
  5
94
100
AcDbEntity
  8
MAIN0
  6
BYBLOCK
 62
0
100
AcDbBlockReference
  2
_OPEN
 10
731.7985261154014
 20
626.7920297842193
 30
0.0000000000000000
 41
8.000000000000000
 42
8.000000000000000
 43
8.000000000000000
 50
0.0000000000000000
  0
LINE
  5
95
100
AcDbEntity
  8
MAIN0
  6
BYBLOCK
 62
0
100
AcDbLine
 10
731.7985261154013
 20
573.2773818491294
 30
0.0000000000000000
 11
731.7985261154014
 21
634.7920297842193
 31
0.0000000000000000
  0
MTEXT
  5
96
100
AcDbEntity
  8
MAIN0
  6
BYBLOCK
 62
0
100
AcDbMText
 10
688.7985261154013
 20
633.4920295934844
 30
0.0000000000000000
 40
12.39999961853027
 41
0.0000000000000000
 71
     5
 72
     1
  1
\A1;86
 11
1.000000000000000
 21
0.0000000000000000
 31
0.0000000000000000
  7
STANDARD
  0
ENDBLK
  5
97
100
AcDbEntity
  8
MAIN0
  6
CONTINUOUS
 62
1
100
AcDbBlockEnd
  0
BLOCK
  5
99
100
AcDbEntity
  8
MAIN0
  6
CONTINUOUS
 62
3
100
AcDbBlockBegin
  2
*D9
 70
    65
 10
0.0
 20
0.0
 30
0.0
  0
LINE
  5
9A
100
AcDbEntity
  8
MAIN0
  6
BYBLOCK
 62
0
100
AcDbLine
 10
533.7985261152091
 20
570.0773818014454
 30
0.0000000000000000
 11
533.7985261152091
 21
561.0773818014457
 31
0.0000000000000000
  0
INSERT
  5
9B
100
AcDbEntity
  8
MAIN0
  6
BYBLOCK
 62
0
100
AcDbBlockReference
  2
_OPEN
 10
533.7985261152091
 20
570.0773818014454
 30
0.0000000000000000
 41
8.000000000000000
 42
8.000000000000000
 43
8.000000000000000
 50
270.0000000000000
  0
INSERT
  5
9C
100
AcDbEntity
  8
MAIN0
  6
BYBLOCK
 62
0
100
AcDbBlockReference
  2
_DOT
 10
533.7985261152091
 20
560.0773818014457
 30
0.0000000000000000
 41
4.000000000000000
 42
4.000000000000000
 43
4.000000000000000
 50
270.0000000000000
  0
LINE
  5
9D
100
AcDbEntity
  8
MAIN0
  6
BYBLOCK
 62
0
100
AcDbLine
 10
533.7985261152091
 20
578.0773818014454
 30
0.0000000000000000
 11
533.7985261152091
 21
593.7026886958493
 31
0.0000000000000000
  0
LINE
  5
9E
100
AcDbEntity
  8
MAIN0
  6
BYBLOCK
 62
0
100
AcDbLine
 10
516.9985261628929
 20
560.0773818014457
 30
0.0000000000000000
 11
541.7985261152091
 21
560.0773818014457
 31
0.0000000000000000
  0
MTEXT
  5
9F
100
AcDbEntity
  8
MAIN0
  6
BYBLOCK
 62
0
100
AcDbMText
 10
526.0985263059440
 20
585.5026888865841
 30
0.0000000000000000
 40
12.39999961853027
 41
0.0000000000000000
 71
     5
 72
     1
  1
\A1;10
 11
6.123233995736766e-017
 21
1.000000000000000
 31
0.0000000000000000
  7
STANDARD
  0
ENDBLK
  5
A0
100
AcDbEntity
  8
MAIN0
  6
CONTINUOUS
 62
3
100
AcDbBlockEnd
  0
BLOCK
  5
A2
100
AcDbEntity
  8
MAIN0
  6
CONTINUOUS
 62
3
100
AcDbBlockBegin
  2
*D10
 70
    65
 10
0.0
 20
0.0
 30
0.0
  0
LINE
  5
A3
100
AcDbEntity
  8
MAIN0
  6
BYBLOCK
 62
0
100
AcDbLine
 10
516.9985261628929
 20
560.0773818014457
 30
0.0000000000000000
 11
541.7985261152091
 21
560.0773818014457
 31
0.0000000000000000
  0
LINE
  5
A4
100
AcDbEntity
  8
MAIN0
  6
BYBLOCK
 62
0
100
AcDbLine
 10
533.7985261152091
 20
559.0773818014457
 30
0.0000000000000000
 11
533.7985261152091
 21
540.0773818014455
 31
0.0000000000000000
  0
INSERT
  5
A5
100
AcDbEntity
  8
MAIN0
  6
BYBLOCK
 62
0
100
AcDbBlockReference
  2
_DOT
 10
533.7985261152091
 20
560.0773818014457
 30
0.0000000000000000
 41
4.000000000000000
 42
4.000000000000000
 43
4.000000000000000
 50
90.00000000000000
  0
INSERT
  5
A6
100
AcDbEntity
  8
MAIN0
  6
BYBLOCK
 62
0
100
AcDbBlockReference
  2
_OPEN
 10
533.7985261152091
 20
540.0773818014455
 30
0.0000000000000000
 41
8.000000000000000
 42
8.000000000000000
 43
8.000000000000000
 50
90.00000000000000
  0
LINE
  5
A7
100
AcDbEntity
  8
MAIN0
  6
BYBLOCK
 62
0
100
AcDbLine
 10
533.7985261152091
 20
532.0773818014455
 30
0.0000000000000000
 11
533.7985261152091
 21
528.0773818014455
 31
0.0000000000000000
  0
LINE
  5
A8
100
AcDbEntity
  8
MAIN0
  6
BYBLOCK
 62
0
100
AcDbLine
 10
516.9985261628929
 20
540.0773818014455
 30
0.0000000000000000
 11
541.7985261152091
 21
540.0773818014455
 31
0.0000000000000000
  0
MTEXT
  5
A9
100
AcDbEntity
  8
MAIN0
  6
BYBLOCK
 62
0
100
AcDbMText
 10
527.0985263059440
 20
550.0773818014457
 30
0.0000000000000000
 40
12.39999961853027
 41
0.0000000000000000
 71
     5
 72
     1
  1
\A1;20
 11
6.123233995736766e-017
 21
1.000000000000000
 31
0.0000000000000000
  7
STANDARD
  0
ENDBLK
  5
AA
100
AcDbEntity
  8
MAIN0
  6
CONTINUOUS
 62
3
100
AcDbBlockEnd
  0
BLOCK
  5
AC
100
AcDbEntity
  8
MAIN0
  6
CONTINUOUS
 62
3
100
AcDbBlockBegin
  2
*D11
 70
    65
 10
0.0
 20
0.0
 30
0.0
  0
LINE
  5
AD
100
AcDbEntity
  8
MAIN0
  6
BYBLOCK
 62
0
100
AcDbLine
 10
455.7985261154016
 20
406.8773817537618
 30
0.0000000000000000
 11
455.7985261154016
 21
315.0210315290951
 31
0.0000000000000000
  0
LINE
  5
AE
100
AcDbEntity
  8
MAIN0
  6
BYBLOCK
 62
0
100
AcDbLine
 10
463.7985261154016
 20
323.0210315290951
 30
0.0000000000000000
 11
624.7985261152527
 21
323.0210315290951
 31
0.0000000000000000
  0
INSERT
  5
AF
100
AcDbEntity
  8
MAIN0
  6
BYBLOCK
 62
0
100
AcDbBlockReference
  2
_OPEN
 10
455.7985261154016
 20
323.0210315290951
 30
0.0000000000000000
 41
8.000000000000000
 42
8.000000000000000
 43
8.000000000000000
 50
180.0000000000000
  0
INSERT
  5
B0
100
AcDbEntity
  8
MAIN0
  6
BYBLOCK
 62
0
100
AcDbBlockReference
  2
_OPEN
 10
632.7985261152527
 20
323.0210315290951
 30
0.0000000000000000
 41
8.000000000000000
 42
8.000000000000000
 43
8.000000000000000
 50
0.0000000000000000
  0
LINE
  5
B1
100
AcDbEntity
  8
MAIN0
  6
BYBLOCK
 62
0
100
AcDbLine
 10
632.7985261152527
 20
393.8773817537617
 30
0.0000000000000000
 11
632.7985261152527
 21
315.0210315290951
 31
0.0000000000000000
  0
MTEXT
  5
B2
100
AcDbEntity
  8
MAIN0
  6
BYBLOCK
 62
0
100
AcDbMText
 10
544.2985261153272
 20
329.7210313383603
 30
0.0000000000000000
 40
12.39999961853027
 41
0.0000000000000000
 71
     5
 72
     1
  1
\A1;177
 11
1.000000000000000
 21
0.0000000000000000
 31
0.0000000000000000
  7
STANDARD
  0
ENDBLK
  5
B3
100
AcDbEntity
  8
MAIN0
  6
CONTINUOUS
 62
3
100
AcDbBlockEnd
  0
BLOCK
  5
B5
100
AcDbEntity
  8
MAIN0
  6
CONTINUOUS
 62
3
100
AcDbBlockBegin
  2
*D12
 70
    65
 10
0.0
 20
0.0
 30
0.0
  0
LINE
  5
B6
100
AcDbEntity
  8
MAIN0
  6
BYBLOCK
 62
0
100
AcDbLine
 10
632.7985261152527
 20
393.8773817537617
 30
0.0000000000000000
 11
632.7985261152527
 21
315.0210315290951
 31
0.0000000000000000
  0
LINE
  5
B7
100
AcDbEntity
  8
MAIN0
  6
BYBLOCK
 62
0
100
AcDbLine
 10
640.7985261152527
 20
323.0210315290951
 30
0.0000000000000000
 11
1082.798526115402
 21
323.0210315290951
 31
0.0000000000000000
  0
INSERT
  5
B8
100
AcDbEntity
  8
MAIN0
  6
BYBLOCK
 62
0
100
AcDbBlockReference
  2
_OPEN
 10
632.7985261152527
 20
323.0210315290951
 30
0.0000000000000000
 41
8.000000000000000
 42
8.000000000000000
 43
8.000000000000000
 50
180.0000000000000
  0
INSERT
  5
B9
100
AcDbEntity
  8
MAIN0
  6
BYBLOCK
 62
0
100
AcDbBlockReference
  2
_OPEN
 10
1090.798526115402
 20
323.0210315290951
 30
0.0000000000000000
 41
8.000000000000000
 42
8.000000000000000
 43
8.000000000000000
 50
0.0000000000000000
  0
LINE
  5
BA
100
AcDbEntity
  8
MAIN0
  6
BYBLOCK
 62
0
100
AcDbLine
 10
1090.798526115402
 20
446.8773817537618
 30
0.0000000000000000
 11
1090.798526115402
 21
315.0210315290951
 31
0.0000000000000000
  0
MTEXT
  5
BB
100
AcDbEntity
  8
MAIN0
  6
BYBLOCK
 62
0
100
AcDbMText
 10
861.7985261153272
 20
329.7210313383603
 30
0.0000000000000000
 40
12.39999961853027
 41
0.0000000000000000
 71
     5
 72
     1
  1
\A1;458
 11
1.000000000000000
 21
0.0000000000000000
 31
0.0000000000000000
  7
STANDARD
  0
ENDBLK
  5
BC
100
AcDbEntity
  8
MAIN0
  6
CONTINUOUS
 62
3
100
AcDbBlockEnd
  0
BLOCK
  5
BE
100
AcDbEntity
  8
MAIN0
  6
CONTINUOUS
 62
3
100
AcDbBlockBegin
  2
*D13
 70
    65
 10
0.0
 20
0.0
 30
0.0
  0
LINE
  5
BF
100
AcDbEntity
  8
MAIN0
  6
BYBLOCK
 62
0
100
AcDbLine
 10
623.7985261154017
 20
401.8773817537617
 30
0.0000000000000000
 11
623.7985261154017
 21
375.0210315290951
 31
0.0000000000000000
  0
LINE
  5
C0
100
AcDbEntity
  8
MAIN0
  6
BYBLOCK
 62
0
100
AcDbLine
 10
623.7985261154017
 20
383.0210315290951
 30
0.0000000000000000
 11
641.7985261154017
 21
383.0210315290951
 31
0.0000000000000000
  0
INSERT
  5
C1
100
AcDbEntity
  8
MAIN0
  6
BYBLOCK
 62
0
100
AcDbBlockReference
  2
_OPEN
 10
623.7985261154017
 20
383.0210315290951
 30
0.0000000000000000
 41
8.000000000000000
 42
8.000000000000000
 43
8.000000000000000
 50
0.0000000000000000
  0
INSERT
  5
C2
100
AcDbEntity
  8
MAIN0
  6
BYBLOCK
 62
0
100
AcDbBlockReference
  2
_OPEN
 10
641.7985261154017
 20
383.0210315290951
 30
0.0000000000000000
 41
8.000000000000000
 42
8.000000000000000
 43
8.000000000000000
 50
180.0000000000000
  0
LINE
  5
C3
100
AcDbEntity
  8
MAIN0
  6
BYBLOCK
 62
0
100
AcDbLine
 10
615.7985261154017
 20
383.0210315290951
 30
0.0000000000000000
 11
601.1860958996008
 21
383.0210315290951
 31
0.0000000000000000
  0
LINE
  5
C4
100
AcDbEntity
  8
MAIN0
  6
BYBLOCK
 62
0
100
AcDbLine
 10
649.7985261154017
 20
383.0210315290951
 30
0.0000000000000000
 11
653.7985261154017
 21
383.0210315290951
 31
0.0000000000000000
  0
LINE
  5
C5
100
AcDbEntity
  8
MAIN0
  6
BYBLOCK
 62
0
100
AcDbLine
 10
641.7985261154017
 20
401.8773817537617
 30
0.0000000000000000
 11
641.7985261154017
 21
375.0210315290951
 31
0.0000000000000000
  0
MTEXT
  5
C6
100
AcDbEntity
  8
MAIN0
  6
BYBLOCK
 62
0
100
AcDbMText
 10
609.3860957088659
 20
390.7210313383603
 30
0.0000000000000000
 40
12.39999961853027
 41
0.0000000000000000
 71
     5
 72
     1
  1
\A1;18
 11
1.000000000000000
 21
0.0000000000000000
 31
0.0000000000000000
  7
STANDARD
  0
ENDBLK
  5
C7
100
AcDbEntity
  8
MAIN0
  6
CONTINUOUS
 62
3
100
AcDbBlockEnd
  0
BLOCK
  5
E3
100
AcDbEntity
  8
MAIN0
  6
CONTINUOUS
 62
3
100
AcDbBlockBegin
  2
*D14
 70
    65
 10
0.0
 20
0.0
 30
0.0
  0
LINE
  5
E4
100
AcDbEntity
  8
MAIN0
  6
BYBLOCK
 62
0
100
AcDbLine
 10
1469.283587248662
 20
482.3188337334494
 30
0.0000000000000000
 11
1469.283587248662
 21
611.0210315290951
 31
0.0000000000000000
  0
LINE
  5
E5
100
AcDbEntity
  8
MAIN0
  6
BYBLOCK
 62
0
100
AcDbLine
 10
1469.283587248662
 20
603.0210315290951
 30
0.0000000000000000
 11
1483.283587248662
 21
603.0210315290951
 31
0.0000000000000000
  0
INSERT
  5
E6
100
AcDbEntity
  8
MAIN0
  6
BYBLOCK
 62
0
100
AcDbBlockReference
  2
_OPEN
 10
1469.283587248662
 20
603.0210315290951
 30
0.0000000000000000
 41
8.000000000000000
 42
8.000000000000000
 43
8.000000000000000
 50
0.0000000000000000
  0
INSERT
  5
E7
100
AcDbEntity
  8
MAIN0
  6
BYBLOCK
 62
0
100
AcDbBlockReference
  2
_OPEN
 10
1483.283587248662
 20
603.0210315290951
 30
0.0000000000000000
 41
8.000000000000000
 42
8.000000000000000
 43
8.000000000000000
 50
180.0000000000000
  0
LINE
  5
E8
100
AcDbEntity
  8
MAIN0
  6
BYBLOCK
 62
0
100
AcDbLine
 10
1461.283587248662
 20
603.0210315290951
 30
0.0000000000000000
 11
1457.283587248662
 21
603.0210315290951
 31
0.0000000000000000
  0
LINE
  5
E9
100
AcDbEntity
  8
MAIN0
  6
BYBLOCK
 62
0
100
AcDbLine
 10
1491.283587248662
 20
603.0210315290951
 30
0.0000000000000000
 11
1495.283587248662
 21
603.0210315290951
 31
0.0000000000000000
  0
LINE
  5
EA
100
AcDbEntity
  8
MAIN0
  6
BYBLOCK
 62
0
100
AcDbLine
 10
1483.283587248662
 20
482.3188337334494
 30
0.0000000000000000
 11
1483.283587248662
 21
611.0210315290951
 31
0.0000000000000000
  0
MTEXT
  5
EB
100
AcDbEntity
  8
MAIN0
  6
BYBLOCK
 62
0
100
AcDbMText
 10
1476.283587248662
 20
609.7210313383603
 30
0.0000000000000000
 40
12.39999961853027
 41
0.0000000000000000
 71
     5
 72
     1
  1
\A1;14
 11
1.000000000000000
 21
0.0000000000000000
 31
0.0000000000000000
  7
STANDARD
  0
ENDBLK
  5
EC
100
AcDbEntity
  8
MAIN0
  6
CONTINUOUS
 62
3
100
AcDbBlockEnd
  0
BLOCK
  5
EE
100
AcDbEntity
  8
MAIN0
  6
CONTINUOUS
 62
1
100
AcDbBlockBegin
  2
*D15
 70
    65
 10
0.0
 20
0.0
 30
0.0
  0
LINE
  5
EF
100
AcDbEntity
  8
MAIN0
  6
BYBLOCK
 62
0
100
AcDbLine
 10
1372.783587248774
 20
362.0773818014451
 30
0.0000000000000000
 11
1395.783587248775
 21
362.0773818014451
 31
0.0000000000000000
  0
INSERT
  5
F0
100
AcDbEntity
  8
MAIN0
  6
BYBLOCK
 62
0
100
AcDbBlockReference
  2
_OPEN
 10
1372.783587248774
 20
362.0773818014451
 30
0.0000000000000000
 41
8.000000000000000
 42
8.000000000000000
 43
8.000000000000000
 50
0.0000000000000000
  0
INSERT
  5
F1
100
AcDbEntity
  8
MAIN0
  6
BYBLOCK
 62
0
100
AcDbBlockReference
  2
_OPEN
 10
1395.783587248775
 20
362.0773818014451
 30
0.0000000000000000
 41
8.000000000000000
 42
8.000000000000000
 43
8.000000000000000
 50
180.0000000000000
  0
LINE
  5
F2
100
AcDbEntity
  8
MAIN0
  6
BYBLOCK
 62
0
100
AcDbLine
 10
1364.783587248774
 20
362.0773818014451
 30
0.0000000000000000
 11
1360.783587248774
 21
362.0773818014451
 31
0.0000000000000000
  0
LINE
  5
F3
100
AcDbEntity
  8
MAIN0
  6
BYBLOCK
 62
0
100
AcDbLine
 10
1403.783587248775
 20
362.0773818014451
 30
0.0000000000000000
 11
1444.406126205911
 21
362.0773818014451
 31
0.0000000000000000
  0
LINE
  5
F4
100
AcDbEntity
  8
MAIN0
  6
BYBLOCK
 62
0
100
AcDbLine
 10
1395.783587248775
 20
406.8773817542277
 30
0.0000000000000000
 11
1395.783587248775
 21
354.0773818014451
 31
0.0000000000000000
  0
MTEXT
  5
F5
100
AcDbEntity
  8
MAIN0
  6
BYBLOCK
 62
0
100
AcDbMText
 10
1422.606126968851
 20
369.7773816107103
 30
0.0000000000000000
 40
12.39999961853027
 41
0.0000000000000000
 71
     5
 72
     1
  1
\A1;15～31
 11
1.000000000000000
 21
0.0000000000000000
 31
0.0000000000000000
  7
KNJYOKO
  0
ENDBLK
  5
F6
100
AcDbEntity
  8
MAIN0
  6
CONTINUOUS
 62
1
100
AcDbBlockEnd
  0
BLOCK
  5
F9
100
AcDbEntity
  8
MAIN0
  6
CONTINUOUS
 62
3
100
AcDbBlockBegin
  2
*D16
 70
    65
 10
0.0
 20
0.0
 30
0.0
  0
LINE
  5
FA
100
AcDbEntity
  8
MAIN0
  6
BYBLOCK
 62
0
100
AcDbLine
 10
1352.083587201091
 20
445.0773818019112
 30
0.0000000000000000
 11
1292.783587247980
 21
445.0773818019112
 31
0.0000000000000000
  0
LINE
  5
FB
100
AcDbEntity
  8
MAIN0
  6
BYBLOCK
 62
0
100
AcDbLine
 10
1300.783587247980
 20
445.0773818019112
 30
0.0000000000000000
 11
1300.783587247980
 21
440.0773818019112
 31
0.0000000000000000
  0
INSERT
  5
FC
100
AcDbEntity
  8
MAIN0
  6
BYBLOCK
 62
0
100
AcDbBlockReference
  2
_OPEN
 10
1300.783587247980
 20
445.0773818019112
 30
0.0000000000000000
 41
8.000000000000000
 42
8.000000000000000
 43
8.000000000000000
 50
270.0000000000000
  0
INSERT
  5
FD
100
AcDbEntity
  8
MAIN0
  6
BYBLOCK
 62
0
100
AcDbBlockReference
  2
_OPEN
 10
1300.783587247980
 20
440.0773818019112
 30
0.0000000000000000
 41
8.000000000000000
 42
8.000000000000000
 43
8.000000000000000
 50
90.00000000000000
  0
LINE
  5
FE
100
AcDbEntity
  8
MAIN0
  6
BYBLOCK
 62
0
100
AcDbLine
 10
1300.783587247980
 20
453.0773818019112
 30
0.0000000000000000
 11
1300.783587247980
 21
461.0132055857712
 31
0.0000000000000000
  0
LINE
  5
FF
100
AcDbEntity
  8
MAIN0
  6
BYBLOCK
 62
0
100
AcDbLine
 10
1300.783587247980
 20
432.0773818019112
 30
0.0000000000000000
 11
1300.783587247980
 21
428.0773818019112
 31
0.0000000000000000
  0
LINE
  5
100
100
AcDbEntity
  8
MAIN0
  6
BYBLOCK
 62
0
100
AcDbLine
 10
1321.583587201091
 20
440.0773818019112
 30
0.0000000000000000
 11
1292.783587247980
 21
440.0773818019112
 31
0.0000000000000000
  0
MTEXT
  5
101
100
AcDbEntity
  8
MAIN0
  6
BYBLOCK
 62
0
100
AcDbMText
 10
1293.083587438715
 20
457.0132055857711
 30
0.0000000000000000
 40
12.39999961853027
 41
0.0000000000000000
 71
     5
 72
     1
  1
\A1;5
 11
6.123233995736766e-017
 21
1.000000000000000
 31
0.0000000000000000
  7
STANDARD
  0
ENDBLK
  5
102
100
AcDbEntity
  8
MAIN0
  6
CONTINUOUS
 62
3
100
AcDbBlockEnd
  0
BLOCK
  5
104
100
AcDbEntity
  8
MAIN0
  6
CONTINUOUS
 62
3
100
AcDbBlockBegin
  2
*D17
 70
    65
 10
0.0
 20
0.0
 30
0.0
  0
LINE
  5
105
100
AcDbEntity
  8
MAIN0
  6
BYBLOCK
 62
0
100
AcDbLine
 10
1321.583587201091
 20
440.0773818019112
 30
0.0000000000000000
 11
1292.783587247980
 21
440.0773818019112
 31
0.0000000000000000
  0
LINE
  5
106
100
AcDbEntity
  8
MAIN0
  6
BYBLOCK
 62
0
100
AcDbLine
 10
1300.783587247980
 20
432.0773818019112
 30
0.0000000000000000
 11
1300.783587247980
 21
418.0773818019112
 31
0.0000000000000000
  0
INSERT
  5
107
100
AcDbEntity
  8
MAIN0
  6
BYBLOCK
 62
0
100
AcDbBlockReference
  2
_OPEN
 10
1300.783587247980
 20
440.0773818019112
 30
0.0000000000000000
 41
8.000000000000000
 42
8.000000000000000
 43
8.000000000000000
 50
90.00000000000000
  0
INSERT
  5
108
100
AcDbEntity
  8
MAIN0
  6
BYBLOCK
 62
0
100
AcDbBlockReference
  2
_OPEN
 10
1300.783587247980
 20
410.0773818019112
 30
0.0000000000000000
 41
8.000000000000000
 42
8.000000000000000
 43
8.000000000000000
 50
270.0000000000000
  0
LINE
  5
109
100
AcDbEntity
  8
MAIN0
  6
BYBLOCK
 62
0
100
AcDbLine
 10
1323.283587201091
 20
410.0773818019112
 30
0.0000000000000000
 11
1292.783587247980
 21
410.0773818019112
 31
0.0000000000000000
  0
MTEXT
  5
10A
100
AcDbEntity
  8
MAIN0
  6
BYBLOCK
 62
0
100
AcDbMText
 10
1294.083587438715
 20
425.0773818019112
 30
0.0000000000000000
 40
12.39999961853027
 41
0.0000000000000000
 71
     5
 72
     1
  1
\A1;30
 11
6.123233995736766e-017
 21
1.000000000000000
 31
0.0000000000000000
  7
STANDARD
  0
ENDBLK
  5
10B
100
AcDbEntity
  8
MAIN0
  6
CONTINUOUS
 62
3
100
AcDbBlockEnd
  0
BLOCK
  5
148
100
AcDbEntity
  8
MAIN0
  6
CONTINUOUS
 62
3
100
AcDbBlockBegin
  2
*D18
 70
    65
 10
0.0
 20
0.0
 30
0.0
  0
LINE
  5
149
100
AcDbEntity
  8
MAIN0
  6
BYBLOCK
 62
0
100
AcDbLine
 10
137.6210777893056
 20
573.2773818491291
 30
0.0000000000000000
 11
137.6210777893056
 21
611.0210315290951
 31
0.0000000000000000
  0
LINE
  5
14A
100
AcDbEntity
  8
MAIN0
  6
BYBLOCK
 62
0
100
AcDbLine
 10
145.6210777893056
 20
603.0210315290951
 30
0.0000000000000000
 11
289.6210777893056
 21
603.0210315290951
 31
0.0000000000000000
  0
INSERT
  5
14B
100
AcDbEntity
  8
MAIN0
  6
BYBLOCK
 62
0
100
AcDbBlockReference
  2
_OPEN
 10
137.6210777893056
 20
603.0210315290951
 30
0.0000000000000000
 41
8.000000000000000
 42
8.000000000000000
 43
8.000000000000000
 50
180.0000000000000
  0
INSERT
  5
14C
100
AcDbEntity
  8
MAIN0
  6
BYBLOCK
 62
0
100
AcDbBlockReference
  2
_OPEN
 10
297.6210777893056
 20
603.0210315290951
 30
0.0000000000000000
 41
8.000000000000000
 42
8.000000000000000
 43
8.000000000000000
 50
0.0000000000000000
  0
LINE
  5
14D
100
AcDbEntity
  8
MAIN0
  6
BYBLOCK
 62
0
100
AcDbLine
 10
297.6210777893056
 20
573.2773818491291
 30
0.0000000000000000
 11
297.6210777893056
 21
611.0210315290951
 31
0.0000000000000000
  0
MTEXT
  5
14E
100
AcDbEntity
  8
MAIN0
  6
BYBLOCK
 62
0
100
AcDbMText
 10
217.6210777893056
 20
609.7210313383603
 30
0.0000000000000000
 40
12.39999961853027
 41
0.0000000000000000
 71
     5
 72
     1
  1
\A1;160
 11
1.000000000000000
 21
0.0000000000000000
 31
0.0000000000000000
  7
STANDARD
  0
ENDBLK
  5
14F
100
AcDbEntity
  8
MAIN0
  6
CONTINUOUS
 62
3
100
AcDbBlockEnd
  0
BLOCK
  5
162
100
AcDbEntity
  8
MAIN0
  6
CONTINUOUS
 62
3
100
AcDbBlockBegin
  2
*D19
 70
    65
 10
0.0
 20
0.0
 30
0.0
  0
LINE
  5
163
100
AcDbEntity
  8
MAIN0
  6
BYBLOCK
 62
0
100
AcDbLine
 10
292.1210777893056
 20
453.0773818014457
 30
0.0000000000000000
 11
298.1210777893056
 21
453.0773818014457
 31
0.0000000000000000
  0
INSERT
  5
164
100
AcDbEntity
  8
MAIN0
  6
BYBLOCK
 62
0
100
AcDbBlockReference
  2
_OPEN
 10
292.1210777893056
 20
453.0773818014457
 30
0.0000000000000000
 41
8.000000000000000
 42
8.000000000000000
 43
8.000000000000000
 50
0.0000000000000000
  0
INSERT
  5
165
100
AcDbEntity
  8
MAIN0
  6
BYBLOCK
 62
0
100
AcDbBlockReference
  2
_OPEN
 10
298.1210777893056
 20
453.0773818014457
 30
0.0000000000000000
 41
8.000000000000000
 42
8.000000000000000
 43
8.000000000000000
 50
180.0000000000000
  0
LINE
  5
166
100
AcDbEntity
  8
MAIN0
  6
BYBLOCK
 62
0
100
AcDbLine
 10
284.1210777893056
 20
453.0773818014457
 30
0.0000000000000000
 11
277.5858405137329
 21
453.0773818014457
 31
0.0000000000000000
  0
LINE
  5
167
100
AcDbEntity
  8
MAIN0
  6
BYBLOCK
 62
0
100
AcDbLine
 10
306.1210777893056
 20
453.0773818014457
 30
0.0000000000000000
 11
310.1210777893056
 21
453.0773818014457
 31
0.0000000000000000
  0
LINE
  5
168
100
AcDbEntity
  8
MAIN0
  6
BYBLOCK
 62
0
100
AcDbLine
 10
298.1210777893056
 20
434.2773818491291
 30
0.0000000000000000
 11
298.1210777893056
 21
461.0773818014457
 31
0.0000000000000000
  0
MTEXT
  5
169
100
AcDbEntity
  8
MAIN0
  6
BYBLOCK
 62
0
100
AcDbMText
 10
281.5858405137329
 20
460.7773816107108
 30
0.0000000000000000
 40
12.39999961853027
 41
0.0000000000000000
 71
     5
 72
     1
  1
\A1;6
 11
1.000000000000000
 21
0.0000000000000000
 31
0.0000000000000000
  7
STANDARD
  0
ENDBLK
  5
16A
100
AcDbEntity
  8
MAIN0
  6
CONTINUOUS
 62
3
100
AcDbBlockEnd
  0
BLOCK
  5
16C
100
AcDbEntity
  8
MAIN0
  6
CONTINUOUS
 62
3
100
AcDbBlockBegin
  2
*D20
 70
    65
 10
0.0
 20
0.0
 30
0.0
  0
LINE
  5
16D
100
AcDbEntity
  8
MAIN0
  6
BYBLOCK
 62
0
100
AcDbLine
 10
1090.798526115402
 20
446.8773817537618
 30
0.0000000000000000
 11
1090.798526115402
 21
295.0210315290951
 31
0.0000000000000000
  0
LINE
  5
16E
100
AcDbEntity
  8
MAIN0
  6
BYBLOCK
 62
0
100
AcDbLine
 10
1082.798526115402
 20
303.0210315290951
 30
0.0000000000000000
 11
463.7985261154016
 21
303.0210315290951
 31
0.0000000000000000
  0
INSERT
  5
16F
100
AcDbEntity
  8
MAIN0
  6
BYBLOCK
 62
0
100
AcDbBlockReference
  2
_OPEN
 10
1090.798526115402
 20
303.0210315290951
 30
0.0000000000000000
 41
8.000000000000000
 42
8.000000000000000
 43
8.000000000000000
 50
360.0000000000000
  0
INSERT
  5
170
100
AcDbEntity
  8
MAIN0
  6
BYBLOCK
 62
0
100
AcDbBlockReference
  2
_OPEN
 10
455.7985261154016
 20
303.0210315290951
 30
0.0000000000000000
 41
8.000000000000000
 42
8.000000000000000
 43
8.000000000000000
 50
180.0000000000000
  0
LINE
  5
171
100
AcDbEntity
  8
MAIN0
  6
BYBLOCK
 62
0
100
AcDbLine
 10
455.7985261154016
 20
406.8773817537618
 30
0.0000000000000000
 11
455.7985261154016
 21
295.0210315290951
 31
0.0000000000000000
  0
MTEXT
  5
172
100
AcDbEntity
  8
MAIN0
  6
BYBLOCK
 62
0
100
AcDbMText
 10
773.2985261154015
 20
309.7210313383603
 30
0.0000000000000000
 40
12.39999961853027
 41
0.0000000000000000
 71
     5
 72
     1
  1
\A1;635
 11
1.000000000000000
 21
0.0000000000000000
 31
0.0000000000000000
  7
STANDARD
  0
ENDBLK
  5
173
100
AcDbEntity
  8
MAIN0
  6
CONTINUOUS
 62
3
100
AcDbBlockEnd
  0
BLOCK
  5
175
100
AcDbEntity
  8
MAIN0
  6
CONTINUOUS
 62
3
100
AcDbBlockBegin
  2
*D21
 70
    65
 10
0.0
 20
0.0
 30
0.0
  0
LINE
  5
176
100
AcDbEntity
  8
MAIN0
  6
BYBLOCK
 62
0
100
AcDbLine
 10
1090.798526115402
 20
446.8773817537618
 30
0.0000000000000000
 11
1090.798526115402
 21
335.0210315290951
 31
0.0000000000000000
  0
LINE
  5
177
100
AcDbEntity
  8
MAIN0
  6
BYBLOCK
 62
0
100
AcDbLine
 10
1082.798526115402
 20
343.0210315290951
 30
0.0000000000000000
 11
1003.798526115402
 21
343.0210315290951
 31
0.0000000000000000
  0
INSERT
  5
178
100
AcDbEntity
  8
MAIN0
  6
BYBLOCK
 62
0
100
AcDbBlockReference
  2
_OPEN
 10
1090.798526115402
 20
343.0210315290951
 30
0.0000000000000000
 41
8.000000000000000
 42
8.000000000000000
 43
8.000000000000000
 50
360.0000000000000
  0
INSERT
  5
179
100
AcDbEntity
  8
MAIN0
  6
BYBLOCK
 62
0
100
AcDbBlockReference
  2
_OPEN
 10
995.7985261154020
 20
343.0210315290951
 30
0.0000000000000000
 41
8.000000000000000
 42
8.000000000000000
 43
8.000000000000000
 50
180.0000000000000
  0
LINE
  5
17A
100
AcDbEntity
  8
MAIN0
  6
BYBLOCK
 62
0
100
AcDbLine
 10
995.7985261154020
 20
406.8773817537615
 30
0.0000000000000000
 11
995.7985261154020
 21
335.0210315290951
 31
0.0000000000000000
  0
MTEXT
  5
17B
100
AcDbEntity
  8
MAIN0
  6
BYBLOCK
 62
0
100
AcDbMText
 10
1043.298526115402
 20
349.7210313383603
 30
0.0000000000000000
 40
12.39999961853027
 41
0.0000000000000000
 71
     5
 72
     1
  1
\A1;95
 11
1.000000000000000
 21
0.0000000000000000
 31
0.0000000000000000
  7
STANDARD
  0
ENDBLK
  5
17C
100
AcDbEntity
  8
MAIN0
  6
CONTINUOUS
 62
3
100
AcDbBlockEnd
  0
BLOCK
  5
17E
100
AcDbEntity
  8
MAIN0
  6
CONTINUOUS
 62
3
100
AcDbBlockBegin
  2
*D22
 70
    65
 10
0.0
 20
0.0
 30
0.0
  0
LINE
  5
17F
100
AcDbEntity
  8
MAIN0
  6
BYBLOCK
 62
0
100
AcDbLine
 10
995.7985261154020
 20
406.8773817537615
 30
0.0000000000000000
 11
995.7985261154020
 21
335.0210315290951
 31
0.0000000000000000
  0
LINE
  5
180
100
AcDbEntity
  8
MAIN0
  6
BYBLOCK
 62
0
100
AcDbLine
 10
987.7985261154020
 20
343.0210315290951
 30
0.0000000000000000
 11
463.7985261154016
 21
343.0210315290951
 31
0.0000000000000000
  0
INSERT
  5
181
100
AcDbEntity
  8
MAIN0
  6
BYBLOCK
 62
0
100
AcDbBlockReference
  2
_OPEN
 10
995.7985261154020
 20
343.0210315290951
 30
0.0000000000000000
 41
8.000000000000000
 42
8.000000000000000
 43
8.000000000000000
 50
360.0000000000000
  0
INSERT
  5
182
100
AcDbEntity
  8
MAIN0
  6
BYBLOCK
 62
0
100
AcDbBlockReference
  2
_OPEN
 10
455.7985261154016
 20
343.0210315290951
 30
0.0000000000000000
 41
8.000000000000000
 42
8.000000000000000
 43
8.000000000000000
 50
180.0000000000000
  0
LINE
  5
183
100
AcDbEntity
  8
MAIN0
  6
BYBLOCK
 62
0
100
AcDbLine
 10
455.7985261154016
 20
406.8773817537618
 30
0.0000000000000000
 11
455.7985261154016
 21
335.0210315290951
 31
0.0000000000000000
  0
MTEXT
  5
184
100
AcDbEntity
  8
MAIN0
  6
BYBLOCK
 62
0
100
AcDbMText
 10
725.7985261154017
 20
349.7210313383603
 30
0.0000000000000000
 40
12.39999961853027
 41
0.0000000000000000
 71
     5
 72
     1
  1
\A1;540
 11
1.000000000000000
 21
0.0000000000000000
 31
0.0000000000000000
  7
STANDARD
  0
ENDBLK
  5
185
100
AcDbEntity
  8
MAIN0
  6
CONTINUOUS
 62
3
100
AcDbBlockEnd
  0
BLOCK
  5
1A1
100
AcDbEntity
  8
MAIN0
  6
CONTINUOUS
 62
3
100
AcDbBlockBegin
  2
*D23
 70
    65
 10
0.0
 20
0.0
 30
0.0
  0
LINE
  5
1A2
100
AcDbEntity
  8
MAIN0
  6
BYBLOCK
 62
0
100
AcDbLine
 10
1389.783587248661
 20
543.4773818491294
 30
0.0000000000000000
 11
1389.783587248661
 21
631.0210315290951
 31
0.0000000000000000
  0
LINE
  5
1A3
100
AcDbEntity
  8
MAIN0
  6
BYBLOCK
 62
0
100
AcDbLine
 10
1397.783587248661
 20
623.0210315290951
 30
0.0000000000000000
 11
1554.783587248662
 21
623.0210315290951
 31
0.0000000000000000
  0
INSERT
  5
1A4
100
AcDbEntity
  8
MAIN0
  6
BYBLOCK
 62
0
100
AcDbBlockReference
  2
_OPEN
 10
1389.783587248661
 20
623.0210315290951
 30
0.0000000000000000
 41
8.000000000000000
 42
8.000000000000000
 43
8.000000000000000
 50
180.0000000000000
  0
INSERT
  5
1A5
100
AcDbEntity
  8
MAIN0
  6
BYBLOCK
 62
0
100
AcDbBlockReference
  2
_OPEN
 10
1562.783587248662
 20
623.0210315290951
 30
0.0000000000000000
 41
8.000000000000000
 42
8.000000000000000
 43
8.000000000000000
 50
0.0000000000000000
  0
LINE
  5
1A6
100
AcDbEntity
  8
MAIN0
  6
BYBLOCK
 62
0
100
AcDbLine
 10
1562.783587248662
 20
543.4773818491294
 30
0.0000000000000000
 11
1562.783587248662
 21
631.0210315290952
 31
0.0000000000000000
  0
MTEXT
  5
1A7
100
AcDbEntity
  8
MAIN0
  6
BYBLOCK
 62
0
100
AcDbMText
 10
1476.283587248662
 20
629.7210313383603
 30
0.0000000000000000
 40
12.39999961853027
 41
0.0000000000000000
 71
     5
 72
     1
  1
\A1;173
 11
1.000000000000000
 21
0.0000000000000000
 31
0.0000000000000000
  7
STANDARD
  0
ENDBLK
  5
1A8
100
AcDbEntity
  8
MAIN0
  6
CONTINUOUS
 62
3
100
AcDbBlockEnd
  0
BLOCK
  5
1C4
100
AcDbEntity
  8
MAIN0
  6
CONTINUOUS
 62
3
100
AcDbBlockBegin
  2
*D24
 70
    65
 10
0.0
 20
0.0
 30
0.0
  0
LINE
  5
1C5
100
AcDbEntity
  8
MAIN0
  6
BYBLOCK
 62
0
100
AcDbLine
 10
730.1985260677178
 20
542.2773818014454
 30
0.0000000000000000
 11
701.7752021302825
 21
542.2773818014452
 31
0.0000000000000000
  0
LINE
  5
1C6
100
AcDbEntity
  8
MAIN0
  6
BYBLOCK
 62
0
100
AcDbLine
 10
709.7752021302825
 20
542.2773818014452
 30
0.0000000000000000
 11
709.7752021302825
 21
510.0773818014454
 31
0.0000000000000000
  0
INSERT
  5
1C7
100
AcDbEntity
  8
MAIN0
  6
BYBLOCK
 62
0
100
AcDbBlockReference
  2
_OPEN
 10
709.7752021302825
 20
542.2773818014452
 30
0.0000000000000000
 41
8.000000000000000
 42
8.000000000000000
 43
8.000000000000000
 50
270.0000000000000
  0
INSERT
  5
1C8
100
AcDbEntity
  8
MAIN0
  6
BYBLOCK
 62
0
100
AcDbBlockReference
  2
_OPEN
 10
709.7752021302825
 20
510.0773818014454
 30
0.0000000000000000
 41
8.000000000000000
 42
8.000000000000000
 43
8.000000000000000
 50
90.00000000000000
  0
LINE
  5
1C9
100
AcDbEntity
  8
MAIN0
  6
BYBLOCK
 62
0
100
AcDbLine
 10
709.7752021302825
 20
550.2773818014452
 30
0.0000000000000000
 11
709.7752021302825
 21
554.2773818014452
 31
0.0000000000000000
  0
LINE
  5
1CA
100
AcDbEntity
  8
MAIN0
  6
BYBLOCK
 62
0
100
AcDbLine
 10
709.7752021302825
 20
502.0773818014454
 30
0.0000000000000000
 11
709.7752021302825
 21
498.0773818014454
 31
0.0000000000000000
  0
MTEXT
  5
1CB
100
AcDbEntity
  8
MAIN0
  6
BYBLOCK
 62
0
100
AcDbMText
 10
703.0752023210174
 20
526.1773818014453
 30
0.0000000000000000
 40
12.39999961853027
 41
0.0000000000000000
 71
     5
 72
     1
  1
\A1;32
 11
6.123233995736766e-017
 21
1.000000000000000
 31
0.0000000000000000
  7
STANDARD
  0
ENDBLK
  5
1CC
100
AcDbEntity
  8
MAIN0
  6
CONTINUOUS
 62
3
100
AcDbBlockEnd
  0
BLOCK
  5
1CF
100
AcDbEntity
  8
MAIN0
  6
CONTINUOUS
 62
3
100
AcDbBlockBegin
  2
*D25
 70
    65
 10
0.0
 20
0.0
 30
0.0
  0
LINE
  5
1D0
100
AcDbEntity
  8
MAIN0
  6
BYBLOCK
 62
0
100
AcDbLine
 10
301.3210778369892
 20
410.0773818014455
 30
0.0000000000000000
 11
347.2650022582347
 21
410.0773818014454
 31
0.0000000000000000
  0
LINE
  5
1D1
100
AcDbEntity
  8
MAIN0
  6
BYBLOCK
 62
0
100
AcDbLine
 10
339.2650022582347
 20
410.0773818014454
 30
0.0000000000000000
 11
339.2650022582347
 21
431.0773818014456
 31
0.0000000000000000
  0
INSERT
  5
1D2
100
AcDbEntity
  8
MAIN0
  6
BYBLOCK
 62
0
100
AcDbBlockReference
  2
_OPEN
 10
339.2650022582347
 20
410.0773818014454
 30
0.0000000000000000
 41
8.000000000000000
 42
8.000000000000000
 43
8.000000000000000
 50
90.00000000000000
  0
INSERT
  5
1D3
100
AcDbEntity
  8
MAIN0
  6
BYBLOCK
 62
0
100
AcDbBlockReference
  2
_OPEN
 10
339.2650022582347
 20
431.0773818014456
 30
0.0000000000000000
 41
8.000000000000000
 42
8.000000000000000
 43
8.000000000000000
 50
270.0000000000000
  0
LINE
  5
1D4
100
AcDbEntity
  8
MAIN0
  6
BYBLOCK
 62
0
100
AcDbLine
 10
339.2650022582347
 20
402.0773818014454
 30
0.0000000000000000
 11
339.2650022582347
 21
398.0773818014454
 31
0.0000000000000000
  0
LINE
  5
1D5
100
AcDbEntity
  8
MAIN0
  6
BYBLOCK
 62
0
100
AcDbLine
 10
339.2650022582347
 20
439.0773818014456
 30
0.0000000000000000
 11
339.2650022582347
 21
443.0773818014456
 31
0.0000000000000000
  0
LINE
  5
1D6
100
AcDbEntity
  8
MAIN0
  6
BYBLOCK
 62
0
100
AcDbLine
 10
301.3210778369891
 20
431.0773818014455
 30
0.0000000000000000
 11
347.2650022582347
 21
431.0773818014456
 31
0.0000000000000000
  0
MTEXT
  5
1D7
100
AcDbEntity
  8
MAIN0
  6
BYBLOCK
 62
0
100
AcDbMText
 10
332.5650024489696
 20
420.5773818014455
 30
0.0000000000000000
 40
12.39999961853027
 41
0.0000000000000000
 71
     5
 72
     1
  1
\A1;21
 11
6.123233995736766e-017
 21
1.000000000000000
 31
0.0000000000000000
  7
STANDARD
  0
ENDBLK
  5
1D8
100
AcDbEntity
  8
MAIN0
  6
CONTINUOUS
 62
3
100
AcDbBlockEnd
  0
BLOCK
  5
1DA
100
AcDbEntity
  8
MAIN0
  6
CONTINUOUS
 62
3
100
AcDbBlockBegin
  2
*D26
 70
    65
 10
0.0
 20
0.0
 30
0.0
  0
LINE
  5
1DB
100
AcDbEntity
  8
MAIN0
  6
BYBLOCK
 62
0
100
AcDbLine
 10
301.3210778369891
 20
431.0773818014455
 30
0.0000000000000000
 11
347.2650022582347
 21
431.0773818014456
 31
0.0000000000000000
  0
LINE
  5
1DC
100
AcDbEntity
  8
MAIN0
  6
BYBLOCK
 62
0
100
AcDbLine
 10
339.2650022582347
 20
439.0773818014456
 30
0.0000000000000000
 11
339.2650022582347
 21
478.0773818014454
 31
0.0000000000000000
  0
INSERT
  5
1DD
100
AcDbEntity
  8
MAIN0
  6
BYBLOCK
 62
0
100
AcDbBlockReference
  2
_OPEN
 10
339.2650022582347
 20
431.0773818014456
 30
0.0000000000000000
 41
8.000000000000000
 42
8.000000000000000
 43
8.000000000000000
 50
270.0000000000000
  0
INSERT
  5
1DE
100
AcDbEntity
  8
MAIN0
  6
BYBLOCK
 62
0
100
AcDbBlockReference
  2
_OPEN
 10
339.2650022582347
 20
486.0773818014454
 30
0.0000000000000000
 41
8.000000000000000
 42
8.000000000000000
 43
8.000000000000000
 50
90.00000000000000
  0
LINE
  5
1DF
100
AcDbEntity
  8
MAIN0
  6
BYBLOCK
 62
0
100
AcDbLine
 10
301.3210778369893
 20
486.0773818014454
 30
0.0000000000000000
 11
347.2650022582347
 21
486.0773818014454
 31
0.0000000000000000
  0
MTEXT
  5
1E0
100
AcDbEntity
  8
MAIN0
  6
BYBLOCK
 62
0
100
AcDbMText
 10
332.5650024489696
 20
458.5773818014455
 30
0.0000000000000000
 40
12.39999961853027
 41
0.0000000000000000
 71
     5
 72
     1
  1
\A1;55
 11
6.123233995736766e-017
 21
1.000000000000000
 31
0.0000000000000000
  7
STANDARD
  0
ENDBLK
  5
1E1
100
AcDbEntity
  8
MAIN0
  6
CONTINUOUS
 62
3
100
AcDbBlockEnd
  0
BLOCK
  5
1E3
100
AcDbEntity
  8
MAIN0
  6
CONTINUOUS
 62
3
100
AcDbBlockBegin
  2
*D27
 70
    65
 10
0.0
 20
0.0
 30
0.0
  0
LINE
  5
1E4
100
AcDbEntity
  8
MAIN0
  6
BYBLOCK
 62
0
100
AcDbLine
 10
301.3210778369893
 20
486.0773818014454
 30
0.0000000000000000
 11
347.2650022582347
 21
486.0773818014454
 31
0.0000000000000000
  0
LINE
  5
1E5
100
AcDbEntity
  8
MAIN0
  6
BYBLOCK
 62
0
100
AcDbLine
 10
339.2650022582347
 20
486.0773818014454
 30
0.0000000000000000
 11
339.2650022582347
 21
510.0773818009794
 31
0.0000000000000000
  0
INSERT
  5
1E6
100
AcDbEntity
  8
MAIN0
  6
BYBLOCK
 62
0
100
AcDbBlockReference
  2
_OPEN
 10
339.2650022582347
 20
486.0773818014454
 30
0.0000000000000000
 41
8.000000000000000
 42
8.000000000000000
 43
8.000000000000000
 50
90.00000000000000
  0
INSERT
  5
1E7
100
AcDbEntity
  8
MAIN0
  6
BYBLOCK
 62
0
100
AcDbBlockReference
  2
_OPEN
 10
339.2650022582347
 20
510.0773818009794
 30
0.0000000000000000
 41
8.000000000000000
 42
8.000000000000000
 43
8.000000000000000
 50
270.0000000000000
  0
LINE
  5
1E8
100
AcDbEntity
  8
MAIN0
  6
BYBLOCK
 62
0
100
AcDbLine
 10
339.2650022582347
 20
478.0773818014454
 30
0.0000000000000000
 11
339.2650022582347
 21
474.0773818014454
 31
0.0000000000000000
  0
LINE
  5
1E9
100
AcDbEntity
  8
MAIN0
  6
BYBLOCK
 62
0
100
AcDbLine
 10
339.2650022582347
 20
518.0773818009794
 30
0.0000000000000000
 11
339.2650022582347
 21
522.0773818009794
 31
0.0000000000000000
  0
LINE
  5
1EA
100
AcDbEntity
  8
MAIN0
  6
BYBLOCK
 62
0
100
AcDbLine
 10
301.6210778368770
 20
510.0773818009794
 30
0.0000000000000000
 11
347.2650022582347
 21
510.0773818009794
 31
0.0000000000000000
  0
MTEXT
  5
1EB
100
AcDbEntity
  8
MAIN0
  6
BYBLOCK
 62
0
100
AcDbMText
 10
332.5650024489696
 20
498.0773818012124
 30
0.0000000000000000
 40
12.39999961853027
 41
0.0000000000000000
 71
     5
 72
     1
  1
\A1;24
 11
6.123233995736766e-017
 21
1.000000000000000
 31
0.0000000000000000
  7
STANDARD
  0
ENDBLK
  5
1EC
100
AcDbEntity
  8
MAIN0
  6
CONTINUOUS
 62
3
100
AcDbBlockEnd
  0
BLOCK
  5
271
100
AcDbEntity
  8
MAIN0
  6
CONTINUOUS
 62
3
100
AcDbBlockBegin
  2
*D28
 70
    65
 10
0.0
 20
0.0
 30
0.0
  0
LINE
  5
272
100
AcDbEntity
  8
MAIN0
  6
BYBLOCK
 62
0
100
AcDbLine
 10
645.7985261154006
 20
1006.249903077992
 30
0.0000000000000000
 11
645.7985261154006
 21
1055.592116307153
 31
0.0000000000000000
  0
LINE
  5
273
100
AcDbEntity
  8
MAIN0
  6
BYBLOCK
 62
0
100
AcDbLine
 10
653.7985261154006
 20
1047.592116307153
 30
0.0000000000000000
 11
680.7985261154004
 21
1047.592116307153
 31
0.0000000000000000
  0
INSERT
  5
274
100
AcDbEntity
  8
MAIN0
  6
BYBLOCK
 62
0
100
AcDbBlockReference
  2
_OPEN
 10
645.7985261154006
 20
1047.592116307153
 30
0.0000000000000000
 41
8.000000000000000
 42
8.000000000000000
 43
8.000000000000000
 50
180.0000000000000
  0
INSERT
  5
275
100
AcDbEntity
  8
MAIN0
  6
BYBLOCK
 62
0
100
AcDbBlockReference
  2
_OPEN
 10
688.7985261154004
 20
1047.592116307153
 30
0.0000000000000000
 41
8.000000000000000
 42
8.000000000000000
 43
8.000000000000000
 50
0.0000000000000000
  0
LINE
  5
276
100
AcDbEntity
  8
MAIN0
  6
BYBLOCK
 62
0
100
AcDbLine
 10
688.7985261154004
 20
937.8499030777297
 30
0.0000000000000000
 11
688.7985261154004
 21
1055.592116307153
 31
0.0000000000000000
  0
MTEXT
  5
277
100
AcDbEntity
  8
MAIN0
  6
BYBLOCK
 62
0
100
AcDbMText
 10
667.2985261154005
 20
1054.292116116418
 30
0.0000000000000000
 40
12.39999961853027
 41
0.0000000000000000
 71
     5
 72
     1
  1
\A1;43
 11
1.000000000000000
 21
0.0000000000000000
 31
0.0000000000000000
  7
STANDARD
  0
ENDBLK
  5
278
100
AcDbEntity
  8
MAIN0
  6
CONTINUOUS
 62
3
100
AcDbBlockEnd
  0
BLOCK
  5
27A
100
AcDbEntity
  8
MAIN0
  6
CONTINUOUS
 62
3
100
AcDbBlockBegin
  2
*D29
 70
    65
 10
0.0
 20
0.0
 30
0.0
  0
LINE
  5
27B
100
AcDbEntity
  8
MAIN0
  6
BYBLOCK
 62
0
100
AcDbLine
 10
480.7985261153974
 20
871.2013052610921
 30
0.0000000000000000
 11
480.7985261153974
 21
792.1158444581184
 31
0.0000000000000000
  0
LINE
  5
27C
100
AcDbEntity
  8
MAIN0
  6
BYBLOCK
 62
0
100
AcDbLine
 10
488.7985261153974
 20
800.1158444581184
 30
0.0000000000000000
 11
527.7985261153974
 21
800.1158444581184
 31
0.0000000000000000
  0
INSERT
  5
27D
100
AcDbEntity
  8
MAIN0
  6
BYBLOCK
 62
0
100
AcDbBlockReference
  2
_OPEN
 10
480.7985261153974
 20
800.1158444581184
 30
0.0000000000000000
 41
8.000000000000000
 42
8.000000000000000
 43
8.000000000000000
 50
180.0000000000000
  0
INSERT
  5
27E
100
AcDbEntity
  8
MAIN0
  6
BYBLOCK
 62
0
100
AcDbBlockReference
  2
_OPEN
 10
535.7985261153974
 20
800.1158444581184
 30
0.0000000000000000
 41
8.000000000000000
 42
8.000000000000000
 43
8.000000000000000
 50
0.0000000000000000
  0
LINE
  5
27F
100
AcDbEntity
  8
MAIN0
  6
BYBLOCK
 62
0
100
AcDbLine
 10
535.7985261153974
 20
871.2013052610878
 30
0.0000000000000000
 11
535.7985261153974
 21
792.1158444581184
 31
0.0000000000000000
  0
MTEXT
  5
280
100
AcDbEntity
  8
MAIN0
  6
BYBLOCK
 62
0
100
AcDbMText
 10
508.2985261153974
 20
806.8158442673836
 30
0.0000000000000000
 40
12.39999961853027
 41
0.0000000000000000
 71
     5
 72
     1
  1
\A1;55
 11
1.000000000000000
 21
0.0000000000000000
 31
0.0000000000000000
  7
STANDARD
  0
ENDBLK
  5
281
100
AcDbEntity
  8
MAIN0
  6
CONTINUOUS
 62
3
100
AcDbBlockEnd
  0
BLOCK
  5
283
100
AcDbEntity
  8
MAIN0
  6
CONTINUOUS
 62
3
100
AcDbBlockBegin
  2
*D30
 70
    65
 10
0.0
 20
0.0
 30
0.0
  0
LINE
  5
284
100
AcDbEntity
  8
MAIN0
  6
BYBLOCK
 62
0
100
AcDbLine
 10
535.7985261153974
 20
871.2013052610878
 30
0.0000000000000000
 11
535.7985261153974
 21
792.1158444581184
 31
0.0000000000000000
  0
LINE
  5
285
100
AcDbEntity
  8
MAIN0
  6
BYBLOCK
 62
0
100
AcDbLine
 10
535.7985261153974
 20
800.1158444581184
 30
0.0000000000000000
 11
550.7985261154067
 21
800.1158444581184
 31
0.0000000000000000
  0
INSERT
  5
286
100
AcDbEntity
  8
MAIN0
  6
BYBLOCK
 62
0
100
AcDbBlockReference
  2
_OPEN
 10
535.7985261153974
 20
800.1158444581184
 30
0.0000000000000000
 41
8.000000000000000
 42
8.000000000000000
 43
8.000000000000000
 50
0.0000000000000000
  0
INSERT
  5
287
100
AcDbEntity
  8
MAIN0
  6
BYBLOCK
 62
0
100
AcDbBlockReference
  2
_OPEN
 10
550.7985261154067
 20
800.1158444581184
 30
0.0000000000000000
 41
8.000000000000000
 42
8.000000000000000
 43
8.000000000000000
 50
180.0000000000000
  0
LINE
  5
288
100
AcDbEntity
  8
MAIN0
  6
BYBLOCK
 62
0
100
AcDbLine
 10
527.7985261153974
 20
800.1158444581184
 30
0.0000000000000000
 11
523.7985261153974
 21
800.1158444581184
 31
0.0000000000000000
  0
LINE
  5
289
100
AcDbEntity
  8
MAIN0
  6
BYBLOCK
 62
0
100
AcDbLine
 10
558.7985261154067
 20
800.1158444581184
 30
0.0000000000000000
 11
571.0029065092627
 21
800.1158444581184
 31
0.0000000000000000
  0
LINE
  5
28A
100
AcDbEntity
  8
MAIN0
  6
BYBLOCK
 62
0
100
AcDbLine
 10
550.7985261154067
 20
840.9499029824821
 30
0.0000000000000000
 11
550.7985261154067
 21
792.1158444581184
 31
0.0000000000000000
  0
MTEXT
  5
28B
100
AcDbEntity
  8
MAIN0
  6
BYBLOCK
 62
0
100
AcDbMText
 10
562.8029066999976
 20
808.3158442673836
 30
0.0000000000000000
 40
12.39999961853027
 41
0.0000000000000000
 71
     5
 72
     1
  1
\A1;15
 11
1.000000000000000
 21
0.0000000000000000
 31
0.0000000000000000
  7
STANDARD
  0
ENDBLK
  5
28C
100
AcDbEntity
  8
MAIN0
  6
CONTINUOUS
 62
3
100
AcDbBlockEnd
  0
BLOCK
  5
28E
100
AcDbEntity
  8
MAIN0
  6
CONTINUOUS
 62
3
100
AcDbBlockBegin
  2
*D31
 70
    65
 10
0.0
 20
0.0
 30
0.0
  0
LINE
  5
28F
100
AcDbEntity
  8
MAIN0
  6
BYBLOCK
 62
0
100
AcDbLine
 10
645.7985261154004
 20
841.2999029826240
 30
0.0000000000000000
 11
645.7985261154004
 21
792.1158444581184
 31
0.0000000000000000
  0
LINE
  5
290
100
AcDbEntity
  8
MAIN0
  6
BYBLOCK
 62
0
100
AcDbLine
 10
645.7985261154004
 20
800.1158444581184
 30
0.0000000000000000
 11
660.7985261154006
 21
800.1158444581184
 31
0.0000000000000000
  0
INSERT
  5
291
100
AcDbEntity
  8
MAIN0
  6
BYBLOCK
 62
0
100
AcDbBlockReference
  2
_OPEN
 10
645.7985261154004
 20
800.1158444581184
 30
0.0000000000000000
 41
8.000000000000000
 42
8.000000000000000
 43
8.000000000000000
 50
0.0000000000000000
  0
INSERT
  5
292
100
AcDbEntity
  8
MAIN0
  6
BYBLOCK
 62
0
100
AcDbBlockReference
  2
_OPEN
 10
660.7985261154006
 20
800.1158444581184
 30
0.0000000000000000
 41
8.000000000000000
 42
8.000000000000000
 43
8.000000000000000
 50
180.0000000000000
  0
LINE
  5
293
100
AcDbEntity
  8
MAIN0
  6
BYBLOCK
 62
0
100
AcDbLine
 10
637.7985261154004
 20
800.1158444581184
 30
0.0000000000000000
 11
624.6126555176696
 21
800.1158444581184
 31
0.0000000000000000
  0
LINE
  5
294
100
AcDbEntity
  8
MAIN0
  6
BYBLOCK
 62
0
100
AcDbLine
 10
668.7985261154006
 20
800.1158444581184
 30
0.0000000000000000
 11
672.7985261154006
 21
800.1158444581184
 31
0.0000000000000000
  0
LINE
  5
295
100
AcDbEntity
  8
MAIN0
  6
BYBLOCK
 62
0
100
AcDbLine
 10
660.7985261154006
 20
860.2502761485721
 30
0.0000000000000000
 11
660.7985261154006
 21
792.1158444581184
 31
0.0000000000000000
  0
MTEXT
  5
296
100
AcDbEntity
  8
MAIN0
  6
BYBLOCK
 62
0
100
AcDbMText
 10
632.8126553269348
 20
808.3158442673836
 30
0.0000000000000000
 40
12.39999961853027
 41
0.0000000000000000
 71
     5
 72
     1
  1
\A1;15
 11
1.000000000000000
 21
0.0000000000000000
 31
0.0000000000000000
  7
STANDARD
  0
ENDBLK
  5
297
100
AcDbEntity
  8
MAIN0
  6
CONTINUOUS
 62
3
100
AcDbBlockEnd
  0
BLOCK
  5
299
100
AcDbEntity
  8
MAIN0
  6
CONTINUOUS
 62
3
100
AcDbBlockBegin
  2
*D32
 70
    65
 10
0.0
 20
0.0
 30
0.0
  0
LINE
  5
29A
100
AcDbEntity
  8
MAIN0
  6
BYBLOCK
 62
0
100
AcDbLine
 10
660.7985261154006
 20
860.2502761485721
 30
0.0000000000000000
 11
660.7985261154006
 21
792.1158444581184
 31
0.0000000000000000
  0
LINE
  5
29B
100
AcDbEntity
  8
MAIN0
  6
BYBLOCK
 62
0
100
AcDbLine
 10
668.7985261154006
 20
800.1158444581184
 30
0.0000000000000000
 11
702.7985261154006
 21
800.1158444581184
 31
0.0000000000000000
  0
INSERT
  5
29C
100
AcDbEntity
  8
MAIN0
  6
BYBLOCK
 62
0
100
AcDbBlockReference
  2
_OPEN
 10
660.7985261154006
 20
800.1158444581184
 30
0.0000000000000000
 41
8.000000000000000
 42
8.000000000000000
 43
8.000000000000000
 50
180.0000000000000
  0
INSERT
  5
29D
100
AcDbEntity
  8
MAIN0
  6
BYBLOCK
 62
0
100
AcDbBlockReference
  2
_OPEN
 10
710.7985261154006
 20
800.1158444581184
 30
0.0000000000000000
 41
8.000000000000000
 42
8.000000000000000
 43
8.000000000000000
 50
0.0000000000000000
  0
LINE
  5
29E
100
AcDbEntity
  8
MAIN0
  6
BYBLOCK
 62
0
100
AcDbLine
 10
710.7985261154006
 20
860.2502761485723
 30
0.0000000000000000
 11
710.7985261154006
 21
792.1158444581184
 31
0.0000000000000000
  0
MTEXT
  5
29F
100
AcDbEntity
  8
MAIN0
  6
BYBLOCK
 62
0
100
AcDbMText
 10
685.7985261154006
 20
806.8158442673836
 30
0.0000000000000000
 40
12.39999961853027
 41
0.0000000000000000
 71
     5
 72
     1
  1
\A1;50
 11
1.000000000000000
 21
0.0000000000000000
 31
0.0000000000000000
  7
STANDARD
  0
ENDBLK
  5
2A0
100
AcDbEntity
  8
MAIN0
  6
CONTINUOUS
 62
3
100
AcDbBlockEnd
  0
BLOCK
  5
2A2
100
AcDbEntity
  8
MAIN0
  6
CONTINUOUS
 62
3
100
AcDbBlockBegin
  2
*D33
 70
    65
 10
0.0
 20
0.0
 30
0.0
  0
LINE
  5
2A3
100
AcDbEntity
  8
MAIN0
  6
BYBLOCK
 62
0
100
AcDbLine
 10
467.1588940726810
 20
883.6499030303083
 30
0.0000000000000000
 11
420.5974883306071
 21
883.6499030303083
 31
0.0000000000000000
  0
LINE
  5
2A4
100
AcDbEntity
  8
MAIN0
  6
BYBLOCK
 62
0
100
AcDbLine
 10
428.5974883306071
 20
891.6499030303083
 30
0.0000000000000000
 11
428.5974883306071
 21
955.6499030303083
 31
0.0000000000000000
  0
INSERT
  5
2A5
100
AcDbEntity
  8
MAIN0
  6
BYBLOCK
 62
0
100
AcDbBlockReference
  2
_OPEN
 10
428.5974883306071
 20
883.6499030303083
 30
0.0000000000000000
 41
8.000000000000000
 42
8.000000000000000
 43
8.000000000000000
 50
270.0000000000000
  0
INSERT
  5
2A6
100
AcDbEntity
  8
MAIN0
  6
BYBLOCK
 62
0
100
AcDbBlockReference
  2
_OPEN
 10
428.5974883306071
 20
963.6499030303083
 30
0.0000000000000000
 41
8.000000000000000
 42
8.000000000000000
 43
8.000000000000000
 50
90.00000000000000
  0
LINE
  5
2A7
100
AcDbEntity
  8
MAIN0
  6
BYBLOCK
 62
0
100
AcDbLine
 10
467.1588940726809
 20
963.6499030303083
 30
0.0000000000000000
 11
420.5974883306071
 21
963.6499030303083
 31
0.0000000000000000
  0
MTEXT
  5
2A8
100
AcDbEntity
  8
MAIN0
  6
BYBLOCK
 62
0
100
AcDbMText
 10
421.8974885213419
 20
923.6499030303083
 30
0.0000000000000000
 40
12.39999961853027
 41
0.0000000000000000
 71
     5
 72
     1
  1
\A1;80
 11
6.123233995736766e-017
 21
1.000000000000000
 31
0.0000000000000000
  7
STANDARD
  0
ENDBLK
  5
2A9
100
AcDbEntity
  8
MAIN0
  6
CONTINUOUS
 62
3
100
AcDbBlockEnd
  0
BLOCK
  5
2AB
100
AcDbEntity
  8
MAIN0
  6
CONTINUOUS
 62
3
100
AcDbBlockBegin
  2
*D34
 70
    65
 10
0.0
 20
0.0
 30
0.0
  0
LINE
  5
2AC
100
AcDbEntity
  8
MAIN0
  6
BYBLOCK
 62
0
100
AcDbLine
 10
723.5295722782437
 20
873.6499030303085
 30
0.0000000000000000
 11
781.6462082838302
 21
873.6499030303085
 31
0.0000000000000000
  0
LINE
  5
2AD
100
AcDbEntity
  8
MAIN0
  6
BYBLOCK
 62
0
100
AcDbLine
 10
773.6462082838302
 20
881.6499030303085
 30
0.0000000000000000
 11
773.6462082838302
 21
965.6499030303086
 31
0.0000000000000000
  0
INSERT
  5
2AE
100
AcDbEntity
  8
MAIN0
  6
BYBLOCK
 62
0
100
AcDbBlockReference
  2
_OPEN
 10
773.6462082838302
 20
873.6499030303085
 30
0.0000000000000000
 41
8.000000000000000
 42
8.000000000000000
 43
8.000000000000000
 50
270.0000000000000
  0
INSERT
  5
2AF
100
AcDbEntity
  8
MAIN0
  6
BYBLOCK
 62
0
100
AcDbBlockReference
  2
_OPEN
 10
773.6462082838302
 20
973.6499030303086
 30
0.0000000000000000
 41
8.000000000000000
 42
8.000000000000000
 43
8.000000000000000
 50
90.00000000000000
  0
LINE
  5
2B0
100
AcDbEntity
  8
MAIN0
  6
BYBLOCK
 62
0
100
AcDbLine
 10
723.5295722782437
 20
973.6499030303086
 30
0.0000000000000000
 11
781.6462082838302
 21
973.6499030303086
 31
0.0000000000000000
  0
MTEXT
  5
2B1
100
AcDbEntity
  8
MAIN0
  6
BYBLOCK
 62
0
100
AcDbMText
 10
765.4462084745651
 20
942.8929149985235
 30
0.0000000000000000
 40
12.39999961853027
 41
0.0000000000000000
 71
     5
 72
     1
  1
\A1;100
 11
6.123233995736766e-017
 21
1.000000000000000
 31
0.0000000000000000
  7
STANDARD
  0
ENDBLK
  5
2B2
100
AcDbEntity
  8
MAIN0
  6
CONTINUOUS
 62
3
100
AcDbBlockEnd
  0
BLOCK
  5
327
100
AcDbEntity
  8
MAIN0
  6
CONTINUOUS
 62
3
100
AcDbBlockBegin
  2
*D35
 70
    65
 10
0.0
 20
0.0
 30
0.0
  0
LINE
  5
328
100
AcDbEntity
  8
MAIN0
  6
BYBLOCK
 62
0
100
AcDbLine
 10
550.7985261154016
 20
506.8773817537618
 30
0.0000000000000000
 11
550.7985261154016
 21
355.0210315290951
 31
0.0000000000000000
  0
LINE
  5
329
100
AcDbEntity
  8
MAIN0
  6
BYBLOCK
 62
0
100
AcDbLine
 10
558.7985261154016
 20
363.0210315290951
 30
0.0000000000000000
 11
624.7985261152526
 21
363.0210315290951
 31
0.0000000000000000
  0
INSERT
  5
32A
100
AcDbEntity
  8
MAIN0
  6
BYBLOCK
 62
0
100
AcDbBlockReference
  2
_OPEN
 10
550.7985261154016
 20
363.0210315290951
 30
0.0000000000000000
 41
8.000000000000000
 42
8.000000000000000
 43
8.000000000000000
 50
180.0000000000000
  0
INSERT
  5
32B
100
AcDbEntity
  8
MAIN0
  6
BYBLOCK
 62
0
100
AcDbBlockReference
  2
_OPEN
 10
632.7985261152526
 20
363.0210315290951
 30
0.0000000000000000
 41
8.000000000000000
 42
8.000000000000000
 43
8.000000000000000
 50
0.0000000000000000
  0
LINE
  5
32C
100
AcDbEntity
  8
MAIN0
  6
BYBLOCK
 62
0
100
AcDbLine
 10
632.7985261152526
 20
393.8773817537617
 30
0.0000000000000000
 11
632.7985261152526
 21
355.0210315290951
 31
0.0000000000000000
  0
MTEXT
  5
32D
100
AcDbEntity
  8
MAIN0
  6
BYBLOCK
 62
0
100
AcDbMText
 10
591.7985261153272
 20
369.7210313383603
 30
0.0000000000000000
 40
12.39999961853027
 41
0.0000000000000000
 71
     5
 72
     1
  1
\A1;82
 11
1.000000000000000
 21
0.0000000000000000
 31
0.0000000000000000
  7
STANDARD
  0
ENDBLK
  5
32E
100
AcDbEntity
  8
MAIN0
  6
CONTINUOUS
 62
3
100
AcDbBlockEnd
  0
BLOCK
  5
330
100
AcDbEntity
  8
MAIN0
  6
CONTINUOUS
 62
3
100
AcDbBlockBegin
  2
*D36
 70
    65
 10
0.0
 20
0.0
 30
0.0
  0
LINE
  5
331
100
AcDbEntity
  8
MAIN0
  6
BYBLOCK
 62
0
100
AcDbLine
 10
632.7985261152526
 20
393.8773817537617
 30
0.0000000000000000
 11
632.7985261152526
 21
355.0210315290951
 31
0.0000000000000000
  0
LINE
  5
332
100
AcDbEntity
  8
MAIN0
  6
BYBLOCK
 62
0
100
AcDbLine
 10
640.7985261152526
 20
363.0210315290951
 30
0.0000000000000000
 11
987.7985261154021
 21
363.0210315290951
 31
0.0000000000000000
  0
INSERT
  5
333
100
AcDbEntity
  8
MAIN0
  6
BYBLOCK
 62
0
100
AcDbBlockReference
  2
_OPEN
 10
632.7985261152526
 20
363.0210315290951
 30
0.0000000000000000
 41
8.000000000000000
 42
8.000000000000000
 43
8.000000000000000
 50
180.0000000000000
  0
INSERT
  5
334
100
AcDbEntity
  8
MAIN0
  6
BYBLOCK
 62
0
100
AcDbBlockReference
  2
_OPEN
 10
995.7985261154021
 20
363.0210315290951
 30
0.0000000000000000
 41
8.000000000000000
 42
8.000000000000000
 43
8.000000000000000
 50
0.0000000000000000
  0
LINE
  5
335
100
AcDbEntity
  8
MAIN0
  6
BYBLOCK
 62
0
100
AcDbLine
 10
995.7985261154021
 20
406.8773817537615
 30
0.0000000000000000
 11
995.7985261154021
 21
355.0210315290951
 31
0.0000000000000000
  0
MTEXT
  5
336
100
AcDbEntity
  8
MAIN0
  6
BYBLOCK
 62
0
100
AcDbMText
 10
814.2985261153274
 20
369.7210313383603
 30
0.0000000000000000
 40
12.39999961853027
 41
0.0000000000000000
 71
     5
 72
     1
  1
\A1;363
 11
1.000000000000000
 21
0.0000000000000000
 31
0.0000000000000000
  7
STANDARD
  0
ENDBLK
  5
337
100
AcDbEntity
  8
MAIN0
  6
CONTINUOUS
 62
3
100
AcDbBlockEnd
  0
BLOCK
  5
339
100
AcDbEntity
  8
MAIN0
  6
CONTINUOUS
 62
3
100
AcDbBlockBegin
  2
*D37
 70
    65
 10
0.0
 20
0.0
 30
0.0
  0
LINE
  5
33A
100
AcDbEntity
  8
MAIN0
  6
BYBLOCK
 62
0
100
AcDbLine
 10
854.4048981944823
 20
418.0773818014457
 30
0.0000000000000000
 11
854.4048981944823
 21
450.5773817988642
 31
0.0000000000000000
  0
INSERT
  5
33B
100
AcDbEntity
  8
MAIN0
  6
BYBLOCK
 62
0
100
AcDbBlockReference
  2
_OPEN
 10
854.4048981944823
 20
410.0773818014457
 30
0.0000000000000000
 41
8.000000000000000
 42
8.000000000000000
 43
8.000000000000000
 50
270.0000000000000
  0
INSERT
  5
33C
100
AcDbEntity
  8
MAIN0
  6
BYBLOCK
 62
0
100
AcDbBlockReference
  2
_OPEN
 10
854.4048981944823
 20
458.5773817988642
 30
0.0000000000000000
 41
8.000000000000000
 42
8.000000000000000
 43
8.000000000000000
 50
90.00000000000000
  0
LINE
  5
33D
100
AcDbEntity
  8
MAIN0
  6
BYBLOCK
 62
0
100
AcDbLine
 10
898.5985260677182
 20
458.5773817988642
 30
0.0000000000000000
 11
846.4048981944823
 21
458.5773817988642
 31
0.0000000000000000
  0
MTEXT
  5
33E
100
AcDbEntity
  8
MAIN0
  6
BYBLOCK
 62
0
100
AcDbMText
 10
846.2048983852171
 20
428.0719595606900
 30
0.0000000000000000
 40
12.39999961853027
 41
0.0000000000000000
 71
     5
 72
     1
  1
\A1;48.5
 11
6.123233995736766e-017
 21
1.000000000000000
 31
0.0000000000000000
  7
STANDARD
  0
ENDBLK
  5
33F
100
AcDbEntity
  8
MAIN0
  6
CONTINUOUS
 62
3
100
AcDbBlockEnd
  0
BLOCK
  5
341
100
AcDbEntity
  8
MAIN0
  6
CONTINUOUS
 62
3
100
AcDbBlockBegin
  2
*D38
 70
    65
 10
0.0
 20
0.0
 30
0.0
  0
LINE
  5
342
100
AcDbEntity
  8
MAIN0
  6
BYBLOCK
 62
0
100
AcDbLine
 10
898.5985260677182
 20
458.5773817988642
 30
0.0000000000000000
 11
846.4048981944823
 21
458.5773817988642
 31
0.0000000000000000
  0
LINE
  5
343
100
AcDbEntity
  8
MAIN0
  6
BYBLOCK
 62
0
100
AcDbLine
 10
854.4048981944823
 20
466.5773817988642
 30
0.0000000000000000
 11
854.4048981944823
 21
502.0773818014455
 31
0.0000000000000000
  0
INSERT
  5
344
100
AcDbEntity
  8
MAIN0
  6
BYBLOCK
 62
0
100
AcDbBlockReference
  2
_OPEN
 10
854.4048981944823
 20
458.5773817988642
 30
0.0000000000000000
 41
8.000000000000000
 42
8.000000000000000
 43
8.000000000000000
 50
270.0000000000000
  0
INSERT
  5
345
100
AcDbEntity
  8
MAIN0
  6
BYBLOCK
 62
0
100
AcDbBlockReference
  2
_OPEN
 10
854.4048981944823
 20
510.0773818014455
 30
0.0000000000000000
 41
8.000000000000000
 42
8.000000000000000
 43
8.000000000000000
 50
90.00000000000000
  0
LINE
  5
346
100
AcDbEntity
  8
MAIN0
  6
BYBLOCK
 62
0
100
AcDbLine
 10
734.9985261630852
 20
510.0773818014455
 30
0.0000000000000000
 11
862.4048981944823
 21
510.0773818014455
 31
0.0000000000000000
  0
MTEXT
  5
347
100
AcDbEntity
  8
MAIN0
  6
BYBLOCK
 62
0
100
AcDbMText
 10
847.7048983852171
 20
484.3273818001549
 30
0.0000000000000000
 40
12.39999961853027
 41
0.0000000000000000
 71
     5
 72
     1
  1
\A1;51.5
 11
6.123233995736766e-017
 21
1.000000000000000
 31
0.0000000000000000
  7
STANDARD
  0
ENDBLK
  5
348
100
AcDbEntity
  8
MAIN0
  6
CONTINUOUS
 62
3
100
AcDbBlockEnd
  0
BLOCK
  5
34C
100
AcDbEntity
  8
MAIN0
  6
CONTINUOUS
 62
3
100
AcDbBlockBegin
  2
*D39
 70
    65
 10
0.0
 20
0.0
 30
0.0
  0
LINE
  5
34D
100
AcDbEntity
  8
MAIN0
  6
BYBLOCK
 62
0
100
AcDbLine
 10
1146.805846142646
 20
478.2773560789304
 30
0.0000000000000000
 11
1146.805846142646
 21
748.2298698421686
 31
0.0000000000000000
  0
LINE
  5
34E
100
AcDbEntity
  8
MAIN0
  6
BYBLOCK
 62
0
100
AcDbLine
 10
1146.805846142646
 20
740.2298698421686
 30
0.0000000000000000
 11
1161.805846142646
 21
740.2298698421686
 31
0.0000000000000000
  0
INSERT
  5
34F
100
AcDbEntity
  8
MAIN0
  6
BYBLOCK
 62
0
100
AcDbBlockReference
  2
_OPEN
 10
1146.805846142646
 20
740.2298698421686
 30
0.0000000000000000
 41
8.000000000000000
 42
8.000000000000000
 43
8.000000000000000
 50
0.0000000000000000
  0
INSERT
  5
350
100
AcDbEntity
  8
MAIN0
  6
BYBLOCK
 62
0
100
AcDbBlockReference
  2
_OPEN
 10
1161.805846142646
 20
740.2298698421686
 30
0.0000000000000000
 41
8.000000000000000
 42
8.000000000000000
 43
8.000000000000000
 50
180.0000000000000
  0
LINE
  5
351
100
AcDbEntity
  8
MAIN0
  6
BYBLOCK
 62
0
100
AcDbLine
 10
1138.805846142646
 20
740.2298698421686
 30
0.0000000000000000
 11
1134.805846142646
 21
740.2298698421686
 31
0.0000000000000000
  0
LINE
  5
352
100
AcDbEntity
  8
MAIN0
  6
BYBLOCK
 62
0
100
AcDbLine
 10
1169.805846142646
 20
740.2298698421686
 30
0.0000000000000000
 11
1173.805846142646
 21
740.2298698421686
 31
0.0000000000000000
  0
LINE
  5
353
100
AcDbEntity
  8
MAIN0
  6
BYBLOCK
 62
0
100
AcDbLine
 10
1161.805846142639
 20
487.8773560789303
 30
0.0000000000000000
 11
1161.805846142646
 21
748.2298698421686
 31
0.0000000000000000
  0
MTEXT
  5
354
100
AcDbEntity
  8
MAIN0
  6
BYBLOCK
 62
0
100
AcDbMText
 10
1154.305846142646
 20
746.9298696514337
 30
0.0000000000000000
 40
12.39999961853027
 41
0.0000000000000000
 71
     5
 72
     1
  1
\A1;15
 11
1.000000000000000
 21
0.0000000000000000
 31
0.0000000000000000
  7
STANDARD
  0
ENDBLK
  5
355
100
AcDbEntity
  8
MAIN0
  6
CONTINUOUS
 62
3
100
AcDbBlockEnd
  0
BLOCK
  5
357
100
AcDbEntity
  8
MAIN0
  6
CONTINUOUS
 62
3
100
AcDbBlockBegin
  2
*D40
 70
    65
 10
0.0
 20
0.0
 30
0.0
  0
LINE
  5
358
100
AcDbEntity
  8
MAIN0
  6
BYBLOCK
 62
0
100
AcDbLine
 10
1161.805846142639
 20
487.8773560789303
 30
0.0000000000000000
 11
1161.805846142646
 21
748.2298698421686
 31
0.0000000000000000
  0
LINE
  5
359
100
AcDbEntity
  8
MAIN0
  6
BYBLOCK
 62
0
100
AcDbLine
 10
1169.805846142646
 20
740.2298698421686
 30
0.0000000000000000
 11
1190.805846142811
 21
740.2298698421686
 31
0.0000000000000000
  0
INSERT
  5
35A
100
AcDbEntity
  8
MAIN0
  6
BYBLOCK
 62
0
100
AcDbBlockReference
  2
_OPEN
 10
1161.805846142646
 20
740.2298698421686
 30
0.0000000000000000
 41
8.000000000000000
 42
8.000000000000000
 43
8.000000000000000
 50
180.0000000000000
  0
INSERT
  5
35B
100
AcDbEntity
  8
MAIN0
  6
BYBLOCK
 62
0
100
AcDbBlockReference
  2
_OPEN
 10
1198.805846142811
 20
740.2298698421686
 30
0.0000000000000000
 41
8.000000000000000
 42
8.000000000000000
 43
8.000000000000000
 50
0.0000000000000000
  0
LINE
  5
35C
100
AcDbEntity
  8
MAIN0
  6
BYBLOCK
 62
0
100
AcDbLine
 10
1198.805846142811
 20
691.2773560789328
 30
0.0000000000000000
 11
1198.805846142811
 21
748.2298698421686
 31
0.0000000000000000
  0
MTEXT
  5
35D
100
AcDbEntity
  8
MAIN0
  6
BYBLOCK
 62
0
100
AcDbMText
 10
1180.305846142729
 20
746.9298696514337
 30
0.0000000000000000
 40
12.39999961853027
 41
0.0000000000000000
 71
     5
 72
     1
  1
\A1;37
 11
1.000000000000000
 21
0.0000000000000000
 31
0.0000000000000000
  7
STANDARD
  0
ENDBLK
  5
35E
100
AcDbEntity
  8
MAIN0
  6
CONTINUOUS
 62
3
100
AcDbBlockEnd
  0
BLOCK
  5
360
100
AcDbEntity
  8
MAIN0
  6
CONTINUOUS
 62
3
100
AcDbBlockBegin
  2
*D41
 70
    65
 10
0.0
 20
0.0
 30
0.0
  0
LINE
  5
361
100
AcDbEntity
  8
MAIN0
  6
BYBLOCK
 62
0
100
AcDbLine
 10
1198.805846142811
 20
691.2773560789328
 30
0.0000000000000000
 11
1198.805846142811
 21
748.2298698421686
 31
0.0000000000000000
  0
LINE
  5
362
100
AcDbEntity
  8
MAIN0
  6
BYBLOCK
 62
0
100
AcDbLine
 10
1206.805846142811
 20
740.2298698421686
 30
0.0000000000000000
 11
1285.805846142823
 21
740.2298698421686
 31
0.0000000000000000
  0
INSERT
  5
363
100
AcDbEntity
  8
MAIN0
  6
BYBLOCK
 62
0
100
AcDbBlockReference
  2
_OPEN
 10
1198.805846142811
 20
740.2298698421686
 30
0.0000000000000000
 41
8.000000000000000
 42
8.000000000000000
 43
8.000000000000000
 50
180.0000000000000
  0
INSERT
  5
364
100
AcDbEntity
  8
MAIN0
  6
BYBLOCK
 62
0
100
AcDbBlockReference
  2
_OPEN
 10
1293.805846142823
 20
740.2298698421686
 30
0.0000000000000000
 41
8.000000000000000
 42
8.000000000000000
 43
8.000000000000000
 50
0.0000000000000000
  0
LINE
  5
365
100
AcDbEntity
  8
MAIN0
  6
BYBLOCK
 62
0
100
AcDbLine
 10
1293.805846142823
 20
703.2773560789306
 30
0.0000000000000000
 11
1293.805846142823
 21
748.2298698421686
 31
0.0000000000000000
  0
MTEXT
  5
366
100
AcDbEntity
  8
MAIN0
  6
BYBLOCK
 62
0
100
AcDbMText
 10
1246.305846142817
 20
746.9298696514337
 30
0.0000000000000000
 40
12.39999961853027
 41
0.0000000000000000
 71
     5
 72
     1
  1
\A1;95
 11
1.000000000000000
 21
0.0000000000000000
 31
0.0000000000000000
  7
STANDARD
  0
ENDBLK
  5
367
100
AcDbEntity
  8
MAIN0
  6
CONTINUOUS
 62
3
100
AcDbBlockEnd
  0
BLOCK
  5
369
100
AcDbEntity
  8
MAIN0
  6
CONTINUOUS
 62
3
100
AcDbBlockBegin
  2
*D42
 70
    65
 10
0.0
 20
0.0
 30
0.0
  0
LINE
  5
36A
100
AcDbEntity
  8
MAIN0
  6
BYBLOCK
 62
0
100
AcDbLine
 10
1146.805846142646
 20
478.2773560789304
 30
0.0000000000000000
 11
1146.805846142646
 21
779.0453127091353
 31
0.0000000000000000
  0
LINE
  5
36B
100
AcDbEntity
  8
MAIN0
  6
BYBLOCK
 62
0
100
AcDbLine
 10
1154.805846142646
 20
771.0453127091353
 30
0.0000000000000000
 11
1285.805846142823
 21
771.0453127091353
 31
0.0000000000000000
  0
INSERT
  5
36C
100
AcDbEntity
  8
MAIN0
  6
BYBLOCK
 62
0
100
AcDbBlockReference
  2
_OPEN
 10
1146.805846142646
 20
771.0453127091353
 30
0.0000000000000000
 41
8.000000000000000
 42
8.000000000000000
 43
8.000000000000000
 50
180.0000000000000
  0
INSERT
  5
36D
100
AcDbEntity
  8
MAIN0
  6
BYBLOCK
 62
0
100
AcDbBlockReference
  2
_OPEN
 10
1293.805846142823
 20
771.0453127091353
 30
0.0000000000000000
 41
8.000000000000000
 42
8.000000000000000
 43
8.000000000000000
 50
0.0000000000000000
  0
LINE
  5
36E
100
AcDbEntity
  8
MAIN0
  6
BYBLOCK
 62
0
100
AcDbLine
 10
1293.805846142823
 20
703.2773560789304
 30
0.0000000000000000
 11
1293.805846142823
 21
779.0453127091353
 31
0.0000000000000000
  0
MTEXT
  5
36F
100
AcDbEntity
  8
MAIN0
  6
BYBLOCK
 62
0
100
AcDbMText
 10
1220.305846142735
 20
777.7453125184004
 30
0.0000000000000000
 40
12.39999961853027
 41
0.0000000000000000
 71
     5
 72
     1
  1
\A1;147
 11
1.000000000000000
 21
0.0000000000000000
 31
0.0000000000000000
  7
STANDARD
  0
ENDBLK
  5
370
100
AcDbEntity
  8
MAIN0
  6
CONTINUOUS
 62
3
100
AcDbBlockEnd
  0
BLOCK
  5
372
100
AcDbEntity
  8
MAIN0
  6
CONTINUOUS
 62
3
100
AcDbBlockBegin
  2
*D43
 70
    65
 10
0.0
 20
0.0
 30
0.0
  0
LINE
  5
373
100
AcDbEntity
  8
MAIN0
  6
BYBLOCK
 62
0
100
AcDbLine
 10
1324.783587248775
 20
436.8773817542275
 30
0.0000000000000000
 11
1324.783587248775
 21
325.6816682482306
 31
0.0000000000000000
  0
LINE
  5
374
100
AcDbEntity
  8
MAIN0
  6
BYBLOCK
 62
0
100
AcDbLine
 10
1332.783587248775
 20
333.6816682482306
 30
0.0000000000000000
 11
1387.783587248775
 21
333.6816682482306
 31
0.0000000000000000
  0
INSERT
  5
375
100
AcDbEntity
  8
MAIN0
  6
BYBLOCK
 62
0
100
AcDbBlockReference
  2
_OPEN
 10
1324.783587248775
 20
333.6816682482306
 30
0.0000000000000000
 41
8.000000000000000
 42
8.000000000000000
 43
8.000000000000000
 50
180.0000000000000
  0
INSERT
  5
376
100
AcDbEntity
  8
MAIN0
  6
BYBLOCK
 62
0
100
AcDbBlockReference
  2
_OPEN
 10
1395.783587248775
 20
333.6816682482306
 30
0.0000000000000000
 41
8.000000000000000
 42
8.000000000000000
 43
8.000000000000000
 50
0.0000000000000000
  0
LINE
  5
377
100
AcDbEntity
  8
MAIN0
  6
BYBLOCK
 62
0
100
AcDbLine
 10
1395.783587248775
 20
406.8773817542277
 30
0.0000000000000000
 11
1395.783587248775
 21
325.6816682482306
 31
0.0000000000000000
  0
MTEXT
  5
378
100
AcDbEntity
  8
MAIN0
  6
BYBLOCK
 62
0
100
AcDbMText
 10
1360.283587248775
 20
340.3816680574957
 30
0.0000000000000000
 40
12.39999961853027
 41
0.0000000000000000
 71
     5
 72
     1
  1
\A1;71
 11
1.000000000000000
 21
0.0000000000000000
 31
0.0000000000000000
  7
STANDARD
  0
ENDBLK
  5
379
100
AcDbEntity
  8
MAIN0
  6
CONTINUOUS
 62
3
100
AcDbBlockEnd
  0
BLOCK
  5
37B
100
AcDbEntity
  8
MAIN0
  6
CONTINUOUS
 62
3
100
AcDbBlockBegin
  2
*D44
 70
    65
 10
0.0
 20
0.0
 30
0.0
  0
LINE
  5
37C
100
AcDbEntity
  8
MAIN0
  6
BYBLOCK
 62
0
100
AcDbLine
 10
1395.783587248775
 20
406.8773817542277
 30
0.0000000000000000
 11
1395.783587248775
 21
325.6816682482306
 31
0.0000000000000000
  0
LINE
  5
37D
100
AcDbEntity
  8
MAIN0
  6
BYBLOCK
 62
0
100
AcDbLine
 10
1403.783587248775
 20
333.6816682482306
 30
0.0000000000000000
 11
1548.783587248775
 21
333.6816682482306
 31
0.0000000000000000
  0
INSERT
  5
37E
100
AcDbEntity
  8
MAIN0
  6
BYBLOCK
 62
0
100
AcDbBlockReference
  2
_OPEN
 10
1395.783587248775
 20
333.6816682482306
 30
0.0000000000000000
 41
8.000000000000000
 42
8.000000000000000
 43
8.000000000000000
 50
180.0000000000000
  0
INSERT
  5
37F
100
AcDbEntity
  8
MAIN0
  6
BYBLOCK
 62
0
100
AcDbBlockReference
  2
_OPEN
 10
1556.783587248775
 20
333.6816682482306
 30
0.0000000000000000
 41
8.000000000000000
 42
8.000000000000000
 43
8.000000000000000
 50
0.0000000000000000
  0
LINE
  5
380
100
AcDbEntity
  8
MAIN0
  6
BYBLOCK
 62
0
100
AcDbLine
 10
1556.783587248775
 20
406.8773817542277
 30
0.0000000000000000
 11
1556.783587248775
 21
325.6816682482306
 31
0.0000000000000000
  0
MTEXT
  5
381
100
AcDbEntity
  8
MAIN0
  6
BYBLOCK
 62
0
100
AcDbMText
 10
1476.283587248775
 20
340.3816680574957
 30
0.0000000000000000
 40
12.39999961853027
 41
0.0000000000000000
 71
     5
 72
     1
  1
\A1;161
 11
1.000000000000000
 21
0.0000000000000000
 31
0.0000000000000000
  7
STANDARD
  0
ENDBLK
  5
382
100
AcDbEntity
  8
MAIN0
  6
CONTINUOUS
 62
3
100
AcDbBlockEnd
  0
BLOCK
  5
384
100
AcDbEntity
  8
MAIN0
  6
CONTINUOUS
 62
3
100
AcDbBlockBegin
  2
D45
 70
    64
 10
0.0
 20
0.0
 30
0.0
  0
LINE
  5
385
100
AcDbEntity
  8
MAIN0
  6
BYBLOCK
 62
0
100
AcDbLine
 10
30.20070087373790
 20
-93.46645294165835
 30
0.0000000000000000
 11
-151.4999999998864
 21
-93.46645294165857
 31
0.0000000000000000
  0
LINE
  5
386
100
AcDbEntity
  8
MAIN0
  6
BYBLOCK
 62
0
100
AcDbLine
 10
-143.4999999998864
 20
-95.86645303702599
 30
0.0000000000000000
 11
-151.4999999998864
 21
-93.46645294165857
 31
0.0000000000000000
  0
LINE
  5
387
100
AcDbEntity
  8
MAIN0
  6
BYBLOCK
 62
0
100
AcDbLine
 10
-151.4999999998864
 20
-93.46645294165857
 30
0.0000000000000000
 11
-143.4999999998864
 21
-91.06645284629113
 31
0.0000000000000000
  0
LINE
  5
388
100
AcDbEntity
  8
MAIN0
  6
BYBLOCK
 62
0
100
AcDbLine
 10
-151.4999999998865
 20
41.78336037788729
 30
0.0000000000000000
 11
-151.4999999998864
 21
-101.4664529416586
 31
0.0000000000000000
  0
MTEXT
  5
389
100
AcDbEntity
  8
MAIN0
  6
BYBLOCK
 62
0
100
AcDbMText
 10
22.45070087001261
 20
-86.76645313239322
 30
0.0000000000000000
 40
12.39999961853027
 41
0.0000000000000000
 71
     5
 72
     1
  1
\A1;（303）
 11
1.000000000000000
 21
0.0000000000000000
 31
0.0000000000000000
  7
KNJYOKO
  0
ENDBLK
  5
38A
100
AcDbEntity
  8
MAIN0
  6
CONTINUOUS
 62
3
100
AcDbBlockEnd
  0
BLOCK
  5
38C
100
AcDbEntity
  8
MAIN0
  6
CONTINUOUS
 62
3
100
AcDbBlockBegin
  2
*D46
 70
    65
 10
0.0
 20
0.0
 30
0.0
  0
LINE
  5
38D
100
AcDbEntity
  8
MAIN0
  6
BYBLOCK
 62
0
100
AcDbLine
 10
503.7985261153946
 20
937.8499030779707
 30
0.0000000000000000
 11
503.7985261153946
 21
1055.592116307153
 31
0.0000000000000000
  0
LINE
  5
38E
100
AcDbEntity
  8
MAIN0
  6
BYBLOCK
 62
0
100
AcDbLine
 10
511.7985261153946
 20
1047.592116307153
 30
0.0000000000000000
 11
542.7985261153951
 21
1047.592116307153
 31
0.0000000000000000
  0
INSERT
  5
38F
100
AcDbEntity
  8
MAIN0
  6
BYBLOCK
 62
0
100
AcDbBlockReference
  2
_OPEN
 10
503.7985261153946
 20
1047.592116307153
 30
0.0000000000000000
 41
8.000000000000000
 42
8.000000000000000
 43
8.000000000000000
 50
180.0000000000000
  0
INSERT
  5
390
100
AcDbEntity
  8
MAIN0
  6
BYBLOCK
 62
0
100
AcDbBlockReference
  2
_OPEN
 10
550.7985261153951
 20
1047.592116307153
 30
0.0000000000000000
 41
8.000000000000000
 42
8.000000000000000
 43
8.000000000000000
 50
0.0000000000000000
  0
LINE
  5
391
100
AcDbEntity
  8
MAIN0
  6
BYBLOCK
 62
0
100
AcDbLine
 10
550.7985261153951
 20
1006.349903077201
 30
0.0000000000000000
 11
550.7985261153951
 21
1055.592116307153
 31
0.0000000000000000
  0
MTEXT
  5
392
100
AcDbEntity
  8
MAIN0
  6
BYBLOCK
 62
0
100
AcDbMText
 10
527.2985261153949
 20
1054.292116116418
 30
0.0000000000000000
 40
12.39999961853027
 41
0.0000000000000000
 71
     5
 72
     1
  1
\A1;47
 11
1.000000000000000
 21
0.0000000000000000
 31
0.0000000000000000
  7
STANDARD
  0
ENDBLK
  5
393
100
AcDbEntity
  8
MAIN0
  6
CONTINUOUS
 62
3
100
AcDbBlockEnd
  0
BLOCK
  5
395
100
AcDbEntity
  8
MAIN0
  6
CONTINUOUS
 62
3
100
AcDbBlockBegin
  2
*D47
 70
    65
 10
0.0
 20
0.0
 30
0.0
  0
LINE
  5
396
100
AcDbEntity
  8
MAIN0
  6
BYBLOCK
 62
0
100
AcDbLine
 10
1103.405032770061
 20
475.0773818014454
 30
0.0000000000000000
 11
1131.090729015881
 21
475.0773818014454
 31
0.0000000000000000
  0
LINE
  5
397
100
AcDbEntity
  8
MAIN0
  6
BYBLOCK
 62
0
100
AcDbLine
 10
1123.090729015881
 20
467.0773818014454
 30
0.0000000000000000
 11
1123.090729015881
 21
418.0773818014457
 31
0.0000000000000000
  0
INSERT
  5
398
100
AcDbEntity
  8
MAIN0
  6
BYBLOCK
 62
0
100
AcDbBlockReference
  2
_OPEN
 10
1123.090729015881
 20
475.0773818014454
 30
0.0000000000000000
 41
8.000000000000000
 42
8.000000000000000
 43
8.000000000000000
 50
90.00000000000000
  0
INSERT
  5
399
100
AcDbEntity
  8
MAIN0
  6
BYBLOCK
 62
0
100
AcDbBlockReference
  2
_OPEN
 10
1123.090729015881
 20
410.0773818014457
 30
0.0000000000000000
 41
8.000000000000000
 42
8.000000000000000
 43
8.000000000000000
 50
270.0000000000000
  0
LINE
  5
39A
100
AcDbEntity
  8
MAIN0
  6
BYBLOCK
 62
0
100
AcDbLine
 10
998.9985261630856
 20
410.0773818014457
 30
0.0000000000000000
 11
1131.090729015881
 21
410.0773818014457
 31
0.0000000000000000
  0
MTEXT
  5
39B
100
AcDbEntity
  8
MAIN0
  6
BYBLOCK
 62
0
100
AcDbMText
 10
1116.390729206616
 20
442.5773818014455
 30
0.0000000000000000
 40
12.39999961853027
 41
0.0000000000000000
 71
     5
 72
     1
  1
\A1;65
 11
6.123233995736766e-017
 21
1.000000000000000
 31
0.0000000000000000
  7
STANDARD
  0
ENDBLK
  5
39C
100
AcDbEntity
  8
MAIN0
  6
CONTINUOUS
 62
3
100
AcDbBlockEnd
  0
BLOCK
  5
3A3
100
AcDbEntity
  8
MAIN0
  6
CONTINUOUS
 62
3
100
AcDbBlockBegin
  2
*D48
 70
    65
 10
0.0
 20
0.0
 30
0.0
  0
LINE
  5
3A4
100
AcDbEntity
  8
MAIN0
  6
BYBLOCK
 62
0
100
AcDbLine
 10
1222.501784078313
 20
443.2773818495945
 30
0.0000000000000000
 11
1222.501784078313
 21
481.8503761009514
 31
0.0000000000000000
  0
LINE
  5
3A5
100
AcDbEntity
  8
MAIN0
  6
BYBLOCK
 62
0
100
AcDbLine
 10
1230.501784078313
 20
473.8503761009514
 30
0.0000000000000000
 11
1259.501784078312
 21
473.8503761009514
 31
0.0000000000000000
  0
INSERT
  5
3A6
100
AcDbEntity
  8
MAIN0
  6
BYBLOCK
 62
0
100
AcDbBlockReference
  2
_OPEN
 10
1222.501784078313
 20
473.8503761009514
 30
0.0000000000000000
 41
8.000000000000000
 42
8.000000000000000
 43
8.000000000000000
 50
180.0000000000000
  0
INSERT
  5
3A7
100
AcDbEntity
  8
MAIN0
  6
BYBLOCK
 62
0
100
AcDbBlockReference
  2
_OPEN
 10
1267.501784078312
 20
473.8503761009514
 30
0.0000000000000000
 41
8.000000000000000
 42
8.000000000000000
 43
8.000000000000000
 50
0.0000000000000000
  0
LINE
  5
3A8
100
AcDbEntity
  8
MAIN0
  6
BYBLOCK
 62
0
100
AcDbLine
 10
1267.501784078312
 20
443.2773818495806
 30
0.0000000000000000
 11
1267.501784078312
 21
481.8503761009514
 31
0.0000000000000000
  0
MTEXT
  5
3A9
100
AcDbEntity
  8
MAIN0
  6
BYBLOCK
 62
0
100
AcDbMText
 10
1245.001784078312
 20
480.5503759102165
 30
0.0000000000000000
 40
12.39999961853027
 41
0.0000000000000000
 71
     5
 72
     1
  1
\A1;45
 11
1.000000000000000
 21
0.0000000000000000
 31
0.0000000000000000
  7
STANDARD
  0
ENDBLK
  5
3AA
100
AcDbEntity
  8
MAIN0
  6
CONTINUOUS
 62
3
100
AcDbBlockEnd
  0
BLOCK
  5
3AC
100
AcDbEntity
  8
MAIN0
  6
CONTINUOUS
 62
3
100
AcDbBlockBegin
  2
*D49
 70
    65
 10
0.0
 20
0.0
 30
0.0
  0
LINE
  5
3AD
100
AcDbEntity
  8
MAIN0
  6
BYBLOCK
 62
0
100
AcDbLine
 10
1354.583587201041
 20
282.8334158789169
 30
0.0000000000000000
 11
1327.402495437019
 21
282.8334158789169
 31
0.0000000000000000
  0
LINE
  5
3AE
100
AcDbEntity
  8
MAIN0
  6
BYBLOCK
 62
0
100
AcDbLine
 10
1335.402495437019
 20
282.8334158789169
 30
0.0000000000000000
 11
1335.402495437019
 21
254.3334158789171
 31
0.0000000000000000
  0
INSERT
  5
3AF
100
AcDbEntity
  8
MAIN0
  6
BYBLOCK
 62
0
100
AcDbBlockReference
  2
_OPEN
 10
1335.402495437019
 20
282.8334158789169
 30
0.0000000000000000
 41
8.000000000000000
 42
8.000000000000000
 43
8.000000000000000
 50
270.0000000000000
  0
INSERT
  5
3B0
100
AcDbEntity
  8
MAIN0
  6
BYBLOCK
 62
0
100
AcDbBlockReference
  2
_OPEN
 10
1335.402495437019
 20
254.3334158789171
 30
0.0000000000000000
 41
8.000000000000000
 42
8.000000000000000
 43
8.000000000000000
 50
90.00000000000000
  0
LINE
  5
3B1
100
AcDbEntity
  8
MAIN0
  6
BYBLOCK
 62
0
100
AcDbLine
 10
1335.402495437019
 20
290.8334158789169
 30
0.0000000000000000
 11
1335.402495437019
 21
294.8334158789169
 31
0.0000000000000000
  0
LINE
  5
3B2
100
AcDbEntity
  8
MAIN0
  6
BYBLOCK
 62
0
100
AcDbLine
 10
1335.402495437019
 20
246.3334158789171
 30
0.0000000000000000
 11
1335.402495437019
 21
242.3334158789171
 31
0.0000000000000000
  0
LINE
  5
3B3
100
AcDbEntity
  8
MAIN0
  6
BYBLOCK
 62
0
100
AcDbLine
 10
1354.583587201061
 20
254.3334158789171
 30
0.0000000000000000
 11
1327.402495437019
 21
254.3334158789171
 31
0.0000000000000000
  0
MTEXT
  5
3B4
100
AcDbEntity
  8
MAIN0
  6
BYBLOCK
 62
0
100
AcDbMText
 10
1328.702495627754
 20
268.5834158789170
 30
0.0000000000000000
 40
12.39999961853027
 41
0.0000000000000000
 71
     5
 72
     1
  1
\A1;28.5
 11
6.123233995736766e-017
 21
1.000000000000000
 31
0.0000000000000000
  7
STANDARD
  0
ENDBLK
  5
3B5
100
AcDbEntity
  8
MAIN0
  6
CONTINUOUS
 62
3
100
AcDbBlockEnd
  0
BLOCK
  5
3B7
100
AcDbEntity
  8
MAIN0
  6
CONTINUOUS
 62
3
100
AcDbBlockBegin
  2
*D50
 70
    65
 10
0.0
 20
0.0
 30
0.0
  0
LINE
  5
3B8
100
AcDbEntity
  8
MAIN0
  6
BYBLOCK
 62
0
100
AcDbLine
 10
1390.983587296412
 20
277.3334158789095
 30
0.0000000000000000
 11
1429.228855923693
 21
277.3334158789190
 31
0.0000000000000000
  0
LINE
  5
3B9
100
AcDbEntity
  8
MAIN0
  6
BYBLOCK
 62
0
100
AcDbLine
 10
1421.228855923693
 20
277.3334158789170
 30
0.0000000000000000
 11
1421.228855923693
 21
259.8334158789171
 31
0.0000000000000000
  0
INSERT
  5
3BA
100
AcDbEntity
  8
MAIN0
  6
BYBLOCK
 62
0
100
AcDbBlockReference
  2
_OPEN
 10
1421.228855923693
 20
277.3334158789170
 30
0.0000000000000000
 41
8.000000000000000
 42
8.000000000000000
 43
8.000000000000000
 50
270.0000000000000
  0
INSERT
  5
3BB
100
AcDbEntity
  8
MAIN0
  6
BYBLOCK
 62
0
100
AcDbBlockReference
  2
_OPEN
 10
1421.228855923693
 20
259.8334158789171
 30
0.0000000000000000
 41
8.000000000000000
 42
8.000000000000000
 43
8.000000000000000
 50
90.00000000000000
  0
LINE
  5
3BC
100
AcDbEntity
  8
MAIN0
  6
BYBLOCK
 62
0
100
AcDbLine
 10
1421.228855923693
 20
285.3334158789170
 30
0.0000000000000000
 11
1421.228855923693
 21
289.3334158789170
 31
0.0000000000000000
  0
LINE
  5
3BD
100
AcDbEntity
  8
MAIN0
  6
BYBLOCK
 62
0
100
AcDbLine
 10
1421.228855923693
 20
251.8334158789171
 30
0.0000000000000000
 11
1421.228855923693
 21
222.0003681912775
 31
0.0000000000000000
  0
LINE
  5
3BE
100
AcDbEntity
  8
MAIN0
  6
BYBLOCK
 62
0
100
AcDbLine
 10
1390.983587296424
 20
259.8334158789096
 30
0.0000000000000000
 11
1429.228855923693
 21
259.8334158789191
 31
0.0000000000000000
  0
MTEXT
  5
3BF
100
AcDbEntity
  8
MAIN0
  6
BYBLOCK
 62
0
100
AcDbMText
 10
1413.028856114428
 20
236.6003685727473
 30
0.0000000000000000
 40
12.39999961853027
 41
0.0000000000000000
 71
     5
 72
     1
  1
\A1;17.5
 11
6.123233995736766e-017
 21
1.000000000000000
 31
0.0000000000000000
  7
STANDARD
  0
ENDBLK
  5
3C0
100
AcDbEntity
  8
MAIN0
  6
CONTINUOUS
 62
3
100
AcDbBlockEnd
  0
BLOCK
  5
3C2
100
AcDbEntity
  8
MAIN0
  6
CONTINUOUS
 62
3
100
AcDbBlockBegin
  2
*D51
 70
    65
 10
0.0
 20
0.0
 30
0.0
  0
LINE
  5
3C3
100
AcDbEntity
  8
MAIN0
  6
BYBLOCK
 62
0
100
AcDbLine
 10
1357.783587248744
 20
251.1334158312334
 30
0.0000000000000000
 11
1357.783587248744
 21
212.6740126625217
 31
0.0000000000000000
  0
LINE
  5
3C4
100
AcDbEntity
  8
MAIN0
  6
BYBLOCK
 62
0
100
AcDbLine
 10
1357.783587248744
 20
220.6740126625217
 30
0.0000000000000000
 11
1387.783587248744
 21
220.6740126625217
 31
0.0000000000000000
  0
INSERT
  5
3C5
100
AcDbEntity
  8
MAIN0
  6
BYBLOCK
 62
0
100
AcDbBlockReference
  2
_OPEN
 10
1357.783587248744
 20
220.6740126625217
 30
0.0000000000000000
 41
8.000000000000000
 42
8.000000000000000
 43
8.000000000000000
 50
0.0000000000000000
  0
INSERT
  5
3C6
100
AcDbEntity
  8
MAIN0
  6
BYBLOCK
 62
0
100
AcDbBlockReference
  2
_OPEN
 10
1387.783587248744
 20
220.6740126625217
 30
0.0000000000000000
 41
8.000000000000000
 42
8.000000000000000
 43
8.000000000000000
 50
180.0000000000000
  0
LINE
  5
3C7
100
AcDbEntity
  8
MAIN0
  6
BYBLOCK
 62
0
100
AcDbLine
 10
1349.783587248744
 20
220.6740126625217
 30
0.0000000000000000
 11
1345.783587248744
 21
220.6740126625217
 31
0.0000000000000000
  0
LINE
  5
3C8
100
AcDbEntity
  8
MAIN0
  6
BYBLOCK
 62
0
100
AcDbLine
 10
1395.783587248744
 20
220.6740126625217
 30
0.0000000000000000
 11
1399.783587248744
 21
220.6740126625217
 31
0.0000000000000000
  0
LINE
  5
3C9
100
AcDbEntity
  8
MAIN0
  6
BYBLOCK
 62
0
100
AcDbLine
 10
1387.783587248744
 20
251.1334158312251
 30
0.0000000000000000
 11
1387.783587248744
 21
212.6740126625217
 31
0.0000000000000000
  0
MTEXT
  5
3CA
100
AcDbEntity
  8
MAIN0
  6
BYBLOCK
 62
0
100
AcDbMText
 10
1372.783587248744
 20
227.3740124717868
 30
0.0000000000000000
 40
12.39999961853027
 41
0.0000000000000000
 71
     5
 72
     1
  1
\A1;30
 11
1.000000000000000
 21
0.0000000000000000
 31
0.0000000000000000
  7
STANDARD
  0
ENDBLK
  5
3CB
100
AcDbEntity
  8
MAIN0
  6
CONTINUOUS
 62
3
100
AcDbBlockEnd
  0
BLOCK
  5
3CD
100
AcDbEntity
  8
MAIN0
  6
CONTINUOUS
 62
3
100
AcDbBlockBegin
  2
*D52
 70
    65
 10
0.0
 20
0.0
 30
0.0
  0
LINE
  5
3CE
100
AcDbEntity
  8
MAIN0
  6
BYBLOCK
 62
0
100
AcDbLine
 10
1129.985210005451
 20
475.0773560312467
 30
0.0000000000000000
 11
1115.090729015881
 21
475.0773560312468
 31
0.0000000000000000
  0
LINE
  5
3CF
100
AcDbEntity
  8
MAIN0
  6
BYBLOCK
 62
0
100
AcDbLine
 10
1123.090729015881
 20
483.0773560312468
 30
0.0000000000000000
 11
1123.090729015881
 21
692.0773560312467
 31
0.0000000000000000
  0
INSERT
  5
3D0
100
AcDbEntity
  8
MAIN0
  6
BYBLOCK
 62
0
100
AcDbBlockReference
  2
_OPEN
 10
1123.090729015881
 20
475.0773560312468
 30
0.0000000000000000
 41
8.000000000000000
 42
8.000000000000000
 43
8.000000000000000
 50
270.0000000000000
  0
INSERT
  5
3D1
100
AcDbEntity
  8
MAIN0
  6
BYBLOCK
 62
0
100
AcDbBlockReference
  2
_OPEN
 10
1123.090729015881
 20
700.0773560312467
 30
0.0000000000000000
 41
8.000000000000000
 42
8.000000000000000
 43
8.000000000000000
 50
90.00000000000000
  0
LINE
  5
3D2
100
AcDbEntity
  8
MAIN0
  6
BYBLOCK
 62
0
100
AcDbLine
 10
1175.202059510943
 20
700.0773560312467
 30
0.0000000000000000
 11
1115.090729015881
 21
700.0773560312467
 31
0.0000000000000000
  0
MTEXT
  5
3D3
100
AcDbEntity
  8
MAIN0
  6
BYBLOCK
 62
0
100
AcDbMText
 10
1116.390729206616
 20
587.5773560312467
 30
0.0000000000000000
 40
12.39999961853027
 41
0.0000000000000000
 71
     5
 72
     1
  1
\A1;225
 11
6.123233995736766e-017
 21
1.000000000000000
 31
0.0000000000000000
  7
STANDARD
  0
ENDBLK
  5
3D4
100
AcDbEntity
  8
MAIN0
  6
CONTINUOUS
 62
3
100
AcDbBlockEnd
  0
BLOCK
  5
3D6
100
AcDbEntity
  8
MAIN0
  6
CONTINUOUS
 62
3
100
AcDbBlockBegin
  2
*D53
 70
    65
 10
0.0
 20
0.0
 30
0.0
  0
LINE
  5
3D7
100
AcDbEntity
  8
MAIN0
  6
BYBLOCK
 62
0
100
AcDbLine
 10
452.5985260677180
 20
410.0773818014454
 30
0.0000000000000000
 11
388.1470391177273
 21
410.0773818014454
 31
0.0000000000000000
  0
LINE
  5
3D8
100
AcDbEntity
  8
MAIN0
  6
BYBLOCK
 62
0
100
AcDbLine
 10
396.1470391177273
 20
418.0773818014454
 30
0.0000000000000000
 11
396.1470391177273
 21
562.0773818014454
 31
0.0000000000000000
  0
INSERT
  5
3D9
100
AcDbEntity
  8
MAIN0
  6
BYBLOCK
 62
0
100
AcDbBlockReference
  2
_OPEN
 10
396.1470391177273
 20
410.0773818014454
 30
0.0000000000000000
 41
8.000000000000000
 42
8.000000000000000
 43
8.000000000000000
 50
270.0000000000000
  0
INSERT
  5
3DA
100
AcDbEntity
  8
MAIN0
  6
BYBLOCK
 62
0
100
AcDbBlockReference
  2
_OPEN
 10
396.1470391177273
 20
570.0773818014454
 30
0.0000000000000000
 41
8.000000000000000
 42
8.000000000000000
 43
8.000000000000000
 50
90.00000000000000
  0
LINE
  5
3DB
100
AcDbEntity
  8
MAIN0
  6
BYBLOCK
 62
0
100
AcDbLine
 10
453.5985260677178
 20
570.0773818014454
 30
0.0000000000000000
 11
388.1470391177273
 21
570.0773818014454
 31
0.0000000000000000
  0
MTEXT
  5
3DC
100
AcDbEntity
  8
MAIN0
  6
BYBLOCK
 62
0
100
AcDbMText
 10
389.4470393084621
 20
490.0773818014454
 30
0.0000000000000000
 40
12.39999961853027
 41
0.0000000000000000
 71
     5
 72
     1
  1
\A1;160
 11
6.123233995736766e-017
 21
1.000000000000000
 31
0.0000000000000000
  7
STANDARD
  0
ENDBLK
  5
3DD
100
AcDbEntity
  8
MAIN0
  6
CONTINUOUS
 62
3
100
AcDbBlockEnd
  0
BLOCK
  5
3DF
100
AcDbEntity
  8
MAIN0
  6
CONTINUOUS
 62
3
100
AcDbBlockBegin
  2
*D54
 70
    65
 10
0.0
 20
0.0
 30
0.0
  0
LINE
  5
3E0
100
AcDbEntity
  8
MAIN0
  6
BYBLOCK
 62
0
100
AcDbLine
 10
452.5985260677180
 20
410.0773818014454
 30
0.0000000000000000
 11
415.5974883306071
 21
410.0773818014454
 31
0.0000000000000000
  0
LINE
  5
3E1
100
AcDbEntity
  8
MAIN0
  6
BYBLOCK
 62
0
100
AcDbLine
 10
423.5974883306071
 20
418.0773818014454
 30
0.0000000000000000
 11
423.5974883306071
 21
502.0773818014454
 31
0.0000000000000000
  0
INSERT
  5
3E2
100
AcDbEntity
  8
MAIN0
  6
BYBLOCK
 62
0
100
AcDbBlockReference
  2
_OPEN
 10
423.5974883306071
 20
410.0773818014454
 30
0.0000000000000000
 41
8.000000000000000
 42
8.000000000000000
 43
8.000000000000000
 50
270.0000000000000
  0
INSERT
  5
3E3
100
AcDbEntity
  8
MAIN0
  6
BYBLOCK
 62
0
100
AcDbBlockReference
  2
_OPEN
 10
423.5974883306071
 20
510.0773818014454
 30
0.0000000000000000
 41
8.000000000000000
 42
8.000000000000000
 43
8.000000000000000
 50
90.00000000000000
  0
LINE
  5
3E4
100
AcDbEntity
  8
MAIN0
  6
BYBLOCK
 62
0
100
AcDbLine
 10
452.5985260677178
 20
510.0773818014454
 30
0.0000000000000000
 11
415.5974883306071
 21
510.0773818014454
 31
0.0000000000000000
  0
MTEXT
  5
3E5
100
AcDbEntity
  8
MAIN0
  6
BYBLOCK
 62
0
100
AcDbMText
 10
416.8974885213419
 20
460.0773818014454
 30
0.0000000000000000
 40
12.39999961853027
 41
0.0000000000000000
 71
     5
 72
     1
  1
\A1;100
 11
6.123233995736766e-017
 21
1.000000000000000
 31
0.0000000000000000
  7
STANDARD
  0
ENDBLK
  5
3E6
100
AcDbEntity
  8
MAIN0
  6
CONTINUOUS
 62
3
100
AcDbBlockEnd
  0
BLOCK
  5
3E8
100
AcDbEntity
  8
MAIN0
  6
CONTINUOUS
 62
3
100
AcDbBlockBegin
  2
*D55
 70
    65
 10
0.0
 20
0.0
 30
0.0
  0
LINE
  5
3E9
100
AcDbEntity
  8
MAIN0
  6
BYBLOCK
 62
0
100
AcDbLine
 10
452.5985260677178
 20
510.0773818014454
 30
0.0000000000000000
 11
415.5974883306071
 21
510.0773818014454
 31
0.0000000000000000
  0
LINE
  5
3EA
100
AcDbEntity
  8
MAIN0
  6
BYBLOCK
 62
0
100
AcDbLine
 10
423.5974883306071
 20
518.0773818014454
 30
0.0000000000000000
 11
423.5974883306071
 21
562.0773818014454
 31
0.0000000000000000
  0
INSERT
  5
3EB
100
AcDbEntity
  8
MAIN0
  6
BYBLOCK
 62
0
100
AcDbBlockReference
  2
_OPEN
 10
423.5974883306071
 20
510.0773818014454
 30
0.0000000000000000
 41
8.000000000000000
 42
8.000000000000000
 43
8.000000000000000
 50
270.0000000000000
  0
INSERT
  5
3EC
100
AcDbEntity
  8
MAIN0
  6
BYBLOCK
 62
0
100
AcDbBlockReference
  2
_OPEN
 10
423.5974883306071
 20
570.0773818014454
 30
0.0000000000000000
 41
8.000000000000000
 42
8.000000000000000
 43
8.000000000000000
 50
90.00000000000000
  0
LINE
  5
3ED
100
AcDbEntity
  8
MAIN0
  6
BYBLOCK
 62
0
100
AcDbLine
 10
453.5985260677178
 20
570.0773818014454
 30
0.0000000000000000
 11
415.5974883306071
 21
570.0773818014454
 31
0.0000000000000000
  0
MTEXT
  5
3EE
100
AcDbEntity
  8
MAIN0
  6
BYBLOCK
 62
0
100
AcDbMText
 10
416.8974885213419
 20
540.0773818014454
 30
0.0000000000000000
 40
12.39999961853027
 41
0.0000000000000000
 71
     5
 72
     1
  1
\A1;60
 11
6.123233995736766e-017
 21
1.000000000000000
 31
0.0000000000000000
  7
STANDARD
  0
ENDBLK
  5
3EF
100
AcDbEntity
  8
MAIN0
  6
CONTINUOUS
 62
3
100
AcDbBlockEnd
  0
ENDSEC
  0
SECTION
  2
ENTITIES
  0
LINE
  5
46
100
AcDbEntity
  8
MAIN0
  6
CENTER
 62
3
100
AcDbLine
 10
1309.338397408813
 20
700.0773560312467
 30
0.0000000000000000
 11
1178.402059558627
 21
700.0773560312467
 31
0.0000000000000000
  0
DIMENSION
  5
50
100
AcDbEntity
  8
MAIN0
  6
CONTINUOUS
 62
3
100
AcDbDimension
  2
*D0
 10
683.3941890734005
 20
405.0773818014454
 30
0.0000000000000000
 11
681.8941890734005
 21
392.6789649069132
 31
0.0000000000000000
 70
160
  3
MAIN001
100
AcDbAlignedDimension
 13
1000.798526115402
 23
410.0773818014457
 33
0.0000000000000000
 14
641.7985261154017
 24
405.0773818014454
 34
0.0000000000000000
 50
90.00000000000000
100
AcDbRotatedDimension
1001
ACAD
1000
DSTYLE
1002
{
1070
   173
1070
     1
1070
     6
1000
_OPEN
1070
     7
1000
_OPEN
1070
    41
1040
8.000000
1070
   287
1070
     0
1002
}
  0
DIMENSION
  5
58
100
AcDbEntity
  8
MAIN0
  6
CONTINUOUS
 62
3
100
AcDbDimension
  2
*D1
 10
455.7985261154016
 20
445.3898587667829
 30
0.0000000000000000
 11
498.2985261154017
 21
445.8898587667829
 31
0.0000000000000000
 70
32
  3
MAIN001
100
AcDbAlignedDimension
 13
540.7985261154017
 23
449.5773817988642
 33
0.0000000000000000
 14
455.7985261154014
 24
510.0773818014454
 34
0.0000000000000000
100
AcDbRotatedDimension
1001
ACAD
1000
DSTYLE
1002
{
1070
   173
1070
     1
1070
     6
1000
_OPEN
1070
     7
1000
_OPEN
1070
    41
1040
8.000000
1002
}
  0
DIMENSION
  5
61
100
AcDbEntity
  8
MAIN0
  6
CONTINUOUS
 62
3
100
AcDbDimension
  2
*D2
 10
540.7985261154017
 20
445.3898587667829
 30
0.0000000000000000
 11
725.7985261154018
 21
445.8898587667829
 31
0.0000000000000000
 70
32
  3
MAIN001
100
AcDbAlignedDimension
 13
910.7985261154020
 23
449.5773817988642
 33
0.0000000000000000
 14
540.7985261154017
 24
449.5773817988642
 34
0.0000000000000000
100
AcDbRotatedDimension
1001
ACAD
1000
DSTYLE
1002
{
1070
   173
1070
     1
1070
     6
1000
_OPEN
1070
     7
1000
_OPEN
1070
    41
1040
8.000000
1002
}
  0
DIMENSION
  5
69
100
AcDbEntity
  8
MAIN0
  6
CONTINUOUS
 62
3
100
AcDbDimension
  2
*D3
 10
910.7985261154020
 20
445.3898587667829
 30
0.0000000000000000
 11
953.2985261154020
 21
445.8898587667829
 31
0.0000000000000000
 70
32
  3
MAIN001
100
AcDbAlignedDimension
 13
995.7985261154020
 23
410.0773818014453
 33
0.0000000000000000
 14
910.7985261154020
 24
449.5773817988642
 34
0.0000000000000000
100
AcDbRotatedDimension
1001
ACAD
1000
DSTYLE
1002
{
1070
   173
1070
     1
1070
     6
1000
_OPEN
1070
     7
1000
_OPEN
1070
    41
1040
8.000000
1002
}
  0
DIMENSION
  5
72
100
AcDbEntity
  8
MAIN0
  6
CONTINUOUS
 62
3
100
AcDbDimension
  2
*D4
 10
503.7985261152091
 20
603.0210315290951
 30
0.0000000000000000
 11
527.2985261153052
 21
603.5210315290951
 31
0.0000000000000000
 70
32
  3
MAIN001
100
AcDbAlignedDimension
 13
550.7985261154014
 23
570.0773818014455
 33
0.0000000000000000
 14
503.7985261152091
 24
570.0773818014457
 34
0.0000000000000000
100
AcDbRotatedDimension
1001
ACAD
1000
DSTYLE
1002
{
1070
   173
1070
     1
1070
     6
1000
_OPEN
1070
     7
1000
_OPEN
1070
    41
1040
8.000000
1002
}
  0
DIMENSION
  5
7D
100
AcDbEntity
  8
MAIN0
  6
CONTINUOUS
 62
3
100
AcDbDimension
  2
*D5
 10
455.7985261154014
 20
626.7920297842193
 30
0.0000000000000000
 11
443.5111789936980
 21
628.2920297842193
 31
0.0000000000000000
 70
160
  3
MAIN001
100
AcDbAlignedDimension
 13
456.7985261154014
 23
570.0773818014454
 33
0.0000000000000000
 14
455.7985261154014
 24
510.0773818014454
 34
0.0000000000000000
100
AcDbRotatedDimension
1001
ACAD
1000
DSTYLE
1002
{
1070
   173
1070
     1
1070
     6
1000
_OPEN
1070
     7
1000
_OPEN
1070
    41
1040
8.000000
1070
   287
1070
     0
1002
}
  0
DIMENSION
  5
86
100
AcDbEntity
  8
MAIN0
  6
CONTINUOUS
 62
3
100
AcDbDimension
  2
*D6
 10
456.7985261154015
 20
626.7920297842193
 30
0.0000000000000000
 11
503.7985261154014
 21
627.2920297842193
 31
0.0000000000000000
 70
32
  3
MAIN001
100
AcDbAlignedDimension
 13
550.7985261154014
 23
570.0773818014455
 33
0.0000000000000000
 14
456.7985261154014
 24
570.0773818014454
 34
0.0000000000000000
100
AcDbRotatedDimension
1001
ACAD
1000
DSTYLE
1002
{
1070
   173
1070
     1
1070
     6
1000
_OPEN
1070
     7
1000
_OPEN
1070
    41
1040
8.000000
1002
}
  0
DIMENSION
  5
8F
100
AcDbEntity
  8
MAIN0
  6
CONTINUOUS
 62
3
100
AcDbDimension
  2
*D7
 10
550.7985261154014
 20
626.7920297842193
 30
0.0000000000000000
 11
598.2985261154013
 21
627.2920297842193
 31
0.0000000000000000
 70
32
  1
\A1;MAX 354
  3
MAIN001
100
AcDbAlignedDimension
 13
645.7985261154013
 23
570.0773818014454
 33
0.0000000000000000
 14
550.7985261154014
 24
570.0773818014455
 34
0.0000000000000000
100
AcDbRotatedDimension
1001
ACAD
1000
DSTYLE
1002
{
1070
   173
1070
     1
1070
     6
1000
_OPEN
1070
     7
1000
_OPEN
1070
    41
1040
8.000000
1002
}
  0
DIMENSION
  5
98
100
AcDbEntity
  8
MAIN0
  6
CONTINUOUS
 62
1
100
AcDbDimension
  2
*D8
 10
645.7985261154013
 20
626.7920297842193
 30
0.0000000000000000
 11
688.7985261154013
 21
627.2920297842193
 31
0.0000000000000000
 70
32
  3
MAIN001
100
AcDbAlignedDimension
 13
731.7985261154013
 23
570.0773818014457
 33
0.0000000000000000
 14
645.7985261154013
 24
570.0773818014454
 34
0.0000000000000000
100
AcDbRotatedDimension
1001
ACAD
1000
DSTYLE
1002
{
1070
   173
1070
     1
1070
     6
1000
_OPEN
1070
     7
1000
_OPEN
1070
    41
1040
8.000000
1002
}
  0
DIMENSION
  5
A1
100
AcDbEntity
  8
MAIN0
  6
CONTINUOUS
 62
3
100
AcDbDimension
  2
*D9
 10
533.7985261152091
 20
570.0773818014454
 30
0.0000000000000000
 11
532.2985261152091
 21
585.5026888865841
 31
0.0000000000000000
 70
160
  3
MAIN001
100
AcDbAlignedDimension
 13
513.7985261152091
 23
560.0773818014457
 33
0.0000000000000000
 14
550.7985261154013
 24
570.0773818014454
 34
0.0000000000000000
 50
90.00000000000000
100
AcDbRotatedDimension
1001
ACAD
1000
DSTYLE
1002
{
1070
   173
1070
     1
1070
     6
1000
_DOT
1070
     7
1000
_OPEN
1070
    41
1040
8.000000
1070
   287
1070
     0
1002
}
  0
DIMENSION
  5
AB
100
AcDbEntity
  8
MAIN0
  6
CONTINUOUS
 62
3
100
AcDbDimension
  2
*D10
 10
533.7985261152091
 20
560.0773818014457
 30
0.0000000000000000
 11
533.2985261152091
 21
550.0773818014457
 31
0.0000000000000000
 70
32
  3
MAIN001
100
AcDbAlignedDimension
 13
513.7985261152091
 23
540.0773818014455
 33
0.0000000000000000
 14
513.7985261152091
 24
560.0773818014457
 34
0.0000000000000000
 50
90.00000000000000
100
AcDbRotatedDimension
1001
ACAD
1000
DSTYLE
1002
{
1070
   173
1070
     1
1070
     6
1000
_OPEN
1070
     7
1000
_DOT
1070
    41
1040
8.000000
1070
   287
1070
     0
1002
}
  0
DIMENSION
  5
B4
100
AcDbEntity
  8
MAIN0
  6
CONTINUOUS
 62
3
100
AcDbDimension
  2
*D11
 10
455.7985261154016
 20
323.0210315290951
 30
0.0000000000000000
 11
544.2985261153272
 21
323.5210315290951
 31
0.0000000000000000
 70
32
  3
MAIN001
100
AcDbAlignedDimension
 13
632.7985261152527
 23
397.0773818014454
 33
0.0000000000000000
 14
455.7985261154016
 24
410.0773818014455
 34
0.0000000000000000
100
AcDbRotatedDimension
1001
ACAD
1000
DSTYLE
1002
{
1070
   173
1070
     1
1070
     6
1000
_OPEN
1070
     7
1000
_OPEN
1070
    41
1040
8.000000
1002
}
  0
DIMENSION
  5
BD
100
AcDbEntity
  8
MAIN0
  6
CONTINUOUS
 62
3
100
AcDbDimension
  2
*D12
 10
632.7985261152527
 20
323.0210315290951
 30
0.0000000000000000
 11
861.7985261153272
 21
323.5210315290951
 31
0.0000000000000000
 70
32
  3
MAIN001
100
AcDbAlignedDimension
 13
1090.798526115402
 23
450.0773818014455
 33
0.0000000000000000
 14
632.7985261152527
 24
397.0773818014454
 34
0.0000000000000000
100
AcDbRotatedDimension
1001
ACAD
1000
DSTYLE
1002
{
1070
   173
1070
     1
1070
     6
1000
_OPEN
1070
     7
1000
_OPEN
1070
    41
1040
8.000000
1002
}
  0
DIMENSION
  5
C8
100
AcDbEntity
  8
MAIN0
  6
CONTINUOUS
 62
3
100
AcDbDimension
  2
*D13
 10
623.7985261154017
 20
383.0210315290951
 30
0.0000000000000000
 11
609.3860957088659
 21
384.5210315290951
 31
0.0000000000000000
 70
160
  3
MAIN001
100
AcDbAlignedDimension
 13
641.7985261154017
 23
405.0773818014454
 33
0.0000000000000000
 14
623.7985261154017
 24
405.0773818014454
 34
0.0000000000000000
100
AcDbRotatedDimension
1001
ACAD
1000
DSTYLE
1002
{
1070
   173
1070
     1
1070
     6
1000
_OPEN
1070
     7
1000
_OPEN
1070
    41
1040
8.000000
1070
   287
1070
     0
1002
}
  0
LINE
  5
C9
100
AcDbEntity
  8
MAIN0
  6
CONTINUOUS
 62
3
100
AcDbLine
 10
1395.783587248775
 20
431.0773818019114
 30
0.0000000000000000
 11
1401.783587248774
 21
431.0773818019114
 31
0.0000000000000000
  0
LINE
  5
CA
100
AcDbEntity
  8
MAIN0
  6
CONTINUOUS
 62
3
100
AcDbLine
 10
1384.783587248775
 20
445.0773818019112
 30
0.0000000000000000
 11
1384.783587248775
 21
459.4773818019113
 31
0.0000000000000000
  0
LINE
  5
CB
100
AcDbEntity
  8
MAIN0
  6
CONTINUOUS
 62
3
100
AcDbLine
 10
1384.783587248775
 20
459.4773818019112
 30
0.0000000000000000
 11
1382.012305956665
 21
461.0773818019112
 31
0.0000000000000000
  0
LINE
  5
CC
100
AcDbEntity
  8
MAIN0
  6
CONTINUOUS
 62
3
100
AcDbLine
 10
1382.012305956665
 20
461.0773818019112
 30
0.0000000000000000
 11
1363.554868540885
 21
461.0773818019112
 31
0.0000000000000000
  0
LINE
  5
CD
100
AcDbEntity
  8
MAIN0
  6
CONTINUOUS
 62
3
100
AcDbLine
 10
1363.554868540885
 20
461.0773818019113
 30
0.0000000000000000
 11
1360.783587248774
 21
459.4773818019111
 31
0.0000000000000000
  0
LINE
  5
CE
100
AcDbEntity
  8
MAIN0
  6
CONTINUOUS
 62
3
100
AcDbLine
 10
1360.783587248775
 20
459.4773818019113
 30
0.0000000000000000
 11
1360.783587248775
 21
445.0773818019112
 31
0.0000000000000000
  0
LINE
  5
CF
100
AcDbEntity
  8
MAIN0
  6
CONTINUOUS
 62
3
100
AcDbLine
 10
1384.783587248775
 20
459.4773818019113
 30
0.0000000000000000
 11
1360.783587248775
 21
459.4773818019113
 31
0.0000000000000000
  0
LINE
  5
D0
100
AcDbEntity
  8
MAIN0
  6
CONTINUOUS
 62
3
100
AcDbLine
 10
1380.783587248775
 20
420.0773818019112
 30
0.0000000000000000
 11
1380.783587248775
 21
399.0773818019112
 31
0.0000000000000000
  0
LINE
  5
D1
100
AcDbEntity
  8
MAIN0
  6
CONTINUOUS
 62
3
100
AcDbLine
 10
1364.783587248775
 20
399.0773818019112
 30
0.0000000000000000
 11
1364.783587248775
 21
420.0773818019112
 31
0.0000000000000000
  0
LINE
  5
D2
100
AcDbEntity
  8
MAIN0
  6
CONTINUOUS
 62
3
100
AcDbLine
 10
1379.701055248775
 20
420.0773818019112
 30
0.0000000000000000
 11
1379.701055248775
 21
399.0773818019112
 31
0.0000000000000000
  0
LINE
  5
D3
100
AcDbEntity
  8
MAIN0
  6
CONTINUOUS
 62
3
100
AcDbLine
 10
1365.866119248775
 20
420.0773818019112
 30
0.0000000000000000
 11
1365.866119248775
 21
399.0773818019112
 31
0.0000000000000000
  0
LINE
  5
D4
100
AcDbEntity
  8
MAIN0
  6
CONTINUOUS
 62
3
100
AcDbLine
 10
1401.783587248775
 20
440.0773818019112
 30
0.0000000000000000
 11
1324.783587248775
 21
440.0773818019112
 31
0.0000000000000000
  0
LINE
  5
D5
100
AcDbEntity
  8
MAIN0
  6
CONTINUOUS
 62
3
100
AcDbLine
 10
1395.783587248775
 20
420.0773818019112
 30
0.0000000000000000
 11
1348.281454833304
 21
420.0773818019112
 31
0.0000000000000000
  0
LINE
  5
D6
100
AcDbEntity
  8
MAIN0
  6
CONTINUOUS
 62
3
100
AcDbLine
 10
1324.783587248775
 20
440.0773818019113
 30
0.0000000000000000
 11
1326.483587248775
 21
410.0773818019113
 31
0.0000000000000000
  0
LINE
  5
D7
100
AcDbEntity
  8
MAIN0
  6
CONTINUOUS
 62
3
100
AcDbLine
 10
1341.483587239137
 20
410.0773818019115
 30
0.0000000000000000
 11
1342.372608315234
 21
415.1192708679342
 31
0.0000000000000000
  0
ARC
  5
D8
100
AcDbEntity
  8
MAIN0
  6
CONTINUOUS
 62
3
100
AcDbCircle
 10
1348.281454833304
 20
414.0773818019114
 30
0.0000000000000000
 40
6.000000000000000
100
AcDbArc
 50
90.00000000000000
 51
169.9999999997949
  0
LINE
  5
D9
100
AcDbEntity
  8
MAIN0
  6
CONTINUOUS
 62
3
100
AcDbLine
 10
1341.483587239137
 20
410.0773818019112
 30
0.0000000000000000
 11
1326.483587248775
 21
410.0773818019112
 31
0.0000000000000000
  0
LINE
  5
DA
100
AcDbEntity
  8
MAIN0
  6
CENTER
 62
3
100
AcDbLine
 10
1372.783587248774
 20
247.1039108718096
 30
0.0000000000000000
 11
1372.783587248775
 21
467.7506131441780
 31
0.0000000000000000
  0
LINE
  5
DB
100
AcDbEntity
  8
MAIN0
  6
CONTINUOUS
 62
3
100
AcDbLine
 10
1390.283587248775
 20
445.0773818019112
 30
0.0000000000000000
 11
1355.283587248775
 21
445.0773818019112
 31
0.0000000000000000
  0
LINE
  5
DC
100
AcDbEntity
  8
MAIN0
  6
CONTINUOUS
 62
3
100
AcDbLine
 10
1390.283587248775
 20
440.0773818019112
 30
0.0000000000000000
 11
1390.283587248775
 21
445.0773818019112
 31
0.0000000000000000
  0
LINE
  5
DD
100
AcDbEntity
  8
MAIN0
  6
CONTINUOUS
 62
3
100
AcDbLine
 10
1355.283587248775
 20
440.0773818019112
 30
0.0000000000000000
 11
1355.283587248775
 21
445.0773818019112
 31
0.0000000000000000
  0
MTEXT
  5
DE
100
AcDbEntity
  8
MAIN0
  6
CONTINUOUS
 62
3
100
AcDbMText
 10
1462.216621332218
 20
494.9679221191214
 30
0.0000000000000000
 40
8.000000000000000
 41
0.0000000000000000
 71
     1
 72
     1
  1
{\H0.63x;{0}}
 11
0.8660254037844389
 21
0.4999999999999996
 31
0.0000000000000000
  7
STANDARD
  0
MTEXT
  5
DF
100
AcDbEntity
  8
MAIN0
  6
CONTINUOUS
 62
3
100
AcDbMText
 10
1474.046507569689
 20
499.3365779697734
 30
0.0000000000000000
 40
8.000000000000000
 41
0.0000000000000000
 71
     1
 72
     1
  1
{\H0.63x;{1}}
 11
1.000000000000000
 21
0.0000000000000000
 31
0.0000000000000000
  7
STANDARD
  0
MTEXT
  5
E0
100
AcDbEntity
  8
MAIN0
  6
CONTINUOUS
 62
3
100
AcDbMText
 10
1486.475817500546
 20
497.2050017980938
 30
0.0000000000000000
 40
8.000000000000000
 41
0.0000000000000000
 71
     1
 72
     1
  1
{\H0.63x;{2}}
 11
0.8660254037844388
 21
-0.4999999999999997
 31
0.0000000000000000
  7
STANDARD
  0
MTEXT
  5
E1
100
AcDbEntity
  8
MAIN0
  6
CONTINUOUS
 62
3
100
AcDbMText
 10
1496.174127566338
 20
489.1443477178895
 30
0.0000000000000000
 40
8.000000000000000
 41
0.0000000000000000
 71
     1
 72
     1
  1
{\H0.63x;{3}}
 11
0.5000000000000009
 21
-0.8660254037844382
 31
0.0000000000000000
  7
STANDARD
  0
LINE
  5
E2
100
AcDbEntity
  8
MAIN0
  6
CONTINUOUS
 62
3
100
AcDbLine
 10
1395.783587248775
 20
420.0773818019112
 30
0.0000000000000000
 11
1395.783587248775
 21
431.0773818019114
 31
0.0000000000000000
  0
DIMENSION
  5
ED
100
AcDbEntity
  8
MAIN0
  6
CONTINUOUS
 62
3
100
AcDbDimension
  2
*D14
 10
1469.283587248662
 20
603.0210315290951
 30
0.0000000000000000
 11
1476.283587248662
 21
603.5210315290951
 31
0.0000000000000000
 70
32
  3
MAIN001
100
AcDbAlignedDimension
 13
1483.283587248662
 23
479.1188336857657
 33
0.0000000000000000
 14
1469.283587248662
 24
479.1188336857657
 34
0.0000000000000000
100
AcDbRotatedDimension
1001
ACAD
1000
DSTYLE
1002
{
1070
   173
1070
     1
1070
     6
1000
_OPEN
1070
     7
1000
_OPEN
1070
    41
1040
8.000000
1070
   287
1070
     0
1002
}
  0
DIMENSION
  5
F7
100
AcDbEntity
  8
MAIN0
  6
CONTINUOUS
 62
1
100
AcDbDimension
  2
*D15
 10
1372.783587248774
 20
362.0773818014451
 30
0.0000000000000000
 11
1422.606126968851
 21
363.5773818014451
 31
0.0000000000000000
 70
160
  1
\A1;15～31
  3
MAIN001
100
AcDbAlignedDimension
 13
1395.783587248775
 23
410.0773818019114
 33
0.0000000000000000
 14
1372.783587248774
 24
247.1039108718096
 34
0.0000000000000000
100
AcDbRotatedDimension
1001
ACAD
1000
DSTYLE
1002
{
1070
   173
1070
     1
1070
     6
1000
_OPEN
1070
     7
1000
_OPEN
1070
    41
1040
8.000000
1070
   287
1070
     0
1070
   340
1005
F8
1002
}
  0
DIMENSION
  5
103
100
AcDbEntity
  8
MAIN0
  6
CONTINUOUS
 62
3
100
AcDbDimension
  2
*D16
 10
1300.783587247980
 20
445.0773818019112
 30
0.0000000000000000
 11
1299.283587247980
 21
457.0132055857711
 31
0.0000000000000000
 70
160
  3
MAIN001
100
AcDbAlignedDimension
 13
1324.783587248775
 23
440.0773818019112
 33
0.0000000000000000
 14
1355.283587248775
 24
445.0773818019112
 34
0.0000000000000000
 50
90.00000000000000
100
AcDbRotatedDimension
1001
ACAD
1000
DSTYLE
1002
{
1070
   173
1070
     1
1070
     6
1000
_OPEN
1070
     7
1000
_OPEN
1070
    41
1040
8.000000
1070
   287
1070
     0
1002
}
  0
DIMENSION
  5
10C
100
AcDbEntity
  8
MAIN0
  6
CONTINUOUS
 62
3
100
AcDbDimension
  2
*D17
 10
1300.783587247980
 20
440.0773818019112
 30
0.0000000000000000
 11
1300.283587247980
 21
425.0773818019112
 31
0.0000000000000000
 70
32
  3
MAIN001
100
AcDbAlignedDimension
 13
1326.483587248775
 23
410.0773818019112
 33
0.0000000000000000
 14
1324.783587248775
 24
440.0773818019112
 34
0.0000000000000000
 50
90.00000000000000
100
AcDbRotatedDimension
1001
ACAD
1000
DSTYLE
1002
{
1070
   173
1070
     1
1070
     6
1000
_OPEN
1070
     7
1000
_OPEN
1070
    41
1040
8.000000
1002
}
  0
LINE
  5
10D
100
AcDbEntity
  8
MAIN0
  6
CONTINUOUS
 62
3
100
AcDbLine
 10
137.6210777893055
 20
570.0773818014452
 30
0.0000000000000000
 11
297.6210777893053
 21
570.0773818014452
 31
0.0000000000000000
  0
LINE
  5
10E
100
AcDbEntity
  8
MAIN0
  6
CONTINUOUS
 62
3
100
AcDbLine
 10
137.6210777893056
 20
570.0773818014454
 30
0.0000000000000000
 11
137.6210777893056
 21
510.0773818009793
 31
0.0000000000000000
  0
LINE
  5
10F
100
AcDbEntity
  8
MAIN0
  6
CONTINUOUS
 62
3
100
AcDbLine
 10
297.6210777893056
 20
570.0773818014454
 30
0.0000000000000000
 11
297.6210777893056
 21
510.0773818009793
 31
0.0000000000000000
  0
LINE
  5
110
100
AcDbEntity
  8
MAIN0
  6
CONTINUOUS
 62
3
100
AcDbLine
 10
162.6210777893055
 20
405.0773818014455
 30
0.0000000000000000
 11
137.6210777893055
 21
405.0773818014455
 31
0.0000000000000000
  0
LINE
  5
111
100
AcDbEntity
  8
MAIN0
  6
CONTINUOUS
 62
3
100
AcDbLine
 10
297.6210777893053
 20
405.0773818014457
 30
0.0000000000000000
 11
272.6210777893053
 21
405.0773818014456
 31
0.0000000000000000
  0
LINE
  5
112
100
AcDbEntity
  8
MAIN0
  6
CONTINUOUS
 62
3
100
AcDbLine
 10
297.6210777893056
 20
405.0773818014454
 30
0.0000000000000000
 11
297.6210777893056
 21
410.0773818014454
 31
0.0000000000000000
  0
LINE
  5
113
100
AcDbEntity
  8
MAIN0
  6
CONTINUOUS
 62
3
100
AcDbLine
 10
272.6210777893056
 20
405.0773818014454
 30
0.0000000000000000
 11
272.6210777893056
 21
410.0773818014454
 31
0.0000000000000000
  0
LINE
  5
114
100
AcDbEntity
  8
MAIN0
  6
CONTINUOUS
 62
3
100
AcDbLine
 10
162.6210777893056
 20
405.0773818014454
 30
0.0000000000000000
 11
162.6210777893056
 21
410.0773818014451
 31
0.0000000000000000
  0
LINE
  5
115
100
AcDbEntity
  8
MAIN0
  6
CONTINUOUS
 62
3
100
AcDbLine
 10
137.6210777893060
 20
405.0773818014452
 30
0.0000000000000000
 11
137.6210777893060
 21
410.0773818014452
 31
0.0000000000000000
  0
LINE
  5
116
100
AcDbEntity
  8
MAIN0
  6
CONTINUOUS
 62
3
100
AcDbLine
 10
226.6210777893055
 20
415.0773818014454
 30
0.0000000000000000
 11
208.6210777893055
 21
415.0773818014454
 31
0.0000000000000000
  0
LINE
  5
117
100
AcDbEntity
  8
MAIN0
  6
CONTINUOUS
 62
3
100
AcDbLine
 10
226.6210777893056
 20
410.0773818014454
 30
0.0000000000000000
 11
226.6210777893056
 21
415.0773818014454
 31
0.0000000000000000
  0
LINE
  5
118
100
AcDbEntity
  8
MAIN0
  6
CONTINUOUS
 62
3
100
AcDbLine
 10
208.6210777893056
 20
410.0773818014454
 30
0.0000000000000000
 11
208.6210777893056
 21
415.0773818014454
 31
0.0000000000000000
  0
LINE
  5
119
100
AcDbEntity
  8
MAIN0
  6
CONTINUOUS
 62
3
100
AcDbLine
 10
292.1210777893056
 20
486.0773818014454
 30
0.0000000000000000
 11
292.1210777893056
 21
431.0773818014454
 31
0.0000000000000000
  0
LINE
  5
11A
100
AcDbEntity
  8
MAIN0
  6
CONTINUOUS
 62
3
100
AcDbLine
 10
143.1210777893056
 20
486.0773818014454
 30
0.0000000000000000
 11
143.1210777893056
 21
431.0773818014454
 31
0.0000000000000000
  0
LINE
  5
11B
100
AcDbEntity
  8
MAIN0
  6
CONTINUOUS
 62
3
100
AcDbLine
 10
137.1210777893062
 20
486.0773818014451
 30
0.0000000000000000
 11
143.1210777893053
 21
486.0773818014451
 31
0.0000000000000000
  0
LINE
  5
11C
100
AcDbEntity
  8
MAIN0
  6
CONTINUOUS
 62
3
100
AcDbLine
 10
292.1210777893056
 20
486.0773818014454
 30
0.0000000000000000
 11
298.1210777893056
 21
486.0773818014454
 31
0.0000000000000000
  0
LINE
  5
11D
100
AcDbEntity
  8
MAIN0
  6
CONTINUOUS
 62
3
100
AcDbLine
 10
137.1210777893056
 20
431.0773818014455
 30
0.0000000000000000
 11
143.1210777893054
 21
431.0773818014455
 31
0.0000000000000000
  0
LINE
  5
11E
100
AcDbEntity
  8
MAIN0
  6
CONTINUOUS
 62
3
100
AcDbLine
 10
292.1210777893054
 20
431.0773818014455
 30
0.0000000000000000
 11
298.1210777893054
 21
431.0773818014455
 31
0.0000000000000000
  0
LINE
  5
11F
100
AcDbEntity
  8
MAIN0
  6
CONTINUOUS
 62
3
100
AcDbLine
 10
298.1210777893056
 20
410.0773818014454
 30
0.0000000000000000
 11
298.1210777893056
 21
431.0773818014454
 31
0.0000000000000000
  0
LINE
  5
120
100
AcDbEntity
  8
MAIN0
  6
CONTINUOUS
 62
3
100
AcDbLine
 10
137.1210777893056
 20
410.0773818014454
 30
0.0000000000000000
 11
137.1210777893056
 21
431.0773818014454
 31
0.0000000000000000
  0
LINE
  5
121
100
AcDbEntity
  8
MAIN0
  6
CONTINUOUS
 62
3
100
AcDbLine
 10
142.8897934533410
 20
510.0773818014451
 30
0.0000000000000000
 11
144.1210777893056
 21
510.0773818014451
 31
0.0000000000000000
  0
LINE
  5
122
100
AcDbEntity
  8
MAIN0
  6
CONTINUOUS
 62
3
100
AcDbLine
 10
292.3523621250446
 20
510.0773818014454
 30
0.0000000000000000
 11
291.1210777890796
 21
510.0773818014454
 31
0.0000000000000000
  0
LINE
  5
123
100
AcDbEntity
  8
MAIN0
  6
CONTINUOUS
 62
3
100
AcDbLine
 10
294.1210777891928
 20
484.9773818009793
 30
0.0000000000000000
 11
294.1210777891928
 21
483.7773818009793
 31
0.0000000000000000
  0
LINE
  5
124
100
AcDbEntity
  8
MAIN0
  6
CONTINUOUS
 62
3
100
AcDbLine
 10
141.1210777891924
 20
484.9773818009793
 30
0.0000000000000000
 11
141.1210777891924
 21
483.7773818009795
 31
0.0000000000000000
  0
LINE
  5
125
100
AcDbEntity
  8
MAIN0
  6
CONTINUOUS
 62
3
100
AcDbLine
 10
136.8210777891927
 20
510.0773818009793
 30
0.0000000000000000
 11
136.8210777891927
 21
485.3773818009794
 31
0.0000000000000000
  0
LINE
  5
126
100
AcDbEntity
  8
MAIN0
  6
CONTINUOUS
 62
3
100
AcDbLine
 10
298.4210777891926
 20
510.0773818009795
 30
0.0000000000000000
 11
298.4210777891926
 21
485.3773818009794
 31
0.0000000000000000
  0
LINE
  5
127
100
AcDbEntity
  8
MAIN0
  6
CONTINUOUS
 62
3
100
AcDbLine
 10
137.2210777220711
 20
484.9773818009793
 30
0.0000000000000000
 11
141.1210777891928
 21
484.9773818009793
 31
0.0000000000000000
  0
LINE
  5
128
100
AcDbEntity
  8
MAIN0
  6
CONTINUOUS
 62
3
100
AcDbLine
 10
294.1210777891928
 20
484.9773818009793
 30
0.0000000000000000
 11
298.0210776244275
 21
484.9773818009793
 31
0.0000000000000000
  0
LINE
  5
129
100
AcDbEntity
  8
MAIN0
  6
CONTINUOUS
 62
3
100
AcDbLine
 10
294.1210777891928
 20
483.7773818009793
 30
0.0000000000000000
 11
298.2210774709537
 21
483.7773818009793
 31
0.0000000000000000
  0
LINE
  5
12A
100
AcDbEntity
  8
MAIN0
  6
CONTINUOUS
 62
3
100
AcDbLine
 10
142.8897934528690
 20
510.0773818009793
 30
0.0000000000000000
 11
292.3523621255171
 21
510.0773818009793
 31
0.0000000000000000
  0
ARC
  5
12B
100
AcDbEntity
  8
MAIN0
  6
CONTINUOUS
 62
3
100
AcDbCircle
 10
298.0210777891929
 20
485.3773818009794
 30
0.0000000000000000
 40
0.4000000000000000
100
AcDbArc
 50
270.0000000005678
 51
359.9999999999934
  0
ARC
  5
12C
100
AcDbEntity
  8
MAIN0
  6
CONTINUOUS
 62
3
100
AcDbCircle
 10
298.2210777891928
 20
485.1773818009794
 30
0.0000000000000000
 40
1.400000000000000
100
AcDbArc
 50
270.0000000005678
 51
359.9999999999934
  0
ARC
  5
12D
100
AcDbEntity
  8
MAIN0
  6
CONTINUOUS
 62
3
100
AcDbCircle
 10
298.2210777891928
 20
509.8773818009794
 30
0.0000000000000000
 40
1.400000000000000
100
AcDbArc
 50
0.0000000000000000
 51
8.213210721004439
  0
ARC
  5
12E
100
AcDbEntity
  8
MAIN0
  6
CONTINUOUS
 62
3
100
AcDbCircle
 10
137.0210777891929
 20
509.8773818009794
 30
0.0000000000000000
 40
1.400000000000000
100
AcDbArc
 50
171.7867893033419
 51
179.9999999999964
  0
ARC
  5
12F
100
AcDbEntity
  8
MAIN0
  6
CONTINUOUS
 62
3
100
AcDbCircle
 10
137.0210777891929
 20
485.1773818009794
 30
0.0000000000000000
 40
1.400000000000000
100
AcDbArc
 50
179.9999999999964
 51
269.9999999999963
  0
ARC
  5
130
100
AcDbEntity
  8
MAIN0
  6
CONTINUOUS
 62
3
100
AcDbCircle
 10
137.2210777891928
 20
485.3773818009794
 30
0.0000000000000000
 40
0.4000000000000000
100
AcDbArc
 50
179.9999999999964
 51
270.0000000005678
  0
LINE
  5
131
100
AcDbEntity
  8
MAIN0
  6
CONTINUOUS
 62
3
100
AcDbLine
 10
299.6210777891928
 20
509.8773818009794
 30
0.0000000000000000
 11
299.6210777891928
 21
485.1773818009794
 31
0.0000000000000000
  0
LINE
  5
132
100
AcDbEntity
  8
MAIN0
  6
CONTINUOUS
 62
3
100
AcDbLine
 10
135.6210777891924
 20
509.8773818009794
 30
0.0000000000000000
 11
135.6210777891924
 21
485.1773818009794
 31
0.0000000000000000
  0
LINE
  5
133
100
AcDbEntity
  8
MAIN0
  6
CONTINUOUS
 62
3
100
AcDbLine
 10
137.0210777891929
 20
483.7773818009793
 30
0.0000000000000000
 11
141.1210777891928
 21
483.7773818009793
 31
0.0000000000000000
  0
LINE
  5
134
100
AcDbEntity
  8
MAIN0
  6
CONTINUOUS
 62
3
100
AcDbLine
 10
298.4210777891933
 20
510.0773818009794
 30
0.0000000000000000
 11
217.6210777891930
 21
510.0773818009794
 31
0.0000000000000000
  0
LINE
  5
135
100
AcDbEntity
  8
MAIN0
  6
CONTINUOUS
 62
3
100
AcDbLine
 10
136.7975718676901
 20
510.0773818009795
 30
0.0000000000000000
 11
217.6210777891927
 21
510.0773818009795
 31
0.0000000000000000
  0
LINE
  5
136
100
AcDbEntity
  8
MAIN0
  6
CONTINUOUS
 62
3
100
AcDbLine
 10
294.1210777891928
 20
482.9773818009793
 30
0.0000000000000000
 11
294.1210777891928
 21
481.7773818009793
 31
0.0000000000000000
  0
LINE
  5
137
100
AcDbEntity
  8
MAIN0
  6
CONTINUOUS
 62
3
100
AcDbLine
 10
141.1210777891928
 20
482.9773818009793
 30
0.0000000000000000
 11
141.1210777891928
 21
481.7773818009793
 31
0.0000000000000000
  0
LINE
  5
138
100
AcDbEntity
  8
MAIN0
  6
CONTINUOUS
 62
3
100
AcDbLine
 10
301.1210777891928
 20
510.0773818014454
 30
0.0000000000000000
 11
301.1210777891928
 21
483.7773818009793
 31
0.0000000000000000
  0
LINE
  5
139
100
AcDbEntity
  8
MAIN0
  6
CONTINUOUS
 62
3
100
AcDbLine
 10
299.9210777891926
 20
510.0773818014454
 30
0.0000000000000000
 11
299.9210777891926
 21
483.9773818009793
 31
0.0000000000000000
  0
LINE
  5
13A
100
AcDbEntity
  8
MAIN0
  6
CONTINUOUS
 62
3
100
AcDbLine
 10
134.1210777891928
 20
510.0773818008583
 30
0.0000000000000000
 11
134.1210777891928
 21
483.7773818009793
 31
0.0000000000000000
  0
LINE
  5
13B
100
AcDbEntity
  8
MAIN0
  6
CONTINUOUS
 62
3
100
AcDbLine
 10
135.3210777891927
 20
510.0773818008571
 30
0.0000000000000000
 11
135.3210777891927
 21
483.9773818009793
 31
0.0000000000000000
  0
LINE
  5
13C
100
AcDbEntity
  8
MAIN0
  6
CONTINUOUS
 62
3
100
AcDbLine
 10
136.3210777876047
 20
482.9773818009793
 30
0.0000000000000000
 11
141.1210777891928
 21
482.9773818009793
 31
0.0000000000000000
  0
LINE
  5
13D
100
AcDbEntity
  8
MAIN0
  6
CONTINUOUS
 62
3
100
AcDbLine
 10
294.1210777891928
 20
482.9773818009793
 30
0.0000000000000000
 11
298.9210777413363
 21
482.9773818009793
 31
0.0000000000000000
  0
LINE
  5
13E
100
AcDbEntity
  8
MAIN0
  6
CONTINUOUS
 62
3
100
AcDbLine
 10
136.1210777854662
 20
481.7773818009793
 30
0.0000000000000000
 11
141.1210777891928
 21
481.7773818009793
 31
0.0000000000000000
  0
LINE
  5
13F
100
AcDbEntity
  8
MAIN0
  6
CONTINUOUS
 62
3
100
AcDbLine
 10
294.1210777891928
 20
481.7773818009793
 30
0.0000000000000000
 11
299.1210777483747
 21
481.7773818009793
 31
0.0000000000000000
  0
ARC
  5
140
100
AcDbEntity
  8
MAIN0
  6
CONTINUOUS
 62
3
100
AcDbCircle
 10
299.1210777891928
 20
483.7773818009793
 30
0.0000000000000000
 40
2.000000000000000
100
AcDbArc
 50
270.0000000005678
 51
359.9999999999934
  0
ARC
  5
141
100
AcDbEntity
  8
MAIN0
  6
CONTINUOUS
 62
3
100
AcDbCircle
 10
298.9210777891926
 20
483.9773818009793
 30
0.0000000000000000
 40
1.000000000000000
100
AcDbArc
 50
270.0000000005678
 51
359.9999999999934
  0
ARC
  5
142
100
AcDbEntity
  8
MAIN0
  6
CONTINUOUS
 62
3
100
AcDbCircle
 10
136.3210777891927
 20
483.9773818009793
 30
0.0000000000000000
 40
1.000000000000000
100
AcDbArc
 50
179.9999999999964
 51
270.0000000005678
  0
ARC
  5
143
100
AcDbEntity
  8
MAIN0
  6
CONTINUOUS
 62
3
100
AcDbCircle
 10
136.1210777891928
 20
483.7773818009793
 30
0.0000000000000000
 40
2.000000000000000
100
AcDbArc
 50
179.9999999999964
 51
270.0000000005678
  0
LINE
  5
144
100
AcDbEntity
  8
MAIN0
  6
CONTINUOUS
 62
3
100
AcDbLine
 10
137.1210777893058
 20
486.0773818014451
 30
0.0000000000000000
 11
137.1210777891567
 21
508.5773818009794
 31
0.0000000000000000
  0
LINE
  5
145
100
AcDbEntity
  8
MAIN0
  6
CONTINUOUS
 62
3
100
AcDbLine
 10
298.1210777890798
 20
486.0773818014455
 30
0.0000000000000000
 11
298.1210777892295
 21
508.5773818009794
 31
0.0000000000000000
  0
LINE
  5
146
100
AcDbEntity
  8
MAIN0
  6
CONTINUOUS
 62
3
100
AcDbLine
 10
137.1210777893055
 20
410.0773818014453
 30
0.0000000000000000
 11
208.6210777893055
 21
410.0773818014454
 31
0.0000000000000000
  0
LINE
  5
147
100
AcDbEntity
  8
MAIN0
  6
CONTINUOUS
 62
3
100
AcDbLine
 10
226.6210777893055
 20
410.0773818014454
 30
0.0000000000000000
 11
298.1210777893055
 21
410.0773818014455
 31
0.0000000000000000
  0
DIMENSION
  5
150
100
AcDbEntity
  8
MAIN0
  6
CONTINUOUS
 62
3
100
AcDbDimension
  2
*D18
 10
137.6210777893056
 20
603.0210315290951
 30
0.0000000000000000
 11
217.6210777893056
 21
603.5210315290951
 31
0.0000000000000000
 70
32
  3
MAIN001
100
AcDbAlignedDimension
 13
297.6210777893056
 23
570.0773818014454
 33
0.0000000000000000
 14
137.6210777893056
 24
570.0773818014454
 34
0.0000000000000000
100
AcDbRotatedDimension
1001
ACAD
1000
DSTYLE
1002
{
1070
   173
1070
     1
1070
     6
1000
_OPEN
1070
     7
1000
_OPEN
1070
    41
1040
8.000000
1002
}
  0
LINE
  5
151
100
AcDbEntity
  8
MAIN0
  6
CONTINUOUS
 62
3
100
AcDbLine
 10
137.1210777891568
 20
508.5773818009795
 30
0.0000000000000000
 11
138.6210777891468
 21
510.0773818009795
 31
0.0000000000000000
  0
LINE
  5
152
100
AcDbEntity
  8
MAIN0
  6
CONTINUOUS
 62
3
100
AcDbLine
 10
298.1210777892295
 20
508.5773818009793
 30
0.0000000000000000
 11
296.6210777892394
 21
510.0773818009793
 31
0.0000000000000000
  0
LINE
  5
153
100
AcDbEntity
  8
MAIN0
  6
CONTINUOUS
 62
3
100
AcDbLine
 10
176.1210777891920
 20
510.0773818009793
 30
0.0000000000000000
 11
176.1210777891791
 21
506.6773818009791
 31
0.0000000000000000
  0
LINE
  5
154
100
AcDbEntity
  8
MAIN0
  6
CONTINUOUS
 62
3
100
AcDbLine
 10
259.1210777892067
 20
506.6773818009714
 30
0.0000000000000000
 11
176.1210777891791
 21
506.6773818009789
 31
0.0000000000000000
  0
LINE
  5
155
100
AcDbEntity
  8
MAIN0
  6
CONTINUOUS
 62
3
100
AcDbLine
 10
259.1210777892070
 20
509.8773818009715
 30
0.0000000000000000
 11
176.1210777891794
 21
509.8773818009790
 31
0.0000000000000000
  0
LINE
  5
156
100
AcDbEntity
  8
MAIN0
  6
CONTINUOUS
 62
3
100
AcDbLine
 10
259.1210777891936
 20
510.0773818009794
 30
0.0000000000000000
 11
259.1210777892065
 21
506.6773818009790
 31
0.0000000000000000
  0
LINE
  5
157
100
AcDbEntity
  8
MAIN0
  6
CONTINUOUS
 62
3
100
AcDbLine
 10
176.1210777891924
 20
490.0773818009793
 30
0.0000000000000000
 11
168.6210777891924
 21
490.0773818009793
 31
0.0000000000000000
  0
LINE
  5
158
100
AcDbEntity
  8
MAIN0
  6
CONTINUOUS
 62
3
100
AcDbLine
 10
176.1210777891923
 20
490.0773818009795
 30
0.0000000000000000
 11
177.1210777891922
 21
491.0773818009793
 31
0.0000000000000000
  0
LINE
  5
159
100
AcDbEntity
  8
MAIN0
  6
CONTINUOUS
 62
3
100
AcDbLine
 10
177.1210777891924
 20
506.6773818009789
 30
0.0000000000000000
 11
177.1210777891924
 21
491.0773818009793
 31
0.0000000000000000
  0
LINE
  5
15A
100
AcDbEntity
  8
MAIN0
  6
CONTINUOUS
 62
3
100
AcDbLine
 10
168.6210777891924
 20
490.0773818009795
 30
0.0000000000000000
 11
168.6210777891924
 21
470.0773818009795
 31
0.0000000000000000
  0
ARC
  5
15B
100
AcDbEntity
  8
MAIN0
  6
CONTINUOUS
 62
3
100
AcDbCircle
 10
191.1525778627023
 20
452.0773818009796
 30
0.0000000000000000
 40
10.00000000000000
100
AcDbArc
 50
181.9999999999997
 51
270.0000000000000
  0
LINE
  5
15C
100
AcDbEntity
  8
MAIN0
  6
CONTINUOUS
 62
3
100
AcDbLine
 10
191.1525778627023
 20
442.0773818009797
 30
0.0000000000000000
 11
244.0895777156829
 21
442.0773818009797
 31
0.0000000000000000
  0
ARC
  5
15D
100
AcDbEntity
  8
MAIN0
  6
CONTINUOUS
 62
3
100
AcDbCircle
 10
244.0895777156830
 20
452.0773818009797
 30
0.0000000000000000
 40
10.00000000000000
100
AcDbArc
 50
270.0000000000002
 51
358.0000000000006
  0
LINE
  5
15E
100
AcDbEntity
  8
MAIN0
  6
CONTINUOUS
 62
3
100
AcDbLine
 10
266.6210777891924
 20
490.0773818009797
 30
0.0000000000000000
 11
266.6210777891924
 21
470.0773818009797
 31
0.0000000000000000
  0
LINE
  5
15F
100
AcDbEntity
  8
MAIN0
  6
CONTINUOUS
 62
3
100
AcDbLine
 10
258.1210777891923
 20
491.0773818009795
 30
0.0000000000000000
 11
259.1210777891921
 21
490.0773818009797
 31
0.0000000000000000
  0
LINE
  5
160
100
AcDbEntity
  8
MAIN0
  6
CONTINUOUS
 62
3
100
AcDbLine
 10
258.1210777891924
 20
506.6773818009715
 30
0.0000000000000000
 11
258.1210777891924
 21
491.0773818009797
 31
0.0000000000000000
  0
LINE
  5
161
100
AcDbEntity
  8
MAIN0
  6
CONTINUOUS
 62
3
100
AcDbLine
 10
259.1210777891924
 20
490.0773818009797
 30
0.0000000000000000
 11
266.6210777891924
 21
490.0773818009797
 31
0.0000000000000000
  0
DIMENSION
  5
16B
100
AcDbEntity
  8
MAIN0
  6
CONTINUOUS
 62
3
100
AcDbDimension
  2
*D19
 10
292.1210777893056
 20
453.0773818014457
 30
0.0000000000000000
 11
281.5858405137329
 21
454.5773818014457
 31
0.0000000000000000
 70
160
  3
MAIN001
100
AcDbAlignedDimension
 13
298.1210777893056
 23
431.0773818014454
 33
0.0000000000000000
 14
292.1210777893056
 24
486.0773818014454
 34
0.0000000000000000
100
AcDbRotatedDimension
1001
ACAD
1000
DSTYLE
1002
{
1070
   173
1070
     1
1070
     6
1000
_OPEN
1070
     7
1000
_OPEN
1070
    41
1040
8.000000
1070
   287
1070
     0
1002
}
  0
DIMENSION
  5
174
100
AcDbEntity
  8
MAIN0
  6
CONTINUOUS
 62
3
100
AcDbDimension
  2
*D20
 10
1090.798526115402
 20
303.0210315290951
 30
0.0000000000000000
 11
773.2985261154015
 21
303.5210315290951
 31
0.0000000000000000
 70
32
  3
MAIN001
100
AcDbAlignedDimension
 13
455.7985261154016
 23
410.0773818014455
 33
0.0000000000000000
 14
1090.798526115402
 24
450.0773818014455
 34
0.0000000000000000
100
AcDbRotatedDimension
1001
ACAD
1000
DSTYLE
1002
{
1070
   173
1070
     1
1070
     6
1000
_OPEN
1070
     7
1000
_OPEN
1070
    41
1040
8.000000
1002
}
  0
DIMENSION
  5
17D
100
AcDbEntity
  8
MAIN0
  6
CONTINUOUS
 62
3
100
AcDbDimension
  2
*D21
 10
1090.798526115402
 20
343.0210315290951
 30
0.0000000000000000
 11
1043.298526115402
 21
343.5210315290951
 31
0.0000000000000000
 70
32
  3
MAIN001
100
AcDbAlignedDimension
 13
995.7985261154020
 23
410.0773818014453
 33
0.0000000000000000
 14
1090.798526115402
 24
450.0773818014455
 34
0.0000000000000000
100
AcDbRotatedDimension
1001
ACAD
1000
DSTYLE
1002
{
1070
   173
1070
     1
1070
     6
1000
_OPEN
1070
     7
1000
_OPEN
1070
    41
1040
8.000000
1002
}
  0
DIMENSION
  5
186
100
AcDbEntity
  8
MAIN0
  6
CONTINUOUS
 62
3
100
AcDbDimension
  2
*D22
 10
995.7985261154020
 20
343.0210315290951
 30
0.0000000000000000
 11
725.7985261154017
 21
343.5210315290951
 31
0.0000000000000000
 70
32
  3
MAIN001
100
AcDbAlignedDimension
 13
455.7985261154016
 23
410.0773818014455
 33
0.0000000000000000
 14
995.7985261154020
 24
410.0773818014453
 34
0.0000000000000000
100
AcDbRotatedDimension
1001
ACAD
1000
DSTYLE
1002
{
1070
   173
1070
     1
1070
     6
1000
_OPEN
1070
     7
1000
_OPEN
1070
    41
1040
8.000000
1002
}
  0
LINE
  5
187
100
AcDbEntity
  8
MAIN0
  6
CONTINUOUS
 62
3
100
AcDbLine
 10
822.7985261154015
 20
542.2773818014454
 30
0.0000000000000000
 11
733.3985261154015
 21
542.2773818014454
 31
0.0000000000000000
  0
LINE
  5
188
100
AcDbEntity
  8
MAIN0
  6
CONTINUOUS
 62
3
100
AcDbLine
 10
823.7985261154017
 20
479.7773818014454
 30
0.0000000000000000
 11
823.7985261154015
 21
541.2773818014454
 31
0.0000000000000000
  0
ARC
  5
189
100
AcDbEntity
  8
MAIN0
  6
CONTINUOUS
 62
3
100
AcDbCircle
 10
733.3985261154015
 20
540.6773818014453
 30
0.0000000000000000
 40
1.600000000000000
100
AcDbArc
 50
90.00000000000000
 51
180.0000000000000
  0
ARC
  5
18A
100
AcDbEntity
  8
MAIN0
  6
CONTINUOUS
 62
3
100
AcDbCircle
 10
822.7985261154015
 20
541.2773818014454
 30
0.0000000000000000
 40
1.000000000000000
100
AcDbArc
 50
0.0000000000000000
 51
90.00000000000000
  0
LINE
  5
18B
100
AcDbEntity
  8
MAIN0
  6
CONTINUOUS
 62
3
100
AcDbLine
 10
823.7985261160893
 20
837.1499030303080
 30
0.0000000000000000
 11
823.7985261162519
 21
1010.149903030309
 31
0.0000000000000000
  0
LINE
  5
18C
100
AcDbEntity
  8
MAIN0
  6
CONTINUOUS
 62
3
100
AcDbLine
 10
731.7985261154008
 20
837.1499030303078
 30
0.0000000000000000
 11
823.7985261160891
 21
837.1499030303078
 31
0.0000000000000000
  0
LINE
  5
18D
100
AcDbEntity
  8
MAIN0
  6
CONTINUOUS
 62
3
100
AcDbLine
 10
731.7985261154009
 20
1010.149903030309
 30
0.0000000000000000
 11
823.7985261162518
 21
1010.149903030309
 31
0.0000000000000000
  0
LINE
  5
18E
100
AcDbEntity
  8
MAIN0
  6
CONTINUOUS
 62
3
100
AcDbLine
 10
1393.283587248662
 20
479.7773818014447
 30
0.0000000000000000
 11
1399.783587248662
 21
479.7773818014446
 31
0.0000000000000000
  0
LINE
  5
18F
100
AcDbEntity
  8
MAIN0
  6
CONTINUOUS
 62
3
100
AcDbLine
 10
1399.783587248662
 20
480.9773818014446
 30
0.0000000000000000
 11
1393.483587248662
 21
480.9773818014447
 31
0.0000000000000000
  0
LINE
  5
190
100
AcDbEntity
  8
MAIN0
  6
CONTINUOUS
 62
3
100
AcDbLine
 10
1389.783587248661
 20
479.7773818013881
 30
0.0000000000000000
 11
1389.783587248661
 21
540.2773818014457
 31
0.0000000000000000
  0
LINE
  5
191
100
AcDbEntity
  8
MAIN0
  6
CONTINUOUS
 62
3
100
AcDbLine
 10
1390.983587248661
 20
479.7773818013869
 30
0.0000000000000000
 11
1390.983587248661
 21
531.2773818014457
 31
0.0000000000000000
  0
LINE
  5
192
100
AcDbEntity
  8
MAIN0
  6
CONTINUOUS
 62
3
100
AcDbLine
 10
1399.783587248662
 20
479.7773818014447
 30
0.0000000000000000
 11
1399.783587248662
 21
480.9773818014447
 31
0.0000000000000000
  0
LINE
  5
193
100
AcDbEntity
  8
MAIN0
  6
CONTINUOUS
 62
3
100
AcDbLine
 10
1390.783587248661
 20
541.2773818014457
 30
0.0000000000000000
 11
1561.783587248662
 21
541.2773818014457
 31
0.0000000000000000
  0
ARC
  5
194
100
AcDbEntity
  8
MAIN0
  6
CONTINUOUS
 62
3
100
AcDbCircle
 10
1393.283587248662
 20
481.7773818014447
 30
0.0000000000000000
 40
2.000000000000000
100
AcDbArc
 50
180.0000000000000
 51
270.0000000000000
  0
ARC
  5
195
100
AcDbEntity
  8
MAIN0
  6
CONTINUOUS
 62
3
100
AcDbCircle
 10
1393.483587248662
 20
481.9773818014447
 30
0.0000000000000000
 40
1.000000000000000
100
AcDbArc
 50
180.0000000000000
 51
270.0000000000000
  0
LINE
  5
196
100
AcDbEntity
  8
MAIN0
  6
CONTINUOUS
 62
3
100
AcDbLine
 10
1389.783587248661
 20
479.7773818013881
 30
0.0000000000000000
 11
1390.983587248661
 21
479.7773818013869
 31
0.0000000000000000
  0
ARC
  5
197
100
AcDbEntity
  8
MAIN0
  6
CONTINUOUS
 62
3
100
AcDbCircle
 10
1390.783587248661
 20
540.2773818014457
 30
0.0000000000000000
 40
1.000000000000000
100
AcDbArc
 50
90.00000000000000
 51
180.0000000000000
  0
LINE
  5
198
100
AcDbEntity
  8
MAIN0
  6
CONTINUOUS
 62
3
100
AcDbLine
 10
1552.783587248658
 20
479.7773818014456
 30
0.0000000000000000
 11
1559.283587248663
 21
479.7773818014456
 31
0.0000000000000000
  0
LINE
  5
199
100
AcDbEntity
  8
MAIN0
  6
CONTINUOUS
 62
3
100
AcDbLine
 10
1559.083587248662
 20
480.9773818014456
 30
0.0000000000000000
 11
1552.783587248658
 21
480.9773818014456
 31
0.0000000000000000
  0
LINE
  5
19A
100
AcDbEntity
  8
MAIN0
  6
CONTINUOUS
 62
3
100
AcDbLine
 10
1552.783587248658
 20
480.9773818014456
 30
0.0000000000000000
 11
1552.783587248658
 21
479.7773818014456
 31
0.0000000000000000
  0
LINE
  5
19B
100
AcDbEntity
  8
MAIN0
  6
CONTINUOUS
 62
3
100
AcDbLine
 10
1562.783587248662
 20
479.7773818014367
 30
0.0000000000000000
 11
1562.783587248662
 21
540.2773818014456
 31
0.0000000000000000
  0
LINE
  5
19C
100
AcDbEntity
  8
MAIN0
  6
CONTINUOUS
 62
3
100
AcDbLine
 10
1561.583587248662
 20
479.7773818014376
 30
0.0000000000000000
 11
1561.583587248662
 21
531.2773818014456
 31
0.0000000000000000
  0
ARC
  5
19D
100
AcDbEntity
  8
MAIN0
  6
CONTINUOUS
 62
3
100
AcDbCircle
 10
1559.083587248662
 20
481.9773818014456
 30
0.0000000000000000
 40
1.000000000000000
100
AcDbArc
 50
270.0000000000000
 51
360.0000000000000
  0
ARC
  5
19E
100
AcDbEntity
  8
MAIN0
  6
CONTINUOUS
 62
3
100
AcDbCircle
 10
1559.283587248663
 20
481.7773818014456
 30
0.0000000000000000
 40
2.000000000000000
100
AcDbArc
 50
270.0000000000000
 51
360.0000000000000
  0
LINE
  5
19F
100
AcDbEntity
  8
MAIN0
  6
CONTINUOUS
 62
3
100
AcDbLine
 10
1561.583587248662
 20
479.7773818014376
 30
0.0000000000000000
 11
1562.783587248662
 21
479.7773818014366
 31
0.0000000000000000
  0
ARC
  5
1A0
100
AcDbEntity
  8
MAIN0
  6
CONTINUOUS
 62
3
100
AcDbCircle
 10
1561.783587248662
 20
540.2773818014457
 30
0.0000000000000000
 40
1.000000000000000
100
AcDbArc
 50
0.0000000000000000
 51
90.00000000000000
  0
DIMENSION
  5
1A9
100
AcDbEntity
  8
MAIN0
  6
CONTINUOUS
 62
3
100
AcDbDimension
  2
*D23
 10
1389.783587248661
 20
623.0210315290951
 30
0.0000000000000000
 11
1476.283587248662
 21
623.5210315290951
 31
0.0000000000000000
 70
32
  3
MAIN001
100
AcDbAlignedDimension
 13
1562.783587248662
 23
540.2773818014457
 33
0.0000000000000000
 14
1389.783587248661
 24
540.2773818014457
 34
0.0000000000000000
100
AcDbRotatedDimension
1001
ACAD
1000
DSTYLE
1002
{
1070
   173
1070
     1
1070
     6
1000
_OPEN
1070
     7
1000
_OPEN
1070
    41
1040
8.000000
1002
}
  0
LINE
  5
1AA
100
AcDbEntity
  8
MAIN0
  6
CONTINUOUS
 62
3
100
AcDbLine
 10
304.1210777891920
 20
479.7773818009707
 30
0.0000000000000000
 11
304.1210777891922
 21
540.2773818009798
 31
0.0000000000000000
  0
LINE
  5
1AB
100
AcDbEntity
  8
MAIN0
  6
CONTINUOUS
 62
3
100
AcDbLine
 10
302.9210777891919
 20
479.7773818009717
 30
0.0000000000000000
 11
304.1210777891920
 21
479.7773818009707
 31
0.0000000000000000
  0
LINE
  5
1AC
100
AcDbEntity
  8
MAIN0
  6
CONTINUOUS
 62
3
100
AcDbLine
 10
302.9210777891921
 20
479.7773818009716
 30
0.0000000000000000
 11
302.9210777891921
 21
510.0773818014454
 31
0.0000000000000000
  0
LINE
  5
1AD
100
AcDbEntity
  8
MAIN0
  6
CONTINUOUS
 62
3
100
AcDbLine
 10
294.1210777891878
 20
479.7773818009797
 30
0.0000000000000000
 11
300.6210777891926
 21
479.7773818009797
 31
0.0000000000000000
  0
LINE
  5
1AE
100
AcDbEntity
  8
MAIN0
  6
CONTINUOUS
 62
3
100
AcDbLine
 10
300.4210777891925
 20
480.9773818009797
 30
0.0000000000000000
 11
294.1210777891878
 21
480.9773818009797
 31
0.0000000000000000
  0
ARC
  5
1AF
100
AcDbEntity
  8
MAIN0
  6
CONTINUOUS
 62
3
100
AcDbCircle
 10
300.6210777891926
 20
481.7773818009797
 30
0.0000000000000000
 40
2.000000000000000
100
AcDbArc
 50
270.0000000000000
 51
360.0000000000000
  0
LINE
  5
1B0
100
AcDbEntity
  8
MAIN0
  6
CONTINUOUS
 62
3
100
AcDbLine
 10
301.4210777891925
 20
510.0773818014454
 30
0.0000000000000000
 11
301.4210777891925
 21
481.9773818009797
 31
0.0000000000000000
  0
ARC
  5
1B1
100
AcDbEntity
  8
MAIN0
  6
CONTINUOUS
 62
3
100
AcDbCircle
 10
300.4210777891925
 20
481.9773818009797
 30
0.0000000000000000
 40
1.000000000000000
100
AcDbArc
 50
270.0000000000000
 51
360.0000000000000
  0
LINE
  5
1B2
100
AcDbEntity
  8
MAIN0
  6
CONTINUOUS
 62
3
100
AcDbLine
 10
294.1210777891878
 20
480.9773818009796
 30
0.0000000000000000
 11
294.1210777891878
 21
479.7773818009797
 31
0.0000000000000000
  0
LINE
  5
1B3
100
AcDbEntity
  8
MAIN0
  6
CONTINUOUS
 62
3
100
AcDbLine
 10
134.6210777891924
 20
479.7773818009788
 30
0.0000000000000000
 11
141.1210777891924
 21
479.7773818009787
 31
0.0000000000000000
  0
LINE
  5
1B4
100
AcDbEntity
  8
MAIN0
  6
CONTINUOUS
 62
3
100
AcDbLine
 10
141.1210777891923
 20
480.9773818009787
 30
0.0000000000000000
 11
134.8210777891925
 21
480.9773818009787
 31
0.0000000000000000
  0
LINE
  5
1B5
100
AcDbEntity
  8
MAIN0
  6
CONTINUOUS
 62
3
100
AcDbLine
 10
141.1210777891923
 20
479.7773818009787
 30
0.0000000000000000
 11
141.1210777891923
 21
480.9773818009788
 31
0.0000000000000000
  0
ARC
  5
1B6
100
AcDbEntity
  8
MAIN0
  6
CONTINUOUS
 62
3
100
AcDbCircle
 10
134.6210777891923
 20
481.7773818009788
 30
0.0000000000000000
 40
2.000000000000000
100
AcDbArc
 50
180.0000000000000
 51
270.0000000000000
  0
LINE
  5
1B7
100
AcDbEntity
  8
MAIN0
  6
CONTINUOUS
 62
3
100
AcDbLine
 10
133.8210777891926
 20
510.0773818008585
 30
0.0000000000000000
 11
133.8210777891926
 21
481.9773818009787
 31
0.0000000000000000
  0
LINE
  5
1B8
100
AcDbEntity
  8
MAIN0
  6
CONTINUOUS
 62
3
100
AcDbLine
 10
132.6210777891923
 20
510.0773818008598
 30
0.0000000000000000
 11
132.6210777891923
 21
481.7773818009796
 31
0.0000000000000000
  0
ARC
  5
1B9
100
AcDbEntity
  8
MAIN0
  6
CONTINUOUS
 62
3
100
AcDbCircle
 10
134.8210777891926
 20
481.9773818009787
 30
0.0000000000000000
 40
1.000000000000000
100
AcDbArc
 50
180.0000000000000
 51
270.0000000000000
  0
LINE
  5
1BA
100
AcDbEntity
  8
MAIN0
  6
CONTINUOUS
 62
3
100
AcDbLine
 10
131.1210777891914
 20
479.7773818009222
 30
0.0000000000000000
 11
132.3210777891914
 21
479.7773818009210
 31
0.0000000000000000
  0
LINE
  5
1BB
100
AcDbEntity
  8
MAIN0
  6
CONTINUOUS
 62
3
100
AcDbLine
 10
132.3210777891915
 20
479.7773818009210
 30
0.0000000000000000
 11
132.3210777891915
 21
510.0773818008601
 31
0.0000000000000000
  0
LINE
  5
1BC
100
AcDbEntity
  8
MAIN0
  6
CONTINUOUS
 62
3
100
AcDbLine
 10
131.1210777891914
 20
479.7773818009222
 30
0.0000000000000000
 11
131.1210777891914
 21
540.2773818009797
 31
0.0000000000000000
  0
LINE
  5
1BD
100
AcDbEntity
  8
MAIN0
  6
CONTINUOUS
 62
3
100
AcDbLine
 10
302.6210777891923
 20
481.7773818009796
 30
0.0000000000000000
 11
302.6210777891923
 21
510.0773818014454
 31
0.0000000000000000
  0
ARC
  5
1BE
100
AcDbEntity
  8
MAIN0
  6
CONTINUOUS
 62
3
100
AcDbCircle
 10
132.1210777891914
 20
540.2773818009789
 30
0.0000000000000000
 40
1.000000000000000
100
AcDbArc
 50
90.00000000000000
 51
180.0000000000000
  0
ARC
  5
1BF
100
AcDbEntity
  8
MAIN0
  6
CONTINUOUS
 62
3
100
AcDbCircle
 10
303.1210777891923
 20
540.2773818009780
 30
0.0000000000000000
 40
1.000000000000000
100
AcDbArc
 50
0.0000000000000000
 51
90.00000000000000
  0
LINE
  5
1C0
100
AcDbEntity
  8
MAIN0
  6
CONTINUOUS
 62
3
100
AcDbLine
 10
137.6210777893056
 20
541.2773818009790
 30
0.0000000000000000
 11
132.1210777891914
 21
541.2773818009791
 31
0.0000000000000000
  0
LINE
  5
1C1
100
AcDbEntity
  8
MAIN0
  6
CONTINUOUS
 62
3
100
AcDbLine
 10
303.1210777891923
 20
541.2773818009779
 30
0.0000000000000000
 11
297.6210777893057
 21
541.2773818009780
 31
0.0000000000000000
  0
LINE
  5
1C2
100
AcDbEntity
  8
MAIN0
  6
CONTINUOUS
 62
3
100
AcDbLine
 10
933.7985261156917
 20
840.1499030303078
 30
0.0000000000000000
 11
933.7985261156917
 21
1007.149903030308
 31
0.0000000000000000
  0
LINE
  5
1C3
100
AcDbEntity
  8
MAIN0
  6
CONTINUOUS
 62
3
100
AcDbLine
 10
873.7985261144518
 20
838.6499030303080
 30
0.0000000000000000
 11
873.7985261141319
 21
1008.649903030309
 31
0.0000000000000000
  0
DIMENSION
  5
1CD
100
AcDbEntity
  8
MAIN0
  6
CONTINUOUS
 62
3
100
AcDbDimension
  2
*D24
 10
709.7752021302825
 20
542.2773818014452
 30
0.0000000000000000
 11
709.2752021302825
 21
526.1773818014453
 31
0.0000000000000000
 70
32
  3
MAIN001
100
AcDbAlignedDimension
 13
538.7985261154015
 23
510.0773818014454
 33
0.0000000000000000
 14
733.3985261154015
 24
542.2773818014454
 34
0.0000000000000000
 50
90.00000000000000
100
AcDbRotatedDimension
1001
ACAD
1000
DSTYLE
1002
{
1070
   173
1070
     1
1070
     6
1000
_OPEN
1070
     7
1000
_OPEN
1070
    41
1040
8.000000
1070
   287
1070
     0
1002
}
  0
LINE
  5
1CE
100
AcDbEntity
  8
MAIN0
  6
CONTINUOUS
 62
3
100
AcDbLine
 10
297.6210777893056
 20
510.0773818010469
 30
0.0000000000000000
 11
302.9210777891921
 21
510.0773818010487
 31
0.0000000000000000
  0
DIMENSION
  5
1D9
100
AcDbEntity
  8
MAIN0
  6
CONTINUOUS
 62
3
100
AcDbDimension
  2
*D25
 10
339.2650022582347
 20
410.0773818014454
 30
0.0000000000000000
 11
338.7650022582347
 21
420.5773818014455
 31
0.0000000000000000
 70
32
  3
MAIN001
100
AcDbAlignedDimension
 13
298.1210777893054
 23
431.0773818014455
 33
0.0000000000000000
 14
298.1210777893055
 24
410.0773818014455
 34
0.0000000000000000
 50
90.00000000000000
100
AcDbRotatedDimension
1001
ACAD
1000
DSTYLE
1002
{
1070
   173
1070
     1
1070
     6
1000
_OPEN
1070
     7
1000
_OPEN
1070
    41
1040
8.000000
1070
   287
1070
     0
1002
}
  0
DIMENSION
  5
1E2
100
AcDbEntity
  8
MAIN0
  6
CONTINUOUS
 62
3
100
AcDbDimension
  2
*D26
 10
339.2650022582347
 20
431.0773818014456
 30
0.0000000000000000
 11
338.7650022582347
 21
458.5773818014455
 31
0.0000000000000000
 70
32
  3
MAIN001
100
AcDbAlignedDimension
 13
298.1210777893056
 23
486.0773818014454
 33
0.0000000000000000
 14
298.1210777893054
 24
431.0773818014455
 34
0.0000000000000000
 50
90.00000000000000
100
AcDbRotatedDimension
1001
ACAD
1000
DSTYLE
1002
{
1070
   173
1070
     1
1070
     6
1000
_OPEN
1070
     7
1000
_OPEN
1070
    41
1040
8.000000
1002
}
  0
DIMENSION
  5
1ED
100
AcDbEntity
  8
MAIN0
  6
CONTINUOUS
 62
3
100
AcDbDimension
  2
*D27
 10
339.2650022582347
 20
486.0773818014454
 30
0.0000000000000000
 11
338.7650022582347
 21
498.0773818012124
 31
0.0000000000000000
 70
32
  3
MAIN001
100
AcDbAlignedDimension
 13
298.4210777891933
 23
510.0773818009794
 33
0.0000000000000000
 14
298.1210777893056
 24
486.0773818014454
 34
0.0000000000000000
 50
90.00000000000000
100
AcDbRotatedDimension
1001
ACAD
1000
DSTYLE
1002
{
1070
   173
1070
     1
1070
     6
1000
_OPEN
1070
     7
1000
_OPEN
1070
    41
1040
8.000000
1070
   287
1070
     0
1002
}
  0
LINE
  5
1EE
100
AcDbEntity
  8
MAIN0
  6
CONTINUOUS
 62
3
100
AcDbLine
 10
132.3210777891915
 20
510.0773818008601
 30
0.0000000000000000
 11
137.6210777893056
 21
510.0773818008548
 31
0.0000000000000000
  0
LINE
  5
1EF
100
AcDbEntity
  8
MAIN0
  6
CENTER
 62
3
100
AcDbLine
 10
217.6210777894356
 20
395.4711241409821
 30
0.0000000000000000
 11
217.6210777894356
 21
577.7257207239125
 31
0.0000000000000000
  0
LINE
  5
1F0
100
AcDbEntity
  8
MAIN0
  6
CONTINUOUS
 62
3
100
AcDbLine
 10
168.6210777891924
 20
470.0773818009797
 30
0.0000000000000000
 11
179.4307528255227
 21
470.0773818009797
 31
0.0000000000000000
  0
LINE
  5
1F1
100
AcDbEntity
  8
MAIN0
  6
CONTINUOUS
 62
3
100
AcDbLine
 10
179.4307528255225
 20
470.0773818009799
 30
0.0000000000000000
 11
180.5538464295364
 21
469.0482561202825
 31
0.0000000000000000
  0
LINE
  5
1F2
100
AcDbEntity
  8
MAIN0
  6
CONTINUOUS
 62
3
100
AcDbLine
 10
180.5538464295363
 20
469.0482561202825
 30
0.0000000000000000
 11
181.1586695925115
 21
451.7283868339546
 31
0.0000000000000000
  0
LINE
  5
1F3
100
AcDbEntity
  8
MAIN0
  6
CONTINUOUS
 62
3
100
AcDbLine
 10
254.6883091488488
 20
469.0482561202826
 30
0.0000000000000000
 11
254.0834859858737
 21
451.7283868339548
 31
0.0000000000000000
  0
LINE
  5
1F4
100
AcDbEntity
  8
MAIN0
  6
CONTINUOUS
 62
3
100
AcDbLine
 10
255.8114027528630
 20
470.0773818009798
 30
0.0000000000000000
 11
254.6883091488491
 21
469.0482561202824
 31
0.0000000000000000
  0
LINE
  5
1F5
100
AcDbEntity
  8
MAIN0
  6
CONTINUOUS
 62
3
100
AcDbLine
 10
255.8114027528627
 20
470.0773818009797
 30
0.0000000000000000
 11
266.6210777891924
 21
470.0773818009797
 31
0.0000000000000000
  0
LINE
  5
1F6
100
AcDbEntity
  8
MAIN0
  6
CONTINUOUS
 62
3
100
AcDbLine
 10
251.6210777888089
 20
470.0773818009796
 30
0.0000000000000000
 11
266.6210777891925
 21
470.0773818009796
 31
0.0000000000000000
  0
LINE
  5
1F7
100
AcDbEntity
  8
MAIN0
  6
CONTINUOUS
 62
3
100
AcDbLine
 10
183.6210777888532
 20
447.0773818009795
 30
0.0000000000000000
 11
251.6210777888513
 21
447.0773818009795
 31
0.0000000000000000
  0
LINE
  5
1F8
100
AcDbEntity
  8
MAIN0
  6
CONTINUOUS
 62
3
100
AcDbLine
 10
183.6210777888531
 20
447.0773818009794
 30
0.0000000000000000
 11
183.6210777888244
 21
470.0773818009796
 31
0.0000000000000000
  0
LINE
  5
1F9
100
AcDbEntity
  8
MAIN0
  6
CONTINUOUS
 62
3
100
AcDbLine
 10
251.6210777888512
 20
447.0773818009795
 30
0.0000000000000000
 11
251.6210777888078
 21
470.0773818009795
 31
0.0000000000000000
  0
LINE
  5
1FA
100
AcDbEntity
  8
MAIN0
  6
CONTINUOUS
 62
3
100
AcDbLine
 10
183.6210777888252
 20
470.0773818009796
 30
0.0000000000000000
 11
168.6210777891924
 21
470.0773818009796
 31
0.0000000000000000
  0
CIRCLE
  5
1FB
100
AcDbEntity
  8
MAIN0
  6
CONTINUOUS
 62
3
100
AcDbCircle
 10
713.7985261154004
 20
951.6499030300450
 30
0.0000000000000000
 40
11.50000000000000
  0
CIRCLE
  5
1FC
100
AcDbEntity
  8
MAIN0
  6
CONTINUOUS
 62
3
100
AcDbCircle
 10
663.7985261154006
 20
951.6499030300448
 30
0.0000000000000000
 40
11.50000000000000
  0
CIRCLE
  5
1FD
100
AcDbEntity
  8
MAIN0
  6
CONTINUOUS
 62
3
100
AcDbCircle
 10
663.7985261154005
 20
895.6499030300462
 30
0.0000000000000000
 40
11.50000000000000
  0
CIRCLE
  5
1FE
100
AcDbEntity
  8
MAIN0
  6
CONTINUOUS
 62
3
100
AcDbCircle
 10
713.7985261154006
 20
895.6499030300462
 30
0.0000000000000000
 40
11.50000000000000
  0
LINE
  5
1FF
100
AcDbEntity
  8
MAIN0
  6
CENTER
 62
3
100
AcDbLine
 10
660.7985261154005
 20
963.6499030303085
 30
0.0000000000000000
 11
660.7985261154006
 21
983.8495298643611
 31
0.0000000000000000
  0
LINE
  5
200
100
AcDbEntity
  8
MAIN0
  6
CENTER
 62
3
100
AcDbLine
 10
710.7985261154005
 20
963.6499030303085
 30
0.0000000000000000
 11
710.7985261154006
 21
983.8495298643611
 31
0.0000000000000000
  0
LINE
  5
201
100
AcDbEntity
  8
MAIN0
  6
CENTER
 62
3
100
AcDbLine
 10
651.2903813323069
 20
973.6499030303083
 30
0.0000000000000000
 11
670.3356666459583
 21
973.6499030303083
 31
0.0000000000000000
  0
LINE
  5
202
100
AcDbEntity
  8
MAIN0
  6
CENTER
 62
3
100
AcDbLine
 10
698.4274778497810
 20
973.6499030303086
 30
0.0000000000000000
 11
720.3295722305600
 21
973.6499030303086
 31
0.0000000000000000
  0
LINE
  5
203
100
AcDbEntity
  8
MAIN0
  6
CENTER
 62
3
100
AcDbLine
 10
660.7985261154006
 20
883.6499030303085
 30
0.0000000000000000
 11
660.7985261154006
 21
863.4502761962558
 31
0.0000000000000000
  0
LINE
  5
204
100
AcDbEntity
  8
MAIN0
  6
CENTER
 62
3
100
AcDbLine
 10
710.7985261154006
 20
883.6499030303085
 30
0.0000000000000000
 11
710.7985261154006
 21
863.4502761962560
 31
0.0000000000000000
  0
CIRCLE
  5
205
100
AcDbEntity
  8
MAIN0
  6
CONTINUOUS
 62
3
100
AcDbCircle
 10
660.7985261154006
 20
873.6499030303083
 30
0.0000000000000000
 40
5.000000000000000
  0
CIRCLE
  5
206
100
AcDbEntity
  8
MAIN0
  6
CONTINUOUS
 62
3
100
AcDbCircle
 10
660.7985261154006
 20
873.6499030303083
 30
0.0000000000000000
 40
4.250000000000000
  0
CIRCLE
  5
207
100
AcDbEntity
  8
MAIN0
  6
CONTINUOUS
 62
3
100
AcDbCircle
 10
710.7985261154006
 20
873.6499030303083
 30
0.0000000000000000
 40
5.000000000000000
  0
CIRCLE
  5
208
100
AcDbEntity
  8
MAIN0
  6
CONTINUOUS
 62
3
100
AcDbCircle
 10
710.7985261154006
 20
873.6499030303083
 30
0.0000000000000000
 40
4.250000000000000
  0
LINE
  5
209
100
AcDbEntity
  8
MAIN0
  6
CENTER
 62
3
100
AcDbLine
 10
651.2903813323069
 20
873.6499030303085
 30
0.0000000000000000
 11
670.3356666459583
 21
873.6499030303085
 31
0.0000000000000000
  0
LINE
  5
20A
100
AcDbEntity
  8
MAIN0
  6
CENTER
 62
3
100
AcDbLine
 10
698.4274778497810
 20
873.6499030303085
 30
0.0000000000000000
 11
720.3295722305600
 21
873.6499030303085
 31
0.0000000000000000
  0
LINE
  5
20B
100
AcDbEntity
  8
MAIN0
  6
CENTER
 62
3
100
AcDbLine
 10
663.7985261154005
 20
882.1031163632624
 30
0.0000000000000000
 11
663.7985261154005
 21
910.2188401489857
 31
0.0000000000000000
  0
LINE
  5
20C
100
AcDbEntity
  8
MAIN0
  6
CENTER
 62
3
100
AcDbLine
 10
678.0162759489215
 20
895.6499030300463
 30
0.0000000000000000
 11
649.2722660280374
 21
895.6499030300462
 31
0.0000000000000000
  0
CIRCLE
  5
20D
100
AcDbEntity
  8
MAIN0
  6
CONTINUOUS
 62
3
100
AcDbCircle
 10
688.7985261154004
 20
923.7749030300460
 30
0.0000000000000000
 40
5.000000000000000
  0
CIRCLE
  5
20E
100
AcDbEntity
  8
MAIN0
  6
CONTINUOUS
 62
3
100
AcDbCircle
 10
688.7985261154004
 20
923.7749030300460
 30
0.0000000000000000
 40
4.250000000000000
  0
CIRCLE
  5
20F
100
AcDbEntity
  8
MAIN0
  6
HIDDEN
 62
3
100
AcDbCircle
 10
663.7985261154004
 20
895.6499030300462
 30
0.0000000000000000
 40
10.50000000000000
  0
LINE
  5
210
100
AcDbEntity
  8
MAIN0
  6
HIDDEN
 62
3
100
AcDbLine
 10
663.7985261154003
 20
902.5781062603215
 30
0.0000000000000000
 11
657.7985261154004
 21
899.1140046451839
 31
0.0000000000000000
  0
LINE
  5
211
100
AcDbEntity
  8
MAIN0
  6
HIDDEN
 62
3
100
AcDbLine
 10
657.7985261154004
 20
899.1140046451841
 30
0.0000000000000000
 11
657.7985261154004
 21
892.1858014149083
 31
0.0000000000000000
  0
LINE
  5
212
100
AcDbEntity
  8
MAIN0
  6
HIDDEN
 62
3
100
AcDbLine
 10
657.7985261154004
 20
892.1858014149084
 30
0.0000000000000000
 11
663.7985261154003
 21
888.7216997997706
 31
0.0000000000000000
  0
LINE
  5
213
100
AcDbEntity
  8
MAIN0
  6
HIDDEN
 62
3
100
AcDbLine
 10
663.7985261154003
 20
888.7216997997705
 30
0.0000000000000000
 11
669.7985261154004
 21
892.1858014149084
 31
0.0000000000000000
  0
LINE
  5
214
100
AcDbEntity
  8
MAIN0
  6
HIDDEN
 62
3
100
AcDbLine
 10
669.7985261154004
 20
892.1858014149083
 30
0.0000000000000000
 11
669.7985261154004
 21
899.1140046451841
 31
0.0000000000000000
  0
LINE
  5
215
100
AcDbEntity
  8
MAIN0
  6
HIDDEN
 62
3
100
AcDbLine
 10
669.7985261154003
 20
899.1140046451839
 30
0.0000000000000000
 11
663.7985261154003
 21
902.5781062603217
 31
0.0000000000000000
  0
LINE
  5
216
100
AcDbEntity
  8
MAIN0
  6
CENTER
 62
3
100
AcDbLine
 10
713.7985261154005
 20
882.1031163632622
 30
0.0000000000000000
 11
713.7985261154006
 21
910.2188401489855
 31
0.0000000000000000
  0
LINE
  5
217
100
AcDbEntity
  8
MAIN0
  6
CENTER
 62
3
100
AcDbLine
 10
699.5807762818795
 20
895.6499030300465
 30
0.0000000000000000
 11
728.3247862027636
 21
895.6499030300463
 31
0.0000000000000000
  0
CIRCLE
  5
218
100
AcDbEntity
  8
MAIN0
  6
HIDDEN
 62
3
100
AcDbCircle
 10
713.7985261154004
 20
895.6499030300460
 30
0.0000000000000000
 40
10.50000000000000
  0
LINE
  5
219
100
AcDbEntity
  8
MAIN0
  6
HIDDEN
 62
3
100
AcDbLine
 10
713.7985261154007
 20
902.5781062603219
 30
0.0000000000000000
 11
719.7985261154006
 21
899.1140046451842
 31
0.0000000000000000
  0
LINE
  5
21A
100
AcDbEntity
  8
MAIN0
  6
HIDDEN
 62
3
100
AcDbLine
 10
719.7985261154006
 20
899.1140046451839
 30
0.0000000000000000
 11
719.7985261154006
 21
892.1858014149085
 31
0.0000000000000000
  0
LINE
  5
21B
100
AcDbEntity
  8
MAIN0
  6
HIDDEN
 62
3
100
AcDbLine
 10
719.7985261154004
 20
892.1858014149082
 30
0.0000000000000000
 11
713.7985261154006
 21
888.7216997997705
 31
0.0000000000000000
  0
LINE
  5
21C
100
AcDbEntity
  8
MAIN0
  6
HIDDEN
 62
3
100
AcDbLine
 10
713.7985261154007
 20
888.7216997997708
 30
0.0000000000000000
 11
707.7985261154006
 21
892.1858014149086
 31
0.0000000000000000
  0
LINE
  5
21D
100
AcDbEntity
  8
MAIN0
  6
HIDDEN
 62
3
100
AcDbLine
 10
707.7985261154006
 20
892.1858014149085
 30
0.0000000000000000
 11
707.7985261154006
 21
899.1140046451839
 31
0.0000000000000000
  0
LINE
  5
21E
100
AcDbEntity
  8
MAIN0
  6
HIDDEN
 62
3
100
AcDbLine
 10
707.7985261154006
 20
899.1140046451837
 30
0.0000000000000000
 11
713.7985261154006
 21
902.5781062603217
 31
0.0000000000000000
  0
LINE
  5
21F
100
AcDbEntity
  8
MAIN0
  6
CENTER
 62
3
100
AcDbLine
 10
713.7985261154003
 20
965.1966896968285
 30
0.0000000000000000
 11
713.7985261154004
 21
937.0809659111052
 31
0.0000000000000000
  0
LINE
  5
220
100
AcDbEntity
  8
MAIN0
  6
CENTER
 62
3
100
AcDbLine
 10
699.5807762818791
 20
951.6499030300448
 30
0.0000000000000000
 11
728.3247862027631
 21
951.6499030300450
 31
0.0000000000000000
  0
CIRCLE
  5
221
100
AcDbEntity
  8
MAIN0
  6
HIDDEN
 62
3
100
AcDbCircle
 10
713.7985261154004
 20
951.6499030300450
 30
0.0000000000000000
 40
10.50000000000000
  0
LINE
  5
222
100
AcDbEntity
  8
MAIN0
  6
HIDDEN
 62
3
100
AcDbLine
 10
713.7985261154008
 20
944.7216997997689
 30
0.0000000000000000
 11
719.7985261154006
 21
948.1858014149066
 31
0.0000000000000000
  0
LINE
  5
223
100
AcDbEntity
  8
MAIN0
  6
HIDDEN
 62
3
100
AcDbLine
 10
719.7985261154001
 20
948.1858014149074
 30
0.0000000000000000
 11
719.7985261154001
 21
955.1140046451827
 31
0.0000000000000000
  0
LINE
  5
224
100
AcDbEntity
  8
MAIN0
  6
HIDDEN
 62
3
100
AcDbLine
 10
719.7985261154005
 20
955.1140046451826
 30
0.0000000000000000
 11
713.7985261154006
 21
958.5781062603203
 31
0.0000000000000000
  0
LINE
  5
225
100
AcDbEntity
  8
MAIN0
  6
HIDDEN
 62
3
100
AcDbLine
 10
713.7985261154007
 20
958.5781062603199
 30
0.0000000000000000
 11
707.7985261154007
 21
955.1140046451820
 31
0.0000000000000000
  0
LINE
  5
226
100
AcDbEntity
  8
MAIN0
  6
HIDDEN
 62
3
100
AcDbLine
 10
707.7985261154001
 20
955.1140046451826
 30
0.0000000000000000
 11
707.7985261154001
 21
948.1858014149073
 31
0.0000000000000000
  0
LINE
  5
227
100
AcDbEntity
  8
MAIN0
  6
HIDDEN
 62
3
100
AcDbLine
 10
707.7985261154006
 20
948.1858014149070
 30
0.0000000000000000
 11
713.7985261154006
 21
944.7216997997692
 31
0.0000000000000000
  0
LINE
  5
228
100
AcDbEntity
  8
MAIN0
  6
CENTER
 62
3
100
AcDbLine
 10
663.7985261154006
 20
965.1966896968286
 30
0.0000000000000000
 11
663.7985261154004
 21
937.0809659111053
 31
0.0000000000000000
  0
LINE
  5
229
100
AcDbEntity
  8
MAIN0
  6
CENTER
 62
3
100
AcDbLine
 10
678.0162759489220
 20
951.6499030300448
 30
0.0000000000000000
 11
649.2722660280379
 21
951.6499030300450
 31
0.0000000000000000
  0
CIRCLE
  5
22A
100
AcDbEntity
  8
MAIN0
  6
HIDDEN
 62
3
100
AcDbCircle
 10
663.7985261154004
 20
951.6499030300450
 30
0.0000000000000000
 40
10.50000000000000
  0
LINE
  5
22B
100
AcDbEntity
  8
MAIN0
  6
HIDDEN
 62
3
100
AcDbLine
 10
663.7985261153998
 20
944.7216997997692
 30
0.0000000000000000
 11
657.7985261154000
 21
948.1858014149070
 31
0.0000000000000000
  0
LINE
  5
22C
100
AcDbEntity
  8
MAIN0
  6
HIDDEN
 62
3
100
AcDbLine
 10
657.7985261154006
 20
948.1858014149071
 30
0.0000000000000000
 11
657.7985261154007
 21
955.1140046451827
 31
0.0000000000000000
  0
LINE
  5
22D
100
AcDbEntity
  8
MAIN0
  6
HIDDEN
 62
3
100
AcDbLine
 10
657.7985261154006
 20
955.1140046451829
 30
0.0000000000000000
 11
663.7985261154005
 21
958.5781062603206
 31
0.0000000000000000
  0
LINE
  5
22E
100
AcDbEntity
  8
MAIN0
  6
HIDDEN
 62
3
100
AcDbLine
 10
663.7985261153999
 20
958.5781062603203
 30
0.0000000000000000
 11
669.7985261154000
 21
955.1140046451824
 31
0.0000000000000000
  0
LINE
  5
22F
100
AcDbEntity
  8
MAIN0
  6
HIDDEN
 62
3
100
AcDbLine
 10
669.7985261154007
 20
955.1140046451826
 30
0.0000000000000000
 11
669.7985261154006
 21
948.1858014149070
 31
0.0000000000000000
  0
LINE
  5
230
100
AcDbEntity
  8
MAIN0
  6
HIDDEN
 62
3
100
AcDbLine
 10
669.7985261154005
 20
948.1858014149074
 30
0.0000000000000000
 11
663.7985261154004
 21
944.7216997997696
 31
0.0000000000000000
  0
LINE
  5
231
100
AcDbEntity
  8
MAIN0
  6
CENTER
 62
3
100
AcDbLine
 10
688.7985261154004
 20
934.6499030300460
 30
0.0000000000000000
 11
688.7985261154004
 21
912.6499030300460
 31
0.0000000000000000
  0
CIRCLE
  5
232
100
AcDbEntity
  8
MAIN0
  6
CONTINUOUS
 62
3
100
AcDbCircle
 10
660.7985261154006
 20
973.6499030303083
 30
0.0000000000000000
 40
5.000000000000000
  0
CIRCLE
  5
233
100
AcDbEntity
  8
MAIN0
  6
CONTINUOUS
 62
3
100
AcDbCircle
 10
660.7985261154006
 20
973.6499030303083
 30
0.0000000000000000
 40
4.250000000000000
  0
CIRCLE
  5
234
100
AcDbEntity
  8
MAIN0
  6
CONTINUOUS
 62
3
100
AcDbCircle
 10
710.7985261154006
 20
973.6499030303086
 30
0.0000000000000000
 40
5.000000000000000
  0
CIRCLE
  5
235
100
AcDbEntity
  8
MAIN0
  6
CONTINUOUS
 62
3
100
AcDbCircle
 10
710.7985261154006
 20
973.6499030303086
 30
0.0000000000000000
 40
4.250000000000000
  0
LINE
  5
236
100
AcDbEntity
  8
MAIN0
  6
CENTER
 62
3
100
AcDbLine
 10
535.7985261153987
 20
954.8054489715030
 30
0.0000000000000000
 11
535.7985261153974
 21
972.8985007518450
 31
0.0000000000000000
  0
LINE
  5
237
100
AcDbEntity
  8
MAIN0
  6
CENTER
 62
3
100
AcDbLine
 10
480.7985261153987
 20
954.8054489714987
 30
0.0000000000000000
 11
480.7985261153974
 21
972.8985007518406
 31
0.0000000000000000
  0
CIRCLE
  5
238
100
AcDbEntity
  8
MAIN0
  6
CONTINUOUS
 62
3
100
AcDbCircle
 10
530.7985261154121
 20
984.6499030303083
 30
0.0000000000000000
 40
13.00000000000000
  0
CIRCLE
  5
239
100
AcDbEntity
  8
MAIN0
  6
CONTINUOUS
 62
3
100
AcDbCircle
 10
476.7985261154121
 20
984.6499030303083
 30
0.0000000000000000
 40
13.00000000000000
  0
CIRCLE
  5
23A
100
AcDbEntity
  8
MAIN0
  6
CONTINUOUS
 62
3
100
AcDbCircle
 10
476.7985261154121
 20
862.6499030303083
 30
0.0000000000000000
 40
13.00000000000000
  0
CIRCLE
  5
23B
100
AcDbEntity
  8
MAIN0
  6
CONTINUOUS
 62
3
100
AcDbCircle
 10
530.7985261154121
 20
862.6499030303083
 30
0.0000000000000000
 40
13.00000000000000
  0
LINE
  5
23C
100
AcDbEntity
  8
MAIN0
  6
CENTER
 62
3
100
AcDbLine
 10
470.3588941203647
 20
963.6499030303083
 30
0.0000000000000000
 11
490.3564491230587
 21
963.6499030303083
 31
0.0000000000000000
  0
LINE
  5
23D
100
AcDbEntity
  8
MAIN0
  6
CENTER
 62
3
100
AcDbLine
 10
525.3515591284469
 20
963.6499030303083
 30
0.0000000000000000
 11
546.3013838201835
 21
963.6499030303083
 31
0.0000000000000000
  0
LINE
  5
23E
100
AcDbEntity
  8
MAIN0
  6
CENTER
 62
3
100
AcDbLine
 10
535.7985261153988
 20
892.4943570891135
 30
0.0000000000000000
 11
535.7985261153974
 21
874.4013053087715
 31
0.0000000000000000
  0
LINE
  5
23F
100
AcDbEntity
  8
MAIN0
  6
CENTER
 62
3
100
AcDbLine
 10
480.7985261153987
 20
892.4943570891178
 30
0.0000000000000000
 11
480.7985261153974
 21
874.4013053087758
 31
0.0000000000000000
  0
CIRCLE
  5
240
100
AcDbEntity
  8
MAIN0
  6
CONTINUOUS
 62
3
100
AcDbCircle
 10
535.7985261153981
 20
883.6499030303083
 30
0.0000000000000000
 40
5.000000000000000
  0
CIRCLE
  5
241
100
AcDbEntity
  8
MAIN0
  6
CONTINUOUS
 62
3
100
AcDbCircle
 10
535.7985261153981
 20
883.6499030303083
 30
0.0000000000000000
 40
4.250000000000000
  0
CIRCLE
  5
242
100
AcDbEntity
  8
MAIN0
  6
CONTINUOUS
 62
3
100
AcDbCircle
 10
480.7985261153981
 20
883.6499030303081
 30
0.0000000000000000
 40
5.000000000000000
  0
CIRCLE
  5
243
100
AcDbEntity
  8
MAIN0
  6
CONTINUOUS
 62
3
100
AcDbCircle
 10
480.7985261153981
 20
883.6499030303081
 30
0.0000000000000000
 40
4.250000000000000
  0
LINE
  5
244
100
AcDbEntity
  8
MAIN0
  6
CENTER
 62
3
100
AcDbLine
 10
470.3588941203647
 20
883.6499030303083
 30
0.0000000000000000
 11
490.3564491230587
 21
883.6499030303085
 31
0.0000000000000000
  0
LINE
  5
245
100
AcDbEntity
  8
MAIN0
  6
CENTER
 62
3
100
AcDbLine
 10
525.3515591284470
 20
883.6499030303082
 30
0.0000000000000000
 11
546.3013838201836
 21
883.6499030303082
 31
0.0000000000000000
  0
CIRCLE
  5
246
100
AcDbEntity
  8
MAIN0
  6
CONTINUOUS
 62
3
100
AcDbCircle
 10
503.7985261153946
 20
923.6499030302870
 30
0.0000000000000000
 40
5.000000000000000
  0
CIRCLE
  5
247
100
AcDbEntity
  8
MAIN0
  6
CONTINUOUS
 62
3
100
AcDbCircle
 10
503.7985261153946
 20
923.6499030302870
 30
0.0000000000000000
 40
4.250000000000000
  0
CIRCLE
  5
248
100
AcDbEntity
  8
MAIN0
  6
HIDDEN
 62
3
100
AcDbCircle
 10
476.7985261154121
 20
862.6499030303083
 30
0.0000000000000000
 40
12.00000000000000
  0
LINE
  5
249
100
AcDbEntity
  8
MAIN0
  6
HIDDEN
 62
3
100
AcDbLine
 10
476.7985261154122
 20
870.7328067989632
 30
0.0000000000000000
 11
469.7985261154122
 21
866.6913549146358
 31
0.0000000000000000
  0
LINE
  5
24A
100
AcDbEntity
  8
MAIN0
  6
HIDDEN
 62
3
100
AcDbLine
 10
469.7985261154121
 20
866.6913549146356
 30
0.0000000000000000
 11
469.7985261154121
 21
858.6084511459809
 31
0.0000000000000000
  0
LINE
  5
24B
100
AcDbEntity
  8
MAIN0
  6
HIDDEN
 62
3
100
AcDbLine
 10
469.7985261154122
 20
858.6084511459810
 30
0.0000000000000000
 11
476.7985261154121
 21
854.5669992616536
 31
0.0000000000000000
  0
LINE
  5
24C
100
AcDbEntity
  8
MAIN0
  6
HIDDEN
 62
3
100
AcDbLine
 10
476.7985261154122
 20
854.5669992616537
 30
0.0000000000000000
 11
483.7985261154122
 21
858.6084511459811
 31
0.0000000000000000
  0
LINE
  5
24D
100
AcDbEntity
  8
MAIN0
  6
HIDDEN
 62
3
100
AcDbLine
 10
483.7985261154121
 20
858.6084511459809
 30
0.0000000000000000
 11
483.7985261154121
 21
866.6913549146356
 31
0.0000000000000000
  0
LINE
  5
24E
100
AcDbEntity
  8
MAIN0
  6
HIDDEN
 62
3
100
AcDbLine
 10
483.7985261154121
 20
866.6913549146357
 30
0.0000000000000000
 11
476.7985261154121
 21
870.7328067989632
 31
0.0000000000000000
  0
CIRCLE
  5
24F
100
AcDbEntity
  8
MAIN0
  6
HIDDEN
 62
3
100
AcDbCircle
 10
530.7985261154121
 20
862.6499030303083
 30
0.0000000000000000
 40
12.00000000000000
  0
LINE
  5
250
100
AcDbEntity
  8
MAIN0
  6
HIDDEN
 62
3
100
AcDbLine
 10
530.7985261154122
 20
870.7328067989631
 30
0.0000000000000000
 11
523.7985261154122
 21
866.6913549146357
 31
0.0000000000000000
  0
LINE
  5
251
100
AcDbEntity
  8
MAIN0
  6
HIDDEN
 62
3
100
AcDbLine
 10
523.7985261154121
 20
866.6913549146356
 30
0.0000000000000000
 11
523.7985261154121
 21
858.6084511459809
 31
0.0000000000000000
  0
LINE
  5
252
100
AcDbEntity
  8
MAIN0
  6
HIDDEN
 62
3
100
AcDbLine
 10
523.7985261154122
 20
858.6084511459811
 30
0.0000000000000000
 11
530.7985261154122
 21
854.5669992616538
 31
0.0000000000000000
  0
LINE
  5
253
100
AcDbEntity
  8
MAIN0
  6
HIDDEN
 62
3
100
AcDbLine
 10
530.7985261154122
 20
854.5669992616536
 30
0.0000000000000000
 11
537.7985261154123
 21
858.6084511459810
 31
0.0000000000000000
  0
LINE
  5
254
100
AcDbEntity
  8
MAIN0
  6
HIDDEN
 62
3
100
AcDbLine
 10
537.7985261154121
 20
858.6084511459809
 30
0.0000000000000000
 11
537.7985261154121
 21
866.6913549146356
 31
0.0000000000000000
  0
LINE
  5
255
100
AcDbEntity
  8
MAIN0
  6
HIDDEN
 62
3
100
AcDbLine
 10
537.7985261154122
 20
866.6913549146359
 30
0.0000000000000000
 11
530.7985261154122
 21
870.7328067989632
 31
0.0000000000000000
  0
LINE
  5
256
100
AcDbEntity
  8
MAIN0
  6
CENTER
 62
3
100
AcDbLine
 10
495.2985261154118
 20
862.6499030303083
 30
0.0000000000000000
 11
458.2985261154125
 21
862.6499030303083
 31
0.0000000000000000
  0
LINE
  5
257
100
AcDbEntity
  8
MAIN0
  6
CENTER
 62
3
100
AcDbLine
 10
476.7985261154121
 20
881.1499030303079
 30
0.0000000000000000
 11
476.7985261154121
 21
844.1499030303086
 31
0.0000000000000000
  0
LINE
  5
258
100
AcDbEntity
  8
MAIN0
  6
CENTER
 62
3
100
AcDbLine
 10
549.2985261154121
 20
862.6499030303081
 30
0.0000000000000000
 11
512.2985261154124
 21
862.6499030303081
 31
0.0000000000000000
  0
LINE
  5
259
100
AcDbEntity
  8
MAIN0
  6
CENTER
 62
3
100
AcDbLine
 10
530.7985261154123
 20
881.1499030303079
 30
0.0000000000000000
 11
530.7985261154123
 21
844.1499030303083
 31
0.0000000000000000
  0
LINE
  5
25A
100
AcDbEntity
  8
MAIN0
  6
CENTER
 62
3
100
AcDbLine
 10
503.7985261153946
 20
934.6499030302870
 30
0.0000000000000000
 11
503.7985261153946
 21
912.6499030302870
 31
0.0000000000000000
  0
CIRCLE
  5
25B
100
AcDbEntity
  8
MAIN0
  6
HIDDEN
 62
3
100
AcDbCircle
 10
476.7985261154121
 20
984.6499030303083
 30
0.0000000000000000
 40
12.00000000000000
  0
LINE
  5
25C
100
AcDbEntity
  8
MAIN0
  6
HIDDEN
 62
3
100
AcDbLine
 10
476.7985261154121
 20
976.5669992616538
 30
0.0000000000000000
 11
469.7985261154120
 21
980.6084511459812
 31
0.0000000000000000
  0
LINE
  5
25D
100
AcDbEntity
  8
MAIN0
  6
HIDDEN
 62
3
100
AcDbLine
 10
469.7985261154120
 20
980.6084511459811
 30
0.0000000000000000
 11
469.7985261154120
 21
988.6913549146358
 31
0.0000000000000000
  0
LINE
  5
25E
100
AcDbEntity
  8
MAIN0
  6
HIDDEN
 62
3
100
AcDbLine
 10
469.7985261154122
 20
988.6913549146357
 30
0.0000000000000000
 11
476.7985261154121
 21
992.7328067989631
 31
0.0000000000000000
  0
LINE
  5
25F
100
AcDbEntity
  8
MAIN0
  6
HIDDEN
 62
3
100
AcDbLine
 10
476.7985261154121
 20
992.7328067989633
 30
0.0000000000000000
 11
483.7985261154120
 21
988.6913549146359
 31
0.0000000000000000
  0
LINE
  5
260
100
AcDbEntity
  8
MAIN0
  6
HIDDEN
 62
3
100
AcDbLine
 10
483.7985261154120
 20
988.6913549146358
 30
0.0000000000000000
 11
483.7985261154120
 21
980.6084511459811
 31
0.0000000000000000
  0
LINE
  5
261
100
AcDbEntity
  8
MAIN0
  6
HIDDEN
 62
3
100
AcDbLine
 10
483.7985261154122
 20
980.6084511459810
 30
0.0000000000000000
 11
476.7985261154122
 21
976.5669992616536
 31
0.0000000000000000
  0
CIRCLE
  5
262
100
AcDbEntity
  8
MAIN0
  6
HIDDEN
 62
3
100
AcDbCircle
 10
530.7985261154121
 20
984.6499030303083
 30
0.0000000000000000
 40
12.00000000000000
  0
LINE
  5
263
100
AcDbEntity
  8
MAIN0
  6
HIDDEN
 62
3
100
AcDbLine
 10
530.7985261154120
 20
976.5669992616538
 30
0.0000000000000000
 11
523.7985261154120
 21
980.6084511459812
 31
0.0000000000000000
  0
LINE
  5
264
100
AcDbEntity
  8
MAIN0
  6
HIDDEN
 62
3
100
AcDbLine
 10
523.7985261154120
 20
980.6084511459812
 30
0.0000000000000000
 11
523.7985261154120
 21
988.6913549146359
 31
0.0000000000000000
  0
LINE
  5
265
100
AcDbEntity
  8
MAIN0
  6
HIDDEN
 62
3
100
AcDbLine
 10
523.7985261154123
 20
988.6913549146359
 30
0.0000000000000000
 11
530.7985261154122
 21
992.7328067989632
 31
0.0000000000000000
  0
LINE
  5
266
100
AcDbEntity
  8
MAIN0
  6
HIDDEN
 62
3
100
AcDbLine
 10
530.7985261154120
 20
992.7328067989633
 30
0.0000000000000000
 11
537.7985261154120
 21
988.6913549146359
 31
0.0000000000000000
  0
LINE
  5
267
100
AcDbEntity
  8
MAIN0
  6
HIDDEN
 62
3
100
AcDbLine
 10
537.7985261154120
 20
988.6913549146359
 30
0.0000000000000000
 11
537.7985261154120
 21
980.6084511459812
 31
0.0000000000000000
  0
LINE
  5
268
100
AcDbEntity
  8
MAIN0
  6
HIDDEN
 62
3
100
AcDbLine
 10
537.7985261154123
 20
980.6084511459811
 30
0.0000000000000000
 11
530.7985261154122
 21
976.5669992616537
 31
0.0000000000000000
  0
LINE
  5
269
100
AcDbEntity
  8
MAIN0
  6
CENTER
 62
3
100
AcDbLine
 10
495.2985261154117
 20
984.6499030303083
 30
0.0000000000000000
 11
458.2985261154123
 21
984.6499030303083
 31
0.0000000000000000
  0
LINE
  5
26A
100
AcDbEntity
  8
MAIN0
  6
CENTER
 62
3
100
AcDbLine
 10
476.7985261154120
 20
966.1499030303088
 30
0.0000000000000000
 11
476.7985261154120
 21
1003.149903030308
 31
0.0000000000000000
  0
LINE
  5
26B
100
AcDbEntity
  8
MAIN0
  6
CENTER
 62
3
100
AcDbLine
 10
549.2985261154120
 20
984.6499030303087
 30
0.0000000000000000
 11
512.2985261154124
 21
984.6499030303086
 31
0.0000000000000000
  0
LINE
  5
26C
100
AcDbEntity
  8
MAIN0
  6
CENTER
 62
3
100
AcDbLine
 10
530.7985261154122
 20
966.1499030303089
 30
0.0000000000000000
 11
530.7985261154121
 21
1003.149903030309
 31
0.0000000000000000
  0
CIRCLE
  5
26D
100
AcDbEntity
  8
MAIN0
  6
CONTINUOUS
 62
3
100
AcDbCircle
 10
535.7985261153980
 20
963.6499030303083
 30
0.0000000000000000
 40
5.000000000000000
  0
CIRCLE
  5
26E
100
AcDbEntity
  8
MAIN0
  6
CONTINUOUS
 62
3
100
AcDbCircle
 10
535.7985261153980
 20
963.6499030303083
 30
0.0000000000000000
 40
4.250000000000000
  0
CIRCLE
  5
26F
100
AcDbEntity
  8
MAIN0
  6
CONTINUOUS
 62
3
100
AcDbCircle
 10
480.7985261153980
 20
963.6499030303083
 30
0.0000000000000000
 40
5.000000000000000
  0
CIRCLE
  5
270
100
AcDbEntity
  8
MAIN0
  6
CONTINUOUS
 62
3
100
AcDbCircle
 10
480.7985261153980
 20
963.6499030303083
 30
0.0000000000000000
 40
4.250000000000000
  0
DIMENSION
  5
279
100
AcDbEntity
  8
MAIN0
  6
CONTINUOUS
 62
3
100
AcDbDimension
  2
*D28
 10
645.7985261154006
 20
1047.592116307153
 30
0.0000000000000000
 11
667.2985261154005
 21
1048.092116307153
 31
0.0000000000000000
 70
32
  3
MAIN001
100
AcDbAlignedDimension
 13
688.7985261154004
 23
934.6499030300460
 33
0.0000000000000000
 14
645.7985261154006
 24
1003.049903030308
 34
0.0000000000000000
100
AcDbRotatedDimension
1001
ACAD
1000
DSTYLE
1002
{
1070
   173
1070
     1
1070
     6
1000
_OPEN
1070
     7
1000
_OPEN
1070
    41
1040
8.000000
1002
}
  0
DIMENSION
  5
282
100
AcDbEntity
  8
MAIN0
  6
CONTINUOUS
 62
3
100
AcDbDimension
  2
*D29
 10
480.7985261153974
 20
800.1158444581184
 30
0.0000000000000000
 11
508.2985261153974
 21
800.6158444581184
 31
0.0000000000000000
 70
32
  3
MAIN001
100
AcDbAlignedDimension
 13
535.7985261153974
 23
874.4013053087715
 33
0.0000000000000000
 14
480.7985261153974
 24
874.4013053087758
 34
0.0000000000000000
100
AcDbRotatedDimension
1001
ACAD
1000
DSTYLE
1002
{
1070
   173
1070
     1
1070
     6
1000
_OPEN
1070
     7
1000
_OPEN
1070
    41
1040
8.000000
1002
}
  0
DIMENSION
  5
28D
100
AcDbEntity
  8
MAIN0
  6
CONTINUOUS
 62
3
100
AcDbDimension
  2
*D30
 10
535.7985261153974
 20
800.1158444581184
 30
0.0000000000000000
 11
562.8029066999976
 21
802.1158444581184
 31
0.0000000000000000
 70
160
  3
MAIN001
100
AcDbAlignedDimension
 13
550.7985261154067
 23
844.1499030301658
 33
0.0000000000000000
 14
535.7985261153974
 24
874.4013053087715
 34
0.0000000000000000
100
AcDbRotatedDimension
1001
ACAD
1000
DSTYLE
1002
{
1070
   173
1070
     1
1070
     6
1000
_OPEN
1070
     7
1000
_OPEN
1070
    41
1040
8.000000
1070
   287
1070
     0
1002
}
  0
DIMENSION
  5
298
100
AcDbEntity
  8
MAIN0
  6
CONTINUOUS
 62
3
100
AcDbDimension
  2
*D31
 10
645.7985261154004
 20
800.1158444581184
 30
0.0000000000000000
 11
632.8126553269348
 21
802.1158444581184
 31
0.0000000000000000
 70
160
  3
MAIN001
100
AcDbAlignedDimension
 13
660.7985261154006
 23
863.4502761962558
 33
0.0000000000000000
 14
645.7985261154004
 24
844.4999030303077
 34
0.0000000000000000
100
AcDbRotatedDimension
1001
ACAD
1000
DSTYLE
1002
{
1070
   173
1070
     1
1070
     6
1000
_OPEN
1070
     7
1000
_OPEN
1070
    41
1040
8.000000
1070
   287
1070
     0
1002
}
  0
DIMENSION
  5
2A1
100
AcDbEntity
  8
MAIN0
  6
CONTINUOUS
 62
3
100
AcDbDimension
  2
*D32
 10
660.7985261154006
 20
800.1158444581184
 30
0.0000000000000000
 11
685.7985261154006
 21
800.6158444581184
 31
0.0000000000000000
 70
32
  3
MAIN001
100
AcDbAlignedDimension
 13
710.7985261154006
 23
863.4502761962560
 33
0.0000000000000000
 14
660.7985261154006
 24
863.4502761962558
 34
0.0000000000000000
100
AcDbRotatedDimension
1001
ACAD
1000
DSTYLE
1002
{
1070
   173
1070
     1
1070
     6
1000
_OPEN
1070
     7
1000
_OPEN
1070
    41
1040
8.000000
1002
}
  0
DIMENSION
  5
2AA
100
AcDbEntity
  8
MAIN0
  6
CONTINUOUS
 62
3
100
AcDbDimension
  2
*D33
 10
428.5974883306071
 20
883.6499030303083
 30
0.0000000000000000
 11
428.0974883306071
 21
923.6499030303083
 31
0.0000000000000000
 70
32
  3
MAIN001
100
AcDbAlignedDimension
 13
470.3588941203647
 23
963.6499030303083
 33
0.0000000000000000
 14
470.3588941203647
 24
883.6499030303083
 34
0.0000000000000000
 50
90.00000000000000
100
AcDbRotatedDimension
1001
ACAD
1000
DSTYLE
1002
{
1070
   173
1070
     1
1070
     6
1000
_OPEN
1070
     7
1000
_OPEN
1070
    41
1040
8.000000
1002
}
  0
DIMENSION
  5
2B3
100
AcDbEntity
  8
MAIN0
  6
CONTINUOUS
 62
3
100
AcDbDimension
  2
*D34
 10
773.6462082838302
 20
873.6499030303085
 30
0.0000000000000000
 11
771.6462082838302
 21
942.8929149985235
 31
0.0000000000000000
 70
160
  3
MAIN001
100
AcDbAlignedDimension
 13
720.3295722305600
 23
973.6499030303086
 33
0.0000000000000000
 14
720.3295722305600
 24
873.6499030303085
 34
0.0000000000000000
 50
90.00000000000000
100
AcDbRotatedDimension
1001
ACAD
1000
DSTYLE
1002
{
1070
   173
1070
     1
1070
     6
1000
_OPEN
1070
     7
1000
_OPEN
1070
    41
1040
8.000000
1002
}
  0
LEADER
  5
2B4
100
AcDbEntity
  8
MAIN0
  6
CONTINUOUS
 62
3
100
AcDbLeader
  3
MAIN001
 73
     0
 75
     1
 40
12.39999961853027
 41
143.5590042343139
 76
     3
 10
476.2205565460810
 20
881.6393820474763
 30
0.0000000000000000
 10
412.0867229903286
 20
814.8440589291026
 30
0.0000000000000000
 10
404.3817232134884
 20
814.8440589291026
 30
0.0000000000000000
340
2B5
213
0.0000000000000000
223
-2.000000000000000
233
0.0000000000000000
1001
ACAD
1000
DSTYLE
1002
{
1070
   147
1040
0.0
1070
    77
1070
     1
1070
   173
1070
     1
1070
     6
1000
_OPEN
1070
     7
1000
_OPEN
1002
}
  0
MTEXT
  5
2B5
102
{ACAD_REACTORS
330
2B4
102
}
100
AcDbEntity
  8
MAIN0
  6
CONTINUOUS
 62
3
100
AcDbMText
 10
260.8227189791745
 20
829.2440585476329
 30
0.0000000000000000
 40
12.39999961853027
 41
0.0000000000000000
 71
     1
 72
     1
  1
{\H0.93x;{2×5－M10 深さ20\P        DEPTH}}
 11
1.000000000000000
 21
0.0000000000000000
 31
0.0000000000000000
  7
KNJYOKO
  0
CIRCLE
  5
2B6
100
AcDbEntity
  8
MAIN0
  6
CONTINUOUS
 62
3
100
AcDbCircle
 10
503.7985261152091
 20
560.0773818014457
 30
0.0000000000000000
 40
5.000000000000000
  0
CIRCLE
  5
2B7
100
AcDbEntity
  8
MAIN0
  6
CONTINUOUS
 62
3
100
AcDbCircle
 10
503.7985261152091
 20
560.0773818014457
 30
0.0000000000000000
 40
4.250000000000000
  0
CIRCLE
  5
2B8
100
AcDbEntity
  8
MAIN0
  6
CONTINUOUS
 62
3
100
AcDbCircle
 10
503.7985261152091
 20
540.0773818014457
 30
0.0000000000000000
 40
5.000000000000000
  0
CIRCLE
  5
2B9
100
AcDbEntity
  8
MAIN0
  6
CONTINUOUS
 62
3
100
AcDbCircle
 10
503.7985261152091
 20
540.0773818014457
 30
0.0000000000000000
 40
4.250000000000000
  0
LEADER
  5
2BA
100
AcDbEntity
  8
MAIN0
  6
CONTINUOUS
 62
3
100
AcDbLeader
  3
MAIN001
 73
     0
 75
     1
 40
12.39999961853027
 41
143.5590042343139
 76
     3
 10
501.5175753112942
 20
564.5267933839047
 30
0.0000000000000000
 10
445.5824330172994
 20
673.6385153737963
 30
0.0000000000000000
 10
437.8774332404592
 20
673.6385153737963
 30
0.0000000000000000
340
2BB
213
0.0000000000000000
223
-2.000000000000000
233
0.0000000000000000
1001
ACAD
1000
DSTYLE
1002
{
1070
   147
1040
0.0
1070
    77
1070
     1
1070
   173
1070
     1
1070
     6
1000
_OPEN
1070
     7
1000
_OPEN
1002
}
  0
MTEXT
  5
2BB
102
{ACAD_REACTORS
330
2BA
102
}
100
AcDbEntity
  8
MAIN0
  6
CONTINUOUS
 62
3
100
AcDbMText
 10
294.3184290061453
 20
688.0385149923266
 30
0.0000000000000000
 40
12.39999961853027
 41
0.0000000000000000
 71
     1
 72
     1
  1
{\H0.93x;{2×2－M10 深さ20\P        DEPTH}}
 11
1.000000000000000
 21
0.0000000000000000
 31
0.0000000000000000
  7
KNJYOKO
  0
LINE
  5
2BC
100
AcDbEntity
  8
MAIN0
  6
CONTINUOUS
 62
3
100
AcDbLine
 10
483.2985261153980
 20
962.2065273573343
 30
0.0000000000000000
 11
483.2985261153980
 21
965.0932787032824
 31
0.0000000000000000
  0
LINE
  5
2BD
100
AcDbEntity
  8
MAIN0
  6
CONTINUOUS
 62
3
100
AcDbLine
 10
483.2985261153980
 20
965.0932787032823
 30
0.0000000000000000
 11
480.7985261153980
 21
966.5366543762564
 31
0.0000000000000000
  0
LINE
  5
2BE
100
AcDbEntity
  8
MAIN0
  6
CONTINUOUS
 62
3
100
AcDbLine
 10
480.7985261153980
 20
966.5366543762564
 30
0.0000000000000000
 11
478.2985261153980
 21
965.0932787032823
 31
0.0000000000000000
  0
LINE
  5
2BF
100
AcDbEntity
  8
MAIN0
  6
CONTINUOUS
 62
3
100
AcDbLine
 10
478.2985261153980
 20
965.0932787032824
 30
0.0000000000000000
 11
478.2985261153980
 21
962.2065273573343
 31
0.0000000000000000
  0
LINE
  5
2C0
100
AcDbEntity
  8
MAIN0
  6
CONTINUOUS
 62
3
100
AcDbLine
 10
478.2985261153980
 20
962.2065273573343
 30
0.0000000000000000
 11
480.7985261153980
 21
960.7631516843602
 31
0.0000000000000000
  0
LINE
  5
2C1
100
AcDbEntity
  8
MAIN0
  6
CONTINUOUS
 62
3
100
AcDbLine
 10
480.7985261153980
 20
960.7631516843602
 30
0.0000000000000000
 11
483.2985261153980
 21
962.2065273573343
 31
0.0000000000000000
  0
LINE
  5
2C2
100
AcDbEntity
  8
MAIN0
  6
CONTINUOUS
 62
3
100
AcDbLine
 10
483.2985261153981
 20
882.2065273573340
 30
0.0000000000000000
 11
483.2985261153981
 21
885.0932787032822
 31
0.0000000000000000
  0
LINE
  5
2C3
100
AcDbEntity
  8
MAIN0
  6
CONTINUOUS
 62
3
100
AcDbLine
 10
483.2985261153981
 20
885.0932787032822
 30
0.0000000000000000
 11
480.7985261153981
 21
886.5366543762563
 31
0.0000000000000000
  0
LINE
  5
2C4
100
AcDbEntity
  8
MAIN0
  6
CONTINUOUS
 62
3
100
AcDbLine
 10
480.7985261153980
 20
886.5366543762561
 30
0.0000000000000000
 11
478.2985261153980
 21
885.0932787032821
 31
0.0000000000000000
  0
LINE
  5
2C5
100
AcDbEntity
  8
MAIN0
  6
CONTINUOUS
 62
3
100
AcDbLine
 10
478.2985261153981
 20
885.0932787032822
 30
0.0000000000000000
 11
478.2985261153981
 21
882.2065273573340
 31
0.0000000000000000
  0
LINE
  5
2C6
100
AcDbEntity
  8
MAIN0
  6
CONTINUOUS
 62
3
100
AcDbLine
 10
478.2985261153981
 20
882.2065273573340
 30
0.0000000000000000
 11
480.7985261153981
 21
880.7631516843600
 31
0.0000000000000000
  0
LINE
  5
2C7
100
AcDbEntity
  8
MAIN0
  6
CONTINUOUS
 62
3
100
AcDbLine
 10
480.7985261153980
 20
880.7631516843600
 30
0.0000000000000000
 11
483.2985261153980
 21
882.2065273573340
 31
0.0000000000000000
  0
LINE
  5
2C8
100
AcDbEntity
  8
MAIN0
  6
CONTINUOUS
 62
3
100
AcDbLine
 10
538.2985261153981
 20
882.2065273573343
 30
0.0000000000000000
 11
538.2985261153981
 21
885.0932787032824
 31
0.0000000000000000
  0
LINE
  5
2C9
100
AcDbEntity
  8
MAIN0
  6
CONTINUOUS
 62
3
100
AcDbLine
 10
538.2985261153981
 20
885.0932787032824
 30
0.0000000000000000
 11
535.7985261153981
 21
886.5366543762565
 31
0.0000000000000000
  0
LINE
  5
2CA
100
AcDbEntity
  8
MAIN0
  6
CONTINUOUS
 62
3
100
AcDbLine
 10
535.7985261153980
 20
886.5366543762565
 30
0.0000000000000000
 11
533.2985261153980
 21
885.0932787032824
 31
0.0000000000000000
  0
LINE
  5
2CB
100
AcDbEntity
  8
MAIN0
  6
CONTINUOUS
 62
3
100
AcDbLine
 10
533.2985261153981
 20
885.0932787032824
 30
0.0000000000000000
 11
533.2985261153981
 21
882.2065273573343
 31
0.0000000000000000
  0
LINE
  5
2CC
100
AcDbEntity
  8
MAIN0
  6
CONTINUOUS
 62
3
100
AcDbLine
 10
533.2985261153981
 20
882.2065273573343
 30
0.0000000000000000
 11
535.7985261153981
 21
880.7631516843602
 31
0.0000000000000000
  0
LINE
  5
2CD
100
AcDbEntity
  8
MAIN0
  6
CONTINUOUS
 62
3
100
AcDbLine
 10
535.7985261153980
 20
880.7631516843602
 30
0.0000000000000000
 11
538.2985261153980
 21
882.2065273573343
 31
0.0000000000000000
  0
LINE
  5
2CE
100
AcDbEntity
  8
MAIN0
  6
CONTINUOUS
 62
3
100
AcDbLine
 10
663.2985261154006
 20
872.2065273573343
 30
0.0000000000000000
 11
663.2985261154006
 21
875.0932787032824
 31
0.0000000000000000
  0
LINE
  5
2CF
100
AcDbEntity
  8
MAIN0
  6
CONTINUOUS
 62
3
100
AcDbLine
 10
663.2985261154006
 20
875.0932787032823
 30
0.0000000000000000
 11
660.7985261154006
 21
876.5366543762565
 31
0.0000000000000000
  0
LINE
  5
2D0
100
AcDbEntity
  8
MAIN0
  6
CONTINUOUS
 62
3
100
AcDbLine
 10
660.7985261154005
 20
876.5366543762565
 30
0.0000000000000000
 11
658.2985261154005
 21
875.0932787032824
 31
0.0000000000000000
  0
LINE
  5
2D1
100
AcDbEntity
  8
MAIN0
  6
CONTINUOUS
 62
3
100
AcDbLine
 10
658.2985261154006
 20
875.0932787032824
 30
0.0000000000000000
 11
658.2985261154006
 21
872.2065273573343
 31
0.0000000000000000
  0
LINE
  5
2D2
100
AcDbEntity
  8
MAIN0
  6
CONTINUOUS
 62
3
100
AcDbLine
 10
658.2985261154006
 20
872.2065273573343
 30
0.0000000000000000
 11
660.7985261154006
 21
870.7631516843602
 31
0.0000000000000000
  0
LINE
  5
2D3
100
AcDbEntity
  8
MAIN0
  6
CONTINUOUS
 62
3
100
AcDbLine
 10
660.7985261154005
 20
870.7631516843602
 30
0.0000000000000000
 11
663.2985261154005
 21
872.2065273573343
 31
0.0000000000000000
  0
LINE
  5
2D4
100
AcDbEntity
  8
MAIN0
  6
CONTINUOUS
 62
3
100
AcDbLine
 10
713.2985261154006
 20
872.2065273573343
 30
0.0000000000000000
 11
713.2985261154006
 21
875.0932787032824
 31
0.0000000000000000
  0
LINE
  5
2D5
100
AcDbEntity
  8
MAIN0
  6
CONTINUOUS
 62
3
100
AcDbLine
 10
713.2985261154006
 20
875.0932787032824
 30
0.0000000000000000
 11
710.7985261154006
 21
876.5366543762565
 31
0.0000000000000000
  0
LINE
  5
2D6
100
AcDbEntity
  8
MAIN0
  6
CONTINUOUS
 62
3
100
AcDbLine
 10
710.7985261154006
 20
876.5366543762565
 30
0.0000000000000000
 11
708.2985261154006
 21
875.0932787032823
 31
0.0000000000000000
  0
LINE
  5
2D7
100
AcDbEntity
  8
MAIN0
  6
CONTINUOUS
 62
3
100
AcDbLine
 10
708.2985261154006
 20
875.0932787032824
 30
0.0000000000000000
 11
708.2985261154006
 21
872.2065273573343
 31
0.0000000000000000
  0
LINE
  5
2D8
100
AcDbEntity
  8
MAIN0
  6
CONTINUOUS
 62
3
100
AcDbLine
 10
708.2985261154006
 20
872.2065273573343
 30
0.0000000000000000
 11
710.7985261154006
 21
870.7631516843602
 31
0.0000000000000000
  0
LINE
  5
2D9
100
AcDbEntity
  8
MAIN0
  6
CONTINUOUS
 62
3
100
AcDbLine
 10
710.7985261154006
 20
870.7631516843601
 30
0.0000000000000000
 11
713.2985261154006
 21
872.2065273573343
 31
0.0000000000000000
  0
LINE
  5
2DA
100
AcDbEntity
  8
MAIN0
  6
CONTINUOUS
 62
3
100
AcDbLine
 10
713.2985261154006
 20
972.2065273573345
 30
0.0000000000000000
 11
713.2985261154006
 21
975.0932787032826
 31
0.0000000000000000
  0
LINE
  5
2DB
100
AcDbEntity
  8
MAIN0
  6
CONTINUOUS
 62
3
100
AcDbLine
 10
713.2985261154006
 20
975.0932787032826
 30
0.0000000000000000
 11
710.7985261154006
 21
976.5366543762567
 31
0.0000000000000000
  0
LINE
  5
2DC
100
AcDbEntity
  8
MAIN0
  6
CONTINUOUS
 62
3
100
AcDbLine
 10
710.7985261154005
 20
976.5366543762567
 30
0.0000000000000000
 11
708.2985261154005
 21
975.0932787032825
 31
0.0000000000000000
  0
LINE
  5
2DD
100
AcDbEntity
  8
MAIN0
  6
CONTINUOUS
 62
3
100
AcDbLine
 10
708.2985261154006
 20
975.0932787032826
 30
0.0000000000000000
 11
708.2985261154006
 21
972.2065273573345
 31
0.0000000000000000
  0
LINE
  5
2DE
100
AcDbEntity
  8
MAIN0
  6
CONTINUOUS
 62
3
100
AcDbLine
 10
708.2985261154006
 20
972.2065273573345
 30
0.0000000000000000
 11
710.7985261154006
 21
970.7631516843604
 31
0.0000000000000000
  0
LINE
  5
2DF
100
AcDbEntity
  8
MAIN0
  6
CONTINUOUS
 62
3
100
AcDbLine
 10
710.7985261154005
 20
970.7631516843603
 30
0.0000000000000000
 11
713.2985261154005
 21
972.2065273573345
 31
0.0000000000000000
  0
LINE
  5
2E0
100
AcDbEntity
  8
MAIN0
  6
CONTINUOUS
 62
3
100
AcDbLine
 10
663.2985261154006
 20
972.2065273573343
 30
0.0000000000000000
 11
663.2985261154006
 21
975.0932787032824
 31
0.0000000000000000
  0
LINE
  5
2E1
100
AcDbEntity
  8
MAIN0
  6
CONTINUOUS
 62
3
100
AcDbLine
 10
663.2985261154005
 20
975.0932787032823
 30
0.0000000000000000
 11
660.7985261154005
 21
976.5366543762564
 31
0.0000000000000000
  0
LINE
  5
2E2
100
AcDbEntity
  8
MAIN0
  6
CONTINUOUS
 62
3
100
AcDbLine
 10
660.7985261154005
 20
976.5366543762564
 30
0.0000000000000000
 11
658.2985261154005
 21
975.0932787032823
 31
0.0000000000000000
  0
LINE
  5
2E3
100
AcDbEntity
  8
MAIN0
  6
CONTINUOUS
 62
3
100
AcDbLine
 10
658.2985261154006
 20
975.0932787032824
 30
0.0000000000000000
 11
658.2985261154006
 21
972.2065273573343
 31
0.0000000000000000
  0
LINE
  5
2E4
100
AcDbEntity
  8
MAIN0
  6
CONTINUOUS
 62
3
100
AcDbLine
 10
658.2985261154005
 20
972.2065273573343
 30
0.0000000000000000
 11
660.7985261154005
 21
970.7631516843601
 31
0.0000000000000000
  0
LINE
  5
2E5
100
AcDbEntity
  8
MAIN0
  6
CONTINUOUS
 62
3
100
AcDbLine
 10
660.7985261154005
 20
970.7631516843602
 30
0.0000000000000000
 11
663.2985261154005
 21
972.2065273573343
 31
0.0000000000000000
  0
LINE
  5
2E6
100
AcDbEntity
  8
MAIN0
  6
PHANTOM
 62
3
100
AcDbLine
 10
1393.783587248775
 20
410.0773818019114
 30
0.0000000000000000
 11
1310.133458017434
 21
410.0773818019115
 31
0.0000000000000000
  0
LEADER
  5
2E7
100
AcDbEntity
  8
MAIN0
  6
CONTINUOUS
 62
3
100
AcDbLeader
  3
MAIN001
 73
     0
 74
     0
 75
     1
 40
12.39999961853027
 41
79.36100227928159
 76
     3
 10
912.6300602950259
 20
463.2298523843559
 30
0.0000000000000000
 10
940.2897373387696
 20
574.0752651105300
 30
0.0000000000000000
 10
947.9927371156098
 20
574.0752651105300
 30
0.0000000000000000
340
2E8
213
-0.001000000000090040
223
-2.000000000000000
233
0.0000000000000000
1001
ACAD
1000
DSTYLE
1002
{
1070
   147
1040
0.0
1070
    77
1070
     1
1070
   173
1070
     1
1070
     6
1000
_OPEN
1070
     7
1000
_OPEN
1002
}
  0
MTEXT
  5
2E8
102
{ACAD_REACTORS
330
2E7
102
}
100
AcDbEntity
  8
MAIN0
  6
CONTINUOUS
 62
3
100
AcDbMText
 10
947.9937371156099
 20
588.4752647290603
 30
0.0000000000000000
 40
12.39999961853027
 41
0.0000000000000000
 71
     1
 72
     1
  1
{\H0.93x;{2×2-M10}}
 11
1.000000000000000
 21
0.0000000000000000
 31
0.0000000000000000
  7
KNJYOKO
  0
MTEXT
  5
2E9
100
AcDbEntity
  8
MAIN0
  6
CONTINUOUS
 62
3
100
AcDbMText
 10
1059.525136076185
 20
258.8871061853296
 30
0.0000000000000000
 40
12.39999961853027
 41
0.0000000000000000
 71
     1
 72
     1
  1
{\H0.94x;{(押さえ金具４セット付属)}}
 11
1.000000000000000
 21
0.0000000000000000
 31
0.0000000000000000
  7
KNJYOKO
  0
MTEXT
  5
2EA
100
AcDbEntity
  8
MAIN0
  6
CONTINUOUS
 62
3
100
AcDbMText
 10
1060.625089911151
 20
242.5104426299805
 30
0.0000000000000000
 40
12.00000000000000
 41
0.0000000000000000
 71
     1
 72
     1
  1
{\H0.63x;{(CLAMPING PARTS  ACCESSARY 4 PAIR)}}
 11
1.000000000000000
 21
0.0000000000000000
 31
0.0000000000000000
  7
STANDARD
  0
LEADER
  5
2EB
100
AcDbEntity
  8
MAIN0
  6
CONTINUOUS
 62
3
100
AcDbLeader
  3
MAIN001
 73
     0
 75
     1
 40
12.00000000000000
 41
104.3989972343445
 76
     3
 10
1363.872920211619
 20
452.0475158105794
 30
0.0000000000000000
 10
1268.636891720852
 20
338.1051624373909
 30
0.0000000000000000
 10
1261.915891720852
 20
338.1051624373909
 30
0.0000000000000000
340
2EC
213
0.0000000000000000
223
-2.000000000000000
233
0.0000000000000000
1001
ACAD
1000
DSTYLE
1002
{
1070
   147
1040
0.0
1070
    77
1070
     1
1070
   173
1070
     1
1070
     6
1000
_DOT
1070
     7
1000
_DOT
1002
}
  0
MTEXT
  5
2EC
102
{ACAD_REACTORS
330
2EB
102
}
100
AcDbEntity
  8
MAIN0
  6
CONTINUOUS
 62
3
100
AcDbMText
 10
1157.516894486508
 20
352.1051624373909
 30
0.0000000000000000
 40
12.00000000000000
 41
0.0000000000000000
 71
     1
 72
     1
  1
{\H0.61x;{六角穴付ボルト\PM16×65\PHEX,SOCKET HEAD\PCAP SCREW}}
 11
1.000000000000000
 21
0.0000000000000000
 31
0.0000000000000000
  7
KNJYOKO
  0
LEADER
  5
2ED
100
AcDbEntity
  8
MAIN0
  6
CONTINUOUS
 62
3
100
AcDbLeader
  3
MAIN001
 73
     0
 75
     1
 40
12.39999961853027
 41
110.0790032615662
 76
     3
 10
500.2102348659676
 20
927.1318803290765
 30
0.0000000000000000
 10
401.5639592618156
 20
1084.760994994178
 30
0.0000000000000000
 10
393.8589594849754
 20
1084.760994994178
 30
0.0000000000000000
340
2EE
213
0.0000000000000000
223
-2.000000000000000
233
0.0000000000000000
1001
ACAD
1000
DSTYLE
1002
{
1070
   147
1040
0.0
1070
    77
1070
     1
1070
   173
1070
     1
1070
     6
1000
_OPEN
1070
     7
1000
_OPEN
1002
}
  0
MTEXT
  5
2EE
102
{ACAD_REACTORS
330
2ED
102
}
100
AcDbEntity
  8
MAIN0
  6
CONTINUOUS
 62
3
100
AcDbMText
 10
283.7799562234092
 20
1099.160994612709
 30
0.0000000000000000
 40
12.39999961853027
 41
0.0000000000000000
 71
     1
 72
     1
  1
{\H0.93x;{(吊りボルト用)\P(EYE BOLT)}}
 11
1.000000000000000
 21
0.0000000000000000
 31
0.0000000000000000
  7
KNJYOKO
  0
LINE
  5
2EF
100
AcDbEntity
  8
MAIN0
  6
CONTINUOUS
 62
3
100
AcDbLine
 10
1188.805846142825
 20
706.0773560312490
 30
0.0000000000000000
 11
1188.805846142661
 21
494.5044034228694
 31
0.0000000000000000
  0
LINE
  5
2F0
100
AcDbEntity
  8
MAIN0
  6
CONTINUOUS
 62
3
100
AcDbLine
 10
1205.805846142825
 20
709.0773560312467
 30
0.0000000000000000
 11
1191.805846142825
 21
709.0773560312467
 31
0.0000000000000000
  0
LINE
  5
2F1
100
AcDbEntity
  8
MAIN0
  6
CONTINUOUS
 62
3
100
AcDbLine
 10
1208.805846142825
 20
706.0773560312445
 30
0.0000000000000000
 11
1208.805846142816
 21
694.0773560312445
 31
0.0000000000000000
  0
LINE
  5
2F2
100
AcDbEntity
  8
MAIN0
  6
CONTINUOUS
 62
3
100
AcDbLine
 10
1146.805846142646
 20
475.0773560312467
 30
0.0000000000000000
 11
1146.805846142641
 21
468.6773560312467
 31
0.0000000000000000
  0
LINE
  5
2F3
100
AcDbEntity
  8
MAIN0
  6
CONTINUOUS
 62
3
100
AcDbLine
 10
1161.805846142640
 20
468.0773560312467
 30
0.0000000000000000
 11
1147.405846142640
 21
468.0773560312467
 31
0.0000000000000000
  0
LINE
  5
2F4
100
AcDbEntity
  8
MAIN0
  6
CONTINUOUS
 62
3
100
AcDbLine
 10
1161.805846142646
 20
475.0773560312467
 30
0.0000000000000000
 11
1161.805846142639
 21
465.4773560312468
 31
0.0000000000000000
  0
LINE
  5
2F5
100
AcDbEntity
  8
MAIN0
  6
CONTINUOUS
 62
3
100
AcDbLine
 10
1146.805846142646
 20
475.0773560312467
 30
0.0000000000000000
 11
1146.805846142641
 21
481.4773560312466
 31
0.0000000000000000
  0
LINE
  5
2F6
100
AcDbEntity
  8
MAIN0
  6
CONTINUOUS
 62
3
100
AcDbLine
 10
1161.805846142640
 20
482.0773560312467
 30
0.0000000000000000
 11
1147.405846142640
 21
482.0773560312467
 31
0.0000000000000000
  0
LINE
  5
2F7
100
AcDbEntity
  8
MAIN0
  6
CONTINUOUS
 62
3
100
AcDbLine
 10
1161.805846142646
 20
475.0773560312467
 30
0.0000000000000000
 11
1161.805846142639
 21
484.6773560312466
 31
0.0000000000000000
  0
LINE
  5
2F8
100
AcDbEntity
  8
MAIN0
  6
CONTINUOUS
 62
3
100
AcDbLine
 10
1205.805846142816
 20
691.0773560312467
 30
0.0000000000000000
 11
1201.805846142811
 21
691.0773560312467
 31
0.0000000000000000
  0
ARC
  5
2F9
100
AcDbEntity
  8
MAIN0
  6
CONTINUOUS
 62
3
100
AcDbCircle
 10
1191.805846142825
 20
706.0773560312468
 30
0.0000000000000000
 40
3.000000000000000
100
AcDbArc
 50
90.00000000000007
 51
180.0000000000001
  0
LINE
  5
2FA
100
AcDbEntity
  8
MAIN0
  6
CENTER
 62
3
100
AcDbLine
 10
1206.240136826931
 20
475.0773560312468
 30
0.0000000000000000
 11
1133.185210053135
 21
475.0773560312467
 31
0.0000000000000000
  0
LINE
  5
2FB
100
AcDbEntity
  8
MAIN0
  6
CONTINUOUS
 62
3
100
AcDbLine
 10
1161.805846142646
 20
475.0773560312467
 30
0.0000000000000000
 11
1146.805846142646
 21
475.0773560312467
 31
0.0000000000000000
  0
LINE
  5
2FC
100
AcDbEntity
  8
MAIN0
  6
CONTINUOUS
 62
3
100
AcDbLine
 10
1146.805846142641
 20
468.6773560312465
 30
0.0000000000000000
 11
1147.405846142641
 21
468.0773560312464
 31
0.0000000000000000
  0
LINE
  5
2FD
100
AcDbEntity
  8
MAIN0
  6
CONTINUOUS
 62
3
100
AcDbLine
 10
1147.405846142641
 20
482.0773560312465
 30
0.0000000000000000
 11
1146.805846142641
 21
481.4773560312465
 31
0.0000000000000000
  0
ELLIPSE
  5
2FE
100
AcDbEntity
  8
MAIN0
  6
CONTINUOUS
 62
3
100
AcDbEllipse
 10
1154.805846142643
 20
478.5773560312524
 30
0.0000000000000000
 11
-2.050000000000000
 21
0.0000000000000000
 31
0.0000000000000000
210
0.0000000000000000
220
0.0000000000000000
230
1.000000000000000
 40
0.8536585365853660
 41
0.0000000000000000
 42
6.283185307179586
  0
LINE
  5
2FF
100
AcDbEntity
  8
MAIN0
  6
CONTINUOUS
 62
3
100
AcDbLine
 10
1170.805846142638
 20
465.0773560312467
 30
0.0000000000000000
 11
1162.205846142638
 21
465.0773560312467
 31
0.0000000000000000
  0
LINE
  5
300
100
AcDbEntity
  8
MAIN0
  6
CONTINUOUS
 62
3
100
AcDbLine
 10
1170.805846142654
 20
485.0773560312467
 30
0.0000000000000000
 11
1162.205846142638
 21
485.0773560312467
 31
0.0000000000000000
  0
LINE
  5
301
100
AcDbEntity
  8
MAIN0
  6
CONTINUOUS
 62
3
100
AcDbLine
 10
1170.805846142654
 20
485.0773560312467
 30
0.0000000000000000
 11
1170.805846142639
 21
465.0773560312467
 31
0.0000000000000000
  0
LINE
  5
302
100
AcDbEntity
  8
MAIN0
  6
CONTINUOUS
 62
3
100
AcDbLine
 10
1198.805846142811
 20
688.0773560312491
 30
0.0000000000000000
 11
1198.805846142637
 21
463.0773560312445
 31
0.0000000000000000
  0
LINE
  5
303
100
AcDbEntity
  8
MAIN0
  6
CONTINUOUS
 62
3
100
AcDbLine
 10
1195.805846142637
 20
460.0773560312467
 30
0.0000000000000000
 11
1189.466100180474
 21
460.0773560312467
 31
0.0000000000000000
  0
LINE
  5
304
100
AcDbEntity
  8
MAIN0
  6
CONTINUOUS
 62
3
100
AcDbLine
 10
1170.805846142639
 20
465.0773560312440
 30
0.0000000000000000
 11
1189.466100180473
 21
460.0773560312468
 31
0.0000000000000000
  0
LINE
  5
305
100
AcDbEntity
  8
MAIN0
  6
CONTINUOUS
 62
3
100
AcDbLine
 10
1170.805846142685
 20
485.0773560312468
 30
0.0000000000000000
 11
1184.358760413276
 21
488.7088484651397
 31
0.0000000000000000
  0
ARC
  5
306
100
AcDbEntity
  8
MAIN0
  6
CONTINUOUS
 62
3
100
AcDbCircle
 10
1195.805846142637
 20
463.0773560312467
 30
0.0000000000000000
 40
3.000000000000000
100
AcDbArc
 50
270.0000000000001
 51
360.0000000000001
  0
ARC
  5
307
100
AcDbEntity
  8
MAIN0
  6
CONTINUOUS
 62
3
100
AcDbCircle
 10
1205.805846142825
 20
706.0773560312468
 30
0.0000000000000000
 40
3.000000000000000
100
AcDbArc
 50
7.633331235512440e-014
 51
90.00000000000007
  0
ARC
  5
308
100
AcDbEntity
  8
MAIN0
  6
CONTINUOUS
 62
3
100
AcDbCircle
 10
1205.805846142816
 20
694.0773560312468
 30
0.0000000000000000
 40
3.000000000000000
100
AcDbArc
 50
270.0000000000001
 51
360.0000000000001
  0
LINE
  5
309
100
AcDbEntity
  8
MAIN0
  6
CONTINUOUS
 62
3
100
AcDbLine
 10
1161.805846142639
 20
465.4773560312466
 30
0.0000000000000000
 11
1162.205846142638
 21
465.0773560312466
 31
0.0000000000000000
  0
LINE
  5
30A
100
AcDbEntity
  8
MAIN0
  6
CONTINUOUS
 62
3
100
AcDbLine
 10
1161.805846142639
 20
484.6773560312466
 30
0.0000000000000000
 11
1162.205846142638
 21
485.0773560312467
 31
0.0000000000000000
  0
ARC
  5
30B
100
AcDbEntity
  8
MAIN0
  6
CONTINUOUS
 62
3
100
AcDbCircle
 10
1182.805846142661
 20
494.5044034228740
 30
0.0000000000000000
 40
6.000000000000000
100
AcDbArc
 50
284.9999999999988
 51
360.0000000000001
  0
ARC
  5
30C
100
AcDbEntity
  8
MAIN0
  6
CONTINUOUS
 62
3
100
AcDbCircle
 10
1201.805846142811
 20
688.0773560312468
 30
0.0000000000000000
 40
3.000000000000000
100
AcDbArc
 50
90.00000000000007
 51
180.0000000000001
  0
ARC
  5
30D
100
AcDbEntity
  8
MAIN1
  6
CONTINUOUS
 62
7
100
AcDbCircle
 10
1289.118733308843
 20
707.0773560312468
 30
0.0000000000000000
 40
4.000000000000000
100
AcDbArc
 50
11.21227141764971
 51
90.00000000000000
  0
ARC
  5
30E
100
AcDbEntity
  8
MAIN1
  6
CONTINUOUS
 62
7
100
AcDbCircle
 10
1289.118733308843
 20
693.0773560312468
 30
0.0000000000000000
 40
4.000000000000000
100
AcDbArc
 50
270.0000000000000
 51
348.7877285823506
  0
LINE
  5
30F
100
AcDbEntity
  8
MAIN1
  6
CONTINUOUS
 62
7
100
AcDbLine
 10
1242.805846142823
 20
711.0773560312466
 30
0.0000000000000000
 11
1220.722585053399
 21
710.1572201525207
 31
0.0000000000000000
  0
LINE
  5
310
100
AcDbEntity
  8
MAIN1
  6
CONTINUOUS
 62
7
100
AcDbLine
 10
1220.722585053399
 20
689.9974919099727
 30
0.0000000000000000
 11
1242.805846142823
 21
689.0773560312466
 31
0.0000000000000000
  0
ARC
  5
311
100
AcDbEntity
  8
MAIN1
  6
CONTINUOUS
 62
7
100
AcDbCircle
 10
1253.805846142823
 20
700.0773560312468
 30
0.0000000000000000
 40
40.00000000000002
100
AcDbArc
 50
348.7877285823503
 51
371.2122714176497
  0
LINE
  5
312
100
AcDbEntity
  8
MAIN1
  6
CONTINUOUS
 62
7
100
AcDbLine
 10
1218.305846142824
 20
708.5773560312468
 30
0.0000000000000000
 11
1218.305846142824
 21
691.5773560312468
 31
0.0000000000000000
  0
LINE
  5
313
100
AcDbEntity
  8
MAIN1
  6
CONTINUOUS
 62
7
100
AcDbLine
 10
1209.305846142823
 20
708.5773560312468
 30
0.0000000000000000
 11
1209.305846142823
 21
705.5545816062984
 31
0.0000000000000000
  0
LINE
  5
314
100
AcDbEntity
  8
MAIN1
  6
CONTINUOUS
 62
7
100
AcDbLine
 10
1208.805846142823
 20
705.5545816062984
 30
0.0000000000000000
 11
1216.305846142824
 21
705.5545816062984
 31
0.0000000000000000
  0
LINE
  5
315
100
AcDbEntity
  8
MAIN1
  6
CONTINUOUS
 62
7
100
AcDbLine
 10
1208.805846142823
 20
694.6001304561951
 30
0.0000000000000000
 11
1216.305846142824
 21
694.6001304561951
 31
0.0000000000000000
  0
LINE
  5
316
100
AcDbEntity
  8
MAIN1
  6
CONTINUOUS
 62
7
100
AcDbLine
 10
1289.118733308843
 20
711.0773560312468
 30
0.0000000000000000
 11
1242.805846142823
 21
711.0773560312468
 31
0.0000000000000000
  0
LINE
  5
317
100
AcDbEntity
  8
MAIN1
  6
CONTINUOUS
 62
7
100
AcDbLine
 10
1289.118733308843
 20
689.0773560312468
 30
0.0000000000000000
 11
1242.805846142823
 21
689.0773560312468
 31
0.0000000000000000
  0
LINE
  5
318
100
AcDbEntity
  8
MAIN1
  6
CONTINUOUS
 62
7
100
AcDbLine
 10
1209.305846142823
 20
708.5773560312466
 30
0.0000000000000000
 11
1208.805846142823
 21
708.0773560312468
 31
0.0000000000000000
  0
LINE
  5
319
100
AcDbEntity
  8
MAIN1
  6
CONTINUOUS
 62
7
100
AcDbLine
 10
1218.305846142823
 20
708.5773560312468
 30
0.0000000000000000
 11
1218.805846142823
 21
708.0773560312467
 31
0.0000000000000000
  0
LINE
  5
31A
100
AcDbEntity
  8
MAIN1
  6
CONTINUOUS
 62
7
100
AcDbLine
 10
1218.305846142823
 20
691.5773560312467
 30
0.0000000000000000
 11
1218.805846142823
 21
692.0773560312467
 31
0.0000000000000000
  0
LINE
  5
31B
100
AcDbEntity
  8
MAIN1
  6
CONTINUOUS
 62
7
100
AcDbLine
 10
1208.805846142823
 20
692.0773560312466
 30
0.0000000000000000
 11
1209.305846142823
 21
691.5773560312467
 31
0.0000000000000000
  0
LINE
  5
31C
100
AcDbEntity
  8
MAIN1
  6
CONTINUOUS
 62
7
100
AcDbLine
 10
1209.305846142823
 20
708.5773560312468
 30
0.0000000000000000
 11
1218.305846142824
 21
708.5773560312468
 31
0.0000000000000000
  0
LINE
  5
31D
100
AcDbEntity
  8
MAIN1
  6
CONTINUOUS
 62
7
100
AcDbLine
 10
1209.305846142823
 20
691.5773560312468
 30
0.0000000000000000
 11
1218.305846142824
 21
691.5773560312468
 31
0.0000000000000000
  0
LINE
  5
31E
100
AcDbEntity
  8
MAIN1
  6
CONTINUOUS
 62
7
100
AcDbLine
 10
1208.805846142823
 20
692.0773560312468
 30
0.0000000000000000
 11
1208.805846142823
 21
708.0773560312468
 31
0.0000000000000000
  0
LINE
  5
31F
100
AcDbEntity
  8
MAIN1
  6
CONTINUOUS
 62
7
100
AcDbLine
 10
1209.305846142823
 20
691.5773560312468
 30
0.0000000000000000
 11
1209.305846142823
 21
694.6001304561951
 31
0.0000000000000000
  0
LINE
  5
320
100
AcDbEntity
  8
MAIN1
  6
CONTINUOUS
 62
7
100
AcDbLine
 10
1218.805846142824
 20
691.9957580561576
 30
0.0000000000000000
 11
1218.805846142824
 21
708.1589540063360
 31
0.0000000000000000
  0
ARC
  5
321
100
AcDbEntity
  8
MAIN1
  6
CONTINUOUS
 62
7
100
AcDbCircle
 10
1220.805846142823
 20
708.1589540063360
 30
0.0000000000000000
 40
2.000000000000000
100
AcDbArc
 50
92.38594403038889
 51
179.9999999999999
  0
ARC
  5
322
100
AcDbEntity
  8
MAIN1
  6
CONTINUOUS
 62
7
100
AcDbCircle
 10
1220.805846142823
 20
691.9957580561576
 30
0.0000000000000000
 40
2.000000000000000
100
AcDbArc
 50
180.0000000000000
 51
267.6140559696109
  0
LINE
  5
323
100
AcDbEntity
  8
MAIN1
  6
CONTINUOUS
 62
7
100
AcDbLine
 10
1216.305846142824
 20
694.6001304561951
 30
0.0000000000000000
 11
1216.305846142824
 21
705.5545816062984
 31
0.0000000000000000
  0
LINE
  5
324
100
AcDbEntity
  8
MAIN3
  6
CONTINUOUS
 62
3
100
AcDbLine
 10
1216.305846142823
 20
694.6001304561952
 30
0.0000000000000000
 11
1208.805846142824
 21
705.5545816062984
 31
0.0000000000000000
  0
LINE
  5
325
100
AcDbEntity
  8
MAIN3
  6
CONTINUOUS
 62
3
100
AcDbLine
 10
1216.305846142823
 20
705.5545816062986
 30
0.0000000000000000
 11
1208.805846142823
 21
694.6001304561955
 31
0.0000000000000000
  0
LINE
  5
326
100
AcDbEntity
  8
MAIN1
  6
CONTINUOUS
 62
7
100
AcDbLine
 10
1242.805846142823
 20
711.0773560312468
 30
0.0000000000000000
 11
1242.805846142823
 21
689.0773560312468
 31
0.0000000000000000
  0
DIMENSION
  5
32F
100
AcDbEntity
  8
MAIN0
  6
CONTINUOUS
 62
3
100
AcDbDimension
  2
*D35
 10
550.7985261154016
 20
363.0210315290951
 30
0.0000000000000000
 11
591.7985261153272
 21
363.5210315290951
 31
0.0000000000000000
 70
32
  3
MAIN001
100
AcDbAlignedDimension
 13
632.7985261152526
 23
397.0773818014454
 33
0.0000000000000000
 14
550.7985261154016
 24
510.0773818014455
 34
0.0000000000000000
100
AcDbRotatedDimension
1001
ACAD
1000
DSTYLE
1002
{
1070
   173
1070
     1
1070
     6
1000
_OPEN
1070
     7
1000
_OPEN
1070
    41
1040
8.000000
1002
}
  0
DIMENSION
  5
338
100
AcDbEntity
  8
MAIN0
  6
CONTINUOUS
 62
3
100
AcDbDimension
  2
*D36
 10
632.7985261152526
 20
363.0210315290951
 30
0.0000000000000000
 11
814.2985261153274
 21
363.5210315290951
 31
0.0000000000000000
 70
32
  3
MAIN001
100
AcDbAlignedDimension
 13
995.7985261154021
 23
410.0773818014453
 33
0.0000000000000000
 14
632.7985261152526
 24
397.0773818014454
 34
0.0000000000000000
100
AcDbRotatedDimension
1001
ACAD
1000
DSTYLE
1002
{
1070
   173
1070
     1
1070
     6
1000
_OPEN
1070
     7
1000
_OPEN
1070
    41
1040
8.000000
1002
}
  0
DIMENSION
  5
340
100
AcDbEntity
  8
MAIN0
  6
CONTINUOUS
 62
3
100
AcDbDimension
  2
*D37
 10
854.4048981944823
 20
410.0773818014457
 30
0.0000000000000000
 11
852.4048981944823
 21
428.0719595606900
 31
0.0000000000000000
 70
160
  3
MAIN001
100
AcDbAlignedDimension
 13
901.7985261154020
 23
458.5773817988642
 33
0.0000000000000000
 14
995.7985261154018
 24
410.0773818014457
 34
0.0000000000000000
 50
90.00000000000000
100
AcDbRotatedDimension
1001
ACAD
1000
DSTYLE
1002
{
1070
   173
1070
     1
1070
     6
1000
_OPEN
1070
     7
1000
_OPEN
1070
    41
1040
8.000000
1002
}
  0
DIMENSION
  5
349
100
AcDbEntity
  8
MAIN0
  6
CONTINUOUS
 62
3
100
AcDbDimension
  2
*D38
 10
854.4048981944823
 20
458.5773817988642
 30
0.0000000000000000
 11
853.9048981944823
 21
484.3273818001549
 31
0.0000000000000000
 70
32
  3
MAIN001
100
AcDbAlignedDimension
 13
731.7985261154015
 23
510.0773818014455
 33
0.0000000000000000
 14
901.7985261154020
 24
458.5773817988642
 34
0.0000000000000000
 50
90.00000000000000
100
AcDbRotatedDimension
1001
ACAD
1000
DSTYLE
1002
{
1070
   173
1070
     1
1070
     6
1000
_OPEN
1070
     7
1000
_OPEN
1070
    41
1040
8.000000
1002
}
  0
LINE
  5
34A
100
AcDbEntity
  8
MAIN0
  6
CONTINUOUS
 62
3
100
AcDbLine
 10
731.7985261154016
 20
479.7773818014455
 30
0.0000000000000000
 11
834.0048985759520
 21
479.7773818014455
 31
0.0000000000000000
  0
LINE
  5
34B
100
AcDbEntity
  8
MAIN0
  6
CONTINUOUS
 62
3
100
AcDbLine
 10
858.4048981944823
 20
479.7773818014455
 30
0.0000000000000000
 11
873.7985261154008
 21
479.7773818014455
 31
0.0000000000000000
  0
DIMENSION
  5
356
100
AcDbEntity
  8
MAIN0
  6
CONTINUOUS
 62
3
100
AcDbDimension
  2
*D39
 10
1146.805846142646
 20
740.2298698421686
 30
0.0000000000000000
 11
1154.305846142646
 21
740.7298698421686
 31
0.0000000000000000
 70
32
  3
MAIN001
100
AcDbAlignedDimension
 13
1161.805846142639
 23
484.6773560312466
 33
0.0000000000000000
 14
1146.805846142646
 24
475.0773560312467
 34
0.0000000000000000
100
AcDbRotatedDimension
1001
ACAD
1000
DSTYLE
1002
{
1070
   173
1070
     1
1070
     6
1000
_OPEN
1070
     7
1000
_OPEN
1070
    41
1040
8.000000
1070
   287
1070
     0
1002
}
  0
DIMENSION
  5
35F
100
AcDbEntity
  8
MAIN0
  6
CONTINUOUS
 62
3
100
AcDbDimension
  2
*D40
 10
1161.805846142646
 20
740.2298698421686
 30
0.0000000000000000
 11
1180.305846142729
 21
740.7298698421686
 31
0.0000000000000000
 70
32
  3
MAIN001
100
AcDbAlignedDimension
 13
1198.805846142811
 23
688.0773560312491
 33
0.0000000000000000
 14
1161.805846142639
 24
484.6773560312466
 34
0.0000000000000000
100
AcDbRotatedDimension
1001
ACAD
1000
DSTYLE
1002
{
1070
   173
1070
     1
1070
     6
1000
_OPEN
1070
     7
1000
_OPEN
1070
    41
1040
8.000000
1002
}
  0
DIMENSION
  5
368
100
AcDbEntity
  8
MAIN0
  6
CONTINUOUS
 62
3
100
AcDbDimension
  2
*D41
 10
1198.805846142811
 20
740.2298698421686
 30
0.0000000000000000
 11
1246.305846142817
 21
740.7298698421686
 31
0.0000000000000000
 70
32
  3
MAIN001
100
AcDbAlignedDimension
 13
1293.805846142823
 23
700.0773560312468
 33
0.0000000000000000
 14
1198.805846142811
 24
688.0773560312491
 34
0.0000000000000000
100
AcDbRotatedDimension
1001
ACAD
1000
DSTYLE
1002
{
1070
   173
1070
     1
1070
     6
1000
_OPEN
1070
     7
1000
_OPEN
1070
    41
1040
8.000000
1002
}
  0
DIMENSION
  5
371
100
AcDbEntity
  8
MAIN0
  6
CONTINUOUS
 62
3
100
AcDbDimension
  2
*D42
 10
1146.805846142646
 20
771.0453127091353
 30
0.0000000000000000
 11
1220.305846142735
 21
771.5453127091353
 31
0.0000000000000000
 70
32
  3
MAIN001
100
AcDbAlignedDimension
 13
1293.805846142823
 23
700.0773560312467
 33
0.0000000000000000
 14
1146.805846142646
 24
475.0773560312467
 34
0.0000000000000000
100
AcDbRotatedDimension
1001
ACAD
1000
DSTYLE
1002
{
1070
   173
1070
     1
1070
     6
1000
_OPEN
1070
     7
1000
_OPEN
1070
    41
1040
8.000000
1002
}
  0
DIMENSION
  5
37A
100
AcDbEntity
  8
MAIN0
  6
CONTINUOUS
 62
3
100
AcDbDimension
  2
*D43
 10
1324.783587248775
 20
333.6816682482306
 30
0.0000000000000000
 11
1360.283587248775
 21
334.1816682482306
 31
0.0000000000000000
 70
32
  3
MAIN001
100
AcDbAlignedDimension
 13
1395.783587248775
 23
410.0773818019114
 33
0.0000000000000000
 14
1324.783587248775
 24
440.0773818019112
 34
0.0000000000000000
100
AcDbRotatedDimension
1001
ACAD
1000
DSTYLE
1002
{
1070
   173
1070
     1
1070
     6
1000
_OPEN
1070
     7
1000
_OPEN
1070
    41
1040
8.000000
1002
}
  0
DIMENSION
  5
383
100
AcDbEntity
  8
MAIN0
  6
CONTINUOUS
 62
3
100
AcDbDimension
  2
*D44
 10
1395.783587248775
 20
333.6816682482306
 30
0.0000000000000000
 11
1476.283587248775
 21
334.1816682482306
 31
0.0000000000000000
 70
32
  3
MAIN001
100
AcDbAlignedDimension
 13
1556.783587248775
 23
410.0773818019114
 33
0.0000000000000000
 14
1395.783587248775
 24
410.0773818019114
 34
0.0000000000000000
100
AcDbRotatedDimension
1001
ACAD
1000
DSTYLE
1002
{
1070
   173
1070
     1
1070
     6
1000
_OPEN
1070
     7
1000
_OPEN
1070
    41
1040
8.000000
1002
}
  0
INSERT
  5
38B
100
AcDbEntity
  8
MAIN0
  6
CONTINUOUS
 62
3
100
AcDbBlockReference
  2
D45
 10
1476.283587248662
 20
395.0940213763402
 30
0.0000000000000000
 50
0.0000000000000000
  0
DIMENSION
  5
394
100
AcDbEntity
  8
MAIN0
  6
CONTINUOUS
 62
3
100
AcDbDimension
  2
*D46
 10
503.7985261153946
 20
1047.592116307153
 30
0.0000000000000000
 11
527.2985261153949
 21
1048.092116307153
 31
0.0000000000000000
 70
32
  3
MAIN001
100
AcDbAlignedDimension
 13
550.7985261153951
 23
1003.149903029518
 33
0.0000000000000000
 14
503.7985261153946
 24
934.6499030302870
 34
0.0000000000000000
100
AcDbRotatedDimension
1001
ACAD
1000
DSTYLE
1002
{
1070
   173
1070
     1
1070
     6
1000
_OPEN
1070
     7
1000
_OPEN
1070
    41
1040
8.000000
1002
}
  0
DIMENSION
  5
39D
100
AcDbEntity
  8
MAIN0
  6
CONTINUOUS
 62
3
100
AcDbDimension
  2
*D47
 10
1123.090729015881
 20
475.0773818014454
 30
0.0000000000000000
 11
1122.590729015881
 21
442.5773818014455
 31
0.0000000000000000
 70
32
  3
MAIN001
100
AcDbAlignedDimension
 13
995.7985261154018
 23
410.0773818014457
 33
0.0000000000000000
 14
1100.205032722378
 24
475.0773818014454
 34
0.0000000000000000
 50
90.00000000000000
100
AcDbRotatedDimension
1001
ACAD
1000
DSTYLE
1002
{
1070
   173
1070
     1
1070
     6
1000
_OPEN
1070
     7
1000
_OPEN
1070
    41
1040
8.000000
1002
}
  0
LINE
  5
39E
100
AcDbEntity
  8
MAIN0
  6
CENTER
 62
3
100
AcDbLine
 10
1245.001784078321
 20
466.0276433354345
 30
0.0000000000000000
 11
1245.001784078292
 21
373.0665649547540
 31
0.0000000000000000
  0
LINE
  5
39F
100
AcDbEntity
  8
MAIN0
  6
CONTINUOUS
 62
3
100
AcDbLine
 10
1222.501784078313
 20
440.0773818019107
 30
0.0000000000000000
 11
1224.173915225845
 21
410.0773818020295
 31
0.0000000000000000
  0
LINE
  5
3A0
100
AcDbEntity
  8
MAIN0
  6
CONTINUOUS
 62
3
100
AcDbLine
 10
1267.501784078312
 20
440.0773818018971
 30
0.0000000000000000
 11
1265.829652930762
 21
410.0773818020168
 31
0.0000000000000000
  0
LINE
  5
3A1
100
AcDbEntity
  8
MAIN0
  6
CONTINUOUS
 62
3
100
AcDbLine
 10
1222.501784078313
 20
440.0773818019109
 30
0.0000000000000000
 11
1267.501784078313
 21
440.0773818018972
 31
0.0000000000000000
  0
LINE
  5
3A2
100
AcDbEntity
  8
MAIN0
  6
CONTINUOUS
 62
3
100
AcDbLine
 10
1224.173915225845
 20
410.0773818020296
 30
0.0000000000000000
 11
1265.829652930762
 21
410.0773818020168
 31
0.0000000000000000
  0
DIMENSION
  5
3AB
100
AcDbEntity
  8
MAIN0
  6
CONTINUOUS
 62
3
100
AcDbDimension
  2
*D48
 10
1222.501784078313
 20
473.8503761009514
 30
0.0000000000000000
 11
1245.001784078312
 21
474.3503761009514
 31
0.0000000000000000
 70
32
  3
MAIN001
100
AcDbAlignedDimension
 13
1267.501784078312
 23
440.0773818018969
 33
0.0000000000000000
 14
1222.501784078313
 24
440.0773818019108
 34
0.0000000000000000
100
AcDbRotatedDimension
1001
ACAD
1000
DSTYLE
1002
{
1070
   173
1070
     1
1070
     6
1000
_OPEN
1070
     7
1000
_OPEN
1070
    41
1040
8.000000
1002
}
  0
DIMENSION
  5
3B6
100
AcDbEntity
  8
MAIN0
  6
CONTINUOUS
 62
3
100
AcDbDimension
  2
*D49
 10
1335.402495437019
 20
282.8334158789169
 30
0.0000000000000000
 11
1334.902495437019
 21
268.5834158789170
 31
0.0000000000000000
 70
32
  3
MAIN001
100
AcDbAlignedDimension
 13
1357.783587248744
 23
254.3334158789171
 33
0.0000000000000000
 14
1357.783587248724
 24
282.8334158789169
 34
0.0000000000000000
 50
90.00000000000000
100
AcDbRotatedDimension
1001
ACAD
1000
DSTYLE
1002
{
1070
   173
1070
     1
1070
     6
1000
_OPEN
1070
     7
1000
_OPEN
1070
    41
1040
8.000000
1070
   287
1070
     0
1002
}
  0
DIMENSION
  5
3C1
100
AcDbEntity
  8
MAIN0
  6
CONTINUOUS
 62
3
100
AcDbDimension
  2
*D50
 10
1421.228855923693
 20
277.3334158789170
 30
0.0000000000000000
 11
1419.228855923693
 21
236.6003685727473
 31
0.0000000000000000
 70
160
  3
MAIN001
100
AcDbAlignedDimension
 13
1387.783587248741
 23
259.8334158789088
 33
0.0000000000000000
 14
1387.783587248728
 24
277.3334158789087
 34
0.0000000000000000
 50
90.00000000000000
100
AcDbRotatedDimension
1001
ACAD
1000
DSTYLE
1002
{
1070
   173
1070
     1
1070
     6
1000
_OPEN
1070
     7
1000
_OPEN
1070
    41
1040
8.000000
1070
   287
1070
     0
1002
}
  0
DIMENSION
  5
3CC
100
AcDbEntity
  8
MAIN0
  6
CONTINUOUS
 62
3
100
AcDbDimension
  2
*D51
 10
1357.783587248744
 20
220.6740126625217
 30
0.0000000000000000
 11
1372.783587248744
 21
221.1740126625217
 31
0.0000000000000000
 70
32
  3
MAIN001
100
AcDbAlignedDimension
 13
1387.783587248744
 23
254.3334158789088
 33
0.0000000000000000
 14
1357.783587248744
 24
254.3334158789171
 34
0.0000000000000000
100
AcDbRotatedDimension
1001
ACAD
1000
DSTYLE
1002
{
1070
   173
1070
     1
1070
     6
1000
_OPEN
1070
     7
1000
_OPEN
1070
    41
1040
8.000000
1070
   287
1070
     0
1002
}
  0
DIMENSION
  5
3D5
100
AcDbEntity
  8
MAIN0
  6
CONTINUOUS
 62
3
100
AcDbDimension
  2
*D52
 10
1123.090729015881
 20
475.0773560312468
 30
0.0000000000000000
 11
1122.590729015881
 21
587.5773560312467
 31
0.0000000000000000
 70
32
  3
MAIN001
100
AcDbAlignedDimension
 13
1178.402059558627
 23
700.0773560312467
 33
0.0000000000000000
 14
1133.185210053135
 24
475.0773560312467
 34
0.0000000000000000
 50
90.00000000000000
100
AcDbRotatedDimension
1001
ACAD
1000
DSTYLE
1002
{
1070
   173
1070
     1
1070
     6
1000
_OPEN
1070
     7
1000
_OPEN
1070
    41
1040
8.000000
1002
}
  0
DIMENSION
  5
3DE
100
AcDbEntity
  8
MAIN0
  6
CONTINUOUS
 62
3
100
AcDbDimension
  2
*D53
 10
396.1470391177273
 20
410.0773818014454
 30
0.0000000000000000
 11
395.6470391177273
 21
490.0773818014454
 31
0.0000000000000000
 70
32
  3
MAIN001
100
AcDbAlignedDimension
 13
456.7985261154015
 23
570.0773818014454
 33
0.0000000000000000
 14
455.7985261154017
 24
410.0773818014454
 34
0.0000000000000000
 50
90.00000000000000
100
AcDbRotatedDimension
1001
ACAD
1000
DSTYLE
1002
{
1070
   173
1070
     1
1070
     6
1000
_OPEN
1070
     7
1000
_OPEN
1070
    41
1040
8.000000
1002
}
  0
DIMENSION
  5
3E7
100
AcDbEntity
  8
MAIN0
  6
CONTINUOUS
 62
3
100
AcDbDimension
  2
*D54
 10
423.5974883306071
 20
410.0773818014454
 30
0.0000000000000000
 11
423.0974883306071
 21
460.0773818014454
 31
0.0000000000000000
 70
32
  3
MAIN001
100
AcDbAlignedDimension
 13
455.7985261154015
 23
510.0773818014454
 33
0.0000000000000000
 14
455.7985261154017
 24
410.0773818014454
 34
0.0000000000000000
 50
90.00000000000000
100
AcDbRotatedDimension
1001
ACAD
1000
DSTYLE
1002
{
1070
   173
1070
     1
1070
     6
1000
_OPEN
1070
     7
1000
_OPEN
1070
    41
1040
8.000000
1002
}
  0
DIMENSION
  5
3F0
100
AcDbEntity
  8
MAIN0
  6
CONTINUOUS
 62
3
100
AcDbDimension
  2
*D55
 10
423.5974883306071
 20
510.0773818014454
 30
0.0000000000000000
 11
423.0974883306071
 21
540.0773818014454
 31
0.0000000000000000
 70
32
  3
MAIN001
100
AcDbAlignedDimension
 13
456.7985261154015
 23
570.0773818014454
 33
0.0000000000000000
 14
455.7985261154015
 24
510.0773818014454
 34
0.0000000000000000
 50
90.00000000000000
100
AcDbRotatedDimension
1001
ACAD
1000
DSTYLE
1002
{
1070
   173
1070
     1
1070
     6
1000
_OPEN
1070
     7
1000
_OPEN
1070
    41
1040
8.000000
1002
}
  0
LINE
  5
3F1
100
AcDbEntity
  8
MAIN0
  6
CONTINUOUS
 62
3
100
AcDbLine
 10
1401.783587248775
 20
440.0773818019112
 30
0.0000000000000000
 11
1401.783587248775
 21
431.0773818019114
 31
0.0000000000000000
  0
LINE
  5
3F2
100
AcDbEntity
  8
MAIN0
  6
CONTINUOUS
 62
3
100
AcDbLine
 10
258.1210777891924
 20
504.0773818009794
 30
0.0000000000000000
 11
258.1210777891924
 21
490.0773818009797
 31
0.0000000000000000
  0
LINE
  5
3F3
100
AcDbEntity
  8
MAIN0
  6
CONTINUOUS
 62
3
100
AcDbLine
 10
258.1210777891924
 20
490.0773818009797
 30
0.0000000000000000
 11
266.6210777891924
 21
490.0773818009797
 31
0.0000000000000000
  0
LINE
  5
3F4
100
AcDbEntity
  8
MAIN0
  6
CONTINUOUS
 62
3
100
AcDbLine
 10
266.6210777891924
 20
490.0773818009797
 30
0.0000000000000000
 11
266.6210777891924
 21
470.0773818009796
 31
0.0000000000000000
  0
LINE
  5
3F5
100
AcDbEntity
  8
MAIN0
  6
CONTINUOUS
 62
3
100
AcDbLine
 10
177.1210777891924
 20
504.0773818009794
 30
0.0000000000000000
 11
177.1210777891924
 21
490.0773818009792
 31
0.0000000000000000
  0
LINE
  5
3F6
100
AcDbEntity
  8
MAIN0
  6
CONTINUOUS
 62
3
100
AcDbLine
 10
177.1210777891924
 20
490.0773818009792
 30
0.0000000000000000
 11
168.6210777891924
 21
490.0773818009792
 31
0.0000000000000000
  0
LINE
  5
3F7
100
AcDbEntity
  8
MAIN0
  6
CONTINUOUS
 62
3
100
AcDbLine
 10
168.6210777891924
 20
490.0773818009794
 30
0.0000000000000000
 11
168.6210777891924
 21
470.0773818009797
 31
0.0000000000000000
  0
LINE
  5
3F8
100
AcDbEntity
  8
MAIN0
  6
CONTINUOUS
 62
3
100
AcDbLine
 10
456.7985261154120
 20
843.1499030303082
 30
0.0000000000000000
 11
731.7985261154009
 21
843.1499030303082
 31
0.0000000000000000
  0
LINE
  5
3F9
100
AcDbEntity
  8
MAIN0
  6
CONTINUOUS
 62
3
100
AcDbLine
 10
731.7985261154011
 20
1004.149903030309
 30
0.0000000000000000
 11
456.7985261154115
 21
1004.149903030309
 31
0.0000000000000000
  0
LINE
  5
3FA
100
AcDbEntity
  8
MAIN0
  6
CONTINUOUS
 62
3
100
AcDbLine
 10
455.7985261154118
 20
1003.149903030309
 30
0.0000000000000000
 11
455.7985261154121
 21
844.1499030303087
 31
0.0000000000000000
  0
LINE
  5
3FB
100
AcDbEntity
  8
MAIN0
  6
CONTINUOUS
 62
3
100
AcDbLine
 10
455.7985261154113
 20
844.1499030303085
 30
0.0000000000000000
 11
456.7985261154115
 21
843.1499030303082
 31
0.0000000000000000
  0
LINE
  5
3FC
100
AcDbEntity
  8
MAIN0
  6
CONTINUOUS
 62
3
100
AcDbLine
 10
455.7985261154111
 20
1003.149903030309
 30
0.0000000000000000
 11
456.7985261154112
 21
1004.149903030309
 31
0.0000000000000000
  0
LINE
  5
3FD
100
AcDbEntity
  8
MAIN0
  6
CONTINUOUS
 62
3
100
AcDbLine
 10
550.2985261154067
 20
843.6499030301666
 30
0.0000000000000000
 11
457.3985261154068
 21
843.6499030302600
 31
0.0000000000000000
  0
LINE
  5
3FE
100
AcDbEntity
  8
MAIN0
  6
CONTINUOUS
 62
3
100
AcDbLine
 10
550.2985261153950
 20
1003.649903029512
 30
0.0000000000000000
 11
457.3985261153949
 21
1003.649903028632
 31
0.0000000000000000
  0
LINE
  5
3FF
100
AcDbEntity
  8
MAIN0
  6
CONTINUOUS
 62
3
100
AcDbLine
 10
550.2985261154066
 20
843.6499030301663
 30
0.0000000000000000
 11
550.7985261154065
 21
844.1499030301658
 31
0.0000000000000000
  0
LINE
  5
400
100
AcDbEntity
  8
MAIN0
  6
CONTINUOUS
 62
3
100
AcDbLine
 10
550.7985261153954
 20
1003.149903029518
 30
0.0000000000000000
 11
550.2985261153954
 21
1003.649903029513
 31
0.0000000000000000
  0
LINE
  5
401
100
AcDbEntity
  8
MAIN0
  6
CONTINUOUS
 62
3
100
AcDbLine
 10
457.3985261153954
 20
1003.649903028633
 30
0.0000000000000000
 11
456.7985261153954
 21
1003.049903028627
 31
0.0000000000000000
  0
LINE
  5
402
100
AcDbEntity
  8
MAIN0
  6
CONTINUOUS
 62
3
100
AcDbLine
 10
457.3985261154069
 20
843.6499030302603
 30
0.0000000000000000
 11
456.7985261154069
 21
844.2499030302608
 31
0.0000000000000000
  0
LINE
  5
403
100
AcDbEntity
  8
MAIN0
  6
CONTINUOUS
 62
3
100
AcDbLine
 10
456.7985261154068
 20
844.2499030302604
 30
0.0000000000000000
 11
456.7985261153953
 21
1003.049903028627
 31
0.0000000000000000
  0
LINE
  5
404
100
AcDbEntity
  8
MAIN0
  6
CONTINUOUS
 62
3
100
AcDbLine
 10
550.7985261154067
 20
844.1499030301658
 30
0.0000000000000000
 11
550.7985261153951
 21
1003.149903029518
 31
0.0000000000000000
  0
LINE
  5
405
100
AcDbEntity
  8
MAIN0
  6
CONTINUOUS
 62
3
100
AcDbLine
 10
646.3985261154003
 20
1003.649903030309
 30
0.0000000000000000
 11
731.2985261154001
 21
1003.649903030309
 31
0.0000000000000000
  0
LINE
  5
406
100
AcDbEntity
  8
MAIN0
  6
CONTINUOUS
 62
3
100
AcDbLine
 10
646.3985261154002
 20
843.6499030303085
 30
0.0000000000000000
 11
731.2985261153999
 21
843.6499030303085
 31
0.0000000000000000
  0
LINE
  5
407
100
AcDbEntity
  8
MAIN0
  6
CONTINUOUS
 62
3
100
AcDbLine
 10
731.2985261154005
 20
1003.649903030308
 30
0.0000000000000000
 11
731.7985261154006
 21
1003.149903030308
 31
0.0000000000000000
  0
LINE
  5
408
100
AcDbEntity
  8
MAIN0
  6
CONTINUOUS
 62
3
100
AcDbLine
 10
646.3985261154007
 20
1003.649903030308
 30
0.0000000000000000
 11
645.7985261154005
 21
1003.049903030307
 31
0.0000000000000000
  0
LINE
  5
409
100
AcDbEntity
  8
MAIN0
  6
CONTINUOUS
 62
3
100
AcDbLine
 10
645.7985261154003
 20
844.2499030303078
 30
0.0000000000000000
 11
646.3985261154005
 21
843.6499030303075
 31
0.0000000000000000
  0
LINE
  5
40A
100
AcDbEntity
  8
MAIN0
  6
CONTINUOUS
 62
3
100
AcDbLine
 10
731.7985261154004
 20
844.1499030303081
 30
0.0000000000000000
 11
731.2985261154004
 21
843.6499030303080
 31
0.0000000000000000
  0
LINE
  5
40B
100
AcDbEntity
  8
MAIN0
  6
CONTINUOUS
 62
3
100
AcDbLine
 10
645.7985261154004
 20
844.4999030303077
 30
0.0000000000000000
 11
645.7985261154006
 21
1003.049903030308
 31
0.0000000000000000
  0
LINE
  5
40C
100
AcDbEntity
  8
MAIN0
  6
CONTINUOUS
 62
3
100
AcDbLine
 10
731.7985261154008
 20
837.1499030303078
 30
0.0000000000000000
 11
731.7985261154011
 21
1010.149903030308
 31
0.0000000000000000
  0
LINE
  5
40D
100
AcDbEntity
  8
MAIN0
  6
CONTINUOUS
 62
3
100
AcDbLine
 10
550.7985261154039
 20
882.1499030303085
 30
0.0000000000000000
 11
645.7985261154005
 21
882.1499030303085
 31
0.0000000000000000
  0
LINE
  5
40E
100
AcDbEntity
  8
MAIN0
  6
CONTINUOUS
 62
3
100
AcDbLine
 10
550.7985261153979
 20
965.1499030303085
 30
0.0000000000000000
 11
645.7985261154006
 21
965.1499030303085
 31
0.0000000000000000
  0
CIRCLE
  5
40F
100
AcDbEntity
  8
MAIN0
  6
CONTINUOUS
 62
3
100
AcDbCircle
 10
565.7985261153751
 20
923.6499030303091
 30
0.0000000000000000
 40
3.000000000000000
  0
CIRCLE
  5
410
100
AcDbEntity
  8
MAIN0
  6
CONTINUOUS
 62
3
100
AcDbCircle
 10
565.7985261153750
 20
923.6499030303091
 30
0.0000000000000000
 40
3.000000000000000
  0
LINE
  5
411
100
AcDbEntity
  8
MAIN0
  6
CENTER
 62
3
100
AcDbLine
 10
565.7985261153751
 20
932.6499030303091
 30
0.0000000000000000
 11
565.7985261153751
 21
914.6499030303091
 31
0.0000000000000000
  0
LINE
  5
412
100
AcDbEntity
  8
MAIN0
  6
CENTER
 62
3
100
AcDbLine
 10
449.1740318492903
 20
923.6499030303082
 30
0.0000000000000000
 11
1105.205032722378
 21
923.6499030303088
 31
0.0000000000000000
  0
LINE
  5
413
100
AcDbEntity
  8
MAIN0
  6
CONTINUOUS
 62
3
100
AcDbLine
 10
823.7985261162504
 20
1008.649903030309
 30
0.0000000000000000
 11
873.7985261141320
 21
1008.649903030309
 31
0.0000000000000000
  0
LINE
  5
414
100
AcDbEntity
  8
MAIN0
  6
CONTINUOUS
 62
3
100
AcDbLine
 10
823.7985261160904
 20
838.6499030303080
 30
0.0000000000000000
 11
873.7985261144519
 21
838.6499030303080
 31
0.0000000000000000
  0
LINE
  5
415
100
AcDbEntity
  8
MAIN0
  6
CONTINUOUS
 62
3
100
AcDbLine
 10
873.7985261141349
 20
1007.149903030308
 30
0.0000000000000000
 11
933.7985261156917
 21
1007.149903030308
 31
0.0000000000000000
  0
LINE
  5
416
100
AcDbEntity
  8
MAIN0
  6
CONTINUOUS
 62
3
100
AcDbLine
 10
873.7985261144489
 20
840.1499030303078
 30
0.0000000000000000
 11
933.7985261156917
 21
840.1499030303078
 31
0.0000000000000000
  0
LINE
  5
417
100
AcDbEntity
  8
MAIN0
  6
CONTINUOUS
 62
3
100
AcDbLine
 10
998.7985261153174
 20
841.6499030303081
 30
0.0000000000000000
 11
998.7985261154848
 21
1005.649903030309
 31
0.0000000000000000
  0
LINE
  5
418
100
AcDbEntity
  8
MAIN0
  6
CONTINUOUS
 62
3
100
AcDbLine
 10
933.7985261156915
 20
1005.649903030309
 30
0.0000000000000000
 11
998.7985261154850
 21
1005.649903030309
 31
0.0000000000000000
  0
LINE
  5
419
100
AcDbEntity
  8
MAIN0
  6
CONTINUOUS
 62
3
100
AcDbLine
 10
933.7985261156917
 20
841.6499030303082
 30
0.0000000000000000
 11
998.7985261153174
 21
841.6499030303082
 31
0.0000000000000000
  0
LINE
  5
41A
100
AcDbEntity
  8
MAIN0
  6
CONTINUOUS
 62
3
100
AcDbLine
 10
998.7985261154836
 20
1004.149903030309
 30
0.0000000000000000
 11
1040.798526116158
 21
1004.149903030309
 31
0.0000000000000000
  0
LINE
  5
41B
100
AcDbEntity
  8
MAIN0
  6
CONTINUOUS
 62
3
100
AcDbLine
 10
998.7985261153194
 20
843.1499030303085
 30
0.0000000000000000
 11
1040.798526115997
 21
843.1499030303085
 31
0.0000000000000000
  0
LINE
  5
41C
100
AcDbEntity
  8
MAIN0
  6
CONTINUOUS
 62
3
100
AcDbLine
 10
1046.798526116063
 20
910.1869910119721
 30
0.0000000000000000
 11
1043.798526116073
 21
910.1869910119846
 31
0.0000000000000000
  0
LINE
  5
41D
100
AcDbEntity
  8
MAIN0
  6
CONTINUOUS
 62
3
100
AcDbLine
 10
1046.798526116090
 20
937.1128150469311
 30
0.0000000000000000
 11
1043.798526116081
 21
937.1128150469436
 31
0.0000000000000000
  0
LINE
  5
41E
100
AcDbEntity
  8
MAIN0
  6
CONTINUOUS
 62
3
100
AcDbLine
 10
1046.798526116040
 20
886.1499030301734
 30
0.0000000000000000
 11
1043.798526116037
 21
886.1499030301734
 31
0.0000000000000000
  0
LINE
  5
41F
100
AcDbEntity
  8
MAIN0
  6
CONTINUOUS
 62
3
100
AcDbLine
 10
1046.798526116115
 20
961.1499030301732
 30
0.0000000000000000
 11
1043.798526116118
 21
961.1499030301732
 31
0.0000000000000000
  0
LINE
  5
420
100
AcDbEntity
  8
MAIN0
  6
CONTINUOUS
 62
3
100
AcDbLine
 10
1046.798526116040
 20
886.1499030301731
 30
0.0000000000000000
 11
1046.798526116114
 21
961.1499030301733
 31
0.0000000000000000
  0
LINE
  5
421
100
AcDbEntity
  8
MAIN0
  6
CONTINUOUS
 62
3
100
AcDbLine
 10
1040.798526115997
 20
843.1499030303089
 30
0.0000000000000000
 11
1040.798526116061
 21
907.1869910119876
 31
0.0000000000000000
  0
LINE
  5
422
100
AcDbEntity
  8
MAIN0
  6
CONTINUOUS
 62
3
100
AcDbLine
 10
1040.798526116094
 20
940.1128150469469
 30
0.0000000000000000
 11
1040.798526116158
 21
1004.149903030309
 31
0.0000000000000000
  0
LINE
  5
423
100
AcDbEntity
  8
MAIN0
  6
CONTINUOUS
 62
3
100
AcDbLine
 10
1071.798526115447
 20
885.2499030303547
 30
0.0000000000000000
 11
1071.798526115356
 21
962.0499030303542
 31
0.0000000000000000
  0
LINE
  5
424
100
AcDbEntity
  8
MAIN0
  6
CONTINUOUS
 62
3
100
AcDbLine
 10
1071.198526115401
 20
884.6499030303085
 30
0.0000000000000000
 11
1061.798526115402
 21
884.6499030303085
 31
0.0000000000000000
  0
LINE
  5
425
100
AcDbEntity
  8
MAIN0
  6
CONTINUOUS
 62
3
100
AcDbLine
 10
1059.798526115434
 20
886.6499030303093
 30
0.0000000000000000
 11
1061.798526115402
 21
884.6499030303087
 31
0.0000000000000000
  0
LINE
  5
426
100
AcDbEntity
  8
MAIN0
  6
CONTINUOUS
 62
3
100
AcDbLine
 10
1071.198526115402
 20
884.6499030303083
 30
0.0000000000000000
 11
1071.798526115402
 21
885.2499030303084
 31
0.0000000000000000
  0
LINE
  5
427
100
AcDbEntity
  8
MAIN0
  6
CONTINUOUS
 62
3
100
AcDbLine
 10
1071.198526115401
 20
962.6499030303087
 30
0.0000000000000000
 11
1061.798526115402
 21
962.6499030303086
 31
0.0000000000000000
  0
LINE
  5
428
100
AcDbEntity
  8
MAIN0
  6
CONTINUOUS
 62
3
100
AcDbLine
 10
1059.798526115433
 20
960.6499030303079
 30
0.0000000000000000
 11
1061.798526115401
 21
962.6499030303083
 31
0.0000000000000000
  0
LINE
  5
429
100
AcDbEntity
  8
MAIN0
  6
CONTINUOUS
 62
3
100
AcDbLine
 10
1071.198526115401
 20
962.6499030303093
 30
0.0000000000000000
 11
1071.798526115402
 21
962.0499030303092
 31
0.0000000000000000
  0
LINE
  5
42A
100
AcDbEntity
  8
MAIN0
  6
CONTINUOUS
 62
3
100
AcDbLine
 10
1046.798526116114
 20
960.6499030303087
 30
0.0000000000000000
 11
1059.798526115433
 21
960.6499030303087
 31
0.0000000000000000
  0
LINE
  5
42B
100
AcDbEntity
  8
MAIN0
  6
CONTINUOUS
 62
3
100
AcDbLine
 10
1046.798526116040
 20
886.6499030303085
 30
0.0000000000000000
 11
1059.798526115434
 21
886.6499030303085
 31
0.0000000000000000
  0
LINE
  5
42C
100
AcDbEntity
  8
MAIN0
  6
CONTINUOUS
 62
3
100
AcDbLine
 10
1090.798526115402
 20
948.6499030303087
 30
0.0000000000000000
 11
1071.798526115402
 21
948.6499030303087
 31
0.0000000000000000
  0
LINE
  5
42D
100
AcDbEntity
  8
MAIN0
  6
CONTINUOUS
 62
3
100
AcDbLine
 10
1090.798526115402
 20
948.6499030303090
 30
0.0000000000000000
 11
1090.798526115402
 21
898.6499030303087
 31
0.0000000000000000
  0
LINE
  5
42E
100
AcDbEntity
  8
MAIN0
  6
CONTINUOUS
 62
3
100
AcDbLine
 10
1090.798526115402
 20
898.6499030303087
 30
0.0000000000000000
 11
1071.798526115402
 21
898.6499030303087
 31
0.0000000000000000
  0
LINE
  5
42F
100
AcDbEntity
  8
MAIN0
  6
CONTINUOUS
 62
3
100
AcDbLine
 10
1071.798526115422
 20
906.4452524933058
 30
0.0000000000000000
 11
1061.798526115470
 21
906.4452524933481
 31
0.0000000000000000
  0
LINE
  5
430
100
AcDbEntity
  8
MAIN0
  6
CONTINUOUS
 62
3
100
AcDbLine
 10
1059.798526115495
 20
911.6499030263875
 30
0.0000000000000000
 11
1046.798526116064
 21
911.6499030264100
 31
0.0000000000000000
  0
LINE
  5
431
100
AcDbEntity
  8
MAIN0
  6
CONTINUOUS
 62
3
100
AcDbLine
 10
1059.798526115465
 20
935.6499030345043
 30
0.0000000000000000
 11
1046.798526116089
 21
935.6499030344654
 31
0.0000000000000000
  0
LINE
  5
432
100
AcDbEntity
  8
MAIN0
  6
CONTINUOUS
 62
3
100
AcDbLine
 10
1071.798526115382
 20
940.8545535673062
 30
0.0000000000000000
 11
1061.798526115429
 21
940.8545535672961
 31
0.0000000000000000
  0
LINE
  5
433
100
AcDbEntity
  8
MAIN0
  6
CONTINUOUS
 62
3
100
AcDbLine
 10
1059.798526115465
 20
935.6499030345042
 30
0.0000000000000000
 11
1061.798526115428
 21
940.8545535672959
 31
0.0000000000000000
  0
LINE
  5
434
100
AcDbEntity
  8
MAIN0
  6
CONTINUOUS
 62
3
100
AcDbLine
 10
1059.798526115495
 20
911.6499030263875
 30
0.0000000000000000
 11
1061.798526115471
 21
906.4452524933481
 31
0.0000000000000000
  0
LINE
  5
435
100
AcDbEntity
  8
MAIN0
  6
CONTINUOUS
 62
3
100
AcDbLine
 10
1061.798526115498
 20
884.6499030303086
 30
0.0000000000000000
 11
1061.798526115471
 21
906.4452524933480
 31
0.0000000000000000
  0
LINE
  5
436
100
AcDbEntity
  8
MAIN0
  6
CONTINUOUS
 62
3
100
AcDbLine
 10
1061.798526115429
 20
940.8545535672960
 30
0.0000000000000000
 11
1061.798526115402
 21
962.6499030303088
 31
0.0000000000000000
  0
LINE
  5
437
100
AcDbEntity
  8
MAIN0
  6
CONTINUOUS
 62
3
100
AcDbLine
 10
1059.798526115526
 20
886.6499030303082
 30
0.0000000000000000
 11
1059.798526115495
 21
911.6499030263872
 31
0.0000000000000000
  0
LINE
  5
438
100
AcDbEntity
  8
MAIN0
  6
CONTINUOUS
 62
3
100
AcDbLine
 10
1059.798526115465
 20
935.6499030345042
 30
0.0000000000000000
 11
1059.798526115434
 21
960.6499030303082
 31
0.0000000000000000
  0
LINE
  5
439
100
AcDbEntity
  8
MAIN0
  6
CONTINUOUS
 62
3
100
AcDbLine
 10
1040.798526116013
 20
859.1499030335026
 30
0.0000000000000000
 11
998.7985261153355
 21
859.1499030336781
 31
0.0000000000000000
  0
LINE
  5
43A
100
AcDbEntity
  8
MAIN0
  6
CONTINUOUS
 62
3
100
AcDbLine
 10
1040.798526116142
 20
988.1499030293938
 30
0.0000000000000000
 11
998.7985261154673
 21
988.1499030293062
 31
0.0000000000000000
  0
ARC
  5
43B
100
AcDbEntity
  8
MAIN0
  6
CONTINUOUS
 62
3
100
AcDbCircle
 10
1043.798526116118
 20
964.1499030301732
 30
0.0000000000000000
 40
3.000000000000000
100
AcDbArc
 50
180.0000000000000
 51
270.0000000000000
  0
ARC
  5
43C
100
AcDbEntity
  8
MAIN0
  6
CONTINUOUS
 62
3
100
AcDbCircle
 10
1043.798526116037
 20
883.1499030301734
 30
0.0000000000000000
 40
3.000000000000000
100
AcDbArc
 50
90.00000000000000
 51
180.0000000000000
  0
ARC
  5
43D
100
AcDbEntity
  8
MAIN0
  6
CONTINUOUS
 62
3
100
AcDbCircle
 10
1043.798526116094
 20
940.1128150469438
 30
0.0000000000000000
 40
3.000000000000000
100
AcDbArc
 50
180.0000000000000
 51
270.0000000000000
  0
ARC
  5
43E
100
AcDbEntity
  8
MAIN0
  6
CONTINUOUS
 62
3
100
AcDbCircle
 10
1043.798526116061
 20
907.1869910119845
 30
0.0000000000000000
 40
3.000000000000000
100
AcDbArc
 50
90.00000000000000
 51
180.0000000000000
  0
LINE
  5
43F
100
AcDbEntity
  8
MAIN0
  6
CONTINUOUS
 62
3
100
AcDbLine
 10
456.7985261154014
 20
570.0773818014454
 30
0.0000000000000000
 11
456.7985261154017
 21
510.0773818014454
 31
0.0000000000000000
  0
LINE
  5
440
100
AcDbEntity
  8
MAIN0
  6
CONTINUOUS
 62
3
100
AcDbLine
 10
641.7985261154017
 20
405.0773818014454
 30
0.0000000000000000
 11
641.7985261154017
 21
415.0773818014453
 31
0.0000000000000000
  0
LINE
  5
441
100
AcDbEntity
  8
MAIN0
  6
CONTINUOUS
 62
3
100
AcDbLine
 10
623.7985261154017
 20
415.0773818014453
 30
0.0000000000000000
 11
623.7985261154017
 21
405.0773818014454
 31
0.0000000000000000
  0
LINE
  5
442
100
AcDbEntity
  8
MAIN0
  6
CONTINUOUS
 62
3
100
AcDbLine
 10
623.7985261154017
 20
410.0773818014454
 30
0.0000000000000000
 11
455.7985261154017
 21
410.0773818014454
 31
0.0000000000000000
  0
LINE
  5
443
100
AcDbEntity
  8
MAIN0
  6
CONTINUOUS
 62
3
100
AcDbLine
 10
995.7985261154018
 20
410.0773818014457
 30
0.0000000000000000
 11
641.7985261154017
 21
410.0773818014456
 31
0.0000000000000000
  0
LINE
  5
444
100
AcDbEntity
  8
MAIN0
  6
CONTINUOUS
 62
3
100
AcDbLine
 10
641.7985261154017
 20
415.0773818014454
 30
0.0000000000000000
 11
623.7985261154017
 21
415.0773818014454
 31
0.0000000000000000
  0
LINE
  5
445
100
AcDbEntity
  8
MAIN0
  6
CONTINUOUS
 62
3
100
AcDbLine
 10
455.7985261154014
 20
510.0773818014454
 30
0.0000000000000000
 11
455.7985261154016
 21
410.0773818014455
 31
0.0000000000000000
  0
LINE
  5
446
100
AcDbEntity
  8
MAIN0
  6
CONTINUOUS
 62
3
100
AcDbLine
 10
491.7985261154017
 20
510.0773818014454
 30
0.0000000000000000
 11
491.7985261154017
 21
501.0773818014148
 31
0.0000000000000000
  0
LINE
  5
447
100
AcDbEntity
  8
MAIN0
  6
CONTINUOUS
 62
3
100
AcDbLine
 10
515.7985261154017
 20
510.0773818014453
 30
0.0000000000000000
 11
515.7985261154017
 21
501.0773818014195
 31
0.0000000000000000
  0
LINE
  5
448
100
AcDbEntity
  8
MAIN0
  6
CONTINUOUS
 62
3
100
AcDbLine
 10
491.7985261154017
 20
510.0773818014454
 30
0.0000000000000000
 11
455.7985261154015
 21
510.0773818014454
 31
0.0000000000000000
  0
LINE
  5
449
100
AcDbEntity
  8
MAIN0
  6
CONTINUOUS
 62
3
100
AcDbLine
 10
538.7985261154015
 20
510.0773818014454
 30
0.0000000000000000
 11
515.7985261154017
 21
510.0773818014454
 31
0.0000000000000000
  0
LINE
  5
44A
100
AcDbEntity
  8
MAIN0
  6
CONTINUOUS
 62
3
100
AcDbLine
 10
872.7985261154113
 20
532.2773818014454
 30
0.0000000000000000
 11
823.7985261154015
 21
532.2773818014454
 31
0.0000000000000000
  0
ARC
  5
44B
100
AcDbEntity
  8
MAIN0
  6
CONTINUOUS
 62
3
100
AcDbCircle
 10
872.7985261154013
 20
531.2773818014455
 30
0.0000000000000000
 40
1.000000000000000
100
AcDbArc
 50
0.0000000000000000
 51
89.99999999942553
  0
LINE
  5
44C
100
AcDbEntity
  8
MAIN0
  6
CONTINUOUS
 62
3
100
AcDbLine
 10
731.7985261154015
 20
479.7773818014455
 30
0.0000000000000000
 11
731.7985261154013
 21
570.0773818014457
 31
0.0000000000000000
  0
LINE
  5
44D
100
AcDbEntity
  8
MAIN0
  6
CONTINUOUS
 62
3
100
AcDbLine
 10
873.7985261154015
 20
531.2773818014454
 30
0.0000000000000000
 11
873.7985261154009
 21
479.7773818014455
 31
0.0000000000000000
  0
LINE
  5
44E
100
AcDbEntity
  8
MAIN0
  6
CENTER
 62
3
100
AcDbLine
 10
1100.205032722378
 20
475.0773818014454
 30
0.0000000000000000
 11
1016.469598175209
 21
475.0773818014454
 31
0.0000000000000000
  0
LINE
  5
44F
100
AcDbEntity
  8
MAIN0
  6
CONTINUOUS
 62
3
100
AcDbLine
 10
641.7985261154017
 20
405.0773818014454
 30
0.0000000000000000
 11
623.7985261154017
 21
405.0773818014454
 31
0.0000000000000000
  0
ARC
  5
450
100
AcDbEntity
  8
MAIN0
  6
CONTINUOUS
 62
3
100
AcDbCircle
 10
932.7985261154008
 20
520.2773818014454
 30
0.0000000000000000
 40
1.000000000000000
100
AcDbArc
 50
0.0000000000000000
 51
89.99999999942553
  0
LINE
  5
451
100
AcDbEntity
  8
MAIN0
  6
CONTINUOUS
 62
3
100
AcDbLine
 10
933.7985261154008
 20
520.2773831670296
 30
0.0000000000000000
 11
933.7985261154008
 21
481.7773818014356
 31
0.0000000000000000
  0
LINE
  5
452
100
AcDbEntity
  8
MAIN0
  6
CONTINUOUS
 62
3
100
AcDbLine
 10
998.7985261154015
 20
511.2773818014454
 30
0.0000000000000000
 11
998.7985261154015
 21
483.7773818014356
 31
0.0000000000000000
  0
LINE
  5
453
100
AcDbEntity
  8
MAIN0
  6
CONTINUOUS
 62
3
100
AcDbLine
 10
873.7985261154013
 20
521.2773818014454
 30
0.0000000000000000
 11
932.7985261154108
 21
521.2773818014454
 31
0.0000000000000000
  0
LINE
  5
454
100
AcDbEntity
  8
MAIN0
  6
CONTINUOUS
 62
3
100
AcDbLine
 10
933.7985261154009
 20
511.2773818014454
 30
0.0000000000000000
 11
998.7985261154015
 21
511.2773818014454
 31
0.0000000000000000
  0
LINE
  5
455
100
AcDbEntity
  8
MAIN0
  6
CONTINUOUS
 62
3
100
AcDbLine
 10
1090.798526115402
 20
500.0773818014453
 30
0.0000000000000000
 11
1071.798526115402
 21
500.0773818014453
 31
0.0000000000000000
  0
LINE
  5
456
100
AcDbEntity
  8
MAIN0
  6
CONTINUOUS
 62
3
100
AcDbLine
 10
1090.798526115402
 20
500.0773818014454
 30
0.0000000000000000
 11
1090.798526115402
 21
450.0773818014454
 31
0.0000000000000000
  0
LINE
  5
457
100
AcDbEntity
  8
MAIN0
  6
CONTINUOUS
 62
3
100
AcDbLine
 10
995.7985261154021
 20
410.0773818014453
 30
0.0000000000000000
 11
995.7985261154020
 21
483.7773818014356
 31
0.0000000000000000
  0
LINE
  5
458
100
AcDbEntity
  8
MAIN0
  6
CONTINUOUS
 62
3
100
AcDbLine
 10
1090.798526115402
 20
450.0773818014453
 30
0.0000000000000000
 11
1071.798526115402
 21
450.0773818014453
 31
0.0000000000000000
  0
LINE
  5
459
100
AcDbEntity
  8
MAIN0
  6
CONTINUOUS
 62
3
100
AcDbLine
 10
995.7985261154017
 20
433.0773818014453
 30
0.0000000000000000
 11
1017.446879571069
 21
433.0773818014452
 31
0.0000000000000000
  0
LINE
  5
45A
100
AcDbEntity
  8
MAIN0
  6
CONTINUOUS
 62
3
100
AcDbLine
 10
998.7985261154017
 20
510.0773818014458
 30
0.0000000000000000
 11
1046.798526115402
 21
510.0773818014457
 31
0.0000000000000000
  0
LINE
  5
45B
100
AcDbEntity
  8
MAIN0
  6
CONTINUOUS
 62
3
100
AcDbLine
 10
1046.198526115402
 20
437.5773818015653
 30
0.0000000000000000
 11
1040.798526115402
 21
437.5773818015688
 31
0.0000000000000000
  0
LINE
  5
45C
100
AcDbEntity
  8
MAIN0
  6
CONTINUOUS
 62
3
100
AcDbLine
 10
1046.198526115402
 20
437.5773818015656
 30
0.0000000000000000
 11
1046.798526115402
 21
438.1773818015650
 31
0.0000000000000000
  0
LINE
  5
45D
100
AcDbEntity
  8
MAIN0
  6
CONTINUOUS
 62
3
100
AcDbLine
 10
1046.798526115401
 20
438.0773818014455
 30
0.0000000000000000
 11
1046.798526115402
 21
510.0773818014457
 31
0.0000000000000000
  0
LINE
  5
45E
100
AcDbEntity
  8
MAIN0
  6
CONTINUOUS
 62
3
100
AcDbLine
 10
1071.198526115402
 20
436.0773818014452
 30
0.0000000000000000
 11
1061.798526115402
 21
436.0773818014452
 31
0.0000000000000000
  0
LINE
  5
45F
100
AcDbEntity
  8
MAIN0
  6
CONTINUOUS
 62
3
100
AcDbLine
 10
1059.798526115434
 20
438.0773818014458
 30
0.0000000000000000
 11
1061.798526115402
 21
436.0773818014453
 31
0.0000000000000000
  0
LINE
  5
460
100
AcDbEntity
  8
MAIN0
  6
CONTINUOUS
 62
3
100
AcDbLine
 10
1059.798526115434
 20
438.0773818014457
 30
0.0000000000000000
 11
1046.798526115401
 21
438.0773818014457
 31
0.0000000000000000
  0
LINE
  5
461
100
AcDbEntity
  8
MAIN0
  6
CONTINUOUS
 62
3
100
AcDbLine
 10
1046.798526115402
 20
510.0773818014461
 30
0.0000000000000000
 11
1071.198526115402
 21
510.0773818014461
 31
0.0000000000000000
  0
LINE
  5
462
100
AcDbEntity
  8
MAIN0
  6
CONTINUOUS
 62
3
100
AcDbLine
 10
1071.798526115402
 20
436.6773818014451
 30
0.0000000000000000
 11
1071.798526115402
 21
509.4773818014460
 31
0.0000000000000000
  0
LINE
  5
463
100
AcDbEntity
  8
MAIN0
  6
CONTINUOUS
 62
3
100
AcDbLine
 10
1071.198526115402
 20
510.0773818014461
 30
0.0000000000000000
 11
1071.798526115402
 21
509.4773818014461
 31
0.0000000000000000
  0
LINE
  5
464
100
AcDbEntity
  8
MAIN0
  6
CONTINUOUS
 62
3
100
AcDbLine
 10
1071.198526115402
 20
436.0773818014450
 30
0.0000000000000000
 11
1071.798526115402
 21
436.6773818014451
 31
0.0000000000000000
  0
LINE
  5
465
100
AcDbEntity
  8
MAIN0
  6
CONTINUOUS
 62
3
100
AcDbLine
 10
456.7985261154015
 20
570.0773818014454
 30
0.0000000000000000
 11
550.7985261154013
 21
570.0773818014454
 31
0.0000000000000000
  0
LINE
  5
466
100
AcDbEntity
  8
MAIN0
  6
CONTINUOUS
 62
3
100
AcDbLine
 10
645.7985261154013
 20
570.0773818014454
 30
0.0000000000000000
 11
731.7985261154015
 21
570.0773818014454
 31
0.0000000000000000
  0
LINE
  5
467
100
AcDbEntity
  8
MAIN0
  6
CONTINUOUS
 62
3
100
AcDbLine
 10
550.7985261154014
 20
570.0773818014455
 30
0.0000000000000000
 11
550.7985261154016
 21
510.0773818014455
 31
0.0000000000000000
  0
LINE
  5
468
100
AcDbEntity
  8
MAIN0
  6
CONTINUOUS
 62
3
100
AcDbLine
 10
645.7985261154013
 20
570.0773818014454
 30
0.0000000000000000
 11
645.7985261154015
 21
510.0773818014455
 31
0.0000000000000000
  0
LINE
  5
469
100
AcDbEntity
  8
MAIN0
  6
CONTINUOUS
 62
3
100
AcDbLine
 10
515.7985261154016
 20
502.0773818014196
 30
0.0000000000000000
 11
491.7985261154017
 21
502.0773818014157
 31
0.0000000000000000
  0
LINE
  5
46A
100
AcDbEntity
  8
MAIN0
  6
CONTINUOUS
 62
3
100
AcDbLine
 10
515.7985261154016
 20
501.0773818014196
 30
0.0000000000000000
 11
491.7985261154016
 21
501.0773818014157
 31
0.0000000000000000
  0
LINE
  5
46B
100
AcDbEntity
  8
MAIN0
  6
CENTER
 62
3
100
AcDbLine
 10
513.7985261152091
 20
540.0773818014455
 30
0.0000000000000000
 11
493.7985261152091
 21
540.0773818014455
 31
0.0000000000000000
  0
LINE
  5
46C
100
AcDbEntity
  8
MAIN0
  6
CENTER
 62
3
100
AcDbLine
 10
513.7985261152091
 20
560.0773818014457
 30
0.0000000000000000
 11
493.7985261152091
 21
560.0773818014457
 31
0.0000000000000000
  0
LINE
  5
46D
100
AcDbEntity
  8
MAIN0
  6
CENTER
 62
3
100
AcDbLine
 10
503.7985261152091
 20
530.0773818014455
 30
0.0000000000000000
 11
503.7985261152091
 21
570.0773818014457
 31
0.0000000000000000
  0
LINE
  5
46E
100
AcDbEntity
  8
MAIN0
  6
CONTINUOUS
 62
3
100
AcDbLine
 10
1059.798526115434
 20
438.0773818014455
 30
0.0000000000000000
 11
1059.798526115503
 21
510.0773818014458
 31
0.0000000000000000
  0
LINE
  5
46F
100
AcDbEntity
  8
MAIN0
  6
CONTINUOUS
 62
3
100
AcDbLine
 10
1061.798526115402
 20
436.0773818014453
 30
0.0000000000000000
 11
1061.798526115632
 21
510.0773818014462
 31
0.0000000000000000
  0
CIRCLE
  5
470
100
AcDbEntity
  8
MAIN0
  6
CONTINUOUS
 62
3
100
AcDbCircle
 10
540.7985261154017
 20
458.5773817988642
 30
0.0000000000000000
 40
5.000000000000000
  0
CIRCLE
  5
471
100
AcDbEntity
  8
MAIN0
  6
CONTINUOUS
 62
3
100
AcDbCircle
 10
540.7985261154017
 20
458.5773817988642
 30
0.0000000000000000
 40
4.250000000000000
  0
LINE
  5
472
100
AcDbEntity
  8
MAIN0
  6
CENTER
 62
3
100
AcDbLine
 10
540.7985261154017
 20
467.5773817988642
 30
0.0000000000000000
 11
540.7985261154017
 21
449.5773817988642
 31
0.0000000000000000
  0
LINE
  5
473
100
AcDbEntity
  8
MAIN0
  6
CENTER
 62
3
100
AcDbLine
 10
549.7985261154017
 20
458.5773817988642
 30
0.0000000000000000
 11
531.7985261154017
 21
458.5773817988642
 31
0.0000000000000000
  0
CIRCLE
  5
474
100
AcDbEntity
  8
MAIN0
  6
CONTINUOUS
 62
3
100
AcDbCircle
 10
910.7985261154020
 20
458.5773817988642
 30
0.0000000000000000
 40
5.000000000000000
  0
CIRCLE
  5
475
100
AcDbEntity
  8
MAIN0
  6
CONTINUOUS
 62
3
100
AcDbCircle
 10
910.7985261154020
 20
458.5773817988642
 30
0.0000000000000000
 40
4.250000000000000
  0
LINE
  5
476
100
AcDbEntity
  8
MAIN0
  6
CENTER
 62
3
100
AcDbLine
 10
910.7985261154020
 20
467.5773817988642
 30
0.0000000000000000
 11
910.7985261154020
 21
449.5773817988642
 31
0.0000000000000000
  0
LINE
  5
477
100
AcDbEntity
  8
MAIN0
  6
CENTER
 62
3
100
AcDbLine
 10
919.7985261154020
 20
458.5773817988642
 30
0.0000000000000000
 11
901.7985261154020
 21
458.5773817988642
 31
0.0000000000000000
  0
LINE
  5
478
100
AcDbEntity
  8
MAIN0
  6
CONTINUOUS
 62
3
100
AcDbLine
 10
873.7985261154007
 20
481.7773818014356
 30
0.0000000000000000
 11
933.7985261154007
 21
481.7773818014356
 31
0.0000000000000000
  0
LINE
  5
479
100
AcDbEntity
  8
MAIN0
  6
CONTINUOUS
 62
3
100
AcDbLine
 10
538.7985261154015
 20
510.0773818014454
 30
0.0000000000000000
 11
731.7985261154015
 21
510.0773818014455
 31
0.0000000000000000
  0
LINE
  5
47A
100
AcDbEntity
  8
MAIN0
  6
CONTINUOUS
 62
3
100
AcDbLine
 10
933.7985261154008
 20
483.7773818014356
 30
0.0000000000000000
 11
998.7985261154017
 21
483.7773818014356
 31
0.0000000000000000
  0
LINE
  5
47B
100
AcDbEntity
  8
MAIN0
  6
CONTINUOUS
 62
3
100
AcDbLine
 10
455.7985261154017
 20
431.0773818019114
 30
0.0000000000000000
 11
836.6750706389847
 21
431.0773818019114
 31
0.0000000000000000
  0
LINE
  5
47C
100
AcDbEntity
  8
MAIN0
  6
CONTINUOUS
 62
3
100
AcDbLine
 10
861.4968202410986
 20
431.0773818019114
 30
0.0000000000000000
 11
995.7985261154020
 21
431.0773818019114
 31
0.0000000000000000
  0
LINE
  5
47D
100
AcDbEntity
  8
MAIN0
  6
CENTER
 62
3
100
AcDbLine
 10
632.7985261152526
 20
397.0773818014454
 30
0.0000000000000000
 11
632.7985261152255
 21
423.0773818014454
 31
0.0000000000000000
  0
LINE
  5
47E
100
AcDbEntity
  8
MAIN0
  6
CONTINUOUS
 62
3
100
AcDbLine
 10
455.7985261154014
 20
486.0773818019108
 30
0.0000000000000000
 11
731.7985261154015
 21
486.0773818019110
 31
0.0000000000000000
  0
LINE
  5
47F
100
AcDbEntity
  8
MAIN0
  6
CONTINUOUS
 62
3
100
AcDbLine
 10
1040.798526115402
 20
462.9548352959565
 30
0.0000000000000000
 11
1040.798526115401
 21
510.0773818014457
 31
0.0000000000000000
  0
LINE
  5
480
100
AcDbEntity
  8
MAIN0
  6
CONTINUOUS
 62
3
100
AcDbLine
 10
1040.798526115402
 20
494.0773818014449
 30
0.0000000000000000
 11
998.7985261154015
 21
494.0773818014446
 31
0.0000000000000000
  0
LINE
  5
481
100
AcDbEntity
  8
MAIN0
  6
CONTINUOUS
 62
3
100
AcDbLine
 10
1040.798526115402
 20
482.5773818014448
 30
0.0000000000000000
 11
995.7985261154015
 21
482.5773818014445
 31
0.0000000000000000
  0
LINE
  5
482
100
AcDbEntity
  8
MAIN0
  6
CONTINUOUS
 62
3
100
AcDbLine
 10
1038.798526115672
 20
475.8079936854552
 30
0.0000000000000000
 11
1022.798526115382
 21
475.8079936854551
 31
0.0000000000000000
  0
LINE
  5
483
100
AcDbEntity
  8
MAIN0
  6
CONTINUOUS
 62
3
100
AcDbLine
 10
998.7985261154015
 20
486.0773818014461
 30
0.0000000000000000
 11
1040.798526115402
 21
486.0773818014461
 31
0.0000000000000000
  0
LINE
  5
484
100
AcDbEntity
  8
MAIN0
  6
CONTINUOUS
 62
3
100
AcDbLine
 10
1018.798526115382
 20
478.5773818014447
 30
0.0000000000000000
 11
995.7985261154015
 21
478.5773818014446
 31
0.0000000000000000
  0
LINE
  5
485
100
AcDbEntity
  8
MAIN0
  6
CONTINUOUS
 62
3
100
AcDbLine
 10
1020.798526115402
 20
438.0773818014456
 30
0.0000000000000000
 11
1020.798526115402
 21
480.5773818014446
 31
0.0000000000000000
  0
LINE
  5
486
100
AcDbEntity
  8
MAIN0
  6
CONTINUOUS
 62
3
100
AcDbLine
 10
1018.798526115402
 20
452.2793555710526
 30
0.0000000000000000
 11
995.7985261154020
 21
452.2793555710480
 31
0.0000000000000000
  0
ARC
  5
487
100
AcDbEntity
  8
MAIN0
  6
CONTINUOUS
 62
3
100
AcDbCircle
 10
1015.798526115402
 20
438.0773818014457
 30
0.0000000000000000
 40
5.000000000000000
100
AcDbArc
 50
270.0000000000003
 51
360.0000000000004
  0
ARC
  5
488
100
AcDbEntity
  8
MAIN0
  6
CONTINUOUS
 62
3
100
AcDbCircle
 10
1017.446879571069
 20
438.0773818014457
 30
0.0000000000000000
 40
5.000000000000000
100
AcDbArc
 50
270.0000000000003
 51
326.6329870316860
  0
ARC
  5
489
100
AcDbEntity
  8
MAIN0
  6
CONTINUOUS
 62
3
100
AcDbCircle
 10
1025.798526115402
 20
432.5773818015794
 30
0.0000000000000000
 40
5.000000000000000
100
AcDbArc
 50
90.00000000000037
 51
146.6329870316858
  0
LINE
  5
48A
100
AcDbEntity
  8
MAIN0
  6
CONTINUOUS
 62
3
100
AcDbLine
 10
1046.198526115402
 20
437.5773818015657
 30
0.0000000000000000
 11
1025.798526115405
 21
437.5773818015793
 31
0.0000000000000000
  0
CIRCLE
  5
48B
100
AcDbEntity
  8
MAIN0
  6
CONTINUOUS
 62
3
100
AcDbCircle
 10
1509.283587248662
 20
475.0773818014455
 30
0.0000000000000000
 40
4.250000000000000
  0
LINE
  5
48C
100
AcDbEntity
  8
MAIN0
  6
CENTER
 62
3
100
AcDbLine
 10
1509.283587248662
 20
481.0503185156853
 30
0.0000000000000000
 11
1509.283587248662
 21
468.8158537927963
 31
0.0000000000000000
  0
LINE
  5
48D
100
AcDbEntity
  8
MAIN0
  6
CONTINUOUS
 62
3
100
AcDbLine
 10
1507.283587248663
 20
476.2320823398250
 30
0.0000000000000000
 11
1509.283587248663
 21
477.3867828782043
 31
0.0000000000000000
  0
LINE
  5
48E
100
AcDbEntity
  8
MAIN0
  6
CONTINUOUS
 62
3
100
AcDbLine
 10
1509.283587248662
 20
477.3867828782041
 30
0.0000000000000000
 11
1511.283587248662
 21
476.2320823398248
 31
0.0000000000000000
  0
LINE
  5
48F
100
AcDbEntity
  8
MAIN0
  6
CONTINUOUS
 62
3
100
AcDbLine
 10
1511.283587248662
 20
476.2320823398246
 30
0.0000000000000000
 11
1511.283587248662
 21
473.9226812630662
 31
0.0000000000000000
  0
LINE
  5
490
100
AcDbEntity
  8
MAIN0
  6
CONTINUOUS
 62
3
100
AcDbLine
 10
1511.283587248663
 20
473.9226812630665
 30
0.0000000000000000
 11
1509.283587248663
 21
472.7679807246872
 31
0.0000000000000000
  0
LINE
  5
491
100
AcDbEntity
  8
MAIN0
  6
CONTINUOUS
 62
3
100
AcDbLine
 10
1509.283587248662
 20
472.7679807246871
 30
0.0000000000000000
 11
1507.283587248662
 21
473.9226812630664
 31
0.0000000000000000
  0
LINE
  5
492
100
AcDbEntity
  8
MAIN0
  6
CONTINUOUS
 62
3
100
AcDbLine
 10
1507.283587248662
 20
473.9226812630662
 30
0.0000000000000000
 11
1507.283587248662
 21
476.2320823398246
 31
0.0000000000000000
  0
LINE
  5
493
100
AcDbEntity
  8
MAIN0
  6
CONTINUOUS
 62
3
100
AcDbLine
 10
1483.283587248662
 20
471.0359299171039
 30
0.0000000000000000
 11
1483.283587248662
 21
479.1188336857658
 31
0.0000000000000000
  0
LINE
  5
494
100
AcDbEntity
  8
MAIN0
  6
CONTINUOUS
 62
3
100
AcDbLine
 10
1483.283587248663
 20
479.1188336857657
 30
0.0000000000000000
 11
1476.283587248663
 21
483.1602855701069
 31
0.0000000000000000
  0
LINE
  5
495
100
AcDbEntity
  8
MAIN0
  6
CONTINUOUS
 62
3
100
AcDbLine
 10
1483.283587248661
 20
471.0359299171040
 30
0.0000000000000000
 11
1476.283587248661
 21
466.9944780327833
 31
0.0000000000000000
  0
ARC
  5
496
100
AcDbEntity
  8
MAIN0
  6
CONTINUOUS
 62
3
100
AcDbCircle
 10
1476.283587248662
 20
475.0773818014453
 30
0.0000000000000000
 40
14.00000000000000
100
AcDbArc
 50
270.0000000000000
 51
450.0000000000000
  0
ARC
  5
497
100
AcDbEntity
  8
MAIN0
  6
CONTINUOUS
 62
3
100
AcDbCircle
 10
1476.283587248662
 20
475.0773818014453
 30
0.0000000000000000
 40
24.75000000000000
100
AcDbArc
 50
270.0000000000000
 51
450.0000000000000
  0
ARC
  5
498
100
AcDbEntity
  8
MAIN0
  6
CONTINUOUS
 62
3
100
AcDbCircle
 10
1476.283587248662
 20
475.0773818014453
 30
0.0000000000000000
 40
28.00000000000000
100
AcDbArc
 50
270.0000000000000
 51
450.0000000000000
  0
CIRCLE
  5
499
100
AcDbEntity
  8
MAIN0
  6
CONTINUOUS
 62
3
100
AcDbCircle
 10
1443.283587248662
 20
475.0773818014455
 30
0.0000000000000000
 40
4.250000000000000
  0
LINE
  5
49A
100
AcDbEntity
  8
MAIN0
  6
CENTER
 62
3
100
AcDbLine
 10
1443.283587248662
 20
481.0503185156853
 30
0.0000000000000000
 11
1443.283587248662
 21
468.8158537927965
 31
0.0000000000000000
  0
LINE
  5
49B
100
AcDbEntity
  8
MAIN0
  6
CONTINUOUS
 62
3
100
AcDbLine
 10
1445.283587248662
 20
476.2320823398243
 30
0.0000000000000000
 11
1443.283587248662
 21
477.3867828782036
 31
0.0000000000000000
  0
LINE
  5
49C
100
AcDbEntity
  8
MAIN0
  6
CONTINUOUS
 62
3
100
AcDbLine
 10
1443.283587248661
 20
477.3867828782042
 30
0.0000000000000000
 11
1441.283587248661
 21
476.2320823398248
 31
0.0000000000000000
  0
LINE
  5
49D
100
AcDbEntity
  8
MAIN0
  6
CONTINUOUS
 62
3
100
AcDbLine
 10
1441.283587248662
 20
476.2320823398248
 30
0.0000000000000000
 11
1441.283587248662
 21
473.9226812630662
 31
0.0000000000000000
  0
LINE
  5
49E
100
AcDbEntity
  8
MAIN0
  6
CONTINUOUS
 62
3
100
AcDbLine
 10
1441.283587248662
 20
473.9226812630659
 30
0.0000000000000000
 11
1443.283587248662
 21
472.7679807246866
 31
0.0000000000000000
  0
LINE
  5
49F
100
AcDbEntity
  8
MAIN0
  6
CONTINUOUS
 62
3
100
AcDbLine
 10
1443.283587248661
 20
472.7679807246871
 30
0.0000000000000000
 11
1445.283587248661
 21
473.9226812630665
 31
0.0000000000000000
  0
LINE
  5
4A0
100
AcDbEntity
  8
MAIN0
  6
CONTINUOUS
 62
3
100
AcDbLine
 10
1445.283587248662
 20
473.9226812630662
 30
0.0000000000000000
 11
1445.283587248662
 21
476.2320823398248
 31
0.0000000000000000
  0
LINE
  5
4A1
100
AcDbEntity
  8
MAIN0
  6
CONTINUOUS
 62
3
100
AcDbLine
 10
1469.283587248662
 20
471.0359299171039
 30
0.0000000000000000
 11
1469.283587248662
 21
479.1188336857658
 31
0.0000000000000000
  0
LINE
  5
4A2
100
AcDbEntity
  8
MAIN0
  6
CONTINUOUS
 62
3
100
AcDbLine
 10
1469.283587248662
 20
479.1188336857659
 30
0.0000000000000000
 11
1476.283587248662
 21
483.1602855701072
 31
0.0000000000000000
  0
LINE
  5
4A3
100
AcDbEntity
  8
MAIN0
  6
CONTINUOUS
 62
3
100
AcDbLine
 10
1469.283587248662
 20
471.0359299171046
 30
0.0000000000000000
 11
1476.283587248662
 21
466.9944780327841
 31
0.0000000000000000
  0
ARC
  5
4A4
100
AcDbEntity
  8
MAIN0
  6
CONTINUOUS
 62
3
100
AcDbCircle
 10
1476.283587248662
 20
475.0773818014453
 30
0.0000000000000000
 40
14.00000000000000
100
AcDbArc
 50
90.00000000000000
 51
270.0000000000000
  0
ARC
  5
4A5
100
AcDbEntity
  8
MAIN0
  6
CONTINUOUS
 62
3
100
AcDbCircle
 10
1476.283587248662
 20
475.0773818014453
 30
0.0000000000000000
 40
24.75000000000000
100
AcDbArc
 50
90.00000000000000
 51
270.0000000000000
  0
ARC
  5
4A6
100
AcDbEntity
  8
MAIN0
  6
CONTINUOUS
 62
3
100
AcDbCircle
 10
1476.283587248662
 20
475.0773818014453
 30
0.0000000000000000
 40
28.00000000000000
100
AcDbArc
 50
90.00000000000000
 51
270.0000000000000
  0
LINE
  5
4A7
100
AcDbEntity
  8
MAIN0
  6
CONTINUOUS
 62
3
100
AcDbLine
 10
1473.283587248661
 20
461.4025874702681
 30
0.0000000000000000
 11
1473.283587248661
 21
450.5098727702065
 31
0.0000000000000000
  0
LINE
  5
4A8
100
AcDbEntity
  8
MAIN0
  6
CONTINUOUS
 62
3
100
AcDbLine
 10
1479.283587248661
 20
461.4025874702680
 30
0.0000000000000000
 11
1479.283587248661
 21
450.5098727702065
 31
0.0000000000000000
  0
LINE
  5
4A9
100
AcDbEntity
  8
MAIN0
  6
CONTINUOUS
 62
3
100
AcDbLine
 10
1396.283587248774
 20
570.0773818019114
 30
0.0000000000000000
 11
1556.283587248774
 21
570.0773818019115
 31
0.0000000000000000
  0
LINE
  5
4AA
100
AcDbEntity
  8
MAIN0
  6
CONTINUOUS
 62
3
100
AcDbLine
 10
1396.283587248775
 20
570.0773818019115
 30
0.0000000000000000
 11
1396.283587248775
 21
541.2773818014457
 31
0.0000000000000000
  0
LINE
  5
4AB
100
AcDbEntity
  8
MAIN0
  6
CONTINUOUS
 62
3
100
AcDbLine
 10
1556.283587248775
 20
570.0773818019115
 30
0.0000000000000000
 11
1556.283587248775
 21
541.2773818014457
 31
0.0000000000000000
  0
LINE
  5
4AC
100
AcDbEntity
  8
MAIN0
  6
CONTINUOUS
 62
3
100
AcDbLine
 10
1421.283587248774
 20
405.0773818019115
 30
0.0000000000000000
 11
1396.283587248774
 21
405.0773818019114
 31
0.0000000000000000
  0
LINE
  5
4AD
100
AcDbEntity
  8
MAIN0
  6
CONTINUOUS
 62
3
100
AcDbLine
 10
1556.283587248774
 20
405.0773818019117
 30
0.0000000000000000
 11
1531.283587248774
 21
405.0773818019116
 31
0.0000000000000000
  0
LINE
  5
4AE
100
AcDbEntity
  8
MAIN0
  6
CONTINUOUS
 62
3
100
AcDbLine
 10
1556.283587248775
 20
405.0773818019114
 30
0.0000000000000000
 11
1556.283587248775
 21
410.0773818019114
 31
0.0000000000000000
  0
LINE
  5
4AF
100
AcDbEntity
  8
MAIN0
  6
CONTINUOUS
 62
3
100
AcDbLine
 10
1531.283587248775
 20
405.0773818019114
 30
0.0000000000000000
 11
1531.283587248775
 21
410.0773818019114
 31
0.0000000000000000
  0
LINE
  5
4B0
100
AcDbEntity
  8
MAIN0
  6
CONTINUOUS
 62
3
100
AcDbLine
 10
1421.283587248775
 20
405.0773818019114
 30
0.0000000000000000
 11
1421.283587248775
 21
410.0773818019112
 31
0.0000000000000000
  0
LINE
  5
4B1
100
AcDbEntity
  8
MAIN0
  6
CONTINUOUS
 62
3
100
AcDbLine
 10
1396.283587248775
 20
405.0773818019113
 30
0.0000000000000000
 11
1396.283587248775
 21
410.0773818019113
 31
0.0000000000000000
  0
LINE
  5
4B2
100
AcDbEntity
  8
MAIN0
  6
CONTINUOUS
 62
3
100
AcDbLine
 10
1485.283587248774
 20
415.0773818019114
 30
0.0000000000000000
 11
1467.283587248774
 21
415.0773818019114
 31
0.0000000000000000
  0
LINE
  5
4B3
100
AcDbEntity
  8
MAIN0
  6
CONTINUOUS
 62
3
100
AcDbLine
 10
1485.283587248775
 20
410.0773818019114
 30
0.0000000000000000
 11
1485.283587248775
 21
415.0773818019114
 31
0.0000000000000000
  0
LINE
  5
4B4
100
AcDbEntity
  8
MAIN0
  6
CONTINUOUS
 62
3
100
AcDbLine
 10
1467.283587248775
 20
410.0773818019114
 30
0.0000000000000000
 11
1467.283587248775
 21
415.0773818019114
 31
0.0000000000000000
  0
LINE
  5
4B5
100
AcDbEntity
  8
MAIN0
  6
CONTINUOUS
 62
3
100
AcDbLine
 10
1550.783587248775
 20
486.0773818019114
 30
0.0000000000000000
 11
1550.783587248775
 21
431.0773818019114
 31
0.0000000000000000
  0
LINE
  5
4B6
100
AcDbEntity
  8
MAIN0
  6
CONTINUOUS
 62
3
100
AcDbLine
 10
1401.783587248775
 20
486.0773818019114
 30
0.0000000000000000
 11
1401.783587248775
 21
431.0773818019114
 31
0.0000000000000000
  0
LINE
  5
4B7
100
AcDbEntity
  8
MAIN0
  6
CONTINUOUS
 62
3
100
AcDbLine
 10
1395.783587248775
 20
486.0773818019113
 30
0.0000000000000000
 11
1401.783587248774
 21
486.0773818019113
 31
0.0000000000000000
  0
LINE
  5
4B8
100
AcDbEntity
  8
MAIN0
  6
CONTINUOUS
 62
3
100
AcDbLine
 10
1550.783587248775
 20
486.0773818019114
 30
0.0000000000000000
 11
1556.783587248775
 21
486.0773818019114
 31
0.0000000000000000
  0
LINE
  5
4B9
100
AcDbEntity
  8
MAIN0
  6
CONTINUOUS
 62
3
100
AcDbLine
 10
1550.783587248775
 20
431.0773818019115
 30
0.0000000000000000
 11
1556.783587248775
 21
431.0773818019115
 31
0.0000000000000000
  0
LINE
  5
4BA
100
AcDbEntity
  8
MAIN0
  6
CONTINUOUS
 62
3
100
AcDbLine
 10
1556.783587248775
 20
410.0773818019114
 30
0.0000000000000000
 11
1556.783587248775
 21
431.0773818019114
 31
0.0000000000000000
  0
LINE
  5
4BB
100
AcDbEntity
  8
MAIN0
  6
CONTINUOUS
 62
3
100
AcDbLine
 10
1395.783587248775
 20
410.0773818019114
 30
0.0000000000000000
 11
1395.783587248775
 21
431.0773818019114
 31
0.0000000000000000
  0
LINE
  5
4BC
100
AcDbEntity
  8
MAIN0
  6
CONTINUOUS
 62
3
100
AcDbLine
 10
1401.552302912810
 20
510.0773818019112
 30
0.0000000000000000
 11
1402.783587248775
 21
510.0773818019112
 31
0.0000000000000000
  0
LINE
  5
4BD
100
AcDbEntity
  8
MAIN0
  6
CONTINUOUS
 62
3
100
AcDbLine
 10
1551.014871584514
 20
510.0773818019114
 30
0.0000000000000000
 11
1549.783587248549
 21
510.0773818019114
 31
0.0000000000000000
  0
LINE
  5
4BE
100
AcDbEntity
  8
MAIN0
  6
CONTINUOUS
 62
3
100
AcDbLine
 10
1552.783587248662
 20
484.9773818014454
 30
0.0000000000000000
 11
1552.783587248662
 21
483.7773818014454
 31
0.0000000000000000
  0
LINE
  5
4BF
100
AcDbEntity
  8
MAIN0
  6
CONTINUOUS
 62
3
100
AcDbLine
 10
1399.783587248661
 20
484.9773818014454
 30
0.0000000000000000
 11
1399.783587248661
 21
483.7773818014455
 31
0.0000000000000000
  0
LINE
  5
4C0
100
AcDbEntity
  8
MAIN0
  6
CONTINUOUS
 62
3
100
AcDbLine
 10
1395.483587248662
 20
510.0773818014453
 30
0.0000000000000000
 11
1395.483587248662
 21
485.3773818014455
 31
0.0000000000000000
  0
LINE
  5
4C1
100
AcDbEntity
  8
MAIN0
  6
CONTINUOUS
 62
3
100
AcDbLine
 10
1557.083587248662
 20
510.0773818014455
 30
0.0000000000000000
 11
1557.083587248662
 21
485.3773818014455
 31
0.0000000000000000
  0
LINE
  5
4C2
100
AcDbEntity
  8
MAIN0
  6
CONTINUOUS
 62
3
100
AcDbLine
 10
1395.883587181540
 20
484.9773818014454
 30
0.0000000000000000
 11
1399.783587248662
 21
484.9773818014454
 31
0.0000000000000000
  0
LINE
  5
4C3
100
AcDbEntity
  8
MAIN0
  6
CONTINUOUS
 62
3
100
AcDbLine
 10
1552.783587248662
 20
484.9773818014454
 30
0.0000000000000000
 11
1556.683587083897
 21
484.9773818014454
 31
0.0000000000000000
  0
LINE
  5
4C4
100
AcDbEntity
  8
MAIN0
  6
CONTINUOUS
 62
3
100
AcDbLine
 10
1552.783587248662
 20
483.7773818014454
 30
0.0000000000000000
 11
1556.883586930423
 21
483.7773818014454
 31
0.0000000000000000
  0
LINE
  5
4C5
100
AcDbEntity
  8
MAIN0
  6
CONTINUOUS
 62
3
100
AcDbLine
 10
1401.552302912338
 20
510.0773818014453
 30
0.0000000000000000
 11
1551.014871584986
 21
510.0773818014453
 31
0.0000000000000000
  0
ARC
  5
4C6
100
AcDbEntity
  8
MAIN0
  6
CONTINUOUS
 62
3
100
AcDbCircle
 10
1556.683587248662
 20
485.3773818014455
 30
0.0000000000000000
 40
0.4000000000000000
100
AcDbArc
 50
270.0000000005678
 51
359.9999999999934
  0
ARC
  5
4C7
100
AcDbEntity
  8
MAIN0
  6
CONTINUOUS
 62
3
100
AcDbCircle
 10
1556.883587248662
 20
485.1773818014455
 30
0.0000000000000000
 40
1.400000000000000
100
AcDbArc
 50
270.0000000005678
 51
359.9999999999934
  0
ARC
  5
4C8
100
AcDbEntity
  8
MAIN0
  6
CONTINUOUS
 62
3
100
AcDbCircle
 10
1556.883587248662
 20
509.8773818014455
 30
0.0000000000000000
 40
1.400000000000000
100
AcDbArc
 50
0.0000000000000000
 51
89.99999999999885
  0
ARC
  5
4C9
100
AcDbEntity
  8
MAIN0
  6
CONTINUOUS
 62
3
100
AcDbCircle
 10
1395.683587248662
 20
509.8773818014455
 30
0.0000000000000000
 40
1.400000000000000
100
AcDbArc
 50
89.99999999999696
 51
179.9999999999964
  0
ARC
  5
4CA
100
AcDbEntity
  8
MAIN0
  6
CONTINUOUS
 62
3
100
AcDbCircle
 10
1395.683587248662
 20
485.1773818014455
 30
0.0000000000000000
 40
1.400000000000000
100
AcDbArc
 50
179.9999999999964
 51
269.9999999999963
  0
ARC
  5
4CB
100
AcDbEntity
  8
MAIN0
  6
CONTINUOUS
 62
3
100
AcDbCircle
 10
1395.883587248662
 20
485.3773818014455
 30
0.0000000000000000
 40
0.4000000000000000
100
AcDbArc
 50
179.9999999999964
 51
270.0000000005678
  0
LINE
  5
4CC
100
AcDbEntity
  8
MAIN0
  6
CONTINUOUS
 62
3
100
AcDbLine
 10
1558.283587248662
 20
509.8773818014455
 30
0.0000000000000000
 11
1558.283587248662
 21
485.1773818014455
 31
0.0000000000000000
  0
LINE
  5
4CD
100
AcDbEntity
  8
MAIN0
  6
CONTINUOUS
 62
3
100
AcDbLine
 10
1394.283587248661
 20
509.8773818014455
 30
0.0000000000000000
 11
1394.283587248661
 21
485.1773818014455
 31
0.0000000000000000
  0
LINE
  5
4CE
100
AcDbEntity
  8
MAIN0
  6
CONTINUOUS
 62
3
100
AcDbLine
 10
1392.483587248662
 20
521.2774224475005
 30
0.0000000000000000
 11
1560.083587248662
 21
521.2774224475005
 31
0.0000000000000000
  0
LINE
  5
4CF
100
AcDbEntity
  8
MAIN0
  6
CONTINUOUS
 62
3
100
AcDbLine
 10
1395.683587248662
 20
483.7773818014454
 30
0.0000000000000000
 11
1399.783587248662
 21
483.7773818014454
 31
0.0000000000000000
  0
LINE
  5
4D0
100
AcDbEntity
  8
MAIN0
  6
CONTINUOUS
 62
3
100
AcDbLine
 10
1557.083587248662
 20
510.0773818014453
 30
0.0000000000000000
 11
1476.283587248662
 21
510.0773818014453
 31
0.0000000000000000
  0
LINE
  5
4D1
100
AcDbEntity
  8
MAIN0
  6
CONTINUOUS
 62
3
100
AcDbLine
 10
1395.783587248722
 20
494.0773818014333
 30
0.0000000000000000
 11
1411.783587248606
 21
510.0773818014455
 31
0.0000000000000000
  0
LINE
  5
4D2
100
AcDbEntity
  8
MAIN0
  6
CENTER
 62
3
100
AcDbLine
 10
1476.283587248662
 20
577.7257207239125
 30
0.0000000000000000
 11
1476.283587248662
 21
395.0940213763402
 31
0.0000000000000000
  0
LINE
  5
4D3
100
AcDbEntity
  8
MAIN0
  6
CONTINUOUS
 62
3
100
AcDbLine
 10
1395.460081327159
 20
510.0773818014457
 30
0.0000000000000000
 11
1476.283587248662
 21
510.0773818014458
 31
0.0000000000000000
  0
LINE
  5
4D4
100
AcDbEntity
  8
MAIN0
  6
CENTER
 62
3
100
AcDbLine
 10
1399.992796484796
 20
475.0773818014453
 30
0.0000000000000000
 11
1552.682865431992
 21
475.0773818014453
 31
0.0000000000000000
  0
LINE
  5
4D5
100
AcDbEntity
  8
MAIN0
  6
CONTINUOUS
 62
3
100
AcDbLine
 10
1552.783587248662
 20
482.9773818014454
 30
0.0000000000000000
 11
1552.783587248662
 21
481.7773818014454
 31
0.0000000000000000
  0
LINE
  5
4D6
100
AcDbEntity
  8
MAIN0
  6
CONTINUOUS
 62
3
100
AcDbLine
 10
1399.783587248662
 20
482.9773818014454
 30
0.0000000000000000
 11
1399.783587248662
 21
481.7773818014454
 31
0.0000000000000000
  0
LINE
  5
4D7
100
AcDbEntity
  8
MAIN0
  6
CONTINUOUS
 62
3
100
AcDbLine
 10
1559.783587248662
 20
519.8773818014455
 30
0.0000000000000000
 11
1559.783587248662
 21
483.7773818014454
 31
0.0000000000000000
  0
LINE
  5
4D8
100
AcDbEntity
  8
MAIN0
  6
CONTINUOUS
 62
3
100
AcDbLine
 10
1558.583587248662
 20
511.2773818014456
 30
0.0000000000000000
 11
1558.583587248662
 21
483.9773818014454
 31
0.0000000000000000
  0
LINE
  5
4D9
100
AcDbEntity
  8
MAIN0
  6
CONTINUOUS
 62
3
100
AcDbLine
 10
1392.783587248662
 20
519.8773818014455
 30
0.0000000000000000
 11
1392.783587248662
 21
483.7773818014454
 31
0.0000000000000000
  0
LINE
  5
4DA
100
AcDbEntity
  8
MAIN0
  6
CONTINUOUS
 62
3
100
AcDbLine
 10
1393.983587248662
 20
511.2773818014456
 30
0.0000000000000000
 11
1393.983587248662
 21
483.9773818014454
 31
0.0000000000000000
  0
LINE
  5
4DB
100
AcDbEntity
  8
MAIN0
  6
CONTINUOUS
 62
3
100
AcDbLine
 10
1394.983587247074
 20
482.9773818014454
 30
0.0000000000000000
 11
1399.783587248662
 21
482.9773818014454
 31
0.0000000000000000
  0
LINE
  5
4DC
100
AcDbEntity
  8
MAIN0
  6
CONTINUOUS
 62
3
100
AcDbLine
 10
1552.783587248662
 20
482.9773818014454
 30
0.0000000000000000
 11
1557.583587200806
 21
482.9773818014454
 31
0.0000000000000000
  0
LINE
  5
4DD
100
AcDbEntity
  8
MAIN0
  6
CONTINUOUS
 62
3
100
AcDbLine
 10
1394.783587244935
 20
481.7773818014454
 30
0.0000000000000000
 11
1399.783587248662
 21
481.7773818014454
 31
0.0000000000000000
  0
LINE
  5
4DE
100
AcDbEntity
  8
MAIN0
  6
CONTINUOUS
 62
3
100
AcDbLine
 10
1552.783587248662
 20
481.7773818014454
 30
0.0000000000000000
 11
1557.783587207844
 21
481.7773818014454
 31
0.0000000000000000
  0
ARC
  5
4DF
100
AcDbEntity
  8
MAIN0
  6
CONTINUOUS
 62
3
100
AcDbCircle
 10
1557.783587248662
 20
483.7773818014454
 30
0.0000000000000000
 40
2.000000000000000
100
AcDbArc
 50
270.0000000005678
 51
359.9999999999934
  0
ARC
  5
4E0
100
AcDbEntity
  8
MAIN0
  6
CONTINUOUS
 62
3
100
AcDbCircle
 10
1557.583587248662
 20
483.9773818014454
 30
0.0000000000000000
 40
1.000000000000000
100
AcDbArc
 50
270.0000000005678
 51
359.9999999999934
  0
ARC
  5
4E1
100
AcDbEntity
  8
MAIN0
  6
CONTINUOUS
 62
3
100
AcDbCircle
 10
1394.983587248662
 20
483.9773818014454
 30
0.0000000000000000
 40
1.000000000000000
100
AcDbArc
 50
179.9999999999964
 51
270.0000000005678
  0
ARC
  5
4E2
100
AcDbEntity
  8
MAIN0
  6
CONTINUOUS
 62
3
100
AcDbCircle
 10
1394.783587248662
 20
483.7773818014454
 30
0.0000000000000000
 40
2.000000000000000
100
AcDbArc
 50
179.9999999999964
 51
270.0000000005678
  0
ARC
  5
4E3
100
AcDbEntity
  8
MAIN0
  6
CONTINUOUS
 62
3
100
AcDbCircle
 10
1558.383587248662
 20
519.8773818014455
 30
0.0000000000000000
 40
1.400000000000000
100
AcDbArc
 50
0.0000000000000000
 51
81.78678929826229
  0
ARC
  5
4E4
100
AcDbEntity
  8
MAIN0
  6
CONTINUOUS
 62
3
100
AcDbCircle
 10
1394.183587248662
 20
519.8773818014455
 30
0.0000000000000000
 40
1.400000000000000
100
AcDbArc
 50
98.21321070173528
 51
179.9999999999964
  0
LINE
  5
4E5
100
AcDbEntity
  8
MAIN0
  6
CONTINUOUS
 62
3
100
AcDbLine
 10
1560.083587248662
 20
521.2774224475005
 30
0.0000000000000000
 11
1560.083587248662
 21
481.9773818014456
 31
0.0000000000000000
  0
LINE
  5
4E6
100
AcDbEntity
  8
MAIN0
  6
CONTINUOUS
 62
3
100
AcDbLine
 10
1392.483587248662
 20
521.2774224475005
 30
0.0000000000000000
 11
1392.483587248662
 21
481.9773818014447
 31
0.0000000000000000
  0
LINE
  5
4E7
100
AcDbEntity
  8
MAIN0
  6
CONTINUOUS
 62
3
100
AcDbLine
 10
1390.983587248661
 20
531.2773818014456
 30
0.0000000000000000
 11
1561.583587248662
 21
531.2773818014456
 31
0.0000000000000000
  0
LINE
  5
4E8
100
AcDbEntity
  8
MAIN0
  6
CONTINUOUS
 62
3
100
AcDbLine
 10
1561.283587248662
 20
481.7773818014456
 30
0.0000000000000000
 11
1561.283587248662
 21
530.2773816184994
 31
0.0000000000000000
  0
LINE
  5
4E9
100
AcDbEntity
  8
MAIN0
  6
CONTINUOUS
 62
3
100
AcDbLine
 10
1391.283587248662
 20
530.2773818014456
 30
0.0000000000000000
 11
1391.283587248662
 21
481.7773818014456
 31
0.0000000000000000
  0
ARC
  5
4EA
100
AcDbEntity
  8
MAIN0
  6
CONTINUOUS
 62
3
100
AcDbCircle
 10
1560.283587248662
 20
530.2773818014456
 30
0.0000000000000000
 40
1.000000000000000
100
AcDbArc
 50
0.0000000000000000
 51
89.99999999999720
  0
ARC
  5
4EB
100
AcDbEntity
  8
MAIN0
  6
CONTINUOUS
 62
3
100
AcDbCircle
 10
1392.283587248662
 20
530.2773818014456
 30
0.0000000000000000
 40
1.000000000000000
100
AcDbArc
 50
89.99999999942553
 51
179.9999999999964
  0
LINE
  5
4EC
100
AcDbEntity
  8
MAIN0
  6
CONTINUOUS
 62
3
100
AcDbLine
 10
1395.683587248662
 20
511.2773818014456
 30
0.0000000000000000
 11
1436.783587248662
 21
511.2773818014456
 31
0.0000000000000000
  0
LINE
  5
4ED
100
AcDbEntity
  8
MAIN0
  6
CONTINUOUS
 62
3
100
AcDbLine
 10
1515.783587248662
 20
511.2773818014456
 30
0.0000000000000000
 11
1558.283587248662
 21
511.2773818014456
 31
0.0000000000000000
  0
CIRCLE
  5
4EE
100
AcDbEntity
  8
MAIN0
  6
CONTINUOUS
 62
3
100
AcDbCircle
 10
1533.533587248659
 20
498.2773818014456
 30
0.0000000000000000
 40
9.500000000000000
  0
LINE
  5
4EF
100
AcDbEntity
  8
MAIN0
  6
CENTER
 62
3
100
AcDbLine
 10
1520.033587248659
 20
498.2773818014460
 30
0.0000000000000000
 11
1547.033587248659
 21
498.2773818014460
 31
0.0000000000000000
  0
LINE
  5
4F0
100
AcDbEntity
  8
MAIN0
  6
CENTER
 62
3
100
AcDbLine
 10
1533.533587248659
 20
511.7773818014460
 30
0.0000000000000000
 11
1533.533587248659
 21
484.7773818014460
 31
0.0000000000000000
  0
LINE
  5
4F1
100
AcDbEntity
  8
MAIN0
  6
CENTER
 62
3
100
AcDbLine
 10
1432.533587248662
 20
498.2773818014456
 30
0.0000000000000000
 11
1405.533587248662
 21
498.2773818014456
 31
0.0000000000000000
  0
LINE
  5
4F2
100
AcDbEntity
  8
MAIN0
  6
CENTER
 62
3
100
AcDbLine
 10
1419.033587248662
 20
511.7773818014456
 30
0.0000000000000000
 11
1419.033587248662
 21
484.7773818014456
 31
0.0000000000000000
  0
CIRCLE
  5
4F3
100
AcDbEntity
  8
MAIN0
  6
CONTINUOUS
 62
3
100
AcDbCircle
 10
1533.533587248659
 20
498.2773818014456
 30
0.0000000000000000
 40
9.000000000000000
  0
LINE
  5
4F4
100
AcDbEntity
  8
MAIN0
  6
CONTINUOUS
 62
3
100
AcDbLine
 10
1533.533587248658
 20
504.0508844933415
 30
0.0000000000000000
 11
1528.533587248658
 21
501.1641331473933
 31
0.0000000000000000
  0
LINE
  5
4F5
100
AcDbEntity
  8
MAIN0
  6
CONTINUOUS
 62
3
100
AcDbLine
 10
1528.533587248659
 20
501.1641331473937
 30
0.0000000000000000
 11
1528.533587248659
 21
495.3906304554974
 31
0.0000000000000000
  0
LINE
  5
4F6
100
AcDbEntity
  8
MAIN0
  6
CONTINUOUS
 62
3
100
AcDbLine
 10
1528.533587248659
 20
495.3906304554974
 30
0.0000000000000000
 11
1533.533587248659
 21
492.5038791095493
 31
0.0000000000000000
  0
LINE
  5
4F7
100
AcDbEntity
  8
MAIN0
  6
CONTINUOUS
 62
3
100
AcDbLine
 10
1533.533587248658
 20
492.5038791095490
 30
0.0000000000000000
 11
1538.533587248658
 21
495.3906304554971
 31
0.0000000000000000
  0
LINE
  5
4F8
100
AcDbEntity
  8
MAIN0
  6
CONTINUOUS
 62
3
100
AcDbLine
 10
1538.533587248659
 20
495.3906304554974
 30
0.0000000000000000
 11
1538.533587248659
 21
501.1641331473937
 31
0.0000000000000000
  0
LINE
  5
4F9
100
AcDbEntity
  8
MAIN0
  6
CONTINUOUS
 62
3
100
AcDbLine
 10
1538.533587248659
 20
501.1641331473937
 30
0.0000000000000000
 11
1533.533587248659
 21
504.0508844933418
 31
0.0000000000000000
  0
CIRCLE
  5
4FA
100
AcDbEntity
  8
MAIN0
  6
CONTINUOUS
 62
3
100
AcDbCircle
 10
1419.033587248665
 20
498.2773818014454
 30
0.0000000000000000
 40
9.500000000000000
  0
LINE
  5
4FB
100
AcDbEntity
  8
MAIN0
  6
CENTER
 62
3
100
AcDbLine
 10
1432.533587248665
 20
498.2773818014458
 30
0.0000000000000000
 11
1405.533587248665
 21
498.2773818014458
 31
0.0000000000000000
  0
LINE
  5
4FC
100
AcDbEntity
  8
MAIN0
  6
CENTER
 62
3
100
AcDbLine
 10
1419.033587248665
 20
511.7773818014456
 30
0.0000000000000000
 11
1419.033587248665
 21
484.7773818014458
 31
0.0000000000000000
  0
CIRCLE
  5
4FD
100
AcDbEntity
  8
MAIN0
  6
CONTINUOUS
 62
3
100
AcDbCircle
 10
1419.033587248665
 20
498.2773818014454
 30
0.0000000000000000
 40
9.000000000000000
  0
LINE
  5
4FE
100
AcDbEntity
  8
MAIN0
  6
CONTINUOUS
 62
3
100
AcDbLine
 10
1419.033587248665
 20
504.0508844933419
 30
0.0000000000000000
 11
1424.033587248665
 21
501.1641331473937
 31
0.0000000000000000
  0
LINE
  5
4FF
100
AcDbEntity
  8
MAIN0
  6
CONTINUOUS
 62
3
100
AcDbLine
 10
1424.033587248664
 20
501.1641331473937
 30
0.0000000000000000
 11
1424.033587248664
 21
495.3906304554974
 31
0.0000000000000000
  0
LINE
  5
500
100
AcDbEntity
  8
MAIN0
  6
CONTINUOUS
 62
3
100
AcDbLine
 10
1424.033587248665
 20
495.3906304554977
 30
0.0000000000000000
 11
1419.033587248665
 21
492.5038791095495
 31
0.0000000000000000
  0
LINE
  5
501
100
AcDbEntity
  8
MAIN0
  6
CONTINUOUS
 62
3
100
AcDbLine
 10
1419.033587248665
 20
492.5038791095493
 30
0.0000000000000000
 11
1414.033587248665
 21
495.3906304554974
 31
0.0000000000000000
  0
LINE
  5
502
100
AcDbEntity
  8
MAIN0
  6
CONTINUOUS
 62
3
100
AcDbLine
 10
1414.033587248664
 20
495.3906304554974
 30
0.0000000000000000
 11
1414.033587248664
 21
501.1641331473937
 31
0.0000000000000000
  0
LINE
  5
503
100
AcDbEntity
  8
MAIN0
  6
CONTINUOUS
 62
3
100
AcDbLine
 10
1414.033587248665
 20
501.1641331473940
 30
0.0000000000000000
 11
1419.033587248665
 21
504.0508844933421
 31
0.0000000000000000
  0
CIRCLE
  5
504
100
AcDbEntity
  8
MAIN0
  6
CONTINUOUS
 62
3
100
AcDbCircle
 10
1533.533587248659
 20
451.8773818014450
 30
0.0000000000000000
 40
9.500000000000000
  0
LINE
  5
505
100
AcDbEntity
  8
MAIN0
  6
CENTER
 62
3
100
AcDbLine
 10
1520.033587248659
 20
451.8773818014449
 30
0.0000000000000000
 11
1547.033587248659
 21
451.8773818014448
 31
0.0000000000000000
  0
LINE
  5
506
100
AcDbEntity
  8
MAIN0
  6
CENTER
 62
3
100
AcDbLine
 10
1533.533587248659
 20
438.3773818014449
 30
0.0000000000000000
 11
1533.533587248659
 21
465.3773818014449
 31
0.0000000000000000
  0
CIRCLE
  5
507
100
AcDbEntity
  8
MAIN0
  6
CONTINUOUS
 62
3
100
AcDbCircle
 10
1533.533587248659
 20
451.8773818014450
 30
0.0000000000000000
 40
9.000000000000000
  0
LINE
  5
508
100
AcDbEntity
  8
MAIN0
  6
CONTINUOUS
 62
3
100
AcDbLine
 10
1533.533587248659
 20
446.1038791095492
 30
0.0000000000000000
 11
1528.533587248659
 21
448.9906304554974
 31
0.0000000000000000
  0
LINE
  5
509
100
AcDbEntity
  8
MAIN0
  6
CONTINUOUS
 62
3
100
AcDbLine
 10
1528.533587248659
 20
448.9906304554969
 30
0.0000000000000000
 11
1528.533587248659
 21
454.7641331473930
 31
0.0000000000000000
  0
LINE
  5
50A
100
AcDbEntity
  8
MAIN0
  6
CONTINUOUS
 62
3
100
AcDbLine
 10
1528.533587248659
 20
454.7641331473930
 30
0.0000000000000000
 11
1533.533587248659
 21
457.6508844933412
 31
0.0000000000000000
  0
LINE
  5
50B
100
AcDbEntity
  8
MAIN0
  6
CONTINUOUS
 62
3
100
AcDbLine
 10
1533.533587248659
 20
457.6508844933417
 30
0.0000000000000000
 11
1538.533587248659
 21
454.7641331473936
 31
0.0000000000000000
  0
LINE
  5
50C
100
AcDbEntity
  8
MAIN0
  6
CONTINUOUS
 62
3
100
AcDbLine
 10
1538.533587248659
 20
454.7641331473930
 30
0.0000000000000000
 11
1538.533587248659
 21
448.9906304554970
 31
0.0000000000000000
  0
LINE
  5
50D
100
AcDbEntity
  8
MAIN0
  6
CONTINUOUS
 62
3
100
AcDbLine
 10
1538.533587248659
 20
448.9906304554968
 30
0.0000000000000000
 11
1533.533587248659
 21
446.1038791095486
 31
0.0000000000000000
  0
LINE
  5
50E
100
AcDbEntity
  8
MAIN0
  6
CONTINUOUS
 62
3
100
AcDbLine
 10
1418.560108490015
 20
433.0773818014455
 30
0.0000000000000000
 11
1534.007066007308
 21
433.0773818014456
 31
0.0000000000000000
  0
CIRCLE
  5
50F
100
AcDbEntity
  8
MAIN0
  6
CONTINUOUS
 62
3
100
AcDbCircle
 10
1419.033587248665
 20
451.8773818014450
 30
0.0000000000000000
 40
9.500000000000000
  0
LINE
  5
510
100
AcDbEntity
  8
MAIN0
  6
CENTER
 62
3
100
AcDbLine
 10
1432.533587248664
 20
451.8773818014448
 30
0.0000000000000000
 11
1405.533587248664
 21
451.8773818014446
 31
0.0000000000000000
  0
LINE
  5
511
100
AcDbEntity
  8
MAIN0
  6
CENTER
 62
3
100
AcDbLine
 10
1419.033587248665
 20
438.3773818014447
 30
0.0000000000000000
 11
1419.033587248665
 21
465.3773818014447
 31
0.0000000000000000
  0
CIRCLE
  5
512
100
AcDbEntity
  8
MAIN0
  6
CONTINUOUS
 62
3
100
AcDbCircle
 10
1419.033587248665
 20
451.8773818014450
 30
0.0000000000000000
 40
9.000000000000000
  0
LINE
  5
513
100
AcDbEntity
  8
MAIN0
  6
CONTINUOUS
 62
3
100
AcDbLine
 10
1419.033587248664
 20
446.1038791095486
 30
0.0000000000000000
 11
1424.033587248664
 21
448.9906304554968
 31
0.0000000000000000
  0
LINE
  5
514
100
AcDbEntity
  8
MAIN0
  6
CONTINUOUS
 62
3
100
AcDbLine
 10
1424.033587248664
 20
448.9906304554968
 30
0.0000000000000000
 11
1424.033587248664
 21
454.7641331473931
 31
0.0000000000000000
  0
LINE
  5
515
100
AcDbEntity
  8
MAIN0
  6
CONTINUOUS
 62
3
100
AcDbLine
 10
1424.033587248664
 20
454.7641331473931
 30
0.0000000000000000
 11
1419.033587248664
 21
457.6508844933412
 31
0.0000000000000000
  0
LINE
  5
516
100
AcDbEntity
  8
MAIN0
  6
CONTINUOUS
 62
3
100
AcDbLine
 10
1419.033587248664
 20
457.6508844933412
 30
0.0000000000000000
 11
1414.033587248664
 21
454.7641331473931
 31
0.0000000000000000
  0
LINE
  5
517
100
AcDbEntity
  8
MAIN0
  6
CONTINUOUS
 62
3
100
AcDbLine
 10
1414.033587248664
 20
454.7641331473931
 30
0.0000000000000000
 11
1414.033587248664
 21
448.9906304554968
 31
0.0000000000000000
  0
LINE
  5
518
100
AcDbEntity
  8
MAIN0
  6
CONTINUOUS
 62
3
100
AcDbLine
 10
1414.033587248664
 20
448.9906304554970
 30
0.0000000000000000
 11
1419.033587248664
 21
446.1038791095488
 31
0.0000000000000000
  0
LINE
  5
519
100
AcDbEntity
  8
MAIN0
  6
CONTINUOUS
 62
3
100
AcDbLine
 10
1395.783587248775
 20
486.0773818019114
 30
0.0000000000000000
 11
1395.783587248707
 21
496.3773818021642
 31
0.0000000000000000
  0
LINE
  5
51A
100
AcDbEntity
  8
MAIN0
  6
CONTINUOUS
 62
3
100
AcDbLine
 10
1556.783587248549
 20
486.0773818019115
 30
0.0000000000000000
 11
1556.783587248618
 21
496.3773818021633
 31
0.0000000000000000
  0
LINE
  5
51B
100
AcDbEntity
  8
MAIN0
  6
CONTINUOUS
 62
3
100
AcDbLine
 10
1395.483587248662
 20
496.0773818021218
 30
0.0000000000000000
 11
1409.483587248116
 21
510.0773818014447
 31
0.0000000000000000
  0
LINE
  5
51C
100
AcDbEntity
  8
MAIN0
  6
CONTINUOUS
 62
3
100
AcDbLine
 10
1556.783587248602
 20
494.0773818014328
 30
0.0000000000000000
 11
1540.783587248718
 21
510.0773818014451
 31
0.0000000000000000
  0
LINE
  5
51D
100
AcDbEntity
  8
MAIN0
  6
CONTINUOUS
 62
3
100
AcDbLine
 10
1557.083587248662
 20
496.0773818021219
 30
0.0000000000000000
 11
1543.083587249208
 21
510.0773818014450
 31
0.0000000000000000
  0
ARC
  5
51E
100
AcDbEntity
  8
MAIN0
  6
CONTINUOUS
 62
3
100
AcDbCircle
 10
1398.783587248662
 20
478.5773818014455
 30
0.0000000000000000
 40
5.000000000000000
100
AcDbArc
 50
0.0000000000000000
 51
53.13010235415150
  0
LINE
  5
51F
100
AcDbEntity
  8
MAIN0
  6
CONTINUOUS
 62
3
100
AcDbLine
 10
1403.783587248662
 20
453.8700717409974
 30
0.0000000000000000
 11
1403.783587248662
 21
478.5773818014456
 31
0.0000000000000000
  0
ARC
  5
520
100
AcDbEntity
  8
MAIN0
  6
CONTINUOUS
 62
3
100
AcDbCircle
 10
1413.783587248662
 20
453.8700717409973
 30
0.0000000000000000
 40
10.00000000000000
100
AcDbArc
 50
180.0000000000000
 51
198.7429459175232
  0
ARC
  5
521
100
AcDbEntity
  8
MAIN0
  6
CONTINUOUS
 62
3
100
AcDbCircle
 10
1476.283587248662
 20
475.0773818014453
 30
0.0000000000000000
 40
76.00000000000000
100
AcDbArc
 50
198.7429459175232
 51
209.0025460266707
  0
ARC
  5
522
100
AcDbEntity
  8
MAIN0
  6
CONTINUOUS
 62
3
100
AcDbCircle
 10
1418.560108490015
 20
443.0773818014453
 30
0.0000000000000000
 40
10.00000000000000
100
AcDbArc
 50
209.0025460266707
 51
270.0000000000000
  0
ARC
  5
523
100
AcDbEntity
  8
MAIN0
  6
CONTINUOUS
 62
3
100
AcDbCircle
 10
1553.783587248662
 20
478.5773818014458
 30
0.0000000000000000
 40
5.000000000000000
100
AcDbArc
 50
126.8698976458487
 51
180.0000000000001
  0
LINE
  5
524
100
AcDbEntity
  8
MAIN0
  6
CONTINUOUS
 62
3
100
AcDbLine
 10
1548.783587248661
 20
453.8700717409973
 30
0.0000000000000000
 11
1548.783587248662
 21
478.5773818014458
 31
0.0000000000000000
  0
ARC
  5
525
100
AcDbEntity
  8
MAIN0
  6
CONTINUOUS
 62
3
100
AcDbCircle
 10
1538.783587248662
 20
453.8700717409973
 30
0.0000000000000000
 40
10.00000000000000
100
AcDbArc
 50
341.2570540824770
 51
360.0000000000002
  0
ARC
  5
526
100
AcDbEntity
  8
MAIN0
  6
CONTINUOUS
 62
3
100
AcDbCircle
 10
1476.283587248661
 20
475.0773818014453
 30
0.0000000000000000
 40
76.00000000000000
100
AcDbArc
 50
330.9974539733295
 51
341.2570540824770
  0
ARC
  5
527
100
AcDbEntity
  8
MAIN0
  6
CONTINUOUS
 62
3
100
AcDbCircle
 10
1534.007066007309
 20
443.0773818014455
 30
0.0000000000000000
 40
10.00000000000000
100
AcDbArc
 50
270.0000000000002
 51
330.9974539733295
  0
LINE
  5
528
100
AcDbEntity
  8
MAIN0
  6
CONTINUOUS
 62
3
100
AcDbLine
 10
1452.283587248662
 20
443.0773818014452
 30
0.0000000000000000
 11
1500.283587248662
 21
443.0773818014452
 31
0.0000000000000000
  0
ARC
  5
529
100
AcDbEntity
  8
MAIN0
  6
CONTINUOUS
 62
3
100
AcDbCircle
 10
1476.283587248662
 20
475.0773818014453
 30
0.0000000000000000
 40
40.00000000000000
100
AcDbArc
 50
118.9550243718597
 51
233.1301023541564
  0
ARC
  5
52A
100
AcDbEntity
  8
MAIN0
  6
CONTINUOUS
 62
3
100
AcDbCircle
 10
1476.283587248662
 20
475.0773818014453
 30
0.0000000000000000
 40
40.00000000000000
100
AcDbArc
 50
306.8698976458439
 51
421.0449756281404
  0
ARC
  5
52B
100
AcDbEntity
  8
MAIN0
  6
CONTINUOUS
 62
3
100
AcDbCircle
 10
1476.283587248662
 20
475.0773818014453
 30
0.0000000000000000
 40
37.50000000000000
100
AcDbArc
 50
238.5760935141543
 51
301.4239064858454
  0
LINE
  5
52C
100
AcDbEntity
  8
MAIN0
  6
CONTINUOUS
 62
3
100
AcDbLine
 10
1395.783587248774
 20
410.0773818019114
 30
0.0000000000000000
 11
1467.283587248774
 21
410.0773818019115
 31
0.0000000000000000
  0
LINE
  5
52D
100
AcDbEntity
  8
MAIN0
  6
CONTINUOUS
 62
3
100
AcDbLine
 10
1485.283587248774
 20
410.0773818019115
 30
0.0000000000000000
 11
1556.783587248774
 21
410.0773818019115
 31
0.0000000000000000
  0
LINE
  5
52E
100
AcDbEntity
  8
MAIN0
  6
CONTINUOUS
 62
3
100
AcDbLine
 10
1393.983587248662
 20
511.2773818014454
 30
0.0000000000000000
 11
1558.583587248662
 21
511.2773818014454
 31
0.0000000000000000
  0
LINE
  5
52F
100
AcDbEntity
  8
MAIN0
  6
CONTINUOUS
 62
3
100
AcDbLine
 10
1530.265837417148
 20
483.5773818019114
 30
0.0000000000000000
 11
1550.783587248775
 21
483.5773818019114
 31
0.0000000000000000
  0
LINE
  5
530
100
AcDbEntity
  8
MAIN0
  6
CONTINUOUS
 62
3
100
AcDbLine
 10
1515.719245344546
 20
468.3819452552199
 30
0.0000000000000000
 11
1521.605583379311
 21
478.5773818019235
 31
0.0000000000000000
  0
ARC
  5
531
100
AcDbEntity
  8
MAIN0
  6
CONTINUOUS
 62
3
100
AcDbCircle
 10
1530.265837417148
 20
473.5773818019114
 30
0.0000000000000000
 40
10.00000000000000
100
AcDbArc
 50
90.00000000000000
 51
149.9999999999178
  0
ARC
  5
532
100
AcDbEntity
  8
MAIN0
  6
CONTINUOUS
 62
3
100
AcDbCircle
 10
1422.301337080175
 20
473.5773818019113
 30
0.0000000000000000
 40
10.00000000000000
100
AcDbArc
 50
30.00000000008238
 51
90.00000000000014
  0
LINE
  5
533
100
AcDbEntity
  8
MAIN0
  6
CONTINUOUS
 62
3
100
AcDbLine
 10
1436.847929152778
 20
468.3819452552200
 30
0.0000000000000000
 11
1430.961591118013
 21
478.5773818019236
 31
0.0000000000000000
  0
LINE
  5
534
100
AcDbEntity
  8
MAIN0
  6
CONTINUOUS
 62
3
100
AcDbLine
 10
1422.301337080176
 20
483.5773818019114
 30
0.0000000000000000
 11
1401.783587248549
 21
483.5773818019113
 31
0.0000000000000000
  0
LINE
  5
535
100
AcDbEntity
  8
MAIN0
  6
CONTINUOUS
 62
3
100
AcDbLine
 10
535.7985261153980
 20
966.5366543762564
 30
0.0000000000000000
 11
533.2985261153980
 21
965.0932787032823
 31
0.0000000000000000
  0
LINE
  5
536
100
AcDbEntity
  8
MAIN0
  6
CONTINUOUS
 62
3
100
AcDbLine
 10
533.2985261153980
 20
965.0932787032824
 30
0.0000000000000000
 11
533.2985261153980
 21
962.2065273573343
 31
0.0000000000000000
  0
LINE
  5
537
100
AcDbEntity
  8
MAIN0
  6
CONTINUOUS
 62
3
100
AcDbLine
 10
533.2985261153980
 20
962.2065273573343
 30
0.0000000000000000
 11
535.7985261153981
 21
960.7631516843602
 31
0.0000000000000000
  0
LINE
  5
538
100
AcDbEntity
  8
MAIN0
  6
CONTINUOUS
 62
3
100
AcDbLine
 10
535.7985261153980
 20
960.7631516843601
 30
0.0000000000000000
 11
538.2985261153980
 21
962.2065273573342
 31
0.0000000000000000
  0
LINE
  5
539
100
AcDbEntity
  8
MAIN0
  6
CONTINUOUS
 62
3
100
AcDbLine
 10
538.2985261153980
 20
962.2065273573343
 30
0.0000000000000000
 11
538.2985261153980
 21
965.0932787032824
 31
0.0000000000000000
  0
LINE
  5
53A
100
AcDbEntity
  8
MAIN0
  6
CONTINUOUS
 62
3
100
AcDbLine
 10
538.2985261153981
 20
965.0932787032824
 30
0.0000000000000000
 11
535.7985261153980
 21
966.5366543762565
 31
0.0000000000000000
  0
LINE
  5
53B
100
AcDbEntity
  8
MAIN0
  6
CONTINUOUS
 62
3
100
AcDbLine
 10
1257.001784078312
 20
445.0773818019112
 30
0.0000000000000000
 11
1257.001784078312
 21
459.4773818019113
 31
0.0000000000000000
  0
LINE
  5
53C
100
AcDbEntity
  8
MAIN0
  6
CONTINUOUS
 62
3
100
AcDbLine
 10
1257.001784078312
 20
459.4773818019114
 30
0.0000000000000000
 11
1254.230502786202
 21
461.0773818019113
 31
0.0000000000000000
  0
LINE
  5
53D
100
AcDbEntity
  8
MAIN0
  6
CONTINUOUS
 62
3
100
AcDbLine
 10
1254.230502786202
 20
461.0773818019112
 30
0.0000000000000000
 11
1235.773065370422
 21
461.0773818019112
 31
0.0000000000000000
  0
LINE
  5
53E
100
AcDbEntity
  8
MAIN0
  6
CONTINUOUS
 62
3
100
AcDbLine
 10
1235.773065370422
 20
461.0773818019115
 30
0.0000000000000000
 11
1233.001784078312
 21
459.4773818019114
 31
0.0000000000000000
  0
LINE
  5
53F
100
AcDbEntity
  8
MAIN0
  6
CONTINUOUS
 62
3
100
AcDbLine
 10
1233.001784078312
 20
459.4773818019113
 30
0.0000000000000000
 11
1233.001784078312
 21
445.0773818019112
 31
0.0000000000000000
  0
LINE
  5
540
100
AcDbEntity
  8
MAIN0
  6
CONTINUOUS
 62
3
100
AcDbLine
 10
1257.001784078312
 20
459.4773818019113
 30
0.0000000000000000
 11
1233.001784078312
 21
459.4773818019113
 31
0.0000000000000000
  0
LINE
  5
541
100
AcDbEntity
  8
MAIN0
  6
CONTINUOUS
 62
3
100
AcDbLine
 10
1262.501784078312
 20
445.0773818019112
 30
0.0000000000000000
 11
1227.501784078312
 21
445.0773818019112
 31
0.0000000000000000
  0
LINE
  5
542
100
AcDbEntity
  8
MAIN0
  6
CONTINUOUS
 62
3
100
AcDbLine
 10
1262.501784078312
 20
440.0773818019112
 30
0.0000000000000000
 11
1262.501784078312
 21
445.0773818019112
 31
0.0000000000000000
  0
LINE
  5
543
100
AcDbEntity
  8
MAIN0
  6
CONTINUOUS
 62
3
100
AcDbLine
 10
1227.501784078312
 20
440.0773818019112
 30
0.0000000000000000
 11
1227.501784078312
 21
445.0773818019112
 31
0.0000000000000000
  0
LINE
  5
544
100
AcDbEntity
  8
MAIN0
  6
CONTINUOUS
 62
3
100
AcDbLine
 10
1230.751784078294
 20
380.0773818020263
 30
0.0000000000000000
 11
1230.751784078287
 21
391.0773818020263
 31
0.0000000000000000
  0
LINE
  5
545
100
AcDbEntity
  8
MAIN0
  6
CONTINUOUS
 62
3
100
AcDbLine
 10
1259.251784078294
 20
380.0773818020382
 30
0.0000000000000000
 11
1259.251784078287
 21
391.0773818020382
 31
0.0000000000000000
  0
LINE
  5
546
100
AcDbEntity
  8
MAIN0
  6
CONTINUOUS
 62
3
100
AcDbLine
 10
1230.751784078295
 20
380.0773818020263
 30
0.0000000000000000
 11
1259.251784078295
 21
380.0773818020382
 31
0.0000000000000000
  0
LINE
  5
547
100
AcDbEntity
  8
MAIN0
  6
CONTINUOUS
 62
3
100
AcDbLine
 10
1236.251784078281
 20
399.0773818020285
 30
0.0000000000000000
 11
1253.751784078281
 21
399.0773818020358
 31
0.0000000000000000
  0
LINE
  5
548
100
AcDbEntity
  8
MAIN0
  6
CONTINUOUS
 62
3
100
AcDbLine
 10
1230.751784078287
 20
391.0773818020263
 30
0.0000000000000000
 11
1236.251784078287
 21
391.0773818020286
 31
0.0000000000000000
  0
LINE
  5
549
100
AcDbEntity
  8
MAIN0
  6
CONTINUOUS
 62
3
100
AcDbLine
 10
1253.751784078287
 20
391.0773818020359
 30
0.0000000000000000
 11
1259.251784078287
 21
391.0773818020382
 31
0.0000000000000000
  0
LINE
  5
54A
100
AcDbEntity
  8
MAIN0
  6
CONTINUOUS
 62
3
100
AcDbLine
 10
1236.251784078287
 20
391.0773818020284
 30
0.0000000000000000
 11
1236.251784078281
 21
399.0773818020284
 31
0.0000000000000000
  0
LINE
  5
54B
100
AcDbEntity
  8
MAIN0
  6
CONTINUOUS
 62
3
100
AcDbLine
 10
1253.751784078287
 20
391.0773818020358
 30
0.0000000000000000
 11
1253.751784078281
 21
399.0773818020358
 31
0.0000000000000000
  0
LINE
  5
54C
100
AcDbEntity
  8
MAIN0
  6
CONTINUOUS
 62
3
100
AcDbLine
 10
1238.084316078294
 20
410.0773818020353
 30
0.0000000000000000
 11
1238.084316078294
 21
399.0773818020383
 31
0.0000000000000000
  0
LINE
  5
54D
100
AcDbEntity
  8
MAIN0
  6
CONTINUOUS
 62
3
100
AcDbLine
 10
1237.001784078294
 20
399.0773818020383
 30
0.0000000000000000
 11
1237.001784078294
 21
410.0773818020348
 31
0.0000000000000000
  0
LINE
  5
54E
100
AcDbEntity
  8
MAIN0
  6
CONTINUOUS
 62
3
100
AcDbLine
 10
1251.919252078294
 20
410.0773818020411
 30
0.0000000000000000
 11
1251.919252078294
 21
399.0773818020383
 31
0.0000000000000000
  0
LINE
  5
54F
100
AcDbEntity
  8
MAIN0
  6
CONTINUOUS
 62
3
100
AcDbLine
 10
1253.001784078294
 20
410.0773818020415
 30
0.0000000000000000
 11
1253.001784078294
 21
399.0773818020383
 31
0.0000000000000000
  0
LINE
  5
550
100
AcDbEntity
  8
MAIN0
  6
CONTINUOUS
 62
3
100
AcDbLine
 10
1357.783587248762
 20
399.0773818019050
 30
0.0000000000000000
 11
1387.783587248762
 21
399.0773818019175
 31
0.0000000000000000
  0
LINE
  5
551
100
AcDbEntity
  8
MAIN0
  6
CONTINUOUS
 62
3
100
AcDbLine
 10
1357.783587248768
 20
391.0773818019051
 30
0.0000000000000000
 11
1387.783587248768
 21
391.0773818019176
 31
0.0000000000000000
  0
LINE
  5
552
100
AcDbEntity
  8
MAIN0
  6
CONTINUOUS
 62
3
100
AcDbLine
 10
1387.783587248775
 20
380.0773818019175
 30
0.0000000000000000
 11
1387.783587248762
 21
399.0773818019175
 31
0.0000000000000000
  0
LINE
  5
553
100
AcDbEntity
  8
MAIN0
  6
CONTINUOUS
 62
3
100
AcDbLine
 10
1357.783587248775
 20
380.0773818019050
 30
0.0000000000000000
 11
1387.783587248775
 21
380.0773818019175
 31
0.0000000000000000
  0
LINE
  5
554
100
AcDbEntity
  8
MAIN0
  6
CONTINUOUS
 62
3
100
AcDbLine
 10
1357.783587248775
 20
380.0773818019051
 30
0.0000000000000000
 11
1357.783587248762
 21
399.0773818019051
 31
0.0000000000000000
  0
LINE
  5
555
100
AcDbEntity
  8
MAIN0
  6
CONTINUOUS
 62
3
100
AcDbLine
 10
1357.783587248724
 20
282.8334158789169
 30
0.0000000000000000
 11
1387.783587248724
 21
282.8334158789086
 31
0.0000000000000000
  0
LINE
  5
556
100
AcDbEntity
  8
MAIN0
  6
CONTINUOUS
 62
3
100
AcDbLine
 10
1357.783587248744
 20
254.3334158789171
 30
0.0000000000000000
 11
1357.783587248725
 21
282.8334158789171
 31
0.0000000000000000
  0
LINE
  5
557
100
AcDbEntity
  8
MAIN0
  6
HIDDEN
 62
3
100
AcDbLine
 10
1357.783587248728
 20
277.3334158789171
 30
0.0000000000000000
 11
1387.783587248728
 21
277.3334158789088
 31
0.0000000000000000
  0
LINE
  5
558
100
AcDbEntity
  8
MAIN0
  6
CENTER
 62
3
100
AcDbLine
 10
1354.520969226445
 20
268.5834158789179
 30
0.0000000000000000
 11
1391.339066590084
 21
268.5834158789078
 31
0.0000000000000000
  0
LINE
  5
559
100
AcDbEntity
  8
MAIN0
  6
HIDDEN
 62
3
100
AcDbLine
 10
1357.783587248741
 20
259.8334158789171
 30
0.0000000000000000
 11
1387.783587248741
 21
259.8334158789088
 31
0.0000000000000000
  0
LINE
  5
55A
100
AcDbEntity
  8
MAIN0
  6
CONTINUOUS
 62
3
100
AcDbLine
 10
1357.783587248744
 20
254.3334158789171
 30
0.0000000000000000
 11
1387.783587248744
 21
254.3334158789088
 31
0.0000000000000000
  0
LINE
  5
55B
100
AcDbEntity
  8
MAIN0
  6
CONTINUOUS
 62
3
100
AcDbLine
 10
1387.783587248744
 20
254.3334158789088
 30
0.0000000000000000
 11
1387.783587248724
 21
282.8334158789088
 31
0.0000000000000000
  0
LINE
  5
55C
100
AcDbEntity
  8
MAIN0
  6
CONTINUOUS
 62
3
100
AcDbLine
 10
177.1210777891924
 20
505.0773818009794
 30
0.0000000000000000
 11
258.1210777891924
 21
505.0773818009794
 31
0.0000000000000000
  0
CIRCLE
  5
55D
100
AcDbEntity
  8
MAIN0
  6
CONTINUOUS
 62
3
100
AcDbCircle
 10
1372.783587248734
 20
268.5834158789131
 30
0.0000000000000000
 40
8.000000000000000
  0
CIRCLE
  5
55E
100
AcDbEntity
  8
MAIN0
  6
CONTINUOUS
 62
3
100
AcDbCircle
 10
1372.783587248734
 20
268.5834158789131
 30
0.0000000000000000
 40
7.000000000000000
  0
LINE
  5
55F
100
AcDbEntity
  8
WAKU0
  6
CONTINUOUS
 62
3
100
AcDbLine
 10
240.0000000000000
 20
51.00000000000000
 30
0.0000000000000000
 11
410.0000000000000
 21
51.00000000000000
 31
0.0000000000000000
  0
LINE
  5
560
100
AcDbEntity
  8
WAKU0
  6
CONTINUOUS
 62
3
100
AcDbLine
 10
240.0000000000000
 20
51.00000000000000
 30
0.0000000000000000
 11
240.0000000000000
 21
12.00000000000000
 31
0.0000000000000000
  0
LINE
  5
561
100
AcDbEntity
  8
WAKU0
  6
CONTINUOUS
 62
3
100
AcDbLine
 10
312.0000000000000
 20
51.00000000000000
 30
0.0000000000000000
 11
312.0000000000000
 21
12.00000000000000
 31
0.0000000000000000
  0
LINE
  5
562
100
AcDbEntity
  8
WAKU0
  6
CONTINUOUS
 62
3
100
AcDbLine
 10
332.0000000000000
 20
51.00000000000000
 30
0.0000000000000000
 11
332.0000000000000
 21
12.00000000000000
 31
0.0000000000000000
  0
LINE
  5
563
100
AcDbEntity
  8
WAKU0
  6
CONTINUOUS
 62
3
100
AcDbLine
 10
344.0000000000000
 20
51.00000000000000
 30
0.0000000000000000
 11
344.0000000000000
 21
12.00000000000000
 31
0.0000000000000000
  0
LINE
  5
564
100
AcDbEntity
  8
WAKU0
  6
CONTINUOUS
 62
3
100
AcDbLine
 10
344.0000000000000
 20
37.00000000000000
 30
0.0000000000000000
 11
410.0000000000000
 21
37.00000000000000
 31
0.0000000000000000
  0
LINE
  5
565
100
AcDbEntity
  8
WAKU0
  6
CONTINUOUS
 62
3
100
AcDbLine
 10
332.0000000000000
 20
23.00000000000000
 30
0.0000000000000000
 11
410.0000000000000
 21
23.00000000000000
 31
0.0000000000000000
  0
LINE
  5
566
100
AcDbEntity
  8
WAKU0
  6
CONTINUOUS
 62
3
100
AcDbLine
 10
375.0000000000000
 20
51.00000000000000
 30
0.0000000000000000
 11
375.0000000000000
 21
44.00000000000000
 31
0.0000000000000000
  0
LINE
  5
567
100
AcDbEntity
  8
WAKU0
  6
CONTINUOUS
 62
3
100
AcDbLine
 10
387.0000000000000
 20
51.00000000000000
 30
0.0000000000000000
 11
387.0000000000000
 21
44.00000000000000
 31
0.0000000000000000
  0
LINE
  5
568
100
AcDbEntity
  8
WAKU0
  6
CONTINUOUS
 62
3
100
AcDbLine
 10
312.0000000000000
 20
31.50000000000000
 30
0.0000000000000000
 11
332.0000000000000
 21
31.50000000000000
 31
0.0000000000000000
  0
LINE
  5
569
100
AcDbEntity
  8
WAKU0
  6
CONTINUOUS
 62
3
100
AcDbLine
 10
332.0000000000000
 20
44.00000000000000
 30
0.0000000000000000
 11
410.0000000000000
 21
44.00000000000000
 31
0.0000000000000000
  0
LINE
  5
56A
100
AcDbEntity
  8
WAKU0
  6
CONTINUOUS
 62
3
100
AcDbLine
 10
240.0000000000000
 20
37.00000000000000
 30
0.0000000000000000
 11
312.0000000000000
 21
37.00000000000000
 31
0.0000000000000000
  0
LINE
  5
56B
100
AcDbEntity
  8
WAKU0
  6
CONTINUOUS
 62
3
100
AcDbLine
 10
240.0000000000000
 20
23.00000000000000
 30
0.0000000000000000
 11
312.0000000000000
 21
23.00000000000000
 31
0.0000000000000000
  0
LINE
  5
56C
100
AcDbEntity
  8
WAKU0
  6
CONTINUOUS
 62
3
100
AcDbLine
 10
288.0000000000000
 20
37.00000000000000
 30
0.0000000000000000
 11
288.0000000000000
 21
12.00000000000000
 31
0.0000000000000000
  0
LINE
  5
56D
100
AcDbEntity
  8
WAKU0
  6
CONTINUOUS
 62
3
100
AcDbLine
 10
264.0000000000000
 20
37.00000000000000
 30
0.0000000000000000
 11
264.0000000000000
 21
23.00000000000000
 31
0.0000000000000000
  0
LINE
  5
56E
100
AcDbEntity
  8
WAKU0
  6
CONTINUOUS
 62
3
100
AcDbLine
 10
300.0000000000000
 20
26.00000000000000
 30
0.0000000000000000
 11
300.0000000000000
 21
23.00000000000000
 31
0.0000000000000000
  0
LINE
  5
56F
100
AcDbEntity
  8
WAKU0
  6
CONTINUOUS
 62
3
100
AcDbLine
 10
276.0000000000000
 20
26.00000000000000
 30
0.0000000000000000
 11
276.0000000000000
 21
23.00000000000000
 31
0.0000000000000000
  0
LINE
  5
570
100
AcDbEntity
  8
WAKU0
  6
CONTINUOUS
 62
3
100
AcDbLine
 10
252.0000000000000
 20
26.00000000000000
 30
0.0000000000000000
 11
252.0000000000000
 21
23.00000000000000
 31
0.0000000000000000
  0
LINE
  5
571
100
AcDbEntity
  8
WAKU0
  6
CONTINUOUS
 62
3
100
AcDbLine
 10
258.0000000000000
 20
51.00000000000000
 30
0.0000000000000000
 11
258.0000000000000
 21
37.00000000000000
 31
0.0000000000000000
  0
LINE
  5
572
100
AcDbEntity
  8
WAKU0
  6
CONTINUOUS
 62
3
100
AcDbLine
 10
240.0000000000000
 20
45.00000000000000
 30
0.0000000000000000
 11
312.0000000000000
 21
45.00000000000000
 31
0.0000000000000000
  0
LINE
  5
573
100
AcDbEntity
  8
WAKU0
  6
HIDDEN
 62
3
100
AcDbLine
 10
360.5000000000000
 20
23.00000000000000
 30
0.0000000000000000
 11
360.5000000000000
 21
12.00000000000000
 31
0.0000000000000000
  0
LINE
  5
574
100
AcDbEntity
  8
WAKU0
  6
HIDDEN
 62
3
100
AcDbLine
 10
372.9000000000000
 20
23.00000000000000
 30
0.0000000000000000
 11
372.9000000000000
 21
12.00000000000000
 31
0.0000000000000000
  0
MTEXT
  5
575
100
AcDbEntity
  8
WAKU0
  6
CONTINUOUS
 62
3
100
AcDbMText
 10
344.4820000243485
 20
49.04999995231628
 30
0.0000000000000000
 40
3.099999904632568
 41
0.0000000000000000
 71
     1
 72
     1
  1
{\H0.92x;{VE160LN}}
 11
1.000000000000000
 21
0.0000000000000000
 31
0.0000000000000000
  7
STANDARD
  0
MTEXT
  5
576
100
AcDbEntity
  8
WAKU0
  6
CONTINUOUS
 62
3
100
AcDbMText
 10
360.3350002765656
 20
43.50000000000000
 30
0.0000000000000000
 40
3.000000000000000
 41
0.0000000000000000
 71
     1
 72
     1
  1
{\H0.94x;{パワーバイス\PＰＯＷＥＲ　ＶＩＳＥ}}
 11
1.000000000000000
 21
0.0000000000000000
 31
0.0000000000000000
  7
KNJYOKO
  0
MTEXT
  5
577
100
AcDbEntity
  8
WAKU0
  6
CONTINUOUS
 62
3
100
AcDbMText
 10
348.9999989867210
 20
34.83333333333333
 30
0.0000000000000000
 40
4.000000000000000
 41
0.0000000000000000
 71
     1
 72
     1
  1
{\H0.59x;{ＶＥ１６０ＬＮ　ガイケイ\PＶＥ１６０ＬＮ　ＯＵＴＳＩＤＥ　ＶＩＥＷ}}
 11
1.000000000000000
 21
0.0000000000000000
 31
0.0000000000000000
  7
KNJYOKO
  0
MTEXT
  5
578
100
AcDbEntity
  8
WAKU0
  6
CONTINUOUS
 62
3
100
AcDbMText
 10
318.0049998760223
 20
39.29999995231628
 30
0.0000000000000000
 40
3.099999904632568
 41
0.0000000000000000
 71
     1
 72
     1
  1
{\H0.90x;{1:4}}
 11
1.000000000000000
 21
0.0000000000000000
 31
0.0000000000000000
  7
STANDARD
  0
MTEXT
  5
579
100
AcDbEntity
  8
WAKU0
  6
CONTINUOUS
 62
3
100
AcDbMText
 10
374.4000001549721
 20
20.15000009536743
 30
0.0000000000000000
 40
5.300000190734863
 41
0.0000000000000000
 71
     1
 72
     1
  1
{\H0.90x;{6364}}
 11
1.000000000000000
 21
0.0000000000000000
 31
0.0000000000000000
  7
STANDARD
  0
MTEXT
  5
57A
100
AcDbEntity
  8
WAKU0
  6
CONTINUOUS
 62
3
100
AcDbMText
 10
362.3000000834465
 20
20.15000009536743
 30
0.0000000000000000
 40
5.300000190734863
 41
0.0000000000000000
 71
     1
 72
     1
  1
{\H0.87x;{39}}
 11
1.000000000000000
 21
0.0000000000000000
 31
0.0000000000000000
  7
STANDARD
  0
MTEXT
  5
57B
100
AcDbEntity
  8
WAKU0
  6
CONTINUOUS
 62
3
100
AcDbMText
 10
345.5000001192093
 20
20.15000009536743
 30
0.0000000000000000
 40
5.300000190734863
 41
0.0000000000000000
 71
     1
 72
     1
  1
{\H0.89x;{61M}}
 11
1.000000000000000
 21
0.0000000000000000
 31
0.0000000000000000
  7
STANDARD
  0
MTEXT
  5
57C
100
AcDbEntity
  8
WAKU0
  6
CONTINUOUS
 62
3
100
AcDbMText
 10
400.0000000476837
 20
20.15000009536743
 30
0.0000000000000000
 40
5.300000190734863
 41
0.0000000000000000
 71
     1
 72
     1
  1
{\H0.81x;{0}}
 11
1.000000000000000
 21
0.0000000000000000
 31
0.0000000000000000
  7
STANDARD
  0
MTEXT
  5
57D
100
AcDbEntity
  8
WAKU0
  6
CONTINUOUS
 62
3
100
AcDbMText
 10
400.0000000819564
 20
44.84999990463257
 30
0.0000000000000000
 40
5.300000190734863
 41
0.0000000000000000
 71
     7
 72
     1
  1
{\H0.81x;{ }}
 11
1.000000000000000
 21
0.0000000000000000
 31
0.0000000000000000
  7
STANDARD
  0
MTEXT
  5
57E
100
AcDbEntity
  8
WAKU0
  6
CONTINUOUS
 62
3
100
AcDbMText
 10
289.3850002884865
 20
33.00000000000000
 30
0.0000000000000000
 40
3.000000000000000
 41
0.0000000000000000
 71
     7
 72
     1
  1
{\H0.93x;{DRAWN BY}}
 11
1.000000000000000
 21
0.0000000000000000
 31
0.0000000000000000
  7
STANDARD
  0
MTEXT
  5
57F
100
AcDbEntity
  8
WAKU0
  6
CONTINUOUS
 62
3
100
AcDbMText
 10
269.2149997949600
 20
32.95000004768372
 30
0.0000000000000000
 40
3.099999904632568
 41
0.0000000000000000
 71
     7
 72
     1
  1
{\H0.92x;{CHIEF}}
 11
1.000000000000000
 21
0.0000000000000000
 31
0.0000000000000000
  7
STANDARD
  0
MTEXT
  5
580
100
AcDbEntity
  8
WAKU0
  6
CONTINUOUS
 62
3
100
AcDbMText
 10
242.4249997138977
 20
32.95000004768372
 30
0.0000000000000000
 40
3.099999904632568
 41
0.0000000000000000
 71
     7
 72
     1
  1
{\H0.92x;{MANAGER}}
 11
1.000000000000000
 21
0.0000000000000000
 31
0.0000000000000000
  7
STANDARD
  0
MTEXT
  5
581
100
AcDbEntity
  8
WAKU0
  6
CONTINUOUS
 62
3
100
AcDbMText
 10
244.6599994301796
 20
18.13333336512248
 30
0.0000000000000000
 40
3.099999904632568
 41
0.0000000000000000
 71
     7
 72
     1
  1
{\H0.93x;{KITAGAWA IRON\PWORKS CO.,LTD.}}
 11
1.000000000000000
 21
0.0000000000000000
 31
0.0000000000000000
  7
STANDARD
  0
MTEXT
  5
582
100
AcDbEntity
  8
WAKU0
  6
CONTINUOUS
 62
3
100
AcDbMText
 10
241.0850002169609
 20
46.50000000000000
 30
0.0000000000000000
 40
3.000000000000000
 41
0.0000000000000000
 71
     7
 72
     1
  1
{\H0.92x;{CAREER}}
 11
1.000000000000000
 21
0.0000000000000000
 31
0.0000000000000000
  7
STANDARD
  0
MTEXT
  5
583
100
AcDbEntity
  8
WAKU0
  6
CONTINUOUS
 62
3
100
AcDbMText
 10
294.6099998354912
 20
18.95000004768372
 30
0.0000000000000000
 40
3.099999904632568
 41
0.0000000000000000
 71
     7
 72
     1
  1
{\H0.91x;{DATE}}
 11
1.000000000000000
 21
0.0000000000000000
 31
0.0000000000000000
  7
STANDARD
  0
MTEXT
  5
584
100
AcDbEntity
  8
WAKU0
  6
CONTINUOUS
 62
3
100
AcDbMText
 10
313.9000002145767
 20
26.50000000000000
 30
0.0000000000000000
 40
3.000000000000000
 41
0.0000000000000000
 71
     7
 72
     1
  1
{\H0.63x;{3RD ANGLE}}
 11
1.000000000000000
 21
0.0000000000000000
 31
0.0000000000000000
  7
STANDARD
  0
MTEXT
  5
585
100
AcDbEntity
  8
WAKU0
  6
CONTINUOUS
 62
3
100
AcDbMText
 10
315.2149997949600
 20
45.95000004768372
 30
0.0000000000000000
 40
3.099999904632568
 41
0.0000000000000000
 71
     7
 72
     1
  1
{\H0.92x;{SCALE}}
 11
1.000000000000000
 21
0.0000000000000000
 31
0.0000000000000000
  7
STANDARD
  0
MTEXT
  5
586
100
AcDbEntity
  8
WAKU0
  6
CONTINUOUS
 62
3
100
AcDbMText
 10
405.7000000476837
 20
46.00000000000000
 30
0.0000000000000000
 40
3.000000000000000
 41
0.0000000000000000
 71
     7
 72
     1
  1
{\H0.63x;{kg}}
 11
1.000000000000000
 21
0.0000000000000000
 31
0.0000000000000000
  7
STANDARD
  0
MTEXT
  5
587
100
AcDbEntity
  8
WAKU0
  6
CONTINUOUS
 62
3
100
AcDbMText
 10
375.6000001430512
 20
46.00000000000000
 30
0.0000000000000000
 40
3.000000000000000
 41
0.0000000000000000
 71
     7
 72
     1
  1
{\H0.63x;{WEIGHT}}
 11
1.000000000000000
 21
0.0000000000000000
 31
0.0000000000000000
  7
STANDARD
  0
MTEXT
  5
588
100
AcDbEntity
  8
WAKU0
  6
CONTINUOUS
 62
3
100
AcDbMText
 10
334.0049998760223
 20
18.13333336512248
 30
0.0000000000000000
 40
3.099999904632568
 41
0.0000000000000000
 71
     7
 72
     1
  1
{\H0.90x;{DRW\PNO.}}
 11
1.000000000000000
 21
0.0000000000000000
 31
0.0000000000000000
  7
STANDARD
  0
MTEXT
  5
589
100
AcDbEntity
  8
WAKU0
  6
CONTINUOUS
 62
3
100
AcDbMText
 10
332.6099998354912
 20
31.95000004768372
 30
0.0000000000000000
 40
3.099999904632568
 41
0.0000000000000000
 71
     7
 72
     1
  1
{\H0.91x;{NAME}}
 11
1.000000000000000
 21
0.0000000000000000
 31
0.0000000000000000
  7
STANDARD
  0
MTEXT
  5
58A
100
AcDbEntity
  8
WAKU0
  6
CONTINUOUS
 62
3
100
AcDbMText
 10
332.6099998354912
 20
45.95000004768372
 30
0.0000000000000000
 40
3.099999904632568
 41
0.0000000000000000
 71
     7
 72
     1
  1
{\H0.91x;{TYPE}}
 11
1.000000000000000
 21
0.0000000000000000
 31
0.0000000000000000
  7
STANDARD
  0
LINE
  5
58B
100
AcDbEntity
  8
WAKU0
  6
HIDDEN
 62
3
100
AcDbLine
 10
407.1599564743885
 20
13.84999990463257
 30
0.0000000000000000
 11
396.9400436209789
 21
13.84999990463257
 31
0.0000000000000000
  0
LINE
  5
58C
100
AcDbEntity
  8
WAKU0
  6
HIDDEN
 62
3
100
AcDbLine
 10
407.1599564743885
 20
13.84999990463250
 30
0.0000000000000000
 11
402.0500000476852
 21
22.70070406014901
 31
0.0000000000000000
  0
LINE
  5
58D
100
AcDbEntity
  8
WAKU0
  6
HIDDEN
 62
3
100
AcDbLine
 10
402.0500000476852
 20
22.70070406014902
 30
0.0000000000000000
 11
396.9400436209789
 21
13.84999990463248
 31
0.0000000000000000
  0
LINE
  5
58E
100
AcDbEntity
  8
WAKU0
  6
CONTINUOUS
 62
3
100
AcDbLine
 10
330.4713877753800
 20
15.78041421262812
 30
0.0000000000000000
 11
330.4713877753800
 21
21.78041421262815
 31
0.0000000000000000
  0
LINE
  5
58F
100
AcDbEntity
  8
WAKU0
  6
CONTINUOUS
 62
3
100
AcDbLine
 10
323.9336941228225
 20
17.28041421262811
 30
0.0000000000000000
 11
323.9336941228225
 21
20.28041421262824
 31
0.0000000000000000
  0
LINE
  5
590
100
AcDbEntity
  8
WAKU0
  6
CENTER
 62
12
100
AcDbLine
 10
313.4321805514995
 20
18.78041421262813
 30
0.0000000000000000
 11
331.2765788964694
 21
18.78041421262813
 31
0.0000000000000000
  0
LINE
  5
591
100
AcDbEntity
  8
WAKU0
  6
CENTER
 62
12
100
AcDbLine
 10
317.4474565857986
 20
14.55921662918448
 30
0.0000000000000000
 11
317.4474565857986
 21
22.89865102149943
 31
0.0000000000000000
  0
LINE
  5
592
100
AcDbEntity
  8
WAKU0
  6
CONTINUOUS
 62
3
100
AcDbLine
 10
323.9336941228225
 20
20.28041421262797
 30
0.0000000000000000
 11
330.4713877753800
 21
21.78041421262795
 31
0.0000000000000000
  0
LINE
  5
593
100
AcDbEntity
  8
WAKU0
  6
CONTINUOUS
 62
3
100
AcDbLine
 10
323.9336941228225
 20
17.28041421262811
 30
0.0000000000000000
 11
330.4713877753799
 21
15.78041421262812
 31
0.0000000000000000
  0
CIRCLE
  5
594
100
AcDbEntity
  8
WAKU0
  6
CONTINUOUS
 62
3
100
AcDbCircle
 10
317.4474565857986
 20
18.78041421262813
 30
0.0000000000000000
 40
1.499999999999972
  0
CIRCLE
  5
595
100
AcDbEntity
  8
WAKU0
  6
CONTINUOUS
 62
3
100
AcDbCircle
 10
317.4474565857986
 20
18.78041421262813
 30
0.0000000000000000
 40
2.999999999999979
  0
LINE
  5
596
100
AcDbEntity
  8
A0
  6
CONTINUOUS
 62
3
100
AcDbLine
 10
146.6363622020116
 20
211.0746665498984
 30
0.0000000000000000
 11
146.6363622020116
 21
96.57466881487041
 31
0.0000000000000000
  0
LINE
  5
597
100
AcDbEntity
  8
A0
  6
CONTINUOUS
 62
3
100
AcDbLine
 10
13.63636267880165
 20
198.3246667886318
 30
0.0000000000000000
 11
146.6363622020117
 21
198.3246667886909
 31
0.0000000000000000
  0
LINE
  5
598
100
AcDbEntity
  8
A0
  6
CONTINUOUS
 62
3
100
AcDbLine
 10
13.63636267880049
 20
211.0746665497806
 30
0.0000000000000000
 11
146.6363622020115
 21
211.0746665498986
 31
0.0000000000000000
  0
MTEXT
  5
599
100
AcDbEntity
  8
A0
  6
CONTINUOUS
 62
3
100
AcDbMText
 10
30.51136148673221
 20
208.5746665502430
 30
0.0000000000000000
 40
7.749999761581421
 41
0.0000000000000000
 71
     1
 72
     1
  1
{\H0.71x;{仕様　　SPECIFICATIONS}}
 11
1.000000000000000
 21
0.0000000000000000
 31
0.0000000000000000
  7
KNJYOKO
  0
MTEXT
  5
59A
100
AcDbEntity
  8
A0
  6
CONTINUOUS
 62
3
100
AcDbMText
 10
102.6363612483062
 20
191.9496669075789
 30
0.0000000000000000
 40
7.749999761581421
 41
0.0000000000000000
 71
     1
 72
     1
  1
{\H0.70x;{０～３５４mm}}
 11
1.000000000000000
 21
0.0000000000000000
 31
0.0000000000000000
  7
KNJYOKO
  0
MTEXT
  5
59B
100
AcDbEntity
  8
A0
  6
CONTINUOUS
 62
3
100
AcDbMText
 10
14.88636267881772
 20
186.8246670267882
 30
0.0000000000000000
 40
7.749999761581421
 41
0.0000000000000000
 71
     1
 72
     1
  1
{\H0.71x;{CLAMPING RANGE}}
 11
1.000000000000000
 21
0.0000000000000000
 31
0.0000000000000000
  7
STANDARD
  0
LINE
  5
59C
100
AcDbEntity
  8
A0
  6
CONTINUOUS
 62
3
100
AcDbLine
 10
13.63636267880301
 20
177.8246672650362
 30
0.0000000000000000
 11
146.6363622020116
 21
177.8246672651541
 31
0.0000000000000000
  0
LINE
  5
59D
100
AcDbEntity
  8
A0
  6
CONTINUOUS
 62
3
100
AcDbLine
 10
101.3863612483040
 20
198.3246667886688
 30
0.0000000000000000
 11
101.3863612483040
 21
177.8246672651095
 31
0.0000000000000000
  0
MTEXT
  5
59E
100
AcDbEntity
  8
A0
  6
CONTINUOUS
 62
3
100
AcDbMText
 10
14.88636267881772
 20
166.3246675036254
 30
0.0000000000000000
 40
7.749999761581421
 41
0.0000000000000000
 71
     1
 72
     1
  1
{\H0.71x;{TIGHTENING TORQUE}}
 11
1.000000000000000
 21
0.0000000000000000
 31
0.0000000000000000
  7
STANDARD
  0
LINE
  5
59F
100
AcDbEntity
  8
A0
  6
CONTINUOUS
 62
3
100
AcDbLine
 10
146.6363622020116
 20
157.3246677423653
 30
0.0000000000000000
 11
13.63636267880475
 21
157.3246677423061
 31
0.0000000000000000
  0
LINE
  5
5A0
100
AcDbEntity
  8
A0
  6
CONTINUOUS
 62
3
100
AcDbLine
 10
101.3863612483040
 20
157.3246677423431
 30
0.0000000000000000
 11
101.3863612483040
 21
96.57466881483039
 31
0.0000000000000000
  0
LINE
  5
5A1
100
AcDbEntity
  8
A0
  6
CONTINUOUS
 62
3
100
AcDbLine
 10
101.3863612483039
 20
136.8246682191804
 30
0.0000000000000000
 11
146.6363622020116
 21
136.8246682192004
 31
0.0000000000000000
  0
MTEXT
  5
5A2
100
AcDbEntity
  8
A0
  6
CONTINUOUS
 62
3
100
AcDbMText
 10
107.6363617251434
 20
135.5746682185029
 30
0.0000000000000000
 40
7.749999761581421
 41
0.0000000000000000
 71
     1
 72
     1
  1
{\H0.67x;{2}}
 11
1.000000000000000
 21
0.0000000000000000
 31
0.0000000000000000
  7
STANDARD
  0
LINE
  5
5A3
100
AcDbEntity
  8
A0
  6
CONTINUOUS
 62
3
100
AcDbLine
 10
146.6363622020116
 20
116.3246684576210
 30
0.0000000000000000
 11
13.63636267880717
 21
116.3246684575619
 31
0.0000000000000000
  0
MTEXT
  5
5A4
100
AcDbEntity
  8
A0
  6
CONTINUOUS
 62
3
100
AcDbMText
 10
107.6363617251434
 20
125.3246682188811
 30
0.0000000000000000
 40
7.749999761581421
 41
0.0000000000000000
 71
     1
 72
     1
  1
{\H0.67x;{3}}
 11
1.000000000000000
 21
0.0000000000000000
 31
0.0000000000000000
  7
STANDARD
  0
LINE
  5
5A5
100
AcDbEntity
  8
A0
  6
CONTINUOUS
 62
3
100
AcDbLine
 10
101.3863612483038
 20
147.0746679803655
 30
0.0000000000000000
 11
146.6363622020115
 21
147.0746679804056
 31
0.0000000000000000
  0
LINE
  5
5A6
100
AcDbEntity
  8
A0
  6
CONTINUOUS
 62
3
100
AcDbLine
 10
118.5351561181855
 20
157.3246677423507
 30
0.0000000000000000
 11
118.5351561181855
 21
116.3246684576087
 31
0.0000000000000000
  0
MTEXT
  5
5A7
100
AcDbEntity
  8
A0
  6
CONTINUOUS
 62
3
100
AcDbMText
 10
122.3574153703061
 20
145.8246679800834
 30
0.0000000000000000
 40
7.749999761581421
 41
0.0000000000000000
 71
     1
 72
     1
  1
{\H0.70x;{20KN}}
 11
1.000000000000000
 21
0.0000000000000000
 31
0.0000000000000000
  7
STANDARD
  0
MTEXT
  5
5A8
100
AcDbEntity
  8
A0
  6
CONTINUOUS
 62
3
100
AcDbMText
 10
122.3574153703061
 20
135.5746682185020
 30
0.0000000000000000
 40
7.749999761581421
 41
0.0000000000000000
 71
     1
 72
     1
  1
{\H0.70x;{32KN}}
 11
1.000000000000000
 21
0.0000000000000000
 31
0.0000000000000000
  7
STANDARD
  0
MTEXT
  5
5A9
100
AcDbEntity
  8
A0
  6
CONTINUOUS
 62
3
100
AcDbMText
 10
122.3574153703061
 20
125.3246682188802
 30
0.0000000000000000
 40
7.749999761581421
 41
0.0000000000000000
 71
     1
 72
     1
  1
{\H0.70x;{45KN}}
 11
1.000000000000000
 21
0.0000000000000000
 31
0.0000000000000000
  7
STANDARD
  0
MTEXT
  5
5AA
100
AcDbEntity
  8
A0
  6
CONTINUOUS
 62
3
100
AcDbMText
 10
107.6363617251434
 20
145.8246679800843
 30
0.0000000000000000
 40
7.749999761581421
 41
0.0000000000000000
 71
     1
 72
     1
  1
{\H0.67x;{1}}
 11
1.000000000000000
 21
0.0000000000000000
 31
0.0000000000000000
  7
STANDARD
  0
MTEXT
  5
5AB
100
AcDbEntity
  8
A0
  6
CONTINUOUS
 62
3
100
AcDbMText
 10
113.0151748954777
 20
109.9496685764988
 30
0.0000000000000000
 40
7.749999761581421
 41
0.0000000000000000
 71
     1
 72
     1
  1
{\H0.70x;{69kg}}
 11
1.000000000000000
 21
0.0000000000000000
 31
0.0000000000000000
  7
STANDARD
  0
MTEXT
  5
5AC
100
AcDbEntity
  8
A0
  6
CONTINUOUS
 62
3
100
AcDbMText
 10
14.88636267881772
 20
104.8246686957183
 30
0.0000000000000000
 40
6.999999880790710
 41
0.0000000000000000
 71
     1
 72
     1
  1
{\H0.67x;{MASS OF POWER VISE}}
 11
1.000000000000000
 21
0.0000000000000000
 31
0.0000000000000000
  7
STANDARD
  0
MTEXT
  5
5AD
100
AcDbEntity
  8
A0
  6
CONTINUOUS
 62
3
100
AcDbMText
 10
14.88636267881772
 20
115.0746684572997
 30
0.0000000000000000
 40
7.749999761581421
 41
0.0000000000000000
 71
     1
 72
     1
  1
{\H0.70x;{製品質量}}
 11
1.000000000000000
 21
0.0000000000000000
 31
0.0000000000000000
  7
KNJYOKO
  0
MTEXT
  5
5AE
100
AcDbEntity
  8
A0
  6
CONTINUOUS
 62
3
100
AcDbMText
 10
14.88636267881772
 20
145.8246679804626
 30
0.0000000000000000
 40
7.749999761581421
 41
0.0000000000000000
 71
     1
 72
     1
  1
{\H0.71x;{CLAMP RANGE}}
 11
1.000000000000000
 21
0.0000000000000000
 31
0.0000000000000000
  7
STANDARD
  0
MTEXT
  5
5AF
100
AcDbEntity
  8
A0
  6
CONTINUOUS
 62
3
100
AcDbMText
 10
14.88636267881772
 20
156.0746677420440
 30
0.0000000000000000
 40
7.749999761581421
 41
0.0000000000000000
 71
     1
 72
     1
  1
{\H0.70x;{締付けレンジ}}
 11
1.000000000000000
 21
0.0000000000000000
 31
0.0000000000000000
  7
KNJYOKO
  0
LINE
  5
5B0
100
AcDbEntity
  8
A0
  6
CONTINUOUS
 62
3
100
AcDbLine
 10
13.63636267880066
 20
211.0746665497802
 30
0.0000000000000000
 11
13.63636267880883
 21
96.57466881475678
 31
0.0000000000000000
  0
LINE
  5
5B1
100
AcDbEntity
  8
A0
  6
CONTINUOUS
 62
3
100
AcDbLine
 10
146.6363622020115
 20
96.57466881487507
 30
0.0000000000000000
 11
13.63636267880863
 21
96.57466881475712
 31
0.0000000000000000
  0
MTEXT
  5
5B2
100
AcDbEntity
  8
A0
  6
CONTINUOUS
 62
3
100
AcDbMText
 10
14.88636267881772
 20
176.5746672652068
 30
0.0000000000000000
 40
7.749999761581421
 41
0.0000000000000000
 71
     1
 72
     1
  1
{\H0.70x;{締付トルク}}
 11
1.000000000000000
 21
0.0000000000000000
 31
0.0000000000000000
  7
KNJYOKO
  0
MTEXT
  5
5B3
100
AcDbEntity
  8
A0
  6
CONTINUOUS
 62
3
100
AcDbMText
 10
14.88636267881772
 20
197.0746667883697
 30
0.0000000000000000
 40
7.749999761581421
 41
0.0000000000000000
 71
     1
 72
     1
  1
{\H0.70x;{口金の開き}}
 11
1.000000000000000
 21
0.0000000000000000
 31
0.0000000000000000
  7
KNJYOKO
  0
LINE
  5
5B4
100
AcDbEntity
  8
A0
  6
CONTINUOUS
 62
3
100
AcDbLine
 10
101.3863612483040
 20
126.5746682191804
 30
0.0000000000000000
 11
146.6363622020116
 21
126.5746682192004
 31
0.0000000000000000
  0
MTEXT
  5
5B5
100
AcDbEntity
  8
A0
  6
CONTINUOUS
 62
3
100
AcDbMText
 10
122.3574153703061
 20
156.0746677420431
 30
0.0000000000000000
 40
7.749999761581421
 41
0.0000000000000000
 71
     1
 72
     1
  1
{\H0.70x;{10KN}}
 11
1.000000000000000
 21
0.0000000000000000
 31
0.0000000000000000
  7
STANDARD
  0
MTEXT
  5
5B6
100
AcDbEntity
  8
A0
  6
CONTINUOUS
 62
3
100
AcDbMText
 10
107.6363617251434
 20
156.0746677420440
 30
0.0000000000000000
 40
7.749999761581421
 41
0.0000000000000000
 71
     1
 72
     1
  1
{\H0.67x;{0}}
 11
1.000000000000000
 21
0.0000000000000000
 31
0.0000000000000000
  7
STANDARD
  0
ENDSEC
  0
SECTION
  2
OBJECTS
  0
DICTIONARY
  5
617
100
AcDbDictionary
  3
ACAD_GROUP
350
618
  3
ACAD_MLINESTYLE
350
619
  3
DWGPROPS
350
61A
  0
DICTIONARY
  5
618
102
{ACAD_REACTORS
330
617
102
}
100
AcDbDictionary
  0
DICTIONARY
  5
619
102
{ACAD_REACTORS
330
617
102
}
100
AcDbDictionary
  3
STANDARD
350
61B
  0
MLINESTYLE
  5
61B
102
{ACAD_REACTORS
330
619
102
}
100
AcDbMlineStyle
  2
STANDARD
 70
     0
  3

 62
   256
 51
90.00
 52
90.00
 71
     2
 49
0.50
 62
   256
  6
BYLAYER
 49
-0.50
 62
   256
  6
BYLAYER
  0
XRECORD
  5
61A
102
{ACAD_REACTORS
330
617
102
}
100
AcDbXrecord
280
     1
  1
DWGPROPS COOKIE
  2
ＶＥ１６０Ｌ　ガイケイ
  3

  4

  6
パワーバイス
  7

  8

  9

300
=
301
=
302
=
303
=
304
=
305
=
306
=
307
=
308
=
309
=
 40
0.000000
 41
0.000000
 42
0.000000
  1

 90
        0
  0
ENDSEC
  0
EOF
