  0
SECTION
  2
HEADER
  9
$ACADVER
  1
AC1014
  9
$DWGCODEPAGE
  3
ANSI_932
  9
$LTSCALE
 40
20.0
  9
$FILLMODE
 70
     1
  9
$CLAYER
  8
0
  9
$PDMODE
 70
     0
  9
$SPLFRAME
 70
     0
  9
$SPLINETYPE
 70
     6
  9
$SPLINESEGS
 70
     8
  9
$DIMASZ
 40
2.000000
  9
$DIMEXE
 40
2.000000
  9
$DIMEXO
 40
0.800000
  9
$DIMTAD
 70
     1
  9
$DIMTIH
 70
     0
  9
$DIMTOH
 70
     0
  9
$DIMTVP
 40
0.500000
  9
$DIMTXT
 40
3.100000
  9
$EXTMIN
 10
0.000000
 20
0.000000
 30
0.000000
  9
$EXTMAX
 10
297.000000
 20
420.000000
 30
0.000000
  9
$MEASUREMENT
 70
  1
  9
$LIMMIN
 10
0.000000
 20
0.000000
  9
$LIMMAX
 10
297.000000
 20
420.000000
  9
$HANDLING
 70
     1
  9
$HANDSEED
  5
62D
  9
$DIMBLK
  1
_OPEN
  9
$DIMDEC
 70
     3
  9
$DIMAUNIT
 70
     1
  9
$DIMZIN
 70
     8
  9
$DIMTOFL
 70
     1
  0
ENDSEC
  0
SECTION
  2
CLASSES
  0
ENDSEC
  0
SECTION
  2
TABLES
  0
TABLE
  2
VPORT
  5
5C7
100
AcDbSymbolTable
 70
     1
  0
VPORT
  5
5C8
100
AcDbSymbolTableRecord
100
AcDbViewportTableRecord
  2
*ACTIVE
 70
     0
 12
518.468586
 22
402.974111
 40
1530.222138
 41
1.314634
  0
ENDTAB
  0
TABLE
  2
LTYPE
  5
5C9
100
AcDbSymbolTable
 70
     3
  0
LTYPE
  5
5CA
100
AcDbSymbolTableRecord
100
AcDbLinetypeTableRecord
  2
BYBLOCK
 70
     0
  3

 72
    65
 73
     0
 40
0.0
  0
LTYPE
  5
5CB
100
AcDbSymbolTableRecord
100
AcDbLinetypeTableRecord
  2
BYLAYER
 70
     0
  3

 72
    65
 73
     0
 40
0.0
  0
LTYPE
  5
5CC
100
AcDbSymbolTableRecord
100
AcDbLinetypeTableRecord
  2
CONTINUOUS
 70
     0
  3
Solid line (NEC CAE2D for Win R12.1 : 2016.08.08)
 72
    65
 73
     0
 40
0.0
  0
LTYPE
  5
5CD
100
AcDbSymbolTableRecord
100
AcDbLinetypeTableRecord
  2
HIDDEN
 70
     0
  3
__ __ __ __ __ __ __ __ __ __ __ __ __ __
 72
    65
 73
     2
 40
0.375
 49
0.25
 74
     0
 49
-0.125
 74
     0
  0
LTYPE
  5
5CE
100
AcDbSymbolTableRecord
100
AcDbLinetypeTableRecord
  2
CENTER
 70
     0
  3
____ _ ____ _ ____ _ ____ _ ____ _ ____
 72
    65
 73
     4
 40
2.0
 49
1.25
 74
     0
 49
-0.25
 74
     0
 49
0.25
 74
     0
 49
-0.25
 74
     0
  0
ENDTAB
  0
TABLE
  2
LAYER
  5
5CF
100
AcDbSymbolTable
 70
    10
  0
LAYER
  5
5D0
100
AcDbSymbolTableRecord
100
AcDbLayerTableRecord
  2
0
 70
     0
 62
     7
  6
CONTINUOUS
  0
LAYER
  5
5D1
100
AcDbSymbolTableRecord
100
AcDbLayerTableRecord
  2
MAIN0
 70
     0
 62
     7
  6
CONTINUOUS
  0
LAYER
  5
5D2
100
AcDbSymbolTableRecord
100
AcDbLayerTableRecord
  2
MAIN1
 70
     0
 62
     7
  6
CONTINUOUS
  0
LAYER
  5
5D3
100
AcDbSymbolTableRecord
100
AcDbLayerTableRecord
  2
MAIN3
 70
     0
 62
     7
  6
CONTINUOUS
  0
LAYER
  5
5D4
100
AcDbSymbolTableRecord
100
AcDbLayerTableRecord
  2
MAIN10
 70
     0
 62
     7
  6
CONTINUOUS
  0
LAYER
  5
5D5
100
AcDbSymbolTableRecord
100
AcDbLayerTableRecord
  2
MAIN1023
 70
     0
 62
    16
  6
CONTINUOUS
  0
LAYER
  5
5D6
100
AcDbSymbolTableRecord
100
AcDbLayerTableRecord
  2
A0
 70
     0
 62
     7
  6
CONTINUOUS
  0
LAYER
  5
5D7
100
AcDbSymbolTableRecord
100
AcDbLayerTableRecord
  2
A1023
 70
     0
 62
    16
  6
CONTINUOUS
  0
LAYER
  5
5D8
100
AcDbSymbolTableRecord
100
AcDbLayerTableRecord
  2
WAKU0
 70
     0
 62
     7
  6
CONTINUOUS
  0
LAYER
  5
5D9
100
AcDbSymbolTableRecord
100
AcDbLayerTableRecord
  2
WAKU1023
 70
     0
 62
    16
  6
CONTINUOUS
  0
ENDTAB
  0
TABLE
  2
STYLE
  5
5DA
100
AcDbSymbolTable
 70
     4
  0
STYLE
  5
5DB
100
AcDbSymbolTableRecord
100
AcDbTextStyleTableRecord
  2
STANDARD
 70
    64
 40
0.0
 41
1.0
 50
0.0
 71
     0
 42
3.099999904632568
  3
TXT
  4

  0
STYLE
  5
5DC
100
AcDbSymbolTableRecord
100
AcDbTextStyleTableRecord
  2
ANKTATE
 70
    68
 40
0.0
 41
1.0
 50
0.0
 71
     0
 42
3.099999904632568
  3
TXT
  4

  0
STYLE
  5
392
100
AcDbSymbolTableRecord
100
AcDbTextStyleTableRecord
  2
KNJYOKO
 70
    64
 40
0.0
 41
1.0
 50
0.0
 71
     0
 42
3.099999904632568
  3
TXT
  4
BIGFONT
  0
STYLE
  5
5DD
100
AcDbSymbolTableRecord
100
AcDbTextStyleTableRecord
  2
KNJTATE
 70
    68
 40
0.0
 41
1.0
 50
0.0
 71
     0
 42
3.099999904632568
  3
TXT
  4
BIGFONT
  0
ENDTAB
  0
TABLE
  2
VIEW
  5
5DE
100
AcDbSymbolTable
 70
     0
  0
ENDTAB
  0
TABLE
  2
UCS
  5
5DF
100
AcDbSymbolTable
 70
     0
  0
ENDTAB
  0
TABLE
  2
APPID
  5
5E0
100
AcDbSymbolTable
 70
     1
  0
APPID
  5
5E1
100
AcDbSymbolTableRecord
100
AcDbRegAppTableRecord
  2
ACAD
 70
     0
  0
ENDTAB
  0
TABLE
  2
DIMSTYLE
  5
5E2
100
AcDbSymbolTable
 70
     1
  0
DIMSTYLE
105
5E3
100
AcDbSymbolTableRecord
100
AcDbDimStyleTableRecord
  2
STANDARD
 70
     0
 41
2.000000
 44
2.000000
 42
0.800000
145
0.661290
140
3.100000
144
1.000000
146
0.903226
340
5DB
  0
DIMSTYLE
105
5E4
100
AcDbSymbolTableRecord
100
AcDbDimStyleTableRecord
  2
MAIN001
 70
     0
 41
5.000000
 44
5.000000
 42
2.000000
145
0.564516
140
7.750000
144
1.000000
146
0.903226
 77
     1
 73
     0
 74
     0
271
     3
275
     1
 78
     8
172
     1
340
5DB
  0
DIMSTYLE
105
5E5
100
AcDbSymbolTableRecord
100
AcDbDimStyleTableRecord
  2
A002
 70
     0
 41
5.000000
 44
5.000000
 42
2.000000
145
0.564516
140
7.750000
144
1.000000
146
0.903226
 77
     1
 73
     0
 74
     0
271
     3
275
     1
 78
     8
172
     1
340
5DB
  0
DIMSTYLE
105
5E6
100
AcDbSymbolTableRecord
100
AcDbDimStyleTableRecord
  2
WAKU003
 70
     0
 41
2.000000
 44
2.000000
 42
0.800000
145
0.661290
140
3.100000
144
1.000000
146
0.903226
 77
     1
 73
     0
 74
     0
271
     3
275
     1
 78
     8
172
     1
340
5DB
  0
ENDTAB
  0
TABLE
  2
BLOCK_RECORD
  5
5E7
100
AcDbSymbolTable
 70
    70
  0
BLOCK_RECORD
  5
5E8
100
AcDbSymbolTableRecord
100
AcDbBlockTableRecord
  2
*MODEL_SPACE
  0
BLOCK_RECORD
  5
5E9
100
AcDbSymbolTableRecord
100
AcDbBlockTableRecord
  2
*PAPER_SPACE
  0
BLOCK_RECORD
  5
1
100
AcDbSymbolTableRecord
100
AcDbBlockTableRecord
  2
_NONE
  0
BLOCK_RECORD
  5
4
100
AcDbSymbolTableRecord
100
AcDbBlockTableRecord
  2
_CLOSED
  0
BLOCK_RECORD
  5
B
100
AcDbSymbolTableRecord
100
AcDbBlockTableRecord
  2
_DOT
  0
BLOCK_RECORD
  5
13
100
AcDbSymbolTableRecord
100
AcDbBlockTableRecord
  2
_OPEN
  0
BLOCK_RECORD
  5
19
100
AcDbSymbolTableRecord
100
AcDbBlockTableRecord
  2
_ORIGIN
  0
BLOCK_RECORD
  5
1E
100
AcDbSymbolTableRecord
100
AcDbBlockTableRecord
  2
_OPEN30
  0
BLOCK_RECORD
  5
24
100
AcDbSymbolTableRecord
100
AcDbBlockTableRecord
  2
_BOXFILLED
  0
BLOCK_RECORD
  5
29
100
AcDbSymbolTableRecord
100
AcDbBlockTableRecord
  2
_BOXBLANK
  0
BLOCK_RECORD
  5
31
100
AcDbSymbolTableRecord
100
AcDbBlockTableRecord
  2
_OBLIQUE
  0
BLOCK_RECORD
  5
35
100
AcDbSymbolTableRecord
100
AcDbBlockTableRecord
  2
_OPEN90
  0
BLOCK_RECORD
  5
3B
100
AcDbSymbolTableRecord
100
AcDbBlockTableRecord
  2
_CLOSEDBLANK
  0
BLOCK_RECORD
  5
41
100
AcDbSymbolTableRecord
100
AcDbBlockTableRecord
  2
_DOTBLANK
  0
BLOCK_RECORD
  5
5EA
100
AcDbSymbolTableRecord
100
AcDbBlockTableRecord
  2
*D0
  0
BLOCK_RECORD
  5
5EB
100
AcDbSymbolTableRecord
100
AcDbBlockTableRecord
  2
*D1
  0
BLOCK_RECORD
  5
5EC
100
AcDbSymbolTableRecord
100
AcDbBlockTableRecord
  2
*D2
  0
BLOCK_RECORD
  5
5ED
100
AcDbSymbolTableRecord
100
AcDbBlockTableRecord
  2
*D3
  0
BLOCK_RECORD
  5
5EE
100
AcDbSymbolTableRecord
100
AcDbBlockTableRecord
  2
*D4
  0
BLOCK_RECORD
  5
5EF
100
AcDbSymbolTableRecord
100
AcDbBlockTableRecord
  2
*D5
  0
BLOCK_RECORD
  5
5F0
100
AcDbSymbolTableRecord
100
AcDbBlockTableRecord
  2
*D6
  0
BLOCK_RECORD
  5
5F1
100
AcDbSymbolTableRecord
100
AcDbBlockTableRecord
  2
*D7
  0
BLOCK_RECORD
  5
5F2
100
AcDbSymbolTableRecord
100
AcDbBlockTableRecord
  2
*D8
  0
BLOCK_RECORD
  5
5F3
100
AcDbSymbolTableRecord
100
AcDbBlockTableRecord
  2
*D9
  0
BLOCK_RECORD
  5
5F4
100
AcDbSymbolTableRecord
100
AcDbBlockTableRecord
  2
*D10
  0
BLOCK_RECORD
  5
5F5
100
AcDbSymbolTableRecord
100
AcDbBlockTableRecord
  2
*D11
  0
BLOCK_RECORD
  5
5F6
100
AcDbSymbolTableRecord
100
AcDbBlockTableRecord
  2
*D12
  0
BLOCK_RECORD
  5
5F7
100
AcDbSymbolTableRecord
100
AcDbBlockTableRecord
  2
*D13
  0
BLOCK_RECORD
  5
5F8
100
AcDbSymbolTableRecord
100
AcDbBlockTableRecord
  2
*D14
  0
BLOCK_RECORD
  5
5F9
100
AcDbSymbolTableRecord
100
AcDbBlockTableRecord
  2
*D15
  0
BLOCK_RECORD
  5
5FA
100
AcDbSymbolTableRecord
100
AcDbBlockTableRecord
  2
*D16
  0
BLOCK_RECORD
  5
5FB
100
AcDbSymbolTableRecord
100
AcDbBlockTableRecord
  2
*D17
  0
BLOCK_RECORD
  5
5FC
100
AcDbSymbolTableRecord
100
AcDbBlockTableRecord
  2
*D18
  0
BLOCK_RECORD
  5
5FD
100
AcDbSymbolTableRecord
100
AcDbBlockTableRecord
  2
*D19
  0
BLOCK_RECORD
  5
5FE
100
AcDbSymbolTableRecord
100
AcDbBlockTableRecord
  2
*D20
  0
BLOCK_RECORD
  5
5FF
100
AcDbSymbolTableRecord
100
AcDbBlockTableRecord
  2
*D21
  0
BLOCK_RECORD
  5
600
100
AcDbSymbolTableRecord
100
AcDbBlockTableRecord
  2
*D22
  0
BLOCK_RECORD
  5
601
100
AcDbSymbolTableRecord
100
AcDbBlockTableRecord
  2
*D23
  0
BLOCK_RECORD
  5
602
100
AcDbSymbolTableRecord
100
AcDbBlockTableRecord
  2
*D24
  0
BLOCK_RECORD
  5
603
100
AcDbSymbolTableRecord
100
AcDbBlockTableRecord
  2
*D25
  0
BLOCK_RECORD
  5
604
100
AcDbSymbolTableRecord
100
AcDbBlockTableRecord
  2
*D26
  0
BLOCK_RECORD
  5
605
100
AcDbSymbolTableRecord
100
AcDbBlockTableRecord
  2
*D27
  0
BLOCK_RECORD
  5
606
100
AcDbSymbolTableRecord
100
AcDbBlockTableRecord
  2
*D28
  0
BLOCK_RECORD
  5
607
100
AcDbSymbolTableRecord
100
AcDbBlockTableRecord
  2
*D29
  0
BLOCK_RECORD
  5
608
100
AcDbSymbolTableRecord
100
AcDbBlockTableRecord
  2
*D30
  0
BLOCK_RECORD
  5
609
100
AcDbSymbolTableRecord
100
AcDbBlockTableRecord
  2
*D31
  0
BLOCK_RECORD
  5
60A
100
AcDbSymbolTableRecord
100
AcDbBlockTableRecord
  2
*D32
  0
BLOCK_RECORD
  5
60B
100
AcDbSymbolTableRecord
100
AcDbBlockTableRecord
  2
*D33
  0
BLOCK_RECORD
  5
60C
100
AcDbSymbolTableRecord
100
AcDbBlockTableRecord
  2
*D34
  0
BLOCK_RECORD
  5
60D
100
AcDbSymbolTableRecord
100
AcDbBlockTableRecord
  2
*D35
  0
BLOCK_RECORD
  5
60E
100
AcDbSymbolTableRecord
100
AcDbBlockTableRecord
  2
*D36
  0
BLOCK_RECORD
  5
60F
100
AcDbSymbolTableRecord
100
AcDbBlockTableRecord
  2
*D37
  0
BLOCK_RECORD
  5
610
100
AcDbSymbolTableRecord
100
AcDbBlockTableRecord
  2
*D38
  0
BLOCK_RECORD
  5
611
100
AcDbSymbolTableRecord
100
AcDbBlockTableRecord
  2
*D39
  0
BLOCK_RECORD
  5
612
100
AcDbSymbolTableRecord
100
AcDbBlockTableRecord
  2
*D40
  0
BLOCK_RECORD
  5
613
100
AcDbSymbolTableRecord
100
AcDbBlockTableRecord
  2
D41
  0
BLOCK_RECORD
  5
614
100
AcDbSymbolTableRecord
100
AcDbBlockTableRecord
  2
*D42
  0
BLOCK_RECORD
  5
615
100
AcDbSymbolTableRecord
100
AcDbBlockTableRecord
  2
*D43
  0
BLOCK_RECORD
  5
616
100
AcDbSymbolTableRecord
100
AcDbBlockTableRecord
  2
*D44
  0
BLOCK_RECORD
  5
617
100
AcDbSymbolTableRecord
100
AcDbBlockTableRecord
  2
*D45
  0
BLOCK_RECORD
  5
618
100
AcDbSymbolTableRecord
100
AcDbBlockTableRecord
  2
*D46
  0
BLOCK_RECORD
  5
619
100
AcDbSymbolTableRecord
100
AcDbBlockTableRecord
  2
*D47
  0
BLOCK_RECORD
  5
61A
100
AcDbSymbolTableRecord
100
AcDbBlockTableRecord
  2
*D48
  0
BLOCK_RECORD
  5
61B
100
AcDbSymbolTableRecord
100
AcDbBlockTableRecord
  2
*D49
  0
BLOCK_RECORD
  5
61C
100
AcDbSymbolTableRecord
100
AcDbBlockTableRecord
  2
*D50
  0
BLOCK_RECORD
  5
61D
100
AcDbSymbolTableRecord
100
AcDbBlockTableRecord
  2
*D51
  0
BLOCK_RECORD
  5
61E
100
AcDbSymbolTableRecord
100
AcDbBlockTableRecord
  2
*D52
  0
BLOCK_RECORD
  5
61F
100
AcDbSymbolTableRecord
100
AcDbBlockTableRecord
  2
*D53
  0
BLOCK_RECORD
  5
620
100
AcDbSymbolTableRecord
100
AcDbBlockTableRecord
  2
*D54
  0
BLOCK_RECORD
  5
621
100
AcDbSymbolTableRecord
100
AcDbBlockTableRecord
  2
*D55
  0
BLOCK_RECORD
  5
622
100
AcDbSymbolTableRecord
100
AcDbBlockTableRecord
  2
*D56
  0
BLOCK_RECORD
  5
623
100
AcDbSymbolTableRecord
100
AcDbBlockTableRecord
  2
*D57
  0
ENDTAB
  0
ENDSEC
  0
SECTION
  2
BLOCKS
  0
BLOCK
  5
624
100
AcDbEntity
  8
0
100
AcDbBlockBegin
  2
*MODEL_SPACE
 70
     0
 10
0.0
 20
0.0
 30
0.0
  3
*MODEL_SPACE
  1

  0
ENDBLK
  5
625
100
AcDbEntity
  8
0
100
AcDbBlockEnd
  0
BLOCK
  5
626
100
AcDbEntity
  8
0
100
AcDbBlockBegin
  2
*PAPER_SPACE
 70
     0
 10
0.0
 20
0.0
 30
0.0
  3
*PAPER_SPACE
  1

  0
ENDBLK
  5
627
100
AcDbEntity
  8
0
100
AcDbBlockEnd
  0
BLOCK
  5
2
100
AcDbEntity
  8
0
100
AcDbBlockBegin
  2
_NONE
 70
     0
 10
0.0
 20
0.0
 30
0.0
  3
_NONE
  1

  0
ENDBLK
  5
3
100
AcDbEntity
  8
0
100
AcDbBlockEnd
  0
BLOCK
  5
5
100
AcDbEntity
  8
0
100
AcDbBlockBegin
  2
_CLOSED
 70
     0
 10
0.0
 20
0.0
 30
0.0
  3
_CLOSED
  1

  0
LINE
  5
6
100
AcDbEntity
  8
0
  6
BYBLOCK
 62
     0
100
AcDbLine
 10
-1.0
 20
0.166667
 30
0.0
 11
0.0
 21
0.0
 31
0.0
  0
LINE
  5
7
100
AcDbEntity
  8
0
  6
BYBLOCK
 62
     0
100
AcDbLine
 10
0.0
 20
0.0
 30
0.0
 11
-1.0
 21
-0.166667
 31
0.0
  0
LINE
  5
8
100
AcDbEntity
  8
0
  6
BYBLOCK
 62
     0
100
AcDbLine
 10
-1.0
 20
0.166667
 30
0.0
 11
-1.0
 21
-0.166667
 31
0.0
  0
LINE
  5
9
100
AcDbEntity
  8
0
  6
BYBLOCK
 62
     0
100
AcDbLine
 10
0.0
 20
0.0
 30
0.0
 11
-1.0
 21
0.0
 31
0.0
  0
ENDBLK
  5
A
100
AcDbEntity
  8
0
100
AcDbBlockEnd
  0
BLOCK
  5
C
100
AcDbEntity
  8
0
100
AcDbBlockBegin
  2
_DOT
 70
     0
 10
0.0
 20
0.0
 30
0.0
  3
_DOT
  1

  0
POLYLINE
  5
D
100
AcDbEntity
  8
0
  6
BYBLOCK
 62
     0
100
AcDb2dPolyline
 66
     1
 10
0.0
 20
0.0
 30
0.0
 70
     1
 40
0.5
 41
0.5
  0
VERTEX
  5
E
100
AcDbEntity
  8
0
  6
BYBLOCK
 62
     0
100
AcDbVertex
100
AcDb2dVertex
 10
-0.25
 20
0.0
 30
0.0
 42
1.0
  0
VERTEX
  5
F
100
AcDbEntity
  8
0
  6
BYBLOCK
 62
     0
100
AcDbVertex
100
AcDb2dVertex
 10
0.25
 20
0.0
 30
0.0
 42
1.0
  0
SEQEND
  5
10
100
AcDbEntity
  8
0
  6
BYBLOCK
 62
     0
  0
LINE
  5
11
100
AcDbEntity
  8
0
  6
BYBLOCK
 62
     0
100
AcDbLine
 10
-0.5
 20
0.0
 30
0.0
 11
-1.0
 21
0.0
 31
0.0
  0
ENDBLK
  5
12
100
AcDbEntity
  8
0
100
AcDbBlockEnd
  0
BLOCK
  5
14
100
AcDbEntity
  8
0
100
AcDbBlockBegin
  2
_OPEN
 70
     0
 10
0.0
 20
0.0
 30
0.0
  3
_OPEN
  1

  0
LINE
  5
15
100
AcDbEntity
  8
0
  6
BYBLOCK
 62
     0
100
AcDbLine
 10
-1.0
 20
0.166667
 30
0.0
 11
0.0
 21
0.0
 31
0.0
  0
LINE
  5
16
100
AcDbEntity
  8
0
  6
BYBLOCK
 62
     0
100
AcDbLine
 10
0.0
 20
0.0
 30
0.0
 11
-1.0
 21
-0.166667
 31
0.0
  0
LINE
  5
17
100
AcDbEntity
  8
0
  6
BYBLOCK
 62
     0
100
AcDbLine
 10
0.0
 20
0.0
 30
0.0
 11
-1.0
 21
0.0
 31
0.0
  0
ENDBLK
  5
18
100
AcDbEntity
  8
0
100
AcDbBlockEnd
  0
BLOCK
  5
1A
100
AcDbEntity
  8
0
100
AcDbBlockBegin
  2
_ORIGIN
 70
     0
 10
0.0
 20
0.0
 30
0.0
  3
_ORIGIN
  1

  0
CIRCLE
  5
1B
100
AcDbEntity
  8
0
  6
BYBLOCK
 62
     0
100
AcDbCircle
 10
0.0
 20
0.0
 30
0.0
 40
0.5
  0
LINE
  5
1C
100
AcDbEntity
  8
0
  6
BYBLOCK
 62
     0
100
AcDbLine
 10
0.0
 20
0.0
 30
0.0
 11
-1.0
 21
0.0
 31
0.0
  0
ENDBLK
  5
1D
100
AcDbEntity
  8
0
100
AcDbBlockEnd
  0
BLOCK
  5
1F
100
AcDbEntity
  8
0
100
AcDbBlockBegin
  2
_OPEN30
 70
     0
 10
0.0
 20
0.0
 30
0.0
  3
_OPEN30
  1

  0
LINE
  5
20
100
AcDbEntity
  8
0
  6
BYBLOCK
 62
     0
100
AcDbLine
 10
-1.0
 20
0.267949
 30
0.0
 11
0.0
 21
0.0
 31
0.0
  0
LINE
  5
21
100
AcDbEntity
  8
0
  6
BYBLOCK
 62
     0
100
AcDbLine
 10
0.0
 20
0.0
 30
0.0
 11
-1.0
 21
-0.267949
 31
0.0
  0
LINE
  5
22
100
AcDbEntity
  8
0
  6
BYBLOCK
 62
     0
100
AcDbLine
 10
0.0
 20
0.0
 30
0.0
 11
-1.0
 21
0.0
 31
0.0
  0
ENDBLK
  5
23
100
AcDbEntity
  8
0
100
AcDbBlockEnd
  0
BLOCK
  5
25
100
AcDbEntity
  8
0
100
AcDbBlockBegin
  2
_BOXFILLED
 70
     0
 10
0.0
 20
0.0
 30
0.0
  3
_BOXFILLED
  1

  0
SOLID
  5
26
100
AcDbEntity
  8
0
  6
BYBLOCK
 62
     0
100
AcDbTrace
 10
-0.5
 20
0.5
 30
0.0
 11
0.5
 21
0.5
 31
0.0
 12
-0.5
 22
-0.5
 32
0.0
 13
0.5
 23
-0.5
 33
0.0
  0
LINE
  5
27
100
AcDbEntity
  8
0
  6
BYBLOCK
 62
     0
100
AcDbLine
 10
-0.5
 20
0.0
 30
0.0
 11
-1.0
 21
0.0
 31
0.0
  0
ENDBLK
  5
28
100
AcDbEntity
  8
0
100
AcDbBlockEnd
  0
BLOCK
  5
2A
100
AcDbEntity
  8
0
100
AcDbBlockBegin
  2
_BOXBLANK
 70
     0
 10
0.0
 20
0.0
 30
0.0
  3
_BOXBLANK
  1

  0
LINE
  5
2B
100
AcDbEntity
  8
0
  6
BYBLOCK
 62
     0
100
AcDbLine
 10
-0.5
 20
-0.5
 30
0.0
 11
0.5
 21
-0.5
 31
0.0
  0
LINE
  5
2C
100
AcDbEntity
  8
0
  6
BYBLOCK
 62
     0
100
AcDbLine
 10
0.5
 20
-0.5
 30
0.0
 11
0.5
 21
0.5
 31
0.0
  0
LINE
  5
2D
100
AcDbEntity
  8
0
  6
BYBLOCK
 62
     0
100
AcDbLine
 10
0.5
 20
0.5
 30
0.0
 11
-0.5
 21
0.5
 31
0.0
  0
LINE
  5
2E
100
AcDbEntity
  8
0
  6
BYBLOCK
 62
     0
100
AcDbLine
 10
-0.5
 20
0.5
 30
0.0
 11
-0.5
 21
-0.5
 31
0.0
  0
LINE
  5
2F
100
AcDbEntity
  8
0
  6
BYBLOCK
 62
     0
100
AcDbLine
 10
-0.5
 20
0.0
 30
0.0
 11
-1.0
 21
0.0
 31
0.0
  0
ENDBLK
  5
30
100
AcDbEntity
  8
0
100
AcDbBlockEnd
  0
BLOCK
  5
32
100
AcDbEntity
  8
0
100
AcDbBlockBegin
  2
_OBLIQUE
 70
     0
 10
0.0
 20
0.0
 30
0.0
  3
_OBLIQUE
  1

  0
LINE
  5
33
100
AcDbEntity
  8
0
  6
BYBLOCK
 62
     0
100
AcDbLine
 10
-0.5
 20
-0.5
 30
0.0
 11
0.5
 21
0.5
 31
0.0
  0
ENDBLK
  5
34
100
AcDbEntity
  8
0
100
AcDbBlockEnd
  0
BLOCK
  5
36
100
AcDbEntity
  8
0
100
AcDbBlockBegin
  2
_OPEN90
 70
     0
 10
0.0
 20
0.0
 30
0.0
  3
_OPEN90
  1

  0
LINE
  5
37
100
AcDbEntity
  8
0
  6
BYBLOCK
 62
     0
100
AcDbLine
 10
-0.5
 20
0.5
 30
0.0
 11
0.0
 21
0.0
 31
0.0
  0
LINE
  5
38
100
AcDbEntity
  8
0
  6
BYBLOCK
 62
     0
100
AcDbLine
 10
0.0
 20
0.0
 30
0.0
 11
-0.5
 21
-0.5
 31
0.0
  0
LINE
  5
39
100
AcDbEntity
  8
0
  6
BYBLOCK
 62
     0
100
AcDbLine
 10
0.0
 20
0.0
 30
0.0
 11
-1.0
 21
0.0
 31
0.0
  0
ENDBLK
  5
3A
100
AcDbEntity
  8
0
100
AcDbBlockEnd
  0
BLOCK
  5
3C
100
AcDbEntity
  8
0
100
AcDbBlockBegin
  2
_CLOSEDBLANK
 70
     0
 10
0.0
 20
0.0
 30
0.0
  3
_CLOSEDBLANK
  1

  0
LINE
  5
3D
100
AcDbEntity
  8
0
  6
BYBLOCK
 62
     0
100
AcDbLine
 10
-1.0
 20
0.1666666666666666
 30
0.0
 11
0.0
 21
0.0
 31
0.0
  0
LINE
  5
3E
100
AcDbEntity
  8
0
  6
BYBLOCK
 62
     0
100
AcDbLine
 10
0.0
 20
0.0
 30
0.0
 11
-1.0
 21
-0.1666666666666666
 31
0.0
  0
LINE
  5
3F
100
AcDbEntity
  8
0
  6
BYBLOCK
 62
     0
100
AcDbLine
 10
-1.0
 20
0.1666666666666666
 30
0.0
 11
-1.0
 21
-0.1666666666666666
 31
0.0
  0
ENDBLK
  5
40
100
AcDbEntity
  8
0
100
AcDbBlockEnd
  0
BLOCK
  5
42
100
AcDbEntity
  8
0
100
AcDbBlockBegin
  2
_DOTBLANK
 70
     0
 10
0.0
 20
0.0
 30
0.0
  3
_DOTBLANK
  1

  0
CIRCLE
  5
43
100
AcDbEntity
  8
0
  6
BYBLOCK
 62
     0
100
AcDbCircle
 10
0.0
 20
0.0
 30
0.0
 40
0.5
  0
LINE
  5
44
100
AcDbEntity
  8
0
  6
BYBLOCK
 62
     0
100
AcDbLine
 10
-0.5
 20
0.0
 30
0.0
 11
-1.0
 21
0.0
 31
0.0
  0
ENDBLK
  5
45
100
AcDbEntity
  8
0
100
AcDbBlockEnd
  0
BLOCK
  5
5D
100
AcDbEntity
  8
MAIN0
  6
CONTINUOUS
 62
3
100
AcDbBlockBegin
  2
*D0
 70
    65
 10
0.0
 20
0.0
 30
0.0
  0
LINE
  5
5E
100
AcDbEntity
  8
MAIN0
  6
BYBLOCK
 62
0
100
AcDbLine
 10
444.7582249623873
 20
283.9985056946088
 30
0.0000000000000000
 11
444.7582249623873
 21
278.9985056945957
 31
0.0000000000000000
  0
INSERT
  5
5F
100
AcDbEntity
  8
MAIN0
  6
BYBLOCK
 62
0
100
AcDbBlockReference
  2
_OPEN
 10
444.7582249623873
 20
283.9985056946088
 30
0.0000000000000000
 41
5.000000000000000
 42
5.000000000000000
 43
5.000000000000000
 50
270.0000000000000
  0
INSERT
  5
60
100
AcDbEntity
  8
MAIN0
  6
BYBLOCK
 62
0
100
AcDbBlockReference
  2
_OPEN
 10
444.7582249623873
 20
278.9985056945957
 30
0.0000000000000000
 41
5.000000000000000
 42
5.000000000000000
 43
5.000000000000000
 50
90.00000000000000
  0
LINE
  5
61
100
AcDbEntity
  8
MAIN0
  6
BYBLOCK
 62
0
100
AcDbLine
 10
444.7582249623873
 20
288.9985056946088
 30
0.0000000000000000
 11
444.7582249623873
 21
291.4985056946088
 31
0.0000000000000000
  0
LINE
  5
62
100
AcDbEntity
  8
MAIN0
  6
BYBLOCK
 62
0
100
AcDbLine
 10
444.7582249623873
 20
273.9985056945957
 30
0.0000000000000000
 11
444.7582249623873
 21
265.4173895458443
 31
0.0000000000000000
  0
LINE
  5
63
100
AcDbEntity
  8
MAIN0
  6
BYBLOCK
 62
0
100
AcDbLine
 10
422.7582249921903
 20
278.9985056945957
 30
0.0000000000000000
 11
449.7582249623873
 21
278.9985056945957
 31
0.0000000000000000
  0
MTEXT
  5
64
100
AcDbEntity
  8
MAIN0
  6
BYBLOCK
 62
0
100
AcDbMText
 10
439.6332250815966
 20
267.9173895458443
 30
0.0000000000000000
 40
7.749999761581421
 41
0.0000000000000000
 71
     5
 72
     1
  1
\A1;5
 11
6.123233995736766e-017
 21
1.000000000000000
 31
0.0000000000000000
  7
STANDARD
  0
ENDBLK
  5
65
100
AcDbEntity
  8
MAIN0
  6
CONTINUOUS
 62
3
100
AcDbBlockEnd
  0
BLOCK
  5
67
100
AcDbEntity
  8
MAIN0
  6
CONTINUOUS
 62
3
100
AcDbBlockBegin
  2
*D1
 70
    65
 10
0.0
 20
0.0
 30
0.0
  0
LINE
  5
68
100
AcDbEntity
  8
MAIN0
  6
BYBLOCK
 62
0
100
AcDbLine
 10
271.7582249623225
 20
312.4985056955698
 30
0.0000000000000000
 11
336.7582249623114
 21
312.4985056955698
 31
0.0000000000000000
  0
INSERT
  5
69
100
AcDbEntity
  8
MAIN0
  6
BYBLOCK
 62
0
100
AcDbBlockReference
  2
_OPEN
 10
266.7582249623225
 20
312.4985056955698
 30
0.0000000000000000
 41
5.000000000000000
 42
5.000000000000000
 43
5.000000000000000
 50
180.0000000000000
  0
INSERT
  5
6A
100
AcDbEntity
  8
MAIN0
  6
BYBLOCK
 62
0
100
AcDbBlockReference
  2
_OPEN
 10
341.7582249623114
 20
312.4985056955698
 30
0.0000000000000000
 41
5.000000000000000
 42
5.000000000000000
 43
5.000000000000000
 50
0.0000000000000000
  0
LINE
  5
6B
100
AcDbEntity
  8
MAIN0
  6
BYBLOCK
 62
0
100
AcDbLine
 10
341.7582249623114
 20
315.9985056651106
 30
0.0000000000000000
 11
341.7582249623114
 21
307.4985056955698
 31
0.0000000000000000
  0
MTEXT
  5
6C
100
AcDbEntity
  8
MAIN0
  6
BYBLOCK
 62
0
100
AcDbMText
 10
304.2582249623169
 20
316.8735055763605
 30
0.0000000000000000
 40
7.749999761581421
 41
0.0000000000000000
 71
     5
 72
     1
  1
\A1;75
 11
1.000000000000000
 21
0.0000000000000000
 31
0.0000000000000000
  7
STANDARD
  0
ENDBLK
  5
6D
100
AcDbEntity
  8
MAIN0
  6
CONTINUOUS
 62
3
100
AcDbBlockEnd
  0
BLOCK
  5
6F
100
AcDbEntity
  8
MAIN0
  6
CONTINUOUS
 62
3
100
AcDbBlockBegin
  2
*D2
 70
    65
 10
0.0
 20
0.0
 30
0.0
  0
LINE
  5
70
100
AcDbEntity
  8
MAIN0
  6
BYBLOCK
 62
0
100
AcDbLine
 10
341.7582249623114
 20
315.9985056651106
 30
0.0000000000000000
 11
341.7582249623114
 21
307.4985056955698
 31
0.0000000000000000
  0
LINE
  5
71
100
AcDbEntity
  8
MAIN0
  6
BYBLOCK
 62
0
100
AcDbLine
 10
346.7582249623114
 20
312.4985056955698
 30
0.0000000000000000
 11
556.7582249627101
 21
312.4985056955698
 31
0.0000000000000000
  0
INSERT
  5
72
100
AcDbEntity
  8
MAIN0
  6
BYBLOCK
 62
0
100
AcDbBlockReference
  2
_OPEN
 10
341.7582249623114
 20
312.4985056955698
 30
0.0000000000000000
 41
5.000000000000000
 42
5.000000000000000
 43
5.000000000000000
 50
180.0000000000000
  0
INSERT
  5
73
100
AcDbEntity
  8
MAIN0
  6
BYBLOCK
 62
0
100
AcDbBlockReference
  2
_OPEN
 10
561.7582249627101
 20
312.4985056955698
 30
0.0000000000000000
 41
5.000000000000000
 42
5.000000000000000
 43
5.000000000000000
 50
0.0000000000000000
  0
LINE
  5
74
100
AcDbEntity
  8
MAIN0
  6
BYBLOCK
 62
0
100
AcDbLine
 10
561.7582249627101
 20
315.9985056651681
 30
0.0000000000000000
 11
561.7582249627101
 21
307.4985056955698
 31
0.0000000000000000
  0
MTEXT
  5
75
100
AcDbEntity
  8
MAIN0
  6
BYBLOCK
 62
0
100
AcDbMText
 10
451.7582249625108
 20
316.8735055763605
 30
0.0000000000000000
 40
7.749999761581421
 41
0.0000000000000000
 71
     5
 72
     1
  1
\A1;220
 11
1.000000000000000
 21
0.0000000000000000
 31
0.0000000000000000
  7
STANDARD
  0
ENDBLK
  5
76
100
AcDbEntity
  8
MAIN0
  6
CONTINUOUS
 62
3
100
AcDbBlockEnd
  0
BLOCK
  5
78
100
AcDbEntity
  8
MAIN0
  6
CONTINUOUS
 62
3
100
AcDbBlockBegin
  2
*D3
 70
    65
 10
0.0
 20
0.0
 30
0.0
  0
LINE
  5
79
100
AcDbEntity
  8
MAIN0
  6
BYBLOCK
 62
0
100
AcDbLine
 10
561.7582249627101
 20
315.9985056651681
 30
0.0000000000000000
 11
561.7582249627101
 21
307.4985056955698
 31
0.0000000000000000
  0
LINE
  5
7A
100
AcDbEntity
  8
MAIN0
  6
BYBLOCK
 62
0
100
AcDbLine
 10
566.7582249627101
 20
312.4985056955698
 30
0.0000000000000000
 11
631.7582249625039
 21
312.4985056955698
 31
0.0000000000000000
  0
INSERT
  5
7B
100
AcDbEntity
  8
MAIN0
  6
BYBLOCK
 62
0
100
AcDbBlockReference
  2
_OPEN
 10
561.7582249627101
 20
312.4985056955698
 30
0.0000000000000000
 41
5.000000000000000
 42
5.000000000000000
 43
5.000000000000000
 50
180.0000000000000
  0
INSERT
  5
7C
100
AcDbEntity
  8
MAIN0
  6
BYBLOCK
 62
0
100
AcDbBlockReference
  2
_OPEN
 10
636.7582249625039
 20
312.4985056955698
 30
0.0000000000000000
 41
5.000000000000000
 42
5.000000000000000
 43
5.000000000000000
 50
0.0000000000000000
  0
MTEXT
  5
7D
100
AcDbEntity
  8
MAIN0
  6
BYBLOCK
 62
0
100
AcDbMText
 10
599.2582249626071
 20
316.8735055763605
 30
0.0000000000000000
 40
7.749999761581421
 41
0.0000000000000000
 71
     5
 72
     1
  1
\A1;75
 11
1.000000000000000
 21
0.0000000000000000
 31
0.0000000000000000
  7
STANDARD
  0
ENDBLK
  5
7E
100
AcDbEntity
  8
MAIN0
  6
CONTINUOUS
 62
3
100
AcDbBlockEnd
  0
BLOCK
  5
82
100
AcDbEntity
  8
MAIN0
  6
CONTINUOUS
 62
3
100
AcDbBlockBegin
  2
*D4
 70
    65
 10
0.0
 20
0.0
 30
0.0
  0
LINE
  5
83
100
AcDbEntity
  8
MAIN0
  6
BYBLOCK
 62
0
100
AcDbLine
 10
497.3582249326165
 20
390.1985056946142
 30
0.0000000000000000
 11
474.7582249624189
 21
390.1985056946142
 31
0.0000000000000000
  0
LINE
  5
84
100
AcDbEntity
  8
MAIN0
  6
BYBLOCK
 62
0
100
AcDbLine
 10
479.7582249624189
 20
390.1985056946142
 30
0.0000000000000000
 11
479.7582249624189
 21
368.9985056947102
 31
0.0000000000000000
  0
INSERT
  5
85
100
AcDbEntity
  8
MAIN0
  6
BYBLOCK
 62
0
100
AcDbBlockReference
  2
_OPEN
 10
479.7582249624189
 20
390.1985056946142
 30
0.0000000000000000
 41
5.000000000000000
 42
5.000000000000000
 43
5.000000000000000
 50
270.0000000000000
  0
INSERT
  5
86
100
AcDbEntity
  8
MAIN0
  6
BYBLOCK
 62
0
100
AcDbBlockReference
  2
_OPEN
 10
479.7582249624189
 20
368.9985056947102
 30
0.0000000000000000
 41
5.000000000000000
 42
5.000000000000000
 43
5.000000000000000
 50
90.00000000000000
  0
LINE
  5
87
100
AcDbEntity
  8
MAIN0
  6
BYBLOCK
 62
0
100
AcDbLine
 10
479.7582249624189
 20
395.1985056946142
 30
0.0000000000000000
 11
479.7582249624189
 21
397.6985056946142
 31
0.0000000000000000
  0
LINE
  5
88
100
AcDbEntity
  8
MAIN0
  6
BYBLOCK
 62
0
100
AcDbLine
 10
479.7582249624189
 20
363.9985056947102
 30
0.0000000000000000
 11
479.7582249624189
 21
361.4985056947102
 31
0.0000000000000000
  0
MTEXT
  5
89
100
AcDbEntity
  8
MAIN0
  6
BYBLOCK
 62
0
100
AcDbMText
 10
475.3832250816282
 20
379.5985056946622
 30
0.0000000000000000
 40
7.749999761581421
 41
0.0000000000000000
 71
     5
 72
     1
  1
\A1;21
 11
6.123233995736766e-017
 21
1.000000000000000
 31
0.0000000000000000
  7
STANDARD
  0
ENDBLK
  5
8A
100
AcDbEntity
  8
MAIN0
  6
CONTINUOUS
 62
3
100
AcDbBlockEnd
  0
BLOCK
  5
8C
100
AcDbEntity
  8
MAIN0
  6
CONTINUOUS
 62
3
100
AcDbBlockBegin
  2
*D5
 70
    65
 10
0.0
 20
0.0
 30
0.0
  0
LINE
  5
8D
100
AcDbEntity
  8
MAIN0
  6
BYBLOCK
 62
0
100
AcDbLine
 10
266.7582249623040
 20
369.9985057241938
 30
0.0000000000000000
 11
266.7582249623038
 21
465.9155254643010
 31
0.0000000000000000
  0
LINE
  5
8E
100
AcDbEntity
  8
MAIN0
  6
BYBLOCK
 62
0
100
AcDbLine
 10
266.7582249623038
 20
460.9155254643010
 30
0.0000000000000000
 11
267.7582249624189
 21
460.9155254643010
 31
0.0000000000000000
  0
INSERT
  5
8F
100
AcDbEntity
  8
MAIN0
  6
BYBLOCK
 62
0
100
AcDbBlockReference
  2
_OPEN
 10
266.7582249623038
 20
460.9155254643010
 30
0.0000000000000000
 41
5.000000000000000
 42
5.000000000000000
 43
5.000000000000000
 50
0.0000000000000000
  0
INSERT
  5
90
100
AcDbEntity
  8
MAIN0
  6
BYBLOCK
 62
0
100
AcDbBlockReference
  2
_OPEN
 10
267.7582249624189
 20
460.9155254643010
 30
0.0000000000000000
 41
5.000000000000000
 42
5.000000000000000
 43
5.000000000000000
 50
180.0000000000000
  0
LINE
  5
91
100
AcDbEntity
  8
MAIN0
  6
BYBLOCK
 62
0
100
AcDbLine
 10
261.7582249623038
 20
460.9155254643010
 30
0.0000000000000000
 11
255.0927390607101
 21
460.9155254643010
 31
0.0000000000000000
  0
LINE
  5
92
100
AcDbEntity
  8
MAIN0
  6
BYBLOCK
 62
0
100
AcDbLine
 10
272.7582249624189
 20
460.9155254643010
 30
0.0000000000000000
 11
275.2582249624189
 21
460.9155254643010
 31
0.0000000000000000
  0
LINE
  5
93
100
AcDbEntity
  8
MAIN0
  6
BYBLOCK
 62
0
100
AcDbLine
 10
267.7582249624189
 20
420.7985057242408
 30
0.0000000000000000
 11
267.7582249624189
 21
465.9155254643010
 31
0.0000000000000000
  0
MTEXT
  5
94
100
AcDbEntity
  8
MAIN0
  6
BYBLOCK
 62
0
100
AcDbMText
 10
257.5927390607101
 20
466.0405253450917
 30
0.0000000000000000
 40
7.749999761581421
 41
0.0000000000000000
 71
     5
 72
     1
  1
\A1;1
 11
1.000000000000000
 21
0.0000000000000000
 31
0.0000000000000000
  7
STANDARD
  0
ENDBLK
  5
95
100
AcDbEntity
  8
MAIN0
  6
CONTINUOUS
 62
3
100
AcDbBlockEnd
  0
BLOCK
  5
97
100
AcDbEntity
  8
MAIN0
  6
CONTINUOUS
 62
3
100
AcDbBlockBegin
  2
*D6
 70
    65
 10
0.0
 20
0.0
 30
0.0
  0
LINE
  5
98
100
AcDbEntity
  8
MAIN0
  6
BYBLOCK
 62
0
100
AcDbLine
 10
267.7582249624189
 20
420.7985057242408
 30
0.0000000000000000
 11
267.7582249624189
 21
465.9155254643010
 31
0.0000000000000000
  0
LINE
  5
99
100
AcDbEntity
  8
MAIN0
  6
BYBLOCK
 62
0
100
AcDbLine
 10
272.7582249624190
 20
460.9155254643010
 30
0.0000000000000000
 11
346.7582249624188
 21
460.9155254643010
 31
0.0000000000000000
  0
INSERT
  5
9A
100
AcDbEntity
  8
MAIN0
  6
BYBLOCK
 62
0
100
AcDbBlockReference
  2
_OPEN
 10
267.7582249624190
 20
460.9155254643010
 30
0.0000000000000000
 41
5.000000000000000
 42
5.000000000000000
 43
5.000000000000000
 50
180.0000000000000
  0
INSERT
  5
9B
100
AcDbEntity
  8
MAIN0
  6
BYBLOCK
 62
0
100
AcDbBlockReference
  2
_OPEN
 10
351.7582249624188
 20
460.9155254643010
 30
0.0000000000000000
 41
5.000000000000000
 42
5.000000000000000
 43
5.000000000000000
 50
0.0000000000000000
  0
LINE
  5
9C
100
AcDbEntity
  8
MAIN0
  6
BYBLOCK
 62
0
100
AcDbLine
 10
351.7582249624187
 20
420.4985057242413
 30
0.0000000000000000
 11
351.7582249624188
 21
465.9155254643010
 31
0.0000000000000000
  0
MTEXT
  5
9D
100
AcDbEntity
  8
MAIN0
  6
BYBLOCK
 62
0
100
AcDbMText
 10
309.7582249624189
 20
465.2905253450917
 30
0.0000000000000000
 40
7.749999761581421
 41
0.0000000000000000
 71
     5
 72
     1
  1
\A1;84
 11
1.000000000000000
 21
0.0000000000000000
 31
0.0000000000000000
  7
STANDARD
  0
ENDBLK
  5
9E
100
AcDbEntity
  8
MAIN0
  6
CONTINUOUS
 62
3
100
AcDbBlockEnd
  0
BLOCK
  5
A0
100
AcDbEntity
  8
MAIN0
  6
CONTINUOUS
 62
3
100
AcDbBlockBegin
  2
*D7
 70
    65
 10
0.0
 20
0.0
 30
0.0
  0
LINE
  5
A1
100
AcDbEntity
  8
MAIN0
  6
BYBLOCK
 62
0
100
AcDbLine
 10
351.7582249624187
 20
420.4985057242413
 30
0.0000000000000000
 11
351.7582249624188
 21
465.9155254643010
 31
0.0000000000000000
  0
LINE
  5
A2
100
AcDbEntity
  8
MAIN0
  6
BYBLOCK
 62
0
100
AcDbLine
 10
356.7582249624188
 20
460.9155254643010
 30
0.0000000000000000
 11
416.7582249624188
 21
460.9155254643010
 31
0.0000000000000000
  0
INSERT
  5
A3
100
AcDbEntity
  8
MAIN0
  6
BYBLOCK
 62
0
100
AcDbBlockReference
  2
_OPEN
 10
351.7582249624188
 20
460.9155254643010
 30
0.0000000000000000
 41
5.000000000000000
 42
5.000000000000000
 43
5.000000000000000
 50
180.0000000000000
  0
INSERT
  5
A4
100
AcDbEntity
  8
MAIN0
  6
BYBLOCK
 62
0
100
AcDbBlockReference
  2
_OPEN
 10
421.7582249624188
 20
460.9155254643010
 30
0.0000000000000000
 41
5.000000000000000
 42
5.000000000000000
 43
5.000000000000000
 50
0.0000000000000000
  0
LINE
  5
A5
100
AcDbEntity
  8
MAIN0
  6
BYBLOCK
 62
0
100
AcDbLine
 10
421.7582249624188
 20
420.7985057243110
 30
0.0000000000000000
 11
421.7582249624188
 21
465.9155254643010
 31
0.0000000000000000
  0
MTEXT
  5
A6
100
AcDbEntity
  8
MAIN0
  6
BYBLOCK
 62
0
100
AcDbMText
 10
386.7582249624188
 20
465.2905253450917
 30
0.0000000000000000
 40
7.749999761581421
 41
0.0000000000000000
 71
     5
 72
     1
  1
\A1;MAX 204
 11
1.000000000000000
 21
0.0000000000000000
 31
0.0000000000000000
  7
STANDARD
  0
ENDBLK
  5
A7
100
AcDbEntity
  8
MAIN0
  6
CONTINUOUS
 62
3
100
AcDbBlockEnd
  0
BLOCK
  5
A9
100
AcDbEntity
  8
MAIN0
  6
CONTINUOUS
 62
1
100
AcDbBlockBegin
  2
*D8
 70
    65
 10
0.0
 20
0.0
 30
0.0
  0
LINE
  5
AA
100
AcDbEntity
  8
MAIN0
  6
BYBLOCK
 62
0
100
AcDbLine
 10
421.7582249624188
 20
420.7985057243110
 30
0.0000000000000000
 11
421.7582249624188
 21
465.9155254643010
 31
0.0000000000000000
  0
LINE
  5
AB
100
AcDbEntity
  8
MAIN0
  6
BYBLOCK
 62
0
100
AcDbLine
 10
426.7582249624188
 20
460.9155254643010
 30
0.0000000000000000
 11
492.7582249624185
 21
460.9155254643010
 31
0.0000000000000000
  0
INSERT
  5
AC
100
AcDbEntity
  8
MAIN0
  6
BYBLOCK
 62
0
100
AcDbBlockReference
  2
_OPEN
 10
421.7582249624188
 20
460.9155254643010
 30
0.0000000000000000
 41
5.000000000000000
 42
5.000000000000000
 43
5.000000000000000
 50
180.0000000000000
  0
INSERT
  5
AD
100
AcDbEntity
  8
MAIN0
  6
BYBLOCK
 62
0
100
AcDbBlockReference
  2
_OPEN
 10
497.7582249624185
 20
460.9155254643010
 30
0.0000000000000000
 41
5.000000000000000
 42
5.000000000000000
 43
5.000000000000000
 50
0.0000000000000000
  0
LINE
  5
AE
100
AcDbEntity
  8
MAIN0
  6
BYBLOCK
 62
0
100
AcDbLine
 10
497.7582249624186
 20
420.4985057243110
 30
0.0000000000000000
 11
497.7582249624185
 21
465.9155254643010
 31
0.0000000000000000
  0
MTEXT
  5
AF
100
AcDbEntity
  8
MAIN0
  6
BYBLOCK
 62
0
100
AcDbMText
 10
459.7582249624187
 20
465.2905253450917
 30
0.0000000000000000
 40
7.749999761581421
 41
0.0000000000000000
 71
     5
 72
     1
  1
\A1;76
 11
1.000000000000000
 21
0.0000000000000000
 31
0.0000000000000000
  7
STANDARD
  0
ENDBLK
  5
B0
100
AcDbEntity
  8
MAIN0
  6
CONTINUOUS
 62
1
100
AcDbBlockEnd
  0
BLOCK
  5
B2
100
AcDbEntity
  8
MAIN0
  6
CONTINUOUS
 62
3
100
AcDbBlockBegin
  2
*D9
 70
    65
 10
0.0
 20
0.0
 30
0.0
  0
LINE
  5
B3
100
AcDbEntity
  8
MAIN0
  6
BYBLOCK
 62
0
100
AcDbLine
 10
309.7582249623879
 20
420.9985057242411
 30
0.0000000000000000
 11
309.7582249623879
 21
449.9985056944390
 31
0.0000000000000000
  0
LINE
  5
B4
100
AcDbEntity
  8
MAIN0
  6
BYBLOCK
 62
0
100
AcDbLine
 10
314.7582249623879
 20
444.9985056944390
 30
0.0000000000000000
 11
346.7582249624188
 21
444.9985056944390
 31
0.0000000000000000
  0
INSERT
  5
B5
100
AcDbEntity
  8
MAIN0
  6
BYBLOCK
 62
0
100
AcDbBlockReference
  2
_OPEN
 10
309.7582249623879
 20
444.9985056944390
 30
0.0000000000000000
 41
5.000000000000000
 42
5.000000000000000
 43
5.000000000000000
 50
180.0000000000000
  0
INSERT
  5
B6
100
AcDbEntity
  8
MAIN0
  6
BYBLOCK
 62
0
100
AcDbBlockReference
  2
_OPEN
 10
351.7582249624188
 20
444.9985056944390
 30
0.0000000000000000
 41
5.000000000000000
 42
5.000000000000000
 43
5.000000000000000
 50
0.0000000000000000
  0
LINE
  5
B7
100
AcDbEntity
  8
MAIN0
  6
BYBLOCK
 62
0
100
AcDbLine
 10
351.7582249624188
 20
420.4985057242413
 30
0.0000000000000000
 11
351.7582249624188
 21
449.9985056944390
 31
0.0000000000000000
  0
MTEXT
  5
B8
100
AcDbEntity
  8
MAIN0
  6
BYBLOCK
 62
0
100
AcDbMText
 10
330.7582249624034
 20
449.3735055752297
 30
0.0000000000000000
 40
7.749999761581421
 41
0.0000000000000000
 71
     5
 72
     1
  1
\A1;42
 11
1.000000000000000
 21
0.0000000000000000
 31
0.0000000000000000
  7
STANDARD
  0
ENDBLK
  5
B9
100
AcDbEntity
  8
MAIN0
  6
CONTINUOUS
 62
3
100
AcDbBlockEnd
  0
BLOCK
  5
BB
100
AcDbEntity
  8
MAIN0
  6
CONTINUOUS
 62
3
100
AcDbBlockBegin
  2
*D10
 70
    65
 10
0.0
 20
0.0
 30
0.0
  0
LINE
  5
BC
100
AcDbEntity
  8
MAIN0
  6
BYBLOCK
 62
0
100
AcDbLine
 10
333.7582249623878
 20
418.9985056944389
 30
0.0000000000000000
 11
333.7582249623878
 21
409.9985056944388
 31
0.0000000000000000
  0
INSERT
  5
BD
100
AcDbEntity
  8
MAIN0
  6
BYBLOCK
 62
0
100
AcDbBlockReference
  2
_OPEN
 10
333.7582249623878
 20
418.9985056944389
 30
0.0000000000000000
 41
5.000000000000000
 42
5.000000000000000
 43
5.000000000000000
 50
270.0000000000000
  0
INSERT
  5
BE
100
AcDbEntity
  8
MAIN0
  6
BYBLOCK
 62
0
100
AcDbBlockReference
  2
_DOT
 10
333.7582249623878
 20
408.9985056944388
 30
0.0000000000000000
 41
2.500000000000000
 42
2.500000000000000
 43
2.500000000000000
 50
270.0000000000000
  0
LINE
  5
BF
100
AcDbEntity
  8
MAIN0
  6
BYBLOCK
 62
0
100
AcDbLine
 10
333.7582249623878
 20
423.9985056944389
 30
0.0000000000000000
 11
333.7582249623878
 21
436.5145032936246
 31
0.0000000000000000
  0
LINE
  5
C0
100
AcDbEntity
  8
MAIN0
  6
BYBLOCK
 62
0
100
AcDbLine
 10
321.7582249921902
 20
408.9985056944388
 30
0.0000000000000000
 11
338.7582249623878
 21
408.9985056944388
 31
0.0000000000000000
  0
MTEXT
  5
C1
100
AcDbEntity
  8
MAIN0
  6
BYBLOCK
 62
0
100
AcDbMText
 10
328.6332250815971
 20
431.3895034128339
 30
0.0000000000000000
 40
7.749999761581421
 41
0.0000000000000000
 71
     5
 72
     1
  1
\A1;10
 11
6.123233995736766e-017
 21
1.000000000000000
 31
0.0000000000000000
  7
STANDARD
  0
ENDBLK
  5
C2
100
AcDbEntity
  8
MAIN0
  6
CONTINUOUS
 62
3
100
AcDbBlockEnd
  0
BLOCK
  5
C4
100
AcDbEntity
  8
MAIN0
  6
CONTINUOUS
 62
3
100
AcDbBlockBegin
  2
*D11
 70
    65
 10
0.0
 20
0.0
 30
0.0
  0
LINE
  5
C5
100
AcDbEntity
  8
MAIN0
  6
BYBLOCK
 62
0
100
AcDbLine
 10
321.7582249921902
 20
408.9985056944388
 30
0.0000000000000000
 11
338.7582249623878
 21
408.9985056944388
 31
0.0000000000000000
  0
LINE
  5
C6
100
AcDbEntity
  8
MAIN0
  6
BYBLOCK
 62
0
100
AcDbLine
 10
333.7582249623878
 20
407.9985056944388
 30
0.0000000000000000
 11
333.7582249623878
 21
388.9985056944389
 31
0.0000000000000000
  0
INSERT
  5
C7
100
AcDbEntity
  8
MAIN0
  6
BYBLOCK
 62
0
100
AcDbBlockReference
  2
_DOT
 10
333.7582249623878
 20
408.9985056944388
 30
0.0000000000000000
 41
2.500000000000000
 42
2.500000000000000
 43
2.500000000000000
 50
90.00000000000000
  0
INSERT
  5
C8
100
AcDbEntity
  8
MAIN0
  6
BYBLOCK
 62
0
100
AcDbBlockReference
  2
_OPEN
 10
333.7582249623878
 20
388.9985056944389
 30
0.0000000000000000
 41
5.000000000000000
 42
5.000000000000000
 43
5.000000000000000
 50
90.00000000000000
  0
LINE
  5
C9
100
AcDbEntity
  8
MAIN0
  6
BYBLOCK
 62
0
100
AcDbLine
 10
333.7582249623878
 20
383.9985056944389
 30
0.0000000000000000
 11
333.7582249623878
 21
381.4985056944389
 31
0.0000000000000000
  0
LINE
  5
CA
100
AcDbEntity
  8
MAIN0
  6
BYBLOCK
 62
0
100
AcDbLine
 10
321.1582249922051
 20
388.9985056944389
 30
0.0000000000000000
 11
338.7582249623878
 21
388.9985056944389
 31
0.0000000000000000
  0
MTEXT
  5
CB
100
AcDbEntity
  8
MAIN0
  6
BYBLOCK
 62
0
100
AcDbMText
 10
329.3832250815971
 20
398.9985056944388
 30
0.0000000000000000
 40
7.749999761581421
 41
0.0000000000000000
 71
     5
 72
     1
  1
\A1;20
 11
6.123233995736766e-017
 21
1.000000000000000
 31
0.0000000000000000
  7
STANDARD
  0
ENDBLK
  5
CC
100
AcDbEntity
  8
MAIN0
  6
CONTINUOUS
 62
3
100
AcDbBlockEnd
  0
BLOCK
  5
17C
100
AcDbEntity
  8
MAIN0
  6
CONTINUOUS
 62
3
100
AcDbBlockBegin
  2
*D12
 70
    65
 10
0.0
 20
0.0
 30
0.0
  0
LINE
  5
17D
100
AcDbEntity
  8
MAIN0
  6
BYBLOCK
 62
0
100
AcDbLine
 10
883.4091802322816
 20
390.1985055803967
 30
0.0000000000000000
 11
883.4091802322816
 21
467.9985056949239
 31
0.0000000000000000
  0
LINE
  5
17E
100
AcDbEntity
  8
MAIN0
  6
BYBLOCK
 62
0
100
AcDbLine
 10
888.4091802322816
 20
462.9985056949239
 30
0.0000000000000000
 11
1013.409180232282
 21
462.9985056949239
 31
0.0000000000000000
  0
INSERT
  5
17F
100
AcDbEntity
  8
MAIN0
  6
BYBLOCK
 62
0
100
AcDbBlockReference
  2
_OPEN
 10
883.4091802322816
 20
462.9985056949239
 30
0.0000000000000000
 41
5.000000000000000
 42
5.000000000000000
 43
5.000000000000000
 50
180.0000000000000
  0
INSERT
  5
180
100
AcDbEntity
  8
MAIN0
  6
BYBLOCK
 62
0
100
AcDbBlockReference
  2
_OPEN
 10
1018.409180232282
 20
462.9985056949239
 30
0.0000000000000000
 41
5.000000000000000
 42
5.000000000000000
 43
5.000000000000000
 50
0.0000000000000000
  0
LINE
  5
181
100
AcDbEntity
  8
MAIN0
  6
BYBLOCK
 62
0
100
AcDbLine
 10
1018.409180232282
 20
390.1985055803969
 30
0.0000000000000000
 11
1018.409180232282
 21
467.9985056949239
 31
0.0000000000000000
  0
MTEXT
  5
182
100
AcDbEntity
  8
MAIN0
  6
BYBLOCK
 62
0
100
AcDbMText
 10
950.9091802322816
 20
467.3735055757146
 30
0.0000000000000000
 40
7.749999761581421
 41
0.0000000000000000
 71
     5
 72
     1
  1
\A1;135
 11
1.000000000000000
 21
0.0000000000000000
 31
0.0000000000000000
  7
STANDARD
  0
ENDBLK
  5
183
100
AcDbEntity
  8
MAIN0
  6
CONTINUOUS
 62
3
100
AcDbBlockEnd
  0
BLOCK
  5
189
100
AcDbEntity
  8
MAIN0
  6
CONTINUOUS
 62
3
100
AcDbBlockBegin
  2
*D13
 70
    65
 10
0.0
 20
0.0
 30
0.0
  0
LINE
  5
18A
100
AcDbEntity
  8
MAIN0
  6
BYBLOCK
 62
0
100
AcDbLine
 10
943.9091802322814
 20
340.0399576074163
 30
0.0000000000000000
 11
943.9091802322814
 21
449.9985056948388
 31
0.0000000000000000
  0
LINE
  5
18B
100
AcDbEntity
  8
MAIN0
  6
BYBLOCK
 62
0
100
AcDbLine
 10
943.9091802322814
 20
444.9985056948388
 30
0.0000000000000000
 11
957.9091802322814
 21
444.9985056948388
 31
0.0000000000000000
  0
INSERT
  5
18C
100
AcDbEntity
  8
MAIN0
  6
BYBLOCK
 62
0
100
AcDbBlockReference
  2
_OPEN
 10
943.9091802322814
 20
444.9985056948388
 30
0.0000000000000000
 41
5.000000000000000
 42
5.000000000000000
 43
5.000000000000000
 50
0.0000000000000000
  0
INSERT
  5
18D
100
AcDbEntity
  8
MAIN0
  6
BYBLOCK
 62
0
100
AcDbBlockReference
  2
_OPEN
 10
957.9091802322814
 20
444.9985056948388
 30
0.0000000000000000
 41
5.000000000000000
 42
5.000000000000000
 43
5.000000000000000
 50
180.0000000000000
  0
LINE
  5
18E
100
AcDbEntity
  8
MAIN0
  6
BYBLOCK
 62
0
100
AcDbLine
 10
938.9091802322814
 20
444.9985056948388
 30
0.0000000000000000
 11
936.4091802322814
 21
444.9985056948388
 31
0.0000000000000000
  0
LINE
  5
18F
100
AcDbEntity
  8
MAIN0
  6
BYBLOCK
 62
0
100
AcDbLine
 10
962.9091802322814
 20
444.9985056948388
 30
0.0000000000000000
 11
965.4091802322814
 21
444.9985056948388
 31
0.0000000000000000
  0
LINE
  5
190
100
AcDbEntity
  8
MAIN0
  6
BYBLOCK
 62
0
100
AcDbLine
 10
957.9091802322814
 20
340.0399576074162
 30
0.0000000000000000
 11
957.9091802322814
 21
449.9985056948388
 31
0.0000000000000000
  0
MTEXT
  5
191
100
AcDbEntity
  8
MAIN0
  6
BYBLOCK
 62
0
100
AcDbMText
 10
950.9091802322814
 20
449.3735055756295
 30
0.0000000000000000
 40
7.749999761581421
 41
0.0000000000000000
 71
     5
 72
     1
  1
\A1;14
 11
1.000000000000000
 21
0.0000000000000000
 31
0.0000000000000000
  7
STANDARD
  0
ENDBLK
  5
192
100
AcDbEntity
  8
MAIN0
  6
CONTINUOUS
 62
3
100
AcDbBlockEnd
  0
BLOCK
  5
20C
100
AcDbEntity
  8
MAIN0
  6
CONTINUOUS
 62
3
100
AcDbBlockBegin
  2
*D14
 70
    65
 10
0.0
 20
0.0
 30
0.0
  0
LINE
  5
20D
100
AcDbEntity
  8
MAIN0
  6
BYBLOCK
 62
0
100
AcDbLine
 10
60.92573918177655
 20
420.9985057232644
 30
0.0000000000000000
 11
60.92573918177655
 21
441.9985056944390
 31
0.0000000000000000
  0
LINE
  5
20E
100
AcDbEntity
  8
MAIN0
  6
BYBLOCK
 62
0
100
AcDbLine
 10
65.92573918177655
 20
436.9985056944390
 30
0.0000000000000000
 11
180.9257391817766
 21
436.9985056944390
 31
0.0000000000000000
  0
INSERT
  5
20F
100
AcDbEntity
  8
MAIN0
  6
BYBLOCK
 62
0
100
AcDbBlockReference
  2
_OPEN
 10
60.92573918177655
 20
436.9985056944390
 30
0.0000000000000000
 41
5.000000000000000
 42
5.000000000000000
 43
5.000000000000000
 50
180.0000000000000
  0
INSERT
  5
210
100
AcDbEntity
  8
MAIN0
  6
BYBLOCK
 62
0
100
AcDbBlockReference
  2
_OPEN
 10
185.9257391817766
 20
436.9985056944390
 30
0.0000000000000000
 41
5.000000000000000
 42
5.000000000000000
 43
5.000000000000000
 50
0.0000000000000000
  0
LINE
  5
211
100
AcDbEntity
  8
MAIN0
  6
BYBLOCK
 62
0
100
AcDbLine
 10
185.9257391817766
 20
420.9985057232644
 30
0.0000000000000000
 11
185.9257391817766
 21
441.9985056944390
 31
0.0000000000000000
  0
MTEXT
  5
212
100
AcDbEntity
  8
MAIN0
  6
BYBLOCK
 62
0
100
AcDbMText
 10
123.4257391817766
 20
441.3735055752297
 30
0.0000000000000000
 40
7.749999761581421
 41
0.0000000000000000
 71
     5
 72
     1
  1
\A1;125
 11
1.000000000000000
 21
0.0000000000000000
 31
0.0000000000000000
  7
STANDARD
  0
ENDBLK
  5
213
100
AcDbEntity
  8
MAIN0
  6
CONTINUOUS
 62
3
100
AcDbBlockEnd
  0
BLOCK
  5
215
100
AcDbEntity
  8
MAIN0
  6
CONTINUOUS
 62
3
100
AcDbBlockBegin
  2
*D15
 70
    65
 10
0.0
 20
0.0
 30
0.0
  0
LINE
  5
216
100
AcDbEntity
  8
MAIN0
  6
BYBLOCK
 62
0
100
AcDbLine
 10
188.3257385916839
 20
368.9985056921226
 30
0.0000000000000000
 11
215.9257391817757
 21
368.9985056921226
 31
0.0000000000000000
  0
LINE
  5
217
100
AcDbEntity
  8
MAIN0
  6
BYBLOCK
 62
0
100
AcDbLine
 10
210.9257391817757
 20
363.9985056921226
 30
0.0000000000000000
 11
210.9257391817757
 21
349.9985056941433
 31
0.0000000000000000
  0
INSERT
  5
218
100
AcDbEntity
  8
MAIN0
  6
BYBLOCK
 62
0
100
AcDbBlockReference
  2
_OPEN
 10
210.9257391817757
 20
368.9985056921226
 30
0.0000000000000000
 41
5.000000000000000
 42
5.000000000000000
 43
5.000000000000000
 50
90.00000000000000
  0
INSERT
  5
219
100
AcDbEntity
  8
MAIN0
  6
BYBLOCK
 62
0
100
AcDbBlockReference
  2
_OPEN
 10
210.9257391817757
 20
344.9985056941433
 30
0.0000000000000000
 41
5.000000000000000
 42
5.000000000000000
 43
5.000000000000000
 50
270.0000000000000
  0
LINE
  5
21A
100
AcDbEntity
  8
MAIN0
  6
BYBLOCK
 62
0
100
AcDbLine
 10
187.4257392115788
 20
344.9985056941433
 30
0.0000000000000000
 11
215.9257391817757
 21
344.9985056941433
 31
0.0000000000000000
  0
MTEXT
  5
21B
100
AcDbEntity
  8
MAIN0
  6
BYBLOCK
 62
0
100
AcDbMText
 10
206.5507393009850
 20
356.9985056931329
 30
0.0000000000000000
 40
7.749999761581421
 41
0.0000000000000000
 71
     5
 72
     1
  1
\A1;24
 11
6.123233995736766e-017
 21
1.000000000000000
 31
0.0000000000000000
  7
STANDARD
  0
ENDBLK
  5
21C
100
AcDbEntity
  8
MAIN0
  6
CONTINUOUS
 62
3
100
AcDbBlockEnd
  0
BLOCK
  5
21E
100
AcDbEntity
  8
MAIN0
  6
CONTINUOUS
 62
3
100
AcDbBlockBegin
  2
*D16
 70
    65
 10
0.0
 20
0.0
 30
0.0
  0
LINE
  5
21F
100
AcDbEntity
  8
MAIN0
  6
BYBLOCK
 62
0
100
AcDbLine
 10
187.4257392115788
 20
344.9985056941433
 30
0.0000000000000000
 11
215.9257391817757
 21
344.9985056941433
 31
0.0000000000000000
  0
LINE
  5
220
100
AcDbEntity
  8
MAIN0
  6
BYBLOCK
 62
0
100
AcDbLine
 10
210.9257391817757
 20
339.9985056941433
 30
0.0000000000000000
 11
210.9257391817757
 21
309.9985056941433
 31
0.0000000000000000
  0
INSERT
  5
221
100
AcDbEntity
  8
MAIN0
  6
BYBLOCK
 62
0
100
AcDbBlockReference
  2
_OPEN
 10
210.9257391817757
 20
344.9985056941433
 30
0.0000000000000000
 41
5.000000000000000
 42
5.000000000000000
 43
5.000000000000000
 50
90.00000000000000
  0
INSERT
  5
222
100
AcDbEntity
  8
MAIN0
  6
BYBLOCK
 62
0
100
AcDbBlockReference
  2
_OPEN
 10
210.9257391817757
 20
304.9985056941433
 30
0.0000000000000000
 41
5.000000000000000
 42
5.000000000000000
 43
5.000000000000000
 50
270.0000000000000
  0
LINE
  5
223
100
AcDbEntity
  8
MAIN0
  6
BYBLOCK
 62
0
100
AcDbLine
 10
187.4257392115785
 20
304.9985056941433
 30
0.0000000000000000
 11
215.9257391817757
 21
304.9985056941433
 31
0.0000000000000000
  0
MTEXT
  5
224
100
AcDbEntity
  8
MAIN0
  6
BYBLOCK
 62
0
100
AcDbMText
 10
206.5507393009850
 20
324.9985056941433
 30
0.0000000000000000
 40
7.749999761581421
 41
0.0000000000000000
 71
     5
 72
     1
  1
\A1;40
 11
6.123233995736766e-017
 21
1.000000000000000
 31
0.0000000000000000
  7
STANDARD
  0
ENDBLK
  5
225
100
AcDbEntity
  8
MAIN0
  6
CONTINUOUS
 62
3
100
AcDbBlockEnd
  0
BLOCK
  5
227
100
AcDbEntity
  8
MAIN0
  6
CONTINUOUS
 62
3
100
AcDbBlockBegin
  2
*D17
 70
    65
 10
0.0
 20
0.0
 30
0.0
  0
LINE
  5
228
100
AcDbEntity
  8
MAIN0
  6
BYBLOCK
 62
0
100
AcDbLine
 10
187.4257392115785
 20
304.9985056941433
 30
0.0000000000000000
 11
215.9257391817757
 21
304.9985056941433
 31
0.0000000000000000
  0
LINE
  5
229
100
AcDbEntity
  8
MAIN0
  6
BYBLOCK
 62
0
100
AcDbLine
 10
210.9257391817757
 20
299.9985056941433
 30
0.0000000000000000
 11
210.9257391817757
 21
288.9985056941432
 31
0.0000000000000000
  0
INSERT
  5
22A
100
AcDbEntity
  8
MAIN0
  6
BYBLOCK
 62
0
100
AcDbBlockReference
  2
_OPEN
 10
210.9257391817757
 20
304.9985056941433
 30
0.0000000000000000
 41
5.000000000000000
 42
5.000000000000000
 43
5.000000000000000
 50
90.00000000000000
  0
INSERT
  5
22B
100
AcDbEntity
  8
MAIN0
  6
BYBLOCK
 62
0
100
AcDbBlockReference
  2
_OPEN
 10
210.9257391817757
 20
283.9985056941432
 30
0.0000000000000000
 41
5.000000000000000
 42
5.000000000000000
 43
5.000000000000000
 50
270.0000000000000
  0
LINE
  5
22C
100
AcDbEntity
  8
MAIN0
  6
BYBLOCK
 62
0
100
AcDbLine
 10
188.0257392115786
 20
283.9985056941432
 30
0.0000000000000000
 11
215.9257391817757
 21
283.9985056941432
 31
0.0000000000000000
  0
MTEXT
  5
22D
100
AcDbEntity
  8
MAIN0
  6
BYBLOCK
 62
0
100
AcDbMText
 10
206.5507393009850
 20
294.4985056941433
 30
0.0000000000000000
 40
7.749999761581421
 41
0.0000000000000000
 71
     5
 72
     1
  1
\A1;21
 11
6.123233995736766e-017
 21
1.000000000000000
 31
0.0000000000000000
  7
STANDARD
  0
ENDBLK
  5
22E
100
AcDbEntity
  8
MAIN0
  6
CONTINUOUS
 62
3
100
AcDbBlockEnd
  0
BLOCK
  5
230
100
AcDbEntity
  8
MAIN0
  6
CONTINUOUS
 62
3
100
AcDbBlockBegin
  2
*D18
 70
    65
 10
0.0
 20
0.0
 30
0.0
  0
LINE
  5
231
100
AcDbEntity
  8
MAIN0
  6
BYBLOCK
 62
0
100
AcDbLine
 10
180.4257391817764
 20
320.9985056941433
 30
0.0000000000000000
 11
186.4257391817758
 21
320.9985056941433
 31
0.0000000000000000
  0
INSERT
  5
232
100
AcDbEntity
  8
MAIN0
  6
BYBLOCK
 62
0
100
AcDbBlockReference
  2
_OPEN
 10
180.4257391817764
 20
320.9985056941433
 30
0.0000000000000000
 41
5.000000000000000
 42
5.000000000000000
 43
5.000000000000000
 50
0.0000000000000000
  0
INSERT
  5
233
100
AcDbEntity
  8
MAIN0
  6
BYBLOCK
 62
0
100
AcDbBlockReference
  2
_OPEN
 10
186.4257391817758
 20
320.9985056941433
 30
0.0000000000000000
 41
5.000000000000000
 42
5.000000000000000
 43
5.000000000000000
 50
180.0000000000000
  0
LINE
  5
234
100
AcDbEntity
  8
MAIN0
  6
BYBLOCK
 62
0
100
AcDbLine
 10
175.4257391817764
 20
320.9985056941433
 30
0.0000000000000000
 11
168.5437368834084
 21
320.9985056941433
 31
0.0000000000000000
  0
LINE
  5
235
100
AcDbEntity
  8
MAIN0
  6
BYBLOCK
 62
0
100
AcDbLine
 10
191.4257391817758
 20
320.9985056941433
 30
0.0000000000000000
 11
193.9257391817758
 21
320.9985056941433
 31
0.0000000000000000
  0
LINE
  5
236
100
AcDbEntity
  8
MAIN0
  6
BYBLOCK
 62
0
100
AcDbLine
 10
186.4257391817758
 20
305.9985057239454
 30
0.0000000000000000
 11
186.4257391817758
 21
325.9985056941433
 31
0.0000000000000000
  0
MTEXT
  5
237
100
AcDbEntity
  8
MAIN0
  6
BYBLOCK
 62
0
100
AcDbMText
 10
171.0437368834084
 20
326.1235055749340
 30
0.0000000000000000
 40
7.749999761581421
 41
0.0000000000000000
 71
     5
 72
     1
  1
\A1;6
 11
1.000000000000000
 21
0.0000000000000000
 31
0.0000000000000000
  7
STANDARD
  0
ENDBLK
  5
238
100
AcDbEntity
  8
MAIN0
  6
CONTINUOUS
 62
3
100
AcDbBlockEnd
  0
BLOCK
  5
272
100
AcDbEntity
  8
MAIN0
  6
CONTINUOUS
 62
3
100
AcDbBlockBegin
  2
*D19
 70
    65
 10
0.0
 20
0.0
 30
0.0
  0
LINE
  5
273
100
AcDbEntity
  8
MAIN0
  6
BYBLOCK
 62
0
100
AcDbLine
 10
286.7582249631112
 20
582.4323831748006
 30
0.0000000000000000
 11
286.7582249631112
 21
518.6503973342857
 31
0.0000000000000000
  0
LINE
  5
274
100
AcDbEntity
  8
MAIN0
  6
BYBLOCK
 62
0
100
AcDbLine
 10
291.7582249631112
 20
523.6503973342857
 30
0.0000000000000000
 11
336.7582249631111
 21
523.6503973342857
 31
0.0000000000000000
  0
INSERT
  5
275
100
AcDbEntity
  8
MAIN0
  6
BYBLOCK
 62
0
100
AcDbBlockReference
  2
_OPEN
 10
286.7582249631112
 20
523.6503973342857
 30
0.0000000000000000
 41
5.000000000000000
 42
5.000000000000000
 43
5.000000000000000
 50
180.0000000000000
  0
INSERT
  5
276
100
AcDbEntity
  8
MAIN0
  6
BYBLOCK
 62
0
100
AcDbBlockReference
  2
_OPEN
 10
341.7582249631111
 20
523.6503973342857
 30
0.0000000000000000
 41
5.000000000000000
 42
5.000000000000000
 43
5.000000000000000
 50
0.0000000000000000
  0
LINE
  5
277
100
AcDbEntity
  8
MAIN0
  6
BYBLOCK
 62
0
100
AcDbLine
 10
341.7582249631111
 20
582.4323831748005
 30
0.0000000000000000
 11
341.7582249631111
 21
518.6503973342857
 31
0.0000000000000000
  0
MTEXT
  5
278
100
AcDbEntity
  8
MAIN0
  6
BYBLOCK
 62
0
100
AcDbMText
 10
314.2582249631112
 20
528.0253972150764
 30
0.0000000000000000
 40
7.749999761581421
 41
0.0000000000000000
 71
     5
 72
     1
  1
\A1;55
 11
1.000000000000000
 21
0.0000000000000000
 31
0.0000000000000000
  7
STANDARD
  0
ENDBLK
  5
279
100
AcDbEntity
  8
MAIN0
  6
CONTINUOUS
 62
3
100
AcDbBlockEnd
  0
BLOCK
  5
27B
100
AcDbEntity
  8
MAIN0
  6
CONTINUOUS
 62
3
100
AcDbBlockBegin
  2
*D20
 70
    65
 10
0.0
 20
0.0
 30
0.0
  0
LINE
  5
27C
100
AcDbEntity
  8
MAIN0
  6
BYBLOCK
 62
0
100
AcDbLine
 10
341.7582249631111
 20
582.4323831748005
 30
0.0000000000000000
 11
341.7582249631111
 21
518.6503973342857
 31
0.0000000000000000
  0
LINE
  5
27D
100
AcDbEntity
  8
MAIN0
  6
BYBLOCK
 62
0
100
AcDbLine
 10
341.7582249631111
 20
523.6503973342857
 30
0.0000000000000000
 11
351.7582249631112
 21
523.6503973342857
 31
0.0000000000000000
  0
INSERT
  5
27E
100
AcDbEntity
  8
MAIN0
  6
BYBLOCK
 62
0
100
AcDbBlockReference
  2
_OPEN
 10
341.7582249631111
 20
523.6503973342857
 30
0.0000000000000000
 41
5.000000000000000
 42
5.000000000000000
 43
5.000000000000000
 50
0.0000000000000000
  0
INSERT
  5
27F
100
AcDbEntity
  8
MAIN0
  6
BYBLOCK
 62
0
100
AcDbBlockReference
  2
_OPEN
 10
351.7582249631112
 20
523.6503973342857
 30
0.0000000000000000
 41
5.000000000000000
 42
5.000000000000000
 43
5.000000000000000
 50
180.0000000000000
  0
LINE
  5
280
100
AcDbEntity
  8
MAIN0
  6
BYBLOCK
 62
0
100
AcDbLine
 10
336.7582249631111
 20
523.6503973342857
 30
0.0000000000000000
 11
334.2582249631111
 21
523.6503973342857
 31
0.0000000000000000
  0
LINE
  5
281
100
AcDbEntity
  8
MAIN0
  6
BYBLOCK
 62
0
100
AcDbLine
 10
356.7582249631112
 20
523.6503973342857
 30
0.0000000000000000
 11
364.1788419383470
 21
523.6503973342857
 31
0.0000000000000000
  0
LINE
  5
282
100
AcDbEntity
  8
MAIN0
  6
BYBLOCK
 62
0
100
AcDbLine
 10
351.7582249631112
 20
553.9142350143939
 30
0.0000000000000000
 11
351.7582249631112
 21
518.6503973342857
 31
0.0000000000000000
  0
MTEXT
  5
283
100
AcDbEntity
  8
MAIN0
  6
BYBLOCK
 62
0
100
AcDbMText
 10
359.0538420575563
 20
528.7753972150764
 30
0.0000000000000000
 40
7.749999761581421
 41
0.0000000000000000
 71
     5
 72
     1
  1
\A1;10
 11
1.000000000000000
 21
0.0000000000000000
 31
0.0000000000000000
  7
STANDARD
  0
ENDBLK
  5
284
100
AcDbEntity
  8
MAIN0
  6
CONTINUOUS
 62
3
100
AcDbBlockEnd
  0
BLOCK
  5
286
100
AcDbEntity
  8
MAIN0
  6
CONTINUOUS
 62
3
100
AcDbBlockBegin
  2
*D21
 70
    65
 10
0.0
 20
0.0
 30
0.0
  0
LINE
  5
287
100
AcDbEntity
  8
MAIN0
  6
BYBLOCK
 62
0
100
AcDbLine
 10
274.6643663412482
 20
592.9142350442407
 30
0.0000000000000000
 11
237.8082157275007
 21
592.9142350442407
 31
0.0000000000000000
  0
LINE
  5
288
100
AcDbEntity
  8
MAIN0
  6
BYBLOCK
 62
0
100
AcDbLine
 10
242.8082157275007
 20
597.9142350442407
 30
0.0000000000000000
 11
242.8082157275007
 21
637.9142350442406
 31
0.0000000000000000
  0
INSERT
  5
289
100
AcDbEntity
  8
MAIN0
  6
BYBLOCK
 62
0
100
AcDbBlockReference
  2
_OPEN
 10
242.8082157275007
 20
592.9142350442407
 30
0.0000000000000000
 41
5.000000000000000
 42
5.000000000000000
 43
5.000000000000000
 50
270.0000000000000
  0
INSERT
  5
28A
100
AcDbEntity
  8
MAIN0
  6
BYBLOCK
 62
0
100
AcDbBlockReference
  2
_OPEN
 10
242.8082157275007
 20
642.9142350442406
 30
0.0000000000000000
 41
5.000000000000000
 42
5.000000000000000
 43
5.000000000000000
 50
90.00000000000000
  0
LINE
  5
28B
100
AcDbEntity
  8
MAIN0
  6
BYBLOCK
 62
0
100
AcDbLine
 10
274.6643663413155
 20
642.9142350442406
 30
0.0000000000000000
 11
237.8082157275007
 21
642.9142350442406
 31
0.0000000000000000
  0
MTEXT
  5
28C
100
AcDbEntity
  8
MAIN0
  6
BYBLOCK
 62
0
100
AcDbMText
 10
238.4332158467100
 20
617.9142350442407
 30
0.0000000000000000
 40
7.749999761581421
 41
0.0000000000000000
 71
     5
 72
     1
  1
\A1;50
 11
6.123233995736766e-017
 21
1.000000000000000
 31
0.0000000000000000
  7
STANDARD
  0
ENDBLK
  5
28D
100
AcDbEntity
  8
MAIN0
  6
CONTINUOUS
 62
3
100
AcDbBlockEnd
  0
BLOCK
  5
293
100
AcDbEntity
  8
MAIN0
  6
CONTINUOUS
 62
3
100
AcDbBlockBegin
  2
*D22
 70
    65
 10
0.0
 20
0.0
 30
0.0
  0
LINE
  5
294
100
AcDbEntity
  8
MAIN0
  6
BYBLOCK
 62
0
100
AcDbLine
 10
421.7582249624701
 20
681.8142350734411
 30
0.0000000000000000
 11
421.7582249624701
 21
702.3451256851407
 31
0.0000000000000000
  0
LINE
  5
295
100
AcDbEntity
  8
MAIN0
  6
BYBLOCK
 62
0
100
AcDbLine
 10
426.7582249624701
 20
697.3451256851407
 30
0.0000000000000000
 11
454.7582249624182
 21
697.3451256851407
 31
0.0000000000000000
  0
INSERT
  5
296
100
AcDbEntity
  8
MAIN0
  6
BYBLOCK
 62
0
100
AcDbBlockReference
  2
_OPEN
 10
421.7582249624701
 20
697.3451256851407
 30
0.0000000000000000
 41
5.000000000000000
 42
5.000000000000000
 43
5.000000000000000
 50
180.0000000000000
  0
INSERT
  5
297
100
AcDbEntity
  8
MAIN0
  6
BYBLOCK
 62
0
100
AcDbBlockReference
  2
_OPEN
 10
459.7582249624182
 20
697.3451256851407
 30
0.0000000000000000
 41
5.000000000000000
 42
5.000000000000000
 43
5.000000000000000
 50
0.0000000000000000
  0
LINE
  5
298
100
AcDbEntity
  8
MAIN0
  6
BYBLOCK
 62
0
100
AcDbLine
 10
459.7582249624182
 20
630.9142350734774
 30
0.0000000000000000
 11
459.7582249624182
 21
702.3451256851407
 31
0.0000000000000000
  0
MTEXT
  5
299
100
AcDbEntity
  8
MAIN0
  6
BYBLOCK
 62
0
100
AcDbMText
 10
440.7582249624442
 20
701.7201255659314
 30
0.0000000000000000
 40
7.749999761581421
 41
0.0000000000000000
 71
     5
 72
     1
  1
\A1;38
 11
1.000000000000000
 21
0.0000000000000000
 31
0.0000000000000000
  7
STANDARD
  0
ENDBLK
  5
29A
100
AcDbEntity
  8
MAIN0
  6
CONTINUOUS
 62
3
100
AcDbBlockEnd
  0
BLOCK
  5
306
100
AcDbEntity
  8
MAIN0
  6
CONTINUOUS
 62
3
100
AcDbBlockBegin
  2
*D23
 70
    65
 10
0.0
 20
0.0
 30
0.0
  0
LINE
  5
307
100
AcDbEntity
  8
MAIN0
  6
BYBLOCK
 62
0
100
AcDbLine
 10
421.7582249623670
 20
554.0142350138769
 30
0.0000000000000000
 11
421.7582249623670
 21
518.6503973342857
 31
0.0000000000000000
  0
LINE
  5
308
100
AcDbEntity
  8
MAIN0
  6
BYBLOCK
 62
0
100
AcDbLine
 10
421.7582249623670
 20
523.6503973342857
 30
0.0000000000000000
 11
431.7582249623260
 21
523.6503973342857
 31
0.0000000000000000
  0
INSERT
  5
309
100
AcDbEntity
  8
MAIN0
  6
BYBLOCK
 62
0
100
AcDbBlockReference
  2
_OPEN
 10
421.7582249623670
 20
523.6503973342857
 30
0.0000000000000000
 41
5.000000000000000
 42
5.000000000000000
 43
5.000000000000000
 50
0.0000000000000000
  0
INSERT
  5
30A
100
AcDbEntity
  8
MAIN0
  6
BYBLOCK
 62
0
100
AcDbBlockReference
  2
_OPEN
 10
431.7582249623260
 20
523.6503973342857
 30
0.0000000000000000
 41
5.000000000000000
 42
5.000000000000000
 43
5.000000000000000
 50
180.0000000000000
  0
LINE
  5
30B
100
AcDbEntity
  8
MAIN0
  6
BYBLOCK
 62
0
100
AcDbLine
 10
416.7582249623670
 20
523.6503973342857
 30
0.0000000000000000
 11
409.1718978392822
 21
523.6503973342857
 31
0.0000000000000000
  0
LINE
  5
30C
100
AcDbEntity
  8
MAIN0
  6
BYBLOCK
 62
0
100
AcDbLine
 10
436.7582249623260
 20
523.6503973342857
 30
0.0000000000000000
 11
439.2582249623260
 21
523.6503973342857
 31
0.0000000000000000
  0
LINE
  5
30D
100
AcDbEntity
  8
MAIN0
  6
BYBLOCK
 62
0
100
AcDbLine
 10
431.7582249623260
 20
566.2876869328898
 30
0.0000000000000000
 11
431.7582249623260
 21
518.6503973342857
 31
0.0000000000000000
  0
MTEXT
  5
30E
100
AcDbEntity
  8
MAIN0
  6
BYBLOCK
 62
0
100
AcDbMText
 10
414.2968977200729
 20
528.7753972150764
 30
0.0000000000000000
 40
7.749999761581421
 41
0.0000000000000000
 71
     5
 72
     1
  1
\A1;10
 11
1.000000000000000
 21
0.0000000000000000
 31
0.0000000000000000
  7
STANDARD
  0
ENDBLK
  5
30F
100
AcDbEntity
  8
MAIN0
  6
CONTINUOUS
 62
3
100
AcDbBlockEnd
  0
BLOCK
  5
311
100
AcDbEntity
  8
MAIN0
  6
CONTINUOUS
 62
3
100
AcDbBlockBegin
  2
*D24
 70
    65
 10
0.0
 20
0.0
 30
0.0
  0
LINE
  5
312
100
AcDbEntity
  8
MAIN0
  6
BYBLOCK
 62
0
100
AcDbLine
 10
431.7582249623260
 20
566.2876869328898
 30
0.0000000000000000
 11
431.7582249623260
 21
518.6503973342857
 31
0.0000000000000000
  0
LINE
  5
313
100
AcDbEntity
  8
MAIN0
  6
BYBLOCK
 62
0
100
AcDbLine
 10
436.7582249623260
 20
523.6503973342857
 30
0.0000000000000000
 11
476.7582249623260
 21
523.6503973342857
 31
0.0000000000000000
  0
INSERT
  5
314
100
AcDbEntity
  8
MAIN0
  6
BYBLOCK
 62
0
100
AcDbBlockReference
  2
_OPEN
 10
431.7582249623260
 20
523.6503973342857
 30
0.0000000000000000
 41
5.000000000000000
 42
5.000000000000000
 43
5.000000000000000
 50
180.0000000000000
  0
INSERT
  5
315
100
AcDbEntity
  8
MAIN0
  6
BYBLOCK
 62
0
100
AcDbBlockReference
  2
_OPEN
 10
481.7582249623260
 20
523.6503973342857
 30
0.0000000000000000
 41
5.000000000000000
 42
5.000000000000000
 43
5.000000000000000
 50
0.0000000000000000
  0
LINE
  5
316
100
AcDbEntity
  8
MAIN0
  6
BYBLOCK
 62
0
100
AcDbLine
 10
481.7582249623260
 20
566.2876869327965
 30
0.0000000000000000
 11
481.7582249623260
 21
518.6503973342857
 31
0.0000000000000000
  0
MTEXT
  5
317
100
AcDbEntity
  8
MAIN0
  6
BYBLOCK
 62
0
100
AcDbMText
 10
456.7582249623260
 20
528.0253972150764
 30
0.0000000000000000
 40
7.749999761581421
 41
0.0000000000000000
 71
     5
 72
     1
  1
\A1;50
 11
1.000000000000000
 21
0.0000000000000000
 31
0.0000000000000000
  7
STANDARD
  0
ENDBLK
  5
318
100
AcDbEntity
  8
MAIN0
  6
CONTINUOUS
 62
3
100
AcDbBlockEnd
  0
BLOCK
  5
31A
100
AcDbEntity
  8
MAIN0
  6
CONTINUOUS
 62
3
100
AcDbBlockBegin
  2
*D25
 70
    65
 10
0.0
 20
0.0
 30
0.0
  0
LINE
  5
31B
100
AcDbEntity
  8
MAIN0
  6
BYBLOCK
 62
0
100
AcDbLine
 10
493.2834752084809
 20
577.9142350436659
 30
0.0000000000000000
 11
535.4561745460751
 21
577.9142350436659
 31
0.0000000000000000
  0
LINE
  5
31C
100
AcDbEntity
  8
MAIN0
  6
BYBLOCK
 62
0
100
AcDbLine
 10
530.4561745460751
 20
582.9142350436659
 30
0.0000000000000000
 11
530.4561745460751
 21
652.9142350434643
 31
0.0000000000000000
  0
INSERT
  5
31D
100
AcDbEntity
  8
MAIN0
  6
BYBLOCK
 62
0
100
AcDbBlockReference
  2
_OPEN
 10
530.4561745460751
 20
577.9142350436659
 30
0.0000000000000000
 41
5.000000000000000
 42
5.000000000000000
 43
5.000000000000000
 50
270.0000000000000
  0
INSERT
  5
31E
100
AcDbEntity
  8
MAIN0
  6
BYBLOCK
 62
0
100
AcDbBlockReference
  2
_OPEN
 10
530.4561745460751
 20
657.9142350434643
 30
0.0000000000000000
 41
5.000000000000000
 42
5.000000000000000
 43
5.000000000000000
 50
90.00000000000000
  0
LINE
  5
31F
100
AcDbEntity
  8
MAIN0
  6
BYBLOCK
 62
0
100
AcDbLine
 10
493.2834752085888
 20
657.9142350434643
 30
0.0000000000000000
 11
535.4561745460751
 21
657.9142350434643
 31
0.0000000000000000
  0
MTEXT
  5
320
100
AcDbEntity
  8
MAIN0
  6
BYBLOCK
 62
0
100
AcDbMText
 10
526.0811746652844
 20
617.9142350435652
 30
0.0000000000000000
 40
7.749999761581421
 41
0.0000000000000000
 71
     5
 72
     1
  1
\A1;80
 11
6.123233995736766e-017
 21
1.000000000000000
 31
0.0000000000000000
  7
STANDARD
  0
ENDBLK
  5
321
100
AcDbEntity
  8
MAIN0
  6
CONTINUOUS
 62
3
100
AcDbBlockEnd
  0
BLOCK
  5
32B
100
AcDbEntity
  8
MAIN0
  6
CONTINUOUS
 62
3
100
AcDbBlockBegin
  2
*D26
 70
    65
 10
0.0
 20
0.0
 30
0.0
  0
LINE
  5
32C
100
AcDbEntity
  8
MAIN0
  6
BYBLOCK
 62
0
100
AcDbLine
 10
351.7582249624189
 20
367.3985056647067
 30
0.0000000000000000
 11
351.7582249624189
 21
237.9985056945955
 31
0.0000000000000000
  0
LINE
  5
32D
100
AcDbEntity
  8
MAIN0
  6
BYBLOCK
 62
0
100
AcDbLine
 10
356.7582249624189
 20
242.9985056945955
 30
0.0000000000000000
 11
406.7582249623879
 21
242.9985056945955
 31
0.0000000000000000
  0
INSERT
  5
32E
100
AcDbEntity
  8
MAIN0
  6
BYBLOCK
 62
0
100
AcDbBlockReference
  2
_OPEN
 10
351.7582249624189
 20
242.9985056945955
 30
0.0000000000000000
 41
5.000000000000000
 42
5.000000000000000
 43
5.000000000000000
 50
180.0000000000000
  0
INSERT
  5
32F
100
AcDbEntity
  8
MAIN0
  6
BYBLOCK
 62
0
100
AcDbBlockReference
  2
_OPEN
 10
411.7582249623879
 20
242.9985056945955
 30
0.0000000000000000
 41
5.000000000000000
 42
5.000000000000000
 43
5.000000000000000
 50
0.0000000000000000
  0
LINE
  5
330
100
AcDbEntity
  8
MAIN0
  6
BYBLOCK
 62
0
100
AcDbLine
 10
411.7582249623879
 20
268.0087884045666
 30
0.0000000000000000
 11
411.7582249623879
 21
237.9985056945955
 31
0.0000000000000000
  0
MTEXT
  5
331
100
AcDbEntity
  8
MAIN0
  6
BYBLOCK
 62
0
100
AcDbMText
 10
381.7582249624035
 20
247.3735055753862
 30
0.0000000000000000
 40
7.749999761581421
 41
0.0000000000000000
 71
     5
 72
     1
  1
\A1;60
 11
1.000000000000000
 21
0.0000000000000000
 31
0.0000000000000000
  7
STANDARD
  0
ENDBLK
  5
332
100
AcDbEntity
  8
MAIN0
  6
CONTINUOUS
 62
3
100
AcDbBlockEnd
  0
BLOCK
  5
334
100
AcDbEntity
  8
MAIN0
  6
CONTINUOUS
 62
3
100
AcDbBlockBegin
  2
*D27
 70
    65
 10
0.0
 20
0.0
 30
0.0
  0
LINE
  5
335
100
AcDbEntity
  8
MAIN0
  6
BYBLOCK
 62
0
100
AcDbLine
 10
411.7582249623879
 20
268.0087884045666
 30
0.0000000000000000
 11
411.7582249623879
 21
237.9985056945955
 31
0.0000000000000000
  0
LINE
  5
336
100
AcDbEntity
  8
MAIN0
  6
BYBLOCK
 62
0
100
AcDbLine
 10
416.7582249623879
 20
242.9985056945955
 30
0.0000000000000000
 11
631.7582249625040
 21
242.9985056945955
 31
0.0000000000000000
  0
INSERT
  5
337
100
AcDbEntity
  8
MAIN0
  6
BYBLOCK
 62
0
100
AcDbBlockReference
  2
_OPEN
 10
411.7582249623879
 20
242.9985056945955
 30
0.0000000000000000
 41
5.000000000000000
 42
5.000000000000000
 43
5.000000000000000
 50
180.0000000000000
  0
INSERT
  5
338
100
AcDbEntity
  8
MAIN0
  6
BYBLOCK
 62
0
100
AcDbBlockReference
  2
_OPEN
 10
636.7582249625040
 20
242.9985056945955
 30
0.0000000000000000
 41
5.000000000000000
 42
5.000000000000000
 43
5.000000000000000
 50
0.0000000000000000
  0
LINE
  5
339
100
AcDbEntity
  8
MAIN0
  6
BYBLOCK
 62
0
100
AcDbLine
 10
636.7582249625040
 20
282.3985056650996
 30
0.0000000000000000
 11
636.7582249625040
 21
237.9985056945955
 31
0.0000000000000000
  0
MTEXT
  5
33A
100
AcDbEntity
  8
MAIN0
  6
BYBLOCK
 62
0
100
AcDbMText
 10
524.2582249624460
 20
247.3735055753862
 30
0.0000000000000000
 40
7.749999761581421
 41
0.0000000000000000
 71
     5
 72
     1
  1
\A1;225
 11
1.000000000000000
 21
0.0000000000000000
 31
0.0000000000000000
  7
STANDARD
  0
ENDBLK
  5
33B
100
AcDbEntity
  8
MAIN0
  6
CONTINUOUS
 62
3
100
AcDbBlockEnd
  0
BLOCK
  5
33D
100
AcDbEntity
  8
MAIN0
  6
CONTINUOUS
 62
3
100
AcDbBlockBegin
  2
*D28
 70
    65
 10
0.0
 20
0.0
 30
0.0
  0
LINE
  5
33E
100
AcDbEntity
  8
MAIN0
  6
BYBLOCK
 62
0
100
AcDbLine
 10
746.2271425163995
 20
395.2260781091537
 30
0.0000000000000000
 11
746.2271425163995
 21
588.8962208338555
 31
0.0000000000000000
  0
LINE
  5
33F
100
AcDbEntity
  8
MAIN0
  6
BYBLOCK
 62
0
100
AcDbLine
 10
746.2271425163995
 20
583.8962208338555
 30
0.0000000000000000
 11
761.2271425163988
 21
583.8962208338555
 31
0.0000000000000000
  0
INSERT
  5
340
100
AcDbEntity
  8
MAIN0
  6
BYBLOCK
 62
0
100
AcDbBlockReference
  2
_OPEN
 10
746.2271425163995
 20
583.8962208338555
 30
0.0000000000000000
 41
5.000000000000000
 42
5.000000000000000
 43
5.000000000000000
 50
0.0000000000000000
  0
INSERT
  5
341
100
AcDbEntity
  8
MAIN0
  6
BYBLOCK
 62
0
100
AcDbBlockReference
  2
_OPEN
 10
761.2271425163988
 20
583.8962208338555
 30
0.0000000000000000
 41
5.000000000000000
 42
5.000000000000000
 43
5.000000000000000
 50
180.0000000000000
  0
LINE
  5
342
100
AcDbEntity
  8
MAIN0
  6
BYBLOCK
 62
0
100
AcDbLine
 10
741.2271425163995
 20
583.8962208338555
 30
0.0000000000000000
 11
738.7271425163995
 21
583.8962208338555
 31
0.0000000000000000
  0
LINE
  5
343
100
AcDbEntity
  8
MAIN0
  6
BYBLOCK
 62
0
100
AcDbLine
 10
766.2271425163988
 20
583.8962208338555
 30
0.0000000000000000
 11
768.7271425163988
 21
583.8962208338555
 31
0.0000000000000000
  0
LINE
  5
344
100
AcDbEntity
  8
MAIN0
  6
BYBLOCK
 62
0
100
AcDbLine
 10
761.2271425163999
 20
398.8260781091536
 30
0.0000000000000000
 11
761.2271425163988
 21
588.8962208338556
 31
0.0000000000000000
  0
MTEXT
  5
345
100
AcDbEntity
  8
MAIN0
  6
BYBLOCK
 62
0
100
AcDbMText
 10
753.7271425163991
 20
588.2712207146462
 30
0.0000000000000000
 40
7.749999761581421
 41
0.0000000000000000
 71
     5
 72
     1
  1
\A1;15
 11
1.000000000000000
 21
0.0000000000000000
 31
0.0000000000000000
  7
STANDARD
  0
ENDBLK
  5
346
100
AcDbEntity
  8
MAIN0
  6
CONTINUOUS
 62
3
100
AcDbBlockEnd
  0
BLOCK
  5
348
100
AcDbEntity
  8
MAIN0
  6
CONTINUOUS
 62
3
100
AcDbBlockBegin
  2
*D29
 70
    65
 10
0.0
 20
0.0
 30
0.0
  0
LINE
  5
349
100
AcDbEntity
  8
MAIN0
  6
BYBLOCK
 62
0
100
AcDbLine
 10
761.2271425163999
 20
398.8260781091536
 30
0.0000000000000000
 11
761.2271425163988
 21
588.8962208338556
 31
0.0000000000000000
  0
LINE
  5
34A
100
AcDbEntity
  8
MAIN0
  6
BYBLOCK
 62
0
100
AcDbLine
 10
766.2271425163988
 20
583.8962208338555
 30
0.0000000000000000
 11
786.2271425163810
 21
583.8962208338555
 31
0.0000000000000000
  0
INSERT
  5
34B
100
AcDbEntity
  8
MAIN0
  6
BYBLOCK
 62
0
100
AcDbBlockReference
  2
_OPEN
 10
761.2271425163988
 20
583.8962208338555
 30
0.0000000000000000
 41
5.000000000000000
 42
5.000000000000000
 43
5.000000000000000
 50
180.0000000000000
  0
INSERT
  5
34C
100
AcDbEntity
  8
MAIN0
  6
BYBLOCK
 62
0
100
AcDbBlockReference
  2
_OPEN
 10
791.2271425163810
 20
583.8962208338555
 30
0.0000000000000000
 41
5.000000000000000
 42
5.000000000000000
 43
5.000000000000000
 50
0.0000000000000000
  0
LINE
  5
34D
100
AcDbEntity
  8
MAIN0
  6
BYBLOCK
 62
0
100
AcDbLine
 10
791.2271425163810
 20
559.3260781091533
 30
0.0000000000000000
 11
791.2271425163810
 21
588.8962208338555
 31
0.0000000000000000
  0
MTEXT
  5
34E
100
AcDbEntity
  8
MAIN0
  6
BYBLOCK
 62
0
100
AcDbMText
 10
776.2271425163899
 20
588.2712207146462
 30
0.0000000000000000
 40
7.749999761581421
 41
0.0000000000000000
 71
     5
 72
     1
  1
\A1;30
 11
1.000000000000000
 21
0.0000000000000000
 31
0.0000000000000000
  7
STANDARD
  0
ENDBLK
  5
34F
100
AcDbEntity
  8
MAIN0
  6
CONTINUOUS
 62
3
100
AcDbBlockEnd
  0
BLOCK
  5
351
100
AcDbEntity
  8
MAIN0
  6
CONTINUOUS
 62
3
100
AcDbBlockBegin
  2
*D30
 70
    65
 10
0.0
 20
0.0
 30
0.0
  0
LINE
  5
352
100
AcDbEntity
  8
MAIN0
  6
BYBLOCK
 62
0
100
AcDbLine
 10
791.2271425163810
 20
559.3260781091533
 30
0.0000000000000000
 11
791.2271425163810
 21
588.8962208338555
 31
0.0000000000000000
  0
LINE
  5
353
100
AcDbEntity
  8
MAIN0
  6
BYBLOCK
 62
0
100
AcDbLine
 10
796.2271425163810
 20
583.8962208338555
 30
0.0000000000000000
 11
858.2271425163751
 21
583.8962208338555
 31
0.0000000000000000
  0
INSERT
  5
354
100
AcDbEntity
  8
MAIN0
  6
BYBLOCK
 62
0
100
AcDbBlockReference
  2
_OPEN
 10
791.2271425163810
 20
583.8962208338555
 30
0.0000000000000000
 41
5.000000000000000
 42
5.000000000000000
 43
5.000000000000000
 50
180.0000000000000
  0
INSERT
  5
355
100
AcDbEntity
  8
MAIN0
  6
BYBLOCK
 62
0
100
AcDbBlockReference
  2
_OPEN
 10
863.2271425163751
 20
583.8962208338555
 30
0.0000000000000000
 41
5.000000000000000
 42
5.000000000000000
 43
5.000000000000000
 50
0.0000000000000000
  0
LINE
  5
356
100
AcDbEntity
  8
MAIN0
  6
BYBLOCK
 62
0
100
AcDbLine
 10
863.2271425163751
 20
568.8260781091537
 30
0.0000000000000000
 11
863.2271425163751
 21
588.8962208338555
 31
0.0000000000000000
  0
MTEXT
  5
357
100
AcDbEntity
  8
MAIN0
  6
BYBLOCK
 62
0
100
AcDbMText
 10
827.2271425163781
 20
588.2712207146462
 30
0.0000000000000000
 40
7.749999761581421
 41
0.0000000000000000
 71
     5
 72
     1
  1
\A1;72
 11
1.000000000000000
 21
0.0000000000000000
 31
0.0000000000000000
  7
STANDARD
  0
ENDBLK
  5
358
100
AcDbEntity
  8
MAIN0
  6
CONTINUOUS
 62
3
100
AcDbBlockEnd
  0
BLOCK
  5
35A
100
AcDbEntity
  8
MAIN0
  6
CONTINUOUS
 62
3
100
AcDbBlockBegin
  2
*D31
 70
    65
 10
0.0
 20
0.0
 30
0.0
  0
LINE
  5
35B
100
AcDbEntity
  8
MAIN0
  6
BYBLOCK
 62
0
100
AcDbLine
 10
746.2271425163995
 20
395.2260781091537
 30
0.0000000000000000
 11
746.2271425163995
 21
607.3724237070740
 31
0.0000000000000000
  0
LINE
  5
35C
100
AcDbEntity
  8
MAIN0
  6
BYBLOCK
 62
0
100
AcDbLine
 10
751.2271425163995
 20
602.3724237070740
 30
0.0000000000000000
 11
858.2271425163751
 21
602.3724237070740
 31
0.0000000000000000
  0
INSERT
  5
35D
100
AcDbEntity
  8
MAIN0
  6
BYBLOCK
 62
0
100
AcDbBlockReference
  2
_OPEN
 10
746.2271425163995
 20
602.3724237070740
 30
0.0000000000000000
 41
5.000000000000000
 42
5.000000000000000
 43
5.000000000000000
 50
180.0000000000000
  0
INSERT
  5
35E
100
AcDbEntity
  8
MAIN0
  6
BYBLOCK
 62
0
100
AcDbBlockReference
  2
_OPEN
 10
863.2271425163751
 20
602.3724237070740
 30
0.0000000000000000
 41
5.000000000000000
 42
5.000000000000000
 43
5.000000000000000
 50
0.0000000000000000
  0
LINE
  5
35F
100
AcDbEntity
  8
MAIN0
  6
BYBLOCK
 62
0
100
AcDbLine
 10
863.2271425163751
 20
568.8260781091537
 30
0.0000000000000000
 11
863.2271425163751
 21
607.3724237070740
 31
0.0000000000000000
  0
MTEXT
  5
360
100
AcDbEntity
  8
MAIN0
  6
BYBLOCK
 62
0
100
AcDbMText
 10
804.7271425163873
 20
606.7474235878647
 30
0.0000000000000000
 40
7.749999761581421
 41
0.0000000000000000
 71
     5
 72
     1
  1
\A1;117
 11
1.000000000000000
 21
0.0000000000000000
 31
0.0000000000000000
  7
STANDARD
  0
ENDBLK
  5
361
100
AcDbEntity
  8
MAIN0
  6
CONTINUOUS
 62
3
100
AcDbBlockEnd
  0
BLOCK
  5
363
100
AcDbEntity
  8
MAIN0
  6
CONTINUOUS
 62
3
100
AcDbBlockBegin
  2
*D32
 70
    65
 10
0.0
 20
0.0
 30
0.0
  0
LINE
  5
364
100
AcDbEntity
  8
MAIN0
  6
BYBLOCK
 62
0
100
AcDbLine
 10
537.7582249627112
 20
288.9985056949007
 30
0.0000000000000000
 11
537.7582249627112
 21
319.9985056949705
 31
0.0000000000000000
  0
INSERT
  5
365
100
AcDbEntity
  8
MAIN0
  6
BYBLOCK
 62
0
100
AcDbBlockReference
  2
_OPEN
 10
537.7582249627112
 20
283.9985056949007
 30
0.0000000000000000
 41
5.000000000000000
 42
5.000000000000000
 43
5.000000000000000
 50
270.0000000000000
  0
INSERT
  5
366
100
AcDbEntity
  8
MAIN0
  6
BYBLOCK
 62
0
100
AcDbBlockReference
  2
_OPEN
 10
537.7582249627112
 20
324.9985056949705
 30
0.0000000000000000
 41
5.000000000000000
 42
5.000000000000000
 43
5.000000000000000
 50
90.00000000000000
  0
LINE
  5
367
100
AcDbEntity
  8
MAIN0
  6
BYBLOCK
 62
0
100
AcDbLine
 10
552.7582249329078
 20
324.9985056949705
 30
0.0000000000000000
 11
532.7582249627112
 21
324.9985056949705
 31
0.0000000000000000
  0
MTEXT
  5
368
100
AcDbEntity
  8
MAIN0
  6
BYBLOCK
 62
0
100
AcDbMText
 10
533.3832250819205
 20
304.4985056949356
 30
0.0000000000000000
 40
7.749999761581421
 41
0.0000000000000000
 71
     5
 72
     1
  1
\A1;41
 11
6.123233995736766e-017
 21
1.000000000000000
 31
0.0000000000000000
  7
STANDARD
  0
ENDBLK
  5
369
100
AcDbEntity
  8
MAIN0
  6
CONTINUOUS
 62
3
100
AcDbBlockEnd
  0
BLOCK
  5
36B
100
AcDbEntity
  8
MAIN0
  6
CONTINUOUS
 62
3
100
AcDbBlockBegin
  2
*D33
 70
    65
 10
0.0
 20
0.0
 30
0.0
  0
LINE
  5
36C
100
AcDbEntity
  8
MAIN0
  6
BYBLOCK
 62
0
100
AcDbLine
 10
309.7582249631656
 20
630.9142350739985
 30
0.0000000000000000
 11
309.7582249631656
 21
702.3451256851407
 31
0.0000000000000000
  0
LINE
  5
36D
100
AcDbEntity
  8
MAIN0
  6
BYBLOCK
 62
0
100
AcDbLine
 10
314.7582249631656
 20
697.3451256851407
 30
0.0000000000000000
 11
346.7582249631112
 21
697.3451256851407
 31
0.0000000000000000
  0
INSERT
  5
36E
100
AcDbEntity
  8
MAIN0
  6
BYBLOCK
 62
0
100
AcDbBlockReference
  2
_OPEN
 10
309.7582249631656
 20
697.3451256851407
 30
0.0000000000000000
 41
5.000000000000000
 42
5.000000000000000
 43
5.000000000000000
 50
180.0000000000000
  0
INSERT
  5
36F
100
AcDbEntity
  8
MAIN0
  6
BYBLOCK
 62
0
100
AcDbBlockReference
  2
_OPEN
 10
351.7582249631112
 20
697.3451256851407
 30
0.0000000000000000
 41
5.000000000000000
 42
5.000000000000000
 43
5.000000000000000
 50
0.0000000000000000
  0
LINE
  5
370
100
AcDbEntity
  8
MAIN0
  6
BYBLOCK
 62
0
100
AcDbLine
 10
351.7582249631112
 20
681.9142350739984
 30
0.0000000000000000
 11
351.7582249631112
 21
702.3451256851407
 31
0.0000000000000000
  0
MTEXT
  5
371
100
AcDbEntity
  8
MAIN0
  6
BYBLOCK
 62
0
100
AcDbMText
 10
330.7582249631385
 20
701.7201255659314
 30
0.0000000000000000
 40
7.749999761581421
 41
0.0000000000000000
 71
     5
 72
     1
  1
\A1;42
 11
1.000000000000000
 21
0.0000000000000000
 31
0.0000000000000000
  7
STANDARD
  0
ENDBLK
  5
372
100
AcDbEntity
  8
MAIN0
  6
CONTINUOUS
 62
3
100
AcDbBlockEnd
  0
BLOCK
  5
374
100
AcDbEntity
  8
MAIN0
  6
CONTINUOUS
 62
3
100
AcDbBlockBegin
  2
*D34
 70
    65
 10
0.0
 20
0.0
 30
0.0
  0
LINE
  5
375
100
AcDbEntity
  8
MAIN0
  6
BYBLOCK
 62
0
100
AcDbLine
 10
845.4091802024792
 20
318.9985056950732
 30
0.0000000000000000
 11
802.4837079205468
 21
318.9985056950732
 31
0.0000000000000000
  0
LINE
  5
376
100
AcDbEntity
  8
MAIN0
  6
BYBLOCK
 62
0
100
AcDbLine
 10
807.4837079205468
 20
318.9985056950732
 30
0.0000000000000000
 11
807.4837079205468
 21
313.9985056950732
 31
0.0000000000000000
  0
INSERT
  5
377
100
AcDbEntity
  8
MAIN0
  6
BYBLOCK
 62
0
100
AcDbBlockReference
  2
_OPEN
 10
807.4837079205468
 20
318.9985056950732
 30
0.0000000000000000
 41
5.000000000000000
 42
5.000000000000000
 43
5.000000000000000
 50
270.0000000000000
  0
INSERT
  5
378
100
AcDbEntity
  8
MAIN0
  6
BYBLOCK
 62
0
100
AcDbBlockReference
  2
_OPEN
 10
807.4837079205468
 20
313.9985056950732
 30
0.0000000000000000
 41
5.000000000000000
 42
5.000000000000000
 43
5.000000000000000
 50
90.00000000000000
  0
LINE
  5
379
100
AcDbEntity
  8
MAIN0
  6
BYBLOCK
 62
0
100
AcDbLine
 10
807.4837079205468
 20
323.9985056950732
 30
0.0000000000000000
 11
807.4837079205468
 21
330.4519967408487
 31
0.0000000000000000
  0
LINE
  5
37A
100
AcDbEntity
  8
MAIN0
  6
BYBLOCK
 62
0
100
AcDbLine
 10
807.4837079205468
 20
308.9985056950732
 30
0.0000000000000000
 11
807.4837079205468
 21
306.4985056950732
 31
0.0000000000000000
  0
LINE
  5
37B
100
AcDbEntity
  8
MAIN0
  6
BYBLOCK
 62
0
100
AcDbLine
 10
814.9091802024792
 20
313.9985056950732
 30
0.0000000000000000
 11
802.4837079205468
 21
313.9985056950732
 31
0.0000000000000000
  0
MTEXT
  5
37C
100
AcDbEntity
  8
MAIN0
  6
BYBLOCK
 62
0
100
AcDbMText
 10
802.3587080397560
 20
327.9519967408486
 30
0.0000000000000000
 40
7.749999761581421
 41
0.0000000000000000
 71
     5
 72
     1
  1
\A1;5
 11
6.123233995736766e-017
 21
1.000000000000000
 31
0.0000000000000000
  7
STANDARD
  0
ENDBLK
  5
37D
100
AcDbEntity
  8
MAIN0
  6
CONTINUOUS
 62
3
100
AcDbBlockEnd
  0
BLOCK
  5
37F
100
AcDbEntity
  8
MAIN0
  6
CONTINUOUS
 62
3
100
AcDbBlockBegin
  2
*D35
 70
    65
 10
0.0
 20
0.0
 30
0.0
  0
LINE
  5
380
100
AcDbEntity
  8
MAIN0
  6
BYBLOCK
 62
0
100
AcDbLine
 10
814.9091802024792
 20
313.9985056950732
 30
0.0000000000000000
 11
802.4837079205468
 21
313.9985056950732
 31
0.0000000000000000
  0
LINE
  5
381
100
AcDbEntity
  8
MAIN0
  6
BYBLOCK
 62
0
100
AcDbLine
 10
807.4837079205468
 20
308.9985056950732
 30
0.0000000000000000
 11
807.4837079205468
 21
288.9985056950732
 31
0.0000000000000000
  0
INSERT
  5
382
100
AcDbEntity
  8
MAIN0
  6
BYBLOCK
 62
0
100
AcDbBlockReference
  2
_OPEN
 10
807.4837079205468
 20
313.9985056950732
 30
0.0000000000000000
 41
5.000000000000000
 42
5.000000000000000
 43
5.000000000000000
 50
90.00000000000000
  0
INSERT
  5
383
100
AcDbEntity
  8
MAIN0
  6
BYBLOCK
 62
0
100
AcDbBlockReference
  2
_OPEN
 10
807.4837079205468
 20
283.9985056950732
 30
0.0000000000000000
 41
5.000000000000000
 42
5.000000000000000
 43
5.000000000000000
 50
270.0000000000000
  0
LINE
  5
384
100
AcDbEntity
  8
MAIN0
  6
BYBLOCK
 62
0
100
AcDbLine
 10
816.6091802024793
 20
283.9985056950732
 30
0.0000000000000000
 11
802.4837079205468
 21
283.9985056950732
 31
0.0000000000000000
  0
MTEXT
  5
385
100
AcDbEntity
  8
MAIN0
  6
BYBLOCK
 62
0
100
AcDbMText
 10
803.1087080397560
 20
298.9985056950732
 30
0.0000000000000000
 40
7.749999761581421
 41
0.0000000000000000
 71
     5
 72
     1
  1
\A1;30
 11
6.123233995736766e-017
 21
1.000000000000000
 31
0.0000000000000000
  7
STANDARD
  0
ENDBLK
  5
386
100
AcDbEntity
  8
MAIN0
  6
CONTINUOUS
 62
3
100
AcDbBlockEnd
  0
BLOCK
  5
388
100
AcDbEntity
  8
MAIN0
  6
CONTINUOUS
 62
1
100
AcDbBlockBegin
  2
*D36
 70
    65
 10
0.0
 20
0.0
 30
0.0
  0
LINE
  5
389
100
AcDbEntity
  8
MAIN0
  6
BYBLOCK
 62
0
100
AcDbLine
 10
887.9091802322820
 20
282.3985056652714
 30
0.0000000000000000
 11
887.9091802322820
 21
227.9076358342037
 31
0.0000000000000000
  0
LINE
  5
38A
100
AcDbEntity
  8
MAIN0
  6
BYBLOCK
 62
0
100
AcDbLine
 10
887.9091802322820
 20
232.9076358342037
 30
0.0000000000000000
 11
864.9091802322810
 21
232.9076358342037
 31
0.0000000000000000
  0
INSERT
  5
38B
100
AcDbEntity
  8
MAIN0
  6
BYBLOCK
 62
0
100
AcDbBlockReference
  2
_OPEN
 10
887.9091802322820
 20
232.9076358342037
 30
0.0000000000000000
 41
5.000000000000000
 42
5.000000000000000
 43
5.000000000000000
 50
180.0000000000000
  0
INSERT
  5
38C
100
AcDbEntity
  8
MAIN0
  6
BYBLOCK
 62
0
100
AcDbBlockReference
  2
_OPEN
 10
864.9091802322810
 20
232.9076358342037
 30
0.0000000000000000
 41
5.000000000000000
 42
5.000000000000000
 43
5.000000000000000
 50
360.0000000000000
  0
LINE
  5
38D
100
AcDbEntity
  8
MAIN0
  6
BYBLOCK
 62
0
100
AcDbLine
 10
892.9091802322820
 20
232.9076358342037
 30
0.0000000000000000
 11
922.6756683072886
 21
232.9076358342037
 31
0.0000000000000000
  0
LINE
  5
38E
100
AcDbEntity
  8
MAIN0
  6
BYBLOCK
 62
0
100
AcDbLine
 10
859.9091802322810
 20
232.9076358342037
 30
0.0000000000000000
 11
857.4091802322810
 21
232.9076358342037
 31
0.0000000000000000
  0
MTEXT
  5
38F
100
AcDbEntity
  8
MAIN0
  6
BYBLOCK
 62
0
100
AcDbMText
 10
909.0506687841257
 20
238.0326357149944
 30
0.0000000000000000
 40
7.749999761581421
 41
0.0000000000000000
 71
     5
 72
     1
  1
\A1;15～31
 11
1.000000000000000
 21
0.0000000000000000
 31
0.0000000000000000
  7
KNJYOKO
  0
ENDBLK
  5
390
100
AcDbEntity
  8
MAIN0
  6
CONTINUOUS
 62
1
100
AcDbBlockEnd
  0
BLOCK
  5
393
100
AcDbEntity
  8
MAIN0
  6
CONTINUOUS
 62
3
100
AcDbBlockBegin
  2
*D37
 70
    65
 10
0.0
 20
0.0
 30
0.0
  0
LINE
  5
394
100
AcDbEntity
  8
MAIN0
  6
BYBLOCK
 62
0
100
AcDbLine
 10
60.42573918177627
 20
282.3985056643414
 30
0.0000000000000000
 11
60.42573918177627
 21
237.9985056945955
 31
0.0000000000000000
  0
LINE
  5
395
100
AcDbEntity
  8
MAIN0
  6
BYBLOCK
 62
0
100
AcDbLine
 10
65.42573918177627
 20
242.9985056945955
 30
0.0000000000000000
 11
181.4257391817758
 21
242.9985056945955
 31
0.0000000000000000
  0
INSERT
  5
396
100
AcDbEntity
  8
MAIN0
  6
BYBLOCK
 62
0
100
AcDbBlockReference
  2
_OPEN
 10
60.42573918177627
 20
242.9985056945955
 30
0.0000000000000000
 41
5.000000000000000
 42
5.000000000000000
 43
5.000000000000000
 50
180.0000000000000
  0
INSERT
  5
397
100
AcDbEntity
  8
MAIN0
  6
BYBLOCK
 62
0
100
AcDbBlockReference
  2
_OPEN
 10
186.4257391817758
 20
242.9985056945955
 30
0.0000000000000000
 41
5.000000000000000
 42
5.000000000000000
 43
5.000000000000000
 50
0.0000000000000000
  0
LINE
  5
398
100
AcDbEntity
  8
MAIN0
  6
BYBLOCK
 62
0
100
AcDbLine
 10
186.4257391817758
 20
282.3985056643407
 30
0.0000000000000000
 11
186.4257391817758
 21
237.9985056945955
 31
0.0000000000000000
  0
MTEXT
  5
399
100
AcDbEntity
  8
MAIN0
  6
BYBLOCK
 62
0
100
AcDbMText
 10
123.4257391817760
 20
247.3735055753862
 30
0.0000000000000000
 40
7.749999761581421
 41
0.0000000000000000
 71
     5
 72
     1
  1
\A1;126
 11
1.000000000000000
 21
0.0000000000000000
 31
0.0000000000000000
  7
STANDARD
  0
ENDBLK
  5
39A
100
AcDbEntity
  8
MAIN0
  6
CONTINUOUS
 62
3
100
AcDbBlockEnd
  0
BLOCK
  5
3A2
100
AcDbEntity
  8
MAIN0
  6
CONTINUOUS
 62
3
100
AcDbBlockBegin
  2
*D38
 70
    65
 10
0.0
 20
0.0
 30
0.0
  0
LINE
  5
3A3
100
AcDbEntity
  8
MAIN0
  6
BYBLOCK
 62
0
100
AcDbLine
 10
747.9504743396105
 20
315.9985057249036
 30
0.0000000000000000
 11
747.9504743396105
 21
352.7714999941419
 31
0.0000000000000000
  0
LINE
  5
3A4
100
AcDbEntity
  8
MAIN0
  6
BYBLOCK
 62
0
100
AcDbLine
 10
752.9504743396105
 20
347.7714999941419
 30
0.0000000000000000
 11
787.9504743396102
 21
347.7714999941419
 31
0.0000000000000000
  0
INSERT
  5
3A5
100
AcDbEntity
  8
MAIN0
  6
BYBLOCK
 62
0
100
AcDbBlockReference
  2
_OPEN
 10
747.9504743396105
 20
347.7714999941419
 30
0.0000000000000000
 41
5.000000000000000
 42
5.000000000000000
 43
5.000000000000000
 50
180.0000000000000
  0
INSERT
  5
3A6
100
AcDbEntity
  8
MAIN0
  6
BYBLOCK
 62
0
100
AcDbBlockReference
  2
_OPEN
 10
792.9504743396102
 20
347.7714999941419
 30
0.0000000000000000
 41
5.000000000000000
 42
5.000000000000000
 43
5.000000000000000
 50
0.0000000000000000
  0
LINE
  5
3A7
100
AcDbEntity
  8
MAIN0
  6
BYBLOCK
 62
0
100
AcDbLine
 10
792.9504743396102
 20
315.9985057248897
 30
0.0000000000000000
 11
792.9504743396102
 21
352.7714999941419
 31
0.0000000000000000
  0
MTEXT
  5
3A8
100
AcDbEntity
  8
MAIN0
  6
BYBLOCK
 62
0
100
AcDbMText
 10
770.4504743396104
 20
352.1464998749326
 30
0.0000000000000000
 40
7.749999761581421
 41
0.0000000000000000
 71
     5
 72
     1
  1
\A1;45
 11
1.000000000000000
 21
0.0000000000000000
 31
0.0000000000000000
  7
STANDARD
  0
ENDBLK
  5
3A9
100
AcDbEntity
  8
MAIN0
  6
CONTINUOUS
 62
3
100
AcDbBlockEnd
  0
BLOCK
  5
3AB
100
AcDbEntity
  8
MAIN0
  6
CONTINUOUS
 62
3
100
AcDbBlockBegin
  2
*D39
 70
    65
 10
0.0
 20
0.0
 30
0.0
  0
LINE
  5
3AC
100
AcDbEntity
  8
MAIN0
  6
BYBLOCK
 62
0
100
AcDbLine
 10
816.9091802322816
 20
311.9985056652708
 30
0.0000000000000000
 11
816.9091802322816
 21
211.5950876998703
 31
0.0000000000000000
  0
LINE
  5
3AD
100
AcDbEntity
  8
MAIN0
  6
BYBLOCK
 62
0
100
AcDbLine
 10
821.9091802322816
 20
216.5950876998703
 30
0.0000000000000000
 11
882.9091802322820
 21
216.5950876998703
 31
0.0000000000000000
  0
INSERT
  5
3AE
100
AcDbEntity
  8
MAIN0
  6
BYBLOCK
 62
0
100
AcDbBlockReference
  2
_OPEN
 10
816.9091802322816
 20
216.5950876998703
 30
0.0000000000000000
 41
5.000000000000000
 42
5.000000000000000
 43
5.000000000000000
 50
180.0000000000000
  0
INSERT
  5
3AF
100
AcDbEntity
  8
MAIN0
  6
BYBLOCK
 62
0
100
AcDbBlockReference
  2
_OPEN
 10
887.9091802322820
 20
216.5950876998703
 30
0.0000000000000000
 41
5.000000000000000
 42
5.000000000000000
 43
5.000000000000000
 50
0.0000000000000000
  0
LINE
  5
3B0
100
AcDbEntity
  8
MAIN0
  6
BYBLOCK
 62
0
100
AcDbLine
 10
887.9091802322820
 20
282.3985056652714
 30
0.0000000000000000
 11
887.9091802322820
 21
211.5950876998703
 31
0.0000000000000000
  0
MTEXT
  5
3B1
100
AcDbEntity
  8
MAIN0
  6
BYBLOCK
 62
0
100
AcDbMText
 10
852.4091802322819
 20
220.9700875806610
 30
0.0000000000000000
 40
7.749999761581421
 41
0.0000000000000000
 71
     5
 72
     1
  1
\A1;71
 11
1.000000000000000
 21
0.0000000000000000
 31
0.0000000000000000
  7
STANDARD
  0
ENDBLK
  5
3B2
100
AcDbEntity
  8
MAIN0
  6
CONTINUOUS
 62
3
100
AcDbBlockEnd
  0
BLOCK
  5
3B4
100
AcDbEntity
  8
MAIN0
  6
CONTINUOUS
 62
3
100
AcDbBlockBegin
  2
*D40
 70
    65
 10
0.0
 20
0.0
 30
0.0
  0
LINE
  5
3B5
100
AcDbEntity
  8
MAIN0
  6
BYBLOCK
 62
0
100
AcDbLine
 10
887.9091802322820
 20
282.3985056652714
 30
0.0000000000000000
 11
887.9091802322820
 21
211.5950876998703
 31
0.0000000000000000
  0
LINE
  5
3B6
100
AcDbEntity
  8
MAIN0
  6
BYBLOCK
 62
0
100
AcDbLine
 10
892.9091802322820
 20
216.5950876998703
 30
0.0000000000000000
 11
1008.909180232282
 21
216.5950876998703
 31
0.0000000000000000
  0
INSERT
  5
3B7
100
AcDbEntity
  8
MAIN0
  6
BYBLOCK
 62
0
100
AcDbBlockReference
  2
_OPEN
 10
887.9091802322820
 20
216.5950876998703
 30
0.0000000000000000
 41
5.000000000000000
 42
5.000000000000000
 43
5.000000000000000
 50
180.0000000000000
  0
INSERT
  5
3B8
100
AcDbEntity
  8
MAIN0
  6
BYBLOCK
 62
0
100
AcDbBlockReference
  2
_OPEN
 10
1013.909180232282
 20
216.5950876998703
 30
0.0000000000000000
 41
5.000000000000000
 42
5.000000000000000
 43
5.000000000000000
 50
0.0000000000000000
  0
LINE
  5
3B9
100
AcDbEntity
  8
MAIN0
  6
BYBLOCK
 62
0
100
AcDbLine
 10
1013.909180232282
 20
282.3985056652707
 30
0.0000000000000000
 11
1013.909180232282
 21
211.5950876998703
 31
0.0000000000000000
  0
MTEXT
  5
3BA
100
AcDbEntity
  8
MAIN0
  6
BYBLOCK
 62
0
100
AcDbMText
 10
950.9091802322819
 20
220.9700875806610
 30
0.0000000000000000
 40
7.749999761581421
 41
0.0000000000000000
 71
     5
 72
     1
  1
\A1;126
 11
1.000000000000000
 21
0.0000000000000000
 31
0.0000000000000000
  7
STANDARD
  0
ENDBLK
  5
3BB
100
AcDbEntity
  8
MAIN0
  6
CONTINUOUS
 62
3
100
AcDbBlockEnd
  0
BLOCK
  5
3BD
100
AcDbEntity
  8
MAIN0
  6
CONTINUOUS
 62
3
100
AcDbBlockBegin
  2
D41
 70
    64
 10
0.0
 20
0.0
 30
0.0
  0
LINE
  5
3BE
100
AcDbEntity
  8
MAIN0
  6
BYBLOCK
 62
0
100
AcDbLine
 10
5.749999120263396
 20
-76.77985658287241
 30
0.0000000000000000
 11
-134.0000000000006
 21
-76.77985658287209
 31
0.0000000000000000
  0
LINE
  5
3BF
100
AcDbEntity
  8
MAIN0
  6
BYBLOCK
 62
0
100
AcDbLine
 10
-129.0000000000006
 20
-78.27985664247674
 30
0.0000000000000000
 11
-134.0000000000006
 21
-76.77985658287209
 31
0.0000000000000000
  0
LINE
  5
3C0
100
AcDbEntity
  8
MAIN0
  6
BYBLOCK
 62
0
100
AcDbLine
 10
-134.0000000000006
 20
-76.77985658287209
 30
0.0000000000000000
 11
-129.0000000000006
 21
-75.27985652326746
 31
0.0000000000000000
  0
LINE
  5
3C1
100
AcDbEntity
  8
MAIN0
  6
BYBLOCK
 62
0
100
AcDbLine
 10
-134.0000000000002
 20
38.52859391565647
 30
0.0000000000000000
 11
-134.0000000000006
 21
-81.77985658287209
 31
0.0000000000000000
  0
MTEXT
  5
3C2
100
AcDbEntity
  8
MAIN0
  6
BYBLOCK
 62
0
100
AcDbMText
 10
-2.273736754432321e-013
 20
-71.65485670208169
 30
0.0000000000000000
 40
7.749999761581421
 41
0.0000000000000000
 71
     5
 72
     1
  1
\A1;（268）
 11
1.000000000000000
 21
0.0000000000000000
 31
0.0000000000000000
  7
KNJYOKO
  0
ENDBLK
  5
3C3
100
AcDbEntity
  8
MAIN0
  6
CONTINUOUS
 62
3
100
AcDbBlockEnd
  0
BLOCK
  5
3C5
100
AcDbEntity
  8
MAIN0
  6
CONTINUOUS
 62
3
100
AcDbBlockBegin
  2
*D42
 70
    65
 10
0.0
 20
0.0
 30
0.0
  0
LINE
  5
3C6
100
AcDbEntity
  8
MAIN0
  6
BYBLOCK
 62
0
100
AcDbLine
 10
847.9091802024492
 20
185.3135668516930
 30
0.0000000000000000
 11
824.2828182009394
 21
185.3135668516930
 31
0.0000000000000000
  0
LINE
  5
3C7
100
AcDbEntity
  8
MAIN0
  6
BYBLOCK
 62
0
100
AcDbLine
 10
829.2828182009394
 20
185.3135668516930
 30
0.0000000000000000
 11
829.2828182009394
 21
156.8135668516932
 31
0.0000000000000000
  0
INSERT
  5
3C8
100
AcDbEntity
  8
MAIN0
  6
BYBLOCK
 62
0
100
AcDbBlockReference
  2
_OPEN
 10
829.2828182009394
 20
185.3135668516930
 30
0.0000000000000000
 41
5.000000000000000
 42
5.000000000000000
 43
5.000000000000000
 50
270.0000000000000
  0
INSERT
  5
3C9
100
AcDbEntity
  8
MAIN0
  6
BYBLOCK
 62
0
100
AcDbBlockReference
  2
_OPEN
 10
829.2828182009394
 20
156.8135668516932
 30
0.0000000000000000
 41
5.000000000000000
 42
5.000000000000000
 43
5.000000000000000
 50
90.00000000000000
  0
LINE
  5
3CA
100
AcDbEntity
  8
MAIN0
  6
BYBLOCK
 62
0
100
AcDbLine
 10
829.2828182009394
 20
190.3135668516930
 30
0.0000000000000000
 11
829.2828182009394
 21
192.8135668516930
 31
0.0000000000000000
  0
LINE
  5
3CB
100
AcDbEntity
  8
MAIN0
  6
BYBLOCK
 62
0
100
AcDbLine
 10
829.2828182009394
 20
151.8135668516932
 30
0.0000000000000000
 11
829.2828182009394
 21
149.3135668516932
 31
0.0000000000000000
  0
LINE
  5
3CC
100
AcDbEntity
  8
MAIN0
  6
BYBLOCK
 62
0
100
AcDbLine
 10
847.9091802024692
 20
156.8135668516932
 30
0.0000000000000000
 11
824.2828182009394
 21
156.8135668516932
 31
0.0000000000000000
  0
MTEXT
  5
3CD
100
AcDbEntity
  8
MAIN0
  6
BYBLOCK
 62
0
100
AcDbMText
 10
824.9078183201486
 20
171.0635668516931
 30
0.0000000000000000
 40
7.749999761581421
 41
0.0000000000000000
 71
     5
 72
     1
  1
\A1;28.5
 11
6.123233995736766e-017
 21
1.000000000000000
 31
0.0000000000000000
  7
STANDARD
  0
ENDBLK
  5
3CE
100
AcDbEntity
  8
MAIN0
  6
CONTINUOUS
 62
3
100
AcDbBlockEnd
  0
BLOCK
  5
3D0
100
AcDbEntity
  8
MAIN0
  6
CONTINUOUS
 62
3
100
AcDbBlockBegin
  2
*D43
 70
    65
 10
0.0
 20
0.0
 30
0.0
  0
LINE
  5
3D1
100
AcDbEntity
  8
MAIN0
  6
BYBLOCK
 62
0
100
AcDbLine
 10
881.9091802620577
 20
179.8135668516854
 30
0.0000000000000000
 11
911.5867274614027
 21
179.8135668516947
 31
0.0000000000000000
  0
LINE
  5
3D2
100
AcDbEntity
  8
MAIN0
  6
BYBLOCK
 62
0
100
AcDbLine
 10
906.5867274614027
 20
179.8135668516931
 30
0.0000000000000000
 11
906.5867274614027
 21
162.3135668516932
 31
0.0000000000000000
  0
INSERT
  5
3D3
100
AcDbEntity
  8
MAIN0
  6
BYBLOCK
 62
0
100
AcDbBlockReference
  2
_OPEN
 10
906.5867274614027
 20
179.8135668516931
 30
0.0000000000000000
 41
5.000000000000000
 42
5.000000000000000
 43
5.000000000000000
 50
270.0000000000000
  0
INSERT
  5
3D4
100
AcDbEntity
  8
MAIN0
  6
BYBLOCK
 62
0
100
AcDbBlockReference
  2
_OPEN
 10
906.5867274614027
 20
162.3135668516932
 30
0.0000000000000000
 41
5.000000000000000
 42
5.000000000000000
 43
5.000000000000000
 50
90.00000000000000
  0
LINE
  5
3D5
100
AcDbEntity
  8
MAIN0
  6
BYBLOCK
 62
0
100
AcDbLine
 10
906.5867274614027
 20
184.8135668516931
 30
0.0000000000000000
 11
906.5867274614027
 21
187.3135668516931
 31
0.0000000000000000
  0
LINE
  5
3D6
100
AcDbEntity
  8
MAIN0
  6
BYBLOCK
 62
0
100
AcDbLine
 10
906.5867274614027
 20
157.3135668516932
 30
0.0000000000000000
 11
906.5867274614027
 21
138.2123614327039
 31
0.0000000000000000
  0
LINE
  5
3D7
100
AcDbEntity
  8
MAIN0
  6
BYBLOCK
 62
0
100
AcDbLine
 10
881.9091802620700
 20
162.3135668516855
 30
0.0000000000000000
 11
911.5867274614027
 21
162.3135668516948
 31
0.0000000000000000
  0
MTEXT
  5
3D8
100
AcDbEntity
  8
MAIN0
  6
BYBLOCK
 62
0
100
AcDbMText
 10
901.4617275806120
 20
147.3373616711224
 30
0.0000000000000000
 40
7.749999761581421
 41
0.0000000000000000
 71
     5
 72
     1
  1
\A1;17.5
 11
6.123233995736766e-017
 21
1.000000000000000
 31
0.0000000000000000
  7
STANDARD
  0
ENDBLK
  5
3D9
100
AcDbEntity
  8
MAIN0
  6
CONTINUOUS
 62
3
100
AcDbBlockEnd
  0
BLOCK
  5
3DB
100
AcDbEntity
  8
MAIN0
  6
CONTINUOUS
 62
3
100
AcDbBlockBegin
  2
*D44
 70
    65
 10
0.0
 20
0.0
 30
0.0
  0
LINE
  5
3DC
100
AcDbEntity
  8
MAIN0
  6
BYBLOCK
 62
0
100
AcDbLine
 10
849.9091802322716
 20
154.8135668218909
 30
0.0000000000000000
 11
849.9091802322716
 21
130.5101574560812
 31
0.0000000000000000
  0
LINE
  5
3DD
100
AcDbEntity
  8
MAIN0
  6
BYBLOCK
 62
0
100
AcDbLine
 10
854.9091802322716
 20
135.5101574560812
 30
0.0000000000000000
 11
874.9091802322712
 21
135.5101574560812
 31
0.0000000000000000
  0
INSERT
  5
3DE
100
AcDbEntity
  8
MAIN0
  6
BYBLOCK
 62
0
100
AcDbBlockReference
  2
_OPEN
 10
849.9091802322716
 20
135.5101574560812
 30
0.0000000000000000
 41
5.000000000000000
 42
5.000000000000000
 43
5.000000000000000
 50
180.0000000000000
  0
INSERT
  5
3DF
100
AcDbEntity
  8
MAIN0
  6
BYBLOCK
 62
0
100
AcDbBlockReference
  2
_OPEN
 10
879.9091802322712
 20
135.5101574560812
 30
0.0000000000000000
 41
5.000000000000000
 42
5.000000000000000
 43
5.000000000000000
 50
0.0000000000000000
  0
LINE
  5
3E0
100
AcDbEntity
  8
MAIN0
  6
BYBLOCK
 62
0
100
AcDbLine
 10
879.9091802322712
 20
154.8135668218826
 30
0.0000000000000000
 11
879.9091802322712
 21
130.5101574560812
 31
0.0000000000000000
  0
MTEXT
  5
3E1
100
AcDbEntity
  8
MAIN0
  6
BYBLOCK
 62
0
100
AcDbMText
 10
864.9091802322714
 20
139.8851573368719
 30
0.0000000000000000
 40
7.749999761581421
 41
0.0000000000000000
 71
     5
 72
     1
  1
\A1;30
 11
1.000000000000000
 21
0.0000000000000000
 31
0.0000000000000000
  7
STANDARD
  0
ENDBLK
  5
3E2
100
AcDbEntity
  8
MAIN0
  6
CONTINUOUS
 62
3
100
AcDbBlockEnd
  0
BLOCK
  5
3E4
100
AcDbEntity
  8
MAIN0
  6
CONTINUOUS
 62
3
100
AcDbBlockBegin
  2
*D45
 70
    65
 10
0.0
 20
0.0
 30
0.0
  0
LINE
  5
3E5
100
AcDbEntity
  8
MAIN0
  6
BYBLOCK
 62
0
100
AcDbLine
 10
266.7582249623225
 20
282.3985056645897
 30
0.0000000000000000
 11
266.7582249623225
 21
219.9985056949238
 31
0.0000000000000000
  0
LINE
  5
3E6
100
AcDbEntity
  8
MAIN0
  6
BYBLOCK
 62
0
100
AcDbLine
 10
271.7582249623225
 20
224.9985056949238
 30
0.0000000000000000
 11
631.7582249625040
 21
224.9985056949238
 31
0.0000000000000000
  0
INSERT
  5
3E7
100
AcDbEntity
  8
MAIN0
  6
BYBLOCK
 62
0
100
AcDbBlockReference
  2
_OPEN
 10
266.7582249623225
 20
224.9985056949238
 30
0.0000000000000000
 41
5.000000000000000
 42
5.000000000000000
 43
5.000000000000000
 50
180.0000000000000
  0
INSERT
  5
3E8
100
AcDbEntity
  8
MAIN0
  6
BYBLOCK
 62
0
100
AcDbBlockReference
  2
_OPEN
 10
636.7582249625040
 20
224.9985056949238
 30
0.0000000000000000
 41
5.000000000000000
 42
5.000000000000000
 43
5.000000000000000
 50
0.0000000000000000
  0
LINE
  5
3E9
100
AcDbEntity
  8
MAIN0
  6
BYBLOCK
 62
0
100
AcDbLine
 10
636.7582249625040
 20
282.3985056650996
 30
0.0000000000000000
 11
636.7582249625040
 21
219.9985056949238
 31
0.0000000000000000
  0
MTEXT
  5
3EA
100
AcDbEntity
  8
MAIN0
  6
BYBLOCK
 62
0
100
AcDbMText
 10
451.7582249624132
 20
229.3735055757146
 30
0.0000000000000000
 40
7.749999761581421
 41
0.0000000000000000
 71
     5
 72
     1
  1
\A1;370
 11
1.000000000000000
 21
0.0000000000000000
 31
0.0000000000000000
  7
STANDARD
  0
ENDBLK
  5
3EB
100
AcDbEntity
  8
MAIN0
  6
CONTINUOUS
 62
3
100
AcDbBlockEnd
  0
BLOCK
  5
3ED
100
AcDbEntity
  8
MAIN0
  6
CONTINUOUS
 62
3
100
AcDbBlockBegin
  2
*D46
 70
    65
 10
0.0
 20
0.0
 30
0.0
  0
LINE
  5
3EE
100
AcDbEntity
  8
MAIN0
  6
BYBLOCK
 62
0
100
AcDbLine
 10
636.7582249625040
 20
282.3985056650996
 30
0.0000000000000000
 11
636.7582249625040
 21
219.9985056949238
 31
0.0000000000000000
  0
LINE
  5
3EF
100
AcDbEntity
  8
MAIN0
  6
BYBLOCK
 62
0
100
AcDbLine
 10
641.7582249625040
 20
224.9985056949238
 30
0.0000000000000000
 11
716.7582249627079
 21
224.9985056949238
 31
0.0000000000000000
  0
INSERT
  5
3F0
100
AcDbEntity
  8
MAIN0
  6
BYBLOCK
 62
0
100
AcDbBlockReference
  2
_OPEN
 10
636.7582249625040
 20
224.9985056949238
 30
0.0000000000000000
 41
5.000000000000000
 42
5.000000000000000
 43
5.000000000000000
 50
180.0000000000000
  0
INSERT
  5
3F1
100
AcDbEntity
  8
MAIN0
  6
BYBLOCK
 62
0
100
AcDbBlockReference
  2
_OPEN
 10
721.7582249627079
 20
224.9985056949238
 30
0.0000000000000000
 41
5.000000000000000
 42
5.000000000000000
 43
5.000000000000000
 50
0.0000000000000000
  0
LINE
  5
3F2
100
AcDbEntity
  8
MAIN0
  6
BYBLOCK
 62
0
100
AcDbLine
 10
721.7582249627079
 20
306.9985056631522
 30
0.0000000000000000
 11
721.7582249627079
 21
219.9985056949238
 31
0.0000000000000000
  0
MTEXT
  5
3F3
100
AcDbEntity
  8
MAIN0
  6
BYBLOCK
 62
0
100
AcDbMText
 10
679.2582249626059
 20
229.3735055757146
 30
0.0000000000000000
 40
7.749999761581421
 41
0.0000000000000000
 71
     5
 72
     1
  1
\A1;85
 11
1.000000000000000
 21
0.0000000000000000
 31
0.0000000000000000
  7
STANDARD
  0
ENDBLK
  5
3F4
100
AcDbEntity
  8
MAIN0
  6
CONTINUOUS
 62
3
100
AcDbBlockEnd
  0
BLOCK
  5
3F6
100
AcDbEntity
  8
MAIN0
  6
CONTINUOUS
 62
3
100
AcDbBlockBegin
  2
*D47
 70
    65
 10
0.0
 20
0.0
 30
0.0
  0
LINE
  5
3F7
100
AcDbEntity
  8
MAIN0
  6
BYBLOCK
 62
0
100
AcDbLine
 10
537.7582249627112
 20
288.9985056946088
 30
0.0000000000000000
 11
537.7582249627112
 21
319.9985056949705
 31
0.0000000000000000
  0
INSERT
  5
3F8
100
AcDbEntity
  8
MAIN0
  6
BYBLOCK
 62
0
100
AcDbBlockReference
  2
_OPEN
 10
537.7582249627112
 20
283.9985056946088
 30
0.0000000000000000
 41
5.000000000000000
 42
5.000000000000000
 43
5.000000000000000
 50
270.0000000000000
  0
INSERT
  5
3F9
100
AcDbEntity
  8
MAIN0
  6
BYBLOCK
 62
0
100
AcDbBlockReference
  2
_OPEN
 10
537.7582249627112
 20
324.9985056949705
 30
0.0000000000000000
 41
5.000000000000000
 42
5.000000000000000
 43
5.000000000000000
 50
90.00000000000000
  0
LINE
  5
3FA
100
AcDbEntity
  8
MAIN0
  6
BYBLOCK
 62
0
100
AcDbLine
 10
552.7582249329078
 20
324.9985056949705
 30
0.0000000000000000
 11
532.7582249627112
 21
324.9985056949705
 31
0.0000000000000000
  0
MTEXT
  5
3FB
100
AcDbEntity
  8
MAIN0
  6
BYBLOCK
 62
0
100
AcDbMText
 10
533.3832250819205
 20
304.4985056947896
 30
0.0000000000000000
 40
7.749999761581421
 41
0.0000000000000000
 71
     5
 72
     1
  1
\A1;41
 11
6.123233995736766e-017
 21
1.000000000000000
 31
0.0000000000000000
  7
STANDARD
  0
ENDBLK
  5
3FC
100
AcDbEntity
  8
MAIN0
  6
CONTINUOUS
 62
3
100
AcDbBlockEnd
  0
BLOCK
  5
3FE
100
AcDbEntity
  8
MAIN0
  6
CONTINUOUS
 62
3
100
AcDbBlockBegin
  2
*D48
 70
    65
 10
0.0
 20
0.0
 30
0.0
  0
LINE
  5
3FF
100
AcDbEntity
  8
MAIN0
  6
BYBLOCK
 62
0
100
AcDbLine
 10
552.7582249329078
 20
324.9985056949705
 30
0.0000000000000000
 11
532.7582249627112
 21
324.9985056949705
 31
0.0000000000000000
  0
LINE
  5
400
100
AcDbEntity
  8
MAIN0
  6
BYBLOCK
 62
0
100
AcDbLine
 10
537.7582249627112
 20
329.9985056949705
 30
0.0000000000000000
 11
537.7582249627112
 21
363.9985056947102
 31
0.0000000000000000
  0
INSERT
  5
401
100
AcDbEntity
  8
MAIN0
  6
BYBLOCK
 62
0
100
AcDbBlockReference
  2
_OPEN
 10
537.7582249627112
 20
324.9985056949705
 30
0.0000000000000000
 41
5.000000000000000
 42
5.000000000000000
 43
5.000000000000000
 50
270.0000000000000
  0
INSERT
  5
402
100
AcDbEntity
  8
MAIN0
  6
BYBLOCK
 62
0
100
AcDbBlockReference
  2
_OPEN
 10
537.7582249627112
 20
368.9985056947102
 30
0.0000000000000000
 41
5.000000000000000
 42
5.000000000000000
 43
5.000000000000000
 50
90.00000000000000
  0
LINE
  5
403
100
AcDbEntity
  8
MAIN0
  6
BYBLOCK
 62
0
100
AcDbLine
 10
499.7582249922212
 20
368.9985056947102
 30
0.0000000000000000
 11
542.7582249627112
 21
368.9985056947102
 31
0.0000000000000000
  0
MTEXT
  5
404
100
AcDbEntity
  8
MAIN0
  6
BYBLOCK
 62
0
100
AcDbMText
 10
533.3832250819205
 20
346.9985056948403
 30
0.0000000000000000
 40
7.749999761581421
 41
0.0000000000000000
 71
     5
 72
     1
  1
\A1;44
 11
6.123233995736766e-017
 21
1.000000000000000
 31
0.0000000000000000
  7
STANDARD
  0
ENDBLK
  5
405
100
AcDbEntity
  8
MAIN0
  6
CONTINUOUS
 62
3
100
AcDbBlockEnd
  0
BLOCK
  5
407
100
AcDbEntity
  8
MAIN0
  6
CONTINUOUS
 62
3
100
AcDbBlockBegin
  2
*D49
 70
    65
 10
0.0
 20
0.0
 30
0.0
  0
LINE
  5
408
100
AcDbEntity
  8
MAIN0
  6
BYBLOCK
 62
0
100
AcDbLine
 10
638.3582249923045
 20
283.9985056948949
 30
0.0000000000000000
 11
741.7955801876738
 21
283.9985056945942
 31
0.0000000000000000
  0
LINE
  5
409
100
AcDbEntity
  8
MAIN0
  6
BYBLOCK
 62
0
100
AcDbLine
 10
736.7955801876738
 20
288.9985056946088
 30
0.0000000000000000
 11
736.7955801876738
 21
328.9985056929551
 31
0.0000000000000000
  0
INSERT
  5
40A
100
AcDbEntity
  8
MAIN0
  6
BYBLOCK
 62
0
100
AcDbBlockReference
  2
_OPEN
 10
736.7955801876738
 20
283.9985056946088
 30
0.0000000000000000
 41
5.000000000000000
 42
5.000000000000000
 43
5.000000000000000
 50
270.0000000000000
  0
INSERT
  5
40B
100
AcDbEntity
  8
MAIN0
  6
BYBLOCK
 62
0
100
AcDbBlockReference
  2
_OPEN
 10
736.7955801876738
 20
333.9985056929551
 30
0.0000000000000000
 41
5.000000000000000
 42
5.000000000000000
 43
5.000000000000000
 50
90.00000000000000
  0
LINE
  5
40C
100
AcDbEntity
  8
MAIN0
  6
BYBLOCK
 62
0
100
AcDbLine
 10
733.3763960039154
 20
333.9985056929551
 30
0.0000000000000000
 11
741.7955801876738
 21
333.9985056929551
 31
0.0000000000000000
  0
MTEXT
  5
40D
100
AcDbEntity
  8
MAIN0
  6
BYBLOCK
 62
0
100
AcDbMText
 10
732.4205803068830
 20
308.9985056937819
 30
0.0000000000000000
 40
7.749999761581421
 41
0.0000000000000000
 71
     5
 72
     1
  1
\A1;50
 11
6.123233995736766e-017
 21
1.000000000000000
 31
0.0000000000000000
  7
STANDARD
  0
ENDBLK
  5
40E
100
AcDbEntity
  8
MAIN0
  6
CONTINUOUS
 62
3
100
AcDbBlockEnd
  0
BLOCK
  5
410
100
AcDbEntity
  8
MAIN0
  6
CONTINUOUS
 62
3
100
AcDbBlockBegin
  2
*D50
 70
    65
 10
0.0
 20
0.0
 30
0.0
  0
LINE
  5
411
100
AcDbEntity
  8
MAIN0
  6
BYBLOCK
 62
0
100
AcDbLine
 10
402.7582249623879
 20
276.9985056647934
 30
0.0000000000000000
 11
402.7582249623879
 21
255.9985056945955
 31
0.0000000000000000
  0
LINE
  5
412
100
AcDbEntity
  8
MAIN0
  6
BYBLOCK
 62
0
100
AcDbLine
 10
402.7582249623879
 20
260.9985056945955
 30
0.0000000000000000
 11
420.7582249623879
 21
260.9985056945955
 31
0.0000000000000000
  0
INSERT
  5
413
100
AcDbEntity
  8
MAIN0
  6
BYBLOCK
 62
0
100
AcDbBlockReference
  2
_OPEN
 10
402.7582249623879
 20
260.9985056945955
 30
0.0000000000000000
 41
5.000000000000000
 42
5.000000000000000
 43
5.000000000000000
 50
0.0000000000000000
  0
INSERT
  5
414
100
AcDbEntity
  8
MAIN0
  6
BYBLOCK
 62
0
100
AcDbBlockReference
  2
_OPEN
 10
420.7582249623879
 20
260.9985056945955
 30
0.0000000000000000
 41
5.000000000000000
 42
5.000000000000000
 43
5.000000000000000
 50
180.0000000000000
  0
LINE
  5
415
100
AcDbEntity
  8
MAIN0
  6
BYBLOCK
 62
0
100
AcDbLine
 10
397.7582249623879
 20
260.9985056945955
 30
0.0000000000000000
 11
384.7529318480802
 21
260.9985056945955
 31
0.0000000000000000
  0
LINE
  5
416
100
AcDbEntity
  8
MAIN0
  6
BYBLOCK
 62
0
100
AcDbLine
 10
425.7582249623879
 20
260.9985056945955
 30
0.0000000000000000
 11
428.2582249623879
 21
260.9985056945955
 31
0.0000000000000000
  0
LINE
  5
417
100
AcDbEntity
  8
MAIN0
  6
BYBLOCK
 62
0
100
AcDbLine
 10
420.7582249623879
 20
276.9985056647934
 30
0.0000000000000000
 11
420.7582249623879
 21
255.9985056945955
 31
0.0000000000000000
  0
MTEXT
  5
418
100
AcDbEntity
  8
MAIN0
  6
BYBLOCK
 62
0
100
AcDbMText
 10
389.8779317288709
 20
266.1235055753862
 30
0.0000000000000000
 40
7.749999761581421
 41
0.0000000000000000
 71
     5
 72
     1
  1
\A1;18
 11
1.000000000000000
 21
0.0000000000000000
 31
0.0000000000000000
  7
STANDARD
  0
ENDBLK
  5
419
100
AcDbEntity
  8
MAIN0
  6
CONTINUOUS
 62
3
100
AcDbBlockEnd
  0
BLOCK
  5
41B
100
AcDbEntity
  8
MAIN0
  6
CONTINUOUS
 62
3
100
AcDbBlockBegin
  2
*D51
 70
    65
 10
0.0
 20
0.0
 30
0.0
  0
LINE
  5
41C
100
AcDbEntity
  8
MAIN0
  6
BYBLOCK
 62
0
100
AcDbLine
 10
266.7582249623226
 20
282.3985056645897
 30
0.0000000000000000
 11
266.7582249623225
 21
201.9985056947580
 31
0.0000000000000000
  0
LINE
  5
41D
100
AcDbEntity
  8
MAIN0
  6
BYBLOCK
 62
0
100
AcDbLine
 10
271.7582249623224
 20
206.9985056947580
 30
0.0000000000000000
 11
406.7582249623879
 21
206.9985056947580
 31
0.0000000000000000
  0
INSERT
  5
41E
100
AcDbEntity
  8
MAIN0
  6
BYBLOCK
 62
0
100
AcDbBlockReference
  2
_OPEN
 10
266.7582249623224
 20
206.9985056947580
 30
0.0000000000000000
 41
5.000000000000000
 42
5.000000000000000
 43
5.000000000000000
 50
180.0000000000000
  0
INSERT
  5
41F
100
AcDbEntity
  8
MAIN0
  6
BYBLOCK
 62
0
100
AcDbBlockReference
  2
_OPEN
 10
411.7582249623879
 20
206.9985056947580
 30
0.0000000000000000
 41
5.000000000000000
 42
5.000000000000000
 43
5.000000000000000
 50
0.0000000000000000
  0
LINE
  5
420
100
AcDbEntity
  8
MAIN0
  6
BYBLOCK
 62
0
100
AcDbLine
 10
411.7582249623879
 20
268.0087884045666
 30
0.0000000000000000
 11
411.7582249623879
 21
201.9985056947580
 31
0.0000000000000000
  0
MTEXT
  5
421
100
AcDbEntity
  8
MAIN0
  6
BYBLOCK
 62
0
100
AcDbMText
 10
326.5879264430910
 20
211.5401722422154
 30
0.0000000000000000
 40
7.749999761581421
 41
0.0000000000000000
 71
     5
 72
     1
  1
\A1;145
 11
1.000000000000000
 21
0.0000000000000000
 31
0.0000000000000000
  7
STANDARD
  0
ENDBLK
  5
422
100
AcDbEntity
  8
MAIN0
  6
CONTINUOUS
 62
3
100
AcDbBlockEnd
  0
BLOCK
  5
424
100
AcDbEntity
  8
MAIN0
  6
CONTINUOUS
 62
3
100
AcDbBlockBegin
  2
*D52
 70
    65
 10
0.0
 20
0.0
 30
0.0
  0
LINE
  5
425
100
AcDbEntity
  8
MAIN0
  6
BYBLOCK
 62
0
100
AcDbLine
 10
411.7582249623879
 20
268.0087884045666
 30
0.0000000000000000
 11
411.7582249623879
 21
201.9985056947580
 31
0.0000000000000000
  0
LINE
  5
426
100
AcDbEntity
  8
MAIN0
  6
BYBLOCK
 62
0
100
AcDbLine
 10
416.7582249623878
 20
206.9985056947580
 30
0.0000000000000000
 11
716.7582249627080
 21
206.9985056947580
 31
0.0000000000000000
  0
INSERT
  5
427
100
AcDbEntity
  8
MAIN0
  6
BYBLOCK
 62
0
100
AcDbBlockReference
  2
_OPEN
 10
411.7582249623878
 20
206.9985056947580
 30
0.0000000000000000
 41
5.000000000000000
 42
5.000000000000000
 43
5.000000000000000
 50
180.0000000000000
  0
INSERT
  5
428
100
AcDbEntity
  8
MAIN0
  6
BYBLOCK
 62
0
100
AcDbBlockReference
  2
_OPEN
 10
721.7582249627080
 20
206.9985056947580
 30
0.0000000000000000
 41
5.000000000000000
 42
5.000000000000000
 43
5.000000000000000
 50
0.0000000000000000
  0
LINE
  5
429
100
AcDbEntity
  8
MAIN0
  6
BYBLOCK
 62
0
100
AcDbLine
 10
721.7582249627080
 20
306.9985056631522
 30
0.0000000000000000
 11
721.7582249627080
 21
201.9985056947580
 31
0.0000000000000000
  0
MTEXT
  5
42A
100
AcDbEntity
  8
MAIN0
  6
BYBLOCK
 62
0
100
AcDbMText
 10
561.3471517232629
 20
211.5401722422154
 30
0.0000000000000000
 40
7.749999761581421
 41
0.0000000000000000
 71
     5
 72
     1
  1
\A1;310
 11
1.000000000000000
 21
0.0000000000000000
 31
0.0000000000000000
  7
STANDARD
  0
ENDBLK
  5
42B
100
AcDbEntity
  8
MAIN0
  6
CONTINUOUS
 62
3
100
AcDbBlockEnd
  0
BLOCK
  5
42D
100
AcDbEntity
  8
MAIN0
  6
CONTINUOUS
 62
3
100
AcDbBlockBegin
  2
*D53
 70
    65
 10
0.0
 20
0.0
 30
0.0
  0
LINE
  5
42E
100
AcDbEntity
  8
MAIN0
  6
BYBLOCK
 62
0
100
AcDbLine
 10
266.7582249623225
 20
282.3985056645897
 30
0.0000000000000000
 11
266.7582249623224
 21
183.9985056945955
 31
0.0000000000000000
  0
LINE
  5
42F
100
AcDbEntity
  8
MAIN0
  6
BYBLOCK
 62
0
100
AcDbLine
 10
271.7582249623224
 20
188.9985056945955
 30
0.0000000000000000
 11
716.7582249627080
 21
188.9985056945955
 31
0.0000000000000000
  0
INSERT
  5
430
100
AcDbEntity
  8
MAIN0
  6
BYBLOCK
 62
0
100
AcDbBlockReference
  2
_OPEN
 10
266.7582249623224
 20
188.9985056945955
 30
0.0000000000000000
 41
5.000000000000000
 42
5.000000000000000
 43
5.000000000000000
 50
180.0000000000000
  0
INSERT
  5
431
100
AcDbEntity
  8
MAIN0
  6
BYBLOCK
 62
0
100
AcDbBlockReference
  2
_OPEN
 10
721.7582249627080
 20
188.9985056945955
 30
0.0000000000000000
 41
5.000000000000000
 42
5.000000000000000
 43
5.000000000000000
 50
0.0000000000000000
  0
LINE
  5
432
100
AcDbEntity
  8
MAIN0
  6
BYBLOCK
 62
0
100
AcDbLine
 10
721.7582249627080
 20
306.9985056631522
 30
0.0000000000000000
 11
721.7582249627080
 21
183.9985056945955
 31
0.0000000000000000
  0
MTEXT
  5
433
100
AcDbEntity
  8
MAIN0
  6
BYBLOCK
 62
0
100
AcDbMText
 10
505.3365566290209
 20
193.5401722420530
 30
0.0000000000000000
 40
7.749999761581421
 41
0.0000000000000000
 71
     5
 72
     1
  1
\A1;455
 11
1.000000000000000
 21
0.0000000000000000
 31
0.0000000000000000
  7
STANDARD
  0
ENDBLK
  5
434
100
AcDbEntity
  8
MAIN0
  6
CONTINUOUS
 62
3
100
AcDbBlockEnd
  0
BLOCK
  5
436
100
AcDbEntity
  8
MAIN0
  6
CONTINUOUS
 62
3
100
AcDbBlockBegin
  2
*D54
 70
    65
 10
0.0
 20
0.0
 30
0.0
  0
LINE
  5
437
100
AcDbEntity
  8
MAIN0
  6
BYBLOCK
 62
0
100
AcDbLine
 10
265.9582249326165
 20
418.9985056944389
 30
0.0000000000000000
 11
245.7582249623226
 21
418.9985056944389
 31
0.0000000000000000
  0
LINE
  5
438
100
AcDbEntity
  8
MAIN0
  6
BYBLOCK
 62
0
100
AcDbLine
 10
250.7582249623226
 20
413.9985056944389
 30
0.0000000000000000
 11
250.7582249623226
 21
373.9985056944389
 31
0.0000000000000000
  0
INSERT
  5
439
100
AcDbEntity
  8
MAIN0
  6
BYBLOCK
 62
0
100
AcDbBlockReference
  2
_OPEN
 10
250.7582249623226
 20
418.9985056944389
 30
0.0000000000000000
 41
5.000000000000000
 42
5.000000000000000
 43
5.000000000000000
 50
90.00000000000000
  0
INSERT
  5
43A
100
AcDbEntity
  8
MAIN0
  6
BYBLOCK
 62
0
100
AcDbBlockReference
  2
_OPEN
 10
250.7582249623226
 20
368.9985056944389
 30
0.0000000000000000
 41
5.000000000000000
 42
5.000000000000000
 43
5.000000000000000
 50
270.0000000000000
  0
LINE
  5
43B
100
AcDbEntity
  8
MAIN0
  6
BYBLOCK
 62
0
100
AcDbLine
 10
266.1582249326167
 20
368.9985056944389
 30
0.0000000000000000
 11
245.7582249623226
 21
368.9985056944389
 31
0.0000000000000000
  0
MTEXT
  5
43C
100
AcDbEntity
  8
MAIN0
  6
BYBLOCK
 62
0
100
AcDbMText
 10
246.3832250815319
 20
393.9985056944389
 30
0.0000000000000000
 40
7.749999761581421
 41
0.0000000000000000
 71
     5
 72
     1
  1
\A1;50
 11
6.123233995736766e-017
 21
1.000000000000000
 31
0.0000000000000000
  7
STANDARD
  0
ENDBLK
  5
43D
100
AcDbEntity
  8
MAIN0
  6
CONTINUOUS
 62
3
100
AcDbBlockEnd
  0
BLOCK
  5
43F
100
AcDbEntity
  8
MAIN0
  6
CONTINUOUS
 62
3
100
AcDbBlockBegin
  2
*D55
 70
    65
 10
0.0
 20
0.0
 30
0.0
  0
LINE
  5
440
100
AcDbEntity
  8
MAIN0
  6
BYBLOCK
 62
0
100
AcDbLine
 10
266.1582249326167
 20
368.9985056944389
 30
0.0000000000000000
 11
245.7582249623226
 21
368.9985056944389
 31
0.0000000000000000
  0
LINE
  5
441
100
AcDbEntity
  8
MAIN0
  6
BYBLOCK
 62
0
100
AcDbLine
 10
250.7582249623226
 20
363.9985056944389
 30
0.0000000000000000
 11
250.7582249623226
 21
288.9985056943920
 31
0.0000000000000000
  0
INSERT
  5
442
100
AcDbEntity
  8
MAIN0
  6
BYBLOCK
 62
0
100
AcDbBlockReference
  2
_OPEN
 10
250.7582249623226
 20
368.9985056944389
 30
0.0000000000000000
 41
5.000000000000000
 42
5.000000000000000
 43
5.000000000000000
 50
90.00000000000000
  0
INSERT
  5
443
100
AcDbEntity
  8
MAIN0
  6
BYBLOCK
 62
0
100
AcDbBlockReference
  2
_OPEN
 10
250.7582249623226
 20
283.9985056943920
 30
0.0000000000000000
 41
5.000000000000000
 42
5.000000000000000
 43
5.000000000000000
 50
270.0000000000000
  0
LINE
  5
444
100
AcDbEntity
  8
MAIN0
  6
BYBLOCK
 62
0
100
AcDbLine
 10
265.1582249325202
 20
283.9985056943920
 30
0.0000000000000000
 11
245.7582249623226
 21
283.9985056943920
 31
0.0000000000000000
  0
MTEXT
  5
445
100
AcDbEntity
  8
MAIN0
  6
BYBLOCK
 62
0
100
AcDbMText
 10
246.3832250815319
 20
326.4985056944154
 30
0.0000000000000000
 40
7.749999761581421
 41
0.0000000000000000
 71
     5
 72
     1
  1
\A1;85
 11
6.123233995736766e-017
 21
1.000000000000000
 31
0.0000000000000000
  7
STANDARD
  0
ENDBLK
  5
446
100
AcDbEntity
  8
MAIN0
  6
CONTINUOUS
 62
3
100
AcDbBlockEnd
  0
BLOCK
  5
448
100
AcDbEntity
  8
MAIN0
  6
CONTINUOUS
 62
3
100
AcDbBlockBegin
  2
*D56
 70
    65
 10
0.0
 20
0.0
 30
0.0
  0
LINE
  5
449
100
AcDbEntity
  8
MAIN0
  6
BYBLOCK
 62
0
100
AcDbLine
 10
265.9582249326165
 20
418.9985056944389
 30
0.0000000000000000
 11
229.7582249623226
 21
418.9985056944389
 31
0.0000000000000000
  0
LINE
  5
44A
100
AcDbEntity
  8
MAIN0
  6
BYBLOCK
 62
0
100
AcDbLine
 10
234.7582249623226
 20
413.9985056944389
 30
0.0000000000000000
 11
234.7582249623226
 21
288.9985056943920
 31
0.0000000000000000
  0
INSERT
  5
44B
100
AcDbEntity
  8
MAIN0
  6
BYBLOCK
 62
0
100
AcDbBlockReference
  2
_OPEN
 10
234.7582249623226
 20
418.9985056944389
 30
0.0000000000000000
 41
5.000000000000000
 42
5.000000000000000
 43
5.000000000000000
 50
90.00000000000000
  0
INSERT
  5
44C
100
AcDbEntity
  8
MAIN0
  6
BYBLOCK
 62
0
100
AcDbBlockReference
  2
_OPEN
 10
234.7582249623226
 20
283.9985056943920
 30
0.0000000000000000
 41
5.000000000000000
 42
5.000000000000000
 43
5.000000000000000
 50
270.0000000000000
  0
LINE
  5
44D
100
AcDbEntity
  8
MAIN0
  6
BYBLOCK
 62
0
100
AcDbLine
 10
265.1582249325202
 20
283.9985056943920
 30
0.0000000000000000
 11
229.7582249623226
 21
283.9985056943920
 31
0.0000000000000000
  0
MTEXT
  5
44E
100
AcDbEntity
  8
MAIN0
  6
BYBLOCK
 62
0
100
AcDbMText
 10
230.3832250815319
 20
351.4985056944154
 30
0.0000000000000000
 40
7.749999761581421
 41
0.0000000000000000
 71
     5
 72
     1
  1
\A1;135
 11
6.123233995736766e-017
 21
1.000000000000000
 31
0.0000000000000000
  7
STANDARD
  0
ENDBLK
  5
44F
100
AcDbEntity
  8
MAIN0
  6
CONTINUOUS
 62
3
100
AcDbBlockEnd
  0
BLOCK
  5
51E
100
AcDbEntity
  8
MAIN0
  6
CONTINUOUS
 62
3
100
AcDbBlockBegin
  2
*D57
 70
    65
 10
0.0
 20
0.0
 30
0.0
  0
LINE
  5
51F
100
AcDbEntity
  8
MAIN0
  6
BYBLOCK
 62
0
100
AcDbLine
 10
777.8720113285451
 20
566.8260780793509
 30
0.0000000000000000
 11
717.9019102759257
 21
566.8260780793509
 31
0.0000000000000000
  0
LINE
  5
520
100
AcDbEntity
  8
MAIN0
  6
BYBLOCK
 62
0
100
AcDbLine
 10
722.9019102759257
 20
561.8260780793509
 30
0.0000000000000000
 11
722.9019102759257
 21
391.8260780793511
 31
0.0000000000000000
  0
INSERT
  5
521
100
AcDbEntity
  8
MAIN0
  6
BYBLOCK
 62
0
100
AcDbBlockReference
  2
_OPEN
 10
722.9019102759257
 20
566.8260780793509
 30
0.0000000000000000
 41
5.000000000000000
 42
5.000000000000000
 43
5.000000000000000
 50
90.00000000000000
  0
INSERT
  5
522
100
AcDbEntity
  8
MAIN0
  6
BYBLOCK
 62
0
100
AcDbBlockReference
  2
_OPEN
 10
722.9019102759257
 20
386.8260780793511
 30
0.0000000000000000
 41
5.000000000000000
 42
5.000000000000000
 43
5.000000000000000
 50
270.0000000000000
  0
LINE
  5
523
100
AcDbEntity
  8
MAIN0
  6
BYBLOCK
 62
0
100
AcDbLine
 10
729.3763959443107
 20
386.8260780793511
 30
0.0000000000000000
 11
717.9019102759257
 21
386.8260780793511
 31
0.0000000000000000
  0
MTEXT
  5
524
100
AcDbEntity
  8
MAIN0
  6
BYBLOCK
 62
0
100
AcDbMText
 10
718.5269103951350
 20
476.8260780793510
 30
0.0000000000000000
 40
7.749999761581421
 41
0.0000000000000000
 71
     5
 72
     1
  1
\A1;180
 11
6.123233995736766e-017
 21
1.000000000000000
 31
0.0000000000000000
  7
STANDARD
  0
ENDBLK
  5
525
100
AcDbEntity
  8
MAIN0
  6
CONTINUOUS
 62
3
100
AcDbBlockEnd
  0
ENDSEC
  0
SECTION
  2
ENTITIES
  0
LINE
  5
46
100
AcDbEntity
  8
MAIN0
  6
CENTER
 62
3
100
AcDbLine
 10
731.3763959741131
 20
333.9985056929551
 30
0.0000000000000000
 11
647.4292970225149
 21
333.9985056929551
 31
0.0000000000000000
  0
LINE
  5
47
100
AcDbEntity
  8
MAIN0
  6
CONTINUOUS
 62
3
100
AcDbLine
 10
690.7582249627450
 20
301.9985056931174
 30
0.0000000000000000
 11
690.7582249628093
 21
368.9985056929555
 31
0.0000000000000000
  0
LINE
  5
48
100
AcDbEntity
  8
MAIN0
  6
CONTINUOUS
 62
3
100
AcDbLine
 10
692.7582249627304
 20
301.9985056931247
 30
0.0000000000000000
 11
692.7582249629393
 21
368.9985056929559
 31
0.0000000000000000
  0
LINE
  5
49
100
AcDbEntity
  8
MAIN0
  6
CONTINUOUS
 62
3
100
AcDbLine
 10
677.7582249630266
 20
296.4985056929551
 30
0.0000000000000000
 11
672.7268519269010
 21
296.4985056929551
 31
0.0000000000000000
  0
LINE
  5
4A
100
AcDbEntity
  8
MAIN0
  6
CONTINUOUS
 62
3
100
AcDbLine
 10
671.7582249625600
 20
297.9985056949321
 30
0.0000000000000000
 11
671.7582249628522
 21
368.9985056946758
 31
0.0000000000000000
  0
LINE
  5
4B
100
AcDbEntity
  8
MAIN0
  6
CONTINUOUS
 62
3
100
AcDbLine
 10
300.7582249624224
 20
361.9985056944390
 30
0.0000000000000000
 11
300.7582249624170
 21
368.9985056944389
 31
0.0000000000000000
  0
LINE
  5
4C
100
AcDbEntity
  8
MAIN0
  6
CONTINUOUS
 62
3
100
AcDbLine
 10
318.7582249624238
 20
361.9985056944636
 30
0.0000000000000000
 11
318.7582249624185
 21
368.9985056944648
 31
0.0000000000000000
  0
LINE
  5
4D
100
AcDbEntity
  8
MAIN0
  6
CONTINUOUS
 62
3
100
AcDbLine
 10
300.7582249624223
 20
361.9985056944389
 30
0.0000000000000000
 11
318.7582249624239
 21
361.9985056944637
 31
0.0000000000000000
  0
LINE
  5
4E
100
AcDbEntity
  8
MAIN0
  6
CONTINUOUS
 62
3
100
AcDbLine
 10
300.7582249624215
 20
362.9985056944389
 30
0.0000000000000000
 11
318.7582249624231
 21
362.9985056944637
 31
0.0000000000000000
  0
LINE
  5
4F
100
AcDbEntity
  8
MAIN0
  6
CONTINUOUS
 62
3
100
AcDbLine
 10
602.3582249624187
 20
342.8985056927141
 30
0.0000000000000000
 11
639.7582249624188
 21
342.8985056927280
 31
0.0000000000000000
  0
LINE
  5
50
100
AcDbEntity
  8
MAIN0
  6
CONTINUOUS
 62
3
100
AcDbLine
 10
497.7582249624189
 20
340.6985056932109
 30
0.0000000000000000
 11
602.3582249624187
 21
340.6985056932109
 31
0.0000000000000000
  0
LINE
  5
51
100
AcDbEntity
  8
MAIN0
  6
CONTINUOUS
 62
3
100
AcDbLine
 10
266.7582249623081
 20
344.9985056944532
 30
0.0000000000000000
 11
497.7582249624188
 21
344.9985056947947
 31
0.0000000000000000
  0
CIRCLE
  5
52
100
AcDbEntity
  8
MAIN0
  6
CONTINUOUS
 62
3
100
AcDbCircle
 10
561.7582249627101
 20
324.9985056949705
 30
0.0000000000000000
 40
5.000000000000000
  0
CIRCLE
  5
53
100
AcDbEntity
  8
MAIN0
  6
CONTINUOUS
 62
3
100
AcDbCircle
 10
561.7582249627101
 20
324.9985056949705
 30
0.0000000000000000
 40
4.250000000000000
  0
LINE
  5
54
100
AcDbEntity
  8
MAIN0
  6
CENTER
 62
3
100
AcDbLine
 10
561.7582249627101
 20
331.9985056949705
 30
0.0000000000000000
 11
561.7582249627101
 21
317.9985056949705
 31
0.0000000000000000
  0
LINE
  5
55
100
AcDbEntity
  8
MAIN0
  6
CENTER
 62
3
100
AcDbLine
 10
568.7582249627101
 20
324.9985056949705
 30
0.0000000000000000
 11
554.7582249627101
 21
324.9985056949705
 31
0.0000000000000000
  0
CIRCLE
  5
56
100
AcDbEntity
  8
MAIN0
  6
CONTINUOUS
 62
3
100
AcDbCircle
 10
341.7582249623114
 20
324.9985056949129
 30
0.0000000000000000
 40
5.000000000000000
  0
CIRCLE
  5
57
100
AcDbEntity
  8
MAIN0
  6
CONTINUOUS
 62
3
100
AcDbCircle
 10
341.7582249623114
 20
324.9985056949129
 30
0.0000000000000000
 40
4.250000000000000
  0
LINE
  5
58
100
AcDbEntity
  8
MAIN0
  6
CENTER
 62
3
100
AcDbLine
 10
341.7582249623114
 20
331.9985056949129
 30
0.0000000000000000
 11
341.7582249623114
 21
317.9985056949129
 31
0.0000000000000000
  0
LINE
  5
59
100
AcDbEntity
  8
MAIN0
  6
CENTER
 62
3
100
AcDbLine
 10
348.7582249623114
 20
324.9985056949129
 30
0.0000000000000000
 11
334.7582249623114
 21
324.9985056949129
 31
0.0000000000000000
  0
LINE
  5
5A
100
AcDbEntity
  8
MAIN0
  6
CENTER
 62
3
100
AcDbLine
 10
319.1582249624028
 20
388.9985056944389
 30
0.0000000000000000
 11
300.3582249624029
 21
388.9985056944389
 31
0.0000000000000000
  0
LINE
  5
5B
100
AcDbEntity
  8
MAIN0
  6
CENTER
 62
3
100
AcDbLine
 10
319.7582249623879
 20
408.9985056944388
 30
0.0000000000000000
 11
299.7582249623879
 21
408.9985056944388
 31
0.0000000000000000
  0
LINE
  5
5C
100
AcDbEntity
  8
MAIN0
  6
CENTER
 62
3
100
AcDbLine
 10
309.7582249624028
 20
379.5985056944389
 30
0.0000000000000000
 11
309.7582249623879
 21
418.9985056944388
 31
0.0000000000000000
  0
DIMENSION
  5
66
100
AcDbEntity
  8
MAIN0
  6
CONTINUOUS
 62
3
100
AcDbDimension
  2
*D0
 10
444.7582249623873
 20
283.9985056946088
 30
0.0000000000000000
 11
443.5082249623873
 21
267.9173895458443
 31
0.0000000000000000
 70
160
  3
MAIN001
100
AcDbAlignedDimension
 13
420.7582249623879
 23
278.9985056945957
 33
0.0000000000000000
 14
421.3582249623752
 24
283.9985056946088
 34
0.0000000000000000
 50
90.00000000000000
100
AcDbRotatedDimension
1001
ACAD
1000
DSTYLE
1002
{
1070
   173
1070
     1
1070
     6
1000
_OPEN
1070
     7
1000
_OPEN
1070
    41
1040
5.000000
1070
   287
1070
     0
1002
}
  0
DIMENSION
  5
6E
100
AcDbEntity
  8
MAIN0
  6
CONTINUOUS
 62
3
100
AcDbDimension
  2
*D1
 10
266.7582249623225
 20
312.4985056955698
 30
0.0000000000000000
 11
304.2582249623169
 21
312.9985056955698
 31
0.0000000000000000
 70
32
  3
MAIN001
100
AcDbAlignedDimension
 13
341.7582249623114
 23
317.9985056949129
 33
0.0000000000000000
 14
266.7582249623225
 24
284.3985056943920
 34
0.0000000000000000
100
AcDbRotatedDimension
1001
ACAD
1000
DSTYLE
1002
{
1070
   173
1070
     1
1070
     6
1000
_OPEN
1070
     7
1000
_OPEN
1070
    41
1040
5.000000
1002
}
  0
DIMENSION
  5
77
100
AcDbEntity
  8
MAIN0
  6
CONTINUOUS
 62
3
100
AcDbDimension
  2
*D2
 10
341.7582249623114
 20
312.4985056955698
 30
0.0000000000000000
 11
451.7582249625108
 21
312.9985056955698
 31
0.0000000000000000
 70
32
  3
MAIN001
100
AcDbAlignedDimension
 13
561.7582249627101
 23
317.9985056949705
 33
0.0000000000000000
 14
341.7582249623114
 24
317.9985056949129
 34
0.0000000000000000
100
AcDbRotatedDimension
1001
ACAD
1000
DSTYLE
1002
{
1070
   173
1070
     1
1070
     6
1000
_OPEN
1070
     7
1000
_OPEN
1070
    41
1040
5.000000
1002
}
  0
DIMENSION
  5
7F
100
AcDbEntity
  8
MAIN0
  6
CONTINUOUS
 62
3
100
AcDbDimension
  2
*D3
 10
561.7582249627101
 20
312.4985056955698
 30
0.0000000000000000
 11
599.2582249626071
 21
312.9985056955698
 31
0.0000000000000000
 70
32
  3
MAIN001
100
AcDbAlignedDimension
 13
636.7582249625039
 23
284.3985056949019
 33
0.0000000000000000
 14
561.7582249627101
 24
317.9985056949705
 34
0.0000000000000000
100
AcDbRotatedDimension
1001
ACAD
1000
DSTYLE
1002
{
1070
   173
1070
     1
1070
     6
1000
_OPEN
1070
     7
1000
_OPEN
1070
    41
1040
5.000000
1002
}
  0
LINE
  5
80
100
AcDbEntity
  8
MAIN0
  6
CONTINUOUS
 62
3
100
AcDbLine
 10
266.7582249623179
 20
304.9985056955698
 30
0.0000000000000000
 11
525.0082252011298
 21
304.9985056953789
 31
0.0000000000000000
  0
LINE
  5
81
100
AcDbEntity
  8
MAIN0
  6
CONTINUOUS
 62
3
100
AcDbLine
 10
540.2582249627112
 20
304.9985056953677
 30
0.0000000000000000
 11
636.7582249625889
 21
304.9985056952963
 31
0.0000000000000000
  0
DIMENSION
  5
8B
100
AcDbEntity
  8
MAIN0
  6
CONTINUOUS
 62
3
100
AcDbDimension
  2
*D4
 10
479.7582249624189
 20
390.1985056946142
 30
0.0000000000000000
 11
479.2582249624189
 21
379.5985056946622
 31
0.0000000000000000
 70
32
  3
MAIN001
100
AcDbAlignedDimension
 13
497.7582249624189
 23
368.9985056947102
 33
0.0000000000000000
 14
499.3582249624188
 24
390.1985056946142
 34
0.0000000000000000
 50
90.00000000000000
100
AcDbRotatedDimension
1001
ACAD
1000
DSTYLE
1002
{
1070
   173
1070
     1
1070
     6
1000
_OPEN
1070
     7
1000
_OPEN
1070
    41
1040
5.000000
1070
   287
1070
     0
1002
}
  0
DIMENSION
  5
96
100
AcDbEntity
  8
MAIN0
  6
CONTINUOUS
 62
3
100
AcDbDimension
  2
*D5
 10
266.7582249623038
 20
460.9155254643010
 30
0.0000000000000000
 11
257.5927390607101
 21
462.1655254643010
 31
0.0000000000000000
 70
160
  3
MAIN001
100
AcDbAlignedDimension
 13
267.7582249624189
 23
418.7985056944385
 33
0.0000000000000000
 14
266.7582249623040
 24
367.9985056943915
 34
0.0000000000000000
100
AcDbRotatedDimension
1001
ACAD
1000
DSTYLE
1002
{
1070
   173
1070
     1
1070
     6
1000
_OPEN
1070
     7
1000
_OPEN
1070
    41
1040
5.000000
1070
   287
1070
     0
1002
}
  0
DIMENSION
  5
9F
100
AcDbEntity
  8
MAIN0
  6
CONTINUOUS
 62
3
100
AcDbDimension
  2
*D6
 10
267.7582249624190
 20
460.9155254643010
 30
0.0000000000000000
 11
309.7582249624189
 21
461.4155254643010
 31
0.0000000000000000
 70
32
  3
MAIN001
100
AcDbAlignedDimension
 13
351.7582249624187
 23
418.4985056944390
 33
0.0000000000000000
 14
267.7582249624189
 24
418.7985056944385
 34
0.0000000000000000
100
AcDbRotatedDimension
1001
ACAD
1000
DSTYLE
1002
{
1070
   173
1070
     1
1070
     6
1000
_OPEN
1070
     7
1000
_OPEN
1070
    41
1040
5.000000
1002
}
  0
DIMENSION
  5
A8
100
AcDbEntity
  8
MAIN0
  6
CONTINUOUS
 62
3
100
AcDbDimension
  2
*D7
 10
351.7582249624188
 20
460.9155254643010
 30
0.0000000000000000
 11
386.7582249624188
 21
461.4155254643010
 31
0.0000000000000000
 70
32
  1
\A1;MAX 204
  3
MAIN001
100
AcDbAlignedDimension
 13
421.7582249624188
 23
418.7985056945087
 33
0.0000000000000000
 14
351.7582249624187
 24
418.4985056944390
 34
0.0000000000000000
100
AcDbRotatedDimension
1001
ACAD
1000
DSTYLE
1002
{
1070
   173
1070
     1
1070
     6
1000
_OPEN
1070
     7
1000
_OPEN
1070
    41
1040
5.000000
1002
}
  0
DIMENSION
  5
B1
100
AcDbEntity
  8
MAIN0
  6
CONTINUOUS
 62
1
100
AcDbDimension
  2
*D8
 10
421.7582249624188
 20
460.9155254643010
 30
0.0000000000000000
 11
459.7582249624187
 21
461.4155254643010
 31
0.0000000000000000
 70
32
  3
MAIN001
100
AcDbAlignedDimension
 13
497.7582249624186
 23
418.4985056945087
 33
0.0000000000000000
 14
421.7582249624188
 24
418.7985056945087
 34
0.0000000000000000
100
AcDbRotatedDimension
1001
ACAD
1000
DSTYLE
1002
{
1070
   173
1070
     1
1070
     6
1000
_OPEN
1070
     7
1000
_OPEN
1070
    41
1040
5.000000
1002
}
  0
DIMENSION
  5
BA
100
AcDbEntity
  8
MAIN0
  6
CONTINUOUS
 62
3
100
AcDbDimension
  2
*D9
 10
309.7582249623879
 20
444.9985056944390
 30
0.0000000000000000
 11
330.7582249624034
 21
445.4985056944390
 31
0.0000000000000000
 70
32
  3
MAIN001
100
AcDbAlignedDimension
 13
351.7582249624188
 23
418.4985056944390
 33
0.0000000000000000
 14
309.7582249623879
 24
418.9985056944388
 34
0.0000000000000000
100
AcDbRotatedDimension
1001
ACAD
1000
DSTYLE
1002
{
1070
   173
1070
     1
1070
     6
1000
_OPEN
1070
     7
1000
_OPEN
1070
    41
1040
5.000000
1002
}
  0
DIMENSION
  5
C3
100
AcDbEntity
  8
MAIN0
  6
CONTINUOUS
 62
3
100
AcDbDimension
  2
*D10
 10
333.7582249623878
 20
418.9985056944389
 30
0.0000000000000000
 11
332.5082249623878
 21
431.3895034128339
 31
0.0000000000000000
 70
160
  3
MAIN001
100
AcDbAlignedDimension
 13
319.7582249623879
 23
408.9985056944388
 33
0.0000000000000000
 14
351.2582249624187
 24
418.9985056944389
 34
0.0000000000000000
 50
90.00000000000000
100
AcDbRotatedDimension
1001
ACAD
1000
DSTYLE
1002
{
1070
   173
1070
     1
1070
     6
1000
_DOT
1070
     7
1000
_OPEN
1070
    41
1040
5.000000
1070
   287
1070
     0
1002
}
  0
DIMENSION
  5
CD
100
AcDbEntity
  8
MAIN0
  6
CONTINUOUS
 62
3
100
AcDbDimension
  2
*D11
 10
333.7582249623878
 20
408.9985056944388
 30
0.0000000000000000
 11
333.2582249623878
 21
398.9985056944388
 31
0.0000000000000000
 70
32
  3
MAIN001
100
AcDbAlignedDimension
 13
319.1582249624028
 23
388.9985056944389
 33
0.0000000000000000
 14
319.7582249623879
 24
408.9985056944388
 34
0.0000000000000000
 50
90.00000000000000
100
AcDbRotatedDimension
1001
ACAD
1000
DSTYLE
1002
{
1070
   173
1070
     1
1070
     6
1000
_OPEN
1070
     7
1000
_DOT
1070
    41
1040
5.000000
1070
   287
1070
     0
1002
}
  0
LINE
  5
CE
100
AcDbEntity
  8
MAIN0
  6
CONTINUOUS
 62
3
100
AcDbLine
 10
893.9091802322816
 20
304.9985056950732
 30
0.0000000000000000
 11
893.9091802322816
 21
344.9985056950737
 31
0.0000000000000000
  0
LINE
  5
CF
100
AcDbEntity
  8
MAIN0
  6
CONTINUOUS
 62
3
100
AcDbLine
 10
887.9091802322820
 20
284.3985056950737
 30
0.0000000000000000
 11
887.9091802322821
 21
303.9985056950732
 31
0.0000000000000000
  0
LINE
  5
D0
100
AcDbEntity
  8
MAIN0
  6
CONTINUOUS
 62
3
100
AcDbLine
 10
893.9091802322816
 20
304.9985056950732
 30
0.0000000000000000
 11
888.9091802322821
 21
304.9985056950732
 31
0.0000000000000000
  0
LINE
  5
D1
100
AcDbEntity
  8
MAIN0
  6
CENTER
 62
3
100
AcDbLine
 10
950.9091802322819
 20
273.4699117496143
 30
0.0000000000000000
 11
950.9091802322822
 21
424.9985056943920
 31
0.0000000000000000
  0
LINE
  5
D2
100
AcDbEntity
  8
MAIN0
  6
CONTINUOUS
 62
3
100
AcDbLine
 10
889.4091802322816
 20
368.9985056950735
 30
0.0000000000000000
 11
919.3091802322804
 21
368.9985056950735
 31
0.0000000000000000
  0
LINE
  5
D3
100
AcDbEntity
  8
MAIN0
  6
CONTINUOUS
 62
3
100
AcDbLine
 10
982.5091802322820
 20
368.9985056950735
 30
0.0000000000000000
 11
1012.409180232282
 21
368.9985056950735
 31
0.0000000000000000
  0
LINE
  5
D4
100
AcDbEntity
  8
MAIN0
  6
CONTINUOUS
 62
3
100
AcDbLine
 10
888.9091802322819
 20
344.9985056950736
 30
0.0000000000000000
 11
893.9091802322816
 21
344.9985056950736
 31
0.0000000000000000
  0
LINE
  5
D5
100
AcDbEntity
  8
MAIN0
  6
CONTINUOUS
 62
3
100
AcDbLine
 10
887.9091802322816
 20
345.9985056950740
 30
0.0000000000000000
 11
888.9091802322819
 21
344.9985056950738
 31
0.0000000000000000
  0
LINE
  5
D6
100
AcDbEntity
  8
MAIN0
  6
CONTINUOUS
 62
3
100
AcDbLine
 10
888.9091802322819
 20
304.9985056950735
 30
0.0000000000000000
 11
887.9091802322816
 21
303.9985056950733
 31
0.0000000000000000
  0
LINE
  5
D7
100
AcDbEntity
  8
MAIN0
  6
CONTINUOUS
 62
3
100
AcDbLine
 10
887.9091802322821
 20
284.3985056950734
 30
0.0000000000000000
 11
888.3091802322820
 21
283.9985056950734
 31
0.0000000000000000
  0
LINE
  5
D8
100
AcDbEntity
  8
MAIN0
  6
CONTINUOUS
 62
3
100
AcDbLine
 10
1007.909180232282
 20
304.9985056950732
 30
0.0000000000000000
 11
1007.909180232282
 21
344.9985056950732
 31
0.0000000000000000
  0
LINE
  5
D9
100
AcDbEntity
  8
MAIN0
  6
CONTINUOUS
 62
3
100
AcDbLine
 10
1013.909180232282
 20
284.3985056950730
 30
0.0000000000000000
 11
1013.909180232282
 21
303.9985056950729
 31
0.0000000000000000
  0
LINE
  5
DA
100
AcDbEntity
  8
MAIN0
  6
CONTINUOUS
 62
3
100
AcDbLine
 10
1007.909180232282
 20
304.9985056950733
 30
0.0000000000000000
 11
1012.909180232282
 21
304.9985056950733
 31
0.0000000000000000
  0
LINE
  5
DB
100
AcDbEntity
  8
MAIN0
  6
CONTINUOUS
 62
3
100
AcDbLine
 10
1012.909180232282
 20
344.9985056950732
 30
0.0000000000000000
 11
1007.909180232282
 21
344.9985056950733
 31
0.0000000000000000
  0
LINE
  5
DC
100
AcDbEntity
  8
MAIN0
  6
CONTINUOUS
 62
3
100
AcDbLine
 10
1013.909180232282
 20
345.9985056950732
 30
0.0000000000000000
 11
1012.909180232282
 21
344.9985056950730
 31
0.0000000000000000
  0
LINE
  5
DD
100
AcDbEntity
  8
MAIN0
  6
CONTINUOUS
 62
3
100
AcDbLine
 10
1012.909180232282
 20
304.9985056950734
 30
0.0000000000000000
 11
1013.909180232282
 21
303.9985056950736
 31
0.0000000000000000
  0
LINE
  5
DE
100
AcDbEntity
  8
MAIN0
  6
CONTINUOUS
 62
3
100
AcDbLine
 10
1013.909180232282
 20
284.3985056950732
 30
0.0000000000000000
 11
1013.509180232282
 21
283.9985056950732
 31
0.0000000000000000
  0
LINE
  5
DF
100
AcDbEntity
  8
MAIN0
  6
CONTINUOUS
 62
3
100
AcDbLine
 10
1017.209180232282
 20
380.1985056930522
 30
0.0000000000000000
 11
1017.209180232282
 21
340.6985056930522
 31
0.0000000000000000
  0
LINE
  5
E0
100
AcDbEntity
  8
MAIN0
  6
CONTINUOUS
 62
3
100
AcDbLine
 10
1018.409180232282
 20
340.6985056930524
 30
0.0000000000000000
 11
1018.409180232282
 21
388.1985055505946
 31
0.0000000000000000
  0
ARC
  5
E1
100
AcDbEntity
  8
MAIN0
  6
CONTINUOUS
 62
3
100
AcDbCircle
 10
1016.409180232282
 20
388.1985056930524
 30
0.0000000000000000
 40
2.000000000000000
100
AcDbArc
 50
0.0000000000000000
 51
89.99999999942553
  0
LINE
  5
E2
100
AcDbEntity
  8
MAIN0
  6
CONTINUOUS
 62
3
100
AcDbLine
 10
1017.209180232282
 20
340.6985056930524
 30
0.0000000000000000
 11
1018.409180232282
 21
340.6985056930524
 31
0.0000000000000000
  0
LINE
  5
E3
100
AcDbEntity
  8
MAIN0
  6
CONTINUOUS
 62
3
100
AcDbLine
 10
979.9091802322816
 20
370.1985056930524
 30
0.0000000000000000
 11
1014.872505190353
 21
370.1985056930524
 31
0.0000000000000000
  0
LINE
  5
E4
100
AcDbEntity
  8
MAIN0
  6
CONTINUOUS
 62
3
100
AcDbLine
 10
890.9091802322816
 20
344.0985056930525
 30
0.0000000000000000
 11
888.0091802322818
 21
344.0985056930525
 31
0.0000000000000000
  0
ARC
  5
E5
100
AcDbEntity
  8
MAIN0
  6
CONTINUOUS
 62
3
100
AcDbCircle
 10
887.6091802322817
 20
344.0985056930522
 30
0.0000000000000000
 40
1.200000000000000
100
AcDbArc
 50
180.0000000000067
 51
270.0000000000046
  0
ARC
  5
E6
100
AcDbEntity
  8
MAIN0
  6
CONTINUOUS
 62
3
100
AcDbCircle
 10
887.6091802322817
 20
368.9985056930523
 30
0.0000000000000000
 40
1.200000000000000
100
AcDbArc
 50
90.00000000000000
 51
180.0000000000000
  0
ARC
  5
E7
100
AcDbEntity
  8
MAIN0
  6
CONTINUOUS
 62
3
100
AcDbCircle
 10
888.0091802322816
 20
368.5985056930522
 30
0.0000000000000000
 40
0.4000000000000000
100
AcDbArc
 50
90.00000000000259
 51
180.0000000000000
  0
ARC
  5
E8
100
AcDbEntity
  8
MAIN0
  6
CONTINUOUS
 62
3
100
AcDbCircle
 10
888.0091802322816
 20
344.4985056930523
 30
0.0000000000000000
 40
0.4000000000000000
100
AcDbArc
 50
180.0000000000067
 51
269.9999999994322
  0
LINE
  5
E9
100
AcDbEntity
  8
MAIN0
  6
CONTINUOUS
 62
3
100
AcDbLine
 10
890.9091802322816
 20
342.8985056930524
 30
0.0000000000000000
 11
887.6091804030900
 21
342.8985056930524
 31
0.0000000000000000
  0
LINE
  5
EA
100
AcDbEntity
  8
MAIN0
  6
CONTINUOUS
 62
3
100
AcDbLine
 10
886.4091802322815
 20
368.9985056930523
 30
0.0000000000000000
 11
886.4091802322818
 21
344.0985056930522
 31
0.0000000000000000
  0
LINE
  5
EB
100
AcDbEntity
  8
MAIN0
  6
CONTINUOUS
 62
3
100
AcDbLine
 10
890.9091802322816
 20
344.0985056930525
 30
0.0000000000000000
 11
890.9091802322816
 21
342.8985056930524
 31
0.0000000000000000
  0
LINE
  5
EC
100
AcDbEntity
  8
MAIN0
  6
CONTINUOUS
 62
3
100
AcDbLine
 10
901.6091802322815
 20
368.9985056930523
 30
0.0000000000000000
 11
887.6091802322818
 21
354.9985056930457
 31
0.0000000000000000
  0
LINE
  5
ED
100
AcDbEntity
  8
MAIN0
  6
CONTINUOUS
 62
3
100
AcDbLine
 10
890.9091802322816
 20
341.8985056930524
 30
0.0000000000000000
 11
890.9091802322816
 21
340.6985056930524
 31
0.0000000000000000
  0
LINE
  5
EE
100
AcDbEntity
  8
MAIN0
  6
CONTINUOUS
 62
3
100
AcDbLine
 10
884.9091802322816
 20
378.7985056930523
 30
0.0000000000000000
 11
884.9091802322816
 21
342.6985056930524
 31
0.0000000000000000
  0
LINE
  5
EF
100
AcDbEntity
  8
MAIN0
  6
CONTINUOUS
 62
3
100
AcDbLine
 10
890.9091802322816
 20
341.8985056930524
 30
0.0000000000000000
 11
887.1091802852397
 21
341.8985056930524
 31
0.0000000000000000
  0
LINE
  5
F0
100
AcDbEntity
  8
MAIN0
  6
CONTINUOUS
 62
3
100
AcDbLine
 10
890.9091802322816
 20
340.6985056930526
 30
0.0000000000000000
 11
886.9091802744263
 21
340.6985056930526
 31
0.0000000000000000
  0
ARC
  5
F1
100
AcDbEntity
  8
MAIN0
  6
CONTINUOUS
 62
3
100
AcDbCircle
 10
886.9091802322816
 20
342.6985056930524
 30
0.0000000000000000
 40
2.000000000000000
100
AcDbArc
 50
180.0000000000067
 51
269.9999999994322
  0
ARC
  5
F2
100
AcDbEntity
  8
MAIN0
  6
CONTINUOUS
 62
3
100
AcDbCircle
 10
887.1091802322817
 20
342.8985056930524
 30
0.0000000000000000
 40
1.000000000000000
100
AcDbArc
 50
180.0000000000067
 51
269.9999999994322
  0
ARC
  5
F3
100
AcDbEntity
  8
MAIN0
  6
CONTINUOUS
 62
3
100
AcDbCircle
 10
886.3091802322817
 20
378.7985056930523
 30
0.0000000000000000
 40
1.400000000000000
100
AcDbArc
 50
98.21321070173772
 51
180.0000000000000
  0
LINE
  5
F4
100
AcDbEntity
  8
MAIN0
  6
CONTINUOUS
 62
3
100
AcDbLine
 10
884.6091802322817
 20
380.1985056930524
 30
0.0000000000000000
 11
884.6091802322818
 21
340.6985056930524
 31
0.0000000000000000
  0
LINE
  5
F5
100
AcDbEntity
  8
MAIN0
  6
CONTINUOUS
 62
3
100
AcDbLine
 10
883.4091802322819
 20
340.6985056930522
 30
0.0000000000000000
 11
883.4091802322818
 21
388.1985055505944
 31
0.0000000000000000
  0
ARC
  5
F6
100
AcDbEntity
  8
MAIN0
  6
CONTINUOUS
 62
3
100
AcDbCircle
 10
885.4091802322816
 20
388.1985056930524
 30
0.0000000000000000
 40
2.000000000000000
100
AcDbArc
 50
90.00000000057449
 51
180.0000000000000
  0
LINE
  5
F7
100
AcDbEntity
  8
MAIN0
  6
CONTINUOUS
 62
3
100
AcDbLine
 10
884.6091802322817
 20
340.6985056930524
 30
0.0000000000000000
 11
883.4091802322816
 21
340.6985056930524
 31
0.0000000000000000
  0
LINE
  5
F8
100
AcDbEntity
  8
MAIN0
  6
CONTINUOUS
 62
3
100
AcDbLine
 10
1017.209180232282
 20
380.1985056930524
 30
0.0000000000000000
 11
884.6091802322818
 21
380.1985056930523
 31
0.0000000000000000
  0
LINE
  5
F9
100
AcDbEntity
  8
MAIN0
  6
CONTINUOUS
 62
3
100
AcDbLine
 10
1014.209180232352
 20
368.5985056930523
 30
0.0000000000000000
 11
1014.209180232346
 21
344.4985056930522
 31
0.0000000000000000
  0
LINE
  5
FA
100
AcDbEntity
  8
MAIN0
  6
CONTINUOUS
 62
3
100
AcDbLine
 10
886.1091802323325
 20
370.1985056930522
 30
0.0000000000000000
 11
886.1091802323363
 21
342.8985056930522
 31
0.0000000000000000
  0
LINE
  5
FB
100
AcDbEntity
  8
MAIN0
  6
CONTINUOUS
 62
3
100
AcDbLine
 10
1010.909180232282
 20
344.0985056930525
 30
0.0000000000000000
 11
1013.809180232282
 21
344.0985056930525
 31
0.0000000000000000
  0
ARC
  5
FC
100
AcDbEntity
  8
MAIN0
  6
CONTINUOUS
 62
3
100
AcDbCircle
 10
1014.209180232282
 20
344.0985056930522
 30
0.0000000000000000
 40
1.200000000000000
100
AcDbArc
 50
269.9999999999953
 51
359.9999999999934
  0
ARC
  5
FD
100
AcDbEntity
  8
MAIN0
  6
CONTINUOUS
 62
3
100
AcDbCircle
 10
1014.209180232282
 20
368.9985056930523
 30
0.0000000000000000
 40
1.200000000000000
100
AcDbArc
 50
0.0000000000000000
 51
90.00000000000000
  0
ARC
  5
FE
100
AcDbEntity
  8
MAIN0
  6
CONTINUOUS
 62
3
100
AcDbCircle
 10
1013.809180232282
 20
368.5985056930522
 30
0.0000000000000000
 40
0.4000000000000000
100
AcDbArc
 50
0.0000000000000000
 51
89.99999999999740
  0
ARC
  5
FF
100
AcDbEntity
  8
MAIN0
  6
CONTINUOUS
 62
3
100
AcDbCircle
 10
1013.809180232282
 20
344.4985056930523
 30
0.0000000000000000
 40
0.4000000000000000
100
AcDbArc
 50
270.0000000005678
 51
359.9999999999934
  0
LINE
  5
100
100
AcDbEntity
  8
MAIN0
  6
CONTINUOUS
 62
3
100
AcDbLine
 10
1010.909180232282
 20
342.8985056930524
 30
0.0000000000000000
 11
1014.209180061474
 21
342.8985056930524
 31
0.0000000000000000
  0
LINE
  5
101
100
AcDbEntity
  8
MAIN0
  6
CONTINUOUS
 62
3
100
AcDbLine
 10
1015.409180232282
 20
368.9985056930523
 30
0.0000000000000000
 11
1015.409180232282
 21
344.0985056930522
 31
0.0000000000000000
  0
LINE
  5
102
100
AcDbEntity
  8
MAIN0
  6
CONTINUOUS
 62
3
100
AcDbLine
 10
1010.909180232282
 20
344.0985056930522
 30
0.0000000000000000
 11
1010.909180232282
 21
342.8985056930524
 31
0.0000000000000000
  0
LINE
  5
103
100
AcDbEntity
  8
MAIN0
  6
CONTINUOUS
 62
3
100
AcDbLine
 10
1000.209180232282
 20
368.9985056930524
 30
0.0000000000000000
 11
1014.209180232348
 21
354.9985056929789
 31
0.0000000000000000
  0
LINE
  5
104
100
AcDbEntity
  8
MAIN0
  6
CONTINUOUS
 62
3
100
AcDbLine
 10
1010.909180232282
 20
341.8985056930524
 30
0.0000000000000000
 11
1010.909180232282
 21
340.6985056930524
 31
0.0000000000000000
  0
LINE
  5
105
100
AcDbEntity
  8
MAIN0
  6
CONTINUOUS
 62
3
100
AcDbLine
 10
1016.909180232282
 20
378.7985056930523
 30
0.0000000000000000
 11
1016.909180232282
 21
342.6985056930524
 31
0.0000000000000000
  0
LINE
  5
106
100
AcDbEntity
  8
MAIN0
  6
CONTINUOUS
 62
3
100
AcDbLine
 10
1015.709180232282
 20
370.1985056930524
 30
0.0000000000000000
 11
1015.709180232282
 21
342.8985056930524
 31
0.0000000000000000
  0
LINE
  5
107
100
AcDbEntity
  8
MAIN0
  6
CONTINUOUS
 62
3
100
AcDbLine
 10
1010.909180232282
 20
341.8985056930524
 30
0.0000000000000000
 11
1014.709180179324
 21
341.8985056930524
 31
0.0000000000000000
  0
LINE
  5
108
100
AcDbEntity
  8
MAIN0
  6
CONTINUOUS
 62
3
100
AcDbLine
 10
1010.909180232282
 20
340.6985056930524
 30
0.0000000000000000
 11
1014.909180190137
 21
340.6985056930524
 31
0.0000000000000000
  0
ARC
  5
109
100
AcDbEntity
  8
MAIN0
  6
CONTINUOUS
 62
3
100
AcDbCircle
 10
1014.909180232282
 20
342.6985056930524
 30
0.0000000000000000
 40
2.000000000000000
100
AcDbArc
 50
270.0000000005678
 51
359.9999999999934
  0
ARC
  5
10A
100
AcDbEntity
  8
MAIN0
  6
CONTINUOUS
 62
3
100
AcDbCircle
 10
1014.709180232282
 20
342.8985056930524
 30
0.0000000000000000
 40
1.000000000000000
100
AcDbArc
 50
270.0000000005678
 51
359.9999999999934
  0
ARC
  5
10B
100
AcDbEntity
  8
MAIN0
  6
CONTINUOUS
 62
3
100
AcDbCircle
 10
1015.509180232282
 20
378.7985056930523
 30
0.0000000000000000
 40
1.400000000000000
100
AcDbArc
 50
0.0000000000000000
 51
81.78678929826229
  0
LINE
  5
10C
100
AcDbEntity
  8
MAIN0
  6
CONTINUOUS
 62
3
100
AcDbLine
 10
886.1091802322819
 20
370.1985056930525
 30
0.0000000000000000
 11
1015.709180232282
 21
370.1985056930525
 31
0.0000000000000000
  0
LINE
  5
10D
100
AcDbEntity
  8
MAIN0
  6
CONTINUOUS
 62
3
100
AcDbLine
 10
888.4091802322823
 20
390.1985056930524
 30
0.0000000000000000
 11
888.4091802322824
 21
418.9985056943921
 31
0.0000000000000000
  0
LINE
  5
10E
100
AcDbEntity
  8
MAIN0
  6
CONTINUOUS
 62
3
100
AcDbLine
 10
1013.409180232282
 20
390.1985056930524
 30
0.0000000000000000
 11
1013.409180232282
 21
418.9985056943920
 31
0.0000000000000000
  0
LINE
  5
10F
100
AcDbEntity
  8
MAIN0
  6
CONTINUOUS
 62
3
100
AcDbLine
 10
885.4091814443334
 20
390.1985056930522
 30
0.0000000000000000
 11
1016.409179020230
 21
390.1985056930522
 31
0.0000000000000000
  0
LINE
  5
110
100
AcDbEntity
  8
MAIN0
  6
CONTINUOUS
 62
3
100
AcDbLine
 10
888.4091802322821
 20
418.9985056943920
 30
0.0000000000000000
 11
1013.409180232282
 21
418.9985056943920
 31
0.0000000000000000
  0
LINE
  5
111
100
AcDbEntity
  8
MAIN0
  6
CONTINUOUS
 62
3
100
AcDbLine
 10
888.0091802322817
 20
368.9985056930525
 30
0.0000000000000000
 11
1013.809179612387
 21
368.9985056930526
 31
0.0000000000000000
  0
LINE
  5
112
100
AcDbEntity
  8
MAIN0
  6
CONTINUOUS
 62
3
100
AcDbLine
 10
997.9091802322823
 20
368.9985056932937
 30
0.0000000000000000
 11
1013.909180232282
 21
352.9985056932936
 31
0.0000000000000000
  0
LINE
  5
113
100
AcDbEntity
  8
MAIN0
  6
CONTINUOUS
 62
3
100
AcDbLine
 10
894.9091802322823
 20
368.9985056932936
 30
0.0000000000000000
 11
1006.909180232282
 21
368.9985056932936
 31
0.0000000000000000
  0
LINE
  5
114
100
AcDbEntity
  8
MAIN0
  6
CONTINUOUS
 62
3
100
AcDbLine
 10
903.9091802322818
 20
368.9985056932930
 30
0.0000000000000000
 11
887.9091802322819
 21
352.9985056932933
 31
0.0000000000000000
  0
LINE
  5
115
100
AcDbEntity
  8
MAIN0
  6
CONTINUOUS
 62
3
100
AcDbLine
 10
910.1783565222627
 20
294.9985056949600
 30
0.0000000000000000
 11
991.6400039423011
 21
294.9985056949600
 31
0.0000000000000000
  0
LINE
  5
116
100
AcDbEntity
  8
MAIN0
  6
CENTER
 62
3
100
AcDbLine
 10
920.7091802322821
 20
310.4985056932936
 30
0.0000000000000000
 11
899.7091802322821
 21
310.4985056932936
 31
0.0000000000000000
  0
LINE
  5
117
100
AcDbEntity
  8
MAIN0
  6
CENTER
 62
3
100
AcDbLine
 10
910.2091802322821
 20
320.9985056932936
 30
0.0000000000000000
 11
910.2091802322821
 21
299.9985056932936
 31
0.0000000000000000
  0
LINE
  5
118
100
AcDbEntity
  8
MAIN0
  6
CENTER
 62
3
100
AcDbLine
 10
920.7091802322821
 20
357.4985056932936
 30
0.0000000000000000
 11
899.7091802322821
 21
357.4985056932936
 31
0.0000000000000000
  0
LINE
  5
119
100
AcDbEntity
  8
MAIN0
  6
CENTER
 62
3
100
AcDbLine
 10
910.2091802322821
 20
367.9985056932936
 30
0.0000000000000000
 11
910.2091802322821
 21
346.9985056932936
 31
0.0000000000000000
  0
LINE
  5
11A
100
AcDbEntity
  8
MAIN0
  6
CENTER
 62
3
100
AcDbLine
 10
1002.109180232282
 20
357.4985056932936
 30
0.0000000000000000
 11
981.1091802322819
 21
357.4985056932936
 31
0.0000000000000000
  0
LINE
  5
11B
100
AcDbEntity
  8
MAIN0
  6
CENTER
 62
3
100
AcDbLine
 10
991.6091802322819
 20
367.9985056932936
 30
0.0000000000000000
 11
991.6091802322819
 21
346.9985056932936
 31
0.0000000000000000
  0
LINE
  5
11C
100
AcDbEntity
  8
MAIN0
  6
CENTER
 62
3
100
AcDbLine
 10
1002.109180232282
 20
310.4985056932936
 30
0.0000000000000000
 11
981.1091802322819
 21
310.4985056932936
 31
0.0000000000000000
  0
LINE
  5
11D
100
AcDbEntity
  8
MAIN0
  6
CENTER
 62
3
100
AcDbLine
 10
991.6091802322819
 20
320.9985056932936
 30
0.0000000000000000
 11
991.6091802322819
 21
299.9985056932936
 31
0.0000000000000000
  0
ARC
  5
11E
100
AcDbEntity
  8
MAIN0
  6
CONTINUOUS
 62
3
100
AcDbCircle
 10
950.9091802322819
 20
333.9985056932936
 30
0.0000000000000000
 40
37.50000000000000
100
AcDbArc
 50
238.5760935141543
 51
301.4239064858458
  0
ARC
  5
11F
100
AcDbEntity
  8
MAIN0
  6
CONTINUOUS
 62
3
100
AcDbCircle
 10
910.2091802322821
 20
310.4985056932936
 30
0.0000000000000000
 40
8.500000000000000
100
AcDbArc
 50
47.96929745604307
 51
372.0345964210294
  0
ARC
  5
120
100
AcDbEntity
  8
MAIN0
  6
CONTINUOUS
 62
3
100
AcDbCircle
 10
991.6091802322819
 20
310.4985056932936
 30
0.0000000000000000
 40
8.500000000000000
100
AcDbArc
 50
167.9654035789671
 51
492.0307025439610
  0
ARC
  5
121
100
AcDbEntity
  8
MAIN0
  6
CONTINUOUS
 62
3
100
AcDbCircle
 10
991.6091802322819
 20
357.4985056932936
 30
0.0000000000000000
 40
8.500000000000000
100
AcDbArc
 50
227.9692974560390
 51
552.0345964210328
  0
ARC
  5
122
100
AcDbEntity
  8
MAIN0
  6
CONTINUOUS
 62
3
100
AcDbCircle
 10
910.2091802322821
 20
357.4985056932936
 30
0.0000000000000000
 40
8.500000000000000
100
AcDbArc
 50
347.9654035789706
 51
672.0307025439569
  0
LINE
  5
123
100
AcDbEntity
  8
MAIN0
  6
CENTER
 62
3
100
AcDbLine
 10
882.4091802322816
 20
333.9985056933271
 30
0.0000000000000000
 11
1019.409180232282
 21
333.9985056932969
 31
0.0000000000000000
  0
CIRCLE
  5
124
100
AcDbEntity
  8
MAIN0
  6
CONTINUOUS
 62
3
100
AcDbCircle
 10
910.2089862544483
 20
310.4985056930523
 30
0.0000000000000000
 40
8.000000000000000
  0
LINE
  5
125
100
AcDbEntity
  8
MAIN0
  6
CONTINUOUS
 62
3
100
AcDbLine
 10
910.2089862544488
 20
315.1173078465693
 30
0.0000000000000000
 11
906.2089862544486
 21
312.8079067698106
 31
0.0000000000000000
  0
LINE
  5
126
100
AcDbEntity
  8
MAIN0
  6
CONTINUOUS
 62
3
100
AcDbLine
 10
906.2089862544483
 20
312.8079067698109
 30
0.0000000000000000
 11
906.2089862544483
 21
308.1891046162937
 31
0.0000000000000000
  0
LINE
  5
127
100
AcDbEntity
  8
MAIN0
  6
CONTINUOUS
 62
3
100
AcDbLine
 10
906.2089862544484
 20
308.1891046162939
 30
0.0000000000000000
 11
910.2089862544484
 21
305.8797035395354
 31
0.0000000000000000
  0
LINE
  5
128
100
AcDbEntity
  8
MAIN0
  6
CONTINUOUS
 62
3
100
AcDbLine
 10
910.2089862544486
 20
305.8797035395351
 30
0.0000000000000000
 11
914.2089862544488
 21
308.1891046162937
 31
0.0000000000000000
  0
LINE
  5
129
100
AcDbEntity
  8
MAIN0
  6
CONTINUOUS
 62
3
100
AcDbLine
 10
914.2089862544483
 20
308.1891046162937
 30
0.0000000000000000
 11
914.2089862544483
 21
312.8079067698109
 31
0.0000000000000000
  0
LINE
  5
12A
100
AcDbEntity
  8
MAIN0
  6
CONTINUOUS
 62
3
100
AcDbLine
 10
914.2089862544484
 20
312.8079067698109
 30
0.0000000000000000
 11
910.2089862544484
 21
315.1173078465694
 31
0.0000000000000000
  0
CIRCLE
  5
12B
100
AcDbEntity
  8
MAIN0
  6
CONTINUOUS
 62
3
100
AcDbCircle
 10
910.2089862544483
 20
357.4985056930523
 30
0.0000000000000000
 40
8.000000000000000
  0
LINE
  5
12C
100
AcDbEntity
  8
MAIN0
  6
CONTINUOUS
 62
3
100
AcDbLine
 10
910.2089862544485
 20
362.1173078465694
 30
0.0000000000000000
 11
906.2089862544488
 21
359.8079067698110
 31
0.0000000000000000
  0
LINE
  5
12D
100
AcDbEntity
  8
MAIN0
  6
CONTINUOUS
 62
3
100
AcDbLine
 10
906.2089862544483
 20
359.8079067698109
 30
0.0000000000000000
 11
906.2089862544483
 21
355.1891046162937
 31
0.0000000000000000
  0
LINE
  5
12E
100
AcDbEntity
  8
MAIN0
  6
CONTINUOUS
 62
3
100
AcDbLine
 10
906.2089862544485
 20
355.1891046162937
 30
0.0000000000000000
 11
910.2089862544485
 21
352.8797035395352
 31
0.0000000000000000
  0
LINE
  5
12F
100
AcDbEntity
  8
MAIN0
  6
CONTINUOUS
 62
3
100
AcDbLine
 10
910.2089862544485
 20
352.8797035395354
 30
0.0000000000000000
 11
914.2089862544485
 21
355.1891046162939
 31
0.0000000000000000
  0
LINE
  5
130
100
AcDbEntity
  8
MAIN0
  6
CONTINUOUS
 62
3
100
AcDbLine
 10
914.2089862544483
 20
355.1891046162937
 30
0.0000000000000000
 11
914.2089862544483
 21
359.8079067698109
 31
0.0000000000000000
  0
LINE
  5
131
100
AcDbEntity
  8
MAIN0
  6
CONTINUOUS
 62
3
100
AcDbLine
 10
914.2089862544486
 20
359.8079067698108
 30
0.0000000000000000
 11
910.2089862544486
 21
362.1173078465693
 31
0.0000000000000000
  0
CIRCLE
  5
132
100
AcDbEntity
  8
MAIN0
  6
CONTINUOUS
 62
3
100
AcDbCircle
 10
991.6093742101155
 20
357.4985056930523
 30
0.0000000000000000
 40
8.000000000000000
  0
LINE
  5
133
100
AcDbEntity
  8
MAIN0
  6
CONTINUOUS
 62
3
100
AcDbLine
 10
991.6093742101157
 20
362.1173078465695
 30
0.0000000000000000
 11
987.6093742101159
 21
359.8079067698111
 31
0.0000000000000000
  0
LINE
  5
134
100
AcDbEntity
  8
MAIN0
  6
CONTINUOUS
 62
3
100
AcDbLine
 10
987.6093742101155
 20
359.8079067698109
 30
0.0000000000000000
 11
987.6093742101155
 21
355.1891046162937
 31
0.0000000000000000
  0
LINE
  5
135
100
AcDbEntity
  8
MAIN0
  6
CONTINUOUS
 62
3
100
AcDbLine
 10
987.6093742101159
 20
355.1891046162936
 30
0.0000000000000000
 11
991.6093742101156
 21
352.8797035395353
 31
0.0000000000000000
  0
LINE
  5
136
100
AcDbEntity
  8
MAIN0
  6
CONTINUOUS
 62
3
100
AcDbLine
 10
991.6093742101157
 20
352.8797035395355
 30
0.0000000000000000
 11
995.6093742101158
 21
355.1891046162941
 31
0.0000000000000000
  0
LINE
  5
137
100
AcDbEntity
  8
MAIN0
  6
CONTINUOUS
 62
3
100
AcDbLine
 10
995.6093742101155
 20
355.1891046162937
 30
0.0000000000000000
 11
995.6093742101155
 21
359.8079067698109
 31
0.0000000000000000
  0
LINE
  5
138
100
AcDbEntity
  8
MAIN0
  6
CONTINUOUS
 62
3
100
AcDbLine
 10
995.6093742101156
 20
359.8079067698108
 30
0.0000000000000000
 11
991.6093742101157
 21
362.1173078465693
 31
0.0000000000000000
  0
CIRCLE
  5
139
100
AcDbEntity
  8
MAIN0
  6
CONTINUOUS
 62
3
100
AcDbCircle
 10
991.6093742101155
 20
310.4985056930523
 30
0.0000000000000000
 40
8.000000000000000
  0
LINE
  5
13A
100
AcDbEntity
  8
MAIN0
  6
CONTINUOUS
 62
3
100
AcDbLine
 10
991.6093742101157
 20
315.1173078465691
 30
0.0000000000000000
 11
987.6093742101159
 21
312.8079067698107
 31
0.0000000000000000
  0
LINE
  5
13B
100
AcDbEntity
  8
MAIN0
  6
CONTINUOUS
 62
3
100
AcDbLine
 10
987.6093742101155
 20
312.8079067698109
 30
0.0000000000000000
 11
987.6093742101155
 21
308.1891046162937
 31
0.0000000000000000
  0
LINE
  5
13C
100
AcDbEntity
  8
MAIN0
  6
CONTINUOUS
 62
3
100
AcDbLine
 10
987.6093742101155
 20
308.1891046162939
 30
0.0000000000000000
 11
991.6093742101155
 21
305.8797035395354
 31
0.0000000000000000
  0
LINE
  5
13D
100
AcDbEntity
  8
MAIN0
  6
CONTINUOUS
 62
3
100
AcDbLine
 10
991.6093742101159
 20
305.8797035395352
 30
0.0000000000000000
 11
995.6093742101157
 21
308.1891046162936
 31
0.0000000000000000
  0
LINE
  5
13E
100
AcDbEntity
  8
MAIN0
  6
CONTINUOUS
 62
3
100
AcDbLine
 10
995.6093742101155
 20
308.1891046162937
 30
0.0000000000000000
 11
995.6093742101155
 21
312.8079067698109
 31
0.0000000000000000
  0
LINE
  5
13F
100
AcDbEntity
  8
MAIN0
  6
CONTINUOUS
 62
3
100
AcDbLine
 10
995.6093742101155
 20
312.8079067698109
 30
0.0000000000000000
 11
991.6093742101155
 21
315.1173078465694
 31
0.0000000000000000
  0
LINE
  5
140
100
AcDbEntity
  8
MAIN0
  6
CONTINUOUS
 62
3
100
AcDbLine
 10
968.1138307663783
 20
368.9985056932878
 30
0.0000000000000000
 11
933.7045296982111
 21
368.9985056933003
 31
0.0000000000000000
  0
LINE
  5
141
100
AcDbEntity
  8
MAIN0
  6
CENTER
 62
3
100
AcDbLine
 10
917.9091802322771
 20
340.7485056932838
 30
0.0000000000000000
 11
917.9091802322771
 21
327.2485056932838
 31
0.0000000000000000
  0
LINE
  5
142
100
AcDbEntity
  8
MAIN0
  6
CENTER
 62
3
100
AcDbLine
 10
983.9091802322866
 20
340.7485056932838
 30
0.0000000000000000
 11
983.9091802322866
 21
327.2485056932838
 31
0.0000000000000000
  0
LINE
  5
143
100
AcDbEntity
  8
MAIN0
  6
CONTINUOUS
 62
3
100
AcDbLine
 10
928.6156834226738
 20
301.9985056932936
 30
0.0000000000000000
 11
973.2026770418897
 21
301.9985056932936
 31
0.0000000000000000
  0
ARC
  5
144
100
AcDbEntity
  8
MAIN0
  6
CONTINUOUS
 62
3
100
AcDbCircle
 10
950.9091802322819
 20
333.9985056932936
 30
0.0000000000000000
 40
39.00000000000000
100
AcDbArc
 50
304.8638379543034
 51
423.8230478283153
  0
ARC
  5
145
100
AcDbEntity
  8
MAIN0
  6
CONTINUOUS
 62
3
100
AcDbCircle
 10
950.9091802322819
 20
333.9985056932936
 30
0.0000000000000000
 40
39.00000000000000
100
AcDbArc
 50
116.1769521716430
 51
235.1361620456966
  0
CIRCLE
  5
146
100
AcDbEntity
  8
MAIN0
  6
CONTINUOUS
 62
3
100
AcDbCircle
 10
917.9091802322771
 20
333.9985056932838
 30
0.0000000000000000
 40
4.750000000000000
  0
CIRCLE
  5
147
100
AcDbEntity
  8
MAIN0
  6
CONTINUOUS
 62
3
100
AcDbCircle
 10
983.9091802322866
 20
333.9985056932838
 30
0.0000000000000000
 40
4.750000000000000
  0
CIRCLE
  5
148
100
AcDbEntity
  8
MAIN0
  6
CONTINUOUS
 62
3
100
AcDbCircle
 10
917.9091802322771
 20
333.9985056932838
 30
0.0000000000000000
 40
4.250000000000000
  0
LINE
  5
149
100
AcDbEntity
  8
MAIN0
  6
CONTINUOUS
 62
3
100
AcDbLine
 10
917.9091802322774
 20
336.3079067700424
 30
0.0000000000000000
 11
915.9091802322774
 21
335.1532062316631
 31
0.0000000000000000
  0
LINE
  5
14A
100
AcDbEntity
  8
MAIN0
  6
CONTINUOUS
 62
3
100
AcDbLine
 10
915.9091802322771
 20
335.1532062316629
 30
0.0000000000000000
 11
915.9091802322771
 21
332.8438051549045
 31
0.0000000000000000
  0
LINE
  5
14B
100
AcDbEntity
  8
MAIN0
  6
CONTINUOUS
 62
3
100
AcDbLine
 10
915.9091802322773
 20
332.8438051549044
 30
0.0000000000000000
 11
917.9091802322773
 21
331.6891046165252
 31
0.0000000000000000
  0
LINE
  5
14C
100
AcDbEntity
  8
MAIN0
  6
CONTINUOUS
 62
3
100
AcDbLine
 10
917.9091802322774
 20
331.6891046165254
 30
0.0000000000000000
 11
919.9091802322774
 21
332.8438051549047
 31
0.0000000000000000
  0
LINE
  5
14D
100
AcDbEntity
  8
MAIN0
  6
CONTINUOUS
 62
3
100
AcDbLine
 10
919.9091802322771
 20
332.8438051549045
 30
0.0000000000000000
 11
919.9091802322771
 21
335.1532062316629
 31
0.0000000000000000
  0
LINE
  5
14E
100
AcDbEntity
  8
MAIN0
  6
CONTINUOUS
 62
3
100
AcDbLine
 10
919.9091802322773
 20
335.1532062316629
 30
0.0000000000000000
 11
917.9091802322773
 21
336.3079067700422
 31
0.0000000000000000
  0
CIRCLE
  5
14F
100
AcDbEntity
  8
MAIN0
  6
CONTINUOUS
 62
3
100
AcDbCircle
 10
983.9091802322866
 20
333.9985056932838
 30
0.0000000000000000
 40
4.250000000000000
  0
LINE
  5
150
100
AcDbEntity
  8
MAIN0
  6
CONTINUOUS
 62
3
100
AcDbLine
 10
983.9091802322869
 20
336.3079067700423
 30
0.0000000000000000
 11
981.9091802322870
 21
335.1532062316632
 31
0.0000000000000000
  0
LINE
  5
151
100
AcDbEntity
  8
MAIN0
  6
CONTINUOUS
 62
3
100
AcDbLine
 10
981.9091802322866
 20
335.1532062316629
 30
0.0000000000000000
 11
981.9091802322866
 21
332.8438051549045
 31
0.0000000000000000
  0
LINE
  5
152
100
AcDbEntity
  8
MAIN0
  6
CONTINUOUS
 62
3
100
AcDbLine
 10
981.9091802322869
 20
332.8438051549044
 30
0.0000000000000000
 11
983.9091802322869
 21
331.6891046165251
 31
0.0000000000000000
  0
LINE
  5
153
100
AcDbEntity
  8
MAIN0
  6
CONTINUOUS
 62
3
100
AcDbLine
 10
983.9091802322870
 20
331.6891046165254
 30
0.0000000000000000
 11
985.9091802322869
 21
332.8438051549046
 31
0.0000000000000000
  0
LINE
  5
154
100
AcDbEntity
  8
MAIN0
  6
CONTINUOUS
 62
3
100
AcDbLine
 10
985.9091802322866
 20
332.8438051549045
 30
0.0000000000000000
 11
985.9091802322866
 21
335.1532062316629
 31
0.0000000000000000
  0
LINE
  5
155
100
AcDbEntity
  8
MAIN0
  6
CONTINUOUS
 62
3
100
AcDbLine
 10
985.9091802322868
 20
335.1532062316630
 30
0.0000000000000000
 11
983.9091802322869
 21
336.3079067700422
 31
0.0000000000000000
  0
CIRCLE
  5
156
100
AcDbEntity
  8
MAIN0
  6
CONTINUOUS
 62
3
100
AcDbCircle
 10
950.9091802322819
 20
333.9985056932936
 30
0.0000000000000000
 40
25.00000000002711
  0
LINE
  5
157
100
AcDbEntity
  8
MAIN0
  6
CONTINUOUS
 62
3
100
AcDbLine
 10
947.9091802322819
 20
347.6733000244709
 30
0.0000000000000000
 11
947.9091802322819
 21
358.5660147245322
 31
0.0000000000000000
  0
LINE
  5
158
100
AcDbEntity
  8
MAIN0
  6
CONTINUOUS
 62
3
100
AcDbLine
 10
953.9091802322819
 20
347.6733000244709
 30
0.0000000000000000
 11
953.9091802322819
 21
358.5660147245322
 31
0.0000000000000000
  0
LINE
  5
159
100
AcDbEntity
  8
MAIN0
  6
CONTINUOUS
 62
3
100
AcDbLine
 10
943.9091802322813
 20
338.0399575776140
 30
0.0000000000000000
 11
950.9091802322813
 21
342.0814094619553
 31
0.0000000000000000
  0
LINE
  5
15A
100
AcDbEntity
  8
MAIN0
  6
CONTINUOUS
 62
3
100
AcDbLine
 10
943.9091802322815
 20
329.9570538089523
 30
0.0000000000000000
 11
943.9091802322815
 21
338.0399575776140
 31
0.0000000000000000
  0
LINE
  5
15B
100
AcDbEntity
  8
MAIN0
  6
CONTINUOUS
 62
3
100
AcDbLine
 10
943.9091802322815
 20
329.9570538089525
 30
0.0000000000000000
 11
950.9091802322815
 21
325.9156019246321
 31
0.0000000000000000
  0
LINE
  5
15C
100
AcDbEntity
  8
MAIN0
  6
CONTINUOUS
 62
3
100
AcDbLine
 10
957.9091802322815
 20
329.9570538089525
 30
0.0000000000000000
 11
950.9091802322815
 21
325.9156019246320
 31
0.0000000000000000
  0
LINE
  5
15D
100
AcDbEntity
  8
MAIN0
  6
CONTINUOUS
 62
3
100
AcDbLine
 10
957.9091802322818
 20
329.9570538089522
 30
0.0000000000000000
 11
957.9091802322818
 21
338.0399575776139
 31
0.0000000000000000
  0
LINE
  5
15E
100
AcDbEntity
  8
MAIN0
  6
CONTINUOUS
 62
3
100
AcDbLine
 10
957.9091802322822
 20
338.0399575776139
 30
0.0000000000000000
 11
950.9091802322822
 21
342.0814094619551
 31
0.0000000000000000
  0
CIRCLE
  5
15F
100
AcDbEntity
  8
MAIN0
  6
CONTINUOUS
 62
3
100
AcDbCircle
 10
950.9091802322816
 20
333.9985056932936
 30
0.0000000000000000
 40
14.00000000000000
  0
CIRCLE
  5
160
100
AcDbEntity
  8
MAIN0
  6
CONTINUOUS
 62
3
100
AcDbCircle
 10
950.9091802322816
 20
333.9985056932936
 30
0.0000000000000000
 40
28.00000000000000
  0
LINE
  5
161
100
AcDbEntity
  8
MAIN0
  6
CONTINUOUS
 62
3
100
AcDbLine
 10
952.6091802322819
 20
306.0501604828879
 30
0.0000000000000000
 11
952.6091802322819
 21
309.0563726649946
 31
0.0000000000000000
  0
LINE
  5
162
100
AcDbEntity
  8
MAIN0
  6
CONTINUOUS
 62
3
100
AcDbLine
 10
949.2091802322818
 20
306.0501604828879
 30
0.0000000000000000
 11
949.2091802322818
 21
309.0563726649946
 31
0.0000000000000000
  0
LINE
  5
163
100
AcDbEntity
  8
MAIN0
  6
CONTINUOUS
 62
3
100
AcDbLine
 10
888.4091802322813
 20
283.9985056950733
 30
0.0000000000000000
 11
888.4091802322813
 21
278.9985056950717
 31
0.0000000000000000
  0
LINE
  5
164
100
AcDbEntity
  8
MAIN0
  6
CONTINUOUS
 62
3
100
AcDbLine
 10
913.4091802322812
 20
278.9985056950732
 30
0.0000000000000000
 11
888.4091802322812
 21
278.9985056950732
 31
0.0000000000000000
  0
LINE
  5
165
100
AcDbEntity
  8
MAIN0
  6
CONTINUOUS
 62
3
100
AcDbLine
 10
913.4091802322813
 20
283.9985056950734
 30
0.0000000000000000
 11
913.4091802322813
 21
278.9985056950734
 31
0.0000000000000000
  0
LINE
  5
166
100
AcDbEntity
  8
MAIN0
  6
CONTINUOUS
 62
3
100
AcDbLine
 10
988.4091802322853
 20
283.9985056950732
 30
0.0000000000000000
 11
988.4091802322853
 21
278.9985056950732
 31
0.0000000000000000
  0
LINE
  5
167
100
AcDbEntity
  8
MAIN0
  6
CONTINUOUS
 62
3
100
AcDbLine
 10
1013.409180232286
 20
278.9985056950732
 30
0.0000000000000000
 11
988.4091802322856
 21
278.9985056950732
 31
0.0000000000000000
  0
LINE
  5
168
100
AcDbEntity
  8
MAIN0
  6
CONTINUOUS
 62
3
100
AcDbLine
 10
1013.409180232286
 20
283.9985056950734
 30
0.0000000000000000
 11
1013.409180232286
 21
278.9985056950770
 31
0.0000000000000000
  0
LINE
  5
169
100
AcDbEntity
  8
MAIN0
  6
CONTINUOUS
 62
3
100
AcDbLine
 10
941.9091802322819
 20
284.5985056950734
 30
0.0000000000000000
 11
941.9091802322819
 21
288.9985056950732
 31
0.0000000000000000
  0
LINE
  5
16A
100
AcDbEntity
  8
MAIN0
  6
CONTINUOUS
 62
3
100
AcDbLine
 10
941.9091802322819
 20
288.9985056950732
 30
0.0000000000000000
 11
959.9091802322819
 21
288.9985056950732
 31
0.0000000000000000
  0
LINE
  5
16B
100
AcDbEntity
  8
MAIN0
  6
CONTINUOUS
 62
3
100
AcDbLine
 10
941.9091802322820
 20
284.5985056950732
 30
0.0000000000000000
 11
941.3091802322817
 21
283.9985056950730
 31
0.0000000000000000
  0
LINE
  5
16C
100
AcDbEntity
  8
MAIN0
  6
CONTINUOUS
 62
3
100
AcDbLine
 10
959.9091802322819
 20
284.5985056950734
 30
0.0000000000000000
 11
959.9091802322819
 21
288.9985056950732
 31
0.0000000000000000
  0
LINE
  5
16D
100
AcDbEntity
  8
MAIN0
  6
CONTINUOUS
 62
3
100
AcDbLine
 10
959.9091802322821
 20
284.5985056950734
 30
0.0000000000000000
 11
960.5091802322822
 21
283.9985056950734
 31
0.0000000000000000
  0
LINE
  5
16E
100
AcDbEntity
  8
MAIN0
  6
CONTINUOUS
 62
3
100
AcDbLine
 10
888.3091802322822
 20
283.9985056950732
 30
0.0000000000000000
 11
941.3091802322820
 21
283.9985056950732
 31
0.0000000000000000
  0
LINE
  5
16F
100
AcDbEntity
  8
MAIN0
  6
CONTINUOUS
 62
3
100
AcDbLine
 10
960.5091802322820
 20
283.9985056950732
 30
0.0000000000000000
 11
1013.509180232282
 21
283.9985056950732
 31
0.0000000000000000
  0
LINE
  5
170
100
AcDbEntity
  8
MAIN0
  6
CONTINUOUS
 62
3
100
AcDbLine
 10
887.9091802322819
 20
345.9985056950737
 30
0.0000000000000000
 11
887.9091802322818
 21
355.2985056930458
 31
0.0000000000000000
  0
LINE
  5
171
100
AcDbEntity
  8
MAIN0
  6
CONTINUOUS
 62
3
100
AcDbLine
 10
1013.909180232282
 20
345.9985056950734
 30
0.0000000000000000
 11
1013.909180232282
 21
355.2985056930455
 31
0.0000000000000000
  0
ARC
  5
172
100
AcDbEntity
  8
MAIN0
  6
CONTINUOUS
 62
3
100
AcDbCircle
 10
892.9091802322816
 20
339.1700785685474
 30
0.0000000000000000
 40
3.000000000000000
100
AcDbArc
 50
0.0000000000000000
 51
70.52877936551049
  0
ARC
  5
173
100
AcDbEntity
  8
MAIN0
  6
CONTINUOUS
 62
3
100
AcDbCircle
 10
950.9091802322819
 20
333.9985056932936
 30
0.0000000000000000
 40
60.00000000000000
100
AcDbArc
 50
205.8419327631667
 51
215.4505426368312
  0
ARC
  5
174
100
AcDbEntity
  8
MAIN0
  6
CONTINUOUS
 62
3
100
AcDbCircle
 10
905.9091802322816
 20
312.2040109755904
 30
0.0000000000000000
 40
10.00000000000000
100
AcDbArc
 50
180.0000000000000
 51
205.8419327631667
  0
ARC
  5
175
100
AcDbEntity
  8
MAIN0
  6
CONTINUOUS
 62
3
100
AcDbCircle
 10
910.1783565222627
 20
304.9985056949600
 30
0.0000000000000000
 40
10.00000000000000
100
AcDbArc
 50
215.4505426368312
 51
270.0000000000000
  0
LINE
  5
176
100
AcDbEntity
  8
MAIN0
  6
CONTINUOUS
 62
3
100
AcDbLine
 10
895.9091802322815
 20
312.2040109755904
 30
0.0000000000000000
 11
895.9091802322815
 21
339.1700785685476
 31
0.0000000000000000
  0
ARC
  5
177
100
AcDbEntity
  8
MAIN0
  6
CONTINUOUS
 62
3
100
AcDbCircle
 10
1008.909180232282
 20
339.1700785685471
 30
0.0000000000000000
 40
3.000000000000000
100
AcDbArc
 50
109.4712206344893
 51
179.9999999999997
  0
LINE
  5
178
100
AcDbEntity
  8
MAIN0
  6
CONTINUOUS
 62
3
100
AcDbLine
 10
1005.909180232282
 20
312.2040109755901
 30
0.0000000000000000
 11
1005.909180232282
 21
339.1700785685471
 31
0.0000000000000000
  0
ARC
  5
179
100
AcDbEntity
  8
MAIN0
  6
CONTINUOUS
 62
3
100
AcDbCircle
 10
995.9091802322821
 20
312.2040109755902
 30
0.0000000000000000
 40
10.00000000000000
100
AcDbArc
 50
334.1580672368331
 51
359.9999999999997
  0
ARC
  5
17A
100
AcDbEntity
  8
MAIN0
  6
CONTINUOUS
 62
3
100
AcDbCircle
 10
950.9091802322821
 20
333.9985056932936
 30
0.0000000000000000
 40
60.00000000000000
100
AcDbArc
 50
324.5494573631685
 51
334.1580672368331
  0
ARC
  5
17B
100
AcDbEntity
  8
MAIN0
  6
CONTINUOUS
 62
3
100
AcDbCircle
 10
991.6400039423011
 20
304.9985056949598
 30
0.0000000000000000
 40
10.00000000000000
100
AcDbArc
 50
269.9999999999997
 51
324.5494573631685
  0
DIMENSION
  5
184
100
AcDbEntity
  8
MAIN0
  6
CONTINUOUS
 62
3
100
AcDbDimension
  2
*D12
 10
883.4091802322816
 20
462.9985056949239
 30
0.0000000000000000
 11
950.9091802322816
 21
463.4985056949239
 31
0.0000000000000000
 70
32
  3
MAIN001
100
AcDbAlignedDimension
 13
1018.409180232282
 23
388.1985055505946
 33
0.0000000000000000
 14
883.4091802322816
 24
388.1985055505944
 34
0.0000000000000000
100
AcDbRotatedDimension
1001
ACAD
1000
DSTYLE
1002
{
1070
   173
1070
     1
1070
     6
1000
_OPEN
1070
     7
1000
_OPEN
1070
    41
1040
5.000000
1002
}
  0
MTEXT
  5
185
100
AcDbEntity
  8
MAIN0
  6
CONTINUOUS
 62
3
100
AcDbMText
 10
964.1160516572975
 20
316.0771519399860
 30
0.0000000000000000
 40
7.500000000000000
 41
0.0000000000000000
 71
     1
 72
     1
  1
{\H0.63x;{3}}
 11
-0.8660254037845803
 21
-0.4999999999997548
 31
0.0000000000000000
  7
STANDARD
  0
MTEXT
  5
186
100
AcDbEntity
  8
MAIN0
  6
CONTINUOUS
 62
3
100
AcDbMText
 10
971.4328696072407
 20
325.1100493929064
 30
0.0000000000000000
 40
7.500000000000000
 41
0.0000000000000000
 71
     1
 72
     1
  1
{\H0.63x;{2}}
 11
-0.4999999999999527
 21
-0.8660254037844659
 31
0.0000000000000000
  7
STANDARD
  0
MTEXT
  5
187
100
AcDbEntity
  8
MAIN0
  6
CONTINUOUS
 62
3
100
AcDbMText
 10
972.9354912037736
 20
336.3320089720033
 30
0.0000000000000000
 40
7.500000000000000
 41
0.0000000000000000
 71
     1
 72
     1
  1
{\H0.63x;{1}}
 11
-1.836970198721030e-016
 21
-1.000000000000000
 31
0.0000000000000000
  7
STANDARD
  0
MTEXT
  5
188
100
AcDbEntity
  8
MAIN0
  6
CONTINUOUS
 62
3
100
AcDbMText
 10
968.8177734458948
 20
347.0325342982164
 30
0.0000000000000000
 40
7.500000000000000
 41
0.0000000000000000
 71
     1
 72
     1
  1
{\H0.63x;{0}}
 11
0.4999999999999993
 21
-0.8660254037844390
 31
0.0000000000000000
  7
STANDARD
  0
DIMENSION
  5
193
100
AcDbEntity
  8
MAIN0
  6
CONTINUOUS
 62
3
100
AcDbDimension
  2
*D13
 10
943.9091802322814
 20
444.9985056948388
 30
0.0000000000000000
 11
950.9091802322814
 21
445.4985056948388
 31
0.0000000000000000
 70
32
  3
MAIN001
100
AcDbAlignedDimension
 13
957.9091802322814
 23
338.0399575776139
 33
0.0000000000000000
 14
943.9091802322814
 24
338.0399575776140
 34
0.0000000000000000
100
AcDbRotatedDimension
1001
ACAD
1000
DSTYLE
1002
{
1070
   173
1070
     1
1070
     6
1000
_OPEN
1070
     7
1000
_OPEN
1070
    41
1040
5.000000
1070
   287
1070
     0
1002
}
  0
LINE
  5
194
100
AcDbEntity
  8
MAIN0
  6
CONTINUOUS
 62
3
100
AcDbLine
 10
887.6091802322820
 20
344.4985056930523
 30
0.0000000000000000
 11
887.6091802322818
 21
368.5985056930522
 31
0.0000000000000000
  0
ARC
  5
195
100
AcDbEntity
  8
MAIN0
  6
CONTINUOUS
 62
3
100
AcDbCircle
 10
668.7582249625600
 20
297.9985056949445
 30
0.0000000000000000
 40
3.000000000000000
100
AcDbArc
 50
270.0000000000000
 51
311.4096220805483
  0
ARC
  5
196
100
AcDbEntity
  8
MAIN0
  6
CONTINUOUS
 62
3
100
AcDbCircle
 10
672.7268519269010
 20
293.4985056929551
 30
0.0000000000000000
 40
3.000000000000000
100
AcDbArc
 50
90.00000000000000
 51
131.4096220805500
  0
LINE
  5
197
100
AcDbEntity
  8
MAIN0
  6
CONTINUOUS
 62
3
100
AcDbLine
 10
639.7582249624190
 20
352.9985056933562
 30
0.0000000000000000
 11
671.7582249627862
 21
352.9985056933704
 31
0.0000000000000000
  0
LINE
  5
198
100
AcDbEntity
  8
MAIN0
  6
CONTINUOUS
 62
3
100
AcDbLine
 10
639.7582249624188
 20
344.9985056952188
 30
0.0000000000000000
 11
671.7582249627535
 21
344.9985056952330
 31
0.0000000000000000
  0
LINE
  5
199
100
AcDbEntity
  8
MAIN0
  6
CONTINUOUS
 62
3
100
AcDbLine
 10
636.7582249627408
 20
341.9985056937493
 30
0.0000000000000000
 11
671.7582249627410
 21
341.9985056936872
 31
0.0000000000000000
  0
LINE
  5
19A
100
AcDbEntity
  8
MAIN0
  6
CONTINUOUS
 62
3
100
AcDbLine
 10
638.2582249626095
 20
310.0193480764813
 30
0.0000000000000000
 11
670.2582249626096
 21
310.0193480765167
 31
0.0000000000000000
  0
LINE
  5
19B
100
AcDbEntity
  8
MAIN0
  6
CONTINUOUS
 62
3
100
AcDbLine
 10
66.42573918177587
 20
304.9985056941433
 30
0.0000000000000000
 11
66.42573918177587
 21
344.9985056941437
 31
0.0000000000000000
  0
LINE
  5
19C
100
AcDbEntity
  8
MAIN0
  6
CONTINUOUS
 62
3
100
AcDbLine
 10
60.42573918177627
 20
284.3985056941438
 30
0.0000000000000000
 11
60.42573918177632
 21
303.9985056941432
 31
0.0000000000000000
  0
LINE
  5
19D
100
AcDbEntity
  8
MAIN0
  6
CONTINUOUS
 62
3
100
AcDbLine
 10
66.42573918177587
 20
304.9985056941433
 30
0.0000000000000000
 11
61.42573918177632
 21
304.9985056941433
 31
0.0000000000000000
  0
LINE
  5
19E
100
AcDbEntity
  8
MAIN0
  6
CENTER
 62
3
100
AcDbLine
 10
123.4257391817759
 20
273.4699117486844
 30
0.0000000000000000
 11
123.4257391817762
 21
424.9985056934619
 31
0.0000000000000000
  0
LINE
  5
19F
100
AcDbEntity
  8
MAIN0
  6
CONTINUOUS
 62
3
100
AcDbLine
 10
61.92573918177587
 20
368.9985056941435
 30
0.0000000000000000
 11
91.82573918177459
 21
368.9985056941435
 31
0.0000000000000000
  0
LINE
  5
1A0
100
AcDbEntity
  8
MAIN0
  6
CONTINUOUS
 62
3
100
AcDbLine
 10
155.0257391817762
 20
368.9985056941435
 30
0.0000000000000000
 11
184.9257391817763
 21
368.9985056941435
 31
0.0000000000000000
  0
LINE
  5
1A1
100
AcDbEntity
  8
MAIN0
  6
CONTINUOUS
 62
3
100
AcDbLine
 10
61.42573918177607
 20
344.9985056941436
 30
0.0000000000000000
 11
66.42573918177584
 21
344.9985056941436
 31
0.0000000000000000
  0
LINE
  5
1A2
100
AcDbEntity
  8
MAIN0
  6
CONTINUOUS
 62
3
100
AcDbLine
 10
60.42573918177610
 20
345.9985056941440
 30
0.0000000000000000
 11
61.42573918177624
 21
344.9985056941439
 31
0.0000000000000000
  0
LINE
  5
1A3
100
AcDbEntity
  8
MAIN0
  6
CONTINUOUS
 62
3
100
AcDbLine
 10
61.42573918177612
 20
304.9985056941437
 30
0.0000000000000000
 11
60.42573918177595
 21
303.9985056941435
 31
0.0000000000000000
  0
LINE
  5
1A4
100
AcDbEntity
  8
MAIN0
  6
CONTINUOUS
 62
3
100
AcDbLine
 10
60.42573918177641
 20
284.3985056941434
 30
0.0000000000000000
 11
60.82573918177633
 21
283.9985056941435
 31
0.0000000000000000
  0
LINE
  5
1A5
100
AcDbEntity
  8
MAIN0
  6
CONTINUOUS
 62
3
100
AcDbLine
 10
180.4257391817763
 20
304.9985056941433
 30
0.0000000000000000
 11
180.4257391817763
 21
344.9985056941433
 31
0.0000000000000000
  0
LINE
  5
1A6
100
AcDbEntity
  8
MAIN0
  6
CONTINUOUS
 62
3
100
AcDbLine
 10
186.4257391817758
 20
284.3985056941430
 30
0.0000000000000000
 11
186.4257391817758
 21
303.9985056941430
 31
0.0000000000000000
  0
LINE
  5
1A7
100
AcDbEntity
  8
MAIN0
  6
CONTINUOUS
 62
3
100
AcDbLine
 10
180.4257391817759
 20
304.9985056941433
 30
0.0000000000000000
 11
185.4257391817761
 21
304.9985056941433
 31
0.0000000000000000
  0
LINE
  5
1A8
100
AcDbEntity
  8
MAIN0
  6
CONTINUOUS
 62
3
100
AcDbLine
 10
185.4257391817765
 20
344.9985056941432
 30
0.0000000000000000
 11
180.4257391817765
 21
344.9985056941432
 31
0.0000000000000000
  0
LINE
  5
1A9
100
AcDbEntity
  8
MAIN0
  6
CONTINUOUS
 62
3
100
AcDbLine
 10
186.4257391817761
 20
345.9985056941432
 30
0.0000000000000000
 11
185.4257391817759
 21
344.9985056941430
 31
0.0000000000000000
  0
LINE
  5
1AA
100
AcDbEntity
  8
MAIN0
  6
CONTINUOUS
 62
3
100
AcDbLine
 10
185.4257391817761
 20
304.9985056941433
 30
0.0000000000000000
 11
186.4257391817760
 21
303.9985056941435
 31
0.0000000000000000
  0
LINE
  5
1AB
100
AcDbEntity
  8
MAIN0
  6
CONTINUOUS
 62
3
100
AcDbLine
 10
186.4257391817761
 20
284.3985056941431
 30
0.0000000000000000
 11
186.0257391817762
 21
283.9985056941432
 31
0.0000000000000000
  0
LINE
  5
1AC
100
AcDbEntity
  8
MAIN0
  6
CONTINUOUS
 62
3
100
AcDbLine
 10
189.7257391817763
 20
380.1985056921222
 30
0.0000000000000000
 11
189.7257391817761
 21
340.6985056921221
 31
0.0000000000000000
  0
LINE
  5
1AD
100
AcDbEntity
  8
MAIN0
  6
CONTINUOUS
 62
3
100
AcDbLine
 10
190.9257391817759
 20
340.6985056921224
 30
0.0000000000000000
 11
190.9257391817759
 21
388.1985055496646
 31
0.0000000000000000
  0
ARC
  5
1AE
100
AcDbEntity
  8
MAIN0
  6
CONTINUOUS
 62
3
100
AcDbCircle
 10
188.9257391817759
 20
388.1985056921224
 30
0.0000000000000000
 40
2.000000000000000
100
AcDbArc
 50
0.0000000000000000
 51
89.99999999942553
  0
LINE
  5
1AF
100
AcDbEntity
  8
MAIN0
  6
CONTINUOUS
 62
3
100
AcDbLine
 10
189.7257391817761
 20
340.6985056921224
 30
0.0000000000000000
 11
190.9257391817759
 21
340.6985056921224
 31
0.0000000000000000
  0
LINE
  5
1B0
100
AcDbEntity
  8
MAIN0
  6
CONTINUOUS
 62
3
100
AcDbLine
 10
63.42573918177584
 20
344.0985056921224
 30
0.0000000000000000
 11
60.52573918177598
 21
344.0985056921224
 31
0.0000000000000000
  0
ARC
  5
1B1
100
AcDbEntity
  8
MAIN0
  6
CONTINUOUS
 62
3
100
AcDbCircle
 10
60.12573918177591
 20
344.0985056921223
 30
0.0000000000000000
 40
1.200000000000000
100
AcDbArc
 50
180.0000000000067
 51
270.0000000000046
  0
ARC
  5
1B2
100
AcDbEntity
  8
MAIN0
  6
CONTINUOUS
 62
3
100
AcDbCircle
 10
60.12573918177591
 20
368.9985056921224
 30
0.0000000000000000
 40
1.200000000000000
100
AcDbArc
 50
90.00000000000000
 51
180.0000000000000
  0
ARC
  5
1B3
100
AcDbEntity
  8
MAIN0
  6
CONTINUOUS
 62
3
100
AcDbCircle
 10
60.52573918177578
 20
368.5985056921223
 30
0.0000000000000000
 40
0.4000000000000000
100
AcDbArc
 50
90.00000000000259
 51
180.0000000000000
  0
ARC
  5
1B4
100
AcDbEntity
  8
MAIN0
  6
CONTINUOUS
 62
3
100
AcDbCircle
 10
60.52573918177578
 20
344.4985056921224
 30
0.0000000000000000
 40
0.4000000000000000
100
AcDbArc
 50
180.0000000000067
 51
269.9999999994322
  0
LINE
  5
1B5
100
AcDbEntity
  8
MAIN0
  6
CONTINUOUS
 62
3
100
AcDbLine
 10
63.42573918177584
 20
342.8985056921224
 30
0.0000000000000000
 11
60.12573935258422
 21
342.8985056921224
 31
0.0000000000000000
  0
LINE
  5
1B6
100
AcDbEntity
  8
MAIN0
  6
CONTINUOUS
 62
3
100
AcDbLine
 10
58.92573918177567
 20
368.9985056921223
 30
0.0000000000000000
 11
58.92573918177590
 21
344.0985056921222
 31
0.0000000000000000
  0
LINE
  5
1B7
100
AcDbEntity
  8
MAIN0
  6
CONTINUOUS
 62
3
100
AcDbLine
 10
63.42573918177581
 20
344.0985056921224
 30
0.0000000000000000
 11
63.42573918177581
 21
342.8985056921224
 31
0.0000000000000000
  0
LINE
  5
1B8
100
AcDbEntity
  8
MAIN0
  6
CONTINUOUS
 62
3
100
AcDbLine
 10
63.42573918177581
 20
341.8985056921224
 30
0.0000000000000000
 11
63.42573918177581
 21
340.6985056921224
 31
0.0000000000000000
  0
LINE
  5
1B9
100
AcDbEntity
  8
MAIN0
  6
CONTINUOUS
 62
3
100
AcDbLine
 10
57.42573918177587
 20
378.7985056921223
 30
0.0000000000000000
 11
57.42573918177587
 21
342.6985056921224
 31
0.0000000000000000
  0
LINE
  5
1BA
100
AcDbEntity
  8
MAIN0
  6
CONTINUOUS
 62
3
100
AcDbLine
 10
63.42573918177584
 20
341.8985056921224
 30
0.0000000000000000
 11
59.62573923473394
 21
341.8985056921224
 31
0.0000000000000000
  0
LINE
  5
1BB
100
AcDbEntity
  8
MAIN0
  6
CONTINUOUS
 62
3
100
AcDbLine
 10
63.42573918177584
 20
340.6985056921226
 30
0.0000000000000000
 11
59.42573922392046
 21
340.6985056921226
 31
0.0000000000000000
  0
ARC
  5
1BC
100
AcDbEntity
  8
MAIN0
  6
CONTINUOUS
 62
3
100
AcDbCircle
 10
59.42573918177587
 20
342.6985056921224
 30
0.0000000000000000
 40
2.000000000000000
100
AcDbArc
 50
180.0000000000067
 51
269.9999999994322
  0
ARC
  5
1BD
100
AcDbEntity
  8
MAIN0
  6
CONTINUOUS
 62
3
100
AcDbCircle
 10
59.62573918177591
 20
342.8985056921225
 30
0.0000000000000000
 40
1.000000000000000
100
AcDbArc
 50
180.0000000000067
 51
269.9999999994322
  0
ARC
  5
1BE
100
AcDbEntity
  8
MAIN0
  6
CONTINUOUS
 62
3
100
AcDbCircle
 10
58.82573918177596
 20
378.7985056921223
 30
0.0000000000000000
 40
1.400000000000000
100
AcDbArc
 50
98.21321070173772
 51
180.0000000000000
  0
LINE
  5
1BF
100
AcDbEntity
  8
MAIN0
  6
CONTINUOUS
 62
3
100
AcDbLine
 10
57.12573918177569
 20
380.1985056921224
 30
0.0000000000000000
 11
57.12573918177580
 21
340.6985056921224
 31
0.0000000000000000
  0
LINE
  5
1C0
100
AcDbEntity
  8
MAIN0
  6
CONTINUOUS
 62
3
100
AcDbLine
 10
55.92573918177612
 20
340.6985056921222
 30
0.0000000000000000
 11
55.92573918177601
 21
388.1985055496645
 31
0.0000000000000000
  0
ARC
  5
1C1
100
AcDbEntity
  8
MAIN0
  6
CONTINUOUS
 62
3
100
AcDbCircle
 10
57.92573918177587
 20
388.1985056921224
 30
0.0000000000000000
 40
2.000000000000000
100
AcDbArc
 50
90.00000000057449
 51
180.0000000000000
  0
LINE
  5
1C2
100
AcDbEntity
  8
MAIN0
  6
CONTINUOUS
 62
3
100
AcDbLine
 10
57.12573918177588
 20
340.6985056921224
 30
0.0000000000000000
 11
55.92573918177584
 21
340.6985056921224
 31
0.0000000000000000
  0
LINE
  5
1C3
100
AcDbEntity
  8
MAIN0
  6
CONTINUOUS
 62
3
100
AcDbLine
 10
186.7257391818461
 20
368.5985056921223
 30
0.0000000000000000
 11
186.7257391818397
 21
344.4985056921222
 31
0.0000000000000000
  0
LINE
  5
1C4
100
AcDbEntity
  8
MAIN0
  6
CONTINUOUS
 62
3
100
AcDbLine
 10
58.62573918182673
 20
370.1985056921221
 30
0.0000000000000000
 11
58.62573918183048
 21
342.8985056921222
 31
0.0000000000000000
  0
LINE
  5
1C5
100
AcDbEntity
  8
MAIN0
  6
CONTINUOUS
 62
3
100
AcDbLine
 10
183.4257391817759
 20
344.0985056921225
 30
0.0000000000000000
 11
186.3257391817760
 21
344.0985056921225
 31
0.0000000000000000
  0
ARC
  5
1C6
100
AcDbEntity
  8
MAIN0
  6
CONTINUOUS
 62
3
100
AcDbCircle
 10
186.7257391817761
 20
344.0985056921223
 30
0.0000000000000000
 40
1.200000000000000
100
AcDbArc
 50
269.9999999999953
 51
359.9999999999934
  0
ARC
  5
1C7
100
AcDbEntity
  8
MAIN0
  6
CONTINUOUS
 62
3
100
AcDbCircle
 10
186.7257391817761
 20
368.9985056921224
 30
0.0000000000000000
 40
1.200000000000000
100
AcDbArc
 50
0.0000000000000000
 51
90.00000000000000
  0
ARC
  5
1C8
100
AcDbEntity
  8
MAIN0
  6
CONTINUOUS
 62
3
100
AcDbCircle
 10
186.3257391817760
 20
368.5985056921223
 30
0.0000000000000000
 40
0.4000000000000000
100
AcDbArc
 50
0.0000000000000000
 51
89.99999999999740
  0
ARC
  5
1C9
100
AcDbEntity
  8
MAIN0
  6
CONTINUOUS
 62
3
100
AcDbCircle
 10
186.3257391817760
 20
344.4985056921224
 30
0.0000000000000000
 40
0.4000000000000000
100
AcDbArc
 50
270.0000000005678
 51
359.9999999999934
  0
LINE
  5
1CA
100
AcDbEntity
  8
MAIN0
  6
CONTINUOUS
 62
3
100
AcDbLine
 10
183.4257391817759
 20
342.8985056921225
 30
0.0000000000000000
 11
186.7257390109677
 21
342.8985056921225
 31
0.0000000000000000
  0
LINE
  5
1CB
100
AcDbEntity
  8
MAIN0
  6
CONTINUOUS
 62
3
100
AcDbLine
 10
187.9257391817759
 20
368.9985056921224
 30
0.0000000000000000
 11
187.9257391817759
 21
344.0985056921223
 31
0.0000000000000000
  0
LINE
  5
1CC
100
AcDbEntity
  8
MAIN0
  6
CONTINUOUS
 62
3
100
AcDbLine
 10
183.4257391817759
 20
344.0985056921223
 30
0.0000000000000000
 11
183.4257391817759
 21
342.8985056921225
 31
0.0000000000000000
  0
LINE
  5
1CD
100
AcDbEntity
  8
MAIN0
  6
CONTINUOUS
 62
3
100
AcDbLine
 10
183.4257391817759
 20
341.8985056921225
 30
0.0000000000000000
 11
183.4257391817759
 21
340.6985056921224
 31
0.0000000000000000
  0
LINE
  5
1CE
100
AcDbEntity
  8
MAIN0
  6
CONTINUOUS
 62
3
100
AcDbLine
 10
189.4257391817759
 20
378.7985056921223
 30
0.0000000000000000
 11
189.4257391817759
 21
342.6985056921224
 31
0.0000000000000000
  0
LINE
  5
1CF
100
AcDbEntity
  8
MAIN0
  6
CONTINUOUS
 62
3
100
AcDbLine
 10
188.2257391817761
 20
370.1985056921224
 30
0.0000000000000000
 11
188.2257391817761
 21
342.8985056921225
 31
0.0000000000000000
  0
LINE
  5
1D0
100
AcDbEntity
  8
MAIN0
  6
CONTINUOUS
 62
3
100
AcDbLine
 10
183.4257391817759
 20
341.8985056921225
 30
0.0000000000000000
 11
187.2257391288180
 21
341.8985056921225
 31
0.0000000000000000
  0
LINE
  5
1D1
100
AcDbEntity
  8
MAIN0
  6
CONTINUOUS
 62
3
100
AcDbLine
 10
183.4257391817759
 20
340.6985056921224
 30
0.0000000000000000
 11
187.4257391396313
 21
340.6985056921224
 31
0.0000000000000000
  0
ARC
  5
1D2
100
AcDbEntity
  8
MAIN0
  6
CONTINUOUS
 62
3
100
AcDbCircle
 10
187.4257391817759
 20
342.6985056921224
 30
0.0000000000000000
 40
2.000000000000000
100
AcDbArc
 50
270.0000000005678
 51
359.9999999999934
  0
ARC
  5
1D3
100
AcDbEntity
  8
MAIN0
  6
CONTINUOUS
 62
3
100
AcDbCircle
 10
187.2257391817761
 20
342.8985056921225
 30
0.0000000000000000
 40
1.000000000000000
100
AcDbArc
 50
270.0000000005678
 51
359.9999999999934
  0
ARC
  5
1D4
100
AcDbEntity
  8
MAIN0
  6
CONTINUOUS
 62
3
100
AcDbCircle
 10
188.0257391817760
 20
378.7985056921223
 30
0.0000000000000000
 40
1.400000000000000
100
AcDbArc
 50
0.0000000000000000
 51
81.78678929826229
  0
LINE
  5
1D5
100
AcDbEntity
  8
MAIN0
  6
CONTINUOUS
 62
3
100
AcDbLine
 10
60.92573918177635
 20
368.9985056923636
 30
0.0000000000000000
 11
60.92573918177655
 21
418.9985056934621
 31
0.0000000000000000
  0
LINE
  5
1D6
100
AcDbEntity
  8
MAIN0
  6
CONTINUOUS
 62
3
100
AcDbLine
 10
185.9257391817764
 20
368.9985056921227
 30
0.0000000000000000
 11
185.9257391817766
 21
418.9985056934621
 31
0.0000000000000000
  0
LINE
  5
1D7
100
AcDbEntity
  8
MAIN0
  6
CONTINUOUS
 62
3
100
AcDbLine
 10
60.92573918177632
 20
418.9985056934621
 30
0.0000000000000000
 11
185.9257391817763
 21
418.9985056934621
 31
0.0000000000000000
  0
LINE
  5
1D8
100
AcDbEntity
  8
MAIN0
  6
CONTINUOUS
 62
3
100
AcDbLine
 10
60.52573918177595
 20
368.9985056921225
 30
0.0000000000000000
 11
186.3257385618816
 21
368.9985056921225
 31
0.0000000000000000
  0
LINE
  5
1D9
100
AcDbEntity
  8
MAIN0
  6
CONTINUOUS
 62
3
100
AcDbLine
 10
67.42573918177655
 20
368.9985056923636
 30
0.0000000000000000
 11
179.4257391817759
 21
368.9985056923636
 31
0.0000000000000000
  0
LINE
  5
1DA
100
AcDbEntity
  8
MAIN0
  6
CONTINUOUS
 62
3
100
AcDbLine
 10
140.6303897158725
 20
368.9985056923579
 30
0.0000000000000000
 11
106.2210886477053
 21
368.9985056923704
 31
0.0000000000000000
  0
LINE
  5
1DB
100
AcDbEntity
  8
MAIN0
  6
CONTINUOUS
 62
3
100
AcDbLine
 10
66.42573918177587
 20
304.9985056941433
 30
0.0000000000000000
 11
66.42573918177587
 21
313.9985056941433
 31
0.0000000000000000
  0
LINE
  5
1DC
100
AcDbEntity
  8
MAIN0
  6
CONTINUOUS
 62
3
100
AcDbLine
 10
61.42573918177575
 20
304.9985056941433
 30
0.0000000000000000
 11
66.42573918177587
 21
304.9985056941433
 31
0.0000000000000000
  0
LINE
  5
1DD
100
AcDbEntity
  8
MAIN0
  6
CONTINUOUS
 62
3
100
AcDbLine
 10
60.92573918177547
 20
283.9985056941433
 30
0.0000000000000000
 11
60.92573918177544
 21
278.9985056941417
 31
0.0000000000000000
  0
LINE
  5
1DE
100
AcDbEntity
  8
MAIN0
  6
CONTINUOUS
 62
3
100
AcDbLine
 10
85.92573918177541
 20
278.9985056941432
 30
0.0000000000000000
 11
60.92573918177541
 21
278.9985056941432
 31
0.0000000000000000
  0
LINE
  5
1DF
100
AcDbEntity
  8
MAIN0
  6
CONTINUOUS
 62
3
100
AcDbLine
 10
85.92573918177547
 20
283.9985056941434
 30
0.0000000000000000
 11
85.92573918177544
 21
278.9985056941434
 31
0.0000000000000000
  0
LINE
  5
1E0
100
AcDbEntity
  8
MAIN0
  6
CONTINUOUS
 62
3
100
AcDbLine
 10
160.9257391817795
 20
283.9985056941432
 30
0.0000000000000000
 11
160.9257391817795
 21
278.9985056941432
 31
0.0000000000000000
  0
LINE
  5
1E1
100
AcDbEntity
  8
MAIN0
  6
CONTINUOUS
 62
3
100
AcDbLine
 10
185.9257391817798
 20
278.9985056941432
 30
0.0000000000000000
 11
160.9257391817798
 21
278.9985056941432
 31
0.0000000000000000
  0
LINE
  5
1E2
100
AcDbEntity
  8
MAIN0
  6
CONTINUOUS
 62
3
100
AcDbLine
 10
185.9257391817798
 20
283.9985056941434
 30
0.0000000000000000
 11
185.9257391817799
 21
278.9985056941470
 31
0.0000000000000000
  0
LINE
  5
1E3
100
AcDbEntity
  8
MAIN0
  6
CONTINUOUS
 62
3
100
AcDbLine
 10
114.4257391817761
 20
284.5985056941433
 30
0.0000000000000000
 11
114.4257391817761
 21
288.9985056941433
 31
0.0000000000000000
  0
LINE
  5
1E4
100
AcDbEntity
  8
MAIN0
  6
CONTINUOUS
 62
3
100
AcDbLine
 10
114.4257391817761
 20
288.9985056941433
 30
0.0000000000000000
 11
132.4257391817761
 21
288.9985056941433
 31
0.0000000000000000
  0
LINE
  5
1E5
100
AcDbEntity
  8
MAIN0
  6
CONTINUOUS
 62
3
100
AcDbLine
 10
114.4257391817763
 20
284.5985056941433
 30
0.0000000000000000
 11
113.8257391817761
 21
283.9985056941431
 31
0.0000000000000000
  0
LINE
  5
1E6
100
AcDbEntity
  8
MAIN0
  6
CONTINUOUS
 62
3
100
AcDbLine
 10
132.4257391817761
 20
284.5985056941433
 30
0.0000000000000000
 11
132.4257391817761
 21
288.9985056941433
 31
0.0000000000000000
  0
LINE
  5
1E7
100
AcDbEntity
  8
MAIN0
  6
CONTINUOUS
 62
3
100
AcDbLine
 10
132.4257391817761
 20
284.5985056941435
 30
0.0000000000000000
 11
133.0257391817762
 21
283.9985056941435
 31
0.0000000000000000
  0
LINE
  5
1E8
100
AcDbEntity
  8
MAIN0
  6
CONTINUOUS
 62
3
100
AcDbLine
 10
60.82573918177641
 20
283.9985056941432
 30
0.0000000000000000
 11
113.8257391817762
 21
283.9985056941432
 31
0.0000000000000000
  0
LINE
  5
1E9
100
AcDbEntity
  8
MAIN0
  6
CONTINUOUS
 62
3
100
AcDbLine
 10
133.0257391817762
 20
283.9985056941432
 30
0.0000000000000000
 11
186.0257391817762
 21
283.9985056941432
 31
0.0000000000000000
  0
LINE
  5
1EA
100
AcDbEntity
  8
MAIN0
  6
CONTINUOUS
 62
3
100
AcDbLine
 10
60.42573918177598
 20
345.9985056941437
 30
0.0000000000000000
 11
60.42573918177567
 21
367.4985056921224
 31
0.0000000000000000
  0
LINE
  5
1EB
100
AcDbEntity
  8
MAIN0
  6
CONTINUOUS
 62
3
100
AcDbLine
 10
186.4257391817764
 20
345.9985056941434
 30
0.0000000000000000
 11
186.4257391817757
 21
367.4985056921225
 31
0.0000000000000000
  0
LINE
  5
1EC
100
AcDbEntity
  8
MAIN0
  6
CONTINUOUS
 62
3
100
AcDbLine
 10
60.12573918177608
 20
344.4985056921224
 30
0.0000000000000000
 11
60.12573918177586
 21
368.5985056921222
 31
0.0000000000000000
  0
LINE
  5
1ED
100
AcDbEntity
  8
MAIN0
  6
CONTINUOUS
 62
3
100
AcDbLine
 10
57.92574039382765
 20
390.1985056921222
 30
0.0000000000000000
 11
60.92573918177644
 21
390.1985056921222
 31
0.0000000000000000
  0
LINE
  5
1EE
100
AcDbEntity
  8
MAIN0
  6
CONTINUOUS
 62
3
100
AcDbLine
 10
185.9257391817764
 20
390.1985056921222
 30
0.0000000000000000
 11
188.9257379697239
 21
390.1985056921222
 31
0.0000000000000000
  0
LINE
  5
1EF
100
AcDbEntity
  8
MAIN0
  6
CONTINUOUS
 62
3
100
AcDbLine
 10
60.92573918177638
 20
380.1985056921224
 30
0.0000000000000000
 11
57.12573918177600
 21
380.1985056921224
 31
0.0000000000000000
  0
LINE
  5
1F0
100
AcDbEntity
  8
MAIN0
  6
CONTINUOUS
 62
3
100
AcDbLine
 10
189.7257391817759
 20
380.1985056921224
 30
0.0000000000000000
 11
185.9257391817764
 21
380.1985056921224
 31
0.0000000000000000
  0
LINE
  5
1F1
100
AcDbEntity
  8
MAIN0
  6
CONTINUOUS
 62
3
100
AcDbLine
 10
58.62573918177611
 20
370.1985056921225
 30
0.0000000000000000
 11
60.92573918177635
 21
370.1985056921225
 31
0.0000000000000000
  0
LINE
  5
1F2
100
AcDbEntity
  8
MAIN0
  6
CONTINUOUS
 62
3
100
AcDbLine
 10
185.9257391817764
 20
370.1985056921225
 30
0.0000000000000000
 11
188.2257391817763
 21
370.1985056921225
 31
0.0000000000000000
  0
LINE
  5
1F3
100
AcDbEntity
  8
MAIN0
  6
CONTINUOUS
 62
3
100
AcDbLine
 10
92.42573918177453
 20
368.9985056921226
 30
0.0000000000000000
 11
92.42573918177453
 21
365.1985056939022
 31
0.0000000000000000
  0
LINE
  5
1F4
100
AcDbEntity
  8
MAIN0
  6
CONTINUOUS
 62
3
100
AcDbLine
 10
92.42573918177453
 20
365.1985056939022
 30
0.0000000000000000
 11
154.4257391817759
 21
365.1985056939022
 31
0.0000000000000000
  0
LINE
  5
1F5
100
AcDbEntity
  8
MAIN0
  6
CONTINUOUS
 62
3
100
AcDbLine
 10
92.42573918177453
 20
368.3985056939022
 30
0.0000000000000000
 11
154.4257391817759
 21
368.3985056939022
 31
0.0000000000000000
  0
LINE
  5
1F6
100
AcDbEntity
  8
MAIN0
  6
CONTINUOUS
 62
3
100
AcDbLine
 10
154.4257391817759
 20
368.9985056939025
 30
0.0000000000000000
 11
154.4257391817759
 21
365.1985056939022
 31
0.0000000000000000
  0
LINE
  5
1F7
100
AcDbEntity
  8
MAIN0
  6
CONTINUOUS
 62
3
100
AcDbLine
 10
93.42573918177587
 20
365.1985056921225
 30
0.0000000000000000
 11
93.42573918177587
 21
349.9985056921232
 31
0.0000000000000000
  0
LINE
  5
1F8
100
AcDbEntity
  8
MAIN0
  6
CONTINUOUS
 62
3
100
AcDbLine
 10
92.42573918177595
 20
348.9985056921232
 30
0.0000000000000000
 11
93.42573918177595
 21
349.9985056921232
 31
0.0000000000000000
  0
LINE
  5
1F9
100
AcDbEntity
  8
MAIN0
  6
CONTINUOUS
 62
3
100
AcDbLine
 10
87.92573918177604
 20
348.9985056921232
 30
0.0000000000000000
 11
92.42573918177581
 21
348.9985056921232
 31
0.0000000000000000
  0
LINE
  5
1FA
100
AcDbEntity
  8
MAIN0
  6
CONTINUOUS
 62
3
100
AcDbLine
 10
87.92573918177587
 20
348.9985056921226
 30
0.0000000000000000
 11
87.92573918177587
 21
333.9985056921226
 31
0.0000000000000000
  0
LINE
  5
1FB
100
AcDbEntity
  8
MAIN0
  6
CONTINUOUS
 62
3
100
AcDbLine
 10
93.32573918177596
 20
333.9985056921226
 30
0.0000000000000000
 11
87.92573918177587
 21
333.9985056921226
 31
0.0000000000000000
  0
LINE
  5
1FC
100
AcDbEntity
  8
MAIN0
  6
CONTINUOUS
 62
3
100
AcDbLine
 10
93.32573918177593
 20
333.9985056921227
 30
0.0000000000000000
 11
93.92573918177592
 21
333.3985056921227
 31
0.0000000000000000
  0
LINE
  5
1FD
100
AcDbEntity
  8
MAIN0
  6
CONTINUOUS
 62
3
100
AcDbLine
 10
93.92573918177587
 20
333.3985056921226
 30
0.0000000000000000
 11
93.92573918177587
 21
319.9985056900627
 31
0.0000000000000000
  0
ARC
  5
1FE
100
AcDbEntity
  8
MAIN0
  6
CONTINUOUS
 62
3
100
AcDbCircle
 10
99.92573918177587
 20
319.9985056900627
 30
0.0000000000000000
 40
6.000000000000000
100
AcDbArc
 50
180.0000000000000
 51
243.9431670700172
  0
ARC
  5
1FF
100
AcDbEntity
  8
MAIN0
  6
CONTINUOUS
 62
3
100
AcDbCircle
 10
107.3524769468094
 20
313.9985056921226
 30
0.0000000000000000
 40
10.00000000000000
100
AcDbArc
 50
182.0000000000008
 51
270.0000000000000
  0
LINE
  5
200
100
AcDbEntity
  8
MAIN0
  6
CONTINUOUS
 62
3
100
AcDbLine
 10
97.32568665542721
 20
314.5911286123818
 30
0.0000000000000000
 11
97.35856867661840
 21
313.6495107250974
 31
0.0000000000000000
  0
LINE
  5
201
100
AcDbEntity
  8
MAIN0
  6
CONTINUOUS
 62
3
100
AcDbLine
 10
107.3524769468094
 20
303.9985056921226
 30
0.0000000000000000
 11
139.4990014167424
 21
303.9985056921226
 31
0.0000000000000000
  0
ARC
  5
202
100
AcDbEntity
  8
MAIN0
  6
CONTINUOUS
 62
3
100
AcDbCircle
 10
139.4990014167424
 20
313.9985056921226
 30
0.0000000000000000
 40
10.00000000000000
100
AcDbArc
 50
270.0000000000000
 51
358.0000000000002
  0
LINE
  5
203
100
AcDbEntity
  8
MAIN0
  6
CONTINUOUS
 62
3
100
AcDbLine
 10
149.5257917081245
 20
314.5911286123827
 30
0.0000000000000000
 11
149.4929096869333
 21
313.6495107250976
 31
0.0000000000000000
  0
ARC
  5
204
100
AcDbEntity
  8
MAIN0
  6
CONTINUOUS
 62
3
100
AcDbCircle
 10
146.9257391817741
 20
319.9985056900627
 30
0.0000000000000000
 40
6.000000000000000
100
AcDbArc
 50
296.0568329316739
 51
359.9999999999997
  0
LINE
  5
205
100
AcDbEntity
  8
MAIN0
  6
CONTINUOUS
 62
3
100
AcDbLine
 10
152.9257391817743
 20
333.3985056921224
 30
0.0000000000000000
 11
152.9257391817741
 21
319.9985056900625
 31
0.0000000000000000
  0
LINE
  5
206
100
AcDbEntity
  8
MAIN0
  6
CONTINUOUS
 62
3
100
AcDbLine
 10
152.9257391817742
 20
333.3985056921225
 30
0.0000000000000000
 11
153.5257391817742
 21
333.9985056921225
 31
0.0000000000000000
  0
LINE
  5
207
100
AcDbEntity
  8
MAIN0
  6
CONTINUOUS
 62
3
100
AcDbLine
 10
153.5257391817743
 20
333.9985056921225
 30
0.0000000000000000
 11
158.9257391817742
 21
333.9985056921225
 31
0.0000000000000000
  0
LINE
  5
208
100
AcDbEntity
  8
MAIN0
  6
CONTINUOUS
 62
3
100
AcDbLine
 10
158.9257391817757
 20
333.9985056921227
 30
0.0000000000000000
 11
158.9257391817757
 21
348.9985056921227
 31
0.0000000000000000
  0
LINE
  5
209
100
AcDbEntity
  8
MAIN0
  6
CONTINUOUS
 62
3
100
AcDbLine
 10
154.4257391817759
 20
348.9985056921226
 30
0.0000000000000000
 11
158.9257391817759
 21
348.9985056921226
 31
0.0000000000000000
  0
LINE
  5
20A
100
AcDbEntity
  8
MAIN0
  6
CONTINUOUS
 62
3
100
AcDbLine
 10
154.4257391817757
 20
348.9985056921225
 30
0.0000000000000000
 11
153.4257391817757
 21
349.9985056921225
 31
0.0000000000000000
  0
LINE
  5
20B
100
AcDbEntity
  8
MAIN0
  6
CONTINUOUS
 62
3
100
AcDbLine
 10
153.4257391817759
 20
365.1985056921225
 30
0.0000000000000000
 11
153.4257391817759
 21
349.9985056921226
 31
0.0000000000000000
  0
DIMENSION
  5
214
100
AcDbEntity
  8
MAIN0
  6
CONTINUOUS
 62
3
100
AcDbDimension
  2
*D14
 10
60.92573918177655
 20
436.9985056944390
 30
0.0000000000000000
 11
123.4257391817766
 21
437.4985056944390
 31
0.0000000000000000
 70
32
  3
MAIN001
100
AcDbAlignedDimension
 13
185.9257391817766
 23
418.9985056934621
 33
0.0000000000000000
 14
60.92573918177655
 24
418.9985056934621
 34
0.0000000000000000
100
AcDbRotatedDimension
1001
ACAD
1000
DSTYLE
1002
{
1070
   173
1070
     1
1070
     6
1000
_OPEN
1070
     7
1000
_OPEN
1070
    41
1040
5.000000
1002
}
  0
DIMENSION
  5
21D
100
AcDbEntity
  8
MAIN0
  6
CONTINUOUS
 62
3
100
AcDbDimension
  2
*D15
 10
210.9257391817757
 20
368.9985056921226
 30
0.0000000000000000
 11
210.4257391817757
 21
356.9985056931329
 31
0.0000000000000000
 70
32
  3
MAIN001
100
AcDbAlignedDimension
 13
185.4257391817765
 23
344.9985056941433
 33
0.0000000000000000
 14
186.3257385618816
 24
368.9985056921226
 34
0.0000000000000000
 50
90.00000000000000
100
AcDbRotatedDimension
1001
ACAD
1000
DSTYLE
1002
{
1070
   173
1070
     1
1070
     6
1000
_OPEN
1070
     7
1000
_OPEN
1070
    41
1040
5.000000
1002
}
  0
DIMENSION
  5
226
100
AcDbEntity
  8
MAIN0
  6
CONTINUOUS
 62
3
100
AcDbDimension
  2
*D16
 10
210.9257391817757
 20
344.9985056941433
 30
0.0000000000000000
 11
210.4257391817757
 21
324.9985056941433
 31
0.0000000000000000
 70
32
  3
MAIN001
100
AcDbAlignedDimension
 13
185.4257391817761
 23
304.9985056941433
 33
0.0000000000000000
 14
185.4257391817765
 24
344.9985056941433
 34
0.0000000000000000
 50
90.00000000000000
100
AcDbRotatedDimension
1001
ACAD
1000
DSTYLE
1002
{
1070
   173
1070
     1
1070
     6
1000
_OPEN
1070
     7
1000
_OPEN
1070
    41
1040
5.000000
1002
}
  0
DIMENSION
  5
22F
100
AcDbEntity
  8
MAIN0
  6
CONTINUOUS
 62
3
100
AcDbDimension
  2
*D17
 10
210.9257391817757
 20
304.9985056941433
 30
0.0000000000000000
 11
210.4257391817757
 21
294.4985056941433
 31
0.0000000000000000
 70
32
  3
MAIN001
100
AcDbAlignedDimension
 13
186.0257391817762
 23
283.9985056941432
 33
0.0000000000000000
 14
185.4257391817761
 24
304.9985056941433
 34
0.0000000000000000
 50
90.00000000000000
100
AcDbRotatedDimension
1001
ACAD
1000
DSTYLE
1002
{
1070
   173
1070
     1
1070
     6
1000
_OPEN
1070
     7
1000
_OPEN
1070
    41
1040
5.000000
1002
}
  0
DIMENSION
  5
239
100
AcDbEntity
  8
MAIN0
  6
CONTINUOUS
 62
3
100
AcDbDimension
  2
*D18
 10
180.4257391817764
 20
320.9985056941433
 30
0.0000000000000000
 11
171.0437368834084
 21
322.2485056941433
 31
0.0000000000000000
 70
160
  3
MAIN001
100
AcDbAlignedDimension
 13
186.4257391817758
 23
303.9985056941431
 33
0.0000000000000000
 14
180.4257391817763
 24
304.9985056941432
 34
0.0000000000000000
100
AcDbRotatedDimension
1001
ACAD
1000
DSTYLE
1002
{
1070
   173
1070
     1
1070
     6
1000
_OPEN
1070
     7
1000
_OPEN
1070
    41
1040
5.000000
1070
   287
1070
     0
1002
}
  0
LINE
  5
23A
100
AcDbEntity
  8
MAIN0
  6
CONTINUOUS
 62
3
100
AcDbLine
 10
60.42573918177570
 20
367.4985056921225
 30
0.0000000000000000
 11
61.92573918177567
 21
368.9985056921225
 31
0.0000000000000000
  0
LINE
  5
23B
100
AcDbEntity
  8
MAIN0
  6
CONTINUOUS
 62
3
100
AcDbLine
 10
184.9257391817756
 20
368.9985056921225
 30
0.0000000000000000
 11
186.4257391817757
 21
367.4985056921225
 31
0.0000000000000000
  0
ARC
  5
23C
100
AcDbEntity
  8
MAIN0
  6
CONTINUOUS
 62
3
100
AcDbCircle
 10
668.7582249625600
 20
297.9985056949445
 30
0.0000000000000000
 40
3.000000000000000
100
AcDbArc
 50
270.0000000000000
 51
360.0000000000000
  0
LINE
  5
23D
100
AcDbEntity
  8
MAIN0
  6
CENTER
 62
3
100
AcDbLine
 10
319.7582249625435
 20
663.9142350450002
 30
0.0000000000000000
 11
347.7582249625435
 21
663.9142350450002
 31
0.0000000000000000
  0
LINE
  5
23E
100
AcDbEntity
  8
MAIN0
  6
CENTER
 62
3
100
AcDbLine
 10
333.7582249625436
 20
649.9142350450002
 30
0.0000000000000000
 11
333.7582249625436
 21
677.9142350450002
 31
0.0000000000000000
  0
LINE
  5
23F
100
AcDbEntity
  8
MAIN0
  6
CENTER
 62
3
100
AcDbLine
 10
271.7582249624953
 20
663.9142350450002
 30
0.0000000000000000
 11
299.7582249624953
 21
663.9142350450002
 31
0.0000000000000000
  0
LINE
  5
240
100
AcDbEntity
  8
MAIN0
  6
CENTER
 62
3
100
AcDbLine
 10
285.7582249624956
 20
649.9142350450002
 30
0.0000000000000000
 11
285.7582249624956
 21
677.9142350450002
 31
0.0000000000000000
  0
LINE
  5
241
100
AcDbEntity
  8
MAIN0
  6
CENTER
 62
3
100
AcDbLine
 10
319.7582249625433
 20
571.9142350441634
 30
0.0000000000000000
 11
347.7582249625433
 21
571.9142350441634
 31
0.0000000000000000
  0
LINE
  5
242
100
AcDbEntity
  8
MAIN0
  6
CENTER
 62
3
100
AcDbLine
 10
333.7582249625432
 20
557.9142350441633
 30
0.0000000000000000
 11
333.7582249625433
 21
585.9142350441633
 31
0.0000000000000000
  0
LINE
  5
243
100
AcDbEntity
  8
MAIN0
  6
CENTER
 62
3
100
AcDbLine
 10
271.7582249624951
 20
571.9142350441634
 30
0.0000000000000000
 11
299.7582249624951
 21
571.9142350441634
 31
0.0000000000000000
  0
LINE
  5
244
100
AcDbEntity
  8
MAIN0
  6
CENTER
 62
3
100
AcDbLine
 10
285.7582249624952
 20
557.9142350441636
 30
0.0000000000000000
 11
285.7582249624953
 21
585.9142350441636
 31
0.0000000000000000
  0
CIRCLE
  5
245
100
AcDbEntity
  8
MAIN0
  6
CONTINUOUS
 62
3
100
AcDbCircle
 10
309.7582249631656
 20
617.9142350445818
 30
0.0000000000000000
 40
5.000000000000000
  0
CIRCLE
  5
246
100
AcDbEntity
  8
MAIN0
  6
CONTINUOUS
 62
3
100
AcDbCircle
 10
309.7582249631656
 20
617.9142350445818
 30
0.0000000000000000
 40
4.250000000000000
  0
CIRCLE
  5
247
100
AcDbEntity
  8
MAIN0
  6
HIDDEN
 62
3
100
AcDbCircle
 10
333.7582249625433
 20
571.9142350441634
 30
0.0000000000000000
 40
10.50000000000000
  0
LINE
  5
248
100
AcDbEntity
  8
MAIN0
  6
HIDDEN
 62
3
100
AcDbLine
 10
326.8300217322678
 20
571.9142350441634
 30
0.0000000000000000
 11
330.2941233474054
 21
565.9142350441634
 31
0.0000000000000000
  0
LINE
  5
249
100
AcDbEntity
  8
MAIN0
  6
HIDDEN
 62
3
100
AcDbLine
 10
330.2941233474055
 20
565.9142350441634
 30
0.0000000000000000
 11
337.2223265776811
 21
565.9142350441634
 31
0.0000000000000000
  0
LINE
  5
24A
100
AcDbEntity
  8
MAIN0
  6
HIDDEN
 62
3
100
AcDbLine
 10
337.2223265776809
 20
565.9142350441633
 30
0.0000000000000000
 11
340.6864281928185
 21
571.9142350441632
 31
0.0000000000000000
  0
LINE
  5
24B
100
AcDbEntity
  8
MAIN0
  6
HIDDEN
 62
3
100
AcDbLine
 10
340.6864281928187
 20
571.9142350441634
 30
0.0000000000000000
 11
337.2223265776809
 21
577.9142350441637
 31
0.0000000000000000
  0
LINE
  5
24C
100
AcDbEntity
  8
MAIN0
  6
HIDDEN
 62
3
100
AcDbLine
 10
337.2223265776811
 20
577.9142350441634
 30
0.0000000000000000
 11
330.2941233474055
 21
577.9142350441634
 31
0.0000000000000000
  0
LINE
  5
24D
100
AcDbEntity
  8
MAIN0
  6
HIDDEN
 62
3
100
AcDbLine
 10
330.2941233474052
 20
577.9142350441632
 30
0.0000000000000000
 11
326.8300217322675
 21
571.9142350441632
 31
0.0000000000000000
  0
LINE
  5
24E
100
AcDbEntity
  8
MAIN0
  6
CENTER
 62
3
100
AcDbLine
 10
276.6643663711179
 20
642.9142350442406
 30
0.0000000000000000
 11
298.4078482140936
 21
642.9142350442113
 31
0.0000000000000000
  0
LINE
  5
24F
100
AcDbEntity
  8
MAIN0
  6
CENTER
 62
3
100
AcDbLine
 10
330.2982662357062
 20
642.9142350441684
 30
0.0000000000000000
 11
350.5921936299866
 21
642.9142350441410
 31
0.0000000000000000
  0
LINE
  5
250
100
AcDbEntity
  8
MAIN0
  6
CENTER
 62
3
100
AcDbLine
 10
276.6643663710505
 20
592.9142350442407
 30
0.0000000000000000
 11
298.4078482140262
 21
592.9142350442114
 31
0.0000000000000000
  0
LINE
  5
251
100
AcDbEntity
  8
MAIN0
  6
CENTER
 62
3
100
AcDbLine
 10
330.2982662356388
 20
592.9142350441681
 30
0.0000000000000000
 11
350.5921936299192
 21
592.9142350441407
 31
0.0000000000000000
  0
LINE
  5
252
100
AcDbEntity
  8
MAIN0
  6
CENTER
 62
3
100
AcDbLine
 10
286.7582249631112
 20
584.4323832046030
 30
0.0000000000000000
 11
286.7582249631112
 21
603.7599103901741
 31
0.0000000000000000
  0
LINE
  5
253
100
AcDbEntity
  8
MAIN0
  6
CENTER
 62
3
100
AcDbLine
 10
286.7582249631111
 20
632.7512195143022
 30
0.0000000000000000
 11
286.7582249631112
 21
653.0451285628833
 31
0.0000000000000000
  0
LINE
  5
254
100
AcDbEntity
  8
MAIN0
  6
CENTER
 62
3
100
AcDbLine
 10
341.7582249631111
 20
584.4323832046028
 30
0.0000000000000000
 11
341.7582249631112
 21
603.7599103901738
 31
0.0000000000000000
  0
LINE
  5
255
100
AcDbEntity
  8
MAIN0
  6
CENTER
 62
3
100
AcDbLine
 10
341.7582249631111
 20
632.7512195143021
 30
0.0000000000000000
 11
341.7582249631112
 21
653.0451285628832
 31
0.0000000000000000
  0
CIRCLE
  5
256
100
AcDbEntity
  8
MAIN0
  6
CONTINUOUS
 62
3
100
AcDbCircle
 10
333.7582249625433
 20
571.9142350441634
 30
0.0000000000000000
 40
11.50000000000000
  0
CIRCLE
  5
257
100
AcDbEntity
  8
MAIN0
  6
CONTINUOUS
 62
3
100
AcDbCircle
 10
285.7582249624951
 20
571.9142350441634
 30
0.0000000000000000
 40
11.50000000000000
  0
LINE
  5
258
100
AcDbEntity
  8
MAIN0
  6
CENTER
 62
3
100
AcDbLine
 10
309.7582249631656
 20
625.9142350445818
 30
0.0000000000000000
 11
309.7582249631656
 21
604.4492757624807
 31
0.0000000000000000
  0
CIRCLE
  5
259
100
AcDbEntity
  8
MAIN0
  6
CONTINUOUS
 62
3
100
AcDbCircle
 10
333.7582249625436
 20
663.9142350450002
 30
0.0000000000000000
 40
11.50000000000000
  0
CIRCLE
  5
25A
100
AcDbEntity
  8
MAIN0
  6
CONTINUOUS
 62
3
100
AcDbCircle
 10
285.7582249624954
 20
663.9142350450002
 30
0.0000000000000000
 40
11.50000000000000
  0
LINE
  5
25B
100
AcDbEntity
  8
MAIN0
  6
CENTER
 62
3
100
AcDbLine
 10
309.7582249631656
 20
568.6968743840794
 30
0.0000000000000000
 11
309.7582249631656
 21
550.5900326795295
 31
0.0000000000000000
  0
LINE
  5
25C
100
AcDbEntity
  8
MAIN0
  6
CENTER
 62
3
100
AcDbLine
 10
309.7582249632983
 20
667.1315957043130
 30
0.0000000000000000
 11
309.7582249633471
 21
685.2384374088629
 31
0.0000000000000000
  0
CIRCLE
  5
25D
100
AcDbEntity
  8
MAIN0
  6
HIDDEN
 62
3
100
AcDbCircle
 10
285.7582249624952
 20
571.9142350441634
 30
0.0000000000000000
 40
10.50000000000000
  0
LINE
  5
25E
100
AcDbEntity
  8
MAIN0
  6
HIDDEN
 62
3
100
AcDbLine
 10
278.8300217322197
 20
571.9142350441634
 30
0.0000000000000000
 11
282.2941233473574
 21
565.9142350441637
 31
0.0000000000000000
  0
LINE
  5
25F
100
AcDbEntity
  8
MAIN0
  6
HIDDEN
 62
3
100
AcDbLine
 10
282.2941233473574
 20
565.9142350441637
 30
0.0000000000000000
 11
289.2223265776331
 21
565.9142350441636
 31
0.0000000000000000
  0
LINE
  5
260
100
AcDbEntity
  8
MAIN0
  6
HIDDEN
 62
3
100
AcDbLine
 10
289.2223265776328
 20
565.9142350441631
 30
0.0000000000000000
 11
292.6864281927705
 21
571.9142350441630
 31
0.0000000000000000
  0
LINE
  5
261
100
AcDbEntity
  8
MAIN0
  6
HIDDEN
 62
3
100
AcDbLine
 10
292.6864281927706
 20
571.9142350441634
 30
0.0000000000000000
 11
289.2223265776328
 21
577.9142350441637
 31
0.0000000000000000
  0
LINE
  5
262
100
AcDbEntity
  8
MAIN0
  6
HIDDEN
 62
3
100
AcDbLine
 10
289.2223265776331
 20
577.9142350441636
 30
0.0000000000000000
 11
282.2941233473574
 21
577.9142350441637
 31
0.0000000000000000
  0
LINE
  5
263
100
AcDbEntity
  8
MAIN0
  6
HIDDEN
 62
3
100
AcDbLine
 10
282.2941233473571
 20
577.9142350441630
 30
0.0000000000000000
 11
278.8300217322195
 21
571.9142350441630
 31
0.0000000000000000
  0
CIRCLE
  5
264
100
AcDbEntity
  8
MAIN0
  6
HIDDEN
 62
3
100
AcDbCircle
 10
285.7582249624957
 20
663.9142350450004
 30
0.0000000000000000
 40
10.50000000000000
  0
LINE
  5
265
100
AcDbEntity
  8
MAIN0
  6
HIDDEN
 62
3
100
AcDbLine
 10
278.8300217322202
 20
663.9142350450002
 30
0.0000000000000000
 11
282.2941233473578
 21
657.9142350450002
 31
0.0000000000000000
  0
LINE
  5
266
100
AcDbEntity
  8
MAIN0
  6
HIDDEN
 62
3
100
AcDbLine
 10
282.2941233473579
 20
657.9142350450004
 30
0.0000000000000000
 11
289.2223265776335
 21
657.9142350450003
 31
0.0000000000000000
  0
LINE
  5
267
100
AcDbEntity
  8
MAIN0
  6
HIDDEN
 62
3
100
AcDbLine
 10
289.2223265776332
 20
657.9142350450002
 30
0.0000000000000000
 11
292.6864281927709
 21
663.9142350449999
 31
0.0000000000000000
  0
LINE
  5
268
100
AcDbEntity
  8
MAIN0
  6
HIDDEN
 62
3
100
AcDbLine
 10
292.6864281927711
 20
663.9142350450002
 30
0.0000000000000000
 11
289.2223265776333
 21
669.9142350450004
 31
0.0000000000000000
  0
LINE
  5
269
100
AcDbEntity
  8
MAIN0
  6
HIDDEN
 62
3
100
AcDbLine
 10
289.2223265776335
 20
669.9142350450003
 30
0.0000000000000000
 11
282.2941233473579
 21
669.9142350450004
 31
0.0000000000000000
  0
LINE
  5
26A
100
AcDbEntity
  8
MAIN0
  6
HIDDEN
 62
3
100
AcDbLine
 10
282.2941233473575
 20
669.9142350449999
 30
0.0000000000000000
 11
278.8300217322200
 21
663.9142350449999
 31
0.0000000000000000
  0
CIRCLE
  5
26B
100
AcDbEntity
  8
MAIN0
  6
HIDDEN
 62
3
100
AcDbCircle
 10
333.7582249625437
 20
663.9142350450002
 30
0.0000000000000000
 40
10.50000000000000
  0
LINE
  5
26C
100
AcDbEntity
  8
MAIN0
  6
HIDDEN
 62
3
100
AcDbLine
 10
326.8300217322683
 20
663.9142350450001
 30
0.0000000000000000
 11
330.2941233474058
 21
657.9142350450002
 31
0.0000000000000000
  0
LINE
  5
26D
100
AcDbEntity
  8
MAIN0
  6
HIDDEN
 62
3
100
AcDbLine
 10
330.2941233474059
 20
657.9142350450002
 30
0.0000000000000000
 11
337.2223265776815
 21
657.9142350450002
 31
0.0000000000000000
  0
LINE
  5
26E
100
AcDbEntity
  8
MAIN0
  6
HIDDEN
 62
3
100
AcDbLine
 10
337.2223265776813
 20
657.9142350449999
 30
0.0000000000000000
 11
340.6864281928189
 21
663.9142350449999
 31
0.0000000000000000
  0
LINE
  5
26F
100
AcDbEntity
  8
MAIN0
  6
HIDDEN
 62
3
100
AcDbLine
 10
340.6864281928192
 20
663.9142350450001
 30
0.0000000000000000
 11
337.2223265776813
 21
669.9142350450004
 31
0.0000000000000000
  0
LINE
  5
270
100
AcDbEntity
  8
MAIN0
  6
HIDDEN
 62
3
100
AcDbLine
 10
337.2223265776815
 20
669.9142350450002
 30
0.0000000000000000
 11
330.2941233474059
 21
669.9142350450002
 31
0.0000000000000000
  0
LINE
  5
271
100
AcDbEntity
  8
MAIN0
  6
HIDDEN
 62
3
100
AcDbLine
 10
330.2941233474056
 20
669.9142350449998
 30
0.0000000000000000
 11
326.8300217322680
 21
663.9142350449999
 31
0.0000000000000000
  0
DIMENSION
  5
27A
100
AcDbEntity
  8
MAIN0
  6
CONTINUOUS
 62
3
100
AcDbDimension
  2
*D19
 10
286.7582249631112
 20
523.6503973342857
 30
0.0000000000000000
 11
314.2582249631112
 21
524.1503973342857
 31
0.0000000000000000
 70
32
  3
MAIN001
100
AcDbAlignedDimension
 13
341.7582249631111
 23
584.4323832046028
 33
0.0000000000000000
 14
286.7582249631112
 24
584.4323832046030
 34
0.0000000000000000
100
AcDbRotatedDimension
1001
ACAD
1000
DSTYLE
1002
{
1070
   173
1070
     1
1070
     6
1000
_OPEN
1070
     7
1000
_OPEN
1070
    41
1040
5.000000
1002
}
  0
DIMENSION
  5
285
100
AcDbEntity
  8
MAIN0
  6
CONTINUOUS
 62
3
100
AcDbDimension
  2
*D20
 10
341.7582249631111
 20
523.6503973342857
 30
0.0000000000000000
 11
359.0538420575563
 21
524.9003973342857
 31
0.0000000000000000
 70
160
  3
MAIN001
100
AcDbAlignedDimension
 13
351.7582249631112
 23
555.9142350441962
 33
0.0000000000000000
 14
341.7582249631111
 24
584.4323832046028
 34
0.0000000000000000
100
AcDbRotatedDimension
1001
ACAD
1000
DSTYLE
1002
{
1070
   173
1070
     1
1070
     6
1000
_OPEN
1070
     7
1000
_OPEN
1070
    41
1040
5.000000
1070
   287
1070
     0
1002
}
  0
DIMENSION
  5
28E
100
AcDbEntity
  8
MAIN0
  6
CONTINUOUS
 62
3
100
AcDbDimension
  2
*D21
 10
242.8082157275007
 20
592.9142350442407
 30
0.0000000000000000
 11
242.3082157275007
 21
617.9142350442407
 31
0.0000000000000000
 70
32
  3
MAIN001
100
AcDbAlignedDimension
 13
276.6643663711179
 23
642.9142350442406
 33
0.0000000000000000
 14
276.6643663710505
 24
592.9142350442407
 34
0.0000000000000000
 50
90.00000000000000
100
AcDbRotatedDimension
1001
ACAD
1000
DSTYLE
1002
{
1070
   173
1070
     1
1070
     6
1000
_OPEN
1070
     7
1000
_OPEN
1070
    41
1040
5.000000
1002
}
  0
LEADER
  5
28F
100
AcDbEntity
  8
MAIN0
  6
CONTINUOUS
 62
3
100
AcDbLeader
  3
MAIN001
 73
     0
 75
     1
 40
7.749999761581421
 41
89.72400264644622
 76
     3
 10
282.5917356383401
 20
590.1501137179164
 30
0.0000000000000000
 10
241.0631214223559
 20
537.6634930103014
 30
0.0000000000000000
 10
236.2471215618307
 20
537.6634930103014
 30
0.0000000000000000
340
290
213
0.0000000000000000
223
-1.250000000000000
233
0.0000000000000000
1001
ACAD
1000
DSTYLE
1002
{
1070
   147
1040
0.0
1070
    77
1070
     1
1070
   173
1070
     1
1070
     6
1000
_OPEN
1070
     7
1000
_OPEN
1002
}
  0
MTEXT
  5
290
102
{ACAD_REACTORS
330
28F
102
}
100
AcDbEntity
  8
MAIN0
  6
CONTINUOUS
 62
3
100
AcDbMText
 10
146.5231189153845
 20
546.6634927718828
 30
0.0000000000000000
 40
7.749999761581421
 41
0.0000000000000000
 71
     1
 72
     1
  1
{\H0.93x;{2x5-M10 深さ20\P        DEPTH}}
 11
1.000000000000000
 21
0.0000000000000000
 31
0.0000000000000000
  7
KNJYOKO
  0
LEADER
  5
291
100
AcDbEntity
  8
MAIN0
  6
CONTINUOUS
 62
3
100
AcDbLeader
  3
MAIN001
 73
     0
 75
     1
 40
7.749999761581421
 41
89.72400264644622
 76
     3
 10
307.3227785534635
 20
413.3652665980443
 30
0.0000000000000000
 10
262.2087639177509
 20
488.0598107605516
 30
0.0000000000000000
 10
257.3927640572258
 20
488.0598107605516
 30
0.0000000000000000
340
292
213
0.0000000000000000
223
-1.250000000000000
233
0.0000000000000000
1001
ACAD
1000
DSTYLE
1002
{
1070
   147
1040
0.0
1070
    77
1070
     1
1070
   173
1070
     1
1070
     6
1000
_OPEN
1070
     7
1000
_OPEN
1002
}
  0
MTEXT
  5
292
102
{ACAD_REACTORS
330
291
102
}
100
AcDbEntity
  8
MAIN0
  6
CONTINUOUS
 62
3
100
AcDbMText
 10
167.6687614107795
 20
497.0598105221330
 30
0.0000000000000000
 40
7.749999761581421
 41
0.0000000000000000
 71
     1
 72
     1
  1
{\H0.93x;{2x2-M10 深さ20\P        DEPTH}}
 11
1.000000000000000
 21
0.0000000000000000
 31
0.0000000000000000
  7
KNJYOKO
  0
DIMENSION
  5
29B
100
AcDbEntity
  8
MAIN0
  6
CONTINUOUS
 62
3
100
AcDbDimension
  2
*D22
 10
421.7582249624701
 20
697.3451256851407
 30
0.0000000000000000
 11
440.7582249624442
 21
697.8451256851407
 31
0.0000000000000000
 70
32
  3
MAIN001
100
AcDbAlignedDimension
 13
459.7582249624182
 23
628.9142350436750
 33
0.0000000000000000
 14
421.7582249624701
 24
679.8142350436388
 34
0.0000000000000000
100
AcDbRotatedDimension
1001
ACAD
1000
DSTYLE
1002
{
1070
   173
1070
     1
1070
     6
1000
_OPEN
1070
     7
1000
_OPEN
1070
    41
1040
5.000000
1002
}
  0
CIRCLE
  5
29C
100
AcDbEntity
  8
MAIN0
  6
CONTINUOUS
 62
3
100
AcDbCircle
 10
459.7582249624182
 20
617.9142350435736
 30
0.0000000000000000
 40
5.000000000000000
  0
CIRCLE
  5
29D
100
AcDbEntity
  8
MAIN0
  6
CONTINUOUS
 62
3
100
AcDbCircle
 10
459.7582249624182
 20
617.9142350435736
 30
0.0000000000000000
 40
4.250000000000000
  0
LINE
  5
29E
100
AcDbEntity
  8
MAIN0
  6
CENTER
 62
3
100
AcDbLine
 10
422.1875388892145
 20
657.9142350435570
 30
0.0000000000000000
 11
442.4814479375853
 21
657.9142350435297
 31
0.0000000000000000
  0
LINE
  5
29F
100
AcDbEntity
  8
MAIN0
  6
CENTER
 62
3
100
AcDbLine
 10
471.4727570617122
 20
657.9142350434909
 30
0.0000000000000000
 11
491.2834751787864
 21
657.9142350434643
 31
0.0000000000000000
  0
LINE
  5
2A0
100
AcDbEntity
  8
MAIN0
  6
CENTER
 62
3
100
AcDbLine
 10
481.7582249624434
 20
647.7300650074808
 30
0.0000000000000000
 11
481.7582249624599
 21
667.5407831245570
 31
0.0000000000000000
  0
LINE
  5
2A1
100
AcDbEntity
  8
MAIN0
  6
CENTER
 62
3
100
AcDbLine
 10
431.7582249624434
 20
647.7300650075224
 30
0.0000000000000000
 11
431.7582249624599
 21
667.5407831245987
 31
0.0000000000000000
  0
CIRCLE
  5
2A2
100
AcDbEntity
  8
MAIN0
  6
CONTINUOUS
 62
3
100
AcDbCircle
 10
481.7582249624341
 20
636.9142350435714
 30
0.0000000000000000
 40
10.00000000000000
  0
CIRCLE
  5
2A3
100
AcDbEntity
  8
MAIN0
  6
CONTINUOUS
 62
3
100
AcDbCircle
 10
437.7582249624341
 20
636.9142350435759
 30
0.0000000000000000
 40
10.00000000000000
  0
CIRCLE
  5
2A4
100
AcDbEntity
  8
MAIN0
  6
HIDDEN
 62
3
100
AcDbCircle
 10
437.7582249624339
 20
636.9142350435755
 30
0.0000000000000000
 40
9.000000000000000
  0
LINE
  5
2A5
100
AcDbEntity
  8
MAIN0
  6
HIDDEN
 62
3
100
AcDbLine
 10
431.9847222705376
 20
636.9142350435755
 30
0.0000000000000000
 11
434.8714736164857
 21
631.9142350435755
 31
0.0000000000000000
  0
LINE
  5
2A6
100
AcDbEntity
  8
MAIN0
  6
HIDDEN
 62
3
100
AcDbLine
 10
434.8714736164860
 20
631.9142350435755
 30
0.0000000000000000
 11
440.6449763083823
 21
631.9142350435755
 31
0.0000000000000000
  0
LINE
  5
2A7
100
AcDbEntity
  8
MAIN0
  6
HIDDEN
 62
3
100
AcDbLine
 10
440.6449763083818
 20
631.9142350435755
 30
0.0000000000000000
 11
443.5317276543300
 21
636.9142350435755
 31
0.0000000000000000
  0
LINE
  5
2A8
100
AcDbEntity
  8
MAIN0
  6
HIDDEN
 62
3
100
AcDbLine
 10
443.5317276543302
 20
636.9142350435755
 30
0.0000000000000000
 11
440.6449763083820
 21
641.9142350435755
 31
0.0000000000000000
  0
LINE
  5
2A9
100
AcDbEntity
  8
MAIN0
  6
HIDDEN
 62
3
100
AcDbLine
 10
440.6449763083823
 20
641.9142350435755
 30
0.0000000000000000
 11
434.8714736164860
 21
641.9142350435755
 31
0.0000000000000000
  0
LINE
  5
2AA
100
AcDbEntity
  8
MAIN0
  6
HIDDEN
 62
3
100
AcDbLine
 10
434.8714736164856
 20
641.9142350435755
 30
0.0000000000000000
 11
431.9847222705374
 21
636.9142350435755
 31
0.0000000000000000
  0
CIRCLE
  5
2AB
100
AcDbEntity
  8
MAIN0
  6
HIDDEN
 62
3
100
AcDbCircle
 10
481.7582249624339
 20
636.9142350435709
 30
0.0000000000000000
 40
9.000000000000000
  0
LINE
  5
2AC
100
AcDbEntity
  8
MAIN0
  6
HIDDEN
 62
3
100
AcDbLine
 10
475.9847222705375
 20
636.9142350435709
 30
0.0000000000000000
 11
478.8714736164857
 21
631.9142350435709
 31
0.0000000000000000
  0
LINE
  5
2AD
100
AcDbEntity
  8
MAIN0
  6
HIDDEN
 62
3
100
AcDbLine
 10
478.8714736164860
 20
631.9142350435711
 30
0.0000000000000000
 11
484.6449763083823
 21
631.9142350435711
 31
0.0000000000000000
  0
LINE
  5
2AE
100
AcDbEntity
  8
MAIN0
  6
HIDDEN
 62
3
100
AcDbLine
 10
484.6449763083818
 20
631.9142350435709
 30
0.0000000000000000
 11
487.5317276543300
 21
636.9142350435709
 31
0.0000000000000000
  0
LINE
  5
2AF
100
AcDbEntity
  8
MAIN0
  6
HIDDEN
 62
3
100
AcDbLine
 10
487.5317276543301
 20
636.9142350435709
 30
0.0000000000000000
 11
484.6449763083820
 21
641.9142350435709
 31
0.0000000000000000
  0
LINE
  5
2B0
100
AcDbEntity
  8
MAIN0
  6
HIDDEN
 62
3
100
AcDbLine
 10
484.6449763083824
 20
641.9142350435711
 30
0.0000000000000000
 11
478.8714736164861
 21
641.9142350435711
 31
0.0000000000000000
  0
LINE
  5
2B1
100
AcDbEntity
  8
MAIN0
  6
HIDDEN
 62
3
100
AcDbLine
 10
478.8714736164856
 20
641.9142350435710
 30
0.0000000000000000
 11
475.9847222705374
 21
636.9142350435710
 31
0.0000000000000000
  0
CIRCLE
  5
2B2
100
AcDbEntity
  8
MAIN0
  6
CONTINUOUS
 62
3
100
AcDbCircle
 10
481.7582249624518
 20
657.9142350434704
 30
0.0000000000000000
 40
5.000000000000000
  0
CIRCLE
  5
2B3
100
AcDbEntity
  8
MAIN0
  6
CONTINUOUS
 62
3
100
AcDbCircle
 10
481.7582249624518
 20
657.9142350434704
 30
0.0000000000000000
 40
4.188101000000000
  0
LINE
  5
2B4
100
AcDbEntity
  8
MAIN0
  6
CONTINUOUS
 62
3
100
AcDbLine
 10
481.7582249624516
 20
660.8009863894181
 30
0.0000000000000000
 11
479.2582249624517
 21
659.3576107164442
 31
0.0000000000000000
  0
LINE
  5
2B5
100
AcDbEntity
  8
MAIN0
  6
CONTINUOUS
 62
3
100
AcDbLine
 10
479.2582249624518
 20
659.3576107164445
 30
0.0000000000000000
 11
479.2582249624518
 21
656.4708593704963
 31
0.0000000000000000
  0
LINE
  5
2B6
100
AcDbEntity
  8
MAIN0
  6
CONTINUOUS
 62
3
100
AcDbLine
 10
479.2582249624517
 20
656.4708593704959
 30
0.0000000000000000
 11
481.7582249624517
 21
655.0274836975218
 31
0.0000000000000000
  0
LINE
  5
2B7
100
AcDbEntity
  8
MAIN0
  6
CONTINUOUS
 62
3
100
AcDbLine
 10
481.7582249624516
 20
655.0274836975219
 30
0.0000000000000000
 11
484.2582249624516
 21
656.4708593704960
 31
0.0000000000000000
  0
LINE
  5
2B8
100
AcDbEntity
  8
MAIN0
  6
CONTINUOUS
 62
3
100
AcDbLine
 10
484.2582249624518
 20
656.4708593704963
 30
0.0000000000000000
 11
484.2582249624518
 21
659.3576107164445
 31
0.0000000000000000
  0
LINE
  5
2B9
100
AcDbEntity
  8
MAIN0
  6
CONTINUOUS
 62
3
100
AcDbLine
 10
484.2582249624517
 20
659.3576107164440
 30
0.0000000000000000
 11
481.7582249624517
 21
660.8009863894181
 31
0.0000000000000000
  0
CIRCLE
  5
2BA
100
AcDbEntity
  8
MAIN0
  6
CONTINUOUS
 62
3
100
AcDbCircle
 10
431.7582249624518
 20
657.9142350435448
 30
0.0000000000000000
 40
5.000000000000000
  0
CIRCLE
  5
2BB
100
AcDbEntity
  8
MAIN0
  6
CONTINUOUS
 62
3
100
AcDbCircle
 10
431.7582249624518
 20
657.9142350435448
 30
0.0000000000000000
 40
4.188101000000000
  0
LINE
  5
2BC
100
AcDbEntity
  8
MAIN0
  6
CONTINUOUS
 62
3
100
AcDbLine
 10
431.7582249624516
 20
660.8009863894924
 30
0.0000000000000000
 11
429.2582249624517
 21
659.3576107165185
 31
0.0000000000000000
  0
LINE
  5
2BD
100
AcDbEntity
  8
MAIN0
  6
CONTINUOUS
 62
3
100
AcDbLine
 10
429.2582249624518
 20
659.3576107165188
 30
0.0000000000000000
 11
429.2582249624518
 21
656.4708593705707
 31
0.0000000000000000
  0
LINE
  5
2BE
100
AcDbEntity
  8
MAIN0
  6
CONTINUOUS
 62
3
100
AcDbLine
 10
429.2582249624518
 20
656.4708593705702
 30
0.0000000000000000
 11
431.7582249624518
 21
655.0274836975962
 31
0.0000000000000000
  0
LINE
  5
2BF
100
AcDbEntity
  8
MAIN0
  6
CONTINUOUS
 62
3
100
AcDbLine
 10
431.7582249624516
 20
655.0274836975962
 30
0.0000000000000000
 11
434.2582249624516
 21
656.4708593705702
 31
0.0000000000000000
  0
LINE
  5
2C0
100
AcDbEntity
  8
MAIN0
  6
CONTINUOUS
 62
3
100
AcDbLine
 10
434.2582249624518
 20
656.4708593705707
 30
0.0000000000000000
 11
434.2582249624518
 21
659.3576107165188
 31
0.0000000000000000
  0
LINE
  5
2C1
100
AcDbEntity
  8
MAIN0
  6
CONTINUOUS
 62
3
100
AcDbLine
 10
434.2582249624518
 20
659.3576107165184
 30
0.0000000000000000
 11
431.7582249624518
 21
660.8009863894924
 31
0.0000000000000000
  0
LINE
  5
2C2
100
AcDbEntity
  8
MAIN0
  6
CENTER
 62
3
100
AcDbLine
 10
471.4727570616044
 20
577.9142350436928
 30
0.0000000000000000
 11
491.2834751786786
 21
577.9142350436659
 31
0.0000000000000000
  0
LINE
  5
2C3
100
AcDbEntity
  8
MAIN0
  6
CENTER
 62
3
100
AcDbLine
 10
481.7582249623630
 20
588.0984050796751
 30
0.0000000000000000
 11
481.7582249623260
 21
568.2876869625989
 31
0.0000000000000000
  0
LINE
  5
2C4
100
AcDbEntity
  8
MAIN0
  6
CENTER
 62
3
100
AcDbLine
 10
431.7582249623630
 20
588.0984050797683
 30
0.0000000000000000
 11
431.7582249623260
 21
568.2876869626921
 31
0.0000000000000000
  0
CIRCLE
  5
2C5
100
AcDbEntity
  8
MAIN0
  6
CONTINUOUS
 62
3
100
AcDbCircle
 10
481.7582249623829
 20
598.9142350435845
 30
0.0000000000000000
 40
10.00000000000000
  0
CIRCLE
  5
2C6
100
AcDbEntity
  8
MAIN0
  6
CONTINUOUS
 62
3
100
AcDbCircle
 10
437.7582249623829
 20
598.9142350436987
 30
0.0000000000000000
 40
10.00000000000000
  0
CIRCLE
  5
2C7
100
AcDbEntity
  8
MAIN0
  6
HIDDEN
 62
3
100
AcDbCircle
 10
437.7582249623827
 20
598.9142350436991
 30
0.0000000000000000
 40
9.000000000000000
  0
LINE
  5
2C8
100
AcDbEntity
  8
MAIN0
  6
HIDDEN
 62
3
100
AcDbLine
 10
431.9847222704865
 20
598.9142350437145
 30
0.0000000000000000
 11
434.8714736164480
 21
603.9142350437068
 31
0.0000000000000000
  0
LINE
  5
2C9
100
AcDbEntity
  8
MAIN0
  6
HIDDEN
 62
3
100
AcDbLine
 10
434.8714736164483
 20
603.9142350437069
 30
0.0000000000000000
 11
440.6449763083446
 21
603.9142350436912
 31
0.0000000000000000
  0
LINE
  5
2CA
100
AcDbEntity
  8
MAIN0
  6
HIDDEN
 62
3
100
AcDbLine
 10
440.6449763083441
 20
603.9142350436912
 30
0.0000000000000000
 11
443.5317276542788
 21
598.9142350436835
 31
0.0000000000000000
  0
LINE
  5
2CB
100
AcDbEntity
  8
MAIN0
  6
HIDDEN
 62
3
100
AcDbLine
 10
443.5317276542789
 20
598.9142350436835
 30
0.0000000000000000
 11
440.6449763083174
 21
593.9142350436912
 31
0.0000000000000000
  0
LINE
  5
2CC
100
AcDbEntity
  8
MAIN0
  6
HIDDEN
 62
3
100
AcDbLine
 10
440.6449763083176
 20
593.9142350436912
 30
0.0000000000000000
 11
434.8714736164213
 21
593.9142350437069
 31
0.0000000000000000
  0
LINE
  5
2CD
100
AcDbEntity
  8
MAIN0
  6
HIDDEN
 62
3
100
AcDbLine
 10
434.8714736164209
 20
593.9142350437066
 30
0.0000000000000000
 11
431.9847222704863
 21
598.9142350437146
 31
0.0000000000000000
  0
CIRCLE
  5
2CE
100
AcDbEntity
  8
MAIN0
  6
HIDDEN
 62
3
100
AcDbCircle
 10
481.7582249623827
 20
598.9142350435850
 30
0.0000000000000000
 40
9.000000000000000
  0
LINE
  5
2CF
100
AcDbEntity
  8
MAIN0
  6
HIDDEN
 62
3
100
AcDbLine
 10
475.9847222704864
 20
598.9142350436005
 30
0.0000000000000000
 11
478.8714736164480
 21
603.9142350435926
 31
0.0000000000000000
  0
LINE
  5
2D0
100
AcDbEntity
  8
MAIN0
  6
HIDDEN
 62
3
100
AcDbLine
 10
478.8714736164483
 20
603.9142350435925
 30
0.0000000000000000
 11
484.6449763083446
 21
603.9142350435770
 31
0.0000000000000000
  0
LINE
  5
2D1
100
AcDbEntity
  8
MAIN0
  6
HIDDEN
 62
3
100
AcDbLine
 10
484.6449763083442
 20
603.9142350435770
 30
0.0000000000000000
 11
487.5317276542788
 21
598.9142350435693
 31
0.0000000000000000
  0
LINE
  5
2D2
100
AcDbEntity
  8
MAIN0
  6
HIDDEN
 62
3
100
AcDbLine
 10
487.5317276542789
 20
598.9142350435693
 30
0.0000000000000000
 11
484.6449763083173
 21
593.9142350435770
 31
0.0000000000000000
  0
LINE
  5
2D3
100
AcDbEntity
  8
MAIN0
  6
HIDDEN
 62
3
100
AcDbLine
 10
484.6449763083176
 20
593.9142350435770
 30
0.0000000000000000
 11
478.8714736164213
 21
593.9142350435925
 31
0.0000000000000000
  0
LINE
  5
2D4
100
AcDbEntity
  8
MAIN0
  6
HIDDEN
 62
3
100
AcDbLine
 10
478.8714736164210
 20
593.9142350435925
 30
0.0000000000000000
 11
475.9847222704863
 21
598.9142350436005
 31
0.0000000000000000
  0
CIRCLE
  5
2D5
100
AcDbEntity
  8
MAIN0
  6
CONTINUOUS
 62
3
100
AcDbCircle
 10
481.7582249623440
 20
577.9142350436855
 30
0.0000000000000000
 40
5.000000000000000
  0
CIRCLE
  5
2D6
100
AcDbEntity
  8
MAIN0
  6
CONTINUOUS
 62
3
100
AcDbCircle
 10
481.7582249623440
 20
577.9142350436855
 30
0.0000000000000000
 40
4.188101000000000
  0
LINE
  5
2D7
100
AcDbEntity
  8
MAIN0
  6
CONTINUOUS
 62
3
100
AcDbLine
 10
481.7582249623360
 20
575.0274836977376
 30
0.0000000000000000
 11
479.2582249623400
 21
576.4708593707184
 31
0.0000000000000000
  0
LINE
  5
2D8
100
AcDbEntity
  8
MAIN0
  6
CONTINUOUS
 62
3
100
AcDbLine
 10
479.2582249623401
 20
576.4708593707182
 30
0.0000000000000000
 11
479.2582249623479
 21
579.3576107166664
 31
0.0000000000000000
  0
LINE
  5
2D9
100
AcDbEntity
  8
MAIN0
  6
CONTINUOUS
 62
3
100
AcDbLine
 10
479.2582249623478
 20
579.3576107166666
 30
0.0000000000000000
 11
481.7582249623517
 21
580.8009863896339
 31
0.0000000000000000
  0
LINE
  5
2DA
100
AcDbEntity
  8
MAIN0
  6
CONTINUOUS
 62
3
100
AcDbLine
 10
481.7582249623516
 20
580.8009863896339
 30
0.0000000000000000
 11
484.2582249623478
 21
579.3576107166531
 31
0.0000000000000000
  0
LINE
  5
2DB
100
AcDbEntity
  8
MAIN0
  6
CONTINUOUS
 62
3
100
AcDbLine
 10
484.2582249623479
 20
579.3576107166530
 30
0.0000000000000000
 11
484.2582249623401
 21
576.4708593707048
 31
0.0000000000000000
  0
LINE
  5
2DC
100
AcDbEntity
  8
MAIN0
  6
CONTINUOUS
 62
3
100
AcDbLine
 10
484.2582249623400
 20
576.4708593707051
 30
0.0000000000000000
 11
481.7582249623361
 21
575.0274836977376
 31
0.0000000000000000
  0
CIRCLE
  5
2DD
100
AcDbEntity
  8
MAIN0
  6
CONTINUOUS
 62
3
100
AcDbCircle
 10
431.7582249623440
 20
577.9142350437460
 30
0.0000000000000000
 40
5.000000000000000
  0
CIRCLE
  5
2DE
100
AcDbEntity
  8
MAIN0
  6
CONTINUOUS
 62
3
100
AcDbCircle
 10
431.7582249623440
 20
577.9142350437460
 30
0.0000000000000000
 40
4.188101000000000
  0
LINE
  5
2DF
100
AcDbEntity
  8
MAIN0
  6
CONTINUOUS
 62
3
100
AcDbLine
 10
431.7582249623360
 20
575.0274836977981
 30
0.0000000000000000
 11
429.2582249623400
 21
576.4708593707788
 31
0.0000000000000000
  0
LINE
  5
2E0
100
AcDbEntity
  8
MAIN0
  6
CONTINUOUS
 62
3
100
AcDbLine
 10
429.2582249623401
 20
576.4708593707787
 30
0.0000000000000000
 11
429.2582249623479
 21
579.3576107167269
 31
0.0000000000000000
  0
LINE
  5
2E1
100
AcDbEntity
  8
MAIN0
  6
CONTINUOUS
 62
3
100
AcDbLine
 10
429.2582249623478
 20
579.3576107167270
 30
0.0000000000000000
 11
431.7582249623517
 21
580.8009863896943
 31
0.0000000000000000
  0
LINE
  5
2E2
100
AcDbEntity
  8
MAIN0
  6
CONTINUOUS
 62
3
100
AcDbLine
 10
431.7582249623516
 20
580.8009863896943
 30
0.0000000000000000
 11
434.2582249623478
 21
579.3576107167135
 31
0.0000000000000000
  0
LINE
  5
2E3
100
AcDbEntity
  8
MAIN0
  6
CONTINUOUS
 62
3
100
AcDbLine
 10
434.2582249623479
 20
579.3576107167133
 30
0.0000000000000000
 11
434.2582249623401
 21
576.4708593707652
 31
0.0000000000000000
  0
LINE
  5
2E4
100
AcDbEntity
  8
MAIN0
  6
CONTINUOUS
 62
3
100
AcDbLine
 10
434.2582249623401
 20
576.4708593707653
 30
0.0000000000000000
 11
431.7582249623362
 21
575.0274836977981
 31
0.0000000000000000
  0
LINE
  5
2E5
100
AcDbEntity
  8
MAIN0
  6
CENTER
 62
3
100
AcDbLine
 10
422.1875388891067
 20
577.9142350437594
 30
0.0000000000000000
 11
442.4814479374775
 21
577.9142350437321
 31
0.0000000000000000
  0
CIRCLE
  5
2E6
100
AcDbEntity
  8
MAIN0
  6
CONTINUOUS
 62
3
100
AcDbCircle
 10
341.7582249631111
 20
642.9142350441532
 30
0.0000000000000000
 40
5.000000000000000
  0
CIRCLE
  5
2E7
100
AcDbEntity
  8
MAIN0
  6
CONTINUOUS
 62
3
100
AcDbCircle
 10
341.7582249631111
 20
642.9142350441532
 30
0.0000000000000000
 40
4.188101000000000
  0
LINE
  5
2E8
100
AcDbEntity
  8
MAIN0
  6
CONTINUOUS
 62
3
100
AcDbLine
 10
341.7582249631111
 20
645.8009863901010
 30
0.0000000000000000
 11
339.2582249631112
 21
644.3576107171271
 31
0.0000000000000000
  0
LINE
  5
2E9
100
AcDbEntity
  8
MAIN0
  6
CONTINUOUS
 62
3
100
AcDbLine
 10
339.2582249631111
 20
644.3576107171273
 30
0.0000000000000000
 11
339.2582249631111
 21
641.4708593711791
 31
0.0000000000000000
  0
LINE
  5
2EA
100
AcDbEntity
  8
MAIN0
  6
CONTINUOUS
 62
3
100
AcDbLine
 10
339.2582249631111
 20
641.4708593711788
 30
0.0000000000000000
 11
341.7582249631111
 21
640.0274836982047
 31
0.0000000000000000
  0
LINE
  5
2EB
100
AcDbEntity
  8
MAIN0
  6
CONTINUOUS
 62
3
100
AcDbLine
 10
341.7582249631111
 20
640.0274836982047
 30
0.0000000000000000
 11
344.2582249631111
 21
641.4708593711788
 31
0.0000000000000000
  0
LINE
  5
2EC
100
AcDbEntity
  8
MAIN0
  6
CONTINUOUS
 62
3
100
AcDbLine
 10
344.2582249631111
 20
641.4708593711791
 30
0.0000000000000000
 11
344.2582249631111
 21
644.3576107171273
 31
0.0000000000000000
  0
LINE
  5
2ED
100
AcDbEntity
  8
MAIN0
  6
CONTINUOUS
 62
3
100
AcDbLine
 10
344.2582249631111
 20
644.3576107171269
 30
0.0000000000000000
 11
341.7582249631111
 21
645.8009863901010
 31
0.0000000000000000
  0
CIRCLE
  5
2EE
100
AcDbEntity
  8
MAIN0
  6
CONTINUOUS
 62
3
100
AcDbCircle
 10
286.7582249631111
 20
642.9142350442276
 30
0.0000000000000000
 40
5.000000000000000
  0
CIRCLE
  5
2EF
100
AcDbEntity
  8
MAIN0
  6
CONTINUOUS
 62
3
100
AcDbCircle
 10
286.7582249631111
 20
642.9142350442276
 30
0.0000000000000000
 40
4.188101000000000
  0
LINE
  5
2F0
100
AcDbEntity
  8
MAIN0
  6
CONTINUOUS
 62
3
100
AcDbLine
 10
286.7582249631111
 20
645.8009863901752
 30
0.0000000000000000
 11
284.2582249631111
 21
644.3576107172013
 31
0.0000000000000000
  0
LINE
  5
2F1
100
AcDbEntity
  8
MAIN0
  6
CONTINUOUS
 62
3
100
AcDbLine
 10
284.2582249631111
 20
644.3576107172016
 30
0.0000000000000000
 11
284.2582249631111
 21
641.4708593712535
 31
0.0000000000000000
  0
LINE
  5
2F2
100
AcDbEntity
  8
MAIN0
  6
CONTINUOUS
 62
3
100
AcDbLine
 10
284.2582249631111
 20
641.4708593712533
 30
0.0000000000000000
 11
286.7582249631111
 21
640.0274836982792
 31
0.0000000000000000
  0
LINE
  5
2F3
100
AcDbEntity
  8
MAIN0
  6
CONTINUOUS
 62
3
100
AcDbLine
 10
286.7582249631111
 20
640.0274836982791
 30
0.0000000000000000
 11
289.2582249631111
 21
641.4708593712531
 31
0.0000000000000000
  0
LINE
  5
2F4
100
AcDbEntity
  8
MAIN0
  6
CONTINUOUS
 62
3
100
AcDbLine
 10
289.2582249631111
 20
641.4708593712535
 30
0.0000000000000000
 11
289.2582249631111
 21
644.3576107172016
 31
0.0000000000000000
  0
LINE
  5
2F5
100
AcDbEntity
  8
MAIN0
  6
CONTINUOUS
 62
3
100
AcDbLine
 10
289.2582249631111
 20
644.3576107172013
 30
0.0000000000000000
 11
286.7582249631111
 21
645.8009863901754
 31
0.0000000000000000
  0
CIRCLE
  5
2F6
100
AcDbEntity
  8
MAIN0
  6
CONTINUOUS
 62
3
100
AcDbCircle
 10
341.7582249631112
 20
592.9142350441532
 30
0.0000000000000000
 40
5.000000000000000
  0
CIRCLE
  5
2F7
100
AcDbEntity
  8
MAIN0
  6
CONTINUOUS
 62
3
100
AcDbCircle
 10
341.7582249631112
 20
592.9142350441532
 30
0.0000000000000000
 40
4.188101000000000
  0
LINE
  5
2F8
100
AcDbEntity
  8
MAIN0
  6
CONTINUOUS
 62
3
100
AcDbLine
 10
341.7582249631111
 20
595.8009863901011
 30
0.0000000000000000
 11
339.2582249631112
 21
594.3576107171271
 31
0.0000000000000000
  0
LINE
  5
2F9
100
AcDbEntity
  8
MAIN0
  6
CONTINUOUS
 62
3
100
AcDbLine
 10
339.2582249631112
 20
594.3576107171273
 30
0.0000000000000000
 11
339.2582249631112
 21
591.4708593711791
 31
0.0000000000000000
  0
LINE
  5
2FA
100
AcDbEntity
  8
MAIN0
  6
CONTINUOUS
 62
3
100
AcDbLine
 10
339.2582249631111
 20
591.4708593711789
 30
0.0000000000000000
 11
341.7582249631111
 21
590.0274836982048
 31
0.0000000000000000
  0
LINE
  5
2FB
100
AcDbEntity
  8
MAIN0
  6
CONTINUOUS
 62
3
100
AcDbLine
 10
341.7582249631111
 20
590.0274836982048
 30
0.0000000000000000
 11
344.2582249631111
 21
591.4708593711789
 31
0.0000000000000000
  0
LINE
  5
2FC
100
AcDbEntity
  8
MAIN0
  6
CONTINUOUS
 62
3
100
AcDbLine
 10
344.2582249631112
 20
591.4708593711791
 30
0.0000000000000000
 11
344.2582249631112
 21
594.3576107171273
 31
0.0000000000000000
  0
LINE
  5
2FD
100
AcDbEntity
  8
MAIN0
  6
CONTINUOUS
 62
3
100
AcDbLine
 10
344.2582249631111
 20
594.3576107171271
 30
0.0000000000000000
 11
341.7582249631111
 21
595.8009863901011
 31
0.0000000000000000
  0
CIRCLE
  5
2FE
100
AcDbEntity
  8
MAIN0
  6
CONTINUOUS
 62
3
100
AcDbCircle
 10
286.7582249631112
 20
592.9142350442276
 30
0.0000000000000000
 40
5.000000000000000
  0
CIRCLE
  5
2FF
100
AcDbEntity
  8
MAIN0
  6
CONTINUOUS
 62
3
100
AcDbCircle
 10
286.7582249631112
 20
592.9142350442276
 30
0.0000000000000000
 40
4.188101000000000
  0
LINE
  5
300
100
AcDbEntity
  8
MAIN0
  6
CONTINUOUS
 62
3
100
AcDbLine
 10
286.7582249631111
 20
595.8009863901755
 30
0.0000000000000000
 11
284.2582249631112
 21
594.3576107172014
 31
0.0000000000000000
  0
LINE
  5
301
100
AcDbEntity
  8
MAIN0
  6
CONTINUOUS
 62
3
100
AcDbLine
 10
284.2582249631112
 20
594.3576107172016
 30
0.0000000000000000
 11
284.2582249631112
 21
591.4708593712535
 31
0.0000000000000000
  0
LINE
  5
302
100
AcDbEntity
  8
MAIN0
  6
CONTINUOUS
 62
3
100
AcDbLine
 10
284.2582249631111
 20
591.4708593712533
 30
0.0000000000000000
 11
286.7582249631111
 21
590.0274836982792
 31
0.0000000000000000
  0
LINE
  5
303
100
AcDbEntity
  8
MAIN0
  6
CONTINUOUS
 62
3
100
AcDbLine
 10
286.7582249631111
 20
590.0274836982792
 30
0.0000000000000000
 11
289.2582249631111
 21
591.4708593712533
 31
0.0000000000000000
  0
LINE
  5
304
100
AcDbEntity
  8
MAIN0
  6
CONTINUOUS
 62
3
100
AcDbLine
 10
289.2582249631112
 20
591.4708593712535
 30
0.0000000000000000
 11
289.2582249631112
 21
594.3576107172016
 31
0.0000000000000000
  0
LINE
  5
305
100
AcDbEntity
  8
MAIN0
  6
CONTINUOUS
 62
3
100
AcDbLine
 10
289.2582249631111
 20
594.3576107172014
 30
0.0000000000000000
 11
286.7582249631111
 21
595.8009863901755
 31
0.0000000000000000
  0
DIMENSION
  5
310
100
AcDbEntity
  8
MAIN0
  6
CONTINUOUS
 62
3
100
AcDbDimension
  2
*D23
 10
421.7582249623670
 20
523.6503973342857
 30
0.0000000000000000
 11
414.2968977200729
 21
524.9003973342857
 31
0.0000000000000000
 70
160
  3
MAIN001
100
AcDbAlignedDimension
 13
431.7582249623260
 23
568.2876869626921
 33
0.0000000000000000
 14
421.7582249623670
 24
556.0142350436793
 34
0.0000000000000000
100
AcDbRotatedDimension
1001
ACAD
1000
DSTYLE
1002
{
1070
   173
1070
     1
1070
     6
1000
_OPEN
1070
     7
1000
_OPEN
1070
    41
1040
5.000000
1070
   287
1070
     0
1002
}
  0
DIMENSION
  5
319
100
AcDbEntity
  8
MAIN0
  6
CONTINUOUS
 62
3
100
AcDbDimension
  2
*D24
 10
431.7582249623260
 20
523.6503973342857
 30
0.0000000000000000
 11
456.7582249623260
 21
524.1503973342857
 31
0.0000000000000000
 70
32
  3
MAIN001
100
AcDbAlignedDimension
 13
481.7582249623260
 23
568.2876869625989
 33
0.0000000000000000
 14
431.7582249623260
 24
568.2876869626921
 34
0.0000000000000000
100
AcDbRotatedDimension
1001
ACAD
1000
DSTYLE
1002
{
1070
   173
1070
     1
1070
     6
1000
_OPEN
1070
     7
1000
_OPEN
1070
    41
1040
5.000000
1002
}
  0
DIMENSION
  5
322
100
AcDbEntity
  8
MAIN0
  6
CONTINUOUS
 62
3
100
AcDbDimension
  2
*D25
 10
530.4561745460751
 20
577.9142350436659
 30
0.0000000000000000
 11
529.9561745460751
 21
617.9142350435652
 31
0.0000000000000000
 70
32
  3
MAIN001
100
AcDbAlignedDimension
 13
491.2834751787864
 23
657.9142350434643
 33
0.0000000000000000
 14
491.2834751786786
 24
577.9142350436659
 34
0.0000000000000000
 50
90.00000000000000
100
AcDbRotatedDimension
1001
ACAD
1000
DSTYLE
1002
{
1070
   173
1070
     1
1070
     6
1000
_OPEN
1070
     7
1000
_OPEN
1070
    41
1040
5.000000
1002
}
  0
LEADER
  5
323
100
AcDbEntity
  8
MAIN0
  6
CONTINUOUS
 62
3
100
AcDbLeader
  3
MAIN001
 73
     0
 74
     0
 75
     1
 40
7.749999761581421
 41
49.60100142455110
 76
     3
 10
565.2406658635418
 20
328.5863470198083
 30
0.0000000000000000
 10
590.5748073535999
 20
398.1985056947250
 30
0.0000000000000000
 10
595.3888072141250
 20
398.1985056947250
 30
0.0000000000000000
340
324
213
-0.001000000000090040
223
-1.250000000000000
233
0.0000000000000000
1001
ACAD
1000
DSTYLE
1002
{
1070
   147
1040
0.0
1070
    77
1070
     1
1070
   173
1070
     1
1070
     6
1000
_OPEN
1070
     7
1000
_OPEN
1002
}
  0
MTEXT
  5
324
102
{ACAD_REACTORS
330
323
102
}
100
AcDbEntity
  8
MAIN0
  6
CONTINUOUS
 62
3
100
AcDbMText
 10
595.3898072141251
 20
407.1985054563065
 30
0.0000000000000000
 40
7.749999761581421
 41
0.0000000000000000
 71
     1
 72
     1
  1
{\H0.93x;{2×2-M10}}
 11
1.000000000000000
 21
0.0000000000000000
 31
0.0000000000000000
  7
KNJYOKO
  0
MTEXT
  5
325
100
AcDbEntity
  8
MAIN0
  6
CONTINUOUS
 62
3
100
AcDbMText
 10
672.2391414054404
 20
158.8190648519741
 30
0.0000000000000000
 40
7.749999761581421
 41
0.0000000000000000
 71
     1
 72
     1
  1
{\H0.94x;{(押さえ金具４セット付属)}}
 11
1.000000000000000
 21
0.0000000000000000
 31
0.0000000000000000
  7
KNJYOKO
  0
MTEXT
  5
326
100
AcDbEntity
  8
MAIN0
  6
CONTINUOUS
 62
3
100
AcDbMText
 10
673.3390952404059
 20
145.5924011535739
 30
0.0000000000000000
 40
7.500000000000000
 41
0.0000000000000000
 71
     1
 72
     1
  1
{\H0.63x;{(CLAMPING PARTS  ACCESSARY 4 PAIR)}}
 11
1.000000000000000
 21
0.0000000000000000
 31
0.0000000000000000
  7
STANDARD
  0
LEADER
  5
327
100
AcDbEntity
  8
MAIN0
  6
CONTINUOUS
 62
3
100
AcDbLeader
  3
MAIN001
 73
     0
 75
     1
 40
7.500000000000000
 41
65.24899827146533
 76
     3
 10
858.2677855348688
 20
326.4062502642798
 30
0.0000000000000000
 10
806.6054121126902
 20
216.9759367449813
 30
0.0000000000000000
 10
802.4044121126901
 20
216.9759367449813
 30
0.0000000000000000
340
328
213
0.0000000000000000
223
-1.250000000000000
233
0.0000000000000000
1001
ACAD
1000
DSTYLE
1002
{
1070
   147
1040
0.0
1070
    77
1070
     1
1070
   173
1070
     1
1070
     6
1000
_DOT
1070
     7
1000
_DOT
1002
}
  0
MTEXT
  5
328
102
{ACAD_REACTORS
330
327
102
}
100
AcDbEntity
  8
MAIN0
  6
CONTINUOUS
 62
3
100
AcDbMText
 10
737.1554138412248
 20
225.7259367449813
 30
0.0000000000000000
 40
7.500000000000000
 41
0.0000000000000000
 71
     1
 72
     1
  1
{\H0.61x;{六角穴付ボルト\PM16×65\PHEX,SOCKET HEAD\PCAP SCREW}}
 11
1.000000000000000
 21
0.0000000000000000
 31
0.0000000000000000
  7
KNJYOKO
  0
LEADER
  5
329
100
AcDbEntity
  8
MAIN0
  6
CONTINUOUS
 62
3
100
AcDbLeader
  3
MAIN001
 73
     0
 75
     1
 40
7.749999761581421
 41
54.74900003352761
 76
     3
 10
306.3871613048398
 20
621.6069210333324
 30
0.0000000000000000
 10
268.5347578527837
 20
696.5060340911947
 30
0.0000000000000000
 10
264.0687579844354
 20
696.5060340911947
 30
0.0000000000000000
340
32A
213
0.0000000000000000
223
-1.250000000000000
233
0.0000000000000000
1001
ACAD
1000
DSTYLE
1002
{
1070
   147
1040
0.0
1070
    77
1070
     1
1070
   173
1070
     1
1070
     6
1000
_OPEN
1070
     7
1000
_OPEN
1002
}
  0
MTEXT
  5
32A
102
{ACAD_REACTORS
330
329
102
}
100
AcDbEntity
  8
MAIN0
  6
CONTINUOUS
 62
3
100
AcDbMText
 10
209.3197579509078
 20
705.5060338527761
 30
0.0000000000000000
 40
7.749999761581421
 41
0.0000000000000000
 71
     1
 72
     1
  1
{\H0.70x;{（吊りボルト用）\P（EYE BOLT）\P}
 11
1.000000000000000
 21
0.0000000000000000
 31
0.0000000000000000
  7
KNJYOKO
  0
DIMENSION
  5
333
100
AcDbEntity
  8
MAIN0
  6
CONTINUOUS
 62
3
100
AcDbDimension
  2
*D26
 10
351.7582249624189
 20
242.9985056945955
 30
0.0000000000000000
 11
381.7582249624035
 21
243.4985056945955
 31
0.0000000000000000
 70
32
  3
MAIN001
100
AcDbAlignedDimension
 13
411.7582249623879
 23
270.0087884343689
 33
0.0000000000000000
 14
351.7582249624189
 24
369.3985056945090
 34
0.0000000000000000
100
AcDbRotatedDimension
1001
ACAD
1000
DSTYLE
1002
{
1070
   173
1070
     1
1070
     6
1000
_OPEN
1070
     7
1000
_OPEN
1070
    41
1040
5.000000
1002
}
  0
DIMENSION
  5
33C
100
AcDbEntity
  8
MAIN0
  6
CONTINUOUS
 62
3
100
AcDbDimension
  2
*D27
 10
411.7582249623879
 20
242.9985056945955
 30
0.0000000000000000
 11
524.2582249624460
 21
243.4985056945955
 31
0.0000000000000000
 70
32
  3
MAIN001
100
AcDbAlignedDimension
 13
636.7582249625040
 23
284.3985056949019
 33
0.0000000000000000
 14
411.7582249623879
 24
270.0087884343689
 34
0.0000000000000000
100
AcDbRotatedDimension
1001
ACAD
1000
DSTYLE
1002
{
1070
   173
1070
     1
1070
     6
1000
_OPEN
1070
     7
1000
_OPEN
1070
    41
1040
5.000000
1002
}
  0
DIMENSION
  5
347
100
AcDbEntity
  8
MAIN0
  6
CONTINUOUS
 62
3
100
AcDbDimension
  2
*D28
 10
746.2271425163995
 20
583.8962208338555
 30
0.0000000000000000
 11
753.7271425163991
 21
584.3962208338555
 31
0.0000000000000000
 70
32
  3
MAIN001
100
AcDbAlignedDimension
 13
761.2271425163999
 23
396.8260780793513
 33
0.0000000000000000
 14
746.2271425163995
 24
393.2260780793513
 34
0.0000000000000000
100
AcDbRotatedDimension
1001
ACAD
1000
DSTYLE
1002
{
1070
   173
1070
     1
1070
     6
1000
_OPEN
1070
     7
1000
_OPEN
1070
    41
1040
5.000000
1070
   287
1070
     0
1002
}
  0
DIMENSION
  5
350
100
AcDbEntity
  8
MAIN0
  6
CONTINUOUS
 62
3
100
AcDbDimension
  2
*D29
 10
761.2271425163988
 20
583.8962208338555
 30
0.0000000000000000
 11
776.2271425163899
 21
584.3962208338555
 31
0.0000000000000000
 70
32
  3
MAIN001
100
AcDbAlignedDimension
 13
791.2271425163810
 23
557.3260780793510
 33
0.0000000000000000
 14
761.2271425163999
 24
396.8260780793513
 34
0.0000000000000000
100
AcDbRotatedDimension
1001
ACAD
1000
DSTYLE
1002
{
1070
   173
1070
     1
1070
     6
1000
_OPEN
1070
     7
1000
_OPEN
1070
    41
1040
5.000000
1002
}
  0
DIMENSION
  5
359
100
AcDbEntity
  8
MAIN0
  6
CONTINUOUS
 62
3
100
AcDbDimension
  2
*D30
 10
791.2271425163810
 20
583.8962208338555
 30
0.0000000000000000
 11
827.2271425163781
 21
584.3962208338555
 31
0.0000000000000000
 70
32
  3
MAIN001
100
AcDbAlignedDimension
 13
863.2271425163751
 23
566.8260780793514
 33
0.0000000000000000
 14
791.2271425163810
 24
557.3260780793510
 34
0.0000000000000000
100
AcDbRotatedDimension
1001
ACAD
1000
DSTYLE
1002
{
1070
   173
1070
     1
1070
     6
1000
_OPEN
1070
     7
1000
_OPEN
1070
    41
1040
5.000000
1002
}
  0
DIMENSION
  5
362
100
AcDbEntity
  8
MAIN0
  6
CONTINUOUS
 62
3
100
AcDbDimension
  2
*D31
 10
746.2271425163995
 20
602.3724237070740
 30
0.0000000000000000
 11
804.7271425163873
 21
602.8724237070740
 31
0.0000000000000000
 70
32
  3
MAIN001
100
AcDbAlignedDimension
 13
863.2271425163751
 23
566.8260780793514
 33
0.0000000000000000
 14
746.2271425163995
 24
393.2260780793513
 34
0.0000000000000000
100
AcDbRotatedDimension
1001
ACAD
1000
DSTYLE
1002
{
1070
   173
1070
     1
1070
     6
1000
_OPEN
1070
     7
1000
_OPEN
1070
    41
1040
5.000000
1002
}
  0
DIMENSION
  5
36A
100
AcDbEntity
  8
MAIN0
  6
CONTINUOUS
 62
3
100
AcDbDimension
  2
*D32
 10
537.7582249627112
 20
283.9985056949007
 30
0.0000000000000000
 11
537.2582249627112
 21
304.4985056949356
 31
0.0000000000000000
 70
32
  3
MAIN001
100
AcDbAlignedDimension
 13
554.7582249627101
 23
324.9985056949705
 33
0.0000000000000000
 14
636.3582249625022
 24
283.9985056949007
 34
0.0000000000000000
 50
90.00000000000000
100
AcDbRotatedDimension
1001
ACAD
1000
DSTYLE
1002
{
1070
   173
1070
     1
1070
     6
1000
_OPEN
1070
     7
1000
_OPEN
1070
    41
1040
5.000000
1002
}
  0
DIMENSION
  5
373
100
AcDbEntity
  8
MAIN0
  6
CONTINUOUS
 62
3
100
AcDbDimension
  2
*D33
 10
309.7582249631656
 20
697.3451256851407
 30
0.0000000000000000
 11
330.7582249631385
 21
697.8451256851407
 31
0.0000000000000000
 70
32
  3
MAIN001
100
AcDbAlignedDimension
 13
351.7582249631112
 23
679.9142350441961
 33
0.0000000000000000
 14
309.7582249631656
 24
628.9142350441962
 34
0.0000000000000000
100
AcDbRotatedDimension
1001
ACAD
1000
DSTYLE
1002
{
1070
   173
1070
     1
1070
     6
1000
_OPEN
1070
     7
1000
_OPEN
1070
    41
1040
5.000000
1002
}
  0
DIMENSION
  5
37E
100
AcDbEntity
  8
MAIN0
  6
CONTINUOUS
 62
3
100
AcDbDimension
  2
*D34
 10
807.4837079205468
 20
318.9985056950732
 30
0.0000000000000000
 11
806.2337079205468
 21
327.9519967408486
 31
0.0000000000000000
 70
160
  3
MAIN001
100
AcDbAlignedDimension
 13
816.9091802322815
 23
313.9985056950732
 33
0.0000000000000000
 14
847.4091802322815
 24
318.9985056950732
 34
0.0000000000000000
 50
90.00000000000000
100
AcDbRotatedDimension
1001
ACAD
1000
DSTYLE
1002
{
1070
   173
1070
     1
1070
     6
1000
_OPEN
1070
     7
1000
_OPEN
1070
    41
1040
5.000000
1070
   287
1070
     0
1002
}
  0
DIMENSION
  5
387
100
AcDbEntity
  8
MAIN0
  6
CONTINUOUS
 62
3
100
AcDbDimension
  2
*D35
 10
807.4837079205468
 20
313.9985056950732
 30
0.0000000000000000
 11
806.9837079205468
 21
298.9985056950732
 31
0.0000000000000000
 70
32
  3
MAIN001
100
AcDbAlignedDimension
 13
818.6091802322816
 23
283.9985056950732
 33
0.0000000000000000
 14
816.9091802322815
 24
313.9985056950732
 34
0.0000000000000000
 50
90.00000000000000
100
AcDbRotatedDimension
1001
ACAD
1000
DSTYLE
1002
{
1070
   173
1070
     1
1070
     6
1000
_OPEN
1070
     7
1000
_OPEN
1070
    41
1040
5.000000
1002
}
  0
DIMENSION
  5
391
100
AcDbEntity
  8
MAIN0
  6
CONTINUOUS
 62
1
100
AcDbDimension
  2
*D36
 10
887.9091802322820
 20
232.9076358342037
 30
0.0000000000000000
 11
909.0506687841257
 21
234.1576358342037
 31
0.0000000000000000
 70
160
  1
\A1;15～31
  3
MAIN001
100
AcDbAlignedDimension
 13
864.9091802322810
 23
152.0349194682359
 33
0.0000000000000000
 14
887.9091802322820
 24
284.3985056950737
 34
0.0000000000000000
100
AcDbRotatedDimension
1001
ACAD
1000
DSTYLE
1002
{
1070
   173
1070
     1
1070
     6
1000
_OPEN
1070
     7
1000
_OPEN
1070
    41
1040
5.000000
1070
   287
1070
     0
1070
   340
1005
392
1002
}
  0
DIMENSION
  5
39B
100
AcDbEntity
  8
MAIN0
  6
CONTINUOUS
 62
3
100
AcDbDimension
  2
*D37
 10
60.42573918177627
 20
242.9985056945955
 30
0.0000000000000000
 11
123.4257391817760
 21
243.4985056945955
 31
0.0000000000000000
 70
32
  3
MAIN001
100
AcDbAlignedDimension
 13
186.4257391817758
 23
284.3985056941430
 33
0.0000000000000000
 14
60.42573918177627
 24
284.3985056941438
 34
0.0000000000000000
100
AcDbRotatedDimension
1001
ACAD
1000
DSTYLE
1002
{
1070
   173
1070
     1
1070
     6
1000
_OPEN
1070
     7
1000
_OPEN
1070
    41
1040
5.000000
1002
}
  0
LINE
  5
39C
100
AcDbEntity
  8
MAIN0
  6
CENTER
 62
3
100
AcDbLine
 10
731.3763959741129
 20
333.9985056930042
 30
0.0000000000000000
 11
731.3763959741129
 21
386.8260780793491
 31
0.0000000000000000
  0
LINE
  5
39D
100
AcDbEntity
  8
MAIN0
  6
CENTER
 62
3
100
AcDbLine
 10
770.4504743396187
 20
339.9487672286257
 30
0.0000000000000000
 11
770.4504743395903
 21
246.9876888479452
 31
0.0000000000000000
  0
LINE
  5
39E
100
AcDbEntity
  8
MAIN0
  6
CONTINUOUS
 62
3
100
AcDbLine
 10
747.9504743396112
 20
313.9985056951019
 30
0.0000000000000000
 11
749.6226054871431
 21
283.9985056952207
 31
0.0000000000000000
  0
LINE
  5
39F
100
AcDbEntity
  8
MAIN0
  6
CONTINUOUS
 62
3
100
AcDbLine
 10
792.9504743396101
 20
313.9985056950883
 30
0.0000000000000000
 11
791.2783431920600
 21
283.9985056952080
 31
0.0000000000000000
  0
LINE
  5
3A0
100
AcDbEntity
  8
MAIN0
  6
CONTINUOUS
 62
3
100
AcDbLine
 10
747.9504743396105
 20
313.9985056951021
 30
0.0000000000000000
 11
792.9504743396108
 21
313.9985056950883
 31
0.0000000000000000
  0
LINE
  5
3A1
100
AcDbEntity
  8
MAIN0
  6
CONTINUOUS
 62
3
100
AcDbLine
 10
749.6226054871431
 20
283.9985056952207
 30
0.0000000000000000
 11
791.2783431920599
 21
283.9985056952080
 31
0.0000000000000000
  0
DIMENSION
  5
3AA
100
AcDbEntity
  8
MAIN0
  6
CONTINUOUS
 62
3
100
AcDbDimension
  2
*D38
 10
747.9504743396105
 20
347.7714999941419
 30
0.0000000000000000
 11
770.4504743396104
 21
348.2714999941419
 31
0.0000000000000000
 70
32
  3
MAIN001
100
AcDbAlignedDimension
 13
792.9504743396102
 23
313.9985056950874
 33
0.0000000000000000
 14
747.9504743396105
 24
313.9985056951012
 34
0.0000000000000000
100
AcDbRotatedDimension
1001
ACAD
1000
DSTYLE
1002
{
1070
   173
1070
     1
1070
     6
1000
_OPEN
1070
     7
1000
_OPEN
1070
    41
1040
5.000000
1002
}
  0
DIMENSION
  5
3B3
100
AcDbEntity
  8
MAIN0
  6
CONTINUOUS
 62
3
100
AcDbDimension
  2
*D39
 10
816.9091802322816
 20
216.5950876998703
 30
0.0000000000000000
 11
852.4091802322819
 21
217.0950876998703
 31
0.0000000000000000
 70
32
  3
MAIN001
100
AcDbAlignedDimension
 13
887.9091802322820
 23
284.3985056950737
 33
0.0000000000000000
 14
816.9091802322816
 24
313.9985056950732
 34
0.0000000000000000
100
AcDbRotatedDimension
1001
ACAD
1000
DSTYLE
1002
{
1070
   173
1070
     1
1070
     6
1000
_OPEN
1070
     7
1000
_OPEN
1070
    41
1040
5.000000
1002
}
  0
DIMENSION
  5
3BC
100
AcDbEntity
  8
MAIN0
  6
CONTINUOUS
 62
3
100
AcDbDimension
  2
*D40
 10
887.9091802322820
 20
216.5950876998703
 30
0.0000000000000000
 11
950.9091802322819
 21
217.0950876998703
 31
0.0000000000000000
 70
32
  3
MAIN001
100
AcDbAlignedDimension
 13
1013.909180232282
 23
284.3985056950730
 33
0.0000000000000000
 14
887.9091802322820
 24
284.3985056950737
 34
0.0000000000000000
100
AcDbRotatedDimension
1001
ACAD
1000
DSTYLE
1002
{
1070
   173
1070
     1
1070
     6
1000
_OPEN
1070
     7
1000
_OPEN
1070
    41
1040
5.000000
1002
}
  0
INSERT
  5
3C4
100
AcDbEntity
  8
MAIN0
  6
CONTINUOUS
 62
3
100
AcDbBlockReference
  2
D41
 10
950.9091802322819
 20
273.4699117496143
 30
0.0000000000000000
 50
0.0000000000000000
  0
DIMENSION
  5
3CF
100
AcDbEntity
  8
MAIN0
  6
CONTINUOUS
 62
3
100
AcDbDimension
  2
*D42
 10
829.2828182009394
 20
185.3135668516930
 30
0.0000000000000000
 11
828.7828182009394
 21
171.0635668516931
 31
0.0000000000000000
 70
32
  3
MAIN001
100
AcDbAlignedDimension
 13
849.9091802322715
 23
156.8135668516932
 33
0.0000000000000000
 14
849.9091802322515
 24
185.3135668516930
 34
0.0000000000000000
 50
90.00000000000000
100
AcDbRotatedDimension
1001
ACAD
1000
DSTYLE
1002
{
1070
   173
1070
     1
1070
     6
1000
_OPEN
1070
     7
1000
_OPEN
1070
    41
1040
5.000000
1070
   287
1070
     0
1002
}
  0
DIMENSION
  5
3DA
100
AcDbEntity
  8
MAIN0
  6
CONTINUOUS
 62
3
100
AcDbDimension
  2
*D43
 10
906.5867274614027
 20
179.8135668516931
 30
0.0000000000000000
 11
905.3367274614027
 21
147.3373616711224
 31
0.0000000000000000
 70
160
  3
MAIN001
100
AcDbAlignedDimension
 13
879.9091802322677
 23
162.3135668516849
 33
0.0000000000000000
 14
879.9091802322554
 24
179.8135668516848
 34
0.0000000000000000
 50
90.00000000000000
100
AcDbRotatedDimension
1001
ACAD
1000
DSTYLE
1002
{
1070
   173
1070
     1
1070
     6
1000
_OPEN
1070
     7
1000
_OPEN
1070
    41
1040
5.000000
1070
   287
1070
     0
1002
}
  0
DIMENSION
  5
3E3
100
AcDbEntity
  8
MAIN0
  6
CONTINUOUS
 62
3
100
AcDbDimension
  2
*D44
 10
849.9091802322716
 20
135.5101574560812
 30
0.0000000000000000
 11
864.9091802322714
 21
136.0101574560812
 31
0.0000000000000000
 70
32
  3
MAIN001
100
AcDbAlignedDimension
 13
879.9091802322712
 23
156.8135668516849
 33
0.0000000000000000
 14
849.9091802322716
 24
156.8135668516932
 34
0.0000000000000000
100
AcDbRotatedDimension
1001
ACAD
1000
DSTYLE
1002
{
1070
   173
1070
     1
1070
     6
1000
_OPEN
1070
     7
1000
_OPEN
1070
    41
1040
5.000000
1002
}
  0
DIMENSION
  5
3EC
100
AcDbEntity
  8
MAIN0
  6
CONTINUOUS
 62
3
100
AcDbDimension
  2
*D45
 10
266.7582249623225
 20
224.9985056949238
 30
0.0000000000000000
 11
451.7582249624132
 21
225.4985056949238
 31
0.0000000000000000
 70
32
  3
MAIN001
100
AcDbAlignedDimension
 13
636.7582249625040
 23
284.3985056949019
 33
0.0000000000000000
 14
266.7582249623225
 24
284.3985056943920
 34
0.0000000000000000
100
AcDbRotatedDimension
1001
ACAD
1000
DSTYLE
1002
{
1070
   173
1070
     1
1070
     6
1000
_OPEN
1070
     7
1000
_OPEN
1070
    41
1040
5.000000
1002
}
  0
DIMENSION
  5
3F5
100
AcDbEntity
  8
MAIN0
  6
CONTINUOUS
 62
3
100
AcDbDimension
  2
*D46
 10
636.7582249625040
 20
224.9985056949238
 30
0.0000000000000000
 11
679.2582249626059
 21
225.4985056949238
 31
0.0000000000000000
 70
32
  3
MAIN001
100
AcDbAlignedDimension
 13
721.7582249627079
 23
308.9985056929546
 33
0.0000000000000000
 14
636.7582249625040
 24
284.3985056949019
 34
0.0000000000000000
100
AcDbRotatedDimension
1001
ACAD
1000
DSTYLE
1002
{
1070
   173
1070
     1
1070
     6
1000
_OPEN
1070
     7
1000
_OPEN
1070
    41
1040
5.000000
1002
}
  0
DIMENSION
  5
3FD
100
AcDbEntity
  8
MAIN0
  6
CONTINUOUS
 62
3
100
AcDbDimension
  2
*D47
 10
537.7582249627112
 20
283.9985056946088
 30
0.0000000000000000
 11
537.2582249627112
 21
304.4985056947896
 31
0.0000000000000000
 70
32
  3
MAIN001
100
AcDbAlignedDimension
 13
554.7582249627101
 23
324.9985056949705
 33
0.0000000000000000
 14
421.3582249623752
 24
283.9985056946088
 34
0.0000000000000000
 50
90.00000000000000
100
AcDbRotatedDimension
1001
ACAD
1000
DSTYLE
1002
{
1070
   173
1070
     1
1070
     6
1000
_OPEN
1070
     7
1000
_OPEN
1070
    41
1040
5.000000
1002
}
  0
DIMENSION
  5
406
100
AcDbEntity
  8
MAIN0
  6
CONTINUOUS
 62
3
100
AcDbDimension
  2
*D48
 10
537.7582249627112
 20
324.9985056949705
 30
0.0000000000000000
 11
537.2582249627112
 21
346.9985056948403
 31
0.0000000000000000
 70
32
  3
MAIN001
100
AcDbAlignedDimension
 13
497.7582249624189
 23
368.9985056947102
 33
0.0000000000000000
 14
554.7582249627101
 24
324.9985056949705
 34
0.0000000000000000
 50
90.00000000000000
100
AcDbRotatedDimension
1001
ACAD
1000
DSTYLE
1002
{
1070
   173
1070
     1
1070
     6
1000
_OPEN
1070
     7
1000
_OPEN
1070
    41
1040
5.000000
1002
}
  0
DIMENSION
  5
40F
100
AcDbEntity
  8
MAIN0
  6
CONTINUOUS
 62
3
100
AcDbDimension
  2
*D49
 10
736.7955801876738
 20
283.9985056946088
 30
0.0000000000000000
 11
736.2955801876738
 21
308.9985056937819
 31
0.0000000000000000
 70
32
  3
MAIN001
100
AcDbAlignedDimension
 13
731.3763959741131
 23
333.9985056929551
 33
0.0000000000000000
 14
636.3582249625022
 24
283.9985056949007
 34
0.0000000000000000
 50
90.00000000000000
100
AcDbRotatedDimension
1001
ACAD
1000
DSTYLE
1002
{
1070
   173
1070
     1
1070
     6
1000
_OPEN
1070
     7
1000
_OPEN
1070
    41
1040
5.000000
1002
}
  0
DIMENSION
  5
41A
100
AcDbEntity
  8
MAIN0
  6
CONTINUOUS
 62
3
100
AcDbDimension
  2
*D50
 10
402.7582249623879
 20
260.9985056945955
 30
0.0000000000000000
 11
389.8779317288709
 21
262.2485056945955
 31
0.0000000000000000
 70
160
  3
MAIN001
100
AcDbAlignedDimension
 13
420.7582249623879
 23
278.9985056945957
 33
0.0000000000000000
 14
402.7582249623879
 24
278.9985056945957
 34
0.0000000000000000
100
AcDbRotatedDimension
1001
ACAD
1000
DSTYLE
1002
{
1070
   173
1070
     1
1070
     6
1000
_OPEN
1070
     7
1000
_OPEN
1070
    41
1040
5.000000
1070
   287
1070
     0
1002
}
  0
DIMENSION
  5
423
100
AcDbEntity
  8
MAIN0
  6
CONTINUOUS
 62
3
100
AcDbDimension
  2
*D51
 10
266.7582249623224
 20
206.9985056947580
 30
0.0000000000000000
 11
326.5879264430910
 21
207.6651723614247
 31
0.0000000000000000
 70
160
  3
MAIN001
100
AcDbAlignedDimension
 13
411.7582249623879
 23
270.0087884343689
 33
0.0000000000000000
 14
266.7582249623226
 24
284.3985056943920
 34
0.0000000000000000
100
AcDbRotatedDimension
1001
ACAD
1000
DSTYLE
1002
{
1070
   173
1070
     1
1070
     6
1000
_OPEN
1070
     7
1000
_OPEN
1070
    41
1040
5.000000
1002
}
  0
DIMENSION
  5
42C
100
AcDbEntity
  8
MAIN0
  6
CONTINUOUS
 62
3
100
AcDbDimension
  2
*D52
 10
411.7582249623878
 20
206.9985056947580
 30
0.0000000000000000
 11
561.3471517232629
 21
207.6651723614247
 31
0.0000000000000000
 70
160
  3
MAIN001
100
AcDbAlignedDimension
 13
721.7582249627080
 23
308.9985056929546
 33
0.0000000000000000
 14
411.7582249623879
 24
270.0087884343689
 34
0.0000000000000000
100
AcDbRotatedDimension
1001
ACAD
1000
DSTYLE
1002
{
1070
   173
1070
     1
1070
     6
1000
_OPEN
1070
     7
1000
_OPEN
1070
    41
1040
5.000000
1002
}
  0
DIMENSION
  5
435
100
AcDbEntity
  8
MAIN0
  6
CONTINUOUS
 62
3
100
AcDbDimension
  2
*D53
 10
266.7582249623224
 20
188.9985056945955
 30
0.0000000000000000
 11
505.3365566290209
 21
189.6651723612623
 31
0.0000000000000000
 70
160
  3
MAIN001
100
AcDbAlignedDimension
 13
721.7582249627080
 23
308.9985056929546
 33
0.0000000000000000
 14
266.7582249623225
 24
284.3985056943920
 34
0.0000000000000000
100
AcDbRotatedDimension
1001
ACAD
1000
DSTYLE
1002
{
1070
   173
1070
     1
1070
     6
1000
_OPEN
1070
     7
1000
_OPEN
1070
    41
1040
5.000000
1002
}
  0
DIMENSION
  5
43E
100
AcDbEntity
  8
MAIN0
  6
CONTINUOUS
 62
3
100
AcDbDimension
  2
*D54
 10
250.7582249623226
 20
418.9985056944389
 30
0.0000000000000000
 11
250.2582249623226
 21
393.9985056944389
 31
0.0000000000000000
 70
32
  3
MAIN001
100
AcDbAlignedDimension
 13
268.1582249624190
 23
368.9985056944389
 33
0.0000000000000000
 14
267.9582249624189
 24
418.9985056944389
 34
0.0000000000000000
 50
90.00000000000000
100
AcDbRotatedDimension
1001
ACAD
1000
DSTYLE
1002
{
1070
   173
1070
     1
1070
     6
1000
_OPEN
1070
     7
1000
_OPEN
1070
    41
1040
5.000000
1002
}
  0
DIMENSION
  5
447
100
AcDbEntity
  8
MAIN0
  6
CONTINUOUS
 62
3
100
AcDbDimension
  2
*D55
 10
250.7582249623226
 20
368.9985056944389
 30
0.0000000000000000
 11
250.2582249623226
 21
326.4985056944154
 31
0.0000000000000000
 70
32
  3
MAIN001
100
AcDbAlignedDimension
 13
267.1582249623225
 23
283.9985056943920
 33
0.0000000000000000
 14
268.1582249624190
 24
368.9985056944389
 34
0.0000000000000000
 50
90.00000000000000
100
AcDbRotatedDimension
1001
ACAD
1000
DSTYLE
1002
{
1070
   173
1070
     1
1070
     6
1000
_OPEN
1070
     7
1000
_OPEN
1070
    41
1040
5.000000
1002
}
  0
DIMENSION
  5
450
100
AcDbEntity
  8
MAIN0
  6
CONTINUOUS
 62
3
100
AcDbDimension
  2
*D56
 10
234.7582249623226
 20
418.9985056944389
 30
0.0000000000000000
 11
234.2582249623226
 21
351.4985056944154
 31
0.0000000000000000
 70
32
  3
MAIN001
100
AcDbAlignedDimension
 13
267.1582249623225
 23
283.9985056943920
 33
0.0000000000000000
 14
267.9582249624189
 24
418.9985056944389
 34
0.0000000000000000
 50
90.00000000000000
100
AcDbRotatedDimension
1001
ACAD
1000
DSTYLE
1002
{
1070
   173
1070
     1
1070
     6
1000
_OPEN
1070
     7
1000
_OPEN
1070
    41
1040
5.000000
1002
}
  0
LINE
  5
451
100
AcDbEntity
  8
MAIN0
  6
CONTINUOUS
 62
3
100
AcDbLine
 10
93.42573918177590
 20
362.9985056921225
 30
0.0000000000000000
 11
93.42573918177590
 21
348.9985056921231
 31
0.0000000000000000
  0
LINE
  5
452
100
AcDbEntity
  8
MAIN0
  6
CONTINUOUS
 62
3
100
AcDbLine
 10
87.92573918177590
 20
348.9985056921225
 30
0.0000000000000000
 11
87.92573918177590
 21
333.9985056921226
 31
0.0000000000000000
  0
LINE
  5
453
100
AcDbEntity
  8
MAIN0
  6
CONTINUOUS
 62
3
100
AcDbLine
 10
87.92573918177604
 20
348.9985056921231
 30
0.0000000000000000
 11
93.42573918177587
 21
348.9985056921231
 31
0.0000000000000000
  0
LINE
  5
454
100
AcDbEntity
  8
MAIN0
  6
CONTINUOUS
 62
3
100
AcDbLine
 10
153.4257391817759
 20
348.9985056921225
 30
0.0000000000000000
 11
158.9257391817759
 21
348.9985056921225
 31
0.0000000000000000
  0
LINE
  5
455
100
AcDbEntity
  8
MAIN0
  6
CONTINUOUS
 62
3
100
AcDbLine
 10
153.4257391817759
 20
362.9985056921225
 30
0.0000000000000000
 11
153.4257391817759
 21
348.9985056921225
 31
0.0000000000000000
  0
LINE
  5
456
100
AcDbEntity
  8
MAIN0
  6
CONTINUOUS
 62
3
100
AcDbLine
 10
158.9257391817758
 20
333.9985056921225
 30
0.0000000000000000
 11
158.9257391817758
 21
348.9985056921226
 31
0.0000000000000000
  0
LINE
  5
457
100
AcDbEntity
  8
MAIN0
  6
CENTER
 62
3
100
AcDbLine
 10
309.7582249631656
 20
628.9142350441962
 30
0.0000000000000000
 11
309.7582249631656
 21
606.9142350441962
 31
0.0000000000000000
  0
CIRCLE
  5
458
100
AcDbEntity
  8
MAIN0
  6
CONTINUOUS
 62
3
100
AcDbCircle
 10
363.7582249624184
 20
617.9142350437371
 30
0.0000000000000000
 40
3.000000000000000
  0
LINE
  5
459
100
AcDbEntity
  8
MAIN0
  6
CENTER
 62
3
100
AcDbLine
 10
363.7582249624184
 20
626.9142350437371
 30
0.0000000000000000
 11
363.7582249624184
 21
608.9142350437371
 31
0.0000000000000000
  0
LINE
  5
45A
100
AcDbEntity
  8
MAIN0
  6
CENTER
 62
3
100
AcDbLine
 10
459.7582249624182
 20
628.9142350436750
 30
0.0000000000000000
 11
459.7582249624182
 21
606.9142350436750
 31
0.0000000000000000
  0
LINE
  5
45B
100
AcDbEntity
  8
MAIN0
  6
CONTINUOUS
 62
3
100
AcDbLine
 10
497.7582249624744
 20
685.4142350435564
 30
0.0000000000000000
 11
569.7582249630525
 21
685.4142350434593
 31
0.0000000000000000
  0
LINE
  5
45C
100
AcDbEntity
  8
MAIN0
  6
CONTINUOUS
 62
3
100
AcDbLine
 10
497.7582249623620
 20
550.4142350435562
 30
0.0000000000000000
 11
569.7582249627471
 21
550.4142350434591
 31
0.0000000000000000
  0
LINE
  5
45D
100
AcDbEntity
  8
MAIN0
  6
CONTINUOUS
 62
3
100
AcDbLine
 10
602.3582249624883
 20
551.9142350434155
 30
0.0000000000000000
 11
602.3582249625467
 21
683.9142350434155
 31
0.0000000000000000
  0
LINE
  5
45E
100
AcDbEntity
  8
MAIN0
  6
CONTINUOUS
 62
3
100
AcDbLine
 10
569.7582249630489
 20
683.9142350434594
 30
0.0000000000000000
 11
602.3582249625467
 21
683.9142350434154
 31
0.0000000000000000
  0
LINE
  5
45F
100
AcDbEntity
  8
MAIN0
  6
CONTINUOUS
 62
3
100
AcDbLine
 10
569.7582249627503
 20
551.9142350434594
 30
0.0000000000000000
 11
602.3582249624881
 21
551.9142350434154
 31
0.0000000000000000
  0
LINE
  5
460
100
AcDbEntity
  8
MAIN0
  6
CONTINUOUS
 62
3
100
AcDbLine
 10
569.7582249627471
 20
550.4142350434593
 30
0.0000000000000000
 11
569.7582249630525
 21
685.4142350434594
 31
0.0000000000000000
  0
LINE
  5
461
100
AcDbEntity
  8
MAIN0
  6
CONTINUOUS
 62
3
100
AcDbLine
 10
639.7582249622926
 20
553.4142350433650
 30
0.0000000000000000
 11
639.7582249621958
 21
682.4142350433650
 31
0.0000000000000000
  0
LINE
  5
462
100
AcDbEntity
  8
MAIN0
  6
CONTINUOUS
 62
3
100
AcDbLine
 10
602.3582249625461
 20
682.4142350434154
 30
0.0000000000000000
 11
639.7582249621958
 21
682.4142350433649
 31
0.0000000000000000
  0
LINE
  5
463
100
AcDbEntity
  8
MAIN0
  6
CONTINUOUS
 62
3
100
AcDbLine
 10
602.3582249624890
 20
553.4142350434153
 30
0.0000000000000000
 11
639.7582249622924
 21
553.4142350433649
 31
0.0000000000000000
  0
LINE
  5
464
100
AcDbEntity
  8
MAIN0
  6
CONTINUOUS
 62
3
100
AcDbLine
 10
639.7582249621967
 20
680.9142350433649
 30
0.0000000000000000
 11
671.7582249634095
 21
680.9142350433218
 31
0.0000000000000000
  0
LINE
  5
465
100
AcDbEntity
  8
MAIN0
  6
CONTINUOUS
 62
3
100
AcDbLine
 10
639.7582249622914
 20
554.9142350433649
 30
0.0000000000000000
 11
671.7582249631731
 21
554.9142350433217
 31
0.0000000000000000
  0
LINE
  5
466
100
AcDbEntity
  8
MAIN0
  6
CONTINUOUS
 62
3
100
AcDbLine
 10
674.7582249633631
 20
655.4142350433178
 30
0.0000000000000000
 11
677.7582249623272
 21
655.4142350433137
 31
0.0000000000000000
  0
LINE
  5
467
100
AcDbEntity
  8
MAIN0
  6
CONTINUOUS
 62
3
100
AcDbLine
 10
674.7582249632194
 20
580.4142350433178
 30
0.0000000000000000
 11
677.7582249623920
 21
580.4142350433137
 31
0.0000000000000000
  0
LINE
  5
468
100
AcDbEntity
  8
MAIN0
  6
CONTINUOUS
 62
3
100
AcDbLine
 10
677.7582249623920
 20
580.4142350433140
 30
0.0000000000000000
 11
677.7582249623272
 21
655.4142350433139
 31
0.0000000000000000
  0
LINE
  5
469
100
AcDbEntity
  8
MAIN0
  6
CONTINUOUS
 62
3
100
AcDbLine
 10
671.7582249631731
 20
554.9142350433220
 30
0.0000000000000000
 11
671.7582249632604
 21
601.4513230228102
 31
0.0000000000000000
  0
LINE
  5
46A
100
AcDbEntity
  8
MAIN0
  6
CONTINUOUS
 62
3
100
AcDbLine
 10
671.7582249633222
 20
634.3771470603687
 30
0.0000000000000000
 11
671.7582249634095
 21
680.9142350433220
 31
0.0000000000000000
  0
LINE
  5
46B
100
AcDbEntity
  8
MAIN0
  6
CONTINUOUS
 62
3
100
AcDbLine
 10
702.7582249617299
 20
579.5142350433598
 30
0.0000000000000000
 11
702.7582249616386
 21
656.3142350433593
 31
0.0000000000000000
  0
LINE
  5
46C
100
AcDbEntity
  8
MAIN0
  6
CONTINUOUS
 62
3
100
AcDbLine
 10
702.1582249616838
 20
578.9142350433135
 30
0.0000000000000000
 11
692.7582249616842
 21
578.9142350433135
 31
0.0000000000000000
  0
LINE
  5
46D
100
AcDbEntity
  8
MAIN0
  6
CONTINUOUS
 62
3
100
AcDbLine
 10
690.7582249617158
 20
580.9142350433142
 30
0.0000000000000000
 11
692.7582249616842
 21
578.9142350433137
 31
0.0000000000000000
  0
LINE
  5
46E
100
AcDbEntity
  8
MAIN0
  6
CONTINUOUS
 62
3
100
AcDbLine
 10
702.1582249616840
 20
578.9142350433132
 30
0.0000000000000000
 11
702.7582249616841
 21
579.5142350433132
 31
0.0000000000000000
  0
LINE
  5
46F
100
AcDbEntity
  8
MAIN0
  6
CONTINUOUS
 62
3
100
AcDbLine
 10
702.1582249616838
 20
656.9142350433135
 30
0.0000000000000000
 11
692.7582249616842
 21
656.9142350433135
 31
0.0000000000000000
  0
LINE
  5
470
100
AcDbEntity
  8
MAIN0
  6
CONTINUOUS
 62
3
100
AcDbLine
 10
690.7582249617154
 20
654.9142350433128
 30
0.0000000000000000
 11
692.7582249616837
 21
656.9142350433133
 31
0.0000000000000000
  0
LINE
  5
471
100
AcDbEntity
  8
MAIN0
  6
CONTINUOUS
 62
3
100
AcDbLine
 10
702.1582249616837
 20
656.9142350433140
 30
0.0000000000000000
 11
702.7582249616837
 21
656.3142350433138
 31
0.0000000000000000
  0
LINE
  5
472
100
AcDbEntity
  8
MAIN0
  6
CONTINUOUS
 62
3
100
AcDbLine
 10
677.7582249623963
 20
654.9142350433137
 30
0.0000000000000000
 11
690.7582249617158
 21
654.9142350433137
 31
0.0000000000000000
  0
LINE
  5
473
100
AcDbEntity
  8
MAIN0
  6
CONTINUOUS
 62
3
100
AcDbLine
 10
677.7582249623224
 20
580.9142350433135
 30
0.0000000000000000
 11
690.7582249617162
 21
580.9142350433135
 31
0.0000000000000000
  0
LINE
  5
474
100
AcDbEntity
  8
MAIN0
  6
CONTINUOUS
 62
3
100
AcDbLine
 10
721.7582249616842
 20
642.9142350433137
 30
0.0000000000000000
 11
702.7582249616846
 21
642.9142350433137
 31
0.0000000000000000
  0
LINE
  5
475
100
AcDbEntity
  8
MAIN0
  6
CONTINUOUS
 62
3
100
AcDbLine
 10
721.7582249616842
 20
642.9142350433140
 30
0.0000000000000000
 11
721.7582249616842
 21
592.9142350433139
 31
0.0000000000000000
  0
LINE
  5
476
100
AcDbEntity
  8
MAIN0
  6
CONTINUOUS
 62
3
100
AcDbLine
 10
721.7582249616842
 20
592.9142350433137
 30
0.0000000000000000
 11
702.7582249616846
 21
592.9142350433137
 31
0.0000000000000000
  0
LINE
  5
477
100
AcDbEntity
  8
MAIN0
  6
CONTINUOUS
 62
3
100
AcDbLine
 10
702.7582249617041
 20
600.7095845063107
 30
0.0000000000000000
 11
692.7582249617528
 21
600.7095845063529
 31
0.0000000000000000
  0
LINE
  5
478
100
AcDbEntity
  8
MAIN0
  6
CONTINUOUS
 62
3
100
AcDbLine
 10
690.7582249617774
 20
605.9142350393925
 30
0.0000000000000000
 11
677.7582249623470
 21
605.9142350394150
 31
0.0000000000000000
  0
LINE
  5
479
100
AcDbEntity
  8
MAIN0
  6
CONTINUOUS
 62
3
100
AcDbLine
 10
690.7582249617473
 20
629.9142350475092
 30
0.0000000000000000
 11
677.7582249623712
 21
629.9142350474705
 31
0.0000000000000000
  0
LINE
  5
47A
100
AcDbEntity
  8
MAIN0
  6
CONTINUOUS
 62
3
100
AcDbLine
 10
702.7582249616639
 20
635.1188855803111
 30
0.0000000000000000
 11
692.7582249617112
 21
635.1188855803010
 31
0.0000000000000000
  0
LINE
  5
47B
100
AcDbEntity
  8
MAIN0
  6
CONTINUOUS
 62
3
100
AcDbLine
 10
690.7582249617472
 20
629.9142350475090
 30
0.0000000000000000
 11
692.7582249617107
 21
635.1188855803007
 31
0.0000000000000000
  0
LINE
  5
47C
100
AcDbEntity
  8
MAIN0
  6
CONTINUOUS
 62
3
100
AcDbLine
 10
690.7582249617773
 20
605.9142350393926
 30
0.0000000000000000
 11
692.7582249617529
 21
600.7095845063532
 31
0.0000000000000000
  0
LINE
  5
47D
100
AcDbEntity
  8
MAIN0
  6
CONTINUOUS
 62
3
100
AcDbLine
 10
692.7582249617797
 20
578.9142350433135
 30
0.0000000000000000
 11
692.7582249617529
 21
600.7095845063529
 31
0.0000000000000000
  0
LINE
  5
47E
100
AcDbEntity
  8
MAIN0
  6
CONTINUOUS
 62
3
100
AcDbLine
 10
692.7582249617109
 20
635.1188855803009
 30
0.0000000000000000
 11
692.7582249616842
 21
656.9142350433137
 31
0.0000000000000000
  0
LINE
  5
47F
100
AcDbEntity
  8
MAIN0
  6
CONTINUOUS
 62
3
100
AcDbLine
 10
690.7582249618087
 20
580.9142350433133
 30
0.0000000000000000
 11
690.7582249617775
 21
605.9142350393925
 31
0.0000000000000000
  0
LINE
  5
480
100
AcDbEntity
  8
MAIN0
  6
CONTINUOUS
 62
3
100
AcDbLine
 10
690.7582249617476
 20
629.9142350475092
 30
0.0000000000000000
 11
690.7582249617165
 21
654.9142350433135
 31
0.0000000000000000
  0
LINE
  5
481
100
AcDbEntity
  8
MAIN0
  6
CONTINUOUS
 62
3
100
AcDbLine
 10
677.7582249623713
 20
604.4513230228163
 30
0.0000000000000000
 11
674.7582249632487
 21
604.4513230228046
 31
0.0000000000000000
  0
LINE
  5
482
100
AcDbEntity
  8
MAIN0
  6
CONTINUOUS
 62
3
100
AcDbLine
 10
677.7582249623480
 20
631.3771470603703
 30
0.0000000000000000
 11
674.7582249633298
 21
631.3771470603629
 31
0.0000000000000000
  0
LINE
  5
483
100
AcDbEntity
  8
MAIN0
  6
CONTINUOUS
 62
3
100
AcDbLine
 10
671.7582249632033
 20
570.9142350417162
 30
0.0000000000000000
 11
639.7582249622794
 21
570.9142350417162
 31
0.0000000000000000
  0
LINE
  5
484
100
AcDbEntity
  8
MAIN0
  6
CONTINUOUS
 62
3
100
AcDbLine
 10
671.7582249633795
 20
664.9142350417162
 30
0.0000000000000000
 11
639.7582249622089
 21
664.9142350417163
 31
0.0000000000000000
  0
ARC
  5
485
100
AcDbEntity
  8
MAIN0
  6
CONTINUOUS
 62
3
100
AcDbCircle
 10
674.7582249632153
 20
577.4142350433178
 30
0.0000000000000000
 40
3.000000000000000
100
AcDbArc
 50
90.00000000000000
 51
180.0000000000000
  0
ARC
  5
486
100
AcDbEntity
  8
MAIN0
  6
CONTINUOUS
 62
3
100
AcDbCircle
 10
674.7582249633672
 20
658.4142350433178
 30
0.0000000000000000
 40
3.000000000000000
100
AcDbArc
 50
180.0000000000000
 51
270.0000000000000
  0
ARC
  5
487
100
AcDbEntity
  8
MAIN0
  6
CONTINUOUS
 62
3
100
AcDbCircle
 10
674.7582249632603
 20
601.4513230228044
 30
0.0000000000000000
 40
3.000000000000000
100
AcDbArc
 50
90.00000000000000
 51
180.0000000000000
  0
ARC
  5
488
100
AcDbEntity
  8
MAIN0
  6
CONTINUOUS
 62
3
100
AcDbCircle
 10
674.7582249633222
 20
634.3771470603629
 30
0.0000000000000000
 40
3.000000000000000
100
AcDbArc
 50
180.0000000000000
 51
270.0000000000000
  0
LINE
  5
489
100
AcDbEntity
  8
MAIN0
  6
CENTER
 62
3
100
AcDbLine
 10
256.7582249619147
 20
617.9142350438813
 30
0.0000000000000000
 11
517.7061747844937
 21
617.9142350435295
 31
0.0000000000000000
  0
LINE
  5
48A
100
AcDbEntity
  8
MAIN0
  6
CENTER
 62
3
100
AcDbLine
 10
532.9561745460751
 20
617.9142350435091
 30
0.0000000000000000
 11
743.9523554167545
 21
617.9142350432246
 31
0.0000000000000000
  0
CIRCLE
  5
48B
100
AcDbEntity
  8
MAIN0
  6
CONTINUOUS
 62
3
100
AcDbCircle
 10
309.7582249623879
 20
408.9985056944388
 30
0.0000000000000000
 40
5.000000000000000
  0
CIRCLE
  5
48C
100
AcDbEntity
  8
MAIN0
  6
CONTINUOUS
 62
3
100
AcDbCircle
 10
309.7582249623879
 20
408.9985056944388
 30
0.0000000000000000
 40
4.250000000000000
  0
CIRCLE
  5
48D
100
AcDbEntity
  8
MAIN0
  6
CONTINUOUS
 62
3
100
AcDbCircle
 10
309.7582249624028
 20
388.9985056944389
 30
0.0000000000000000
 40
5.000000000000000
  0
CIRCLE
  5
48E
100
AcDbEntity
  8
MAIN0
  6
CONTINUOUS
 62
3
100
AcDbCircle
 10
309.7582249624028
 20
388.9985056944389
 30
0.0000000000000000
 40
4.250000000000000
  0
ELLIPSE
  5
48F
100
AcDbEntity
  8
MAIN0
  6
CONTINUOUS
 62
3
100
AcDbEllipse
 10
754.2271425163945
 20
390.3260780793569
 30
0.0000000000000000
 11
-2.050000000000000
 21
0.0000000000000000
 31
0.0000000000000000
210
0.0000000000000000
220
0.0000000000000000
230
1.000000000000000
 40
0.8536585365853660
 41
0.0000000000000000
 42
6.283185307179586
  0
LINE
  5
490
100
AcDbEntity
  8
MAIN0
  6
CONTINUOUS
 62
3
100
AcDbLine
 10
783.2271425163794
 20
571.3260780793511
 30
0.0000000000000000
 11
783.2271425163970
 21
404.9133795088326
 31
0.0000000000000000
  0
LINE
  5
491
100
AcDbEntity
  8
MAIN0
  6
CONTINUOUS
 62
3
100
AcDbLine
 10
791.2271425163809
 20
557.3260780793510
 30
0.0000000000000000
 11
791.2271425164000
 21
375.3260780793515
 31
0.0000000000000000
  0
LINE
  5
492
100
AcDbEntity
  8
MAIN0
  6
CONTINUOUS
 62
3
100
AcDbLine
 10
797.2271425163793
 20
571.3260780793515
 30
0.0000000000000000
 11
797.2271425163802
 21
562.3260780793515
 31
0.0000000000000000
  0
LINE
  5
493
100
AcDbEntity
  8
MAIN0
  6
CONTINUOUS
 62
3
100
AcDbLine
 10
794.7271425163792
 20
573.8260780793512
 30
0.0000000000000000
 11
785.7271425163792
 21
573.8260780793512
 31
0.0000000000000000
  0
LINE
  5
494
100
AcDbEntity
  8
MAIN0
  6
CONTINUOUS
 62
3
100
AcDbLine
 10
794.7271425163802
 20
559.8260780793512
 30
0.0000000000000000
 11
793.7271425163809
 21
559.8260780793512
 31
0.0000000000000000
  0
LINE
  5
495
100
AcDbEntity
  8
MAIN0
  6
CONTINUOUS
 62
3
100
AcDbLine
 10
761.2271425163996
 20
379.8260780793513
 30
0.0000000000000000
 11
746.8271425163995
 21
379.8260780793512
 31
0.0000000000000000
  0
LINE
  5
496
100
AcDbEntity
  8
MAIN0
  6
CONTINUOUS
 62
3
100
AcDbLine
 10
770.2271425163999
 20
376.8260780793513
 30
0.0000000000000000
 11
761.2271425163998
 21
376.8260780793513
 31
0.0000000000000000
  0
LINE
  5
497
100
AcDbEntity
  8
MAIN0
  6
CONTINUOUS
 62
3
100
AcDbLine
 10
761.2271425163985
 20
386.8260780793512
 30
0.0000000000000000
 11
761.2271425163997
 21
376.8260780793512
 31
0.0000000000000000
  0
LINE
  5
498
100
AcDbEntity
  8
MAIN0
  6
CONTINUOUS
 62
3
100
AcDbLine
 10
746.2271425163987
 20
386.8260780793513
 30
0.0000000000000000
 11
746.2271425163993
 21
380.4260780793514
 31
0.0000000000000000
  0
LINE
  5
499
100
AcDbEntity
  8
MAIN0
  6
CONTINUOUS
 62
3
100
AcDbLine
 10
788.7271425164000
 20
372.8260780793513
 30
0.0000000000000000
 11
785.1553457466679
 21
372.8260780793513
 31
0.0000000000000000
  0
LINE
  5
49A
100
AcDbEntity
  8
MAIN0
  6
CONTINUOUS
 62
3
100
AcDbLine
 10
770.2271425163985
 20
386.8260780793510
 30
0.0000000000000000
 11
770.2271425163997
 21
376.8260780793510
 31
0.0000000000000000
  0
LINE
  5
49B
100
AcDbEntity
  8
MAIN0
  6
CONTINUOUS
 62
3
100
AcDbLine
 10
746.2271425163995
 20
380.4260780793513
 30
0.0000000000000000
 11
746.8271425163995
 21
379.8260780793512
 31
0.0000000000000000
  0
LINE
  5
49C
100
AcDbEntity
  8
MAIN0
  6
CONTINUOUS
 62
3
100
AcDbLine
 10
770.2271425163999
 20
376.8260780793474
 30
0.0000000000000000
 11
784.8374293778803
 21
372.9112635136286
 31
0.0000000000000000
  0
LINE
  5
49D
100
AcDbEntity
  8
MAIN0
  6
CONTINUOUS
 62
3
100
AcDbLine
 10
746.2271425163988
 20
386.8260780793511
 30
0.0000000000000000
 11
761.2271425163988
 21
386.8260780793512
 31
0.0000000000000000
  0
LINE
  5
49E
100
AcDbEntity
  8
MAIN0
  6
CONTINUOUS
 62
3
100
AcDbLine
 10
761.2271425163995
 20
393.8260780793513
 30
0.0000000000000000
 11
746.8271425163994
 21
393.8260780793513
 31
0.0000000000000000
  0
LINE
  5
49F
100
AcDbEntity
  8
MAIN0
  6
CONTINUOUS
 62
3
100
AcDbLine
 10
770.2271425163998
 20
396.8260780793513
 30
0.0000000000000000
 11
761.2271425163997
 21
396.8260780793513
 31
0.0000000000000000
  0
LINE
  5
4A0
100
AcDbEntity
  8
MAIN0
  6
CONTINUOUS
 62
3
100
AcDbLine
 10
761.2271425163988
 20
386.8260780793513
 30
0.0000000000000000
 11
761.2271425163999
 21
396.8260780793513
 31
0.0000000000000000
  0
LINE
  5
4A1
100
AcDbEntity
  8
MAIN0
  6
CONTINUOUS
 62
3
100
AcDbLine
 10
746.2271425163988
 20
386.8260780793513
 30
0.0000000000000000
 11
746.2271425163995
 21
393.2260780793513
 31
0.0000000000000000
  0
LINE
  5
4A2
100
AcDbEntity
  8
MAIN0
  6
CONTINUOUS
 62
3
100
AcDbLine
 10
770.2271425163988
 20
386.8260780793513
 30
0.0000000000000000
 11
770.2271425163998
 21
396.8260780793513
 31
0.0000000000000000
  0
LINE
  5
4A3
100
AcDbEntity
  8
MAIN0
  6
CONTINUOUS
 62
3
100
AcDbLine
 10
746.2271425163996
 20
393.2260780793511
 30
0.0000000000000000
 11
746.8271425163997
 21
393.8260780793512
 31
0.0000000000000000
  0
LINE
  5
4A4
100
AcDbEntity
  8
MAIN0
  6
CONTINUOUS
 62
3
100
AcDbLine
 10
770.2271425163997
 20
396.8260780793554
 30
0.0000000000000000
 11
778.7800567870112
 21
399.1178245510972
 31
0.0000000000000000
  0
ARC
  5
4A5
100
AcDbEntity
  8
MAIN0
  6
CONTINUOUS
 62
3
100
AcDbCircle
 10
777.2271425163970
 20
404.9133795088316
 30
0.0000000000000000
 40
6.000000000000000
100
AcDbArc
 50
284.9999999999930
 51
360.0000000000001
  0
ARC
  5
4A6
100
AcDbEntity
  8
MAIN0
  6
CONTINUOUS
 62
3
100
AcDbCircle
 10
788.7271425164001
 20
375.3260780793514
 30
0.0000000000000000
 40
2.500000000000000
100
AcDbArc
 50
270.0000000000001
 51
360.0000000000001
  0
ARC
  5
4A7
100
AcDbEntity
  8
MAIN0
  6
CONTINUOUS
 62
3
100
AcDbCircle
 10
785.4844769906363
 20
375.3260780793514
 30
0.0000000000000000
 40
2.500000000000000
100
AcDbArc
 50
255.0000000000070
 51
270.0000000000001
  0
ARC
  5
4A8
100
AcDbEntity
  8
MAIN0
  6
CONTINUOUS
 62
3
100
AcDbCircle
 10
785.7271425163794
 20
571.3260780793512
 30
0.0000000000000000
 40
2.500000000000000
100
AcDbArc
 50
90.00000000000007
 51
180.0000000000001
  0
ARC
  5
4A9
100
AcDbEntity
  8
MAIN0
  6
CONTINUOUS
 62
3
100
AcDbCircle
 10
793.7271425163808
 20
557.3260780793514
 30
0.0000000000000000
 40
2.500000000000000
100
AcDbArc
 50
90.00000000000007
 51
180.0000000000001
  0
ARC
  5
4AA
100
AcDbEntity
  8
MAIN0
  6
CONTINUOUS
 62
3
100
AcDbCircle
 10
785.7271425163794
 20
571.3260780793514
 30
0.0000000000000000
 40
2.500000000000000
100
AcDbArc
 50
90.00000000000007
 51
180.0000000000001
  0
ARC
  5
4AB
100
AcDbEntity
  8
MAIN0
  6
CONTINUOUS
 62
3
100
AcDbCircle
 10
793.7271425163810
 20
557.3260780793514
 30
0.0000000000000000
 40
2.500000000000000
100
AcDbArc
 50
90.00000000000007
 51
180.0000000000001
  0
ARC
  5
4AC
100
AcDbEntity
  8
MAIN0
  6
CONTINUOUS
 62
3
100
AcDbCircle
 10
794.7271425163794
 20
571.3260780793514
 30
0.0000000000000000
 40
2.500000000000000
100
AcDbArc
 50
7.633331235512440e-014
 51
90.00000000000007
  0
ARC
  5
4AD
100
AcDbEntity
  8
MAIN0
  6
CONTINUOUS
 62
3
100
AcDbCircle
 10
794.7271425163804
 20
562.3260780793514
 30
0.0000000000000000
 40
2.500000000000000
100
AcDbArc
 50
270.0000000000001
 51
360.0000000000001
  0
LINE
  5
4AE
100
AcDbEntity
  8
MAIN1
  6
CONTINUOUS
 62
7
100
AcDbLine
 10
797.7271425163799
 20
559.8260780793514
 30
0.0000000000000000
 11
797.7271425163799
 21
561.9270985937849
 31
0.0000000000000000
  0
LINE
  5
4AF
100
AcDbEntity
  8
MAIN1
  6
CONTINUOUS
 62
7
100
AcDbLine
 10
797.2271425163799
 20
560.3260780793512
 30
0.0000000000000000
 11
797.2271425163799
 21
573.3260780793512
 31
0.0000000000000000
  0
LINE
  5
4B0
100
AcDbEntity
  8
MAIN1
  6
CONTINUOUS
 62
7
100
AcDbLine
 10
797.7271425163799
 20
559.8260780793514
 30
0.0000000000000000
 11
804.7271425163799
 21
559.8260780793514
 31
0.0000000000000000
  0
LINE
  5
4B1
100
AcDbEntity
  8
MAIN1
  6
CONTINUOUS
 62
7
100
AcDbLine
 10
797.7271425163801
 20
573.8260780793513
 30
0.0000000000000000
 11
804.7271425163801
 21
573.8260780793514
 31
0.0000000000000000
  0
LINE
  5
4B2
100
AcDbEntity
  8
MAIN1
  6
CONTINUOUS
 62
7
100
AcDbLine
 10
797.2271425163800
 20
560.3260780793512
 30
0.0000000000000000
 11
797.7271425163799
 21
559.8260780793514
 31
0.0000000000000000
  0
LINE
  5
4B3
100
AcDbEntity
  8
MAIN1
  6
CONTINUOUS
 62
7
100
AcDbLine
 10
804.7271425163800
 20
559.8260780793514
 30
0.0000000000000000
 11
805.2271425163800
 21
560.3260780793513
 31
0.0000000000000000
  0
LINE
  5
4B4
100
AcDbEntity
  8
MAIN1
  6
CONTINUOUS
 62
7
100
AcDbLine
 10
804.7271425163798
 20
573.8260780793512
 30
0.0000000000000000
 11
805.2271425163797
 21
573.3260780793514
 31
0.0000000000000000
  0
LINE
  5
4B5
100
AcDbEntity
  8
MAIN1
  6
CONTINUOUS
 62
7
100
AcDbLine
 10
797.7271425163798
 20
573.8260780793512
 30
0.0000000000000000
 11
797.2271425163799
 21
573.3260780793512
 31
0.0000000000000000
  0
LINE
  5
4B6
100
AcDbEntity
  8
MAIN1
  6
CONTINUOUS
 62
7
100
AcDbLine
 10
797.2271425163799
 20
571.7250575649176
 30
0.0000000000000000
 11
803.2271425163799
 21
571.7250575649176
 31
0.0000000000000000
  0
LINE
  5
4B7
100
AcDbEntity
  8
MAIN1
  6
CONTINUOUS
 62
7
100
AcDbLine
 10
797.2271425163799
 20
561.9270985937849
 30
0.0000000000000000
 11
803.2271425163799
 21
561.9270985937849
 31
0.0000000000000000
  0
LINE
  5
4B8
100
AcDbEntity
  8
MAIN1
  6
CONTINUOUS
 62
7
100
AcDbLine
 10
797.7271425163799
 20
571.7250575649176
 30
0.0000000000000000
 11
797.7271425163799
 21
573.8260780793512
 31
0.0000000000000000
  0
LINE
  5
4B9
100
AcDbEntity
  8
MAIN1
  6
CONTINUOUS
 62
7
100
AcDbLine
 10
804.7271425163799
 20
559.8260780793514
 30
0.0000000000000000
 11
804.7271425163799
 21
573.8260780793512
 31
0.0000000000000000
  0
LINE
  5
4BA
100
AcDbEntity
  8
MAIN1
  6
CONTINUOUS
 62
7
100
AcDbLine
 10
805.2271425163799
 20
573.3124997347006
 30
0.0000000000000000
 11
805.2271425163799
 21
560.3396564240020
 31
0.0000000000000000
  0
LINE
  5
4BB
100
AcDbEntity
  8
MAIN1
  6
CONTINUOUS
 62
7
100
AcDbLine
 10
859.5520356785567
 20
557.8260780793512
 30
0.0000000000000000
 11
823.2271425163799
 21
557.8260780793512
 31
0.0000000000000000
  0
LINE
  5
4BC
100
AcDbEntity
  8
MAIN1
  6
CONTINUOUS
 62
7
100
AcDbLine
 10
859.5520356785567
 20
575.8260780793514
 30
0.0000000000000000
 11
823.2271425163799
 21
575.8260780793514
 31
0.0000000000000000
  0
LINE
  5
4BD
100
AcDbEntity
  8
MAIN1
  6
CONTINUOUS
 62
7
100
AcDbLine
 10
806.7383904849839
 20
558.7421198588734
 30
0.0000000000000000
 11
823.2271425163798
 21
557.8260780793512
 31
0.0000000000000000
  0
LINE
  5
4BE
100
AcDbEntity
  8
MAIN1
  6
CONTINUOUS
 62
7
100
AcDbLine
 10
823.2271425163801
 20
575.8260780793514
 30
0.0000000000000000
 11
806.7383904849841
 21
574.9100362998292
 31
0.0000000000000000
  0
ARC
  5
4BF
100
AcDbEntity
  8
MAIN1
  6
CONTINUOUS
 62
7
100
AcDbCircle
 10
833.2271425163799
 20
566.8260780793512
 30
0.0000000000000000
 40
30.00000000000000
100
AcDbArc
 50
347.1604115930955
 51
372.8395884069045
  0
ARC
  5
4C0
100
AcDbEntity
  8
MAIN1
  6
CONTINUOUS
 62
7
100
AcDbCircle
 10
859.5520356785567
 20
560.8260780793512
 30
0.0000000000000000
 40
3.000000000000000
100
AcDbArc
 50
270.0000000000000
 51
347.1604115930957
  0
ARC
  5
4C1
100
AcDbEntity
  8
MAIN1
  6
CONTINUOUS
 62
7
100
AcDbCircle
 10
859.5520356785567
 20
572.8260780793514
 30
0.0000000000000000
 40
3.000000000000000
100
AcDbArc
 50
12.83958840690469
 51
89.99999999999946
  0
ARC
  5
4C2
100
AcDbEntity
  8
MAIN1
  6
CONTINUOUS
 62
7
100
AcDbCircle
 10
806.8271425163800
 20
560.3396564240020
 30
0.0000000000000000
 40
1.600000000000000
100
AcDbArc
 50
180.0000000000000
 51
266.8201698801350
  0
ARC
  5
4C3
100
AcDbEntity
  8
MAIN1
  6
CONTINUOUS
 62
7
100
AcDbCircle
 10
806.8271425163800
 20
573.3124997347006
 30
0.0000000000000000
 40
1.600000000000000
100
AcDbArc
 50
93.17983011986493
 51
179.9999999999999
  0
LINE
  5
4C4
100
AcDbEntity
  8
MAIN1
  6
CONTINUOUS
 62
7
100
AcDbLine
 10
803.2271425163799
 20
561.9270985937849
 30
0.0000000000000000
 11
803.2271425163799
 21
571.7250575649176
 31
0.0000000000000000
  0
LINE
  5
4C5
100
AcDbEntity
  8
MAIN3
  6
CONTINUOUS
 62
3
100
AcDbLine
 10
797.2271425163800
 20
561.9270985937851
 30
0.0000000000000000
 11
803.2271425163801
 21
571.7250575649180
 31
0.0000000000000000
  0
LINE
  5
4C6
100
AcDbEntity
  8
MAIN3
  6
CONTINUOUS
 62
3
100
AcDbLine
 10
797.2271425163802
 20
571.7250575649177
 30
0.0000000000000000
 11
803.2271425163802
 21
561.9270985937851
 31
0.0000000000000000
  0
LINE
  5
4C7
100
AcDbEntity
  8
MAIN1
  6
CONTINUOUS
 62
7
100
AcDbLine
 10
823.2271425163799
 20
575.8260780793514
 30
0.0000000000000000
 11
823.2271425163799
 21
557.8260780793512
 31
0.0000000000000000
  0
LINE
  5
4C8
100
AcDbEntity
  8
MAIN0
  6
CONTINUOUS
 62
3
100
AcDbLine
 10
893.9091802322816
 20
304.9985056950732
 30
0.0000000000000000
 11
887.9091802322815
 21
304.9985056950732
 31
0.0000000000000000
  0
LINE
  5
4C9
100
AcDbEntity
  8
MAIN0
  6
CONTINUOUS
 62
3
100
AcDbLine
 10
893.9091802322816
 20
304.9985056950732
 30
0.0000000000000000
 11
893.9091802322816
 21
313.9985056950732
 31
0.0000000000000000
  0
LINE
  5
4CA
100
AcDbEntity
  8
MAIN0
  6
CONTINUOUS
 62
3
100
AcDbLine
 10
887.9091802322815
 20
293.9985056950732
 30
0.0000000000000000
 11
887.9091802322815
 21
304.9985056950733
 31
0.0000000000000000
  0
LINE
  5
4CB
100
AcDbEntity
  8
MAIN0
  6
CONTINUOUS
 62
3
100
AcDbLine
 10
893.9091802322816
 20
313.9985056950732
 30
0.0000000000000000
 11
816.9091802322815
 21
313.9985056950732
 31
0.0000000000000000
  0
LINE
  5
4CC
100
AcDbEntity
  8
MAIN0
  6
CONTINUOUS
 62
3
100
AcDbLine
 10
887.9091802322815
 20
293.9985056950732
 30
0.0000000000000000
 11
840.4070478168109
 21
293.9985056950732
 31
0.0000000000000000
  0
LINE
  5
4CD
100
AcDbEntity
  8
MAIN0
  6
CONTINUOUS
 62
3
100
AcDbLine
 10
816.9091802322816
 20
313.9985056950731
 30
0.0000000000000000
 11
818.6091802322817
 21
283.9985056950733
 31
0.0000000000000000
  0
LINE
  5
4CE
100
AcDbEntity
  8
MAIN0
  6
CONTINUOUS
 62
3
100
AcDbLine
 10
833.6091802226437
 20
283.9985056950727
 30
0.0000000000000000
 11
834.4982012987413
 21
289.0403947610958
 31
0.0000000000000000
  0
ARC
  5
4CF
100
AcDbEntity
  8
MAIN0
  6
CONTINUOUS
 62
3
100
AcDbCircle
 10
840.4070478168109
 20
287.9985056950733
 30
0.0000000000000000
 40
6.000000000000000
100
AcDbArc
 50
90.00000000000000
 51
169.9999999997949
  0
LINE
  5
4D0
100
AcDbEntity
  8
MAIN0
  6
CONTINUOUS
 62
3
100
AcDbLine
 10
833.6091802226437
 20
283.9985056950732
 30
0.0000000000000000
 11
818.6091802322816
 21
283.9985056950732
 31
0.0000000000000000
  0
LINE
  5
4D1
100
AcDbEntity
  8
MAIN0
  6
CENTER
 62
3
100
AcDbLine
 10
864.9091802322810
 20
152.0349194682359
 30
0.0000000000000000
 11
864.9091802322821
 21
340.9985056950732
 31
0.0000000000000000
  0
LINE
  5
4D2
100
AcDbEntity
  8
MAIN0
  6
CONTINUOUS
 62
3
100
AcDbLine
 10
882.4091802322815
 20
318.9985056950732
 30
0.0000000000000000
 11
847.4091802322815
 21
318.9985056950732
 31
0.0000000000000000
  0
LINE
  5
4D3
100
AcDbEntity
  8
MAIN0
  6
CONTINUOUS
 62
3
100
AcDbLine
 10
882.4091802322815
 20
313.9985056950732
 30
0.0000000000000000
 11
882.4091802322815
 21
318.9985056950732
 31
0.0000000000000000
  0
LINE
  5
4D4
100
AcDbEntity
  8
MAIN0
  6
CONTINUOUS
 62
3
100
AcDbLine
 10
847.4091802322815
 20
313.9985056950732
 30
0.0000000000000000
 11
847.4091802322815
 21
318.9985056950732
 31
0.0000000000000000
  0
LINE
  5
4D5
100
AcDbEntity
  8
MAIN0
  6
CONTINUOUS
 62
3
100
AcDbLine
 10
876.9091802322815
 20
318.9985056950732
 30
0.0000000000000000
 11
876.9091802322815
 21
333.3985056950731
 31
0.0000000000000000
  0
LINE
  5
4D6
100
AcDbEntity
  8
MAIN0
  6
CONTINUOUS
 62
3
100
AcDbLine
 10
876.9091802322818
 20
333.3985056950733
 30
0.0000000000000000
 11
874.1378989401715
 21
334.9985056950733
 31
0.0000000000000000
  0
LINE
  5
4D7
100
AcDbEntity
  8
MAIN0
  6
CONTINUOUS
 62
3
100
AcDbLine
 10
874.1378989401713
 20
334.9985056950732
 30
0.0000000000000000
 11
855.6804615243917
 21
334.9985056950732
 31
0.0000000000000000
  0
LINE
  5
4D8
100
AcDbEntity
  8
MAIN0
  6
CONTINUOUS
 62
3
100
AcDbLine
 10
855.6804615243918
 20
334.9985056950732
 30
0.0000000000000000
 11
852.9091802322815
 21
333.3985056950731
 31
0.0000000000000000
  0
LINE
  5
4D9
100
AcDbEntity
  8
MAIN0
  6
CONTINUOUS
 62
3
100
AcDbLine
 10
852.9091802322815
 20
333.3985056950731
 30
0.0000000000000000
 11
852.9091802322815
 21
318.9985056950732
 31
0.0000000000000000
  0
LINE
  5
4DA
100
AcDbEntity
  8
MAIN0
  6
CONTINUOUS
 62
3
100
AcDbLine
 10
876.9091802322815
 20
333.3985056950731
 30
0.0000000000000000
 11
852.9091802322815
 21
333.3985056950731
 31
0.0000000000000000
  0
LINE
  5
4DB
100
AcDbEntity
  8
MAIN0
  6
CONTINUOUS
 62
3
100
AcDbLine
 10
872.9091802322815
 20
293.9985056950732
 30
0.0000000000000000
 11
872.9091802322815
 21
272.9985056950732
 31
0.0000000000000000
  0
LINE
  5
4DC
100
AcDbEntity
  8
MAIN0
  6
CONTINUOUS
 62
3
100
AcDbLine
 10
856.9091802322815
 20
272.9985056950732
 30
0.0000000000000000
 11
856.9091802322815
 21
293.9985056950732
 31
0.0000000000000000
  0
LINE
  5
4DD
100
AcDbEntity
  8
MAIN0
  6
CONTINUOUS
 62
3
100
AcDbLine
 10
871.8266482322816
 20
293.9985056950732
 30
0.0000000000000000
 11
871.8266482322816
 21
272.9985056950732
 31
0.0000000000000000
  0
LINE
  5
4DE
100
AcDbEntity
  8
MAIN0
  6
CONTINUOUS
 62
3
100
AcDbLine
 10
857.9917122322814
 20
293.9985056950732
 30
0.0000000000000000
 11
857.9917122322814
 21
272.9985056950732
 31
0.0000000000000000
  0
LINE
  5
4DF
100
AcDbEntity
  8
MAIN0
  6
CONTINUOUS
 62
3
100
AcDbLine
 10
782.4504743396096
 20
318.9985056951024
 30
0.0000000000000000
 11
782.4504743396096
 21
333.3985056951025
 31
0.0000000000000000
  0
LINE
  5
4E0
100
AcDbEntity
  8
MAIN0
  6
CONTINUOUS
 62
3
100
AcDbLine
 10
782.4504743396101
 20
333.3985056951025
 30
0.0000000000000000
 11
779.6791930475001
 21
334.9985056951025
 31
0.0000000000000000
  0
LINE
  5
4E1
100
AcDbEntity
  8
MAIN0
  6
CONTINUOUS
 62
3
100
AcDbLine
 10
779.6791930474997
 20
334.9985056951024
 30
0.0000000000000000
 11
761.2217556317200
 21
334.9985056951024
 31
0.0000000000000000
  0
LINE
  5
4E2
100
AcDbEntity
  8
MAIN0
  6
CONTINUOUS
 62
3
100
AcDbLine
 10
761.2217556317205
 20
334.9985056951028
 30
0.0000000000000000
 11
758.4504743396100
 21
333.3985056951027
 31
0.0000000000000000
  0
LINE
  5
4E3
100
AcDbEntity
  8
MAIN0
  6
CONTINUOUS
 62
3
100
AcDbLine
 10
758.4504743396096
 20
333.3985056951025
 30
0.0000000000000000
 11
758.4504743396096
 21
318.9985056951024
 31
0.0000000000000000
  0
LINE
  5
4E4
100
AcDbEntity
  8
MAIN0
  6
CONTINUOUS
 62
3
100
AcDbLine
 10
782.4504743396096
 20
333.3985056951025
 30
0.0000000000000000
 11
758.4504743396096
 21
333.3985056951025
 31
0.0000000000000000
  0
LINE
  5
4E5
100
AcDbEntity
  8
MAIN0
  6
CONTINUOUS
 62
3
100
AcDbLine
 10
787.9504743396097
 20
318.9985056951024
 30
0.0000000000000000
 11
752.9504743396096
 21
318.9985056951024
 31
0.0000000000000000
  0
LINE
  5
4E6
100
AcDbEntity
  8
MAIN0
  6
CONTINUOUS
 62
3
100
AcDbLine
 10
787.9504743396097
 20
313.9985056951024
 30
0.0000000000000000
 11
787.9504743396097
 21
318.9985056951024
 31
0.0000000000000000
  0
LINE
  5
4E7
100
AcDbEntity
  8
MAIN0
  6
CONTINUOUS
 62
3
100
AcDbLine
 10
752.9504743396096
 20
313.9985056951024
 30
0.0000000000000000
 11
752.9504743396096
 21
318.9985056951024
 31
0.0000000000000000
  0
LINE
  5
4E8
100
AcDbEntity
  8
MAIN0
  6
CONTINUOUS
 62
3
100
AcDbLine
 10
756.2004743395924
 20
253.9985056952175
 30
0.0000000000000000
 11
756.2004743395848
 21
264.9985056952174
 31
0.0000000000000000
  0
LINE
  5
4E9
100
AcDbEntity
  8
MAIN0
  6
CONTINUOUS
 62
3
100
AcDbLine
 10
784.7004743395924
 20
253.9985056952294
 30
0.0000000000000000
 11
784.7004743395848
 21
264.9985056952294
 31
0.0000000000000000
  0
LINE
  5
4EA
100
AcDbEntity
  8
MAIN0
  6
CONTINUOUS
 62
3
100
AcDbLine
 10
756.2004743395930
 20
253.9985056952175
 30
0.0000000000000000
 11
784.7004743395930
 21
253.9985056952294
 31
0.0000000000000000
  0
LINE
  5
4EB
100
AcDbEntity
  8
MAIN0
  6
CONTINUOUS
 62
3
100
AcDbLine
 10
761.7004743395792
 20
272.9985056952198
 30
0.0000000000000000
 11
779.2004743395792
 21
272.9985056952270
 31
0.0000000000000000
  0
LINE
  5
4EC
100
AcDbEntity
  8
MAIN0
  6
CONTINUOUS
 62
3
100
AcDbLine
 10
756.2004743395847
 20
264.9985056952175
 30
0.0000000000000000
 11
761.7004743395847
 21
264.9985056952198
 31
0.0000000000000000
  0
LINE
  5
4ED
100
AcDbEntity
  8
MAIN0
  6
CONTINUOUS
 62
3
100
AcDbLine
 10
779.2004743395850
 20
264.9985056952270
 30
0.0000000000000000
 11
784.7004743395850
 21
264.9985056952294
 31
0.0000000000000000
  0
LINE
  5
4EE
100
AcDbEntity
  8
MAIN0
  6
CONTINUOUS
 62
3
100
AcDbLine
 10
761.7004743395848
 20
264.9985056952196
 30
0.0000000000000000
 11
761.7004743395794
 21
272.9985056952196
 31
0.0000000000000000
  0
LINE
  5
4EF
100
AcDbEntity
  8
MAIN0
  6
CONTINUOUS
 62
3
100
AcDbLine
 10
779.2004743395848
 20
264.9985056952270
 30
0.0000000000000000
 11
779.2004743395794
 21
272.9985056952270
 31
0.0000000000000000
  0
LINE
  5
4F0
100
AcDbEntity
  8
MAIN0
  6
CONTINUOUS
 62
3
100
AcDbLine
 10
763.5330063395925
 20
283.9985056952265
 30
0.0000000000000000
 11
763.5330063395925
 21
272.9985056952295
 31
0.0000000000000000
  0
LINE
  5
4F1
100
AcDbEntity
  8
MAIN0
  6
CONTINUOUS
 62
3
100
AcDbLine
 10
762.4504743395926
 20
272.9985056952295
 30
0.0000000000000000
 11
762.4504743395926
 21
283.9985056952261
 31
0.0000000000000000
  0
LINE
  5
4F2
100
AcDbEntity
  8
MAIN0
  6
CONTINUOUS
 62
3
100
AcDbLine
 10
777.3679423395927
 20
283.9985056952323
 30
0.0000000000000000
 11
777.3679423395927
 21
272.9985056952295
 31
0.0000000000000000
  0
LINE
  5
4F3
100
AcDbEntity
  8
MAIN0
  6
CONTINUOUS
 62
3
100
AcDbLine
 10
778.4504743395926
 20
283.9985056952328
 30
0.0000000000000000
 11
778.4504743395926
 21
272.9985056952295
 31
0.0000000000000000
  0
LINE
  5
4F4
100
AcDbEntity
  8
MAIN0
  6
CONTINUOUS
 62
3
100
AcDbLine
 10
849.9091802322515
 20
185.3135668516930
 30
0.0000000000000000
 11
879.9091802322515
 21
185.3135668516847
 31
0.0000000000000000
  0
LINE
  5
4F5
100
AcDbEntity
  8
MAIN0
  6
HIDDEN
 62
3
100
AcDbLine
 10
849.9091802322554
 20
179.8135668516931
 30
0.0000000000000000
 11
879.9091802322554
 21
179.8135668516848
 31
0.0000000000000000
  0
LINE
  5
4F6
100
AcDbEntity
  8
MAIN0
  6
CONTINUOUS
 62
3
100
AcDbLine
 10
849.9091802322716
 20
156.8135668516932
 30
0.0000000000000000
 11
849.9091802322521
 21
185.3135668516932
 31
0.0000000000000000
  0
LINE
  5
4F7
100
AcDbEntity
  8
MAIN0
  6
CENTER
 62
3
100
AcDbLine
 10
846.6465622099721
 20
171.0635668516940
 30
0.0000000000000000
 11
883.4646595736107
 21
171.0635668516838
 31
0.0000000000000000
  0
LINE
  5
4F8
100
AcDbEntity
  8
MAIN0
  6
HIDDEN
 62
3
100
AcDbLine
 10
849.9091802322681
 20
162.3135668516932
 30
0.0000000000000000
 11
879.9091802322677
 21
162.3135668516849
 31
0.0000000000000000
  0
LINE
  5
4F9
100
AcDbEntity
  8
MAIN0
  6
CONTINUOUS
 62
3
100
AcDbLine
 10
849.9091802322715
 20
156.8135668516932
 30
0.0000000000000000
 11
879.9091802322715
 21
156.8135668516849
 31
0.0000000000000000
  0
LINE
  5
4FA
100
AcDbEntity
  8
MAIN0
  6
CONTINUOUS
 62
3
100
AcDbLine
 10
879.9091802322712
 20
156.8135668516849
 30
0.0000000000000000
 11
879.9091802322516
 21
185.3135668516849
 31
0.0000000000000000
  0
LINE
  5
4FB
100
AcDbEntity
  8
MAIN0
  6
CONTINUOUS
 62
3
100
AcDbLine
 10
849.9091802322693
 20
272.9985056950667
 30
0.0000000000000000
 11
879.9091802322693
 21
272.9985056950791
 31
0.0000000000000000
  0
LINE
  5
4FC
100
AcDbEntity
  8
MAIN0
  6
CONTINUOUS
 62
3
100
AcDbLine
 10
849.9091802322748
 20
264.9985056950668
 30
0.0000000000000000
 11
879.9091802322748
 21
264.9985056950793
 31
0.0000000000000000
  0
LINE
  5
4FD
100
AcDbEntity
  8
MAIN0
  6
CONTINUOUS
 62
3
100
AcDbLine
 10
879.9091802322820
 20
253.9985056950791
 30
0.0000000000000000
 11
879.9091802322689
 21
272.9985056950791
 31
0.0000000000000000
  0
LINE
  5
4FE
100
AcDbEntity
  8
MAIN0
  6
CONTINUOUS
 62
3
100
AcDbLine
 10
849.9091802322822
 20
253.9985056950667
 30
0.0000000000000000
 11
879.9091802322822
 21
253.9985056950791
 31
0.0000000000000000
  0
LINE
  5
4FF
100
AcDbEntity
  8
MAIN0
  6
CONTINUOUS
 62
3
100
AcDbLine
 10
849.9091802322820
 20
253.9985056950668
 30
0.0000000000000000
 11
849.9091802322689
 21
272.9985056950668
 31
0.0000000000000000
  0
LINE
  5
500
100
AcDbEntity
  8
MAIN0
  6
CONTINUOUS
 62
3
100
AcDbLine
 10
266.7582249623225
 20
284.3985056943920
 30
0.0000000000000000
 11
266.7582249623040
 21
367.9985056943915
 31
0.0000000000000000
  0
LINE
  5
501
100
AcDbEntity
  8
MAIN0
  6
CONTINUOUS
 62
3
100
AcDbLine
 10
267.7582249623035
 20
368.9985056943934
 30
0.0000000000000000
 11
299.7582249624188
 21
368.9985056944375
 31
0.0000000000000000
  0
LINE
  5
502
100
AcDbEntity
  8
MAIN0
  6
CONTINUOUS
 62
3
100
AcDbLine
 10
636.3582249625022
 20
283.9985056949007
 30
0.0000000000000000
 11
636.7582249625037
 21
284.3985056949013
 31
0.0000000000000000
  0
LINE
  5
503
100
AcDbEntity
  8
MAIN0
  6
CONTINUOUS
 62
3
100
AcDbLine
 10
266.7582249623042
 20
367.9985056943921
 30
0.0000000000000000
 11
267.7582249623039
 21
368.9985056943934
 31
0.0000000000000000
  0
LINE
  5
504
100
AcDbEntity
  8
MAIN0
  6
CONTINUOUS
 62
3
100
AcDbLine
 10
266.7582249623228
 20
284.3985056943916
 30
0.0000000000000000
 11
267.1582249623227
 21
283.9985056943922
 31
0.0000000000000000
  0
LINE
  5
505
100
AcDbEntity
  8
MAIN0
  6
CONTINUOUS
 62
3
100
AcDbLine
 10
420.7582249623879
 20
288.9985056945957
 30
0.0000000000000000
 11
402.7582249623879
 21
288.9985056945957
 31
0.0000000000000000
  0
LINE
  5
506
100
AcDbEntity
  8
MAIN0
  6
CONTINUOUS
 62
3
100
AcDbLine
 10
420.7582249623879
 20
278.9985056945957
 30
0.0000000000000000
 11
402.7582249623879
 21
278.9985056945957
 31
0.0000000000000000
  0
LINE
  5
507
100
AcDbEntity
  8
MAIN0
  6
CONTINUOUS
 62
3
100
AcDbLine
 10
402.7582249623874
 20
284.5985056945949
 30
0.0000000000000000
 11
402.1582249623878
 21
283.9985056945954
 31
0.0000000000000000
  0
LINE
  5
508
100
AcDbEntity
  8
MAIN0
  6
CONTINUOUS
 62
3
100
AcDbLine
 10
420.7582249623879
 20
284.5985056945959
 30
0.0000000000000000
 11
421.3582249623881
 21
283.9985056945957
 31
0.0000000000000000
  0
LINE
  5
509
100
AcDbEntity
  8
MAIN0
  6
CENTER
 62
3
100
AcDbLine
 10
411.7582249623879
 20
301.6612651226456
 30
0.0000000000000000
 11
411.7582249623879
 21
270.0087884343689
 31
0.0000000000000000
  0
LINE
  5
50A
100
AcDbEntity
  8
MAIN0
  6
CONTINUOUS
 62
3
100
AcDbLine
 10
267.1582249623225
 20
283.9985056943920
 30
0.0000000000000000
 11
402.1582249623745
 21
283.9985056945820
 31
0.0000000000000000
  0
LINE
  5
50B
100
AcDbEntity
  8
MAIN0
  6
CONTINUOUS
 62
3
100
AcDbLine
 10
421.3582249623752
 20
283.9985056946088
 30
0.0000000000000000
 11
636.3582249625022
 21
283.9985056949007
 31
0.0000000000000000
  0
LINE
  5
50C
100
AcDbEntity
  8
MAIN0
  6
CONTINUOUS
 62
3
100
AcDbLine
 10
420.7582249623879
 20
278.9985056945957
 30
0.0000000000000000
 11
420.7582249623879
 21
288.9985056945948
 31
0.0000000000000000
  0
LINE
  5
50D
100
AcDbEntity
  8
MAIN0
  6
CONTINUOUS
 62
3
100
AcDbLine
 10
402.7582249623879
 20
278.9985056945957
 30
0.0000000000000000
 11
402.7582249623879
 21
288.9985056945957
 31
0.0000000000000000
  0
LINE
  5
50E
100
AcDbEntity
  8
MAIN0
  6
CONTINUOUS
 62
3
100
AcDbLine
 10
639.7582249624187
 20
368.9985056948548
 30
0.0000000000000000
 11
677.7582249625809
 21
368.9985056952942
 31
0.0000000000000000
  0
LINE
  5
50F
100
AcDbEntity
  8
MAIN0
  6
CONTINUOUS
 62
3
100
AcDbLine
 10
636.7582249625641
 20
294.9985056949011
 30
0.0000000000000000
 11
668.7582249625641
 21
294.9985056949445
 31
0.0000000000000000
  0
LINE
  5
510
100
AcDbEntity
  8
MAIN0
  6
CONTINUOUS
 62
3
100
AcDbLine
 10
351.7582249624189
 20
384.2676689783371
 30
0.0000000000000000
 11
351.7582249624189
 21
369.3985056945090
 31
0.0000000000000000
  0
LINE
  5
511
100
AcDbEntity
  8
MAIN0
  6
CONTINUOUS
 62
3
100
AcDbLine
 10
351.7582249624189
 20
369.3985056945087
 30
0.0000000000000000
 11
352.1582249624189
 21
368.9985056945088
 31
0.0000000000000000
  0
LINE
  5
512
100
AcDbEntity
  8
MAIN0
  6
CONTINUOUS
 62
3
100
AcDbLine
 10
421.7582249624189
 20
368.9985056945066
 30
0.0000000000000000
 11
421.7582249624188
 21
418.7985056945087
 31
0.0000000000000000
  0
LINE
  5
513
100
AcDbEntity
  8
MAIN0
  6
CONTINUOUS
 62
3
100
AcDbLine
 10
497.2582249624189
 20
418.9985056945089
 30
0.0000000000000000
 11
421.9582249624189
 21
418.9985056945089
 31
0.0000000000000000
  0
LINE
  5
514
100
AcDbEntity
  8
MAIN0
  6
CONTINUOUS
 62
3
100
AcDbLine
 10
497.7582249624187
 20
369.3985056945088
 30
0.0000000000000000
 11
497.7582249624186
 21
418.4985056945087
 31
0.0000000000000000
  0
LINE
  5
515
100
AcDbEntity
  8
MAIN0
  6
CONTINUOUS
 62
3
100
AcDbLine
 10
351.7582249624189
 20
369.3985056945088
 30
0.0000000000000000
 11
352.1582249624189
 21
368.9985056945089
 31
0.0000000000000000
  0
LINE
  5
516
100
AcDbEntity
  8
MAIN0
  6
CONTINUOUS
 62
3
100
AcDbLine
 10
421.7582249624190
 20
418.7985056945088
 30
0.0000000000000000
 11
421.9582249624190
 21
418.9985056945088
 31
0.0000000000000000
  0
LINE
  5
517
100
AcDbEntity
  8
MAIN0
  6
CONTINUOUS
 62
3
100
AcDbLine
 10
497.2582249624187
 20
418.9985056945088
 30
0.0000000000000000
 11
497.7582249624188
 21
418.4985056945087
 31
0.0000000000000000
  0
LINE
  5
518
100
AcDbEntity
  8
MAIN0
  6
CONTINUOUS
 62
3
100
AcDbLine
 10
352.1582249624189
 20
368.9985056945089
 30
0.0000000000000000
 11
380.1582249624188
 21
368.9985056945089
 31
0.0000000000000000
  0
LINE
  5
519
100
AcDbEntity
  8
MAIN0
  6
CONTINUOUS
 62
3
100
AcDbLine
 10
636.7582249625040
 20
284.3985056949019
 30
0.0000000000000000
 11
636.7582249627448
 21
342.8985056927269
 31
0.0000000000000000
  0
LINE
  5
51A
100
AcDbEntity
  8
MAIN0
  6
CONTINUOUS
 62
3
100
AcDbLine
 10
677.7582249630266
 20
296.4985056929551
 30
0.0000000000000000
 11
677.7582249625616
 21
368.9985056930710
 31
0.0000000000000000
  0
LINE
  5
51B
100
AcDbEntity
  8
MAIN0
  6
CONTINUOUS
 62
3
100
AcDbLine
 10
318.7582249624185
 20
368.9985056944647
 30
0.0000000000000000
 11
497.7582249624189
 21
368.9985056947102
 31
0.0000000000000000
  0
LINE
  5
51C
100
AcDbEntity
  8
MAIN0
  6
CENTER
 62
3
100
AcDbLine
 10
870.1307911755193
 20
566.8260780793509
 30
0.0000000000000000
 11
779.8720113583474
 21
566.8260780793509
 31
0.0000000000000000
  0
LINE
  5
51D
100
AcDbEntity
  8
MAIN0
  6
CENTER
 62
3
100
AcDbLine
 10
795.0565147436168
 20
386.8260780793511
 30
0.0000000000000000
 11
731.3763959741131
 21
386.8260780793511
 31
0.0000000000000000
  0
DIMENSION
  5
526
100
AcDbEntity
  8
MAIN0
  6
CONTINUOUS
 62
3
100
AcDbDimension
  2
*D57
 10
722.9019102759257
 20
566.8260780793509
 30
0.0000000000000000
 11
722.4019102759257
 21
476.8260780793510
 31
0.0000000000000000
 70
32
  3
MAIN001
100
AcDbAlignedDimension
 13
731.3763959741131
 23
386.8260780793511
 33
0.0000000000000000
 14
779.8720113583474
 24
566.8260780793509
 34
0.0000000000000000
 50
90.00000000000000
100
AcDbRotatedDimension
1001
ACAD
1000
DSTYLE
1002
{
1070
   173
1070
     1
1070
     6
1000
_OPEN
1070
     7
1000
_OPEN
1070
    41
1040
5.000000
1002
}
  0
LINE
  5
527
100
AcDbEntity
  8
MAIN0
  6
CONTINUOUS
 62
3
100
AcDbLine
 10
93.42573918177590
 20
362.9985056921225
 30
0.0000000000000000
 11
153.4257391817759
 21
362.9985056921225
 31
0.0000000000000000
  0
LINE
  5
528
100
AcDbEntity
  8
MAIN0
  6
CONTINUOUS
 62
3
100
AcDbLine
 10
105.9257391818085
 20
308.9985056921225
 30
0.0000000000000000
 11
93.92573918177595
 21
320.9985056922860
 31
0.0000000000000000
  0
LINE
  5
529
100
AcDbEntity
  8
MAIN0
  6
CONTINUOUS
 62
3
100
AcDbLine
 10
105.9257391818085
 20
308.9985056921225
 30
0.0000000000000000
 11
140.9257391817435
 21
308.9985056921225
 31
0.0000000000000000
  0
LINE
  5
52A
100
AcDbEntity
  8
MAIN0
  6
CONTINUOUS
 62
3
100
AcDbLine
 10
93.92573918177601
 20
333.3985056921226
 30
0.0000000000000000
 11
93.92573918177601
 21
320.9985056922862
 31
0.0000000000000000
  0
LINE
  5
52B
100
AcDbEntity
  8
MAIN0
  6
CONTINUOUS
 62
3
100
AcDbLine
 10
152.9257391817762
 20
333.3985056921245
 30
0.0000000000000000
 11
152.9257391817762
 21
320.9985056922860
 31
0.0000000000000000
  0
LINE
  5
52C
100
AcDbEntity
  8
MAIN0
  6
CONTINUOUS
 62
3
100
AcDbLine
 10
140.9257391817436
 20
308.9985056921225
 30
0.0000000000000000
 11
152.9257391817761
 21
320.9985056922860
 31
0.0000000000000000
  0
LINE
  5
52D
100
AcDbEntity
  8
MAIN0
  6
CONTINUOUS
 62
3
100
AcDbLine
 10
266.7582249628229
 20
679.9142350438681
 30
0.0000000000000000
 11
266.7582249622702
 21
555.9142350438679
 31
0.0000000000000000
  0
LINE
  5
52E
100
AcDbEntity
  8
MAIN0
  6
CONTINUOUS
 62
3
100
AcDbLine
 10
351.7582249631113
 20
648.9142350437522
 30
0.0000000000000000
 11
421.7582249624444
 21
648.9142350436579
 31
0.0000000000000000
  0
LINE
  5
52F
100
AcDbEntity
  8
MAIN0
  6
CONTINUOUS
 62
3
100
AcDbLine
 10
267.7582249622658
 20
554.9142350438663
 30
0.0000000000000000
 11
266.7582249622702
 21
555.9142350438679
 31
0.0000000000000000
  0
LINE
  5
530
100
AcDbEntity
  8
MAIN0
  6
CONTINUOUS
 62
3
100
AcDbLine
 10
266.7582249628229
 20
679.9142350438681
 30
0.0000000000000000
 11
267.7582249628273
 21
680.9142350438667
 31
0.0000000000000000
  0
LINE
  5
531
100
AcDbEntity
  8
MAIN0
  6
CONTINUOUS
 62
3
100
AcDbLine
 10
351.7582249631111
 20
586.9142350437533
 30
0.0000000000000000
 11
421.7582249623926
 21
586.9142350436589
 31
0.0000000000000000
  0
LINE
  5
532
100
AcDbEntity
  8
MAIN0
  6
CONTINUOUS
 62
3
100
AcDbLine
 10
267.7582249628274
 20
680.9142350438666
 30
0.0000000000000000
 11
497.7582249624706
 21
680.9142350435565
 31
0.0000000000000000
  0
LINE
  5
533
100
AcDbEntity
  8
MAIN0
  6
CONTINUOUS
 62
3
100
AcDbLine
 10
267.7582249622660
 20
554.9142350438665
 30
0.0000000000000000
 11
497.7582249623659
 21
554.9142350435561
 31
0.0000000000000000
  0
LINE
  5
534
100
AcDbEntity
  8
MAIN0
  6
CONTINUOUS
 62
3
100
AcDbLine
 10
497.7582249623621
 20
550.4142350435567
 30
0.0000000000000000
 11
497.7582249624744
 21
685.4142350435566
 31
0.0000000000000000
  0
LINE
  5
535
100
AcDbEntity
  8
MAIN0
  6
CONTINUOUS
 62
3
100
AcDbLine
 10
421.7582249623670
 20
556.0142350436793
 30
0.0000000000000000
 11
421.7582249624701
 21
679.8142350436388
 31
0.0000000000000000
  0
LINE
  5
536
100
AcDbEntity
  8
MAIN0
  6
CONTINUOUS
 62
3
100
AcDbLine
 10
422.3582249624701
 20
680.4142350436385
 30
0.0000000000000000
 11
497.2582249624701
 21
680.4142350436578
 31
0.0000000000000000
  0
LINE
  5
537
100
AcDbEntity
  8
MAIN0
  6
CONTINUOUS
 62
3
100
AcDbLine
 10
422.3582249623659
 20
555.4142350436788
 30
0.0000000000000000
 11
497.2582249623662
 21
555.4142350436709
 31
0.0000000000000000
  0
LINE
  5
538
100
AcDbEntity
  8
MAIN0
  6
CONTINUOUS
 62
3
100
AcDbLine
 10
497.7582249624700
 20
679.9142350436582
 30
0.0000000000000000
 11
497.2582249624705
 21
680.4142350436580
 31
0.0000000000000000
  0
LINE
  5
539
100
AcDbEntity
  8
MAIN0
  6
CONTINUOUS
 62
3
100
AcDbLine
 10
497.7582249623667
 20
555.9142350436709
 30
0.0000000000000000
 11
497.2582249623663
 21
555.4142350436708
 31
0.0000000000000000
  0
LINE
  5
53A
100
AcDbEntity
  8
MAIN0
  6
CONTINUOUS
 62
3
100
AcDbLine
 10
422.3582249623660
 20
555.4142350436787
 30
0.0000000000000000
 11
421.7582249623665
 21
556.0142350436786
 31
0.0000000000000000
  0
LINE
  5
53B
100
AcDbEntity
  8
MAIN0
  6
CONTINUOUS
 62
3
100
AcDbLine
 10
422.3582249624707
 20
680.4142350436390
 30
0.0000000000000000
 11
421.7582249624701
 21
679.8142350436388
 31
0.0000000000000000
  0
LINE
  5
53C
100
AcDbEntity
  8
MAIN0
  6
CENTER
 62
3
100
AcDbLine
 10
481.7582249624026
 20
611.0809017103396
 30
0.0000000000000000
 11
481.7582249624026
 21
586.7475683770061
 31
0.0000000000000000
  0
LINE
  5
53D
100
AcDbEntity
  8
MAIN0
  6
CENTER
 62
3
100
AcDbLine
 10
469.5915582957358
 20
598.9142350436730
 30
0.0000000000000000
 11
493.9248916290691
 21
598.9142350436729
 31
0.0000000000000000
  0
LINE
  5
53E
100
AcDbEntity
  8
MAIN0
  6
CENTER
 62
3
100
AcDbLine
 10
481.7582249624340
 20
649.0809017103393
 30
0.0000000000000000
 11
481.7582249624340
 21
624.7475683770060
 31
0.0000000000000000
  0
LINE
  5
53F
100
AcDbEntity
  8
MAIN0
  6
CENTER
 62
3
100
AcDbLine
 10
469.5915582957674
 20
636.9142350436725
 30
0.0000000000000000
 11
493.9248916291008
 21
636.9142350436725
 31
0.0000000000000000
  0
LINE
  5
540
100
AcDbEntity
  8
MAIN0
  6
CENTER
 62
3
100
AcDbLine
 10
437.7582249624340
 20
649.0809017103438
 30
0.0000000000000000
 11
437.7582249624339
 21
624.7475683770106
 31
0.0000000000000000
  0
LINE
  5
541
100
AcDbEntity
  8
MAIN0
  6
CENTER
 62
3
100
AcDbLine
 10
425.5915582957674
 20
636.9142350436774
 30
0.0000000000000000
 11
449.9248916291007
 21
636.9142350436774
 31
0.0000000000000000
  0
LINE
  5
542
100
AcDbEntity
  8
MAIN0
  6
CENTER
 62
3
100
AcDbLine
 10
437.7582249624023
 20
611.0809017103443
 30
0.0000000000000000
 11
437.7582249624023
 21
586.7475683770110
 31
0.0000000000000000
  0
LINE
  5
543
100
AcDbEntity
  8
MAIN0
  6
CENTER
 62
3
100
AcDbLine
 10
425.5915582957356
 20
598.9142350436775
 30
0.0000000000000000
 11
449.9248916290691
 21
598.9142350436775
 31
0.0000000000000000
  0
CIRCLE
  5
544
100
AcDbEntity
  8
MAIN0
  6
CONTINUOUS
 62
3
100
AcDbCircle
 10
864.9091802322613
 20
171.0635668516891
 30
0.0000000000000000
 40
8.000000000000000
  0
CIRCLE
  5
545
100
AcDbEntity
  8
MAIN0
  6
CONTINUOUS
 62
3
100
AcDbCircle
 10
864.9091802322613
 20
171.0635668516891
 30
0.0000000000000000
 40
7.000000000000000
  0
LINE
  5
546
100
AcDbEntity
  8
MAIN0
  6
CONTINUOUS
 62
3
100
AcDbLine
 10
721.7582249627076
 20
358.9985056929550
 30
0.0000000000000000
 11
702.7582249626173
 21
358.9985056929550
 31
0.0000000000000000
  0
LINE
  5
547
100
AcDbEntity
  8
MAIN0
  6
CONTINUOUS
 62
3
100
AcDbLine
 10
721.7582249627076
 20
308.9985056929550
 30
0.0000000000000000
 11
702.7582249627988
 21
308.9985056929550
 31
0.0000000000000000
  0
LINE
  5
548
100
AcDbEntity
  8
MAIN0
  6
CONTINUOUS
 62
3
100
AcDbLine
 10
721.7582249627080
 20
358.9985056929546
 30
0.0000000000000000
 11
721.7582249627079
 21
308.9985056929546
 31
0.0000000000000000
  0
LINE
  5
549
100
AcDbEntity
  8
MAIN0
  6
CONTINUOUS
 62
3
100
AcDbLine
 10
677.7582249628229
 20
302.3985056930699
 30
0.0000000000000000
 11
677.7582249628098
 21
305.9985056930711
 31
0.0000000000000000
  0
LINE
  5
54A
100
AcDbEntity
  8
MAIN0
  6
CONTINUOUS
 62
3
100
AcDbLine
 10
677.7582249628233
 20
302.3985056930698
 30
0.0000000000000000
 11
678.1582249628241
 21
301.9985056930719
 31
0.0000000000000000
  0
LINE
  5
54B
100
AcDbEntity
  8
MAIN0
  6
CONTINUOUS
 62
3
100
AcDbLine
 10
702.1582249628245
 20
301.9985056931463
 30
0.0000000000000000
 11
702.7582249628223
 21
302.5985056931484
 31
0.0000000000000000
  0
LINE
  5
54C
100
AcDbEntity
  8
MAIN0
  6
CONTINUOUS
 62
3
100
AcDbLine
 10
678.1582249628239
 20
301.9985056930718
 30
0.0000000000000000
 11
702.1582249628368
 21
301.9985056931589
 31
0.0000000000000000
  0
LINE
  5
54D
100
AcDbEntity
  8
MAIN0
  6
CONTINUOUS
 62
3
100
AcDbLine
 10
677.7582249625812
 20
368.9985056930711
 30
0.0000000000000000
 11
702.1582249625672
 21
368.9985056931597
 31
0.0000000000000000
  0
LINE
  5
54E
100
AcDbEntity
  8
MAIN0
  6
CONTINUOUS
 62
3
100
AcDbLine
 10
702.1582249625808
 20
368.9985056931463
 30
0.0000000000000000
 11
702.7582249625826
 21
368.3985056931489
 31
0.0000000000000000
  0
LINE
  5
54F
100
AcDbEntity
  8
MAIN0
  6
CONTINUOUS
 62
3
100
AcDbLine
 10
702.7582249628221
 20
302.5985056931493
 30
0.0000000000000000
 11
702.7582249625832
 21
368.3985056931481
 31
0.0000000000000000
  0
LINE
  5
550
100
AcDbEntity
  8
MAIN0
  6
CONTINUOUS
 62
3
100
AcDbLine
 10
267.7582249624190
 20
369.3985056944387
 30
0.0000000000000000
 11
268.1582249624190
 21
368.9985056944387
 31
0.0000000000000000
  0
LINE
  5
551
100
AcDbEntity
  8
MAIN0
  6
CONTINUOUS
 62
3
100
AcDbLine
 10
267.7582249624190
 20
369.3985056944389
 30
0.0000000000000000
 11
267.7582249624189
 21
418.7985056944385
 31
0.0000000000000000
  0
LINE
  5
552
100
AcDbEntity
  8
MAIN0
  6
CONTINUOUS
 62
3
100
AcDbLine
 10
351.7582249624187
 20
418.4985056944390
 30
0.0000000000000000
 11
351.7582249624188
 21
369.3985056944387
 31
0.0000000000000000
  0
LINE
  5
553
100
AcDbEntity
  8
MAIN0
  6
CONTINUOUS
 62
3
100
AcDbLine
 10
351.2582249624187
 20
418.9985056944389
 30
0.0000000000000000
 11
267.9582249624189
 21
418.9985056944389
 31
0.0000000000000000
  0
LINE
  5
554
100
AcDbEntity
  8
MAIN0
  6
CONTINUOUS
 62
3
100
AcDbLine
 10
351.3582249624188
 20
368.9985056944389
 30
0.0000000000000000
 11
319.3582249624189
 21
368.9985056944389
 31
0.0000000000000000
  0
LINE
  5
555
100
AcDbEntity
  8
MAIN0
  6
CONTINUOUS
 62
3
100
AcDbLine
 10
267.7582249624191
 20
369.3985056944387
 30
0.0000000000000000
 11
268.1582249624194
 21
368.9985056944383
 31
0.0000000000000000
  0
LINE
  5
556
100
AcDbEntity
  8
MAIN0
  6
CONTINUOUS
 62
3
100
AcDbLine
 10
351.3582249624189
 20
368.9985056944386
 30
0.0000000000000000
 11
351.7582249624189
 21
369.3985056944385
 31
0.0000000000000000
  0
LINE
  5
557
100
AcDbEntity
  8
MAIN0
  6
CONTINUOUS
 62
3
100
AcDbLine
 10
267.7582249624185
 20
418.7985056944389
 30
0.0000000000000000
 11
267.9582249624186
 21
418.9985056944390
 31
0.0000000000000000
  0
LINE
  5
558
100
AcDbEntity
  8
MAIN0
  6
CONTINUOUS
 62
3
100
AcDbLine
 10
351.2582249624188
 20
418.9985056944387
 30
0.0000000000000000
 11
351.7582249624188
 21
418.4985056944386
 31
0.0000000000000000
  0
LINE
  5
559
100
AcDbEntity
  8
MAIN0
  6
CONTINUOUS
 62
3
100
AcDbLine
 10
268.1582249624190
 20
368.9985056944389
 30
0.0000000000000000
 11
300.7582249624170
 21
368.9985056944389
 31
0.0000000000000000
  0
LINE
  5
55A
100
AcDbEntity
  8
MAIN0
  6
CONTINUOUS
 62
3
100
AcDbLine
 10
353.7582249624189
 20
368.9985056945489
 30
0.0000000000000000
 11
379.7582249624188
 21
368.9985056945489
 31
0.0000000000000000
  0
LINE
  5
55B
100
AcDbEntity
  8
MAIN0
  6
CONTINUOUS
 62
3
100
AcDbLine
 10
499.3582249624188
 20
390.1985056946142
 30
0.0000000000000000
 11
568.7582249624188
 21
390.1985056946142
 31
0.0000000000000000
  0
LINE
  5
55C
100
AcDbEntity
  8
MAIN0
  6
CONTINUOUS
 62
3
100
AcDbLine
 10
497.7582249624189
 20
340.6985056932109
 30
0.0000000000000000
 11
497.7582249624189
 21
388.5985056946143
 31
0.0000000000000000
  0
ARC
  5
55D
100
AcDbEntity
  8
MAIN0
  6
CONTINUOUS
 62
3
100
AcDbCircle
 10
568.7582249624188
 20
389.1985056946142
 30
0.0000000000000000
 40
1.000000000000000
100
AcDbArc
 50
0.0000000000000000
 51
89.99999999942553
  0
ARC
  5
55E
100
AcDbEntity
  8
MAIN0
  6
CONTINUOUS
 62
3
100
AcDbCircle
 10
499.3582249624188
 20
388.5985056946143
 30
0.0000000000000000
 40
1.600000000000000
100
AcDbArc
 50
89.99999999942553
 51
179.9999999999964
  0
LINE
  5
55F
100
AcDbEntity
  8
MAIN0
  6
CONTINUOUS
 62
3
100
AcDbLine
 10
569.7582249624187
 20
389.1985056946146
 30
0.0000000000000000
 11
569.7582249624179
 21
340.6985056932109
 31
0.0000000000000000
  0
LINE
  5
560
100
AcDbEntity
  8
MAIN0
  6
CONTINUOUS
 62
3
100
AcDbLine
 10
639.7582249624188
 20
370.1985056946142
 30
0.0000000000000000
 11
639.7582249624188
 21
342.8985056927280
 31
0.0000000000000000
  0
LINE
  5
561
100
AcDbEntity
  8
MAIN0
  6
CONTINUOUS
 62
3
100
AcDbLine
 10
602.3582249624187
 20
370.1985056946142
 30
0.0000000000000000
 11
639.7582249624188
 21
370.1985056946142
 31
0.0000000000000000
  0
ARC
  5
562
100
AcDbEntity
  8
MAIN0
  6
CONTINUOUS
 62
3
100
AcDbCircle
 10
601.3582249624187
 20
379.1985056946144
 30
0.0000000000000000
 40
1.000000000000000
100
AcDbArc
 50
0.0000000000000000
 51
89.99999999942553
  0
LINE
  5
563
100
AcDbEntity
  8
MAIN0
  6
CONTINUOUS
 62
3
100
AcDbLine
 10
602.3582249624187
 20
379.1985056946144
 30
0.0000000000000000
 11
602.3582249624187
 21
340.6985056932109
 31
0.0000000000000000
  0
LINE
  5
564
100
AcDbEntity
  8
MAIN0
  6
CONTINUOUS
 62
3
100
AcDbLine
 10
569.7582249624184
 20
380.1985056946144
 30
0.0000000000000000
 11
601.3582249624290
 21
380.1985056946144
 31
0.0000000000000000
  0
LINE
  5
565
100
AcDbEntity
  8
MAIN0
  6
CENTER
 62
3
100
AcDbLine
 10
272.7582249624954
 20
571.9142350437780
 30
0.0000000000000000
 11
298.7582249624954
 21
571.9142350437780
 31
0.0000000000000000
  0
LINE
  5
566
100
AcDbEntity
  8
MAIN0
  6
CENTER
 62
3
100
AcDbLine
 10
285.7582249624953
 20
558.9142350437780
 30
0.0000000000000000
 11
285.7582249624954
 21
584.9142350437780
 31
0.0000000000000000
  0
LINE
  5
567
100
AcDbEntity
  8
MAIN0
  6
CONTINUOUS
 62
3
100
AcDbLine
 10
351.2582249631113
 20
680.4142350441962
 30
0.0000000000000000
 11
268.3582249631113
 21
680.4142350441964
 31
0.0000000000000000
  0
LINE
  5
568
100
AcDbEntity
  8
MAIN0
  6
CONTINUOUS
 62
3
100
AcDbLine
 10
351.2582249631110
 20
555.4142350441962
 30
0.0000000000000000
 11
268.3582249631109
 21
555.4142350441964
 31
0.0000000000000000
  0
LINE
  5
569
100
AcDbEntity
  8
MAIN0
  6
CONTINUOUS
 62
3
100
AcDbLine
 10
351.7582249631112
 20
555.9142350441962
 30
0.0000000000000000
 11
351.7582249631112
 21
679.9142350441961
 31
0.0000000000000000
  0
LINE
  5
56A
100
AcDbEntity
  8
MAIN0
  6
CONTINUOUS
 62
3
100
AcDbLine
 10
267.7582249631109
 20
556.0142350441963
 30
0.0000000000000000
 11
267.7582249631111
 21
679.8142350441963
 31
0.0000000000000000
  0
LINE
  5
56B
100
AcDbEntity
  8
MAIN0
  6
CONTINUOUS
 62
3
100
AcDbLine
 10
351.2582249631110
 20
555.4142350441957
 30
0.0000000000000000
 11
351.7582249631110
 21
555.9142350441957
 31
0.0000000000000000
  0
LINE
  5
56C
100
AcDbEntity
  8
MAIN0
  6
CONTINUOUS
 62
3
100
AcDbLine
 10
351.7582249631110
 20
679.9142350441957
 30
0.0000000000000000
 11
351.2582249631110
 21
680.4142350441957
 31
0.0000000000000000
  0
LINE
  5
56D
100
AcDbEntity
  8
MAIN0
  6
CONTINUOUS
 62
3
100
AcDbLine
 10
268.3582249631114
 20
555.4142350441966
 30
0.0000000000000000
 11
267.7582249631113
 21
556.0142350441965
 31
0.0000000000000000
  0
LINE
  5
56E
100
AcDbEntity
  8
MAIN0
  6
CONTINUOUS
 62
3
100
AcDbLine
 10
267.7582249631111
 20
679.8142350441965
 30
0.0000000000000000
 11
268.3582249631110
 21
680.4142350441964
 31
0.0000000000000000
  0
LINE
  5
56F
100
AcDbEntity
  8
A0
  6
CONTINUOUS
 62
3
100
AcDbLine
 10
167.0909067282192
 20
160.4253084679192
 30
0.0000000000000000
 11
167.0909067282192
 21
45.92531073289118
 31
0.0000000000000000
  0
LINE
  5
570
100
AcDbEntity
  8
A0
  6
CONTINUOUS
 62
3
100
AcDbLine
 10
34.09090720500922
 20
147.6753087066526
 30
0.0000000000000000
 11
167.0909067282192
 21
147.6753087067117
 31
0.0000000000000000
  0
LINE
  5
571
100
AcDbEntity
  8
A0
  6
CONTINUOUS
 62
3
100
AcDbLine
 10
34.09090720500819
 20
160.4253084678013
 30
0.0000000000000000
 11
167.0909067282192
 21
160.4253084679193
 31
0.0000000000000000
  0
MTEXT
  5
572
100
AcDbEntity
  8
A0
  6
CONTINUOUS
 62
3
100
AcDbMText
 10
50.96590601293985
 20
157.9253084682638
 30
0.0000000000000000
 40
7.749999761581421
 41
0.0000000000000000
 71
     1
 72
     1
  1
{\H0.71x;{仕様　　SPECIFICATIONS}}
 11
1.000000000000000
 21
0.0000000000000000
 31
0.0000000000000000
  7
KNJYOKO
  0
MTEXT
  5
573
100
AcDbEntity
  8
A0
  6
CONTINUOUS
 62
3
100
AcDbMText
 10
123.0909057745139
 20
141.3003088255997
 30
0.0000000000000000
 40
7.749999761581421
 41
0.0000000000000000
 71
     1
 72
     1
  1
{\H0.70x;{０～２０４mm}}
 11
1.000000000000000
 21
0.0000000000000000
 31
0.0000000000000000
  7
KNJYOKO
  0
MTEXT
  5
574
100
AcDbEntity
  8
A0
  6
CONTINUOUS
 62
3
100
AcDbMText
 10
35.34090720502536
 20
136.1753089448090
 30
0.0000000000000000
 40
7.749999761581421
 41
0.0000000000000000
 71
     1
 72
     1
  1
{\H0.71x;{CLAMPING RANGE}}
 11
1.000000000000000
 21
0.0000000000000000
 31
0.0000000000000000
  7
STANDARD
  0
LINE
  5
575
100
AcDbEntity
  8
A0
  6
CONTINUOUS
 62
3
100
AcDbLine
 10
34.09090720501070
 20
127.1753091830570
 30
0.0000000000000000
 11
167.0909067282192
 21
127.1753091831749
 31
0.0000000000000000
  0
LINE
  5
576
100
AcDbEntity
  8
A0
  6
CONTINUOUS
 62
3
100
AcDbLine
 10
121.8409057745116
 20
147.6753087066896
 30
0.0000000000000000
 11
121.8409057745116
 21
127.1753091831303
 31
0.0000000000000000
  0
MTEXT
  5
577
100
AcDbEntity
  8
A0
  6
CONTINUOUS
 62
3
100
AcDbMText
 10
35.34090720502536
 20
115.6753094216462
 30
0.0000000000000000
 40
7.749999761581421
 41
0.0000000000000000
 71
     1
 72
     1
  1
{\H0.71x;{TIGHTENING TORQUE}}
 11
1.000000000000000
 21
0.0000000000000000
 31
0.0000000000000000
  7
STANDARD
  0
LINE
  5
578
100
AcDbEntity
  8
A0
  6
CONTINUOUS
 62
3
100
AcDbLine
 10
167.0909067282192
 20
106.6753096603860
 30
0.0000000000000000
 11
34.09090720501232
 21
106.6753096603269
 31
0.0000000000000000
  0
LINE
  5
579
100
AcDbEntity
  8
A0
  6
CONTINUOUS
 62
3
100
AcDbLine
 10
121.8409057745116
 20
106.6753096603639
 30
0.0000000000000000
 11
121.8409057745116
 21
45.92531073285116
 31
0.0000000000000000
  0
LINE
  5
57A
100
AcDbEntity
  8
A0
  6
CONTINUOUS
 62
3
100
AcDbLine
 10
121.8409057745115
 20
86.17531013720117
 30
0.0000000000000000
 11
167.0909067282193
 21
86.17531013722118
 31
0.0000000000000000
  0
MTEXT
  5
57B
100
AcDbEntity
  8
A0
  6
CONTINUOUS
 62
3
100
AcDbMText
 10
128.0909062513510
 20
84.92531013652368
 30
0.0000000000000000
 40
7.749999761581421
 41
0.0000000000000000
 71
     1
 72
     1
  1
{\H0.67x;{2}}
 11
1.000000000000000
 21
0.0000000000000000
 31
0.0000000000000000
  7
STANDARD
  0
LINE
  5
57C
100
AcDbEntity
  8
A0
  6
CONTINUOUS
 62
3
100
AcDbLine
 10
167.0909067282192
 20
65.67531037564177
 30
0.0000000000000000
 11
34.09090720501474
 21
65.67531037558265
 31
0.0000000000000000
  0
MTEXT
  5
57D
100
AcDbEntity
  8
A0
  6
CONTINUOUS
 62
3
100
AcDbMText
 10
128.0909062513510
 20
74.67531013690191
 30
0.0000000000000000
 40
7.749999761581421
 41
0.0000000000000000
 71
     1
 72
     1
  1
{\H0.67x;{3}}
 11
1.000000000000000
 21
0.0000000000000000
 31
0.0000000000000000
  7
STANDARD
  0
LINE
  5
57E
100
AcDbEntity
  8
A0
  6
CONTINUOUS
 62
3
100
AcDbLine
 10
121.8409057745115
 20
96.42530989838626
 30
0.0000000000000000
 11
167.0909067282192
 21
96.42530989842639
 31
0.0000000000000000
  0
LINE
  5
57F
100
AcDbEntity
  8
A0
  6
CONTINUOUS
 62
3
100
AcDbLine
 10
138.9897006443931
 20
106.6753096603715
 30
0.0000000000000000
 11
138.9897006443931
 21
65.67531037562949
 31
0.0000000000000000
  0
MTEXT
  5
580
100
AcDbEntity
  8
A0
  6
CONTINUOUS
 62
3
100
AcDbMText
 10
142.8119598965137
 20
95.17530989810419
 30
0.0000000000000000
 40
7.749999761581421
 41
0.0000000000000000
 71
     1
 72
     1
  1
{\H0.70x;{12KN}}
 11
1.000000000000000
 21
0.0000000000000000
 31
0.0000000000000000
  7
STANDARD
  0
MTEXT
  5
581
100
AcDbEntity
  8
A0
  6
CONTINUOUS
 62
3
100
AcDbMText
 10
142.8119598965137
 20
84.92531013652277
 30
0.0000000000000000
 40
7.749999761581421
 41
0.0000000000000000
 71
     1
 72
     1
  1
{\H0.70x;{21KN}}
 11
1.000000000000000
 21
0.0000000000000000
 31
0.0000000000000000
  7
STANDARD
  0
MTEXT
  5
582
100
AcDbEntity
  8
A0
  6
CONTINUOUS
 62
3
100
AcDbMText
 10
142.8119598965137
 20
74.67531013690100
 30
0.0000000000000000
 40
7.749999761581421
 41
0.0000000000000000
 71
     1
 72
     1
  1
{\H0.70x;{30KN}}
 11
1.000000000000000
 21
0.0000000000000000
 31
0.0000000000000000
  7
STANDARD
  0
MTEXT
  5
583
100
AcDbEntity
  8
A0
  6
CONTINUOUS
 62
3
100
AcDbMText
 10
128.0909062513510
 20
95.17530989810510
 30
0.0000000000000000
 40
7.749999761581421
 41
0.0000000000000000
 71
     1
 72
     1
  1
{\H0.67x;{1}}
 11
1.000000000000000
 21
0.0000000000000000
 31
0.0000000000000000
  7
STANDARD
  0
MTEXT
  5
584
100
AcDbEntity
  8
A0
  6
CONTINUOUS
 62
3
100
AcDbMText
 10
133.4697194216853
 20
59.30031049451955
 30
0.0000000000000000
 40
7.749999761581421
 41
0.0000000000000000
 71
     1
 72
     1
  1
{\H0.70x;{35kg}}
 11
1.000000000000000
 21
0.0000000000000000
 31
0.0000000000000000
  7
STANDARD
  0
MTEXT
  5
585
100
AcDbEntity
  8
A0
  6
CONTINUOUS
 62
3
100
AcDbMText
 10
35.34090720502536
 20
54.17531061373907
 30
0.0000000000000000
 40
6.999999880790710
 41
0.0000000000000000
 71
     1
 72
     1
  1
{\H0.67x;{MASS OF POWER VISE}}
 11
1.000000000000000
 21
0.0000000000000000
 31
0.0000000000000000
  7
STANDARD
  0
MTEXT
  5
586
100
AcDbEntity
  8
A0
  6
CONTINUOUS
 62
3
100
AcDbMText
 10
35.34090720502536
 20
64.42531037532049
 30
0.0000000000000000
 40
7.749999761581421
 41
0.0000000000000000
 71
     1
 72
     1
  1
{\H0.70x;{製品質量}}
 11
1.000000000000000
 21
0.0000000000000000
 31
0.0000000000000000
  7
KNJYOKO
  0
MTEXT
  5
587
100
AcDbEntity
  8
A0
  6
CONTINUOUS
 62
3
100
AcDbMText
 10
35.34090720502536
 20
95.17530989848333
 30
0.0000000000000000
 40
7.749999761581421
 41
0.0000000000000000
 71
     1
 72
     1
  1
{\H0.71x;{CLAMP RANGE}}
 11
1.000000000000000
 21
0.0000000000000000
 31
0.0000000000000000
  7
STANDARD
  0
MTEXT
  5
588
100
AcDbEntity
  8
A0
  6
CONTINUOUS
 62
3
100
AcDbMText
 10
35.34090720502536
 20
105.4253096600648
 30
0.0000000000000000
 40
7.749999761581421
 41
0.0000000000000000
 71
     1
 72
     1
  1
{\H0.70x;{締付けレンジ}}
 11
1.000000000000000
 21
0.0000000000000000
 31
0.0000000000000000
  7
KNJYOKO
  0
LINE
  5
589
100
AcDbEntity
  8
A0
  6
CONTINUOUS
 62
3
100
AcDbLine
 10
34.09090720500825
 20
160.4253084678009
 30
0.0000000000000000
 11
34.09090720501642
 21
45.92531073277755
 31
0.0000000000000000
  0
LINE
  5
58A
100
AcDbEntity
  8
A0
  6
CONTINUOUS
 62
3
100
AcDbLine
 10
167.0909067282192
 20
45.92531073289584
 30
0.0000000000000000
 11
34.09090720501634
 21
45.92531073277789
 31
0.0000000000000000
  0
MTEXT
  5
58B
100
AcDbEntity
  8
A0
  6
CONTINUOUS
 62
3
100
AcDbMText
 10
35.34090720502536
 20
125.9253091832276
 30
0.0000000000000000
 40
7.749999761581421
 41
0.0000000000000000
 71
     1
 72
     1
  1
{\H0.70x;{締付トルク}}
 11
1.000000000000000
 21
0.0000000000000000
 31
0.0000000000000000
  7
KNJYOKO
  0
MTEXT
  5
58C
100
AcDbEntity
  8
A0
  6
CONTINUOUS
 62
3
100
AcDbMText
 10
35.34090720502536
 20
146.4253087063904
 30
0.0000000000000000
 40
7.749999761581421
 41
0.0000000000000000
 71
     1
 72
     1
  1
{\H0.70x;{口金の開き}}
 11
1.000000000000000
 21
0.0000000000000000
 31
0.0000000000000000
  7
KNJYOKO
  0
LINE
  5
58D
100
AcDbEntity
  8
A0
  6
CONTINUOUS
 62
3
100
AcDbLine
 10
121.8409057745116
 20
75.92531013720117
 30
0.0000000000000000
 11
167.0909067282192
 21
75.92531013722118
 31
0.0000000000000000
  0
MTEXT
  5
58E
100
AcDbEntity
  8
A0
  6
CONTINUOUS
 62
3
100
AcDbMText
 10
142.8119598965137
 20
105.4253096600639
 30
0.0000000000000000
 40
7.749999761581421
 41
0.0000000000000000
 71
     1
 72
     1
  1
{\H0.70x;{ 8KN}}
 11
1.000000000000000
 21
0.0000000000000000
 31
0.0000000000000000
  7
STANDARD
  0
MTEXT
  5
58F
100
AcDbEntity
  8
A0
  6
CONTINUOUS
 62
3
100
AcDbMText
 10
128.0909062513510
 20
105.4253096600648
 30
0.0000000000000000
 40
7.749999761581421
 41
0.0000000000000000
 71
     1
 72
     1
  1
{\H0.67x;{0}}
 11
1.000000000000000
 21
0.0000000000000000
 31
0.0000000000000000
  7
STANDARD
  0
LINE
  5
590
100
AcDbEntity
  8
WAKU0
  6
CONTINUOUS
 62
3
100
AcDbLine
 10
240.0000000000000
 20
51.00000000000000
 30
0.0000000000000000
 11
410.0000000000000
 21
51.00000000000000
 31
0.0000000000000000
  0
LINE
  5
591
100
AcDbEntity
  8
WAKU0
  6
CONTINUOUS
 62
3
100
AcDbLine
 10
240.0000000000000
 20
51.00000000000000
 30
0.0000000000000000
 11
240.0000000000000
 21
12.00000000000000
 31
0.0000000000000000
  0
LINE
  5
592
100
AcDbEntity
  8
WAKU0
  6
CONTINUOUS
 62
3
100
AcDbLine
 10
312.0000000000000
 20
51.00000000000000
 30
0.0000000000000000
 11
312.0000000000000
 21
12.00000000000000
 31
0.0000000000000000
  0
LINE
  5
593
100
AcDbEntity
  8
WAKU0
  6
CONTINUOUS
 62
3
100
AcDbLine
 10
332.0000000000000
 20
51.00000000000000
 30
0.0000000000000000
 11
332.0000000000000
 21
12.00000000000000
 31
0.0000000000000000
  0
LINE
  5
594
100
AcDbEntity
  8
WAKU0
  6
CONTINUOUS
 62
3
100
AcDbLine
 10
344.0000000000000
 20
51.00000000000000
 30
0.0000000000000000
 11
344.0000000000000
 21
12.00000000000000
 31
0.0000000000000000
  0
LINE
  5
595
100
AcDbEntity
  8
WAKU0
  6
CONTINUOUS
 62
3
100
AcDbLine
 10
344.0000000000000
 20
37.00000000000000
 30
0.0000000000000000
 11
410.0000000000000
 21
37.00000000000000
 31
0.0000000000000000
  0
LINE
  5
596
100
AcDbEntity
  8
WAKU0
  6
CONTINUOUS
 62
3
100
AcDbLine
 10
332.0000000000000
 20
23.00000000000000
 30
0.0000000000000000
 11
410.0000000000000
 21
23.00000000000000
 31
0.0000000000000000
  0
LINE
  5
597
100
AcDbEntity
  8
WAKU0
  6
CONTINUOUS
 62
3
100
AcDbLine
 10
375.0000000000000
 20
51.00000000000000
 30
0.0000000000000000
 11
375.0000000000000
 21
44.00000000000000
 31
0.0000000000000000
  0
LINE
  5
598
100
AcDbEntity
  8
WAKU0
  6
CONTINUOUS
 62
3
100
AcDbLine
 10
387.0000000000000
 20
51.00000000000000
 30
0.0000000000000000
 11
387.0000000000000
 21
44.00000000000000
 31
0.0000000000000000
  0
LINE
  5
599
100
AcDbEntity
  8
WAKU0
  6
CONTINUOUS
 62
3
100
AcDbLine
 10
312.0000000000000
 20
31.50000000000000
 30
0.0000000000000000
 11
332.0000000000000
 21
31.50000000000000
 31
0.0000000000000000
  0
LINE
  5
59A
100
AcDbEntity
  8
WAKU0
  6
CONTINUOUS
 62
3
100
AcDbLine
 10
332.0000000000000
 20
44.00000000000000
 30
0.0000000000000000
 11
410.0000000000000
 21
44.00000000000000
 31
0.0000000000000000
  0
LINE
  5
59B
100
AcDbEntity
  8
WAKU0
  6
CONTINUOUS
 62
3
100
AcDbLine
 10
240.0000000000000
 20
37.00000000000000
 30
0.0000000000000000
 11
312.0000000000000
 21
37.00000000000000
 31
0.0000000000000000
  0
LINE
  5
59C
100
AcDbEntity
  8
WAKU0
  6
CONTINUOUS
 62
3
100
AcDbLine
 10
240.0000000000000
 20
23.00000000000000
 30
0.0000000000000000
 11
312.0000000000000
 21
23.00000000000000
 31
0.0000000000000000
  0
LINE
  5
59D
100
AcDbEntity
  8
WAKU0
  6
CONTINUOUS
 62
3
100
AcDbLine
 10
288.0000000000000
 20
37.00000000000000
 30
0.0000000000000000
 11
288.0000000000000
 21
12.00000000000000
 31
0.0000000000000000
  0
LINE
  5
59E
100
AcDbEntity
  8
WAKU0
  6
CONTINUOUS
 62
3
100
AcDbLine
 10
264.0000000000000
 20
37.00000000000000
 30
0.0000000000000000
 11
264.0000000000000
 21
23.00000000000000
 31
0.0000000000000000
  0
LINE
  5
59F
100
AcDbEntity
  8
WAKU0
  6
CONTINUOUS
 62
3
100
AcDbLine
 10
300.0000000000000
 20
26.00000000000000
 30
0.0000000000000000
 11
300.0000000000000
 21
23.00000000000000
 31
0.0000000000000000
  0
LINE
  5
5A0
100
AcDbEntity
  8
WAKU0
  6
CONTINUOUS
 62
3
100
AcDbLine
 10
276.0000000000000
 20
26.00000000000000
 30
0.0000000000000000
 11
276.0000000000000
 21
23.00000000000000
 31
0.0000000000000000
  0
LINE
  5
5A1
100
AcDbEntity
  8
WAKU0
  6
CONTINUOUS
 62
3
100
AcDbLine
 10
252.0000000000000
 20
26.00000000000000
 30
0.0000000000000000
 11
252.0000000000000
 21
23.00000000000000
 31
0.0000000000000000
  0
LINE
  5
5A2
100
AcDbEntity
  8
WAKU0
  6
CONTINUOUS
 62
3
100
AcDbLine
 10
258.0000000000000
 20
51.00000000000000
 30
0.0000000000000000
 11
258.0000000000000
 21
37.00000000000000
 31
0.0000000000000000
  0
LINE
  5
5A3
100
AcDbEntity
  8
WAKU0
  6
CONTINUOUS
 62
3
100
AcDbLine
 10
240.0000000000000
 20
45.00000000000000
 30
0.0000000000000000
 11
312.0000000000000
 21
45.00000000000000
 31
0.0000000000000000
  0
LINE
  5
5A4
100
AcDbEntity
  8
WAKU0
  6
HIDDEN
 62
3
100
AcDbLine
 10
360.5000000000000
 20
23.00000000000000
 30
0.0000000000000000
 11
360.5000000000000
 21
12.00000000000000
 31
0.0000000000000000
  0
LINE
  5
5A5
100
AcDbEntity
  8
WAKU0
  6
HIDDEN
 62
3
100
AcDbLine
 10
372.9000000000000
 20
23.00000000000000
 30
0.0000000000000000
 11
372.9000000000000
 21
12.00000000000000
 31
0.0000000000000000
  0
MTEXT
  5
5A6
100
AcDbEntity
  8
WAKU0
  6
CONTINUOUS
 62
3
100
AcDbMText
 10
344.4820000243485
 20
49.04999995231628
 30
0.0000000000000000
 40
3.099999904632568
 41
0.0000000000000000
 71
     1
 72
     1
  1
{\H0.92x;{VE125N}}
 11
1.000000000000000
 21
0.0000000000000000
 31
0.0000000000000000
  7
STANDARD
  0
MTEXT
  5
5A7
100
AcDbEntity
  8
WAKU0
  6
CONTINUOUS
 62
3
100
AcDbMText
 10
360.3350002765656
 20
43.50000000000000
 30
0.0000000000000000
 40
3.000000000000000
 41
0.0000000000000000
 71
     1
 72
     1
  1
{\H0.94x;{パワーバイス\PＰＯＷＥＲ　ＶＩＳＥ}}
 11
1.000000000000000
 21
0.0000000000000000
 31
0.0000000000000000
  7
KNJYOKO
  0
MTEXT
  5
5A8
100
AcDbEntity
  8
WAKU0
  6
CONTINUOUS
 62
3
100
AcDbMText
 10
352.3499999865890
 20
34.23333326975504
 30
0.0000000000000000
 40
3.099999904632568
 41
0.0000000000000000
 71
     1
 72
     1
  1
{\H0.70x;{ＶＥ１２５Ｎ　ガイケイ\PＶＥ１２５Ｎ　ＯＵＴＳＩＤＥ　ＶＩＥＷ}}
 11
1.000000000000000
 21
0.0000000000000000
 31
0.0000000000000000
  7
KNJYOKO
  0
MTEXT
  5
5A9
100
AcDbEntity
  8
WAKU0
  6
CONTINUOUS
 62
3
100
AcDbMText
 10
318.0049998760223
 20
39.29999995231628
 30
0.0000000000000000
 40
3.099999904632568
 41
0.0000000000000000
 71
     1
 72
     1
  1
{\H0.90x;{2:5}}
 11
1.000000000000000
 21
0.0000000000000000
 31
0.0000000000000000
  7
STANDARD
  0
MTEXT
  5
5AA
100
AcDbEntity
  8
WAKU0
  6
CONTINUOUS
 62
3
100
AcDbMText
 10
374.4000001549721
 20
20.15000009536743
 30
0.0000000000000000
 40
5.300000190734863
 41
0.0000000000000000
 71
     1
 72
     1
  1
{\H0.90x;{6372}}
 11
1.000000000000000
 21
0.0000000000000000
 31
0.0000000000000000
  7
STANDARD
  0
MTEXT
  5
5AB
100
AcDbEntity
  8
WAKU0
  6
CONTINUOUS
 62
3
100
AcDbMText
 10
362.3000000834465
 20
20.15000009536743
 30
0.0000000000000000
 40
5.300000190734863
 41
0.0000000000000000
 71
     1
 72
     1
  1
{\H0.87x;{39}}
 11
1.000000000000000
 21
0.0000000000000000
 31
0.0000000000000000
  7
STANDARD
  0
MTEXT
  5
5AC
100
AcDbEntity
  8
WAKU0
  6
CONTINUOUS
 62
3
100
AcDbMText
 10
345.5000001192093
 20
20.15000009536743
 30
0.0000000000000000
 40
5.300000190734863
 41
0.0000000000000000
 71
     1
 72
     1
  1
{\H0.89x;{61M}}
 11
1.000000000000000
 21
0.0000000000000000
 31
0.0000000000000000
  7
STANDARD
  0
MTEXT
  5
5AD
100
AcDbEntity
  8
WAKU0
  6
CONTINUOUS
 62
3
100
AcDbMText
 10
400.0000000476837
 20
20.15000009536743
 30
0.0000000000000000
 40
5.300000190734863
 41
0.0000000000000000
 71
     1
 72
     1
  1
{\H0.81x;{0}}
 11
1.000000000000000
 21
0.0000000000000000
 31
0.0000000000000000
  7
STANDARD
  0
MTEXT
  5
5AE
100
AcDbEntity
  8
WAKU0
  6
CONTINUOUS
 62
3
100
AcDbMText
 10
400.0000000819564
 20
44.84999990463257
 30
0.0000000000000000
 40
5.300000190734863
 41
0.0000000000000000
 71
     7
 72
     1
  1
{\H0.81x;{ }}
 11
1.000000000000000
 21
0.0000000000000000
 31
0.0000000000000000
  7
STANDARD
  0
MTEXT
  5
5AF
100
AcDbEntity
  8
WAKU0
  6
CONTINUOUS
 62
3
100
AcDbMText
 10
289.3850002884865
 20
33.00000000000000
 30
0.0000000000000000
 40
3.000000000000000
 41
0.0000000000000000
 71
     7
 72
     1
  1
{\H0.93x;{DRAWN BY}}
 11
1.000000000000000
 21
0.0000000000000000
 31
0.0000000000000000
  7
STANDARD
  0
MTEXT
  5
5B0
100
AcDbEntity
  8
WAKU0
  6
CONTINUOUS
 62
3
100
AcDbMText
 10
269.2149997949600
 20
32.95000004768372
 30
0.0000000000000000
 40
3.099999904632568
 41
0.0000000000000000
 71
     7
 72
     1
  1
{\H0.92x;{CHIEF}}
 11
1.000000000000000
 21
0.0000000000000000
 31
0.0000000000000000
  7
STANDARD
  0
MTEXT
  5
5B1
100
AcDbEntity
  8
WAKU0
  6
CONTINUOUS
 62
3
100
AcDbMText
 10
242.4249997138977
 20
32.95000004768372
 30
0.0000000000000000
 40
3.099999904632568
 41
0.0000000000000000
 71
     7
 72
     1
  1
{\H0.92x;{MANAGER}}
 11
1.000000000000000
 21
0.0000000000000000
 31
0.0000000000000000
  7
STANDARD
  0
MTEXT
  5
5B2
100
AcDbEntity
  8
WAKU0
  6
CONTINUOUS
 62
3
100
AcDbMText
 10
244.6599994301796
 20
18.13333336512248
 30
0.0000000000000000
 40
3.099999904632568
 41
0.0000000000000000
 71
     7
 72
     1
  1
{\H0.93x;{KITAGAWA IRON\PWORKS CO.,LTD.}}
 11
1.000000000000000
 21
0.0000000000000000
 31
0.0000000000000000
  7
STANDARD
  0
MTEXT
  5
5B3
100
AcDbEntity
  8
WAKU0
  6
CONTINUOUS
 62
3
100
AcDbMText
 10
241.0850002169609
 20
46.50000000000000
 30
0.0000000000000000
 40
3.000000000000000
 41
0.0000000000000000
 71
     7
 72
     1
  1
{\H0.92x;{CAREER}}
 11
1.000000000000000
 21
0.0000000000000000
 31
0.0000000000000000
  7
STANDARD
  0
MTEXT
  5
5B4
100
AcDbEntity
  8
WAKU0
  6
CONTINUOUS
 62
3
100
AcDbMText
 10
294.6099998354912
 20
18.95000004768372
 30
0.0000000000000000
 40
3.099999904632568
 41
0.0000000000000000
 71
     7
 72
     1
  1
{\H0.91x;{DATE}}
 11
1.000000000000000
 21
0.0000000000000000
 31
0.0000000000000000
  7
STANDARD
  0
MTEXT
  5
5B5
100
AcDbEntity
  8
WAKU0
  6
CONTINUOUS
 62
3
100
AcDbMText
 10
313.9000002145767
 20
26.50000000000000
 30
0.0000000000000000
 40
3.000000000000000
 41
0.0000000000000000
 71
     7
 72
     1
  1
{\H0.63x;{3RD ANGLE}}
 11
1.000000000000000
 21
0.0000000000000000
 31
0.0000000000000000
  7
STANDARD
  0
MTEXT
  5
5B6
100
AcDbEntity
  8
WAKU0
  6
CONTINUOUS
 62
3
100
AcDbMText
 10
315.2149997949600
 20
45.95000004768372
 30
0.0000000000000000
 40
3.099999904632568
 41
0.0000000000000000
 71
     7
 72
     1
  1
{\H0.92x;{SCALE}}
 11
1.000000000000000
 21
0.0000000000000000
 31
0.0000000000000000
  7
STANDARD
  0
MTEXT
  5
5B7
100
AcDbEntity
  8
WAKU0
  6
CONTINUOUS
 62
3
100
AcDbMText
 10
405.7000000476837
 20
46.00000000000000
 30
0.0000000000000000
 40
3.000000000000000
 41
0.0000000000000000
 71
     7
 72
     1
  1
{\H0.63x;{kg}}
 11
1.000000000000000
 21
0.0000000000000000
 31
0.0000000000000000
  7
STANDARD
  0
MTEXT
  5
5B8
100
AcDbEntity
  8
WAKU0
  6
CONTINUOUS
 62
3
100
AcDbMText
 10
375.6000001430512
 20
46.00000000000000
 30
0.0000000000000000
 40
3.000000000000000
 41
0.0000000000000000
 71
     7
 72
     1
  1
{\H0.63x;{WEIGHT}}
 11
1.000000000000000
 21
0.0000000000000000
 31
0.0000000000000000
  7
STANDARD
  0
MTEXT
  5
5B9
100
AcDbEntity
  8
WAKU0
  6
CONTINUOUS
 62
3
100
AcDbMText
 10
334.0049998760223
 20
18.13333336512248
 30
0.0000000000000000
 40
3.099999904632568
 41
0.0000000000000000
 71
     7
 72
     1
  1
{\H0.90x;{DRW\PNO.}}
 11
1.000000000000000
 21
0.0000000000000000
 31
0.0000000000000000
  7
STANDARD
  0
MTEXT
  5
5BA
100
AcDbEntity
  8
WAKU0
  6
CONTINUOUS
 62
3
100
AcDbMText
 10
332.6099998354912
 20
31.95000004768372
 30
0.0000000000000000
 40
3.099999904632568
 41
0.0000000000000000
 71
     7
 72
     1
  1
{\H0.91x;{NAME}}
 11
1.000000000000000
 21
0.0000000000000000
 31
0.0000000000000000
  7
STANDARD
  0
MTEXT
  5
5BB
100
AcDbEntity
  8
WAKU0
  6
CONTINUOUS
 62
3
100
AcDbMText
 10
332.6099998354912
 20
45.95000004768372
 30
0.0000000000000000
 40
3.099999904632568
 41
0.0000000000000000
 71
     7
 72
     1
  1
{\H0.91x;{TYPE}}
 11
1.000000000000000
 21
0.0000000000000000
 31
0.0000000000000000
  7
STANDARD
  0
LINE
  5
5BC
100
AcDbEntity
  8
WAKU0
  6
HIDDEN
 62
3
100
AcDbLine
 10
407.1599564743885
 20
13.84999990463257
 30
0.0000000000000000
 11
396.9400436209789
 21
13.84999990463257
 31
0.0000000000000000
  0
LINE
  5
5BD
100
AcDbEntity
  8
WAKU0
  6
HIDDEN
 62
3
100
AcDbLine
 10
407.1599564743885
 20
13.84999990463250
 30
0.0000000000000000
 11
402.0500000476852
 21
22.70070406014901
 31
0.0000000000000000
  0
LINE
  5
5BE
100
AcDbEntity
  8
WAKU0
  6
HIDDEN
 62
3
100
AcDbLine
 10
402.0500000476852
 20
22.70070406014902
 30
0.0000000000000000
 11
396.9400436209789
 21
13.84999990463248
 31
0.0000000000000000
  0
LINE
  5
5BF
100
AcDbEntity
  8
WAKU0
  6
CONTINUOUS
 62
3
100
AcDbLine
 10
330.4713877753800
 20
15.78041421262812
 30
0.0000000000000000
 11
330.4713877753800
 21
21.78041421262815
 31
0.0000000000000000
  0
LINE
  5
5C0
100
AcDbEntity
  8
WAKU0
  6
CONTINUOUS
 62
3
100
AcDbLine
 10
323.9336941228225
 20
17.28041421262811
 30
0.0000000000000000
 11
323.9336941228225
 21
20.28041421262824
 31
0.0000000000000000
  0
LINE
  5
5C1
100
AcDbEntity
  8
WAKU0
  6
CENTER
 62
12
100
AcDbLine
 10
313.4321805514995
 20
18.78041421262813
 30
0.0000000000000000
 11
331.2765788964694
 21
18.78041421262813
 31
0.0000000000000000
  0
LINE
  5
5C2
100
AcDbEntity
  8
WAKU0
  6
CENTER
 62
12
100
AcDbLine
 10
317.4474565857986
 20
14.55921662918448
 30
0.0000000000000000
 11
317.4474565857986
 21
22.89865102149943
 31
0.0000000000000000
  0
LINE
  5
5C3
100
AcDbEntity
  8
WAKU0
  6
CONTINUOUS
 62
3
100
AcDbLine
 10
323.9336941228225
 20
20.28041421262797
 30
0.0000000000000000
 11
330.4713877753800
 21
21.78041421262795
 31
0.0000000000000000
  0
LINE
  5
5C4
100
AcDbEntity
  8
WAKU0
  6
CONTINUOUS
 62
3
100
AcDbLine
 10
323.9336941228225
 20
17.28041421262811
 30
0.0000000000000000
 11
330.4713877753799
 21
15.78041421262812
 31
0.0000000000000000
  0
CIRCLE
  5
5C5
100
AcDbEntity
  8
WAKU0
  6
CONTINUOUS
 62
3
100
AcDbCircle
 10
317.4474565857986
 20
18.78041421262813
 30
0.0000000000000000
 40
1.499999999999972
  0
CIRCLE
  5
5C6
100
AcDbEntity
  8
WAKU0
  6
CONTINUOUS
 62
3
100
AcDbCircle
 10
317.4474565857986
 20
18.78041421262813
 30
0.0000000000000000
 40
2.999999999999979
  0
ENDSEC
  0
SECTION
  2
OBJECTS
  0
DICTIONARY
  5
628
100
AcDbDictionary
  3
ACAD_GROUP
350
629
  3
ACAD_MLINESTYLE
350
62A
  3
DWGPROPS
350
62B
  0
DICTIONARY
  5
629
102
{ACAD_REACTORS
330
628
102
}
100
AcDbDictionary
  0
DICTIONARY
  5
62A
102
{ACAD_REACTORS
330
628
102
}
100
AcDbDictionary
  3
STANDARD
350
62C
  0
MLINESTYLE
  5
62C
102
{ACAD_REACTORS
330
62A
102
}
100
AcDbMlineStyle
  2
STANDARD
 70
     0
  3

 62
   256
 51
90.00
 52
90.00
 71
     2
 49
0.50
 62
   256
  6
BYLAYER
 49
-0.50
 62
   256
  6
BYLAYER
  0
XRECORD
  5
62B
102
{ACAD_REACTORS
330
628
102
}
100
AcDbXrecord
280
     1
  1
DWGPROPS COOKIE
  2
ＶＥ１２５　ガイケイ
  3

  4

  6
パワーバイス
  7

  8

  9

300
=
301
=
302
=
303
=
304
=
305
=
306
=
307
=
308
=
309
=
 40
0.000000
 41
0.000000
 42
0.000000
  1

 90
        0
  0
ENDSEC
  0
EOF
