  0
SECTION
  2
HEADER
  9
$ACADVER
  1
AC1014
  9
$DWGCODEPAGE
  3
ANSI_932
  9
$LTSCALE
 40
20.0
  9
$FILLMODE
 70
     1
  9
$CLAYER
  8
0
  9
$PDMODE
 70
     0
  9
$SPLFRAME
 70
     0
  9
$SPLINETYPE
 70
     6
  9
$SPLINESEGS
 70
     8
  9
$DIMASZ
 40
2.000000
  9
$DIMEXE
 40
2.000000
  9
$DIMEXO
 40
0.800000
  9
$DIMTAD
 70
     1
  9
$DIMTIH
 70
     0
  9
$DIMTOH
 70
     0
  9
$DIMTVP
 40
0.500000
  9
$DIMTXT
 40
3.100000
  9
$EXTMIN
 10
0.000000
 20
0.000000
 30
0.000000
  9
$EXTMAX
 10
297.000000
 20
420.000000
 30
0.000000
  9
$MEASUREMENT
 70
  1
  9
$LIMMIN
 10
0.000000
 20
0.000000
  9
$LIMMAX
 10
297.000000
 20
420.000000
  9
$HANDLING
 70
     1
  9
$HANDSEED
  5
5C1
  9
$DIMBLK
  1
_OPEN
  9
$DIMDEC
 70
     3
  9
$DIMAUNIT
 70
     1
  9
$DIMZIN
 70
     8
  9
$DIMTOFL
 70
     1
  0
ENDSEC
  0
SECTION
  2
CLASSES
  0
ENDSEC
  0
SECTION
  2
TABLES
  0
TABLE
  2
VPORT
  5
55F
100
AcDbSymbolTable
 70
     1
  0
VPORT
  5
560
100
AcDbSymbolTableRecord
100
AcDbViewportTableRecord
  2
*ACTIVE
 70
     0
 12
861.626439
 22
753.248777
 40
3224.295461
 41
1.314634
  0
ENDTAB
  0
TABLE
  2
LTYPE
  5
561
100
AcDbSymbolTable
 70
     4
  0
LTYPE
  5
562
100
AcDbSymbolTableRecord
100
AcDbLinetypeTableRecord
  2
BYBLOCK
 70
     0
  3

 72
    65
 73
     0
 40
0.0
  0
LTYPE
  5
563
100
AcDbSymbolTableRecord
100
AcDbLinetypeTableRecord
  2
BYLAYER
 70
     0
  3

 72
    65
 73
     0
 40
0.0
  0
LTYPE
  5
564
100
AcDbSymbolTableRecord
100
AcDbLinetypeTableRecord
  2
CONTINUOUS
 70
     0
  3
Solid line (NEC CAE2D for Win R12.1 : 2016.08.08)
 72
    65
 73
     0
 40
0.0
  0
LTYPE
  5
565
100
AcDbSymbolTableRecord
100
AcDbLinetypeTableRecord
  2
HIDDEN
 70
     0
  3
__ __ __ __ __ __ __ __ __ __ __ __ __ __
 72
    65
 73
     2
 40
0.375
 49
0.25
 74
     0
 49
-0.125
 74
     0
  0
LTYPE
  5
566
100
AcDbSymbolTableRecord
100
AcDbLinetypeTableRecord
  2
CENTER
 70
     0
  3
____ _ ____ _ ____ _ ____ _ ____ _ ____
 72
    65
 73
     4
 40
2.0
 49
1.25
 74
     0
 49
-0.25
 74
     0
 49
0.25
 74
     0
 49
-0.25
 74
     0
  0
LTYPE
  5
567
100
AcDbSymbolTableRecord
100
AcDbLinetypeTableRecord
  2
PHANTOM
 70
     0
  3
______  __  __  ______  __  __  ______ 
 72
    65
 73
     6
 40
2.5
 49
1.25
 74
     0
 49
-0.25
 74
     0
 49
0.25
 74
     0
 49
-0.25
 74
     0
 49
0.25
 74
     0
 49
-0.25
 74
     0
  0
ENDTAB
  0
TABLE
  2
LAYER
  5
568
100
AcDbSymbolTable
 70
     9
  0
LAYER
  5
569
100
AcDbSymbolTableRecord
100
AcDbLayerTableRecord
  2
0
 70
     0
 62
     7
  6
CONTINUOUS
  0
LAYER
  5
56A
100
AcDbSymbolTableRecord
100
AcDbLayerTableRecord
  2
MAIN0
 70
     0
 62
     7
  6
CONTINUOUS
  0
LAYER
  5
56B
100
AcDbSymbolTableRecord
100
AcDbLayerTableRecord
  2
MAIN1
 70
     0
 62
     7
  6
CONTINUOUS
  0
LAYER
  5
56C
100
AcDbSymbolTableRecord
100
AcDbLayerTableRecord
  2
MAIN3
 70
     0
 62
     7
  6
CONTINUOUS
  0
LAYER
  5
56D
100
AcDbSymbolTableRecord
100
AcDbLayerTableRecord
  2
MAIN1023
 70
     0
 62
    16
  6
CONTINUOUS
  0
LAYER
  5
56E
100
AcDbSymbolTableRecord
100
AcDbLayerTableRecord
  2
WAKU0
 70
     0
 62
     7
  6
CONTINUOUS
  0
LAYER
  5
56F
100
AcDbSymbolTableRecord
100
AcDbLayerTableRecord
  2
WAKU1023
 70
     0
 62
    16
  6
CONTINUOUS
  0
LAYER
  5
570
100
AcDbSymbolTableRecord
100
AcDbLayerTableRecord
  2
A0
 70
     0
 62
     7
  6
CONTINUOUS
  0
LAYER
  5
571
100
AcDbSymbolTableRecord
100
AcDbLayerTableRecord
  2
A1023
 70
     0
 62
    16
  6
CONTINUOUS
  0
ENDTAB
  0
TABLE
  2
STYLE
  5
572
100
AcDbSymbolTable
 70
     4
  0
STYLE
  5
573
100
AcDbSymbolTableRecord
100
AcDbTextStyleTableRecord
  2
STANDARD
 70
    64
 40
0.0
 41
1.0
 50
0.0
 71
     0
 42
7.749999761581421
  3
TXT
  4

  0
STYLE
  5
574
100
AcDbSymbolTableRecord
100
AcDbTextStyleTableRecord
  2
ANKTATE
 70
    68
 40
0.0
 41
1.0
 50
0.0
 71
     0
 42
7.749999761581421
  3
TXT
  4

  0
STYLE
  5
1EB
100
AcDbSymbolTableRecord
100
AcDbTextStyleTableRecord
  2
KNJYOKO
 70
    64
 40
0.0
 41
1.0
 50
0.0
 71
     0
 42
7.749999761581421
  3
TXT
  4
BIGFONT
  0
STYLE
  5
575
100
AcDbSymbolTableRecord
100
AcDbTextStyleTableRecord
  2
KNJTATE
 70
    68
 40
0.0
 41
1.0
 50
0.0
 71
     0
 42
7.749999761581421
  3
TXT
  4
BIGFONT
  0
ENDTAB
  0
TABLE
  2
VIEW
  5
576
100
AcDbSymbolTable
 70
     0
  0
ENDTAB
  0
TABLE
  2
UCS
  5
577
100
AcDbSymbolTable
 70
     0
  0
ENDTAB
  0
TABLE
  2
APPID
  5
578
100
AcDbSymbolTable
 70
     1
  0
APPID
  5
579
100
AcDbSymbolTableRecord
100
AcDbRegAppTableRecord
  2
ACAD
 70
     0
  0
ENDTAB
  0
TABLE
  2
DIMSTYLE
  5
57A
100
AcDbSymbolTable
 70
     1
  0
DIMSTYLE
105
57B
100
AcDbSymbolTableRecord
100
AcDbDimStyleTableRecord
  2
STANDARD
 70
     0
 41
2.000000
 44
2.000000
 42
0.800000
145
0.661290
140
3.100000
144
1.000000
146
0.903226
340
573
  0
DIMSTYLE
105
57C
100
AcDbSymbolTableRecord
100
AcDbDimStyleTableRecord
  2
MAIN001
 70
     0
 41
8.000000
 44
8.000000
 42
3.200000
145
0.540323
140
12.400000
144
1.000000
146
0.903226
 77
     1
 73
     0
 74
     0
271
     3
275
     1
 78
     8
172
     1
340
573
  0
DIMSTYLE
105
57D
100
AcDbSymbolTableRecord
100
AcDbDimStyleTableRecord
  2
WAKU002
 70
     0
 41
2.000000
 44
2.000000
 42
0.800000
145
0.661290
140
3.100000
144
1.000000
146
0.903226
 77
     1
 73
     0
 74
     0
271
     3
275
     1
 78
     8
172
     1
340
573
  0
DIMSTYLE
105
57E
100
AcDbSymbolTableRecord
100
AcDbDimStyleTableRecord
  2
A003
 70
     0
 41
5.000000
 44
5.000000
 42
2.000000
145
0.564516
140
7.750000
144
1.000000
146
0.903226
 77
     1
 73
     0
 74
     0
271
     3
275
     1
 78
     8
172
     1
340
573
  0
ENDTAB
  0
TABLE
  2
BLOCK_RECORD
  5
57F
100
AcDbSymbolTable
 70
    67
  0
BLOCK_RECORD
  5
580
100
AcDbSymbolTableRecord
100
AcDbBlockTableRecord
  2
*MODEL_SPACE
  0
BLOCK_RECORD
  5
581
100
AcDbSymbolTableRecord
100
AcDbBlockTableRecord
  2
*PAPER_SPACE
  0
BLOCK_RECORD
  5
1
100
AcDbSymbolTableRecord
100
AcDbBlockTableRecord
  2
_NONE
  0
BLOCK_RECORD
  5
4
100
AcDbSymbolTableRecord
100
AcDbBlockTableRecord
  2
_CLOSED
  0
BLOCK_RECORD
  5
B
100
AcDbSymbolTableRecord
100
AcDbBlockTableRecord
  2
_DOT
  0
BLOCK_RECORD
  5
13
100
AcDbSymbolTableRecord
100
AcDbBlockTableRecord
  2
_OPEN
  0
BLOCK_RECORD
  5
19
100
AcDbSymbolTableRecord
100
AcDbBlockTableRecord
  2
_ORIGIN
  0
BLOCK_RECORD
  5
1E
100
AcDbSymbolTableRecord
100
AcDbBlockTableRecord
  2
_OPEN30
  0
BLOCK_RECORD
  5
24
100
AcDbSymbolTableRecord
100
AcDbBlockTableRecord
  2
_BOXFILLED
  0
BLOCK_RECORD
  5
29
100
AcDbSymbolTableRecord
100
AcDbBlockTableRecord
  2
_BOXBLANK
  0
BLOCK_RECORD
  5
31
100
AcDbSymbolTableRecord
100
AcDbBlockTableRecord
  2
_OBLIQUE
  0
BLOCK_RECORD
  5
35
100
AcDbSymbolTableRecord
100
AcDbBlockTableRecord
  2
_OPEN90
  0
BLOCK_RECORD
  5
3B
100
AcDbSymbolTableRecord
100
AcDbBlockTableRecord
  2
_CLOSEDBLANK
  0
BLOCK_RECORD
  5
41
100
AcDbSymbolTableRecord
100
AcDbBlockTableRecord
  2
_DOTBLANK
  0
BLOCK_RECORD
  5
582
100
AcDbSymbolTableRecord
100
AcDbBlockTableRecord
  2
*D0
  0
BLOCK_RECORD
  5
583
100
AcDbSymbolTableRecord
100
AcDbBlockTableRecord
  2
*D1
  0
BLOCK_RECORD
  5
584
100
AcDbSymbolTableRecord
100
AcDbBlockTableRecord
  2
*D2
  0
BLOCK_RECORD
  5
585
100
AcDbSymbolTableRecord
100
AcDbBlockTableRecord
  2
*D3
  0
BLOCK_RECORD
  5
586
100
AcDbSymbolTableRecord
100
AcDbBlockTableRecord
  2
*D4
  0
BLOCK_RECORD
  5
587
100
AcDbSymbolTableRecord
100
AcDbBlockTableRecord
  2
*D5
  0
BLOCK_RECORD
  5
588
100
AcDbSymbolTableRecord
100
AcDbBlockTableRecord
  2
*D6
  0
BLOCK_RECORD
  5
589
100
AcDbSymbolTableRecord
100
AcDbBlockTableRecord
  2
*D7
  0
BLOCK_RECORD
  5
58A
100
AcDbSymbolTableRecord
100
AcDbBlockTableRecord
  2
*D8
  0
BLOCK_RECORD
  5
58B
100
AcDbSymbolTableRecord
100
AcDbBlockTableRecord
  2
*D9
  0
BLOCK_RECORD
  5
58C
100
AcDbSymbolTableRecord
100
AcDbBlockTableRecord
  2
*D10
  0
BLOCK_RECORD
  5
58D
100
AcDbSymbolTableRecord
100
AcDbBlockTableRecord
  2
*D11
  0
BLOCK_RECORD
  5
58E
100
AcDbSymbolTableRecord
100
AcDbBlockTableRecord
  2
*D12
  0
BLOCK_RECORD
  5
58F
100
AcDbSymbolTableRecord
100
AcDbBlockTableRecord
  2
*D13
  0
BLOCK_RECORD
  5
590
100
AcDbSymbolTableRecord
100
AcDbBlockTableRecord
  2
*D14
  0
BLOCK_RECORD
  5
591
100
AcDbSymbolTableRecord
100
AcDbBlockTableRecord
  2
*D15
  0
BLOCK_RECORD
  5
592
100
AcDbSymbolTableRecord
100
AcDbBlockTableRecord
  2
*D16
  0
BLOCK_RECORD
  5
593
100
AcDbSymbolTableRecord
100
AcDbBlockTableRecord
  2
*D17
  0
BLOCK_RECORD
  5
594
100
AcDbSymbolTableRecord
100
AcDbBlockTableRecord
  2
*D18
  0
BLOCK_RECORD
  5
595
100
AcDbSymbolTableRecord
100
AcDbBlockTableRecord
  2
*D19
  0
BLOCK_RECORD
  5
596
100
AcDbSymbolTableRecord
100
AcDbBlockTableRecord
  2
*D20
  0
BLOCK_RECORD
  5
597
100
AcDbSymbolTableRecord
100
AcDbBlockTableRecord
  2
*D21
  0
BLOCK_RECORD
  5
598
100
AcDbSymbolTableRecord
100
AcDbBlockTableRecord
  2
*D22
  0
BLOCK_RECORD
  5
599
100
AcDbSymbolTableRecord
100
AcDbBlockTableRecord
  2
*D23
  0
BLOCK_RECORD
  5
59A
100
AcDbSymbolTableRecord
100
AcDbBlockTableRecord
  2
*D24
  0
BLOCK_RECORD
  5
59B
100
AcDbSymbolTableRecord
100
AcDbBlockTableRecord
  2
*D25
  0
BLOCK_RECORD
  5
59C
100
AcDbSymbolTableRecord
100
AcDbBlockTableRecord
  2
*D26
  0
BLOCK_RECORD
  5
59D
100
AcDbSymbolTableRecord
100
AcDbBlockTableRecord
  2
*D27
  0
BLOCK_RECORD
  5
59E
100
AcDbSymbolTableRecord
100
AcDbBlockTableRecord
  2
*D28
  0
BLOCK_RECORD
  5
59F
100
AcDbSymbolTableRecord
100
AcDbBlockTableRecord
  2
*D29
  0
BLOCK_RECORD
  5
5A0
100
AcDbSymbolTableRecord
100
AcDbBlockTableRecord
  2
*D30
  0
BLOCK_RECORD
  5
5A1
100
AcDbSymbolTableRecord
100
AcDbBlockTableRecord
  2
*D31
  0
BLOCK_RECORD
  5
5A2
100
AcDbSymbolTableRecord
100
AcDbBlockTableRecord
  2
*D32
  0
BLOCK_RECORD
  5
5A3
100
AcDbSymbolTableRecord
100
AcDbBlockTableRecord
  2
*D33
  0
BLOCK_RECORD
  5
5A4
100
AcDbSymbolTableRecord
100
AcDbBlockTableRecord
  2
*D34
  0
BLOCK_RECORD
  5
5A5
100
AcDbSymbolTableRecord
100
AcDbBlockTableRecord
  2
*D35
  0
BLOCK_RECORD
  5
5A6
100
AcDbSymbolTableRecord
100
AcDbBlockTableRecord
  2
*D36
  0
BLOCK_RECORD
  5
5A7
100
AcDbSymbolTableRecord
100
AcDbBlockTableRecord
  2
*D37
  0
BLOCK_RECORD
  5
5A8
100
AcDbSymbolTableRecord
100
AcDbBlockTableRecord
  2
*D38
  0
BLOCK_RECORD
  5
5A9
100
AcDbSymbolTableRecord
100
AcDbBlockTableRecord
  2
*D39
  0
BLOCK_RECORD
  5
5AA
100
AcDbSymbolTableRecord
100
AcDbBlockTableRecord
  2
*D40
  0
BLOCK_RECORD
  5
5AB
100
AcDbSymbolTableRecord
100
AcDbBlockTableRecord
  2
*D41
  0
BLOCK_RECORD
  5
5AC
100
AcDbSymbolTableRecord
100
AcDbBlockTableRecord
  2
D42
  0
BLOCK_RECORD
  5
5AD
100
AcDbSymbolTableRecord
100
AcDbBlockTableRecord
  2
*D43
  0
BLOCK_RECORD
  5
5AE
100
AcDbSymbolTableRecord
100
AcDbBlockTableRecord
  2
*D44
  0
BLOCK_RECORD
  5
5AF
100
AcDbSymbolTableRecord
100
AcDbBlockTableRecord
  2
*D45
  0
BLOCK_RECORD
  5
5B0
100
AcDbSymbolTableRecord
100
AcDbBlockTableRecord
  2
*D46
  0
BLOCK_RECORD
  5
5B1
100
AcDbSymbolTableRecord
100
AcDbBlockTableRecord
  2
*D47
  0
BLOCK_RECORD
  5
5B2
100
AcDbSymbolTableRecord
100
AcDbBlockTableRecord
  2
*D48
  0
BLOCK_RECORD
  5
5B3
100
AcDbSymbolTableRecord
100
AcDbBlockTableRecord
  2
*D49
  0
BLOCK_RECORD
  5
5B4
100
AcDbSymbolTableRecord
100
AcDbBlockTableRecord
  2
*D50
  0
BLOCK_RECORD
  5
5B5
100
AcDbSymbolTableRecord
100
AcDbBlockTableRecord
  2
*D51
  0
BLOCK_RECORD
  5
5B6
100
AcDbSymbolTableRecord
100
AcDbBlockTableRecord
  2
*D52
  0
BLOCK_RECORD
  5
5B7
100
AcDbSymbolTableRecord
100
AcDbBlockTableRecord
  2
*D53
  0
BLOCK_RECORD
  5
5B8
100
AcDbSymbolTableRecord
100
AcDbBlockTableRecord
  2
*D54
  0
ENDTAB
  0
ENDSEC
  0
SECTION
  2
BLOCKS
  0
BLOCK
  5
5B9
100
AcDbEntity
  8
0
100
AcDbBlockBegin
  2
*MODEL_SPACE
 70
     0
 10
0.0
 20
0.0
 30
0.0
  3
*MODEL_SPACE
  1

  0
ENDBLK
  5
5BA
100
AcDbEntity
  8
0
100
AcDbBlockEnd
  0
BLOCK
  5
5BB
100
AcDbEntity
  8
0
100
AcDbBlockBegin
  2
*PAPER_SPACE
 70
     0
 10
0.0
 20
0.0
 30
0.0
  3
*PAPER_SPACE
  1

  0
ENDBLK
  5
5BC
100
AcDbEntity
  8
0
100
AcDbBlockEnd
  0
BLOCK
  5
2
100
AcDbEntity
  8
0
100
AcDbBlockBegin
  2
_NONE
 70
     0
 10
0.0
 20
0.0
 30
0.0
  3
_NONE
  1

  0
ENDBLK
  5
3
100
AcDbEntity
  8
0
100
AcDbBlockEnd
  0
BLOCK
  5
5
100
AcDbEntity
  8
0
100
AcDbBlockBegin
  2
_CLOSED
 70
     0
 10
0.0
 20
0.0
 30
0.0
  3
_CLOSED
  1

  0
LINE
  5
6
100
AcDbEntity
  8
0
  6
BYBLOCK
 62
     0
100
AcDbLine
 10
-1.0
 20
0.166667
 30
0.0
 11
0.0
 21
0.0
 31
0.0
  0
LINE
  5
7
100
AcDbEntity
  8
0
  6
BYBLOCK
 62
     0
100
AcDbLine
 10
0.0
 20
0.0
 30
0.0
 11
-1.0
 21
-0.166667
 31
0.0
  0
LINE
  5
8
100
AcDbEntity
  8
0
  6
BYBLOCK
 62
     0
100
AcDbLine
 10
-1.0
 20
0.166667
 30
0.0
 11
-1.0
 21
-0.166667
 31
0.0
  0
LINE
  5
9
100
AcDbEntity
  8
0
  6
BYBLOCK
 62
     0
100
AcDbLine
 10
0.0
 20
0.0
 30
0.0
 11
-1.0
 21
0.0
 31
0.0
  0
ENDBLK
  5
A
100
AcDbEntity
  8
0
100
AcDbBlockEnd
  0
BLOCK
  5
C
100
AcDbEntity
  8
0
100
AcDbBlockBegin
  2
_DOT
 70
     0
 10
0.0
 20
0.0
 30
0.0
  3
_DOT
  1

  0
POLYLINE
  5
D
100
AcDbEntity
  8
0
  6
BYBLOCK
 62
     0
100
AcDb2dPolyline
 66
     1
 10
0.0
 20
0.0
 30
0.0
 70
     1
 40
0.5
 41
0.5
  0
VERTEX
  5
E
100
AcDbEntity
  8
0
  6
BYBLOCK
 62
     0
100
AcDbVertex
100
AcDb2dVertex
 10
-0.25
 20
0.0
 30
0.0
 42
1.0
  0
VERTEX
  5
F
100
AcDbEntity
  8
0
  6
BYBLOCK
 62
     0
100
AcDbVertex
100
AcDb2dVertex
 10
0.25
 20
0.0
 30
0.0
 42
1.0
  0
SEQEND
  5
10
100
AcDbEntity
  8
0
  6
BYBLOCK
 62
     0
  0
LINE
  5
11
100
AcDbEntity
  8
0
  6
BYBLOCK
 62
     0
100
AcDbLine
 10
-0.5
 20
0.0
 30
0.0
 11
-1.0
 21
0.0
 31
0.0
  0
ENDBLK
  5
12
100
AcDbEntity
  8
0
100
AcDbBlockEnd
  0
BLOCK
  5
14
100
AcDbEntity
  8
0
100
AcDbBlockBegin
  2
_OPEN
 70
     0
 10
0.0
 20
0.0
 30
0.0
  3
_OPEN
  1

  0
LINE
  5
15
100
AcDbEntity
  8
0
  6
BYBLOCK
 62
     0
100
AcDbLine
 10
-1.0
 20
0.166667
 30
0.0
 11
0.0
 21
0.0
 31
0.0
  0
LINE
  5
16
100
AcDbEntity
  8
0
  6
BYBLOCK
 62
     0
100
AcDbLine
 10
0.0
 20
0.0
 30
0.0
 11
-1.0
 21
-0.166667
 31
0.0
  0
LINE
  5
17
100
AcDbEntity
  8
0
  6
BYBLOCK
 62
     0
100
AcDbLine
 10
0.0
 20
0.0
 30
0.0
 11
-1.0
 21
0.0
 31
0.0
  0
ENDBLK
  5
18
100
AcDbEntity
  8
0
100
AcDbBlockEnd
  0
BLOCK
  5
1A
100
AcDbEntity
  8
0
100
AcDbBlockBegin
  2
_ORIGIN
 70
     0
 10
0.0
 20
0.0
 30
0.0
  3
_ORIGIN
  1

  0
CIRCLE
  5
1B
100
AcDbEntity
  8
0
  6
BYBLOCK
 62
     0
100
AcDbCircle
 10
0.0
 20
0.0
 30
0.0
 40
0.5
  0
LINE
  5
1C
100
AcDbEntity
  8
0
  6
BYBLOCK
 62
     0
100
AcDbLine
 10
0.0
 20
0.0
 30
0.0
 11
-1.0
 21
0.0
 31
0.0
  0
ENDBLK
  5
1D
100
AcDbEntity
  8
0
100
AcDbBlockEnd
  0
BLOCK
  5
1F
100
AcDbEntity
  8
0
100
AcDbBlockBegin
  2
_OPEN30
 70
     0
 10
0.0
 20
0.0
 30
0.0
  3
_OPEN30
  1

  0
LINE
  5
20
100
AcDbEntity
  8
0
  6
BYBLOCK
 62
     0
100
AcDbLine
 10
-1.0
 20
0.267949
 30
0.0
 11
0.0
 21
0.0
 31
0.0
  0
LINE
  5
21
100
AcDbEntity
  8
0
  6
BYBLOCK
 62
     0
100
AcDbLine
 10
0.0
 20
0.0
 30
0.0
 11
-1.0
 21
-0.267949
 31
0.0
  0
LINE
  5
22
100
AcDbEntity
  8
0
  6
BYBLOCK
 62
     0
100
AcDbLine
 10
0.0
 20
0.0
 30
0.0
 11
-1.0
 21
0.0
 31
0.0
  0
ENDBLK
  5
23
100
AcDbEntity
  8
0
100
AcDbBlockEnd
  0
BLOCK
  5
25
100
AcDbEntity
  8
0
100
AcDbBlockBegin
  2
_BOXFILLED
 70
     0
 10
0.0
 20
0.0
 30
0.0
  3
_BOXFILLED
  1

  0
SOLID
  5
26
100
AcDbEntity
  8
0
  6
BYBLOCK
 62
     0
100
AcDbTrace
 10
-0.5
 20
0.5
 30
0.0
 11
0.5
 21
0.5
 31
0.0
 12
-0.5
 22
-0.5
 32
0.0
 13
0.5
 23
-0.5
 33
0.0
  0
LINE
  5
27
100
AcDbEntity
  8
0
  6
BYBLOCK
 62
     0
100
AcDbLine
 10
-0.5
 20
0.0
 30
0.0
 11
-1.0
 21
0.0
 31
0.0
  0
ENDBLK
  5
28
100
AcDbEntity
  8
0
100
AcDbBlockEnd
  0
BLOCK
  5
2A
100
AcDbEntity
  8
0
100
AcDbBlockBegin
  2
_BOXBLANK
 70
     0
 10
0.0
 20
0.0
 30
0.0
  3
_BOXBLANK
  1

  0
LINE
  5
2B
100
AcDbEntity
  8
0
  6
BYBLOCK
 62
     0
100
AcDbLine
 10
-0.5
 20
-0.5
 30
0.0
 11
0.5
 21
-0.5
 31
0.0
  0
LINE
  5
2C
100
AcDbEntity
  8
0
  6
BYBLOCK
 62
     0
100
AcDbLine
 10
0.5
 20
-0.5
 30
0.0
 11
0.5
 21
0.5
 31
0.0
  0
LINE
  5
2D
100
AcDbEntity
  8
0
  6
BYBLOCK
 62
     0
100
AcDbLine
 10
0.5
 20
0.5
 30
0.0
 11
-0.5
 21
0.5
 31
0.0
  0
LINE
  5
2E
100
AcDbEntity
  8
0
  6
BYBLOCK
 62
     0
100
AcDbLine
 10
-0.5
 20
0.5
 30
0.0
 11
-0.5
 21
-0.5
 31
0.0
  0
LINE
  5
2F
100
AcDbEntity
  8
0
  6
BYBLOCK
 62
     0
100
AcDbLine
 10
-0.5
 20
0.0
 30
0.0
 11
-1.0
 21
0.0
 31
0.0
  0
ENDBLK
  5
30
100
AcDbEntity
  8
0
100
AcDbBlockEnd
  0
BLOCK
  5
32
100
AcDbEntity
  8
0
100
AcDbBlockBegin
  2
_OBLIQUE
 70
     0
 10
0.0
 20
0.0
 30
0.0
  3
_OBLIQUE
  1

  0
LINE
  5
33
100
AcDbEntity
  8
0
  6
BYBLOCK
 62
     0
100
AcDbLine
 10
-0.5
 20
-0.5
 30
0.0
 11
0.5
 21
0.5
 31
0.0
  0
ENDBLK
  5
34
100
AcDbEntity
  8
0
100
AcDbBlockEnd
  0
BLOCK
  5
36
100
AcDbEntity
  8
0
100
AcDbBlockBegin
  2
_OPEN90
 70
     0
 10
0.0
 20
0.0
 30
0.0
  3
_OPEN90
  1

  0
LINE
  5
37
100
AcDbEntity
  8
0
  6
BYBLOCK
 62
     0
100
AcDbLine
 10
-0.5
 20
0.5
 30
0.0
 11
0.0
 21
0.0
 31
0.0
  0
LINE
  5
38
100
AcDbEntity
  8
0
  6
BYBLOCK
 62
     0
100
AcDbLine
 10
0.0
 20
0.0
 30
0.0
 11
-0.5
 21
-0.5
 31
0.0
  0
LINE
  5
39
100
AcDbEntity
  8
0
  6
BYBLOCK
 62
     0
100
AcDbLine
 10
0.0
 20
0.0
 30
0.0
 11
-1.0
 21
0.0
 31
0.0
  0
ENDBLK
  5
3A
100
AcDbEntity
  8
0
100
AcDbBlockEnd
  0
BLOCK
  5
3C
100
AcDbEntity
  8
0
100
AcDbBlockBegin
  2
_CLOSEDBLANK
 70
     0
 10
0.0
 20
0.0
 30
0.0
  3
_CLOSEDBLANK
  1

  0
LINE
  5
3D
100
AcDbEntity
  8
0
  6
BYBLOCK
 62
     0
100
AcDbLine
 10
-1.0
 20
0.1666666666666666
 30
0.0
 11
0.0
 21
0.0
 31
0.0
  0
LINE
  5
3E
100
AcDbEntity
  8
0
  6
BYBLOCK
 62
     0
100
AcDbLine
 10
0.0
 20
0.0
 30
0.0
 11
-1.0
 21
-0.1666666666666666
 31
0.0
  0
LINE
  5
3F
100
AcDbEntity
  8
0
  6
BYBLOCK
 62
     0
100
AcDbLine
 10
-1.0
 20
0.1666666666666666
 30
0.0
 11
-1.0
 21
-0.1666666666666666
 31
0.0
  0
ENDBLK
  5
40
100
AcDbEntity
  8
0
100
AcDbBlockEnd
  0
BLOCK
  5
42
100
AcDbEntity
  8
0
100
AcDbBlockBegin
  2
_DOTBLANK
 70
     0
 10
0.0
 20
0.0
 30
0.0
  3
_DOTBLANK
  1

  0
CIRCLE
  5
43
100
AcDbEntity
  8
0
  6
BYBLOCK
 62
     0
100
AcDbCircle
 10
0.0
 20
0.0
 30
0.0
 40
0.5
  0
LINE
  5
44
100
AcDbEntity
  8
0
  6
BYBLOCK
 62
     0
100
AcDbLine
 10
-0.5
 20
0.0
 30
0.0
 11
-1.0
 21
0.0
 31
0.0
  0
ENDBLK
  5
45
100
AcDbEntity
  8
0
100
AcDbBlockEnd
  0
BLOCK
  5
C3
100
AcDbEntity
  8
MAIN0
  6
CONTINUOUS
 62
3
100
AcDbBlockBegin
  2
*D0
 70
    65
 10
0.0
 20
0.0
 30
0.0
  0
LINE
  5
C4
100
AcDbEntity
  8
MAIN0
  6
BYBLOCK
 62
0
100
AcDbLine
 10
480.2709459281037
 20
429.8202680690126
 30
0.0000000000000000
 11
480.2709459281037
 21
252.1595392167135
 31
0.0000000000000000
  0
LINE
  5
C5
100
AcDbEntity
  8
MAIN0
  6
BYBLOCK
 62
0
100
AcDbLine
 10
488.2709459281037
 20
260.1595392167135
 30
0.0000000000000000
 11
1077.270945928104
 21
260.1595392167135
 31
0.0000000000000000
  0
INSERT
  5
C6
100
AcDbEntity
  8
MAIN0
  6
BYBLOCK
 62
0
100
AcDbBlockReference
  2
_OPEN
 10
480.2709459281037
 20
260.1595392167135
 30
0.0000000000000000
 41
8.000000000000000
 42
8.000000000000000
 43
8.000000000000000
 50
180.0000000000000
  0
INSERT
  5
C7
100
AcDbEntity
  8
MAIN0
  6
BYBLOCK
 62
0
100
AcDbBlockReference
  2
_OPEN
 10
1085.270945928104
 20
260.1595392167135
 30
0.0000000000000000
 41
8.000000000000000
 42
8.000000000000000
 43
8.000000000000000
 50
0.0000000000000000
  0
LINE
  5
C8
100
AcDbEntity
  8
MAIN0
  6
BYBLOCK
 62
0
100
AcDbLine
 10
1085.270945928104
 20
497.8202680690107
 30
0.0000000000000000
 11
1085.270945928104
 21
252.1595392167135
 31
0.0000000000000000
  0
MTEXT
  5
C9
100
AcDbEntity
  8
MAIN0
  6
BYBLOCK
 62
0
100
AcDbMText
 10
782.7709459281039
 20
266.8595390259787
 30
0.0000000000000000
 40
12.39999961853027
 41
0.0000000000000000
 71
     5
 72
     1
  1
\A1;605
 11
1.000000000000000
 21
0.0000000000000000
 31
0.0000000000000000
  7
STANDARD
  0
ENDBLK
  5
CA
100
AcDbEntity
  8
MAIN0
  6
CONTINUOUS
 62
3
100
AcDbBlockEnd
  0
BLOCK
  5
CC
100
AcDbEntity
  8
MAIN0
  6
CONTINUOUS
 62
3
100
AcDbBlockBegin
  2
*D1
 70
    65
 10
0.0
 20
0.0
 30
0.0
  0
LINE
  5
CD
100
AcDbEntity
  8
MAIN0
  6
BYBLOCK
 62
0
100
AcDbLine
 10
602.8490343202234
 20
433.0202681166959
 30
0.0000000000000000
 11
602.8490343202234
 21
428.0202681166958
 31
0.0000000000000000
  0
INSERT
  5
CE
100
AcDbEntity
  8
MAIN0
  6
BYBLOCK
 62
0
100
AcDbBlockReference
  2
_OPEN
 10
602.8490343202234
 20
433.0202681166959
 30
0.0000000000000000
 41
8.000000000000000
 42
8.000000000000000
 43
8.000000000000000
 50
270.0000000000000
  0
INSERT
  5
CF
100
AcDbEntity
  8
MAIN0
  6
BYBLOCK
 62
0
100
AcDbBlockReference
  2
_OPEN
 10
602.8490343202234
 20
428.0202681166958
 30
0.0000000000000000
 41
8.000000000000000
 42
8.000000000000000
 43
8.000000000000000
 50
90.00000000000000
  0
LINE
  5
D0
100
AcDbEntity
  8
MAIN0
  6
BYBLOCK
 62
0
100
AcDbLine
 10
602.8490343202234
 20
441.0202681166959
 30
0.0000000000000000
 11
602.8490343202234
 21
445.0202681166959
 31
0.0000000000000000
  0
LINE
  5
D1
100
AcDbEntity
  8
MAIN0
  6
BYBLOCK
 62
0
100
AcDbLine
 10
602.8490343202234
 20
420.0202681166958
 30
0.0000000000000000
 11
602.8490343202234
 21
411.3581834745841
 31
0.0000000000000000
  0
LINE
  5
D2
100
AcDbEntity
  8
MAIN0
  6
BYBLOCK
 62
0
100
AcDbLine
 10
645.0709458804199
 20
428.0202681166958
 30
0.0000000000000000
 11
594.8490343202234
 21
428.0202681166958
 31
0.0000000000000000
  0
MTEXT
  5
D3
100
AcDbEntity
  8
MAIN0
  6
BYBLOCK
 62
0
100
AcDbMText
 10
594.6490345109582
 20
415.3581834745841
 30
0.0000000000000000
 40
12.39999961853027
 41
0.0000000000000000
 71
     5
 72
     1
  1
\A1;5
 11
6.123233995736766e-017
 21
1.000000000000000
 31
0.0000000000000000
  7
STANDARD
  0
ENDBLK
  5
D4
100
AcDbEntity
  8
MAIN0
  6
CONTINUOUS
 62
3
100
AcDbBlockEnd
  0
BLOCK
  5
D6
100
AcDbEntity
  8
MAIN0
  6
CONTINUOUS
 62
3
100
AcDbBlockBegin
  2
*D2
 70
    65
 10
0.0
 20
0.0
 30
0.0
  0
LINE
  5
D7
100
AcDbEntity
  8
MAIN0
  6
BYBLOCK
 62
0
100
AcDbLine
 10
325.5112450847397
 20
433.0202681166969
 30
0.0000000000000000
 11
374.7485140234415
 21
433.0202681166969
 31
0.0000000000000000
  0
LINE
  5
D8
100
AcDbEntity
  8
MAIN0
  6
BYBLOCK
 62
0
100
AcDbLine
 10
366.7485140234415
 20
433.0202681166969
 30
0.0000000000000000
 11
366.7485140234415
 21
454.0202681166969
 31
0.0000000000000000
  0
INSERT
  5
D9
100
AcDbEntity
  8
MAIN0
  6
BYBLOCK
 62
0
100
AcDbBlockReference
  2
_OPEN
 10
366.7485140234415
 20
433.0202681166969
 30
0.0000000000000000
 41
8.000000000000000
 42
8.000000000000000
 43
8.000000000000000
 50
90.00000000000000
  0
INSERT
  5
DA
100
AcDbEntity
  8
MAIN0
  6
BYBLOCK
 62
0
100
AcDbBlockReference
  2
_OPEN
 10
366.7485140234415
 20
454.0202681166969
 30
0.0000000000000000
 41
8.000000000000000
 42
8.000000000000000
 43
8.000000000000000
 50
270.0000000000000
  0
LINE
  5
DB
100
AcDbEntity
  8
MAIN0
  6
BYBLOCK
 62
0
100
AcDbLine
 10
366.7485140234415
 20
425.0202681166969
 30
0.0000000000000000
 11
366.7485140234415
 21
421.0202681166969
 31
0.0000000000000000
  0
LINE
  5
DC
100
AcDbEntity
  8
MAIN0
  6
BYBLOCK
 62
0
100
AcDbLine
 10
366.7485140234415
 20
462.0202681166969
 30
0.0000000000000000
 11
366.7485140234415
 21
466.0202681166969
 31
0.0000000000000000
  0
LINE
  5
DD
100
AcDbEntity
  8
MAIN0
  6
BYBLOCK
 62
0
100
AcDbLine
 10
325.5112450847397
 20
454.0202681166969
 30
0.0000000000000000
 11
374.7485140234415
 21
454.0202681166969
 31
0.0000000000000000
  0
MTEXT
  5
DE
100
AcDbEntity
  8
MAIN0
  6
BYBLOCK
 62
0
100
AcDbMText
 10
360.0485142141764
 20
443.5202681166969
 30
0.0000000000000000
 40
12.39999961853027
 41
0.0000000000000000
 71
     5
 72
     1
  1
\A1;21
 11
6.123233995736766e-017
 21
1.000000000000000
 31
0.0000000000000000
  7
STANDARD
  0
ENDBLK
  5
DF
100
AcDbEntity
  8
MAIN0
  6
CONTINUOUS
 62
3
100
AcDbBlockEnd
  0
BLOCK
  5
E1
100
AcDbEntity
  8
MAIN0
  6
CONTINUOUS
 62
3
100
AcDbBlockBegin
  2
*D3
 70
    65
 10
0.0
 20
0.0
 30
0.0
  0
LINE
  5
E2
100
AcDbEntity
  8
MAIN0
  6
BYBLOCK
 62
0
100
AcDbLine
 10
325.5112450847397
 20
454.0202681166969
 30
0.0000000000000000
 11
374.7485140234415
 21
454.0202681166969
 31
0.0000000000000000
  0
LINE
  5
E3
100
AcDbEntity
  8
MAIN0
  6
BYBLOCK
 62
0
100
AcDbLine
 10
366.7485140234415
 20
462.0202681166969
 30
0.0000000000000000
 11
366.7485140234415
 21
496.0202681166969
 31
0.0000000000000000
  0
INSERT
  5
E4
100
AcDbEntity
  8
MAIN0
  6
BYBLOCK
 62
0
100
AcDbBlockReference
  2
_OPEN
 10
366.7485140234415
 20
454.0202681166969
 30
0.0000000000000000
 41
8.000000000000000
 42
8.000000000000000
 43
8.000000000000000
 50
270.0000000000000
  0
INSERT
  5
E5
100
AcDbEntity
  8
MAIN0
  6
BYBLOCK
 62
0
100
AcDbBlockReference
  2
_OPEN
 10
366.7485140234415
 20
504.0202681166969
 30
0.0000000000000000
 41
8.000000000000000
 42
8.000000000000000
 43
8.000000000000000
 50
90.00000000000000
  0
LINE
  5
E6
100
AcDbEntity
  8
MAIN0
  6
BYBLOCK
 62
0
100
AcDbLine
 10
325.5112450847397
 20
504.0202681166969
 30
0.0000000000000000
 11
374.7485140234415
 21
504.0202681166969
 31
0.0000000000000000
  0
MTEXT
  5
E7
100
AcDbEntity
  8
MAIN0
  6
BYBLOCK
 62
0
100
AcDbMText
 10
360.0485142141764
 20
479.0202681166969
 30
0.0000000000000000
 40
12.39999961853027
 41
0.0000000000000000
 71
     5
 72
     1
  1
\A1;50
 11
6.123233995736766e-017
 21
1.000000000000000
 31
0.0000000000000000
  7
STANDARD
  0
ENDBLK
  5
E8
100
AcDbEntity
  8
MAIN0
  6
CONTINUOUS
 62
3
100
AcDbBlockEnd
  0
BLOCK
  5
EA
100
AcDbEntity
  8
MAIN0
  6
CONTINUOUS
 62
3
100
AcDbBlockBegin
  2
*D4
 70
    65
 10
0.0
 20
0.0
 30
0.0
  0
LINE
  5
EB
100
AcDbEntity
  8
MAIN0
  6
BYBLOCK
 62
0
100
AcDbLine
 10
325.5112450847397
 20
504.0202681166969
 30
0.0000000000000000
 11
374.7485140234415
 21
504.0202681166969
 31
0.0000000000000000
  0
LINE
  5
EC
100
AcDbEntity
  8
MAIN0
  6
BYBLOCK
 62
0
100
AcDbLine
 10
366.7485140234415
 20
512.0202681166969
 30
0.0000000000000000
 11
366.7485140234415
 21
560.0202681166969
 31
0.0000000000000000
  0
INSERT
  5
ED
100
AcDbEntity
  8
MAIN0
  6
BYBLOCK
 62
0
100
AcDbBlockReference
  2
_OPEN
 10
366.7485140234415
 20
504.0202681166969
 30
0.0000000000000000
 41
8.000000000000000
 42
8.000000000000000
 43
8.000000000000000
 50
270.0000000000000
  0
INSERT
  5
EE
100
AcDbEntity
  8
MAIN0
  6
BYBLOCK
 62
0
100
AcDbBlockReference
  2
_OPEN
 10
366.7485140234415
 20
568.0202681166969
 30
0.0000000000000000
 41
8.000000000000000
 42
8.000000000000000
 43
8.000000000000000
 50
90.00000000000000
  0
LINE
  5
EF
100
AcDbEntity
  8
MAIN0
  6
BYBLOCK
 62
0
100
AcDbLine
 10
325.8112450844978
 20
568.0202681166969
 30
0.0000000000000000
 11
374.7485140234415
 21
568.0202681166969
 31
0.0000000000000000
  0
MTEXT
  5
F0
100
AcDbEntity
  8
MAIN0
  6
BYBLOCK
 62
0
100
AcDbMText
 10
360.0485142141764
 20
536.0202681166969
 30
0.0000000000000000
 40
12.39999961853027
 41
0.0000000000000000
 71
     5
 72
     1
  1
\A1;64
 11
6.123233995736766e-017
 21
1.000000000000000
 31
0.0000000000000000
  7
STANDARD
  0
ENDBLK
  5
F1
100
AcDbEntity
  8
MAIN0
  6
CONTINUOUS
 62
3
100
AcDbBlockEnd
  0
BLOCK
  5
F3
100
AcDbEntity
  8
MAIN0
  6
CONTINUOUS
 62
3
100
AcDbBlockBegin
  2
*D5
 70
    65
 10
0.0
 20
0.0
 30
0.0
  0
LINE
  5
F4
100
AcDbEntity
  8
MAIN0
  6
BYBLOCK
 62
0
100
AcDbLine
 10
321.3112450370560
 20
626.2202681643806
 30
0.0000000000000000
 11
321.3112450370560
 21
685.9844418655634
 31
0.0000000000000000
  0
LINE
  5
F5
100
AcDbEntity
  8
MAIN0
  6
BYBLOCK
 62
0
100
AcDbLine
 10
313.3112450370560
 20
677.9844418655634
 30
0.0000000000000000
 11
129.3112450370560
 21
677.9844418655634
 31
0.0000000000000000
  0
INSERT
  5
F6
100
AcDbEntity
  8
MAIN0
  6
BYBLOCK
 62
0
100
AcDbBlockReference
  2
_OPEN
 10
321.3112450370560
 20
677.9844418655634
 30
0.0000000000000000
 41
8.000000000000000
 42
8.000000000000000
 43
8.000000000000000
 50
360.0000000000000
  0
INSERT
  5
F7
100
AcDbEntity
  8
MAIN0
  6
BYBLOCK
 62
0
100
AcDbBlockReference
  2
_OPEN
 10
121.3112450370560
 20
677.9844418655634
 30
0.0000000000000000
 41
8.000000000000000
 42
8.000000000000000
 43
8.000000000000000
 50
180.0000000000000
  0
LINE
  5
F8
100
AcDbEntity
  8
MAIN0
  6
BYBLOCK
 62
0
100
AcDbLine
 10
121.3112450370560
 20
626.2202681643813
 30
0.0000000000000000
 11
121.3112450370560
 21
685.9844418655634
 31
0.0000000000000000
  0
MTEXT
  5
F9
100
AcDbEntity
  8
MAIN0
  6
BYBLOCK
 62
0
100
AcDbMText
 10
221.3112450370560
 20
684.6844416748286
 30
0.0000000000000000
 40
12.39999961853027
 41
0.0000000000000000
 71
     5
 72
     1
  1
\A1;200
 11
1.000000000000000
 21
0.0000000000000000
 31
0.0000000000000000
  7
STANDARD
  0
ENDBLK
  5
FA
100
AcDbEntity
  8
MAIN0
  6
CONTINUOUS
 62
3
100
AcDbBlockEnd
  0
BLOCK
  5
100
100
AcDbEntity
  8
MAIN0
  6
CONTINUOUS
 62
3
100
AcDbBlockBegin
  2
*D6
 70
    65
 10
0.0
 20
0.0
 30
0.0
  0
LINE
  5
101
100
AcDbEntity
  8
MAIN0
  6
BYBLOCK
 62
0
100
AcDbLine
 10
648.2709459281037
 20
424.8202680690121
 30
0.0000000000000000
 11
648.2709459281037
 21
386.3052037551028
 31
0.0000000000000000
  0
LINE
  5
102
100
AcDbEntity
  8
MAIN0
  6
BYBLOCK
 62
0
100
AcDbLine
 10
648.2709459281037
 20
394.3052037551028
 30
0.0000000000000000
 11
666.2709459281037
 21
394.3052037551028
 31
0.0000000000000000
  0
INSERT
  5
103
100
AcDbEntity
  8
MAIN0
  6
BYBLOCK
 62
0
100
AcDbBlockReference
  2
_OPEN
 10
648.2709459281037
 20
394.3052037551028
 30
0.0000000000000000
 41
8.000000000000000
 42
8.000000000000000
 43
8.000000000000000
 50
0.0000000000000000
  0
INSERT
  5
104
100
AcDbEntity
  8
MAIN0
  6
BYBLOCK
 62
0
100
AcDbBlockReference
  2
_OPEN
 10
666.2709459281037
 20
394.3052037551028
 30
0.0000000000000000
 41
8.000000000000000
 42
8.000000000000000
 43
8.000000000000000
 50
180.0000000000000
  0
LINE
  5
105
100
AcDbEntity
  8
MAIN0
  6
BYBLOCK
 62
0
100
AcDbLine
 10
640.2709459281037
 20
394.3052037551028
 30
0.0000000000000000
 11
636.2709459281037
 21
394.3052037551028
 31
0.0000000000000000
  0
LINE
  5
106
100
AcDbEntity
  8
MAIN0
  6
BYBLOCK
 62
0
100
AcDbLine
 10
674.2709459281037
 20
394.3052037551028
 30
0.0000000000000000
 11
693.4080829543831
 21
394.3052037551028
 31
0.0000000000000000
  0
LINE
  5
107
100
AcDbEntity
  8
MAIN0
  6
BYBLOCK
 62
0
100
AcDbLine
 10
666.2709459281037
 20
424.8202680690120
 30
0.0000000000000000
 11
666.2709459281037
 21
386.3052037551028
 31
0.0000000000000000
  0
MTEXT
  5
108
100
AcDbEntity
  8
MAIN0
  6
BYBLOCK
 62
0
100
AcDbMText
 10
685.2080831451179
 20
402.5052035643680
 30
0.0000000000000000
 40
12.39999961853027
 41
0.0000000000000000
 71
     5
 72
     1
  1
\A1;18
 11
1.000000000000000
 21
0.0000000000000000
 31
0.0000000000000000
  7
STANDARD
  0
ENDBLK
  5
109
100
AcDbEntity
  8
MAIN0
  6
CONTINUOUS
 62
3
100
AcDbBlockEnd
  0
BLOCK
  5
10B
100
AcDbEntity
  8
MAIN0
  6
CONTINUOUS
 62
3
100
AcDbBlockBegin
  2
*D7
 70
    65
 10
0.0
 20
0.0
 30
0.0
  0
LINE
  5
10C
100
AcDbEntity
  8
MAIN0
  6
BYBLOCK
 62
0
100
AcDbLine
 10
480.2709459281037
 20
571.2202681643800
 30
0.0000000000000000
 11
480.2709459281037
 21
687.0855387744738
 31
0.0000000000000000
  0
LINE
  5
10D
100
AcDbEntity
  8
MAIN0
  6
BYBLOCK
 62
0
100
AcDbLine
 10
480.2709459281037
 20
679.0855387744738
 30
0.0000000000000000
 11
482.2709459281039
 21
679.0855387744738
 31
0.0000000000000000
  0
INSERT
  5
10E
100
AcDbEntity
  8
MAIN0
  6
BYBLOCK
 62
0
100
AcDbBlockReference
  2
_OPEN
 10
480.2709459281037
 20
679.0855387744738
 30
0.0000000000000000
 41
8.000000000000000
 42
8.000000000000000
 43
8.000000000000000
 50
0.0000000000000000
  0
INSERT
  5
10F
100
AcDbEntity
  8
MAIN0
  6
BYBLOCK
 62
0
100
AcDbBlockReference
  2
_OPEN
 10
482.2709459281039
 20
679.0855387744738
 30
0.0000000000000000
 41
8.000000000000000
 42
8.000000000000000
 43
8.000000000000000
 50
180.0000000000000
  0
LINE
  5
110
100
AcDbEntity
  8
MAIN0
  6
BYBLOCK
 62
0
100
AcDbLine
 10
472.2709459281037
 20
679.0855387744738
 30
0.0000000000000000
 11
465.6535815893188
 21
679.0855387744738
 31
0.0000000000000000
  0
LINE
  5
111
100
AcDbEntity
  8
MAIN0
  6
BYBLOCK
 62
0
100
AcDbLine
 10
490.2709459281039
 20
679.0855387744738
 30
0.0000000000000000
 11
494.2709459281039
 21
679.0855387744738
 31
0.0000000000000000
  0
LINE
  5
112
100
AcDbEntity
  8
MAIN0
  6
BYBLOCK
 62
0
100
AcDbLine
 10
482.2709459281039
 20
626.2202681643801
 30
0.0000000000000000
 11
482.2709459281039
 21
687.0855387744738
 31
0.0000000000000000
  0
MTEXT
  5
113
100
AcDbEntity
  8
MAIN0
  6
BYBLOCK
 62
0
100
AcDbMText
 10
469.6535815893188
 20
687.2855385837389
 30
0.0000000000000000
 40
12.39999961853027
 41
0.0000000000000000
 71
     5
 72
     1
  1
\A1;2
 11
1.000000000000000
 21
0.0000000000000000
 31
0.0000000000000000
  7
STANDARD
  0
ENDBLK
  5
114
100
AcDbEntity
  8
MAIN0
  6
CONTINUOUS
 62
3
100
AcDbBlockEnd
  0
BLOCK
  5
116
100
AcDbEntity
  8
MAIN0
  6
CONTINUOUS
 62
3
100
AcDbBlockBegin
  2
*D8
 70
    65
 10
0.0
 20
0.0
 30
0.0
  0
LINE
  5
117
100
AcDbEntity
  8
MAIN0
  6
BYBLOCK
 62
0
100
AcDbLine
 10
482.2709459281039
 20
626.2202681643801
 30
0.0000000000000000
 11
482.2709459281039
 21
687.0855387744738
 31
0.0000000000000000
  0
LINE
  5
118
100
AcDbEntity
  8
MAIN0
  6
BYBLOCK
 62
0
100
AcDbLine
 10
490.2709459281039
 20
679.0855387744738
 30
0.0000000000000000
 11
574.2709459281037
 21
679.0855387744738
 31
0.0000000000000000
  0
INSERT
  5
119
100
AcDbEntity
  8
MAIN0
  6
BYBLOCK
 62
0
100
AcDbBlockReference
  2
_OPEN
 10
482.2709459281039
 20
679.0855387744738
 30
0.0000000000000000
 41
8.000000000000000
 42
8.000000000000000
 43
8.000000000000000
 50
180.0000000000000
  0
INSERT
  5
11A
100
AcDbEntity
  8
MAIN0
  6
BYBLOCK
 62
0
100
AcDbBlockReference
  2
_OPEN
 10
582.2709459281037
 20
679.0855387744738
 30
0.0000000000000000
 41
8.000000000000000
 42
8.000000000000000
 43
8.000000000000000
 50
0.0000000000000000
  0
LINE
  5
11B
100
AcDbEntity
  8
MAIN0
  6
BYBLOCK
 62
0
100
AcDbLine
 10
582.2709459281037
 20
626.2202681643797
 30
0.0000000000000000
 11
582.2709459281037
 21
687.0855387744738
 31
0.0000000000000000
  0
MTEXT
  5
11C
100
AcDbEntity
  8
MAIN0
  6
BYBLOCK
 62
0
100
AcDbMText
 10
532.2709459281039
 20
685.7855385837389
 30
0.0000000000000000
 40
12.39999961853027
 41
0.0000000000000000
 71
     5
 72
     1
  1
\A1;100
 11
1.000000000000000
 21
0.0000000000000000
 31
0.0000000000000000
  7
STANDARD
  0
ENDBLK
  5
11D
100
AcDbEntity
  8
MAIN0
  6
CONTINUOUS
 62
3
100
AcDbBlockEnd
  0
BLOCK
  5
11F
100
AcDbEntity
  8
MAIN0
  6
CONTINUOUS
 62
3
100
AcDbBlockBegin
  2
*D9
 70
    65
 10
0.0
 20
0.0
 30
0.0
  0
LINE
  5
120
100
AcDbEntity
  8
MAIN0
  6
BYBLOCK
 62
0
100
AcDbLine
 10
582.2709459281037
 20
626.2202681643797
 30
0.0000000000000000
 11
582.2709459281037
 21
687.0855387744738
 31
0.0000000000000000
  0
LINE
  5
121
100
AcDbEntity
  8
MAIN0
  6
BYBLOCK
 62
0
100
AcDbLine
 10
590.2709459281037
 20
679.0855387744738
 30
0.0000000000000000
 11
665.1137610115338
 21
679.0855387744738
 31
0.0000000000000000
  0
INSERT
  5
122
100
AcDbEntity
  8
MAIN0
  6
BYBLOCK
 62
0
100
AcDbBlockReference
  2
_OPEN
 10
582.2709459281037
 20
679.0855387744738
 30
0.0000000000000000
 41
8.000000000000000
 42
8.000000000000000
 43
8.000000000000000
 50
180.0000000000000
  0
INSERT
  5
123
100
AcDbEntity
  8
MAIN0
  6
BYBLOCK
 62
0
100
AcDbBlockReference
  2
_OPEN
 10
673.1137610115338
 20
679.0855387744738
 30
0.0000000000000000
 41
8.000000000000000
 42
8.000000000000000
 43
8.000000000000000
 50
0.0000000000000000
  0
LINE
  5
124
100
AcDbEntity
  8
MAIN0
  6
BYBLOCK
 62
0
100
AcDbLine
 10
673.1137610115338
 20
626.2202681643795
 30
0.0000000000000000
 11
673.1137610115338
 21
687.0855387744738
 31
0.0000000000000000
  0
MTEXT
  5
125
100
AcDbEntity
  8
MAIN0
  6
BYBLOCK
 62
0
100
AcDbMText
 10
645.8637540873126
 20
687.2855385837389
 30
0.0000000000000000
 40
12.39999961853027
 41
0.0000000000000000
 71
     5
 72
     1
  1
\A1;300
 11
1.000000000000000
 21
0.0000000000000000
 31
0.0000000000000000
  7
STANDARD
  0
ENDBLK
  5
126
100
AcDbEntity
  8
MAIN0
  6
CONTINUOUS
 62
3
100
AcDbBlockEnd
  0
BLOCK
  5
128
100
AcDbEntity
  8
MAIN0
  6
CONTINUOUS
 62
1
100
AcDbBlockBegin
  2
*D10
 70
    65
 10
0.0
 20
0.0
 30
0.0
  0
LINE
  5
129
100
AcDbEntity
  8
MAIN0
  6
BYBLOCK
 62
0
100
AcDbLine
 10
673.1137610115338
 20
626.2202681643795
 30
0.0000000000000000
 11
673.1137610115338
 21
687.0855387744738
 31
0.0000000000000000
  0
LINE
  5
12A
100
AcDbEntity
  8
MAIN0
  6
BYBLOCK
 62
0
100
AcDbLine
 10
681.1137610115338
 20
679.0855387744738
 30
0.0000000000000000
 11
762.1137610115338
 21
679.0855387744738
 31
0.0000000000000000
  0
INSERT
  5
12B
100
AcDbEntity
  8
MAIN0
  6
BYBLOCK
 62
0
100
AcDbBlockReference
  2
_OPEN
 10
673.1137610115338
 20
679.0855387744738
 30
0.0000000000000000
 41
8.000000000000000
 42
8.000000000000000
 43
8.000000000000000
 50
180.0000000000000
  0
INSERT
  5
12C
100
AcDbEntity
  8
MAIN0
  6
BYBLOCK
 62
0
100
AcDbBlockReference
  2
_OPEN
 10
770.1137610115338
 20
679.0855387744738
 30
0.0000000000000000
 41
8.000000000000000
 42
8.000000000000000
 43
8.000000000000000
 50
0.0000000000000000
  0
LINE
  5
12D
100
AcDbEntity
  8
MAIN0
  6
BYBLOCK
 62
0
100
AcDbLine
 10
770.1137610115338
 20
626.2202681643792
 30
0.0000000000000000
 11
770.1137610115338
 21
687.0855387744738
 31
0.0000000000000000
  0
MTEXT
  5
12E
100
AcDbEntity
  8
MAIN0
  6
BYBLOCK
 62
0
100
AcDbMText
 10
721.6137610115338
 20
685.7855385837389
 30
0.0000000000000000
 40
12.39999961853027
 41
0.0000000000000000
 71
     5
 72
     1
  1
\A1;97
 11
1.000000000000000
 21
0.0000000000000000
 31
0.0000000000000000
  7
STANDARD
  0
ENDBLK
  5
12F
100
AcDbEntity
  8
MAIN0
  6
CONTINUOUS
 62
1
100
AcDbBlockEnd
  0
BLOCK
  5
132
100
AcDbEntity
  8
MAIN0
  6
CONTINUOUS
 62
3
100
AcDbBlockBegin
  2
*D11
 70
    65
 10
0.0
 20
0.0
 30
0.0
  0
LINE
  5
133
100
AcDbEntity
  8
MAIN0
  6
BYBLOCK
 62
0
100
AcDbLine
 10
315.3112450370560
 20
478.9855505777200
 30
0.0000000000000000
 11
322.3112450370560
 21
478.9855505777200
 31
0.0000000000000000
  0
INSERT
  5
134
100
AcDbEntity
  8
MAIN0
  6
BYBLOCK
 62
0
100
AcDbBlockReference
  2
_OPEN
 10
315.3112450370560
 20
478.9855505777200
 30
0.0000000000000000
 41
8.000000000000000
 42
8.000000000000000
 43
8.000000000000000
 50
0.0000000000000000
  0
INSERT
  5
135
100
AcDbEntity
  8
MAIN0
  6
BYBLOCK
 62
0
100
AcDbBlockReference
  2
_OPEN
 10
322.3112450370560
 20
478.9855505777200
 30
0.0000000000000000
 41
8.000000000000000
 42
8.000000000000000
 43
8.000000000000000
 50
180.0000000000000
  0
LINE
  5
136
100
AcDbEntity
  8
MAIN0
  6
BYBLOCK
 62
0
100
AcDbLine
 10
307.3112450370560
 20
478.9855505777200
 30
0.0000000000000000
 11
303.3112450370560
 21
478.9855505777200
 31
0.0000000000000000
  0
LINE
  5
137
100
AcDbEntity
  8
MAIN0
  6
BYBLOCK
 62
0
100
AcDbLine
 10
330.3112450370560
 20
478.9855505777200
 30
0.0000000000000000
 11
341.6988472268947
 21
478.9855505777200
 31
0.0000000000000000
  0
LINE
  5
138
100
AcDbEntity
  8
MAIN0
  6
BYBLOCK
 62
0
100
AcDbLine
 10
322.3112450370560
 20
457.2202681643806
 30
0.0000000000000000
 11
322.3112450370560
 21
486.9855505777200
 31
0.0000000000000000
  0
MTEXT
  5
139
100
AcDbEntity
  8
MAIN0
  6
BYBLOCK
 62
0
100
AcDbMText
 10
337.6988472268947
 20
487.1855503869851
 30
0.0000000000000000
 40
12.39999961853027
 41
0.0000000000000000
 71
     5
 72
     1
  1
\A1;7
 11
1.000000000000000
 21
0.0000000000000000
 31
0.0000000000000000
  7
STANDARD
  0
ENDBLK
  5
13A
100
AcDbEntity
  8
MAIN0
  6
CONTINUOUS
 62
3
100
AcDbBlockEnd
  0
BLOCK
  5
19F
100
AcDbEntity
  8
MAIN0
  6
CONTINUOUS
 62
3
100
AcDbBlockBegin
  2
*D12
 70
    65
 10
0.0
 20
0.0
 30
0.0
  0
LINE
  5
1A0
100
AcDbEntity
  8
MAIN0
  6
BYBLOCK
 62
0
100
AcDbLine
 10
547.2064353225853
 20
613.0202681166961
 30
0.0000000000000000
 11
564.6750749852702
 21
613.0202681166961
 31
0.0000000000000000
  0
LINE
  5
1A1
100
AcDbEntity
  8
MAIN0
  6
BYBLOCK
 62
0
100
AcDbLine
 10
556.6750749852702
 20
613.0202681166961
 30
0.0000000000000000
 11
556.6750749852702
 21
623.0202681166960
 31
0.0000000000000000
  0
INSERT
  5
1A2
100
AcDbEntity
  8
MAIN0
  6
BYBLOCK
 62
0
100
AcDbBlockReference
  2
_OPEN
 10
556.6750749852702
 20
613.0202681166961
 30
0.0000000000000000
 41
8.000000000000000
 42
8.000000000000000
 43
8.000000000000000
 50
90.00000000000000
  0
INSERT
  5
1A3
100
AcDbEntity
  8
MAIN0
  6
BYBLOCK
 62
0
100
AcDbBlockReference
  2
_OPEN
 10
556.6750749852702
 20
623.0202681166960
 30
0.0000000000000000
 41
8.000000000000000
 42
8.000000000000000
 43
8.000000000000000
 50
270.0000000000000
  0
LINE
  5
1A4
100
AcDbEntity
  8
MAIN0
  6
BYBLOCK
 62
0
100
AcDbLine
 10
556.6750749852702
 20
605.0202681166961
 30
0.0000000000000000
 11
556.6750749852702
 21
601.0202681166961
 31
0.0000000000000000
  0
LINE
  5
1A5
100
AcDbEntity
  8
MAIN0
  6
BYBLOCK
 62
0
100
AcDbLine
 10
556.6750749852702
 20
631.0202681166960
 30
0.0000000000000000
 11
556.6750749852702
 21
651.9350123143511
 31
0.0000000000000000
  0
MTEXT
  5
1A6
100
AcDbEntity
  8
MAIN0
  6
BYBLOCK
 62
0
100
AcDbMText
 10
548.4750751760050
 20
643.7350125050859
 30
0.0000000000000000
 40
12.39999961853027
 41
0.0000000000000000
 71
     5
 72
     1
  1
\A1;10
 11
6.123233995736766e-017
 21
1.000000000000000
 31
0.0000000000000000
  7
STANDARD
  0
ENDBLK
  5
1A7
100
AcDbEntity
  8
MAIN0
  6
CONTINUOUS
 62
3
100
AcDbBlockEnd
  0
BLOCK
  5
1A9
100
AcDbEntity
  8
MAIN0
  6
CONTINUOUS
 62
3
100
AcDbBlockBegin
  2
*D13
 70
    65
 10
0.0
 20
0.0
 30
0.0
  0
LINE
  5
1AA
100
AcDbEntity
  8
MAIN0
  6
BYBLOCK
 62
0
100
AcDbLine
 10
547.2064353225853
 20
613.0202681166961
 30
0.0000000000000000
 11
564.6750749852702
 21
613.0202681166961
 31
0.0000000000000000
  0
LINE
  5
1AB
100
AcDbEntity
  8
MAIN0
  6
BYBLOCK
 62
0
100
AcDbLine
 10
556.6750749852702
 20
613.0202681166961
 30
0.0000000000000000
 11
556.6750749852702
 21
593.0202681166961
 31
0.0000000000000000
  0
INSERT
  5
1AC
100
AcDbEntity
  8
MAIN0
  6
BYBLOCK
 62
0
100
AcDbBlockReference
  2
_OPEN
 10
556.6750749852702
 20
613.0202681166961
 30
0.0000000000000000
 41
8.000000000000000
 42
8.000000000000000
 43
8.000000000000000
 50
270.0000000000000
  0
INSERT
  5
1AD
100
AcDbEntity
  8
MAIN0
  6
BYBLOCK
 62
0
100
AcDbBlockReference
  2
_OPEN
 10
556.6750749852702
 20
593.0202681166961
 30
0.0000000000000000
 41
8.000000000000000
 42
8.000000000000000
 43
8.000000000000000
 50
90.00000000000000
  0
LINE
  5
1AE
100
AcDbEntity
  8
MAIN0
  6
BYBLOCK
 62
0
100
AcDbLine
 10
556.6750749852702
 20
621.0202681166961
 30
0.0000000000000000
 11
556.6750749852702
 21
625.0202681166961
 31
0.0000000000000000
  0
LINE
  5
1AF
100
AcDbEntity
  8
MAIN0
  6
BYBLOCK
 62
0
100
AcDbLine
 10
556.6750749852702
 20
585.0202681166961
 30
0.0000000000000000
 11
556.6750749852702
 21
581.0202681166961
 31
0.0000000000000000
  0
LINE
  5
1B0
100
AcDbEntity
  8
MAIN0
  6
BYBLOCK
 62
0
100
AcDbLine
 10
547.2064353225853
 20
593.0202681166961
 30
0.0000000000000000
 11
564.6750749852702
 21
593.0202681166961
 31
0.0000000000000000
  0
MTEXT
  5
1B1
100
AcDbEntity
  8
MAIN0
  6
BYBLOCK
 62
0
100
AcDbMText
 10
549.9750751760050
 20
603.0202681166961
 30
0.0000000000000000
 40
12.39999961853027
 41
0.0000000000000000
 71
     5
 72
     1
  1
\A1;20
 11
6.123233995736766e-017
 21
1.000000000000000
 31
0.0000000000000000
  7
STANDARD
  0
ENDBLK
  5
1B2
100
AcDbEntity
  8
MAIN0
  6
CONTINUOUS
 62
3
100
AcDbBlockEnd
  0
BLOCK
  5
1B4
100
AcDbEntity
  8
MAIN0
  6
CONTINUOUS
 62
3
100
AcDbBlockBegin
  2
*D14
 70
    65
 10
0.0
 20
0.0
 30
0.0
  0
LINE
  5
1B5
100
AcDbEntity
  8
MAIN0
  6
BYBLOCK
 62
0
100
AcDbLine
 10
532.2709459281037
 20
622.8646099902760
 30
0.0000000000000000
 11
532.2709459281037
 21
666.9967668185782
 31
0.0000000000000000
  0
LINE
  5
1B6
100
AcDbEntity
  8
MAIN0
  6
BYBLOCK
 62
0
100
AcDbLine
 10
540.2709459281037
 20
658.9967668185782
 30
0.0000000000000000
 11
574.2709459281037
 21
658.9967668185782
 31
0.0000000000000000
  0
INSERT
  5
1B7
100
AcDbEntity
  8
MAIN0
  6
BYBLOCK
 62
0
100
AcDbBlockReference
  2
_OPEN
 10
532.2709459281037
 20
658.9967668185782
 30
0.0000000000000000
 41
8.000000000000000
 42
8.000000000000000
 43
8.000000000000000
 50
180.0000000000000
  0
INSERT
  5
1B8
100
AcDbEntity
  8
MAIN0
  6
BYBLOCK
 62
0
100
AcDbBlockReference
  2
_OPEN
 10
582.2709459281037
 20
658.9967668185782
 30
0.0000000000000000
 41
8.000000000000000
 42
8.000000000000000
 43
8.000000000000000
 50
0.0000000000000000
  0
LINE
  5
1B9
100
AcDbEntity
  8
MAIN0
  6
BYBLOCK
 62
0
100
AcDbLine
 10
582.2709459281037
 20
626.2202681643797
 30
0.0000000000000000
 11
582.2709459281037
 21
666.9967668185782
 31
0.0000000000000000
  0
MTEXT
  5
1BA
100
AcDbEntity
  8
MAIN0
  6
BYBLOCK
 62
0
100
AcDbMText
 10
557.2709459281037
 20
665.6967666278433
 30
0.0000000000000000
 40
12.39999961853027
 41
0.0000000000000000
 71
     5
 72
     1
  1
\A1;50
 11
1.000000000000000
 21
0.0000000000000000
 31
0.0000000000000000
  7
STANDARD
  0
ENDBLK
  5
1BB
100
AcDbEntity
  8
MAIN0
  6
CONTINUOUS
 62
3
100
AcDbBlockEnd
  0
BLOCK
  5
1BD
100
AcDbEntity
  8
MAIN0
  6
CONTINUOUS
 62
3
100
AcDbBlockBegin
  2
*D15
 70
    65
 10
0.0
 20
0.0
 30
0.0
  0
LINE
  5
1BE
100
AcDbEntity
  8
MAIN0
  6
BYBLOCK
 62
0
100
AcDbLine
 10
488.2709459281037
 20
479.9091300498432
 30
0.0000000000000000
 11
587.2709459281037
 21
479.9091300498432
 31
0.0000000000000000
  0
INSERT
  5
1BF
100
AcDbEntity
  8
MAIN0
  6
BYBLOCK
 62
0
100
AcDbBlockReference
  2
_OPEN
 10
480.2709459281037
 20
479.9091300498432
 30
0.0000000000000000
 41
8.000000000000000
 42
8.000000000000000
 43
8.000000000000000
 50
180.0000000000000
  0
INSERT
  5
1C0
100
AcDbEntity
  8
MAIN0
  6
BYBLOCK
 62
0
100
AcDbBlockReference
  2
_OPEN
 10
595.2709459281037
 20
479.9091300498432
 30
0.0000000000000000
 41
8.000000000000000
 42
8.000000000000000
 43
8.000000000000000
 50
0.0000000000000000
  0
LINE
  5
1C1
100
AcDbEntity
  8
MAIN0
  6
BYBLOCK
 62
0
100
AcDbLine
 10
595.2709459281037
 20
514.8202680690123
 30
0.0000000000000000
 11
595.2709459281037
 21
471.9091300498432
 31
0.0000000000000000
  0
MTEXT
  5
1C2
100
AcDbEntity
  8
MAIN0
  6
BYBLOCK
 62
0
100
AcDbMText
 10
537.7709459281037
 20
486.6091298591083
 30
0.0000000000000000
 40
12.39999961853027
 41
0.0000000000000000
 71
     5
 72
     1
  1
\A1;115
 11
1.000000000000000
 21
0.0000000000000000
 31
0.0000000000000000
  7
STANDARD
  0
ENDBLK
  5
1C3
100
AcDbEntity
  8
MAIN0
  6
CONTINUOUS
 62
3
100
AcDbBlockEnd
  0
BLOCK
  5
1C5
100
AcDbEntity
  8
MAIN0
  6
CONTINUOUS
 62
3
100
AcDbBlockBegin
  2
*D16
 70
    65
 10
0.0
 20
0.0
 30
0.0
  0
LINE
  5
1C6
100
AcDbEntity
  8
MAIN0
  6
BYBLOCK
 62
0
100
AcDbLine
 10
595.2709459281037
 20
514.8202680690123
 30
0.0000000000000000
 11
595.2709459281037
 21
471.9091300498432
 31
0.0000000000000000
  0
LINE
  5
1C7
100
AcDbEntity
  8
MAIN0
  6
BYBLOCK
 62
0
100
AcDbLine
 10
603.2709459281037
 20
479.9091300498432
 30
0.0000000000000000
 11
862.2709459281037
 21
479.9091300498432
 31
0.0000000000000000
  0
INSERT
  5
1C8
100
AcDbEntity
  8
MAIN0
  6
BYBLOCK
 62
0
100
AcDbBlockReference
  2
_OPEN
 10
595.2709459281037
 20
479.9091300498432
 30
0.0000000000000000
 41
8.000000000000000
 42
8.000000000000000
 43
8.000000000000000
 50
180.0000000000000
  0
INSERT
  5
1C9
100
AcDbEntity
  8
MAIN0
  6
BYBLOCK
 62
0
100
AcDbBlockReference
  2
_OPEN
 10
870.2709459281037
 20
479.9091300498432
 30
0.0000000000000000
 41
8.000000000000000
 42
8.000000000000000
 43
8.000000000000000
 50
0.0000000000000000
  0
LINE
  5
1CA
100
AcDbEntity
  8
MAIN0
  6
BYBLOCK
 62
0
100
AcDbLine
 10
870.2709459281037
 20
514.8202680690114
 30
0.0000000000000000
 11
870.2709459281037
 21
471.9091300498432
 31
0.0000000000000000
  0
MTEXT
  5
1CB
100
AcDbEntity
  8
MAIN0
  6
BYBLOCK
 62
0
100
AcDbMText
 10
732.7709459281037
 20
486.6091298591083
 30
0.0000000000000000
 40
12.39999961853027
 41
0.0000000000000000
 71
     5
 72
     1
  1
\A1;275
 11
1.000000000000000
 21
0.0000000000000000
 31
0.0000000000000000
  7
STANDARD
  0
ENDBLK
  5
1CC
100
AcDbEntity
  8
MAIN0
  6
CONTINUOUS
 62
3
100
AcDbBlockEnd
  0
BLOCK
  5
1CE
100
AcDbEntity
  8
MAIN0
  6
CONTINUOUS
 62
3
100
AcDbBlockBegin
  2
*D17
 70
    65
 10
0.0
 20
0.0
 30
0.0
  0
LINE
  5
1CF
100
AcDbEntity
  8
MAIN0
  6
BYBLOCK
 62
0
100
AcDbLine
 10
1404.154170837536
 20
591.4202681643783
 30
0.0000000000000000
 11
1404.154170837536
 21
701.6589745400237
 31
0.0000000000000000
  0
LINE
  5
1D0
100
AcDbEntity
  8
MAIN0
  6
BYBLOCK
 62
0
100
AcDbLine
 10
1412.154170837536
 20
693.6589745400237
 30
0.0000000000000000
 11
1607.154170837536
 21
693.6589745400237
 31
0.0000000000000000
  0
INSERT
  5
1D1
100
AcDbEntity
  8
MAIN0
  6
BYBLOCK
 62
0
100
AcDbBlockReference
  2
_OPEN
 10
1404.154170837536
 20
693.6589745400237
 30
0.0000000000000000
 41
8.000000000000000
 42
8.000000000000000
 43
8.000000000000000
 50
180.0000000000000
  0
INSERT
  5
1D2
100
AcDbEntity
  8
MAIN0
  6
BYBLOCK
 62
0
100
AcDbBlockReference
  2
_OPEN
 10
1615.154170837536
 20
693.6589745400237
 30
0.0000000000000000
 41
8.000000000000000
 42
8.000000000000000
 43
8.000000000000000
 50
0.0000000000000000
  0
LINE
  5
1D3
100
AcDbEntity
  8
MAIN0
  6
BYBLOCK
 62
0
100
AcDbLine
 10
1615.154170837536
 20
591.4202681643782
 30
0.0000000000000000
 11
1615.154170837536
 21
701.6589745400237
 31
0.0000000000000000
  0
MTEXT
  5
1D4
100
AcDbEntity
  8
MAIN0
  6
BYBLOCK
 62
0
100
AcDbMText
 10
1509.654170837536
 20
700.3589743492888
 30
0.0000000000000000
 40
12.39999961853027
 41
0.0000000000000000
 71
     5
 72
     1
  1
\A1;211
 11
1.000000000000000
 21
0.0000000000000000
 31
0.0000000000000000
  7
STANDARD
  0
ENDBLK
  5
1D5
100
AcDbEntity
  8
MAIN0
  6
CONTINUOUS
 62
3
100
AcDbBlockEnd
  0
BLOCK
  5
1E1
100
AcDbEntity
  8
MAIN0
  6
CONTINUOUS
 62
1
100
AcDbBlockBegin
  2
*D18
 70
    65
 10
0.0
 20
0.0
 30
0.0
  0
LINE
  5
1E2
100
AcDbEntity
  8
MAIN0
  6
BYBLOCK
 62
0
100
AcDbLine
 10
1408.654170837778
 20
429.8202680690108
 30
0.0000000000000000
 11
1408.654170837778
 21
368.8939092733711
 31
0.0000000000000000
  0
LINE
  5
1E3
100
AcDbEntity
  8
MAIN0
  6
BYBLOCK
 62
0
100
AcDbLine
 10
1408.654170837778
 20
376.8939092733711
 30
0.0000000000000000
 11
1385.654170837778
 21
376.8939092733711
 31
0.0000000000000000
  0
INSERT
  5
1E4
100
AcDbEntity
  8
MAIN0
  6
BYBLOCK
 62
0
100
AcDbBlockReference
  2
_OPEN
 10
1408.654170837778
 20
376.8939092733711
 30
0.0000000000000000
 41
8.000000000000000
 42
8.000000000000000
 43
8.000000000000000
 50
180.0000000000000
  0
INSERT
  5
1E5
100
AcDbEntity
  8
MAIN0
  6
BYBLOCK
 62
0
100
AcDbBlockReference
  2
_OPEN
 10
1385.654170837778
 20
376.8939092733711
 30
0.0000000000000000
 41
8.000000000000000
 42
8.000000000000000
 43
8.000000000000000
 50
360.0000000000000
  0
LINE
  5
1E6
100
AcDbEntity
  8
MAIN0
  6
BYBLOCK
 62
0
100
AcDbLine
 10
1416.654170837778
 20
376.8939092733711
 30
0.0000000000000000
 11
1456.614273041132
 21
376.8939092733711
 31
0.0000000000000000
  0
LINE
  5
1E7
100
AcDbEntity
  8
MAIN0
  6
BYBLOCK
 62
0
100
AcDbLine
 10
1377.654170837778
 20
376.8939092733711
 30
0.0000000000000000
 11
1373.654170837778
 21
376.8939092733711
 31
0.0000000000000000
  0
MTEXT
  5
1E8
100
AcDbEntity
  8
MAIN0
  6
BYBLOCK
 62
0
100
AcDbMText
 10
1434.814273804071
 20
385.0939090826362
 30
0.0000000000000000
 40
12.39999961853027
 41
0.0000000000000000
 71
     5
 72
     1
  1
\A1;15～31
 11
1.000000000000000
 21
0.0000000000000000
 31
0.0000000000000000
  7
KNJYOKO
  0
ENDBLK
  5
1E9
100
AcDbEntity
  8
MAIN0
  6
CONTINUOUS
 62
1
100
AcDbBlockEnd
  0
BLOCK
  5
1EC
100
AcDbEntity
  8
MAIN0
  6
CONTINUOUS
 62
3
100
AcDbBlockBegin
  2
*D19
 70
    65
 10
0.0
 20
0.0
 30
0.0
  0
LINE
  5
1ED
100
AcDbEntity
  8
MAIN0
  6
BYBLOCK
 62
0
100
AcDbLine
 10
1336.154170790094
 20
433.0202681166944
 30
0.0000000000000000
 11
1299.798372834502
 21
433.0202681166944
 31
0.0000000000000000
  0
LINE
  5
1EE
100
AcDbEntity
  8
MAIN0
  6
BYBLOCK
 62
0
100
AcDbLine
 10
1307.798372834502
 20
441.0202681166944
 30
0.0000000000000000
 11
1307.798372834502
 21
455.0202681166944
 31
0.0000000000000000
  0
INSERT
  5
1EF
100
AcDbEntity
  8
MAIN0
  6
BYBLOCK
 62
0
100
AcDbBlockReference
  2
_OPEN
 10
1307.798372834502
 20
433.0202681166944
 30
0.0000000000000000
 41
8.000000000000000
 42
8.000000000000000
 43
8.000000000000000
 50
270.0000000000000
  0
INSERT
  5
1F0
100
AcDbEntity
  8
MAIN0
  6
BYBLOCK
 62
0
100
AcDbBlockReference
  2
_OPEN
 10
1307.798372834502
 20
463.0202681166944
 30
0.0000000000000000
 41
8.000000000000000
 42
8.000000000000000
 43
8.000000000000000
 50
90.00000000000000
  0
LINE
  5
1F1
100
AcDbEntity
  8
MAIN0
  6
BYBLOCK
 62
0
100
AcDbLine
 10
1334.454170790094
 20
463.0202681166944
 30
0.0000000000000000
 11
1299.798372834502
 21
463.0202681166944
 31
0.0000000000000000
  0
MTEXT
  5
1F2
100
AcDbEntity
  8
MAIN0
  6
BYBLOCK
 62
0
100
AcDbMText
 10
1301.098373025237
 20
448.0202681166944
 30
0.0000000000000000
 40
12.39999961853027
 41
0.0000000000000000
 71
     5
 72
     1
  1
\A1;30
 11
6.123233995736766e-017
 21
1.000000000000000
 31
0.0000000000000000
  7
STANDARD
  0
ENDBLK
  5
1F3
100
AcDbEntity
  8
MAIN0
  6
CONTINUOUS
 62
3
100
AcDbBlockEnd
  0
BLOCK
  5
1F5
100
AcDbEntity
  8
MAIN0
  6
CONTINUOUS
 62
3
100
AcDbBlockBegin
  2
*D20
 70
    65
 10
0.0
 20
0.0
 30
0.0
  0
LINE
  5
1F6
100
AcDbEntity
  8
MAIN0
  6
BYBLOCK
 62
0
100
AcDbLine
 10
1334.454170790094
 20
463.0202681166944
 30
0.0000000000000000
 11
1299.798372834502
 21
463.0202681166944
 31
0.0000000000000000
  0
LINE
  5
1F7
100
AcDbEntity
  8
MAIN0
  6
BYBLOCK
 62
0
100
AcDbLine
 10
1307.798372834502
 20
463.0202681166944
 30
0.0000000000000000
 11
1307.798372834502
 21
468.0202681166944
 31
0.0000000000000000
  0
INSERT
  5
1F8
100
AcDbEntity
  8
MAIN0
  6
BYBLOCK
 62
0
100
AcDbBlockReference
  2
_OPEN
 10
1307.798372834502
 20
463.0202681166944
 30
0.0000000000000000
 41
8.000000000000000
 42
8.000000000000000
 43
8.000000000000000
 50
90.00000000000000
  0
INSERT
  5
1F9
100
AcDbEntity
  8
MAIN0
  6
BYBLOCK
 62
0
100
AcDbBlockReference
  2
_OPEN
 10
1307.798372834502
 20
468.0202681166944
 30
0.0000000000000000
 41
8.000000000000000
 42
8.000000000000000
 43
8.000000000000000
 50
270.0000000000000
  0
LINE
  5
1FA
100
AcDbEntity
  8
MAIN0
  6
BYBLOCK
 62
0
100
AcDbLine
 10
1307.798372834502
 20
455.0202681166944
 30
0.0000000000000000
 11
1307.798372834502
 21
451.0202681166944
 31
0.0000000000000000
  0
LINE
  5
1FB
100
AcDbEntity
  8
MAIN0
  6
BYBLOCK
 62
0
100
AcDbLine
 10
1307.798372834502
 20
476.0202681166944
 30
0.0000000000000000
 11
1307.798372834502
 21
487.0340631940883
 31
0.0000000000000000
  0
LINE
  5
1FC
100
AcDbEntity
  8
MAIN0
  6
BYBLOCK
 62
0
100
AcDbLine
 10
1364.954170790094
 20
468.0202681166944
 30
0.0000000000000000
 11
1299.798372834502
 21
468.0202681166944
 31
0.0000000000000000
  0
MTEXT
  5
1FD
100
AcDbEntity
  8
MAIN0
  6
BYBLOCK
 62
0
100
AcDbMText
 10
1300.098373025237
 20
483.0340631940883
 30
0.0000000000000000
 40
12.39999961853027
 41
0.0000000000000000
 71
     5
 72
     1
  1
\A1;5
 11
6.123233995736766e-017
 21
1.000000000000000
 31
0.0000000000000000
  7
STANDARD
  0
ENDBLK
  5
1FE
100
AcDbEntity
  8
MAIN0
  6
CONTINUOUS
 62
3
100
AcDbBlockEnd
  0
BLOCK
  5
234
100
AcDbEntity
  8
MAIN0
  6
CONTINUOUS
 62
3
100
AcDbBlockBegin
  2
*D21
 70
    65
 10
0.0
 20
0.0
 30
0.0
  0
LINE
  5
235
100
AcDbEntity
  8
MAIN0
  6
BYBLOCK
 62
0
100
AcDbLine
 10
1516.654170837778
 20
533.2617200487064
 30
0.0000000000000000
 11
1516.654170837778
 21
663.3330168046623
 31
0.0000000000000000
  0
LINE
  5
236
100
AcDbEntity
  8
MAIN0
  6
BYBLOCK
 62
0
100
AcDbLine
 10
1516.654170837778
 20
655.3330168046623
 30
0.0000000000000000
 11
1502.654170837778
 21
655.3330168046623
 31
0.0000000000000000
  0
INSERT
  5
237
100
AcDbEntity
  8
MAIN0
  6
BYBLOCK
 62
0
100
AcDbBlockReference
  2
_OPEN
 10
1516.654170837778
 20
655.3330168046623
 30
0.0000000000000000
 41
8.000000000000000
 42
8.000000000000000
 43
8.000000000000000
 50
180.0000000000000
  0
INSERT
  5
238
100
AcDbEntity
  8
MAIN0
  6
BYBLOCK
 62
0
100
AcDbBlockReference
  2
_OPEN
 10
1502.654170837778
 20
655.3330168046623
 30
0.0000000000000000
 41
8.000000000000000
 42
8.000000000000000
 43
8.000000000000000
 50
360.0000000000000
  0
LINE
  5
239
100
AcDbEntity
  8
MAIN0
  6
BYBLOCK
 62
0
100
AcDbLine
 10
1524.654170837778
 20
655.3330168046623
 30
0.0000000000000000
 11
1545.737908841009
 21
655.3330168046623
 31
0.0000000000000000
  0
LINE
  5
23A
100
AcDbEntity
  8
MAIN0
  6
BYBLOCK
 62
0
100
AcDbLine
 10
1494.654170837778
 20
655.3330168046623
 30
0.0000000000000000
 11
1490.654170837778
 21
655.3330168046623
 31
0.0000000000000000
  0
LINE
  5
23B
100
AcDbEntity
  8
MAIN0
  6
BYBLOCK
 62
0
100
AcDbLine
 10
1502.654170837778
 20
533.2617200487051
 30
0.0000000000000000
 11
1502.654170837778
 21
663.3330168046623
 31
0.0000000000000000
  0
MTEXT
  5
23C
100
AcDbEntity
  8
MAIN0
  6
BYBLOCK
 62
0
100
AcDbMText
 10
1537.537909031744
 20
663.5330166139274
 30
0.0000000000000000
 40
12.39999961853027
 41
0.0000000000000000
 71
     5
 72
     1
  1
\A1;14
 11
1.000000000000000
 21
0.0000000000000000
 31
0.0000000000000000
  7
STANDARD
  0
ENDBLK
  5
23D
100
AcDbEntity
  8
MAIN0
  6
CONTINUOUS
 62
3
100
AcDbBlockEnd
  0
BLOCK
  5
25B
100
AcDbEntity
  8
MAIN0
  6
CONTINUOUS
 62
3
100
AcDbBlockBegin
  2
*D22
 70
    65
 10
0.0
 20
0.0
 30
0.0
  0
LINE
  5
25C
100
AcDbEntity
  8
MAIN0
  6
BYBLOCK
 62
0
100
AcDbLine
 10
761.8037725056861
 20
851.0202227748872
 30
0.0000000000000000
 11
817.2534512314303
 21
851.0202227748872
 31
0.0000000000000000
  0
LINE
  5
25D
100
AcDbEntity
  8
MAIN0
  6
BYBLOCK
 62
0
100
AcDbLine
 10
809.2534512314303
 20
859.0202227748872
 30
0.0000000000000000
 11
809.2534512314303
 21
993.0202227748874
 31
0.0000000000000000
  0
INSERT
  5
25E
100
AcDbEntity
  8
MAIN0
  6
BYBLOCK
 62
0
100
AcDbBlockReference
  2
_OPEN
 10
809.2534512314303
 20
851.0202227748872
 30
0.0000000000000000
 41
8.000000000000000
 42
8.000000000000000
 43
8.000000000000000
 50
270.0000000000000
  0
INSERT
  5
25F
100
AcDbEntity
  8
MAIN0
  6
BYBLOCK
 62
0
100
AcDbBlockReference
  2
_OPEN
 10
809.2534512314303
 20
1001.020222774887
 30
0.0000000000000000
 41
8.000000000000000
 42
8.000000000000000
 43
8.000000000000000
 50
90.00000000000000
  0
LINE
  5
260
100
AcDbEntity
  8
MAIN0
  6
BYBLOCK
 62
0
100
AcDbLine
 10
761.8037725056861
 20
1001.020222774887
 30
0.0000000000000000
 11
817.2534512314303
 21
1001.020222774887
 31
0.0000000000000000
  0
MTEXT
  5
261
100
AcDbEntity
  8
MAIN0
  6
BYBLOCK
 62
0
100
AcDbMText
 10
802.5534514221652
 20
926.0202227748873
 30
0.0000000000000000
 40
12.39999961853027
 41
0.0000000000000000
 71
     5
 72
     1
  1
\A1;150
 11
6.123233995736766e-017
 21
1.000000000000000
 31
0.0000000000000000
  7
STANDARD
  0
ENDBLK
  5
262
100
AcDbEntity
  8
MAIN0
  6
CONTINUOUS
 62
3
100
AcDbBlockEnd
  0
BLOCK
  5
264
100
AcDbEntity
  8
MAIN0
  6
CONTINUOUS
 62
3
100
AcDbBlockBegin
  2
*D23
 70
    65
 10
0.0
 20
0.0
 30
0.0
  0
LINE
  5
265
100
AcDbEntity
  8
MAIN0
  6
BYBLOCK
 62
0
100
AcDbLine
 10
673.1137459281038
 20
822.8202227272038
 30
0.0000000000000000
 11
673.1137459281038
 21
768.6425153204849
 31
0.0000000000000000
  0
LINE
  5
266
100
AcDbEntity
  8
MAIN0
  6
BYBLOCK
 62
0
100
AcDbLine
 10
673.1137459281038
 20
776.6425153204849
 30
0.0000000000000000
 11
688.1137459281038
 21
776.6425153204849
 31
0.0000000000000000
  0
INSERT
  5
267
100
AcDbEntity
  8
MAIN0
  6
BYBLOCK
 62
0
100
AcDbBlockReference
  2
_OPEN
 10
673.1137459281038
 20
776.6425153204849
 30
0.0000000000000000
 41
8.000000000000000
 42
8.000000000000000
 43
8.000000000000000
 50
0.0000000000000000
  0
INSERT
  5
268
100
AcDbEntity
  8
MAIN0
  6
BYBLOCK
 62
0
100
AcDbBlockReference
  2
_OPEN
 10
688.1137459281038
 20
776.6425153204849
 30
0.0000000000000000
 41
8.000000000000000
 42
8.000000000000000
 43
8.000000000000000
 50
180.0000000000000
  0
LINE
  5
269
100
AcDbEntity
  8
MAIN0
  6
BYBLOCK
 62
0
100
AcDbLine
 10
665.1137459281038
 20
776.6425153204849
 30
0.0000000000000000
 11
652.1387109114039
 21
776.6425153204849
 31
0.0000000000000000
  0
LINE
  5
26A
100
AcDbEntity
  8
MAIN0
  6
BYBLOCK
 62
0
100
AcDbLine
 10
696.1137459281038
 20
776.6425153204849
 30
0.0000000000000000
 11
700.1137459281038
 21
776.6425153204849
 31
0.0000000000000000
  0
LINE
  5
26B
100
AcDbEntity
  8
MAIN0
  6
BYBLOCK
 62
0
100
AcDbLine
 10
688.1137459281038
 20
836.0540251055478
 30
0.0000000000000000
 11
688.1137459281038
 21
768.6425153204849
 31
0.0000000000000000
  0
MTEXT
  5
26C
100
AcDbEntity
  8
MAIN0
  6
BYBLOCK
 62
0
100
AcDbMText
 10
660.3387107206690
 20
784.8425151297500
 30
0.0000000000000000
 40
12.39999961853027
 41
0.0000000000000000
 71
     5
 72
     1
  1
\A1;15
 11
1.000000000000000
 21
0.0000000000000000
 31
0.0000000000000000
  7
STANDARD
  0
ENDBLK
  5
26D
100
AcDbEntity
  8
MAIN0
  6
CONTINUOUS
 62
3
100
AcDbBlockEnd
  0
BLOCK
  5
26F
100
AcDbEntity
  8
MAIN0
  6
CONTINUOUS
 62
3
100
AcDbBlockBegin
  2
*D24
 70
    65
 10
0.0
 20
0.0
 30
0.0
  0
LINE
  5
270
100
AcDbEntity
  8
MAIN0
  6
BYBLOCK
 62
0
100
AcDbLine
 10
688.1137459281038
 20
836.0540251055478
 30
0.0000000000000000
 11
688.1137459281038
 21
768.6425153204849
 31
0.0000000000000000
  0
LINE
  5
271
100
AcDbEntity
  8
MAIN0
  6
BYBLOCK
 62
0
100
AcDbLine
 10
696.1137459281038
 20
776.6425153204849
 30
0.0000000000000000
 11
740.1137459281038
 21
776.6425153204849
 31
0.0000000000000000
  0
INSERT
  5
272
100
AcDbEntity
  8
MAIN0
  6
BYBLOCK
 62
0
100
AcDbBlockReference
  2
_OPEN
 10
688.1137459281038
 20
776.6425153204849
 30
0.0000000000000000
 41
8.000000000000000
 42
8.000000000000000
 43
8.000000000000000
 50
180.0000000000000
  0
INSERT
  5
273
100
AcDbEntity
  8
MAIN0
  6
BYBLOCK
 62
0
100
AcDbBlockReference
  2
_OPEN
 10
748.1137459281038
 20
776.6425153204849
 30
0.0000000000000000
 41
8.000000000000000
 42
8.000000000000000
 43
8.000000000000000
 50
0.0000000000000000
  0
LINE
  5
274
100
AcDbEntity
  8
MAIN0
  6
BYBLOCK
 62
0
100
AcDbLine
 10
748.1137459281038
 20
836.0540251055479
 30
0.0000000000000000
 11
748.1137459281038
 21
768.6425153204849
 31
0.0000000000000000
  0
MTEXT
  5
275
100
AcDbEntity
  8
MAIN0
  6
BYBLOCK
 62
0
100
AcDbMText
 10
711.5653745810857
 20
784.8425151297500
 30
0.0000000000000000
 40
12.39999961853027
 41
0.0000000000000000
 71
     5
 72
     1
  1
\A1;60
 11
1.000000000000000
 21
0.0000000000000000
 31
0.0000000000000000
  7
STANDARD
  0
ENDBLK
  5
276
100
AcDbEntity
  8
MAIN0
  6
CONTINUOUS
 62
3
100
AcDbBlockEnd
  0
BLOCK
  5
278
100
AcDbEntity
  8
MAIN0
  6
CONTINUOUS
 62
3
100
AcDbBlockBegin
  2
*D25
 70
    65
 10
0.0
 20
0.0
 30
0.0
  0
LINE
  5
279
100
AcDbEntity
  8
MAIN0
  6
BYBLOCK
 62
0
100
AcDbLine
 10
497.2709459281037
 20
861.0540251055479
 30
0.0000000000000000
 11
497.2709459281037
 21
768.6425153204849
 31
0.0000000000000000
  0
LINE
  5
27A
100
AcDbEntity
  8
MAIN0
  6
BYBLOCK
 62
0
100
AcDbLine
 10
505.2709459281037
 20
776.6425153204849
 30
0.0000000000000000
 11
559.2709459281037
 21
776.6425153204849
 31
0.0000000000000000
  0
INSERT
  5
27B
100
AcDbEntity
  8
MAIN0
  6
BYBLOCK
 62
0
100
AcDbBlockReference
  2
_OPEN
 10
497.2709459281037
 20
776.6425153204849
 30
0.0000000000000000
 41
8.000000000000000
 42
8.000000000000000
 43
8.000000000000000
 50
180.0000000000000
  0
INSERT
  5
27C
100
AcDbEntity
  8
MAIN0
  6
BYBLOCK
 62
0
100
AcDbBlockReference
  2
_OPEN
 10
567.2709459281037
 20
776.6425153204849
 30
0.0000000000000000
 41
8.000000000000000
 42
8.000000000000000
 43
8.000000000000000
 50
0.0000000000000000
  0
LINE
  5
27D
100
AcDbEntity
  8
MAIN0
  6
BYBLOCK
 62
0
100
AcDbLine
 10
567.2709459281037
 20
861.0540251055479
 30
0.0000000000000000
 11
567.2709459281037
 21
768.6425153204849
 31
0.0000000000000000
  0
MTEXT
  5
27E
100
AcDbEntity
  8
MAIN0
  6
BYBLOCK
 62
0
100
AcDbMText
 10
519.3082133913644
 20
784.8425151297500
 30
0.0000000000000000
 40
12.39999961853027
 41
0.0000000000000000
 71
     5
 72
     1
  1
\A1;70
 11
1.000000000000000
 21
0.0000000000000000
 31
0.0000000000000000
  7
STANDARD
  0
ENDBLK
  5
27F
100
AcDbEntity
  8
MAIN0
  6
CONTINUOUS
 62
3
100
AcDbBlockEnd
  0
BLOCK
  5
281
100
AcDbEntity
  8
MAIN0
  6
CONTINUOUS
 62
3
100
AcDbBlockBegin
  2
*D26
 70
    65
 10
0.0
 20
0.0
 30
0.0
  0
LINE
  5
282
100
AcDbEntity
  8
MAIN0
  6
BYBLOCK
 62
0
100
AcDbLine
 10
567.2709459281037
 20
861.0540251055479
 30
0.0000000000000000
 11
567.2709459281037
 21
768.6425153204849
 31
0.0000000000000000
  0
LINE
  5
283
100
AcDbEntity
  8
MAIN0
  6
BYBLOCK
 62
0
100
AcDbLine
 10
567.2709459281037
 20
776.6425153204849
 30
0.0000000000000000
 11
582.2709459281037
 21
776.6425153204849
 31
0.0000000000000000
  0
INSERT
  5
284
100
AcDbEntity
  8
MAIN0
  6
BYBLOCK
 62
0
100
AcDbBlockReference
  2
_OPEN
 10
567.2709459281037
 20
776.6425153204849
 30
0.0000000000000000
 41
8.000000000000000
 42
8.000000000000000
 43
8.000000000000000
 50
0.0000000000000000
  0
INSERT
  5
285
100
AcDbEntity
  8
MAIN0
  6
BYBLOCK
 62
0
100
AcDbBlockReference
  2
_OPEN
 10
582.2709459281037
 20
776.6425153204849
 30
0.0000000000000000
 41
8.000000000000000
 42
8.000000000000000
 43
8.000000000000000
 50
180.0000000000000
  0
LINE
  5
286
100
AcDbEntity
  8
MAIN0
  6
BYBLOCK
 62
0
100
AcDbLine
 10
559.2709459281037
 20
776.6425153204849
 30
0.0000000000000000
 11
555.2709459281037
 21
776.6425153204849
 31
0.0000000000000000
  0
LINE
  5
287
100
AcDbEntity
  8
MAIN0
  6
BYBLOCK
 62
0
100
AcDbLine
 10
590.2709459281037
 20
776.6425153204849
 30
0.0000000000000000
 11
603.9120719148582
 21
776.6425153204849
 31
0.0000000000000000
  0
LINE
  5
288
100
AcDbEntity
  8
MAIN0
  6
BYBLOCK
 62
0
100
AcDbLine
 10
582.2709459281037
 20
822.8202227272038
 30
0.0000000000000000
 11
582.2709459281037
 21
768.6425153204849
 31
0.0000000000000000
  0
MTEXT
  5
289
100
AcDbEntity
  8
MAIN0
  6
BYBLOCK
 62
0
100
AcDbMText
 10
595.7120721055931
 20
784.8425151297500
 30
0.0000000000000000
 40
12.39999961853027
 41
0.0000000000000000
 71
     5
 72
     1
  1
\A1;15
 11
1.000000000000000
 21
0.0000000000000000
 31
0.0000000000000000
  7
STANDARD
  0
ENDBLK
  5
28A
100
AcDbEntity
  8
MAIN0
  6
CONTINUOUS
 62
3
100
AcDbBlockEnd
  0
BLOCK
  5
28C
100
AcDbEntity
  8
MAIN0
  6
CONTINUOUS
 62
3
100
AcDbBlockBegin
  2
*D27
 70
    65
 10
0.0
 20
0.0
 30
0.0
  0
LINE
  5
28D
100
AcDbEntity
  8
MAIN0
  6
BYBLOCK
 62
0
100
AcDbLine
 10
484.8055295499101
 20
876.0202227748873
 30
0.0000000000000000
 11
430.9737737899559
 21
876.0202227748873
 31
0.0000000000000000
  0
LINE
  5
28E
100
AcDbEntity
  8
MAIN0
  6
BYBLOCK
 62
0
100
AcDbLine
 10
438.9737737899559
 20
884.0202227748873
 30
0.0000000000000000
 11
438.9737737899559
 21
968.0202227748875
 31
0.0000000000000000
  0
INSERT
  5
28F
100
AcDbEntity
  8
MAIN0
  6
BYBLOCK
 62
0
100
AcDbBlockReference
  2
_OPEN
 10
438.9737737899559
 20
876.0202227748873
 30
0.0000000000000000
 41
8.000000000000000
 42
8.000000000000000
 43
8.000000000000000
 50
270.0000000000000
  0
INSERT
  5
290
100
AcDbEntity
  8
MAIN0
  6
BYBLOCK
 62
0
100
AcDbBlockReference
  2
_OPEN
 10
438.9737737899559
 20
976.0202227748875
 30
0.0000000000000000
 41
8.000000000000000
 42
8.000000000000000
 43
8.000000000000000
 50
90.00000000000000
  0
LINE
  5
291
100
AcDbEntity
  8
MAIN0
  6
BYBLOCK
 62
0
100
AcDbLine
 10
484.8055295499102
 20
976.0202227748875
 30
0.0000000000000000
 11
430.9737737899559
 21
976.0202227748875
 31
0.0000000000000000
  0
MTEXT
  5
292
100
AcDbEntity
  8
MAIN0
  6
BYBLOCK
 62
0
100
AcDbMText
 10
432.2737739806908
 20
926.0202227748874
 30
0.0000000000000000
 40
12.39999961853027
 41
0.0000000000000000
 71
     5
 72
     1
  1
\A1;100
 11
6.123233995736766e-017
 21
1.000000000000000
 31
0.0000000000000000
  7
STANDARD
  0
ENDBLK
  5
293
100
AcDbEntity
  8
MAIN0
  6
CONTINUOUS
 62
3
100
AcDbBlockEnd
  0
BLOCK
  5
2D4
100
AcDbEntity
  8
MAIN0
  6
CONTINUOUS
 62
3
100
AcDbBlockBegin
  2
*D28
 70
    65
 10
0.0
 20
0.0
 30
0.0
  0
LINE
  5
2D5
100
AcDbEntity
  8
MAIN0
  6
BYBLOCK
 62
0
100
AcDbLine
 10
532.2709459281036
 20
912.3146914879852
 30
0.0000000000000000
 11
532.2709459281036
 21
741.5049255266622
 31
0.0000000000000000
  0
LINE
  5
2D6
100
AcDbEntity
  8
MAIN0
  6
BYBLOCK
 62
0
100
AcDbLine
 10
540.2709459281036
 20
749.5049255266622
 30
0.0000000000000000
 11
574.2709459281037
 21
749.5049255266622
 31
0.0000000000000000
  0
INSERT
  5
2D7
100
AcDbEntity
  8
MAIN0
  6
BYBLOCK
 62
0
100
AcDbBlockReference
  2
_OPEN
 10
532.2709459281036
 20
749.5049255266622
 30
0.0000000000000000
 41
8.000000000000000
 42
8.000000000000000
 43
8.000000000000000
 50
180.0000000000000
  0
INSERT
  5
2D8
100
AcDbEntity
  8
MAIN0
  6
BYBLOCK
 62
0
100
AcDbBlockReference
  2
_OPEN
 10
582.2709459281037
 20
749.5049255266622
 30
0.0000000000000000
 41
8.000000000000000
 42
8.000000000000000
 43
8.000000000000000
 50
0.0000000000000000
  0
LINE
  5
2D9
100
AcDbEntity
  8
MAIN0
  6
BYBLOCK
 62
0
100
AcDbLine
 10
582.2709459281037
 20
822.8202227272038
 30
0.0000000000000000
 11
582.2709459281037
 21
741.5049255266622
 31
0.0000000000000000
  0
MTEXT
  5
2DA
100
AcDbEntity
  8
MAIN0
  6
BYBLOCK
 62
0
100
AcDbMText
 10
557.2709459281036
 20
756.2049253359273
 30
0.0000000000000000
 40
12.39999961853027
 41
0.0000000000000000
 71
     5
 72
     1
  1
\A1;50
 11
1.000000000000000
 21
0.0000000000000000
 31
0.0000000000000000
  7
STANDARD
  0
ENDBLK
  5
2DB
100
AcDbEntity
  8
MAIN0
  6
CONTINUOUS
 62
3
100
AcDbBlockEnd
  0
BLOCK
  5
2DD
100
AcDbEntity
  8
MAIN0
  6
CONTINUOUS
 62
3
100
AcDbBlockBegin
  2
*D29
 70
    65
 10
0.0
 20
0.0
 30
0.0
  0
LINE
  5
2DE
100
AcDbEntity
  8
MAIN0
  6
BYBLOCK
 62
0
100
AcDbLine
 10
673.1137459281038
 20
822.8202227272038
 30
0.0000000000000000
 11
673.1137459281038
 21
741.5049255266622
 31
0.0000000000000000
  0
LINE
  5
2DF
100
AcDbEntity
  8
MAIN0
  6
BYBLOCK
 62
0
100
AcDbLine
 10
681.1137459281038
 20
749.5049255266622
 30
0.0000000000000000
 11
713.6137459281038
 21
749.5049255266622
 31
0.0000000000000000
  0
INSERT
  5
2E0
100
AcDbEntity
  8
MAIN0
  6
BYBLOCK
 62
0
100
AcDbBlockReference
  2
_OPEN
 10
673.1137459281038
 20
749.5049255266622
 30
0.0000000000000000
 41
8.000000000000000
 42
8.000000000000000
 43
8.000000000000000
 50
180.0000000000000
  0
INSERT
  5
2E1
100
AcDbEntity
  8
MAIN0
  6
BYBLOCK
 62
0
100
AcDbBlockReference
  2
_OPEN
 10
721.6137459281038
 20
749.5049255266622
 30
0.0000000000000000
 41
8.000000000000000
 42
8.000000000000000
 43
8.000000000000000
 50
0.0000000000000000
  0
LINE
  5
2E2
100
AcDbEntity
  8
MAIN0
  6
BYBLOCK
 62
0
100
AcDbLine
 10
721.6137459281038
 20
912.3146914879844
 30
0.0000000000000000
 11
721.6137459281038
 21
741.5049255266622
 31
0.0000000000000000
  0
MTEXT
  5
2E3
100
AcDbEntity
  8
MAIN0
  6
BYBLOCK
 62
0
100
AcDbMText
 10
697.3637459281038
 20
756.2049253359273
 30
0.0000000000000000
 40
12.39999961853027
 41
0.0000000000000000
 71
     5
 72
     1
  1
\A1;48.5
 11
1.000000000000000
 21
0.0000000000000000
 31
0.0000000000000000
  7
STANDARD
  0
ENDBLK
  5
2E4
100
AcDbEntity
  8
MAIN0
  6
CONTINUOUS
 62
3
100
AcDbBlockEnd
  0
BLOCK
  5
322
100
AcDbEntity
  8
MAIN0
  6
CONTINUOUS
 62
3
100
AcDbBlockBegin
  2
*D30
 70
    65
 10
0.0
 20
0.0
 30
0.0
  0
LINE
  5
323
100
AcDbEntity
  8
MAIN0
  6
BYBLOCK
 62
0
100
AcDbLine
 10
816.6201299038089
 20
441.0202681166957
 30
0.0000000000000000
 11
816.6201299038089
 21
510.0202681166902
 31
0.0000000000000000
  0
INSERT
  5
324
100
AcDbEntity
  8
MAIN0
  6
BYBLOCK
 62
0
100
AcDbBlockReference
  2
_OPEN
 10
816.6201299038089
 20
433.0202681166957
 30
0.0000000000000000
 41
8.000000000000000
 42
8.000000000000000
 43
8.000000000000000
 50
270.0000000000000
  0
INSERT
  5
325
100
AcDbEntity
  8
MAIN0
  6
BYBLOCK
 62
0
100
AcDbBlockReference
  2
_OPEN
 10
816.6201299038089
 20
518.0202681166902
 30
0.0000000000000000
 41
8.000000000000000
 42
8.000000000000000
 43
8.000000000000000
 50
90.00000000000000
  0
LINE
  5
326
100
AcDbEntity
  8
MAIN0
  6
BYBLOCK
 62
0
100
AcDbLine
 10
856.6334671093737
 20
518.0202681166902
 30
0.0000000000000000
 11
808.6201299038089
 21
518.0202681166902
 31
0.0000000000000000
  0
MTEXT
  5
327
100
AcDbEntity
  8
MAIN0
  6
BYBLOCK
 62
0
100
AcDbMText
 10
808.4201300945438
 20
467.9436939666587
 30
0.0000000000000000
 40
12.39999961853027
 41
0.0000000000000000
 71
     5
 72
     1
  1
\A1;85
 11
6.123233995736766e-017
 21
1.000000000000000
 31
0.0000000000000000
  7
STANDARD
  0
ENDBLK
  5
328
100
AcDbEntity
  8
MAIN0
  6
CONTINUOUS
 62
3
100
AcDbBlockEnd
  0
BLOCK
  5
32A
100
AcDbEntity
  8
MAIN0
  6
CONTINUOUS
 62
3
100
AcDbBlockBegin
  2
*D31
 70
    65
 10
0.0
 20
0.0
 30
0.0
  0
LINE
  5
32B
100
AcDbEntity
  8
MAIN0
  6
BYBLOCK
 62
0
100
AcDbLine
 10
856.6334671093737
 20
518.0202681166902
 30
0.0000000000000000
 11
808.6201299038089
 21
518.0202681166902
 31
0.0000000000000000
  0
LINE
  5
32C
100
AcDbEntity
  8
MAIN0
  6
BYBLOCK
 62
0
100
AcDbLine
 10
816.6201299038089
 20
526.0202681166902
 30
0.0000000000000000
 11
816.6201299038089
 21
560.0202681166954
 31
0.0000000000000000
  0
INSERT
  5
32D
100
AcDbEntity
  8
MAIN0
  6
BYBLOCK
 62
0
100
AcDbBlockReference
  2
_OPEN
 10
816.6201299038089
 20
518.0202681166902
 30
0.0000000000000000
 41
8.000000000000000
 42
8.000000000000000
 43
8.000000000000000
 50
270.0000000000000
  0
INSERT
  5
32E
100
AcDbEntity
  8
MAIN0
  6
BYBLOCK
 62
0
100
AcDbBlockReference
  2
_OPEN
 10
816.6201299038089
 20
568.0202681166954
 30
0.0000000000000000
 41
8.000000000000000
 42
8.000000000000000
 43
8.000000000000000
 50
90.00000000000000
  0
LINE
  5
32F
100
AcDbEntity
  8
MAIN0
  6
BYBLOCK
 62
0
100
AcDbLine
 10
773.3137610592175
 20
568.0202681166954
 30
0.0000000000000000
 11
824.6201299038089
 21
568.0202681166954
 31
0.0000000000000000
  0
MTEXT
  5
330
100
AcDbEntity
  8
MAIN0
  6
BYBLOCK
 62
0
100
AcDbMText
 10
808.4201300945438
 20
536.3349309040677
 30
0.0000000000000000
 40
12.39999961853027
 41
0.0000000000000000
 71
     5
 72
     1
  1
\A1;50
 11
6.123233995736766e-017
 21
1.000000000000000
 31
0.0000000000000000
  7
STANDARD
  0
ENDBLK
  5
331
100
AcDbEntity
  8
MAIN0
  6
CONTINUOUS
 62
3
100
AcDbBlockEnd
  0
BLOCK
  5
334
100
AcDbEntity
  8
MAIN0
  6
CONTINUOUS
 62
3
100
AcDbBlockBegin
  2
*D32
 70
    65
 10
0.0
 20
0.0
 30
0.0
  0
LINE
  5
335
100
AcDbEntity
  8
MAIN0
  6
BYBLOCK
 62
0
100
AcDbLine
 10
480.2709459281037
 20
429.8202680690126
 30
0.0000000000000000
 11
480.2709459281037
 21
287.8779059755837
 31
0.0000000000000000
  0
LINE
  5
336
100
AcDbEntity
  8
MAIN0
  6
BYBLOCK
 62
0
100
AcDbLine
 10
488.2709459281037
 20
295.8779059755837
 30
0.0000000000000000
 11
649.2709459281037
 21
295.8779059755837
 31
0.0000000000000000
  0
INSERT
  5
337
100
AcDbEntity
  8
MAIN0
  6
BYBLOCK
 62
0
100
AcDbBlockReference
  2
_OPEN
 10
480.2709459281037
 20
295.8779059755837
 30
0.0000000000000000
 41
8.000000000000000
 42
8.000000000000000
 43
8.000000000000000
 50
180.0000000000000
  0
INSERT
  5
338
100
AcDbEntity
  8
MAIN0
  6
BYBLOCK
 62
0
100
AcDbBlockReference
  2
_OPEN
 10
657.2709459281037
 20
295.8779059755837
 30
0.0000000000000000
 41
8.000000000000000
 42
8.000000000000000
 43
8.000000000000000
 50
0.0000000000000000
  0
LINE
  5
339
100
AcDbEntity
  8
MAIN0
  6
BYBLOCK
 62
0
100
AcDbLine
 10
657.2709459281037
 20
416.6089216093366
 30
0.0000000000000000
 11
657.2709459281037
 21
287.8779059755837
 31
0.0000000000000000
  0
MTEXT
  5
33A
100
AcDbEntity
  8
MAIN0
  6
BYBLOCK
 62
0
100
AcDbMText
 10
568.7709459281037
 20
302.5779057848488
 30
0.0000000000000000
 40
12.39999961853027
 41
0.0000000000000000
 71
     5
 72
     1
  1
\A1;177
 11
1.000000000000000
 21
0.0000000000000000
 31
0.0000000000000000
  7
STANDARD
  0
ENDBLK
  5
33B
100
AcDbEntity
  8
MAIN0
  6
CONTINUOUS
 62
3
100
AcDbBlockEnd
  0
BLOCK
  5
33D
100
AcDbEntity
  8
MAIN0
  6
CONTINUOUS
 62
3
100
AcDbBlockBegin
  2
*D33
 70
    65
 10
0.0
 20
0.0
 30
0.0
  0
LINE
  5
33E
100
AcDbEntity
  8
MAIN0
  6
BYBLOCK
 62
0
100
AcDbLine
 10
657.2709459281037
 20
416.6089216093366
 30
0.0000000000000000
 11
657.2709459281037
 21
287.8779059755837
 31
0.0000000000000000
  0
LINE
  5
33F
100
AcDbEntity
  8
MAIN0
  6
BYBLOCK
 62
0
100
AcDbLine
 10
665.2709459281037
 20
295.8779059755837
 30
0.0000000000000000
 11
1077.270945928104
 21
295.8779059755837
 31
0.0000000000000000
  0
INSERT
  5
340
100
AcDbEntity
  8
MAIN0
  6
BYBLOCK
 62
0
100
AcDbBlockReference
  2
_OPEN
 10
657.2709459281037
 20
295.8779059755837
 30
0.0000000000000000
 41
8.000000000000000
 42
8.000000000000000
 43
8.000000000000000
 50
180.0000000000000
  0
INSERT
  5
341
100
AcDbEntity
  8
MAIN0
  6
BYBLOCK
 62
0
100
AcDbBlockReference
  2
_OPEN
 10
1085.270945928104
 20
295.8779059755837
 30
0.0000000000000000
 41
8.000000000000000
 42
8.000000000000000
 43
8.000000000000000
 50
0.0000000000000000
  0
LINE
  5
342
100
AcDbEntity
  8
MAIN0
  6
BYBLOCK
 62
0
100
AcDbLine
 10
1085.270945928104
 20
497.8202680690107
 30
0.0000000000000000
 11
1085.270945928104
 21
287.8779059755837
 31
0.0000000000000000
  0
MTEXT
  5
343
100
AcDbEntity
  8
MAIN0
  6
BYBLOCK
 62
0
100
AcDbMText
 10
871.2709459281039
 20
302.5779057848488
 30
0.0000000000000000
 40
12.39999961853027
 41
0.0000000000000000
 71
     5
 72
     1
  1
\A1;428
 11
1.000000000000000
 21
0.0000000000000000
 31
0.0000000000000000
  7
STANDARD
  0
ENDBLK
  5
344
100
AcDbEntity
  8
MAIN0
  6
CONTINUOUS
 62
3
100
AcDbBlockEnd
  0
BLOCK
  5
346
100
AcDbEntity
  8
MAIN0
  6
CONTINUOUS
 62
3
100
AcDbBlockBegin
  2
*D34
 70
    65
 10
0.0
 20
0.0
 30
0.0
  0
LINE
  5
347
100
AcDbEntity
  8
MAIN0
  6
BYBLOCK
 62
0
100
AcDbLine
 10
582.2709459281037
 20
564.8202680690122
 30
0.0000000000000000
 11
582.2709459281037
 21
354.6844329366248
 31
0.0000000000000000
  0
LINE
  5
348
100
AcDbEntity
  8
MAIN0
  6
BYBLOCK
 62
0
100
AcDbLine
 10
590.2709459281037
 20
362.6844329366248
 30
0.0000000000000000
 11
649.2709459281037
 21
362.6844329366248
 31
0.0000000000000000
  0
INSERT
  5
349
100
AcDbEntity
  8
MAIN0
  6
BYBLOCK
 62
0
100
AcDbBlockReference
  2
_OPEN
 10
582.2709459281037
 20
362.6844329366248
 30
0.0000000000000000
 41
8.000000000000000
 42
8.000000000000000
 43
8.000000000000000
 50
180.0000000000000
  0
INSERT
  5
34A
100
AcDbEntity
  8
MAIN0
  6
BYBLOCK
 62
0
100
AcDbBlockReference
  2
_OPEN
 10
657.2709459281037
 20
362.6844329366248
 30
0.0000000000000000
 41
8.000000000000000
 42
8.000000000000000
 43
8.000000000000000
 50
0.0000000000000000
  0
LINE
  5
34B
100
AcDbEntity
  8
MAIN0
  6
BYBLOCK
 62
0
100
AcDbLine
 10
657.2709459281037
 20
416.6089216093366
 30
0.0000000000000000
 11
657.2709459281037
 21
354.6844329366248
 31
0.0000000000000000
  0
MTEXT
  5
34C
100
AcDbEntity
  8
MAIN0
  6
BYBLOCK
 62
0
100
AcDbMText
 10
619.7709459281037
 20
369.3844327458900
 30
0.0000000000000000
 40
12.39999961853027
 41
0.0000000000000000
 71
     5
 72
     1
  1
\A1;75
 11
1.000000000000000
 21
0.0000000000000000
 31
0.0000000000000000
  7
STANDARD
  0
ENDBLK
  5
34D
100
AcDbEntity
  8
MAIN0
  6
CONTINUOUS
 62
3
100
AcDbBlockEnd
  0
BLOCK
  5
34F
100
AcDbEntity
  8
MAIN0
  6
CONTINUOUS
 62
3
100
AcDbBlockBegin
  2
*D35
 70
    65
 10
0.0
 20
0.0
 30
0.0
  0
LINE
  5
350
100
AcDbEntity
  8
MAIN0
  6
BYBLOCK
 62
0
100
AcDbLine
 10
657.2709459281037
 20
416.6089216093366
 30
0.0000000000000000
 11
657.2709459281037
 21
354.6844329366248
 31
0.0000000000000000
  0
LINE
  5
351
100
AcDbEntity
  8
MAIN0
  6
BYBLOCK
 62
0
100
AcDbLine
 10
665.2709459281037
 20
362.6844329366248
 30
0.0000000000000000
 11
977.2709459281037
 21
362.6844329366248
 31
0.0000000000000000
  0
INSERT
  5
352
100
AcDbEntity
  8
MAIN0
  6
BYBLOCK
 62
0
100
AcDbBlockReference
  2
_OPEN
 10
657.2709459281037
 20
362.6844329366248
 30
0.0000000000000000
 41
8.000000000000000
 42
8.000000000000000
 43
8.000000000000000
 50
180.0000000000000
  0
INSERT
  5
353
100
AcDbEntity
  8
MAIN0
  6
BYBLOCK
 62
0
100
AcDbBlockReference
  2
_OPEN
 10
985.2709459281037
 20
362.6844329366248
 30
0.0000000000000000
 41
8.000000000000000
 42
8.000000000000000
 43
8.000000000000000
 50
0.0000000000000000
  0
LINE
  5
354
100
AcDbEntity
  8
MAIN0
  6
BYBLOCK
 62
0
100
AcDbLine
 10
985.2709459281037
 20
429.8202680690110
 30
0.0000000000000000
 11
985.2709459281037
 21
354.6844329366248
 31
0.0000000000000000
  0
MTEXT
  5
355
100
AcDbEntity
  8
MAIN0
  6
BYBLOCK
 62
0
100
AcDbMText
 10
821.2709459281037
 20
369.3844327458900
 30
0.0000000000000000
 40
12.39999961853027
 41
0.0000000000000000
 71
     5
 72
     1
  1
\A1;328
 11
1.000000000000000
 21
0.0000000000000000
 31
0.0000000000000000
  7
STANDARD
  0
ENDBLK
  5
356
100
AcDbEntity
  8
MAIN0
  6
CONTINUOUS
 62
3
100
AcDbBlockEnd
  0
BLOCK
  5
358
100
AcDbEntity
  8
MAIN0
  6
CONTINUOUS
 62
3
100
AcDbBlockBegin
  2
*D36
 70
    65
 10
0.0
 20
0.0
 30
0.0
  0
LINE
  5
359
100
AcDbEntity
  8
MAIN0
  6
BYBLOCK
 62
0
100
AcDbLine
 10
1155.111741507560
 20
529.2202681643723
 30
0.0000000000000000
 11
1155.111741507553
 21
790.4678951709906
 31
0.0000000000000000
  0
LINE
  5
35A
100
AcDbEntity
  8
MAIN0
  6
BYBLOCK
 62
0
100
AcDbLine
 10
1155.111741507553
 20
782.4678951709906
 30
0.0000000000000000
 11
1170.111741507553
 21
782.4678951709906
 31
0.0000000000000000
  0
INSERT
  5
35B
100
AcDbEntity
  8
MAIN0
  6
BYBLOCK
 62
0
100
AcDbBlockReference
  2
_OPEN
 10
1155.111741507553
 20
782.4678951709906
 30
0.0000000000000000
 41
8.000000000000000
 42
8.000000000000000
 43
8.000000000000000
 50
0.0000000000000000
  0
INSERT
  5
35C
100
AcDbEntity
  8
MAIN0
  6
BYBLOCK
 62
0
100
AcDbBlockReference
  2
_OPEN
 10
1170.111741507553
 20
782.4678951709906
 30
0.0000000000000000
 41
8.000000000000000
 42
8.000000000000000
 43
8.000000000000000
 50
180.0000000000000
  0
LINE
  5
35D
100
AcDbEntity
  8
MAIN0
  6
BYBLOCK
 62
0
100
AcDbLine
 10
1147.111741507553
 20
782.4678951709906
 30
0.0000000000000000
 11
1143.111741507553
 21
782.4678951709906
 31
0.0000000000000000
  0
LINE
  5
35E
100
AcDbEntity
  8
MAIN0
  6
BYBLOCK
 62
0
100
AcDbLine
 10
1178.111741507553
 20
782.4678951709906
 30
0.0000000000000000
 11
1182.111741507553
 21
782.4678951709906
 31
0.0000000000000000
  0
LINE
  5
35F
100
AcDbEntity
  8
MAIN0
  6
BYBLOCK
 62
0
100
AcDbLine
 10
1170.111741507553
 20
538.8202681643722
 30
0.0000000000000000
 11
1170.111741507553
 21
790.4678951709906
 31
0.0000000000000000
  0
MTEXT
  5
360
100
AcDbEntity
  8
MAIN0
  6
BYBLOCK
 62
0
100
AcDbMText
 10
1162.611741507553
 20
789.1678949802557
 30
0.0000000000000000
 40
12.39999961853027
 41
0.0000000000000000
 71
     5
 72
     1
  1
\A1;15
 11
1.000000000000000
 21
0.0000000000000000
 31
0.0000000000000000
  7
STANDARD
  0
ENDBLK
  5
361
100
AcDbEntity
  8
MAIN0
  6
CONTINUOUS
 62
3
100
AcDbBlockEnd
  0
BLOCK
  5
363
100
AcDbEntity
  8
MAIN0
  6
CONTINUOUS
 62
3
100
AcDbBlockBegin
  2
*D37
 70
    65
 10
0.0
 20
0.0
 30
0.0
  0
LINE
  5
364
100
AcDbEntity
  8
MAIN0
  6
BYBLOCK
 62
0
100
AcDbLine
 10
1170.111741507553
 20
538.8202681643722
 30
0.0000000000000000
 11
1170.111741507553
 21
790.4678951709906
 31
0.0000000000000000
  0
LINE
  5
365
100
AcDbEntity
  8
MAIN0
  6
BYBLOCK
 62
0
100
AcDbLine
 10
1178.111741507560
 20
782.4678951709906
 30
0.0000000000000000
 11
1199.111741507726
 21
782.4678951709906
 31
0.0000000000000000
  0
INSERT
  5
366
100
AcDbEntity
  8
MAIN0
  6
BYBLOCK
 62
0
100
AcDbBlockReference
  2
_OPEN
 10
1170.111741507560
 20
782.4678951709906
 30
0.0000000000000000
 41
8.000000000000000
 42
8.000000000000000
 43
8.000000000000000
 50
180.0000000000000
  0
INSERT
  5
367
100
AcDbEntity
  8
MAIN0
  6
BYBLOCK
 62
0
100
AcDbBlockReference
  2
_OPEN
 10
1207.111741507726
 20
782.4678951709906
 30
0.0000000000000000
 41
8.000000000000000
 42
8.000000000000000
 43
8.000000000000000
 50
0.0000000000000000
  0
LINE
  5
368
100
AcDbEntity
  8
MAIN0
  6
BYBLOCK
 62
0
100
AcDbLine
 10
1207.111741507726
 20
742.2202681643746
 30
0.0000000000000000
 11
1207.111741507726
 21
790.4678951709906
 31
0.0000000000000000
  0
MTEXT
  5
369
100
AcDbEntity
  8
MAIN0
  6
BYBLOCK
 62
0
100
AcDbMText
 10
1188.611741507643
 20
789.1678949802557
 30
0.0000000000000000
 40
12.39999961853027
 41
0.0000000000000000
 71
     5
 72
     1
  1
\A1;37
 11
1.000000000000000
 21
0.0000000000000000
 31
0.0000000000000000
  7
STANDARD
  0
ENDBLK
  5
36A
100
AcDbEntity
  8
MAIN0
  6
CONTINUOUS
 62
3
100
AcDbBlockEnd
  0
BLOCK
  5
36C
100
AcDbEntity
  8
MAIN0
  6
CONTINUOUS
 62
3
100
AcDbBlockBegin
  2
*D38
 70
    65
 10
0.0
 20
0.0
 30
0.0
  0
LINE
  5
36D
100
AcDbEntity
  8
MAIN0
  6
BYBLOCK
 62
0
100
AcDbLine
 10
1207.111741507726
 20
742.2202681643746
 30
0.0000000000000000
 11
1207.111741507726
 21
790.4678951709906
 31
0.0000000000000000
  0
LINE
  5
36E
100
AcDbEntity
  8
MAIN0
  6
BYBLOCK
 62
0
100
AcDbLine
 10
1215.111741507726
 20
782.4678951709906
 30
0.0000000000000000
 11
1294.111741507737
 21
782.4678951709906
 31
0.0000000000000000
  0
INSERT
  5
36F
100
AcDbEntity
  8
MAIN0
  6
BYBLOCK
 62
0
100
AcDbBlockReference
  2
_OPEN
 10
1207.111741507726
 20
782.4678951709906
 30
0.0000000000000000
 41
8.000000000000000
 42
8.000000000000000
 43
8.000000000000000
 50
180.0000000000000
  0
INSERT
  5
370
100
AcDbEntity
  8
MAIN0
  6
BYBLOCK
 62
0
100
AcDbBlockReference
  2
_OPEN
 10
1302.111741507737
 20
782.4678951709906
 30
0.0000000000000000
 41
8.000000000000000
 42
8.000000000000000
 43
8.000000000000000
 50
0.0000000000000000
  0
LINE
  5
371
100
AcDbEntity
  8
MAIN0
  6
BYBLOCK
 62
0
100
AcDbLine
 10
1302.111741507737
 20
754.2202681643723
 30
0.0000000000000000
 11
1302.111741507737
 21
790.4678951709906
 31
0.0000000000000000
  0
MTEXT
  5
372
100
AcDbEntity
  8
MAIN0
  6
BYBLOCK
 62
0
100
AcDbMText
 10
1254.611741507732
 20
789.1678949802557
 30
0.0000000000000000
 40
12.39999961853027
 41
0.0000000000000000
 71
     5
 72
     1
  1
\A1;95
 11
1.000000000000000
 21
0.0000000000000000
 31
0.0000000000000000
  7
STANDARD
  0
ENDBLK
  5
373
100
AcDbEntity
  8
MAIN0
  6
CONTINUOUS
 62
3
100
AcDbBlockEnd
  0
BLOCK
  5
375
100
AcDbEntity
  8
MAIN0
  6
CONTINUOUS
 62
3
100
AcDbBlockBegin
  2
*D39
 70
    65
 10
0.0
 20
0.0
 30
0.0
  0
LINE
  5
376
100
AcDbEntity
  8
MAIN0
  6
BYBLOCK
 62
0
100
AcDbLine
 10
1155.111741507560
 20
529.2202681643723
 30
0.0000000000000000
 11
1155.111741507560
 21
818.8129513498318
 31
0.0000000000000000
  0
LINE
  5
377
100
AcDbEntity
  8
MAIN0
  6
BYBLOCK
 62
0
100
AcDbLine
 10
1163.111741507560
 20
810.8129513498318
 30
0.0000000000000000
 11
1294.111741507737
 21
810.8129513498318
 31
0.0000000000000000
  0
INSERT
  5
378
100
AcDbEntity
  8
MAIN0
  6
BYBLOCK
 62
0
100
AcDbBlockReference
  2
_OPEN
 10
1155.111741507560
 20
810.8129513498318
 30
0.0000000000000000
 41
8.000000000000000
 42
8.000000000000000
 43
8.000000000000000
 50
180.0000000000000
  0
INSERT
  5
379
100
AcDbEntity
  8
MAIN0
  6
BYBLOCK
 62
0
100
AcDbBlockReference
  2
_OPEN
 10
1302.111741507737
 20
810.8129513498318
 30
0.0000000000000000
 41
8.000000000000000
 42
8.000000000000000
 43
8.000000000000000
 50
0.0000000000000000
  0
LINE
  5
37A
100
AcDbEntity
  8
MAIN0
  6
BYBLOCK
 62
0
100
AcDbLine
 10
1302.111741507737
 20
754.2202681643723
 30
0.0000000000000000
 11
1302.111741507737
 21
818.8129513498318
 31
0.0000000000000000
  0
MTEXT
  5
37B
100
AcDbEntity
  8
MAIN0
  6
BYBLOCK
 62
0
100
AcDbMText
 10
1228.611741507649
 20
817.5129511590969
 30
0.0000000000000000
 40
12.39999961853027
 41
0.0000000000000000
 71
     5
 72
     1
  1
\A1;147
 11
1.000000000000000
 21
0.0000000000000000
 31
0.0000000000000000
  7
STANDARD
  0
ENDBLK
  5
37C
100
AcDbEntity
  8
MAIN0
  6
CONTINUOUS
 62
3
100
AcDbBlockEnd
  0
BLOCK
  5
37E
100
AcDbEntity
  8
MAIN0
  6
CONTINUOUS
 62
3
100
AcDbBlockBegin
  2
*D40
 70
    65
 10
0.0
 20
0.0
 30
0.0
  0
LINE
  5
37F
100
AcDbEntity
  8
MAIN0
  6
BYBLOCK
 62
0
100
AcDbLine
 10
1337.654170837778
 20
459.8202680690107
 30
0.0000000000000000
 11
1337.654170837778
 21
339.6312670301721
 31
0.0000000000000000
  0
LINE
  5
380
100
AcDbEntity
  8
MAIN0
  6
BYBLOCK
 62
0
100
AcDbLine
 10
1345.654170837778
 20
347.6312670301721
 30
0.0000000000000000
 11
1400.654170837778
 21
347.6312670301721
 31
0.0000000000000000
  0
INSERT
  5
381
100
AcDbEntity
  8
MAIN0
  6
BYBLOCK
 62
0
100
AcDbBlockReference
  2
_OPEN
 10
1337.654170837778
 20
347.6312670301721
 30
0.0000000000000000
 41
8.000000000000000
 42
8.000000000000000
 43
8.000000000000000
 50
180.0000000000000
  0
INSERT
  5
382
100
AcDbEntity
  8
MAIN0
  6
BYBLOCK
 62
0
100
AcDbBlockReference
  2
_OPEN
 10
1408.654170837778
 20
347.6312670301721
 30
0.0000000000000000
 41
8.000000000000000
 42
8.000000000000000
 43
8.000000000000000
 50
0.0000000000000000
  0
LINE
  5
383
100
AcDbEntity
  8
MAIN0
  6
BYBLOCK
 62
0
100
AcDbLine
 10
1408.654170837778
 20
429.8202680690108
 30
0.0000000000000000
 11
1408.654170837778
 21
339.6312670301721
 31
0.0000000000000000
  0
MTEXT
  5
384
100
AcDbEntity
  8
MAIN0
  6
BYBLOCK
 62
0
100
AcDbMText
 10
1373.154170837778
 20
354.3312668394372
 30
0.0000000000000000
 40
12.39999961853027
 41
0.0000000000000000
 71
     5
 72
     1
  1
\A1;71
 11
1.000000000000000
 21
0.0000000000000000
 31
0.0000000000000000
  7
STANDARD
  0
ENDBLK
  5
385
100
AcDbEntity
  8
MAIN0
  6
CONTINUOUS
 62
3
100
AcDbBlockEnd
  0
BLOCK
  5
387
100
AcDbEntity
  8
MAIN0
  6
CONTINUOUS
 62
3
100
AcDbBlockBegin
  2
*D41
 70
    65
 10
0.0
 20
0.0
 30
0.0
  0
LINE
  5
388
100
AcDbEntity
  8
MAIN0
  6
BYBLOCK
 62
0
100
AcDbLine
 10
1408.654170837778
 20
429.8202680690108
 30
0.0000000000000000
 11
1408.654170837778
 21
339.6312670301721
 31
0.0000000000000000
  0
LINE
  5
389
100
AcDbEntity
  8
MAIN0
  6
BYBLOCK
 62
0
100
AcDbLine
 10
1416.654170837778
 20
347.6312670301721
 30
0.0000000000000000
 11
1602.654170837778
 21
347.6312670301721
 31
0.0000000000000000
  0
INSERT
  5
38A
100
AcDbEntity
  8
MAIN0
  6
BYBLOCK
 62
0
100
AcDbBlockReference
  2
_OPEN
 10
1408.654170837778
 20
347.6312670301721
 30
0.0000000000000000
 41
8.000000000000000
 42
8.000000000000000
 43
8.000000000000000
 50
180.0000000000000
  0
INSERT
  5
38B
100
AcDbEntity
  8
MAIN0
  6
BYBLOCK
 62
0
100
AcDbBlockReference
  2
_OPEN
 10
1610.654170837778
 20
347.6312670301721
 30
0.0000000000000000
 41
8.000000000000000
 42
8.000000000000000
 43
8.000000000000000
 50
0.0000000000000000
  0
LINE
  5
38C
100
AcDbEntity
  8
MAIN0
  6
BYBLOCK
 62
0
100
AcDbLine
 10
1610.654170837778
 20
429.8202680690108
 30
0.0000000000000000
 11
1610.654170837778
 21
339.6312670301721
 31
0.0000000000000000
  0
MTEXT
  5
38D
100
AcDbEntity
  8
MAIN0
  6
BYBLOCK
 62
0
100
AcDbMText
 10
1509.654170837778
 20
354.3312668394372
 30
0.0000000000000000
 40
12.39999961853027
 41
0.0000000000000000
 71
     5
 72
     1
  1
\A1;202
 11
1.000000000000000
 21
0.0000000000000000
 31
0.0000000000000000
  7
STANDARD
  0
ENDBLK
  5
38E
100
AcDbEntity
  8
MAIN0
  6
CONTINUOUS
 62
3
100
AcDbBlockEnd
  0
BLOCK
  5
390
100
AcDbEntity
  8
MAIN0
  6
CONTINUOUS
 62
3
100
AcDbBlockBegin
  2
D42
 70
    64
 10
0.0
 20
0.0
 30
0.0
  0
LINE
  5
391
100
AcDbEntity
  8
MAIN0
  6
BYBLOCK
 62
0
100
AcDbLine
 10
27.77975047696305
 20
-94.61158912196925
 30
0.0000000000000000
 11
-171.9999999997580
 21
-94.61158912196925
 31
0.0000000000000000
  0
LINE
  5
392
100
AcDbEntity
  8
MAIN0
  6
BYBLOCK
 62
0
100
AcDbLine
 10
-163.9999999997580
 20
-97.01158921733668
 30
0.0000000000000000
 11
-171.9999999997580
 21
-94.61158912196925
 31
0.0000000000000000
  0
LINE
  5
393
100
AcDbEntity
  8
MAIN0
  6
BYBLOCK
 62
0
100
AcDbLine
 10
-171.9999999997580
 20
-94.61158912196925
 30
0.0000000000000000
 11
-163.9999999997580
 21
-92.21158902660181
 31
0.0000000000000000
  0
LINE
  5
394
100
AcDbEntity
  8
MAIN0
  6
BYBLOCK
 62
0
100
AcDbLine
 10
-171.9999999997580
 20
46.84003894022644
 30
0.0000000000000000
 11
-171.9999999997580
 21
-102.6115891219693
 31
0.0000000000000000
  0
MTEXT
  5
395
100
AcDbEntity
  8
MAIN0
  6
BYBLOCK
 62
0
100
AcDbMText
 10
20.02975047323776
 20
-87.91158931270411
 30
0.0000000000000000
 40
12.39999961853027
 41
0.0000000000000000
 71
     5
 72
     1
  1
\A1;（344）
 11
1.000000000000000
 21
0.0000000000000000
 31
0.0000000000000000
  7
KNJYOKO
  0
ENDBLK
  5
396
100
AcDbEntity
  8
MAIN0
  6
CONTINUOUS
 62
3
100
AcDbBlockEnd
  0
BLOCK
  5
398
100
AcDbEntity
  8
MAIN0
  6
CONTINUOUS
 62
3
100
AcDbBlockBegin
  2
*D43
 70
    65
 10
0.0
 20
0.0
 30
0.0
  0
LINE
  5
399
100
AcDbEntity
  8
MAIN0
  6
BYBLOCK
 62
0
100
AcDbLine
 10
988.4709459757876
 20
433.0202681166948
 30
0.0000000000000000
 11
1124.936825589335
 21
433.0202681166948
 31
0.0000000000000000
  0
LINE
  5
39A
100
AcDbEntity
  8
MAIN0
  6
BYBLOCK
 62
0
100
AcDbLine
 10
1116.936825589335
 20
441.0202681166948
 30
0.0000000000000000
 11
1116.936825589335
 21
518.0202681166886
 31
0.0000000000000000
  0
INSERT
  5
39B
100
AcDbEntity
  8
MAIN0
  6
BYBLOCK
 62
0
100
AcDbBlockReference
  2
_OPEN
 10
1116.936825589335
 20
433.0202681166948
 30
0.0000000000000000
 41
8.000000000000000
 42
8.000000000000000
 43
8.000000000000000
 50
270.0000000000000
  0
INSERT
  5
39C
100
AcDbEntity
  8
MAIN0
  6
BYBLOCK
 62
0
100
AcDbBlockReference
  2
_OPEN
 10
1116.936825589335
 20
526.0202681166886
 30
0.0000000000000000
 41
8.000000000000000
 42
8.000000000000000
 43
8.000000000000000
 50
90.00000000000000
  0
LINE
  5
39D
100
AcDbEntity
  8
MAIN0
  6
BYBLOCK
 62
0
100
AcDbLine
 10
1143.870134171388
 20
526.0202681166886
 30
0.0000000000000000
 11
1108.936825589335
 21
526.0202681166886
 31
0.0000000000000000
  0
MTEXT
  5
39E
100
AcDbEntity
  8
MAIN0
  6
BYBLOCK
 62
0
100
AcDbMText
 10
1110.236825780070
 20
479.5202681166917
 30
0.0000000000000000
 40
12.39999961853027
 41
0.0000000000000000
 71
     5
 72
     1
  1
\A1;93
 11
6.123233995736766e-017
 21
1.000000000000000
 31
0.0000000000000000
  7
STANDARD
  0
ENDBLK
  5
39F
100
AcDbEntity
  8
MAIN0
  6
CONTINUOUS
 62
3
100
AcDbBlockEnd
  0
BLOCK
  5
3A1
100
AcDbEntity
  8
MAIN0
  6
CONTINUOUS
 62
3
100
AcDbBlockBegin
  2
*D44
 70
    65
 10
0.0
 20
0.0
 30
0.0
  0
LINE
  5
3A2
100
AcDbEntity
  8
MAIN0
  6
BYBLOCK
 62
0
100
AcDbLine
 10
1143.870134171388
 20
526.0202681166886
 30
0.0000000000000000
 11
1108.936825589335
 21
526.0202681166886
 31
0.0000000000000000
  0
LINE
  5
3A3
100
AcDbEntity
  8
MAIN0
  6
BYBLOCK
 62
0
100
AcDbLine
 10
1116.936825589335
 20
534.0202681166886
 30
0.0000000000000000
 11
1116.936825589335
 21
743.0202681166886
 31
0.0000000000000000
  0
INSERT
  5
3A4
100
AcDbEntity
  8
MAIN0
  6
BYBLOCK
 62
0
100
AcDbBlockReference
  2
_OPEN
 10
1116.936825589335
 20
526.0202681166886
 30
0.0000000000000000
 41
8.000000000000000
 42
8.000000000000000
 43
8.000000000000000
 50
270.0000000000000
  0
INSERT
  5
3A5
100
AcDbEntity
  8
MAIN0
  6
BYBLOCK
 62
0
100
AcDbBlockReference
  2
_OPEN
 10
1116.936825589335
 20
751.0202681166886
 30
0.0000000000000000
 41
8.000000000000000
 42
8.000000000000000
 43
8.000000000000000
 50
90.00000000000000
  0
LINE
  5
3A6
100
AcDbEntity
  8
MAIN0
  6
BYBLOCK
 62
0
100
AcDbLine
 10
1189.223072002622
 20
751.0202681166886
 30
0.0000000000000000
 11
1108.936825589335
 21
751.0202681166886
 31
0.0000000000000000
  0
MTEXT
  5
3A7
100
AcDbEntity
  8
MAIN0
  6
BYBLOCK
 62
0
100
AcDbMText
 10
1110.236825780070
 20
638.5202681166886
 30
0.0000000000000000
 40
12.39999961853027
 41
0.0000000000000000
 71
     5
 72
     1
  1
\A1;225
 11
6.123233995736766e-017
 21
1.000000000000000
 31
0.0000000000000000
  7
STANDARD
  0
ENDBLK
  5
3A8
100
AcDbEntity
  8
MAIN0
  6
CONTINUOUS
 62
3
100
AcDbBlockEnd
  0
BLOCK
  5
3AA
100
AcDbEntity
  8
MAIN0
  6
CONTINUOUS
 62
3
100
AcDbBlockBegin
  2
*D45
 70
    65
 10
0.0
 20
0.0
 30
0.0
  0
LINE
  5
3AB
100
AcDbEntity
  8
MAIN0
  6
BYBLOCK
 62
0
100
AcDbLine
 10
732.6426373226035
 20
568.0202681166954
 30
0.0000000000000000
 11
732.6426373226035
 21
589.2202681166887
 31
0.0000000000000000
  0
INSERT
  5
3AC
100
AcDbEntity
  8
MAIN0
  6
BYBLOCK
 62
0
100
AcDbBlockReference
  2
_OPEN
 10
732.6426373226035
 20
568.0202681166954
 30
0.0000000000000000
 41
8.000000000000000
 42
8.000000000000000
 43
8.000000000000000
 50
90.00000000000000
  0
INSERT
  5
3AD
100
AcDbEntity
  8
MAIN0
  6
BYBLOCK
 62
0
100
AcDbBlockReference
  2
_OPEN
 10
732.6426373226035
 20
589.2202681166887
 30
0.0000000000000000
 41
8.000000000000000
 42
8.000000000000000
 43
8.000000000000000
 50
270.0000000000000
  0
LINE
  5
3AE
100
AcDbEntity
  8
MAIN0
  6
BYBLOCK
 62
0
100
AcDbLine
 10
732.6426373226035
 20
560.0202681166954
 30
0.0000000000000000
 11
732.6426373226035
 21
556.0202681166954
 31
0.0000000000000000
  0
LINE
  5
3AF
100
AcDbEntity
  8
MAIN0
  6
BYBLOCK
 62
0
100
AcDbLine
 10
732.6426373226035
 20
597.2202681166887
 30
0.0000000000000000
 11
732.6426373226035
 21
601.2202681166887
 31
0.0000000000000000
  0
LINE
  5
3B0
100
AcDbEntity
  8
MAIN0
  6
BYBLOCK
 62
0
100
AcDbLine
 10
766.9137609638501
 20
589.2202681166887
 30
0.0000000000000000
 11
731.9939682585585
 21
589.2202681166887
 31
0.0000000000000000
  0
MTEXT
  5
3B1
100
AcDbEntity
  8
MAIN0
  6
BYBLOCK
 62
0
100
AcDbMText
 10
724.4426375133384
 20
579.9882790429684
 30
0.0000000000000000
 40
12.39999961853027
 41
0.0000000000000000
 71
     5
 72
     1
  1
\A1;21
 11
6.123233995736766e-017
 21
1.000000000000000
 31
0.0000000000000000
  7
STANDARD
  0
ENDBLK
  5
3B2
100
AcDbEntity
  8
MAIN0
  6
CONTINUOUS
 62
3
100
AcDbBlockEnd
  0
BLOCK
  5
3BD
100
AcDbEntity
  8
MAIN0
  6
CONTINUOUS
 62
3
100
AcDbBlockBegin
  2
*D46
 70
    65
 10
0.0
 20
0.0
 30
0.0
  0
LINE
  5
3BE
100
AcDbEntity
  8
MAIN0
  6
BYBLOCK
 62
0
100
AcDbLine
 10
1231.368370943300
 20
466.2202681644336
 30
0.0000000000000000
 11
1231.368370943300
 21
504.7932624157906
 31
0.0000000000000000
  0
LINE
  5
3BF
100
AcDbEntity
  8
MAIN0
  6
BYBLOCK
 62
0
100
AcDbLine
 10
1239.368370943300
 20
496.7932624157906
 30
0.0000000000000000
 11
1268.368370943299
 21
496.7932624157906
 31
0.0000000000000000
  0
INSERT
  5
3C0
100
AcDbEntity
  8
MAIN0
  6
BYBLOCK
 62
0
100
AcDbBlockReference
  2
_OPEN
 10
1231.368370943300
 20
496.7932624157906
 30
0.0000000000000000
 41
8.000000000000000
 42
8.000000000000000
 43
8.000000000000000
 50
180.0000000000000
  0
INSERT
  5
3C1
100
AcDbEntity
  8
MAIN0
  6
BYBLOCK
 62
0
100
AcDbBlockReference
  2
_OPEN
 10
1276.368370943299
 20
496.7932624157906
 30
0.0000000000000000
 41
8.000000000000000
 42
8.000000000000000
 43
8.000000000000000
 50
0.0000000000000000
  0
LINE
  5
3C2
100
AcDbEntity
  8
MAIN0
  6
BYBLOCK
 62
0
100
AcDbLine
 10
1276.368370943299
 20
466.2202681644197
 30
0.0000000000000000
 11
1276.368370943299
 21
504.7932624157906
 31
0.0000000000000000
  0
MTEXT
  5
3C3
100
AcDbEntity
  8
MAIN0
  6
BYBLOCK
 62
0
100
AcDbMText
 10
1253.868370943300
 20
503.4932622250557
 30
0.0000000000000000
 40
12.39999961853027
 41
0.0000000000000000
 71
     5
 72
     1
  1
\A1;45
 11
1.000000000000000
 21
0.0000000000000000
 31
0.0000000000000000
  7
STANDARD
  0
ENDBLK
  5
3C4
100
AcDbEntity
  8
MAIN0
  6
CONTINUOUS
 62
3
100
AcDbBlockEnd
  0
BLOCK
  5
3C6
100
AcDbEntity
  8
MAIN0
  6
CONTINUOUS
 62
3
100
AcDbBlockBegin
  2
*D47
 70
    65
 10
0.0
 20
0.0
 30
0.0
  0
LINE
  5
3C7
100
AcDbEntity
  8
MAIN0
  6
BYBLOCK
 62
0
100
AcDbLine
 10
1403.854170885422
 20
284.9967935779996
 30
0.0000000000000000
 11
1444.818300485492
 21
284.9967935780090
 31
0.0000000000000000
  0
LINE
  5
3C8
100
AcDbEntity
  8
MAIN0
  6
BYBLOCK
 62
0
100
AcDbLine
 10
1436.818300485492
 20
284.9967935780071
 30
0.0000000000000000
 11
1436.818300485492
 21
267.4967935780072
 31
0.0000000000000000
  0
INSERT
  5
3C9
100
AcDbEntity
  8
MAIN0
  6
BYBLOCK
 62
0
100
AcDbBlockReference
  2
_OPEN
 10
1436.818300485492
 20
284.9967935780071
 30
0.0000000000000000
 41
8.000000000000000
 42
8.000000000000000
 43
8.000000000000000
 50
270.0000000000000
  0
INSERT
  5
3CA
100
AcDbEntity
  8
MAIN0
  6
BYBLOCK
 62
0
100
AcDbBlockReference
  2
_OPEN
 10
1436.818300485492
 20
267.4967935780072
 30
0.0000000000000000
 41
8.000000000000000
 42
8.000000000000000
 43
8.000000000000000
 50
90.00000000000000
  0
LINE
  5
3CB
100
AcDbEntity
  8
MAIN0
  6
BYBLOCK
 62
0
100
AcDbLine
 10
1436.818300485492
 20
292.9967935780071
 30
0.0000000000000000
 11
1436.818300485492
 21
296.9967935780071
 31
0.0000000000000000
  0
LINE
  5
3CC
100
AcDbEntity
  8
MAIN0
  6
BYBLOCK
 62
0
100
AcDbLine
 10
1436.818300485492
 20
259.4967935780072
 30
0.0000000000000000
 11
1436.818300485492
 21
227.9991344937735
 31
0.0000000000000000
  0
LINE
  5
3CD
100
AcDbEntity
  8
MAIN0
  6
BYBLOCK
 62
0
100
AcDbLine
 10
1403.854170885435
 20
267.4967935779996
 30
0.0000000000000000
 11
1444.818300485492
 21
267.4967935780090
 31
0.0000000000000000
  0
MTEXT
  5
3CE
100
AcDbEntity
  8
MAIN0
  6
BYBLOCK
 62
0
100
AcDbMText
 10
1428.618300676227
 20
242.5991348752432
 30
0.0000000000000000
 40
12.39999961853027
 41
0.0000000000000000
 71
     5
 72
     1
  1
\A1;17.5
 11
6.123233995736766e-017
 21
1.000000000000000
 31
0.0000000000000000
  7
STANDARD
  0
ENDBLK
  5
3CF
100
AcDbEntity
  8
MAIN0
  6
CONTINUOUS
 62
3
100
AcDbBlockEnd
  0
BLOCK
  5
3D1
100
AcDbEntity
  8
MAIN0
  6
CONTINUOUS
 62
3
100
AcDbBlockBegin
  2
*D48
 70
    65
 10
0.0
 20
0.0
 30
0.0
  0
LINE
  5
3D2
100
AcDbEntity
  8
MAIN0
  6
BYBLOCK
 62
0
100
AcDbLine
 10
1367.454170790051
 20
290.4967935780061
 30
0.0000000000000000
 11
1333.353634305975
 21
290.4967935779964
 31
0.0000000000000000
  0
LINE
  5
3D3
100
AcDbEntity
  8
MAIN0
  6
BYBLOCK
 62
0
100
AcDbLine
 10
1341.353634305975
 20
290.4967935779987
 30
0.0000000000000000
 11
1341.353634305975
 21
261.9967935779989
 31
0.0000000000000000
  0
INSERT
  5
3D4
100
AcDbEntity
  8
MAIN0
  6
BYBLOCK
 62
0
100
AcDbBlockReference
  2
_OPEN
 10
1341.353634305975
 20
290.4967935779987
 30
0.0000000000000000
 41
8.000000000000000
 42
8.000000000000000
 43
8.000000000000000
 50
270.0000000000000
  0
INSERT
  5
3D5
100
AcDbEntity
  8
MAIN0
  6
BYBLOCK
 62
0
100
AcDbBlockReference
  2
_OPEN
 10
1341.353634305975
 20
261.9967935779989
 30
0.0000000000000000
 41
8.000000000000000
 42
8.000000000000000
 43
8.000000000000000
 50
90.00000000000000
  0
LINE
  5
3D6
100
AcDbEntity
  8
MAIN0
  6
BYBLOCK
 62
0
100
AcDbLine
 10
1341.353634305975
 20
298.4967935779987
 30
0.0000000000000000
 11
1341.353634305975
 21
302.4967935779987
 31
0.0000000000000000
  0
LINE
  5
3D7
100
AcDbEntity
  8
MAIN0
  6
BYBLOCK
 62
0
100
AcDbLine
 10
1341.353634305975
 20
253.9967935779989
 30
0.0000000000000000
 11
1341.353634305975
 21
249.9967935779989
 31
0.0000000000000000
  0
LINE
  5
3D8
100
AcDbEntity
  8
MAIN0
  6
BYBLOCK
 62
0
100
AcDbLine
 10
1367.454170790071
 20
261.9967935780063
 30
0.0000000000000000
 11
1333.353634305975
 21
261.9967935779966
 31
0.0000000000000000
  0
MTEXT
  5
3D9
100
AcDbEntity
  8
MAIN0
  6
BYBLOCK
 62
0
100
AcDbMText
 10
1334.653634496710
 20
276.2467935779988
 30
0.0000000000000000
 40
12.39999961853027
 41
0.0000000000000000
 71
     5
 72
     1
  1
\A1;28.5
 11
6.123233995736766e-017
 21
1.000000000000000
 31
0.0000000000000000
  7
STANDARD
  0
ENDBLK
  5
3DA
100
AcDbEntity
  8
MAIN0
  6
CONTINUOUS
 62
3
100
AcDbBlockEnd
  0
BLOCK
  5
3DC
100
AcDbEntity
  8
MAIN0
  6
CONTINUOUS
 62
3
100
AcDbBlockBegin
  2
*D49
 70
    65
 10
0.0
 20
0.0
 30
0.0
  0
LINE
  5
3DD
100
AcDbEntity
  8
MAIN0
  6
BYBLOCK
 62
0
100
AcDbLine
 10
1370.654170837755
 20
258.7967935303235
 30
0.0000000000000000
 11
1370.654170837755
 21
218.1034822505390
 31
0.0000000000000000
  0
LINE
  5
3DE
100
AcDbEntity
  8
MAIN0
  6
BYBLOCK
 62
0
100
AcDbLine
 10
1370.654170837755
 20
226.1034822505390
 30
0.0000000000000000
 11
1400.654170837755
 21
226.1034822505390
 31
0.0000000000000000
  0
INSERT
  5
3DF
100
AcDbEntity
  8
MAIN0
  6
BYBLOCK
 62
0
100
AcDbBlockReference
  2
_OPEN
 10
1370.654170837755
 20
226.1034822505390
 30
0.0000000000000000
 41
8.000000000000000
 42
8.000000000000000
 43
8.000000000000000
 50
0.0000000000000000
  0
INSERT
  5
3E0
100
AcDbEntity
  8
MAIN0
  6
BYBLOCK
 62
0
100
AcDbBlockReference
  2
_OPEN
 10
1400.654170837755
 20
226.1034822505390
 30
0.0000000000000000
 41
8.000000000000000
 42
8.000000000000000
 43
8.000000000000000
 50
180.0000000000000
  0
LINE
  5
3E1
100
AcDbEntity
  8
MAIN0
  6
BYBLOCK
 62
0
100
AcDbLine
 10
1362.654170837755
 20
226.1034822505390
 30
0.0000000000000000
 11
1358.654170837755
 21
226.1034822505390
 31
0.0000000000000000
  0
LINE
  5
3E2
100
AcDbEntity
  8
MAIN0
  6
BYBLOCK
 62
0
100
AcDbLine
 10
1408.654170837755
 20
226.1034822505390
 30
0.0000000000000000
 11
1412.654170837755
 21
226.1034822505390
 31
0.0000000000000000
  0
LINE
  5
3E3
100
AcDbEntity
  8
MAIN0
  6
BYBLOCK
 62
0
100
AcDbLine
 10
1400.654170837755
 20
258.7967935303152
 30
0.0000000000000000
 11
1400.654170837755
 21
218.1034822505390
 31
0.0000000000000000
  0
MTEXT
  5
3E4
100
AcDbEntity
  8
MAIN0
  6
BYBLOCK
 62
0
100
AcDbMText
 10
1385.654170837755
 20
232.8034820598041
 30
0.0000000000000000
 40
12.39999961853027
 41
0.0000000000000000
 71
     5
 72
     1
  1
\A1;30
 11
1.000000000000000
 21
0.0000000000000000
 31
0.0000000000000000
  7
STANDARD
  0
ENDBLK
  5
3E5
100
AcDbEntity
  8
MAIN0
  6
CONTINUOUS
 62
3
100
AcDbBlockEnd
  0
BLOCK
  5
3E7
100
AcDbEntity
  8
MAIN0
  6
CONTINUOUS
 62
3
100
AcDbBlockBegin
  2
*D50
 70
    65
 10
0.0
 20
0.0
 30
0.0
  0
LINE
  5
3E8
100
AcDbEntity
  8
MAIN0
  6
BYBLOCK
 62
0
100
AcDbLine
 10
480.2709459281037
 20
429.8202680690126
 30
0.0000000000000000
 11
480.2709459281037
 21
322.2733386367724
 31
0.0000000000000000
  0
LINE
  5
3E9
100
AcDbEntity
  8
MAIN0
  6
BYBLOCK
 62
0
100
AcDbLine
 10
488.2709459281037
 20
330.2733386367724
 30
0.0000000000000000
 11
977.2709459281037
 21
330.2733386367724
 31
0.0000000000000000
  0
INSERT
  5
3EA
100
AcDbEntity
  8
MAIN0
  6
BYBLOCK
 62
0
100
AcDbBlockReference
  2
_OPEN
 10
480.2709459281037
 20
330.2733386367724
 30
0.0000000000000000
 41
8.000000000000000
 42
8.000000000000000
 43
8.000000000000000
 50
180.0000000000000
  0
INSERT
  5
3EB
100
AcDbEntity
  8
MAIN0
  6
BYBLOCK
 62
0
100
AcDbBlockReference
  2
_OPEN
 10
985.2709459281037
 20
330.2733386367724
 30
0.0000000000000000
 41
8.000000000000000
 42
8.000000000000000
 43
8.000000000000000
 50
0.0000000000000000
  0
LINE
  5
3EC
100
AcDbEntity
  8
MAIN0
  6
BYBLOCK
 62
0
100
AcDbLine
 10
985.2709459281037
 20
429.8202680690110
 30
0.0000000000000000
 11
985.2709459281037
 21
322.2733386367724
 31
0.0000000000000000
  0
MTEXT
  5
3ED
100
AcDbEntity
  8
MAIN0
  6
BYBLOCK
 62
0
100
AcDbMText
 10
732.7709459281037
 20
336.9733384460375
 30
0.0000000000000000
 40
12.39999961853027
 41
0.0000000000000000
 71
     5
 72
     1
  1
\A1;505
 11
1.000000000000000
 21
0.0000000000000000
 31
0.0000000000000000
  7
STANDARD
  0
ENDBLK
  5
3EE
100
AcDbEntity
  8
MAIN0
  6
CONTINUOUS
 62
3
100
AcDbBlockEnd
  0
BLOCK
  5
3F0
100
AcDbEntity
  8
MAIN0
  6
CONTINUOUS
 62
3
100
AcDbBlockBegin
  2
*D51
 70
    65
 10
0.0
 20
0.0
 30
0.0
  0
LINE
  5
3F1
100
AcDbEntity
  8
MAIN0
  6
BYBLOCK
 62
0
100
AcDbLine
 10
985.2709459281037
 20
429.8202680690110
 30
0.0000000000000000
 11
985.2709459281037
 21
322.2733386367724
 31
0.0000000000000000
  0
LINE
  5
3F2
100
AcDbEntity
  8
MAIN0
  6
BYBLOCK
 62
0
100
AcDbLine
 10
993.2709459281036
 20
330.2733386367724
 30
0.0000000000000000
 11
1077.270945928104
 21
330.2733386367724
 31
0.0000000000000000
  0
INSERT
  5
3F3
100
AcDbEntity
  8
MAIN0
  6
BYBLOCK
 62
0
100
AcDbBlockReference
  2
_OPEN
 10
985.2709459281037
 20
330.2733386367724
 30
0.0000000000000000
 41
8.000000000000000
 42
8.000000000000000
 43
8.000000000000000
 50
180.0000000000000
  0
INSERT
  5
3F4
100
AcDbEntity
  8
MAIN0
  6
BYBLOCK
 62
0
100
AcDbBlockReference
  2
_OPEN
 10
1085.270945928104
 20
330.2733386367724
 30
0.0000000000000000
 41
8.000000000000000
 42
8.000000000000000
 43
8.000000000000000
 50
0.0000000000000000
  0
LINE
  5
3F5
100
AcDbEntity
  8
MAIN0
  6
BYBLOCK
 62
0
100
AcDbLine
 10
1085.270945928104
 20
497.8202680690107
 30
0.0000000000000000
 11
1085.270945928104
 21
322.2733386367724
 31
0.0000000000000000
  0
MTEXT
  5
3F6
100
AcDbEntity
  8
MAIN0
  6
BYBLOCK
 62
0
100
AcDbMText
 10
1035.270945928104
 20
336.9733384460375
 30
0.0000000000000000
 40
12.39999961853027
 41
0.0000000000000000
 71
     5
 72
     1
  1
\A1;100
 11
1.000000000000000
 21
0.0000000000000000
 31
0.0000000000000000
  7
STANDARD
  0
ENDBLK
  5
3F7
100
AcDbEntity
  8
MAIN0
  6
CONTINUOUS
 62
3
100
AcDbBlockEnd
  0
BLOCK
  5
3F9
100
AcDbEntity
  8
MAIN0
  6
CONTINUOUS
 62
3
100
AcDbBlockBegin
  2
*D52
 70
    65
 10
0.0
 20
0.0
 30
0.0
  0
LINE
  5
3FA
100
AcDbEntity
  8
MAIN0
  6
BYBLOCK
 62
0
100
AcDbLine
 10
477.0709458804201
 20
433.0202681166962
 30
0.0000000000000000
 11
430.9737737899559
 21
433.0202681166957
 31
0.0000000000000000
  0
LINE
  5
3FB
100
AcDbEntity
  8
MAIN0
  6
BYBLOCK
 62
0
100
AcDbLine
 10
438.9737737899559
 20
441.0202681166958
 30
0.0000000000000000
 11
438.9737737899559
 21
560.0202681166963
 31
0.0000000000000000
  0
INSERT
  5
3FC
100
AcDbEntity
  8
MAIN0
  6
BYBLOCK
 62
0
100
AcDbBlockReference
  2
_OPEN
 10
438.9737737899559
 20
433.0202681166958
 30
0.0000000000000000
 41
8.000000000000000
 42
8.000000000000000
 43
8.000000000000000
 50
270.0000000000000
  0
INSERT
  5
3FD
100
AcDbEntity
  8
MAIN0
  6
BYBLOCK
 62
0
100
AcDbBlockReference
  2
_OPEN
 10
438.9737737899559
 20
568.0202681166963
 30
0.0000000000000000
 41
8.000000000000000
 42
8.000000000000000
 43
8.000000000000000
 50
90.00000000000000
  0
LINE
  5
3FE
100
AcDbEntity
  8
MAIN0
  6
BYBLOCK
 62
0
100
AcDbLine
 10
477.0709458804201
 20
568.0202681166963
 30
0.0000000000000000
 11
430.9737737899559
 21
568.0202681166963
 31
0.0000000000000000
  0
MTEXT
  5
3FF
100
AcDbEntity
  8
MAIN0
  6
BYBLOCK
 62
0
100
AcDbMText
 10
432.2737739806908
 20
500.5202681166960
 30
0.0000000000000000
 40
12.39999961853027
 41
0.0000000000000000
 71
     5
 72
     1
  1
\A1;135
 11
6.123233995736766e-017
 21
1.000000000000000
 31
0.0000000000000000
  7
STANDARD
  0
ENDBLK
  5
400
100
AcDbEntity
  8
MAIN0
  6
CONTINUOUS
 62
3
100
AcDbBlockEnd
  0
BLOCK
  5
402
100
AcDbEntity
  8
MAIN0
  6
CONTINUOUS
 62
3
100
AcDbBlockBegin
  2
*D53
 70
    65
 10
0.0
 20
0.0
 30
0.0
  0
LINE
  5
403
100
AcDbEntity
  8
MAIN0
  6
BYBLOCK
 62
0
100
AcDbLine
 10
477.0709458804201
 20
568.0202681166963
 30
0.0000000000000000
 11
430.9737737899559
 21
568.0202681166963
 31
0.0000000000000000
  0
LINE
  5
404
100
AcDbEntity
  8
MAIN0
  6
BYBLOCK
 62
0
100
AcDbLine
 10
438.9737737899559
 20
576.0202681166963
 30
0.0000000000000000
 11
438.9737737899559
 21
615.0202681166963
 31
0.0000000000000000
  0
INSERT
  5
405
100
AcDbEntity
  8
MAIN0
  6
BYBLOCK
 62
0
100
AcDbBlockReference
  2
_OPEN
 10
438.9737737899559
 20
568.0202681166963
 30
0.0000000000000000
 41
8.000000000000000
 42
8.000000000000000
 43
8.000000000000000
 50
270.0000000000000
  0
INSERT
  5
406
100
AcDbEntity
  8
MAIN0
  6
BYBLOCK
 62
0
100
AcDbBlockReference
  2
_OPEN
 10
438.9737737899559
 20
623.0202681166963
 30
0.0000000000000000
 41
8.000000000000000
 42
8.000000000000000
 43
8.000000000000000
 50
90.00000000000000
  0
LINE
  5
407
100
AcDbEntity
  8
MAIN0
  6
BYBLOCK
 62
0
100
AcDbLine
 10
479.0709458804203
 20
623.0202681166963
 30
0.0000000000000000
 11
430.9737737899559
 21
623.0202681166963
 31
0.0000000000000000
  0
MTEXT
  5
408
100
AcDbEntity
  8
MAIN0
  6
BYBLOCK
 62
0
100
AcDbMText
 10
432.2737739806908
 20
595.5202681166963
 30
0.0000000000000000
 40
12.39999961853027
 41
0.0000000000000000
 71
     5
 72
     1
  1
\A1;55
 11
6.123233995736766e-017
 21
1.000000000000000
 31
0.0000000000000000
  7
STANDARD
  0
ENDBLK
  5
409
100
AcDbEntity
  8
MAIN0
  6
CONTINUOUS
 62
3
100
AcDbBlockEnd
  0
BLOCK
  5
40B
100
AcDbEntity
  8
MAIN0
  6
CONTINUOUS
 62
3
100
AcDbBlockBegin
  2
*D54
 70
    65
 10
0.0
 20
0.0
 30
0.0
  0
LINE
  5
40C
100
AcDbEntity
  8
MAIN0
  6
BYBLOCK
 62
0
100
AcDbLine
 10
477.0709458804201
 20
433.0202681166962
 30
0.0000000000000000
 11
400.3832490240783
 21
433.0202681166957
 31
0.0000000000000000
  0
LINE
  5
40D
100
AcDbEntity
  8
MAIN0
  6
BYBLOCK
 62
0
100
AcDbLine
 10
408.3832490240783
 20
441.0202681166958
 30
0.0000000000000000
 11
408.3832490240783
 21
615.0202681166963
 31
0.0000000000000000
  0
INSERT
  5
40E
100
AcDbEntity
  8
MAIN0
  6
BYBLOCK
 62
0
100
AcDbBlockReference
  2
_OPEN
 10
408.3832490240783
 20
433.0202681166958
 30
0.0000000000000000
 41
8.000000000000000
 42
8.000000000000000
 43
8.000000000000000
 50
270.0000000000000
  0
INSERT
  5
40F
100
AcDbEntity
  8
MAIN0
  6
BYBLOCK
 62
0
100
AcDbBlockReference
  2
_OPEN
 10
408.3832490240783
 20
623.0202681166963
 30
0.0000000000000000
 41
8.000000000000000
 42
8.000000000000000
 43
8.000000000000000
 50
90.00000000000000
  0
LINE
  5
410
100
AcDbEntity
  8
MAIN0
  6
BYBLOCK
 62
0
100
AcDbLine
 10
479.0709458804203
 20
623.0202681166963
 30
0.0000000000000000
 11
400.3832490240783
 21
623.0202681166963
 31
0.0000000000000000
  0
MTEXT
  5
411
100
AcDbEntity
  8
MAIN0
  6
BYBLOCK
 62
0
100
AcDbMText
 10
401.6832492148132
 20
528.0202681166960
 30
0.0000000000000000
 40
12.39999961853027
 41
0.0000000000000000
 71
     5
 72
     1
  1
\A1;190
 11
6.123233995736766e-017
 21
1.000000000000000
 31
0.0000000000000000
  7
STANDARD
  0
ENDBLK
  5
412
100
AcDbEntity
  8
MAIN0
  6
CONTINUOUS
 62
3
100
AcDbBlockEnd
  0
ENDSEC
  0
SECTION
  2
ENTITIES
  0
LINE
  5
46
100
AcDbEntity
  8
MAIN0
  6
CONTINUOUS
 62
3
100
AcDbLine
 10
1408.654170837778
 20
568.0202681166945
 30
0.0000000000000000
 11
1610.654170837778
 21
568.0202681166945
 31
0.0000000000000000
  0
LINE
  5
47
100
AcDbEntity
  8
MAIN0
  6
CONTINUOUS
 62
3
100
AcDbLine
 10
1408.654170837778
 20
623.0202681166945
 30
0.0000000000000000
 11
1609.654170837778
 21
623.0202681166945
 31
0.0000000000000000
  0
LINE
  5
48
100
AcDbEntity
  8
MAIN0
  6
CONTINUOUS
 62
3
100
AcDbLine
 10
120.0112450369302
 20
568.0202681166975
 30
0.0000000000000000
 11
322.6112450368141
 21
568.0202681166970
 31
0.0000000000000000
  0
LINE
  5
49
100
AcDbEntity
  8
MAIN0
  6
CONTINUOUS
 62
3
100
AcDbLine
 10
321.3112450370560
 20
623.0202681166969
 30
0.0000000000000000
 11
321.3112450370560
 21
568.0202681166968
 31
0.0000000000000000
  0
LINE
  5
4A
100
AcDbEntity
  8
MAIN0
  6
CONTINUOUS
 62
3
100
AcDbLine
 10
121.3112450370560
 20
568.0202681166975
 30
0.0000000000000000
 11
121.3112450370560
 21
623.0202681166976
 31
0.0000000000000000
  0
LINE
  5
4B
100
AcDbEntity
  8
MAIN0
  6
CONTINUOUS
 62
3
100
AcDbLine
 10
482.2709459281039
 20
623.0202681166963
 30
0.0000000000000000
 11
482.2709459281039
 21
568.0202681166963
 31
0.0000000000000000
  0
LINE
  5
4C
100
AcDbEntity
  8
MAIN0
  6
CONTINUOUS
 62
3
100
AcDbLine
 10
121.3112450370561
 20
623.0202681166976
 30
0.0000000000000000
 11
321.3112450370560
 21
623.0202681166970
 31
0.0000000000000000
  0
LINE
  5
4D
100
AcDbEntity
  8
MAIN0
  6
CONTINUOUS
 62
3
100
AcDbLine
 10
480.2709459281037
 20
568.0202681166962
 30
0.0000000000000000
 11
480.2709459281037
 21
433.0202681166963
 31
0.0000000000000000
  0
LINE
  5
4E
100
AcDbEntity
  8
MAIN0
  6
CONTINUOUS
 62
3
100
AcDbLine
 10
582.2709459281037
 20
623.0202681166960
 30
0.0000000000000000
 11
582.2709459281037
 21
568.0202681166959
 31
0.0000000000000000
  0
LINE
  5
4F
100
AcDbEntity
  8
MAIN0
  6
CONTINUOUS
 62
3
100
AcDbLine
 10
518.2709459281037
 20
568.0202681166962
 30
0.0000000000000000
 11
518.2709459281037
 21
558.0202681166961
 31
0.0000000000000000
  0
LINE
  5
50
100
AcDbEntity
  8
MAIN0
  6
CONTINUOUS
 62
3
100
AcDbLine
 10
546.2709459281037
 20
568.0202681166959
 30
0.0000000000000000
 11
546.2709459281037
 21
558.0202681166960
 31
0.0000000000000000
  0
LINE
  5
51
100
AcDbEntity
  8
MAIN0
  6
CONTINUOUS
 62
3
100
AcDbLine
 10
518.2709459281037
 20
558.0202681166962
 30
0.0000000000000000
 11
546.2709459281037
 21
558.0202681166961
 31
0.0000000000000000
  0
LINE
  5
52
100
AcDbEntity
  8
MAIN0
  6
CONTINUOUS
 62
3
100
AcDbLine
 10
518.2709459281036
 20
559.0202681166962
 30
0.0000000000000000
 11
546.2709459281036
 21
559.0202681166961
 31
0.0000000000000000
  0
LINE
  5
53
100
AcDbEntity
  8
MAIN0
  6
CONTINUOUS
 62
3
100
AcDbLine
 10
480.2709459281039
 20
568.0202681166963
 30
0.0000000000000000
 11
518.2709459281037
 21
568.0202681166961
 31
0.0000000000000000
  0
LINE
  5
54
100
AcDbEntity
  8
MAIN0
  6
CONTINUOUS
 62
3
100
AcDbLine
 10
1518.654170837778
 20
438.0202681166945
 30
0.0000000000000000
 11
1500.654170837778
 21
438.0202681166945
 31
0.0000000000000000
  0
LINE
  5
55
100
AcDbEntity
  8
MAIN0
  6
CONTINUOUS
 62
3
100
AcDbLine
 10
230.3112450370560
 20
438.0202681166972
 30
0.0000000000000000
 11
212.3112450370559
 21
438.0202681166973
 31
0.0000000000000000
  0
LINE
  5
56
100
AcDbEntity
  8
MAIN0
  6
CONTINUOUS
 62
3
100
AcDbLine
 10
1603.654170837778
 20
454.0202681166944
 30
0.0000000000000000
 11
1603.654170837778
 21
504.0202681166945
 31
0.0000000000000000
  0
LINE
  5
57
100
AcDbEntity
  8
MAIN0
  6
CONTINUOUS
 62
3
100
AcDbLine
 10
315.3112450370560
 20
454.0202681166969
 30
0.0000000000000000
 11
315.3112450370560
 21
504.0202681166970
 31
0.0000000000000000
  0
LINE
  5
58
100
AcDbEntity
  8
MAIN0
  6
CONTINUOUS
 62
3
100
AcDbLine
 10
1415.654170837778
 20
454.0202681166944
 30
0.0000000000000000
 11
1415.654170837778
 21
504.0202681166945
 31
0.0000000000000000
  0
LINE
  5
59
100
AcDbEntity
  8
MAIN0
  6
CONTINUOUS
 62
3
100
AcDbLine
 10
127.3112450370560
 20
454.0202681166975
 30
0.0000000000000000
 11
127.3112450370560
 21
504.0202681166975
 31
0.0000000000000000
  0
LINE
  5
5A
100
AcDbEntity
  8
MAIN0
  6
CONTINUOUS
 62
3
100
AcDbLine
 10
1408.654170837778
 20
504.0202681166944
 30
0.0000000000000000
 11
1415.654170837778
 21
504.0202681166944
 31
0.0000000000000000
  0
LINE
  5
5B
100
AcDbEntity
  8
MAIN0
  6
CONTINUOUS
 62
3
100
AcDbLine
 10
1603.654170837778
 20
504.0202681166945
 30
0.0000000000000000
 11
1610.654170837778
 21
504.0202681166945
 31
0.0000000000000000
  0
LINE
  5
5C
100
AcDbEntity
  8
MAIN0
  6
CONTINUOUS
 62
3
100
AcDbLine
 10
1415.654170837778
 20
454.0202681166944
 30
0.0000000000000000
 11
1408.654170837778
 21
454.0202681166944
 31
0.0000000000000000
  0
LINE
  5
5D
100
AcDbEntity
  8
MAIN0
  6
CONTINUOUS
 62
3
100
AcDbLine
 10
1610.654170837778
 20
454.0202681166945
 30
0.0000000000000000
 11
1603.654170837778
 21
454.0202681166945
 31
0.0000000000000000
  0
LINE
  5
5E
100
AcDbEntity
  8
MAIN0
  6
CONTINUOUS
 62
3
100
AcDbLine
 10
1408.654170837778
 20
433.0202681166944
 30
0.0000000000000000
 11
1500.654170837778
 21
433.0202681166945
 31
0.0000000000000000
  0
LINE
  5
5F
100
AcDbEntity
  8
MAIN0
  6
CONTINUOUS
 62
3
100
AcDbLine
 10
1518.654170837778
 20
433.0202681166945
 30
0.0000000000000000
 11
1610.654170837778
 21
433.0202681166945
 31
0.0000000000000000
  0
LINE
  5
60
100
AcDbEntity
  8
MAIN0
  6
CONTINUOUS
 62
3
100
AcDbLine
 10
212.3112450370559
 20
433.0202681166972
 30
0.0000000000000000
 11
120.3112450370559
 21
433.0202681166975
 31
0.0000000000000000
  0
LINE
  5
61
100
AcDbEntity
  8
MAIN0
  6
CONTINUOUS
 62
3
100
AcDbLine
 10
322.3112450370559
 20
433.0202681166969
 30
0.0000000000000000
 11
230.3112450370559
 21
433.0202681166972
 31
0.0000000000000000
  0
LINE
  5
62
100
AcDbEntity
  8
MAIN0
  6
CONTINUOUS
 62
3
100
AcDbLine
 10
322.3112450370560
 20
433.0202681166969
 30
0.0000000000000000
 11
322.3112450370560
 21
454.0202681166969
 31
0.0000000000000000
  0
LINE
  5
63
100
AcDbEntity
  8
MAIN0
  6
CONTINUOUS
 62
3
100
AcDbLine
 10
322.3112450370560
 20
504.0202681166968
 30
0.0000000000000000
 11
322.3112450370560
 21
568.0202681166970
 31
0.0000000000000000
  0
LINE
  5
64
100
AcDbEntity
  8
MAIN0
  6
CONTINUOUS
 62
3
100
AcDbLine
 10
120.3112450370560
 20
433.0202681166975
 30
0.0000000000000000
 11
120.3112450370560
 21
454.0202681166975
 31
0.0000000000000000
  0
LINE
  5
65
100
AcDbEntity
  8
MAIN0
  6
CONTINUOUS
 62
3
100
AcDbLine
 10
120.3112450370560
 20
504.0202681166975
 30
0.0000000000000000
 11
120.3112450370560
 21
568.0202681166975
 31
0.0000000000000000
  0
LINE
  5
66
100
AcDbEntity
  8
MAIN0
  6
CONTINUOUS
 62
3
100
AcDbLine
 10
985.2709459281037
 20
454.0202681166948
 30
0.0000000000000000
 11
480.2709459281038
 21
454.0202681166962
 31
0.0000000000000000
  0
LINE
  5
67
100
AcDbEntity
  8
MAIN0
  6
CONTINUOUS
 62
3
100
AcDbLine
 10
127.3112450370560
 20
454.0202681166975
 30
0.0000000000000000
 11
120.3112450370560
 21
454.0202681166975
 31
0.0000000000000000
  0
LINE
  5
68
100
AcDbEntity
  8
MAIN0
  6
CONTINUOUS
 62
3
100
AcDbLine
 10
322.3112450370560
 20
454.0202681166969
 30
0.0000000000000000
 11
315.3112450370560
 21
454.0202681166969
 31
0.0000000000000000
  0
LINE
  5
69
100
AcDbEntity
  8
MAIN0
  6
CONTINUOUS
 62
3
100
AcDbLine
 10
985.2709459281036
 20
504.0202681166948
 30
0.0000000000000000
 11
480.2709459281037
 21
504.0202681166962
 31
0.0000000000000000
  0
LINE
  5
6A
100
AcDbEntity
  8
MAIN0
  6
CONTINUOUS
 62
3
100
AcDbLine
 10
127.3112450370559
 20
504.0202681166974
 30
0.0000000000000000
 11
120.3112450370559
 21
504.0202681166975
 31
0.0000000000000000
  0
LINE
  5
6B
100
AcDbEntity
  8
MAIN0
  6
CONTINUOUS
 62
3
100
AcDbLine
 10
322.3112450370560
 20
504.0202681166969
 30
0.0000000000000000
 11
315.3112450370560
 21
504.0202681166969
 31
0.0000000000000000
  0
LINE
  5
6C
100
AcDbEntity
  8
MAIN0
  6
CONTINUOUS
 62
3
100
AcDbLine
 10
1408.654170837778
 20
433.0202681166945
 30
0.0000000000000000
 11
1408.654170837778
 21
454.0202681166945
 31
0.0000000000000000
  0
LINE
  5
6D
100
AcDbEntity
  8
MAIN0
  6
CONTINUOUS
 62
3
100
AcDbLine
 10
1610.654170837778
 20
433.0202681166945
 30
0.0000000000000000
 11
1610.654170837778
 21
454.0202681166945
 31
0.0000000000000000
  0
LINE
  5
6E
100
AcDbEntity
  8
MAIN0
  6
CONTINUOUS
 62
3
100
AcDbLine
 10
1518.654170837778
 20
433.0202681166945
 30
0.0000000000000000
 11
1518.654170837778
 21
438.0202681166944
 31
0.0000000000000000
  0
LINE
  5
6F
100
AcDbEntity
  8
MAIN0
  6
CONTINUOUS
 62
3
100
AcDbLine
 10
230.3112450370560
 20
433.0202681166973
 30
0.0000000000000000
 11
230.3112450370560
 21
438.0202681166971
 31
0.0000000000000000
  0
LINE
  5
70
100
AcDbEntity
  8
MAIN0
  6
CONTINUOUS
 62
3
100
AcDbLine
 10
1500.654170837778
 20
433.0202681166945
 30
0.0000000000000000
 11
1500.654170837778
 21
438.0202681166944
 31
0.0000000000000000
  0
LINE
  5
71
100
AcDbEntity
  8
MAIN0
  6
CONTINUOUS
 62
3
100
AcDbLine
 10
212.3112450370560
 20
433.0202681166971
 30
0.0000000000000000
 11
212.3112450370560
 21
438.0202681166974
 31
0.0000000000000000
  0
LINE
  5
72
100
AcDbEntity
  8
MAIN0
  6
CONTINUOUS
 62
3
100
AcDbLine
 10
648.2709459281039
 20
438.0202681166958
 30
0.0000000000000000
 11
666.2709459281037
 21
438.0202681166958
 31
0.0000000000000000
  0
LINE
  5
73
100
AcDbEntity
  8
MAIN0
  6
CONTINUOUS
 62
3
100
AcDbLine
 10
666.2709459281037
 20
428.0202681166958
 30
0.0000000000000000
 11
648.2709459281036
 21
428.0202681166958
 31
0.0000000000000000
  0
LINE
  5
74
100
AcDbEntity
  8
MAIN0
  6
CONTINUOUS
 62
3
100
AcDbLine
 10
648.2709459281037
 20
433.0202681166958
 30
0.0000000000000000
 11
480.2709459281039
 21
433.0202681166962
 31
0.0000000000000000
  0
LINE
  5
75
100
AcDbEntity
  8
MAIN0
  6
CONTINUOUS
 62
3
100
AcDbLine
 10
985.2709459281039
 20
433.0202681166948
 30
0.0000000000000000
 11
666.2709459281037
 21
433.0202681166957
 31
0.0000000000000000
  0
LINE
  5
76
100
AcDbEntity
  8
MAIN0
  6
CONTINUOUS
 62
3
100
AcDbLine
 10
666.2709459281037
 20
428.0202681166958
 30
0.0000000000000000
 11
666.2709459281037
 21
438.0202681166957
 31
0.0000000000000000
  0
LINE
  5
77
100
AcDbEntity
  8
MAIN0
  6
CONTINUOUS
 62
3
100
AcDbLine
 10
648.2709459281037
 20
428.0202681166958
 30
0.0000000000000000
 11
648.2709459281037
 21
438.0202681166957
 31
0.0000000000000000
  0
LINE
  5
78
100
AcDbEntity
  8
MAIN0
  6
CONTINUOUS
 62
3
100
AcDbLine
 10
269.3112450370560
 20
564.0202681166970
 30
0.0000000000000000
 11
269.3112450370560
 21
541.0202681166971
 31
0.0000000000000000
  0
LINE
  5
79
100
AcDbEntity
  8
MAIN0
  6
CONTINUOUS
 62
3
100
AcDbLine
 10
173.3112450370560
 20
564.0202681166970
 30
0.0000000000000000
 11
173.3112450370560
 21
541.0202681166973
 31
0.0000000000000000
  0
LINE
  5
7A
100
AcDbEntity
  8
MAIN0
  6
CONTINUOUS
 62
3
100
AcDbLine
 10
277.8112450370560
 20
541.0202681166970
 30
0.0000000000000000
 11
277.8112450370560
 21
521.0202681166970
 31
0.0000000000000000
  0
LINE
  5
7B
100
AcDbEntity
  8
MAIN0
  6
CONTINUOUS
 62
3
100
AcDbLine
 10
164.8112450370560
 20
541.0202681166974
 30
0.0000000000000000
 11
164.8112450370560
 21
521.0202681166974
 31
0.0000000000000000
  0
LINE
  5
7C
100
AcDbEntity
  8
MAIN0
  6
CONTINUOUS
 62
3
100
AcDbLine
 10
173.3112450370560
 20
541.0202681166974
 30
0.0000000000000000
 11
164.8112450370560
 21
541.0202681166974
 31
0.0000000000000000
  0
LINE
  5
7D
100
AcDbEntity
  8
MAIN0
  6
CONTINUOUS
 62
3
100
AcDbLine
 10
277.8112450370560
 20
541.0202681166970
 30
0.0000000000000000
 11
269.3112450370560
 21
541.0202681166970
 31
0.0000000000000000
  0
LINE
  5
7E
100
AcDbEntity
  8
MAIN0
  6
CONTINUOUS
 62
3
100
AcDbLine
 10
268.8112450370560
 20
508.0202681166970
 30
0.0000000000000000
 11
268.8112450370560
 21
521.0202681166971
 31
0.0000000000000000
  0
LINE
  5
7F
100
AcDbEntity
  8
MAIN0
  6
CONTINUOUS
 62
3
100
AcDbLine
 10
173.8112450370560
 20
508.0202681166973
 30
0.0000000000000000
 11
173.8112450370560
 21
521.0202681166973
 31
0.0000000000000000
  0
LINE
  5
80
100
AcDbEntity
  8
MAIN0
  6
CONTINUOUS
 62
3
100
AcDbLine
 10
246.3259636628168
 20
488.0202681166972
 30
0.0000000000000000
 11
196.2965264112955
 21
488.0202681166974
 31
0.0000000000000000
  0
LINE
  5
81
100
AcDbEntity
  8
MAIN0
  6
CONTINUOUS
 62
3
100
AcDbLine
 10
250.5686043499362
 20
489.7776274295779
 30
0.0000000000000000
 11
268.8112450370562
 21
508.0202681166979
 31
0.0000000000000000
  0
LINE
  5
82
100
AcDbEntity
  8
MAIN0
  6
CONTINUOUS
 62
3
100
AcDbLine
 10
173.8112450370564
 20
508.0202681166978
 30
0.0000000000000000
 11
192.0538857241763
 21
489.7776274295779
 31
0.0000000000000000
  0
LINE
  5
83
100
AcDbEntity
  8
MAIN0
  6
CONTINUOUS
 62
3
100
AcDbLine
 10
164.8112450370559
 20
521.0202681166974
 30
0.0000000000000000
 11
173.8112450370560
 21
521.0202681166974
 31
0.0000000000000000
  0
LINE
  5
84
100
AcDbEntity
  8
MAIN0
  6
CONTINUOUS
 62
3
100
AcDbLine
 10
268.8112450370560
 20
521.0202681166971
 30
0.0000000000000000
 11
277.8112450370560
 21
521.0202681166970
 31
0.0000000000000000
  0
ARC
  5
85
100
AcDbEntity
  8
MAIN0
  6
CONTINUOUS
 62
3
100
AcDbCircle
 10
262.8112450370560
 20
508.0202681166970
 30
0.0000000000000000
 40
6.000000000000000
100
AcDbArc
 50
270.0000000005678
 51
359.9999999999934
  0
ARC
  5
86
100
AcDbEntity
  8
MAIN0
  6
CONTINUOUS
 62
3
100
AcDbCircle
 10
179.8112450370560
 20
508.0202681166973
 30
0.0000000000000000
 40
6.000000000000000
100
AcDbArc
 50
179.9999999999964
 51
270.0000000005678
  0
ARC
  5
87
100
AcDbEntity
  8
MAIN0
  6
CONTINUOUS
 62
3
100
AcDbCircle
 10
246.3259636628169
 20
494.0202681166971
 30
0.0000000000000000
 40
6.000000000000000
100
AcDbArc
 50
269.9999999999961
 51
314.9999999999934
  0
ARC
  5
88
100
AcDbEntity
  8
MAIN0
  6
CONTINUOUS
 62
3
100
AcDbCircle
 10
196.2965264112955
 20
494.0202681166973
 30
0.0000000000000000
 40
6.000000000000000
100
AcDbArc
 50
224.9999999999966
 51
269.9999999999961
  0
LINE
  5
89
100
AcDbEntity
  8
MAIN0
  6
CONTINUOUS
 62
3
100
AcDbLine
 10
255.8112450370557
 20
495.0202681166973
 30
0.0000000000000000
 11
186.8112450370566
 21
495.0202681166975
 31
0.0000000000000000
  0
LINE
  5
8A
100
AcDbEntity
  8
MAIN0
  6
CONTINUOUS
 62
3
100
AcDbLine
 10
145.8112450370560
 20
428.0202681166975
 30
0.0000000000000000
 11
120.8112450370560
 21
428.0202681166975
 31
0.0000000000000000
  0
LINE
  5
8B
100
AcDbEntity
  8
MAIN0
  6
CONTINUOUS
 62
3
100
AcDbLine
 10
321.8112450370560
 20
428.0202681166969
 30
0.0000000000000000
 11
296.8112450370560
 21
428.0202681166970
 31
0.0000000000000000
  0
LINE
  5
8C
100
AcDbEntity
  8
MAIN0
  6
CONTINUOUS
 62
3
100
AcDbLine
 10
1434.154170837778
 20
428.0202681166945
 30
0.0000000000000000
 11
1409.154170837778
 21
428.0202681166945
 31
0.0000000000000000
  0
LINE
  5
8D
100
AcDbEntity
  8
MAIN0
  6
CONTINUOUS
 62
3
100
AcDbLine
 10
1610.154170837778
 20
428.0202681166945
 30
0.0000000000000000
 11
1585.154170837778
 21
428.0202681166945
 31
0.0000000000000000
  0
LINE
  5
8E
100
AcDbEntity
  8
MAIN0
  6
CONTINUOUS
 62
3
100
AcDbLine
 10
1585.154170837778
 20
428.0202681166944
 30
0.0000000000000000
 11
1585.154170837778
 21
433.0202681166945
 31
0.0000000000000000
  0
LINE
  5
8F
100
AcDbEntity
  8
MAIN0
  6
CONTINUOUS
 62
3
100
AcDbLine
 10
296.8112450370560
 20
428.0202681166969
 30
0.0000000000000000
 11
296.8112450370560
 21
433.0202681166970
 31
0.0000000000000000
  0
LINE
  5
90
100
AcDbEntity
  8
MAIN0
  6
CONTINUOUS
 62
3
100
AcDbLine
 10
1610.154170837778
 20
433.0202681166945
 30
0.0000000000000000
 11
1610.154170837778
 21
428.0202681166945
 31
0.0000000000000000
  0
LINE
  5
91
100
AcDbEntity
  8
MAIN0
  6
CONTINUOUS
 62
3
100
AcDbLine
 10
321.8112450370560
 20
433.0202681166969
 30
0.0000000000000000
 11
321.8112450370560
 21
428.0202681166969
 31
0.0000000000000000
  0
LINE
  5
92
100
AcDbEntity
  8
MAIN0
  6
CONTINUOUS
 62
3
100
AcDbLine
 10
1434.154170837778
 20
428.0202681166945
 30
0.0000000000000000
 11
1434.154170837778
 21
433.0202681166944
 31
0.0000000000000000
  0
LINE
  5
93
100
AcDbEntity
  8
MAIN0
  6
CONTINUOUS
 62
3
100
AcDbLine
 10
145.8112450370560
 20
428.0202681166976
 30
0.0000000000000000
 11
145.8112450370560
 21
433.0202681166975
 31
0.0000000000000000
  0
LINE
  5
94
100
AcDbEntity
  8
MAIN0
  6
CONTINUOUS
 62
3
100
AcDbLine
 10
1409.154170837778
 20
433.0202681166944
 30
0.0000000000000000
 11
1409.154170837778
 21
428.0202681166945
 31
0.0000000000000000
  0
LINE
  5
95
100
AcDbEntity
  8
MAIN0
  6
CONTINUOUS
 62
3
100
AcDbLine
 10
120.8112450370560
 20
433.0202681166975
 30
0.0000000000000000
 11
120.8112450370560
 21
428.0202681166976
 31
0.0000000000000000
  0
CIRCLE
  5
96
100
AcDbEntity
  8
MAIN0
  6
CONTINUOUS
 62
3
100
AcDbCircle
 10
1509.654170837778
 20
526.0202681166944
 30
0.0000000000000000
 40
25.00000000000000
  0
CIRCLE
  5
97
100
AcDbEntity
  8
MAIN0
  6
CONTINUOUS
 62
3
100
AcDbCircle
 10
1509.654170837778
 20
526.0202681166944
 30
0.0000000000000000
 40
21.00000000000000
  0
CIRCLE
  5
98
100
AcDbEntity
  8
MAIN0
  6
CONTINUOUS
 62
3
100
AcDbCircle
 10
1509.654170837778
 20
526.0202681166944
 30
0.0000000000000000
 40
12.00000000000000
  0
CIRCLE
  5
99
100
AcDbEntity
  8
MAIN0
  6
CONTINUOUS
 62
3
100
AcDbCircle
 10
1570.654170837778
 20
499.0202681166945
 30
0.0000000000000000
 40
9.000000000000000
  0
LINE
  5
9A
100
AcDbEntity
  8
MAIN0
  6
CONTINUOUS
 62
3
100
AcDbLine
 10
1570.654170837778
 20
504.7937708085908
 30
0.0000000000000000
 11
1565.654170837778
 21
501.9070194626426
 31
0.0000000000000000
  0
LINE
  5
9B
100
AcDbEntity
  8
MAIN0
  6
CONTINUOUS
 62
3
100
AcDbLine
 10
1565.654170837778
 20
501.9070194626426
 30
0.0000000000000000
 11
1565.654170837778
 21
496.1335167707465
 31
0.0000000000000000
  0
LINE
  5
9C
100
AcDbEntity
  8
MAIN0
  6
CONTINUOUS
 62
3
100
AcDbLine
 10
1565.654170837778
 20
496.1335167707465
 30
0.0000000000000000
 11
1570.654170837778
 21
493.2467654247983
 31
0.0000000000000000
  0
LINE
  5
9D
100
AcDbEntity
  8
MAIN0
  6
CONTINUOUS
 62
3
100
AcDbLine
 10
1570.654170837778
 20
493.2467654247984
 30
0.0000000000000000
 11
1575.654170837778
 21
496.1335167707466
 31
0.0000000000000000
  0
LINE
  5
9E
100
AcDbEntity
  8
MAIN0
  6
CONTINUOUS
 62
3
100
AcDbLine
 10
1575.654170837778
 20
496.1335167707465
 30
0.0000000000000000
 11
1575.654170837778
 21
501.9070194626426
 31
0.0000000000000000
  0
LINE
  5
9F
100
AcDbEntity
  8
MAIN0
  6
CONTINUOUS
 62
3
100
AcDbLine
 10
1575.654170837778
 20
501.9070194626427
 30
0.0000000000000000
 11
1570.654170837778
 21
504.7937708085909
 31
0.0000000000000000
  0
CIRCLE
  5
A0
100
AcDbEntity
  8
MAIN0
  6
CONTINUOUS
 62
3
100
AcDbCircle
 10
1448.654170837778
 20
499.0202681166945
 30
0.0000000000000000
 40
9.000000000000000
  0
LINE
  5
A1
100
AcDbEntity
  8
MAIN0
  6
CONTINUOUS
 62
3
100
AcDbLine
 10
1448.654170837778
 20
504.7937708085908
 30
0.0000000000000000
 11
1443.654170837778
 21
501.9070194626426
 31
0.0000000000000000
  0
LINE
  5
A2
100
AcDbEntity
  8
MAIN0
  6
CONTINUOUS
 62
3
100
AcDbLine
 10
1443.654170837778
 20
501.9070194626426
 30
0.0000000000000000
 11
1443.654170837778
 21
496.1335167707465
 31
0.0000000000000000
  0
LINE
  5
A3
100
AcDbEntity
  8
MAIN0
  6
CONTINUOUS
 62
3
100
AcDbLine
 10
1443.654170837778
 20
496.1335167707466
 30
0.0000000000000000
 11
1448.654170837778
 21
493.2467654247984
 31
0.0000000000000000
  0
LINE
  5
A4
100
AcDbEntity
  8
MAIN0
  6
CONTINUOUS
 62
3
100
AcDbLine
 10
1448.654170837778
 20
493.2467654247982
 30
0.0000000000000000
 11
1453.654170837778
 21
496.1335167707464
 31
0.0000000000000000
  0
LINE
  5
A5
100
AcDbEntity
  8
MAIN0
  6
CONTINUOUS
 62
3
100
AcDbLine
 10
1453.654170837778
 20
496.1335167707465
 30
0.0000000000000000
 11
1453.654170837778
 21
501.9070194626426
 31
0.0000000000000000
  0
LINE
  5
A6
100
AcDbEntity
  8
MAIN0
  6
CONTINUOUS
 62
3
100
AcDbLine
 10
1453.654170837778
 20
501.9070194626426
 30
0.0000000000000000
 11
1448.654170837778
 21
504.7937708085908
 31
0.0000000000000000
  0
CIRCLE
  5
A7
100
AcDbEntity
  8
MAIN0
  6
CONTINUOUS
 62
3
100
AcDbCircle
 10
1448.654170837778
 20
553.0202681166945
 30
0.0000000000000000
 40
9.000000000000000
  0
LINE
  5
A8
100
AcDbEntity
  8
MAIN0
  6
CONTINUOUS
 62
3
100
AcDbLine
 10
1448.654170837778
 20
558.7937708085907
 30
0.0000000000000000
 11
1443.654170837778
 21
555.9070194626424
 31
0.0000000000000000
  0
LINE
  5
A9
100
AcDbEntity
  8
MAIN0
  6
CONTINUOUS
 62
3
100
AcDbLine
 10
1443.654170837778
 20
555.9070194626426
 30
0.0000000000000000
 11
1443.654170837778
 21
550.1335167707464
 31
0.0000000000000000
  0
LINE
  5
AA
100
AcDbEntity
  8
MAIN0
  6
CONTINUOUS
 62
3
100
AcDbLine
 10
1443.654170837778
 20
550.1335167707464
 30
0.0000000000000000
 11
1448.654170837778
 21
547.2467654247982
 31
0.0000000000000000
  0
LINE
  5
AB
100
AcDbEntity
  8
MAIN0
  6
CONTINUOUS
 62
3
100
AcDbLine
 10
1448.654170837778
 20
547.2467654247982
 30
0.0000000000000000
 11
1453.654170837778
 21
550.1335167707464
 31
0.0000000000000000
  0
LINE
  5
AC
100
AcDbEntity
  8
MAIN0
  6
CONTINUOUS
 62
3
100
AcDbLine
 10
1453.654170837778
 20
550.1335167707464
 30
0.0000000000000000
 11
1453.654170837778
 21
555.9070194626426
 31
0.0000000000000000
  0
LINE
  5
AD
100
AcDbEntity
  8
MAIN0
  6
CONTINUOUS
 62
3
100
AcDbLine
 10
1453.654170837778
 20
555.9070194626426
 30
0.0000000000000000
 11
1448.654170837778
 21
558.7937708085907
 31
0.0000000000000000
  0
LINE
  5
AE
100
AcDbEntity
  8
MAIN0
  6
CONTINUOUS
 62
3
100
AcDbLine
 10
1512.654170837778
 20
537.6392181553165
 30
0.0000000000000000
 11
1512.654170837778
 21
546.8048778075208
 31
0.0000000000000000
  0
LINE
  5
AF
100
AcDbEntity
  8
MAIN0
  6
CONTINUOUS
 62
3
100
AcDbLine
 10
1506.654170837778
 20
537.6392181553165
 30
0.0000000000000000
 11
1506.654170837778
 21
546.8048778075208
 31
0.0000000000000000
  0
LINE
  5
B0
100
AcDbEntity
  8
MAIN0
  6
CONTINUOUS
 62
3
100
AcDbLine
 10
1511.654170837778
 20
501.1003965279404
 30
0.0000000000000000
 11
1511.654170837778
 21
505.1157231563277
 31
0.0000000000000000
  0
LINE
  5
B1
100
AcDbEntity
  8
MAIN0
  6
CONTINUOUS
 62
3
100
AcDbLine
 10
1507.654170837778
 20
501.1003965279403
 30
0.0000000000000000
 11
1507.654170837778
 21
505.1157231563277
 31
0.0000000000000000
  0
LINE
  5
B2
100
AcDbEntity
  8
MAIN0
  6
CONTINUOUS
 62
3
100
AcDbLine
 10
1516.654170837778
 20
521.9788162323673
 30
0.0000000000000000
 11
1516.654170837778
 21
530.0617200010227
 31
0.0000000000000000
  0
LINE
  5
B3
100
AcDbEntity
  8
MAIN0
  6
CONTINUOUS
 62
3
100
AcDbLine
 10
1502.654170837778
 20
521.9788162323664
 30
0.0000000000000000
 11
1502.654170837778
 21
530.0617200010214
 31
0.0000000000000000
  0
LINE
  5
B4
100
AcDbEntity
  8
MAIN0
  6
CONTINUOUS
 62
3
100
AcDbLine
 10
1509.654170837777
 20
517.9373643480390
 30
0.0000000000000000
 11
1516.654170837778
 21
521.9788162323672
 31
0.0000000000000000
  0
LINE
  5
B5
100
AcDbEntity
  8
MAIN0
  6
CONTINUOUS
 62
3
100
AcDbLine
 10
1502.654170837778
 20
530.0617200010213
 30
0.0000000000000000
 11
1509.654170837778
 21
534.1031718853494
 31
0.0000000000000000
  0
LINE
  5
B6
100
AcDbEntity
  8
MAIN0
  6
CONTINUOUS
 62
3
100
AcDbLine
 10
1509.654170837778
 20
517.9373643480392
 30
0.0000000000000000
 11
1502.654170837778
 21
521.9788162323662
 31
0.0000000000000000
  0
LINE
  5
B7
100
AcDbEntity
  8
MAIN0
  6
CONTINUOUS
 62
3
100
AcDbLine
 10
1516.654170837778
 20
530.0617200010224
 30
0.0000000000000000
 11
1509.654170837778
 21
534.1031718853494
 31
0.0000000000000000
  0
LINE
  5
B8
100
AcDbEntity
  8
MAIN0
  6
CONTINUOUS
 62
3
100
AcDbLine
 10
1085.270945928104
 20
551.0202681166944
 30
0.0000000000000000
 11
1063.770945928104
 21
551.0202681166945
 31
0.0000000000000000
  0
LINE
  5
B9
100
AcDbEntity
  8
MAIN0
  6
CONTINUOUS
 62
3
100
AcDbLine
 10
1085.270945928104
 20
501.0202681166944
 30
0.0000000000000000
 11
1063.770945928104
 21
501.0202681166945
 31
0.0000000000000000
  0
LINE
  5
BA
100
AcDbEntity
  8
MAIN0
  6
CONTINUOUS
 62
3
100
AcDbLine
 10
1063.770945928104
 20
487.0202681166946
 30
0.0000000000000000
 11
1056.770945928103
 21
487.0202681166946
 31
0.0000000000000000
  0
LINE
  5
BB
100
AcDbEntity
  8
MAIN0
  6
CONTINUOUS
 62
3
100
AcDbLine
 10
1063.770945928104
 20
565.0202681166946
 30
0.0000000000000000
 11
1056.770945928103
 21
565.0202681166946
 31
0.0000000000000000
  0
LINE
  5
BC
100
AcDbEntity
  8
MAIN0
  6
CONTINUOUS
 62
3
100
AcDbLine
 10
1036.770945928104
 20
563.0202681166946
 30
0.0000000000000000
 11
1054.770945928226
 21
563.0202681166946
 31
0.0000000000000000
  0
LINE
  5
BD
100
AcDbEntity
  8
MAIN0
  6
CONTINUOUS
 62
3
100
AcDbLine
 10
1054.770945928256
 20
489.0202681166946
 30
0.0000000000000000
 11
1036.770945928104
 21
489.0202681166946
 31
0.0000000000000000
  0
LINE
  5
BE
100
AcDbEntity
  8
MAIN0
  6
CONTINUOUS
 62
3
100
AcDbLine
 10
1054.770945928226
 20
563.0202681167698
 30
0.0000000000000000
 11
1056.770945928104
 21
565.0202681166957
 31
0.0000000000000000
  0
LINE
  5
BF
100
AcDbEntity
  8
MAIN0
  6
CONTINUOUS
 62
3
100
AcDbLine
 10
1054.770945928256
 20
489.0202681165267
 30
0.0000000000000000
 11
1056.770945928103
 21
487.0202681166959
 31
0.0000000000000000
  0
LINE
  5
C0
100
AcDbEntity
  8
MAIN0
  6
CONTINUOUS
 62
3
100
AcDbLine
 10
1085.270945928104
 20
551.0202681166944
 30
0.0000000000000000
 11
1085.270945928104
 21
501.0202681166944
 31
0.0000000000000000
  0
LINE
  5
C1
100
AcDbEntity
  8
MAIN0
  6
CONTINUOUS
 62
3
100
AcDbLine
 10
1056.770945928103
 20
565.0202681166946
 30
0.0000000000000000
 11
1056.770945928103
 21
487.0202681166946
 31
0.0000000000000000
  0
LINE
  5
C2
100
AcDbEntity
  8
MAIN0
  6
CONTINUOUS
 62
3
100
AcDbLine
 10
1054.770945928225
 20
563.0202681166945
 30
0.0000000000000000
 11
1054.770945928257
 21
489.0202681166946
 31
0.0000000000000000
  0
DIMENSION
  5
CB
100
AcDbEntity
  8
MAIN0
  6
CONTINUOUS
 62
3
100
AcDbDimension
  2
*D0
 10
480.2709459281037
 20
260.1595392167135
 30
0.0000000000000000
 11
782.7709459281039
 21
260.6595392167135
 31
0.0000000000000000
 70
32
  3
MAIN001
100
AcDbAlignedDimension
 13
1085.270945928104
 23
501.0202681166944
 33
0.0000000000000000
 14
480.2709459281037
 24
433.0202681166963
 34
0.0000000000000000
100
AcDbRotatedDimension
1001
ACAD
1000
DSTYLE
1002
{
1070
   173
1070
     1
1070
     6
1000
_OPEN
1070
     7
1000
_OPEN
1070
    41
1040
8.000000
1002
}
  0
DIMENSION
  5
D5
100
AcDbEntity
  8
MAIN0
  6
CONTINUOUS
 62
3
100
AcDbDimension
  2
*D1
 10
602.8490343202234
 20
433.0202681166959
 30
0.0000000000000000
 11
600.8490343202234
 21
415.3581834745841
 31
0.0000000000000000
 70
160
  3
MAIN001
100
AcDbAlignedDimension
 13
648.2709459281036
 23
428.0202681166958
 33
0.0000000000000000
 14
648.2709459281037
 24
433.0202681166958
 34
0.0000000000000000
 50
90.00000000000000
100
AcDbRotatedDimension
1001
ACAD
1000
DSTYLE
1002
{
1070
   173
1070
     1
1070
     6
1000
_OPEN
1070
     7
1000
_OPEN
1070
    41
1040
8.000000
1070
   287
1070
     0
1002
}
  0
DIMENSION
  5
E0
100
AcDbEntity
  8
MAIN0
  6
CONTINUOUS
 62
3
100
AcDbDimension
  2
*D2
 10
366.7485140234415
 20
433.0202681166969
 30
0.0000000000000000
 11
366.2485140234415
 21
443.5202681166969
 31
0.0000000000000000
 70
32
  3
MAIN001
100
AcDbAlignedDimension
 13
322.3112450370560
 23
454.0202681166969
 33
0.0000000000000000
 14
322.3112450370560
 24
433.0202681166969
 34
0.0000000000000000
 50
90.00000000000000
100
AcDbRotatedDimension
1001
ACAD
1000
DSTYLE
1002
{
1070
   173
1070
     1
1070
     6
1000
_OPEN
1070
     7
1000
_OPEN
1070
    41
1040
8.000000
1070
   287
1070
     0
1002
}
  0
DIMENSION
  5
E9
100
AcDbEntity
  8
MAIN0
  6
CONTINUOUS
 62
3
100
AcDbDimension
  2
*D3
 10
366.7485140234415
 20
454.0202681166969
 30
0.0000000000000000
 11
366.2485140234415
 21
479.0202681166969
 31
0.0000000000000000
 70
32
  3
MAIN001
100
AcDbAlignedDimension
 13
322.3112450370560
 23
504.0202681166969
 33
0.0000000000000000
 14
322.3112450370560
 24
454.0202681166969
 34
0.0000000000000000
 50
90.00000000000000
100
AcDbRotatedDimension
1001
ACAD
1000
DSTYLE
1002
{
1070
   173
1070
     1
1070
     6
1000
_OPEN
1070
     7
1000
_OPEN
1070
    41
1040
8.000000
1002
}
  0
DIMENSION
  5
F2
100
AcDbEntity
  8
MAIN0
  6
CONTINUOUS
 62
3
100
AcDbDimension
  2
*D4
 10
366.7485140234415
 20
504.0202681166969
 30
0.0000000000000000
 11
366.2485140234415
 21
536.0202681166969
 31
0.0000000000000000
 70
32
  3
MAIN001
100
AcDbAlignedDimension
 13
322.6112450368141
 23
568.0202681166969
 33
0.0000000000000000
 14
322.3112450370560
 24
504.0202681166969
 34
0.0000000000000000
 50
90.00000000000000
100
AcDbRotatedDimension
1001
ACAD
1000
DSTYLE
1002
{
1070
   173
1070
     1
1070
     6
1000
_OPEN
1070
     7
1000
_OPEN
1070
    41
1040
8.000000
1002
}
  0
DIMENSION
  5
FB
100
AcDbEntity
  8
MAIN0
  6
CONTINUOUS
 62
3
100
AcDbDimension
  2
*D5
 10
321.3112450370560
 20
677.9844418655634
 30
0.0000000000000000
 11
221.3112450370560
 21
678.4844418655634
 31
0.0000000000000000
 70
32
  3
MAIN001
100
AcDbAlignedDimension
 13
121.3112450370560
 23
623.0202681166976
 33
0.0000000000000000
 14
321.3112450370560
 24
623.0202681166969
 34
0.0000000000000000
100
AcDbRotatedDimension
1001
ACAD
1000
DSTYLE
1002
{
1070
   173
1070
     1
1070
     6
1000
_OPEN
1070
     7
1000
_OPEN
1070
    41
1040
8.000000
1002
}
  0
LINE
  5
FC
100
AcDbEntity
  8
MAIN0
  6
CONTINUOUS
 62
3
100
AcDbLine
 10
770.1137610115338
 20
623.0202681166954
 30
0.0000000000000000
 11
770.1137610115338
 21
552.2202681166887
 31
0.0000000000000000
  0
LINE
  5
FD
100
AcDbEntity
  8
MAIN0
  6
CONTINUOUS
 62
3
100
AcDbLine
 10
673.1137610115338
 20
623.0202681166958
 30
0.0000000000000000
 11
673.1137610115338
 21
568.0202681166958
 31
0.0000000000000000
  0
LINE
  5
FE
100
AcDbEntity
  8
MAIN0
  6
CONTINUOUS
 62
3
100
AcDbLine
 10
482.2709459281040
 20
623.0202681166963
 30
0.0000000000000000
 11
582.2709459281037
 21
623.0202681166960
 31
0.0000000000000000
  0
LINE
  5
FF
100
AcDbEntity
  8
MAIN0
  6
CONTINUOUS
 62
3
100
AcDbLine
 10
673.1137610115338
 20
623.0202681166957
 30
0.0000000000000000
 11
770.1137610115338
 21
623.0202681166954
 31
0.0000000000000000
  0
DIMENSION
  5
10A
100
AcDbEntity
  8
MAIN0
  6
CONTINUOUS
 62
3
100
AcDbDimension
  2
*D6
 10
648.2709459281037
 20
394.3052037551028
 30
0.0000000000000000
 11
685.2080831451179
 21
396.3052037551028
 31
0.0000000000000000
 70
160
  3
MAIN001
100
AcDbAlignedDimension
 13
666.2709459281037
 23
428.0202681166957
 33
0.0000000000000000
 14
648.2709459281037
 24
428.0202681166958
 34
0.0000000000000000
100
AcDbRotatedDimension
1001
ACAD
1000
DSTYLE
1002
{
1070
   173
1070
     1
1070
     6
1000
_OPEN
1070
     7
1000
_OPEN
1070
    41
1040
8.000000
1070
   287
1070
     0
1002
}
  0
DIMENSION
  5
115
100
AcDbEntity
  8
MAIN0
  6
CONTINUOUS
 62
3
100
AcDbDimension
  2
*D7
 10
480.2709459281037
 20
679.0855387744738
 30
0.0000000000000000
 11
469.6535815893188
 21
681.0855387744738
 31
0.0000000000000000
 70
160
  3
MAIN001
100
AcDbAlignedDimension
 13
482.2709459281039
 23
623.0202681166963
 33
0.0000000000000000
 14
480.2709459281037
 24
568.0202681166962
 34
0.0000000000000000
100
AcDbRotatedDimension
1001
ACAD
1000
DSTYLE
1002
{
1070
   173
1070
     1
1070
     6
1000
_OPEN
1070
     7
1000
_OPEN
1070
    41
1040
8.000000
1070
   287
1070
     0
1002
}
  0
DIMENSION
  5
11E
100
AcDbEntity
  8
MAIN0
  6
CONTINUOUS
 62
3
100
AcDbDimension
  2
*D8
 10
482.2709459281039
 20
679.0855387744738
 30
0.0000000000000000
 11
532.2709459281039
 21
679.5855387744738
 31
0.0000000000000000
 70
32
  3
MAIN001
100
AcDbAlignedDimension
 13
582.2709459281037
 23
623.0202681166960
 33
0.0000000000000000
 14
482.2709459281039
 24
623.0202681166963
 34
0.0000000000000000
100
AcDbRotatedDimension
1001
ACAD
1000
DSTYLE
1002
{
1070
   173
1070
     1
1070
     6
1000
_OPEN
1070
     7
1000
_OPEN
1070
    41
1040
8.000000
1002
}
  0
DIMENSION
  5
127
100
AcDbEntity
  8
MAIN0
  6
CONTINUOUS
 62
3
100
AcDbDimension
  2
*D9
 10
582.2709459281037
 20
679.0855387744738
 30
0.0000000000000000
 11
645.8637540873126
 21
681.0855387744738
 31
0.0000000000000000
 70
160
  1
\A1;300
  3
MAIN001
100
AcDbAlignedDimension
 13
673.1137610115338
 23
623.0202681166958
 33
0.0000000000000000
 14
582.2709459281037
 24
623.0202681166960
 34
0.0000000000000000
100
AcDbRotatedDimension
1001
ACAD
1000
DSTYLE
1002
{
1070
   173
1070
     1
1070
     6
1000
_OPEN
1070
     7
1000
_OPEN
1070
    41
1040
8.000000
1002
}
  0
DIMENSION
  5
130
100
AcDbEntity
  8
MAIN0
  6
CONTINUOUS
 62
1
100
AcDbDimension
  2
*D10
 10
673.1137610115338
 20
679.0855387744738
 30
0.0000000000000000
 11
721.6137610115338
 21
679.5855387744738
 31
0.0000000000000000
 70
32
  3
MAIN001
100
AcDbAlignedDimension
 13
770.1137610115338
 23
623.0202681166954
 33
0.0000000000000000
 14
673.1137610115338
 24
623.0202681166958
 34
0.0000000000000000
100
AcDbRotatedDimension
1001
ACAD
1000
DSTYLE
1002
{
1070
   173
1070
     1
1070
     6
1000
_OPEN
1070
     7
1000
_OPEN
1070
    41
1040
8.000000
1002
}
  0
MTEXT
  5
131
100
AcDbEntity
  8
MAIN0
  6
CONTINUOUS
 62
3
100
AcDbMText
 10
597.4586482885638
 20
693.7628125642641
 30
0.0000000000000000
 40
12.39999961853027
 41
0.0000000000000000
 71
     1
 72
     1
  1
{\H0.90x;{MAX}}
 11
1.000000000000000
 21
0.0000000000000000
 31
0.0000000000000000
  7
STANDARD
  0
DIMENSION
  5
13B
100
AcDbEntity
  8
MAIN0
  6
CONTINUOUS
 62
3
100
AcDbDimension
  2
*D11
 10
315.3112450370560
 20
478.9855505777200
 30
0.0000000000000000
 11
337.6988472268947
 21
480.9855505777200
 31
0.0000000000000000
 70
160
  3
MAIN001
100
AcDbAlignedDimension
 13
322.3112450370560
 23
454.0202681166969
 33
0.0000000000000000
 14
315.3112450370560
 24
454.0202681166969
 34
0.0000000000000000
100
AcDbRotatedDimension
1001
ACAD
1000
DSTYLE
1002
{
1070
   173
1070
     1
1070
     6
1000
_OPEN
1070
     7
1000
_OPEN
1070
    41
1040
8.000000
1070
   287
1070
     0
1002
}
  0
LINE
  5
13C
100
AcDbEntity
  8
MAIN0
  6
CONTINUOUS
 62
3
100
AcDbLine
 10
1409.254170837778
 20
556.5202681166945
 30
0.0000000000000000
 11
1413.654170837778
 21
556.5202681166945
 31
0.0000000000000000
  0
LINE
  5
13D
100
AcDbEntity
  8
MAIN0
  6
CONTINUOUS
 62
3
100
AcDbLine
 10
1413.654170837778
 20
550.5202681166945
 30
0.0000000000000000
 11
1413.654170837778
 21
556.5202681166945
 31
0.0000000000000000
  0
LINE
  5
13E
100
AcDbEntity
  8
MAIN0
  6
CONTINUOUS
 62
3
100
AcDbLine
 10
1409.254170837778
 20
556.5202681166944
 30
0.0000000000000000
 11
1408.654170837778
 21
557.1202681166944
 31
0.0000000000000000
  0
LINE
  5
13F
100
AcDbEntity
  8
MAIN0
  6
CONTINUOUS
 62
3
100
AcDbLine
 10
1409.254170837778
 20
550.5202681166945
 30
0.0000000000000000
 11
1408.654170837778
 21
549.9202681166944
 31
0.0000000000000000
  0
LINE
  5
140
100
AcDbEntity
  8
MAIN0
  6
CONTINUOUS
 62
3
100
AcDbLine
 10
1610.054170837304
 20
556.5202681166621
 30
0.0000000000000000
 11
1605.654170837304
 21
556.5202681166636
 31
0.0000000000000000
  0
LINE
  5
141
100
AcDbEntity
  8
MAIN0
  6
CONTINUOUS
 62
3
100
AcDbLine
 10
1610.054170837302
 20
550.5202681166621
 30
0.0000000000000000
 11
1605.654170837302
 21
550.5202681166636
 31
0.0000000000000000
  0
LINE
  5
142
100
AcDbEntity
  8
MAIN0
  6
CONTINUOUS
 62
3
100
AcDbLine
 10
1605.654170837302
 20
550.5202681166636
 30
0.0000000000000000
 11
1605.654170837304
 21
556.5202681166636
 31
0.0000000000000000
  0
LINE
  5
143
100
AcDbEntity
  8
MAIN0
  6
CONTINUOUS
 62
3
100
AcDbLine
 10
1610.054170837304
 20
556.5202681166620
 30
0.0000000000000000
 11
1610.654170837304
 21
557.1202681166619
 31
0.0000000000000000
  0
LINE
  5
144
100
AcDbEntity
  8
MAIN0
  6
CONTINUOUS
 62
3
100
AcDbLine
 10
1610.054170837302
 20
550.5202681166622
 30
0.0000000000000000
 11
1610.654170837302
 21
549.9202681166621
 31
0.0000000000000000
  0
LINE
  5
145
100
AcDbEntity
  8
MAIN0
  6
CONTINUOUS
 62
3
100
AcDbLine
 10
1415.654170837536
 20
568.0202681166886
 30
0.0000000000000000
 11
1603.654170837536
 21
568.0202681166886
 31
0.0000000000000000
  0
LINE
  5
146
100
AcDbEntity
  8
MAIN0
  6
CONTINUOUS
 62
3
100
AcDbLine
 10
1605.654170837536
 20
554.0202681166886
 30
0.0000000000000000
 11
1605.654170837536
 21
556.5202681166886
 31
0.0000000000000000
  0
LINE
  5
147
100
AcDbEntity
  8
MAIN0
  6
CONTINUOUS
 62
3
100
AcDbLine
 10
1413.654170837536
 20
554.0202681166886
 30
0.0000000000000000
 11
1413.654170837536
 21
556.5202681166886
 31
0.0000000000000000
  0
LINE
  5
148
100
AcDbEntity
  8
MAIN0
  6
CONTINUOUS
 62
3
100
AcDbLine
 10
1413.654170837536
 20
556.5202681166886
 30
0.0000000000000000
 11
1409.254170837536
 21
556.5202681166886
 31
0.0000000000000000
  0
LINE
  5
149
100
AcDbEntity
  8
MAIN0
  6
CONTINUOUS
 62
3
100
AcDbLine
 10
1610.054170837536
 20
556.5202681166886
 30
0.0000000000000000
 11
1605.654170837536
 21
556.5202681166886
 31
0.0000000000000000
  0
LINE
  5
14A
100
AcDbEntity
  8
MAIN0
  6
CONTINUOUS
 62
3
100
AcDbLine
 10
1596.654170837536
 20
553.0202681166886
 30
0.0000000000000000
 11
1604.654170837536
 21
553.0202681166886
 31
0.0000000000000000
  0
LINE
  5
14B
100
AcDbEntity
  8
MAIN0
  6
CONTINUOUS
 62
3
100
AcDbLine
 10
1414.654170837536
 20
553.0202681166886
 30
0.0000000000000000
 11
1422.654170837536
 21
553.0202681166886
 31
0.0000000000000000
  0
ARC
  5
14C
100
AcDbEntity
  8
MAIN0
  6
CONTINUOUS
 62
3
100
AcDbCircle
 10
1596.654170837536
 20
543.0202681166886
 30
0.0000000000000000
 40
10.00000000000000
100
AcDbArc
 50
89.99999999942553
 51
179.9999999999964
  0
ARC
  5
14D
100
AcDbEntity
  8
MAIN0
  6
CONTINUOUS
 62
3
100
AcDbCircle
 10
1422.654170837536
 20
543.0202681166886
 30
0.0000000000000000
 40
10.00000000000000
100
AcDbArc
 50
0.0000000000000000
 51
89.99999999999706
  0
LINE
  5
14E
100
AcDbEntity
  8
MAIN0
  6
CONTINUOUS
 62
3
100
AcDbLine
 10
1559.702410192168
 20
522.7063615082773
 30
0.0000000000000000
 11
1533.902882143497
 21
478.0202681166886
 31
0.0000000000000000
  0
LINE
  5
14F
100
AcDbEntity
  8
MAIN0
  6
CONTINUOUS
 62
3
100
AcDbLine
 10
1459.605929521055
 20
522.7063649062997
 30
0.0000000000000000
 11
1485.405459531575
 21
478.0202681166887
 31
0.0000000000000000
  0
LINE
  5
150
100
AcDbEntity
  8
MAIN0
  6
CONTINUOUS
 62
3
100
AcDbLine
 10
1566.399544015071
 20
530.6876948018180
 30
0.0000000000000000
 11
1590.226291826929
 21
550.6807101029597
 31
0.0000000000000000
  0
ARC
  5
151
100
AcDbEntity
  8
MAIN0
  6
CONTINUOUS
 62
3
100
AcDbCircle
 10
1585.683172305700
 20
507.7063615082757
 30
0.0000000000000000
 40
30.00000000000000
100
AcDbArc
 50
130.0000000000779
 51
149.9999999999925
  0
ARC
  5
152
100
AcDbEntity
  8
MAIN0
  6
CONTINUOUS
 62
3
100
AcDbCircle
 10
1433.625169369372
 20
507.7063615082760
 30
0.0000000000000000
 40
30.00000000000000
100
AcDbArc
 50
30.00000000000724
 51
49.99999999992183
  0
LINE
  5
153
100
AcDbEntity
  8
MAIN0
  6
CONTINUOUS
 62
3
100
AcDbLine
 10
1415.654170837536
 20
568.0202681166888
 30
0.0000000000000000
 11
1408.654170837536
 21
561.0202681167450
 31
0.0000000000000000
  0
LINE
  5
154
100
AcDbEntity
  8
MAIN0
  6
CONTINUOUS
 62
3
100
AcDbLine
 10
1408.654170837536
 20
557.1202681166886
 30
0.0000000000000000
 11
1408.654170837536
 21
561.0202681167451
 31
0.0000000000000000
  0
LINE
  5
155
100
AcDbEntity
  8
MAIN0
  6
CONTINUOUS
 62
3
100
AcDbLine
 10
1408.654170837536
 20
556.5202681166886
 30
0.0000000000000000
 11
1408.654170837536
 21
561.0202681167453
 31
0.0000000000000000
  0
LINE
  5
156
100
AcDbEntity
  8
MAIN0
  6
CONTINUOUS
 62
3
100
AcDbLine
 10
1610.654170837536
 20
557.1202681166886
 30
0.0000000000000000
 11
1610.654170837536
 21
561.0202681166886
 31
0.0000000000000000
  0
LINE
  5
157
100
AcDbEntity
  8
MAIN0
  6
CONTINUOUS
 62
3
100
AcDbLine
 10
1610.654170837536
 20
561.0202681166888
 30
0.0000000000000000
 11
1603.654170837536
 21
568.0202681166887
 31
0.0000000000000000
  0
LINE
  5
158
100
AcDbEntity
  8
MAIN0
  6
CONTINUOUS
 62
3
100
AcDbLine
 10
1586.654170837536
 20
543.0202691983105
 30
0.0000000000000000
 11
1586.654170837536
 21
495.1624037404197
 31
0.0000000000000000
  0
LINE
  5
159
100
AcDbEntity
  8
MAIN0
  6
CONTINUOUS
 62
3
100
AcDbLine
 10
1432.654170837536
 20
543.0202699961221
 30
0.0000000000000000
 11
1432.654170837536
 21
495.1624047037081
 31
0.0000000000000000
  0
LINE
  5
15A
100
AcDbEntity
  8
MAIN0
  6
CONTINUOUS
 62
3
100
AcDbLine
 10
1413.654170837536
 20
554.0202681166886
 30
0.0000000000000000
 11
1414.654170837536
 21
553.0202681166886
 31
0.0000000000000000
  0
LINE
  5
15B
100
AcDbEntity
  8
MAIN0
  6
CONTINUOUS
 62
3
100
AcDbLine
 10
1408.654170837536
 20
557.1202681166886
 30
0.0000000000000000
 11
1409.254170837536
 21
556.5202681166886
 31
0.0000000000000000
  0
LINE
  5
15C
100
AcDbEntity
  8
MAIN0
  6
CONTINUOUS
 62
3
100
AcDbLine
 10
1610.654170837536
 20
557.1202681166888
 30
0.0000000000000000
 11
1610.054170837536
 21
556.5202681166888
 31
0.0000000000000000
  0
LINE
  5
15D
100
AcDbEntity
  8
MAIN0
  6
CONTINUOUS
 62
3
100
AcDbLine
 10
1605.654170837536
 20
554.0202681166886
 30
0.0000000000000000
 11
1604.654170837536
 21
553.0202681166886
 31
0.0000000000000000
  0
LINE
  5
15E
100
AcDbEntity
  8
MAIN0
  6
CONTINUOUS
 62
3
100
AcDbLine
 10
1452.908797660002
 20
530.6876948018182
 30
0.0000000000000000
 11
1429.082050783090
 21
550.6807093184473
 31
0.0000000000000000
  0
LINE
  5
15F
100
AcDbEntity
  8
MAIN0
  6
CONTINUOUS
 62
3
100
AcDbLine
 10
1573.654170837536
 20
478.0202681166888
 30
0.0000000000000000
 11
1583.725238649402
 21
488.0913359285543
 31
0.0000000000000000
  0
ARC
  5
160
100
AcDbEntity
  8
MAIN0
  6
CONTINUOUS
 62
3
100
AcDbCircle
 10
1576.654170837536
 20
495.1624037404197
 30
0.0000000000000000
 40
10.00000000000000
100
AcDbArc
 50
314.9999999999933
 51
359.9999999999934
  0
ARC
  5
161
100
AcDbEntity
  8
MAIN0
  6
CONTINUOUS
 62
3
100
AcDbCircle
 10
1442.654170837536
 20
495.1624037404197
 30
0.0000000000000000
 40
10.00000000000000
100
AcDbArc
 50
179.9999999999999
 51
225.0000000000000
  0
LINE
  5
162
100
AcDbEntity
  8
MAIN0
  6
CONTINUOUS
 62
3
100
AcDbLine
 10
1445.654170837536
 20
478.0202681166888
 30
0.0000000000000000
 11
1435.583103492405
 21
488.0913354618197
 31
0.0000000000000000
  0
CIRCLE
  5
163
100
AcDbEntity
  8
MAIN0
  6
CONTINUOUS
 62
3
100
AcDbCircle
 10
1509.654170837536
 20
526.0202681166886
 30
0.0000000000000000
 40
39.00000000000000
  0
LINE
  5
164
100
AcDbEntity
  8
MAIN0
  6
CENTER
 62
3
100
AcDbLine
 10
1542.654170838508
 20
533.6864569870443
 30
0.0000000000000000
 11
1542.654170838505
 21
516.8572101421001
 31
0.0000000000000000
  0
LINE
  5
165
100
AcDbEntity
  8
MAIN0
  6
CENTER
 62
3
100
AcDbLine
 10
1476.654170838433
 20
533.6864569870544
 30
0.0000000000000000
 11
1476.654170838430
 21
516.8572101421103
 31
0.0000000000000000
  0
LINE
  5
166
100
AcDbEntity
  8
MAIN0
  6
CONTINUOUS
 62
3
100
AcDbLine
 10
1408.354170837536
 20
568.0202681166886
 30
0.0000000000000000
 11
1610.954170837536
 21
568.0202681166886
 31
0.0000000000000000
  0
LINE
  5
167
100
AcDbEntity
  8
MAIN0
  6
CONTINUOUS
 62
3
100
AcDbLine
 10
1408.954170837536
 20
555.4202681166887
 30
0.0000000000000000
 11
1412.654170837536
 21
555.4202681166887
 31
0.0000000000000000
  0
LINE
  5
168
100
AcDbEntity
  8
MAIN0
  6
CONTINUOUS
 62
3
100
AcDbLine
 10
1606.654170837536
 20
555.4202681166887
 30
0.0000000000000000
 11
1610.354170837536
 21
555.4202681166887
 31
0.0000000000000000
  0
LINE
  5
169
100
AcDbEntity
  8
MAIN0
  6
CONTINUOUS
 62
3
100
AcDbLine
 10
1606.654170837536
 20
554.2202681166887
 30
0.0000000000000000
 11
1611.154170837536
 21
554.2202681166887
 31
0.0000000000000000
  0
LINE
  5
16A
100
AcDbEntity
  8
MAIN0
  6
CONTINUOUS
 62
3
100
AcDbLine
 10
1612.154170837536
 20
568.2202681166887
 30
0.0000000000000000
 11
1612.154170837536
 21
555.2202681166887
 31
0.0000000000000000
  0
LINE
  5
16B
100
AcDbEntity
  8
MAIN0
  6
CONTINUOUS
 62
3
100
AcDbLine
 10
1610.954170837536
 20
568.0202681166945
 30
0.0000000000000000
 11
1610.954170837536
 21
556.0202681166886
 31
0.0000000000000000
  0
LINE
  5
16C
100
AcDbEntity
  8
MAIN0
  6
CONTINUOUS
 62
3
100
AcDbLine
 10
1407.154170837536
 20
568.2202681166887
 30
0.0000000000000000
 11
1407.154170837536
 21
555.2202681166887
 31
0.0000000000000000
  0
LINE
  5
16D
100
AcDbEntity
  8
MAIN0
  6
CONTINUOUS
 62
3
100
AcDbLine
 10
1408.354170837536
 20
568.0202681166886
 30
0.0000000000000000
 11
1408.354170837536
 21
556.0202681166886
 31
0.0000000000000000
  0
LINE
  5
16E
100
AcDbEntity
  8
MAIN0
  6
CONTINUOUS
 62
3
100
AcDbLine
 10
1412.654170837536
 20
555.4202681166886
 30
0.0000000000000000
 11
1412.654170837536
 21
554.2202681166887
 31
0.0000000000000000
  0
LINE
  5
16F
100
AcDbEntity
  8
MAIN0
  6
CONTINUOUS
 62
3
100
AcDbLine
 10
1606.654170837536
 20
555.4202681166886
 30
0.0000000000000000
 11
1606.654170837536
 21
554.2202681166887
 31
0.0000000000000000
  0
ARC
  5
170
100
AcDbEntity
  8
MAIN0
  6
CONTINUOUS
 62
3
100
AcDbCircle
 10
1611.154170837536
 20
555.2202681166887
 30
0.0000000000000000
 40
1.000000000000000
100
AcDbArc
 50
270.0000000005678
 51
359.9999999999934
  0
ARC
  5
171
100
AcDbEntity
  8
MAIN0
  6
CONTINUOUS
 62
3
100
AcDbCircle
 10
1408.154170837536
 20
555.2202681166887
 30
0.0000000000000000
 40
1.000000000000000
100
AcDbArc
 50
179.9999999999964
 51
269.9999999999942
  0
ARC
  5
172
100
AcDbEntity
  8
MAIN0
  6
CONTINUOUS
 62
3
100
AcDbCircle
 10
1408.954170837536
 20
556.0202681166886
 30
0.0000000000000000
 40
0.6000000000000000
100
AcDbArc
 50
179.9999999999964
 51
270.0000000005678
  0
ARC
  5
173
100
AcDbEntity
  8
MAIN0
  6
CONTINUOUS
 62
3
100
AcDbCircle
 10
1610.354170837536
 20
556.0202681166886
 30
0.0000000000000000
 40
0.6000000000000000
100
AcDbArc
 50
270.0000000005678
 51
359.9999999999934
  0
LINE
  5
174
100
AcDbEntity
  8
MAIN0
  6
CONTINUOUS
 62
3
100
AcDbLine
 10
1604.954170837540
 20
568.0202681166886
 30
0.0000000000000000
 11
1610.954170837536
 21
562.0202681166886
 31
0.0000000000000000
  0
LINE
  5
175
100
AcDbEntity
  8
MAIN0
  6
CONTINUOUS
 62
3
100
AcDbLine
 10
1414.354170837533
 20
568.0202681166888
 30
0.0000000000000000
 11
1408.354170837536
 21
562.0202681166886
 31
0.0000000000000000
  0
ARC
  5
176
100
AcDbEntity
  8
MAIN0
  6
CONTINUOUS
 62
3
100
AcDbCircle
 10
1611.154170837536
 20
568.2202681166887
 30
0.0000000000000000
 40
1.000000000000000
100
AcDbArc
 50
0.0000000000000000
 51
89.99999999942553
  0
ARC
  5
177
100
AcDbEntity
  8
MAIN0
  6
CONTINUOUS
 62
3
100
AcDbCircle
 10
1408.154170837536
 20
568.2202681166887
 30
0.0000000000000000
 40
1.000000000000000
100
AcDbArc
 50
89.99999999999919
 51
179.9999999999964
  0
LINE
  5
178
100
AcDbEntity
  8
MAIN0
  6
CONTINUOUS
 62
3
100
AcDbLine
 10
1610.654170837778
 20
504.0202681166945
 30
0.0000000000000000
 11
1610.654170837778
 21
549.9202681166620
 31
0.0000000000000000
  0
LINE
  5
179
100
AcDbEntity
  8
MAIN0
  6
CONTINUOUS
 62
3
100
AcDbLine
 10
1610.654170837778
 20
557.1202681169305
 30
0.0000000000000000
 11
1610.654170837778
 21
562.3202681164473
 31
0.0000000000000000
  0
LINE
  5
17A
100
AcDbEntity
  8
MAIN0
  6
CONTINUOUS
 62
3
100
AcDbLine
 10
1408.654170837778
 20
504.0202681166944
 30
0.0000000000000000
 11
1408.654170837778
 21
549.9202681166945
 31
0.0000000000000000
  0
LINE
  5
17B
100
AcDbEntity
  8
MAIN0
  6
CONTINUOUS
 62
3
100
AcDbLine
 10
1408.654170837778
 20
557.1202681166944
 30
0.0000000000000000
 11
1408.654170837778
 21
562.3202681169307
 31
0.0000000000000000
  0
LINE
  5
17C
100
AcDbEntity
  8
MAIN0
  6
CONTINUOUS
 62
3
100
AcDbLine
 10
1609.654170837778
 20
589.2202681166946
 30
0.0000000000000000
 11
1609.654170837778
 21
623.0202681166945
 31
0.0000000000000000
  0
LINE
  5
17D
100
AcDbEntity
  8
MAIN0
  6
CONTINUOUS
 62
3
100
AcDbLine
 10
1409.654170837778
 20
589.2202681166946
 30
0.0000000000000000
 11
1409.654170837778
 21
623.0202681166945
 31
0.0000000000000000
  0
LINE
  5
17E
100
AcDbEntity
  8
MAIN0
  6
CONTINUOUS
 62
3
100
AcDbLine
 10
877.1137459281038
 20
554.2202681166887
 30
0.0000000000000000
 11
996.2709459281036
 21
554.2202681166887
 31
0.0000000000000000
  0
LINE
  5
17F
100
AcDbEntity
  8
MAIN0
  6
CONTINUOUS
 62
3
100
AcDbLine
 10
1407.154170837536
 20
554.2202681166887
 30
0.0000000000000000
 11
1412.654170837536
 21
554.2202681166887
 31
0.0000000000000000
  0
LINE
  5
180
100
AcDbEntity
  8
MAIN0
  6
CONTINUOUS
 62
3
100
AcDbLine
 10
937.1137459281038
 20
569.2202681166887
 30
0.0000000000000000
 11
996.2709459281036
 21
569.2202681166887
 31
0.0000000000000000
  0
LINE
  5
181
100
AcDbEntity
  8
MAIN0
  6
CONTINUOUS
 62
3
100
AcDbLine
 10
770.1137610115338
 20
552.2202681166887
 30
0.0000000000000000
 11
877.1137459281038
 21
552.2202681166887
 31
0.0000000000000000
  0
LINE
  5
182
100
AcDbEntity
  8
MAIN0
  6
CONTINUOUS
 62
3
100
AcDbLine
 10
770.1137610115338
 20
589.2202681166887
 30
0.0000000000000000
 11
877.1137459281038
 21
589.2202681166887
 31
0.0000000000000000
  0
LINE
  5
183
100
AcDbEntity
  8
MAIN0
  6
CONTINUOUS
 62
3
100
AcDbLine
 10
985.2709459281037
 20
433.0202681166948
 30
0.0000000000000000
 11
985.2709459281037
 21
554.2202681166887
 31
0.0000000000000000
  0
LINE
  5
184
100
AcDbEntity
  8
MAIN0
  6
CONTINUOUS
 62
3
100
AcDbLine
 10
546.2709459281037
 20
568.0202681166961
 30
0.0000000000000000
 11
770.1137610115338
 21
568.0202681166954
 31
0.0000000000000000
  0
LINE
  5
185
100
AcDbEntity
  8
MAIN0
  6
CONTINUOUS
 62
3
100
AcDbLine
 10
996.2709459281036
 20
569.2202681166887
 30
0.0000000000000000
 11
996.2709459281036
 21
554.2202681166887
 31
0.0000000000000000
  0
LINE
  5
186
100
AcDbEntity
  8
MAIN0
  6
CONTINUOUS
 62
3
100
AcDbLine
 10
985.2709459281037
 20
553.0202681165324
 30
0.0000000000000000
 11
1036.770945928104
 21
553.0202681165440
 31
0.0000000000000000
  0
LINE
  5
187
100
AcDbEntity
  8
MAIN0
  6
CONTINUOUS
 62
3
100
AcDbLine
 10
996.2709459281039
 20
556.5202681168034
 30
0.0000000000000000
 11
1036.770945928104
 21
556.5202681167916
 31
0.0000000000000000
  0
LINE
  5
188
100
AcDbEntity
  8
MAIN0
  6
CONTINUOUS
 62
3
100
AcDbLine
 10
996.2709459281039
 20
561.0202681168556
 30
0.0000000000000000
 11
1036.770945928104
 21
561.0202681168513
 31
0.0000000000000000
  0
LINE
  5
189
100
AcDbEntity
  8
MAIN0
  6
CONTINUOUS
 62
3
100
AcDbLine
 10
996.2709459281036
 20
568.0202681167701
 30
0.0000000000000000
 11
1036.770945928104
 21
568.0202681167674
 31
0.0000000000000000
  0
LINE
  5
18A
100
AcDbEntity
  8
MAIN0
  6
CONTINUOUS
 62
3
100
AcDbLine
 10
1011.392327646699
 20
491.0202681166887
 30
0.0000000000000000
 11
985.2709459281037
 21
491.0202681166887
 31
0.0000000000000000
  0
LINE
  5
18B
100
AcDbEntity
  8
MAIN0
  6
CONTINUOUS
 62
3
100
AcDbLine
 10
1017.270945928104
 20
478.0202681166887
 30
0.0000000000000000
 11
1017.270945928104
 21
547.1365782401340
 31
0.0000000000000000
  0
LINE
  5
18C
100
AcDbEntity
  8
MAIN0
  6
CONTINUOUS
 62
3
100
AcDbLine
 10
1036.770945928104
 20
526.0202681166886
 30
0.0000000000000000
 11
1021.351738840682
 21
526.0202681166886
 31
0.0000000000000000
  0
LINE
  5
18D
100
AcDbEntity
  8
MAIN0
  6
CENTER
 62
3
100
AcDbLine
 10
1099.159655118425
 20
526.0202681166886
 30
0.0000000000000000
 11
1040.539256990922
 21
526.0202681166886
 31
0.0000000000000000
  0
LINE
  5
18E
100
AcDbEntity
  8
MAIN0
  6
CENTER
 62
3
100
AcDbLine
 10
1575.789891365834
 20
526.0202681166886
 30
0.0000000000000000
 11
1444.053955128038
 21
526.0202681166886
 31
0.0000000000000000
  0
LINE
  5
18F
100
AcDbEntity
  8
MAIN0
  6
CONTINUOUS
 62
3
100
AcDbLine
 10
780.2709459281037
 20
550.5202681166945
 30
0.0000000000000000
 11
985.2709459281037
 21
550.5202681166945
 31
0.0000000000000000
  0
LINE
  5
190
100
AcDbEntity
  8
MAIN0
  6
CONTINUOUS
 62
3
100
AcDbLine
 10
1409.254170837778
 20
550.5202681166945
 30
0.0000000000000000
 11
1413.654170837778
 21
550.5202681166945
 31
0.0000000000000000
  0
LINE
  5
191
100
AcDbEntity
  8
MAIN0
  6
CONTINUOUS
 62
3
100
AcDbLine
 10
780.2709459281037
 20
550.5202681166945
 30
0.0000000000000000
 11
780.2709459281037
 21
552.2202681166887
 31
0.0000000000000000
  0
LINE
  5
192
100
AcDbEntity
  8
MAIN0
  6
CONTINUOUS
 62
3
100
AcDbLine
 10
1036.770945928104
 20
478.0202681166887
 30
0.0000000000000000
 11
985.2709459281036
 21
478.0202681166887
 31
0.0000000000000000
  0
LINE
  5
193
100
AcDbEntity
  8
MAIN0
  6
CONTINUOUS
 62
3
100
AcDbLine
 10
1573.654170837536
 20
478.0202681166887
 30
0.0000000000000000
 11
1445.654170837536
 21
478.0202681166887
 31
0.0000000000000000
  0
LINE
  5
194
100
AcDbEntity
  8
MAIN0
  6
CONTINUOUS
 62
3
100
AcDbLine
 10
1036.770945928104
 20
478.0202681166888
 30
0.0000000000000000
 11
1036.770945928104
 21
568.0202681167674
 31
0.0000000000000000
  0
LINE
  5
195
100
AcDbEntity
  8
MAIN0
  6
CONTINUOUS
 62
3
100
AcDbLine
 10
1063.770945928104
 20
565.0202681166946
 30
0.0000000000000000
 11
1063.770945928104
 21
487.0202681166946
 31
0.0000000000000000
  0
LINE
  5
196
100
AcDbEntity
  8
MAIN0
  6
CONTINUOUS
 62
3
100
AcDbLine
 10
270.3112450370560
 20
568.0202681166970
 30
0.0000000000000000
 11
270.3112450370560
 21
562.5202681166970
 31
0.0000000000000000
  0
LINE
  5
197
100
AcDbEntity
  8
MAIN0
  6
CONTINUOUS
 62
3
100
AcDbLine
 10
172.3112450370560
 20
568.0202681166974
 30
0.0000000000000000
 11
172.3112450370560
 21
562.5202681166970
 31
0.0000000000000000
  0
LINE
  5
198
100
AcDbEntity
  8
MAIN0
  6
CONTINUOUS
 62
3
100
AcDbLine
 10
172.3112450370560
 20
564.0202681166970
 30
0.0000000000000000
 11
270.3112450370560
 21
564.0202681166970
 31
0.0000000000000000
  0
LINE
  5
199
100
AcDbEntity
  8
MAIN0
  6
CONTINUOUS
 62
3
100
AcDbLine
 10
172.3112450370560
 20
567.2202681166974
 30
0.0000000000000000
 11
270.3112450370560
 21
567.2202681166971
 31
0.0000000000000000
  0
LINE
  5
19A
100
AcDbEntity
  8
MAIN0
  6
CONTINUOUS
 62
3
100
AcDbLine
 10
172.3112450370560
 20
562.5202681166970
 30
0.0000000000000000
 11
173.3112450370560
 21
562.5202681166970
 31
0.0000000000000000
  0
LINE
  5
19B
100
AcDbEntity
  8
MAIN0
  6
CONTINUOUS
 62
3
100
AcDbLine
 10
269.3112450370560
 20
562.5202681166970
 30
0.0000000000000000
 11
270.3112450370560
 21
562.5202681166970
 31
0.0000000000000000
  0
LINE
  5
19C
100
AcDbEntity
  8
MAIN0
  6
CENTER
 62
3
100
AcDbLine
 10
532.2709459281037
 20
619.6646099425923
 30
0.0000000000000000
 11
532.2709459281037
 21
584.8258426845742
 31
0.0000000000000000
  0
LINE
  5
19D
100
AcDbEntity
  8
MAIN0
  6
CENTER
 62
3
100
AcDbLine
 10
519.7248758300283
 20
613.0202681166961
 30
0.0000000000000000
 11
544.0064352749016
 21
613.0202681166961
 31
0.0000000000000000
  0
LINE
  5
19E
100
AcDbEntity
  8
MAIN0
  6
CENTER
 62
3
100
AcDbLine
 10
519.7248758300283
 20
593.0202681166961
 30
0.0000000000000000
 11
544.0064352749016
 21
593.0202681166961
 31
0.0000000000000000
  0
DIMENSION
  5
1A8
100
AcDbEntity
  8
MAIN0
  6
CONTINUOUS
 62
3
100
AcDbDimension
  2
*D12
 10
556.6750749852702
 20
613.0202681166961
 30
0.0000000000000000
 11
554.6750749852702
 21
643.7350125050859
 31
0.0000000000000000
 70
160
  3
MAIN001
100
AcDbAlignedDimension
 13
582.2709459281037
 23
623.0202681166960
 33
0.0000000000000000
 14
544.0064352749016
 24
613.0202681166961
 34
0.0000000000000000
 50
90.00000000000000
100
AcDbRotatedDimension
1001
ACAD
1000
DSTYLE
1002
{
1070
   173
1070
     1
1070
     6
1000
_OPEN
1070
     7
1000
_OPEN
1070
    41
1040
8.000000
1070
   287
1070
     0
1002
}
  0
DIMENSION
  5
1B3
100
AcDbEntity
  8
MAIN0
  6
CONTINUOUS
 62
3
100
AcDbDimension
  2
*D13
 10
556.6750749852702
 20
613.0202681166961
 30
0.0000000000000000
 11
556.1750749852702
 21
603.0202681166961
 31
0.0000000000000000
 70
32
  3
MAIN001
100
AcDbAlignedDimension
 13
544.0064352749016
 23
593.0202681166961
 33
0.0000000000000000
 14
544.0064352749016
 24
613.0202681166961
 34
0.0000000000000000
 50
90.00000000000000
100
AcDbRotatedDimension
1001
ACAD
1000
DSTYLE
1002
{
1070
   173
1070
     1
1070
     6
1000
_OPEN
1070
     7
1000
_OPEN
1070
    41
1040
8.000000
1070
   287
1070
     0
1002
}
  0
DIMENSION
  5
1BC
100
AcDbEntity
  8
MAIN0
  6
CONTINUOUS
 62
3
100
AcDbDimension
  2
*D14
 10
532.2709459281037
 20
658.9967668185782
 30
0.0000000000000000
 11
557.2709459281037
 21
659.4967668185782
 31
0.0000000000000000
 70
32
  3
MAIN001
100
AcDbAlignedDimension
 13
582.2709459281037
 23
623.0202681166960
 33
0.0000000000000000
 14
532.2709459281037
 24
619.6646099425923
 34
0.0000000000000000
100
AcDbRotatedDimension
1001
ACAD
1000
DSTYLE
1002
{
1070
   173
1070
     1
1070
     6
1000
_OPEN
1070
     7
1000
_OPEN
1070
    41
1040
8.000000
1002
}
  0
DIMENSION
  5
1C4
100
AcDbEntity
  8
MAIN0
  6
CONTINUOUS
 62
3
100
AcDbDimension
  2
*D15
 10
480.2709459281037
 20
479.9091300498432
 30
0.0000000000000000
 11
537.7709459281037
 21
480.4091300498432
 31
0.0000000000000000
 70
32
  3
MAIN001
100
AcDbAlignedDimension
 13
595.2709459281037
 23
518.0202681166960
 33
0.0000000000000000
 14
480.2709459281037
 24
568.0202681166962
 34
0.0000000000000000
100
AcDbRotatedDimension
1001
ACAD
1000
DSTYLE
1002
{
1070
   173
1070
     1
1070
     6
1000
_OPEN
1070
     7
1000
_OPEN
1070
    41
1040
8.000000
1002
}
  0
DIMENSION
  5
1CD
100
AcDbEntity
  8
MAIN0
  6
CONTINUOUS
 62
3
100
AcDbDimension
  2
*D16
 10
595.2709459281037
 20
479.9091300498432
 30
0.0000000000000000
 11
732.7709459281037
 21
480.4091300498432
 31
0.0000000000000000
 70
32
  3
MAIN001
100
AcDbAlignedDimension
 13
870.2709459281037
 23
518.0202681166951
 33
0.0000000000000000
 14
595.2709459281037
 24
518.0202681166960
 34
0.0000000000000000
100
AcDbRotatedDimension
1001
ACAD
1000
DSTYLE
1002
{
1070
   173
1070
     1
1070
     6
1000
_OPEN
1070
     7
1000
_OPEN
1070
    41
1040
8.000000
1002
}
  0
DIMENSION
  5
1D6
100
AcDbEntity
  8
MAIN0
  6
CONTINUOUS
 62
3
100
AcDbDimension
  2
*D17
 10
1404.154170837536
 20
693.6589745400237
 30
0.0000000000000000
 11
1509.654170837536
 21
694.1589745400237
 31
0.0000000000000000
 70
32
  3
MAIN001
100
AcDbAlignedDimension
 13
1615.154170837536
 23
588.2202681166945
 33
0.0000000000000000
 14
1404.154170837536
 24
588.2202681166946
 34
0.0000000000000000
100
AcDbRotatedDimension
1001
ACAD
1000
DSTYLE
1002
{
1070
   173
1070
     1
1070
     6
1000
_OPEN
1070
     7
1000
_OPEN
1070
    41
1040
8.000000
1002
}
  0
LINE
  5
1D7
100
AcDbEntity
  8
MAIN0
  6
CONTINUOUS
 62
3
100
AcDbLine
 10
1414.654170837778
 20
463.0202681166944
 30
0.0000000000000000
 11
1337.654170837778
 21
463.0202681166944
 31
0.0000000000000000
  0
LINE
  5
1D8
100
AcDbEntity
  8
MAIN0
  6
CONTINUOUS
 62
3
100
AcDbLine
 10
1408.654170837778
 20
443.0202681166944
 30
0.0000000000000000
 11
1361.152038422307
 21
443.0202681166944
 31
0.0000000000000000
  0
LINE
  5
1D9
100
AcDbEntity
  8
MAIN0
  6
CONTINUOUS
 62
3
100
AcDbLine
 10
1337.654170837778
 20
463.0202681166944
 30
0.0000000000000000
 11
1339.354170837778
 21
433.0202681166945
 31
0.0000000000000000
  0
LINE
  5
1DA
100
AcDbEntity
  8
MAIN0
  6
CONTINUOUS
 62
3
100
AcDbLine
 10
1354.354170828140
 20
433.0202681166940
 30
0.0000000000000000
 11
1355.243191904238
 21
438.0621571827171
 31
0.0000000000000000
  0
ARC
  5
1DB
100
AcDbEntity
  8
MAIN0
  6
CONTINUOUS
 62
3
100
AcDbCircle
 10
1361.152038422307
 20
437.0202681166945
 30
0.0000000000000000
 40
6.000000000000000
100
AcDbArc
 50
90.00000000000000
 51
169.9999999997949
  0
LINE
  5
1DC
100
AcDbEntity
  8
MAIN0
  6
CONTINUOUS
 62
3
100
AcDbLine
 10
1354.354170828140
 20
433.0202681166944
 30
0.0000000000000000
 11
1339.354170837778
 21
433.0202681166944
 31
0.0000000000000000
  0
LINE
  5
1DD
100
AcDbEntity
  8
MAIN0
  6
CENTER
 62
3
100
AcDbLine
 10
1385.654170837777
 20
256.2823957873424
 30
0.0000000000000000
 11
1385.654170837778
 21
488.9705296502151
 31
0.0000000000000000
  0
LINE
  5
1DE
100
AcDbEntity
  8
MAIN0
  6
CONTINUOUS
 62
3
100
AcDbLine
 10
1403.154170837778
 20
468.0202681166944
 30
0.0000000000000000
 11
1368.154170837778
 21
468.0202681166944
 31
0.0000000000000000
  0
LINE
  5
1DF
100
AcDbEntity
  8
MAIN0
  6
CONTINUOUS
 62
3
100
AcDbLine
 10
1403.154170837778
 20
463.0202681166944
 30
0.0000000000000000
 11
1403.154170837778
 21
468.0202681166944
 31
0.0000000000000000
  0
LINE
  5
1E0
100
AcDbEntity
  8
MAIN0
  6
CONTINUOUS
 62
3
100
AcDbLine
 10
1368.154170837778
 20
463.0202681166944
 30
0.0000000000000000
 11
1368.154170837778
 21
468.0202681166944
 31
0.0000000000000000
  0
DIMENSION
  5
1EA
100
AcDbEntity
  8
MAIN0
  6
CONTINUOUS
 62
1
100
AcDbDimension
  2
*D18
 10
1408.654170837778
 20
376.8939092733711
 30
0.0000000000000000
 11
1434.814273804071
 21
378.8939092733711
 31
0.0000000000000000
 70
160
  1
\A1;15～31
  3
MAIN001
100
AcDbAlignedDimension
 13
1385.654170837778
 23
488.9705296502194
 33
0.0000000000000000
 14
1408.654170837778
 24
433.0202681166945
 34
0.0000000000000000
100
AcDbRotatedDimension
1001
ACAD
1000
DSTYLE
1002
{
1070
   173
1070
     1
1070
     6
1000
_OPEN
1070
     7
1000
_OPEN
1070
    41
1040
8.000000
1070
   287
1070
     0
1070
   340
1005
1EB
1002
}
  0
DIMENSION
  5
1F4
100
AcDbEntity
  8
MAIN0
  6
CONTINUOUS
 62
3
100
AcDbDimension
  2
*D19
 10
1307.798372834502
 20
433.0202681166944
 30
0.0000000000000000
 11
1307.298372834502
 21
448.0202681166944
 31
0.0000000000000000
 70
32
  3
MAIN001
100
AcDbAlignedDimension
 13
1337.654170837778
 23
463.0202681166944
 33
0.0000000000000000
 14
1339.354170837778
 24
433.0202681166944
 34
0.0000000000000000
 50
90.00000000000000
100
AcDbRotatedDimension
1001
ACAD
1000
DSTYLE
1002
{
1070
   173
1070
     1
1070
     6
1000
_OPEN
1070
     7
1000
_OPEN
1070
    41
1040
8.000000
1002
}
  0
DIMENSION
  5
1FF
100
AcDbEntity
  8
MAIN0
  6
CONTINUOUS
 62
3
100
AcDbDimension
  2
*D20
 10
1307.798372834502
 20
463.0202681166944
 30
0.0000000000000000
 11
1306.298372834502
 21
483.0340631940883
 31
0.0000000000000000
 70
160
  3
MAIN001
100
AcDbAlignedDimension
 13
1368.154170837778
 23
468.0202681166944
 33
0.0000000000000000
 14
1337.654170837778
 24
463.0202681166944
 34
0.0000000000000000
 50
90.00000000000000
100
AcDbRotatedDimension
1001
ACAD
1000
DSTYLE
1002
{
1070
   173
1070
     1
1070
     6
1000
_OPEN
1070
     7
1000
_OPEN
1070
    41
1040
8.000000
1070
   287
1070
     0
1002
}
  0
LINE
  5
200
100
AcDbEntity
  8
MAIN0
  6
CENTER
 62
3
100
AcDbLine
 10
870.2709459280983
 20
529.8017435905624
 30
0.0000000000000000
 11
870.2709459280966
 21
508.0017999214028
 31
0.0000000000000000
  0
LINE
  5
201
100
AcDbEntity
  8
MAIN0
  6
CENTER
 62
3
100
AcDbLine
 10
595.2709459274491
 20
529.8017435905390
 30
0.0000000000000000
 11
595.2709459274508
 21
508.0017999213794
 31
0.0000000000000000
  0
LINE
  5
202
100
AcDbEntity
  8
MAIN0
  6
CENTER
 62
3
100
AcDbLine
 10
585.5176785279032
 20
518.0202681166895
 30
0.0000000000000000
 11
605.1376157026273
 21
518.0202681166896
 31
0.0000000000000000
  0
LINE
  5
203
100
AcDbEntity
  8
MAIN0
  6
CENTER
 62
3
100
AcDbLine
 10
859.8334671570574
 20
518.0202681166902
 30
0.0000000000000000
 11
878.7267285702922
 21
518.0202681166902
 31
0.0000000000000000
  0
LINE
  5
204
100
AcDbEntity
  8
MAIN0
  6
CONTINUOUS
 62
3
100
AcDbLine
 10
120.3112450368139
 20
557.1202681166916
 30
0.0000000000000000
 11
120.3112450368139
 21
561.0202681167481
 31
0.0000000000000000
  0
LINE
  5
205
100
AcDbEntity
  8
MAIN0
  6
CONTINUOUS
 62
3
100
AcDbLine
 10
120.3112450368143
 20
556.5202681166916
 30
0.0000000000000000
 11
120.3112450368143
 21
561.0202681167483
 31
0.0000000000000000
  0
LINE
  5
206
100
AcDbEntity
  8
MAIN0
  6
CONTINUOUS
 62
3
100
AcDbLine
 10
322.3112450370560
 20
554.2202681166916
 30
0.0000000000000000
 11
322.8112450368142
 21
554.2202681166916
 31
0.0000000000000000
  0
LINE
  5
207
100
AcDbEntity
  8
MAIN0
  6
CONTINUOUS
 62
3
100
AcDbLine
 10
323.8112450368142
 20
568.2202681166916
 30
0.0000000000000000
 11
323.8112450368142
 21
555.2202681166916
 31
0.0000000000000000
  0
LINE
  5
208
100
AcDbEntity
  8
MAIN0
  6
CONTINUOUS
 62
3
100
AcDbLine
 10
322.6112450368141
 20
568.0202681166975
 30
0.0000000000000000
 11
322.6112450368141
 21
556.0202681166916
 31
0.0000000000000000
  0
LINE
  5
209
100
AcDbEntity
  8
MAIN0
  6
CONTINUOUS
 62
3
100
AcDbLine
 10
118.8112450368142
 20
568.2202681166916
 30
0.0000000000000000
 11
118.8112450368142
 21
555.2202681166916
 31
0.0000000000000000
  0
ARC
  5
20A
100
AcDbEntity
  8
MAIN0
  6
CONTINUOUS
 62
3
100
AcDbCircle
 10
322.8112450368142
 20
555.2202681166916
 30
0.0000000000000000
 40
1.000000000000000
100
AcDbArc
 50
270.0000000005678
 51
359.9999999999934
  0
ARC
  5
20B
100
AcDbEntity
  8
MAIN0
  6
CONTINUOUS
 62
3
100
AcDbCircle
 10
119.8112450368142
 20
555.2202681166916
 30
0.0000000000000000
 40
1.000000000000000
100
AcDbArc
 50
179.9999999999964
 51
269.9999999999942
  0
ARC
  5
20C
100
AcDbEntity
  8
MAIN0
  6
CONTINUOUS
 62
3
100
AcDbCircle
 10
120.6112450368142
 20
556.0202681166917
 30
0.0000000000000000
 40
0.6000000000000000
100
AcDbArc
 50
179.9999999999964
 51
240.0000000266658
  0
ARC
  5
20D
100
AcDbEntity
  8
MAIN0
  6
CONTINUOUS
 62
3
100
AcDbCircle
 10
322.0112450368142
 20
556.0202681166917
 30
0.0000000000000000
 40
0.6000000000000000
100
AcDbArc
 50
300.0000000266666
 51
359.9999999999934
  0
ARC
  5
20E
100
AcDbEntity
  8
MAIN0
  6
CONTINUOUS
 62
3
100
AcDbCircle
 10
322.8112450368142
 20
568.2202681166916
 30
0.0000000000000000
 40
1.000000000000000
100
AcDbArc
 50
0.0000000000000000
 51
89.99999999942553
  0
ARC
  5
20F
100
AcDbEntity
  8
MAIN0
  6
CONTINUOUS
 62
3
100
AcDbCircle
 10
119.8112450368142
 20
568.2202681166916
 30
0.0000000000000000
 40
1.000000000000000
100
AcDbArc
 50
89.99999999999919
 51
179.9999999999964
  0
LINE
  5
210
100
AcDbEntity
  8
MAIN0
  6
CONTINUOUS
 62
3
100
AcDbLine
 10
120.3112450370560
 20
553.4202681166975
 30
0.0000000000000000
 11
119.1112451374754
 21
553.4202681166975
 31
0.0000000000000000
  0
LINE
  5
211
100
AcDbEntity
  8
MAIN0
  6
CONTINUOUS
 62
3
100
AcDbLine
 10
323.5112450782112
 20
553.4202681166975
 30
0.0000000000000000
 11
322.3112450370560
 21
553.4202681166975
 31
0.0000000000000000
  0
LINE
  5
212
100
AcDbEntity
  8
MAIN0
  6
CONTINUOUS
 62
3
100
AcDbLine
 10
118.3112448303971
 20
552.2202681166975
 30
0.0000000000000000
 11
120.3112450370560
 21
552.2202681166975
 31
0.0000000000000000
  0
LINE
  5
213
100
AcDbEntity
  8
MAIN0
  6
CONTINUOUS
 62
3
100
AcDbLine
 10
322.3112450370560
 20
552.2202681166975
 30
0.0000000000000000
 11
324.3112446604522
 21
552.2202681166975
 31
0.0000000000000000
  0
ARC
  5
214
100
AcDbEntity
  8
MAIN0
  6
CONTINUOUS
 62
3
100
AcDbCircle
 10
119.1112450368142
 20
554.0202681166975
 30
0.0000000000000000
 40
0.6000000000000000
100
AcDbArc
 50
179.9999999999964
 51
269.9999999999947
  0
ARC
  5
215
100
AcDbEntity
  8
MAIN0
  6
CONTINUOUS
 62
3
100
AcDbCircle
 10
323.5112450368141
 20
554.0202681166975
 30
0.0000000000000000
 40
0.6000000000000000
100
AcDbArc
 50
269.9999999999947
 51
359.9999999999934
  0
ARC
  5
216
100
AcDbEntity
  8
MAIN0
  6
CONTINUOUS
 62
3
100
AcDbCircle
 10
324.3112450368142
 20
553.2202681166974
 30
0.0000000000000000
 40
1.000000000000000
100
AcDbArc
 50
270.0000000005678
 51
359.9999999999934
  0
ARC
  5
217
100
AcDbEntity
  8
MAIN0
  6
CONTINUOUS
 62
3
100
AcDbCircle
 10
118.3112450368142
 20
553.2202681166974
 30
0.0000000000000000
 40
1.000000000000000
100
AcDbArc
 50
179.9999999999964
 51
269.9999999999942
  0
LINE
  5
218
100
AcDbEntity
  8
MAIN0
  6
CONTINUOUS
 62
3
100
AcDbLine
 10
120.3112450370560
 20
557.1202681166975
 30
0.0000000000000000
 11
120.3112450370560
 21
562.3202681169337
 31
0.0000000000000000
  0
LINE
  5
219
100
AcDbEntity
  8
MAIN0
  6
CONTINUOUS
 62
3
100
AcDbLine
 10
326.8112450368142
 20
588.2202681166975
 30
0.0000000000000000
 11
326.8112450368142
 21
552.2202681166975
 31
0.0000000000000000
  0
LINE
  5
21A
100
AcDbEntity
  8
MAIN0
  6
CONTINUOUS
 62
3
100
AcDbLine
 10
325.6112450368141
 20
569.2202681166975
 30
0.0000000000000000
 11
325.6112450368141
 21
552.2202681166975
 31
0.0000000000000000
  0
LINE
  5
21B
100
AcDbEntity
  8
MAIN0
  6
CONTINUOUS
 62
3
100
AcDbLine
 10
115.8112450368142
 20
588.2202681166975
 30
0.0000000000000000
 11
115.8112450368142
 21
552.2202681166975
 31
0.0000000000000000
  0
LINE
  5
21C
100
AcDbEntity
  8
MAIN0
  6
CONTINUOUS
 62
3
100
AcDbLine
 10
117.0112450368141
 20
569.2202681166975
 30
0.0000000000000000
 11
117.0112450368141
 21
552.2202681166975
 31
0.0000000000000000
  0
ARC
  5
21D
100
AcDbEntity
  8
MAIN0
  6
CONTINUOUS
 62
3
100
AcDbCircle
 10
325.8112450368142
 20
588.2202681166975
 30
0.0000000000000000
 40
1.000000000000000
100
AcDbArc
 50
0.0000000000000000
 51
89.99999999999838
  0
ARC
  5
21E
100
AcDbEntity
  8
MAIN0
  6
CONTINUOUS
 62
3
100
AcDbCircle
 10
116.8112450368142
 20
588.2202681166975
 30
0.0000000000000000
 40
1.000000000000000
100
AcDbArc
 50
89.99999999999720
 51
179.9999999999964
  0
LINE
  5
21F
100
AcDbEntity
  8
MAIN0
  6
CONTINUOUS
 62
3
100
AcDbLine
 10
115.8112450368141
 20
552.2202681166975
 30
0.0000000000000000
 11
117.0112450368142
 21
552.2202681166975
 31
0.0000000000000000
  0
LINE
  5
220
100
AcDbEntity
  8
MAIN0
  6
CONTINUOUS
 62
3
100
AcDbLine
 10
325.6112450368141
 20
552.2202681166975
 30
0.0000000000000000
 11
326.8112450368143
 21
552.2202681166975
 31
0.0000000000000000
  0
LINE
  5
221
100
AcDbEntity
  8
MAIN0
  6
CONTINUOUS
 62
3
100
AcDbLine
 10
117.0112450368141
 20
569.2202681166975
 30
0.0000000000000000
 11
121.3112450370560
 21
569.2202681166975
 31
0.0000000000000000
  0
LINE
  5
222
100
AcDbEntity
  8
MAIN0
  6
CONTINUOUS
 62
3
100
AcDbLine
 10
321.3112450370560
 20
569.2202681166975
 30
0.0000000000000000
 11
325.6112450368142
 21
569.2202681166975
 31
0.0000000000000000
  0
LINE
  5
223
100
AcDbEntity
  8
MAIN0
  6
CONTINUOUS
 62
3
100
AcDbLine
 10
117.3112450368142
 20
553.2202683089759
 30
0.0000000000000000
 11
117.3112450368142
 21
569.2202681166975
 31
0.0000000000000000
  0
LINE
  5
224
100
AcDbEntity
  8
MAIN0
  6
CONTINUOUS
 62
3
100
AcDbLine
 10
118.5112450368142
 20
554.0202680336849
 30
0.0000000000000000
 11
118.5112450368142
 21
569.2202681166975
 31
0.0000000000000000
  0
LINE
  5
225
100
AcDbEntity
  8
MAIN0
  6
CONTINUOUS
 62
3
100
AcDbLine
 10
325.3112450368142
 20
553.2202683094542
 30
0.0000000000000000
 11
325.3112450368142
 21
569.2202681166975
 31
0.0000000000000000
  0
LINE
  5
226
100
AcDbEntity
  8
MAIN0
  6
CONTINUOUS
 62
3
100
AcDbLine
 10
324.1112450368140
 20
554.0202679598272
 30
0.0000000000000000
 11
324.1112450368140
 21
569.2202681166975
 31
0.0000000000000000
  0
LINE
  5
227
100
AcDbEntity
  8
MAIN0
  6
CONTINUOUS
 62
3
100
AcDbLine
 10
119.8112450368142
 20
554.2202681166916
 30
0.0000000000000000
 11
120.3112450370560
 21
554.2202681166916
 31
0.0000000000000000
  0
LINE
  5
228
100
AcDbEntity
  8
MAIN0
  6
CONTINUOUS
 62
3
100
AcDbLine
 10
118.5112450368141
 20
569.2202681166975
 30
0.0000000000000000
 11
121.3112450370560
 21
569.2202681166975
 31
0.0000000000000000
  0
LINE
  5
229
100
AcDbEntity
  8
MAIN0
  6
CONTINUOUS
 62
3
100
AcDbLine
 10
321.3112450370560
 20
569.2202681166975
 30
0.0000000000000000
 11
324.1112450368141
 21
569.2202681166975
 31
0.0000000000000000
  0
LINE
  5
22A
100
AcDbEntity
  8
MAIN0
  6
CONTINUOUS
 62
3
100
AcDbLine
 10
116.8112450240448
 20
589.2202681166975
 30
0.0000000000000000
 11
121.3112450370560
 21
589.2202681166975
 31
0.0000000000000000
  0
LINE
  5
22B
100
AcDbEntity
  8
MAIN0
  6
CONTINUOUS
 62
3
100
AcDbLine
 10
321.3112450370560
 20
589.2202681166975
 30
0.0000000000000000
 11
325.8112427493609
 21
589.2202681166975
 31
0.0000000000000000
  0
LINE
  5
22C
100
AcDbEntity
  8
MAIN0
  6
CONTINUOUS
 62
3
100
AcDbLine
 10
120.0112450369302
 20
568.0202681166975
 30
0.0000000000000000
 11
120.0112450369544
 21
556.0202681166917
 31
0.0000000000000000
  0
LEADER
  5
22D
100
AcDbEntity
  8
MAIN0
  6
CONTINUOUS
 62
3
100
AcDbLeader
  3
MAIN001
 73
     0
 74
     0
 75
     1
 40
12.39999961853027
 41
76.60100228881845
 76
     3
 10
871.9824518020278
 20
522.7182195472150
 30
0.0000000000000000
 10
922.5783327438303
 20
661.6000048045389
 30
0.0000000000000000
 10
930.2813325206705
 20
661.6000048045389
 30
0.0000000000000000
340
22E
213
-0.001000000000090040
223
-2.000000000000000
233
0.0000000000000000
1001
ACAD
1000
DSTYLE
1002
{
1070
   147
1040
0.0
1070
    77
1070
     1
1070
   173
1070
     1
1070
     6
1000
_OPEN
1070
     7
1000
_OPEN
1002
}
  0
MTEXT
  5
22E
102
{ACAD_REACTORS
330
22D
102
}
100
AcDbEntity
  8
MAIN0
  6
CONTINUOUS
 62
3
100
AcDbMText
 10
930.2823325206706
 20
676.0000044230692
 30
0.0000000000000000
 40
12.39999961853027
 41
0.0000000000000000
 71
     1
 72
     1
  1
{\H0.92x;{2x2-M10}}
 11
1.000000000000000
 21
0.0000000000000000
 31
0.0000000000000000
  7
STANDARD
  0
ARC
  5
22F
100
AcDbEntity
  8
MAIN0
  6
CONTINUOUS
 62
3
100
AcDbCircle
 10
1612.654170837536
 20
578.2202681166887
 30
0.0000000000000000
 40
1.000000000000000
100
AcDbArc
 50
0.0000000000000000
 51
90.00000000000000
  0
ARC
  5
230
100
AcDbEntity
  8
MAIN0
  6
CONTINUOUS
 62
3
100
AcDbCircle
 10
1406.654170837536
 20
578.2202681166887
 30
0.0000000000000000
 40
1.000000000000000
100
AcDbArc
 50
90.00000000000000
 51
180.0000000000000
  0
LINE
  5
231
100
AcDbEntity
  8
MAIN0
  6
CONTINUOUS
 62
3
100
AcDbLine
 10
877.1137459281038
 20
579.2202681166887
 30
0.0000000000000000
 11
937.1137459281038
 21
579.2202681166887
 31
0.0000000000000000
  0
LINE
  5
232
100
AcDbEntity
  8
MAIN0
  6
CONTINUOUS
 62
3
100
AcDbLine
 10
1405.354170837536
 20
579.2202681166887
 30
0.0000000000000000
 11
1613.954170837536
 21
579.2202681166887
 31
0.0000000000000000
  0
LINE
  5
233
100
AcDbEntity
  8
MAIN0
  6
CENTER
 62
3
100
AcDbLine
 10
1509.654170837536
 20
412.9802291287842
 30
0.0000000000000000
 11
1509.654170837536
 21
638.4501660802744
 31
0.0000000000000000
  0
DIMENSION
  5
23E
100
AcDbEntity
  8
MAIN0
  6
CONTINUOUS
 62
3
100
AcDbDimension
  2
*D21
 10
1516.654170837778
 20
655.3330168046623
 30
0.0000000000000000
 11
1537.537909031744
 21
657.3330168046623
 31
0.0000000000000000
 70
160
  3
MAIN001
100
AcDbAlignedDimension
 13
1502.654170837778
 23
530.0617200010214
 33
0.0000000000000000
 14
1516.654170837778
 24
530.0617200010227
 34
0.0000000000000000
100
AcDbRotatedDimension
1001
ACAD
1000
DSTYLE
1002
{
1070
   173
1070
     1
1070
     6
1000
_OPEN
1070
     7
1000
_OPEN
1070
    41
1040
8.000000
1070
   287
1070
     0
1002
}
  0
LINE
  5
23F
100
AcDbEntity
  8
MAIN0
  6
CENTER
 62
3
100
AcDbLine
 10
567.2709459281037
 20
987.7864203965432
 30
0.0000000000000000
 11
567.2709459281037
 21
965.7963382375837
 31
0.0000000000000000
  0
LINE
  5
240
100
AcDbEntity
  8
MAIN0
  6
CENTER
 62
3
100
AcDbLine
 10
497.2709459281037
 20
987.7864203965432
 30
0.0000000000000000
 11
497.2709459281037
 21
965.7963382375837
 31
0.0000000000000000
  0
LINE
  5
241
100
AcDbEntity
  8
MAIN0
  6
CENTER
 62
3
100
AcDbLine
 10
488.0055295975939
 20
976.0202227748875
 30
0.0000000000000000
 11
508.2005060516055
 21
976.0202227748875
 31
0.0000000000000000
  0
LINE
  5
242
100
AcDbEntity
  8
MAIN0
  6
CENTER
 62
3
100
AcDbLine
 10
553.9757803342836
 20
976.0202227748875
 30
0.0000000000000000
 11
577.7609724580022
 21
976.0202227748875
 31
0.0000000000000000
  0
LINE
  5
243
100
AcDbEntity
  8
MAIN0
  6
CENTER
 62
3
100
AcDbLine
 10
567.2709459281037
 20
864.2540251532316
 30
0.0000000000000000
 11
567.2709459281037
 21
886.2441073121911
 31
0.0000000000000000
  0
LINE
  5
244
100
AcDbEntity
  8
MAIN0
  6
CENTER
 62
3
100
AcDbLine
 10
497.2709459281037
 20
864.2540251532316
 30
0.0000000000000000
 11
497.2709459281037
 21
886.2441073121912
 31
0.0000000000000000
  0
CIRCLE
  5
245
100
AcDbEntity
  8
MAIN0
  6
CONTINUOUS
 62
3
100
AcDbCircle
 10
567.2709459281036
 20
876.0202227748873
 30
0.0000000000000000
 40
5.000000000000000
  0
CIRCLE
  5
246
100
AcDbEntity
  8
MAIN0
  6
CONTINUOUS
 62
3
100
AcDbCircle
 10
567.2709459281036
 20
876.0202227748873
 30
0.0000000000000000
 40
4.250000000000000
  0
CIRCLE
  5
247
100
AcDbEntity
  8
MAIN0
  6
CONTINUOUS
 62
3
100
AcDbCircle
 10
497.2709459281037
 20
876.0202227748873
 30
0.0000000000000000
 40
5.000000000000000
  0
CIRCLE
  5
248
100
AcDbEntity
  8
MAIN0
  6
CONTINUOUS
 62
3
100
AcDbCircle
 10
497.2709459281037
 20
876.0202227748873
 30
0.0000000000000000
 40
4.250000000000000
  0
LINE
  5
249
100
AcDbEntity
  8
MAIN0
  6
CENTER
 62
3
100
AcDbLine
 10
488.0055295975938
 20
876.0202227748873
 30
0.0000000000000000
 11
508.2005060516055
 21
876.0202227748873
 31
0.0000000000000000
  0
LINE
  5
24A
100
AcDbEntity
  8
MAIN0
  6
CENTER
 62
3
100
AcDbLine
 10
553.9757803342836
 20
876.0202227748873
 30
0.0000000000000000
 11
577.7609724580022
 21
876.0202227748873
 31
0.0000000000000000
  0
LINE
  5
24B
100
AcDbEntity
  8
MAIN0
  6
CENTER
 62
3
100
AcDbLine
 10
688.1137459281038
 20
1012.786420396543
 30
0.0000000000000000
 11
688.1137459281038
 21
990.7963382375837
 31
0.0000000000000000
  0
CIRCLE
  5
24C
100
AcDbEntity
  8
MAIN0
  6
CONTINUOUS
 62
3
100
AcDbCircle
 10
688.1137459281038
 20
1001.020222774888
 30
0.0000000000000000
 40
5.000000000000000
  0
CIRCLE
  5
24D
100
AcDbEntity
  8
MAIN0
  6
CONTINUOUS
 62
3
100
AcDbCircle
 10
688.1137459281038
 20
1001.020222774888
 30
0.0000000000000000
 40
4.250000000000000
  0
LINE
  5
24E
100
AcDbEntity
  8
MAIN0
  6
CENTER
 62
3
100
AcDbLine
 10
674.8185803342838
 20
1001.020222774888
 30
0.0000000000000000
 11
698.6037724580024
 21
1001.020222774888
 31
0.0000000000000000
  0
LINE
  5
24F
100
AcDbEntity
  8
MAIN0
  6
CENTER
 62
3
100
AcDbLine
 10
688.1137459281038
 20
839.2540251532315
 30
0.0000000000000000
 11
688.1137459281038
 21
861.2441073121911
 31
0.0000000000000000
  0
CIRCLE
  5
250
100
AcDbEntity
  8
MAIN0
  6
CONTINUOUS
 62
3
100
AcDbCircle
 10
688.1137459281038
 20
851.0202227748872
 30
0.0000000000000000
 40
5.000000000000000
  0
CIRCLE
  5
251
100
AcDbEntity
  8
MAIN0
  6
CONTINUOUS
 62
3
100
AcDbCircle
 10
688.1137459281038
 20
851.0202227748872
 30
0.0000000000000000
 40
4.250000000000000
  0
LINE
  5
252
100
AcDbEntity
  8
MAIN0
  6
CENTER
 62
3
100
AcDbLine
 10
674.8185803342838
 20
851.0202227748872
 30
0.0000000000000000
 11
698.6037724580023
 21
851.0202227748872
 31
0.0000000000000000
  0
LINE
  5
253
100
AcDbEntity
  8
MAIN0
  6
CENTER
 62
3
100
AcDbLine
 10
748.1137459281038
 20
839.2540251532316
 30
0.0000000000000000
 11
748.1137459281038
 21
861.2441073121911
 31
0.0000000000000000
  0
CIRCLE
  5
254
100
AcDbEntity
  8
MAIN0
  6
CONTINUOUS
 62
3
100
AcDbCircle
 10
748.1137459281038
 20
851.0202227748872
 30
0.0000000000000000
 40
5.000000000000000
  0
CIRCLE
  5
255
100
AcDbEntity
  8
MAIN0
  6
CONTINUOUS
 62
3
100
AcDbCircle
 10
748.1137459281038
 20
851.0202227748872
 30
0.0000000000000000
 40
4.250000000000000
  0
LINE
  5
256
100
AcDbEntity
  8
MAIN0
  6
CENTER
 62
3
100
AcDbLine
 10
734.8185803342838
 20
851.0202227748873
 30
0.0000000000000000
 11
758.6037724580024
 21
851.0202227748872
 31
0.0000000000000000
  0
LINE
  5
257
100
AcDbEntity
  8
MAIN0
  6
CENTER
 62
3
100
AcDbLine
 10
748.1137459281038
 20
1012.786420396543
 30
0.0000000000000000
 11
748.1137459281038
 21
990.7963382375837
 31
0.0000000000000000
  0
CIRCLE
  5
258
100
AcDbEntity
  8
MAIN0
  6
CONTINUOUS
 62
3
100
AcDbCircle
 10
748.1137459281038
 20
1001.020222774888
 30
0.0000000000000000
 40
5.000000000000000
  0
CIRCLE
  5
259
100
AcDbEntity
  8
MAIN0
  6
CONTINUOUS
 62
3
100
AcDbCircle
 10
748.1137459281038
 20
1001.020222774888
 30
0.0000000000000000
 40
4.250000000000000
  0
LINE
  5
25A
100
AcDbEntity
  8
MAIN0
  6
CENTER
 62
3
100
AcDbLine
 10
734.8185803342838
 20
1001.020222774887
 30
0.0000000000000000
 11
758.6037724580024
 21
1001.020222774887
 31
0.0000000000000000
  0
DIMENSION
  5
263
100
AcDbEntity
  8
MAIN0
  6
CONTINUOUS
 62
3
100
AcDbDimension
  2
*D22
 10
809.2534512314303
 20
851.0202227748872
 30
0.0000000000000000
 11
808.7534512314303
 21
926.0202227748873
 31
0.0000000000000000
 70
32
  3
MAIN001
100
AcDbAlignedDimension
 13
758.6037724580024
 23
1001.020222774887
 33
0.0000000000000000
 14
758.6037724580024
 24
851.0202227748872
 34
0.0000000000000000
 50
90.00000000000000
100
AcDbRotatedDimension
1001
ACAD
1000
DSTYLE
1002
{
1070
   173
1070
     1
1070
     6
1000
_OPEN
1070
     7
1000
_OPEN
1070
    41
1040
8.000000
1002
}
  0
DIMENSION
  5
26E
100
AcDbEntity
  8
MAIN0
  6
CONTINUOUS
 62
3
100
AcDbDimension
  2
*D23
 10
673.1137459281038
 20
776.6425153204849
 30
0.0000000000000000
 11
660.3387107206690
 21
778.6425153204849
 31
0.0000000000000000
 70
160
  3
MAIN001
100
AcDbAlignedDimension
 13
688.1137459281038
 23
839.2540251532315
 33
0.0000000000000000
 14
673.1137459281038
 24
826.0202227748875
 34
0.0000000000000000
100
AcDbRotatedDimension
1001
ACAD
1000
DSTYLE
1002
{
1070
   173
1070
     1
1070
     6
1000
_OPEN
1070
     7
1000
_OPEN
1070
    41
1040
8.000000
1070
   287
1070
     0
1002
}
  0
DIMENSION
  5
277
100
AcDbEntity
  8
MAIN0
  6
CONTINUOUS
 62
3
100
AcDbDimension
  2
*D24
 10
688.1137459281038
 20
776.6425153204849
 30
0.0000000000000000
 11
711.5653745810857
 21
778.6425153204849
 31
0.0000000000000000
 70
160
  3
MAIN001
100
AcDbAlignedDimension
 13
748.1137459281038
 23
839.2540251532316
 33
0.0000000000000000
 14
688.1137459281038
 24
839.2540251532315
 34
0.0000000000000000
100
AcDbRotatedDimension
1001
ACAD
1000
DSTYLE
1002
{
1070
   173
1070
     1
1070
     6
1000
_OPEN
1070
     7
1000
_OPEN
1070
    41
1040
8.000000
1002
}
  0
DIMENSION
  5
280
100
AcDbEntity
  8
MAIN0
  6
CONTINUOUS
 62
3
100
AcDbDimension
  2
*D25
 10
497.2709459281037
 20
776.6425153204849
 30
0.0000000000000000
 11
519.3082133913644
 21
778.6425153204849
 31
0.0000000000000000
 70
160
  3
MAIN001
100
AcDbAlignedDimension
 13
567.2709459281037
 23
864.2540251532316
 33
0.0000000000000000
 14
497.2709459281037
 24
864.2540251532316
 34
0.0000000000000000
100
AcDbRotatedDimension
1001
ACAD
1000
DSTYLE
1002
{
1070
   173
1070
     1
1070
     6
1000
_OPEN
1070
     7
1000
_OPEN
1070
    41
1040
8.000000
1002
}
  0
DIMENSION
  5
28B
100
AcDbEntity
  8
MAIN0
  6
CONTINUOUS
 62
3
100
AcDbDimension
  2
*D26
 10
567.2709459281037
 20
776.6425153204849
 30
0.0000000000000000
 11
595.7120721055931
 21
778.6425153204849
 31
0.0000000000000000
 70
160
  3
MAIN001
100
AcDbAlignedDimension
 13
582.2709459281037
 23
826.0202227748875
 33
0.0000000000000000
 14
567.2709459281037
 24
864.2540251532316
 34
0.0000000000000000
100
AcDbRotatedDimension
1001
ACAD
1000
DSTYLE
1002
{
1070
   173
1070
     1
1070
     6
1000
_OPEN
1070
     7
1000
_OPEN
1070
    41
1040
8.000000
1070
   287
1070
     0
1002
}
  0
DIMENSION
  5
294
100
AcDbEntity
  8
MAIN0
  6
CONTINUOUS
 62
3
100
AcDbDimension
  2
*D27
 10
438.9737737899559
 20
876.0202227748873
 30
0.0000000000000000
 11
438.4737737899559
 21
926.0202227748874
 31
0.0000000000000000
 70
32
  3
MAIN001
100
AcDbAlignedDimension
 13
488.0055295975939
 23
976.0202227748875
 33
0.0000000000000000
 14
488.0055295975938
 24
876.0202227748873
 34
0.0000000000000000
 50
90.00000000000000
100
AcDbRotatedDimension
1001
ACAD
1000
DSTYLE
1002
{
1070
   173
1070
     1
1070
     6
1000
_OPEN
1070
     7
1000
_OPEN
1070
    41
1040
8.000000
1002
}
  0
LEADER
  5
295
100
AcDbEntity
  8
MAIN0
  6
CONTINUOUS
 62
3
100
AcDbLeader
  3
MAIN001
 73
     0
 75
     1
 40
12.39999961853027
 41
143.5590042343139
 76
     3
 10
493.2540157567443
 20
873.0429300451708
 30
0.0000000000000000
 10
431.3642213097130
 20
820.0318204812378
 30
0.0000000000000000
 10
423.6592215328728
 20
820.0318204812378
 30
0.0000000000000000
340
296
213
0.0000000000000000
223
-2.000000000000000
233
0.0000000000000000
1001
ACAD
1000
DSTYLE
1002
{
1070
   147
1040
0.0
1070
    77
1070
     1
1070
   173
1070
     1
1070
     6
1000
_OPEN
1070
     7
1000
_OPEN
1002
}
  0
MTEXT
  5
296
102
{ACAD_REACTORS
330
295
102
}
100
AcDbEntity
  8
MAIN0
  6
CONTINUOUS
 62
3
100
AcDbMText
 10
280.1002172985589
 20
834.4318200997681
 30
0.0000000000000000
 40
12.39999961853027
 41
0.0000000000000000
 71
     1
 72
     1
  1
{\H0.93x;{2×5-M10 深さ20\P        DEPTH}}
 11
1.000000000000000
 21
0.0000000000000000
 31
0.0000000000000000
  7
KNJYOKO
  0
LEADER
  5
297
100
AcDbEntity
  8
MAIN0
  6
CONTINUOUS
 62
3
100
AcDbLeader
  3
MAIN001
 73
     0
 75
     1
 40
12.39999961853027
 41
143.5590042343139
 76
     3
 10
529.4175699637999
 20
617.2941897327396
 30
0.0000000000000000
 10
465.1122126603104
 20
723.0191818268831
 30
0.0000000000000000
 10
457.4072128834702
 20
723.0191818268831
 30
0.0000000000000000
340
298
213
0.0000000000000000
223
-2.000000000000000
233
0.0000000000000000
1001
ACAD
1000
DSTYLE
1002
{
1070
   147
1040
0.0
1070
    77
1070
     1
1070
   173
1070
     1
1070
     6
1000
_OPEN
1070
     7
1000
_OPEN
1002
}
  0
MTEXT
  5
298
102
{ACAD_REACTORS
330
297
102
}
100
AcDbEntity
  8
MAIN0
  6
CONTINUOUS
 62
3
100
AcDbMText
 10
313.8482086491563
 20
737.4191814454134
 30
0.0000000000000000
 40
12.39999961853027
 41
0.0000000000000000
 71
     1
 72
     1
  1
{\H0.93x;{2×2-M10 深さ20\P        DEPTH}}
 11
1.000000000000000
 21
0.0000000000000000
 31
0.0000000000000000
  7
KNJYOKO
  0
LINE
  5
299
100
AcDbEntity
  8
MAIN0
  6
CENTER
 62
3
100
AcDbLine
 10
1437.181057383841
 20
499.0202681166962
 30
0.0000000000000000
 11
1461.725914014103
 21
499.0202681166962
 31
0.0000000000000000
  0
LINE
  5
29A
100
AcDbEntity
  8
MAIN0
  6
CENTER
 62
3
100
AcDbLine
 10
1556.656712835119
 20
499.0202681166962
 30
0.0000000000000000
 11
1583.367289287662
 21
499.0202681166962
 31
0.0000000000000000
  0
LINE
  5
29B
100
AcDbEntity
  8
MAIN0
  6
CENTER
 62
3
100
AcDbLine
 10
1570.654170838507
 20
511.7507132600490
 30
0.0000000000000000
 11
1570.654170838503
 21
486.8449010419495
 31
0.0000000000000000
  0
LINE
  5
29C
100
AcDbEntity
  8
MAIN0
  6
CENTER
 62
3
100
AcDbLine
 10
1448.654170838507
 20
511.7507132600490
 30
0.0000000000000000
 11
1448.654170838503
 21
486.8449010419494
 31
0.0000000000000000
  0
LINE
  5
29D
100
AcDbEntity
  8
MAIN0
  6
CENTER
 62
3
100
AcDbLine
 10
1437.181057383841
 20
553.0202681166961
 30
0.0000000000000000
 11
1461.725914014103
 21
553.0202681166961
 31
0.0000000000000000
  0
LINE
  5
29E
100
AcDbEntity
  8
MAIN0
  6
CENTER
 62
3
100
AcDbLine
 10
1448.654170838507
 20
565.7507132600489
 30
0.0000000000000000
 11
1448.654170838503
 21
540.8449010419494
 31
0.0000000000000000
  0
LINE
  5
29F
100
AcDbEntity
  8
MAIN0
  6
CENTER
 62
3
100
AcDbLine
 10
1556.656712835119
 20
553.0202681166961
 30
0.0000000000000000
 11
1583.367289287662
 21
553.0202681166961
 31
0.0000000000000000
  0
LINE
  5
2A0
100
AcDbEntity
  8
MAIN0
  6
CENTER
 62
3
100
AcDbLine
 10
1570.654170838507
 20
565.7507132600490
 30
0.0000000000000000
 11
1570.654170838503
 21
540.8449010419494
 31
0.0000000000000000
  0
LINE
  5
2A1
100
AcDbEntity
  8
MAIN0
  6
CENTER
 62
3
100
AcDbLine
 10
221.3112450368142
 20
412.9802291287867
 30
0.0000000000000000
 11
221.3112450368142
 21
638.4501660802767
 31
0.0000000000000000
  0
CIRCLE
  5
2A2
100
AcDbEntity
  8
MAIN0
  6
CONTINUOUS
 62
3
100
AcDbCircle
 10
751.1137459281038
 20
895.0202227748877
 30
0.0000000000000000
 40
13.00000000000000
  0
CIRCLE
  5
2A3
100
AcDbEntity
  8
MAIN0
  6
CONTINUOUS
 62
3
100
AcDbCircle
 10
751.1137459280842
 20
957.0202227752706
 30
0.0000000000000000
 40
13.00000000000000
  0
CIRCLE
  5
2A4
100
AcDbEntity
  8
MAIN0
  6
CONTINUOUS
 62
3
100
AcDbCircle
 10
692.1137459281800
 20
957.0202227752708
 30
0.0000000000000000
 40
13.00000000000000
  0
CIRCLE
  5
2A5
100
AcDbEntity
  8
MAIN0
  6
CONTINUOUS
 62
3
100
AcDbCircle
 10
692.1137459282082
 20
895.0202227748877
 30
0.0000000000000000
 40
13.00000000000000
  0
CIRCLE
  5
2A6
100
AcDbEntity
  8
MAIN0
  6
CONTINUOUS
 62
3
100
AcDbCircle
 10
563.2709459280914
 20
856.0202227725065
 30
0.0000000000000000
 40
13.00000000000000
  0
CIRCLE
  5
2A7
100
AcDbEntity
  8
MAIN0
  6
CONTINUOUS
 62
3
100
AcDbCircle
 10
501.2709459281337
 20
856.0202227725712
 30
0.0000000000000000
 40
13.00000000000000
  0
CIRCLE
  5
2A8
100
AcDbEntity
  8
MAIN0
  6
CONTINUOUS
 62
3
100
AcDbCircle
 10
501.2709459281618
 20
996.0202227724943
 30
0.0000000000000000
 40
13.00000000000000
  0
CIRCLE
  5
2A9
100
AcDbEntity
  8
MAIN0
  6
CONTINUOUS
 62
3
100
AcDbCircle
 10
563.2709459281148
 20
996.0202227724004
 30
0.0000000000000000
 40
13.00000000000000
  0
LINE
  5
2AA
100
AcDbEntity
  8
MAIN0
  6
CONTINUOUS
 62
3
100
AcDbLine
 10
748.1137459281038
 20
1003.906974120836
 30
0.0000000000000000
 11
745.6137459281038
 21
1002.463598447861
 31
0.0000000000000000
  0
LINE
  5
2AB
100
AcDbEntity
  8
MAIN0
  6
CONTINUOUS
 62
3
100
AcDbLine
 10
745.6137459281038
 20
1002.463598447862
 30
0.0000000000000000
 11
745.6137459281038
 21
999.5768471019135
 31
0.0000000000000000
  0
LINE
  5
2AC
100
AcDbEntity
  8
MAIN0
  6
CONTINUOUS
 62
3
100
AcDbLine
 10
745.6137459281038
 20
999.5768471019135
 30
0.0000000000000000
 11
748.1137459281038
 21
998.1334714289394
 31
0.0000000000000000
  0
LINE
  5
2AD
100
AcDbEntity
  8
MAIN0
  6
CONTINUOUS
 62
3
100
AcDbLine
 10
748.1137459281038
 20
998.1334714289393
 30
0.0000000000000000
 11
750.6137459281038
 21
999.5768471019134
 31
0.0000000000000000
  0
LINE
  5
2AE
100
AcDbEntity
  8
MAIN0
  6
CONTINUOUS
 62
3
100
AcDbLine
 10
750.6137459281038
 20
999.5768471019135
 30
0.0000000000000000
 11
750.6137459281038
 21
1002.463598447862
 31
0.0000000000000000
  0
LINE
  5
2AF
100
AcDbEntity
  8
MAIN0
  6
CONTINUOUS
 62
3
100
AcDbLine
 10
750.6137459281038
 20
1002.463598447862
 30
0.0000000000000000
 11
748.1137459281038
 21
1003.906974120836
 31
0.0000000000000000
  0
LINE
  5
2B0
100
AcDbEntity
  8
MAIN0
  6
CONTINUOUS
 62
3
100
AcDbLine
 10
748.1137459281036
 20
853.9069741208352
 30
0.0000000000000000
 11
745.6137459281035
 21
852.4635984478612
 31
0.0000000000000000
  0
LINE
  5
2B1
100
AcDbEntity
  8
MAIN0
  6
CONTINUOUS
 62
3
100
AcDbLine
 10
745.6137459281038
 20
852.4635984478613
 30
0.0000000000000000
 11
745.6137459281038
 21
849.5768471019131
 31
0.0000000000000000
  0
LINE
  5
2B2
100
AcDbEntity
  8
MAIN0
  6
CONTINUOUS
 62
3
100
AcDbLine
 10
745.6137459281038
 20
849.5768471019130
 30
0.0000000000000000
 11
748.1137459281038
 21
848.1334714289390
 31
0.0000000000000000
  0
LINE
  5
2B3
100
AcDbEntity
  8
MAIN0
  6
CONTINUOUS
 62
3
100
AcDbLine
 10
748.1137459281035
 20
848.1334714289390
 30
0.0000000000000000
 11
750.6137459281038
 21
849.5768471019130
 31
0.0000000000000000
  0
LINE
  5
2B4
100
AcDbEntity
  8
MAIN0
  6
CONTINUOUS
 62
3
100
AcDbLine
 10
750.6137459281038
 20
849.5768471019131
 30
0.0000000000000000
 11
750.6137459281038
 21
852.4635984478613
 31
0.0000000000000000
  0
LINE
  5
2B5
100
AcDbEntity
  8
MAIN0
  6
CONTINUOUS
 62
3
100
AcDbLine
 10
750.6137459281038
 20
852.4635984478612
 30
0.0000000000000000
 11
748.1137459281038
 21
853.9069741208352
 31
0.0000000000000000
  0
LINE
  5
2B6
100
AcDbEntity
  8
MAIN0
  6
CONTINUOUS
 62
3
100
AcDbLine
 10
688.1137459281036
 20
853.9069741208352
 30
0.0000000000000000
 11
685.6137459281036
 21
852.4635984478612
 31
0.0000000000000000
  0
LINE
  5
2B7
100
AcDbEntity
  8
MAIN0
  6
CONTINUOUS
 62
3
100
AcDbLine
 10
685.6137459281038
 20
852.4635984478613
 30
0.0000000000000000
 11
685.6137459281038
 21
849.5768471019131
 31
0.0000000000000000
  0
LINE
  5
2B8
100
AcDbEntity
  8
MAIN0
  6
CONTINUOUS
 62
3
100
AcDbLine
 10
685.6137459281036
 20
849.5768471019130
 30
0.0000000000000000
 11
688.1137459281038
 21
848.1334714289390
 31
0.0000000000000000
  0
LINE
  5
2B9
100
AcDbEntity
  8
MAIN0
  6
CONTINUOUS
 62
3
100
AcDbLine
 10
688.1137459281036
 20
848.1334714289390
 30
0.0000000000000000
 11
690.6137459281036
 21
849.5768471019130
 31
0.0000000000000000
  0
LINE
  5
2BA
100
AcDbEntity
  8
MAIN0
  6
CONTINUOUS
 62
3
100
AcDbLine
 10
690.6137459281038
 20
849.5768471019131
 30
0.0000000000000000
 11
690.6137459281038
 21
852.4635984478613
 31
0.0000000000000000
  0
LINE
  5
2BB
100
AcDbEntity
  8
MAIN0
  6
CONTINUOUS
 62
3
100
AcDbLine
 10
690.6137459281036
 20
852.4635984478612
 30
0.0000000000000000
 11
688.1137459281036
 21
853.9069741208352
 31
0.0000000000000000
  0
LINE
  5
2BC
100
AcDbEntity
  8
MAIN0
  6
CONTINUOUS
 62
3
100
AcDbLine
 10
567.2709459281036
 20
978.9069741208356
 30
0.0000000000000000
 11
564.7709459281036
 21
977.4635984478615
 31
0.0000000000000000
  0
LINE
  5
2BD
100
AcDbEntity
  8
MAIN0
  6
CONTINUOUS
 62
3
100
AcDbLine
 10
564.7709459281037
 20
977.4635984478616
 30
0.0000000000000000
 11
564.7709459281037
 21
974.5768471019135
 31
0.0000000000000000
  0
LINE
  5
2BE
100
AcDbEntity
  8
MAIN0
  6
CONTINUOUS
 62
3
100
AcDbLine
 10
564.7709459281037
 20
974.5768471019134
 30
0.0000000000000000
 11
567.2709459281037
 21
973.1334714289393
 31
0.0000000000000000
  0
LINE
  5
2BF
100
AcDbEntity
  8
MAIN0
  6
CONTINUOUS
 62
3
100
AcDbLine
 10
567.2709459281036
 20
973.1334714289393
 30
0.0000000000000000
 11
569.7709459281036
 21
974.5768471019134
 31
0.0000000000000000
  0
LINE
  5
2C0
100
AcDbEntity
  8
MAIN0
  6
CONTINUOUS
 62
3
100
AcDbLine
 10
569.7709459281037
 20
974.5768471019135
 30
0.0000000000000000
 11
569.7709459281037
 21
977.4635984478616
 31
0.0000000000000000
  0
LINE
  5
2C1
100
AcDbEntity
  8
MAIN0
  6
CONTINUOUS
 62
3
100
AcDbLine
 10
569.7709459281037
 20
977.4635984478615
 30
0.0000000000000000
 11
567.2709459281037
 21
978.9069741208356
 31
0.0000000000000000
  0
LINE
  5
2C2
100
AcDbEntity
  8
MAIN0
  6
CONTINUOUS
 62
3
100
AcDbLine
 10
567.2709459281036
 20
878.9069741208352
 30
0.0000000000000000
 11
564.7709459281036
 21
877.4635984478612
 31
0.0000000000000000
  0
LINE
  5
2C3
100
AcDbEntity
  8
MAIN0
  6
CONTINUOUS
 62
3
100
AcDbLine
 10
564.7709459281036
 20
877.4635984478614
 30
0.0000000000000000
 11
564.7709459281036
 21
874.5768471019132
 31
0.0000000000000000
  0
LINE
  5
2C4
100
AcDbEntity
  8
MAIN0
  6
CONTINUOUS
 62
3
100
AcDbLine
 10
564.7709459281037
 20
874.5768471019131
 30
0.0000000000000000
 11
567.2709459281037
 21
873.1334714289391
 31
0.0000000000000000
  0
LINE
  5
2C5
100
AcDbEntity
  8
MAIN0
  6
CONTINUOUS
 62
3
100
AcDbLine
 10
567.2709459281036
 20
873.1334714289391
 30
0.0000000000000000
 11
569.7709459281036
 21
874.5768471019131
 31
0.0000000000000000
  0
LINE
  5
2C6
100
AcDbEntity
  8
MAIN0
  6
CONTINUOUS
 62
3
100
AcDbLine
 10
569.7709459281036
 20
874.5768471019132
 30
0.0000000000000000
 11
569.7709459281036
 21
877.4635984478614
 31
0.0000000000000000
  0
LINE
  5
2C7
100
AcDbEntity
  8
MAIN0
  6
CONTINUOUS
 62
3
100
AcDbLine
 10
569.7709459281037
 20
877.4635984478614
 30
0.0000000000000000
 11
567.2709459281037
 21
878.9069741208355
 31
0.0000000000000000
  0
LINE
  5
2C8
100
AcDbEntity
  8
MAIN0
  6
CONTINUOUS
 62
3
100
AcDbLine
 10
497.2709459281037
 20
878.9069741208353
 30
0.0000000000000000
 11
494.7709459281037
 21
877.4635984478613
 31
0.0000000000000000
  0
LINE
  5
2C9
100
AcDbEntity
  8
MAIN0
  6
CONTINUOUS
 62
3
100
AcDbLine
 10
494.7709459281037
 20
877.4635984478614
 30
0.0000000000000000
 11
494.7709459281037
 21
874.5768471019132
 31
0.0000000000000000
  0
LINE
  5
2CA
100
AcDbEntity
  8
MAIN0
  6
CONTINUOUS
 62
3
100
AcDbLine
 10
494.7709459281037
 20
874.5768471019131
 30
0.0000000000000000
 11
497.2709459281037
 21
873.1334714289391
 31
0.0000000000000000
  0
LINE
  5
2CB
100
AcDbEntity
  8
MAIN0
  6
CONTINUOUS
 62
3
100
AcDbLine
 10
497.2709459281037
 20
873.1334714289391
 30
0.0000000000000000
 11
499.7709459281037
 21
874.5768471019131
 31
0.0000000000000000
  0
LINE
  5
2CC
100
AcDbEntity
  8
MAIN0
  6
CONTINUOUS
 62
3
100
AcDbLine
 10
499.7709459281037
 20
874.5768471019132
 30
0.0000000000000000
 11
499.7709459281037
 21
877.4635984478614
 31
0.0000000000000000
  0
LINE
  5
2CD
100
AcDbEntity
  8
MAIN0
  6
CONTINUOUS
 62
3
100
AcDbLine
 10
499.7709459281037
 20
877.4635984478614
 30
0.0000000000000000
 11
497.2709459281037
 21
878.9069741208353
 31
0.0000000000000000
  0
LINE
  5
2CE
100
AcDbEntity
  8
MAIN0
  6
CONTINUOUS
 62
3
100
AcDbLine
 10
497.2709459281037
 20
978.9069741208356
 30
0.0000000000000000
 11
494.7709459281037
 21
977.4635984478615
 31
0.0000000000000000
  0
LINE
  5
2CF
100
AcDbEntity
  8
MAIN0
  6
CONTINUOUS
 62
3
100
AcDbLine
 10
494.7709459281037
 20
977.4635984478616
 30
0.0000000000000000
 11
494.7709459281037
 21
974.5768471019135
 31
0.0000000000000000
  0
LINE
  5
2D0
100
AcDbEntity
  8
MAIN0
  6
CONTINUOUS
 62
3
100
AcDbLine
 10
494.7709459281038
 20
974.5768471019134
 30
0.0000000000000000
 11
497.2709459281037
 21
973.1334714289393
 31
0.0000000000000000
  0
LINE
  5
2D1
100
AcDbEntity
  8
MAIN0
  6
CONTINUOUS
 62
3
100
AcDbLine
 10
497.2709459281037
 20
973.1334714289393
 30
0.0000000000000000
 11
499.7709459281037
 21
974.5768471019134
 31
0.0000000000000000
  0
LINE
  5
2D2
100
AcDbEntity
  8
MAIN0
  6
CONTINUOUS
 62
3
100
AcDbLine
 10
499.7709459281037
 20
974.5768471019135
 30
0.0000000000000000
 11
499.7709459281037
 21
977.4635984478616
 31
0.0000000000000000
  0
LINE
  5
2D3
100
AcDbEntity
  8
MAIN0
  6
CONTINUOUS
 62
3
100
AcDbLine
 10
499.7709459281038
 20
977.4635984478615
 30
0.0000000000000000
 11
497.2709459281039
 21
978.9069741208356
 31
0.0000000000000000
  0
DIMENSION
  5
2DC
100
AcDbEntity
  8
MAIN0
  6
CONTINUOUS
 62
3
100
AcDbDimension
  2
*D28
 10
532.2709459281036
 20
749.5049255266622
 30
0.0000000000000000
 11
557.2709459281036
 21
750.0049255266622
 31
0.0000000000000000
 70
32
  3
MAIN001
100
AcDbAlignedDimension
 13
582.2709459281037
 23
826.0202227748875
 33
0.0000000000000000
 14
532.2709459281036
 24
915.5146915356689
 34
0.0000000000000000
100
AcDbRotatedDimension
1001
ACAD
1000
DSTYLE
1002
{
1070
   173
1070
     1
1070
     6
1000
_OPEN
1070
     7
1000
_OPEN
1070
    41
1040
8.000000
1002
}
  0
DIMENSION
  5
2E5
100
AcDbEntity
  8
MAIN0
  6
CONTINUOUS
 62
3
100
AcDbDimension
  2
*D29
 10
673.1137459281038
 20
749.5049255266622
 30
0.0000000000000000
 11
697.3637459281038
 21
750.0049255266622
 31
0.0000000000000000
 70
32
  3
MAIN001
100
AcDbAlignedDimension
 13
721.6137459281038
 23
915.5146915356681
 33
0.0000000000000000
 14
673.1137459281038
 24
826.0202227748875
 34
0.0000000000000000
100
AcDbRotatedDimension
1001
ACAD
1000
DSTYLE
1002
{
1070
   173
1070
     1
1070
     6
1000
_OPEN
1070
     7
1000
_OPEN
1070
    41
1040
8.000000
1002
}
  0
LINE
  5
2E6
100
AcDbEntity
  8
MAIN0
  6
PHANTOM
 62
3
100
AcDbLine
 10
1406.654170837778
 20
433.0202681166944
 30
0.0000000000000000
 11
1314.654170837778
 21
433.0202681166945
 31
0.0000000000000000
  0
MTEXT
  5
2E7
100
AcDbEntity
  8
MAIN0
  6
CONTINUOUS
 62
3
100
AcDbMText
 10
1102.222874545055
 20
248.9432664662172
 30
0.0000000000000000
 40
12.39999961853027
 41
0.0000000000000000
 71
     1
 72
     1
  1
{\H0.94x;{(押さえ金具４セット付属)}}
 11
1.000000000000000
 21
0.0000000000000000
 31
0.0000000000000000
  7
KNJYOKO
  0
MTEXT
  5
2E8
100
AcDbEntity
  8
MAIN0
  6
CONTINUOUS
 62
3
100
AcDbMText
 10
1103.322828380021
 20
232.5666029108681
 30
0.0000000000000000
 40
12.00000000000000
 41
0.0000000000000000
 71
     1
 72
     1
  1
{\H0.63x;{(CLAMPING PARTS  ACCESSARY 4 PAIR)}}
 11
1.000000000000000
 21
0.0000000000000000
 31
0.0000000000000000
  7
STANDARD
  0
LEADER
  5
2E9
100
AcDbEntity
  8
MAIN0
  6
CONTINUOUS
 62
3
100
AcDbLeader
  3
MAIN001
 73
     0
 75
     1
 40
12.00000000000000
 41
104.3989972343445
 76
     3
 10
1378.816696991376
 20
474.1386497686755
 30
0.0000000000000000
 10
1277.696874479443
 20
325.5057553263472
 30
0.0000000000000000
 10
1270.975874479443
 20
325.5057553263472
 30
0.0000000000000000
340
2EA
213
0.0000000000000000
223
-2.000000000000000
233
0.0000000000000000
1001
ACAD
1000
DSTYLE
1002
{
1070
   147
1040
0.0
1070
    77
1070
     1
1070
   173
1070
     1
1070
     6
1000
_DOT
1070
     7
1000
_DOT
1002
}
  0
MTEXT
  5
2EA
102
{ACAD_REACTORS
330
2E9
102
}
100
AcDbEntity
  8
MAIN0
  6
CONTINUOUS
 62
3
100
AcDbMText
 10
1166.576877245098
 20
339.5057553263472
 30
0.0000000000000000
 40
12.00000000000000
 41
0.0000000000000000
 71
     1
 72
     1
  1
{\H0.61x;{六角穴付ボルト\PM16×65\PHEX,SOCKET HEAD\PCAP SCREW}}
 11
1.000000000000000
 21
0.0000000000000000
 31
0.0000000000000000
  7
KNJYOKO
  0
LINE
  5
2EB
100
AcDbEntity
  8
MAIN0
  6
CONTINUOUS
 62
3
100
AcDbLine
 10
1197.111741507740
 20
757.0202681166909
 30
0.0000000000000000
 11
1197.111741507575
 21
545.4473155083113
 31
0.0000000000000000
  0
LINE
  5
2EC
100
AcDbEntity
  8
MAIN0
  6
CONTINUOUS
 62
3
100
AcDbLine
 10
1214.111741507740
 20
760.0202681166886
 30
0.0000000000000000
 11
1200.111741507740
 21
760.0202681166886
 31
0.0000000000000000
  0
LINE
  5
2ED
100
AcDbEntity
  8
MAIN0
  6
CONTINUOUS
 62
3
100
AcDbLine
 10
1217.111741507740
 20
757.0202681166863
 30
0.0000000000000000
 11
1217.111741507730
 21
745.0202681166863
 31
0.0000000000000000
  0
LINE
  5
2EE
100
AcDbEntity
  8
MAIN0
  6
CONTINUOUS
 62
3
100
AcDbLine
 10
1155.111741507560
 20
526.0202681166886
 30
0.0000000000000000
 11
1155.111741507555
 21
519.6202681166886
 31
0.0000000000000000
  0
LINE
  5
2EF
100
AcDbEntity
  8
MAIN0
  6
CONTINUOUS
 62
3
100
AcDbLine
 10
1170.111741507555
 20
519.0202681166886
 30
0.0000000000000000
 11
1155.711741507555
 21
519.0202681166886
 31
0.0000000000000000
  0
LINE
  5
2F0
100
AcDbEntity
  8
MAIN0
  6
CONTINUOUS
 62
3
100
AcDbLine
 10
1170.111741507560
 20
526.0202681166886
 30
0.0000000000000000
 11
1170.111741507553
 21
516.4202681166887
 31
0.0000000000000000
  0
LINE
  5
2F1
100
AcDbEntity
  8
MAIN0
  6
CONTINUOUS
 62
3
100
AcDbLine
 10
1155.111741507560
 20
526.0202681166886
 30
0.0000000000000000
 11
1155.111741507555
 21
532.4202681166886
 31
0.0000000000000000
  0
LINE
  5
2F2
100
AcDbEntity
  8
MAIN0
  6
CONTINUOUS
 62
3
100
AcDbLine
 10
1170.111741507555
 20
533.0202681166886
 30
0.0000000000000000
 11
1155.711741507555
 21
533.0202681166886
 31
0.0000000000000000
  0
LINE
  5
2F3
100
AcDbEntity
  8
MAIN0
  6
CONTINUOUS
 62
3
100
AcDbLine
 10
1170.111741507560
 20
526.0202681166886
 30
0.0000000000000000
 11
1170.111741507553
 21
535.6202681166885
 31
0.0000000000000000
  0
LINE
  5
2F4
100
AcDbEntity
  8
MAIN0
  6
CONTINUOUS
 62
3
100
AcDbLine
 10
1214.111741507730
 20
742.0202681166886
 30
0.0000000000000000
 11
1210.111741507726
 21
742.0202681166886
 31
0.0000000000000000
  0
ARC
  5
2F5
100
AcDbEntity
  8
MAIN0
  6
CONTINUOUS
 62
3
100
AcDbCircle
 10
1200.111741507739
 20
757.0202681166886
 30
0.0000000000000000
 40
3.000000000000000
100
AcDbArc
 50
90.00000000000007
 51
180.0000000000001
  0
LINE
  5
2F6
100
AcDbEntity
  8
MAIN0
  6
CONTINUOUS
 62
3
100
AcDbLine
 10
1170.111741507560
 20
526.0202681166887
 30
0.0000000000000000
 11
1155.111741507560
 21
526.0202681166886
 31
0.0000000000000000
  0
LINE
  5
2F7
100
AcDbEntity
  8
MAIN0
  6
CONTINUOUS
 62
3
100
AcDbLine
 10
1155.111741507555
 20
519.6202681166885
 30
0.0000000000000000
 11
1155.711741507555
 21
519.0202681166885
 31
0.0000000000000000
  0
LINE
  5
2F8
100
AcDbEntity
  8
MAIN0
  6
CONTINUOUS
 62
3
100
AcDbLine
 10
1155.711741507555
 20
533.0202681166885
 30
0.0000000000000000
 11
1155.111741507555
 21
532.4202681166885
 31
0.0000000000000000
  0
ELLIPSE
  5
2F9
100
AcDbEntity
  8
MAIN0
  6
CONTINUOUS
 62
3
100
AcDbEllipse
 10
1163.111741507558
 20
529.5202681166943
 30
0.0000000000000000
 11
-2.050000000000000
 21
0.0000000000000000
 31
0.0000000000000000
210
0.0000000000000000
220
0.0000000000000000
230
1.000000000000000
 40
0.8536585365853660
 41
0.0000000000000000
 42
6.283185307179586
  0
LINE
  5
2FA
100
AcDbEntity
  8
MAIN0
  6
CONTINUOUS
 62
3
100
AcDbLine
 10
1179.111741507553
 20
516.0202681166886
 30
0.0000000000000000
 11
1170.511741507552
 21
516.0202681166886
 31
0.0000000000000000
  0
LINE
  5
2FB
100
AcDbEntity
  8
MAIN0
  6
CONTINUOUS
 62
3
100
AcDbLine
 10
1179.111741507568
 20
536.0202681166886
 30
0.0000000000000000
 11
1170.511741507552
 21
536.0202681166886
 31
0.0000000000000000
  0
LINE
  5
2FC
100
AcDbEntity
  8
MAIN0
  6
CONTINUOUS
 62
3
100
AcDbLine
 10
1179.111741507568
 20
536.0202681166886
 30
0.0000000000000000
 11
1179.111741507553
 21
516.0202681166886
 31
0.0000000000000000
  0
LINE
  5
2FD
100
AcDbEntity
  8
MAIN0
  6
CONTINUOUS
 62
3
100
AcDbLine
 10
1207.111741507726
 20
739.0202681166909
 30
0.0000000000000000
 11
1207.111741507551
 21
514.0202681166863
 31
0.0000000000000000
  0
LINE
  5
2FE
100
AcDbEntity
  8
MAIN0
  6
CONTINUOUS
 62
3
100
AcDbLine
 10
1204.111741507551
 20
511.0202681166887
 30
0.0000000000000000
 11
1197.771995545388
 21
511.0202681166887
 31
0.0000000000000000
  0
LINE
  5
2FF
100
AcDbEntity
  8
MAIN0
  6
CONTINUOUS
 62
3
100
AcDbLine
 10
1179.111741507553
 20
516.0202681166860
 30
0.0000000000000000
 11
1197.771995545387
 21
511.0202681166888
 31
0.0000000000000000
  0
LINE
  5
300
100
AcDbEntity
  8
MAIN0
  6
CONTINUOUS
 62
3
100
AcDbLine
 10
1179.111741507599
 20
536.0202681166887
 30
0.0000000000000000
 11
1192.664655778191
 21
539.6517605505816
 31
0.0000000000000000
  0
ARC
  5
301
100
AcDbEntity
  8
MAIN0
  6
CONTINUOUS
 62
3
100
AcDbCircle
 10
1204.111741507551
 20
514.0202681166886
 30
0.0000000000000000
 40
3.000000000000000
100
AcDbArc
 50
270.0000000000001
 51
360.0000000000001
  0
ARC
  5
302
100
AcDbEntity
  8
MAIN0
  6
CONTINUOUS
 62
3
100
AcDbCircle
 10
1214.111741507739
 20
757.0202681166886
 30
0.0000000000000000
 40
3.000000000000000
100
AcDbArc
 50
7.633331235512440e-014
 51
90.00000000000007
  0
ARC
  5
303
100
AcDbEntity
  8
MAIN0
  6
CONTINUOUS
 62
3
100
AcDbCircle
 10
1214.111741507730
 20
745.0202681166886
 30
0.0000000000000000
 40
3.000000000000000
100
AcDbArc
 50
270.0000000000001
 51
360.0000000000001
  0
LINE
  5
304
100
AcDbEntity
  8
MAIN0
  6
CONTINUOUS
 62
3
100
AcDbLine
 10
1170.111741507553
 20
516.4202681166886
 30
0.0000000000000000
 11
1170.511741507553
 21
516.0202681166885
 31
0.0000000000000000
  0
LINE
  5
305
100
AcDbEntity
  8
MAIN0
  6
CONTINUOUS
 62
3
100
AcDbLine
 10
1170.111741507553
 20
535.6202681166885
 30
0.0000000000000000
 11
1170.511741507553
 21
536.0202681166886
 31
0.0000000000000000
  0
ARC
  5
306
100
AcDbEntity
  8
MAIN0
  6
CONTINUOUS
 62
3
100
AcDbCircle
 10
1191.111741507576
 20
545.4473155083160
 30
0.0000000000000000
 40
6.000000000000000
100
AcDbArc
 50
284.9999999999988
 51
360.0000000000001
  0
ARC
  5
307
100
AcDbEntity
  8
MAIN0
  6
CONTINUOUS
 62
3
100
AcDbCircle
 10
1210.111741507726
 20
739.0202681166886
 30
0.0000000000000000
 40
3.000000000000000
100
AcDbArc
 50
90.00000000000007
 51
180.0000000000001
  0
ARC
  5
308
100
AcDbEntity
  8
MAIN1
  6
CONTINUOUS
 62
7
100
AcDbCircle
 10
1297.424628673757
 20
758.0202681166886
 30
0.0000000000000000
 40
4.000000000000000
100
AcDbArc
 50
11.21227141764971
 51
90.00000000000000
  0
ARC
  5
309
100
AcDbEntity
  8
MAIN1
  6
CONTINUOUS
 62
7
100
AcDbCircle
 10
1297.424628673757
 20
744.0202681166886
 30
0.0000000000000000
 40
4.000000000000000
100
AcDbArc
 50
270.0000000000000
 51
348.7877285823506
  0
LINE
  5
30A
100
AcDbEntity
  8
MAIN1
  6
CONTINUOUS
 62
7
100
AcDbLine
 10
1251.111741507737
 20
762.0202681166886
 30
0.0000000000000000
 11
1229.028480418313
 21
761.1001322379625
 31
0.0000000000000000
  0
LINE
  5
30B
100
AcDbEntity
  8
MAIN1
  6
CONTINUOUS
 62
7
100
AcDbLine
 10
1229.028480418313
 20
740.9404039954147
 30
0.0000000000000000
 11
1251.111741507738
 21
740.0202681166886
 31
0.0000000000000000
  0
ARC
  5
30C
100
AcDbEntity
  8
MAIN1
  6
CONTINUOUS
 62
7
100
AcDbCircle
 10
1262.111741507737
 20
751.0202681166886
 30
0.0000000000000000
 40
40.00000000000002
100
AcDbArc
 50
348.7877285823503
 51
371.2122714176497
  0
LINE
  5
30D
100
AcDbEntity
  8
MAIN1
  6
CONTINUOUS
 62
7
100
AcDbLine
 10
1226.611741507738
 20
759.5202681166886
 30
0.0000000000000000
 11
1226.611741507738
 21
742.5202681166886
 31
0.0000000000000000
  0
LINE
  5
30E
100
AcDbEntity
  8
MAIN1
  6
CONTINUOUS
 62
7
100
AcDbLine
 10
1217.611741507738
 20
759.5202681166886
 30
0.0000000000000000
 11
1217.611741507738
 21
756.4974936917404
 31
0.0000000000000000
  0
LINE
  5
30F
100
AcDbEntity
  8
MAIN1
  6
CONTINUOUS
 62
7
100
AcDbLine
 10
1217.111741507738
 20
756.4974936917404
 30
0.0000000000000000
 11
1224.611741507738
 21
756.4974936917404
 31
0.0000000000000000
  0
LINE
  5
310
100
AcDbEntity
  8
MAIN1
  6
CONTINUOUS
 62
7
100
AcDbLine
 10
1217.111741507738
 20
745.5430425416371
 30
0.0000000000000000
 11
1224.611741507738
 21
745.5430425416371
 31
0.0000000000000000
  0
LINE
  5
311
100
AcDbEntity
  8
MAIN1
  6
CONTINUOUS
 62
7
100
AcDbLine
 10
1297.424628673757
 20
762.0202681166886
 30
0.0000000000000000
 11
1251.111741507737
 21
762.0202681166886
 31
0.0000000000000000
  0
LINE
  5
312
100
AcDbEntity
  8
MAIN1
  6
CONTINUOUS
 62
7
100
AcDbLine
 10
1297.424628673757
 20
740.0202681166886
 30
0.0000000000000000
 11
1251.111741507738
 21
740.0202681166886
 31
0.0000000000000000
  0
LINE
  5
313
100
AcDbEntity
  8
MAIN1
  6
CONTINUOUS
 62
7
100
AcDbLine
 10
1217.611741507737
 20
759.5202681166886
 30
0.0000000000000000
 11
1217.111741507737
 21
759.0202681166887
 31
0.0000000000000000
  0
LINE
  5
314
100
AcDbEntity
  8
MAIN1
  6
CONTINUOUS
 62
7
100
AcDbLine
 10
1226.611741507737
 20
759.5202681166887
 30
0.0000000000000000
 11
1227.111741507738
 21
759.0202681166886
 31
0.0000000000000000
  0
LINE
  5
315
100
AcDbEntity
  8
MAIN1
  6
CONTINUOUS
 62
7
100
AcDbLine
 10
1226.611741507737
 20
742.5202681166887
 30
0.0000000000000000
 11
1227.111741507737
 21
743.0202681166888
 31
0.0000000000000000
  0
LINE
  5
316
100
AcDbEntity
  8
MAIN1
  6
CONTINUOUS
 62
7
100
AcDbLine
 10
1217.111741507737
 20
743.0202681166885
 30
0.0000000000000000
 11
1217.611741507737
 21
742.5202681166886
 31
0.0000000000000000
  0
LINE
  5
317
100
AcDbEntity
  8
MAIN1
  6
CONTINUOUS
 62
7
100
AcDbLine
 10
1217.611741507738
 20
759.5202681166886
 30
0.0000000000000000
 11
1226.611741507738
 21
759.5202681166886
 31
0.0000000000000000
  0
LINE
  5
318
100
AcDbEntity
  8
MAIN1
  6
CONTINUOUS
 62
7
100
AcDbLine
 10
1217.611741507738
 20
742.5202681166886
 30
0.0000000000000000
 11
1226.611741507738
 21
742.5202681166886
 31
0.0000000000000000
  0
LINE
  5
319
100
AcDbEntity
  8
MAIN1
  6
CONTINUOUS
 62
7
100
AcDbLine
 10
1217.111741507738
 20
743.0202681166886
 30
0.0000000000000000
 11
1217.111741507738
 21
759.0202681166886
 31
0.0000000000000000
  0
LINE
  5
31A
100
AcDbEntity
  8
MAIN1
  6
CONTINUOUS
 62
7
100
AcDbLine
 10
1217.611741507738
 20
742.5202681166886
 30
0.0000000000000000
 11
1217.611741507738
 21
745.5430425416371
 31
0.0000000000000000
  0
LINE
  5
31B
100
AcDbEntity
  8
MAIN1
  6
CONTINUOUS
 62
7
100
AcDbLine
 10
1227.111741507738
 20
742.9386701415995
 30
0.0000000000000000
 11
1227.111741507738
 21
759.1018660917780
 31
0.0000000000000000
  0
ARC
  5
31C
100
AcDbEntity
  8
MAIN1
  6
CONTINUOUS
 62
7
100
AcDbCircle
 10
1229.111741507738
 20
759.1018660917780
 30
0.0000000000000000
 40
2.000000000000000
100
AcDbArc
 50
92.38594403038889
 51
179.9999999999999
  0
ARC
  5
31D
100
AcDbEntity
  8
MAIN1
  6
CONTINUOUS
 62
7
100
AcDbCircle
 10
1229.111741507738
 20
742.9386701415995
 30
0.0000000000000000
 40
2.000000000000000
100
AcDbArc
 50
180.0000000000000
 51
267.6140559696109
  0
LINE
  5
31E
100
AcDbEntity
  8
MAIN1
  6
CONTINUOUS
 62
7
100
AcDbLine
 10
1224.611741507738
 20
745.5430425416371
 30
0.0000000000000000
 11
1224.611741507738
 21
756.4974936917404
 31
0.0000000000000000
  0
LINE
  5
31F
100
AcDbEntity
  8
MAIN3
  6
CONTINUOUS
 62
3
100
AcDbLine
 10
1224.611741507737
 20
745.5430425416371
 30
0.0000000000000000
 11
1217.111741507738
 21
756.4974936917403
 31
0.0000000000000000
  0
LINE
  5
320
100
AcDbEntity
  8
MAIN3
  6
CONTINUOUS
 62
3
100
AcDbLine
 10
1224.611741507738
 20
756.4974936917405
 30
0.0000000000000000
 11
1217.111741507738
 21
745.5430425416374
 31
0.0000000000000000
  0
LINE
  5
321
100
AcDbEntity
  8
MAIN1
  6
CONTINUOUS
 62
7
100
AcDbLine
 10
1251.111741507737
 20
762.0202681166886
 30
0.0000000000000000
 11
1251.111741507737
 21
740.0202681166886
 31
0.0000000000000000
  0
DIMENSION
  5
329
100
AcDbEntity
  8
MAIN0
  6
CONTINUOUS
 62
3
100
AcDbDimension
  2
*D30
 10
816.6201299038089
 20
433.0202681166957
 30
0.0000000000000000
 11
814.6201299038089
 21
467.9436939666587
 31
0.0000000000000000
 70
160
  3
MAIN001
100
AcDbAlignedDimension
 13
859.8334671570574
 23
518.0202681166902
 33
0.0000000000000000
 14
666.2709459281037
 24
433.0202681166957
 34
0.0000000000000000
 50
90.00000000000000
100
AcDbRotatedDimension
1001
ACAD
1000
DSTYLE
1002
{
1070
   173
1070
     1
1070
     6
1000
_OPEN
1070
     7
1000
_OPEN
1070
    41
1040
8.000000
1002
}
  0
DIMENSION
  5
332
100
AcDbEntity
  8
MAIN0
  6
CONTINUOUS
 62
3
100
AcDbDimension
  2
*D31
 10
816.6201299038089
 20
518.0202681166902
 30
0.0000000000000000
 11
814.6201299038089
 21
536.3349309040677
 31
0.0000000000000000
 70
160
  3
MAIN001
100
AcDbAlignedDimension
 13
770.1137610115338
 23
568.0202681166954
 33
0.0000000000000000
 14
859.8334671570574
 24
518.0202681166902
 34
0.0000000000000000
 50
90.00000000000000
100
AcDbRotatedDimension
1001
ACAD
1000
DSTYLE
1002
{
1070
   173
1070
     1
1070
     6
1000
_OPEN
1070
     7
1000
_OPEN
1070
    41
1040
8.000000
1002
}
  0
LINE
  5
333
100
AcDbEntity
  8
MAIN0
  6
CENTER
 62
3
100
AcDbLine
 10
657.2709459281037
 20
419.8089216570203
 30
0.0000000000000000
 11
657.2709459281037
 21
444.2196300026456
 31
0.0000000000000000
  0
DIMENSION
  5
33C
100
AcDbEntity
  8
MAIN0
  6
CONTINUOUS
 62
3
100
AcDbDimension
  2
*D32
 10
480.2709459281037
 20
295.8779059755837
 30
0.0000000000000000
 11
568.7709459281037
 21
296.3779059755837
 31
0.0000000000000000
 70
32
  3
MAIN001
100
AcDbAlignedDimension
 13
657.2709459281037
 23
419.8089216570203
 33
0.0000000000000000
 14
480.2709459281037
 24
433.0202681166963
 34
0.0000000000000000
100
AcDbRotatedDimension
1001
ACAD
1000
DSTYLE
1002
{
1070
   173
1070
     1
1070
     6
1000
_OPEN
1070
     7
1000
_OPEN
1070
    41
1040
8.000000
1002
}
  0
DIMENSION
  5
345
100
AcDbEntity
  8
MAIN0
  6
CONTINUOUS
 62
3
100
AcDbDimension
  2
*D33
 10
657.2709459281037
 20
295.8779059755837
 30
0.0000000000000000
 11
871.2709459281039
 21
296.3779059755837
 31
0.0000000000000000
 70
32
  3
MAIN001
100
AcDbAlignedDimension
 13
1085.270945928104
 23
501.0202681166944
 33
0.0000000000000000
 14
657.2709459281037
 24
419.8089216570203
 34
0.0000000000000000
100
AcDbRotatedDimension
1001
ACAD
1000
DSTYLE
1002
{
1070
   173
1070
     1
1070
     6
1000
_OPEN
1070
     7
1000
_OPEN
1070
    41
1040
8.000000
1002
}
  0
DIMENSION
  5
34E
100
AcDbEntity
  8
MAIN0
  6
CONTINUOUS
 62
3
100
AcDbDimension
  2
*D34
 10
582.2709459281037
 20
362.6844329366248
 30
0.0000000000000000
 11
619.7709459281037
 21
363.1844329366248
 31
0.0000000000000000
 70
32
  3
MAIN001
100
AcDbAlignedDimension
 13
657.2709459281037
 23
419.8089216570203
 33
0.0000000000000000
 14
582.2709459281037
 24
568.0202681166959
 34
0.0000000000000000
100
AcDbRotatedDimension
1001
ACAD
1000
DSTYLE
1002
{
1070
   173
1070
     1
1070
     6
1000
_OPEN
1070
     7
1000
_OPEN
1070
    41
1040
8.000000
1002
}
  0
DIMENSION
  5
357
100
AcDbEntity
  8
MAIN0
  6
CONTINUOUS
 62
3
100
AcDbDimension
  2
*D35
 10
657.2709459281037
 20
362.6844329366248
 30
0.0000000000000000
 11
821.2709459281037
 21
363.1844329366248
 31
0.0000000000000000
 70
32
  3
MAIN001
100
AcDbAlignedDimension
 13
985.2709459281037
 23
433.0202681166948
 33
0.0000000000000000
 14
657.2709459281037
 24
419.8089216570203
 34
0.0000000000000000
100
AcDbRotatedDimension
1001
ACAD
1000
DSTYLE
1002
{
1070
   173
1070
     1
1070
     6
1000
_OPEN
1070
     7
1000
_OPEN
1070
    41
1040
8.000000
1002
}
  0
DIMENSION
  5
362
100
AcDbEntity
  8
MAIN0
  6
CONTINUOUS
 62
3
100
AcDbDimension
  2
*D36
 10
1155.111741507553
 20
782.4678951709906
 30
0.0000000000000000
 11
1162.611741507553
 21
782.9678951709906
 31
0.0000000000000000
 70
32
  3
MAIN001
100
AcDbAlignedDimension
 13
1170.111741507553
 23
535.6202681166885
 33
0.0000000000000000
 14
1155.111741507560
 24
526.0202681166886
 34
0.0000000000000000
100
AcDbRotatedDimension
1001
ACAD
1000
DSTYLE
1002
{
1070
   173
1070
     1
1070
     6
1000
_OPEN
1070
     7
1000
_OPEN
1070
    41
1040
8.000000
1070
   287
1070
     0
1002
}
  0
DIMENSION
  5
36B
100
AcDbEntity
  8
MAIN0
  6
CONTINUOUS
 62
3
100
AcDbDimension
  2
*D37
 10
1170.111741507560
 20
782.4678951709906
 30
0.0000000000000000
 11
1188.611741507643
 21
782.9678951709906
 31
0.0000000000000000
 70
32
  3
MAIN001
100
AcDbAlignedDimension
 13
1207.111741507726
 23
739.0202681166909
 33
0.0000000000000000
 14
1170.111741507553
 24
535.6202681166885
 34
0.0000000000000000
100
AcDbRotatedDimension
1001
ACAD
1000
DSTYLE
1002
{
1070
   173
1070
     1
1070
     6
1000
_OPEN
1070
     7
1000
_OPEN
1070
    41
1040
8.000000
1002
}
  0
DIMENSION
  5
374
100
AcDbEntity
  8
MAIN0
  6
CONTINUOUS
 62
3
100
AcDbDimension
  2
*D38
 10
1207.111741507726
 20
782.4678951709906
 30
0.0000000000000000
 11
1254.611741507732
 21
782.9678951709906
 31
0.0000000000000000
 70
32
  3
MAIN001
100
AcDbAlignedDimension
 13
1302.111741507737
 23
751.0202681166886
 33
0.0000000000000000
 14
1207.111741507726
 24
739.0202681166909
 34
0.0000000000000000
100
AcDbRotatedDimension
1001
ACAD
1000
DSTYLE
1002
{
1070
   173
1070
     1
1070
     6
1000
_OPEN
1070
     7
1000
_OPEN
1070
    41
1040
8.000000
1002
}
  0
DIMENSION
  5
37D
100
AcDbEntity
  8
MAIN0
  6
CONTINUOUS
 62
3
100
AcDbDimension
  2
*D39
 10
1155.111741507560
 20
810.8129513498318
 30
0.0000000000000000
 11
1228.611741507649
 21
811.3129513498318
 31
0.0000000000000000
 70
32
  3
MAIN001
100
AcDbAlignedDimension
 13
1302.111741507737
 23
751.0202681166886
 33
0.0000000000000000
 14
1155.111741507560
 24
526.0202681166886
 34
0.0000000000000000
100
AcDbRotatedDimension
1001
ACAD
1000
DSTYLE
1002
{
1070
   173
1070
     1
1070
     6
1000
_OPEN
1070
     7
1000
_OPEN
1070
    41
1040
8.000000
1002
}
  0
DIMENSION
  5
386
100
AcDbEntity
  8
MAIN0
  6
CONTINUOUS
 62
3
100
AcDbDimension
  2
*D40
 10
1337.654170837778
 20
347.6312670301721
 30
0.0000000000000000
 11
1373.154170837778
 21
348.1312670301721
 31
0.0000000000000000
 70
32
  3
MAIN001
100
AcDbAlignedDimension
 13
1408.654170837778
 23
433.0202681166945
 33
0.0000000000000000
 14
1337.654170837778
 24
463.0202681166944
 34
0.0000000000000000
100
AcDbRotatedDimension
1001
ACAD
1000
DSTYLE
1002
{
1070
   173
1070
     1
1070
     6
1000
_OPEN
1070
     7
1000
_OPEN
1070
    41
1040
8.000000
1002
}
  0
DIMENSION
  5
38F
100
AcDbEntity
  8
MAIN0
  6
CONTINUOUS
 62
3
100
AcDbDimension
  2
*D41
 10
1408.654170837778
 20
347.6312670301721
 30
0.0000000000000000
 11
1509.654170837778
 21
348.1312670301721
 31
0.0000000000000000
 70
32
  3
MAIN001
100
AcDbAlignedDimension
 13
1610.654170837778
 23
433.0202681166945
 33
0.0000000000000000
 14
1408.654170837778
 24
433.0202681166945
 34
0.0000000000000000
100
AcDbRotatedDimension
1001
ACAD
1000
DSTYLE
1002
{
1070
   173
1070
     1
1070
     6
1000
_OPEN
1070
     7
1000
_OPEN
1070
    41
1040
8.000000
1002
}
  0
INSERT
  5
397
100
AcDbEntity
  8
MAIN0
  6
CONTINUOUS
 62
3
100
AcDbBlockReference
  2
D42
 10
1509.654170837536
 20
412.9802291287842
 30
0.0000000000000000
 50
0.0000000000000000
  0
DIMENSION
  5
3A0
100
AcDbEntity
  8
MAIN0
  6
CONTINUOUS
 62
3
100
AcDbDimension
  2
*D43
 10
1116.936825589335
 20
433.0202681166948
 30
0.0000000000000000
 11
1116.436825589335
 21
479.5202681166917
 31
0.0000000000000000
 70
32
  3
MAIN001
100
AcDbAlignedDimension
 13
1147.070134219072
 23
526.0202681166886
 33
0.0000000000000000
 14
985.2709459281039
 24
433.0202681166948
 34
0.0000000000000000
 50
90.00000000000000
100
AcDbRotatedDimension
1001
ACAD
1000
DSTYLE
1002
{
1070
   173
1070
     1
1070
     6
1000
_OPEN
1070
     7
1000
_OPEN
1070
    41
1040
8.000000
1002
}
  0
DIMENSION
  5
3A9
100
AcDbEntity
  8
MAIN0
  6
CONTINUOUS
 62
3
100
AcDbDimension
  2
*D44
 10
1116.936825589335
 20
526.0202681166886
 30
0.0000000000000000
 11
1116.436825589335
 21
638.5202681166886
 31
0.0000000000000000
 70
32
  3
MAIN001
100
AcDbAlignedDimension
 13
1192.423072050306
 23
751.0202681166886
 33
0.0000000000000000
 14
1147.070134219072
 24
526.0202681166886
 34
0.0000000000000000
 50
90.00000000000000
100
AcDbRotatedDimension
1001
ACAD
1000
DSTYLE
1002
{
1070
   173
1070
     1
1070
     6
1000
_OPEN
1070
     7
1000
_OPEN
1070
    41
1040
8.000000
1002
}
  0
DIMENSION
  5
3B3
100
AcDbEntity
  8
MAIN0
  6
CONTINUOUS
 62
3
100
AcDbDimension
  2
*D45
 10
732.6426373226035
 20
568.0202681166954
 30
0.0000000000000000
 11
730.6426373226035
 21
579.9882790429684
 31
0.0000000000000000
 70
160
  3
MAIN001
100
AcDbAlignedDimension
 13
770.1137610115338
 23
589.2202681166887
 33
0.0000000000000000
 14
770.1137610115338
 24
568.0202681166954
 34
0.0000000000000000
 50
90.00000000000000
100
AcDbRotatedDimension
1001
ACAD
1000
DSTYLE
1002
{
1070
   173
1070
     1
1070
     6
1000
_OPEN
1070
     7
1000
_OPEN
1070
    41
1040
8.000000
1070
   287
1070
     0
1002
}
  0
LINE
  5
3B4
100
AcDbEntity
  8
MAIN0
  6
CONTINUOUS
 62
3
100
AcDbLine
 10
877.1137459281038
 20
589.2202681166887
 30
0.0000000000000000
 11
877.1137459281038
 21
552.2202681166885
 31
0.0000000000000000
  0
LINE
  5
3B5
100
AcDbEntity
  8
MAIN0
  6
CONTINUOUS
 62
3
100
AcDbLine
 10
877.1137459281038
 20
1031.520222774888
 30
0.0000000000000000
 11
877.1137459281038
 21
820.5202227748875
 31
0.0000000000000000
  0
LINE
  5
3B6
100
AcDbEntity
  8
MAIN0
  6
CONTINUOUS
 62
3
100
AcDbLine
 10
937.1137459281038
 20
579.2202681166887
 30
0.0000000000000000
 11
937.1137459281038
 21
554.2202681166888
 31
0.0000000000000000
  0
LINE
  5
3B7
100
AcDbEntity
  8
MAIN0
  6
CONTINUOUS
 62
3
100
AcDbLine
 10
937.1137459281038
 20
1030.020222774887
 30
0.0000000000000000
 11
937.1137459281038
 21
822.0202227748875
 31
0.0000000000000000
  0
LINE
  5
3B8
100
AcDbEntity
  8
MAIN0
  6
CENTER
 62
3
100
AcDbLine
 10
1253.868370943308
 20
488.9705296502737
 30
0.0000000000000000
 11
1253.868370943280
 21
396.0094512695932
 31
0.0000000000000000
  0
LINE
  5
3B9
100
AcDbEntity
  8
MAIN0
  6
CONTINUOUS
 62
3
100
AcDbLine
 10
1231.368370943301
 20
463.0202681167499
 30
0.0000000000000000
 11
1233.040502090832
 21
433.0202681168686
 31
0.0000000000000000
  0
LINE
  5
3BA
100
AcDbEntity
  8
MAIN0
  6
CONTINUOUS
 62
3
100
AcDbLine
 10
1276.368370943299
 20
463.0202681167363
 30
0.0000000000000000
 11
1274.696239795749
 21
433.0202681168560
 31
0.0000000000000000
  0
LINE
  5
3BB
100
AcDbEntity
  8
MAIN0
  6
CONTINUOUS
 62
3
100
AcDbLine
 10
1231.368370943300
 20
463.0202681167501
 30
0.0000000000000000
 11
1276.368370943300
 21
463.0202681167363
 31
0.0000000000000000
  0
LINE
  5
3BC
100
AcDbEntity
  8
MAIN0
  6
CONTINUOUS
 62
3
100
AcDbLine
 10
1233.040502090832
 20
433.0202681168687
 30
0.0000000000000000
 11
1274.696239795749
 21
433.0202681168560
 31
0.0000000000000000
  0
DIMENSION
  5
3C5
100
AcDbEntity
  8
MAIN0
  6
CONTINUOUS
 62
3
100
AcDbDimension
  2
*D46
 10
1231.368370943300
 20
496.7932624157906
 30
0.0000000000000000
 11
1253.868370943300
 21
497.2932624157906
 31
0.0000000000000000
 70
32
  3
MAIN001
100
AcDbAlignedDimension
 13
1276.368370943299
 23
463.0202681167360
 33
0.0000000000000000
 14
1231.368370943300
 24
463.0202681167499
 34
0.0000000000000000
100
AcDbRotatedDimension
1001
ACAD
1000
DSTYLE
1002
{
1070
   173
1070
     1
1070
     6
1000
_OPEN
1070
     7
1000
_OPEN
1070
    41
1040
8.000000
1002
}
  0
DIMENSION
  5
3D0
100
AcDbEntity
  8
MAIN0
  6
CONTINUOUS
 62
3
100
AcDbDimension
  2
*D47
 10
1436.818300485492
 20
284.9967935780071
 30
0.0000000000000000
 11
1434.818300485492
 21
242.5991348752432
 31
0.0000000000000000
 70
160
  3
MAIN001
100
AcDbAlignedDimension
 13
1400.654170837751
 23
267.4967935779989
 33
0.0000000000000000
 14
1400.654170837739
 24
284.9967935779988
 34
0.0000000000000000
 50
90.00000000000000
100
AcDbRotatedDimension
1001
ACAD
1000
DSTYLE
1002
{
1070
   173
1070
     1
1070
     6
1000
_OPEN
1070
     7
1000
_OPEN
1070
    41
1040
8.000000
1070
   287
1070
     0
1002
}
  0
DIMENSION
  5
3DB
100
AcDbEntity
  8
MAIN0
  6
CONTINUOUS
 62
3
100
AcDbDimension
  2
*D48
 10
1341.353634305975
 20
290.4967935779987
 30
0.0000000000000000
 11
1340.853634305975
 21
276.2467935779988
 31
0.0000000000000000
 70
32
  3
MAIN001
100
AcDbAlignedDimension
 13
1370.654170837755
 23
261.9967935780072
 33
0.0000000000000000
 14
1370.654170837735
 24
290.4967935780070
 34
0.0000000000000000
 50
90.00000000000000
100
AcDbRotatedDimension
1001
ACAD
1000
DSTYLE
1002
{
1070
   173
1070
     1
1070
     6
1000
_OPEN
1070
     7
1000
_OPEN
1070
    41
1040
8.000000
1070
   287
1070
     0
1002
}
  0
DIMENSION
  5
3E6
100
AcDbEntity
  8
MAIN0
  6
CONTINUOUS
 62
3
100
AcDbDimension
  2
*D49
 10
1370.654170837755
 20
226.1034822505390
 30
0.0000000000000000
 11
1385.654170837755
 21
226.6034822505390
 31
0.0000000000000000
 70
32
  3
MAIN001
100
AcDbAlignedDimension
 13
1400.654170837755
 23
261.9967935779989
 33
0.0000000000000000
 14
1370.654170837755
 24
261.9967935780072
 34
0.0000000000000000
100
AcDbRotatedDimension
1001
ACAD
1000
DSTYLE
1002
{
1070
   173
1070
     1
1070
     6
1000
_OPEN
1070
     7
1000
_OPEN
1070
    41
1040
8.000000
1070
   287
1070
     0
1002
}
  0
DIMENSION
  5
3EF
100
AcDbEntity
  8
MAIN0
  6
CONTINUOUS
 62
3
100
AcDbDimension
  2
*D50
 10
480.2709459281037
 20
330.2733386367724
 30
0.0000000000000000
 11
732.7709459281037
 21
330.7733386367724
 31
0.0000000000000000
 70
32
  3
MAIN001
100
AcDbAlignedDimension
 13
985.2709459281037
 23
433.0202681166948
 33
0.0000000000000000
 14
480.2709459281037
 24
433.0202681166963
 34
0.0000000000000000
100
AcDbRotatedDimension
1001
ACAD
1000
DSTYLE
1002
{
1070
   173
1070
     1
1070
     6
1000
_OPEN
1070
     7
1000
_OPEN
1070
    41
1040
8.000000
1002
}
  0
DIMENSION
  5
3F8
100
AcDbEntity
  8
MAIN0
  6
CONTINUOUS
 62
3
100
AcDbDimension
  2
*D51
 10
985.2709459281037
 20
330.2733386367724
 30
0.0000000000000000
 11
1035.270945928104
 21
330.7733386367724
 31
0.0000000000000000
 70
32
  3
MAIN001
100
AcDbAlignedDimension
 13
1085.270945928104
 23
501.0202681166944
 33
0.0000000000000000
 14
985.2709459281037
 24
433.0202681166948
 34
0.0000000000000000
100
AcDbRotatedDimension
1001
ACAD
1000
DSTYLE
1002
{
1070
   173
1070
     1
1070
     6
1000
_OPEN
1070
     7
1000
_OPEN
1070
    41
1040
8.000000
1002
}
  0
DIMENSION
  5
401
100
AcDbEntity
  8
MAIN0
  6
CONTINUOUS
 62
3
100
AcDbDimension
  2
*D52
 10
438.9737737899559
 20
433.0202681166958
 30
0.0000000000000000
 11
438.4737737899559
 21
500.5202681166960
 31
0.0000000000000000
 70
32
  3
MAIN001
100
AcDbAlignedDimension
 13
480.2709459281039
 23
568.0202681166963
 33
0.0000000000000000
 14
480.2709459281039
 24
433.0202681166962
 34
0.0000000000000000
 50
90.00000000000000
100
AcDbRotatedDimension
1001
ACAD
1000
DSTYLE
1002
{
1070
   173
1070
     1
1070
     6
1000
_OPEN
1070
     7
1000
_OPEN
1070
    41
1040
8.000000
1002
}
  0
DIMENSION
  5
40A
100
AcDbEntity
  8
MAIN0
  6
CONTINUOUS
 62
3
100
AcDbDimension
  2
*D53
 10
438.9737737899559
 20
568.0202681166963
 30
0.0000000000000000
 11
438.4737737899559
 21
595.5202681166963
 31
0.0000000000000000
 70
32
  3
MAIN001
100
AcDbAlignedDimension
 13
482.2709459281040
 23
623.0202681166963
 33
0.0000000000000000
 14
480.2709459281039
 24
568.0202681166963
 34
0.0000000000000000
 50
90.00000000000000
100
AcDbRotatedDimension
1001
ACAD
1000
DSTYLE
1002
{
1070
   173
1070
     1
1070
     6
1000
_OPEN
1070
     7
1000
_OPEN
1070
    41
1040
8.000000
1002
}
  0
DIMENSION
  5
413
100
AcDbEntity
  8
MAIN0
  6
CONTINUOUS
 62
3
100
AcDbDimension
  2
*D54
 10
408.3832490240783
 20
433.0202681166958
 30
0.0000000000000000
 11
407.8832490240783
 21
528.0202681166960
 31
0.0000000000000000
 70
32
  3
MAIN001
100
AcDbAlignedDimension
 13
482.2709459281040
 23
623.0202681166963
 33
0.0000000000000000
 14
480.2709459281039
 24
433.0202681166962
 34
0.0000000000000000
 50
90.00000000000000
100
AcDbRotatedDimension
1001
ACAD
1000
DSTYLE
1002
{
1070
   173
1070
     1
1070
     6
1000
_OPEN
1070
     7
1000
_OPEN
1070
    41
1040
8.000000
1002
}
  0
LINE
  5
414
100
AcDbEntity
  8
MAIN0
  6
CONTINUOUS
 62
3
100
AcDbLine
 10
1414.654170837778
 20
454.0202681166944
 30
0.0000000000000000
 11
1414.654170837778
 21
463.0202681166944
 31
0.0000000000000000
  0
CIRCLE
  5
415
100
AcDbEntity
  8
MAIN0
  6
CONTINUOUS
 62
3
100
AcDbCircle
 10
595.2709459281037
 20
518.0202681166960
 30
0.0000000000000000
 40
5.000000000000000
  0
CIRCLE
  5
416
100
AcDbEntity
  8
MAIN0
  6
CONTINUOUS
 62
3
100
AcDbCircle
 10
595.2709459281037
 20
518.0202681166960
 30
0.0000000000000000
 40
4.250000000000000
  0
CIRCLE
  5
417
100
AcDbEntity
  8
MAIN0
  6
CONTINUOUS
 62
3
100
AcDbCircle
 10
870.2709459281037
 20
518.0202681166951
 30
0.0000000000000000
 40
5.000000000000000
  0
CIRCLE
  5
418
100
AcDbEntity
  8
MAIN0
  6
CONTINUOUS
 62
3
100
AcDbCircle
 10
870.2709459281037
 20
518.0202681166951
 30
0.0000000000000000
 40
4.250000000000000
  0
CIRCLE
  5
419
100
AcDbEntity
  8
MAIN0
  6
CONTINUOUS
 62
3
100
AcDbCircle
 10
1570.654170837778
 20
553.0202681166945
 30
0.0000000000000000
 40
9.000000000000000
  0
LINE
  5
41A
100
AcDbEntity
  8
MAIN0
  6
CONTINUOUS
 62
3
100
AcDbLine
 10
1570.654170837778
 20
558.7937708085907
 30
0.0000000000000000
 11
1565.654170837778
 21
555.9070194626426
 31
0.0000000000000000
  0
LINE
  5
41B
100
AcDbEntity
  8
MAIN0
  6
CONTINUOUS
 62
3
100
AcDbLine
 10
1565.654170837778
 20
555.9070194626426
 30
0.0000000000000000
 11
1565.654170837778
 21
550.1335167707464
 31
0.0000000000000000
  0
LINE
  5
41C
100
AcDbEntity
  8
MAIN0
  6
CONTINUOUS
 62
3
100
AcDbLine
 10
1565.654170837778
 20
550.1335167707464
 30
0.0000000000000000
 11
1570.654170837778
 21
547.2467654247982
 31
0.0000000000000000
  0
LINE
  5
41D
100
AcDbEntity
  8
MAIN0
  6
CONTINUOUS
 62
3
100
AcDbLine
 10
1570.654170837778
 20
547.2467654247982
 30
0.0000000000000000
 11
1575.654170837778
 21
550.1335167707464
 31
0.0000000000000000
  0
LINE
  5
41E
100
AcDbEntity
  8
MAIN0
  6
CONTINUOUS
 62
3
100
AcDbLine
 10
1575.654170837778
 20
550.1335167707464
 30
0.0000000000000000
 11
1575.654170837778
 21
555.9070194626426
 31
0.0000000000000000
  0
LINE
  5
41F
100
AcDbEntity
  8
MAIN0
  6
CONTINUOUS
 62
3
100
AcDbLine
 10
1575.654170837778
 20
555.9070194626427
 30
0.0000000000000000
 11
1570.654170837778
 21
558.7937708085908
 31
0.0000000000000000
  0
CIRCLE
  5
420
100
AcDbEntity
  8
MAIN0
  6
CONTINUOUS
 62
3
100
AcDbCircle
 10
1542.654170837778
 20
526.0202681166945
 30
0.0000000000000000
 40
4.250000000000000
  0
LINE
  5
421
100
AcDbEntity
  8
MAIN0
  6
CONTINUOUS
 62
3
100
AcDbLine
 10
1542.654170837778
 20
528.3296691934529
 30
0.0000000000000000
 11
1540.654170837778
 21
527.1749686550738
 31
0.0000000000000000
  0
LINE
  5
422
100
AcDbEntity
  8
MAIN0
  6
CONTINUOUS
 62
3
100
AcDbLine
 10
1540.654170837778
 20
527.1749686550737
 30
0.0000000000000000
 11
1540.654170837778
 21
524.8655675783152
 31
0.0000000000000000
  0
LINE
  5
423
100
AcDbEntity
  8
MAIN0
  6
CONTINUOUS
 62
3
100
AcDbLine
 10
1540.654170837778
 20
524.8655675783151
 30
0.0000000000000000
 11
1542.654170837778
 21
523.7108670399359
 31
0.0000000000000000
  0
LINE
  5
424
100
AcDbEntity
  8
MAIN0
  6
CONTINUOUS
 62
3
100
AcDbLine
 10
1542.654170837778
 20
523.7108670399362
 30
0.0000000000000000
 11
1544.654170837778
 21
524.8655675783152
 31
0.0000000000000000
  0
LINE
  5
425
100
AcDbEntity
  8
MAIN0
  6
CONTINUOUS
 62
3
100
AcDbLine
 10
1544.654170837778
 20
524.8655675783152
 30
0.0000000000000000
 11
1544.654170837778
 21
527.1749686550737
 31
0.0000000000000000
  0
LINE
  5
426
100
AcDbEntity
  8
MAIN0
  6
CONTINUOUS
 62
3
100
AcDbLine
 10
1544.654170837778
 20
527.1749686550736
 30
0.0000000000000000
 11
1542.654170837778
 21
528.3296691934529
 31
0.0000000000000000
  0
CIRCLE
  5
427
100
AcDbEntity
  8
MAIN0
  6
CONTINUOUS
 62
3
100
AcDbCircle
 10
1476.654170837778
 20
526.0202681166945
 30
0.0000000000000000
 40
4.250000000000000
  0
LINE
  5
428
100
AcDbEntity
  8
MAIN0
  6
CONTINUOUS
 62
3
100
AcDbLine
 10
1476.654170837778
 20
528.3296691934530
 30
0.0000000000000000
 11
1474.654170837778
 21
527.1749686550736
 31
0.0000000000000000
  0
LINE
  5
429
100
AcDbEntity
  8
MAIN0
  6
CONTINUOUS
 62
3
100
AcDbLine
 10
1474.654170837778
 20
527.1749686550737
 30
0.0000000000000000
 11
1474.654170837778
 21
524.8655675783152
 31
0.0000000000000000
  0
LINE
  5
42A
100
AcDbEntity
  8
MAIN0
  6
CONTINUOUS
 62
3
100
AcDbLine
 10
1474.654170837778
 20
524.8655675783152
 30
0.0000000000000000
 11
1476.654170837778
 21
523.7108670399359
 31
0.0000000000000000
  0
LINE
  5
42B
100
AcDbEntity
  8
MAIN0
  6
CONTINUOUS
 62
3
100
AcDbLine
 10
1476.654170837778
 20
523.7108670399359
 30
0.0000000000000000
 11
1478.654170837778
 21
524.8655675783152
 31
0.0000000000000000
  0
LINE
  5
42C
100
AcDbEntity
  8
MAIN0
  6
CONTINUOUS
 62
3
100
AcDbLine
 10
1478.654170837778
 20
524.8655675783152
 30
0.0000000000000000
 11
1478.654170837778
 21
527.1749686550737
 31
0.0000000000000000
  0
LINE
  5
42D
100
AcDbEntity
  8
MAIN0
  6
CONTINUOUS
 62
3
100
AcDbLine
 10
1478.654170837778
 20
527.1749686550737
 30
0.0000000000000000
 11
1476.654170837778
 21
528.3296691934529
 31
0.0000000000000000
  0
LINE
  5
42E
100
AcDbEntity
  8
MAIN0
  6
CONTINUOUS
 62
3
100
AcDbLine
 10
1406.854170837536
 20
569.2202681166946
 30
0.0000000000000000
 11
1612.454170837536
 21
569.2202681166946
 31
0.0000000000000000
  0
LINE
  5
42F
100
AcDbEntity
  8
MAIN0
  6
CONTINUOUS
 62
3
100
AcDbLine
 10
1412.654170837536
 20
553.4202681166945
 30
0.0000000000000000
 11
1407.454170938197
 21
553.4202681166945
 31
0.0000000000000000
  0
LINE
  5
430
100
AcDbEntity
  8
MAIN0
  6
CONTINUOUS
 62
3
100
AcDbLine
 10
1611.854170878933
 20
553.4202681166945
 30
0.0000000000000000
 11
1606.654170837536
 21
553.4202681166945
 31
0.0000000000000000
  0
LINE
  5
431
100
AcDbEntity
  8
MAIN0
  6
CONTINUOUS
 62
3
100
AcDbLine
 10
1406.654170631119
 20
552.2202681166945
 30
0.0000000000000000
 11
1412.654170837536
 21
552.2202681166945
 31
0.0000000000000000
  0
LINE
  5
432
100
AcDbEntity
  8
MAIN0
  6
CONTINUOUS
 62
3
100
AcDbLine
 10
1606.654170837536
 20
552.2202681166945
 30
0.0000000000000000
 11
1612.654170461174
 21
552.2202681166945
 31
0.0000000000000000
  0
ARC
  5
433
100
AcDbEntity
  8
MAIN0
  6
CONTINUOUS
 62
3
100
AcDbCircle
 10
1407.454170837536
 20
554.0202681166945
 30
0.0000000000000000
 40
0.6000000000000000
100
AcDbArc
 50
179.9999999999964
 51
269.9999999999947
  0
ARC
  5
434
100
AcDbEntity
  8
MAIN0
  6
CONTINUOUS
 62
3
100
AcDbCircle
 10
1611.854170837536
 20
554.0202681166945
 30
0.0000000000000000
 40
0.6000000000000000
100
AcDbArc
 50
269.9999999999947
 51
359.9999999999934
  0
ARC
  5
435
100
AcDbEntity
  8
MAIN0
  6
CONTINUOUS
 62
3
100
AcDbCircle
 10
1612.654170837536
 20
553.2202681166945
 30
0.0000000000000000
 40
1.000000000000000
100
AcDbArc
 50
270.0000000005678
 51
359.9999999999934
  0
ARC
  5
436
100
AcDbEntity
  8
MAIN0
  6
CONTINUOUS
 62
3
100
AcDbCircle
 10
1406.654170837536
 20
553.2202681166945
 30
0.0000000000000000
 40
1.000000000000000
100
AcDbArc
 50
179.9999999999964
 51
269.9999999999942
  0
LINE
  5
437
100
AcDbEntity
  8
MAIN0
  6
CONTINUOUS
 62
3
100
AcDbLine
 10
1606.654170837536
 20
553.4202681166946
 30
0.0000000000000000
 11
1606.654170837536
 21
552.2202681166946
 31
0.0000000000000000
  0
LINE
  5
438
100
AcDbEntity
  8
MAIN0
  6
CONTINUOUS
 62
3
100
AcDbLine
 10
1412.654170837536
 20
553.4202681166945
 30
0.0000000000000000
 11
1412.654170837536
 21
552.2202681166945
 31
0.0000000000000000
  0
LINE
  5
439
100
AcDbEntity
  8
MAIN0
  6
CONTINUOUS
 62
3
100
AcDbLine
 10
1405.654170837536
 20
553.2202683089728
 30
0.0000000000000000
 11
1405.654170837536
 21
578.2202681166887
 31
0.0000000000000000
  0
LINE
  5
43A
100
AcDbEntity
  8
MAIN0
  6
CONTINUOUS
 62
3
100
AcDbLine
 10
1406.854170837536
 20
554.0202680336820
 30
0.0000000000000000
 11
1406.854170837536
 21
569.2202681166946
 31
0.0000000000000000
  0
LINE
  5
43B
100
AcDbEntity
  8
MAIN0
  6
CONTINUOUS
 62
3
100
AcDbLine
 10
1613.654170837536
 20
553.2202683094513
 30
0.0000000000000000
 11
1613.654170837536
 21
578.2202681166887
 31
0.0000000000000000
  0
LINE
  5
43C
100
AcDbEntity
  8
MAIN0
  6
CONTINUOUS
 62
3
100
AcDbLine
 10
1612.454170837536
 20
554.0202679598242
 30
0.0000000000000000
 11
1612.454170837536
 21
569.2202681166945
 31
0.0000000000000000
  0
LINE
  5
43D
100
AcDbEntity
  8
MAIN0
  6
CENTER
 62
3
100
AcDbLine
 10
1509.654170837536
 20
589.2202681166946
 30
0.0000000000000000
 11
1509.654170837536
 21
594.6024558856884
 31
0.0000000000000000
  0
LINE
  5
43E
100
AcDbEntity
  8
MAIN0
  6
CONTINUOUS
 62
3
100
AcDbLine
 10
1405.154170824767
 20
589.2202681166946
 30
0.0000000000000000
 11
1614.154168550083
 21
589.2202681166946
 31
0.0000000000000000
  0
LINE
  5
43F
100
AcDbEntity
  8
MAIN0
  6
CONTINUOUS
 62
3
100
AcDbLine
 10
1615.154170837536
 20
588.2202681166946
 30
0.0000000000000000
 11
1615.154170837536
 21
552.2202681166945
 31
0.0000000000000000
  0
LINE
  5
440
100
AcDbEntity
  8
MAIN0
  6
CONTINUOUS
 62
3
100
AcDbLine
 10
1613.954170837536
 20
579.2202681166887
 30
0.0000000000000000
 11
1613.954170837536
 21
552.2202681166945
 31
0.0000000000000000
  0
LINE
  5
441
100
AcDbEntity
  8
MAIN0
  6
CONTINUOUS
 62
3
100
AcDbLine
 10
1404.154170837536
 20
588.2202681166946
 30
0.0000000000000000
 11
1404.154170837536
 21
552.2202681166946
 31
0.0000000000000000
  0
LINE
  5
442
100
AcDbEntity
  8
MAIN0
  6
CONTINUOUS
 62
3
100
AcDbLine
 10
1405.354170837536
 20
579.2202681166887
 30
0.0000000000000000
 11
1405.354170837536
 21
552.2202681166946
 31
0.0000000000000000
  0
ARC
  5
443
100
AcDbEntity
  8
MAIN0
  6
CONTINUOUS
 62
3
100
AcDbCircle
 10
1614.154170837536
 20
588.2202681166946
 30
0.0000000000000000
 40
1.000000000000000
100
AcDbArc
 50
0.0000000000000000
 51
89.99999999999838
  0
ARC
  5
444
100
AcDbEntity
  8
MAIN0
  6
CONTINUOUS
 62
3
100
AcDbCircle
 10
1405.154170837536
 20
588.2202681166946
 30
0.0000000000000000
 40
1.000000000000000
100
AcDbArc
 50
89.99999999999720
 51
179.9999999999964
  0
LINE
  5
445
100
AcDbEntity
  8
MAIN0
  6
CONTINUOUS
 62
3
100
AcDbLine
 10
1404.154170837536
 20
552.2202681166945
 30
0.0000000000000000
 11
1405.354170837536
 21
552.2202681166945
 31
0.0000000000000000
  0
LINE
  5
446
100
AcDbEntity
  8
MAIN0
  6
CONTINUOUS
 62
3
100
AcDbLine
 10
1613.954170837536
 20
552.2202681166945
 30
0.0000000000000000
 11
1615.154170837536
 21
552.2202681166945
 31
0.0000000000000000
  0
LINE
  5
447
100
AcDbEntity
  8
MAIN0
  6
CONTINUOUS
 62
3
100
AcDbLine
 10
1406.854170837536
 20
569.2202681166946
 30
0.0000000000000000
 11
1462.654170837536
 21
569.2202681166946
 31
0.0000000000000000
  0
LINE
  5
448
100
AcDbEntity
  8
MAIN0
  6
CONTINUOUS
 62
3
100
AcDbLine
 10
1556.654170837536
 20
569.2202681166946
 30
0.0000000000000000
 11
1612.454170837536
 21
569.2202681166946
 31
0.0000000000000000
  0
LINE
  5
449
100
AcDbEntity
  8
MAIN0
  6
CENTER
 62
3
100
AcDbLine
 10
1509.654170837536
 20
589.2202681166946
 30
0.0000000000000000
 11
1509.654170837536
 21
607.4325829175757
 31
0.0000000000000000
  0
LINE
  5
44A
100
AcDbEntity
  8
MAIN0
  6
CENTER
 62
3
100
AcDbLine
 10
1215.661943610279
 20
526.0202681166886
 30
0.0000000000000000
 11
1147.070134219072
 21
526.0202681166886
 31
0.0000000000000000
  0
LINE
  5
44B
100
AcDbEntity
  8
MAIN0
  6
CONTINUOUS
 62
3
100
AcDbLine
 10
1397.654170837778
 20
468.0202681166944
 30
0.0000000000000000
 11
1397.654170837778
 21
482.4202681166944
 31
0.0000000000000000
  0
LINE
  5
44C
100
AcDbEntity
  8
MAIN0
  6
CONTINUOUS
 62
3
100
AcDbLine
 10
1397.654170837778
 20
482.4202681166944
 30
0.0000000000000000
 11
1394.882889545668
 21
484.0202681166945
 31
0.0000000000000000
  0
LINE
  5
44D
100
AcDbEntity
  8
MAIN0
  6
CONTINUOUS
 62
3
100
AcDbLine
 10
1394.882889545668
 20
484.0202681166944
 30
0.0000000000000000
 11
1376.425452129888
 21
484.0202681166944
 31
0.0000000000000000
  0
LINE
  5
44E
100
AcDbEntity
  8
MAIN0
  6
CONTINUOUS
 62
3
100
AcDbLine
 10
1376.425452129888
 20
484.0202681166944
 30
0.0000000000000000
 11
1373.654170837778
 21
482.4202681166943
 31
0.0000000000000000
  0
LINE
  5
44F
100
AcDbEntity
  8
MAIN0
  6
CONTINUOUS
 62
3
100
AcDbLine
 10
1373.654170837778
 20
482.4202681166944
 30
0.0000000000000000
 11
1373.654170837778
 21
468.0202681166944
 31
0.0000000000000000
  0
LINE
  5
450
100
AcDbEntity
  8
MAIN0
  6
CONTINUOUS
 62
3
100
AcDbLine
 10
1397.654170837778
 20
482.4202681166944
 30
0.0000000000000000
 11
1373.654170837778
 21
482.4202681166944
 31
0.0000000000000000
  0
LINE
  5
451
100
AcDbEntity
  8
MAIN0
  6
CONTINUOUS
 62
3
100
AcDbLine
 10
1393.654170837778
 20
443.0202681166944
 30
0.0000000000000000
 11
1393.654170837778
 21
422.0202681166944
 31
0.0000000000000000
  0
LINE
  5
452
100
AcDbEntity
  8
MAIN0
  6
CONTINUOUS
 62
3
100
AcDbLine
 10
1377.654170837778
 20
422.0202681166944
 30
0.0000000000000000
 11
1377.654170837778
 21
443.0202681166944
 31
0.0000000000000000
  0
LINE
  5
453
100
AcDbEntity
  8
MAIN0
  6
CONTINUOUS
 62
3
100
AcDbLine
 10
1392.571638837778
 20
443.0202681166944
 30
0.0000000000000000
 11
1392.571638837778
 21
422.0202681166944
 31
0.0000000000000000
  0
LINE
  5
454
100
AcDbEntity
  8
MAIN0
  6
CONTINUOUS
 62
3
100
AcDbLine
 10
1378.736702837778
 20
443.0202681166944
 30
0.0000000000000000
 11
1378.736702837778
 21
422.0202681166944
 31
0.0000000000000000
  0
LINE
  5
455
100
AcDbEntity
  8
MAIN0
  6
CONTINUOUS
 62
3
100
AcDbLine
 10
480.2709459281037
 20
1027.020222774888
 30
0.0000000000000000
 11
770.1137459281038
 21
1027.020222774887
 31
0.0000000000000000
  0
LINE
  5
456
100
AcDbEntity
  8
MAIN0
  6
CONTINUOUS
 62
3
100
AcDbLine
 10
770.1137459281038
 20
825.0202227748875
 30
0.0000000000000000
 11
480.2709459281037
 21
825.0202227748875
 31
0.0000000000000000
  0
LINE
  5
457
100
AcDbEntity
  8
MAIN0
  6
CONTINUOUS
 62
3
100
AcDbLine
 10
482.2709459281037
 20
1026.020222774888
 30
0.0000000000000000
 11
482.2709459281038
 21
826.0202227748875
 31
0.0000000000000000
  0
LINE
  5
458
100
AcDbEntity
  8
MAIN0
  6
CONTINUOUS
 62
3
100
AcDbLine
 10
480.2709459281037
 20
1027.020222774888
 30
0.0000000000000000
 11
480.2709459281037
 21
825.0202227748877
 31
0.0000000000000000
  0
LINE
  5
459
100
AcDbEntity
  8
MAIN0
  6
CONTINUOUS
 62
3
100
AcDbLine
 10
770.1137459281038
 20
1031.520222774888
 30
0.0000000000000000
 11
770.1137459281038
 21
826.0202227748875
 31
0.0000000000000000
  0
LINE
  5
45A
100
AcDbEntity
  8
MAIN0
  6
CONTINUOUS
 62
3
100
AcDbLine
 10
673.1137459281038
 20
1026.020222774888
 30
0.0000000000000000
 11
673.1137459281038
 21
826.0202227748875
 31
0.0000000000000000
  0
LINE
  5
45B
100
AcDbEntity
  8
MAIN0
  6
CONTINUOUS
 62
3
100
AcDbLine
 10
482.2709459281039
 20
974.0202227748875
 30
0.0000000000000000
 11
480.2709459281037
 21
974.0202227748875
 31
0.0000000000000000
  0
LINE
  5
45C
100
AcDbEntity
  8
MAIN0
  6
CONTINUOUS
 62
3
100
AcDbLine
 10
482.2709459281039
 20
878.0202227748875
 30
0.0000000000000000
 11
480.2709459281037
 21
878.0202227748875
 31
0.0000000000000000
  0
CIRCLE
  5
45D
100
AcDbEntity
  8
MAIN0
  6
HIDDEN
 62
3
100
AcDbCircle
 10
501.2709459281036
 20
856.0202227748875
 30
0.0000000000000000
 40
12.00000000000000
  0
LINE
  5
45E
100
AcDbEntity
  8
MAIN0
  6
HIDDEN
 62
3
100
AcDbLine
 10
501.2709459281037
 20
864.1031265435422
 30
0.0000000000000000
 11
494.2709459281036
 21
860.0616746592148
 31
0.0000000000000000
  0
LINE
  5
45F
100
AcDbEntity
  8
MAIN0
  6
HIDDEN
 62
3
100
AcDbLine
 10
494.2709459281036
 20
860.0616746592149
 30
0.0000000000000000
 11
494.2709459281036
 21
851.9787708905602
 31
0.0000000000000000
  0
LINE
  5
460
100
AcDbEntity
  8
MAIN0
  6
HIDDEN
 62
3
100
AcDbLine
 10
494.2709459281037
 20
851.9787708905601
 30
0.0000000000000000
 11
501.2709459281036
 21
847.9373190062329
 31
0.0000000000000000
  0
LINE
  5
461
100
AcDbEntity
  8
MAIN0
  6
HIDDEN
 62
3
100
AcDbLine
 10
501.2709459281036
 20
847.9373190062329
 30
0.0000000000000000
 11
508.2709459281036
 21
851.9787708905601
 31
0.0000000000000000
  0
LINE
  5
462
100
AcDbEntity
  8
MAIN0
  6
HIDDEN
 62
3
100
AcDbLine
 10
508.2709459281036
 20
851.9787708905602
 30
0.0000000000000000
 11
508.2709459281036
 21
860.0616746592149
 31
0.0000000000000000
  0
LINE
  5
463
100
AcDbEntity
  8
MAIN0
  6
HIDDEN
 62
3
100
AcDbLine
 10
508.2709459281036
 20
860.0616746592148
 30
0.0000000000000000
 11
501.2709459281036
 21
864.1031265435421
 31
0.0000000000000000
  0
CIRCLE
  5
464
100
AcDbEntity
  8
MAIN0
  6
HIDDEN
 62
3
100
AcDbCircle
 10
563.2709459281037
 20
856.0202227748875
 30
0.0000000000000000
 40
12.00000000000000
  0
LINE
  5
465
100
AcDbEntity
  8
MAIN0
  6
HIDDEN
 62
3
100
AcDbLine
 10
563.2709459281039
 20
864.1031265435422
 30
0.0000000000000000
 11
556.2709459281039
 21
860.0616746592148
 31
0.0000000000000000
  0
LINE
  5
466
100
AcDbEntity
  8
MAIN0
  6
HIDDEN
 62
3
100
AcDbLine
 10
556.2709459281037
 20
860.0616746592149
 30
0.0000000000000000
 11
556.2709459281037
 21
851.9787708905602
 31
0.0000000000000000
  0
LINE
  5
467
100
AcDbEntity
  8
MAIN0
  6
HIDDEN
 62
3
100
AcDbLine
 10
556.2709459281037
 20
851.9787708905602
 30
0.0000000000000000
 11
563.2709459281037
 21
847.9373190062329
 31
0.0000000000000000
  0
LINE
  5
468
100
AcDbEntity
  8
MAIN0
  6
HIDDEN
 62
3
100
AcDbLine
 10
563.2709459281037
 20
847.9373190062329
 30
0.0000000000000000
 11
570.2709459281039
 21
851.9787708905602
 31
0.0000000000000000
  0
LINE
  5
469
100
AcDbEntity
  8
MAIN0
  6
HIDDEN
 62
3
100
AcDbLine
 10
570.2709459281037
 20
851.9787708905602
 30
0.0000000000000000
 11
570.2709459281037
 21
860.0616746592149
 31
0.0000000000000000
  0
LINE
  5
46A
100
AcDbEntity
  8
MAIN0
  6
HIDDEN
 62
3
100
AcDbLine
 10
570.2709459281037
 20
860.0616746592148
 30
0.0000000000000000
 11
563.2709459281036
 21
864.1031265435421
 31
0.0000000000000000
  0
CIRCLE
  5
46B
100
AcDbEntity
  8
MAIN0
  6
HIDDEN
 62
3
100
AcDbCircle
 10
563.2709459281037
 20
996.0202227748875
 30
0.0000000000000000
 40
12.00000000000000
  0
LINE
  5
46C
100
AcDbEntity
  8
MAIN0
  6
HIDDEN
 62
3
100
AcDbLine
 10
563.2709459281039
 20
1004.103126543542
 30
0.0000000000000000
 11
556.2709459281039
 21
1000.061674659215
 31
0.0000000000000000
  0
LINE
  5
46D
100
AcDbEntity
  8
MAIN0
  6
HIDDEN
 62
3
100
AcDbLine
 10
556.2709459281037
 20
1000.061674659215
 30
0.0000000000000000
 11
556.2709459281037
 21
991.9787708905602
 31
0.0000000000000000
  0
LINE
  5
46E
100
AcDbEntity
  8
MAIN0
  6
HIDDEN
 62
3
100
AcDbLine
 10
556.2709459281037
 20
991.9787708905602
 30
0.0000000000000000
 11
563.2709459281039
 21
987.9373190062329
 31
0.0000000000000000
  0
LINE
  5
46F
100
AcDbEntity
  8
MAIN0
  6
HIDDEN
 62
3
100
AcDbLine
 10
563.2709459281037
 20
987.9373190062328
 30
0.0000000000000000
 11
570.2709459281039
 21
991.9787708905602
 31
0.0000000000000000
  0
LINE
  5
470
100
AcDbEntity
  8
MAIN0
  6
HIDDEN
 62
3
100
AcDbLine
 10
570.2709459281037
 20
991.9787708905602
 30
0.0000000000000000
 11
570.2709459281037
 21
1000.061674659215
 31
0.0000000000000000
  0
LINE
  5
471
100
AcDbEntity
  8
MAIN0
  6
HIDDEN
 62
3
100
AcDbLine
 10
570.2709459281037
 20
1000.061674659215
 30
0.0000000000000000
 11
563.2709459281037
 21
1004.103126543542
 31
0.0000000000000000
  0
CIRCLE
  5
472
100
AcDbEntity
  8
MAIN0
  6
HIDDEN
 62
3
100
AcDbCircle
 10
692.1137459281038
 20
957.0202227748877
 30
0.0000000000000000
 40
12.00000000000000
  0
LINE
  5
473
100
AcDbEntity
  8
MAIN0
  6
HIDDEN
 62
3
100
AcDbLine
 10
692.1137459281038
 20
965.1031265435422
 30
0.0000000000000000
 11
685.1137459281038
 21
961.0616746592149
 31
0.0000000000000000
  0
LINE
  5
474
100
AcDbEntity
  8
MAIN0
  6
HIDDEN
 62
3
100
AcDbLine
 10
685.1137459281038
 20
961.0616746592150
 30
0.0000000000000000
 11
685.1137459281038
 21
952.9787708905603
 31
0.0000000000000000
  0
LINE
  5
475
100
AcDbEntity
  8
MAIN0
  6
HIDDEN
 62
3
100
AcDbLine
 10
685.1137459281038
 20
952.9787708905602
 30
0.0000000000000000
 11
692.1137459281038
 21
948.9373190062329
 31
0.0000000000000000
  0
LINE
  5
476
100
AcDbEntity
  8
MAIN0
  6
HIDDEN
 62
3
100
AcDbLine
 10
692.1137459281036
 20
948.9373190062329
 30
0.0000000000000000
 11
699.1137459281036
 21
952.9787708905602
 31
0.0000000000000000
  0
LINE
  5
477
100
AcDbEntity
  8
MAIN0
  6
HIDDEN
 62
3
100
AcDbLine
 10
699.1137459281038
 20
952.9787708905603
 30
0.0000000000000000
 11
699.1137459281038
 21
961.0616746592150
 31
0.0000000000000000
  0
LINE
  5
478
100
AcDbEntity
  8
MAIN0
  6
HIDDEN
 62
3
100
AcDbLine
 10
699.1137459281035
 20
961.0616746592148
 30
0.0000000000000000
 11
692.1137459281035
 21
965.1031265435421
 31
0.0000000000000000
  0
CIRCLE
  5
479
100
AcDbEntity
  8
MAIN0
  6
HIDDEN
 62
3
100
AcDbCircle
 10
692.1137459281038
 20
895.0202227748877
 30
0.0000000000000000
 40
12.00000000000000
  0
LINE
  5
47A
100
AcDbEntity
  8
MAIN0
  6
HIDDEN
 62
3
100
AcDbLine
 10
692.1137459281038
 20
903.1031265435423
 30
0.0000000000000000
 11
685.1137459281038
 21
899.0616746592150
 31
0.0000000000000000
  0
LINE
  5
47B
100
AcDbEntity
  8
MAIN0
  6
HIDDEN
 62
3
100
AcDbLine
 10
685.1137459281038
 20
899.0616746592150
 30
0.0000000000000000
 11
685.1137459281038
 21
890.9787708905603
 31
0.0000000000000000
  0
LINE
  5
47C
100
AcDbEntity
  8
MAIN0
  6
HIDDEN
 62
3
100
AcDbLine
 10
685.1137459281038
 20
890.9787708905603
 30
0.0000000000000000
 11
692.1137459281038
 21
886.9373190062330
 31
0.0000000000000000
  0
LINE
  5
47D
100
AcDbEntity
  8
MAIN0
  6
HIDDEN
 62
3
100
AcDbLine
 10
692.1137459281036
 20
886.9373190062330
 30
0.0000000000000000
 11
699.1137459281038
 21
890.9787708905603
 31
0.0000000000000000
  0
LINE
  5
47E
100
AcDbEntity
  8
MAIN0
  6
HIDDEN
 62
3
100
AcDbLine
 10
699.1137459281038
 20
890.9787708905603
 30
0.0000000000000000
 11
699.1137459281038
 21
899.0616746592150
 31
0.0000000000000000
  0
LINE
  5
47F
100
AcDbEntity
  8
MAIN0
  6
HIDDEN
 62
3
100
AcDbLine
 10
699.1137459281036
 20
899.0616746592150
 30
0.0000000000000000
 11
692.1137459281038
 21
903.1031265435422
 31
0.0000000000000000
  0
CIRCLE
  5
480
100
AcDbEntity
  8
MAIN0
  6
HIDDEN
 62
3
100
AcDbCircle
 10
751.1137459281038
 20
957.0202227748877
 30
0.0000000000000000
 40
12.00000000000000
  0
LINE
  5
481
100
AcDbEntity
  8
MAIN0
  6
HIDDEN
 62
3
100
AcDbLine
 10
751.1137459281038
 20
965.1031265435422
 30
0.0000000000000000
 11
744.1137459281036
 21
961.0616746592149
 31
0.0000000000000000
  0
LINE
  5
482
100
AcDbEntity
  8
MAIN0
  6
HIDDEN
 62
3
100
AcDbLine
 10
744.1137459281038
 20
961.0616746592150
 30
0.0000000000000000
 11
744.1137459281038
 21
952.9787708905603
 31
0.0000000000000000
  0
LINE
  5
483
100
AcDbEntity
  8
MAIN0
  6
HIDDEN
 62
3
100
AcDbLine
 10
744.1137459281038
 20
952.9787708905603
 30
0.0000000000000000
 11
751.1137459281038
 21
948.9373190062330
 31
0.0000000000000000
  0
LINE
  5
484
100
AcDbEntity
  8
MAIN0
  6
HIDDEN
 62
3
100
AcDbLine
 10
751.1137459281035
 20
948.9373190062329
 30
0.0000000000000000
 11
758.1137459281038
 21
952.9787708905602
 31
0.0000000000000000
  0
LINE
  5
485
100
AcDbEntity
  8
MAIN0
  6
HIDDEN
 62
3
100
AcDbLine
 10
758.1137459281038
 20
952.9787708905603
 30
0.0000000000000000
 11
758.1137459281038
 21
961.0616746592150
 31
0.0000000000000000
  0
LINE
  5
486
100
AcDbEntity
  8
MAIN0
  6
HIDDEN
 62
3
100
AcDbLine
 10
758.1137459281036
 20
961.0616746592149
 30
0.0000000000000000
 11
751.1137459281038
 21
965.1031265435422
 31
0.0000000000000000
  0
CIRCLE
  5
487
100
AcDbEntity
  8
MAIN0
  6
HIDDEN
 62
3
100
AcDbCircle
 10
751.1137459281038
 20
895.0202227748877
 30
0.0000000000000000
 40
12.00000000000000
  0
LINE
  5
488
100
AcDbEntity
  8
MAIN0
  6
HIDDEN
 62
3
100
AcDbLine
 10
751.1137459281038
 20
903.1031265435422
 30
0.0000000000000000
 11
744.1137459281038
 21
899.0616746592149
 31
0.0000000000000000
  0
LINE
  5
489
100
AcDbEntity
  8
MAIN0
  6
HIDDEN
 62
3
100
AcDbLine
 10
744.1137459281038
 20
899.0616746592150
 30
0.0000000000000000
 11
744.1137459281038
 21
890.9787708905603
 31
0.0000000000000000
  0
LINE
  5
48A
100
AcDbEntity
  8
MAIN0
  6
HIDDEN
 62
3
100
AcDbLine
 10
744.1137459281038
 20
890.9787708905603
 30
0.0000000000000000
 11
751.1137459281038
 21
886.9373190062329
 31
0.0000000000000000
  0
LINE
  5
48B
100
AcDbEntity
  8
MAIN0
  6
HIDDEN
 62
3
100
AcDbLine
 10
751.1137459281038
 20
886.9373190062329
 30
0.0000000000000000
 11
758.1137459281038
 21
890.9787708905602
 31
0.0000000000000000
  0
LINE
  5
48C
100
AcDbEntity
  8
MAIN0
  6
HIDDEN
 62
3
100
AcDbLine
 10
758.1137459281038
 20
890.9787708905603
 30
0.0000000000000000
 11
758.1137459281038
 21
899.0616746592150
 31
0.0000000000000000
  0
LINE
  5
48D
100
AcDbEntity
  8
MAIN0
  6
HIDDEN
 62
3
100
AcDbLine
 10
758.1137459281038
 20
899.0616746592149
 30
0.0000000000000000
 11
751.1137459281038
 21
903.1031265435422
 31
0.0000000000000000
  0
LINE
  5
48E
100
AcDbEntity
  8
MAIN0
  6
CONTINUOUS
 62
3
100
AcDbLine
 10
1085.270945928104
 20
951.0202227748874
 30
0.0000000000000000
 11
1063.770945928104
 21
951.0202227748874
 31
0.0000000000000000
  0
LINE
  5
48F
100
AcDbEntity
  8
MAIN0
  6
CONTINUOUS
 62
3
100
AcDbLine
 10
1085.270945928104
 20
901.0202227748874
 30
0.0000000000000000
 11
1063.770945928104
 21
901.0202227748874
 31
0.0000000000000000
  0
LINE
  5
490
100
AcDbEntity
  8
MAIN0
  6
CONTINUOUS
 62
3
100
AcDbLine
 10
1085.270945928105
 20
951.0202227748874
 30
0.0000000000000000
 11
1085.270945928105
 21
901.0202227748874
 31
0.0000000000000000
  0
LINE
  5
491
100
AcDbEntity
  8
MAIN0
  6
CONTINUOUS
 62
3
100
AcDbLine
 10
770.1137459281038
 20
1031.520222774888
 30
0.0000000000000000
 11
877.1137459281038
 21
1031.520222774888
 31
0.0000000000000000
  0
LINE
  5
492
100
AcDbEntity
  8
MAIN0
  6
CONTINUOUS
 62
3
100
AcDbLine
 10
937.1137459281038
 20
1028.520222774887
 30
0.0000000000000000
 11
996.2709459281036
 21
1028.520222774887
 31
0.0000000000000000
  0
LINE
  5
493
100
AcDbEntity
  8
MAIN0
  6
CONTINUOUS
 62
3
100
AcDbLine
 10
877.1137459281038
 20
1030.020222774887
 30
0.0000000000000000
 11
937.1137459281038
 21
1030.020222774887
 31
0.0000000000000000
  0
LINE
  5
494
100
AcDbEntity
  8
MAIN0
  6
CONTINUOUS
 62
3
100
AcDbLine
 10
996.2709459281036
 20
1028.520222774887
 30
0.0000000000000000
 11
996.2709459281036
 21
926.0202227748874
 31
0.0000000000000000
  0
LINE
  5
495
100
AcDbEntity
  8
MAIN0
  6
CONTINUOUS
 62
3
100
AcDbLine
 10
582.2709459281037
 20
1026.020222774888
 30
0.0000000000000000
 11
582.2709459281037
 21
826.0202227748875
 31
0.0000000000000000
  0
LINE
  5
496
100
AcDbEntity
  8
MAIN0
  6
CONTINUOUS
 62
3
100
AcDbLine
 10
482.2709459281039
 20
1026.020222774888
 30
0.0000000000000000
 11
582.2709459281037
 21
1026.020222774888
 31
0.0000000000000000
  0
LINE
  5
497
100
AcDbEntity
  8
MAIN0
  6
CONTINUOUS
 62
3
100
AcDbLine
 10
673.1137459281038
 20
1026.020222774888
 30
0.0000000000000000
 11
770.1137459281038
 21
1026.020222774888
 31
0.0000000000000000
  0
LINE
  5
498
100
AcDbEntity
  8
MAIN0
  6
CONTINUOUS
 62
3
100
AcDbLine
 10
482.2709459281037
 20
826.0202227748875
 30
0.0000000000000000
 11
582.2709459281037
 21
826.0202227748875
 31
0.0000000000000000
  0
LINE
  5
499
100
AcDbEntity
  8
MAIN0
  6
CONTINUOUS
 62
3
100
AcDbLine
 10
673.1137459281038
 20
826.0202227748875
 30
0.0000000000000000
 11
770.1137459281038
 21
826.0202227748875
 31
0.0000000000000000
  0
LINE
  5
49A
100
AcDbEntity
  8
MAIN0
  6
CONTINUOUS
 62
3
100
AcDbLine
 10
770.1137459281036
 20
820.5202227748875
 30
0.0000000000000000
 11
770.1137459281038
 21
1026.020222774888
 31
0.0000000000000000
  0
LINE
  5
49B
100
AcDbEntity
  8
MAIN0
  6
CONTINUOUS
 62
3
100
AcDbLine
 10
770.1137459281036
 20
820.5202227748875
 30
0.0000000000000000
 11
877.1137459281038
 21
820.5202227748875
 31
0.0000000000000000
  0
LINE
  5
49C
100
AcDbEntity
  8
MAIN0
  6
CONTINUOUS
 62
3
100
AcDbLine
 10
937.1137459281038
 20
823.5202227748875
 30
0.0000000000000000
 11
996.2709459281039
 21
823.5202227748874
 31
0.0000000000000000
  0
LINE
  5
49D
100
AcDbEntity
  8
MAIN0
  6
CONTINUOUS
 62
3
100
AcDbLine
 10
877.1137459281038
 20
822.0202227748875
 30
0.0000000000000000
 11
937.1137459281038
 21
822.0202227748875
 31
0.0000000000000000
  0
LINE
  5
49E
100
AcDbEntity
  8
MAIN0
  6
CONTINUOUS
 62
3
100
AcDbLine
 10
996.2709459281036
 20
823.5202227748875
 30
0.0000000000000000
 11
996.2709459281036
 21
926.0202227748875
 31
0.0000000000000000
  0
LINE
  5
49F
100
AcDbEntity
  8
MAIN0
  6
CONTINUOUS
 62
3
100
AcDbLine
 10
996.2709459281036
 20
1027.020222774887
 30
0.0000000000000000
 11
1036.770945928104
 21
1027.020222774887
 31
0.0000000000000000
  0
LINE
  5
4A0
100
AcDbEntity
  8
MAIN0
  6
CONTINUOUS
 62
3
100
AcDbLine
 10
996.2709459281036
 20
1020.020222774887
 30
0.0000000000000000
 11
1036.770945928104
 21
1020.020222774887
 31
0.0000000000000000
  0
LINE
  5
4A1
100
AcDbEntity
  8
MAIN0
  6
CONTINUOUS
 62
3
100
AcDbLine
 10
996.2709459281039
 20
825.0202227748875
 30
0.0000000000000000
 11
1036.770945928104
 21
825.0202227748875
 31
0.0000000000000000
  0
LINE
  5
4A2
100
AcDbEntity
  8
MAIN0
  6
CONTINUOUS
 62
3
100
AcDbLine
 10
996.2709459281039
 20
832.0202227748875
 30
0.0000000000000000
 11
1036.770945928104
 21
832.0202227748875
 31
0.0000000000000000
  0
LINE
  5
4A3
100
AcDbEntity
  8
MAIN0
  6
CONTINUOUS
 62
3
100
AcDbLine
 10
1036.770945928104
 20
825.0202227748875
 30
0.0000000000000000
 11
1036.770945928104
 21
1027.020222774887
 31
0.0000000000000000
  0
LINE
  5
4A4
100
AcDbEntity
  8
MAIN0
  6
CONTINUOUS
 62
3
100
AcDbLine
 10
1063.770945928104
 20
887.0202227748933
 30
0.0000000000000000
 11
1056.770945928103
 21
887.0202227748933
 31
0.0000000000000000
  0
LINE
  5
4A5
100
AcDbEntity
  8
MAIN0
  6
CONTINUOUS
 62
3
100
AcDbLine
 10
1063.770945928104
 20
965.0202227748933
 30
0.0000000000000000
 11
1056.770945928103
 21
965.0202227748933
 31
0.0000000000000000
  0
LINE
  5
4A6
100
AcDbEntity
  8
MAIN0
  6
CONTINUOUS
 62
3
100
AcDbLine
 10
1036.770945928104
 20
963.0202227748933
 30
0.0000000000000000
 11
1054.770945928226
 21
963.0202227748933
 31
0.0000000000000000
  0
LINE
  5
4A7
100
AcDbEntity
  8
MAIN0
  6
CONTINUOUS
 62
3
100
AcDbLine
 10
1054.770945928256
 20
889.0202227748933
 30
0.0000000000000000
 11
1036.770945928104
 21
889.0202227748933
 31
0.0000000000000000
  0
LINE
  5
4A8
100
AcDbEntity
  8
MAIN0
  6
CONTINUOUS
 62
3
100
AcDbLine
 10
1054.770945928226
 20
963.0202227749686
 30
0.0000000000000000
 11
1056.770945928104
 21
965.0202227748945
 31
0.0000000000000000
  0
LINE
  5
4A9
100
AcDbEntity
  8
MAIN0
  6
CONTINUOUS
 62
3
100
AcDbLine
 10
1054.770945928256
 20
889.0202227747254
 30
0.0000000000000000
 11
1056.770945928103
 21
887.0202227748946
 31
0.0000000000000000
  0
LINE
  5
4AA
100
AcDbEntity
  8
MAIN0
  6
CONTINUOUS
 62
3
100
AcDbLine
 10
1056.770945928103
 20
965.0202227748933
 30
0.0000000000000000
 11
1056.770945928103
 21
887.0202227748933
 31
0.0000000000000000
  0
LINE
  5
4AB
100
AcDbEntity
  8
MAIN0
  6
CONTINUOUS
 62
3
100
AcDbLine
 10
1054.770945928225
 20
963.0202227748933
 30
0.0000000000000000
 11
1054.770945928257
 21
889.0202227748932
 31
0.0000000000000000
  0
LINE
  5
4AC
100
AcDbEntity
  8
MAIN0
  6
CONTINUOUS
 62
3
100
AcDbLine
 10
1063.770945928104
 20
965.0202227748933
 30
0.0000000000000000
 11
1063.770945928104
 21
887.0202227748933
 31
0.0000000000000000
  0
LINE
  5
4AD
100
AcDbEntity
  8
MAIN0
  6
CONTINUOUS
 62
3
100
AcDbLine
 10
582.2709459281037
 20
877.0202227760790
 30
0.0000000000000000
 11
673.1137459281706
 21
877.0202227760790
 31
0.0000000000000000
  0
LINE
  5
4AE
100
AcDbEntity
  8
MAIN0
  6
CONTINUOUS
 62
3
100
AcDbLine
 10
582.2709459281037
 20
975.0202227760790
 30
0.0000000000000000
 11
673.1137459281706
 21
975.0202227760790
 31
0.0000000000000000
  0
LINE
  5
4AF
100
AcDbEntity
  8
MAIN0
  6
CENTER
 62
3
100
AcDbLine
 10
593.1137459281730
 20
932.0965629023960
 30
0.0000000000000000
 11
593.1137459281742
 21
919.1693674005833
 31
0.0000000000000000
  0
LINE
  5
4B0
100
AcDbEntity
  8
MAIN0
  6
CENTER
 62
3
100
AcDbLine
 10
501.2709459283716
 20
873.6449956048947
 30
0.0000000000000000
 11
501.2709459283647
 21
839.3089514851649
 31
0.0000000000000000
  0
LINE
  5
4B1
100
AcDbEntity
  8
MAIN0
  6
CENTER
 62
3
100
AcDbLine
 10
501.2709459283996
 20
1013.384734839364
 30
0.0000000000000000
 11
501.2709459283926
 21
978.2501901083474
 31
0.0000000000000000
  0
LINE
  5
4B2
100
AcDbEntity
  8
MAIN0
  6
CENTER
 62
3
100
AcDbLine
 10
563.2709459283288
 20
874.8427617522450
 30
0.0000000000000000
 11
563.2709459283228
 21
838.9096859490956
 31
0.0000000000000000
  0
LINE
  5
4B3
100
AcDbEntity
  8
MAIN0
  6
CENTER
 62
3
100
AcDbLine
 10
563.2709459283522
 20
1014.183265911494
 30
0.0000000000000000
 11
563.2709459283460
 21
977.8509093418554
 31
0.0000000000000000
  0
LINE
  5
4B4
100
AcDbEntity
  8
MAIN0
  6
CENTER
 62
3
100
AcDbLine
 10
676.5121098442378
 20
895.0202227770340
 30
0.0000000000000000
 11
710.4488884279003
 21
895.0202227770338
 31
0.0000000000000000
  0
LINE
  5
4B5
100
AcDbEntity
  8
MAIN0
  6
CENTER
 62
3
100
AcDbLine
 10
733.2065213797357
 20
895.0202227770338
 30
0.0000000000000000
 11
765.1470332047574
 21
895.0202227770337
 31
0.0000000000000000
  0
LINE
  5
4B6
100
AcDbEntity
  8
MAIN0
  6
CENTER
 62
3
100
AcDbLine
 10
676.5121098442378
 20
957.0202227774170
 30
0.0000000000000000
 11
709.2511375109696
 21
957.0202227774170
 31
0.0000000000000000
  0
LINE
  5
4B7
100
AcDbEntity
  8
MAIN0
  6
CENTER
 62
3
100
AcDbLine
 10
732.4079903076027
 20
957.0202227774169
 30
0.0000000000000000
 11
766.3447841216882
 21
957.0202227774169
 31
0.0000000000000000
  0
LINE
  5
4B8
100
AcDbEntity
  8
MAIN0
  6
CENTER
 62
3
100
AcDbLine
 10
692.1137459284345
 20
912.7721195444565
 30
0.0000000000000000
 11
692.1137459284515
 21
875.2420272883092
 31
0.0000000000000000
  0
LINE
  5
4B9
100
AcDbEntity
  8
MAIN0
  6
CENTER
 62
3
100
AcDbLine
 10
692.1137459284054
 20
976.6531584249223
 30
0.0000000000000000
 11
692.1137459284223
 21
939.5223012439969
 31
0.0000000000000000
  0
LINE
  5
4BA
100
AcDbEntity
  8
MAIN0
  6
CENTER
 62
3
100
AcDbLine
 10
751.1137459283323
 20
913.5706353861724
 30
0.0000000000000000
 11
751.1137459283439
 21
876.4397934356693
 31
0.0000000000000000
  0
LINE
  5
4BB
100
AcDbEntity
  8
MAIN0
  6
CENTER
 62
3
100
AcDbLine
 10
751.1137459283129
 20
975.0561267415097
 30
0.0000000000000000
 11
751.1137459283240
 21
939.9215515496462
 31
0.0000000000000000
  0
LINE
  5
4BC
100
AcDbEntity
  8
MAIN0
  6
CENTER
 62
3
100
AcDbLine
 10
485.6675471205791
 20
996.0202227746643
 30
0.0000000000000000
 11
520.0035988555621
 21
996.0202227746121
 31
0.0000000000000000
  0
LINE
  5
4BD
100
AcDbEntity
  8
MAIN0
  6
CENTER
 62
3
100
AcDbLine
 10
543.9589827243301
 20
996.0202227745759
 30
0.0000000000000000
 11
578.2950268440156
 21
996.0202227745238
 31
0.0000000000000000
  0
LINE
  5
4BE
100
AcDbEntity
  8
MAIN0
  6
CENTER
 62
3
100
AcDbLine
 10
485.2682930073744
 20
856.0202227747341
 30
0.0000000000000000
 11
519.6043409347017
 21
856.0202227746981
 31
0.0000000000000000
  0
LINE
  5
4BF
100
AcDbEntity
  8
MAIN0
  6
CENTER
 62
3
100
AcDbLine
 10
545.5560067925326
 20
856.0202227746712
 30
0.0000000000000000
 11
578.6942923801223
 21
856.0202227746365
 31
0.0000000000000000
  0
CIRCLE
  5
4C0
100
AcDbEntity
  8
MAIN0
  6
CONTINUOUS
 62
3
100
AcDbCircle
 10
532.2709459281037
 20
926.0202227748875
 30
0.0000000000000000
 40
5.000000000000000
  0
CIRCLE
  5
4C1
100
AcDbEntity
  8
MAIN0
  6
CONTINUOUS
 62
3
100
AcDbCircle
 10
532.2709459281037
 20
926.0202227748875
 30
0.0000000000000000
 40
4.250000000000000
  0
LINE
  5
4C2
100
AcDbEntity
  8
MAIN0
  6
CENTER
 62
3
100
AcDbLine
 10
532.2709459281036
 20
915.5146915356689
 30
0.0000000000000000
 11
532.2709459281036
 21
938.9093242969924
 31
0.0000000000000000
  0
LEADER
  5
4C3
100
AcDbEntity
  8
MAIN0
  6
CONTINUOUS
 62
3
100
AcDbLeader
  3
MAIN001
 73
     0
 75
     1
 40
12.39999961853027
 41
110.0790032615661
 76
     3
 10
528.5671976292322
 20
929.3791286292701
 30
0.0000000000000000
 10
446.7638292878646
 20
1088.988293133948
 30
0.0000000000000000
 10
439.0588295110244
 20
1088.988293133948
 30
0.0000000000000000
340
4C4
213
0.0000000000000000
223
-2.000000000000000
233
0.0000000000000000
1001
ACAD
1000
DSTYLE
1002
{
1070
   147
1040
0.0
1070
    77
1070
     1
1070
   173
1070
     1
1070
     6
1000
_OPEN
1070
     7
1000
_OPEN
1002
}
  0
MTEXT
  5
4C4
102
{ACAD_REACTORS
330
4C3
102
}
100
AcDbEntity
  8
MAIN0
  6
CONTINUOUS
 62
3
100
AcDbMText
 10
328.9798262494583
 20
1103.388292752478
 30
0.0000000000000000
 40
12.39999961853027
 41
0.0000000000000000
 71
     1
 72
     1
  1
{\H0.93x;{(吊りボルト用)\P(EYE BOLT)}}
 11
1.000000000000000
 21
0.0000000000000000
 31
0.0000000000000000
  7
KNJYOKO
  0
LINE
  5
4C5
100
AcDbEntity
  8
MAIN0
  6
CENTER
 62
3
100
AcDbLine
 10
721.6137459281038
 20
938.9093242969916
 30
0.0000000000000000
 11
721.6137459281038
 21
915.5146915356681
 31
0.0000000000000000
  0
CIRCLE
  5
4C6
100
AcDbEntity
  8
MAIN0
  6
CONTINUOUS
 62
3
100
AcDbCircle
 10
721.6137459281038
 20
926.0202227748874
 30
0.0000000000000000
 40
5.000000000000000
  0
CIRCLE
  5
4C7
100
AcDbEntity
  8
MAIN0
  6
CONTINUOUS
 62
3
100
AcDbCircle
 10
721.6137459281038
 20
926.0202227748874
 30
0.0000000000000000
 40
4.250000000000000
  0
LINE
  5
4C8
100
AcDbEntity
  8
MAIN0
  6
CENTER
 62
3
100
AcDbLine
 10
455.3240631713996
 20
926.0202227748875
 30
0.0000000000000000
 11
788.8534516129000
 21
926.0202227748874
 31
0.0000000000000000
  0
LINE
  5
4C9
100
AcDbEntity
  8
MAIN0
  6
CENTER
 62
3
100
AcDbLine
 10
813.2534512314303
 20
926.0202227748874
 30
0.0000000000000000
 11
1103.001281380441
 21
926.0202227748873
 31
0.0000000000000000
  0
CIRCLE
  5
4CA
100
AcDbEntity
  8
MAIN0
  6
CONTINUOUS
 62
3
100
AcDbCircle
 10
567.2709459281037
 20
976.0202227748875
 30
0.0000000000000000
 40
5.000000000000000
  0
CIRCLE
  5
4CB
100
AcDbEntity
  8
MAIN0
  6
CONTINUOUS
 62
3
100
AcDbCircle
 10
567.2709459281037
 20
976.0202227748875
 30
0.0000000000000000
 40
4.250000000000000
  0
CIRCLE
  5
4CC
100
AcDbEntity
  8
MAIN0
  6
CONTINUOUS
 62
3
100
AcDbCircle
 10
497.2709459281037
 20
976.0202227748875
 30
0.0000000000000000
 40
5.000000000000000
  0
CIRCLE
  5
4CD
100
AcDbEntity
  8
MAIN0
  6
CONTINUOUS
 62
3
100
AcDbCircle
 10
497.2709459281037
 20
976.0202227748875
 30
0.0000000000000000
 40
4.250000000000000
  0
CIRCLE
  5
4CE
100
AcDbEntity
  8
MAIN0
  6
CONTINUOUS
 62
3
100
AcDbCircle
 10
532.2709459281037
 20
613.0202681166961
 30
0.0000000000000000
 40
5.000000000000000
  0
CIRCLE
  5
4CF
100
AcDbEntity
  8
MAIN0
  6
CONTINUOUS
 62
3
100
AcDbCircle
 10
532.2709459281037
 20
613.0202681166961
 30
0.0000000000000000
 40
4.250000000000000
  0
CIRCLE
  5
4D0
100
AcDbEntity
  8
MAIN0
  6
CONTINUOUS
 62
3
100
AcDbCircle
 10
532.2709459281037
 20
593.0202681166961
 30
0.0000000000000000
 40
5.000000000000000
  0
CIRCLE
  5
4D1
100
AcDbEntity
  8
MAIN0
  6
CONTINUOUS
 62
3
100
AcDbCircle
 10
532.2709459281037
 20
593.0202681166961
 30
0.0000000000000000
 40
4.250000000000000
  0
LINE
  5
4D2
100
AcDbEntity
  8
MAIN0
  6
CONTINUOUS
 62
3
100
AcDbLine
 10
688.1137459281038
 20
1003.906974120836
 30
0.0000000000000000
 11
685.6137459281038
 21
1002.463598447862
 31
0.0000000000000000
  0
LINE
  5
4D3
100
AcDbEntity
  8
MAIN0
  6
CONTINUOUS
 62
3
100
AcDbLine
 10
685.6137459281038
 20
1002.463598447862
 30
0.0000000000000000
 11
685.6137459281038
 21
999.5768471019135
 31
0.0000000000000000
  0
LINE
  5
4D4
100
AcDbEntity
  8
MAIN0
  6
CONTINUOUS
 62
3
100
AcDbLine
 10
685.6137459281038
 20
999.5768471019134
 30
0.0000000000000000
 11
688.1137459281038
 21
998.1334714289393
 31
0.0000000000000000
  0
LINE
  5
4D5
100
AcDbEntity
  8
MAIN0
  6
CONTINUOUS
 62
3
100
AcDbLine
 10
688.1137459281038
 20
998.1334714289393
 30
0.0000000000000000
 11
690.6137459281038
 21
999.5768471019134
 31
0.0000000000000000
  0
LINE
  5
4D6
100
AcDbEntity
  8
MAIN0
  6
CONTINUOUS
 62
3
100
AcDbLine
 10
690.6137459281038
 20
999.5768471019135
 30
0.0000000000000000
 11
690.6137459281038
 21
1002.463598447862
 31
0.0000000000000000
  0
LINE
  5
4D7
100
AcDbEntity
  8
MAIN0
  6
CONTINUOUS
 62
3
100
AcDbLine
 10
690.6137459281038
 20
1002.463598447862
 30
0.0000000000000000
 11
688.1137459281038
 21
1003.906974120836
 31
0.0000000000000000
  0
LINE
  5
4D8
100
AcDbEntity
  8
MAIN0
  6
CONTINUOUS
 62
3
100
AcDbLine
 10
1265.868370943299
 20
468.0202681167503
 30
0.0000000000000000
 11
1265.868370943299
 21
482.4202681167504
 31
0.0000000000000000
  0
LINE
  5
4D9
100
AcDbEntity
  8
MAIN0
  6
CONTINUOUS
 62
3
100
AcDbLine
 10
1265.868370943299
 20
482.4202681167504
 30
0.0000000000000000
 11
1263.097089651189
 21
484.0202681167503
 31
0.0000000000000000
  0
LINE
  5
4DA
100
AcDbEntity
  8
MAIN0
  6
CONTINUOUS
 62
3
100
AcDbLine
 10
1263.097089651189
 20
484.0202681167503
 30
0.0000000000000000
 11
1244.639652235409
 21
484.0202681167503
 31
0.0000000000000000
  0
LINE
  5
4DB
100
AcDbEntity
  8
MAIN0
  6
CONTINUOUS
 62
3
100
AcDbLine
 10
1244.639652235410
 20
484.0202681167507
 30
0.0000000000000000
 11
1241.868370943299
 21
482.4202681167506
 31
0.0000000000000000
  0
LINE
  5
4DC
100
AcDbEntity
  8
MAIN0
  6
CONTINUOUS
 62
3
100
AcDbLine
 10
1241.868370943299
 20
482.4202681167504
 30
0.0000000000000000
 11
1241.868370943299
 21
468.0202681167503
 31
0.0000000000000000
  0
LINE
  5
4DD
100
AcDbEntity
  8
MAIN0
  6
CONTINUOUS
 62
3
100
AcDbLine
 10
1265.868370943299
 20
482.4202681167504
 30
0.0000000000000000
 11
1241.868370943299
 21
482.4202681167504
 31
0.0000000000000000
  0
LINE
  5
4DE
100
AcDbEntity
  8
MAIN0
  6
CONTINUOUS
 62
3
100
AcDbLine
 10
1271.368370943299
 20
468.0202681167503
 30
0.0000000000000000
 11
1236.368370943299
 21
468.0202681167503
 31
0.0000000000000000
  0
LINE
  5
4DF
100
AcDbEntity
  8
MAIN0
  6
CONTINUOUS
 62
3
100
AcDbLine
 10
1271.368370943299
 20
463.0202681167503
 30
0.0000000000000000
 11
1271.368370943299
 21
468.0202681167503
 31
0.0000000000000000
  0
LINE
  5
4E0
100
AcDbEntity
  8
MAIN0
  6
CONTINUOUS
 62
3
100
AcDbLine
 10
1236.368370943299
 20
463.0202681167503
 30
0.0000000000000000
 11
1236.368370943299
 21
468.0202681167503
 31
0.0000000000000000
  0
LINE
  5
4E1
100
AcDbEntity
  8
MAIN0
  6
CONTINUOUS
 62
3
100
AcDbLine
 10
1239.618370943281
 20
403.0202681168654
 30
0.0000000000000000
 11
1239.618370943274
 21
414.0202681168654
 31
0.0000000000000000
  0
LINE
  5
4E2
100
AcDbEntity
  8
MAIN0
  6
CONTINUOUS
 62
3
100
AcDbLine
 10
1268.118370943281
 20
403.0202681168773
 30
0.0000000000000000
 11
1268.118370943274
 21
414.0202681168773
 31
0.0000000000000000
  0
LINE
  5
4E3
100
AcDbEntity
  8
MAIN0
  6
CONTINUOUS
 62
3
100
AcDbLine
 10
1239.618370943282
 20
403.0202681168655
 30
0.0000000000000000
 11
1268.118370943282
 21
403.0202681168773
 31
0.0000000000000000
  0
LINE
  5
4E4
100
AcDbEntity
  8
MAIN0
  6
CONTINUOUS
 62
3
100
AcDbLine
 10
1245.118370943269
 20
422.0202681168677
 30
0.0000000000000000
 11
1262.618370943269
 21
422.0202681168750
 31
0.0000000000000000
  0
LINE
  5
4E5
100
AcDbEntity
  8
MAIN0
  6
CONTINUOUS
 62
3
100
AcDbLine
 10
1239.618370943274
 20
414.0202681168655
 30
0.0000000000000000
 11
1245.118370943274
 21
414.0202681168677
 31
0.0000000000000000
  0
LINE
  5
4E6
100
AcDbEntity
  8
MAIN0
  6
CONTINUOUS
 62
3
100
AcDbLine
 10
1262.618370943274
 20
414.0202681168750
 30
0.0000000000000000
 11
1268.118370943274
 21
414.0202681168773
 31
0.0000000000000000
  0
LINE
  5
4E7
100
AcDbEntity
  8
MAIN0
  6
CONTINUOUS
 62
3
100
AcDbLine
 10
1245.118370943274
 20
414.0202681168676
 30
0.0000000000000000
 11
1245.118370943269
 21
422.0202681168676
 31
0.0000000000000000
  0
LINE
  5
4E8
100
AcDbEntity
  8
MAIN0
  6
CONTINUOUS
 62
3
100
AcDbLine
 10
1262.618370943274
 20
414.0202681168750
 30
0.0000000000000000
 11
1262.618370943269
 21
422.0202681168750
 31
0.0000000000000000
  0
LINE
  5
4E9
100
AcDbEntity
  8
MAIN0
  6
CONTINUOUS
 62
3
100
AcDbLine
 10
1246.950902943282
 20
433.0202681168744
 30
0.0000000000000000
 11
1246.950902943282
 21
422.0202681168774
 31
0.0000000000000000
  0
LINE
  5
4EA
100
AcDbEntity
  8
MAIN0
  6
CONTINUOUS
 62
3
100
AcDbLine
 10
1245.868370943282
 20
422.0202681168774
 30
0.0000000000000000
 11
1245.868370943282
 21
433.0202681168740
 31
0.0000000000000000
  0
LINE
  5
4EB
100
AcDbEntity
  8
MAIN0
  6
CONTINUOUS
 62
3
100
AcDbLine
 10
1260.785838943282
 20
433.0202681168802
 30
0.0000000000000000
 11
1260.785838943282
 21
422.0202681168774
 31
0.0000000000000000
  0
LINE
  5
4EC
100
AcDbEntity
  8
MAIN0
  6
CONTINUOUS
 62
3
100
AcDbLine
 10
1261.868370943282
 20
433.0202681168807
 30
0.0000000000000000
 11
1261.868370943282
 21
422.0202681168774
 31
0.0000000000000000
  0
LINE
  5
4ED
100
AcDbEntity
  8
MAIN0
  6
CONTINUOUS
 62
3
100
AcDbLine
 10
1370.654170837765
 20
422.0202681166882
 30
0.0000000000000000
 11
1400.654170837765
 21
422.0202681167006
 31
0.0000000000000000
  0
LINE
  5
4EE
100
AcDbEntity
  8
MAIN0
  6
CONTINUOUS
 62
3
100
AcDbLine
 10
1370.654170837778
 20
403.0202681166883
 30
0.0000000000000000
 11
1370.654170837765
 21
422.0202681166883
 31
0.0000000000000000
  0
LINE
  5
4EF
100
AcDbEntity
  8
MAIN0
  6
CONTINUOUS
 62
3
100
AcDbLine
 10
1370.654170837771
 20
414.0202681166883
 30
0.0000000000000000
 11
1400.654170837771
 21
414.0202681167007
 31
0.0000000000000000
  0
LINE
  5
4F0
100
AcDbEntity
  8
MAIN0
  6
CONTINUOUS
 62
3
100
AcDbLine
 10
1370.654170837778
 20
403.0202681166882
 30
0.0000000000000000
 11
1400.654170837778
 21
403.0202681167006
 31
0.0000000000000000
  0
LINE
  5
4F1
100
AcDbEntity
  8
MAIN0
  6
CONTINUOUS
 62
3
100
AcDbLine
 10
1400.654170837778
 20
403.0202681167007
 30
0.0000000000000000
 11
1400.654170837765
 21
422.0202681167007
 31
0.0000000000000000
  0
LINE
  5
4F2
100
AcDbEntity
  8
MAIN0
  6
CONTINUOUS
 62
3
100
AcDbLine
 10
1370.654170837735
 20
290.4967935780070
 30
0.0000000000000000
 11
1400.654170837735
 21
290.4967935779987
 31
0.0000000000000000
  0
LINE
  5
4F3
100
AcDbEntity
  8
MAIN0
  6
CONTINUOUS
 62
3
100
AcDbLine
 10
1370.654170837755
 20
261.9967935780072
 30
0.0000000000000000
 11
1370.654170837735
 21
290.4967935780072
 31
0.0000000000000000
  0
LINE
  5
4F4
100
AcDbEntity
  8
MAIN0
  6
HIDDEN
 62
3
100
AcDbLine
 10
1370.654170837739
 20
284.9967935780071
 30
0.0000000000000000
 11
1400.654170837739
 21
284.9967935779988
 31
0.0000000000000000
  0
LINE
  5
4F5
100
AcDbEntity
  8
MAIN0
  6
CENTER
 62
3
100
AcDbLine
 10
1367.391552815455
 20
276.2467935780080
 30
0.0000000000000000
 11
1404.209650179094
 21
276.2467935779979
 31
0.0000000000000000
  0
LINE
  5
4F6
100
AcDbEntity
  8
MAIN0
  6
HIDDEN
 62
3
100
AcDbLine
 10
1370.654170837751
 20
267.4967935780072
 30
0.0000000000000000
 11
1400.654170837751
 21
267.4967935779989
 31
0.0000000000000000
  0
LINE
  5
4F7
100
AcDbEntity
  8
MAIN0
  6
CONTINUOUS
 62
3
100
AcDbLine
 10
1370.654170837755
 20
261.9967935780072
 30
0.0000000000000000
 11
1400.654170837755
 21
261.9967935779989
 31
0.0000000000000000
  0
LINE
  5
4F8
100
AcDbEntity
  8
MAIN0
  6
CONTINUOUS
 62
3
100
AcDbLine
 10
1400.654170837754
 20
261.9967935779989
 30
0.0000000000000000
 11
1400.654170837735
 21
290.4967935779989
 31
0.0000000000000000
  0
LINE
  5
4F9
100
AcDbEntity
  8
MAIN0
  6
CENTER
 62
3
100
AcDbLine
 10
1309.518810351029
 20
751.0202681166886
 30
0.0000000000000000
 11
1192.423072050306
 21
751.0202681166886
 31
0.0000000000000000
  0
CIRCLE
  5
4FA
100
AcDbEntity
  8
MAIN0
  6
HIDDEN
 62
3
100
AcDbCircle
 10
501.2709459281036
 20
996.0202227748875
 30
0.0000000000000000
 40
12.00000000000000
  0
LINE
  5
4FB
100
AcDbEntity
  8
MAIN0
  6
HIDDEN
 62
3
100
AcDbLine
 10
501.2709459281036
 20
1004.103126543542
 30
0.0000000000000000
 11
494.2709459281036
 21
1000.061674659215
 31
0.0000000000000000
  0
LINE
  5
4FC
100
AcDbEntity
  8
MAIN0
  6
HIDDEN
 62
3
100
AcDbLine
 10
494.2709459281036
 20
1000.061674659215
 30
0.0000000000000000
 11
494.2709459281036
 21
991.9787708905602
 31
0.0000000000000000
  0
LINE
  5
4FD
100
AcDbEntity
  8
MAIN0
  6
HIDDEN
 62
3
100
AcDbLine
 10
494.2709459281036
 20
991.9787708905602
 30
0.0000000000000000
 11
501.2709459281036
 21
987.9373190062328
 31
0.0000000000000000
  0
LINE
  5
4FE
100
AcDbEntity
  8
MAIN0
  6
HIDDEN
 62
3
100
AcDbLine
 10
501.2709459281036
 20
987.9373190062328
 30
0.0000000000000000
 11
508.2709459281036
 21
991.9787708905602
 31
0.0000000000000000
  0
LINE
  5
4FF
100
AcDbEntity
  8
MAIN0
  6
HIDDEN
 62
3
100
AcDbLine
 10
508.2709459281036
 20
991.9787708905602
 30
0.0000000000000000
 11
508.2709459281036
 21
1000.061674659215
 31
0.0000000000000000
  0
LINE
  5
500
100
AcDbEntity
  8
MAIN0
  6
HIDDEN
 62
3
100
AcDbLine
 10
508.2709459281035
 20
1000.061674659215
 30
0.0000000000000000
 11
501.2709459281036
 21
1004.103126543542
 31
0.0000000000000000
  0
CIRCLE
  5
501
100
AcDbEntity
  8
MAIN0
  6
CONTINUOUS
 62
3
100
AcDbCircle
 10
593.1137459281736
 20
926.0202227748875
 30
0.0000000000000000
 40
3.000000000000000
  0
CIRCLE
  5
502
100
AcDbEntity
  8
MAIN0
  6
CONTINUOUS
 62
3
100
AcDbCircle
 10
1385.654170837745
 20
276.2467935780031
 30
0.0000000000000000
 40
7.000000000000000
  0
CIRCLE
  5
503
100
AcDbEntity
  8
MAIN0
  6
CONTINUOUS
 62
3
100
AcDbCircle
 10
1385.654170837745
 20
276.2467935780031
 30
0.0000000000000000
 40
8.000000000000000
  0
LINE
  5
504
100
AcDbEntity
  8
WAKU0
  6
CONTINUOUS
 62
3
100
AcDbLine
 10
240.0000000000000
 20
51.00000000000000
 30
0.0000000000000000
 11
410.0000000000000
 21
51.00000000000000
 31
0.0000000000000000
  0
LINE
  5
505
100
AcDbEntity
  8
WAKU0
  6
CONTINUOUS
 62
3
100
AcDbLine
 10
240.0000000000000
 20
51.00000000000000
 30
0.0000000000000000
 11
240.0000000000000
 21
12.00000000000000
 31
0.0000000000000000
  0
LINE
  5
506
100
AcDbEntity
  8
WAKU0
  6
CONTINUOUS
 62
3
100
AcDbLine
 10
312.0000000000000
 20
51.00000000000000
 30
0.0000000000000000
 11
312.0000000000000
 21
12.00000000000000
 31
0.0000000000000000
  0
LINE
  5
507
100
AcDbEntity
  8
WAKU0
  6
CONTINUOUS
 62
3
100
AcDbLine
 10
332.0000000000000
 20
51.00000000000000
 30
0.0000000000000000
 11
332.0000000000000
 21
12.00000000000000
 31
0.0000000000000000
  0
LINE
  5
508
100
AcDbEntity
  8
WAKU0
  6
CONTINUOUS
 62
3
100
AcDbLine
 10
344.0000000000000
 20
51.00000000000000
 30
0.0000000000000000
 11
344.0000000000000
 21
12.00000000000000
 31
0.0000000000000000
  0
LINE
  5
509
100
AcDbEntity
  8
WAKU0
  6
CONTINUOUS
 62
3
100
AcDbLine
 10
344.0000000000000
 20
37.00000000000000
 30
0.0000000000000000
 11
410.0000000000000
 21
37.00000000000000
 31
0.0000000000000000
  0
LINE
  5
50A
100
AcDbEntity
  8
WAKU0
  6
CONTINUOUS
 62
3
100
AcDbLine
 10
332.0000000000000
 20
23.00000000000000
 30
0.0000000000000000
 11
410.0000000000000
 21
23.00000000000000
 31
0.0000000000000000
  0
LINE
  5
50B
100
AcDbEntity
  8
WAKU0
  6
CONTINUOUS
 62
3
100
AcDbLine
 10
375.0000000000000
 20
51.00000000000000
 30
0.0000000000000000
 11
375.0000000000000
 21
44.00000000000000
 31
0.0000000000000000
  0
LINE
  5
50C
100
AcDbEntity
  8
WAKU0
  6
CONTINUOUS
 62
3
100
AcDbLine
 10
387.0000000000000
 20
51.00000000000000
 30
0.0000000000000000
 11
387.0000000000000
 21
44.00000000000000
 31
0.0000000000000000
  0
LINE
  5
50D
100
AcDbEntity
  8
WAKU0
  6
CONTINUOUS
 62
3
100
AcDbLine
 10
312.0000000000000
 20
31.50000000000000
 30
0.0000000000000000
 11
332.0000000000000
 21
31.50000000000000
 31
0.0000000000000000
  0
LINE
  5
50E
100
AcDbEntity
  8
WAKU0
  6
CONTINUOUS
 62
3
100
AcDbLine
 10
332.0000000000000
 20
44.00000000000000
 30
0.0000000000000000
 11
410.0000000000000
 21
44.00000000000000
 31
0.0000000000000000
  0
LINE
  5
50F
100
AcDbEntity
  8
WAKU0
  6
CONTINUOUS
 62
3
100
AcDbLine
 10
240.0000000000000
 20
37.00000000000000
 30
0.0000000000000000
 11
312.0000000000000
 21
37.00000000000000
 31
0.0000000000000000
  0
LINE
  5
510
100
AcDbEntity
  8
WAKU0
  6
CONTINUOUS
 62
3
100
AcDbLine
 10
240.0000000000000
 20
23.00000000000000
 30
0.0000000000000000
 11
312.0000000000000
 21
23.00000000000000
 31
0.0000000000000000
  0
LINE
  5
511
100
AcDbEntity
  8
WAKU0
  6
CONTINUOUS
 62
3
100
AcDbLine
 10
288.0000000000000
 20
37.00000000000000
 30
0.0000000000000000
 11
288.0000000000000
 21
12.00000000000000
 31
0.0000000000000000
  0
LINE
  5
512
100
AcDbEntity
  8
WAKU0
  6
CONTINUOUS
 62
3
100
AcDbLine
 10
264.0000000000000
 20
37.00000000000000
 30
0.0000000000000000
 11
264.0000000000000
 21
23.00000000000000
 31
0.0000000000000000
  0
LINE
  5
513
100
AcDbEntity
  8
WAKU0
  6
CONTINUOUS
 62
3
100
AcDbLine
 10
300.0000000000000
 20
26.00000000000000
 30
0.0000000000000000
 11
300.0000000000000
 21
23.00000000000000
 31
0.0000000000000000
  0
LINE
  5
514
100
AcDbEntity
  8
WAKU0
  6
CONTINUOUS
 62
3
100
AcDbLine
 10
276.0000000000000
 20
26.00000000000000
 30
0.0000000000000000
 11
276.0000000000000
 21
23.00000000000000
 31
0.0000000000000000
  0
LINE
  5
515
100
AcDbEntity
  8
WAKU0
  6
CONTINUOUS
 62
3
100
AcDbLine
 10
252.0000000000000
 20
26.00000000000000
 30
0.0000000000000000
 11
252.0000000000000
 21
23.00000000000000
 31
0.0000000000000000
  0
LINE
  5
516
100
AcDbEntity
  8
WAKU0
  6
CONTINUOUS
 62
3
100
AcDbLine
 10
258.0000000000000
 20
51.00000000000000
 30
0.0000000000000000
 11
258.0000000000000
 21
37.00000000000000
 31
0.0000000000000000
  0
LINE
  5
517
100
AcDbEntity
  8
WAKU0
  6
CONTINUOUS
 62
3
100
AcDbLine
 10
240.0000000000000
 20
45.00000000000000
 30
0.0000000000000000
 11
312.0000000000000
 21
45.00000000000000
 31
0.0000000000000000
  0
LINE
  5
518
100
AcDbEntity
  8
WAKU0
  6
HIDDEN
 62
3
100
AcDbLine
 10
360.5000000000000
 20
23.00000000000000
 30
0.0000000000000000
 11
360.5000000000000
 21
12.00000000000000
 31
0.0000000000000000
  0
LINE
  5
519
100
AcDbEntity
  8
WAKU0
  6
HIDDEN
 62
3
100
AcDbLine
 10
372.9000000000000
 20
23.00000000000000
 30
0.0000000000000000
 11
372.9000000000000
 21
12.00000000000000
 31
0.0000000000000000
  0
MTEXT
  5
51A
100
AcDbEntity
  8
WAKU0
  6
CONTINUOUS
 62
3
100
AcDbMText
 10
344.4820000243485
 20
49.04999995231628
 30
0.0000000000000000
 40
3.099999904632568
 41
0.0000000000000000
 71
     1
 72
     1
  1
{\H0.92x;{VQX200N}}
 11
1.000000000000000
 21
0.0000000000000000
 31
0.0000000000000000
  7
STANDARD
  0
MTEXT
  5
51B
100
AcDbEntity
  8
WAKU0
  6
CONTINUOUS
 62
3
100
AcDbMText
 10
360.3350002765656
 20
43.50000000000000
 30
0.0000000000000000
 40
3.000000000000000
 41
0.0000000000000000
 71
     1
 72
     1
  1
{\H0.94x;{パワーバイス\PＰＯＷＥＲ　ＶＩＳＥ}}
 11
1.000000000000000
 21
0.0000000000000000
 31
0.0000000000000000
  7
KNJYOKO
  0
MTEXT
  5
51C
100
AcDbEntity
  8
WAKU0
  6
CONTINUOUS
 62
3
100
AcDbMText
 10
348.9999989867210
 20
34.83333333333333
 30
0.0000000000000000
 40
4.000000000000000
 41
0.0000000000000000
 71
     1
 72
     1
  1
{\H0.59x;{ＶＱＸ２００Ｎ　ガイケイ\PＶＱＸ２００Ｎ　ＯＵＴＳＩＤＥ　ＶＩＥＷ}}
 11
1.000000000000000
 21
0.0000000000000000
 31
0.0000000000000000
  7
KNJYOKO
  0
MTEXT
  5
51D
100
AcDbEntity
  8
WAKU0
  6
CONTINUOUS
 62
3
100
AcDbMText
 10
318.0049998760223
 20
39.29999995231628
 30
0.0000000000000000
 40
3.099999904632568
 41
0.0000000000000000
 71
     1
 72
     1
  1
{\H0.90x;{1:4}}
 11
1.000000000000000
 21
0.0000000000000000
 31
0.0000000000000000
  7
STANDARD
  0
MTEXT
  5
51E
100
AcDbEntity
  8
WAKU0
  6
CONTINUOUS
 62
3
100
AcDbMText
 10
374.4000001549721
 20
20.15000009536743
 30
0.0000000000000000
 40
5.300000190734863
 41
0.0000000000000000
 71
     1
 72
     1
  1
{\H0.90x;{6409}}
 11
1.000000000000000
 21
0.0000000000000000
 31
0.0000000000000000
  7
STANDARD
  0
MTEXT
  5
51F
100
AcDbEntity
  8
WAKU0
  6
CONTINUOUS
 62
3
100
AcDbMText
 10
362.3000000834465
 20
20.15000009536743
 30
0.0000000000000000
 40
5.300000190734863
 41
0.0000000000000000
 71
     1
 72
     1
  1
{\H0.87x;{39}}
 11
1.000000000000000
 21
0.0000000000000000
 31
0.0000000000000000
  7
STANDARD
  0
MTEXT
  5
520
100
AcDbEntity
  8
WAKU0
  6
CONTINUOUS
 62
3
100
AcDbMText
 10
345.5000001192093
 20
20.15000009536743
 30
0.0000000000000000
 40
5.300000190734863
 41
0.0000000000000000
 71
     1
 72
     1
  1
{\H0.89x;{61M}}
 11
1.000000000000000
 21
0.0000000000000000
 31
0.0000000000000000
  7
STANDARD
  0
MTEXT
  5
521
100
AcDbEntity
  8
WAKU0
  6
CONTINUOUS
 62
3
100
AcDbMText
 10
400.0000000476837
 20
20.15000009536743
 30
0.0000000000000000
 40
5.300000190734863
 41
0.0000000000000000
 71
     1
 72
     1
  1
{\H0.81x;{0}}
 11
1.000000000000000
 21
0.0000000000000000
 31
0.0000000000000000
  7
STANDARD
  0
MTEXT
  5
522
100
AcDbEntity
  8
WAKU0
  6
CONTINUOUS
 62
3
100
AcDbMText
 10
400.0000000819564
 20
44.84999990463257
 30
0.0000000000000000
 40
5.300000190734863
 41
0.0000000000000000
 71
     7
 72
     1
  1
{\H0.81x;{ }}
 11
1.000000000000000
 21
0.0000000000000000
 31
0.0000000000000000
  7
STANDARD
  0
MTEXT
  5
523
100
AcDbEntity
  8
WAKU0
  6
CONTINUOUS
 62
3
100
AcDbMText
 10
289.3850002884865
 20
33.00000000000000
 30
0.0000000000000000
 40
3.000000000000000
 41
0.0000000000000000
 71
     7
 72
     1
  1
{\H0.93x;{DRAWN BY}}
 11
1.000000000000000
 21
0.0000000000000000
 31
0.0000000000000000
  7
STANDARD
  0
MTEXT
  5
524
100
AcDbEntity
  8
WAKU0
  6
CONTINUOUS
 62
3
100
AcDbMText
 10
269.2149997949600
 20
32.95000004768372
 30
0.0000000000000000
 40
3.099999904632568
 41
0.0000000000000000
 71
     7
 72
     1
  1
{\H0.92x;{CHIEF}}
 11
1.000000000000000
 21
0.0000000000000000
 31
0.0000000000000000
  7
STANDARD
  0
MTEXT
  5
525
100
AcDbEntity
  8
WAKU0
  6
CONTINUOUS
 62
3
100
AcDbMText
 10
242.4249997138977
 20
32.95000004768372
 30
0.0000000000000000
 40
3.099999904632568
 41
0.0000000000000000
 71
     7
 72
     1
  1
{\H0.92x;{MANAGER}}
 11
1.000000000000000
 21
0.0000000000000000
 31
0.0000000000000000
  7
STANDARD
  0
MTEXT
  5
526
100
AcDbEntity
  8
WAKU0
  6
CONTINUOUS
 62
3
100
AcDbMText
 10
244.6599994301796
 20
18.13333336512248
 30
0.0000000000000000
 40
3.099999904632568
 41
0.0000000000000000
 71
     7
 72
     1
  1
{\H0.93x;{KITAGAWA IRON\PWORKS CO.,LTD.}}
 11
1.000000000000000
 21
0.0000000000000000
 31
0.0000000000000000
  7
STANDARD
  0
MTEXT
  5
527
100
AcDbEntity
  8
WAKU0
  6
CONTINUOUS
 62
3
100
AcDbMText
 10
241.0850002169609
 20
46.50000000000000
 30
0.0000000000000000
 40
3.000000000000000
 41
0.0000000000000000
 71
     7
 72
     1
  1
{\H0.92x;{CAREER}}
 11
1.000000000000000
 21
0.0000000000000000
 31
0.0000000000000000
  7
STANDARD
  0
MTEXT
  5
528
100
AcDbEntity
  8
WAKU0
  6
CONTINUOUS
 62
3
100
AcDbMText
 10
294.6099998354912
 20
18.95000004768372
 30
0.0000000000000000
 40
3.099999904632568
 41
0.0000000000000000
 71
     7
 72
     1
  1
{\H0.91x;{DATE}}
 11
1.000000000000000
 21
0.0000000000000000
 31
0.0000000000000000
  7
STANDARD
  0
MTEXT
  5
529
100
AcDbEntity
  8
WAKU0
  6
CONTINUOUS
 62
3
100
AcDbMText
 10
313.9000002145767
 20
26.50000000000000
 30
0.0000000000000000
 40
3.000000000000000
 41
0.0000000000000000
 71
     7
 72
     1
  1
{\H0.63x;{3RD ANGLE}}
 11
1.000000000000000
 21
0.0000000000000000
 31
0.0000000000000000
  7
STANDARD
  0
MTEXT
  5
52A
100
AcDbEntity
  8
WAKU0
  6
CONTINUOUS
 62
3
100
AcDbMText
 10
315.2149997949600
 20
45.95000004768372
 30
0.0000000000000000
 40
3.099999904632568
 41
0.0000000000000000
 71
     7
 72
     1
  1
{\H0.92x;{SCALE}}
 11
1.000000000000000
 21
0.0000000000000000
 31
0.0000000000000000
  7
STANDARD
  0
MTEXT
  5
52B
100
AcDbEntity
  8
WAKU0
  6
CONTINUOUS
 62
3
100
AcDbMText
 10
405.7000000476837
 20
46.00000000000000
 30
0.0000000000000000
 40
3.000000000000000
 41
0.0000000000000000
 71
     7
 72
     1
  1
{\H0.63x;{kg}}
 11
1.000000000000000
 21
0.0000000000000000
 31
0.0000000000000000
  7
STANDARD
  0
MTEXT
  5
52C
100
AcDbEntity
  8
WAKU0
  6
CONTINUOUS
 62
3
100
AcDbMText
 10
375.6000001430512
 20
46.00000000000000
 30
0.0000000000000000
 40
3.000000000000000
 41
0.0000000000000000
 71
     7
 72
     1
  1
{\H0.63x;{WEIGHT}}
 11
1.000000000000000
 21
0.0000000000000000
 31
0.0000000000000000
  7
STANDARD
  0
MTEXT
  5
52D
100
AcDbEntity
  8
WAKU0
  6
CONTINUOUS
 62
3
100
AcDbMText
 10
334.0049998760223
 20
18.13333336512248
 30
0.0000000000000000
 40
3.099999904632568
 41
0.0000000000000000
 71
     7
 72
     1
  1
{\H0.90x;{DRW\PNO.}}
 11
1.000000000000000
 21
0.0000000000000000
 31
0.0000000000000000
  7
STANDARD
  0
MTEXT
  5
52E
100
AcDbEntity
  8
WAKU0
  6
CONTINUOUS
 62
3
100
AcDbMText
 10
332.6099998354912
 20
31.95000004768372
 30
0.0000000000000000
 40
3.099999904632568
 41
0.0000000000000000
 71
     7
 72
     1
  1
{\H0.91x;{NAME}}
 11
1.000000000000000
 21
0.0000000000000000
 31
0.0000000000000000
  7
STANDARD
  0
MTEXT
  5
52F
100
AcDbEntity
  8
WAKU0
  6
CONTINUOUS
 62
3
100
AcDbMText
 10
332.6099998354912
 20
45.95000004768372
 30
0.0000000000000000
 40
3.099999904632568
 41
0.0000000000000000
 71
     7
 72
     1
  1
{\H0.91x;{TYPE}}
 11
1.000000000000000
 21
0.0000000000000000
 31
0.0000000000000000
  7
STANDARD
  0
LINE
  5
530
100
AcDbEntity
  8
WAKU0
  6
HIDDEN
 62
3
100
AcDbLine
 10
407.1599564743885
 20
13.84999990463257
 30
0.0000000000000000
 11
396.9400436209789
 21
13.84999990463257
 31
0.0000000000000000
  0
LINE
  5
531
100
AcDbEntity
  8
WAKU0
  6
HIDDEN
 62
3
100
AcDbLine
 10
407.1599564743885
 20
13.84999990463250
 30
0.0000000000000000
 11
402.0500000476852
 21
22.70070406014901
 31
0.0000000000000000
  0
LINE
  5
532
100
AcDbEntity
  8
WAKU0
  6
HIDDEN
 62
3
100
AcDbLine
 10
402.0500000476852
 20
22.70070406014902
 30
0.0000000000000000
 11
396.9400436209789
 21
13.84999990463248
 31
0.0000000000000000
  0
LINE
  5
533
100
AcDbEntity
  8
WAKU0
  6
CONTINUOUS
 62
3
100
AcDbLine
 10
330.4713877753800
 20
15.78041421262812
 30
0.0000000000000000
 11
330.4713877753800
 21
21.78041421262815
 31
0.0000000000000000
  0
LINE
  5
534
100
AcDbEntity
  8
WAKU0
  6
CONTINUOUS
 62
3
100
AcDbLine
 10
323.9336941228225
 20
17.28041421262811
 30
0.0000000000000000
 11
323.9336941228225
 21
20.28041421262824
 31
0.0000000000000000
  0
LINE
  5
535
100
AcDbEntity
  8
WAKU0
  6
CENTER
 62
12
100
AcDbLine
 10
313.4321805514995
 20
18.78041421262813
 30
0.0000000000000000
 11
331.2765788964694
 21
18.78041421262813
 31
0.0000000000000000
  0
LINE
  5
536
100
AcDbEntity
  8
WAKU0
  6
CENTER
 62
12
100
AcDbLine
 10
317.4474565857986
 20
14.55921662918448
 30
0.0000000000000000
 11
317.4474565857986
 21
22.89865102149943
 31
0.0000000000000000
  0
LINE
  5
537
100
AcDbEntity
  8
WAKU0
  6
CONTINUOUS
 62
3
100
AcDbLine
 10
323.9336941228225
 20
20.28041421262797
 30
0.0000000000000000
 11
330.4713877753800
 21
21.78041421262795
 31
0.0000000000000000
  0
LINE
  5
538
100
AcDbEntity
  8
WAKU0
  6
CONTINUOUS
 62
3
100
AcDbLine
 10
323.9336941228225
 20
17.28041421262811
 30
0.0000000000000000
 11
330.4713877753799
 21
15.78041421262812
 31
0.0000000000000000
  0
CIRCLE
  5
539
100
AcDbEntity
  8
WAKU0
  6
CONTINUOUS
 62
3
100
AcDbCircle
 10
317.4474565857986
 20
18.78041421262813
 30
0.0000000000000000
 40
1.499999999999972
  0
CIRCLE
  5
53A
100
AcDbEntity
  8
WAKU0
  6
CONTINUOUS
 62
3
100
AcDbCircle
 10
317.4474565857986
 20
18.78041421262813
 30
0.0000000000000000
 40
2.999999999999979
  0
LINE
  5
53B
100
AcDbEntity
  8
A0
  6
CONTINUOUS
 62
3
100
AcDbLine
 10
151.6803930718835
 20
139.4369195051185
 30
0.0000000000000000
 11
151.6803930718835
 21
14.68692177009515
 31
0.0000000000000000
  0
LINE
  5
53C
100
AcDbEntity
  8
A0
  6
CONTINUOUS
 62
3
100
AcDbLine
 10
18.68039354867345
 20
126.6869197438519
 30
0.0000000000000000
 11
151.6803930718835
 21
126.6869197439110
 31
0.0000000000000000
  0
LINE
  5
53D
100
AcDbEntity
  8
A0
  6
CONTINUOUS
 62
3
100
AcDbLine
 10
18.68039354867236
 20
139.4369195050007
 30
0.0000000000000000
 11
151.6803930718834
 21
139.4369195051187
 31
0.0000000000000000
  0
MTEXT
  5
53E
100
AcDbEntity
  8
A0
  6
CONTINUOUS
 62
3
100
AcDbMText
 10
35.55539235660407
 20
136.9369195054631
 30
0.0000000000000000
 40
7.749999761581421
 41
0.0000000000000000
 71
     1
 72
     1
  1
{\H0.71x;{仕様　　SPECIFICATIONS}}
 11
1.000000000000000
 21
0.0000000000000000
 31
0.0000000000000000
  7
KNJYOKO
  0
MTEXT
  5
53F
100
AcDbEntity
  8
A0
  6
CONTINUOUS
 62
3
100
AcDbMText
 10
107.6803921181781
 20
120.3119198627990
 30
0.0000000000000000
 40
7.749999761581421
 41
0.0000000000000000
 71
     1
 72
     1
  1
{\H0.70x;{０～３００mm}}
 11
1.000000000000000
 21
0.0000000000000000
 31
0.0000000000000000
  7
KNJYOKO
  0
MTEXT
  5
540
100
AcDbEntity
  8
A0
  6
CONTINUOUS
 62
3
100
AcDbMText
 10
19.93039354868958
 20
115.1869199820083
 30
0.0000000000000000
 40
7.749999761581421
 41
0.0000000000000000
 71
     1
 72
     1
  1
{\H0.71x;{CLAMPING RANGE}}
 11
1.000000000000000
 21
0.0000000000000000
 31
0.0000000000000000
  7
STANDARD
  0
LINE
  5
541
100
AcDbEntity
  8
A0
  6
CONTINUOUS
 62
3
100
AcDbLine
 10
18.68039354867495
 20
106.1869202202563
 30
0.0000000000000000
 11
151.6803930718835
 21
106.1869202203742
 31
0.0000000000000000
  0
LINE
  5
542
100
AcDbEntity
  8
A0
  6
CONTINUOUS
 62
3
100
AcDbLine
 10
106.4303921181758
 20
126.6869197438889
 30
0.0000000000000000
 11
106.4303921181758
 21
106.1869202203296
 31
0.0000000000000000
  0
MTEXT
  5
543
100
AcDbEntity
  8
A0
  6
CONTINUOUS
 62
3
100
AcDbMText
 10
19.93039354868958
 20
94.68692045884549
 30
0.0000000000000000
 40
7.749999761581421
 41
0.0000000000000000
 71
     1
 72
     1
  1
{\H0.71x;{TIGHTENING TORQUE}}
 11
1.000000000000000
 21
0.0000000000000000
 31
0.0000000000000000
  7
STANDARD
  0
LINE
  5
544
100
AcDbEntity
  8
A0
  6
CONTINUOUS
 62
3
100
AcDbLine
 10
151.6803930718834
 20
85.68692069758535
 30
0.0000000000000000
 11
18.68039354867656
 21
85.68692069752623
 31
0.0000000000000000
  0
LINE
  5
545
100
AcDbEntity
  8
A0
  6
CONTINUOUS
 62
3
100
AcDbLine
 10
106.4303921181758
 20
85.68692069756318
 30
0.0000000000000000
 11
106.4303921181758
 21
14.68692177005502
 31
0.0000000000000000
  0
LINE
  5
546
100
AcDbEntity
  8
A0
  6
CONTINUOUS
 62
3
100
AcDbLine
 10
106.4303921181758
 20
65.18692117440048
 30
0.0000000000000000
 11
151.6803930718835
 21
65.18692117442049
 31
0.0000000000000000
  0
MTEXT
  5
547
100
AcDbEntity
  8
A0
  6
CONTINUOUS
 62
3
100
AcDbMText
 10
112.6803925950153
 20
63.93692117372299
 30
0.0000000000000000
 40
7.749999761581421
 41
0.0000000000000000
 71
     1
 72
     1
  1
{\H0.67x;{2}}
 11
1.000000000000000
 21
0.0000000000000000
 31
0.0000000000000000
  7
STANDARD
  0
LINE
  5
548
100
AcDbEntity
  8
A0
  6
CONTINUOUS
 62
3
100
AcDbLine
 10
151.6803930718834
 20
34.43692141284108
 30
0.0000000000000000
 11
18.68039354867899
 21
34.43692141278196
 31
0.0000000000000000
  0
MTEXT
  5
549
100
AcDbEntity
  8
A0
  6
CONTINUOUS
 62
3
100
AcDbMText
 10
112.6803925950153
 20
53.68692117410123
 30
0.0000000000000000
 40
7.749999761581421
 41
0.0000000000000000
 71
     1
 72
     1
  1
{\H0.67x;{3}}
 11
1.000000000000000
 21
0.0000000000000000
 31
0.0000000000000000
  7
STANDARD
  0
LINE
  5
54A
100
AcDbEntity
  8
A0
  6
CONTINUOUS
 62
3
100
AcDbLine
 10
106.4303921181757
 20
75.43692093558558
 30
0.0000000000000000
 11
151.6803930718835
 21
75.43692093562571
 31
0.0000000000000000
  0
LINE
  5
54B
100
AcDbEntity
  8
A0
  6
CONTINUOUS
 62
3
100
AcDbLine
 10
123.5791869880573
 20
85.68692069757080
 30
0.0000000000000000
 11
123.5791869880573
 21
34.43692141282858
 31
0.0000000000000000
  0
MTEXT
  5
54C
100
AcDbEntity
  8
A0
  6
CONTINUOUS
 62
3
100
AcDbMText
 10
127.4014462401779
 20
74.18692093530351
 30
0.0000000000000000
 40
7.749999761581421
 41
0.0000000000000000
 71
     1
 72
     1
  1
{\H0.70x;{22KN}}
 11
1.000000000000000
 21
0.0000000000000000
 31
0.0000000000000000
  7
STANDARD
  0
MTEXT
  5
54D
100
AcDbEntity
  8
A0
  6
CONTINUOUS
 62
3
100
AcDbMText
 10
127.4014462401779
 20
63.93692117372208
 30
0.0000000000000000
 40
7.749999761581421
 41
0.0000000000000000
 71
     1
 72
     1
  1
{\H0.70x;{38KN}}
 11
1.000000000000000
 21
0.0000000000000000
 31
0.0000000000000000
  7
STANDARD
  0
MTEXT
  5
54E
100
AcDbEntity
  8
A0
  6
CONTINUOUS
 62
3
100
AcDbMText
 10
127.4014462401779
 20
53.68692117410032
 30
0.0000000000000000
 40
7.749999761581421
 41
0.0000000000000000
 71
     1
 72
     1
  1
{\H0.70x;{54KN}}
 11
1.000000000000000
 21
0.0000000000000000
 31
0.0000000000000000
  7
STANDARD
  0
MTEXT
  5
54F
100
AcDbEntity
  8
A0
  6
CONTINUOUS
 62
3
100
AcDbMText
 10
112.6803925950153
 20
74.18692093530441
 30
0.0000000000000000
 40
7.749999761581421
 41
0.0000000000000000
 71
     1
 72
     1
  1
{\H0.67x;{1}}
 11
1.000000000000000
 21
0.0000000000000000
 31
0.0000000000000000
  7
STANDARD
  0
MTEXT
  5
550
100
AcDbEntity
  8
A0
  6
CONTINUOUS
 62
3
100
AcDbMText
 10
118.0592057653496
 20
28.06192153171887
 30
0.0000000000000000
 40
7.749999761581421
 41
0.0000000000000000
 71
     1
 72
     1
  1
{\H0.70x;{100kg}}
 11
1.000000000000000
 21
0.0000000000000000
 31
0.0000000000000000
  7
STANDARD
  0
MTEXT
  5
551
100
AcDbEntity
  8
A0
  6
CONTINUOUS
 62
3
100
AcDbMText
 10
19.93039354868958
 20
22.93692165093839
 30
0.0000000000000000
 40
6.999999880790710
 41
0.0000000000000000
 71
     1
 72
     1
  1
{\H0.67x;{MASS OF POWER VISE}}
 11
1.000000000000000
 21
0.0000000000000000
 31
0.0000000000000000
  7
STANDARD
  0
MTEXT
  5
552
100
AcDbEntity
  8
A0
  6
CONTINUOUS
 62
3
100
AcDbMText
 10
19.93039354868958
 20
33.18692141251981
 30
0.0000000000000000
 40
7.749999761581421
 41
0.0000000000000000
 71
     1
 72
     1
  1
{\H0.70x;{製品質量}}
 11
1.000000000000000
 21
0.0000000000000000
 31
0.0000000000000000
  7
KNJYOKO
  0
MTEXT
  5
553
100
AcDbEntity
  8
A0
  6
CONTINUOUS
 62
3
100
AcDbMText
 10
19.93039354868958
 20
74.18692093568265
 30
0.0000000000000000
 40
7.749999761581421
 41
0.0000000000000000
 71
     1
 72
     1
  1
{\H0.71x;{CLAMP RANGE}}
 11
1.000000000000000
 21
0.0000000000000000
 31
0.0000000000000000
  7
STANDARD
  0
MTEXT
  5
554
100
AcDbEntity
  8
A0
  6
CONTINUOUS
 62
3
100
AcDbMText
 10
19.93039354868958
 20
84.43692069726407
 30
0.0000000000000000
 40
7.749999761581421
 41
0.0000000000000000
 71
     1
 72
     1
  1
{\H0.70x;{締付けレンジ}}
 11
1.000000000000000
 21
0.0000000000000000
 31
0.0000000000000000
  7
KNJYOKO
  0
LINE
  5
555
100
AcDbEntity
  8
A0
  6
CONTINUOUS
 62
3
100
AcDbLine
 10
18.68039354867245
 20
139.4369195050003
 30
0.0000000000000000
 11
18.68039354868062
 21
24.93692176997686
 31
0.0000000000000000
  0
LINE
  5
556
100
AcDbEntity
  8
A0
  6
CONTINUOUS
 62
3
100
AcDbLine
 10
151.6803930718835
 20
14.68692177009515
 30
0.0000000000000000
 11
18.68039354868059
 21
14.68692176997720
 31
0.0000000000000000
  0
MTEXT
  5
557
100
AcDbEntity
  8
A0
  6
CONTINUOUS
 62
3
100
AcDbMText
 10
19.93039354868958
 20
104.9369202204269
 30
0.0000000000000000
 40
7.749999761581421
 41
0.0000000000000000
 71
     1
 72
     1
  1
{\H0.70x;{締付トルク}}
 11
1.000000000000000
 21
0.0000000000000000
 31
0.0000000000000000
  7
KNJYOKO
  0
MTEXT
  5
558
100
AcDbEntity
  8
A0
  6
CONTINUOUS
 62
3
100
AcDbMText
 10
19.93039354868958
 20
125.4369197435898
 30
0.0000000000000000
 40
7.749999761581421
 41
0.0000000000000000
 71
     1
 72
     1
  1
{\H0.70x;{口金の開き}}
 11
1.000000000000000
 21
0.0000000000000000
 31
0.0000000000000000
  7
KNJYOKO
  0
LINE
  5
559
100
AcDbEntity
  8
A0
  6
CONTINUOUS
 62
3
100
AcDbLine
 10
106.4303921181759
 20
54.93692117440049
 30
0.0000000000000000
 11
151.6803930718835
 21
54.93692117442050
 31
0.0000000000000000
  0
MTEXT
  5
55A
100
AcDbEntity
  8
A0
  6
CONTINUOUS
 62
3
100
AcDbMText
 10
127.4014462401779
 20
84.43692069726316
 30
0.0000000000000000
 40
7.749999761581421
 41
0.0000000000000000
 71
     1
 72
     1
  1
{\H0.70x;{10KN}}
 11
1.000000000000000
 21
0.0000000000000000
 31
0.0000000000000000
  7
STANDARD
  0
MTEXT
  5
55B
100
AcDbEntity
  8
A0
  6
CONTINUOUS
 62
3
100
AcDbMText
 10
112.6803925950153
 20
84.43692069726407
 30
0.0000000000000000
 40
7.749999761581421
 41
0.0000000000000000
 71
     1
 72
     1
  1
{\H0.67x;{0}}
 11
1.000000000000000
 21
0.0000000000000000
 31
0.0000000000000000
  7
STANDARD
  0
LINE
  5
55C
100
AcDbEntity
  8
A0
  6
CONTINUOUS
 62
3
100
AcDbLine
 10
106.4303921181804
 20
44.68692117440049
 30
0.0000000000000000
 11
151.6803930718880
 21
44.68692117442050
 31
0.0000000000000000
  0
MTEXT
  5
55D
100
AcDbEntity
  8
A0
  6
CONTINUOUS
 62
3
100
AcDbMText
 10
112.6803925950153
 20
43.43692117410123
 30
0.0000000000000000
 40
7.749999761581421
 41
0.0000000000000000
 71
     1
 72
     1
  1
{\H0.67x;{4}}
 11
1.000000000000000
 21
0.0000000000000000
 31
0.0000000000000000
  7
STANDARD
  0
MTEXT
  5
55E
100
AcDbEntity
  8
A0
  6
CONTINUOUS
 62
3
100
AcDbMText
 10
127.4014462401779
 20
43.43692117410032
 30
0.0000000000000000
 40
7.749999761581421
 41
0.0000000000000000
 71
     1
 72
     1
  1
{\H0.70x;{70KN}}
 11
1.000000000000000
 21
0.0000000000000000
 31
0.0000000000000000
  7
STANDARD
  0
ENDSEC
  0
SECTION
  2
OBJECTS
  0
DICTIONARY
  5
5BD
100
AcDbDictionary
  3
ACAD_GROUP
350
5BE
  3
ACAD_MLINESTYLE
350
5BF
  0
DICTIONARY
  5
5BE
102
{ACAD_REACTORS
330
5BD
102
}
100
AcDbDictionary
  0
DICTIONARY
  5
5BF
102
{ACAD_REACTORS
330
5BD
102
}
100
AcDbDictionary
  3
STANDARD
350
5C0
  0
MLINESTYLE
  5
5C0
102
{ACAD_REACTORS
330
5BF
102
}
100
AcDbMlineStyle
  2
STANDARD
 70
     0
  3

 62
   256
 51
90.00
 52
90.00
 71
     2
 49
0.50
 62
   256
  6
BYLAYER
 49
-0.50
 62
   256
  6
BYLAYER
  0
ENDSEC
  0
EOF
