  0
SECTION
  2
HEADER
  9
$ACADVER
  1
AC1014
  9
$DWGCODEPAGE
  3
ANSI_932
  9
$LTSCALE
 40
20.0
  9
$FILLMODE
 70
     1
  9
$CLAYER
  8
0
  9
$PDMODE
 70
     0
  9
$SPLFRAME
 70
     0
  9
$SPLINETYPE
 70
     6
  9
$SPLINESEGS
 70
     8
  9
$DIMASZ
 40
2.000000
  9
$DIMEXE
 40
2.000000
  9
$DIMEXO
 40
0.800000
  9
$DIMTAD
 70
     1
  9
$DIMTIH
 70
     0
  9
$DIMTOH
 70
     0
  9
$DIMTVP
 40
0.500000
  9
$DIMTXT
 40
3.100000
  9
$EXTMIN
 10
0.000000
 20
0.000000
 30
0.000000
  9
$EXTMAX
 10
297.000000
 20
420.000000
 30
0.000000
  9
$MEASUREMENT
 70
  1
  9
$LIMMIN
 10
0.000000
 20
0.000000
  9
$LIMMAX
 10
297.000000
 20
420.000000
  9
$HANDLING
 70
     1
  9
$HANDSEED
  5
59A
  9
$DIMBLK
  1
_OPEN
  9
$DIMDEC
 70
     3
  9
$DIMAUNIT
 70
     1
  9
$DIMZIN
 70
     8
  9
$DIMTOFL
 70
     1
  0
ENDSEC
  0
SECTION
  2
CLASSES
  0
ENDSEC
  0
SECTION
  2
TABLES
  0
TABLE
  2
VPORT
  5
538
100
AcDbSymbolTable
 70
     1
  0
VPORT
  5
539
100
AcDbSymbolTableRecord
100
AcDbViewportTableRecord
  2
*ACTIVE
 70
     0
 12
549.092625
 22
443.425540
 40
1705.279328
 41
1.506083
  0
ENDTAB
  0
TABLE
  2
LTYPE
  5
53A
100
AcDbSymbolTable
 70
     4
  0
LTYPE
  5
53B
100
AcDbSymbolTableRecord
100
AcDbLinetypeTableRecord
  2
BYBLOCK
 70
     0
  3

 72
    65
 73
     0
 40
0.0
  0
LTYPE
  5
53C
100
AcDbSymbolTableRecord
100
AcDbLinetypeTableRecord
  2
BYLAYER
 70
     0
  3

 72
    65
 73
     0
 40
0.0
  0
LTYPE
  5
53D
100
AcDbSymbolTableRecord
100
AcDbLinetypeTableRecord
  2
CONTINUOUS
 70
     0
  3
Solid line (NEC CAE2D for Win R12.1 : 2016.08.08)
 72
    65
 73
     0
 40
0.0
  0
LTYPE
  5
53E
100
AcDbSymbolTableRecord
100
AcDbLinetypeTableRecord
  2
HIDDEN
 70
     0
  3
__ __ __ __ __ __ __ __ __ __ __ __ __ __
 72
    65
 73
     2
 40
0.375
 49
0.25
 74
     0
 49
-0.125
 74
     0
  0
LTYPE
  5
53F
100
AcDbSymbolTableRecord
100
AcDbLinetypeTableRecord
  2
CENTER
 70
     0
  3
____ _ ____ _ ____ _ ____ _ ____ _ ____
 72
    65
 73
     4
 40
2.0
 49
1.25
 74
     0
 49
-0.25
 74
     0
 49
0.25
 74
     0
 49
-0.25
 74
     0
  0
LTYPE
  5
540
100
AcDbSymbolTableRecord
100
AcDbLinetypeTableRecord
  2
PHANTOM
 70
     0
  3
______  __  __  ______  __  __  ______ 
 72
    65
 73
     6
 40
2.5
 49
1.25
 74
     0
 49
-0.25
 74
     0
 49
0.25
 74
     0
 49
-0.25
 74
     0
 49
0.25
 74
     0
 49
-0.25
 74
     0
  0
ENDTAB
  0
TABLE
  2
LAYER
  5
541
100
AcDbSymbolTable
 70
     9
  0
LAYER
  5
542
100
AcDbSymbolTableRecord
100
AcDbLayerTableRecord
  2
0
 70
     0
 62
     7
  6
CONTINUOUS
  0
LAYER
  5
543
100
AcDbSymbolTableRecord
100
AcDbLayerTableRecord
  2
MAIN0
 70
     0
 62
     7
  6
CONTINUOUS
  0
LAYER
  5
544
100
AcDbSymbolTableRecord
100
AcDbLayerTableRecord
  2
MAIN1
 70
     0
 62
     7
  6
CONTINUOUS
  0
LAYER
  5
545
100
AcDbSymbolTableRecord
100
AcDbLayerTableRecord
  2
MAIN3
 70
     0
 62
     7
  6
CONTINUOUS
  0
LAYER
  5
546
100
AcDbSymbolTableRecord
100
AcDbLayerTableRecord
  2
MAIN1023
 70
     0
 62
    16
  6
CONTINUOUS
  0
LAYER
  5
547
100
AcDbSymbolTableRecord
100
AcDbLayerTableRecord
  2
WAKU0
 70
     0
 62
     7
  6
CONTINUOUS
  0
LAYER
  5
548
100
AcDbSymbolTableRecord
100
AcDbLayerTableRecord
  2
WAKU1023
 70
     0
 62
    16
  6
CONTINUOUS
  0
LAYER
  5
549
100
AcDbSymbolTableRecord
100
AcDbLayerTableRecord
  2
A0
 70
     0
 62
     7
  6
CONTINUOUS
  0
LAYER
  5
54A
100
AcDbSymbolTableRecord
100
AcDbLayerTableRecord
  2
A1023
 70
     0
 62
    16
  6
CONTINUOUS
  0
ENDTAB
  0
TABLE
  2
STYLE
  5
54B
100
AcDbSymbolTable
 70
     4
  0
STYLE
  5
54C
100
AcDbSymbolTableRecord
100
AcDbTextStyleTableRecord
  2
STANDARD
 70
    64
 40
0.0
 41
1.0
 50
0.0
 71
     0
 42
7.749999761581421
  3
TXT
  4

  0
STYLE
  5
54D
100
AcDbSymbolTableRecord
100
AcDbTextStyleTableRecord
  2
ANKTATE
 70
    68
 40
0.0
 41
1.0
 50
0.0
 71
     0
 42
7.749999761581421
  3
TXT
  4

  0
STYLE
  5
251
100
AcDbSymbolTableRecord
100
AcDbTextStyleTableRecord
  2
KNJYOKO
 70
    64
 40
0.0
 41
1.0
 50
0.0
 71
     0
 42
7.749999761581421
  3
TXT
  4
BIGFONT
  0
STYLE
  5
54E
100
AcDbSymbolTableRecord
100
AcDbTextStyleTableRecord
  2
KNJTATE
 70
    68
 40
0.0
 41
1.0
 50
0.0
 71
     0
 42
7.749999761581421
  3
TXT
  4
BIGFONT
  0
ENDTAB
  0
TABLE
  2
VIEW
  5
54F
100
AcDbSymbolTable
 70
     0
  0
ENDTAB
  0
TABLE
  2
UCS
  5
550
100
AcDbSymbolTable
 70
     0
  0
ENDTAB
  0
TABLE
  2
APPID
  5
551
100
AcDbSymbolTable
 70
     1
  0
APPID
  5
552
100
AcDbSymbolTableRecord
100
AcDbRegAppTableRecord
  2
ACAD
 70
     0
  0
ENDTAB
  0
TABLE
  2
DIMSTYLE
  5
553
100
AcDbSymbolTable
 70
     1
  0
DIMSTYLE
105
554
100
AcDbSymbolTableRecord
100
AcDbDimStyleTableRecord
  2
STANDARD
 70
     0
 41
2.000000
 44
2.000000
 42
0.800000
145
0.661290
140
3.100000
144
1.000000
146
0.903226
340
54C
  0
DIMSTYLE
105
555
100
AcDbSymbolTableRecord
100
AcDbDimStyleTableRecord
  2
MAIN001
 70
     0
 41
6.000000
 44
6.000000
 42
2.400000
145
0.553763
140
9.300000
144
1.000000
146
0.903226
 77
     1
 73
     0
 74
     0
271
     3
275
     1
 78
     8
172
     1
340
54C
  0
DIMSTYLE
105
556
100
AcDbSymbolTableRecord
100
AcDbDimStyleTableRecord
  2
WAKU002
 70
     0
 41
2.000000
 44
2.000000
 42
0.800000
145
0.661290
140
3.100000
144
1.000000
146
0.903226
 77
     1
 73
     0
 74
     0
271
     3
275
     1
 78
     8
172
     1
340
54C
  0
DIMSTYLE
105
557
100
AcDbSymbolTableRecord
100
AcDbDimStyleTableRecord
  2
A003
 70
     0
 41
5.000000
 44
5.000000
 42
2.000000
145
0.564516
140
7.750000
144
1.000000
146
0.903226
 77
     1
 73
     0
 74
     0
271
     3
275
     1
 78
     8
172
     1
340
54C
  0
ENDTAB
  0
TABLE
  2
BLOCK_RECORD
  5
558
100
AcDbSymbolTable
 70
    67
  0
BLOCK_RECORD
  5
559
100
AcDbSymbolTableRecord
100
AcDbBlockTableRecord
  2
*MODEL_SPACE
  0
BLOCK_RECORD
  5
55A
100
AcDbSymbolTableRecord
100
AcDbBlockTableRecord
  2
*PAPER_SPACE
  0
BLOCK_RECORD
  5
1
100
AcDbSymbolTableRecord
100
AcDbBlockTableRecord
  2
_NONE
  0
BLOCK_RECORD
  5
4
100
AcDbSymbolTableRecord
100
AcDbBlockTableRecord
  2
_CLOSED
  0
BLOCK_RECORD
  5
B
100
AcDbSymbolTableRecord
100
AcDbBlockTableRecord
  2
_DOT
  0
BLOCK_RECORD
  5
13
100
AcDbSymbolTableRecord
100
AcDbBlockTableRecord
  2
_OPEN
  0
BLOCK_RECORD
  5
19
100
AcDbSymbolTableRecord
100
AcDbBlockTableRecord
  2
_ORIGIN
  0
BLOCK_RECORD
  5
1E
100
AcDbSymbolTableRecord
100
AcDbBlockTableRecord
  2
_OPEN30
  0
BLOCK_RECORD
  5
24
100
AcDbSymbolTableRecord
100
AcDbBlockTableRecord
  2
_BOXFILLED
  0
BLOCK_RECORD
  5
29
100
AcDbSymbolTableRecord
100
AcDbBlockTableRecord
  2
_BOXBLANK
  0
BLOCK_RECORD
  5
31
100
AcDbSymbolTableRecord
100
AcDbBlockTableRecord
  2
_OBLIQUE
  0
BLOCK_RECORD
  5
35
100
AcDbSymbolTableRecord
100
AcDbBlockTableRecord
  2
_OPEN90
  0
BLOCK_RECORD
  5
3B
100
AcDbSymbolTableRecord
100
AcDbBlockTableRecord
  2
_CLOSEDBLANK
  0
BLOCK_RECORD
  5
41
100
AcDbSymbolTableRecord
100
AcDbBlockTableRecord
  2
_DOTBLANK
  0
BLOCK_RECORD
  5
55B
100
AcDbSymbolTableRecord
100
AcDbBlockTableRecord
  2
*D0
  0
BLOCK_RECORD
  5
55C
100
AcDbSymbolTableRecord
100
AcDbBlockTableRecord
  2
*D1
  0
BLOCK_RECORD
  5
55D
100
AcDbSymbolTableRecord
100
AcDbBlockTableRecord
  2
*D2
  0
BLOCK_RECORD
  5
55E
100
AcDbSymbolTableRecord
100
AcDbBlockTableRecord
  2
*D3
  0
BLOCK_RECORD
  5
55F
100
AcDbSymbolTableRecord
100
AcDbBlockTableRecord
  2
*D4
  0
BLOCK_RECORD
  5
560
100
AcDbSymbolTableRecord
100
AcDbBlockTableRecord
  2
*D5
  0
BLOCK_RECORD
  5
561
100
AcDbSymbolTableRecord
100
AcDbBlockTableRecord
  2
*D6
  0
BLOCK_RECORD
  5
562
100
AcDbSymbolTableRecord
100
AcDbBlockTableRecord
  2
*D7
  0
BLOCK_RECORD
  5
563
100
AcDbSymbolTableRecord
100
AcDbBlockTableRecord
  2
*D8
  0
BLOCK_RECORD
  5
564
100
AcDbSymbolTableRecord
100
AcDbBlockTableRecord
  2
*D9
  0
BLOCK_RECORD
  5
565
100
AcDbSymbolTableRecord
100
AcDbBlockTableRecord
  2
*D10
  0
BLOCK_RECORD
  5
566
100
AcDbSymbolTableRecord
100
AcDbBlockTableRecord
  2
*D11
  0
BLOCK_RECORD
  5
567
100
AcDbSymbolTableRecord
100
AcDbBlockTableRecord
  2
*D12
  0
BLOCK_RECORD
  5
568
100
AcDbSymbolTableRecord
100
AcDbBlockTableRecord
  2
*D13
  0
BLOCK_RECORD
  5
569
100
AcDbSymbolTableRecord
100
AcDbBlockTableRecord
  2
*D14
  0
BLOCK_RECORD
  5
56A
100
AcDbSymbolTableRecord
100
AcDbBlockTableRecord
  2
*D15
  0
BLOCK_RECORD
  5
56B
100
AcDbSymbolTableRecord
100
AcDbBlockTableRecord
  2
*D16
  0
BLOCK_RECORD
  5
56C
100
AcDbSymbolTableRecord
100
AcDbBlockTableRecord
  2
*D17
  0
BLOCK_RECORD
  5
56D
100
AcDbSymbolTableRecord
100
AcDbBlockTableRecord
  2
*D18
  0
BLOCK_RECORD
  5
56E
100
AcDbSymbolTableRecord
100
AcDbBlockTableRecord
  2
*D19
  0
BLOCK_RECORD
  5
56F
100
AcDbSymbolTableRecord
100
AcDbBlockTableRecord
  2
*D20
  0
BLOCK_RECORD
  5
570
100
AcDbSymbolTableRecord
100
AcDbBlockTableRecord
  2
*D21
  0
BLOCK_RECORD
  5
571
100
AcDbSymbolTableRecord
100
AcDbBlockTableRecord
  2
*D22
  0
BLOCK_RECORD
  5
572
100
AcDbSymbolTableRecord
100
AcDbBlockTableRecord
  2
*D23
  0
BLOCK_RECORD
  5
573
100
AcDbSymbolTableRecord
100
AcDbBlockTableRecord
  2
*D24
  0
BLOCK_RECORD
  5
574
100
AcDbSymbolTableRecord
100
AcDbBlockTableRecord
  2
*D25
  0
BLOCK_RECORD
  5
575
100
AcDbSymbolTableRecord
100
AcDbBlockTableRecord
  2
*D26
  0
BLOCK_RECORD
  5
576
100
AcDbSymbolTableRecord
100
AcDbBlockTableRecord
  2
*D27
  0
BLOCK_RECORD
  5
577
100
AcDbSymbolTableRecord
100
AcDbBlockTableRecord
  2
*D28
  0
BLOCK_RECORD
  5
578
100
AcDbSymbolTableRecord
100
AcDbBlockTableRecord
  2
*D29
  0
BLOCK_RECORD
  5
579
100
AcDbSymbolTableRecord
100
AcDbBlockTableRecord
  2
*D30
  0
BLOCK_RECORD
  5
57A
100
AcDbSymbolTableRecord
100
AcDbBlockTableRecord
  2
*D31
  0
BLOCK_RECORD
  5
57B
100
AcDbSymbolTableRecord
100
AcDbBlockTableRecord
  2
*D32
  0
BLOCK_RECORD
  5
57C
100
AcDbSymbolTableRecord
100
AcDbBlockTableRecord
  2
*D33
  0
BLOCK_RECORD
  5
57D
100
AcDbSymbolTableRecord
100
AcDbBlockTableRecord
  2
*D34
  0
BLOCK_RECORD
  5
57E
100
AcDbSymbolTableRecord
100
AcDbBlockTableRecord
  2
*D35
  0
BLOCK_RECORD
  5
57F
100
AcDbSymbolTableRecord
100
AcDbBlockTableRecord
  2
*D36
  0
BLOCK_RECORD
  5
580
100
AcDbSymbolTableRecord
100
AcDbBlockTableRecord
  2
*D37
  0
BLOCK_RECORD
  5
581
100
AcDbSymbolTableRecord
100
AcDbBlockTableRecord
  2
*D38
  0
BLOCK_RECORD
  5
582
100
AcDbSymbolTableRecord
100
AcDbBlockTableRecord
  2
*D39
  0
BLOCK_RECORD
  5
583
100
AcDbSymbolTableRecord
100
AcDbBlockTableRecord
  2
*D40
  0
BLOCK_RECORD
  5
584
100
AcDbSymbolTableRecord
100
AcDbBlockTableRecord
  2
*D41
  0
BLOCK_RECORD
  5
585
100
AcDbSymbolTableRecord
100
AcDbBlockTableRecord
  2
*D42
  0
BLOCK_RECORD
  5
586
100
AcDbSymbolTableRecord
100
AcDbBlockTableRecord
  2
*D43
  0
BLOCK_RECORD
  5
587
100
AcDbSymbolTableRecord
100
AcDbBlockTableRecord
  2
*D44
  0
BLOCK_RECORD
  5
588
100
AcDbSymbolTableRecord
100
AcDbBlockTableRecord
  2
*D45
  0
BLOCK_RECORD
  5
589
100
AcDbSymbolTableRecord
100
AcDbBlockTableRecord
  2
D46
  0
BLOCK_RECORD
  5
58A
100
AcDbSymbolTableRecord
100
AcDbBlockTableRecord
  2
*D47
  0
BLOCK_RECORD
  5
58B
100
AcDbSymbolTableRecord
100
AcDbBlockTableRecord
  2
*D48
  0
BLOCK_RECORD
  5
58C
100
AcDbSymbolTableRecord
100
AcDbBlockTableRecord
  2
*D49
  0
BLOCK_RECORD
  5
58D
100
AcDbSymbolTableRecord
100
AcDbBlockTableRecord
  2
*D50
  0
BLOCK_RECORD
  5
58E
100
AcDbSymbolTableRecord
100
AcDbBlockTableRecord
  2
*D51
  0
BLOCK_RECORD
  5
58F
100
AcDbSymbolTableRecord
100
AcDbBlockTableRecord
  2
*D52
  0
BLOCK_RECORD
  5
590
100
AcDbSymbolTableRecord
100
AcDbBlockTableRecord
  2
*D53
  0
BLOCK_RECORD
  5
591
100
AcDbSymbolTableRecord
100
AcDbBlockTableRecord
  2
*D54
  0
ENDTAB
  0
ENDSEC
  0
SECTION
  2
BLOCKS
  0
BLOCK
  5
592
100
AcDbEntity
  8
0
100
AcDbBlockBegin
  2
*MODEL_SPACE
 70
     0
 10
0.0
 20
0.0
 30
0.0
  3
*MODEL_SPACE
  1

  0
ENDBLK
  5
593
100
AcDbEntity
  8
0
100
AcDbBlockEnd
  0
BLOCK
  5
594
100
AcDbEntity
  8
0
100
AcDbBlockBegin
  2
*PAPER_SPACE
 70
     0
 10
0.0
 20
0.0
 30
0.0
  3
*PAPER_SPACE
  1

  0
ENDBLK
  5
595
100
AcDbEntity
  8
0
100
AcDbBlockEnd
  0
BLOCK
  5
2
100
AcDbEntity
  8
0
100
AcDbBlockBegin
  2
_NONE
 70
     0
 10
0.0
 20
0.0
 30
0.0
  3
_NONE
  1

  0
ENDBLK
  5
3
100
AcDbEntity
  8
0
100
AcDbBlockEnd
  0
BLOCK
  5
5
100
AcDbEntity
  8
0
100
AcDbBlockBegin
  2
_CLOSED
 70
     0
 10
0.0
 20
0.0
 30
0.0
  3
_CLOSED
  1

  0
LINE
  5
6
100
AcDbEntity
  8
0
  6
BYBLOCK
 62
     0
100
AcDbLine
 10
-1.0
 20
0.166667
 30
0.0
 11
0.0
 21
0.0
 31
0.0
  0
LINE
  5
7
100
AcDbEntity
  8
0
  6
BYBLOCK
 62
     0
100
AcDbLine
 10
0.0
 20
0.0
 30
0.0
 11
-1.0
 21
-0.166667
 31
0.0
  0
LINE
  5
8
100
AcDbEntity
  8
0
  6
BYBLOCK
 62
     0
100
AcDbLine
 10
-1.0
 20
0.166667
 30
0.0
 11
-1.0
 21
-0.166667
 31
0.0
  0
LINE
  5
9
100
AcDbEntity
  8
0
  6
BYBLOCK
 62
     0
100
AcDbLine
 10
0.0
 20
0.0
 30
0.0
 11
-1.0
 21
0.0
 31
0.0
  0
ENDBLK
  5
A
100
AcDbEntity
  8
0
100
AcDbBlockEnd
  0
BLOCK
  5
C
100
AcDbEntity
  8
0
100
AcDbBlockBegin
  2
_DOT
 70
     0
 10
0.0
 20
0.0
 30
0.0
  3
_DOT
  1

  0
POLYLINE
  5
D
100
AcDbEntity
  8
0
  6
BYBLOCK
 62
     0
100
AcDb2dPolyline
 66
     1
 10
0.0
 20
0.0
 30
0.0
 70
     1
 40
0.5
 41
0.5
  0
VERTEX
  5
E
100
AcDbEntity
  8
0
  6
BYBLOCK
 62
     0
100
AcDbVertex
100
AcDb2dVertex
 10
-0.25
 20
0.0
 30
0.0
 42
1.0
  0
VERTEX
  5
F
100
AcDbEntity
  8
0
  6
BYBLOCK
 62
     0
100
AcDbVertex
100
AcDb2dVertex
 10
0.25
 20
0.0
 30
0.0
 42
1.0
  0
SEQEND
  5
10
100
AcDbEntity
  8
0
  6
BYBLOCK
 62
     0
  0
LINE
  5
11
100
AcDbEntity
  8
0
  6
BYBLOCK
 62
     0
100
AcDbLine
 10
-0.5
 20
0.0
 30
0.0
 11
-1.0
 21
0.0
 31
0.0
  0
ENDBLK
  5
12
100
AcDbEntity
  8
0
100
AcDbBlockEnd
  0
BLOCK
  5
14
100
AcDbEntity
  8
0
100
AcDbBlockBegin
  2
_OPEN
 70
     0
 10
0.0
 20
0.0
 30
0.0
  3
_OPEN
  1

  0
LINE
  5
15
100
AcDbEntity
  8
0
  6
BYBLOCK
 62
     0
100
AcDbLine
 10
-1.0
 20
0.166667
 30
0.0
 11
0.0
 21
0.0
 31
0.0
  0
LINE
  5
16
100
AcDbEntity
  8
0
  6
BYBLOCK
 62
     0
100
AcDbLine
 10
0.0
 20
0.0
 30
0.0
 11
-1.0
 21
-0.166667
 31
0.0
  0
LINE
  5
17
100
AcDbEntity
  8
0
  6
BYBLOCK
 62
     0
100
AcDbLine
 10
0.0
 20
0.0
 30
0.0
 11
-1.0
 21
0.0
 31
0.0
  0
ENDBLK
  5
18
100
AcDbEntity
  8
0
100
AcDbBlockEnd
  0
BLOCK
  5
1A
100
AcDbEntity
  8
0
100
AcDbBlockBegin
  2
_ORIGIN
 70
     0
 10
0.0
 20
0.0
 30
0.0
  3
_ORIGIN
  1

  0
CIRCLE
  5
1B
100
AcDbEntity
  8
0
  6
BYBLOCK
 62
     0
100
AcDbCircle
 10
0.0
 20
0.0
 30
0.0
 40
0.5
  0
LINE
  5
1C
100
AcDbEntity
  8
0
  6
BYBLOCK
 62
     0
100
AcDbLine
 10
0.0
 20
0.0
 30
0.0
 11
-1.0
 21
0.0
 31
0.0
  0
ENDBLK
  5
1D
100
AcDbEntity
  8
0
100
AcDbBlockEnd
  0
BLOCK
  5
1F
100
AcDbEntity
  8
0
100
AcDbBlockBegin
  2
_OPEN30
 70
     0
 10
0.0
 20
0.0
 30
0.0
  3
_OPEN30
  1

  0
LINE
  5
20
100
AcDbEntity
  8
0
  6
BYBLOCK
 62
     0
100
AcDbLine
 10
-1.0
 20
0.267949
 30
0.0
 11
0.0
 21
0.0
 31
0.0
  0
LINE
  5
21
100
AcDbEntity
  8
0
  6
BYBLOCK
 62
     0
100
AcDbLine
 10
0.0
 20
0.0
 30
0.0
 11
-1.0
 21
-0.267949
 31
0.0
  0
LINE
  5
22
100
AcDbEntity
  8
0
  6
BYBLOCK
 62
     0
100
AcDbLine
 10
0.0
 20
0.0
 30
0.0
 11
-1.0
 21
0.0
 31
0.0
  0
ENDBLK
  5
23
100
AcDbEntity
  8
0
100
AcDbBlockEnd
  0
BLOCK
  5
25
100
AcDbEntity
  8
0
100
AcDbBlockBegin
  2
_BOXFILLED
 70
     0
 10
0.0
 20
0.0
 30
0.0
  3
_BOXFILLED
  1

  0
SOLID
  5
26
100
AcDbEntity
  8
0
  6
BYBLOCK
 62
     0
100
AcDbTrace
 10
-0.5
 20
0.5
 30
0.0
 11
0.5
 21
0.5
 31
0.0
 12
-0.5
 22
-0.5
 32
0.0
 13
0.5
 23
-0.5
 33
0.0
  0
LINE
  5
27
100
AcDbEntity
  8
0
  6
BYBLOCK
 62
     0
100
AcDbLine
 10
-0.5
 20
0.0
 30
0.0
 11
-1.0
 21
0.0
 31
0.0
  0
ENDBLK
  5
28
100
AcDbEntity
  8
0
100
AcDbBlockEnd
  0
BLOCK
  5
2A
100
AcDbEntity
  8
0
100
AcDbBlockBegin
  2
_BOXBLANK
 70
     0
 10
0.0
 20
0.0
 30
0.0
  3
_BOXBLANK
  1

  0
LINE
  5
2B
100
AcDbEntity
  8
0
  6
BYBLOCK
 62
     0
100
AcDbLine
 10
-0.5
 20
-0.5
 30
0.0
 11
0.5
 21
-0.5
 31
0.0
  0
LINE
  5
2C
100
AcDbEntity
  8
0
  6
BYBLOCK
 62
     0
100
AcDbLine
 10
0.5
 20
-0.5
 30
0.0
 11
0.5
 21
0.5
 31
0.0
  0
LINE
  5
2D
100
AcDbEntity
  8
0
  6
BYBLOCK
 62
     0
100
AcDbLine
 10
0.5
 20
0.5
 30
0.0
 11
-0.5
 21
0.5
 31
0.0
  0
LINE
  5
2E
100
AcDbEntity
  8
0
  6
BYBLOCK
 62
     0
100
AcDbLine
 10
-0.5
 20
0.5
 30
0.0
 11
-0.5
 21
-0.5
 31
0.0
  0
LINE
  5
2F
100
AcDbEntity
  8
0
  6
BYBLOCK
 62
     0
100
AcDbLine
 10
-0.5
 20
0.0
 30
0.0
 11
-1.0
 21
0.0
 31
0.0
  0
ENDBLK
  5
30
100
AcDbEntity
  8
0
100
AcDbBlockEnd
  0
BLOCK
  5
32
100
AcDbEntity
  8
0
100
AcDbBlockBegin
  2
_OBLIQUE
 70
     0
 10
0.0
 20
0.0
 30
0.0
  3
_OBLIQUE
  1

  0
LINE
  5
33
100
AcDbEntity
  8
0
  6
BYBLOCK
 62
     0
100
AcDbLine
 10
-0.5
 20
-0.5
 30
0.0
 11
0.5
 21
0.5
 31
0.0
  0
ENDBLK
  5
34
100
AcDbEntity
  8
0
100
AcDbBlockEnd
  0
BLOCK
  5
36
100
AcDbEntity
  8
0
100
AcDbBlockBegin
  2
_OPEN90
 70
     0
 10
0.0
 20
0.0
 30
0.0
  3
_OPEN90
  1

  0
LINE
  5
37
100
AcDbEntity
  8
0
  6
BYBLOCK
 62
     0
100
AcDbLine
 10
-0.5
 20
0.5
 30
0.0
 11
0.0
 21
0.0
 31
0.0
  0
LINE
  5
38
100
AcDbEntity
  8
0
  6
BYBLOCK
 62
     0
100
AcDbLine
 10
0.0
 20
0.0
 30
0.0
 11
-0.5
 21
-0.5
 31
0.0
  0
LINE
  5
39
100
AcDbEntity
  8
0
  6
BYBLOCK
 62
     0
100
AcDbLine
 10
0.0
 20
0.0
 30
0.0
 11
-1.0
 21
0.0
 31
0.0
  0
ENDBLK
  5
3A
100
AcDbEntity
  8
0
100
AcDbBlockEnd
  0
BLOCK
  5
3C
100
AcDbEntity
  8
0
100
AcDbBlockBegin
  2
_CLOSEDBLANK
 70
     0
 10
0.0
 20
0.0
 30
0.0
  3
_CLOSEDBLANK
  1

  0
LINE
  5
3D
100
AcDbEntity
  8
0
  6
BYBLOCK
 62
     0
100
AcDbLine
 10
-1.0
 20
0.1666666666666666
 30
0.0
 11
0.0
 21
0.0
 31
0.0
  0
LINE
  5
3E
100
AcDbEntity
  8
0
  6
BYBLOCK
 62
     0
100
AcDbLine
 10
0.0
 20
0.0
 30
0.0
 11
-1.0
 21
-0.1666666666666666
 31
0.0
  0
LINE
  5
3F
100
AcDbEntity
  8
0
  6
BYBLOCK
 62
     0
100
AcDbLine
 10
-1.0
 20
0.1666666666666666
 30
0.0
 11
-1.0
 21
-0.1666666666666666
 31
0.0
  0
ENDBLK
  5
40
100
AcDbEntity
  8
0
100
AcDbBlockEnd
  0
BLOCK
  5
42
100
AcDbEntity
  8
0
100
AcDbBlockBegin
  2
_DOTBLANK
 70
     0
 10
0.0
 20
0.0
 30
0.0
  3
_DOTBLANK
  1

  0
CIRCLE
  5
43
100
AcDbEntity
  8
0
  6
BYBLOCK
 62
     0
100
AcDbCircle
 10
0.0
 20
0.0
 30
0.0
 40
0.5
  0
LINE
  5
44
100
AcDbEntity
  8
0
  6
BYBLOCK
 62
     0
100
AcDbLine
 10
-0.5
 20
0.0
 30
0.0
 11
-1.0
 21
0.0
 31
0.0
  0
ENDBLK
  5
45
100
AcDbEntity
  8
0
100
AcDbBlockEnd
  0
BLOCK
  5
D9
100
AcDbEntity
  8
MAIN0
  6
CONTINUOUS
 62
3
100
AcDbBlockBegin
  2
*D0
 70
    65
 10
0.0
 20
0.0
 30
0.0
  0
LINE
  5
DA
100
AcDbEntity
  8
MAIN0
  6
BYBLOCK
 62
0
100
AcDbLine
 10
356.3829605851622
 20
308.5994866845869
 30
0.0000000000000000
 11
356.3829605851620
 21
176.5193698135522
 31
0.0000000000000000
  0
LINE
  5
DB
100
AcDbEntity
  8
MAIN0
  6
BYBLOCK
 62
0
100
AcDbLine
 10
362.3829605851620
 20
182.5193698135522
 30
0.0000000000000000
 11
801.8829605851622
 21
182.5193698135522
 31
0.0000000000000000
  0
INSERT
  5
DC
100
AcDbEntity
  8
MAIN0
  6
BYBLOCK
 62
0
100
AcDbBlockReference
  2
_OPEN
 10
356.3829605851620
 20
182.5193698135522
 30
0.0000000000000000
 41
6.000000000000000
 42
6.000000000000000
 43
6.000000000000000
 50
180.0000000000000
  0
INSERT
  5
DD
100
AcDbEntity
  8
MAIN0
  6
BYBLOCK
 62
0
100
AcDbBlockReference
  2
_OPEN
 10
807.8829605851622
 20
182.5193698135522
 30
0.0000000000000000
 41
6.000000000000000
 42
6.000000000000000
 43
6.000000000000000
 50
0.0000000000000000
  0
LINE
  5
DE
100
AcDbEntity
  8
MAIN0
  6
BYBLOCK
 62
0
100
AcDbLine
 10
807.8829605851622
 20
348.5994866845867
 30
0.0000000000000000
 11
807.8829605851622
 21
176.5193698135522
 31
0.0000000000000000
  0
MTEXT
  5
DF
100
AcDbEntity
  8
MAIN0
  6
BYBLOCK
 62
0
100
AcDbMText
 10
571.5157663398928
 20
188.6693696705011
 30
0.0000000000000000
 40
9.299999713897705
 41
0.0000000000000000
 71
     5
 72
     1
  1
\A1;451.5
 11
1.000000000000000
 21
0.0000000000000000
 31
0.0000000000000000
  7
STANDARD
  0
ENDBLK
  5
E0
100
AcDbEntity
  8
MAIN0
  6
CONTINUOUS
 62
3
100
AcDbBlockEnd
  0
BLOCK
  5
E2
100
AcDbEntity
  8
MAIN0
  6
CONTINUOUS
 62
3
100
AcDbBlockBegin
  2
*D1
 70
    65
 10
0.0
 20
0.0
 30
0.0
  0
LINE
  5
E3
100
AcDbEntity
  8
MAIN0
  6
BYBLOCK
 62
0
100
AcDbLine
 10
489.9829605493994
 20
305.9994867203495
 30
0.0000000000000000
 11
456.5095918006178
 21
305.9994867203495
 31
0.0000000000000000
  0
LINE
  5
E4
100
AcDbEntity
  8
MAIN0
  6
BYBLOCK
 62
0
100
AcDbLine
 10
462.5095918006178
 20
305.9994867203495
 30
0.0000000000000000
 11
462.5095918006178
 21
310.9994867203495
 31
0.0000000000000000
  0
INSERT
  5
E5
100
AcDbEntity
  8
MAIN0
  6
BYBLOCK
 62
0
100
AcDbBlockReference
  2
_OPEN
 10
462.5095918006178
 20
305.9994867203495
 30
0.0000000000000000
 41
6.000000000000000
 42
6.000000000000000
 43
6.000000000000000
 50
90.00000000000000
  0
INSERT
  5
E6
100
AcDbEntity
  8
MAIN0
  6
BYBLOCK
 62
0
100
AcDbBlockReference
  2
_OPEN
 10
462.5095918006178
 20
310.9994867203495
 30
0.0000000000000000
 41
6.000000000000000
 42
6.000000000000000
 43
6.000000000000000
 50
270.0000000000000
  0
LINE
  5
E7
100
AcDbEntity
  8
MAIN0
  6
BYBLOCK
 62
0
100
AcDbLine
 10
462.5095918006178
 20
299.9994867203495
 30
0.0000000000000000
 11
462.5095918006178
 21
292.0637040326594
 31
0.0000000000000000
  0
LINE
  5
E8
100
AcDbEntity
  8
MAIN0
  6
BYBLOCK
 62
0
100
AcDbLine
 10
462.5095918006178
 20
316.9994867203495
 30
0.0000000000000000
 11
462.5095918006178
 21
319.9994867203495
 31
0.0000000000000000
  0
MTEXT
  5
E9
100
AcDbEntity
  8
MAIN0
  6
BYBLOCK
 62
0
100
AcDbMText
 10
456.3595919436688
 20
295.0637040326594
 30
0.0000000000000000
 40
9.299999713897705
 41
0.0000000000000000
 71
     5
 72
     1
  1
\A1;5
 11
6.123233995736766e-017
 21
1.000000000000000
 31
0.0000000000000000
  7
STANDARD
  0
ENDBLK
  5
EA
100
AcDbEntity
  8
MAIN0
  6
CONTINUOUS
 62
3
100
AcDbBlockEnd
  0
BLOCK
  5
EC
100
AcDbEntity
  8
MAIN0
  6
CONTINUOUS
 62
3
100
AcDbBlockBegin
  2
*D2
 70
    65
 10
0.0
 20
0.0
 30
0.0
  0
LINE
  5
ED
100
AcDbEntity
  8
MAIN0
  6
BYBLOCK
 62
0
100
AcDbLine
 10
87.22116049327843
 20
452.8994867561123
 30
0.0000000000000000
 11
87.22116049327843
 21
506.4711325134849
 31
0.0000000000000000
  0
LINE
  5
EE
100
AcDbEntity
  8
MAIN0
  6
BYBLOCK
 62
0
100
AcDbLine
 10
93.22116049327843
 20
500.4711325134849
 30
0.0000000000000000
 11
205.7211604932784
 21
500.4711325134849
 31
0.0000000000000000
  0
INSERT
  5
EF
100
AcDbEntity
  8
MAIN0
  6
BYBLOCK
 62
0
100
AcDbBlockReference
  2
_OPEN
 10
87.22116049327843
 20
500.4711325134849
 30
0.0000000000000000
 41
6.000000000000000
 42
6.000000000000000
 43
6.000000000000000
 50
180.0000000000000
  0
INSERT
  5
F0
100
AcDbEntity
  8
MAIN0
  6
BYBLOCK
 62
0
100
AcDbBlockReference
  2
_OPEN
 10
211.7211604932784
 20
500.4711325134849
 30
0.0000000000000000
 41
6.000000000000000
 42
6.000000000000000
 43
6.000000000000000
 50
0.0000000000000000
  0
LINE
  5
F1
100
AcDbEntity
  8
MAIN0
  6
BYBLOCK
 62
0
100
AcDbLine
 10
211.7211604932784
 20
452.8994867561123
 30
0.0000000000000000
 11
211.7211604932784
 21
506.4711325134849
 31
0.0000000000000000
  0
MTEXT
  5
F2
100
AcDbEntity
  8
MAIN0
  6
BYBLOCK
 62
0
100
AcDbMText
 10
149.4711604932784
 20
505.6211323704338
 30
0.0000000000000000
 40
9.299999713897705
 41
0.0000000000000000
 71
     5
 72
     1
  1
\A1;124.5
 11
1.000000000000000
 21
0.0000000000000000
 31
0.0000000000000000
  7
STANDARD
  0
ENDBLK
  5
F3
100
AcDbEntity
  8
MAIN0
  6
CONTINUOUS
 62
3
100
AcDbBlockEnd
  0
BLOCK
  5
F5
100
AcDbEntity
  8
MAIN0
  6
CONTINUOUS
 62
3
100
AcDbBlockBegin
  2
*D3
 70
    65
 10
0.0
 20
0.0
 30
0.0
  0
LINE
  5
F6
100
AcDbEntity
  8
MAIN0
  6
BYBLOCK
 62
0
100
AcDbLine
 10
214.8711605290411
 20
310.9994867203495
 30
0.0000000000000000
 11
260.0474822305750
 21
310.9994867203495
 31
0.0000000000000000
  0
LINE
  5
F7
100
AcDbEntity
  8
MAIN0
  6
BYBLOCK
 62
0
100
AcDbLine
 10
254.0474822305750
 20
310.9994867203495
 30
0.0000000000000000
 11
254.0474822305750
 21
331.9994867203495
 31
0.0000000000000000
  0
INSERT
  5
F8
100
AcDbEntity
  8
MAIN0
  6
BYBLOCK
 62
0
100
AcDbBlockReference
  2
_OPEN
 10
254.0474822305750
 20
310.9994867203495
 30
0.0000000000000000
 41
6.000000000000000
 42
6.000000000000000
 43
6.000000000000000
 50
90.00000000000000
  0
INSERT
  5
F9
100
AcDbEntity
  8
MAIN0
  6
BYBLOCK
 62
0
100
AcDbBlockReference
  2
_OPEN
 10
254.0474822305750
 20
331.9994867203495
 30
0.0000000000000000
 41
6.000000000000000
 42
6.000000000000000
 43
6.000000000000000
 50
270.0000000000000
  0
LINE
  5
FA
100
AcDbEntity
  8
MAIN0
  6
BYBLOCK
 62
0
100
AcDbLine
 10
254.0474822305750
 20
304.9994867203495
 30
0.0000000000000000
 11
254.0474822305750
 21
301.9994867203495
 31
0.0000000000000000
  0
LINE
  5
FB
100
AcDbEntity
  8
MAIN0
  6
BYBLOCK
 62
0
100
AcDbLine
 10
254.0474822305750
 20
337.9994867203495
 30
0.0000000000000000
 11
254.0474822305750
 21
340.9994867203495
 31
0.0000000000000000
  0
LINE
  5
FC
100
AcDbEntity
  8
MAIN0
  6
BYBLOCK
 62
0
100
AcDbLine
 10
214.8711605290411
 20
331.9994867203495
 30
0.0000000000000000
 11
260.0474822305750
 21
331.9994867203495
 31
0.0000000000000000
  0
MTEXT
  5
FD
100
AcDbEntity
  8
MAIN0
  6
BYBLOCK
 62
0
100
AcDbMText
 10
248.8974823736262
 20
321.4994867203495
 30
0.0000000000000000
 40
9.299999713897705
 41
0.0000000000000000
 71
     5
 72
     1
  1
\A1;21
 11
6.123233995736766e-017
 21
1.000000000000000
 31
0.0000000000000000
  7
STANDARD
  0
ENDBLK
  5
FE
100
AcDbEntity
  8
MAIN0
  6
CONTINUOUS
 62
3
100
AcDbBlockEnd
  0
BLOCK
  5
100
100
AcDbEntity
  8
MAIN0
  6
CONTINUOUS
 62
3
100
AcDbBlockBegin
  2
*D4
 70
    65
 10
0.0
 20
0.0
 30
0.0
  0
LINE
  5
101
100
AcDbEntity
  8
MAIN0
  6
BYBLOCK
 62
0
100
AcDbLine
 10
214.8711605290411
 20
331.9994867203495
 30
0.0000000000000000
 11
260.0474822305750
 21
331.9994867203495
 31
0.0000000000000000
  0
LINE
  5
102
100
AcDbEntity
  8
MAIN0
  6
BYBLOCK
 62
0
100
AcDbLine
 10
254.0474822305750
 20
337.9994867203495
 30
0.0000000000000000
 11
254.0474822305750
 21
365.9994867203495
 31
0.0000000000000000
  0
INSERT
  5
103
100
AcDbEntity
  8
MAIN0
  6
BYBLOCK
 62
0
100
AcDbBlockReference
  2
_OPEN
 10
254.0474822305750
 20
331.9994867203495
 30
0.0000000000000000
 41
6.000000000000000
 42
6.000000000000000
 43
6.000000000000000
 50
270.0000000000000
  0
INSERT
  5
104
100
AcDbEntity
  8
MAIN0
  6
BYBLOCK
 62
0
100
AcDbBlockReference
  2
_OPEN
 10
254.0474822305750
 20
371.9994867203495
 30
0.0000000000000000
 41
6.000000000000000
 42
6.000000000000000
 43
6.000000000000000
 50
90.00000000000000
  0
LINE
  5
105
100
AcDbEntity
  8
MAIN0
  6
BYBLOCK
 62
0
100
AcDbLine
 10
214.8711605290411
 20
371.9994867203495
 30
0.0000000000000000
 11
260.0474822305750
 21
371.9994867203495
 31
0.0000000000000000
  0
MTEXT
  5
106
100
AcDbEntity
  8
MAIN0
  6
BYBLOCK
 62
0
100
AcDbMText
 10
248.8974823736262
 20
351.9994867203495
 30
0.0000000000000000
 40
9.299999713897705
 41
0.0000000000000000
 71
     5
 72
     1
  1
\A1;40
 11
6.123233995736766e-017
 21
1.000000000000000
 31
0.0000000000000000
  7
STANDARD
  0
ENDBLK
  5
107
100
AcDbEntity
  8
MAIN0
  6
CONTINUOUS
 62
3
100
AcDbBlockEnd
  0
BLOCK
  5
109
100
AcDbEntity
  8
MAIN0
  6
CONTINUOUS
 62
3
100
AcDbBlockBegin
  2
*D5
 70
    65
 10
0.0
 20
0.0
 30
0.0
  0
LINE
  5
10A
100
AcDbEntity
  8
MAIN0
  6
BYBLOCK
 62
0
100
AcDbLine
 10
214.8711605290411
 20
371.9994867203495
 30
0.0000000000000000
 11
260.0474822305750
 21
371.9994867203495
 31
0.0000000000000000
  0
LINE
  5
10B
100
AcDbEntity
  8
MAIN0
  6
BYBLOCK
 62
0
100
AcDbLine
 10
254.0474822305750
 20
377.9994867203496
 30
0.0000000000000000
 11
254.0474822305750
 21
404.9994867203496
 31
0.0000000000000000
  0
INSERT
  5
10C
100
AcDbEntity
  8
MAIN0
  6
BYBLOCK
 62
0
100
AcDbBlockReference
  2
_OPEN
 10
254.0474822305750
 20
371.9994867203496
 30
0.0000000000000000
 41
6.000000000000000
 42
6.000000000000000
 43
6.000000000000000
 50
270.0000000000000
  0
INSERT
  5
10D
100
AcDbEntity
  8
MAIN0
  6
BYBLOCK
 62
0
100
AcDbBlockReference
  2
_OPEN
 10
254.0474822305750
 20
410.9994867203496
 30
0.0000000000000000
 41
6.000000000000000
 42
6.000000000000000
 43
6.000000000000000
 50
90.00000000000000
  0
LINE
  5
10E
100
AcDbEntity
  8
MAIN0
  6
BYBLOCK
 62
0
100
AcDbLine
 10
214.8711605290412
 20
410.9994867203496
 30
0.0000000000000000
 11
260.0474822305750
 21
410.9994867203496
 31
0.0000000000000000
  0
MTEXT
  5
10F
100
AcDbEntity
  8
MAIN0
  6
BYBLOCK
 62
0
100
AcDbMText
 10
248.8974823736262
 20
391.4994867203496
 30
0.0000000000000000
 40
9.299999713897705
 41
0.0000000000000000
 71
     5
 72
     1
  1
\A1;39
 11
6.123233995736766e-017
 21
1.000000000000000
 31
0.0000000000000000
  7
STANDARD
  0
ENDBLK
  5
110
100
AcDbEntity
  8
MAIN0
  6
CONTINUOUS
 62
3
100
AcDbBlockEnd
  0
BLOCK
  5
112
100
AcDbEntity
  8
MAIN0
  6
CONTINUOUS
 62
3
100
AcDbBlockBegin
  2
*D6
 70
    65
 10
0.0
 20
0.0
 30
0.0
  0
LINE
  5
113
100
AcDbEntity
  8
MAIN0
  6
BYBLOCK
 62
0
100
AcDbLine
 10
212.4711604932783
 20
334.3994867561123
 30
0.0000000000000000
 11
212.4711604932783
 21
354.4978464213066
 31
0.0000000000000000
  0
LINE
  5
114
100
AcDbEntity
  8
MAIN0
  6
BYBLOCK
 62
0
100
AcDbLine
 10
212.4711604932783
 20
348.4978464213066
 30
0.0000000000000000
 11
205.4711604932783
 21
348.4978464213066
 31
0.0000000000000000
  0
INSERT
  5
115
100
AcDbEntity
  8
MAIN0
  6
BYBLOCK
 62
0
100
AcDbBlockReference
  2
_OPEN
 10
212.4711604932783
 20
348.4978464213066
 30
0.0000000000000000
 41
6.000000000000000
 42
6.000000000000000
 43
6.000000000000000
 50
180.0000000000000
  0
INSERT
  5
116
100
AcDbEntity
  8
MAIN0
  6
BYBLOCK
 62
0
100
AcDbBlockReference
  2
_OPEN
 10
205.4711604932783
 20
348.4978464213066
 30
0.0000000000000000
 41
6.000000000000000
 42
6.000000000000000
 43
6.000000000000000
 50
360.0000000000000
  0
LINE
  5
117
100
AcDbEntity
  8
MAIN0
  6
BYBLOCK
 62
0
100
AcDbLine
 10
218.4711604932783
 20
348.4978464213066
 30
0.0000000000000000
 11
227.1515847727819
 21
348.4978464213066
 31
0.0000000000000000
  0
LINE
  5
118
100
AcDbEntity
  8
MAIN0
  6
BYBLOCK
 62
0
100
AcDbLine
 10
199.4711604932783
 20
348.4978464213066
 30
0.0000000000000000
 11
196.4711604932783
 21
348.4978464213066
 31
0.0000000000000000
  0
MTEXT
  5
119
100
AcDbEntity
  8
MAIN0
  6
BYBLOCK
 62
0
100
AcDbMText
 10
224.1515847727819
 20
354.6478462782554
 30
0.0000000000000000
 40
9.299999713897705
 41
0.0000000000000000
 71
     5
 72
     1
  1
\A1;7
 11
1.000000000000000
 21
0.0000000000000000
 31
0.0000000000000000
  7
STANDARD
  0
ENDBLK
  5
11A
100
AcDbEntity
  8
MAIN0
  6
CONTINUOUS
 62
3
100
AcDbBlockEnd
  0
BLOCK
  5
120
100
AcDbEntity
  8
MAIN0
  6
CONTINUOUS
 62
3
100
AcDbBlockBegin
  2
*D7
 70
    65
 10
0.0
 20
0.0
 30
0.0
  0
LINE
  5
121
100
AcDbEntity
  8
MAIN0
  6
BYBLOCK
 62
0
100
AcDbLine
 10
356.3829605851622
 20
308.5994866845869
 30
0.0000000000000000
 11
356.3829605851620
 21
221.2579632843358
 31
0.0000000000000000
  0
LINE
  5
122
100
AcDbEntity
  8
MAIN0
  6
BYBLOCK
 62
0
100
AcDbLine
 10
362.3829605851620
 20
227.2579632843358
 30
0.0000000000000000
 11
715.3829605851620
 21
227.2579632843358
 31
0.0000000000000000
  0
INSERT
  5
123
100
AcDbEntity
  8
MAIN0
  6
BYBLOCK
 62
0
100
AcDbBlockReference
  2
_OPEN
 10
356.3829605851620
 20
227.2579632843358
 30
0.0000000000000000
 41
6.000000000000000
 42
6.000000000000000
 43
6.000000000000000
 50
180.0000000000000
  0
INSERT
  5
124
100
AcDbEntity
  8
MAIN0
  6
BYBLOCK
 62
0
100
AcDbBlockReference
  2
_OPEN
 10
721.3829605851620
 20
227.2579632843358
 30
0.0000000000000000
 41
6.000000000000000
 42
6.000000000000000
 43
6.000000000000000
 50
0.0000000000000000
  0
LINE
  5
125
100
AcDbEntity
  8
MAIN0
  6
BYBLOCK
 62
0
100
AcDbLine
 10
721.3829605851620
 20
308.5994866845868
 30
0.0000000000000000
 11
721.3829605851620
 21
221.2579632843358
 31
0.0000000000000000
  0
MTEXT
  5
126
100
AcDbEntity
  8
MAIN0
  6
BYBLOCK
 62
0
100
AcDbMText
 10
538.8829605851620
 20
232.4079631412846
 30
0.0000000000000000
 40
9.299999713897705
 41
0.0000000000000000
 71
     5
 72
     1
  1
\A1;365
 11
1.000000000000000
 21
0.0000000000000000
 31
0.0000000000000000
  7
STANDARD
  0
ENDBLK
  5
127
100
AcDbEntity
  8
MAIN0
  6
CONTINUOUS
 62
3
100
AcDbBlockEnd
  0
BLOCK
  5
129
100
AcDbEntity
  8
MAIN0
  6
CONTINUOUS
 62
3
100
AcDbBlockBegin
  2
*D8
 70
    65
 10
0.0
 20
0.0
 30
0.0
  0
LINE
  5
12A
100
AcDbEntity
  8
MAIN0
  6
BYBLOCK
 62
0
100
AcDbLine
 10
721.3829605851620
 20
308.5994866845868
 30
0.0000000000000000
 11
721.3829605851620
 21
221.2579632843358
 31
0.0000000000000000
  0
LINE
  5
12B
100
AcDbEntity
  8
MAIN0
  6
BYBLOCK
 62
0
100
AcDbLine
 10
727.3829605851620
 20
227.2579632843358
 30
0.0000000000000000
 11
801.8829605851622
 21
227.2579632843358
 31
0.0000000000000000
  0
INSERT
  5
12C
100
AcDbEntity
  8
MAIN0
  6
BYBLOCK
 62
0
100
AcDbBlockReference
  2
_OPEN
 10
721.3829605851620
 20
227.2579632843358
 30
0.0000000000000000
 41
6.000000000000000
 42
6.000000000000000
 43
6.000000000000000
 50
180.0000000000000
  0
INSERT
  5
12D
100
AcDbEntity
  8
MAIN0
  6
BYBLOCK
 62
0
100
AcDbBlockReference
  2
_OPEN
 10
807.8829605851622
 20
227.2579632843358
 30
0.0000000000000000
 41
6.000000000000000
 42
6.000000000000000
 43
6.000000000000000
 50
0.0000000000000000
  0
LINE
  5
12E
100
AcDbEntity
  8
MAIN0
  6
BYBLOCK
 62
0
100
AcDbLine
 10
807.8829605851622
 20
348.5994866845867
 30
0.0000000000000000
 11
807.8829605851622
 21
221.2579632843358
 31
0.0000000000000000
  0
MTEXT
  5
12F
100
AcDbEntity
  8
MAIN0
  6
BYBLOCK
 62
0
100
AcDbMText
 10
764.6329605851620
 20
232.4079631412846
 30
0.0000000000000000
 40
9.299999713897705
 41
0.0000000000000000
 71
     5
 72
     1
  1
\A1;86.5
 11
1.000000000000000
 21
0.0000000000000000
 31
0.0000000000000000
  7
STANDARD
  0
ENDBLK
  5
130
100
AcDbEntity
  8
MAIN0
  6
CONTINUOUS
 62
3
100
AcDbBlockEnd
  0
BLOCK
  5
132
100
AcDbEntity
  8
MAIN0
  6
CONTINUOUS
 62
3
100
AcDbBlockBegin
  2
*D9
 70
    65
 10
0.0
 20
0.0
 30
0.0
  0
LINE
  5
133
100
AcDbEntity
  8
MAIN0
  6
BYBLOCK
 62
0
100
AcDbLine
 10
492.3829605851622
 20
303.5994866845867
 30
0.0000000000000000
 11
492.3829605851622
 21
269.5169985683032
 31
0.0000000000000000
  0
LINE
  5
134
100
AcDbEntity
  8
MAIN0
  6
BYBLOCK
 62
0
100
AcDbLine
 10
492.3829605851622
 20
275.5169985683032
 30
0.0000000000000000
 11
510.3829605851622
 21
275.5169985683032
 31
0.0000000000000000
  0
INSERT
  5
135
100
AcDbEntity
  8
MAIN0
  6
BYBLOCK
 62
0
100
AcDbBlockReference
  2
_OPEN
 10
492.3829605851622
 20
275.5169985683032
 30
0.0000000000000000
 41
6.000000000000000
 42
6.000000000000000
 43
6.000000000000000
 50
0.0000000000000000
  0
INSERT
  5
136
100
AcDbEntity
  8
MAIN0
  6
BYBLOCK
 62
0
100
AcDbBlockReference
  2
_OPEN
 10
510.3829605851622
 20
275.5169985683032
 30
0.0000000000000000
 41
6.000000000000000
 42
6.000000000000000
 43
6.000000000000000
 50
180.0000000000000
  0
LINE
  5
137
100
AcDbEntity
  8
MAIN0
  6
BYBLOCK
 62
0
100
AcDbLine
 10
486.3829605851622
 20
275.5169985683032
 30
0.0000000000000000
 11
483.3829605851622
 21
275.5169985683032
 31
0.0000000000000000
  0
LINE
  5
138
100
AcDbEntity
  8
MAIN0
  6
BYBLOCK
 62
0
100
AcDbLine
 10
516.3829605851622
 20
275.5169985683032
 30
0.0000000000000000
 11
531.5169787288118
 21
275.5169985683032
 31
0.0000000000000000
  0
LINE
  5
139
100
AcDbEntity
  8
MAIN0
  6
BYBLOCK
 62
0
100
AcDbLine
 10
510.3829605851622
 20
303.5994866845869
 30
0.0000000000000000
 11
510.3829605851622
 21
269.5169985683032
 31
0.0000000000000000
  0
MTEXT
  5
13A
100
AcDbEntity
  8
MAIN0
  6
BYBLOCK
 62
0
100
AcDbMText
 10
525.3669788718629
 20
281.6669984252520
 30
0.0000000000000000
 40
9.299999713897705
 41
0.0000000000000000
 71
     5
 72
     1
  1
\A1;18
 11
1.000000000000000
 21
0.0000000000000000
 31
0.0000000000000000
  7
STANDARD
  0
ENDBLK
  5
13B
100
AcDbEntity
  8
MAIN0
  6
CONTINUOUS
 62
3
100
AcDbBlockEnd
  0
BLOCK
  5
1B7
100
AcDbEntity
  8
MAIN0
  6
CONTINUOUS
 62
3
100
AcDbBlockBegin
  2
*D10
 70
    65
 10
0.0
 20
0.0
 30
0.0
  0
LINE
  5
1B8
100
AcDbEntity
  8
MAIN0
  6
BYBLOCK
 62
0
100
AcDbLine
 10
356.3829605851620
 20
413.3994867561124
 30
0.0000000000000000
 11
356.3829605851620
 21
505.8060709620522
 31
0.0000000000000000
  0
LINE
  5
1B9
100
AcDbEntity
  8
MAIN0
  6
BYBLOCK
 62
0
100
AcDbLine
 10
356.3829605851620
 20
499.8060709620522
 30
0.0000000000000000
 11
357.3829605851620
 21
499.8060709620522
 31
0.0000000000000000
  0
INSERT
  5
1BA
100
AcDbEntity
  8
MAIN0
  6
BYBLOCK
 62
0
100
AcDbBlockReference
  2
_OPEN
 10
356.3829605851620
 20
499.8060709620522
 30
0.0000000000000000
 41
6.000000000000000
 42
6.000000000000000
 43
6.000000000000000
 50
0.0000000000000000
  0
INSERT
  5
1BB
100
AcDbEntity
  8
MAIN0
  6
BYBLOCK
 62
0
100
AcDbBlockReference
  2
_OPEN
 10
357.3829605851620
 20
499.8060709620522
 30
0.0000000000000000
 41
6.000000000000000
 42
6.000000000000000
 43
6.000000000000000
 50
180.0000000000000
  0
LINE
  5
1BC
100
AcDbEntity
  8
MAIN0
  6
BYBLOCK
 62
0
100
AcDbLine
 10
350.3829605851620
 20
499.8060709620522
 30
0.0000000000000000
 11
342.2407294297260
 21
499.8060709620522
 31
0.0000000000000000
  0
LINE
  5
1BD
100
AcDbEntity
  8
MAIN0
  6
BYBLOCK
 62
0
100
AcDbLine
 10
363.3829605851620
 20
499.8060709620522
 30
0.0000000000000000
 11
366.3829605851620
 21
499.8060709620522
 31
0.0000000000000000
  0
LINE
  5
1BE
100
AcDbEntity
  8
MAIN0
  6
BYBLOCK
 62
0
100
AcDbLine
 10
357.3829605851619
 20
452.8994867561124
 30
0.0000000000000000
 11
357.3829605851620
 21
505.8060709620523
 31
0.0000000000000000
  0
MTEXT
  5
1BF
100
AcDbEntity
  8
MAIN0
  6
BYBLOCK
 62
0
100
AcDbMText
 10
345.2407294297260
 20
505.9560708190011
 30
0.0000000000000000
 40
9.299999713897705
 41
0.0000000000000000
 71
     5
 72
     1
  1
\A1;1
 11
1.000000000000000
 21
0.0000000000000000
 31
0.0000000000000000
  7
STANDARD
  0
ENDBLK
  5
1C0
100
AcDbEntity
  8
MAIN0
  6
CONTINUOUS
 62
3
100
AcDbBlockEnd
  0
BLOCK
  5
1C2
100
AcDbEntity
  8
MAIN0
  6
CONTINUOUS
 62
3
100
AcDbBlockBegin
  2
*D11
 70
    65
 10
0.0
 20
0.0
 30
0.0
  0
LINE
  5
1C3
100
AcDbEntity
  8
MAIN0
  6
BYBLOCK
 62
0
100
AcDbLine
 10
357.3829605851619
 20
452.8994867561124
 30
0.0000000000000000
 11
357.3829605851620
 21
505.8060709620523
 31
0.0000000000000000
  0
LINE
  5
1C4
100
AcDbEntity
  8
MAIN0
  6
BYBLOCK
 62
0
100
AcDbLine
 10
363.3829605851619
 20
499.8060709620522
 30
0.0000000000000000
 11
429.3829605851619
 21
499.8060709620522
 31
0.0000000000000000
  0
INSERT
  5
1C5
100
AcDbEntity
  8
MAIN0
  6
BYBLOCK
 62
0
100
AcDbBlockReference
  2
_OPEN
 10
357.3829605851619
 20
499.8060709620522
 30
0.0000000000000000
 41
6.000000000000000
 42
6.000000000000000
 43
6.000000000000000
 50
180.0000000000000
  0
INSERT
  5
1C6
100
AcDbEntity
  8
MAIN0
  6
BYBLOCK
 62
0
100
AcDbBlockReference
  2
_OPEN
 10
435.3829605851619
 20
499.8060709620522
 30
0.0000000000000000
 41
6.000000000000000
 42
6.000000000000000
 43
6.000000000000000
 50
0.0000000000000000
  0
LINE
  5
1C7
100
AcDbEntity
  8
MAIN0
  6
BYBLOCK
 62
0
100
AcDbLine
 10
435.3829605851619
 20
452.8994867561121
 30
0.0000000000000000
 11
435.3829605851619
 21
505.8060709620522
 31
0.0000000000000000
  0
MTEXT
  5
1C8
100
AcDbEntity
  8
MAIN0
  6
BYBLOCK
 62
0
100
AcDbMText
 10
396.3829605851619
 20
504.9560708190011
 30
0.0000000000000000
 40
9.299999713897705
 41
0.0000000000000000
 71
     5
 72
     1
  1
\A1;78
 11
1.000000000000000
 21
0.0000000000000000
 31
0.0000000000000000
  7
STANDARD
  0
ENDBLK
  5
1C9
100
AcDbEntity
  8
MAIN0
  6
CONTINUOUS
 62
3
100
AcDbBlockEnd
  0
BLOCK
  5
1CB
100
AcDbEntity
  8
MAIN0
  6
CONTINUOUS
 62
3
100
AcDbBlockBegin
  2
*D12
 70
    65
 10
0.0
 20
0.0
 30
0.0
  0
LINE
  5
1CC
100
AcDbEntity
  8
MAIN0
  6
BYBLOCK
 62
0
100
AcDbLine
 10
435.3829605851619
 20
452.8994867561121
 30
0.0000000000000000
 11
435.3829605851619
 21
505.8060709620522
 31
0.0000000000000000
  0
LINE
  5
1CD
100
AcDbEntity
  8
MAIN0
  6
BYBLOCK
 62
0
100
AcDbLine
 10
441.3829605851619
 20
499.8060709620522
 30
0.0000000000000000
 11
503.3829605851619
 21
499.8060709620522
 31
0.0000000000000000
  0
INSERT
  5
1CE
100
AcDbEntity
  8
MAIN0
  6
BYBLOCK
 62
0
100
AcDbBlockReference
  2
_OPEN
 10
435.3829605851619
 20
499.8060709620522
 30
0.0000000000000000
 41
6.000000000000000
 42
6.000000000000000
 43
6.000000000000000
 50
180.0000000000000
  0
INSERT
  5
1CF
100
AcDbEntity
  8
MAIN0
  6
BYBLOCK
 62
0
100
AcDbBlockReference
  2
_OPEN
 10
509.3829605851619
 20
499.8060709620522
 30
0.0000000000000000
 41
6.000000000000000
 42
6.000000000000000
 43
6.000000000000000
 50
0.0000000000000000
  0
LINE
  5
1D0
100
AcDbEntity
  8
MAIN0
  6
BYBLOCK
 62
0
100
AcDbLine
 10
509.3829605851619
 20
452.8994867561120
 30
0.0000000000000000
 11
509.3829605851619
 21
505.8060709620522
 31
0.0000000000000000
  0
MTEXT
  5
1D1
100
AcDbEntity
  8
MAIN0
  6
BYBLOCK
 62
0
100
AcDbMText
 10
486.4789774707955
 20
505.9560708190011
 30
0.0000000000000000
 40
9.299999713897705
 41
0.0000000000000000
 71
     5
 72
     1
  1
\A1;205
 11
1.000000000000000
 21
0.0000000000000000
 31
0.0000000000000000
  7
STANDARD
  0
ENDBLK
  5
1D2
100
AcDbEntity
  8
MAIN0
  6
CONTINUOUS
 62
3
100
AcDbBlockEnd
  0
BLOCK
  5
1D4
100
AcDbEntity
  8
MAIN0
  6
CONTINUOUS
 62
1
100
AcDbBlockBegin
  2
*D13
 70
    65
 10
0.0
 20
0.0
 30
0.0
  0
LINE
  5
1D5
100
AcDbEntity
  8
MAIN0
  6
BYBLOCK
 62
0
100
AcDbLine
 10
509.3829605851619
 20
452.8994867561120
 30
0.0000000000000000
 11
509.3829605851619
 21
505.8060709620522
 31
0.0000000000000000
  0
LINE
  5
1D6
100
AcDbEntity
  8
MAIN0
  6
BYBLOCK
 62
0
100
AcDbLine
 10
515.3829605851619
 20
499.8060709620522
 30
0.0000000000000000
 11
577.3829605851619
 21
499.8060709620522
 31
0.0000000000000000
  0
INSERT
  5
1D7
100
AcDbEntity
  8
MAIN0
  6
BYBLOCK
 62
0
100
AcDbBlockReference
  2
_OPEN
 10
509.3829605851619
 20
499.8060709620522
 30
0.0000000000000000
 41
6.000000000000000
 42
6.000000000000000
 43
6.000000000000000
 50
180.0000000000000
  0
INSERT
  5
1D8
100
AcDbEntity
  8
MAIN0
  6
BYBLOCK
 62
0
100
AcDbBlockReference
  2
_OPEN
 10
583.3829605851619
 20
499.8060709620522
 30
0.0000000000000000
 41
6.000000000000000
 42
6.000000000000000
 43
6.000000000000000
 50
0.0000000000000000
  0
LINE
  5
1D9
100
AcDbEntity
  8
MAIN0
  6
BYBLOCK
 62
0
100
AcDbLine
 10
583.3829605851619
 20
452.8994867561119
 30
0.0000000000000000
 11
583.3829605851619
 21
505.8060709620522
 31
0.0000000000000000
  0
MTEXT
  5
1DA
100
AcDbEntity
  8
MAIN0
  6
BYBLOCK
 62
0
100
AcDbMText
 10
546.3829605851619
 20
504.9560708190011
 30
0.0000000000000000
 40
9.299999713897705
 41
0.0000000000000000
 71
     5
 72
     1
  1
\A1;74
 11
1.000000000000000
 21
0.0000000000000000
 31
0.0000000000000000
  7
STANDARD
  0
ENDBLK
  5
1DB
100
AcDbEntity
  8
MAIN0
  6
CONTINUOUS
 62
1
100
AcDbBlockEnd
  0
BLOCK
  5
209
100
AcDbEntity
  8
MAIN0
  6
CONTINUOUS
 62
3
100
AcDbBlockBegin
  2
*D14
 70
    65
 10
0.0
 20
0.0
 30
0.0
  0
LINE
  5
20A
100
AcDbEntity
  8
MAIN0
  6
BYBLOCK
 62
0
100
AcDbLine
 10
723.7829606209249
 20
310.9994867203495
 30
0.0000000000000000
 11
838.3492154751619
 21
310.9994867203496
 31
0.0000000000000000
  0
LINE
  5
20B
100
AcDbEntity
  8
MAIN0
  6
BYBLOCK
 62
0
100
AcDbLine
 10
832.3492154751619
 20
316.9994867203496
 30
0.0000000000000000
 11
832.3492154751619
 21
369.9994867196348
 31
0.0000000000000000
  0
INSERT
  5
20C
100
AcDbEntity
  8
MAIN0
  6
BYBLOCK
 62
0
100
AcDbBlockReference
  2
_OPEN
 10
832.3492154751619
 20
310.9994867203496
 30
0.0000000000000000
 41
6.000000000000000
 42
6.000000000000000
 43
6.000000000000000
 50
270.0000000000000
  0
INSERT
  5
20D
100
AcDbEntity
  8
MAIN0
  6
BYBLOCK
 62
0
100
AcDbBlockReference
  2
_OPEN
 10
832.3492154751619
 20
375.9994867196348
 30
0.0000000000000000
 41
6.000000000000000
 42
6.000000000000000
 43
6.000000000000000
 50
90.00000000000000
  0
LINE
  5
20E
100
AcDbEntity
  8
MAIN0
  6
BYBLOCK
 62
0
100
AcDbLine
 10
825.1283150193765
 20
375.9994867196348
 30
0.0000000000000000
 11
838.3492154751619
 21
375.9994867196348
 31
0.0000000000000000
  0
MTEXT
  5
20F
100
AcDbEntity
  8
MAIN0
  6
BYBLOCK
 62
0
100
AcDbMText
 10
827.1992156182131
 20
343.4994867199922
 30
0.0000000000000000
 40
9.299999713897705
 41
0.0000000000000000
 71
     5
 72
     1
  1
\A1;65
 11
6.123233995736766e-017
 21
1.000000000000000
 31
0.0000000000000000
  7
STANDARD
  0
ENDBLK
  5
210
100
AcDbEntity
  8
MAIN0
  6
CONTINUOUS
 62
3
100
AcDbBlockEnd
  0
BLOCK
  5
216
100
AcDbEntity
  8
MAIN0
  6
CONTINUOUS
 62
3
100
AcDbBlockBegin
  2
*D15
 70
    65
 10
0.0
 20
0.0
 30
0.0
  0
LINE
  5
217
100
AcDbEntity
  8
MAIN0
  6
BYBLOCK
 62
0
100
AcDbLine
 10
362.3829605851622
 20
352.5055256254566
 30
0.0000000000000000
 11
425.3829605842633
 21
352.5055256254566
 31
0.0000000000000000
  0
INSERT
  5
218
100
AcDbEntity
  8
MAIN0
  6
BYBLOCK
 62
0
100
AcDbBlockReference
  2
_OPEN
 10
356.3829605851622
 20
352.5055256254566
 30
0.0000000000000000
 41
6.000000000000000
 42
6.000000000000000
 43
6.000000000000000
 50
180.0000000000000
  0
INSERT
  5
219
100
AcDbEntity
  8
MAIN0
  6
BYBLOCK
 62
0
100
AcDbBlockReference
  2
_OPEN
 10
431.3829605842633
 20
352.5055256254566
 30
0.0000000000000000
 41
6.000000000000000
 42
6.000000000000000
 43
6.000000000000000
 50
0.0000000000000000
  0
LINE
  5
21A
100
AcDbEntity
  8
MAIN0
  6
BYBLOCK
 62
0
100
AcDbLine
 10
431.3829605842633
 20
373.8813509057624
 30
0.0000000000000000
 11
431.3829605842633
 21
346.5055256254566
 31
0.0000000000000000
  0
MTEXT
  5
21B
100
AcDbEntity
  8
MAIN0
  6
BYBLOCK
 62
0
100
AcDbMText
 10
393.8829605847127
 20
357.6555254824054
 30
0.0000000000000000
 40
9.299999713897705
 41
0.0000000000000000
 71
     5
 72
     1
  1
\A1;75
 11
1.000000000000000
 21
0.0000000000000000
 31
0.0000000000000000
  7
STANDARD
  0
ENDBLK
  5
21C
100
AcDbEntity
  8
MAIN0
  6
CONTINUOUS
 62
3
100
AcDbBlockEnd
  0
BLOCK
  5
21E
100
AcDbEntity
  8
MAIN0
  6
CONTINUOUS
 62
3
100
AcDbBlockBegin
  2
*D16
 70
    65
 10
0.0
 20
0.0
 30
0.0
  0
LINE
  5
21F
100
AcDbEntity
  8
MAIN0
  6
BYBLOCK
 62
0
100
AcDbLine
 10
431.3829605842633
 20
373.8813509057624
 30
0.0000000000000000
 11
431.3829605842633
 21
346.5055256254566
 31
0.0000000000000000
  0
LINE
  5
220
100
AcDbEntity
  8
MAIN0
  6
BYBLOCK
 62
0
100
AcDbLine
 10
437.3829605842633
 20
352.5055256254566
 30
0.0000000000000000
 11
640.3829605839143
 21
352.5055256254566
 31
0.0000000000000000
  0
INSERT
  5
221
100
AcDbEntity
  8
MAIN0
  6
BYBLOCK
 62
0
100
AcDbBlockReference
  2
_OPEN
 10
431.3829605842633
 20
352.5055256254566
 30
0.0000000000000000
 41
6.000000000000000
 42
6.000000000000000
 43
6.000000000000000
 50
180.0000000000000
  0
INSERT
  5
222
100
AcDbEntity
  8
MAIN0
  6
BYBLOCK
 62
0
100
AcDbBlockReference
  2
_OPEN
 10
646.3829605839143
 20
352.5055256254566
 30
0.0000000000000000
 41
6.000000000000000
 42
6.000000000000000
 43
6.000000000000000
 50
0.0000000000000000
  0
LINE
  5
223
100
AcDbEntity
  8
MAIN0
  6
BYBLOCK
 62
0
100
AcDbLine
 10
646.3829605839143
 20
374.6721058669975
 30
0.0000000000000000
 11
646.3829605839143
 21
346.5055256254566
 31
0.0000000000000000
  0
MTEXT
  5
224
100
AcDbEntity
  8
MAIN0
  6
BYBLOCK
 62
0
100
AcDbMText
 10
538.8829605840888
 20
357.6555254824054
 30
0.0000000000000000
 40
9.299999713897705
 41
0.0000000000000000
 71
     5
 72
     1
  1
\A1;215
 11
1.000000000000000
 21
0.0000000000000000
 31
0.0000000000000000
  7
STANDARD
  0
ENDBLK
  5
225
100
AcDbEntity
  8
MAIN0
  6
CONTINUOUS
 62
3
100
AcDbBlockEnd
  0
BLOCK
  5
231
100
AcDbEntity
  8
MAIN0
  6
CONTINUOUS
 62
3
100
AcDbBlockBegin
  2
*D17
 70
    65
 10
0.0
 20
0.0
 30
0.0
  0
LINE
  5
232
100
AcDbEntity
  8
MAIN0
  6
BYBLOCK
 62
0
100
AcDbLine
 10
1134.263257168583
 20
382.4409386404329
 30
0.0000000000000000
 11
1134.263257168583
 21
475.7245655376690
 31
0.0000000000000000
  0
LINE
  5
233
100
AcDbEntity
  8
MAIN0
  6
BYBLOCK
 62
0
100
AcDbLine
 10
1134.263257168583
 20
469.7245655376690
 30
0.0000000000000000
 11
1148.263257168583
 21
469.7245655376690
 31
0.0000000000000000
  0
INSERT
  5
234
100
AcDbEntity
  8
MAIN0
  6
BYBLOCK
 62
0
100
AcDbBlockReference
  2
_OPEN
 10
1134.263257168583
 20
469.7245655376690
 30
0.0000000000000000
 41
6.000000000000000
 42
6.000000000000000
 43
6.000000000000000
 50
0.0000000000000000
  0
INSERT
  5
235
100
AcDbEntity
  8
MAIN0
  6
BYBLOCK
 62
0
100
AcDbBlockReference
  2
_OPEN
 10
1148.263257168583
 20
469.7245655376690
 30
0.0000000000000000
 41
6.000000000000000
 42
6.000000000000000
 43
6.000000000000000
 50
180.0000000000000
  0
LINE
  5
236
100
AcDbEntity
  8
MAIN0
  6
BYBLOCK
 62
0
100
AcDbLine
 10
1128.263257168583
 20
469.7245655376690
 30
0.0000000000000000
 11
1125.263257168583
 21
469.7245655376690
 31
0.0000000000000000
  0
LINE
  5
237
100
AcDbEntity
  8
MAIN0
  6
BYBLOCK
 62
0
100
AcDbLine
 10
1154.263257168583
 20
469.7245655376690
 30
0.0000000000000000
 11
1157.263257168583
 21
469.7245655376690
 31
0.0000000000000000
  0
LINE
  5
238
100
AcDbEntity
  8
MAIN0
  6
BYBLOCK
 62
0
100
AcDbLine
 10
1148.263257168583
 20
382.4409386404537
 30
0.0000000000000000
 11
1148.263257168583
 21
475.7245655376690
 31
0.0000000000000000
  0
MTEXT
  5
239
100
AcDbEntity
  8
MAIN0
  6
BYBLOCK
 62
0
100
AcDbMText
 10
1141.263257168583
 20
474.8745653946178
 30
0.0000000000000000
 40
9.299999713897705
 41
0.0000000000000000
 71
     5
 72
     1
  1
\A1;14
 11
1.000000000000000
 21
0.0000000000000000
 31
0.0000000000000000
  7
STANDARD
  0
ENDBLK
  5
23A
100
AcDbEntity
  8
MAIN0
  6
CONTINUOUS
 62
3
100
AcDbBlockEnd
  0
BLOCK
  5
247
100
AcDbEntity
  8
MAIN0
  6
CONTINUOUS
 62
1
100
AcDbBlockBegin
  2
*D18
 70
    65
 10
0.0
 20
0.0
 30
0.0
  0
LINE
  5
248
100
AcDbEntity
  8
MAIN0
  6
BYBLOCK
 62
0
100
AcDbLine
 10
1078.263257168583
 20
308.5994866845868
 30
0.0000000000000000
 11
1078.263257168583
 21
259.7060217548795
 31
0.0000000000000000
  0
LINE
  5
249
100
AcDbEntity
  8
MAIN0
  6
BYBLOCK
 62
0
100
AcDbLine
 10
1078.263257168583
 20
265.7060217548795
 30
0.0000000000000000
 11
1055.263257168583
 21
265.7060217548795
 31
0.0000000000000000
  0
INSERT
  5
24A
100
AcDbEntity
  8
MAIN0
  6
BYBLOCK
 62
0
100
AcDbBlockReference
  2
_OPEN
 10
1078.263257168583
 20
265.7060217548795
 30
0.0000000000000000
 41
6.000000000000000
 42
6.000000000000000
 43
6.000000000000000
 50
180.0000000000000
  0
INSERT
  5
24B
100
AcDbEntity
  8
MAIN0
  6
BYBLOCK
 62
0
100
AcDbBlockReference
  2
_OPEN
 10
1055.263257168583
 20
265.7060217548795
 30
0.0000000000000000
 41
6.000000000000000
 42
6.000000000000000
 43
6.000000000000000
 50
360.0000000000000
  0
LINE
  5
24C
100
AcDbEntity
  8
MAIN0
  6
BYBLOCK
 62
0
100
AcDbLine
 10
1084.263257168583
 20
265.7060217548795
 30
0.0000000000000000
 11
1116.251792978237
 21
265.7060217548795
 31
0.0000000000000000
  0
LINE
  5
24D
100
AcDbEntity
  8
MAIN0
  6
BYBLOCK
 62
0
100
AcDbLine
 10
1049.263257168583
 20
265.7060217548795
 30
0.0000000000000000
 11
1046.263257168583
 21
265.7060217548795
 31
0.0000000000000000
  0
MTEXT
  5
24E
100
AcDbEntity
  8
MAIN0
  6
BYBLOCK
 62
0
100
AcDbMText
 10
1099.901793550441
 20
271.8560216118284
 30
0.0000000000000000
 40
9.299999713897705
 41
0.0000000000000000
 71
     5
 72
     1
  1
\A1;15～31
 11
1.000000000000000
 21
0.0000000000000000
 31
0.0000000000000000
  7
KNJYOKO
  0
ENDBLK
  5
24F
100
AcDbEntity
  8
MAIN0
  6
CONTINUOUS
 62
1
100
AcDbBlockEnd
  0
BLOCK
  5
257
100
AcDbEntity
  8
MAIN0
  6
CONTINUOUS
 62
3
100
AcDbBlockBegin
  2
*D19
 70
    65
 10
0.0
 20
0.0
 30
0.0
  0
LINE
  5
258
100
AcDbEntity
  8
MAIN0
  6
BYBLOCK
 62
0
100
AcDbLine
 10
435.3829605851619
 20
452.8994867561121
 30
0.0000000000000000
 11
435.3829605851619
 21
483.9116944315286
 31
0.0000000000000000
  0
LINE
  5
259
100
AcDbEntity
  8
MAIN0
  6
BYBLOCK
 62
0
100
AcDbLine
 10
429.3829605851619
 20
477.9116944315286
 30
0.0000000000000000
 11
402.3829605851620
 21
477.9116944315286
 31
0.0000000000000000
  0
INSERT
  5
25A
100
AcDbEntity
  8
MAIN0
  6
BYBLOCK
 62
0
100
AcDbBlockReference
  2
_OPEN
 10
435.3829605851619
 20
477.9116944315286
 30
0.0000000000000000
 41
6.000000000000000
 42
6.000000000000000
 43
6.000000000000000
 50
360.0000000000000
  0
INSERT
  5
25B
100
AcDbEntity
  8
MAIN0
  6
BYBLOCK
 62
0
100
AcDbBlockReference
  2
_OPEN
 10
396.3829605851620
 20
477.9116944315286
 30
0.0000000000000000
 41
6.000000000000000
 42
6.000000000000000
 43
6.000000000000000
 50
180.0000000000000
  0
LINE
  5
25C
100
AcDbEntity
  8
MAIN0
  6
BYBLOCK
 62
0
100
AcDbLine
 10
396.3829605851620
 20
450.7315272750459
 30
0.0000000000000000
 11
396.3829605851620
 21
483.9116944315286
 31
0.0000000000000000
  0
MTEXT
  5
25D
100
AcDbEntity
  8
MAIN0
  6
BYBLOCK
 62
0
100
AcDbMText
 10
415.8829605851620
 20
483.0616942884775
 30
0.0000000000000000
 40
9.299999713897705
 41
0.0000000000000000
 71
     5
 72
     1
  1
\A1;39
 11
1.000000000000000
 21
0.0000000000000000
 31
0.0000000000000000
  7
STANDARD
  0
ENDBLK
  5
25E
100
AcDbEntity
  8
MAIN0
  6
CONTINUOUS
 62
3
100
AcDbBlockEnd
  0
BLOCK
  5
260
100
AcDbEntity
  8
MAIN0
  6
CONTINUOUS
 62
3
100
AcDbBlockBegin
  2
*D20
 70
    65
 10
0.0
 20
0.0
 30
0.0
  0
LINE
  5
261
100
AcDbEntity
  8
MAIN0
  6
BYBLOCK
 62
0
100
AcDbLine
 10
437.7829606209247
 20
450.4994867203495
 30
0.0000000000000000
 11
470.8615517473168
 21
450.4994867203495
 31
0.0000000000000000
  0
LINE
  5
262
100
AcDbEntity
  8
MAIN0
  6
BYBLOCK
 62
0
100
AcDbLine
 10
464.8615517473168
 20
450.4994867203495
 30
0.0000000000000000
 11
464.8615517473168
 21
441.9994867203496
 31
0.0000000000000000
  0
INSERT
  5
263
100
AcDbEntity
  8
MAIN0
  6
BYBLOCK
 62
0
100
AcDbBlockReference
  2
_OPEN
 10
464.8615517473168
 20
450.4994867203495
 30
0.0000000000000000
 41
6.000000000000000
 42
6.000000000000000
 43
6.000000000000000
 50
270.0000000000000
  0
INSERT
  5
264
100
AcDbEntity
  8
MAIN0
  6
BYBLOCK
 62
0
100
AcDbBlockReference
  2
_DOT
 10
464.8615517473168
 20
440.9994867203496
 30
0.0000000000000000
 41
3.000000000000000
 42
3.000000000000000
 43
3.000000000000000
 50
270.0000000000000
  0
LINE
  5
265
100
AcDbEntity
  8
MAIN0
  6
BYBLOCK
 62
0
100
AcDbLine
 10
464.8615517473168
 20
456.4994867203495
 30
0.0000000000000000
 11
464.8615517473168
 21
474.5139136443901
 31
0.0000000000000000
  0
LINE
  5
266
100
AcDbEntity
  8
MAIN0
  6
BYBLOCK
 62
0
100
AcDbLine
 10
406.4645036700269
 20
440.9994867203496
 30
0.0000000000000000
 11
470.8615517473168
 21
440.9994867203496
 31
0.0000000000000000
  0
MTEXT
  5
267
100
AcDbEntity
  8
MAIN0
  6
BYBLOCK
 62
0
100
AcDbMText
 10
458.7115518903679
 20
466.7139139304924
 30
0.0000000000000000
 40
9.299999713897705
 41
0.0000000000000000
 71
     5
 72
     1
  1
\A1;9.5
 11
6.123233995736766e-017
 21
1.000000000000000
 31
0.0000000000000000
  7
STANDARD
  0
ENDBLK
  5
268
100
AcDbEntity
  8
MAIN0
  6
CONTINUOUS
 62
3
100
AcDbBlockEnd
  0
BLOCK
  5
26A
100
AcDbEntity
  8
MAIN0
  6
CONTINUOUS
 62
3
100
AcDbBlockBegin
  2
*D21
 70
    65
 10
0.0
 20
0.0
 30
0.0
  0
LINE
  5
26B
100
AcDbEntity
  8
MAIN0
  6
BYBLOCK
 62
0
100
AcDbLine
 10
406.4645036700269
 20
440.9994867203496
 30
0.0000000000000000
 11
470.8615517473168
 21
440.9994867203496
 31
0.0000000000000000
  0
LINE
  5
26C
100
AcDbEntity
  8
MAIN0
  6
BYBLOCK
 62
0
100
AcDbLine
 10
464.8615517473168
 20
439.9994867203496
 30
0.0000000000000000
 11
464.8615517473168
 21
420.9994867203496
 31
0.0000000000000000
  0
INSERT
  5
26D
100
AcDbEntity
  8
MAIN0
  6
BYBLOCK
 62
0
100
AcDbBlockReference
  2
_DOT
 10
464.8615517473168
 20
440.9994867203496
 30
0.0000000000000000
 41
3.000000000000000
 42
3.000000000000000
 43
3.000000000000000
 50
90.00000000000000
  0
INSERT
  5
26E
100
AcDbEntity
  8
MAIN0
  6
BYBLOCK
 62
0
100
AcDbBlockReference
  2
_OPEN
 10
464.8615517473168
 20
420.9994867203496
 30
0.0000000000000000
 41
6.000000000000000
 42
6.000000000000000
 43
6.000000000000000
 50
90.00000000000000
  0
LINE
  5
26F
100
AcDbEntity
  8
MAIN0
  6
BYBLOCK
 62
0
100
AcDbLine
 10
464.8615517473168
 20
414.9994867203496
 30
0.0000000000000000
 11
464.8615517473168
 21
411.9994867203496
 31
0.0000000000000000
  0
LINE
  5
270
100
AcDbEntity
  8
MAIN0
  6
BYBLOCK
 62
0
100
AcDbLine
 10
406.7437418441244
 20
420.9994867203496
 30
0.0000000000000000
 11
470.8615517473168
 21
420.9994867203496
 31
0.0000000000000000
  0
MTEXT
  5
271
100
AcDbEntity
  8
MAIN0
  6
BYBLOCK
 62
0
100
AcDbMText
 10
459.7115518903679
 20
430.9994867203496
 30
0.0000000000000000
 40
9.299999713897705
 41
0.0000000000000000
 71
     5
 72
     1
  1
\A1;20
 11
6.123233995736766e-017
 21
1.000000000000000
 31
0.0000000000000000
  7
STANDARD
  0
ENDBLK
  5
272
100
AcDbEntity
  8
MAIN0
  6
CONTINUOUS
 62
3
100
AcDbBlockEnd
  0
BLOCK
  5
281
100
AcDbEntity
  8
MAIN0
  6
CONTINUOUS
 62
3
100
AcDbBlockBegin
  2
*D22
 70
    65
 10
0.0
 20
0.0
 30
0.0
  0
LINE
  5
282
100
AcDbEntity
  8
MAIN0
  6
BYBLOCK
 62
0
100
AcDbLine
 10
1006.563257132820
 20
310.9994867203495
 30
0.0000000000000000
 11
985.6430214578345
 21
310.9994867203495
 31
0.0000000000000000
  0
LINE
  5
283
100
AcDbEntity
  8
MAIN0
  6
BYBLOCK
 62
0
100
AcDbLine
 10
991.6430214578345
 20
316.9994867203495
 30
0.0000000000000000
 11
991.6430214578345
 21
334.9994867203495
 31
0.0000000000000000
  0
INSERT
  5
284
100
AcDbEntity
  8
MAIN0
  6
BYBLOCK
 62
0
100
AcDbBlockReference
  2
_OPEN
 10
991.6430214578345
 20
310.9994867203495
 30
0.0000000000000000
 41
6.000000000000000
 42
6.000000000000000
 43
6.000000000000000
 50
270.0000000000000
  0
INSERT
  5
285
100
AcDbEntity
  8
MAIN0
  6
BYBLOCK
 62
0
100
AcDbBlockReference
  2
_OPEN
 10
991.6430214578345
 20
340.9994867203495
 30
0.0000000000000000
 41
6.000000000000000
 42
6.000000000000000
 43
6.000000000000000
 50
90.00000000000000
  0
LINE
  5
286
100
AcDbEntity
  8
MAIN0
  6
BYBLOCK
 62
0
100
AcDbLine
 10
1004.863257132820
 20
340.9994867203495
 30
0.0000000000000000
 11
985.6430214578345
 21
340.9994867203495
 31
0.0000000000000000
  0
MTEXT
  5
287
100
AcDbEntity
  8
MAIN0
  6
BYBLOCK
 62
0
100
AcDbMText
 10
986.4930216008856
 20
325.9994867203495
 30
0.0000000000000000
 40
9.299999713897705
 41
0.0000000000000000
 71
     5
 72
     1
  1
\A1;30
 11
6.123233995736766e-017
 21
1.000000000000000
 31
0.0000000000000000
  7
STANDARD
  0
ENDBLK
  5
288
100
AcDbEntity
  8
MAIN0
  6
CONTINUOUS
 62
3
100
AcDbBlockEnd
  0
BLOCK
  5
28A
100
AcDbEntity
  8
MAIN0
  6
CONTINUOUS
 62
3
100
AcDbBlockBegin
  2
*D23
 70
    65
 10
0.0
 20
0.0
 30
0.0
  0
LINE
  5
28B
100
AcDbEntity
  8
MAIN0
  6
BYBLOCK
 62
0
100
AcDbLine
 10
1004.863257132820
 20
340.9994867203495
 30
0.0000000000000000
 11
985.6430214578345
 21
340.9994867203495
 31
0.0000000000000000
  0
LINE
  5
28C
100
AcDbEntity
  8
MAIN0
  6
BYBLOCK
 62
0
100
AcDbLine
 10
991.6430214578345
 20
340.9994867203495
 30
0.0000000000000000
 11
991.6430214578345
 21
345.9994867203495
 31
0.0000000000000000
  0
INSERT
  5
28D
100
AcDbEntity
  8
MAIN0
  6
BYBLOCK
 62
0
100
AcDbBlockReference
  2
_OPEN
 10
991.6430214578345
 20
340.9994867203495
 30
0.0000000000000000
 41
6.000000000000000
 42
6.000000000000000
 43
6.000000000000000
 50
90.00000000000000
  0
INSERT
  5
28E
100
AcDbEntity
  8
MAIN0
  6
BYBLOCK
 62
0
100
AcDbBlockReference
  2
_OPEN
 10
991.6430214578345
 20
345.9994867203495
 30
0.0000000000000000
 41
6.000000000000000
 42
6.000000000000000
 43
6.000000000000000
 50
270.0000000000000
  0
LINE
  5
28F
100
AcDbEntity
  8
MAIN0
  6
BYBLOCK
 62
0
100
AcDbLine
 10
991.6430214578345
 20
334.9994867203495
 30
0.0000000000000000
 11
991.6430214578345
 21
331.9994867203495
 31
0.0000000000000000
  0
LINE
  5
290
100
AcDbEntity
  8
MAIN0
  6
BYBLOCK
 62
0
100
AcDbLine
 10
991.6430214578345
 20
351.9994867203495
 30
0.0000000000000000
 11
991.6430214578345
 21
360.4917552432210
 31
0.0000000000000000
  0
LINE
  5
291
100
AcDbEntity
  8
MAIN0
  6
BYBLOCK
 62
0
100
AcDbLine
 10
1035.363257132820
 20
345.9994867203495
 30
0.0000000000000000
 11
985.6430214578345
 21
345.9994867203495
 31
0.0000000000000000
  0
MTEXT
  5
292
100
AcDbEntity
  8
MAIN0
  6
BYBLOCK
 62
0
100
AcDbMText
 10
985.4930216008856
 20
357.4917552432210
 30
0.0000000000000000
 40
9.299999713897705
 41
0.0000000000000000
 71
     5
 72
     1
  1
\A1;5
 11
6.123233995736766e-017
 21
1.000000000000000
 31
0.0000000000000000
  7
STANDARD
  0
ENDBLK
  5
293
100
AcDbEntity
  8
MAIN0
  6
CONTINUOUS
 62
3
100
AcDbBlockEnd
  0
BLOCK
  5
295
100
AcDbEntity
  8
MAIN0
  6
CONTINUOUS
 62
3
100
AcDbBlockBegin
  2
*D24
 70
    65
 10
0.0
 20
0.0
 30
0.0
  0
LINE
  5
296
100
AcDbEntity
  8
MAIN0
  6
BYBLOCK
 62
0
100
AcDbLine
 10
580.9829605493992
 20
432.1994867203495
 30
0.0000000000000000
 11
549.4568095294767
 21
432.1994867203495
 31
0.0000000000000000
  0
LINE
  5
297
100
AcDbEntity
  8
MAIN0
  6
BYBLOCK
 62
0
100
AcDbLine
 10
555.4568095294767
 20
432.1994867203495
 30
0.0000000000000000
 11
555.4568095294767
 21
410.9994867203495
 31
0.0000000000000000
  0
INSERT
  5
298
100
AcDbEntity
  8
MAIN0
  6
BYBLOCK
 62
0
100
AcDbBlockReference
  2
_OPEN
 10
555.4568095294767
 20
432.1994867203495
 30
0.0000000000000000
 41
6.000000000000000
 42
6.000000000000000
 43
6.000000000000000
 50
270.0000000000000
  0
INSERT
  5
299
100
AcDbEntity
  8
MAIN0
  6
BYBLOCK
 62
0
100
AcDbBlockReference
  2
_OPEN
 10
555.4568095294767
 20
410.9994867203495
 30
0.0000000000000000
 41
6.000000000000000
 42
6.000000000000000
 43
6.000000000000000
 50
90.00000000000000
  0
LINE
  5
29A
100
AcDbEntity
  8
MAIN0
  6
BYBLOCK
 62
0
100
AcDbLine
 10
555.4568095294767
 20
438.1994867203495
 30
0.0000000000000000
 11
555.4568095294767
 21
441.1994867203495
 31
0.0000000000000000
  0
LINE
  5
29B
100
AcDbEntity
  8
MAIN0
  6
BYBLOCK
 62
0
100
AcDbLine
 10
555.4568095294767
 20
404.9994867203495
 30
0.0000000000000000
 11
555.4568095294767
 21
401.9994867203495
 31
0.0000000000000000
  0
MTEXT
  5
29C
100
AcDbEntity
  8
MAIN0
  6
BYBLOCK
 62
0
100
AcDbMText
 10
550.3068096725278
 20
421.5994867203495
 30
0.0000000000000000
 40
9.299999713897705
 41
0.0000000000000000
 71
     5
 72
     1
  1
\A1;21
 11
6.123233995736766e-017
 21
1.000000000000000
 31
0.0000000000000000
  7
STANDARD
  0
ENDBLK
  5
29D
100
AcDbEntity
  8
MAIN0
  6
CONTINUOUS
 62
3
100
AcDbBlockEnd
  0
BLOCK
  5
29F
100
AcDbEntity
  8
MAIN0
  6
CONTINUOUS
 62
3
100
AcDbBlockBegin
  2
*D25
 70
    65
 10
0.0
 20
0.0
 30
0.0
  0
LINE
  5
2A0
100
AcDbEntity
  8
MAIN0
  6
BYBLOCK
 62
0
100
AcDbLine
 10
1073.763257168583
 20
433.3994867561122
 30
0.0000000000000000
 11
1073.763257168583
 21
508.3892485673486
 31
0.0000000000000000
  0
LINE
  5
2A1
100
AcDbEntity
  8
MAIN0
  6
BYBLOCK
 62
0
100
AcDbLine
 10
1079.763257168583
 20
502.3892485673486
 30
0.0000000000000000
 11
1202.763257168583
 21
502.3892485673486
 31
0.0000000000000000
  0
INSERT
  5
2A2
100
AcDbEntity
  8
MAIN0
  6
BYBLOCK
 62
0
100
AcDbBlockReference
  2
_OPEN
 10
1073.763257168583
 20
502.3892485673486
 30
0.0000000000000000
 41
6.000000000000000
 42
6.000000000000000
 43
6.000000000000000
 50
180.0000000000000
  0
INSERT
  5
2A3
100
AcDbEntity
  8
MAIN0
  6
BYBLOCK
 62
0
100
AcDbBlockReference
  2
_OPEN
 10
1208.763257168583
 20
502.3892485673486
 30
0.0000000000000000
 41
6.000000000000000
 42
6.000000000000000
 43
6.000000000000000
 50
0.0000000000000000
  0
LINE
  5
2A4
100
AcDbEntity
  8
MAIN0
  6
BYBLOCK
 62
0
100
AcDbLine
 10
1208.763257168583
 20
433.3994867561123
 30
0.0000000000000000
 11
1208.763257168583
 21
508.3892485673486
 31
0.0000000000000000
  0
MTEXT
  5
2A5
100
AcDbEntity
  8
MAIN0
  6
BYBLOCK
 62
0
100
AcDbMText
 10
1141.263257168583
 20
507.5392484242974
 30
0.0000000000000000
 40
9.299999713897705
 41
0.0000000000000000
 71
     5
 72
     1
  1
\A1;135
 11
1.000000000000000
 21
0.0000000000000000
 31
0.0000000000000000
  7
STANDARD
  0
ENDBLK
  5
2A6
100
AcDbEntity
  8
MAIN0
  6
CONTINUOUS
 62
3
100
AcDbBlockEnd
  0
BLOCK
  5
2AE
100
AcDbEntity
  8
MAIN0
  6
CONTINUOUS
 62
3
100
AcDbBlockBegin
  2
*D26
 70
    65
 10
0.0
 20
0.0
 30
0.0
  0
LINE
  5
2AF
100
AcDbEntity
  8
MAIN0
  6
BYBLOCK
 62
0
100
AcDbLine
 10
509.3829605851616
 20
611.3495158692264
 30
0.0000000000000000
 11
509.3829605851615
 21
554.0149240781691
 31
0.0000000000000000
  0
LINE
  5
2B0
100
AcDbEntity
  8
MAIN0
  6
BYBLOCK
 62
0
100
AcDbLine
 10
515.3829605851615
 20
560.0149240781691
 30
0.0000000000000000
 11
540.3829605851614
 21
560.0149240781691
 31
0.0000000000000000
  0
INSERT
  5
2B1
100
AcDbEntity
  8
MAIN0
  6
BYBLOCK
 62
0
100
AcDbBlockReference
  2
_OPEN
 10
509.3829605851615
 20
560.0149240781691
 30
0.0000000000000000
 41
6.000000000000000
 42
6.000000000000000
 43
6.000000000000000
 50
180.0000000000000
  0
INSERT
  5
2B2
100
AcDbEntity
  8
MAIN0
  6
BYBLOCK
 62
0
100
AcDbBlockReference
  2
_OPEN
 10
546.3829605851614
 20
560.0149240781691
 30
0.0000000000000000
 41
6.000000000000000
 42
6.000000000000000
 43
6.000000000000000
 50
0.0000000000000000
  0
LINE
  5
2B3
100
AcDbEntity
  8
MAIN0
  6
BYBLOCK
 62
0
100
AcDbLine
 10
546.3829605851614
 20
665.9019973474726
 30
0.0000000000000000
 11
546.3829605851614
 21
554.0149240781691
 31
0.0000000000000000
  0
MTEXT
  5
2B4
100
AcDbEntity
  8
MAIN0
  6
BYBLOCK
 62
0
100
AcDbMText
 10
527.8829605851615
 20
565.1649239351179
 30
0.0000000000000000
 40
9.299999713897705
 41
0.0000000000000000
 71
     5
 72
     1
  1
\A1;37
 11
1.000000000000000
 21
0.0000000000000000
 31
0.0000000000000000
  7
STANDARD
  0
ENDBLK
  5
2B5
100
AcDbEntity
  8
MAIN0
  6
CONTINUOUS
 62
3
100
AcDbBlockEnd
  0
BLOCK
  5
2FF
100
AcDbEntity
  8
MAIN0
  6
CONTINUOUS
 62
3
100
AcDbBlockBegin
  2
*D27
 70
    65
 10
0.0
 20
0.0
 30
0.0
  0
LINE
  5
300
100
AcDbEntity
  8
MAIN0
  6
BYBLOCK
 62
0
100
AcDbLine
 10
370.3829605851612
 20
639.4922299217139
 30
0.0000000000000000
 11
370.3829605851612
 21
583.1297392939476
 31
0.0000000000000000
  0
LINE
  5
301
100
AcDbEntity
  8
MAIN0
  6
BYBLOCK
 62
0
100
AcDbLine
 10
376.3829605851612
 20
589.1297392939476
 30
0.0000000000000000
 11
419.3829605851612
 21
589.1297392939476
 31
0.0000000000000000
  0
INSERT
  5
302
100
AcDbEntity
  8
MAIN0
  6
BYBLOCK
 62
0
100
AcDbBlockReference
  2
_OPEN
 10
370.3829605851612
 20
589.1297392939476
 30
0.0000000000000000
 41
6.000000000000000
 42
6.000000000000000
 43
6.000000000000000
 50
180.0000000000000
  0
INSERT
  5
303
100
AcDbEntity
  8
MAIN0
  6
BYBLOCK
 62
0
100
AcDbBlockReference
  2
_OPEN
 10
425.3829605851612
 20
589.1297392939476
 30
0.0000000000000000
 41
6.000000000000000
 42
6.000000000000000
 43
6.000000000000000
 50
0.0000000000000000
  0
LINE
  5
304
100
AcDbEntity
  8
MAIN0
  6
BYBLOCK
 62
0
100
AcDbLine
 10
425.3829605851612
 20
639.4922299217139
 30
0.0000000000000000
 11
425.3829605851612
 21
583.1297392939476
 31
0.0000000000000000
  0
MTEXT
  5
305
100
AcDbEntity
  8
MAIN0
  6
BYBLOCK
 62
0
100
AcDbMText
 10
405.8936367466448
 20
595.2797391508965
 30
0.0000000000000000
 40
9.299999713897705
 41
0.0000000000000000
 71
     5
 72
     1
  1
\A1;55
 11
1.000000000000000
 21
0.0000000000000000
 31
0.0000000000000000
  7
STANDARD
  0
ENDBLK
  5
306
100
AcDbEntity
  8
MAIN0
  6
CONTINUOUS
 62
3
100
AcDbBlockEnd
  0
BLOCK
  5
308
100
AcDbEntity
  8
MAIN0
  6
CONTINUOUS
 62
3
100
AcDbBlockBegin
  2
*D28
 70
    65
 10
0.0
 20
0.0
 30
0.0
  0
LINE
  5
309
100
AcDbEntity
  8
MAIN0
  6
BYBLOCK
 62
0
100
AcDbLine
 10
425.3829605851612
 20
639.4922299217139
 30
0.0000000000000000
 11
425.3829605851612
 21
583.1297392939476
 31
0.0000000000000000
  0
LINE
  5
30A
100
AcDbEntity
  8
MAIN0
  6
BYBLOCK
 62
0
100
AcDbLine
 10
425.3829605851612
 20
589.1297392939476
 30
0.0000000000000000
 11
435.3829605851614
 21
589.1297392939476
 31
0.0000000000000000
  0
INSERT
  5
30B
100
AcDbEntity
  8
MAIN0
  6
BYBLOCK
 62
0
100
AcDbBlockReference
  2
_OPEN
 10
425.3829605851612
 20
589.1297392939476
 30
0.0000000000000000
 41
6.000000000000000
 42
6.000000000000000
 43
6.000000000000000
 50
0.0000000000000000
  0
INSERT
  5
30C
100
AcDbEntity
  8
MAIN0
  6
BYBLOCK
 62
0
100
AcDbBlockReference
  2
_OPEN
 10
435.3829605851614
 20
589.1297392939476
 30
0.0000000000000000
 41
6.000000000000000
 42
6.000000000000000
 43
6.000000000000000
 50
180.0000000000000
  0
LINE
  5
30D
100
AcDbEntity
  8
MAIN0
  6
BYBLOCK
 62
0
100
AcDbLine
 10
419.3829605851612
 20
589.1297392939476
 30
0.0000000000000000
 11
416.3829605851612
 21
589.1297392939476
 31
0.0000000000000000
  0
LINE
  5
30E
100
AcDbEntity
  8
MAIN0
  6
BYBLOCK
 62
0
100
AcDbLine
 10
441.3829605851614
 20
589.1297392939476
 30
0.0000000000000000
 11
451.7000208741295
 21
589.1297392939476
 31
0.0000000000000000
  0
LINE
  5
30F
100
AcDbEntity
  8
MAIN0
  6
BYBLOCK
 62
0
100
AcDbLine
 10
435.3829605851614
 20
611.3495158692265
 30
0.0000000000000000
 11
435.3829605851614
 21
583.1297392939476
 31
0.0000000000000000
  0
MTEXT
  5
310
100
AcDbEntity
  8
MAIN0
  6
BYBLOCK
 62
0
100
AcDbMText
 10
445.5500210171806
 20
595.2797391508965
 30
0.0000000000000000
 40
9.299999713897705
 41
0.0000000000000000
 71
     5
 72
     1
  1
\A1;10
 11
1.000000000000000
 21
0.0000000000000000
 31
0.0000000000000000
  7
STANDARD
  0
ENDBLK
  5
311
100
AcDbEntity
  8
MAIN0
  6
CONTINUOUS
 62
3
100
AcDbBlockEnd
  0
BLOCK
  5
313
100
AcDbEntity
  8
MAIN0
  6
CONTINUOUS
 62
3
100
AcDbBlockBegin
  2
*D29
 70
    65
 10
0.0
 20
0.0
 30
0.0
  0
LINE
  5
314
100
AcDbEntity
  8
MAIN0
  6
BYBLOCK
 62
0
100
AcDbLine
 10
509.3829605851616
 20
611.3495158692265
 30
0.0000000000000000
 11
509.3829605851616
 21
583.1297392939476
 31
0.0000000000000000
  0
LINE
  5
315
100
AcDbEntity
  8
MAIN0
  6
BYBLOCK
 62
0
100
AcDbLine
 10
509.3829605851616
 20
589.1297392939476
 30
0.0000000000000000
 11
519.3829605851614
 21
589.1297392939476
 31
0.0000000000000000
  0
INSERT
  5
316
100
AcDbEntity
  8
MAIN0
  6
BYBLOCK
 62
0
100
AcDbBlockReference
  2
_OPEN
 10
509.3829605851616
 20
589.1297392939476
 30
0.0000000000000000
 41
6.000000000000000
 42
6.000000000000000
 43
6.000000000000000
 50
0.0000000000000000
  0
INSERT
  5
317
100
AcDbEntity
  8
MAIN0
  6
BYBLOCK
 62
0
100
AcDbBlockReference
  2
_OPEN
 10
519.3829605851614
 20
589.1297392939476
 30
0.0000000000000000
 41
6.000000000000000
 42
6.000000000000000
 43
6.000000000000000
 50
180.0000000000000
  0
LINE
  5
318
100
AcDbEntity
  8
MAIN0
  6
BYBLOCK
 62
0
100
AcDbLine
 10
503.3829605851616
 20
589.1297392939476
 30
0.0000000000000000
 11
494.1157952402029
 21
589.1297392939476
 31
0.0000000000000000
  0
LINE
  5
319
100
AcDbEntity
  8
MAIN0
  6
BYBLOCK
 62
0
100
AcDbLine
 10
525.3829605851614
 20
589.1297392939476
 30
0.0000000000000000
 11
528.3829605851614
 21
589.1297392939476
 31
0.0000000000000000
  0
LINE
  5
31A
100
AcDbEntity
  8
MAIN0
  6
BYBLOCK
 62
0
100
AcDbLine
 10
519.3829605851614
 20
623.9308579107325
 30
0.0000000000000000
 11
519.3829605851614
 21
583.1297392939476
 31
0.0000000000000000
  0
MTEXT
  5
31B
100
AcDbEntity
  8
MAIN0
  6
BYBLOCK
 62
0
100
AcDbMText
 10
500.2657950971518
 20
595.2797391508965
 30
0.0000000000000000
 40
9.299999713897705
 41
0.0000000000000000
 71
     5
 72
     1
  1
\A1;10
 11
1.000000000000000
 21
0.0000000000000000
 31
0.0000000000000000
  7
STANDARD
  0
ENDBLK
  5
31C
100
AcDbEntity
  8
MAIN0
  6
CONTINUOUS
 62
3
100
AcDbBlockEnd
  0
BLOCK
  5
31E
100
AcDbEntity
  8
MAIN0
  6
CONTINUOUS
 62
3
100
AcDbBlockBegin
  2
*D30
 70
    65
 10
0.0
 20
0.0
 30
0.0
  0
LINE
  5
31F
100
AcDbEntity
  8
MAIN0
  6
BYBLOCK
 62
0
100
AcDbLine
 10
519.3829605851614
 20
623.9308579107325
 30
0.0000000000000000
 11
519.3829605851614
 21
583.1297392939476
 31
0.0000000000000000
  0
LINE
  5
320
100
AcDbEntity
  8
MAIN0
  6
BYBLOCK
 62
0
100
AcDbLine
 10
525.3829605851614
 20
589.1297392939476
 30
0.0000000000000000
 11
563.3829605851614
 21
589.1297392939476
 31
0.0000000000000000
  0
INSERT
  5
321
100
AcDbEntity
  8
MAIN0
  6
BYBLOCK
 62
0
100
AcDbBlockReference
  2
_OPEN
 10
519.3829605851614
 20
589.1297392939476
 30
0.0000000000000000
 41
6.000000000000000
 42
6.000000000000000
 43
6.000000000000000
 50
180.0000000000000
  0
INSERT
  5
322
100
AcDbEntity
  8
MAIN0
  6
BYBLOCK
 62
0
100
AcDbBlockReference
  2
_OPEN
 10
569.3829605851614
 20
589.1297392939476
 30
0.0000000000000000
 41
6.000000000000000
 42
6.000000000000000
 43
6.000000000000000
 50
0.0000000000000000
  0
LINE
  5
323
100
AcDbEntity
  8
MAIN0
  6
BYBLOCK
 62
0
100
AcDbLine
 10
569.3829605851614
 20
623.9308579107324
 30
0.0000000000000000
 11
569.3829605851614
 21
583.1297392939476
 31
0.0000000000000000
  0
MTEXT
  5
324
100
AcDbEntity
  8
MAIN0
  6
BYBLOCK
 62
0
100
AcDbMText
 10
538.4162518222867
 20
595.2797391508965
 30
0.0000000000000000
 40
9.299999713897705
 41
0.0000000000000000
 71
     5
 72
     1
  1
\A1;50
 11
1.000000000000000
 21
0.0000000000000000
 31
0.0000000000000000
  7
STANDARD
  0
ENDBLK
  5
325
100
AcDbEntity
  8
MAIN0
  6
CONTINUOUS
 62
3
100
AcDbBlockEnd
  0
BLOCK
  5
327
100
AcDbEntity
  8
MAIN0
  6
CONTINUOUS
 62
3
100
AcDbBlockBegin
  2
*D31
 70
    65
 10
0.0
 20
0.0
 30
0.0
  0
LINE
  5
328
100
AcDbEntity
  8
MAIN0
  6
BYBLOCK
 62
0
100
AcDbLine
 10
579.4645036700264
 20
635.9995159049895
 30
0.0000000000000000
 11
625.7369110510679
 21
635.9995159049895
 31
0.0000000000000000
  0
LINE
  5
329
100
AcDbEntity
  8
MAIN0
  6
BYBLOCK
 62
0
100
AcDbLine
 10
619.7369110510679
 20
641.9995159049895
 30
0.0000000000000000
 11
619.7369110510679
 21
709.9995159049895
 31
0.0000000000000000
  0
INSERT
  5
32A
100
AcDbEntity
  8
MAIN0
  6
BYBLOCK
 62
0
100
AcDbBlockReference
  2
_OPEN
 10
619.7369110510679
 20
635.9995159049895
 30
0.0000000000000000
 41
6.000000000000000
 42
6.000000000000000
 43
6.000000000000000
 50
270.0000000000000
  0
INSERT
  5
32B
100
AcDbEntity
  8
MAIN0
  6
BYBLOCK
 62
0
100
AcDbBlockReference
  2
_OPEN
 10
619.7369110510679
 20
715.9995159049895
 30
0.0000000000000000
 41
6.000000000000000
 42
6.000000000000000
 43
6.000000000000000
 50
90.00000000000000
  0
LINE
  5
32C
100
AcDbEntity
  8
MAIN0
  6
BYBLOCK
 62
0
100
AcDbLine
 10
579.4645036700264
 20
715.9995159049895
 30
0.0000000000000000
 11
625.7369110510679
 21
715.9995159049895
 31
0.0000000000000000
  0
MTEXT
  5
32D
100
AcDbEntity
  8
MAIN0
  6
BYBLOCK
 62
0
100
AcDbMText
 10
614.5869111941190
 20
675.9995159049895
 30
0.0000000000000000
 40
9.299999713897705
 41
0.0000000000000000
 71
     5
 72
     1
  1
\A1;80
 11
6.123233995736766e-017
 21
1.000000000000000
 31
0.0000000000000000
  7
STANDARD
  0
ENDBLK
  5
32E
100
AcDbEntity
  8
MAIN0
  6
CONTINUOUS
 62
3
100
AcDbBlockEnd
  0
BLOCK
  5
330
100
AcDbEntity
  8
MAIN0
  6
CONTINUOUS
 62
3
100
AcDbBlockBegin
  2
*D32
 70
    65
 10
0.0
 20
0.0
 30
0.0
  0
LINE
  5
331
100
AcDbEntity
  8
MAIN0
  6
BYBLOCK
 62
0
100
AcDbLine
 10
359.7482951636702
 20
650.9995159049895
 30
0.0000000000000000
 11
313.5531745616393
 21
650.9995159049895
 31
0.0000000000000000
  0
LINE
  5
332
100
AcDbEntity
  8
MAIN0
  6
BYBLOCK
 62
0
100
AcDbLine
 10
319.5531745616393
 20
656.9995159049895
 30
0.0000000000000000
 11
319.5531745616393
 21
694.9995159049895
 31
0.0000000000000000
  0
INSERT
  5
333
100
AcDbEntity
  8
MAIN0
  6
BYBLOCK
 62
0
100
AcDbBlockReference
  2
_OPEN
 10
319.5531745616393
 20
650.9995159049895
 30
0.0000000000000000
 41
6.000000000000000
 42
6.000000000000000
 43
6.000000000000000
 50
270.0000000000000
  0
INSERT
  5
334
100
AcDbEntity
  8
MAIN0
  6
BYBLOCK
 62
0
100
AcDbBlockReference
  2
_OPEN
 10
319.5531745616393
 20
700.9995159049895
 30
0.0000000000000000
 41
6.000000000000000
 42
6.000000000000000
 43
6.000000000000000
 50
90.00000000000000
  0
LINE
  5
335
100
AcDbEntity
  8
MAIN0
  6
BYBLOCK
 62
0
100
AcDbLine
 10
359.7482951636702
 20
700.9995159049895
 30
0.0000000000000000
 11
313.5531745616393
 21
700.9995159049895
 31
0.0000000000000000
  0
MTEXT
  5
336
100
AcDbEntity
  8
MAIN0
  6
BYBLOCK
 62
0
100
AcDbMText
 10
314.4031747046904
 20
675.9995159049895
 30
0.0000000000000000
 40
9.299999713897705
 41
0.0000000000000000
 71
     5
 72
     1
  1
\A1;50
 11
6.123233995736766e-017
 21
1.000000000000000
 31
0.0000000000000000
  7
STANDARD
  0
ENDBLK
  5
337
100
AcDbEntity
  8
MAIN0
  6
CONTINUOUS
 62
3
100
AcDbBlockEnd
  0
BLOCK
  5
346
100
AcDbEntity
  8
MAIN0
  6
CONTINUOUS
 62
3
100
AcDbBlockBegin
  2
*D33
 70
    65
 10
0.0
 20
0.0
 30
0.0
  0
LINE
  5
347
100
AcDbEntity
  8
MAIN0
  6
BYBLOCK
 62
0
100
AcDbLine
 10
851.6935584895015
 20
384.7994742463135
 30
0.0000000000000000
 11
851.6935584895015
 21
589.9231703170556
 31
0.0000000000000000
  0
LINE
  5
348
100
AcDbEntity
  8
MAIN0
  6
BYBLOCK
 62
0
100
AcDbLine
 10
851.6935584895015
 20
583.9231703170556
 30
0.0000000000000000
 11
866.6935584895020
 21
583.9231703170556
 31
0.0000000000000000
  0
INSERT
  5
349
100
AcDbEntity
  8
MAIN0
  6
BYBLOCK
 62
0
100
AcDbBlockReference
  2
_OPEN
 10
851.6935584895015
 20
583.9231703170556
 30
0.0000000000000000
 41
6.000000000000000
 42
6.000000000000000
 43
6.000000000000000
 50
0.0000000000000000
  0
INSERT
  5
34A
100
AcDbEntity
  8
MAIN0
  6
BYBLOCK
 62
0
100
AcDbBlockReference
  2
_OPEN
 10
866.6935584895020
 20
583.9231703170556
 30
0.0000000000000000
 41
6.000000000000000
 42
6.000000000000000
 43
6.000000000000000
 50
180.0000000000000
  0
LINE
  5
34B
100
AcDbEntity
  8
MAIN0
  6
BYBLOCK
 62
0
100
AcDbLine
 10
845.6935584895015
 20
583.9231703170556
 30
0.0000000000000000
 11
842.6935584895015
 21
583.9231703170556
 31
0.0000000000000000
  0
LINE
  5
34C
100
AcDbEntity
  8
MAIN0
  6
BYBLOCK
 62
0
100
AcDbLine
 10
872.6935584895020
 20
583.9231703170556
 30
0.0000000000000000
 11
875.6935584895020
 21
583.9231703170556
 31
0.0000000000000000
  0
LINE
  5
34D
100
AcDbEntity
  8
MAIN0
  6
BYBLOCK
 62
0
100
AcDbLine
 10
866.6935584895020
 20
388.3994742463135
 30
0.0000000000000000
 11
866.6935584895020
 21
589.9231703170556
 31
0.0000000000000000
  0
MTEXT
  5
34E
100
AcDbEntity
  8
MAIN0
  6
BYBLOCK
 62
0
100
AcDbMText
 10
859.1935584895018
 20
589.0731701740044
 30
0.0000000000000000
 40
9.299999713897705
 41
0.0000000000000000
 71
     5
 72
     1
  1
\A1;15
 11
1.000000000000000
 21
0.0000000000000000
 31
0.0000000000000000
  7
STANDARD
  0
ENDBLK
  5
34F
100
AcDbEntity
  8
MAIN0
  6
CONTINUOUS
 62
3
100
AcDbBlockEnd
  0
BLOCK
  5
351
100
AcDbEntity
  8
MAIN0
  6
CONTINUOUS
 62
3
100
AcDbBlockBegin
  2
*D34
 70
    65
 10
0.0
 20
0.0
 30
0.0
  0
LINE
  5
352
100
AcDbEntity
  8
MAIN0
  6
BYBLOCK
 62
0
100
AcDbLine
 10
866.6935584895020
 20
388.3994742463135
 30
0.0000000000000000
 11
866.6935584895020
 21
589.9231703170556
 31
0.0000000000000000
  0
LINE
  5
353
100
AcDbEntity
  8
MAIN0
  6
BYBLOCK
 62
0
100
AcDbLine
 10
872.6935584895020
 20
583.9231703170556
 30
0.0000000000000000
 11
890.6935584894829
 21
583.9231703170556
 31
0.0000000000000000
  0
INSERT
  5
354
100
AcDbEntity
  8
MAIN0
  6
BYBLOCK
 62
0
100
AcDbBlockReference
  2
_OPEN
 10
866.6935584895020
 20
583.9231703170556
 30
0.0000000000000000
 41
6.000000000000000
 42
6.000000000000000
 43
6.000000000000000
 50
180.0000000000000
  0
INSERT
  5
355
100
AcDbEntity
  8
MAIN0
  6
BYBLOCK
 62
0
100
AcDbBlockReference
  2
_OPEN
 10
896.6935584894829
 20
583.9231703170556
 30
0.0000000000000000
 41
6.000000000000000
 42
6.000000000000000
 43
6.000000000000000
 50
0.0000000000000000
  0
LINE
  5
356
100
AcDbEntity
  8
MAIN0
  6
BYBLOCK
 62
0
100
AcDbLine
 10
896.6935584894829
 20
548.8994742463133
 30
0.0000000000000000
 11
896.6935584894829
 21
589.9231703170556
 31
0.0000000000000000
  0
MTEXT
  5
357
100
AcDbEntity
  8
MAIN0
  6
BYBLOCK
 62
0
100
AcDbMText
 10
881.6935584894925
 20
589.0731701740044
 30
0.0000000000000000
 40
9.299999713897705
 41
0.0000000000000000
 71
     5
 72
     1
  1
\A1;30
 11
1.000000000000000
 21
0.0000000000000000
 31
0.0000000000000000
  7
STANDARD
  0
ENDBLK
  5
358
100
AcDbEntity
  8
MAIN0
  6
CONTINUOUS
 62
3
100
AcDbBlockEnd
  0
BLOCK
  5
35A
100
AcDbEntity
  8
MAIN0
  6
CONTINUOUS
 62
3
100
AcDbBlockBegin
  2
*D35
 70
    65
 10
0.0
 20
0.0
 30
0.0
  0
LINE
  5
35B
100
AcDbEntity
  8
MAIN0
  6
BYBLOCK
 62
0
100
AcDbLine
 10
896.6935584894829
 20
548.8994742463133
 30
0.0000000000000000
 11
896.6935584894829
 21
589.9231703170556
 31
0.0000000000000000
  0
LINE
  5
35C
100
AcDbEntity
  8
MAIN0
  6
BYBLOCK
 62
0
100
AcDbLine
 10
902.6935584894829
 20
583.9231703170556
 30
0.0000000000000000
 11
962.6935584894773
 21
583.9231703170556
 31
0.0000000000000000
  0
INSERT
  5
35D
100
AcDbEntity
  8
MAIN0
  6
BYBLOCK
 62
0
100
AcDbBlockReference
  2
_OPEN
 10
896.6935584894829
 20
583.9231703170556
 30
0.0000000000000000
 41
6.000000000000000
 42
6.000000000000000
 43
6.000000000000000
 50
180.0000000000000
  0
INSERT
  5
35E
100
AcDbEntity
  8
MAIN0
  6
BYBLOCK
 62
0
100
AcDbBlockReference
  2
_OPEN
 10
968.6935584894773
 20
583.9231703170556
 30
0.0000000000000000
 41
6.000000000000000
 42
6.000000000000000
 43
6.000000000000000
 50
0.0000000000000000
  0
LINE
  5
35F
100
AcDbEntity
  8
MAIN0
  6
BYBLOCK
 62
0
100
AcDbLine
 10
968.6935584894773
 20
558.3994742463136
 30
0.0000000000000000
 11
968.6935584894773
 21
589.9231703170556
 31
0.0000000000000000
  0
MTEXT
  5
360
100
AcDbEntity
  8
MAIN0
  6
BYBLOCK
 62
0
100
AcDbMText
 10
932.6935584894800
 20
589.0731701740044
 30
0.0000000000000000
 40
9.299999713897705
 41
0.0000000000000000
 71
     5
 72
     1
  1
\A1;72
 11
1.000000000000000
 21
0.0000000000000000
 31
0.0000000000000000
  7
STANDARD
  0
ENDBLK
  5
361
100
AcDbEntity
  8
MAIN0
  6
CONTINUOUS
 62
3
100
AcDbBlockEnd
  0
BLOCK
  5
363
100
AcDbEntity
  8
MAIN0
  6
CONTINUOUS
 62
3
100
AcDbBlockBegin
  2
*D36
 70
    65
 10
0.0
 20
0.0
 30
0.0
  0
LINE
  5
364
100
AcDbEntity
  8
MAIN0
  6
BYBLOCK
 62
0
100
AcDbLine
 10
851.6935584895005
 20
378.3994742463133
 30
0.0000000000000000
 11
851.6935584895005
 21
614.1097135123739
 31
0.0000000000000000
  0
LINE
  5
365
100
AcDbEntity
  8
MAIN0
  6
BYBLOCK
 62
0
100
AcDbLine
 10
857.6935584895005
 20
608.1097135123739
 30
0.0000000000000000
 11
962.6935584894773
 21
608.1097135123739
 31
0.0000000000000000
  0
INSERT
  5
366
100
AcDbEntity
  8
MAIN0
  6
BYBLOCK
 62
0
100
AcDbBlockReference
  2
_OPEN
 10
851.6935584895005
 20
608.1097135123739
 30
0.0000000000000000
 41
6.000000000000000
 42
6.000000000000000
 43
6.000000000000000
 50
180.0000000000000
  0
INSERT
  5
367
100
AcDbEntity
  8
MAIN0
  6
BYBLOCK
 62
0
100
AcDbBlockReference
  2
_OPEN
 10
968.6935584894773
 20
608.1097135123739
 30
0.0000000000000000
 41
6.000000000000000
 42
6.000000000000000
 43
6.000000000000000
 50
0.0000000000000000
  0
LINE
  5
368
100
AcDbEntity
  8
MAIN0
  6
BYBLOCK
 62
0
100
AcDbLine
 10
968.6935584894773
 20
558.3994742463136
 30
0.0000000000000000
 11
968.6935584894773
 21
614.1097135123739
 31
0.0000000000000000
  0
MTEXT
  5
369
100
AcDbEntity
  8
MAIN0
  6
BYBLOCK
 62
0
100
AcDbMText
 10
910.1935584894889
 20
613.2597133693228
 30
0.0000000000000000
 40
9.299999713897705
 41
0.0000000000000000
 71
     5
 72
     1
  1
\A1;117
 11
1.000000000000000
 21
0.0000000000000000
 31
0.0000000000000000
  7
STANDARD
  0
ENDBLK
  5
36A
100
AcDbEntity
  8
MAIN0
  6
CONTINUOUS
 62
3
100
AcDbBlockEnd
  0
BLOCK
  5
36D
100
AcDbEntity
  8
MAIN0
  6
CONTINUOUS
 62
3
100
AcDbBlockBegin
  2
*D37
 70
    65
 10
0.0
 20
0.0
 30
0.0
  0
LINE
  5
36E
100
AcDbEntity
  8
MAIN0
  6
BYBLOCK
 62
0
100
AcDbLine
 10
396.3829605851614
 20
663.8912500473405
 30
0.0000000000000000
 11
396.3829605851614
 21
554.0149240781691
 31
0.0000000000000000
  0
LINE
  5
36F
100
AcDbEntity
  8
MAIN0
  6
BYBLOCK
 62
0
100
AcDbLine
 10
402.3829605851615
 20
560.0149240781691
 30
0.0000000000000000
 11
429.3829605851614
 21
560.0149240781691
 31
0.0000000000000000
  0
INSERT
  5
370
100
AcDbEntity
  8
MAIN0
  6
BYBLOCK
 62
0
100
AcDbBlockReference
  2
_OPEN
 10
396.3829605851615
 20
560.0149240781691
 30
0.0000000000000000
 41
6.000000000000000
 42
6.000000000000000
 43
6.000000000000000
 50
180.0000000000000
  0
INSERT
  5
371
100
AcDbEntity
  8
MAIN0
  6
BYBLOCK
 62
0
100
AcDbBlockReference
  2
_OPEN
 10
435.3829605851614
 20
560.0149240781691
 30
0.0000000000000000
 41
6.000000000000000
 42
6.000000000000000
 43
6.000000000000000
 50
0.0000000000000000
  0
LINE
  5
372
100
AcDbEntity
  8
MAIN0
  6
BYBLOCK
 62
0
100
AcDbLine
 10
435.3829605851614
 20
611.3495158692265
 30
0.0000000000000000
 11
435.3829605851614
 21
554.0149240781691
 31
0.0000000000000000
  0
MTEXT
  5
373
100
AcDbEntity
  8
MAIN0
  6
BYBLOCK
 62
0
100
AcDbMText
 10
415.8829605851614
 20
565.1649239351179
 30
0.0000000000000000
 40
9.299999713897705
 41
0.0000000000000000
 71
     5
 72
     1
  1
\A1;39
 11
1.000000000000000
 21
0.0000000000000000
 31
0.0000000000000000
  7
STANDARD
  0
ENDBLK
  5
374
100
AcDbEntity
  8
MAIN0
  6
CONTINUOUS
 62
3
100
AcDbBlockEnd
  0
BLOCK
  5
376
100
AcDbEntity
  8
MAIN0
  6
CONTINUOUS
 62
3
100
AcDbBlockBegin
  2
*D38
 70
    65
 10
0.0
 20
0.0
 30
0.0
  0
LINE
  5
377
100
AcDbEntity
  8
MAIN0
  6
BYBLOCK
 62
0
100
AcDbLine
 10
356.3829605851622
 20
308.5994866845869
 30
0.0000000000000000
 11
356.3829605851622
 21
198.3150914873998
 31
0.0000000000000000
  0
LINE
  5
378
100
AcDbEntity
  8
MAIN0
  6
BYBLOCK
 62
0
100
AcDbLine
 10
362.3829605851622
 20
204.3150914873998
 30
0.0000000000000000
 11
495.3829605851622
 21
204.3150914873998
 31
0.0000000000000000
  0
INSERT
  5
379
100
AcDbEntity
  8
MAIN0
  6
BYBLOCK
 62
0
100
AcDbBlockReference
  2
_OPEN
 10
356.3829605851622
 20
204.3150914873998
 30
0.0000000000000000
 41
6.000000000000000
 42
6.000000000000000
 43
6.000000000000000
 50
180.0000000000000
  0
INSERT
  5
37A
100
AcDbEntity
  8
MAIN0
  6
BYBLOCK
 62
0
100
AcDbBlockReference
  2
_OPEN
 10
501.3829605851622
 20
204.3150914873998
 30
0.0000000000000000
 41
6.000000000000000
 42
6.000000000000000
 43
6.000000000000000
 50
0.0000000000000000
  0
LINE
  5
37B
100
AcDbEntity
  8
MAIN0
  6
BYBLOCK
 62
0
100
AcDbLine
 10
501.3829605851622
 20
292.7149397725778
 30
0.0000000000000000
 11
501.3829605851622
 21
198.3150914873998
 31
0.0000000000000000
  0
MTEXT
  5
37C
100
AcDbEntity
  8
MAIN0
  6
BYBLOCK
 62
0
100
AcDbMText
 10
428.8829605851622
 20
209.4650913443486
 30
0.0000000000000000
 40
9.299999713897705
 41
0.0000000000000000
 71
     5
 72
     1
  1
\A1;145
 11
1.000000000000000
 21
0.0000000000000000
 31
0.0000000000000000
  7
STANDARD
  0
ENDBLK
  5
37D
100
AcDbEntity
  8
MAIN0
  6
CONTINUOUS
 62
3
100
AcDbBlockEnd
  0
BLOCK
  5
37F
100
AcDbEntity
  8
MAIN0
  6
CONTINUOUS
 62
3
100
AcDbBlockBegin
  2
*D39
 70
    65
 10
0.0
 20
0.0
 30
0.0
  0
LINE
  5
380
100
AcDbEntity
  8
MAIN0
  6
BYBLOCK
 62
0
100
AcDbLine
 10
501.3829605851622
 20
292.7149397725778
 30
0.0000000000000000
 11
501.3829605851622
 21
198.3150914873998
 31
0.0000000000000000
  0
LINE
  5
381
100
AcDbEntity
  8
MAIN0
  6
BYBLOCK
 62
0
100
AcDbLine
 10
507.3829605851622
 20
204.3150914873998
 30
0.0000000000000000
 11
801.8829605851622
 21
204.3150914873998
 31
0.0000000000000000
  0
INSERT
  5
382
100
AcDbEntity
  8
MAIN0
  6
BYBLOCK
 62
0
100
AcDbBlockReference
  2
_OPEN
 10
501.3829605851622
 20
204.3150914873998
 30
0.0000000000000000
 41
6.000000000000000
 42
6.000000000000000
 43
6.000000000000000
 50
180.0000000000000
  0
INSERT
  5
383
100
AcDbEntity
  8
MAIN0
  6
BYBLOCK
 62
0
100
AcDbBlockReference
  2
_OPEN
 10
807.8829605851622
 20
204.3150914873998
 30
0.0000000000000000
 41
6.000000000000000
 42
6.000000000000000
 43
6.000000000000000
 50
0.0000000000000000
  0
LINE
  5
384
100
AcDbEntity
  8
MAIN0
  6
BYBLOCK
 62
0
100
AcDbLine
 10
807.8829605851622
 20
348.5994866845867
 30
0.0000000000000000
 11
807.8829605851622
 21
198.3150914873998
 31
0.0000000000000000
  0
MTEXT
  5
385
100
AcDbEntity
  8
MAIN0
  6
BYBLOCK
 62
0
100
AcDbMText
 10
654.6329605851622
 20
209.4650913443486
 30
0.0000000000000000
 40
9.299999713897705
 41
0.0000000000000000
 71
     5
 72
     1
  1
\A1;306.5
 11
1.000000000000000
 21
0.0000000000000000
 31
0.0000000000000000
  7
STANDARD
  0
ENDBLK
  5
386
100
AcDbEntity
  8
MAIN0
  6
CONTINUOUS
 62
3
100
AcDbBlockEnd
  0
BLOCK
  5
388
100
AcDbEntity
  8
MAIN0
  6
CONTINUOUS
 62
3
100
AcDbBlockBegin
  2
*D40
 70
    65
 10
0.0
 20
0.0
 30
0.0
  0
LINE
  5
389
100
AcDbEntity
  8
MAIN0
  6
BYBLOCK
 62
0
100
AcDbLine
 10
435.3829605851620
 20
408.5994866845866
 30
0.0000000000000000
 11
435.3829605851620
 21
245.3479852043603
 31
0.0000000000000000
  0
LINE
  5
38A
100
AcDbEntity
  8
MAIN0
  6
BYBLOCK
 62
0
100
AcDbLine
 10
441.3829605851620
 20
251.3479852043603
 30
0.0000000000000000
 11
495.3829605851622
 21
251.3479852043603
 31
0.0000000000000000
  0
INSERT
  5
38B
100
AcDbEntity
  8
MAIN0
  6
BYBLOCK
 62
0
100
AcDbBlockReference
  2
_OPEN
 10
435.3829605851620
 20
251.3479852043603
 30
0.0000000000000000
 41
6.000000000000000
 42
6.000000000000000
 43
6.000000000000000
 50
180.0000000000000
  0
INSERT
  5
38C
100
AcDbEntity
  8
MAIN0
  6
BYBLOCK
 62
0
100
AcDbBlockReference
  2
_OPEN
 10
501.3829605851622
 20
251.3479852043603
 30
0.0000000000000000
 41
6.000000000000000
 42
6.000000000000000
 43
6.000000000000000
 50
0.0000000000000000
  0
LINE
  5
38D
100
AcDbEntity
  8
MAIN0
  6
BYBLOCK
 62
0
100
AcDbLine
 10
501.3829605851622
 20
292.7149397725778
 30
0.0000000000000000
 11
501.3829605851622
 21
245.3479852043603
 31
0.0000000000000000
  0
MTEXT
  5
38E
100
AcDbEntity
  8
MAIN0
  6
BYBLOCK
 62
0
100
AcDbMText
 10
468.3829605851621
 20
256.4979850613091
 30
0.0000000000000000
 40
9.299999713897705
 41
0.0000000000000000
 71
     5
 72
     1
  1
\A1;66
 11
1.000000000000000
 21
0.0000000000000000
 31
0.0000000000000000
  7
STANDARD
  0
ENDBLK
  5
38F
100
AcDbEntity
  8
MAIN0
  6
CONTINUOUS
 62
3
100
AcDbBlockEnd
  0
BLOCK
  5
391
100
AcDbEntity
  8
MAIN0
  6
CONTINUOUS
 62
3
100
AcDbBlockBegin
  2
*D41
 70
    65
 10
0.0
 20
0.0
 30
0.0
  0
LINE
  5
392
100
AcDbEntity
  8
MAIN0
  6
BYBLOCK
 62
0
100
AcDbLine
 10
501.3829605851622
 20
292.7149397725778
 30
0.0000000000000000
 11
501.3829605851622
 21
245.3479852043603
 31
0.0000000000000000
  0
LINE
  5
393
100
AcDbEntity
  8
MAIN0
  6
BYBLOCK
 62
0
100
AcDbLine
 10
507.3829605851622
 20
251.3479852043603
 30
0.0000000000000000
 11
715.3829605851620
 21
251.3479852043603
 31
0.0000000000000000
  0
INSERT
  5
394
100
AcDbEntity
  8
MAIN0
  6
BYBLOCK
 62
0
100
AcDbBlockReference
  2
_OPEN
 10
501.3829605851622
 20
251.3479852043603
 30
0.0000000000000000
 41
6.000000000000000
 42
6.000000000000000
 43
6.000000000000000
 50
180.0000000000000
  0
INSERT
  5
395
100
AcDbEntity
  8
MAIN0
  6
BYBLOCK
 62
0
100
AcDbBlockReference
  2
_OPEN
 10
721.3829605851620
 20
251.3479852043603
 30
0.0000000000000000
 41
6.000000000000000
 42
6.000000000000000
 43
6.000000000000000
 50
0.0000000000000000
  0
LINE
  5
396
100
AcDbEntity
  8
MAIN0
  6
BYBLOCK
 62
0
100
AcDbLine
 10
721.3829605851620
 20
308.5994866845868
 30
0.0000000000000000
 11
721.3829605851620
 21
245.3479852043603
 31
0.0000000000000000
  0
MTEXT
  5
397
100
AcDbEntity
  8
MAIN0
  6
BYBLOCK
 62
0
100
AcDbMText
 10
611.3829605851621
 20
256.4979850613091
 30
0.0000000000000000
 40
9.299999713897705
 41
0.0000000000000000
 71
     5
 72
     1
  1
\A1;220
 11
1.000000000000000
 21
0.0000000000000000
 31
0.0000000000000000
  7
STANDARD
  0
ENDBLK
  5
398
100
AcDbEntity
  8
MAIN0
  6
CONTINUOUS
 62
3
100
AcDbBlockEnd
  0
BLOCK
  5
39A
100
AcDbEntity
  8
MAIN0
  6
CONTINUOUS
 62
3
100
AcDbBlockBegin
  2
*D42
 70
    65
 10
0.0
 20
0.0
 30
0.0
  0
LINE
  5
39B
100
AcDbEntity
  8
MAIN0
  6
BYBLOCK
 62
0
100
AcDbLine
 10
619.2686444299156
 20
316.9994867203495
 30
0.0000000000000000
 11
619.2686444299156
 21
377.9994867200769
 31
0.0000000000000000
  0
INSERT
  5
39C
100
AcDbEntity
  8
MAIN0
  6
BYBLOCK
 62
0
100
AcDbBlockReference
  2
_OPEN
 10
619.2686444299156
 20
310.9994867203495
 30
0.0000000000000000
 41
6.000000000000000
 42
6.000000000000000
 43
6.000000000000000
 50
270.0000000000000
  0
INSERT
  5
39D
100
AcDbEntity
  8
MAIN0
  6
BYBLOCK
 62
0
100
AcDbBlockReference
  2
_OPEN
 10
619.2686444299156
 20
383.9994867200769
 30
0.0000000000000000
 41
6.000000000000000
 42
6.000000000000000
 43
6.000000000000000
 50
90.00000000000000
  0
LINE
  5
39E
100
AcDbEntity
  8
MAIN0
  6
BYBLOCK
 62
0
100
AcDbLine
 10
635.8683720763477
 20
383.9994867200769
 30
0.0000000000000000
 11
613.2686444299156
 21
383.9994867200769
 31
0.0000000000000000
  0
MTEXT
  5
39F
100
AcDbEntity
  8
MAIN0
  6
BYBLOCK
 62
0
100
AcDbMText
 10
613.1186445729668
 20
342.8224239679620
 30
0.0000000000000000
 40
9.299999713897705
 41
0.0000000000000000
 71
     5
 72
     1
  1
\A1;73
 11
6.123233995736766e-017
 21
1.000000000000000
 31
0.0000000000000000
  7
STANDARD
  0
ENDBLK
  5
3A0
100
AcDbEntity
  8
MAIN0
  6
CONTINUOUS
 62
3
100
AcDbBlockEnd
  0
BLOCK
  5
3A2
100
AcDbEntity
  8
MAIN0
  6
CONTINUOUS
 62
3
100
AcDbBlockBegin
  2
*D43
 70
    65
 10
0.0
 20
0.0
 30
0.0
  0
LINE
  5
3A3
100
AcDbEntity
  8
MAIN0
  6
BYBLOCK
 62
0
100
AcDbLine
 10
635.8683720763477
 20
383.9994867200769
 30
0.0000000000000000
 11
613.2686444299156
 21
383.9994867200769
 31
0.0000000000000000
  0
LINE
  5
3A4
100
AcDbEntity
  8
MAIN0
  6
BYBLOCK
 62
0
100
AcDbLine
 10
619.2686444299156
 20
389.9994867200769
 30
0.0000000000000000
 11
619.2686444299156
 21
404.9994867203495
 31
0.0000000000000000
  0
INSERT
  5
3A5
100
AcDbEntity
  8
MAIN0
  6
BYBLOCK
 62
0
100
AcDbBlockReference
  2
_OPEN
 10
619.2686444299156
 20
383.9994867200769
 30
0.0000000000000000
 41
6.000000000000000
 42
6.000000000000000
 43
6.000000000000000
 50
270.0000000000000
  0
INSERT
  5
3A6
100
AcDbEntity
  8
MAIN0
  6
BYBLOCK
 62
0
100
AcDbBlockReference
  2
_OPEN
 10
619.2686444299156
 20
410.9994867203495
 30
0.0000000000000000
 41
6.000000000000000
 42
6.000000000000000
 43
6.000000000000000
 50
90.00000000000000
  0
LINE
  5
3A7
100
AcDbEntity
  8
MAIN0
  6
BYBLOCK
 62
0
100
AcDbLine
 10
619.2686444299156
 20
410.9994867203495
 30
0.0000000000000000
 11
619.2686444299156
 21
425.8713016983551
 31
0.0000000000000000
  0
LINE
  5
3A8
100
AcDbEntity
  8
MAIN0
  6
BYBLOCK
 62
0
100
AcDbLine
 10
585.7829606209248
 20
410.9994867203495
 30
0.0000000000000000
 11
625.2686444299156
 21
410.9994867203495
 31
0.0000000000000000
  0
MTEXT
  5
3A9
100
AcDbEntity
  8
MAIN0
  6
BYBLOCK
 62
0
100
AcDbMText
 10
613.1186445729668
 20
419.7213018414062
 30
0.0000000000000000
 40
9.299999713897705
 41
0.0000000000000000
 71
     5
 72
     1
  1
\A1;27
 11
6.123233995736766e-017
 21
1.000000000000000
 31
0.0000000000000000
  7
STANDARD
  0
ENDBLK
  5
3AA
100
AcDbEntity
  8
MAIN0
  6
CONTINUOUS
 62
3
100
AcDbBlockEnd
  0
BLOCK
  5
3AC
100
AcDbEntity
  8
MAIN0
  6
CONTINUOUS
 62
3
100
AcDbBlockBegin
  2
*D44
 70
    65
 10
0.0
 20
0.0
 30
0.0
  0
LINE
  5
3AD
100
AcDbEntity
  8
MAIN0
  6
BYBLOCK
 62
0
100
AcDbLine
 10
1007.263257168583
 20
338.5994866845867
 30
0.0000000000000000
 11
1007.263257168583
 21
243.2553431419885
 31
0.0000000000000000
  0
LINE
  5
3AE
100
AcDbEntity
  8
MAIN0
  6
BYBLOCK
 62
0
100
AcDbLine
 10
1013.263257168583
 20
249.2553431419885
 30
0.0000000000000000
 11
1072.263257168583
 21
249.2553431419885
 31
0.0000000000000000
  0
INSERT
  5
3AF
100
AcDbEntity
  8
MAIN0
  6
BYBLOCK
 62
0
100
AcDbBlockReference
  2
_OPEN
 10
1007.263257168583
 20
249.2553431419885
 30
0.0000000000000000
 41
6.000000000000000
 42
6.000000000000000
 43
6.000000000000000
 50
180.0000000000000
  0
INSERT
  5
3B0
100
AcDbEntity
  8
MAIN0
  6
BYBLOCK
 62
0
100
AcDbBlockReference
  2
_OPEN
 10
1078.263257168583
 20
249.2553431419885
 30
0.0000000000000000
 41
6.000000000000000
 42
6.000000000000000
 43
6.000000000000000
 50
0.0000000000000000
  0
LINE
  5
3B1
100
AcDbEntity
  8
MAIN0
  6
BYBLOCK
 62
0
100
AcDbLine
 10
1078.263257168583
 20
308.5994866845868
 30
0.0000000000000000
 11
1078.263257168583
 21
243.2553431419885
 31
0.0000000000000000
  0
MTEXT
  5
3B2
100
AcDbEntity
  8
MAIN0
  6
BYBLOCK
 62
0
100
AcDbMText
 10
1042.763257168583
 20
254.4053429989373
 30
0.0000000000000000
 40
9.299999713897705
 41
0.0000000000000000
 71
     5
 72
     1
  1
\A1;71
 11
1.000000000000000
 21
0.0000000000000000
 31
0.0000000000000000
  7
STANDARD
  0
ENDBLK
  5
3B3
100
AcDbEntity
  8
MAIN0
  6
CONTINUOUS
 62
3
100
AcDbBlockEnd
  0
BLOCK
  5
3B5
100
AcDbEntity
  8
MAIN0
  6
CONTINUOUS
 62
3
100
AcDbBlockBegin
  2
*D45
 70
    65
 10
0.0
 20
0.0
 30
0.0
  0
LINE
  5
3B6
100
AcDbEntity
  8
MAIN0
  6
BYBLOCK
 62
0
100
AcDbLine
 10
1078.263257168583
 20
308.5994866845868
 30
0.0000000000000000
 11
1078.263257168583
 21
243.2553431419885
 31
0.0000000000000000
  0
LINE
  5
3B7
100
AcDbEntity
  8
MAIN0
  6
BYBLOCK
 62
0
100
AcDbLine
 10
1084.263257168583
 20
249.2553431419885
 30
0.0000000000000000
 11
1198.263257168583
 21
249.2553431419885
 31
0.0000000000000000
  0
INSERT
  5
3B8
100
AcDbEntity
  8
MAIN0
  6
BYBLOCK
 62
0
100
AcDbBlockReference
  2
_OPEN
 10
1078.263257168583
 20
249.2553431419885
 30
0.0000000000000000
 41
6.000000000000000
 42
6.000000000000000
 43
6.000000000000000
 50
180.0000000000000
  0
INSERT
  5
3B9
100
AcDbEntity
  8
MAIN0
  6
BYBLOCK
 62
0
100
AcDbBlockReference
  2
_OPEN
 10
1204.263257168583
 20
249.2553431419885
 30
0.0000000000000000
 41
6.000000000000000
 42
6.000000000000000
 43
6.000000000000000
 50
0.0000000000000000
  0
LINE
  5
3BA
100
AcDbEntity
  8
MAIN0
  6
BYBLOCK
 62
0
100
AcDbLine
 10
1204.263257168583
 20
308.5994866845867
 30
0.0000000000000000
 11
1204.263257168583
 21
243.2553431419885
 31
0.0000000000000000
  0
MTEXT
  5
3BB
100
AcDbEntity
  8
MAIN0
  6
BYBLOCK
 62
0
100
AcDbMText
 10
1141.263257168583
 20
254.4053429989373
 30
0.0000000000000000
 40
9.299999713897705
 41
0.0000000000000000
 71
     5
 72
     1
  1
\A1;126
 11
1.000000000000000
 21
0.0000000000000000
 31
0.0000000000000000
  7
STANDARD
  0
ENDBLK
  5
3BC
100
AcDbEntity
  8
MAIN0
  6
CONTINUOUS
 62
3
100
AcDbBlockEnd
  0
BLOCK
  5
3BE
100
AcDbEntity
  8
MAIN0
  6
CONTINUOUS
 62
3
100
AcDbBlockBegin
  2
D46
 70
    64
 10
0.0
 20
0.0
 30
0.0
  0
LINE
  5
3BF
100
AcDbEntity
  8
MAIN0
  6
BYBLOCK
 62
0
100
AcDbLine
 10
20.34841449364069
 20
-67.84348935280210
 30
0.0000000000000000
 11
-133.9999999999999
 21
-67.84348935280210
 31
0.0000000000000000
  0
LINE
  5
3C0
100
AcDbEntity
  8
MAIN0
  6
BYBLOCK
 62
0
100
AcDbLine
 10
-127.9999999999999
 20
-69.64348942432767
 30
0.0000000000000000
 11
-133.9999999999999
 21
-67.84348935280210
 31
0.0000000000000000
  0
LINE
  5
3C1
100
AcDbEntity
  8
MAIN0
  6
BYBLOCK
 62
0
100
AcDbLine
 10
-133.9999999999999
 20
-67.84348935280210
 30
0.0000000000000000
 11
-127.9999999999999
 21
-66.04348928127652
 31
0.0000000000000000
  0
LINE
  5
3C2
100
AcDbEntity
  8
MAIN0
  6
BYBLOCK
 62
0
100
AcDbLine
 10
-133.9999999999999
 20
40.12305973841689
 30
0.0000000000000000
 11
-133.9999999999999
 21
-73.84348935280210
 31
0.0000000000000000
  0
MTEXT
  5
3C3
100
AcDbEntity
  8
MAIN0
  6
BYBLOCK
 62
0
100
AcDbMText
 10
12.59841448991540
 20
-62.69348949585324
 30
0.0000000000000000
 40
9.299999713897705
 41
0.0000000000000000
 71
     5
 72
     1
  1
\A1;（268）
 11
1.000000000000000
 21
0.0000000000000000
 31
0.0000000000000000
  7
KNJYOKO
  0
ENDBLK
  5
3C4
100
AcDbEntity
  8
MAIN0
  6
CONTINUOUS
 62
3
100
AcDbBlockEnd
  0
BLOCK
  5
3C6
100
AcDbEntity
  8
MAIN0
  6
CONTINUOUS
 62
3
100
AcDbBlockBegin
  2
*D47
 70
    65
 10
0.0
 20
0.0
 30
0.0
  0
LINE
  5
3C7
100
AcDbEntity
  8
MAIN0
  6
BYBLOCK
 62
0
100
AcDbLine
 10
880.1343078792384
 20
555.9994742105505
 30
0.0000000000000000
 11
826.3492154751619
 21
555.9994742105505
 31
0.0000000000000000
  0
LINE
  5
3C8
100
AcDbEntity
  8
MAIN0
  6
BYBLOCK
 62
0
100
AcDbLine
 10
832.3492154751619
 20
549.9994742105505
 30
0.0000000000000000
 11
832.3492154751619
 21
381.9994742116870
 31
0.0000000000000000
  0
INSERT
  5
3C9
100
AcDbEntity
  8
MAIN0
  6
BYBLOCK
 62
0
100
AcDbBlockReference
  2
_OPEN
 10
832.3492154751619
 20
555.9994742105505
 30
0.0000000000000000
 41
6.000000000000000
 42
6.000000000000000
 43
6.000000000000000
 50
90.00000000000000
  0
INSERT
  5
3CA
100
AcDbEntity
  8
MAIN0
  6
BYBLOCK
 62
0
100
AcDbBlockReference
  2
_OPEN
 10
832.3492154751619
 20
375.9994742116870
 30
0.0000000000000000
 41
6.000000000000000
 42
6.000000000000000
 43
6.000000000000000
 50
270.0000000000000
  0
LINE
  5
3CB
100
AcDbEntity
  8
MAIN0
  6
BYBLOCK
 62
0
100
AcDbLine
 10
841.9894078030332
 20
375.9994742116870
 30
0.0000000000000000
 11
826.3492154751619
 21
375.9994742116870
 31
0.0000000000000000
  0
MTEXT
  5
3CC
100
AcDbEntity
  8
MAIN0
  6
BYBLOCK
 62
0
100
AcDbMText
 10
827.1992156182131
 20
465.9994742111188
 30
0.0000000000000000
 40
9.299999713897705
 41
0.0000000000000000
 71
     5
 72
     1
  1
\A1;180
 11
6.123233995736766e-017
 21
1.000000000000000
 31
0.0000000000000000
  7
STANDARD
  0
ENDBLK
  5
3CD
100
AcDbEntity
  8
MAIN0
  6
CONTINUOUS
 62
3
100
AcDbBlockEnd
  0
BLOCK
  5
3D6
100
AcDbEntity
  8
MAIN0
  6
CONTINUOUS
 62
3
100
AcDbBlockBegin
  2
*D48
 70
    65
 10
0.0
 20
0.0
 30
0.0
  0
LINE
  5
3D7
100
AcDbEntity
  8
MAIN0
  6
BYBLOCK
 62
0
100
AcDbLine
 10
924.3974848457715
 20
343.3994867561422
 30
0.0000000000000000
 11
924.3974848457715
 21
400.9972127286131
 31
0.0000000000000000
  0
LINE
  5
3D8
100
AcDbEntity
  8
MAIN0
  6
BYBLOCK
 62
0
100
AcDbLine
 10
930.3974848457715
 20
394.9972127286131
 30
0.0000000000000000
 11
963.3974848457710
 21
394.9972127286131
 31
0.0000000000000000
  0
INSERT
  5
3D9
100
AcDbEntity
  8
MAIN0
  6
BYBLOCK
 62
0
100
AcDbBlockReference
  2
_OPEN
 10
924.3974848457715
 20
394.9972127286131
 30
0.0000000000000000
 41
6.000000000000000
 42
6.000000000000000
 43
6.000000000000000
 50
180.0000000000000
  0
INSERT
  5
3DA
100
AcDbEntity
  8
MAIN0
  6
BYBLOCK
 62
0
100
AcDbBlockReference
  2
_OPEN
 10
969.3974848457710
 20
394.9972127286131
 30
0.0000000000000000
 41
6.000000000000000
 42
6.000000000000000
 43
6.000000000000000
 50
0.0000000000000000
  0
LINE
  5
3DB
100
AcDbEntity
  8
MAIN0
  6
BYBLOCK
 62
0
100
AcDbLine
 10
969.3974848457710
 20
343.3994867561283
 30
0.0000000000000000
 11
969.3974848457710
 21
400.9972127286131
 31
0.0000000000000000
  0
MTEXT
  5
3DC
100
AcDbEntity
  8
MAIN0
  6
BYBLOCK
 62
0
100
AcDbMText
 10
946.8974848457713
 20
400.1472125855620
 30
0.0000000000000000
 40
9.299999713897705
 41
0.0000000000000000
 71
     5
 72
     1
  1
\A1;45
 11
1.000000000000000
 21
0.0000000000000000
 31
0.0000000000000000
  7
STANDARD
  0
ENDBLK
  5
3DD
100
AcDbEntity
  8
MAIN0
  6
CONTINUOUS
 62
3
100
AcDbBlockEnd
  0
BLOCK
  5
3DF
100
AcDbEntity
  8
MAIN0
  6
CONTINUOUS
 62
3
100
AcDbBlockBegin
  2
*D49
 70
    65
 10
0.0
 20
0.0
 30
0.0
  0
LINE
  5
3E0
100
AcDbEntity
  8
MAIN0
  6
BYBLOCK
 62
0
100
AcDbLine
 10
1037.863257132769
 20
218.1899753142492
 30
0.0000000000000000
 11
1018.371583340493
 21
218.1899753142492
 31
0.0000000000000000
  0
LINE
  5
3E1
100
AcDbEntity
  8
MAIN0
  6
BYBLOCK
 62
0
100
AcDbLine
 10
1024.371583340493
 20
218.1899753142492
 30
0.0000000000000000
 11
1024.371583340493
 21
189.6899753142494
 31
0.0000000000000000
  0
INSERT
  5
3E2
100
AcDbEntity
  8
MAIN0
  6
BYBLOCK
 62
0
100
AcDbBlockReference
  2
_OPEN
 10
1024.371583340493
 20
218.1899753142492
 30
0.0000000000000000
 41
6.000000000000000
 42
6.000000000000000
 43
6.000000000000000
 50
270.0000000000000
  0
INSERT
  5
3E3
100
AcDbEntity
  8
MAIN0
  6
BYBLOCK
 62
0
100
AcDbBlockReference
  2
_OPEN
 10
1024.371583340493
 20
189.6899753142494
 30
0.0000000000000000
 41
6.000000000000000
 42
6.000000000000000
 43
6.000000000000000
 50
90.00000000000000
  0
LINE
  5
3E4
100
AcDbEntity
  8
MAIN0
  6
BYBLOCK
 62
0
100
AcDbLine
 10
1024.371583340493
 20
224.1899753142492
 30
0.0000000000000000
 11
1024.371583340493
 21
227.1899753142492
 31
0.0000000000000000
  0
LINE
  5
3E5
100
AcDbEntity
  8
MAIN0
  6
BYBLOCK
 62
0
100
AcDbLine
 10
1024.371583340493
 20
183.6899753142494
 30
0.0000000000000000
 11
1024.371583340493
 21
180.6899753142494
 31
0.0000000000000000
  0
LINE
  5
3E6
100
AcDbEntity
  8
MAIN0
  6
BYBLOCK
 62
0
100
AcDbLine
 10
1037.863257132789
 20
189.6899753142494
 30
0.0000000000000000
 11
1018.371583340493
 21
189.6899753142494
 31
0.0000000000000000
  0
MTEXT
  5
3E7
100
AcDbEntity
  8
MAIN0
  6
BYBLOCK
 62
0
100
AcDbMText
 10
1019.221583483545
 20
203.9399753142493
 30
0.0000000000000000
 40
9.299999713897705
 41
0.0000000000000000
 71
     5
 72
     1
  1
\A1;28.5
 11
6.123233995736766e-017
 21
1.000000000000000
 31
0.0000000000000000
  7
STANDARD
  0
ENDBLK
  5
3E8
100
AcDbEntity
  8
MAIN0
  6
CONTINUOUS
 62
3
100
AcDbBlockEnd
  0
BLOCK
  5
3EA
100
AcDbEntity
  8
MAIN0
  6
CONTINUOUS
 62
3
100
AcDbBlockBegin
  2
*D50
 70
    65
 10
0.0
 20
0.0
 30
0.0
  0
LINE
  5
3EB
100
AcDbEntity
  8
MAIN0
  6
BYBLOCK
 62
0
100
AcDbLine
 10
1072.663257204298
 20
212.6899753142410
 30
0.0000000000000000
 11
1099.569049250370
 21
212.6899753142410
 31
0.0000000000000000
  0
LINE
  5
3EC
100
AcDbEntity
  8
MAIN0
  6
BYBLOCK
 62
0
100
AcDbLine
 10
1093.569049250370
 20
212.6899753142410
 30
0.0000000000000000
 11
1093.569049250370
 21
195.1899753142411
 31
0.0000000000000000
  0
INSERT
  5
3ED
100
AcDbEntity
  8
MAIN0
  6
BYBLOCK
 62
0
100
AcDbBlockReference
  2
_OPEN
 10
1093.569049250370
 20
212.6899753142410
 30
0.0000000000000000
 41
6.000000000000000
 42
6.000000000000000
 43
6.000000000000000
 50
270.0000000000000
  0
INSERT
  5
3EE
100
AcDbEntity
  8
MAIN0
  6
BYBLOCK
 62
0
100
AcDbBlockReference
  2
_OPEN
 10
1093.569049250370
 20
195.1899753142411
 30
0.0000000000000000
 41
6.000000000000000
 42
6.000000000000000
 43
6.000000000000000
 50
90.00000000000000
  0
LINE
  5
3EF
100
AcDbEntity
  8
MAIN0
  6
BYBLOCK
 62
0
100
AcDbLine
 10
1093.569049250370
 20
218.6899753142410
 30
0.0000000000000000
 11
1093.569049250370
 21
221.6899753142410
 31
0.0000000000000000
  0
LINE
  5
3F0
100
AcDbEntity
  8
MAIN0
  6
BYBLOCK
 62
0
100
AcDbLine
 10
1093.569049250370
 20
189.1899753142411
 30
0.0000000000000000
 11
1093.569049250370
 21
166.2755366666791
 31
0.0000000000000000
  0
LINE
  5
3F1
100
AcDbEntity
  8
MAIN0
  6
BYBLOCK
 62
0
100
AcDbLine
 10
1072.663257204310
 20
195.1899753142411
 30
0.0000000000000000
 11
1099.569049250370
 21
195.1899753142411
 31
0.0000000000000000
  0
MTEXT
  5
3F2
100
AcDbEntity
  8
MAIN0
  6
BYBLOCK
 62
0
100
AcDbMText
 10
1087.419049393421
 20
177.2255369527813
 30
0.0000000000000000
 40
9.299999713897705
 41
0.0000000000000000
 71
     5
 72
     1
  1
\A1;17.5
 11
6.123233995736766e-017
 21
1.000000000000000
 31
0.0000000000000000
  7
STANDARD
  0
ENDBLK
  5
3F3
100
AcDbEntity
  8
MAIN0
  6
CONTINUOUS
 62
3
100
AcDbBlockEnd
  0
BLOCK
  5
3F5
100
AcDbEntity
  8
MAIN0
  6
CONTINUOUS
 62
3
100
AcDbBlockBegin
  2
*D51
 70
    65
 10
0.0
 20
0.0
 30
0.0
  0
LINE
  5
3F6
100
AcDbEntity
  8
MAIN0
  6
BYBLOCK
 62
0
100
AcDbLine
 10
1040.263257168551
 20
187.2899752784866
 30
0.0000000000000000
 11
1040.263257168551
 21
164.0545298277500
 31
0.0000000000000000
  0
LINE
  5
3F7
100
AcDbEntity
  8
MAIN0
  6
BYBLOCK
 62
0
100
AcDbLine
 10
1046.263257168551
 20
170.0545298277500
 30
0.0000000000000000
 11
1064.263257168551
 21
170.0545298277500
 31
0.0000000000000000
  0
INSERT
  5
3F8
100
AcDbEntity
  8
MAIN0
  6
BYBLOCK
 62
0
100
AcDbBlockReference
  2
_OPEN
 10
1040.263257168551
 20
170.0545298277500
 30
0.0000000000000000
 41
6.000000000000000
 42
6.000000000000000
 43
6.000000000000000
 50
180.0000000000000
  0
INSERT
  5
3F9
100
AcDbEntity
  8
MAIN0
  6
BYBLOCK
 62
0
100
AcDbBlockReference
  2
_OPEN
 10
1070.263257168551
 20
170.0545298277500
 30
0.0000000000000000
 41
6.000000000000000
 42
6.000000000000000
 43
6.000000000000000
 50
0.0000000000000000
  0
LINE
  5
3FA
100
AcDbEntity
  8
MAIN0
  6
BYBLOCK
 62
0
100
AcDbLine
 10
1070.263257168551
 20
187.2899752784783
 30
0.0000000000000000
 11
1070.263257168551
 21
164.0545298277500
 31
0.0000000000000000
  0
MTEXT
  5
3FB
100
AcDbEntity
  8
MAIN0
  6
BYBLOCK
 62
0
100
AcDbMText
 10
1055.263257168551
 20
175.2045296846989
 30
0.0000000000000000
 40
9.299999713897705
 41
0.0000000000000000
 71
     5
 72
     1
  1
\A1;30
 11
1.000000000000000
 21
0.0000000000000000
 31
0.0000000000000000
  7
STANDARD
  0
ENDBLK
  5
3FC
100
AcDbEntity
  8
MAIN0
  6
CONTINUOUS
 62
3
100
AcDbBlockEnd
  0
BLOCK
  5
3FE
100
AcDbEntity
  8
MAIN0
  6
CONTINUOUS
 62
3
100
AcDbBlockBegin
  2
*D52
 70
    65
 10
0.0
 20
0.0
 30
0.0
  0
LINE
  5
3FF
100
AcDbEntity
  8
MAIN0
  6
BYBLOCK
 62
0
100
AcDbLine
 10
353.9829605493993
 20
310.9994867203495
 30
0.0000000000000000
 11
313.5531745616393
 21
310.9994867203495
 31
0.0000000000000000
  0
LINE
  5
400
100
AcDbEntity
  8
MAIN0
  6
BYBLOCK
 62
0
100
AcDbLine
 10
319.5531745616393
 20
316.9994867203495
 30
0.0000000000000000
 11
319.5531745616393
 21
404.9994867203495
 31
0.0000000000000000
  0
INSERT
  5
401
100
AcDbEntity
  8
MAIN0
  6
BYBLOCK
 62
0
100
AcDbBlockReference
  2
_OPEN
 10
319.5531745616393
 20
310.9994867203495
 30
0.0000000000000000
 41
6.000000000000000
 42
6.000000000000000
 43
6.000000000000000
 50
270.0000000000000
  0
INSERT
  5
402
100
AcDbEntity
  8
MAIN0
  6
BYBLOCK
 62
0
100
AcDbBlockReference
  2
_OPEN
 10
319.5531745616393
 20
410.9994867203495
 30
0.0000000000000000
 41
6.000000000000000
 42
6.000000000000000
 43
6.000000000000000
 50
90.00000000000000
  0
LINE
  5
403
100
AcDbEntity
  8
MAIN0
  6
BYBLOCK
 62
0
100
AcDbLine
 10
353.9829605493992
 20
410.9994867203495
 30
0.0000000000000000
 11
313.5531745616393
 21
410.9994867203495
 31
0.0000000000000000
  0
MTEXT
  5
404
100
AcDbEntity
  8
MAIN0
  6
BYBLOCK
 62
0
100
AcDbMText
 10
314.4031747046904
 20
360.9994867203495
 30
0.0000000000000000
 40
9.299999713897705
 41
0.0000000000000000
 71
     5
 72
     1
  1
\A1;100
 11
6.123233995736766e-017
 21
1.000000000000000
 31
0.0000000000000000
  7
STANDARD
  0
ENDBLK
  5
405
100
AcDbEntity
  8
MAIN0
  6
CONTINUOUS
 62
3
100
AcDbBlockEnd
  0
BLOCK
  5
407
100
AcDbEntity
  8
MAIN0
  6
CONTINUOUS
 62
3
100
AcDbBlockBegin
  2
*D53
 70
    65
 10
0.0
 20
0.0
 30
0.0
  0
LINE
  5
408
100
AcDbEntity
  8
MAIN0
  6
BYBLOCK
 62
0
100
AcDbLine
 10
353.9829605493992
 20
410.9994867203495
 30
0.0000000000000000
 11
313.5531745616393
 21
410.9994867203495
 31
0.0000000000000000
  0
LINE
  5
409
100
AcDbEntity
  8
MAIN0
  6
BYBLOCK
 62
0
100
AcDbLine
 10
319.5531745616393
 20
416.9994867203495
 30
0.0000000000000000
 11
319.5531745616393
 21
444.4994867203495
 31
0.0000000000000000
  0
INSERT
  5
40A
100
AcDbEntity
  8
MAIN0
  6
BYBLOCK
 62
0
100
AcDbBlockReference
  2
_OPEN
 10
319.5531745616393
 20
410.9994867203495
 30
0.0000000000000000
 41
6.000000000000000
 42
6.000000000000000
 43
6.000000000000000
 50
270.0000000000000
  0
INSERT
  5
40B
100
AcDbEntity
  8
MAIN0
  6
BYBLOCK
 62
0
100
AcDbBlockReference
  2
_OPEN
 10
319.5531745616393
 20
450.4994867203495
 30
0.0000000000000000
 41
6.000000000000000
 42
6.000000000000000
 43
6.000000000000000
 50
90.00000000000000
  0
LINE
  5
40C
100
AcDbEntity
  8
MAIN0
  6
BYBLOCK
 62
0
100
AcDbLine
 10
354.9829605493991
 20
450.4994867203495
 30
0.0000000000000000
 11
313.5531745616393
 21
450.4994867203495
 31
0.0000000000000000
  0
MTEXT
  5
40D
100
AcDbEntity
  8
MAIN0
  6
BYBLOCK
 62
0
100
AcDbMText
 10
314.4031747046904
 20
430.7494867203495
 30
0.0000000000000000
 40
9.299999713897705
 41
0.0000000000000000
 71
     5
 72
     1
  1
\A1;39.5
 11
6.123233995736766e-017
 21
1.000000000000000
 31
0.0000000000000000
  7
STANDARD
  0
ENDBLK
  5
40E
100
AcDbEntity
  8
MAIN0
  6
CONTINUOUS
 62
3
100
AcDbBlockEnd
  0
BLOCK
  5
410
100
AcDbEntity
  8
MAIN0
  6
CONTINUOUS
 62
3
100
AcDbBlockBegin
  2
*D54
 70
    65
 10
0.0
 20
0.0
 30
0.0
  0
LINE
  5
411
100
AcDbEntity
  8
MAIN0
  6
BYBLOCK
 62
0
100
AcDbLine
 10
353.9829605493993
 20
310.9994867203495
 30
0.0000000000000000
 11
286.4462786224267
 21
310.9994867203495
 31
0.0000000000000000
  0
LINE
  5
412
100
AcDbEntity
  8
MAIN0
  6
BYBLOCK
 62
0
100
AcDbLine
 10
292.4462786224267
 20
316.9994867203495
 30
0.0000000000000000
 11
292.4462786224267
 21
444.4994867203495
 31
0.0000000000000000
  0
INSERT
  5
413
100
AcDbEntity
  8
MAIN0
  6
BYBLOCK
 62
0
100
AcDbBlockReference
  2
_OPEN
 10
292.4462786224267
 20
310.9994867203495
 30
0.0000000000000000
 41
6.000000000000000
 42
6.000000000000000
 43
6.000000000000000
 50
270.0000000000000
  0
INSERT
  5
414
100
AcDbEntity
  8
MAIN0
  6
BYBLOCK
 62
0
100
AcDbBlockReference
  2
_OPEN
 10
292.4462786224267
 20
450.4994867203495
 30
0.0000000000000000
 41
6.000000000000000
 42
6.000000000000000
 43
6.000000000000000
 50
90.00000000000000
  0
LINE
  5
415
100
AcDbEntity
  8
MAIN0
  6
BYBLOCK
 62
0
100
AcDbLine
 10
354.9829605493991
 20
450.4994867203495
 30
0.0000000000000000
 11
286.4462786224267
 21
450.4994867203495
 31
0.0000000000000000
  0
MTEXT
  5
416
100
AcDbEntity
  8
MAIN0
  6
BYBLOCK
 62
0
100
AcDbMText
 10
287.2962787654778
 20
380.7494867203495
 30
0.0000000000000000
 40
9.299999713897705
 41
0.0000000000000000
 71
     5
 72
     1
  1
\A1;139.5
 11
6.123233995736766e-017
 21
1.000000000000000
 31
0.0000000000000000
  7
STANDARD
  0
ENDBLK
  5
417
100
AcDbEntity
  8
MAIN0
  6
CONTINUOUS
 62
3
100
AcDbBlockEnd
  0
ENDSEC
  0
SECTION
  2
ENTITIES
  0
LINE
  5
46
100
AcDbEntity
  8
MAIN0
  6
CONTINUOUS
 62
3
100
AcDbLine
 10
760.3829605851622
 20
331.9057630068097
 30
0.0000000000000000
 11
760.3829605851620
 21
410.9994867203496
 31
0.0000000000000000
  0
LINE
  5
47
100
AcDbEntity
  8
MAIN0
  6
CONTINUOUS
 62
3
100
AcDbLine
 10
760.3829605851614
 20
612.9995159049895
 30
0.0000000000000000
 11
760.3829605851613
 21
738.9995159049895
 31
0.0000000000000000
  0
LINE
  5
48
100
AcDbEntity
  8
MAIN0
  6
CONTINUOUS
 62
3
100
AcDbLine
 10
721.3829605851618
 20
397.1994867203495
 30
0.0000000000000000
 11
721.3829605851620
 21
310.9994867203496
 31
0.0000000000000000
  0
LINE
  5
49
100
AcDbEntity
  8
MAIN0
  6
CONTINUOUS
 62
3
100
AcDbLine
 10
785.3829605851613
 20
714.9995159049895
 30
0.0000000000000000
 11
778.3829605851613
 21
714.9995159049895
 31
0.0000000000000000
  0
LINE
  5
4A
100
AcDbEntity
  8
MAIN0
  6
CONTINUOUS
 62
3
100
AcDbLine
 10
807.8829605851613
 20
700.9995159049895
 30
0.0000000000000000
 11
785.3829605851613
 21
700.9995159049895
 31
0.0000000000000000
  0
LINE
  5
4B
100
AcDbEntity
  8
MAIN0
  6
CONTINUOUS
 62
3
100
AcDbLine
 10
807.8829605851613
 20
650.9995159049895
 30
0.0000000000000000
 11
785.3829605851614
 21
650.9995159049895
 31
0.0000000000000000
  0
LINE
  5
4C
100
AcDbEntity
  8
MAIN0
  6
CONTINUOUS
 62
3
100
AcDbLine
 10
807.8829605851620
 20
400.9994867203495
 30
0.0000000000000000
 11
785.3829605851620
 21
400.9994867203495
 31
0.0000000000000000
  0
LINE
  5
4D
100
AcDbEntity
  8
MAIN0
  6
CONTINUOUS
 62
3
100
AcDbLine
 10
807.8829605851620
 20
350.9994867203495
 30
0.0000000000000000
 11
785.3829605851621
 21
350.9994867203495
 31
0.0000000000000000
  0
LINE
  5
4E
100
AcDbEntity
  8
MAIN0
  6
CONTINUOUS
 62
3
100
AcDbLine
 10
807.8829605851613
 20
650.9995159049895
 30
0.0000000000000000
 11
807.8829605851613
 21
700.9995159049895
 31
0.0000000000000000
  0
LINE
  5
4F
100
AcDbEntity
  8
MAIN0
  6
CONTINUOUS
 62
3
100
AcDbLine
 10
807.8829605851622
 20
350.9994867203495
 30
0.0000000000000000
 11
807.8829605851620
 21
400.9994867203495
 31
0.0000000000000000
  0
LINE
  5
50
100
AcDbEntity
  8
MAIN0
  6
CONTINUOUS
 62
3
100
AcDbLine
 10
785.3829605851620
 20
343.9994867195148
 30
0.0000000000000000
 11
785.3829605851620
 21
410.4994867195728
 31
0.0000000000000000
  0
LINE
  5
51
100
AcDbEntity
  8
MAIN0
  6
CONTINUOUS
 62
3
100
AcDbLine
 10
785.3829605851614
 20
636.9995159049896
 30
0.0000000000000000
 11
785.3829605851613
 21
714.9995159049895
 31
0.0000000000000000
  0
LINE
  5
52
100
AcDbEntity
  8
MAIN0
  6
CONTINUOUS
 62
3
100
AcDbLine
 10
356.3829605851613
 20
738.9995159049895
 30
0.0000000000000000
 11
356.3829605851615
 21
612.9995159049895
 31
0.0000000000000000
  0
LINE
  5
53
100
AcDbEntity
  8
MAIN0
  6
CONTINUOUS
 62
3
100
AcDbLine
 10
357.3829605851619
 20
450.4994867203495
 30
0.0000000000000000
 11
357.3829605851620
 21
410.9994867203496
 31
0.0000000000000000
  0
LINE
  5
54
100
AcDbEntity
  8
MAIN0
  6
CONTINUOUS
 62
3
100
AcDbLine
 10
357.3829605851614
 20
738.2495159049895
 30
0.0000000000000000
 11
357.3829605851616
 21
613.7495159049895
 31
0.0000000000000000
  0
LINE
  5
55
100
AcDbEntity
  8
MAIN0
  6
CONTINUOUS
 62
3
100
AcDbLine
 10
509.3829605851614
 20
738.2495159049895
 30
0.0000000000000000
 11
509.3829605851616
 21
613.7495159049895
 31
0.0000000000000000
  0
LINE
  5
56
100
AcDbEntity
  8
MAIN0
  6
CONTINUOUS
 62
3
100
AcDbLine
 10
509.3829605851619
 20
450.4994867203495
 30
0.0000000000000000
 11
509.3829605851620
 21
410.9994867203495
 31
0.0000000000000000
  0
LINE
  5
57
100
AcDbEntity
  8
MAIN0
  6
CONTINUOUS
 62
3
100
AcDbLine
 10
583.3829605851613
 20
743.4995159049895
 30
0.0000000000000000
 11
583.3829605851615
 21
608.4995159049896
 31
0.0000000000000000
  0
LINE
  5
58
100
AcDbEntity
  8
MAIN0
  6
CONTINUOUS
 62
3
100
AcDbLine
 10
118.4711604932784
 20
407.4994867203495
 30
0.0000000000000000
 11
180.4711604932784
 21
407.4994867203494
 31
0.0000000000000000
  0
LINE
  5
59
100
AcDbEntity
  8
MAIN0
  6
CONTINUOUS
 62
3
100
AcDbLine
 10
179.4711604932784
 20
407.4994867203494
 30
0.0000000000000000
 11
179.4711604932784
 21
390.9994867203495
 31
0.0000000000000000
  0
LINE
  5
5A
100
AcDbEntity
  8
MAIN0
  6
CONTINUOUS
 62
3
100
AcDbLine
 10
119.4711604932784
 20
407.4994867203495
 30
0.0000000000000000
 11
119.4711604932784
 21
390.9994867203495
 31
0.0000000000000000
  0
LINE
  5
5B
100
AcDbEntity
  8
MAIN0
  6
CONTINUOUS
 62
3
100
AcDbLine
 10
185.1679122529734
 20
390.9994867203496
 30
0.0000000000000000
 11
185.1679122529733
 21
375.9994867203496
 31
0.0000000000000000
  0
LINE
  5
5C
100
AcDbEntity
  8
MAIN0
  6
CONTINUOUS
 62
3
100
AcDbLine
 10
113.9711604932783
 20
390.9994867203496
 30
0.0000000000000000
 11
113.9711604932783
 21
375.9994867203495
 31
0.0000000000000000
  0
LINE
  5
5D
100
AcDbEntity
  8
MAIN0
  6
CONTINUOUS
 62
3
100
AcDbLine
 10
113.9711604932784
 20
390.9994867203496
 30
0.0000000000000000
 11
119.4711604932784
 21
390.9994867203496
 31
0.0000000000000000
  0
LINE
  5
5E
100
AcDbEntity
  8
MAIN0
  6
CONTINUOUS
 62
3
100
AcDbLine
 10
179.4711604932784
 20
390.9994867203495
 30
0.0000000000000000
 11
185.1679122529732
 21
390.9994867203495
 31
0.0000000000000000
  0
LINE
  5
5F
100
AcDbEntity
  8
MAIN0
  6
CONTINUOUS
 62
3
100
AcDbLine
 10
178.9711604932784
 20
361.9994867203495
 30
0.0000000000000000
 11
178.9711604932784
 21
375.9994867203496
 31
0.0000000000000000
  0
LINE
  5
60
100
AcDbEntity
  8
MAIN0
  6
CONTINUOUS
 62
3
100
AcDbLine
 10
119.9711604932784
 20
361.9994867203495
 30
0.0000000000000000
 11
119.9711604932784
 21
375.9994867203495
 31
0.0000000000000000
  0
LINE
  5
61
100
AcDbEntity
  8
MAIN0
  6
CONTINUOUS
 62
3
100
AcDbLine
 10
138.4564418675167
 20
345.9994867203495
 30
0.0000000000000000
 11
160.4858791190407
 21
345.9994867203495
 31
0.0000000000000000
  0
LINE
  5
62
100
AcDbEntity
  8
MAIN0
  6
CONTINUOUS
 62
3
100
AcDbLine
 10
164.7285198061599
 20
347.7568460332304
 30
0.0000000000000000
 11
178.9711604932784
 21
361.9994867203489
 31
0.0000000000000000
  0
LINE
  5
63
100
AcDbEntity
  8
MAIN0
  6
CONTINUOUS
 62
3
100
AcDbLine
 10
119.9711604932784
 20
361.9994867203494
 30
0.0000000000000000
 11
134.2138011803974
 21
347.7568460332303
 31
0.0000000000000000
  0
ARC
  5
64
100
AcDbEntity
  8
MAIN0
  6
CONTINUOUS
 62
3
100
AcDbCircle
 10
172.9711604932784
 20
361.9994867203496
 30
0.0000000000000000
 40
6.000000000000000
100
AcDbArc
 50
269.9999999999959
 51
359.9999999999934
  0
ARC
  5
65
100
AcDbEntity
  8
MAIN0
  6
CONTINUOUS
 62
3
100
AcDbCircle
 10
125.9711604932784
 20
361.9994867203495
 30
0.0000000000000000
 40
6.000000000000000
100
AcDbArc
 50
179.9999999999964
 51
270.0000000005678
  0
ARC
  5
66
100
AcDbEntity
  8
MAIN0
  6
CONTINUOUS
 62
3
100
AcDbCircle
 10
160.4858791190407
 20
351.9994867203497
 30
0.0000000000000000
 40
6.000000000000000
100
AcDbArc
 50
270.0000000005678
 51
314.9999999999934
  0
ARC
  5
67
100
AcDbEntity
  8
MAIN0
  6
CONTINUOUS
 62
3
100
AcDbCircle
 10
138.4564418675167
 20
351.9994867203495
 30
0.0000000000000000
 40
6.000000000000000
100
AcDbArc
 50
224.9999999999964
 51
270.0000000005678
  0
LINE
  5
68
100
AcDbEntity
  8
MAIN0
  6
CONTINUOUS
 62
3
100
AcDbLine
 10
119.9711604932783
 20
375.9994867203496
 30
0.0000000000000000
 11
113.9711604932783
 21
375.9994867203496
 31
0.0000000000000000
  0
LINE
  5
69
100
AcDbEntity
  8
MAIN0
  6
CONTINUOUS
 62
3
100
AcDbLine
 10
185.1679122529733
 20
375.9994867203496
 30
0.0000000000000000
 11
178.9711604932783
 21
375.9994867203496
 31
0.0000000000000000
  0
LINE
  5
6A
100
AcDbEntity
  8
MAIN0
  6
CONTINUOUS
 62
3
100
AcDbLine
 10
129.9711604932784
 20
351.9994867203495
 30
0.0000000000000000
 11
168.9711604932793
 21
351.9994867203495
 31
0.0000000000000000
  0
LINE
  5
6B
100
AcDbEntity
  8
MAIN0
  6
CONTINUOUS
 62
3
100
AcDbLine
 10
1077.963257168583
 20
410.9994867203495
 30
0.0000000000000000
 11
1204.563257168583
 21
410.9994867203495
 31
0.0000000000000000
  0
LINE
  5
6C
100
AcDbEntity
  8
MAIN0
  6
CONTINUOUS
 62
3
100
AcDbLine
 10
1079.013257168583
 20
450.4994867203495
 30
0.0000000000000000
 11
1203.513257168583
 21
450.4994867203495
 31
0.0000000000000000
  0
LINE
  5
6D
100
AcDbEntity
  8
MAIN0
  6
CONTINUOUS
 62
3
100
AcDbLine
 10
1203.513257168583
 20
450.4994867203495
 30
0.0000000000000000
 11
1203.513257168583
 21
432.1994867203495
 31
0.0000000000000000
  0
LINE
  5
6E
100
AcDbEntity
  8
MAIN0
  6
CONTINUOUS
 62
3
100
AcDbLine
 10
211.7211604932784
 20
450.4994867203495
 30
0.0000000000000000
 11
211.7211604932784
 21
410.9994867203495
 31
0.0000000000000000
  0
LINE
  5
6F
100
AcDbEntity
  8
MAIN0
  6
CONTINUOUS
 62
3
100
AcDbLine
 10
1079.013257168583
 20
450.4994867203495
 30
0.0000000000000000
 11
1079.013257168583
 21
432.1994867203495
 31
0.0000000000000000
  0
LINE
  5
70
100
AcDbEntity
  8
MAIN0
  6
CONTINUOUS
 62
3
100
AcDbLine
 10
87.22116049327843
 20
450.4994867203495
 30
0.0000000000000000
 11
87.22116049327838
 21
410.9994867203495
 31
0.0000000000000000
  0
LINE
  5
71
100
AcDbEntity
  8
MAIN0
  6
CONTINUOUS
 62
3
100
AcDbLine
 10
721.3829605851620
 20
371.9994867203495
 30
0.0000000000000000
 11
356.3829605851620
 21
371.9994867203495
 31
0.0000000000000000
  0
LINE
  5
72
100
AcDbEntity
  8
MAIN0
  6
CONTINUOUS
 62
3
100
AcDbLine
 10
721.3829605851621
 20
331.9994867203495
 30
0.0000000000000000
 11
356.3829605851621
 21
331.9994867203495
 31
0.0000000000000000
  0
LINE
  5
73
100
AcDbEntity
  8
MAIN0
  6
CONTINUOUS
 62
3
100
AcDbLine
 10
212.4711604932784
 20
410.9994867203496
 30
0.0000000000000000
 11
86.47116049327843
 21
410.9994867203496
 31
0.0000000000000000
  0
LINE
  5
74
100
AcDbEntity
  8
MAIN0
  6
CONTINUOUS
 62
3
100
AcDbLine
 10
211.7211604932784
 20
450.4994867203495
 30
0.0000000000000000
 11
87.22116049327843
 21
450.4994867203495
 31
0.0000000000000000
  0
LINE
  5
75
100
AcDbEntity
  8
MAIN0
  6
CONTINUOUS
 62
3
100
AcDbLine
 10
1197.263257168583
 20
331.9994867203496
 30
0.0000000000000000
 11
1197.263257168583
 21
371.9994867203495
 31
0.0000000000000000
  0
LINE
  5
76
100
AcDbEntity
  8
MAIN0
  6
CONTINUOUS
 62
3
100
AcDbLine
 10
205.4711604932783
 20
331.9994867203494
 30
0.0000000000000000
 11
205.4711604932784
 21
371.9994867203494
 31
0.0000000000000000
  0
LINE
  5
77
100
AcDbEntity
  8
MAIN0
  6
CONTINUOUS
 62
3
100
AcDbLine
 10
1085.263257168583
 20
331.9994867203495
 30
0.0000000000000000
 11
1085.263257168583
 21
371.9994867203495
 31
0.0000000000000000
  0
LINE
  5
78
100
AcDbEntity
  8
MAIN0
  6
CONTINUOUS
 62
3
100
AcDbLine
 10
93.47116049327832
 20
331.9994867203496
 30
0.0000000000000000
 11
93.47116049327838
 21
371.9994867203495
 31
0.0000000000000000
  0
LINE
  5
79
100
AcDbEntity
  8
MAIN0
  6
CONTINUOUS
 62
3
100
AcDbLine
 10
86.47116049327832
 20
310.9994867203495
 30
0.0000000000000000
 11
86.47116049327832
 21
331.9994867203495
 31
0.0000000000000000
  0
LINE
  5
7A
100
AcDbEntity
  8
MAIN0
  6
CONTINUOUS
 62
3
100
AcDbLine
 10
86.47116049327838
 20
371.9994867203496
 30
0.0000000000000000
 11
86.47116049327838
 21
410.9994867203496
 31
0.0000000000000000
  0
LINE
  5
7B
100
AcDbEntity
  8
MAIN0
  6
CONTINUOUS
 62
3
100
AcDbLine
 10
212.4711604932783
 20
331.9994867203495
 30
0.0000000000000000
 11
212.4711604932783
 21
310.9994867203496
 31
0.0000000000000000
  0
LINE
  5
7C
100
AcDbEntity
  8
MAIN0
  6
CONTINUOUS
 62
3
100
AcDbLine
 10
212.4711604932784
 20
410.9994867203494
 30
0.0000000000000000
 11
212.4711604932783
 21
371.9994867203495
 31
0.0000000000000000
  0
LINE
  5
7D
100
AcDbEntity
  8
MAIN0
  6
CONTINUOUS
 62
3
100
AcDbLine
 10
93.47116049327838
 20
371.9994867203495
 30
0.0000000000000000
 11
86.47116049327843
 21
371.9994867203495
 31
0.0000000000000000
  0
LINE
  5
7E
100
AcDbEntity
  8
MAIN0
  6
CONTINUOUS
 62
3
100
AcDbLine
 10
212.4711604932783
 20
371.9994867203495
 30
0.0000000000000000
 11
205.4711604932784
 21
371.9994867203495
 31
0.0000000000000000
  0
LINE
  5
7F
100
AcDbEntity
  8
MAIN0
  6
CONTINUOUS
 62
3
100
AcDbLine
 10
93.47116049327832
 20
331.9994867203495
 30
0.0000000000000000
 11
86.47116049327838
 21
331.9994867203495
 31
0.0000000000000000
  0
LINE
  5
80
100
AcDbEntity
  8
MAIN0
  6
CONTINUOUS
 62
3
100
AcDbLine
 10
212.4711604932783
 20
331.9994867203495
 30
0.0000000000000000
 11
205.4711604932783
 21
331.9994867203495
 31
0.0000000000000000
  0
LINE
  5
81
100
AcDbEntity
  8
MAIN0
  6
CONTINUOUS
 62
3
100
AcDbLine
 10
1078.263257168583
 20
331.9994867203495
 30
0.0000000000000000
 11
1085.263257168583
 21
331.9994867203495
 31
0.0000000000000000
  0
LINE
  5
82
100
AcDbEntity
  8
MAIN0
  6
CONTINUOUS
 62
3
100
AcDbLine
 10
1078.263257168583
 20
371.9994867203495
 30
0.0000000000000000
 11
1085.263257168583
 21
371.9994867203495
 31
0.0000000000000000
  0
LINE
  5
83
100
AcDbEntity
  8
MAIN0
  6
CONTINUOUS
 62
3
100
AcDbLine
 10
1197.263257168583
 20
371.9994867203495
 30
0.0000000000000000
 11
1204.263257168583
 21
371.9994867203495
 31
0.0000000000000000
  0
LINE
  5
84
100
AcDbEntity
  8
MAIN0
  6
CONTINUOUS
 62
3
100
AcDbLine
 10
1204.263257168583
 20
331.9994867203495
 30
0.0000000000000000
 11
1204.263257168583
 21
310.9994867203495
 31
0.0000000000000000
  0
LINE
  5
85
100
AcDbEntity
  8
MAIN0
  6
CONTINUOUS
 62
3
100
AcDbLine
 10
1078.263257168583
 20
310.9994867203496
 30
0.0000000000000000
 11
1078.263257168583
 21
331.9994867203496
 31
0.0000000000000000
  0
CIRCLE
  5
86
100
AcDbEntity
  8
MAIN0
  6
CONTINUOUS
 62
3
100
AcDbCircle
 10
1141.263257168583
 20
375.9994867203496
 30
0.0000000000000000
 40
25.00000000000000
  0
CIRCLE
  5
87
100
AcDbEntity
  8
MAIN0
  6
CONTINUOUS
 62
3
100
AcDbCircle
 10
1141.263257168583
 20
375.9994867203496
 30
0.0000000000000000
 40
21.00000000000000
  0
CIRCLE
  5
88
100
AcDbEntity
  8
MAIN0
  6
CONTINUOUS
 62
3
100
AcDbCircle
 10
1141.263257168583
 20
375.9994867203496
 30
0.0000000000000000
 40
12.00000000000000
  0
LINE
  5
89
100
AcDbEntity
  8
MAIN0
  6
CONTINUOUS
 62
3
100
AcDbLine
 10
1148.263257168583
 20
371.9580348360291
 30
0.0000000000000000
 11
1148.263257168583
 21
380.0409386046910
 31
0.0000000000000000
  0
LINE
  5
8A
100
AcDbEntity
  8
MAIN0
  6
CONTINUOUS
 62
3
100
AcDbLine
 10
1134.263257168583
 20
371.9580348360083
 30
0.0000000000000000
 11
1134.263257168583
 21
380.0409386046701
 31
0.0000000000000000
  0
LINE
  5
8B
100
AcDbEntity
  8
MAIN0
  6
CONTINUOUS
 62
3
100
AcDbLine
 10
1134.263257168583
 20
380.0409386046699
 30
0.0000000000000000
 11
1141.263257168583
 21
384.0823904890111
 31
0.0000000000000000
  0
LINE
  5
8C
100
AcDbEntity
  8
MAIN0
  6
CONTINUOUS
 62
3
100
AcDbLine
 10
1141.263257168583
 20
367.9165829516878
 30
0.0000000000000000
 11
1148.263257168584
 21
371.9580348360292
 31
0.0000000000000000
  0
LINE
  5
8D
100
AcDbEntity
  8
MAIN0
  6
CONTINUOUS
 62
3
100
AcDbLine
 10
1141.263257168584
 20
384.0823904890113
 30
0.0000000000000000
 11
1148.263257168583
 21
380.0409386046911
 31
0.0000000000000000
  0
LINE
  5
8E
100
AcDbEntity
  8
MAIN0
  6
CONTINUOUS
 62
3
100
AcDbLine
 10
1134.263257168583
 20
371.9580348360084
 30
0.0000000000000000
 11
1141.263257168583
 21
367.9165829516880
 31
0.0000000000000000
  0
CIRCLE
  5
8F
100
AcDbEntity
  8
MAIN0
  6
CONTINUOUS
 62
3
100
AcDbCircle
 10
1100.560063190680
 20
399.4994867202888
 30
0.0000000000000000
 40
8.000000000000000
  0
LINE
  5
90
100
AcDbEntity
  8
MAIN0
  6
CONTINUOUS
 62
3
100
AcDbLine
 10
1096.560063190680
 20
397.1900856435303
 30
0.0000000000000000
 11
1100.560063190680
 21
394.8806845667718
 31
0.0000000000000000
  0
LINE
  5
91
100
AcDbEntity
  8
MAIN0
  6
CONTINUOUS
 62
3
100
AcDbLine
 10
1100.560063190680
 20
394.8806845667718
 30
0.0000000000000000
 11
1104.560063190680
 21
397.1900856435302
 31
0.0000000000000000
  0
LINE
  5
92
100
AcDbEntity
  8
MAIN0
  6
CONTINUOUS
 62
3
100
AcDbLine
 10
1104.560063190680
 20
397.1900856435303
 30
0.0000000000000000
 11
1104.560063190680
 21
401.8088877970473
 31
0.0000000000000000
  0
LINE
  5
93
100
AcDbEntity
  8
MAIN0
  6
CONTINUOUS
 62
3
100
AcDbLine
 10
1104.560063190680
 20
401.8088877970473
 30
0.0000000000000000
 11
1100.560063190680
 21
404.1182888738057
 31
0.0000000000000000
  0
LINE
  5
94
100
AcDbEntity
  8
MAIN0
  6
CONTINUOUS
 62
3
100
AcDbLine
 10
1100.560063190680
 20
404.1182888738057
 30
0.0000000000000000
 11
1096.560063190680
 21
401.8088877970473
 31
0.0000000000000000
  0
LINE
  5
95
100
AcDbEntity
  8
MAIN0
  6
CONTINUOUS
 62
3
100
AcDbLine
 10
1096.560063190680
 20
401.8088877970473
 30
0.0000000000000000
 11
1096.560063190680
 21
397.1900856435303
 31
0.0000000000000000
  0
CIRCLE
  5
96
100
AcDbEntity
  8
MAIN0
  6
CONTINUOUS
 62
3
100
AcDbCircle
 10
1100.560063190750
 20
352.4994867202888
 30
0.0000000000000000
 40
8.000000000000000
  0
LINE
  5
97
100
AcDbEntity
  8
MAIN0
  6
CONTINUOUS
 62
3
100
AcDbLine
 10
1100.560063190750
 20
347.8806845667718
 30
0.0000000000000000
 11
1104.560063190750
 21
350.1900856435305
 31
0.0000000000000000
  0
LINE
  5
98
100
AcDbEntity
  8
MAIN0
  6
CONTINUOUS
 62
3
100
AcDbLine
 10
1104.560063190750
 20
350.1900856435304
 30
0.0000000000000000
 11
1104.560063190750
 21
354.8088877970473
 31
0.0000000000000000
  0
LINE
  5
99
100
AcDbEntity
  8
MAIN0
  6
CONTINUOUS
 62
3
100
AcDbLine
 10
1104.560063190750
 20
354.8088877970473
 30
0.0000000000000000
 11
1100.560063190750
 21
357.1182888738058
 31
0.0000000000000000
  0
LINE
  5
9A
100
AcDbEntity
  8
MAIN0
  6
CONTINUOUS
 62
3
100
AcDbLine
 10
1100.560063190750
 20
357.1182888738060
 30
0.0000000000000000
 11
1096.560063190750
 21
354.8088877970473
 31
0.0000000000000000
  0
LINE
  5
9B
100
AcDbEntity
  8
MAIN0
  6
CONTINUOUS
 62
3
100
AcDbLine
 10
1096.560063190750
 20
354.8088877970473
 30
0.0000000000000000
 11
1096.560063190750
 21
350.1900856435304
 31
0.0000000000000000
  0
LINE
  5
9C
100
AcDbEntity
  8
MAIN0
  6
CONTINUOUS
 62
3
100
AcDbLine
 10
1096.560063190750
 20
350.1900856435304
 30
0.0000000000000000
 11
1100.560063190750
 21
347.8806845667719
 31
0.0000000000000000
  0
CIRCLE
  5
9D
100
AcDbEntity
  8
MAIN0
  6
CONTINUOUS
 62
3
100
AcDbCircle
 10
1181.966451146487
 20
352.4994867204104
 30
0.0000000000000000
 40
8.000000000000000
  0
LINE
  5
9E
100
AcDbEntity
  8
MAIN0
  6
CONTINUOUS
 62
3
100
AcDbLine
 10
1185.966451146487
 20
354.8088877971688
 30
0.0000000000000000
 11
1181.966451146487
 21
357.1182888739273
 31
0.0000000000000000
  0
LINE
  5
9F
100
AcDbEntity
  8
MAIN0
  6
CONTINUOUS
 62
3
100
AcDbLine
 10
1181.966451146487
 20
357.1182888739273
 30
0.0000000000000000
 11
1177.966451146487
 21
354.8088877971690
 31
0.0000000000000000
  0
LINE
  5
A0
100
AcDbEntity
  8
MAIN0
  6
CONTINUOUS
 62
3
100
AcDbLine
 10
1177.966451146487
 20
354.8088877971688
 30
0.0000000000000000
 11
1177.966451146487
 21
350.1900856436519
 31
0.0000000000000000
  0
LINE
  5
A1
100
AcDbEntity
  8
MAIN0
  6
CONTINUOUS
 62
3
100
AcDbLine
 10
1177.966451146487
 20
350.1900856436519
 30
0.0000000000000000
 11
1181.966451146487
 21
347.8806845668934
 31
0.0000000000000000
  0
LINE
  5
A2
100
AcDbEntity
  8
MAIN0
  6
CONTINUOUS
 62
3
100
AcDbLine
 10
1181.966451146487
 20
347.8806845668934
 30
0.0000000000000000
 11
1185.966451146487
 21
350.1900856436518
 31
0.0000000000000000
  0
LINE
  5
A3
100
AcDbEntity
  8
MAIN0
  6
CONTINUOUS
 62
3
100
AcDbLine
 10
1185.966451146487
 20
350.1900856436518
 30
0.0000000000000000
 11
1185.966451146487
 21
354.8088877971688
 31
0.0000000000000000
  0
CIRCLE
  5
A4
100
AcDbEntity
  8
MAIN0
  6
CONTINUOUS
 62
3
100
AcDbCircle
 10
1181.966451146487
 20
352.4994867204104
 30
0.0000000000000000
 40
8.000000000000000
  0
LINE
  5
A5
100
AcDbEntity
  8
MAIN0
  6
CONTINUOUS
 62
3
100
AcDbLine
 10
1185.966451146487
 20
354.8088877971688
 30
0.0000000000000000
 11
1181.966451146487
 21
357.1182888739273
 31
0.0000000000000000
  0
LINE
  5
A6
100
AcDbEntity
  8
MAIN0
  6
CONTINUOUS
 62
3
100
AcDbLine
 10
1181.966451146487
 20
357.1182888739273
 30
0.0000000000000000
 11
1177.966451146487
 21
354.8088877971690
 31
0.0000000000000000
  0
LINE
  5
A7
100
AcDbEntity
  8
MAIN0
  6
CONTINUOUS
 62
3
100
AcDbLine
 10
1177.966451146487
 20
354.8088877971688
 30
0.0000000000000000
 11
1177.966451146487
 21
350.1900856436519
 31
0.0000000000000000
  0
LINE
  5
A8
100
AcDbEntity
  8
MAIN0
  6
CONTINUOUS
 62
3
100
AcDbLine
 10
1177.966451146487
 20
350.1900856436519
 30
0.0000000000000000
 11
1181.966451146487
 21
347.8806845668934
 31
0.0000000000000000
  0
LINE
  5
A9
100
AcDbEntity
  8
MAIN0
  6
CONTINUOUS
 62
3
100
AcDbLine
 10
1181.966451146487
 20
347.8806845668934
 30
0.0000000000000000
 11
1185.966451146487
 21
350.1900856436518
 31
0.0000000000000000
  0
LINE
  5
AA
100
AcDbEntity
  8
MAIN0
  6
CONTINUOUS
 62
3
100
AcDbLine
 10
1185.966451146487
 20
350.1900856436518
 30
0.0000000000000000
 11
1185.966451146487
 21
354.8088877971688
 31
0.0000000000000000
  0
LINE
  5
AB
100
AcDbEntity
  8
MAIN0
  6
CONTINUOUS
 62
3
100
AcDbLine
 10
1132.263257168583
 20
315.9994867203495
 30
0.0000000000000000
 11
1150.263257168583
 21
315.9994867203495
 31
0.0000000000000000
  0
LINE
  5
AC
100
AcDbEntity
  8
MAIN0
  6
CONTINUOUS
 62
3
100
AcDbLine
 10
1150.263257168583
 20
310.9994867203495
 30
0.0000000000000000
 11
1150.263257168583
 21
315.9994867203495
 31
0.0000000000000000
  0
LINE
  5
AD
100
AcDbEntity
  8
MAIN0
  6
CONTINUOUS
 62
3
100
AcDbLine
 10
158.4711604932783
 20
310.9994867203495
 30
0.0000000000000000
 11
158.4711604932784
 21
315.9994867203495
 31
0.0000000000000000
  0
LINE
  5
AE
100
AcDbEntity
  8
MAIN0
  6
CONTINUOUS
 62
3
100
AcDbLine
 10
1132.263257168583
 20
310.9994867203495
 30
0.0000000000000000
 11
1132.263257168583
 21
315.9994867203494
 31
0.0000000000000000
  0
LINE
  5
AF
100
AcDbEntity
  8
MAIN0
  6
CONTINUOUS
 62
3
100
AcDbLine
 10
140.4711604932783
 20
310.9994867203496
 30
0.0000000000000000
 11
140.4711604932783
 21
315.9994867203496
 31
0.0000000000000000
  0
LINE
  5
B0
100
AcDbEntity
  8
MAIN0
  6
CONTINUOUS
 62
3
100
AcDbLine
 10
140.4711604932783
 20
310.9994867203495
 30
0.0000000000000000
 11
86.47116049327838
 21
310.9994867203495
 31
0.0000000000000000
  0
LINE
  5
B1
100
AcDbEntity
  8
MAIN0
  6
CONTINUOUS
 62
3
100
AcDbLine
 10
212.4711604932783
 20
310.9994867203495
 30
0.0000000000000000
 11
158.4711604932783
 21
310.9994867203495
 31
0.0000000000000000
  0
LINE
  5
B2
100
AcDbEntity
  8
MAIN0
  6
CONTINUOUS
 62
3
100
AcDbLine
 10
510.3829605851622
 20
305.9994867203497
 30
0.0000000000000000
 11
510.3829605851622
 21
315.9994867203494
 31
0.0000000000000000
  0
LINE
  5
B3
100
AcDbEntity
  8
MAIN0
  6
CONTINUOUS
 62
3
100
AcDbLine
 10
492.3829605851622
 20
315.9994867203495
 30
0.0000000000000000
 11
492.3829605851622
 21
305.9994867203495
 31
0.0000000000000000
  0
LINE
  5
B4
100
AcDbEntity
  8
MAIN0
  6
CONTINUOUS
 62
3
100
AcDbLine
 10
492.3829605851622
 20
310.9994867203495
 30
0.0000000000000000
 11
356.3829605851621
 21
310.9994867203495
 31
0.0000000000000000
  0
LINE
  5
B5
100
AcDbEntity
  8
MAIN0
  6
CONTINUOUS
 62
3
100
AcDbLine
 10
721.3829605851621
 20
310.9994867203495
 30
0.0000000000000000
 11
510.3829605851622
 21
310.9994867203495
 31
0.0000000000000000
  0
LINE
  5
B6
100
AcDbEntity
  8
MAIN0
  6
CONTINUOUS
 62
3
100
AcDbLine
 10
158.4711604932784
 20
315.9994867203495
 30
0.0000000000000000
 11
140.4711604932780
 21
315.9994867203495
 31
0.0000000000000000
  0
LINE
  5
B7
100
AcDbEntity
  8
MAIN0
  6
CONTINUOUS
 62
3
100
AcDbLine
 10
510.3829605851622
 20
315.9994867203495
 30
0.0000000000000000
 11
492.3829605851622
 21
315.9994867203495
 31
0.0000000000000000
  0
LINE
  5
B8
100
AcDbEntity
  8
MAIN0
  6
CONTINUOUS
 62
3
100
AcDbLine
 10
356.3829605851619
 20
410.9994867203496
 30
0.0000000000000000
 11
356.3829605851622
 21
310.9994867203496
 31
0.0000000000000000
  0
LINE
  5
B9
100
AcDbEntity
  8
MAIN0
  6
CONTINUOUS
 62
3
100
AcDbLine
 10
1204.263257168583
 20
310.9994867203495
 30
0.0000000000000000
 11
1150.263257168583
 21
310.9994867203495
 31
0.0000000000000000
  0
LINE
  5
BA
100
AcDbEntity
  8
MAIN0
  6
CONTINUOUS
 62
3
100
AcDbLine
 10
111.9711604932783
 20
305.9994867203486
 30
0.0000000000000000
 11
111.9711604932783
 21
310.9994867203494
 31
0.0000000000000000
  0
LINE
  5
BB
100
AcDbEntity
  8
MAIN0
  6
CONTINUOUS
 62
3
100
AcDbLine
 10
186.9711604932783
 20
305.9994867203487
 30
0.0000000000000000
 11
186.9711604932783
 21
310.9994867203495
 31
0.0000000000000000
  0
LINE
  5
BC
100
AcDbEntity
  8
MAIN0
  6
CONTINUOUS
 62
3
100
AcDbLine
 10
510.3829605851622
 20
305.9994867203495
 30
0.0000000000000000
 11
492.3829605851622
 21
305.9994867203495
 31
0.0000000000000000
  0
LINE
  5
BD
100
AcDbEntity
  8
MAIN0
  6
CONTINUOUS
 62
3
100
AcDbLine
 10
211.9711604932782
 20
305.9994867203488
 30
0.0000000000000000
 11
186.9711604932782
 21
305.9994867203487
 31
0.0000000000000000
  0
LINE
  5
BE
100
AcDbEntity
  8
MAIN0
  6
CONTINUOUS
 62
3
100
AcDbLine
 10
510.3829605851621
 20
305.9994867203492
 30
0.0000000000000000
 11
492.3829605851623
 21
305.9994867203492
 31
0.0000000000000000
  0
LINE
  5
BF
100
AcDbEntity
  8
MAIN0
  6
CONTINUOUS
 62
3
100
AcDbLine
 10
111.9711604932783
 20
305.9994867203486
 30
0.0000000000000000
 11
86.97116049327838
 21
305.9994867203486
 31
0.0000000000000000
  0
LINE
  5
C0
100
AcDbEntity
  8
MAIN0
  6
CONTINUOUS
 62
3
100
AcDbLine
 10
211.9711604932782
 20
305.9994867203487
 30
0.0000000000000000
 11
186.9711604932782
 21
305.9994867203486
 31
0.0000000000000000
  0
LINE
  5
C1
100
AcDbEntity
  8
MAIN0
  6
CONTINUOUS
 62
3
100
AcDbLine
 10
1203.763257168587
 20
310.9994867203496
 30
0.0000000000000000
 11
1203.763257168587
 21
305.9994867203531
 31
0.0000000000000000
  0
LINE
  5
C2
100
AcDbEntity
  8
MAIN0
  6
CONTINUOUS
 62
3
100
AcDbLine
 10
211.9711604932783
 20
310.9994867203496
 30
0.0000000000000000
 11
211.9711604932783
 21
305.9994867203487
 31
0.0000000000000000
  0
LINE
  5
C3
100
AcDbEntity
  8
MAIN0
  6
CONTINUOUS
 62
3
100
AcDbLine
 10
1078.763257168583
 20
310.9994867203495
 30
0.0000000000000000
 11
1078.763257168583
 21
305.9994867203479
 31
0.0000000000000000
  0
LINE
  5
C4
100
AcDbEntity
  8
MAIN0
  6
CONTINUOUS
 62
3
100
AcDbLine
 10
86.97116049327832
 20
310.9994867203495
 30
0.0000000000000000
 11
86.97116049327826
 21
305.9994867203486
 31
0.0000000000000000
  0
LINE
  5
C5
100
AcDbEntity
  8
MAIN0
  6
CONTINUOUS
 62
3
100
AcDbLine
 10
1178.763257168587
 20
310.9994867203496
 30
0.0000000000000000
 11
1178.763257168587
 21
305.9994867203495
 31
0.0000000000000000
  0
LINE
  5
C6
100
AcDbEntity
  8
MAIN0
  6
CONTINUOUS
 62
3
100
AcDbLine
 10
1103.763257168583
 20
310.9994867203496
 30
0.0000000000000000
 11
1103.763257168583
 21
305.9994867203495
 31
0.0000000000000000
  0
LINE
  5
C7
100
AcDbEntity
  8
MAIN0
  6
CONTINUOUS
 62
3
100
AcDbLine
 10
1103.763257168582
 20
305.9994867203495
 30
0.0000000000000000
 11
1078.763257168582
 21
305.9994867203495
 31
0.0000000000000000
  0
LINE
  5
C8
100
AcDbEntity
  8
MAIN0
  6
CONTINUOUS
 62
3
100
AcDbLine
 10
1203.763257168587
 20
305.9994867203495
 30
0.0000000000000000
 11
1178.763257168587
 21
305.9994867203495
 31
0.0000000000000000
  0
LINE
  5
C9
100
AcDbEntity
  8
MAIN0
  6
CONTINUOUS
 62
3
100
AcDbLine
 10
1144.263257168583
 20
387.6184367589718
 30
0.0000000000000000
 11
1144.263257168583
 21
396.7840964111762
 31
0.0000000000000000
  0
LINE
  5
CA
100
AcDbEntity
  8
MAIN0
  6
CONTINUOUS
 62
3
100
AcDbLine
 10
1138.263257168583
 20
387.6184367589719
 30
0.0000000000000000
 11
1138.263257168583
 21
396.7840964111762
 31
0.0000000000000000
  0
LINE
  5
CB
100
AcDbEntity
  8
MAIN0
  6
CONTINUOUS
 62
3
100
AcDbLine
 10
1143.263257168583
 20
351.0796151315953
 30
0.0000000000000000
 11
1143.263257168583
 21
355.0949417599827
 31
0.0000000000000000
  0
LINE
  5
CC
100
AcDbEntity
  8
MAIN0
  6
CONTINUOUS
 62
3
100
AcDbLine
 10
1139.263257168583
 20
351.0796151315953
 30
0.0000000000000000
 11
1139.263257168583
 21
355.0949417599827
 31
0.0000000000000000
  0
LINE
  5
CD
100
AcDbEntity
  8
MAIN0
  6
CONTINUOUS
 62
3
100
AcDbLine
 10
384.3829605851621
 20
410.9994867203495
 30
0.0000000000000000
 11
384.3829605851621
 21
401.9994867203495
 31
0.0000000000000000
  0
LINE
  5
CE
100
AcDbEntity
  8
MAIN0
  6
CONTINUOUS
 62
3
100
AcDbLine
 10
408.3829605851621
 20
410.9994867203495
 30
0.0000000000000000
 11
408.3829605851621
 21
401.9994867203495
 31
0.0000000000000000
  0
LINE
  5
CF
100
AcDbEntity
  8
MAIN0
  6
CONTINUOUS
 62
3
100
AcDbLine
 10
384.3829605851621
 20
401.9994867203495
 30
0.0000000000000000
 11
408.3829605851622
 21
401.9994867203495
 31
0.0000000000000000
  0
LINE
  5
D0
100
AcDbEntity
  8
MAIN0
  6
CONTINUOUS
 62
3
100
AcDbLine
 10
384.3829605851621
 20
402.9994867203495
 30
0.0000000000000000
 11
408.3829605851622
 21
402.9994867203495
 31
0.0000000000000000
  0
LINE
  5
D1
100
AcDbEntity
  8
MAIN0
  6
CONTINUOUS
 62
3
100
AcDbLine
 10
384.3829605851621
 20
410.9994867203495
 30
0.0000000000000000
 11
356.3829605851620
 21
410.9994867203495
 31
0.0000000000000000
  0
CIRCLE
  5
D2
100
AcDbEntity
  8
MAIN0
  6
HIDDEN
 62
3
100
AcDbCircle
 10
567.3829605851614
 20
693.4995159049895
 30
0.0000000000000000
 40
9.000000000000000
  0
LINE
  5
D3
100
AcDbEntity
  8
MAIN0
  6
HIDDEN
 62
3
100
AcDbLine
 10
567.3829605851613
 20
699.2730185968856
 30
0.0000000000000000
 11
562.3829605851613
 21
696.3862672509374
 31
0.0000000000000000
  0
LINE
  5
D4
100
AcDbEntity
  8
MAIN0
  6
HIDDEN
 62
3
100
AcDbLine
 10
562.3829605851614
 20
696.3862672509376
 30
0.0000000000000000
 11
562.3829605851614
 21
690.6127645590416
 31
0.0000000000000000
  0
LINE
  5
D5
100
AcDbEntity
  8
MAIN0
  6
HIDDEN
 62
3
100
AcDbLine
 10
562.3829605851614
 20
690.6127645590416
 30
0.0000000000000000
 11
567.3829605851614
 21
687.7260132130934
 31
0.0000000000000000
  0
LINE
  5
D6
100
AcDbEntity
  8
MAIN0
  6
HIDDEN
 62
3
100
AcDbLine
 10
567.3829605851614
 20
687.7260132130934
 30
0.0000000000000000
 11
572.3829605851615
 21
690.6127645590416
 31
0.0000000000000000
  0
LINE
  5
D7
100
AcDbEntity
  8
MAIN0
  6
HIDDEN
 62
3
100
AcDbLine
 10
572.3829605851614
 20
690.6127645590416
 30
0.0000000000000000
 11
572.3829605851614
 21
696.3862672509376
 31
0.0000000000000000
  0
LINE
  5
D8
100
AcDbEntity
  8
MAIN0
  6
HIDDEN
 62
3
100
AcDbLine
 10
572.3829605851614
 20
696.3862672509376
 30
0.0000000000000000
 11
567.3829605851614
 21
699.2730185968858
 31
0.0000000000000000
  0
DIMENSION
  5
E1
100
AcDbEntity
  8
MAIN0
  6
CONTINUOUS
 62
3
100
AcDbDimension
  2
*D0
 10
356.3829605851620
 20
182.5193698135522
 30
0.0000000000000000
 11
571.5157663398928
 21
184.0193698135522
 31
0.0000000000000000
 70
160
  3
MAIN001
100
AcDbAlignedDimension
 13
807.8829605851622
 23
350.9994867203495
 33
0.0000000000000000
 14
356.3829605851622
 24
310.9994867203496
 34
0.0000000000000000
100
AcDbRotatedDimension
1001
ACAD
1000
DSTYLE
1002
{
1070
   173
1070
     1
1070
     6
1000
_OPEN
1070
     7
1000
_OPEN
1070
    41
1040
6.000000
1002
}
  0
DIMENSION
  5
EB
100
AcDbEntity
  8
MAIN0
  6
CONTINUOUS
 62
3
100
AcDbDimension
  2
*D1
 10
462.5095918006178
 20
305.9994867203495
 30
0.0000000000000000
 11
461.0095918006176
 21
295.0637040326594
 31
0.0000000000000000
 70
160
  3
MAIN001
100
AcDbAlignedDimension
 13
492.3829605851622
 23
310.9994867203495
 33
0.0000000000000000
 14
492.3829605851622
 24
305.9994867203495
 34
0.0000000000000000
 50
90.00000000000000
100
AcDbRotatedDimension
1001
ACAD
1000
DSTYLE
1002
{
1070
   173
1070
     1
1070
     6
1000
_OPEN
1070
     7
1000
_OPEN
1070
    41
1040
6.000000
1070
   287
1070
     0
1002
}
  0
DIMENSION
  5
F4
100
AcDbEntity
  8
MAIN0
  6
CONTINUOUS
 62
3
100
AcDbDimension
  2
*D2
 10
87.22116049327843
 20
500.4711325134849
 30
0.0000000000000000
 11
149.4711604932784
 21
500.9711325134849
 31
0.0000000000000000
 70
32
  3
MAIN001
100
AcDbAlignedDimension
 13
211.7211604932784
 23
450.4994867203495
 33
0.0000000000000000
 14
87.22116049327843
 24
450.4994867203495
 34
0.0000000000000000
100
AcDbRotatedDimension
1001
ACAD
1000
DSTYLE
1002
{
1070
   173
1070
     1
1070
     6
1000
_OPEN
1070
     7
1000
_OPEN
1070
    41
1040
6.000000
1002
}
  0
DIMENSION
  5
FF
100
AcDbEntity
  8
MAIN0
  6
CONTINUOUS
 62
3
100
AcDbDimension
  2
*D3
 10
254.0474822305750
 20
310.9994867203495
 30
0.0000000000000000
 11
253.5474822305750
 21
321.4994867203495
 31
0.0000000000000000
 70
32
  3
MAIN001
100
AcDbAlignedDimension
 13
212.4711604932783
 23
331.9994867203495
 33
0.0000000000000000
 14
212.4711604932783
 24
310.9994867203495
 34
0.0000000000000000
 50
90.00000000000000
100
AcDbRotatedDimension
1001
ACAD
1000
DSTYLE
1002
{
1070
   173
1070
     1
1070
     6
1000
_OPEN
1070
     7
1000
_OPEN
1070
    41
1040
6.000000
1070
   287
1070
     0
1002
}
  0
DIMENSION
  5
108
100
AcDbEntity
  8
MAIN0
  6
CONTINUOUS
 62
3
100
AcDbDimension
  2
*D4
 10
254.0474822305750
 20
331.9994867203495
 30
0.0000000000000000
 11
253.5474822305750
 21
351.9994867203495
 31
0.0000000000000000
 70
32
  3
MAIN001
100
AcDbAlignedDimension
 13
212.4711604932783
 23
371.9994867203495
 33
0.0000000000000000
 14
212.4711604932783
 24
331.9994867203495
 34
0.0000000000000000
 50
90.00000000000000
100
AcDbRotatedDimension
1001
ACAD
1000
DSTYLE
1002
{
1070
   173
1070
     1
1070
     6
1000
_OPEN
1070
     7
1000
_OPEN
1070
    41
1040
6.000000
1002
}
  0
DIMENSION
  5
111
100
AcDbEntity
  8
MAIN0
  6
CONTINUOUS
 62
3
100
AcDbDimension
  2
*D5
 10
254.0474822305750
 20
371.9994867203496
 30
0.0000000000000000
 11
253.5474822305750
 21
391.4994867203496
 31
0.0000000000000000
 70
32
  3
MAIN001
100
AcDbAlignedDimension
 13
212.4711604932784
 23
410.9994867203496
 33
0.0000000000000000
 14
212.4711604932783
 24
371.9994867203495
 34
0.0000000000000000
 50
90.00000000000000
100
AcDbRotatedDimension
1001
ACAD
1000
DSTYLE
1002
{
1070
   173
1070
     1
1070
     6
1000
_OPEN
1070
     7
1000
_OPEN
1070
    41
1040
6.000000
1002
}
  0
DIMENSION
  5
11B
100
AcDbEntity
  8
MAIN0
  6
CONTINUOUS
 62
3
100
AcDbDimension
  2
*D6
 10
212.4711604932783
 20
348.4978464213066
 30
0.0000000000000000
 11
224.1515847727819
 21
349.9978464213066
 31
0.0000000000000000
 70
160
  3
MAIN001
100
AcDbAlignedDimension
 13
205.4711604932783
 23
331.9994867203495
 33
0.0000000000000000
 14
212.4711604932783
 24
331.9994867203495
 34
0.0000000000000000
100
AcDbRotatedDimension
1001
ACAD
1000
DSTYLE
1002
{
1070
   173
1070
     1
1070
     6
1000
_OPEN
1070
     7
1000
_OPEN
1070
    41
1040
6.000000
1070
   287
1070
     0
1002
}
  0
LINE
  5
11C
100
AcDbEntity
  8
MAIN0
  6
CONTINUOUS
 62
3
100
AcDbLine
 10
583.3829605851620
 20
395.1994867203493
 30
0.0000000000000000
 11
583.3829605851618
 21
450.4994867203495
 31
0.0000000000000000
  0
LINE
  5
11D
100
AcDbEntity
  8
MAIN0
  6
CONTINUOUS
 62
3
100
AcDbLine
 10
435.3829605851619
 20
450.4994867203495
 30
0.0000000000000000
 11
357.3829605851619
 21
450.4994867203495
 31
0.0000000000000000
  0
LINE
  5
11E
100
AcDbEntity
  8
MAIN0
  6
CONTINUOUS
 62
3
100
AcDbLine
 10
583.3829605851619
 20
450.4994867203495
 30
0.0000000000000000
 11
509.3829605851619
 21
450.4994867203495
 31
0.0000000000000000
  0
MTEXT
  5
11F
100
AcDbEntity
  8
MAIN0
  6
CONTINUOUS
 62
3
100
AcDbMText
 10
451.2439191076194
 20
510.2806814286251
 30
0.0000000000000000
 40
9.299999713897705
 41
0.0000000000000000
 71
     1
 72
     1
  1
{\H0.90x;{MAX}}
 11
1.000000000000000
 21
0.0000000000000000
 31
0.0000000000000000
  7
STANDARD
  0
DIMENSION
  5
128
100
AcDbEntity
  8
MAIN0
  6
CONTINUOUS
 62
3
100
AcDbDimension
  2
*D7
 10
356.3829605851620
 20
227.2579632843358
 30
0.0000000000000000
 11
538.8829605851620
 21
227.7579632843358
 31
0.0000000000000000
 70
32
  3
MAIN001
100
AcDbAlignedDimension
 13
721.3829605851620
 23
310.9994867203496
 33
0.0000000000000000
 14
356.3829605851622
 24
310.9994867203496
 34
0.0000000000000000
100
AcDbRotatedDimension
1001
ACAD
1000
DSTYLE
1002
{
1070
   173
1070
     1
1070
     6
1000
_OPEN
1070
     7
1000
_OPEN
1070
    41
1040
6.000000
1002
}
  0
DIMENSION
  5
131
100
AcDbEntity
  8
MAIN0
  6
CONTINUOUS
 62
3
100
AcDbDimension
  2
*D8
 10
721.3829605851620
 20
227.2579632843358
 30
0.0000000000000000
 11
764.6329605851620
 21
227.7579632843358
 31
0.0000000000000000
 70
32
  3
MAIN001
100
AcDbAlignedDimension
 13
807.8829605851622
 23
350.9994867203495
 33
0.0000000000000000
 14
721.3829605851620
 24
310.9994867203496
 34
0.0000000000000000
100
AcDbRotatedDimension
1001
ACAD
1000
DSTYLE
1002
{
1070
   173
1070
     1
1070
     6
1000
_OPEN
1070
     7
1000
_OPEN
1070
    41
1040
6.000000
1002
}
  0
DIMENSION
  5
13C
100
AcDbEntity
  8
MAIN0
  6
CONTINUOUS
 62
3
100
AcDbDimension
  2
*D9
 10
492.3829605851622
 20
275.5169985683032
 30
0.0000000000000000
 11
525.3669788718629
 21
277.0169985683032
 31
0.0000000000000000
 70
160
  3
MAIN001
100
AcDbAlignedDimension
 13
510.3829605851622
 23
305.9994867203497
 33
0.0000000000000000
 14
492.3829605851622
 24
305.9994867203495
 34
0.0000000000000000
100
AcDbRotatedDimension
1001
ACAD
1000
DSTYLE
1002
{
1070
   173
1070
     1
1070
     6
1000
_OPEN
1070
     7
1000
_OPEN
1070
    41
1040
6.000000
1070
   287
1070
     0
1002
}
  0
LINE
  5
13D
100
AcDbEntity
  8
MAIN0
  6
CONTINUOUS
 62
3
100
AcDbLine
 10
776.3829605848410
 20
712.9995159049894
 30
0.0000000000000000
 11
778.3829605848414
 21
714.9995159049894
 31
0.0000000000000000
  0
LINE
  5
13E
100
AcDbEntity
  8
MAIN0
  6
CONTINUOUS
 62
3
100
AcDbLine
 10
760.3829605851613
 20
712.9995159049895
 30
0.0000000000000000
 11
776.3829605848412
 21
712.9995159049895
 31
0.0000000000000000
  0
LINE
  5
13F
100
AcDbEntity
  8
MAIN0
  6
CONTINUOUS
 62
3
100
AcDbLine
 10
776.3829605848414
 20
638.9995159049898
 30
0.0000000000000000
 11
778.3829605848418
 21
636.9995159049900
 31
0.0000000000000000
  0
LINE
  5
140
100
AcDbEntity
  8
MAIN0
  6
CONTINUOUS
 62
3
100
AcDbLine
 10
785.3829605851613
 20
636.9995159049895
 30
0.0000000000000000
 11
778.3829605851613
 21
636.9995159049895
 31
0.0000000000000000
  0
LINE
  5
141
100
AcDbEntity
  8
MAIN0
  6
CONTINUOUS
 62
3
100
AcDbLine
 10
760.3829605851613
 20
638.9995159049895
 30
0.0000000000000000
 11
776.3829605848412
 21
638.9995159049895
 31
0.0000000000000000
  0
LINE
  5
142
100
AcDbEntity
  8
MAIN0
  6
CONTINUOUS
 62
3
100
AcDbLine
 10
748.0456298605585
 20
619.9995159049895
 30
0.0000000000000000
 11
760.3829605851614
 21
619.9995159049895
 31
0.0000000000000000
  0
LINE
  5
143
100
AcDbEntity
  8
MAIN0
  6
CONTINUOUS
 62
3
100
AcDbLine
 10
760.3829605851613
 20
731.9995159049895
 30
0.0000000000000000
 11
748.0456298601494
 21
731.9995159049895
 31
0.0000000000000000
  0
LINE
  5
144
100
AcDbEntity
  8
MAIN0
  6
CENTER
 62
3
100
AcDbLine
 10
1141.263257168583
 20
464.6657517328633
 30
0.0000000000000000
 11
1141.263257168583
 21
298.4764269461698
 31
0.0000000000000000
  0
LINE
  5
145
100
AcDbEntity
  8
MAIN0
  6
CENTER
 62
3
100
AcDbLine
 10
1173.763257168942
 20
381.9896846300777
 30
0.0000000000000000
 11
1173.763257168885
 21
369.9119886139416
 31
0.0000000000000000
  0
LINE
  5
146
100
AcDbEntity
  8
MAIN0
  6
CENTER
 62
3
100
AcDbLine
 10
1108.763257168924
 20
382.2842618508111
 30
0.0000000000000000
 11
1108.763257168866
 21
369.4210253307972
 31
0.0000000000000000
  0
LINE
  5
147
100
AcDbEntity
  8
MAIN0
  6
CONTINUOUS
 62
3
100
AcDbLine
 10
778.3829605851620
 20
343.9994867195032
 30
0.0000000000000000
 11
778.3829605851620
 21
410.4994867195611
 31
0.0000000000000000
  0
LINE
  5
148
100
AcDbEntity
  8
MAIN0
  6
CONTINUOUS
 62
3
100
AcDbLine
 10
760.3829605851623
 20
410.4994867195314
 30
0.0000000000000000
 11
785.3829605851620
 21
410.4994867195728
 31
0.0000000000000000
  0
LINE
  5
149
100
AcDbEntity
  8
MAIN0
  6
CENTER
 62
3
100
AcDbLine
 10
1069.305445126787
 20
375.9994867197603
 30
0.0000000000000000
 11
1213.451141046535
 21
375.9994867199993
 31
0.0000000000000000
  0
LINE
  5
14A
100
AcDbEntity
  8
MAIN0
  6
CONTINUOUS
 62
3
100
AcDbLine
 10
1082.263257168583
 20
393.4994867203495
 30
0.0000000000000000
 11
1082.263257168583
 21
399.4994867203495
 31
0.0000000000000000
  0
LINE
  5
14B
100
AcDbEntity
  8
MAIN0
  6
CONTINUOUS
 62
3
100
AcDbLine
 10
1200.263257168583
 20
399.4994867203495
 30
0.0000000000000000
 11
1200.263257168583
 21
393.4994867203495
 31
0.0000000000000000
  0
LINE
  5
14C
100
AcDbEntity
  8
MAIN0
  6
CONTINUOUS
 62
3
100
AcDbLine
 10
1200.263257168583
 20
399.4994867203495
 30
0.0000000000000000
 11
1204.263257168583
 21
399.4994867203495
 31
0.0000000000000000
  0
LINE
  5
14D
100
AcDbEntity
  8
MAIN0
  6
CONTINUOUS
 62
3
100
AcDbLine
 10
1200.263257168583
 20
393.4994867203495
 30
0.0000000000000000
 11
1204.263257168583
 21
393.4994867203495
 31
0.0000000000000000
  0
LINE
  5
14E
100
AcDbEntity
  8
MAIN0
  6
CONTINUOUS
 62
3
100
AcDbLine
 10
1204.263257168583
 20
395.1994867203495
 30
0.0000000000000000
 11
1204.263257168583
 21
371.9994867203495
 31
0.0000000000000000
  0
LINE
  5
14F
100
AcDbEntity
  8
MAIN0
  6
CONTINUOUS
 62
3
100
AcDbLine
 10
1204.263257168583
 20
404.9994867133391
 30
0.0000000000000000
 11
1204.263257168583
 21
399.4994867203495
 31
0.0000000000000000
  0
LINE
  5
150
100
AcDbEntity
  8
MAIN0
  6
CONTINUOUS
 62
3
100
AcDbLine
 10
1078.263257168583
 20
371.9994867203496
 30
0.0000000000000000
 11
1078.263257168583
 21
395.1994867203493
 31
0.0000000000000000
  0
LINE
  5
151
100
AcDbEntity
  8
MAIN0
  6
CONTINUOUS
 62
3
100
AcDbLine
 10
1078.263257168583
 20
399.4994867203495
 30
0.0000000000000000
 11
1078.263257168583
 21
404.9994867133391
 31
0.0000000000000000
  0
LINE
  5
152
100
AcDbEntity
  8
MAIN0
  6
CONTINUOUS
 62
3
100
AcDbLine
 10
1208.763257168583
 20
430.9994867203495
 30
0.0000000000000000
 11
1208.763257168583
 21
395.1994867203495
 31
0.0000000000000000
  0
LINE
  5
153
100
AcDbEntity
  8
MAIN0
  6
CONTINUOUS
 62
3
100
AcDbLine
 10
1073.763257168583
 20
430.9994867203494
 30
0.0000000000000000
 11
1073.763257168583
 21
395.1994867203494
 31
0.0000000000000000
  0
ARC
  5
154
100
AcDbEntity
  8
MAIN0
  6
CONTINUOUS
 62
3
100
AcDbCircle
 10
1207.563257168583
 20
430.9994867203495
 30
0.0000000000000000
 40
1.200000000000000
100
AcDbArc
 50
0.0000000000000000
 51
90.00000000000000
  0
LINE
  5
155
100
AcDbEntity
  8
MAIN0
  6
CONTINUOUS
 62
3
100
AcDbLine
 10
1207.563257168583
 20
432.1994867203495
 30
0.0000000000000000
 11
1074.963257168583
 21
432.1994867203495
 31
0.0000000000000000
  0
LINE
  5
156
100
AcDbEntity
  8
MAIN0
  6
CONTINUOUS
 62
3
100
AcDbLine
 10
1207.563257168583
 20
422.1994867203495
 30
0.0000000000000000
 11
1074.963257168583
 21
422.1994867203495
 31
0.0000000000000000
  0
LINE
  5
157
100
AcDbEntity
  8
MAIN0
  6
CONTINUOUS
 62
3
100
AcDbLine
 10
1076.463257168583
 20
412.1994867203495
 30
0.0000000000000000
 11
1206.063257168583
 21
412.1994867203495
 31
0.0000000000000000
  0
ARC
  5
158
100
AcDbEntity
  8
MAIN0
  6
CONTINUOUS
 62
3
100
AcDbCircle
 10
1074.963257168583
 20
430.9994867203494
 30
0.0000000000000000
 40
1.200000000000000
100
AcDbArc
 50
90.00000000000000
 51
180.0000000000000
  0
LINE
  5
159
100
AcDbEntity
  8
MAIN0
  6
CONTINUOUS
 62
3
100
AcDbLine
 10
566.3829605851620
 20
393.4994867203495
 30
0.0000000000000000
 11
721.3829605851619
 21
393.4994867203495
 31
0.0000000000000000
  0
LINE
  5
15A
100
AcDbEntity
  8
MAIN0
  6
CONTINUOUS
 62
3
100
AcDbLine
 10
1078.263257168583
 20
393.4994867203495
 30
0.0000000000000000
 11
1082.263257168583
 21
393.4994867203495
 31
0.0000000000000000
  0
LINE
  5
15B
100
AcDbEntity
  8
MAIN0
  6
CONTINUOUS
 62
3
100
AcDbLine
 10
748.0456298613294
 20
399.4994867203495
 30
0.0000000000000000
 11
760.3829605851619
 21
399.4994867203495
 31
0.0000000000000000
  0
LINE
  5
15C
100
AcDbEntity
  8
MAIN0
  6
CONTINUOUS
 62
3
100
AcDbLine
 10
1078.263257168583
 20
399.4994867203495
 30
0.0000000000000000
 11
1082.263257168583
 21
399.4994867203495
 31
0.0000000000000000
  0
LINE
  5
15D
100
AcDbEntity
  8
MAIN0
  6
CONTINUOUS
 62
3
100
AcDbLine
 10
1207.563257168583
 20
422.1994867203495
 30
0.0000000000000000
 11
1207.563257168583
 21
395.1994867203495
 31
0.0000000000000000
  0
LINE
  5
15E
100
AcDbEntity
  8
MAIN0
  6
CONTINUOUS
 62
3
100
AcDbLine
 10
1074.963257168583
 20
422.1994867203495
 30
0.0000000000000000
 11
1074.963257168583
 21
395.1994867203494
 31
0.0000000000000000
  0
LINE
  5
15F
100
AcDbEntity
  8
MAIN0
  6
CONTINUOUS
 62
3
100
AcDbLine
 10
1207.263257168583
 20
420.9994867203495
 30
0.0000000000000000
 11
1207.263257168583
 21
396.3994867203494
 31
0.0000000000000000
  0
LINE
  5
160
100
AcDbEntity
  8
MAIN0
  6
CONTINUOUS
 62
3
100
AcDbLine
 10
1075.263257168583
 20
420.9994867203495
 30
0.0000000000000000
 11
1075.263257168583
 21
396.3994867203494
 31
0.0000000000000000
  0
ARC
  5
161
100
AcDbEntity
  8
MAIN0
  6
CONTINUOUS
 62
3
100
AcDbCircle
 10
1206.063257168583
 20
420.9994867203495
 30
0.0000000000000000
 40
1.200000000000000
100
AcDbArc
 50
0.0000000000000000
 51
90.00000000000000
  0
ARC
  5
162
100
AcDbEntity
  8
MAIN0
  6
CONTINUOUS
 62
3
100
AcDbCircle
 10
1076.463257168583
 20
420.9994867203495
 30
0.0000000000000000
 40
1.200000000000000
100
AcDbArc
 50
90.00000000000000
 51
180.0000000000000
  0
ARC
  5
163
100
AcDbEntity
  8
MAIN0
  6
CONTINUOUS
 62
3
100
AcDbCircle
 10
1206.063257168583
 20
396.3994867203494
 30
0.0000000000000000
 40
1.200000000000000
100
AcDbArc
 50
270.0000000000000
 51
360.0000000000000
  0
ARC
  5
164
100
AcDbEntity
  8
MAIN0
  6
CONTINUOUS
 62
3
100
AcDbCircle
 10
1076.463257168583
 20
396.3994867203494
 30
0.0000000000000000
 40
1.200000000000000
100
AcDbArc
 50
180.0000000000000
 51
270.0000000000000
  0
LINE
  5
165
100
AcDbEntity
  8
MAIN0
  6
CONTINUOUS
 62
3
100
AcDbLine
 10
1206.063257168583
 20
395.1994867203495
 30
0.0000000000000000
 11
1201.263257168583
 21
395.1994867203495
 31
0.0000000000000000
  0
LINE
  5
166
100
AcDbEntity
  8
MAIN0
  6
CONTINUOUS
 62
3
100
AcDbLine
 10
1208.763257168583
 20
395.1994867203495
 30
0.0000000000000000
 11
1207.563257168583
 21
395.1994867203495
 31
0.0000000000000000
  0
LINE
  5
167
100
AcDbEntity
  8
MAIN0
  6
CONTINUOUS
 62
3
100
AcDbLine
 10
1074.963257168583
 20
395.1994867203494
 30
0.0000000000000000
 11
1073.763257168583
 21
395.1994867203494
 31
0.0000000000000000
  0
LINE
  5
168
100
AcDbEntity
  8
MAIN0
  6
CONTINUOUS
 62
3
100
AcDbLine
 10
1081.263257168583
 20
395.1994867203494
 30
0.0000000000000000
 11
1076.463257168583
 21
395.1994867203494
 31
0.0000000000000000
  0
LINE
  5
169
100
AcDbEntity
  8
MAIN0
  6
CONTINUOUS
 62
3
100
AcDbLine
 10
1206.063257168583
 20
412.1994867203495
 30
0.0000000000000000
 11
1206.063257168583
 21
396.3994867203494
 31
0.0000000000000000
  0
LINE
  5
16A
100
AcDbEntity
  8
MAIN0
  6
CONTINUOUS
 62
3
100
AcDbLine
 10
1206.063257168583
 20
396.3994867203494
 30
0.0000000000000000
 11
1201.263257168583
 21
396.3994867203494
 31
0.0000000000000000
  0
LINE
  5
16B
100
AcDbEntity
  8
MAIN0
  6
CONTINUOUS
 62
3
100
AcDbLine
 10
1201.263257168583
 20
397.1994867203495
 30
0.0000000000000000
 11
1204.563257168583
 21
397.1994867203495
 31
0.0000000000000000
  0
LINE
  5
16C
100
AcDbEntity
  8
MAIN0
  6
CONTINUOUS
 62
3
100
AcDbLine
 10
1205.763257168583
 20
410.9994867203495
 30
0.0000000000000000
 11
1205.763257168583
 21
398.3994867203494
 31
0.0000000000000000
  0
LINE
  5
16D
100
AcDbEntity
  8
MAIN0
  6
CONTINUOUS
 62
3
100
AcDbLine
 10
1204.563257168583
 20
410.9994867203495
 30
0.0000000000000000
 11
1204.563257168583
 21
398.3994867203494
 31
0.0000000000000000
  0
LINE
  5
16E
100
AcDbEntity
  8
MAIN0
  6
CONTINUOUS
 62
3
100
AcDbLine
 10
1201.263257168583
 20
398.3994867203494
 30
0.0000000000000000
 11
1204.563257168583
 21
398.3994867203494
 31
0.0000000000000000
  0
ARC
  5
16F
100
AcDbEntity
  8
MAIN0
  6
CONTINUOUS
 62
3
100
AcDbCircle
 10
1204.563257168583
 20
398.3994867203494
 30
0.0000000000000000
 40
1.200000000000000
100
AcDbArc
 50
270.0000000000000
 51
360.0000000000000
  0
ARC
  5
170
100
AcDbEntity
  8
MAIN0
  6
CONTINUOUS
 62
3
100
AcDbCircle
 10
1204.563257168583
 20
410.9994867203495
 30
0.0000000000000000
 40
1.200000000000000
100
AcDbArc
 50
0.0000000000000000
 51
90.00000000000000
  0
LINE
  5
171
100
AcDbEntity
  8
MAIN0
  6
CONTINUOUS
 62
3
100
AcDbLine
 10
1201.263257168583
 20
396.3994867203494
 30
0.0000000000000000
 11
1201.263257168583
 21
395.1994867203495
 31
0.0000000000000000
  0
LINE
  5
172
100
AcDbEntity
  8
MAIN0
  6
CONTINUOUS
 62
3
100
AcDbLine
 10
1201.263257168583
 20
398.3994867203494
 30
0.0000000000000000
 11
1201.263257168583
 21
397.1994867203495
 31
0.0000000000000000
  0
LINE
  5
173
100
AcDbEntity
  8
MAIN0
  6
CONTINUOUS
 62
3
100
AcDbLine
 10
1076.463257168583
 20
412.1994867203495
 30
0.0000000000000000
 11
1076.463257168583
 21
396.3994867203494
 31
0.0000000000000000
  0
LINE
  5
174
100
AcDbEntity
  8
MAIN0
  6
CONTINUOUS
 62
3
100
AcDbLine
 10
1077.963257168583
 20
410.9994867203495
 30
0.0000000000000000
 11
1077.963257168583
 21
398.3994867203494
 31
0.0000000000000000
  0
LINE
  5
175
100
AcDbEntity
  8
MAIN0
  6
CONTINUOUS
 62
3
100
AcDbLine
 10
1076.763257168583
 20
410.9994867203495
 30
0.0000000000000000
 11
1076.763257168583
 21
398.3994867203494
 31
0.0000000000000000
  0
ARC
  5
176
100
AcDbEntity
  8
MAIN0
  6
CONTINUOUS
 62
3
100
AcDbCircle
 10
1077.963257168583
 20
410.9994867203495
 30
0.0000000000000000
 40
1.200000000000000
100
AcDbArc
 50
90.00000000000000
 51
180.0000000000000
  0
LINE
  5
177
100
AcDbEntity
  8
MAIN0
  6
CONTINUOUS
 62
3
100
AcDbLine
 10
1081.263257168583
 20
398.3994867203494
 30
0.0000000000000000
 11
1077.963257168583
 21
398.3994867203494
 31
0.0000000000000000
  0
LINE
  5
178
100
AcDbEntity
  8
MAIN0
  6
CONTINUOUS
 62
3
100
AcDbLine
 10
1081.263257168583
 20
397.1994867203495
 30
0.0000000000000000
 11
1077.963257168583
 21
397.1994867203495
 31
0.0000000000000000
  0
LINE
  5
179
100
AcDbEntity
  8
MAIN0
  6
CONTINUOUS
 62
3
100
AcDbLine
 10
1081.263257168583
 20
398.3994867203494
 30
0.0000000000000000
 11
1081.263257168583
 21
397.1994867203495
 31
0.0000000000000000
  0
ARC
  5
17A
100
AcDbEntity
  8
MAIN0
  6
CONTINUOUS
 62
3
100
AcDbCircle
 10
1077.963257168583
 20
398.3994867203494
 30
0.0000000000000000
 40
1.200000000000000
100
AcDbArc
 50
180.0000000000000
 51
270.0000000000000
  0
LINE
  5
17B
100
AcDbEntity
  8
MAIN0
  6
CONTINUOUS
 62
3
100
AcDbLine
 10
1081.263257168583
 20
396.3994867203494
 30
0.0000000000000000
 11
1081.263257168583
 21
395.1994867203495
 31
0.0000000000000000
  0
LINE
  5
17C
100
AcDbEntity
  8
MAIN0
  6
CONTINUOUS
 62
3
100
AcDbLine
 10
1076.463257168583
 20
396.3994867203494
 30
0.0000000000000000
 11
1081.263257168583
 21
396.3994867203494
 31
0.0000000000000000
  0
LINE
  5
17D
100
AcDbEntity
  8
MAIN0
  6
CENTER
 62
3
100
AcDbLine
 10
149.4711604932782
 20
297.3402506196888
 30
0.0000000000000000
 11
149.4711604932785
 21
465.8040901586497
 31
0.0000000000000000
  0
LINE
  5
17E
100
AcDbEntity
  8
MAIN0
  6
CONTINUOUS
 62
3
100
AcDbLine
 10
216.9711604932784
 20
395.1994867203495
 30
0.0000000000000000
 11
215.7711604932783
 21
395.1994867203495
 31
0.0000000000000000
  0
LINE
  5
17F
100
AcDbEntity
  8
MAIN0
  6
CONTINUOUS
 62
3
100
AcDbLine
 10
216.9711604932784
 20
430.9994867203495
 30
0.0000000000000000
 11
216.9711604932784
 21
395.1994867203495
 31
0.0000000000000000
  0
LINE
  5
180
100
AcDbEntity
  8
MAIN0
  6
CONTINUOUS
 62
3
100
AcDbLine
 10
215.7711604932783
 20
412.1994867203495
 30
0.0000000000000000
 11
215.7711604932783
 21
395.1994867203495
 31
0.0000000000000000
  0
LINE
  5
181
100
AcDbEntity
  8
MAIN0
  6
CONTINUOUS
 62
3
100
AcDbLine
 10
215.4711604932784
 20
412.1994867203495
 30
0.0000000000000000
 11
215.4711604932784
 21
396.3994867203495
 31
0.0000000000000000
  0
ARC
  5
182
100
AcDbEntity
  8
MAIN0
  6
CONTINUOUS
 62
3
100
AcDbCircle
 10
215.7711604932783
 20
430.9994867203495
 30
0.0000000000000000
 40
1.200000000000000
100
AcDbArc
 50
0.0000000000000000
 51
90.00000000000000
  0
ARC
  5
183
100
AcDbEntity
  8
MAIN0
  6
CONTINUOUS
 62
3
100
AcDbCircle
 10
214.2711604932783
 20
396.3994867203495
 30
0.0000000000000000
 40
1.200000000000000
100
AcDbArc
 50
270.0000000000000
 51
360.0000000000000
  0
LINE
  5
184
100
AcDbEntity
  8
MAIN0
  6
CONTINUOUS
 62
3
100
AcDbLine
 10
214.2711604932783
 20
395.1994867203495
 30
0.0000000000000000
 11
212.7711604932783
 21
395.1994867203495
 31
0.0000000000000000
  0
LINE
  5
185
100
AcDbEntity
  8
MAIN0
  6
CONTINUOUS
 62
3
100
AcDbLine
 10
214.2711604932783
 20
396.3994867203495
 30
0.0000000000000000
 11
212.4711604932784
 21
396.3994867203495
 31
0.0000000000000000
  0
LINE
  5
186
100
AcDbEntity
  8
MAIN0
  6
CONTINUOUS
 62
3
100
AcDbLine
 10
214.2711604932783
 20
412.1994867203495
 30
0.0000000000000000
 11
214.2711604932783
 21
396.3994867203495
 31
0.0000000000000000
  0
LINE
  5
187
100
AcDbEntity
  8
MAIN0
  6
CONTINUOUS
 62
3
100
AcDbLine
 10
213.9711604932784
 20
410.9994867203495
 30
0.0000000000000000
 11
213.9711604932784
 21
398.3994867203495
 31
0.0000000000000000
  0
LINE
  5
188
100
AcDbEntity
  8
MAIN0
  6
CONTINUOUS
 62
3
100
AcDbLine
 10
86.17116049327842
 20
410.9994867203496
 30
0.0000000000000000
 11
212.7711604932786
 21
410.9994867203496
 31
0.0000000000000000
  0
LINE
  5
189
100
AcDbEntity
  8
MAIN0
  6
CONTINUOUS
 62
3
100
AcDbLine
 10
212.7711604932783
 20
410.9994867203496
 30
0.0000000000000000
 11
212.7711604932783
 21
398.3994867203495
 31
0.0000000000000000
  0
ARC
  5
18A
100
AcDbEntity
  8
MAIN0
  6
CONTINUOUS
 62
3
100
AcDbCircle
 10
212.7711604932783
 20
398.3994867203495
 30
0.0000000000000000
 40
1.200000000000000
100
AcDbArc
 50
270.0000000000000
 51
360.0000000000000
  0
LINE
  5
18B
100
AcDbEntity
  8
MAIN0
  6
CONTINUOUS
 62
3
100
AcDbLine
 10
703.0395886411130
 20
422.1994867203495
 30
0.0000000000000000
 11
657.3829605851620
 21
422.1994867203495
 31
0.0000000000000000
  0
LINE
  5
18C
100
AcDbEntity
  8
MAIN0
  6
CONTINUOUS
 62
3
100
AcDbLine
 10
703.0395886410782
 20
412.1994867203495
 30
0.0000000000000000
 11
748.0456298612830
 21
412.1994867203495
 31
0.0000000000000000
  0
LINE
  5
18D
100
AcDbEntity
  8
MAIN0
  6
CONTINUOUS
 62
3
100
AcDbLine
 10
703.0395886410190
 20
395.1994867203494
 30
0.0000000000000000
 11
583.3829605851620
 21
395.1994867203494
 31
0.0000000000000000
  0
LINE
  5
18E
100
AcDbEntity
  8
MAIN0
  6
CONTINUOUS
 62
3
100
AcDbLine
 10
214.2711604932783
 20
395.1994867203493
 30
0.0000000000000000
 11
212.4711604932783
 21
395.1994867203493
 31
0.0000000000000000
  0
LINE
  5
18F
100
AcDbEntity
  8
MAIN0
  6
CONTINUOUS
 62
3
100
AcDbLine
 10
216.9711604932784
 20
395.1994867203493
 30
0.0000000000000000
 11
215.7711604932783
 21
395.1994867203493
 31
0.0000000000000000
  0
ARC
  5
190
100
AcDbEntity
  8
MAIN0
  6
CONTINUOUS
 62
3
100
AcDbCircle
 10
212.7711604932784
 20
410.9994867203495
 30
0.0000000000000000
 40
1.200000000000000
100
AcDbArc
 50
0.0000000000000000
 51
90.00000000000000
  0
LINE
  5
191
100
AcDbEntity
  8
MAIN0
  6
CONTINUOUS
 62
3
100
AcDbLine
 10
81.97116049327849
 20
430.9994867203498
 30
0.0000000000000000
 11
81.97116049327838
 21
395.1994867203497
 31
0.0000000000000000
  0
ARC
  5
192
100
AcDbEntity
  8
MAIN0
  6
CONTINUOUS
 62
3
100
AcDbCircle
 10
83.17116049327854
 20
430.9994867203498
 30
0.0000000000000000
 40
1.200000000000000
100
AcDbArc
 50
89.99999999999980
 51
179.9999999999998
  0
LINE
  5
193
100
AcDbEntity
  8
MAIN0
  6
CONTINUOUS
 62
3
100
AcDbLine
 10
81.97116049327838
 20
395.1994867203495
 30
0.0000000000000000
 11
83.17116049327842
 21
395.1994867203495
 31
0.0000000000000000
  0
LINE
  5
194
100
AcDbEntity
  8
MAIN0
  6
CONTINUOUS
 62
3
100
AcDbLine
 10
83.17116049327848
 20
412.1994867203495
 30
0.0000000000000000
 11
83.17116049327842
 21
395.1994867203497
 31
0.0000000000000000
  0
LINE
  5
195
100
AcDbEntity
  8
MAIN0
  6
CONTINUOUS
 62
3
100
AcDbLine
 10
83.47116049327843
 20
412.1994867203497
 30
0.0000000000000000
 11
83.47116049327838
 21
396.3994867203497
 31
0.0000000000000000
  0
ARC
  5
196
100
AcDbEntity
  8
MAIN0
  6
CONTINUOUS
 62
3
100
AcDbCircle
 10
84.67116049327842
 20
396.3994867203497
 30
0.0000000000000000
 40
1.200000000000000
100
AcDbArc
 50
179.9999999999998
 51
269.9999999999998
  0
LINE
  5
197
100
AcDbEntity
  8
MAIN0
  6
CONTINUOUS
 62
3
100
AcDbLine
 10
84.67116049327842
 20
395.1994867203495
 30
0.0000000000000000
 11
86.47116049327838
 21
395.1994867203495
 31
0.0000000000000000
  0
LINE
  5
198
100
AcDbEntity
  8
MAIN0
  6
CONTINUOUS
 62
3
100
AcDbLine
 10
84.67116049327842
 20
396.3994867203497
 30
0.0000000000000000
 11
86.47116049327838
 21
396.3994867203497
 31
0.0000000000000000
  0
LINE
  5
199
100
AcDbEntity
  8
MAIN0
  6
CONTINUOUS
 62
3
100
AcDbLine
 10
84.67116049327848
 20
412.1994867203497
 30
0.0000000000000000
 11
84.67116049327842
 21
396.3994867203497
 31
0.0000000000000000
  0
ARC
  5
19A
100
AcDbEntity
  8
MAIN0
  6
CONTINUOUS
 62
3
100
AcDbCircle
 10
86.17116049327842
 20
398.3994867203497
 30
0.0000000000000000
 40
1.200000000000000
100
AcDbArc
 50
179.9999999999998
 51
269.9999999999998
  0
LINE
  5
19B
100
AcDbEntity
  8
MAIN0
  6
CONTINUOUS
 62
3
100
AcDbLine
 10
84.97116049327843
 20
410.9994867203498
 30
0.0000000000000000
 11
84.97116049327838
 21
398.3994867203497
 31
0.0000000000000000
  0
LINE
  5
19C
100
AcDbEntity
  8
MAIN0
  6
CONTINUOUS
 62
3
100
AcDbLine
 10
86.17116049327848
 20
410.9994867203498
 30
0.0000000000000000
 11
86.17116049327842
 21
398.3994867203497
 31
0.0000000000000000
  0
ARC
  5
19D
100
AcDbEntity
  8
MAIN0
  6
CONTINUOUS
 62
3
100
AcDbCircle
 10
86.17116049327842
 20
410.9994867203498
 30
0.0000000000000000
 40
1.200000000000000
100
AcDbArc
 50
89.99999999999980
 51
179.9999999999998
  0
LINE
  5
19E
100
AcDbEntity
  8
MAIN0
  6
CONTINUOUS
 62
3
100
AcDbLine
 10
87.22116049327838
 20
432.1994867203495
 30
0.0000000000000000
 11
83.17116049327842
 21
432.1994867203495
 31
0.0000000000000000
  0
LINE
  5
19F
100
AcDbEntity
  8
MAIN0
  6
CONTINUOUS
 62
3
100
AcDbLine
 10
215.7711604932783
 20
432.1994867203495
 30
0.0000000000000000
 11
211.7211604932784
 21
432.1994867203495
 31
0.0000000000000000
  0
LINE
  5
1A0
100
AcDbEntity
  8
MAIN0
  6
CONTINUOUS
 62
3
100
AcDbLine
 10
84.67116049327848
 20
412.1994867203494
 30
0.0000000000000000
 11
87.22116049327838
 21
412.1994867203494
 31
0.0000000000000000
  0
LINE
  5
1A1
100
AcDbEntity
  8
MAIN0
  6
CONTINUOUS
 62
3
100
AcDbLine
 10
211.7211604932784
 20
412.1994867203494
 30
0.0000000000000000
 11
214.2711604932783
 21
412.1994867203494
 31
0.0000000000000000
  0
LINE
  5
1A2
100
AcDbEntity
  8
MAIN0
  6
CONTINUOUS
 62
3
100
AcDbLine
 10
657.3829605851620
 20
432.1994867203495
 30
0.0000000000000000
 11
583.3829605851620
 21
432.1994867203495
 31
0.0000000000000000
  0
LINE
  5
1A3
100
AcDbEntity
  8
MAIN0
  6
CONTINUOUS
 62
3
100
AcDbLine
 10
566.3829605851619
 20
399.4994867203495
 30
0.0000000000000000
 11
566.3829605851619
 21
393.4994867203495
 31
0.0000000000000000
  0
LINE
  5
1A4
100
AcDbEntity
  8
MAIN0
  6
CONTINUOUS
 62
3
100
AcDbLine
 10
566.3829605851620
 20
399.4994867203495
 30
0.0000000000000000
 11
583.3829605851620
 21
399.4994867203495
 31
0.0000000000000000
  0
LINE
  5
1A5
100
AcDbEntity
  8
MAIN0
  6
CONTINUOUS
 62
3
100
AcDbLine
 10
583.3829605851620
 20
410.9994867203495
 30
0.0000000000000000
 11
408.3829605851621
 21
410.9994867203495
 31
0.0000000000000000
  0
LINE
  5
1A6
100
AcDbEntity
  8
MAIN0
  6
CONTINUOUS
 62
3
100
AcDbLine
 10
760.3829605851619
 20
410.9994867203495
 30
0.0000000000000000
 11
748.0456298612875
 21
410.9994867203495
 31
0.0000000000000000
  0
LINE
  5
1A7
100
AcDbEntity
  8
MAIN0
  6
CONTINUOUS
 62
3
100
AcDbLine
 10
703.0395886410782
 20
397.1994867203495
 30
0.0000000000000000
 11
748.0456298612830
 21
397.1994867203495
 31
0.0000000000000000
  0
LINE
  5
1A8
100
AcDbEntity
  8
MAIN0
  6
CONTINUOUS
 62
3
100
AcDbLine
 10
776.3829605851620
 20
343.9994867194999
 30
0.0000000000000000
 11
776.3829605851620
 21
410.4994867195611
 31
0.0000000000000000
  0
LINE
  5
1A9
100
AcDbEntity
  8
MAIN0
  6
CENTER
 62
3
100
AcDbLine
 10
72.29640741353956
 20
375.9994867182003
 30
0.0000000000000000
 11
221.4096443842380
 21
375.9994867184474
 31
0.0000000000000000
  0
LINE
  5
1AA
100
AcDbEntity
  8
MAIN0
  6
CENTER
 62
3
100
AcDbLine
 10
712.0884934303306
 20
375.9994867194514
 30
0.0000000000000000
 11
822.7283149836137
 21
375.9994867196348
 31
0.0000000000000000
  0
LINE
  5
1AB
100
AcDbEntity
  8
MAIN0
  6
CONTINUOUS
 62
3
100
AcDbLine
 10
435.3829605851619
 20
450.4994867203495
 30
0.0000000000000000
 11
435.3829605851620
 21
410.9994867203495
 31
0.0000000000000000
  0
LINE
  5
1AC
100
AcDbEntity
  8
MAIN0
  6
CONTINUOUS
 62
3
100
AcDbLine
 10
435.3829605851611
 20
738.2495159049895
 30
0.0000000000000000
 11
435.3829605851614
 21
613.7495159049895
 31
0.0000000000000000
  0
LINE
  5
1AD
100
AcDbEntity
  8
MAIN0
  6
CENTER
 62
3
100
AcDbLine
 10
525.3829605839256
 20
707.8540768453395
 30
0.0000000000000000
 11
525.3829605837888
 21
644.6685376311367
 31
0.0000000000000000
  0
LINE
  5
1AE
100
AcDbEntity
  8
MAIN0
  6
CENTER
 62
3
100
AcDbLine
 10
567.3829605838498
 20
707.9004825795216
 30
0.0000000000000000
 11
567.3829605837034
 21
644.3493894811727
 31
0.0000000000000000
  0
LINE
  5
1AF
100
AcDbEntity
  8
MAIN0
  6
CENTER
 62
3
100
AcDbLine
 10
418.8829605859935
 20
644.6685376311436
 30
0.0000000000000000
 11
418.8829605860682
 21
618.6509578946730
 31
0.0000000000000000
  0
LINE
  5
1B0
100
AcDbEntity
  8
MAIN0
  6
CENTER
 62
3
100
AcDbLine
 10
418.8829605857421
 20
732.2787278287210
 30
0.0000000000000000
 11
418.8829605858183
 21
705.7301853446479
 31
0.0000000000000000
  0
LINE
  5
1B1
100
AcDbEntity
  8
MAIN0
  6
CENTER
 62
3
100
AcDbLine
 10
373.8829605859227
 20
646.7924291317972
 30
0.0000000000000000
 11
373.8829605859957
 21
619.1819206423691
 31
0.0000000000000000
  0
LINE
  5
1B2
100
AcDbEntity
  8
MAIN0
  6
CENTER
 62
3
100
AcDbLine
 10
373.8829605856941
 20
733.3406533241307
 30
0.0000000000000000
 11
373.8829605857698
 21
704.6682598491777
 31
0.0000000000000000
  0
LINE
  5
1B3
100
AcDbEntity
  8
MAIN0
  6
CONTINUOUS
 62
3
100
AcDbLine
 10
357.3829605851615
 20
613.7495159049895
 30
0.0000000000000000
 11
435.3829605851614
 21
613.7495159049895
 31
0.0000000000000000
  0
LINE
  5
1B4
100
AcDbEntity
  8
MAIN0
  6
CONTINUOUS
 62
3
100
AcDbLine
 10
509.3829605851615
 20
613.7495159049895
 30
0.0000000000000000
 11
583.3829605851615
 21
613.7495159049895
 31
0.0000000000000000
  0
LINE
  5
1B5
100
AcDbEntity
  8
MAIN0
  6
CONTINUOUS
 62
3
100
AcDbLine
 10
357.3829605851614
 20
738.2495159049895
 30
0.0000000000000000
 11
435.3829605851611
 21
738.2495159049895
 31
0.0000000000000000
  0
LINE
  5
1B6
100
AcDbEntity
  8
MAIN0
  6
CONTINUOUS
 62
3
100
AcDbLine
 10
509.3829605851613
 20
738.2495159049895
 30
0.0000000000000000
 11
583.3829605851613
 21
738.2495159049895
 31
0.0000000000000000
  0
DIMENSION
  5
1C1
100
AcDbEntity
  8
MAIN0
  6
CONTINUOUS
 62
3
100
AcDbDimension
  2
*D10
 10
356.3829605851620
 20
499.8060709620522
 30
0.0000000000000000
 11
345.2407294297260
 21
501.3060709620522
 31
0.0000000000000000
 70
160
  3
MAIN001
100
AcDbAlignedDimension
 13
357.3829605851619
 23
450.4994867203496
 33
0.0000000000000000
 14
356.3829605851620
 24
410.9994867203496
 34
0.0000000000000000
100
AcDbRotatedDimension
1001
ACAD
1000
DSTYLE
1002
{
1070
   173
1070
     1
1070
     6
1000
_OPEN
1070
     7
1000
_OPEN
1070
    41
1040
6.000000
1070
   287
1070
     0
1002
}
  0
DIMENSION
  5
1CA
100
AcDbEntity
  8
MAIN0
  6
CONTINUOUS
 62
3
100
AcDbDimension
  2
*D11
 10
357.3829605851619
 20
499.8060709620522
 30
0.0000000000000000
 11
396.3829605851619
 21
500.3060709620522
 31
0.0000000000000000
 70
32
  3
MAIN001
100
AcDbAlignedDimension
 13
435.3829605851619
 23
450.4994867203494
 33
0.0000000000000000
 14
357.3829605851619
 24
450.4994867203496
 34
0.0000000000000000
100
AcDbRotatedDimension
1001
ACAD
1000
DSTYLE
1002
{
1070
   173
1070
     1
1070
     6
1000
_OPEN
1070
     7
1000
_OPEN
1070
    41
1040
6.000000
1002
}
  0
DIMENSION
  5
1D3
100
AcDbEntity
  8
MAIN0
  6
CONTINUOUS
 62
3
100
AcDbDimension
  2
*D12
 10
435.3829605851619
 20
499.8060709620522
 30
0.0000000000000000
 11
486.4789774707955
 21
501.3060709620522
 31
0.0000000000000000
 70
160
  1
\A1;205
  3
MAIN001
100
AcDbAlignedDimension
 13
509.3829605851619
 23
450.4994867203492
 33
0.0000000000000000
 14
435.3829605851619
 24
450.4994867203494
 34
0.0000000000000000
100
AcDbRotatedDimension
1001
ACAD
1000
DSTYLE
1002
{
1070
   173
1070
     1
1070
     6
1000
_OPEN
1070
     7
1000
_OPEN
1070
    41
1040
6.000000
1002
}
  0
DIMENSION
  5
1DC
100
AcDbEntity
  8
MAIN0
  6
CONTINUOUS
 62
1
100
AcDbDimension
  2
*D13
 10
509.3829605851619
 20
499.8060709620522
 30
0.0000000000000000
 11
546.3829605851619
 21
500.3060709620522
 31
0.0000000000000000
 70
32
  3
MAIN001
100
AcDbAlignedDimension
 13
583.3829605851619
 23
450.4994867203491
 33
0.0000000000000000
 14
509.3829605851619
 24
450.4994867203492
 34
0.0000000000000000
100
AcDbRotatedDimension
1001
ACAD
1000
DSTYLE
1002
{
1070
   173
1070
     1
1070
     6
1000
_OPEN
1070
     7
1000
_OPEN
1070
    41
1040
6.000000
1002
}
  0
LINE
  5
1DD
100
AcDbEntity
  8
MAIN0
  6
CONTINUOUS
 62
3
100
AcDbLine
 10
435.3829605851612
 20
706.9995159049895
 30
0.0000000000000000
 11
509.3829605851613
 21
706.9995159049895
 31
0.0000000000000000
  0
LINE
  5
1DE
100
AcDbEntity
  8
MAIN0
  6
CONTINUOUS
 62
3
100
AcDbLine
 10
435.3829605851613
 20
644.9995159049895
 30
0.0000000000000000
 11
509.3829605851614
 21
644.9995159049895
 31
0.0000000000000000
  0
LINE
  5
1DF
100
AcDbEntity
  8
MAIN0
  6
CONTINUOUS
 62
3
100
AcDbLine
 10
583.3829605851613
 20
743.4995159049895
 30
0.0000000000000000
 11
657.3829605851610
 21
743.4995159049895
 31
0.0000000000000000
  0
LINE
  5
1E0
100
AcDbEntity
  8
MAIN0
  6
CONTINUOUS
 62
3
100
AcDbLine
 10
657.3829605851611
 20
741.9995159049895
 30
0.0000000000000000
 11
703.0395886421936
 21
741.9995159049895
 31
0.0000000000000000
  0
LINE
  5
1E1
100
AcDbEntity
  8
MAIN0
  6
CONTINUOUS
 62
3
100
AcDbLine
 10
703.0395886421884
 20
740.4995159049895
 30
0.0000000000000000
 11
748.0456298601183
 21
740.4995159049895
 31
0.0000000000000000
  0
LINE
  5
1E2
100
AcDbEntity
  8
MAIN0
  6
CONTINUOUS
 62
3
100
AcDbLine
 10
583.3829605851613
 20
738.9995159049895
 30
0.0000000000000000
 11
356.3829605851612
 21
738.9995159049894
 31
0.0000000000000000
  0
LINE
  5
1E3
100
AcDbEntity
  8
MAIN0
  6
CONTINUOUS
 62
3
100
AcDbLine
 10
760.3829605851613
 20
738.9995159049895
 30
0.0000000000000000
 11
748.0456298601238
 21
738.9995159049895
 31
0.0000000000000000
  0
LINE
  5
1E4
100
AcDbEntity
  8
MAIN0
  6
CONTINUOUS
 62
3
100
AcDbLine
 10
356.3829605851615
 20
612.9995159049895
 30
0.0000000000000000
 11
583.3829605851615
 21
612.9995159049895
 31
0.0000000000000000
  0
LINE
  5
1E5
100
AcDbEntity
  8
MAIN0
  6
CONTINUOUS
 62
3
100
AcDbLine
 10
748.0456298605841
 20
612.9995159049895
 30
0.0000000000000000
 11
760.3829605851614
 21
612.9995159049895
 31
0.0000000000000000
  0
LINE
  5
1E6
100
AcDbEntity
  8
MAIN0
  6
CONTINUOUS
 62
3
100
AcDbLine
 10
583.3829605851613
 20
608.4995159049895
 30
0.0000000000000000
 11
657.3829605851614
 21
608.4995159049895
 31
0.0000000000000000
  0
LINE
  5
1E7
100
AcDbEntity
  8
MAIN0
  6
CONTINUOUS
 62
3
100
AcDbLine
 10
657.3829605851614
 20
609.9995159049895
 30
0.0000000000000000
 11
703.0395886421936
 21
609.9995159049895
 31
0.0000000000000000
  0
LINE
  5
1E8
100
AcDbEntity
  8
MAIN0
  6
CONTINUOUS
 62
3
100
AcDbLine
 10
703.0395886421884
 20
611.4995159049895
 30
0.0000000000000000
 11
748.0456298601183
 21
611.4995159049895
 31
0.0000000000000000
  0
LINE
  5
1E9
100
AcDbEntity
  8
MAIN0
  6
CONTINUOUS
 62
3
100
AcDbLine
 10
703.0395886411131
 20
422.1994867203494
 30
0.0000000000000000
 11
703.0395886410190
 21
395.1994867203494
 31
0.0000000000000000
  0
LINE
  5
1EA
100
AcDbEntity
  8
MAIN0
  6
CONTINUOUS
 62
3
100
AcDbLine
 10
703.0395886421936
 20
741.9995159049895
 30
0.0000000000000000
 11
703.0395886417340
 21
609.9995159049895
 31
0.0000000000000000
  0
LINE
  5
1EB
100
AcDbEntity
  8
MAIN0
  6
CONTINUOUS
 62
3
100
AcDbLine
 10
748.0456298612830
 20
412.1994867203494
 30
0.0000000000000000
 11
748.0456298613378
 21
397.1994867203494
 31
0.0000000000000000
  0
LINE
  5
1EC
100
AcDbEntity
  8
MAIN0
  6
CONTINUOUS
 62
3
100
AcDbLine
 10
748.0456298601183
 20
740.4995159049897
 30
0.0000000000000000
 11
748.0456298605895
 21
611.4995159049897
 31
0.0000000000000000
  0
LINE
  5
1ED
100
AcDbEntity
  8
MAIN0
  6
CENTER
 62
3
100
AcDbLine
 10
451.3829605838798
 20
686.7000263156007
 30
0.0000000000000000
 11
451.3829605838305
 21
663.9027686614196
 31
0.0000000000000000
  0
CIRCLE
  5
1EE
100
AcDbEntity
  8
MAIN0
  6
CONTINUOUS
 62
3
100
AcDbCircle
 10
451.3829605838566
 20
675.9995159049895
 30
0.0000000000000000
 40
3.000000000000000
  0
LINE
  5
1EF
100
AcDbEntity
  8
MAIN0
  6
CENTER
 62
3
100
AcDbLine
 10
512.2045778266581
 20
693.4995159062613
 30
0.0000000000000000
 11
538.3098252049742
 21
693.4995159061500
 31
0.0000000000000000
  0
LINE
  5
1F0
100
AcDbEntity
  8
MAIN0
  6
CENTER
 62
3
100
AcDbLine
 10
554.3122184853698
 20
693.4995159060818
 30
0.0000000000000000
 11
578.8679134174731
 21
693.4995159059771
 31
0.0000000000000000
  0
LINE
  5
1F1
100
AcDbEntity
  8
MAIN0
  6
CENTER
 62
3
100
AcDbLine
 10
512.2045778265160
 20
658.4995159061999
 30
0.0000000000000000
 11
538.3098252049790
 21
658.4995159060939
 31
0.0000000000000000
  0
LINE
  5
1F2
100
AcDbEntity
  8
MAIN0
  6
CENTER
 62
3
100
AcDbLine
 10
554.0541194968519
 20
658.4995159060300
 30
0.0000000000000000
 11
579.3988761654954
 21
658.4995159059270
 31
0.0000000000000000
  0
LINE
  5
1F3
100
AcDbEntity
  8
MAIN0
  6
CENTER
 62
3
100
AcDbLine
 10
359.0459735468212
 20
631.9995159046221
 30
0.0000000000000000
 11
387.3196228370979
 21
631.9995159047326
 31
0.0000000000000000
  0
LINE
  5
1F4
100
AcDbEntity
  8
MAIN0
  6
CENTER
 62
3
100
AcDbLine
 10
405.1287238059206
 20
631.9995159048024
 30
0.0000000000000000
 11
431.2580111291297
 21
631.9995159049046
 31
0.0000000000000000
  0
LINE
  5
1F5
100
AcDbEntity
  8
MAIN0
  6
CENTER
 62
3
100
AcDbLine
 10
361.7008277953802
 20
719.9995159054079
 30
0.0000000000000000
 11
387.0615189256766
 21
719.9995159054079
 31
0.0000000000000000
  0
LINE
  5
1F6
100
AcDbEntity
  8
MAIN0
  6
CENTER
 62
3
100
AcDbLine
 10
405.1287238059458
 20
719.9995159054079
 30
0.0000000000000000
 11
429.6650925037692
 21
719.9995159054079
 31
0.0000000000000000
  0
LINE
  5
1F7
100
AcDbEntity
  8
MAIN0
  6
CONTINUOUS
 62
3
100
AcDbLine
 10
83.17116049327848
 20
412.1994867203495
 30
0.0000000000000000
 11
87.22116049327838
 21
412.1994867203495
 31
0.0000000000000000
  0
LINE
  5
1F8
100
AcDbEntity
  8
MAIN0
  6
CONTINUOUS
 62
3
100
AcDbLine
 10
211.7211604932784
 20
412.1994867203495
 30
0.0000000000000000
 11
215.7711604932783
 21
412.1994867203495
 31
0.0000000000000000
  0
LINE
  5
1F9
100
AcDbEntity
  8
MAIN0
  6
CONTINUOUS
 62
3
100
AcDbLine
 10
180.4711604932784
 20
407.4994867203494
 30
0.0000000000000000
 11
180.4711604932784
 21
410.9994867203496
 31
0.0000000000000000
  0
LINE
  5
1FA
100
AcDbEntity
  8
MAIN0
  6
CONTINUOUS
 62
3
100
AcDbLine
 10
118.4711604932784
 20
407.4994867203494
 30
0.0000000000000000
 11
118.4711604932784
 21
410.9994867203496
 31
0.0000000000000000
  0
LINE
  5
1FB
100
AcDbEntity
  8
MAIN0
  6
CONTINUOUS
 62
3
100
AcDbLine
 10
721.3829605851618
 20
331.9994867194667
 30
0.0000000000000000
 11
760.3829605851620
 21
331.9994867195314
 31
0.0000000000000000
  0
LINE
  5
1FC
100
AcDbEntity
  8
MAIN0
  6
CONTINUOUS
 62
3
100
AcDbLine
 10
1196.263257168583
 20
392.4994867203495
 30
0.0000000000000000
 11
1196.263257168583
 21
354.2049920021763
 31
0.0000000000000000
  0
LINE
  5
1FD
100
AcDbEntity
  8
MAIN0
  6
CONTINUOUS
 62
3
100
AcDbLine
 10
1086.263257168583
 20
392.4994867203495
 30
0.0000000000000000
 11
1086.263257168583
 21
354.2049920021763
 31
0.0000000000000000
  0
ARC
  5
1FE
100
AcDbEntity
  8
MAIN0
  6
CONTINUOUS
 62
3
100
AcDbCircle
 10
1141.263257168583
 20
375.9994867198797
 30
0.0000000000000000
 40
60.00000000000000
100
AcDbArc
 50
312.8334280661621
 51
334.1580672368328
  0
ARC
  5
1FF
100
AcDbEntity
  8
MAIN0
  6
CONTINUOUS
 62
3
100
AcDbCircle
 10
1141.263257168583
 20
375.9994867198797
 30
0.0000000000000000
 40
60.00000000000000
100
AcDbArc
 50
205.8419327631671
 51
227.1665719340277
  0
ARC
  5
200
100
AcDbEntity
  8
MAIN0
  6
CONTINUOUS
 62
3
100
AcDbCircle
 10
1200.263257168583
 20
392.4994867203495
 30
0.0000000000000000
 40
4.000000000000000
100
AcDbArc
 50
90.00000000000000
 51
180.0000000000000
  0
ARC
  5
201
100
AcDbEntity
  8
MAIN0
  6
CONTINUOUS
 62
3
100
AcDbCircle
 10
1186.263257168583
 20
354.2049920021763
 30
0.0000000000000000
 40
10.00000000000000
100
AcDbArc
 50
334.1580672368328
 51
360.0000000000000
  0
ARC
  5
202
100
AcDbEntity
  8
MAIN0
  6
CONTINUOUS
 62
3
100
AcDbCircle
 10
1096.263257168583
 20
354.2049920021763
 30
0.0000000000000000
 40
10.00000000000000
100
AcDbArc
 50
180.0000000000000
 51
205.8419327631672
  0
ARC
  5
203
100
AcDbEntity
  8
MAIN0
  6
CONTINUOUS
 62
3
100
AcDbCircle
 10
1082.263257168583
 20
392.4994867203495
 30
0.0000000000000000
 40
4.000000000000000
100
AcDbArc
 50
0.0000000000000000
 51
90.00000000000000
  0
LINE
  5
204
100
AcDbEntity
  8
MAIN0
  6
CONTINUOUS
 62
3
100
AcDbLine
 10
721.3829605851620
 20
395.4994867203495
 30
0.0000000000000000
 11
760.3829605851619
 21
395.4994867203495
 31
0.0000000000000000
  0
LINE
  5
205
100
AcDbEntity
  8
MAIN0
  6
CONTINUOUS
 62
3
100
AcDbLine
 10
748.0456298613294
 20
403.9994867203495
 30
0.0000000000000000
 11
760.3829605851619
 21
403.9994867203495
 31
0.0000000000000000
  0
LINE
  5
206
100
AcDbEntity
  8
MAIN0
  6
CONTINUOUS
 62
3
100
AcDbLine
 10
1100.471101059334
 20
331.9994867203495
 30
0.0000000000000000
 11
1182.055413277832
 21
331.9994867203495
 31
0.0000000000000000
  0
LINE
  5
207
100
AcDbEntity
  8
MAIN0
  6
CONTINUOUS
 62
3
100
AcDbLine
 10
1197.263257168583
 20
331.9994867203495
 30
0.0000000000000000
 11
1204.263257168583
 21
331.9994867203495
 31
0.0000000000000000
  0
LINE
  5
208
100
AcDbEntity
  8
MAIN0
  6
CONTINUOUS
 62
3
100
AcDbLine
 10
721.3829605851620
 20
352.5861904648983
 30
0.0000000000000000
 11
760.3829605851620
 21
352.5861904648066
 31
0.0000000000000000
  0
DIMENSION
  5
211
100
AcDbEntity
  8
MAIN0
  6
CONTINUOUS
 62
3
100
AcDbDimension
  2
*D14
 10
832.3492154751619
 20
310.9994867203496
 30
0.0000000000000000
 11
831.8492154751619
 21
343.4994867199922
 31
0.0000000000000000
 70
32
  3
MAIN001
100
AcDbAlignedDimension
 13
822.7283149836137
 23
375.9994867196348
 33
0.0000000000000000
 14
721.3829605851621
 24
310.9994867203495
 34
0.0000000000000000
 50
90.00000000000000
100
AcDbRotatedDimension
1001
ACAD
1000
DSTYLE
1002
{
1070
   173
1070
     1
1070
     6
1000
_OPEN
1070
     7
1000
_OPEN
1070
    41
1040
6.000000
1002
}
  0
LINE
  5
212
100
AcDbEntity
  8
MAIN0
  6
CENTER
 62
3
100
AcDbLine
 10
646.3829605838705
 20
391.0421537897245
 30
0.0000000000000000
 11
646.3829605839143
 21
377.0721059027603
 31
0.0000000000000000
  0
LINE
  5
213
100
AcDbEntity
  8
MAIN0
  6
CENTER
 62
3
100
AcDbLine
 10
431.3829605842282
 20
391.8328986959818
 30
0.0000000000000000
 11
431.3829605842632
 21
376.2813509415252
 31
0.0000000000000000
  0
LINE
  5
214
100
AcDbEntity
  8
MAIN0
  6
CENTER
 62
3
100
AcDbLine
 10
422.9188829659913
 20
383.9994867195317
 30
0.0000000000000000
 11
438.9976065600297
 21
383.9994867195724
 31
0.0000000000000000
  0
LINE
  5
215
100
AcDbEntity
  8
MAIN0
  6
PHANTOM
 62
3
100
AcDbLine
 10
638.2683721121105
 20
383.9994867200769
 30
0.0000000000000000
 11
653.8199098115715
 21
383.9994867201163
 31
0.0000000000000000
  0
DIMENSION
  5
21D
100
AcDbEntity
  8
MAIN0
  6
CONTINUOUS
 62
3
100
AcDbDimension
  2
*D15
 10
356.3829605851622
 20
352.5055256254566
 30
0.0000000000000000
 11
393.8829605847127
 21
353.0055256254566
 31
0.0000000000000000
 70
32
  3
MAIN001
100
AcDbAlignedDimension
 13
431.3829605842633
 23
376.2813509415252
 33
0.0000000000000000
 14
356.3829605851622
 24
310.9994867203496
 34
0.0000000000000000
100
AcDbRotatedDimension
1001
ACAD
1000
DSTYLE
1002
{
1070
   173
1070
     1
1070
     6
1000
_OPEN
1070
     7
1000
_OPEN
1070
    41
1040
6.000000
1002
}
  0
DIMENSION
  5
226
100
AcDbEntity
  8
MAIN0
  6
CONTINUOUS
 62
3
100
AcDbDimension
  2
*D16
 10
431.3829605842633
 20
352.5055256254566
 30
0.0000000000000000
 11
538.8829605840888
 21
353.0055256254566
 31
0.0000000000000000
 70
32
  3
MAIN001
100
AcDbAlignedDimension
 13
646.3829605839143
 23
377.0721059027603
 33
0.0000000000000000
 14
431.3829605842633
 24
376.2813509415252
 34
0.0000000000000000
100
AcDbRotatedDimension
1001
ACAD
1000
DSTYLE
1002
{
1070
   173
1070
     1
1070
     6
1000
_OPEN
1070
     7
1000
_OPEN
1070
    41
1040
6.000000
1002
}
  0
MTEXT
  5
227
100
AcDbEntity
  8
MAIN0
  6
CONTINUOUS
 62
3
100
AcDbMText
 10
694.2020169287496
 20
484.8437460198621
 30
0.0000000000000000
 40
9.299999713897705
 41
0.0000000000000000
 71
     1
 72
     1
  1
{\H0.93x;{２x２ーＭ１０}}
 11
1.000000000000000
 21
0.0000000000000000
 31
0.0000000000000000
  7
KNJYOKO
  0
LEADER
  5
228
100
AcDbEntity
  8
MAIN0
  6
CONTINUOUS
 62
3
100
AcDbLeader
  3
MAIN001
 73
     3
 74
     0
 75
     0
 76
     3
 10
648.6558561010178
 20
388.4530185742833
 30
0.0000000000000000
 10
691.9581358190278
 20
473.2998937283762
 30
0.0000000000000000
 10
755.5341205327821
 20
473.2998937283762
 30
0.0000000000000000
1001
ACAD
1000
DSTYLE
1002
{
1070
   173
1070
     1
1070
     6
1000
_OPEN
1070
     7
1000
_OPEN
1002
}
  0
LINE
  5
229
100
AcDbEntity
  8
MAIN0
  6
CONTINUOUS
 62
3
100
AcDbLine
 10
1197.263257179544
 20
410.9994867203498
 30
0.0000000000000000
 11
1204.263257168583
 21
403.9994867311334
 31
0.0000000000000000
  0
LINE
  5
22A
100
AcDbEntity
  8
MAIN0
  6
CONTINUOUS
 62
3
100
AcDbLine
 10
1198.263257161458
 20
410.9994867203495
 30
0.0000000000000000
 11
1204.563257168583
 21
404.6994867133448
 31
0.0000000000000000
  0
LINE
  5
22B
100
AcDbEntity
  8
MAIN0
  6
CONTINUOUS
 62
3
100
AcDbLine
 10
1084.263257175709
 20
410.9994867203496
 30
0.0000000000000000
 11
1077.963257168583
 21
404.6994867133449
 31
0.0000000000000000
  0
LINE
  5
22C
100
AcDbEntity
  8
MAIN0
  6
CONTINUOUS
 62
3
100
AcDbLine
 10
1085.263257157622
 20
410.9994867203495
 30
0.0000000000000000
 11
1078.263257168583
 21
403.9994867311332
 31
0.0000000000000000
  0
ARC
  5
22D
100
AcDbEntity
  8
MAIN0
  6
CONTINUOUS
 62
3
100
AcDbCircle
 10
1141.263257168583
 20
375.9994867198797
 30
0.0000000000000000
 40
39.00000000000000
100
AcDbArc
 50
117.7957724961231
 51
235.1361620457912
  0
ARC
  5
22E
100
AcDbEntity
  8
MAIN0
  6
CONTINUOUS
 62
3
100
AcDbCircle
 10
1141.263257168583
 20
375.9994867198797
 30
0.0000000000000000
 40
39.00000000000000
100
AcDbArc
 50
304.8638379543986
 51
422.2042275040665
  0
LINE
  5
22F
100
AcDbEntity
  8
MAIN0
  6
CONTINUOUS
 62
3
100
AcDbLine
 10
760.3829605851620
 20
343.9994867194734
 30
0.0000000000000000
 11
785.3829605851622
 21
343.9994867195148
 31
0.0000000000000000
  0
LINE
  5
230
100
AcDbEntity
  8
MAIN0
  6
CONTINUOUS
 62
3
100
AcDbLine
 10
1118.969760359028
 20
343.9994867198427
 30
0.0000000000000000
 11
1163.556753978244
 21
343.9994867199166
 31
0.0000000000000000
  0
DIMENSION
  5
23B
100
AcDbEntity
  8
MAIN0
  6
CONTINUOUS
 62
3
100
AcDbDimension
  2
*D17
 10
1134.263257168583
 20
469.7245655376690
 30
0.0000000000000000
 11
1141.263257168583
 21
470.2245655376690
 31
0.0000000000000000
 70
32
  3
MAIN001
100
AcDbAlignedDimension
 13
1148.263257168583
 23
380.0409386046910
 33
0.0000000000000000
 14
1134.263257168583
 24
380.0409386046701
 34
0.0000000000000000
100
AcDbRotatedDimension
1001
ACAD
1000
DSTYLE
1002
{
1070
   173
1070
     1
1070
     6
1000
_OPEN
1070
     7
1000
_OPEN
1070
    41
1040
6.000000
1070
   287
1070
     0
1002
}
  0
LINE
  5
23C
100
AcDbEntity
  8
MAIN0
  6
CONTINUOUS
 62
3
100
AcDbLine
 10
1084.263257168583
 20
340.9994867203495
 30
0.0000000000000000
 11
1007.263257168583
 21
340.9994867203495
 31
0.0000000000000000
  0
LINE
  5
23D
100
AcDbEntity
  8
MAIN0
  6
CONTINUOUS
 62
3
100
AcDbLine
 10
1078.263257168583
 20
320.9994867203495
 30
0.0000000000000000
 11
1030.761124753112
 21
320.9994867203495
 31
0.0000000000000000
  0
LINE
  5
23E
100
AcDbEntity
  8
MAIN0
  6
CONTINUOUS
 62
3
100
AcDbLine
 10
1007.263257168583
 20
340.9994867203495
 30
0.0000000000000000
 11
1008.963257168583
 21
310.9994867203496
 31
0.0000000000000000
  0
LINE
  5
23F
100
AcDbEntity
  8
MAIN0
  6
CONTINUOUS
 62
3
100
AcDbLine
 10
1023.963257158945
 20
310.9994867203491
 30
0.0000000000000000
 11
1024.852278235043
 21
316.0413757863721
 31
0.0000000000000000
  0
ARC
  5
240
100
AcDbEntity
  8
MAIN0
  6
CONTINUOUS
 62
3
100
AcDbCircle
 10
1030.761124753112
 20
314.9994867203496
 30
0.0000000000000000
 40
6.000000000000000
100
AcDbArc
 50
90.00000000000000
 51
169.9999999997949
  0
LINE
  5
241
100
AcDbEntity
  8
MAIN0
  6
CONTINUOUS
 62
3
100
AcDbLine
 10
1023.963257158945
 20
310.9994867203495
 30
0.0000000000000000
 11
1008.963257168583
 21
310.9994867203495
 31
0.0000000000000000
  0
LINE
  5
242
100
AcDbEntity
  8
MAIN0
  6
CONTINUOUS
 62
3
100
AcDbLine
 10
1133.111413752214
 20
310.9994867203495
 30
0.0000000000000000
 11
1078.263257168583
 21
310.9994867203495
 31
0.0000000000000000
  0
LINE
  5
243
100
AcDbEntity
  8
MAIN0
  6
CENTER
 62
3
100
AcDbLine
 10
1055.263257168583
 20
183.9379363742918
 30
0.0000000000000000
 11
1055.263257168584
 21
366.9497482538702
 31
0.0000000000000000
  0
LINE
  5
244
100
AcDbEntity
  8
MAIN0
  6
CONTINUOUS
 62
3
100
AcDbLine
 10
1072.763257168583
 20
345.9994867203495
 30
0.0000000000000000
 11
1037.763257168583
 21
345.9994867203495
 31
0.0000000000000000
  0
LINE
  5
245
100
AcDbEntity
  8
MAIN0
  6
CONTINUOUS
 62
3
100
AcDbLine
 10
1072.763257168583
 20
340.9994867203495
 30
0.0000000000000000
 11
1072.763257168583
 21
345.9994867203495
 31
0.0000000000000000
  0
LINE
  5
246
100
AcDbEntity
  8
MAIN0
  6
CONTINUOUS
 62
3
100
AcDbLine
 10
1037.763257168583
 20
340.9994867203495
 30
0.0000000000000000
 11
1037.763257168583
 21
345.9994867203495
 31
0.0000000000000000
  0
DIMENSION
  5
250
100
AcDbEntity
  8
MAIN0
  6
CONTINUOUS
 62
1
100
AcDbDimension
  2
*D18
 10
1078.263257168583
 20
265.7060217548795
 30
0.0000000000000000
 11
1099.901793550441
 21
267.2060217548795
 31
0.0000000000000000
 70
160
  1
\A1;15～31
  3
MAIN001
100
AcDbAlignedDimension
 13
1055.263257168583
 23
183.9379363742952
 33
0.0000000000000000
 14
1078.263257168583
 24
310.9994867203496
 34
0.0000000000000000
100
AcDbRotatedDimension
1001
ACAD
1000
DSTYLE
1002
{
1070
   173
1070
     1
1070
     6
1000
_OPEN
1070
     7
1000
_OPEN
1070
    41
1040
6.000000
1070
   287
1070
     0
1070
   340
1005
251
1002
}
  0
LINE
  5
252
100
AcDbEntity
  8
MAIN0
  6
CENTER
 62
3
100
AcDbLine
 10
844.3894078387959
 20
375.9994742116870
 30
0.0000000000000000
 11
851.6935584895005
 21
375.9994742116823
 31
0.0000000000000000
  0
LINE
  5
253
100
AcDbEntity
  8
MAIN0
  6
CENTER
 62
3
100
AcDbLine
 10
866.1935584895002
 20
375.9994742116730
 30
0.0000000000000000
 11
902.4569303785629
 21
375.9994742116497
 31
0.0000000000000000
  0
LINE
  5
254
100
AcDbEntity
  8
MAIN0
  6
CENTER
 62
3
100
AcDbLine
 10
388.1482951994337
 20
440.9994867203496
 30
0.0000000000000000
 11
404.0645036342642
 21
440.9994867203496
 31
0.0000000000000000
  0
LINE
  5
255
100
AcDbEntity
  8
MAIN0
  6
CENTER
 62
3
100
AcDbLine
 10
389.2652212662059
 20
420.9994867203496
 30
0.0000000000000000
 11
404.3437418083616
 21
420.9994867203496
 31
0.0000000000000000
  0
LINE
  5
256
100
AcDbEntity
  8
MAIN0
  6
CENTER
 62
3
100
AcDbLine
 10
396.3829605851620
 20
448.3315272392831
 30
0.0000000000000000
 11
396.3829605851622
 21
413.9860147360571
 31
0.0000000000000000
  0
DIMENSION
  5
25F
100
AcDbEntity
  8
MAIN0
  6
CONTINUOUS
 62
3
100
AcDbDimension
  2
*D19
 10
435.3829605851619
 20
477.9116944315286
 30
0.0000000000000000
 11
415.8829605851620
 21
478.4116944315286
 31
0.0000000000000000
 70
32
  3
MAIN001
100
AcDbAlignedDimension
 13
396.3829605851620
 23
448.3315272392831
 33
0.0000000000000000
 14
435.3829605851619
 24
450.4994867203494
 34
0.0000000000000000
100
AcDbRotatedDimension
1001
ACAD
1000
DSTYLE
1002
{
1070
   173
1070
     1
1070
     6
1000
_OPEN
1070
     7
1000
_OPEN
1070
    41
1040
6.000000
1002
}
  0
DIMENSION
  5
269
100
AcDbEntity
  8
MAIN0
  6
CONTINUOUS
 62
3
100
AcDbDimension
  2
*D20
 10
464.8615517473168
 20
450.4994867203495
 30
0.0000000000000000
 11
463.3615517473168
 21
466.7139139304924
 31
0.0000000000000000
 70
160
  3
MAIN001
100
AcDbAlignedDimension
 13
404.0645036342642
 23
440.9994867203496
 33
0.0000000000000000
 14
435.3829605851619
 24
450.4994867203495
 34
0.0000000000000000
 50
90.00000000000000
100
AcDbRotatedDimension
1001
ACAD
1000
DSTYLE
1002
{
1070
   173
1070
     1
1070
     6
1000
_DOT
1070
     7
1000
_OPEN
1070
    41
1040
6.000000
1070
   287
1070
     0
1002
}
  0
DIMENSION
  5
273
100
AcDbEntity
  8
MAIN0
  6
CONTINUOUS
 62
3
100
AcDbDimension
  2
*D21
 10
464.8615517473168
 20
440.9994867203496
 30
0.0000000000000000
 11
464.3615517473168
 21
430.9994867203496
 31
0.0000000000000000
 70
32
  3
MAIN001
100
AcDbAlignedDimension
 13
404.3437418083616
 23
420.9994867203496
 33
0.0000000000000000
 14
404.0645036342642
 24
440.9994867203496
 34
0.0000000000000000
 50
90.00000000000000
100
AcDbRotatedDimension
1001
ACAD
1000
DSTYLE
1002
{
1070
   173
1070
     1
1070
     6
1000
_OPEN
1070
     7
1000
_DOT
1070
    41
1040
6.000000
1070
   287
1070
     0
1002
}
  0
LINE
  5
274
100
AcDbEntity
  8
MAIN0
  6
CONTINUOUS
 62
3
100
AcDbLine
 10
1123.076723689053
 20
410.4994867198495
 30
0.0000000000000000
 11
1141.263257168583
 21
410.4994867198797
 31
0.0000000000000000
  0
LINE
  5
275
100
AcDbEntity
  8
MAIN0
  6
CONTINUOUS
 62
3
100
AcDbLine
 10
1141.263257168583
 20
410.4994867198796
 30
0.0000000000000000
 11
1154.632999125647
 21
410.4994867199018
 31
0.0000000000000000
  0
LINE
  5
276
100
AcDbEntity
  8
MAIN0
  6
CONTINUOUS
 62
3
100
AcDbLine
 10
1154.632999125647
 20
410.4994867199017
 30
0.0000000000000000
 11
1159.449790647999
 21
410.4994867199097
 31
0.0000000000000000
  0
LINE
  5
277
100
AcDbEntity
  8
MAIN0
  6
CONTINUOUS
 62
3
100
AcDbLine
 10
778.3829605851613
 20
693.9995159049895
 30
0.0000000000000000
 11
785.3829605851613
 21
693.9995159049895
 31
0.0000000000000000
  0
LINE
  5
278
100
AcDbEntity
  8
MAIN0
  6
CONTINUOUS
 62
3
100
AcDbLine
 10
760.3829605851613
 20
688.9995159049895
 30
0.0000000000000000
 11
776.3829605846036
 21
688.9995159049895
 31
0.0000000000000000
  0
LINE
  5
279
100
AcDbEntity
  8
MAIN0
  6
CONTINUOUS
 62
3
100
AcDbLine
 10
778.3829605851613
 20
693.9995159049895
 30
0.0000000000000000
 11
776.3829605846036
 21
688.9995159049895
 31
0.0000000000000000
  0
LINE
  5
27A
100
AcDbEntity
  8
MAIN0
  6
CONTINUOUS
 62
3
100
AcDbLine
 10
778.3829605851613
 20
657.9995159049895
 30
0.0000000000000000
 11
776.3829605846036
 21
662.9995159049895
 31
0.0000000000000000
  0
LINE
  5
27B
100
AcDbEntity
  8
MAIN0
  6
CONTINUOUS
 62
3
100
AcDbLine
 10
778.3829605851613
 20
657.9995159049895
 30
0.0000000000000000
 11
785.3829605851613
 21
657.9995159049895
 31
0.0000000000000000
  0
LINE
  5
27C
100
AcDbEntity
  8
MAIN0
  6
CONTINUOUS
 62
3
100
AcDbLine
 10
760.3829605851613
 20
662.9995159049895
 30
0.0000000000000000
 11
776.3829605846036
 21
662.9995159049895
 31
0.0000000000000000
  0
LINE
  5
27D
100
AcDbEntity
  8
MAIN0
  6
CONTINUOUS
 62
3
100
AcDbLine
 10
778.3829605851614
 20
636.9995159049897
 30
0.0000000000000000
 11
778.3829605851614
 21
657.9995159049895
 31
0.0000000000000000
  0
LINE
  5
27E
100
AcDbEntity
  8
MAIN0
  6
CONTINUOUS
 62
3
100
AcDbLine
 10
778.3829605851613
 20
693.9995159049895
 30
0.0000000000000000
 11
778.3829605851613
 21
714.9995159049895
 31
0.0000000000000000
  0
LINE
  5
27F
100
AcDbEntity
  8
MAIN0
  6
CONTINUOUS
 62
3
100
AcDbLine
 10
776.3829605844662
 20
662.9995159049895
 30
0.0000000000000000
 11
776.3829605843393
 21
638.9995159049895
 31
0.0000000000000000
  0
LINE
  5
280
100
AcDbEntity
  8
MAIN0
  6
CONTINUOUS
 62
3
100
AcDbLine
 10
776.3829605847304
 20
712.9995159049897
 30
0.0000000000000000
 11
776.3829605846036
 21
688.9995159049895
 31
0.0000000000000000
  0
DIMENSION
  5
289
100
AcDbEntity
  8
MAIN0
  6
CONTINUOUS
 62
3
100
AcDbDimension
  2
*D22
 10
991.6430214578345
 20
310.9994867203495
 30
0.0000000000000000
 11
991.1430214578345
 21
325.9994867203495
 31
0.0000000000000000
 70
32
  3
MAIN001
100
AcDbAlignedDimension
 13
1007.263257168583
 23
340.9994867203495
 33
0.0000000000000000
 14
1008.963257168583
 24
310.9994867203495
 34
0.0000000000000000
 50
90.00000000000000
100
AcDbRotatedDimension
1001
ACAD
1000
DSTYLE
1002
{
1070
   173
1070
     1
1070
     6
1000
_OPEN
1070
     7
1000
_OPEN
1070
    41
1040
6.000000
1002
}
  0
DIMENSION
  5
294
100
AcDbEntity
  8
MAIN0
  6
CONTINUOUS
 62
3
100
AcDbDimension
  2
*D23
 10
991.6430214578345
 20
340.9994867203495
 30
0.0000000000000000
 11
990.1430214578345
 21
357.4917552432210
 31
0.0000000000000000
 70
160
  3
MAIN001
100
AcDbAlignedDimension
 13
1037.763257168583
 23
345.9994867203495
 33
0.0000000000000000
 14
1007.263257168583
 24
340.9994867203495
 34
0.0000000000000000
 50
90.00000000000000
100
AcDbRotatedDimension
1001
ACAD
1000
DSTYLE
1002
{
1070
   173
1070
     1
1070
     6
1000
_OPEN
1070
     7
1000
_OPEN
1070
    41
1040
6.000000
1070
   287
1070
     0
1002
}
  0
DIMENSION
  5
29E
100
AcDbEntity
  8
MAIN0
  6
CONTINUOUS
 62
3
100
AcDbDimension
  2
*D24
 10
555.4568095294767
 20
432.1994867203495
 30
0.0000000000000000
 11
554.9568095294767
 21
421.5994867203495
 31
0.0000000000000000
 70
32
  3
MAIN001
100
AcDbAlignedDimension
 13
583.3829605851620
 23
410.9994867203495
 33
0.0000000000000000
 14
583.3829605851620
 24
432.1994867203495
 34
0.0000000000000000
 50
90.00000000000000
100
AcDbRotatedDimension
1001
ACAD
1000
DSTYLE
1002
{
1070
   173
1070
     1
1070
     6
1000
_OPEN
1070
     7
1000
_OPEN
1070
    41
1040
6.000000
1070
   287
1070
     0
1002
}
  0
DIMENSION
  5
2A7
100
AcDbEntity
  8
MAIN0
  6
CONTINUOUS
 62
3
100
AcDbDimension
  2
*D25
 10
1073.763257168583
 20
502.3892485673486
 30
0.0000000000000000
 11
1141.263257168583
 21
502.8892485673486
 31
0.0000000000000000
 70
32
  3
MAIN001
100
AcDbAlignedDimension
 13
1208.763257168583
 23
430.9994867203495
 33
0.0000000000000000
 14
1073.763257168583
 24
430.9994867203494
 34
0.0000000000000000
100
AcDbRotatedDimension
1001
ACAD
1000
DSTYLE
1002
{
1070
   173
1070
     1
1070
     6
1000
_OPEN
1070
     7
1000
_OPEN
1070
    41
1040
6.000000
1002
}
  0
LINE
  5
2A8
100
AcDbEntity
  8
MAIN0
  6
CENTER
 62
3
100
AcDbLine
 10
546.3829605851614
 20
684.4281974039884
 30
0.0000000000000000
 11
546.3829605851614
 21
668.3019973832354
 31
0.0000000000000000
  0
CIRCLE
  5
2A9
100
AcDbEntity
  8
MAIN0
  6
CONTINUOUS
 62
3
100
AcDbCircle
 10
546.3829605851614
 20
675.9995159049895
 30
0.0000000000000000
 40
5.000000000000000
  0
CIRCLE
  5
2AA
100
AcDbEntity
  8
MAIN0
  6
CONTINUOUS
 62
3
100
AcDbCircle
 10
546.3829605851614
 20
675.9995159049895
 30
0.0000000000000000
 40
4.250000000000000
  0
CIRCLE
  5
2AB
100
AcDbEntity
  8
MAIN0
  6
CONTINUOUS
 62
3
100
AcDbCircle
 10
396.3829605851614
 20
675.9995159049895
 30
0.0000000000000000
 40
5.000000000000000
  0
CIRCLE
  5
2AC
100
AcDbEntity
  8
MAIN0
  6
CONTINUOUS
 62
3
100
AcDbCircle
 10
396.3829605851614
 20
675.9995159049895
 30
0.0000000000000000
 40
4.250000000000000
  0
LINE
  5
2AD
100
AcDbEntity
  8
MAIN0
  6
CENTER
 62
3
100
AcDbLine
 10
396.3829605851615
 20
683.4333363867854
 30
0.0000000000000000
 11
396.3829605851614
 21
666.2912500831033
 31
0.0000000000000000
  0
DIMENSION
  5
2B6
100
AcDbEntity
  8
MAIN0
  6
CONTINUOUS
 62
3
100
AcDbDimension
  2
*D26
 10
509.3829605851615
 20
560.0149240781691
 30
0.0000000000000000
 11
527.8829605851615
 21
560.5149240781691
 31
0.0000000000000000
 70
32
  3
MAIN001
100
AcDbAlignedDimension
 13
546.3829605851614
 23
668.3019973832354
 33
0.0000000000000000
 14
509.3829605851616
 24
613.7495159049892
 34
0.0000000000000000
100
AcDbRotatedDimension
1001
ACAD
1000
DSTYLE
1002
{
1070
   173
1070
     1
1070
     6
1000
_OPEN
1070
     7
1000
_OPEN
1070
    41
1040
6.000000
1002
}
  0
LINE
  5
2B7
100
AcDbEntity
  8
MAIN0
  6
CENTER
 62
3
100
AcDbLine
 10
425.3829605851612
 20
710.1068018525023
 30
0.0000000000000000
 11
425.3829605851613
 21
692.0355188337896
 31
0.0000000000000000
  0
LINE
  5
2B8
100
AcDbEntity
  8
MAIN0
  6
CENTER
 62
3
100
AcDbLine
 10
417.1482951994329
 20
700.9995159049895
 30
0.0000000000000000
 11
433.0645036342634
 21
700.9995159049895
 31
0.0000000000000000
  0
LINE
  5
2B9
100
AcDbEntity
  8
MAIN0
  6
CENTER
 62
3
100
AcDbLine
 10
519.3829605851614
 20
725.6681738634838
 30
0.0000000000000000
 11
519.3829605851615
 21
705.5890001570617
 31
0.0000000000000000
  0
LINE
  5
2BA
100
AcDbEntity
  8
MAIN0
  6
CENTER
 62
3
100
AcDbLine
 10
511.1482951994332
 20
715.9995159049895
 30
0.0000000000000000
 11
527.0645036342636
 21
715.9995159049895
 31
0.0000000000000000
  0
CIRCLE
  5
2BB
100
AcDbEntity
  8
MAIN0
  6
CONTINUOUS
 62
3
100
AcDbCircle
 10
418.8829605851613
 20
719.9995159049895
 30
0.0000000000000000
 40
10.00000000000000
  0
CIRCLE
  5
2BC
100
AcDbEntity
  8
MAIN0
  6
CONTINUOUS
 62
3
100
AcDbCircle
 10
525.3829605851614
 20
693.4995159049895
 30
0.0000000000000000
 40
10.00000000000000
  0
CIRCLE
  5
2BD
100
AcDbEntity
  8
MAIN0
  6
CONTINUOUS
 62
3
100
AcDbCircle
 10
567.3829605850835
 20
693.4995159048106
 30
0.0000000000000000
 40
10.00000000000000
  0
CIRCLE
  5
2BE
100
AcDbEntity
  8
MAIN0
  6
CONTINUOUS
 62
3
100
AcDbCircle
 10
567.3829605850029
 20
658.4995159047603
 30
0.0000000000000000
 40
10.00000000000000
  0
CIRCLE
  5
2BF
100
AcDbEntity
  8
MAIN0
  6
CONTINUOUS
 62
3
100
AcDbCircle
 10
525.3829605850856
 20
658.4995159049308
 30
0.0000000000000000
 40
10.00000000000000
  0
CIRCLE
  5
2C0
100
AcDbEntity
  8
MAIN0
  6
CONTINUOUS
 62
3
100
AcDbCircle
 10
418.8829605872969
 20
631.9995159036407
 30
0.0000000000000000
 40
10.00000000000000
  0
CIRCLE
  5
2C1
100
AcDbEntity
  8
MAIN0
  6
CONTINUOUS
 62
3
100
AcDbCircle
 10
373.8829605872287
 20
631.9995159034645
 30
0.0000000000000000
 40
10.00000000000000
  0
CIRCLE
  5
2C2
100
AcDbEntity
  8
MAIN0
  6
CONTINUOUS
 62
3
100
AcDbCircle
 10
373.8829605869963
 20
719.9995159041923
 30
0.0000000000000000
 40
10.00000000000000
  0
LINE
  5
2C3
100
AcDbEntity
  8
MAIN0
  6
CENTER
 62
3
100
AcDbLine
 10
569.3829605851614
 20
725.6681738634838
 30
0.0000000000000000
 11
569.3829605851615
 21
705.5890001570617
 31
0.0000000000000000
  0
LINE
  5
2C4
100
AcDbEntity
  8
MAIN0
  6
CENTER
 62
3
100
AcDbLine
 10
561.1482951994332
 20
715.9995159049895
 30
0.0000000000000000
 11
577.0645036342636
 21
715.9995159049895
 31
0.0000000000000000
  0
CIRCLE
  5
2C5
100
AcDbEntity
  8
MAIN0
  6
CONTINUOUS
 62
3
100
AcDbCircle
 10
569.3829605851615
 20
715.9995159049895
 30
0.0000000000000000
 40
5.000000000000000
  0
CIRCLE
  5
2C6
100
AcDbEntity
  8
MAIN0
  6
CONTINUOUS
 62
3
100
AcDbCircle
 10
569.3829605851615
 20
715.9995159049895
 30
0.0000000000000000
 40
4.188101000000000
  0
LINE
  5
2C7
100
AcDbEntity
  8
MAIN0
  6
CONTINUOUS
 62
3
100
AcDbLine
 10
569.3829605851614
 20
718.8862672509376
 30
0.0000000000000000
 11
566.8829605851614
 21
717.4428915779636
 31
0.0000000000000000
  0
LINE
  5
2C8
100
AcDbEntity
  8
MAIN0
  6
CONTINUOUS
 62
3
100
AcDbLine
 10
566.8829605851615
 20
717.4428915779636
 30
0.0000000000000000
 11
566.8829605851615
 21
714.5561402320154
 31
0.0000000000000000
  0
LINE
  5
2C9
100
AcDbEntity
  8
MAIN0
  6
CONTINUOUS
 62
3
100
AcDbLine
 10
566.8829605851614
 20
714.5561402320154
 30
0.0000000000000000
 11
569.3829605851614
 21
713.1127645590414
 31
0.0000000000000000
  0
LINE
  5
2CA
100
AcDbEntity
  8
MAIN0
  6
CONTINUOUS
 62
3
100
AcDbLine
 10
569.3829605851615
 20
713.1127645590414
 30
0.0000000000000000
 11
571.8829605851615
 21
714.5561402320154
 31
0.0000000000000000
  0
LINE
  5
2CB
100
AcDbEntity
  8
MAIN0
  6
CONTINUOUS
 62
3
100
AcDbLine
 10
571.8829605851615
 20
714.5561402320154
 30
0.0000000000000000
 11
571.8829605851615
 21
717.4428915779636
 31
0.0000000000000000
  0
LINE
  5
2CC
100
AcDbEntity
  8
MAIN0
  6
CONTINUOUS
 62
3
100
AcDbLine
 10
571.8829605851614
 20
717.4428915779636
 30
0.0000000000000000
 11
569.3829605851614
 21
718.8862672509376
 31
0.0000000000000000
  0
LINE
  5
2CD
100
AcDbEntity
  8
MAIN0
  6
CENTER
 62
3
100
AcDbLine
 10
370.3829605851612
 20
710.1068018525023
 30
0.0000000000000000
 11
370.3829605851613
 21
692.0355188337896
 31
0.0000000000000000
  0
LINE
  5
2CE
100
AcDbEntity
  8
MAIN0
  6
CENTER
 62
3
100
AcDbLine
 10
362.1482951994329
 20
700.9995159049895
 30
0.0000000000000000
 11
378.0645036342634
 21
700.9995159049895
 31
0.0000000000000000
  0
CIRCLE
  5
2CF
100
AcDbEntity
  8
MAIN0
  6
CONTINUOUS
 62
3
100
AcDbCircle
 10
370.3829605851612
 20
700.9995159049895
 30
0.0000000000000000
 40
5.000000000000000
  0
CIRCLE
  5
2D0
100
AcDbEntity
  8
MAIN0
  6
CONTINUOUS
 62
3
100
AcDbCircle
 10
370.3829605851612
 20
700.9995159049895
 30
0.0000000000000000
 40
4.188101000000000
  0
LINE
  5
2D1
100
AcDbEntity
  8
MAIN0
  6
CONTINUOUS
 62
3
100
AcDbLine
 10
370.3829605851612
 20
703.8862672509376
 30
0.0000000000000000
 11
367.8829605851613
 21
702.4428915779637
 31
0.0000000000000000
  0
LINE
  5
2D2
100
AcDbEntity
  8
MAIN0
  6
CONTINUOUS
 62
3
100
AcDbLine
 10
367.8829605851612
 20
702.4428915779636
 30
0.0000000000000000
 11
367.8829605851612
 21
699.5561402320154
 31
0.0000000000000000
  0
LINE
  5
2D3
100
AcDbEntity
  8
MAIN0
  6
CONTINUOUS
 62
3
100
AcDbLine
 10
367.8829605851613
 20
699.5561402320154
 30
0.0000000000000000
 11
370.3829605851612
 21
698.1127645590414
 31
0.0000000000000000
  0
LINE
  5
2D4
100
AcDbEntity
  8
MAIN0
  6
CONTINUOUS
 62
3
100
AcDbLine
 10
370.3829605851612
 20
698.1127645590414
 30
0.0000000000000000
 11
372.8829605851612
 21
699.5561402320154
 31
0.0000000000000000
  0
LINE
  5
2D5
100
AcDbEntity
  8
MAIN0
  6
CONTINUOUS
 62
3
100
AcDbLine
 10
372.8829605851612
 20
699.5561402320154
 30
0.0000000000000000
 11
372.8829605851612
 21
702.4428915779636
 31
0.0000000000000000
  0
LINE
  5
2D6
100
AcDbEntity
  8
MAIN0
  6
CONTINUOUS
 62
3
100
AcDbLine
 10
372.8829605851612
 20
702.4428915779636
 30
0.0000000000000000
 11
370.3829605851612
 21
703.8862672509376
 31
0.0000000000000000
  0
LINE
  5
2D7
100
AcDbEntity
  8
MAIN0
  6
CENTER
 62
3
100
AcDbLine
 10
519.3829605851614
 20
626.3308579464953
 30
0.0000000000000000
 11
519.3829605851615
 21
646.4100316529175
 31
0.0000000000000000
  0
LINE
  5
2D8
100
AcDbEntity
  8
MAIN0
  6
CENTER
 62
3
100
AcDbLine
 10
511.1482951994332
 20
635.9995159049895
 30
0.0000000000000000
 11
527.0645036342636
 21
635.9995159049895
 31
0.0000000000000000
  0
CIRCLE
  5
2D9
100
AcDbEntity
  8
MAIN0
  6
CONTINUOUS
 62
3
100
AcDbCircle
 10
519.3829605851615
 20
635.9995159049895
 30
0.0000000000000000
 40
5.000000000000000
  0
CIRCLE
  5
2DA
100
AcDbEntity
  8
MAIN0
  6
CONTINUOUS
 62
3
100
AcDbCircle
 10
519.3829605851615
 20
635.9995159049895
 30
0.0000000000000000
 40
4.188101000000000
  0
LINE
  5
2DB
100
AcDbEntity
  8
MAIN0
  6
CONTINUOUS
 62
3
100
AcDbLine
 10
519.3829605851615
 20
633.1127645590414
 30
0.0000000000000000
 11
516.8829605851615
 21
634.5561402320154
 31
0.0000000000000000
  0
LINE
  5
2DC
100
AcDbEntity
  8
MAIN0
  6
CONTINUOUS
 62
3
100
AcDbLine
 10
516.8829605851615
 20
634.5561402320154
 30
0.0000000000000000
 11
516.8829605851615
 21
637.4428915779636
 31
0.0000000000000000
  0
LINE
  5
2DD
100
AcDbEntity
  8
MAIN0
  6
CONTINUOUS
 62
3
100
AcDbLine
 10
516.8829605851614
 20
637.4428915779636
 30
0.0000000000000000
 11
519.3829605851614
 21
638.8862672509376
 31
0.0000000000000000
  0
LINE
  5
2DE
100
AcDbEntity
  8
MAIN0
  6
CONTINUOUS
 62
3
100
AcDbLine
 10
519.3829605851615
 20
638.8862672509376
 30
0.0000000000000000
 11
521.8829605851615
 21
637.4428915779636
 31
0.0000000000000000
  0
LINE
  5
2DF
100
AcDbEntity
  8
MAIN0
  6
CONTINUOUS
 62
3
100
AcDbLine
 10
521.8829605851615
 20
637.4428915779636
 30
0.0000000000000000
 11
521.8829605851615
 21
634.5561402320154
 31
0.0000000000000000
  0
LINE
  5
2E0
100
AcDbEntity
  8
MAIN0
  6
CONTINUOUS
 62
3
100
AcDbLine
 10
521.8829605851613
 20
634.5561402320154
 30
0.0000000000000000
 11
519.3829605851614
 21
633.1127645590414
 31
0.0000000000000000
  0
LINE
  5
2E1
100
AcDbEntity
  8
MAIN0
  6
CENTER
 62
3
100
AcDbLine
 10
569.3829605851614
 20
626.3308579464951
 30
0.0000000000000000
 11
569.3829605851615
 21
646.4100316529174
 31
0.0000000000000000
  0
LINE
  5
2E2
100
AcDbEntity
  8
MAIN0
  6
CENTER
 62
3
100
AcDbLine
 10
561.1482951994332
 20
635.9995159049895
 30
0.0000000000000000
 11
577.0645036342636
 21
635.9995159049895
 31
0.0000000000000000
  0
CIRCLE
  5
2E3
100
AcDbEntity
  8
MAIN0
  6
CONTINUOUS
 62
3
100
AcDbCircle
 10
569.3829605851615
 20
635.9995159049895
 30
0.0000000000000000
 40
5.000000000000000
  0
CIRCLE
  5
2E4
100
AcDbEntity
  8
MAIN0
  6
CONTINUOUS
 62
3
100
AcDbCircle
 10
569.3829605851615
 20
635.9995159049895
 30
0.0000000000000000
 40
4.188101000000000
  0
LINE
  5
2E5
100
AcDbEntity
  8
MAIN0
  6
CONTINUOUS
 62
3
100
AcDbLine
 10
569.3829605851615
 20
633.1127645590414
 30
0.0000000000000000
 11
566.8829605851614
 21
634.5561402320154
 31
0.0000000000000000
  0
LINE
  5
2E6
100
AcDbEntity
  8
MAIN0
  6
CONTINUOUS
 62
3
100
AcDbLine
 10
566.8829605851615
 20
634.5561402320154
 30
0.0000000000000000
 11
566.8829605851615
 21
637.4428915779636
 31
0.0000000000000000
  0
LINE
  5
2E7
100
AcDbEntity
  8
MAIN0
  6
CONTINUOUS
 62
3
100
AcDbLine
 10
566.8829605851614
 20
637.4428915779636
 30
0.0000000000000000
 11
569.3829605851614
 21
638.8862672509376
 31
0.0000000000000000
  0
LINE
  5
2E8
100
AcDbEntity
  8
MAIN0
  6
CONTINUOUS
 62
3
100
AcDbLine
 10
569.3829605851615
 20
638.8862672509376
 30
0.0000000000000000
 11
571.8829605851615
 21
637.4428915779636
 31
0.0000000000000000
  0
LINE
  5
2E9
100
AcDbEntity
  8
MAIN0
  6
CONTINUOUS
 62
3
100
AcDbLine
 10
571.8829605851615
 20
637.4428915779636
 30
0.0000000000000000
 11
571.8829605851615
 21
634.5561402320154
 31
0.0000000000000000
  0
LINE
  5
2EA
100
AcDbEntity
  8
MAIN0
  6
CONTINUOUS
 62
3
100
AcDbLine
 10
571.8829605851613
 20
634.5561402320154
 30
0.0000000000000000
 11
569.3829605851614
 21
633.1127645590414
 31
0.0000000000000000
  0
LINE
  5
2EB
100
AcDbEntity
  8
MAIN0
  6
CENTER
 62
3
100
AcDbLine
 10
425.3829605851612
 20
641.8922299574767
 30
0.0000000000000000
 11
425.3829605851613
 21
659.9635129761896
 31
0.0000000000000000
  0
LINE
  5
2EC
100
AcDbEntity
  8
MAIN0
  6
CENTER
 62
3
100
AcDbLine
 10
417.1482951994329
 20
650.9995159049895
 30
0.0000000000000000
 11
433.0645036342634
 21
650.9995159049895
 31
0.0000000000000000
  0
CIRCLE
  5
2ED
100
AcDbEntity
  8
MAIN0
  6
CONTINUOUS
 62
3
100
AcDbCircle
 10
425.3829605851612
 20
650.9995159049895
 30
0.0000000000000000
 40
5.000000000000000
  0
CIRCLE
  5
2EE
100
AcDbEntity
  8
MAIN0
  6
CONTINUOUS
 62
3
100
AcDbCircle
 10
425.3829605851612
 20
650.9995159049895
 30
0.0000000000000000
 40
4.188101000000000
  0
LINE
  5
2EF
100
AcDbEntity
  8
MAIN0
  6
CONTINUOUS
 62
3
100
AcDbLine
 10
425.3829605851612
 20
648.1127645590414
 30
0.0000000000000000
 11
422.8829605851613
 21
649.5561402320154
 31
0.0000000000000000
  0
LINE
  5
2F0
100
AcDbEntity
  8
MAIN0
  6
CONTINUOUS
 62
3
100
AcDbLine
 10
422.8829605851612
 20
649.5561402320154
 30
0.0000000000000000
 11
422.8829605851612
 21
652.4428915779636
 31
0.0000000000000000
  0
LINE
  5
2F1
100
AcDbEntity
  8
MAIN0
  6
CONTINUOUS
 62
3
100
AcDbLine
 10
422.8829605851612
 20
652.4428915779636
 30
0.0000000000000000
 11
425.3829605851612
 21
653.8862672509376
 31
0.0000000000000000
  0
LINE
  5
2F2
100
AcDbEntity
  8
MAIN0
  6
CONTINUOUS
 62
3
100
AcDbLine
 10
425.3829605851613
 20
653.8862672509376
 30
0.0000000000000000
 11
427.8829605851612
 21
652.4428915779636
 31
0.0000000000000000
  0
LINE
  5
2F3
100
AcDbEntity
  8
MAIN0
  6
CONTINUOUS
 62
3
100
AcDbLine
 10
427.8829605851612
 20
652.4428915779636
 30
0.0000000000000000
 11
427.8829605851612
 21
649.5561402320154
 31
0.0000000000000000
  0
LINE
  5
2F4
100
AcDbEntity
  8
MAIN0
  6
CONTINUOUS
 62
3
100
AcDbLine
 10
427.8829605851612
 20
649.5561402320154
 30
0.0000000000000000
 11
425.3829605851612
 21
648.1127645590414
 31
0.0000000000000000
  0
LINE
  5
2F5
100
AcDbEntity
  8
MAIN0
  6
CENTER
 62
3
100
AcDbLine
 10
370.3829605851612
 20
641.8922299574767
 30
0.0000000000000000
 11
370.3829605851613
 21
659.9635129761896
 31
0.0000000000000000
  0
LINE
  5
2F6
100
AcDbEntity
  8
MAIN0
  6
CENTER
 62
3
100
AcDbLine
 10
362.1482951994329
 20
650.9995159049895
 30
0.0000000000000000
 11
378.0645036342634
 21
650.9995159049895
 31
0.0000000000000000
  0
CIRCLE
  5
2F7
100
AcDbEntity
  8
MAIN0
  6
CONTINUOUS
 62
3
100
AcDbCircle
 10
370.3829605851612
 20
650.9995159049895
 30
0.0000000000000000
 40
5.000000000000000
  0
CIRCLE
  5
2F8
100
AcDbEntity
  8
MAIN0
  6
CONTINUOUS
 62
3
100
AcDbCircle
 10
370.3829605851612
 20
650.9995159049895
 30
0.0000000000000000
 40
4.188101000000000
  0
LINE
  5
2F9
100
AcDbEntity
  8
MAIN0
  6
CONTINUOUS
 62
3
100
AcDbLine
 10
370.3829605851612
 20
648.1127645590414
 30
0.0000000000000000
 11
367.8829605851613
 21
649.5561402320154
 31
0.0000000000000000
  0
LINE
  5
2FA
100
AcDbEntity
  8
MAIN0
  6
CONTINUOUS
 62
3
100
AcDbLine
 10
367.8829605851612
 20
649.5561402320154
 30
0.0000000000000000
 11
367.8829605851612
 21
652.4428915779636
 31
0.0000000000000000
  0
LINE
  5
2FB
100
AcDbEntity
  8
MAIN0
  6
CONTINUOUS
 62
3
100
AcDbLine
 10
367.8829605851612
 20
652.4428915779636
 30
0.0000000000000000
 11
370.3829605851612
 21
653.8862672509376
 31
0.0000000000000000
  0
LINE
  5
2FC
100
AcDbEntity
  8
MAIN0
  6
CONTINUOUS
 62
3
100
AcDbLine
 10
370.3829605851612
 20
653.8862672509376
 30
0.0000000000000000
 11
372.8829605851612
 21
652.4428915779636
 31
0.0000000000000000
  0
LINE
  5
2FD
100
AcDbEntity
  8
MAIN0
  6
CONTINUOUS
 62
3
100
AcDbLine
 10
372.8829605851612
 20
652.4428915779636
 30
0.0000000000000000
 11
372.8829605851612
 21
649.5561402320154
 31
0.0000000000000000
  0
LINE
  5
2FE
100
AcDbEntity
  8
MAIN0
  6
CONTINUOUS
 62
3
100
AcDbLine
 10
372.8829605851612
 20
649.5561402320154
 30
0.0000000000000000
 11
370.3829605851612
 21
648.1127645590414
 31
0.0000000000000000
  0
DIMENSION
  5
307
100
AcDbEntity
  8
MAIN0
  6
CONTINUOUS
 62
3
100
AcDbDimension
  2
*D27
 10
370.3829605851612
 20
589.1297392939476
 30
0.0000000000000000
 11
405.8936367466448
 21
590.6297392939476
 31
0.0000000000000000
 70
160
  3
MAIN001
100
AcDbAlignedDimension
 13
425.3829605851612
 23
641.8922299574767
 33
0.0000000000000000
 14
370.3829605851612
 24
641.8922299574767
 34
0.0000000000000000
100
AcDbRotatedDimension
1001
ACAD
1000
DSTYLE
1002
{
1070
   173
1070
     1
1070
     6
1000
_OPEN
1070
     7
1000
_OPEN
1070
    41
1040
6.000000
1002
}
  0
DIMENSION
  5
312
100
AcDbEntity
  8
MAIN0
  6
CONTINUOUS
 62
3
100
AcDbDimension
  2
*D28
 10
425.3829605851612
 20
589.1297392939476
 30
0.0000000000000000
 11
445.5500210171806
 21
590.6297392939476
 31
0.0000000000000000
 70
160
  3
MAIN001
100
AcDbAlignedDimension
 13
435.3829605851614
 23
613.7495159049893
 33
0.0000000000000000
 14
425.3829605851612
 24
641.8922299574767
 34
0.0000000000000000
100
AcDbRotatedDimension
1001
ACAD
1000
DSTYLE
1002
{
1070
   173
1070
     1
1070
     6
1000
_OPEN
1070
     7
1000
_OPEN
1070
    41
1040
6.000000
1070
   287
1070
     0
1002
}
  0
DIMENSION
  5
31D
100
AcDbEntity
  8
MAIN0
  6
CONTINUOUS
 62
3
100
AcDbDimension
  2
*D29
 10
509.3829605851616
 20
589.1297392939476
 30
0.0000000000000000
 11
500.2657950971518
 21
590.6297392939476
 31
0.0000000000000000
 70
160
  3
MAIN001
100
AcDbAlignedDimension
 13
519.3829605851614
 23
626.3308579464953
 33
0.0000000000000000
 14
509.3829605851616
 24
613.7495159049893
 34
0.0000000000000000
100
AcDbRotatedDimension
1001
ACAD
1000
DSTYLE
1002
{
1070
   173
1070
     1
1070
     6
1000
_OPEN
1070
     7
1000
_OPEN
1070
    41
1040
6.000000
1070
   287
1070
     0
1002
}
  0
DIMENSION
  5
326
100
AcDbEntity
  8
MAIN0
  6
CONTINUOUS
 62
3
100
AcDbDimension
  2
*D30
 10
519.3829605851614
 20
589.1297392939476
 30
0.0000000000000000
 11
538.4162518222867
 21
590.6297392939476
 31
0.0000000000000000
 70
160
  3
MAIN001
100
AcDbAlignedDimension
 13
569.3829605851614
 23
626.3308579464951
 33
0.0000000000000000
 14
519.3829605851614
 24
626.3308579464953
 34
0.0000000000000000
100
AcDbRotatedDimension
1001
ACAD
1000
DSTYLE
1002
{
1070
   173
1070
     1
1070
     6
1000
_OPEN
1070
     7
1000
_OPEN
1070
    41
1040
6.000000
1002
}
  0
DIMENSION
  5
32F
100
AcDbEntity
  8
MAIN0
  6
CONTINUOUS
 62
3
100
AcDbDimension
  2
*D31
 10
619.7369110510679
 20
635.9995159049895
 30
0.0000000000000000
 11
619.2369110510679
 21
675.9995159049895
 31
0.0000000000000000
 70
32
  3
MAIN001
100
AcDbAlignedDimension
 13
577.0645036342636
 23
715.9995159049895
 33
0.0000000000000000
 14
577.0645036342636
 24
635.9995159049895
 34
0.0000000000000000
 50
90.00000000000000
100
AcDbRotatedDimension
1001
ACAD
1000
DSTYLE
1002
{
1070
   173
1070
     1
1070
     6
1000
_OPEN
1070
     7
1000
_OPEN
1070
    41
1040
6.000000
1002
}
  0
DIMENSION
  5
338
100
AcDbEntity
  8
MAIN0
  6
CONTINUOUS
 62
3
100
AcDbDimension
  2
*D32
 10
319.5531745616393
 20
650.9995159049895
 30
0.0000000000000000
 11
319.0531745616393
 21
675.9995159049895
 31
0.0000000000000000
 70
32
  3
MAIN001
100
AcDbAlignedDimension
 13
362.1482951994329
 23
700.9995159049895
 33
0.0000000000000000
 14
362.1482951994329
 24
650.9995159049895
 34
0.0000000000000000
 50
90.00000000000000
100
AcDbRotatedDimension
1001
ACAD
1000
DSTYLE
1002
{
1070
   173
1070
     1
1070
     6
1000
_OPEN
1070
     7
1000
_OPEN
1070
    41
1040
6.000000
1002
}
  0
LINE
  5
339
100
AcDbEntity
  8
MAIN0
  6
CENTER
 62
3
100
AcDbLine
 10
348.5957644082454
 20
675.9995159049895
 30
0.0000000000000000
 11
604.4369113371702
 21
675.9995159049895
 31
0.0000000000000000
  0
LINE
  5
33A
100
AcDbEntity
  8
MAIN0
  6
CENTER
 62
3
100
AcDbLine
 10
622.7369110510679
 20
675.9995159049895
 30
0.0000000000000000
 11
818.1992080652549
 21
675.9995159049895
 31
0.0000000000000000
  0
LEADER
  5
33B
100
AcDbEntity
  8
MAIN0
  6
CONTINUOUS
 62
3
100
AcDbLeader
  3
MAIN001
 73
     0
 75
     1
 40
9.299999713897705
 41
113.7890028824806
 76
     3
 10
366.2015173713375
 20
648.2580687233777
 30
0.0000000000000000
 10
319.0542130549057
 20
594.2623038137795
 30
0.0000000000000000
 10
313.2752132222756
 20
594.2623038137795
 30
0.0000000000000000
340
33C
213
0.0000000000000000
223
-1.500000000000000
233
0.0000000000000000
1001
ACAD
1000
DSTYLE
1002
{
1070
   147
1040
0.0
1070
    77
1070
     1
1070
   173
1070
     1
1070
     6
1000
_OPEN
1070
     7
1000
_OPEN
1002
}
  0
MTEXT
  5
33C
102
{ACAD_REACTORS
330
33B
102
}
100
AcDbEntity
  8
MAIN0
  6
CONTINUOUS
 62
3
100
AcDbMText
 10
199.4862103397950
 20
605.0623035276772
 30
0.0000000000000000
 40
9.299999713897705
 41
0.0000000000000000
 71
     1
 72
     1
  1
{\H0.94x;{2×5-M10　深さ20\P　　　　　　　DEPTH}}
 11
1.000000000000000
 21
0.0000000000000000
 31
0.0000000000000000
  7
KNJYOKO
  0
LINE
  5
33D
100
AcDbEntity
  8
MAIN0
  6
PHANTOM
 62
3
100
AcDbLine
 10
996.4384165975328
 20
310.9994867203495
 30
0.0000000000000000
 11
1076.263257168583
 21
310.9994867203495
 31
0.0000000000000000
  0
MTEXT
  5
33E
100
AcDbEntity
  8
MAIN0
  6
CONTINUOUS
 62
3
100
AcDbMText
 10
829.2877114096280
 20
198.8164873994197
 30
0.0000000000000000
 40
9.299999713897705
 41
0.0000000000000000
 71
     1
 72
     1
  1
{\H0.94x;{(押さえ金具４セット付属)}}
 11
1.000000000000000
 21
0.0000000000000000
 31
0.0000000000000000
  7
KNJYOKO
  0
MTEXT
  5
33F
100
AcDbEntity
  8
MAIN0
  6
CONTINUOUS
 62
3
100
AcDbMText
 10
830.3876652445935
 20
182.5398237487032
 30
0.0000000000000000
 40
9.000000000000000
 41
0.0000000000000000
 71
     1
 72
     1
  1
{\H0.63x;{(CLAMPING PARTS  ACCESSARY 4 PAIR)}}
 11
1.000000000000000
 21
0.0000000000000000
 31
0.0000000000000000
  7
STANDARD
  0
LEADER
  5
340
100
AcDbEntity
  8
MAIN0
  6
CONTINUOUS
 62
3
100
AcDbLeader
  3
MAIN001
 73
     0
 75
     1
 40
9.000000000000000
 41
78.29899792575827
 76
     3
 10
1048.951030192314
 20
352.3003031991693
 30
0.0000000000000000
 10
941.8025975255996
 20
249.0778297713130
 30
0.0000000000000000
 10
936.7615975255995
 20
249.0778297713130
 30
0.0000000000000000
340
341
213
0.0000000000000000
223
-1.500000000000000
233
0.0000000000000000
1001
ACAD
1000
DSTYLE
1002
{
1070
   147
1040
0.0
1070
    77
1070
     1
1070
   173
1070
     1
1070
     6
1000
_DOT
1070
     7
1000
_DOT
1002
}
  0
MTEXT
  5
341
102
{ACAD_REACTORS
330
340
102
}
100
AcDbEntity
  8
MAIN0
  6
CONTINUOUS
 62
3
100
AcDbMText
 10
858.4625995998413
 20
259.5778297713130
 30
0.0000000000000000
 40
9.000000000000000
 41
0.0000000000000000
 71
     1
 72
     1
  1
{\H0.61x;{六角穴付ボルト\PM16×65\PHEX,SOCKET HEAD\PCAP SCREW}}
 11
1.000000000000000
 21
0.0000000000000000
 31
0.0000000000000000
  7
KNJYOKO
  0
LEADER
  5
342
100
AcDbEntity
  8
MAIN0
  6
CONTINUOUS
 62
3
100
AcDbLeader
  3
MAIN001
 73
     0
 75
     1
 40
9.299999713897705
 41
65.69900004023313
 76
     3
 10
393.8264336577046
 20
679.0759050329109
 30
0.0000000000000000
 10
326.1402109274920
 20
770.3697944993631
 30
0.0000000000000000
 10
320.7812110854741
 20
770.3697944993630
 30
0.0000000000000000
340
343
213
0.0000000000000000
223
-1.500000000000000
233
0.0000000000000000
1001
ACAD
1000
DSTYLE
1002
{
1070
   147
1040
0.0
1070
    77
1070
     1
1070
   173
1070
     1
1070
     6
1000
_OPEN
1070
     7
1000
_OPEN
1002
}
  0
MTEXT
  5
343
102
{ACAD_REACTORS
330
342
102
}
100
AcDbEntity
  8
MAIN0
  6
CONTINUOUS
 62
3
100
AcDbMText
 10
255.0822110452410
 20
781.1697942132607
 30
0.0000000000000000
 40
9.299999713897705
 41
0.0000000000000000
 71
     1
 72
     1
  1
{\H0.70x;{（吊りボルト用）\P（EYE BOLT）\P}
 11
1.000000000000000
 21
0.0000000000000000
 31
0.0000000000000000
  7
KNJYOKO
  0
LEADER
  5
344
100
AcDbEntity
  8
MAIN0
  6
CONTINUOUS
 62
3
100
AcDbLeader
  3
MAIN001
 73
     0
 75
     1
 40
9.299999713897705
 41
113.7890028824806
 76
     3
 10
392.7582605007486
 20
444.4435467224479
 30
0.0000000000000000
 10
350.5123191964283
 20
530.5144570096904
 30
0.0000000000000000
 10
344.7333193637981
 20
530.5144570096904
 30
0.0000000000000000
340
345
213
0.0000000000000000
223
-1.500000000000000
233
0.0000000000000000
1001
ACAD
1000
DSTYLE
1002
{
1070
   147
1040
0.0
1070
    77
1070
     1
1070
   173
1070
     1
1070
     6
1000
_OPEN
1070
     7
1000
_OPEN
1002
}
  0
MTEXT
  5
345
102
{ACAD_REACTORS
330
344
102
}
100
AcDbEntity
  8
MAIN0
  6
CONTINUOUS
 62
3
100
AcDbMText
 10
230.9443164813175
 20
541.3144567235881
 30
0.0000000000000000
 40
9.299999713897705
 41
0.0000000000000000
 71
     1
 72
     1
  1
{\H0.94x;{2×2-M10　深さ20\P　　　　　　　DEPTH}}
 11
1.000000000000000
 21
0.0000000000000000
 31
0.0000000000000000
  7
KNJYOKO
  0
DIMENSION
  5
350
100
AcDbEntity
  8
MAIN0
  6
CONTINUOUS
 62
3
100
AcDbDimension
  2
*D33
 10
851.6935584895015
 20
583.9231703170556
 30
0.0000000000000000
 11
859.1935584895018
 21
584.4231703170556
 31
0.0000000000000000
 70
32
  3
MAIN001
100
AcDbAlignedDimension
 13
866.6935584895020
 23
385.9994742105507
 33
0.0000000000000000
 14
851.6935584895015
 24
382.3994742105508
 34
0.0000000000000000
100
AcDbRotatedDimension
1001
ACAD
1000
DSTYLE
1002
{
1070
   173
1070
     1
1070
     6
1000
_OPEN
1070
     7
1000
_OPEN
1070
    41
1040
6.000000
1070
   287
1070
     0
1002
}
  0
DIMENSION
  5
359
100
AcDbEntity
  8
MAIN0
  6
CONTINUOUS
 62
3
100
AcDbDimension
  2
*D34
 10
866.6935584895020
 20
583.9231703170556
 30
0.0000000000000000
 11
881.6935584894925
 21
584.4231703170556
 31
0.0000000000000000
 70
32
  3
MAIN001
100
AcDbAlignedDimension
 13
896.6935584894829
 23
546.4994742105505
 33
0.0000000000000000
 14
866.6935584895020
 24
385.9994742105507
 34
0.0000000000000000
100
AcDbRotatedDimension
1001
ACAD
1000
DSTYLE
1002
{
1070
   173
1070
     1
1070
     6
1000
_OPEN
1070
     7
1000
_OPEN
1070
    41
1040
6.000000
1002
}
  0
DIMENSION
  5
362
100
AcDbEntity
  8
MAIN0
  6
CONTINUOUS
 62
3
100
AcDbDimension
  2
*D35
 10
896.6935584894829
 20
583.9231703170556
 30
0.0000000000000000
 11
932.6935584894800
 21
584.4231703170556
 31
0.0000000000000000
 70
32
  3
MAIN001
100
AcDbAlignedDimension
 13
968.6935584894773
 23
555.9994742105508
 33
0.0000000000000000
 14
896.6935584894829
 24
546.4994742105505
 34
0.0000000000000000
100
AcDbRotatedDimension
1001
ACAD
1000
DSTYLE
1002
{
1070
   173
1070
     1
1070
     6
1000
_OPEN
1070
     7
1000
_OPEN
1070
    41
1040
6.000000
1002
}
  0
DIMENSION
  5
36B
100
AcDbEntity
  8
MAIN0
  6
CONTINUOUS
 62
3
100
AcDbDimension
  2
*D36
 10
851.6935584895005
 20
608.1097135123739
 30
0.0000000000000000
 11
910.1935584894889
 21
608.6097135123739
 31
0.0000000000000000
 70
32
  3
MAIN001
100
AcDbAlignedDimension
 13
968.6935584894773
 23
555.9994742105508
 33
0.0000000000000000
 14
851.6935584895005
 24
375.9994742105506
 34
0.0000000000000000
100
AcDbRotatedDimension
1001
ACAD
1000
DSTYLE
1002
{
1070
   173
1070
     1
1070
     6
1000
_OPEN
1070
     7
1000
_OPEN
1070
    41
1040
6.000000
1002
}
  0
LINE
  5
36C
100
AcDbEntity
  8
MAIN0
  6
CENTER
 62
3
100
AcDbLine
 10
501.3829605851622
 20
322.2086650041673
 30
0.0000000000000000
 11
501.3829605851622
 21
295.1149398083406
 31
0.0000000000000000
  0
DIMENSION
  5
375
100
AcDbEntity
  8
MAIN0
  6
CONTINUOUS
 62
3
100
AcDbDimension
  2
*D37
 10
396.3829605851615
 20
560.0149240781691
 30
0.0000000000000000
 11
415.8829605851614
 21
560.5149240781691
 31
0.0000000000000000
 70
32
  3
MAIN001
100
AcDbAlignedDimension
 13
435.3829605851614
 23
613.7495159049893
 33
0.0000000000000000
 14
396.3829605851614
 24
666.2912500831033
 34
0.0000000000000000
100
AcDbRotatedDimension
1001
ACAD
1000
DSTYLE
1002
{
1070
   173
1070
     1
1070
     6
1000
_OPEN
1070
     7
1000
_OPEN
1070
    41
1040
6.000000
1002
}
  0
DIMENSION
  5
37E
100
AcDbEntity
  8
MAIN0
  6
CONTINUOUS
 62
3
100
AcDbDimension
  2
*D38
 10
356.3829605851622
 20
204.3150914873998
 30
0.0000000000000000
 11
428.8829605851622
 21
204.8150914873998
 31
0.0000000000000000
 70
32
  3
MAIN001
100
AcDbAlignedDimension
 13
501.3829605851622
 23
295.1149398083406
 33
0.0000000000000000
 14
356.3829605851622
 24
310.9994867203496
 34
0.0000000000000000
100
AcDbRotatedDimension
1001
ACAD
1000
DSTYLE
1002
{
1070
   173
1070
     1
1070
     6
1000
_OPEN
1070
     7
1000
_OPEN
1070
    41
1040
6.000000
1002
}
  0
DIMENSION
  5
387
100
AcDbEntity
  8
MAIN0
  6
CONTINUOUS
 62
3
100
AcDbDimension
  2
*D39
 10
501.3829605851622
 20
204.3150914873998
 30
0.0000000000000000
 11
654.6329605851622
 21
204.8150914873998
 31
0.0000000000000000
 70
32
  3
MAIN001
100
AcDbAlignedDimension
 13
807.8829605851622
 23
350.9994867203495
 33
0.0000000000000000
 14
501.3829605851622
 24
295.1149398083406
 34
0.0000000000000000
100
AcDbRotatedDimension
1001
ACAD
1000
DSTYLE
1002
{
1070
   173
1070
     1
1070
     6
1000
_OPEN
1070
     7
1000
_OPEN
1070
    41
1040
6.000000
1002
}
  0
DIMENSION
  5
390
100
AcDbEntity
  8
MAIN0
  6
CONTINUOUS
 62
3
100
AcDbDimension
  2
*D40
 10
435.3829605851620
 20
251.3479852043603
 30
0.0000000000000000
 11
468.3829605851621
 21
251.8479852043603
 31
0.0000000000000000
 70
32
  3
MAIN001
100
AcDbAlignedDimension
 13
501.3829605851622
 23
295.1149398083406
 33
0.0000000000000000
 14
435.3829605851620
 24
410.9994867203494
 34
0.0000000000000000
100
AcDbRotatedDimension
1001
ACAD
1000
DSTYLE
1002
{
1070
   173
1070
     1
1070
     6
1000
_OPEN
1070
     7
1000
_OPEN
1070
    41
1040
6.000000
1002
}
  0
DIMENSION
  5
399
100
AcDbEntity
  8
MAIN0
  6
CONTINUOUS
 62
3
100
AcDbDimension
  2
*D41
 10
501.3829605851622
 20
251.3479852043603
 30
0.0000000000000000
 11
611.3829605851621
 21
251.8479852043603
 31
0.0000000000000000
 70
32
  3
MAIN001
100
AcDbAlignedDimension
 13
721.3829605851620
 23
310.9994867203496
 33
0.0000000000000000
 14
501.3829605851622
 24
295.1149398083406
 34
0.0000000000000000
100
AcDbRotatedDimension
1001
ACAD
1000
DSTYLE
1002
{
1070
   173
1070
     1
1070
     6
1000
_OPEN
1070
     7
1000
_OPEN
1070
    41
1040
6.000000
1002
}
  0
DIMENSION
  5
3A1
100
AcDbEntity
  8
MAIN0
  6
CONTINUOUS
 62
3
100
AcDbDimension
  2
*D42
 10
619.2686444299156
 20
310.9994867203495
 30
0.0000000000000000
 11
617.7686444299156
 21
342.8224239679620
 31
0.0000000000000000
 70
160
  3
MAIN001
100
AcDbAlignedDimension
 13
638.2683721121105
 23
383.9994867200769
 33
0.0000000000000000
 14
721.3829605851621
 24
310.9994867203495
 34
0.0000000000000000
 50
90.00000000000000
100
AcDbRotatedDimension
1001
ACAD
1000
DSTYLE
1002
{
1070
   173
1070
     1
1070
     6
1000
_OPEN
1070
     7
1000
_OPEN
1070
    41
1040
6.000000
1002
}
  0
DIMENSION
  5
3AB
100
AcDbEntity
  8
MAIN0
  6
CONTINUOUS
 62
3
100
AcDbDimension
  2
*D43
 10
619.2686444299156
 20
383.9994867200769
 30
0.0000000000000000
 11
617.7686444299156
 21
419.7213018414062
 31
0.0000000000000000
 70
160
  3
MAIN001
100
AcDbAlignedDimension
 13
583.3829605851620
 23
410.9994867203495
 33
0.0000000000000000
 14
638.2683721121105
 24
383.9994867200769
 34
0.0000000000000000
 50
90.00000000000000
100
AcDbRotatedDimension
1001
ACAD
1000
DSTYLE
1002
{
1070
   173
1070
     1
1070
     6
1000
_OPEN
1070
     7
1000
_OPEN
1070
    41
1040
6.000000
1002
}
  0
DIMENSION
  5
3B4
100
AcDbEntity
  8
MAIN0
  6
CONTINUOUS
 62
3
100
AcDbDimension
  2
*D44
 10
1007.263257168583
 20
249.2553431419885
 30
0.0000000000000000
 11
1042.763257168583
 21
249.7553431419885
 31
0.0000000000000000
 70
32
  3
MAIN001
100
AcDbAlignedDimension
 13
1078.263257168583
 23
310.9994867203496
 33
0.0000000000000000
 14
1007.263257168583
 24
340.9994867203495
 34
0.0000000000000000
100
AcDbRotatedDimension
1001
ACAD
1000
DSTYLE
1002
{
1070
   173
1070
     1
1070
     6
1000
_OPEN
1070
     7
1000
_OPEN
1070
    41
1040
6.000000
1002
}
  0
DIMENSION
  5
3BD
100
AcDbEntity
  8
MAIN0
  6
CONTINUOUS
 62
3
100
AcDbDimension
  2
*D45
 10
1078.263257168583
 20
249.2553431419885
 30
0.0000000000000000
 11
1141.263257168583
 21
249.7553431419885
 31
0.0000000000000000
 70
32
  3
MAIN001
100
AcDbAlignedDimension
 13
1204.263257168583
 23
310.9994867203495
 33
0.0000000000000000
 14
1078.263257168583
 24
310.9994867203496
 34
0.0000000000000000
100
AcDbRotatedDimension
1001
ACAD
1000
DSTYLE
1002
{
1070
   173
1070
     1
1070
     6
1000
_OPEN
1070
     7
1000
_OPEN
1070
    41
1040
6.000000
1002
}
  0
INSERT
  5
3C5
100
AcDbEntity
  8
MAIN0
  6
CONTINUOUS
 62
3
100
AcDbBlockReference
  2
D46
 10
1141.263257168583
 20
298.4764269461698
 30
0.0000000000000000
 50
0.0000000000000000
  0
DIMENSION
  5
3CE
100
AcDbEntity
  8
MAIN0
  6
CONTINUOUS
 62
3
100
AcDbDimension
  2
*D47
 10
832.3492154751619
 20
555.9994742105505
 30
0.0000000000000000
 11
831.8492154751619
 21
465.9994742111188
 31
0.0000000000000000
 70
32
  3
MAIN001
100
AcDbAlignedDimension
 13
844.3894078387959
 23
375.9994742116870
 33
0.0000000000000000
 14
882.5343079150011
 24
555.9994742105505
 34
0.0000000000000000
 50
90.00000000000000
100
AcDbRotatedDimension
1001
ACAD
1000
DSTYLE
1002
{
1070
   173
1070
     1
1070
     6
1000
_OPEN
1070
     7
1000
_OPEN
1070
    41
1040
6.000000
1002
}
  0
LINE
  5
3CF
100
AcDbEntity
  8
MAIN0
  6
CONTINUOUS
 62
3
100
AcDbLine
 10
657.3829605851622
 20
395.1994867203495
 30
0.0000000000000000
 11
657.3829605851620
 21
432.1994867203495
 31
0.0000000000000000
  0
LINE
  5
3D0
100
AcDbEntity
  8
MAIN0
  6
CONTINUOUS
 62
3
100
AcDbLine
 10
657.3829605851614
 20
608.4995159049896
 30
0.0000000000000000
 11
657.3829605851610
 21
743.4995159049895
 31
0.0000000000000000
  0
LINE
  5
3D1
100
AcDbEntity
  8
MAIN0
  6
CENTER
 62
3
100
AcDbLine
 10
946.8974848457797
 20
366.9497482539033
 30
0.0000000000000000
 11
946.8974848457513
 21
273.9886698732227
 31
0.0000000000000000
  0
LINE
  5
3D2
100
AcDbEntity
  8
MAIN0
  6
CONTINUOUS
 62
3
100
AcDbLine
 10
924.3974848457724
 20
340.9994867203794
 30
0.0000000000000000
 11
926.0696159933041
 21
310.9994867204982
 31
0.0000000000000000
  0
LINE
  5
3D3
100
AcDbEntity
  8
MAIN0
  6
CONTINUOUS
 62
3
100
AcDbLine
 10
969.3974848457710
 20
340.9994867203658
 30
0.0000000000000000
 11
967.7253536982209
 21
310.9994867204854
 31
0.0000000000000000
  0
LINE
  5
3D4
100
AcDbEntity
  8
MAIN0
  6
CONTINUOUS
 62
3
100
AcDbLine
 10
924.3974848457715
 20
340.9994867203795
 30
0.0000000000000000
 11
969.3974848457715
 21
340.9994867203658
 31
0.0000000000000000
  0
LINE
  5
3D5
100
AcDbEntity
  8
MAIN0
  6
CONTINUOUS
 62
3
100
AcDbLine
 10
926.0696159933041
 20
310.9994867204982
 30
0.0000000000000000
 11
967.7253536982209
 21
310.9994867204854
 31
0.0000000000000000
  0
DIMENSION
  5
3DE
100
AcDbEntity
  8
MAIN0
  6
CONTINUOUS
 62
3
100
AcDbDimension
  2
*D48
 10
924.3974848457715
 20
394.9972127286131
 30
0.0000000000000000
 11
946.8974848457713
 21
395.4972127286131
 31
0.0000000000000000
 70
32
  3
MAIN001
100
AcDbAlignedDimension
 13
969.3974848457710
 23
340.9994867203656
 33
0.0000000000000000
 14
924.3974848457715
 24
340.9994867203794
 34
0.0000000000000000
100
AcDbRotatedDimension
1001
ACAD
1000
DSTYLE
1002
{
1070
   173
1070
     1
1070
     6
1000
_OPEN
1070
     7
1000
_OPEN
1070
    41
1040
6.000000
1002
}
  0
DIMENSION
  5
3E9
100
AcDbEntity
  8
MAIN0
  6
CONTINUOUS
 62
3
100
AcDbDimension
  2
*D49
 10
1024.371583340493
 20
218.1899753142492
 30
0.0000000000000000
 11
1023.871583340493
 21
203.9399753142493
 31
0.0000000000000000
 70
32
  3
MAIN001
100
AcDbAlignedDimension
 13
1040.263257168551
 23
189.6899753142494
 33
0.0000000000000000
 14
1040.263257168531
 24
218.1899753142492
 34
0.0000000000000000
 50
90.00000000000000
100
AcDbRotatedDimension
1001
ACAD
1000
DSTYLE
1002
{
1070
   173
1070
     1
1070
     6
1000
_OPEN
1070
     7
1000
_OPEN
1070
    41
1040
6.000000
1070
   287
1070
     0
1002
}
  0
DIMENSION
  5
3F4
100
AcDbEntity
  8
MAIN0
  6
CONTINUOUS
 62
3
100
AcDbDimension
  2
*D50
 10
1093.569049250370
 20
212.6899753142410
 30
0.0000000000000000
 11
1092.069049250370
 21
177.2255369527813
 31
0.0000000000000000
 70
160
  3
MAIN001
100
AcDbAlignedDimension
 13
1070.263257168547
 23
195.1899753142411
 33
0.0000000000000000
 14
1070.263257168535
 24
212.6899753142410
 34
0.0000000000000000
 50
90.00000000000000
100
AcDbRotatedDimension
1001
ACAD
1000
DSTYLE
1002
{
1070
   173
1070
     1
1070
     6
1000
_OPEN
1070
     7
1000
_OPEN
1070
    41
1040
6.000000
1070
   287
1070
     0
1002
}
  0
DIMENSION
  5
3FD
100
AcDbEntity
  8
MAIN0
  6
CONTINUOUS
 62
3
100
AcDbDimension
  2
*D51
 10
1040.263257168551
 20
170.0545298277500
 30
0.0000000000000000
 11
1055.263257168551
 21
170.5545298277500
 31
0.0000000000000000
 70
32
  3
MAIN001
100
AcDbAlignedDimension
 13
1070.263257168551
 23
189.6899753142411
 33
0.0000000000000000
 14
1040.263257168551
 24
189.6899753142494
 34
0.0000000000000000
100
AcDbRotatedDimension
1001
ACAD
1000
DSTYLE
1002
{
1070
   173
1070
     1
1070
     6
1000
_OPEN
1070
     7
1000
_OPEN
1070
    41
1040
6.000000
1002
}
  0
DIMENSION
  5
406
100
AcDbEntity
  8
MAIN0
  6
CONTINUOUS
 62
3
100
AcDbDimension
  2
*D52
 10
319.5531745616393
 20
310.9994867203495
 30
0.0000000000000000
 11
319.0531745616393
 21
360.9994867203495
 31
0.0000000000000000
 70
32
  3
MAIN001
100
AcDbAlignedDimension
 13
356.3829605851620
 23
410.9994867203495
 33
0.0000000000000000
 14
356.3829605851621
 24
310.9994867203495
 34
0.0000000000000000
 50
90.00000000000000
100
AcDbRotatedDimension
1001
ACAD
1000
DSTYLE
1002
{
1070
   173
1070
     1
1070
     6
1000
_OPEN
1070
     7
1000
_OPEN
1070
    41
1040
6.000000
1002
}
  0
DIMENSION
  5
40F
100
AcDbEntity
  8
MAIN0
  6
CONTINUOUS
 62
3
100
AcDbDimension
  2
*D53
 10
319.5531745616393
 20
410.9994867203495
 30
0.0000000000000000
 11
319.0531745616393
 21
430.7494867203495
 31
0.0000000000000000
 70
32
  3
MAIN001
100
AcDbAlignedDimension
 13
357.3829605851619
 23
450.4994867203495
 33
0.0000000000000000
 14
356.3829605851620
 24
410.9994867203495
 34
0.0000000000000000
 50
90.00000000000000
100
AcDbRotatedDimension
1001
ACAD
1000
DSTYLE
1002
{
1070
   173
1070
     1
1070
     6
1000
_OPEN
1070
     7
1000
_OPEN
1070
    41
1040
6.000000
1002
}
  0
DIMENSION
  5
418
100
AcDbEntity
  8
MAIN0
  6
CONTINUOUS
 62
3
100
AcDbDimension
  2
*D54
 10
292.4462786224267
 20
310.9994867203495
 30
0.0000000000000000
 11
291.9462786224267
 21
380.7494867203495
 31
0.0000000000000000
 70
32
  3
MAIN001
100
AcDbAlignedDimension
 13
357.3829605851619
 23
450.4994867203495
 33
0.0000000000000000
 14
356.3829605851621
 24
310.9994867203495
 34
0.0000000000000000
 50
90.00000000000000
100
AcDbRotatedDimension
1001
ACAD
1000
DSTYLE
1002
{
1070
   173
1070
     1
1070
     6
1000
_OPEN
1070
     7
1000
_OPEN
1070
    41
1040
6.000000
1002
}
  0
LINE
  5
419
100
AcDbEntity
  8
MAIN0
  6
CONTINUOUS
 62
3
100
AcDbLine
 10
1084.263257168583
 20
331.9994867203495
 30
0.0000000000000000
 11
1084.263257168583
 21
340.9994867203495
 31
0.0000000000000000
  0
CIRCLE
  5
41A
100
AcDbEntity
  8
MAIN0
  6
CONTINUOUS
 62
3
100
AcDbCircle
 10
1181.966451146417
 20
399.4994867204104
 30
0.0000000000000000
 40
8.000000000000000
  0
LINE
  5
41B
100
AcDbEntity
  8
MAIN0
  6
CONTINUOUS
 62
3
100
AcDbLine
 10
1181.966451146417
 20
404.1182888739273
 30
0.0000000000000000
 11
1177.966451146417
 21
401.8088877971688
 31
0.0000000000000000
  0
LINE
  5
41C
100
AcDbEntity
  8
MAIN0
  6
CONTINUOUS
 62
3
100
AcDbLine
 10
1177.966451146417
 20
401.8088877971688
 30
0.0000000000000000
 11
1177.966451146417
 21
397.1900856436519
 31
0.0000000000000000
  0
LINE
  5
41D
100
AcDbEntity
  8
MAIN0
  6
CONTINUOUS
 62
3
100
AcDbLine
 10
1177.966451146417
 20
397.1900856436520
 30
0.0000000000000000
 11
1181.966451146417
 21
394.8806845668935
 31
0.0000000000000000
  0
LINE
  5
41E
100
AcDbEntity
  8
MAIN0
  6
CONTINUOUS
 62
3
100
AcDbLine
 10
1181.966451146417
 20
394.8806845668934
 30
0.0000000000000000
 11
1185.966451146417
 21
397.1900856436519
 31
0.0000000000000000
  0
LINE
  5
41F
100
AcDbEntity
  8
MAIN0
  6
CONTINUOUS
 62
3
100
AcDbLine
 10
1185.966451146417
 20
397.1900856436519
 30
0.0000000000000000
 11
1185.966451146417
 21
401.8088877971688
 31
0.0000000000000000
  0
LINE
  5
420
100
AcDbEntity
  8
MAIN0
  6
CONTINUOUS
 62
3
100
AcDbLine
 10
1185.966451146417
 20
401.8088877971689
 30
0.0000000000000000
 11
1181.966451146417
 21
404.1182888739274
 31
0.0000000000000000
  0
CIRCLE
  5
421
100
AcDbEntity
  8
MAIN0
  6
CONTINUOUS
 62
3
100
AcDbCircle
 10
1173.763257168583
 20
375.9994867203496
 30
0.0000000000000000
 40
4.250000000000000
  0
LINE
  5
422
100
AcDbEntity
  8
MAIN0
  6
CONTINUOUS
 62
3
100
AcDbLine
 10
1173.763257168583
 20
378.3088877971081
 30
0.0000000000000000
 11
1171.763257168583
 21
377.1541872587288
 31
0.0000000000000000
  0
LINE
  5
423
100
AcDbEntity
  8
MAIN0
  6
CONTINUOUS
 62
3
100
AcDbLine
 10
1171.763257168583
 20
377.1541872587288
 30
0.0000000000000000
 11
1171.763257168583
 21
374.8447861819703
 31
0.0000000000000000
  0
LINE
  5
424
100
AcDbEntity
  8
MAIN0
  6
CONTINUOUS
 62
3
100
AcDbLine
 10
1171.763257168583
 20
374.8447861819705
 30
0.0000000000000000
 11
1173.763257168583
 21
373.6900856435911
 31
0.0000000000000000
  0
LINE
  5
425
100
AcDbEntity
  8
MAIN0
  6
CONTINUOUS
 62
3
100
AcDbLine
 10
1173.763257168583
 20
373.6900856435911
 30
0.0000000000000000
 11
1175.763257168584
 21
374.8447861819704
 31
0.0000000000000000
  0
LINE
  5
426
100
AcDbEntity
  8
MAIN0
  6
CONTINUOUS
 62
3
100
AcDbLine
 10
1175.763257168583
 20
374.8447861819703
 30
0.0000000000000000
 11
1175.763257168583
 21
377.1541872587288
 31
0.0000000000000000
  0
LINE
  5
427
100
AcDbEntity
  8
MAIN0
  6
CONTINUOUS
 62
3
100
AcDbLine
 10
1175.763257168583
 20
377.1541872587288
 30
0.0000000000000000
 11
1173.763257168583
 21
378.3088877971082
 31
0.0000000000000000
  0
CIRCLE
  5
428
100
AcDbEntity
  8
MAIN0
  6
CONTINUOUS
 62
3
100
AcDbCircle
 10
1108.763257168583
 20
375.9994867203496
 30
0.0000000000000000
 40
4.250000000000000
  0
LINE
  5
429
100
AcDbEntity
  8
MAIN0
  6
CONTINUOUS
 62
3
100
AcDbLine
 10
1108.763257168583
 20
378.3088877971081
 30
0.0000000000000000
 11
1106.763257168583
 21
377.1541872587289
 31
0.0000000000000000
  0
LINE
  5
42A
100
AcDbEntity
  8
MAIN0
  6
CONTINUOUS
 62
3
100
AcDbLine
 10
1106.763257168583
 20
377.1541872587288
 30
0.0000000000000000
 11
1106.763257168583
 21
374.8447861819703
 31
0.0000000000000000
  0
LINE
  5
42B
100
AcDbEntity
  8
MAIN0
  6
CONTINUOUS
 62
3
100
AcDbLine
 10
1106.763257168583
 20
374.8447861819704
 30
0.0000000000000000
 11
1108.763257168584
 21
373.6900856435910
 31
0.0000000000000000
  0
LINE
  5
42C
100
AcDbEntity
  8
MAIN0
  6
CONTINUOUS
 62
3
100
AcDbLine
 10
1108.763257168583
 20
373.6900856435912
 30
0.0000000000000000
 11
1110.763257168583
 21
374.8447861819704
 31
0.0000000000000000
  0
LINE
  5
42D
100
AcDbEntity
  8
MAIN0
  6
CONTINUOUS
 62
3
100
AcDbLine
 10
1110.763257168583
 20
374.8447861819703
 30
0.0000000000000000
 11
1110.763257168583
 21
377.1541872587288
 31
0.0000000000000000
  0
LINE
  5
42E
100
AcDbEntity
  8
MAIN0
  6
CONTINUOUS
 62
3
100
AcDbLine
 10
1110.763257168584
 20
377.1541872587288
 30
0.0000000000000000
 11
1108.763257168583
 21
378.3088877971081
 31
0.0000000000000000
  0
CIRCLE
  5
42F
100
AcDbEntity
  8
MAIN0
  6
HIDDEN
 62
3
100
AcDbCircle
 10
373.8829605851613
 20
719.9995159049895
 30
0.0000000000000000
 40
9.000000000000000
  0
LINE
  5
430
100
AcDbEntity
  8
MAIN0
  6
HIDDEN
 62
3
100
AcDbLine
 10
373.8829605851613
 20
725.7730185968857
 30
0.0000000000000000
 11
368.8829605851612
 21
722.8862672509374
 31
0.0000000000000000
  0
LINE
  5
431
100
AcDbEntity
  8
MAIN0
  6
HIDDEN
 62
3
100
AcDbLine
 10
368.8829605851613
 20
722.8862672509376
 30
0.0000000000000000
 11
368.8829605851613
 21
717.1127645590416
 31
0.0000000000000000
  0
LINE
  5
432
100
AcDbEntity
  8
MAIN0
  6
HIDDEN
 62
3
100
AcDbLine
 10
368.8829605851613
 20
717.1127645590415
 30
0.0000000000000000
 11
373.8829605851612
 21
714.2260132130933
 31
0.0000000000000000
  0
LINE
  5
433
100
AcDbEntity
  8
MAIN0
  6
HIDDEN
 62
3
100
AcDbLine
 10
373.8829605851613
 20
714.2260132130934
 30
0.0000000000000000
 11
378.8829605851612
 21
717.1127645590415
 31
0.0000000000000000
  0
LINE
  5
434
100
AcDbEntity
  8
MAIN0
  6
HIDDEN
 62
3
100
AcDbLine
 10
378.8829605851613
 20
717.1127645590416
 30
0.0000000000000000
 11
378.8829605851613
 21
722.8862672509376
 31
0.0000000000000000
  0
LINE
  5
435
100
AcDbEntity
  8
MAIN0
  6
HIDDEN
 62
3
100
AcDbLine
 10
378.8829605851613
 20
722.8862672509375
 30
0.0000000000000000
 11
373.8829605851613
 21
725.7730185968858
 31
0.0000000000000000
  0
CIRCLE
  5
436
100
AcDbEntity
  8
MAIN0
  6
HIDDEN
 62
3
100
AcDbCircle
 10
373.8829605851614
 20
631.9995159049895
 30
0.0000000000000000
 40
9.000000000000000
  0
LINE
  5
437
100
AcDbEntity
  8
MAIN0
  6
HIDDEN
 62
3
100
AcDbLine
 10
373.8829605851613
 20
637.7730185968856
 30
0.0000000000000000
 11
368.8829605851613
 21
634.8862672509374
 31
0.0000000000000000
  0
LINE
  5
438
100
AcDbEntity
  8
MAIN0
  6
HIDDEN
 62
3
100
AcDbLine
 10
368.8829605851614
 20
634.8862672509376
 30
0.0000000000000000
 11
368.8829605851614
 21
629.1127645590416
 31
0.0000000000000000
  0
LINE
  5
439
100
AcDbEntity
  8
MAIN0
  6
HIDDEN
 62
3
100
AcDbLine
 10
368.8829605851614
 20
629.1127645590416
 30
0.0000000000000000
 11
373.8829605851614
 21
626.2260132130934
 31
0.0000000000000000
  0
LINE
  5
43A
100
AcDbEntity
  8
MAIN0
  6
HIDDEN
 62
3
100
AcDbLine
 10
373.8829605851614
 20
626.2260132130932
 30
0.0000000000000000
 11
378.8829605851614
 21
629.1127645590414
 31
0.0000000000000000
  0
LINE
  5
43B
100
AcDbEntity
  8
MAIN0
  6
HIDDEN
 62
3
100
AcDbLine
 10
378.8829605851614
 20
629.1127645590416
 30
0.0000000000000000
 11
378.8829605851614
 21
634.8862672509376
 31
0.0000000000000000
  0
LINE
  5
43C
100
AcDbEntity
  8
MAIN0
  6
HIDDEN
 62
3
100
AcDbLine
 10
378.8829605851614
 20
634.8862672509374
 30
0.0000000000000000
 11
373.8829605851614
 21
637.7730185968856
 31
0.0000000000000000
  0
CIRCLE
  5
43D
100
AcDbEntity
  8
MAIN0
  6
HIDDEN
 62
3
100
AcDbCircle
 10
418.8829605851614
 20
631.9995159049895
 30
0.0000000000000000
 40
9.000000000000000
  0
LINE
  5
43E
100
AcDbEntity
  8
MAIN0
  6
HIDDEN
 62
3
100
AcDbLine
 10
418.8829605851613
 20
637.7730185968856
 30
0.0000000000000000
 11
413.8829605851614
 21
634.8862672509376
 31
0.0000000000000000
  0
LINE
  5
43F
100
AcDbEntity
  8
MAIN0
  6
HIDDEN
 62
3
100
AcDbLine
 10
413.8829605851614
 20
634.8862672509376
 30
0.0000000000000000
 11
413.8829605851614
 21
629.1127645590416
 31
0.0000000000000000
  0
LINE
  5
440
100
AcDbEntity
  8
MAIN0
  6
HIDDEN
 62
3
100
AcDbLine
 10
413.8829605851614
 20
629.1127645590414
 30
0.0000000000000000
 11
418.8829605851614
 21
626.2260132130932
 31
0.0000000000000000
  0
LINE
  5
441
100
AcDbEntity
  8
MAIN0
  6
HIDDEN
 62
3
100
AcDbLine
 10
418.8829605851614
 20
626.2260132130932
 30
0.0000000000000000
 11
423.8829605851614
 21
629.1127645590414
 31
0.0000000000000000
  0
LINE
  5
442
100
AcDbEntity
  8
MAIN0
  6
HIDDEN
 62
3
100
AcDbLine
 10
423.8829605851614
 20
629.1127645590416
 30
0.0000000000000000
 11
423.8829605851614
 21
634.8862672509376
 31
0.0000000000000000
  0
LINE
  5
443
100
AcDbEntity
  8
MAIN0
  6
HIDDEN
 62
3
100
AcDbLine
 10
423.8829605851614
 20
634.8862672509374
 30
0.0000000000000000
 11
418.8829605851614
 21
637.7730185968856
 31
0.0000000000000000
  0
CIRCLE
  5
444
100
AcDbEntity
  8
MAIN0
  6
HIDDEN
 62
3
100
AcDbCircle
 10
418.8829605851613
 20
719.9995159049895
 30
0.0000000000000000
 40
9.000000000000000
  0
LINE
  5
445
100
AcDbEntity
  8
MAIN0
  6
HIDDEN
 62
3
100
AcDbLine
 10
418.8829605851612
 20
725.7730185968857
 30
0.0000000000000000
 11
413.8829605851612
 21
722.8862672509375
 31
0.0000000000000000
  0
LINE
  5
446
100
AcDbEntity
  8
MAIN0
  6
HIDDEN
 62
3
100
AcDbLine
 10
413.8829605851613
 20
722.8862672509376
 30
0.0000000000000000
 11
413.8829605851613
 21
717.1127645590416
 31
0.0000000000000000
  0
LINE
  5
447
100
AcDbEntity
  8
MAIN0
  6
HIDDEN
 62
3
100
AcDbLine
 10
413.8829605851613
 20
717.1127645590415
 30
0.0000000000000000
 11
418.8829605851613
 21
714.2260132130933
 31
0.0000000000000000
  0
LINE
  5
448
100
AcDbEntity
  8
MAIN0
  6
HIDDEN
 62
3
100
AcDbLine
 10
418.8829605851613
 20
714.2260132130934
 30
0.0000000000000000
 11
423.8829605851612
 21
717.1127645590415
 31
0.0000000000000000
  0
LINE
  5
449
100
AcDbEntity
  8
MAIN0
  6
HIDDEN
 62
3
100
AcDbLine
 10
423.8829605851613
 20
717.1127645590416
 30
0.0000000000000000
 11
423.8829605851613
 21
722.8862672509376
 31
0.0000000000000000
  0
LINE
  5
44A
100
AcDbEntity
  8
MAIN0
  6
HIDDEN
 62
3
100
AcDbLine
 10
423.8829605851612
 20
722.8862672509374
 30
0.0000000000000000
 11
418.8829605851612
 21
725.7730185968856
 31
0.0000000000000000
  0
CIRCLE
  5
44B
100
AcDbEntity
  8
MAIN0
  6
HIDDEN
 62
3
100
AcDbCircle
 10
525.3829605851614
 20
658.4995159049895
 30
0.0000000000000000
 40
9.000000000000000
  0
LINE
  5
44C
100
AcDbEntity
  8
MAIN0
  6
HIDDEN
 62
3
100
AcDbLine
 10
525.3829605851613
 20
664.2730185968856
 30
0.0000000000000000
 11
520.3829605851614
 21
661.3862672509375
 31
0.0000000000000000
  0
LINE
  5
44D
100
AcDbEntity
  8
MAIN0
  6
HIDDEN
 62
3
100
AcDbLine
 10
520.3829605851614
 20
661.3862672509376
 30
0.0000000000000000
 11
520.3829605851614
 21
655.6127645590416
 31
0.0000000000000000
  0
LINE
  5
44E
100
AcDbEntity
  8
MAIN0
  6
HIDDEN
 62
3
100
AcDbLine
 10
520.3829605851614
 20
655.6127645590415
 30
0.0000000000000000
 11
525.3829605851614
 21
652.7260132130933
 31
0.0000000000000000
  0
LINE
  5
44F
100
AcDbEntity
  8
MAIN0
  6
HIDDEN
 62
3
100
AcDbLine
 10
525.3829605851613
 20
652.7260132130932
 30
0.0000000000000000
 11
530.3829605851613
 21
655.6127645590414
 31
0.0000000000000000
  0
LINE
  5
450
100
AcDbEntity
  8
MAIN0
  6
HIDDEN
 62
3
100
AcDbLine
 10
530.3829605851614
 20
655.6127645590416
 30
0.0000000000000000
 11
530.3829605851614
 21
661.3862672509376
 31
0.0000000000000000
  0
LINE
  5
451
100
AcDbEntity
  8
MAIN0
  6
HIDDEN
 62
3
100
AcDbLine
 10
530.3829605851613
 20
661.3862672509374
 30
0.0000000000000000
 11
525.3829605851613
 21
664.2730185968857
 31
0.0000000000000000
  0
CIRCLE
  5
452
100
AcDbEntity
  8
MAIN0
  6
HIDDEN
 62
3
100
AcDbCircle
 10
567.3829605851614
 20
658.4995159049895
 30
0.0000000000000000
 40
9.000000000000000
  0
LINE
  5
453
100
AcDbEntity
  8
MAIN0
  6
HIDDEN
 62
3
100
AcDbLine
 10
567.3829605851614
 20
664.2730185968857
 30
0.0000000000000000
 11
562.3829605851613
 21
661.3862672509374
 31
0.0000000000000000
  0
LINE
  5
454
100
AcDbEntity
  8
MAIN0
  6
HIDDEN
 62
3
100
AcDbLine
 10
562.3829605851614
 20
661.3862672509376
 30
0.0000000000000000
 11
562.3829605851614
 21
655.6127645590416
 31
0.0000000000000000
  0
LINE
  5
455
100
AcDbEntity
  8
MAIN0
  6
HIDDEN
 62
3
100
AcDbLine
 10
562.3829605851613
 20
655.6127645590415
 30
0.0000000000000000
 11
567.3829605851613
 21
652.7260132130933
 31
0.0000000000000000
  0
LINE
  5
456
100
AcDbEntity
  8
MAIN0
  6
HIDDEN
 62
3
100
AcDbLine
 10
567.3829605851613
 20
652.7260132130933
 30
0.0000000000000000
 11
572.3829605851613
 21
655.6127645590414
 31
0.0000000000000000
  0
LINE
  5
457
100
AcDbEntity
  8
MAIN0
  6
HIDDEN
 62
3
100
AcDbLine
 10
572.3829605851614
 20
655.6127645590416
 30
0.0000000000000000
 11
572.3829605851614
 21
661.3862672509376
 31
0.0000000000000000
  0
LINE
  5
458
100
AcDbEntity
  8
MAIN0
  6
HIDDEN
 62
3
100
AcDbLine
 10
572.3829605851613
 20
661.3862672509375
 30
0.0000000000000000
 11
567.3829605851613
 21
664.2730185968857
 31
0.0000000000000000
  0
CIRCLE
  5
459
100
AcDbEntity
  8
MAIN0
  6
HIDDEN
 62
3
100
AcDbCircle
 10
525.3829605851614
 20
693.4995159049895
 30
0.0000000000000000
 40
9.000000000000000
  0
LINE
  5
45A
100
AcDbEntity
  8
MAIN0
  6
HIDDEN
 62
3
100
AcDbLine
 10
525.3829605851614
 20
699.2730185968856
 30
0.0000000000000000
 11
520.3829605851613
 21
696.3862672509374
 31
0.0000000000000000
  0
LINE
  5
45B
100
AcDbEntity
  8
MAIN0
  6
HIDDEN
 62
3
100
AcDbLine
 10
520.3829605851614
 20
696.3862672509376
 30
0.0000000000000000
 11
520.3829605851614
 21
690.6127645590416
 31
0.0000000000000000
  0
LINE
  5
45C
100
AcDbEntity
  8
MAIN0
  6
HIDDEN
 62
3
100
AcDbLine
 10
520.3829605851613
 20
690.6127645590414
 30
0.0000000000000000
 11
525.3829605851613
 21
687.7260132130932
 31
0.0000000000000000
  0
LINE
  5
45D
100
AcDbEntity
  8
MAIN0
  6
HIDDEN
 62
3
100
AcDbLine
 10
525.3829605851614
 20
687.7260132130932
 30
0.0000000000000000
 11
530.3829605851614
 21
690.6127645590414
 31
0.0000000000000000
  0
LINE
  5
45E
100
AcDbEntity
  8
MAIN0
  6
HIDDEN
 62
3
100
AcDbLine
 10
530.3829605851614
 20
690.6127645590416
 30
0.0000000000000000
 11
530.3829605851614
 21
696.3862672509376
 31
0.0000000000000000
  0
LINE
  5
45F
100
AcDbEntity
  8
MAIN0
  6
HIDDEN
 62
3
100
AcDbLine
 10
530.3829605851614
 20
696.3862672509376
 30
0.0000000000000000
 11
525.3829605851614
 21
699.2730185968858
 31
0.0000000000000000
  0
LINE
  5
460
100
AcDbEntity
  8
MAIN0
  6
CONTINUOUS
 62
3
100
AcDbLine
 10
1067.263257168583
 20
345.9994867203495
 30
0.0000000000000000
 11
1067.263257168583
 21
360.3994867203494
 31
0.0000000000000000
  0
LINE
  5
461
100
AcDbEntity
  8
MAIN0
  6
CONTINUOUS
 62
3
100
AcDbLine
 10
1067.263257168583
 20
360.3994867203495
 30
0.0000000000000000
 11
1064.491975876473
 21
361.9994867203495
 31
0.0000000000000000
  0
LINE
  5
462
100
AcDbEntity
  8
MAIN0
  6
CONTINUOUS
 62
3
100
AcDbLine
 10
1064.491975876473
 20
361.9994867203495
 30
0.0000000000000000
 11
1046.034538460693
 21
361.9994867203495
 31
0.0000000000000000
  0
LINE
  5
463
100
AcDbEntity
  8
MAIN0
  6
CONTINUOUS
 62
3
100
AcDbLine
 10
1046.034538460694
 20
361.9994867203495
 30
0.0000000000000000
 11
1043.263257168583
 21
360.3994867203495
 31
0.0000000000000000
  0
LINE
  5
464
100
AcDbEntity
  8
MAIN0
  6
CONTINUOUS
 62
3
100
AcDbLine
 10
1043.263257168583
 20
360.3994867203494
 30
0.0000000000000000
 11
1043.263257168583
 21
345.9994867203495
 31
0.0000000000000000
  0
LINE
  5
465
100
AcDbEntity
  8
MAIN0
  6
CONTINUOUS
 62
3
100
AcDbLine
 10
1067.263257168583
 20
360.3994867203494
 30
0.0000000000000000
 11
1043.263257168583
 21
360.3994867203494
 31
0.0000000000000000
  0
LINE
  5
466
100
AcDbEntity
  8
MAIN0
  6
CONTINUOUS
 62
3
100
AcDbLine
 10
1063.263257168583
 20
320.9994867203495
 30
0.0000000000000000
 11
1063.263257168583
 21
299.9994867203495
 31
0.0000000000000000
  0
LINE
  5
467
100
AcDbEntity
  8
MAIN0
  6
CONTINUOUS
 62
3
100
AcDbLine
 10
1047.263257168583
 20
299.9994867203495
 30
0.0000000000000000
 11
1047.263257168583
 21
320.9994867203495
 31
0.0000000000000000
  0
LINE
  5
468
100
AcDbEntity
  8
MAIN0
  6
CONTINUOUS
 62
3
100
AcDbLine
 10
1062.180725168583
 20
320.9994867203495
 30
0.0000000000000000
 11
1062.180725168583
 21
299.9994867203495
 31
0.0000000000000000
  0
LINE
  5
469
100
AcDbEntity
  8
MAIN0
  6
CONTINUOUS
 62
3
100
AcDbLine
 10
1048.345789168583
 20
320.9994867203495
 30
0.0000000000000000
 11
1048.345789168583
 21
299.9994867203495
 31
0.0000000000000000
  0
LINE
  5
46A
100
AcDbEntity
  8
MAIN0
  6
CENTER
 62
3
100
AcDbLine
 10
882.5343079150011
 20
555.9994742105505
 30
0.0000000000000000
 11
984.8440141462249
 21
555.9994742105505
 31
0.0000000000000000
  0
ARC
  5
46B
100
AcDbEntity
  8
MAIN0
  6
CONTINUOUS
 62
3
100
AcDbCircle
 10
888.9834734750298
 20
368.5161347089256
 30
0.0000000000000000
 40
6.000000000000000
100
AcDbArc
 50
254.9999999999107
 51
269.9999999999961
  0
CIRCLE
  5
46C
100
AcDbEntity
  8
MAIN0
  6
CONTINUOUS
 62
3
100
AcDbCircle
 10
431.3829605851620
 20
383.9994867203495
 30
0.0000000000000000
 40
5.000000000000000
  0
CIRCLE
  5
46D
100
AcDbEntity
  8
MAIN0
  6
CONTINUOUS
 62
3
100
AcDbCircle
 10
431.3829605851620
 20
383.9994867203495
 30
0.0000000000000000
 40
4.250000000000000
  0
CIRCLE
  5
46E
100
AcDbEntity
  8
MAIN0
  6
CONTINUOUS
 62
3
100
AcDbCircle
 10
646.3829605851621
 20
383.9994867203495
 30
0.0000000000000000
 40
5.000000000000000
  0
CIRCLE
  5
46F
100
AcDbEntity
  8
MAIN0
  6
CONTINUOUS
 62
3
100
AcDbCircle
 10
646.3829605851621
 20
383.9994867203495
 30
0.0000000000000000
 40
4.250000000000000
  0
CIRCLE
  5
470
100
AcDbEntity
  8
MAIN0
  6
CONTINUOUS
 62
3
100
AcDbCircle
 10
396.3829605851621
 20
440.9994867203496
 30
0.0000000000000000
 40
5.000000000000000
  0
CIRCLE
  5
471
100
AcDbEntity
  8
MAIN0
  6
CONTINUOUS
 62
3
100
AcDbCircle
 10
396.3829605851621
 20
440.9994867203496
 30
0.0000000000000000
 40
4.250000000000000
  0
CIRCLE
  5
472
100
AcDbEntity
  8
MAIN0
  6
CONTINUOUS
 62
3
100
AcDbCircle
 10
396.3829605851622
 20
420.9994867203496
 30
0.0000000000000000
 40
5.000000000000000
  0
CIRCLE
  5
473
100
AcDbEntity
  8
MAIN0
  6
CONTINUOUS
 62
3
100
AcDbCircle
 10
396.3829605851622
 20
420.9994867203496
 30
0.0000000000000000
 40
4.250000000000000
  0
CIRCLE
  5
474
100
AcDbEntity
  8
MAIN0
  6
CONTINUOUS
 62
3
100
AcDbCircle
 10
425.3829605851612
 20
700.9995159049895
 30
0.0000000000000000
 40
5.000000000000000
  0
CIRCLE
  5
475
100
AcDbEntity
  8
MAIN0
  6
CONTINUOUS
 62
3
100
AcDbCircle
 10
425.3829605851612
 20
700.9995159049895
 30
0.0000000000000000
 40
4.188101000000000
  0
LINE
  5
476
100
AcDbEntity
  8
MAIN0
  6
CONTINUOUS
 62
3
100
AcDbLine
 10
425.3829605851612
 20
703.8862672509376
 30
0.0000000000000000
 11
422.8829605851613
 21
702.4428915779636
 31
0.0000000000000000
  0
LINE
  5
477
100
AcDbEntity
  8
MAIN0
  6
CONTINUOUS
 62
3
100
AcDbLine
 10
422.8829605851612
 20
702.4428915779636
 30
0.0000000000000000
 11
422.8829605851612
 21
699.5561402320154
 31
0.0000000000000000
  0
LINE
  5
478
100
AcDbEntity
  8
MAIN0
  6
CONTINUOUS
 62
3
100
AcDbLine
 10
422.8829605851613
 20
699.5561402320154
 30
0.0000000000000000
 11
425.3829605851612
 21
698.1127645590414
 31
0.0000000000000000
  0
LINE
  5
479
100
AcDbEntity
  8
MAIN0
  6
CONTINUOUS
 62
3
100
AcDbLine
 10
425.3829605851612
 20
698.1127645590414
 30
0.0000000000000000
 11
427.8829605851612
 21
699.5561402320154
 31
0.0000000000000000
  0
LINE
  5
47A
100
AcDbEntity
  8
MAIN0
  6
CONTINUOUS
 62
3
100
AcDbLine
 10
427.8829605851612
 20
699.5561402320154
 30
0.0000000000000000
 11
427.8829605851612
 21
702.4428915779636
 31
0.0000000000000000
  0
LINE
  5
47B
100
AcDbEntity
  8
MAIN0
  6
CONTINUOUS
 62
3
100
AcDbLine
 10
427.8829605851612
 20
702.4428915779636
 30
0.0000000000000000
 11
425.3829605851612
 21
703.8862672509376
 31
0.0000000000000000
  0
CIRCLE
  5
47C
100
AcDbEntity
  8
MAIN0
  6
CONTINUOUS
 62
3
100
AcDbCircle
 10
519.3829605851615
 20
715.9995159049895
 30
0.0000000000000000
 40
5.000000000000000
  0
CIRCLE
  5
47D
100
AcDbEntity
  8
MAIN0
  6
CONTINUOUS
 62
3
100
AcDbCircle
 10
519.3829605851615
 20
715.9995159049895
 30
0.0000000000000000
 40
4.188101000000000
  0
LINE
  5
47E
100
AcDbEntity
  8
MAIN0
  6
CONTINUOUS
 62
3
100
AcDbLine
 10
519.3829605851614
 20
718.8862672509376
 30
0.0000000000000000
 11
516.8829605851614
 21
717.4428915779636
 31
0.0000000000000000
  0
LINE
  5
47F
100
AcDbEntity
  8
MAIN0
  6
CONTINUOUS
 62
3
100
AcDbLine
 10
516.8829605851615
 20
717.4428915779636
 30
0.0000000000000000
 11
516.8829605851615
 21
714.5561402320154
 31
0.0000000000000000
  0
LINE
  5
480
100
AcDbEntity
  8
MAIN0
  6
CONTINUOUS
 62
3
100
AcDbLine
 10
516.8829605851614
 20
714.5561402320154
 30
0.0000000000000000
 11
519.3829605851615
 21
713.1127645590414
 31
0.0000000000000000
  0
LINE
  5
481
100
AcDbEntity
  8
MAIN0
  6
CONTINUOUS
 62
3
100
AcDbLine
 10
519.3829605851614
 20
713.1127645590414
 30
0.0000000000000000
 11
521.8829605851614
 21
714.5561402320154
 31
0.0000000000000000
  0
LINE
  5
482
100
AcDbEntity
  8
MAIN0
  6
CONTINUOUS
 62
3
100
AcDbLine
 10
521.8829605851615
 20
714.5561402320154
 30
0.0000000000000000
 11
521.8829605851615
 21
717.4428915779636
 31
0.0000000000000000
  0
LINE
  5
483
100
AcDbEntity
  8
MAIN0
  6
CONTINUOUS
 62
3
100
AcDbLine
 10
521.8829605851614
 20
717.4428915779636
 30
0.0000000000000000
 11
519.3829605851614
 21
718.8862672509376
 31
0.0000000000000000
  0
ELLIPSE
  5
484
100
AcDbEntity
  8
MAIN0
  6
CONTINUOUS
 62
3
100
AcDbEllipse
 10
859.6935584894964
 20
379.4994742105564
 30
0.0000000000000000
 11
-2.050000000000000
 21
0.0000000000000000
 31
0.0000000000000000
210
0.0000000000000000
220
0.0000000000000000
230
1.000000000000000
 40
0.8536585365853660
 41
0.0000000000000000
 42
6.283185307179586
  0
LINE
  5
485
100
AcDbEntity
  8
MAIN0
  6
CONTINUOUS
 62
3
100
AcDbLine
 10
888.6935584894814
 20
560.4994742105505
 30
0.0000000000000000
 11
888.6935584894989
 21
394.0867756400320
 31
0.0000000000000000
  0
LINE
  5
486
100
AcDbEntity
  8
MAIN0
  6
CONTINUOUS
 62
3
100
AcDbLine
 10
896.6935584894829
 20
546.4994742105505
 30
0.0000000000000000
 11
896.6935584895020
 21
364.4994742105509
 31
0.0000000000000000
  0
LINE
  5
487
100
AcDbEntity
  8
MAIN0
  6
CONTINUOUS
 62
3
100
AcDbLine
 10
902.6935584894814
 20
560.4994742105509
 30
0.0000000000000000
 11
902.6935584894823
 21
551.4994742105509
 31
0.0000000000000000
  0
LINE
  5
488
100
AcDbEntity
  8
MAIN0
  6
CONTINUOUS
 62
3
100
AcDbLine
 10
900.1935584894811
 20
562.9994742105507
 30
0.0000000000000000
 11
891.1935584894811
 21
562.9994742105507
 31
0.0000000000000000
  0
LINE
  5
489
100
AcDbEntity
  8
MAIN0
  6
CONTINUOUS
 62
3
100
AcDbLine
 10
900.1935584894820
 20
548.9994742105507
 30
0.0000000000000000
 11
899.1935584894827
 21
548.9994742105507
 31
0.0000000000000000
  0
LINE
  5
48A
100
AcDbEntity
  8
MAIN0
  6
CONTINUOUS
 62
3
100
AcDbLine
 10
866.6935584895016
 20
368.9994742105507
 30
0.0000000000000000
 11
852.2935584895015
 21
368.9994742105507
 31
0.0000000000000000
  0
LINE
  5
48B
100
AcDbEntity
  8
MAIN0
  6
CONTINUOUS
 62
3
100
AcDbLine
 10
875.6935584895017
 20
365.9994742105507
 30
0.0000000000000000
 11
866.6935584895018
 21
365.9994742105507
 31
0.0000000000000000
  0
LINE
  5
48C
100
AcDbEntity
  8
MAIN0
  6
CONTINUOUS
 62
3
100
AcDbLine
 10
866.6935584895008
 20
375.9994742105507
 30
0.0000000000000000
 11
866.6935584895018
 21
365.9994742105507
 31
0.0000000000000000
  0
LINE
  5
48D
100
AcDbEntity
  8
MAIN0
  6
CONTINUOUS
 62
3
100
AcDbLine
 10
851.6935584895005
 20
375.9994742105507
 30
0.0000000000000000
 11
851.6935584895011
 21
369.5994742105509
 31
0.0000000000000000
  0
LINE
  5
48E
100
AcDbEntity
  8
MAIN0
  6
CONTINUOUS
 62
3
100
AcDbLine
 10
894.1935584895018
 20
361.9994742105507
 30
0.0000000000000000
 11
890.6217617197697
 21
361.9994742105507
 31
0.0000000000000000
  0
LINE
  5
48F
100
AcDbEntity
  8
MAIN0
  6
CONTINUOUS
 62
3
100
AcDbLine
 10
875.6935584895009
 20
375.9994742105505
 30
0.0000000000000000
 11
875.6935584895018
 21
365.9994742105505
 31
0.0000000000000000
  0
LINE
  5
490
100
AcDbEntity
  8
MAIN0
  6
CONTINUOUS
 62
3
100
AcDbLine
 10
851.6935584895011
 20
369.5994742105507
 30
0.0000000000000000
 11
852.2935584895013
 21
368.9994742105507
 31
0.0000000000000000
  0
LINE
  5
491
100
AcDbEntity
  8
MAIN0
  6
CONTINUOUS
 62
3
100
AcDbLine
 10
875.6935584895017
 20
365.9994742105470
 30
0.0000000000000000
 11
890.3038453509821
 21
362.0846596448282
 31
0.0000000000000000
  0
LINE
  5
492
100
AcDbEntity
  8
MAIN0
  6
CONTINUOUS
 62
3
100
AcDbLine
 10
851.6935584895008
 20
375.9994742105506
 30
0.0000000000000000
 11
866.6935584895008
 21
375.9994742105506
 31
0.0000000000000000
  0
LINE
  5
493
100
AcDbEntity
  8
MAIN0
  6
CONTINUOUS
 62
3
100
AcDbLine
 10
866.6935584895015
 20
382.9994742105507
 30
0.0000000000000000
 11
852.2935584895014
 21
382.9994742105507
 31
0.0000000000000000
  0
LINE
  5
494
100
AcDbEntity
  8
MAIN0
  6
CONTINUOUS
 62
3
100
AcDbLine
 10
875.6935584895016
 20
385.9994742105507
 30
0.0000000000000000
 11
866.6935584895017
 21
385.9994742105507
 31
0.0000000000000000
  0
LINE
  5
495
100
AcDbEntity
  8
MAIN0
  6
CONTINUOUS
 62
3
100
AcDbLine
 10
866.6935584895009
 20
375.9994742105507
 30
0.0000000000000000
 11
866.6935584895020
 21
385.9994742105507
 31
0.0000000000000000
  0
LINE
  5
496
100
AcDbEntity
  8
MAIN0
  6
CONTINUOUS
 62
3
100
AcDbLine
 10
851.6935584895008
 20
375.9994742105507
 30
0.0000000000000000
 11
851.6935584895014
 21
382.3994742105508
 31
0.0000000000000000
  0
LINE
  5
497
100
AcDbEntity
  8
MAIN0
  6
CONTINUOUS
 62
3
100
AcDbLine
 10
875.6935584895009
 20
375.9994742105507
 30
0.0000000000000000
 11
875.6935584895019
 21
385.9994742105507
 31
0.0000000000000000
  0
LINE
  5
498
100
AcDbEntity
  8
MAIN0
  6
CONTINUOUS
 62
3
100
AcDbLine
 10
851.6935584895016
 20
382.3994742105506
 30
0.0000000000000000
 11
852.2935584895017
 21
382.9994742105506
 31
0.0000000000000000
  0
LINE
  5
499
100
AcDbEntity
  8
MAIN0
  6
CONTINUOUS
 62
3
100
AcDbLine
 10
875.6935584895016
 20
385.9994742105548
 30
0.0000000000000000
 11
884.2464727601132
 21
388.2912206822966
 31
0.0000000000000000
  0
ARC
  5
49A
100
AcDbEntity
  8
MAIN0
  6
CONTINUOUS
 62
3
100
AcDbCircle
 10
882.6935584894989
 20
394.0867756400311
 30
0.0000000000000000
 40
6.000000000000000
100
AcDbArc
 50
284.9999999999930
 51
360.0000000000001
  0
ARC
  5
49B
100
AcDbEntity
  8
MAIN0
  6
CONTINUOUS
 62
3
100
AcDbCircle
 10
894.1935584895020
 20
364.4994742105508
 30
0.0000000000000000
 40
2.500000000000000
100
AcDbArc
 50
270.0000000000001
 51
360.0000000000001
  0
ARC
  5
49C
100
AcDbEntity
  8
MAIN0
  6
CONTINUOUS
 62
3
100
AcDbCircle
 10
890.9508929637382
 20
364.4994742105508
 30
0.0000000000000000
 40
2.500000000000000
100
AcDbArc
 50
255.0000000000070
 51
270.0000000000001
  0
ARC
  5
49D
100
AcDbEntity
  8
MAIN0
  6
CONTINUOUS
 62
3
100
AcDbCircle
 10
891.1935584894814
 20
560.4994742105507
 30
0.0000000000000000
 40
2.500000000000000
100
AcDbArc
 50
90.00000000000007
 51
180.0000000000001
  0
ARC
  5
49E
100
AcDbEntity
  8
MAIN0
  6
CONTINUOUS
 62
3
100
AcDbCircle
 10
899.1935584894827
 20
546.4994742105508
 30
0.0000000000000000
 40
2.500000000000000
100
AcDbArc
 50
90.00000000000007
 51
180.0000000000001
  0
ARC
  5
49F
100
AcDbEntity
  8
MAIN0
  6
CONTINUOUS
 62
3
100
AcDbCircle
 10
891.1935584894814
 20
560.4994742105508
 30
0.0000000000000000
 40
2.500000000000000
100
AcDbArc
 50
90.00000000000007
 51
180.0000000000001
  0
ARC
  5
4A0
100
AcDbEntity
  8
MAIN0
  6
CONTINUOUS
 62
3
100
AcDbCircle
 10
899.1935584894829
 20
546.4994742105508
 30
0.0000000000000000
 40
2.500000000000000
100
AcDbArc
 50
90.00000000000007
 51
180.0000000000001
  0
ARC
  5
4A1
100
AcDbEntity
  8
MAIN0
  6
CONTINUOUS
 62
3
100
AcDbCircle
 10
900.1935584894814
 20
560.4994742105508
 30
0.0000000000000000
 40
2.500000000000000
100
AcDbArc
 50
7.633331235512440e-014
 51
90.00000000000007
  0
ARC
  5
4A2
100
AcDbEntity
  8
MAIN0
  6
CONTINUOUS
 62
3
100
AcDbCircle
 10
900.1935584894823
 20
551.4994742105508
 30
0.0000000000000000
 40
2.500000000000000
100
AcDbArc
 50
270.0000000000001
 51
360.0000000000001
  0
LINE
  5
4A3
100
AcDbEntity
  8
MAIN1
  6
CONTINUOUS
 62
7
100
AcDbLine
 10
903.1935584894818
 20
548.9994742105508
 30
0.0000000000000000
 11
903.1935584894818
 21
551.1004947249844
 31
0.0000000000000000
  0
LINE
  5
4A4
100
AcDbEntity
  8
MAIN1
  6
CONTINUOUS
 62
7
100
AcDbLine
 10
902.6935584894818
 20
549.4994742105507
 30
0.0000000000000000
 11
902.6935584894818
 21
562.4994742105507
 31
0.0000000000000000
  0
LINE
  5
4A5
100
AcDbEntity
  8
MAIN1
  6
CONTINUOUS
 62
7
100
AcDbLine
 10
903.1935584894818
 20
548.9994742105508
 30
0.0000000000000000
 11
910.1935584894818
 21
548.9994742105508
 31
0.0000000000000000
  0
LINE
  5
4A6
100
AcDbEntity
  8
MAIN1
  6
CONTINUOUS
 62
7
100
AcDbLine
 10
903.1935584894820
 20
562.9994742105507
 30
0.0000000000000000
 11
910.1935584894820
 21
562.9994742105507
 31
0.0000000000000000
  0
LINE
  5
4A7
100
AcDbEntity
  8
MAIN1
  6
CONTINUOUS
 62
7
100
AcDbLine
 10
902.6935584894820
 20
549.4994742105507
 30
0.0000000000000000
 11
903.1935584894820
 21
548.9994742105509
 31
0.0000000000000000
  0
LINE
  5
4A8
100
AcDbEntity
  8
MAIN1
  6
CONTINUOUS
 62
7
100
AcDbLine
 10
910.1935584894820
 20
548.9994742105509
 30
0.0000000000000000
 11
910.6935584894820
 21
549.4994742105507
 31
0.0000000000000000
  0
LINE
  5
4A9
100
AcDbEntity
  8
MAIN1
  6
CONTINUOUS
 62
7
100
AcDbLine
 10
910.1935584894818
 20
562.9994742105508
 30
0.0000000000000000
 11
910.6935584894818
 21
562.4994742105509
 31
0.0000000000000000
  0
LINE
  5
4AA
100
AcDbEntity
  8
MAIN1
  6
CONTINUOUS
 62
7
100
AcDbLine
 10
903.1935584894818
 20
562.9994742105507
 30
0.0000000000000000
 11
902.6935584894818
 21
562.4994742105507
 31
0.0000000000000000
  0
LINE
  5
4AB
100
AcDbEntity
  8
MAIN1
  6
CONTINUOUS
 62
7
100
AcDbLine
 10
902.6935584894818
 20
560.8984536961170
 30
0.0000000000000000
 11
908.6935584894818
 21
560.8984536961170
 31
0.0000000000000000
  0
LINE
  5
4AC
100
AcDbEntity
  8
MAIN1
  6
CONTINUOUS
 62
7
100
AcDbLine
 10
902.6935584894818
 20
551.1004947249844
 30
0.0000000000000000
 11
908.6935584894818
 21
551.1004947249844
 31
0.0000000000000000
  0
LINE
  5
4AD
100
AcDbEntity
  8
MAIN1
  6
CONTINUOUS
 62
7
100
AcDbLine
 10
903.1935584894818
 20
560.8984536961170
 30
0.0000000000000000
 11
903.1935584894818
 21
562.9994742105507
 31
0.0000000000000000
  0
LINE
  5
4AE
100
AcDbEntity
  8
MAIN1
  6
CONTINUOUS
 62
7
100
AcDbLine
 10
910.1935584894818
 20
548.9994742105508
 30
0.0000000000000000
 11
910.1935584894818
 21
562.9994742105507
 31
0.0000000000000000
  0
LINE
  5
4AF
100
AcDbEntity
  8
MAIN1
  6
CONTINUOUS
 62
7
100
AcDbLine
 10
910.6935584894818
 20
562.4858958659000
 30
0.0000000000000000
 11
910.6935584894818
 21
549.5130525552014
 31
0.0000000000000000
  0
LINE
  5
4B0
100
AcDbEntity
  8
MAIN1
  6
CONTINUOUS
 62
7
100
AcDbLine
 10
965.0184516516586
 20
546.9994742105506
 30
0.0000000000000000
 11
928.6935584894818
 21
546.9994742105506
 31
0.0000000000000000
  0
LINE
  5
4B1
100
AcDbEntity
  8
MAIN1
  6
CONTINUOUS
 62
7
100
AcDbLine
 10
965.0184516516586
 20
564.9994742105508
 30
0.0000000000000000
 11
928.6935584894818
 21
564.9994742105508
 31
0.0000000000000000
  0
LINE
  5
4B2
100
AcDbEntity
  8
MAIN1
  6
CONTINUOUS
 62
7
100
AcDbLine
 10
912.2048064580858
 20
547.9155159900729
 30
0.0000000000000000
 11
928.6935584894818
 21
546.9994742105506
 31
0.0000000000000000
  0
LINE
  5
4B3
100
AcDbEntity
  8
MAIN1
  6
CONTINUOUS
 62
7
100
AcDbLine
 10
928.6935584894820
 20
564.9994742105508
 30
0.0000000000000000
 11
912.2048064580858
 21
564.0834324310287
 31
0.0000000000000000
  0
ARC
  5
4B4
100
AcDbEntity
  8
MAIN1
  6
CONTINUOUS
 62
7
100
AcDbCircle
 10
938.6935584894818
 20
555.9994742105507
 30
0.0000000000000000
 40
30.00000000000000
100
AcDbArc
 50
347.1604115930955
 51
372.8395884069045
  0
ARC
  5
4B5
100
AcDbEntity
  8
MAIN1
  6
CONTINUOUS
 62
7
100
AcDbCircle
 10
965.0184516516586
 20
549.9994742105506
 30
0.0000000000000000
 40
3.000000000000000
100
AcDbArc
 50
270.0000000000000
 51
347.1604115930957
  0
ARC
  5
4B6
100
AcDbEntity
  8
MAIN1
  6
CONTINUOUS
 62
7
100
AcDbCircle
 10
965.0184516516586
 20
561.9994742105508
 30
0.0000000000000000
 40
3.000000000000000
100
AcDbArc
 50
12.83958840690469
 51
89.99999999999946
  0
ARC
  5
4B7
100
AcDbEntity
  8
MAIN1
  6
CONTINUOUS
 62
7
100
AcDbCircle
 10
912.2935584894819
 20
549.5130525552014
 30
0.0000000000000000
 40
1.600000000000000
100
AcDbArc
 50
180.0000000000000
 51
266.8201698801350
  0
ARC
  5
4B8
100
AcDbEntity
  8
MAIN1
  6
CONTINUOUS
 62
7
100
AcDbCircle
 10
912.2935584894819
 20
562.4858958659000
 30
0.0000000000000000
 40
1.600000000000000
100
AcDbArc
 50
93.17983011986493
 51
179.9999999999999
  0
LINE
  5
4B9
100
AcDbEntity
  8
MAIN1
  6
CONTINUOUS
 62
7
100
AcDbLine
 10
908.6935584894818
 20
551.1004947249844
 30
0.0000000000000000
 11
908.6935584894818
 21
560.8984536961170
 31
0.0000000000000000
  0
LINE
  5
4BA
100
AcDbEntity
  8
MAIN3
  6
CONTINUOUS
 62
3
100
AcDbLine
 10
902.6935584894818
 20
551.1004947249844
 30
0.0000000000000000
 11
908.6935584894818
 21
560.8984536961171
 31
0.0000000000000000
  0
LINE
  5
4BB
100
AcDbEntity
  8
MAIN3
  6
CONTINUOUS
 62
3
100
AcDbLine
 10
902.6935584894820
 20
560.8984536961173
 30
0.0000000000000000
 11
908.6935584894820
 21
551.1004947249846
 31
0.0000000000000000
  0
LINE
  5
4BC
100
AcDbEntity
  8
MAIN1
  6
CONTINUOUS
 62
7
100
AcDbLine
 10
928.6935584894818
 20
564.9994742105508
 30
0.0000000000000000
 11
928.6935584894818
 21
546.9994742105506
 31
0.0000000000000000
  0
LINE
  5
4BD
100
AcDbEntity
  8
MAIN0
  6
CONTINUOUS
 62
3
100
AcDbLine
 10
958.8974848457706
 20
345.9994867203799
 30
0.0000000000000000
 11
958.8974848457706
 21
360.3994867203800
 31
0.0000000000000000
  0
LINE
  5
4BE
100
AcDbEntity
  8
MAIN0
  6
CONTINUOUS
 62
3
100
AcDbLine
 10
958.8974848457710
 20
360.3994867203800
 30
0.0000000000000000
 11
956.1262035536608
 21
361.9994867203799
 31
0.0000000000000000
  0
LINE
  5
4BF
100
AcDbEntity
  8
MAIN0
  6
CONTINUOUS
 62
3
100
AcDbLine
 10
956.1262035536606
 20
361.9994867203799
 30
0.0000000000000000
 11
937.6687661378810
 21
361.9994867203799
 31
0.0000000000000000
  0
LINE
  5
4C0
100
AcDbEntity
  8
MAIN0
  6
CONTINUOUS
 62
3
100
AcDbLine
 10
937.6687661378812
 20
361.9994867203801
 30
0.0000000000000000
 11
934.8974848457708
 21
360.3994867203800
 31
0.0000000000000000
  0
LINE
  5
4C1
100
AcDbEntity
  8
MAIN0
  6
CONTINUOUS
 62
3
100
AcDbLine
 10
934.8974848457706
 20
360.3994867203800
 30
0.0000000000000000
 11
934.8974848457706
 21
345.9994867203799
 31
0.0000000000000000
  0
LINE
  5
4C2
100
AcDbEntity
  8
MAIN0
  6
CONTINUOUS
 62
3
100
AcDbLine
 10
958.8974848457706
 20
360.3994867203800
 30
0.0000000000000000
 11
934.8974848457706
 21
360.3994867203800
 31
0.0000000000000000
  0
LINE
  5
4C3
100
AcDbEntity
  8
MAIN0
  6
CONTINUOUS
 62
3
100
AcDbLine
 10
964.3974848457706
 20
345.9994867203799
 30
0.0000000000000000
 11
929.3974848457706
 21
345.9994867203799
 31
0.0000000000000000
  0
LINE
  5
4C4
100
AcDbEntity
  8
MAIN0
  6
CONTINUOUS
 62
3
100
AcDbLine
 10
964.3974848457706
 20
340.9994867203799
 30
0.0000000000000000
 11
964.3974848457706
 21
345.9994867203799
 31
0.0000000000000000
  0
LINE
  5
4C5
100
AcDbEntity
  8
MAIN0
  6
CONTINUOUS
 62
3
100
AcDbLine
 10
929.3974848457706
 20
340.9994867203799
 30
0.0000000000000000
 11
929.3974848457706
 21
345.9994867203799
 31
0.0000000000000000
  0
LINE
  5
4C6
100
AcDbEntity
  8
MAIN0
  6
CONTINUOUS
 62
3
100
AcDbLine
 10
932.6474848457533
 20
280.9994867204949
 30
0.0000000000000000
 11
932.6474848457458
 21
291.9994867204949
 31
0.0000000000000000
  0
LINE
  5
4C7
100
AcDbEntity
  8
MAIN0
  6
CONTINUOUS
 62
3
100
AcDbLine
 10
961.1474848457533
 20
280.9994867205069
 30
0.0000000000000000
 11
961.1474848457458
 21
291.9994867205069
 31
0.0000000000000000
  0
LINE
  5
4C8
100
AcDbEntity
  8
MAIN0
  6
CONTINUOUS
 62
3
100
AcDbLine
 10
932.6474848457538
 20
280.9994867204950
 30
0.0000000000000000
 11
961.1474848457538
 21
280.9994867205069
 31
0.0000000000000000
  0
LINE
  5
4C9
100
AcDbEntity
  8
MAIN0
  6
CONTINUOUS
 62
3
100
AcDbLine
 10
938.1474848457401
 20
299.9994867204972
 30
0.0000000000000000
 11
955.6474848457401
 21
299.9994867205045
 31
0.0000000000000000
  0
LINE
  5
4CA
100
AcDbEntity
  8
MAIN0
  6
CONTINUOUS
 62
3
100
AcDbLine
 10
932.6474848457456
 20
291.9994867204950
 30
0.0000000000000000
 11
938.1474848457456
 21
291.9994867204973
 31
0.0000000000000000
  0
LINE
  5
4CB
100
AcDbEntity
  8
MAIN0
  6
CONTINUOUS
 62
3
100
AcDbLine
 10
955.6474848457458
 20
291.9994867205045
 30
0.0000000000000000
 11
961.1474848457458
 21
291.9994867205069
 31
0.0000000000000000
  0
LINE
  5
4CC
100
AcDbEntity
  8
MAIN0
  6
CONTINUOUS
 62
3
100
AcDbLine
 10
938.1474848457458
 20
291.9994867204971
 30
0.0000000000000000
 11
938.1474848457403
 21
299.9994867204971
 31
0.0000000000000000
  0
LINE
  5
4CD
100
AcDbEntity
  8
MAIN0
  6
CONTINUOUS
 62
3
100
AcDbLine
 10
955.6474848457458
 20
291.9994867205045
 30
0.0000000000000000
 11
955.6474848457403
 21
299.9994867205045
 31
0.0000000000000000
  0
LINE
  5
4CE
100
AcDbEntity
  8
MAIN0
  6
CONTINUOUS
 62
3
100
AcDbLine
 10
939.9800168457534
 20
310.9994867205040
 30
0.0000000000000000
 11
939.9800168457534
 21
299.9994867205069
 31
0.0000000000000000
  0
LINE
  5
4CF
100
AcDbEntity
  8
MAIN0
  6
CONTINUOUS
 62
3
100
AcDbLine
 10
938.8974848457535
 20
299.9994867205069
 30
0.0000000000000000
 11
938.8974848457535
 21
310.9994867205035
 31
0.0000000000000000
  0
LINE
  5
4D0
100
AcDbEntity
  8
MAIN0
  6
CONTINUOUS
 62
3
100
AcDbLine
 10
953.8149528457536
 20
310.9994867205098
 30
0.0000000000000000
 11
953.8149528457536
 21
299.9994867205069
 31
0.0000000000000000
  0
LINE
  5
4D1
100
AcDbEntity
  8
MAIN0
  6
CONTINUOUS
 62
3
100
AcDbLine
 10
954.8974848457535
 20
310.9994867205102
 30
0.0000000000000000
 11
954.8974848457535
 21
299.9994867205069
 31
0.0000000000000000
  0
LINE
  5
4D2
100
AcDbEntity
  8
MAIN0
  6
CONTINUOUS
 62
3
100
AcDbLine
 10
1040.263257168531
 20
218.1899753142492
 30
0.0000000000000000
 11
1070.263257168531
 21
218.1899753142409
 31
0.0000000000000000
  0
LINE
  5
4D3
100
AcDbEntity
  8
MAIN0
  6
HIDDEN
 62
3
100
AcDbLine
 10
1040.263257168535
 20
212.6899753142493
 30
0.0000000000000000
 11
1070.263257168535
 21
212.6899753142410
 31
0.0000000000000000
  0
LINE
  5
4D4
100
AcDbEntity
  8
MAIN0
  6
CONTINUOUS
 62
3
100
AcDbLine
 10
1070.263257168551
 20
189.6899753142411
 30
0.0000000000000000
 11
1070.263257168531
 21
218.1899753142411
 31
0.0000000000000000
  0
LINE
  5
4D5
100
AcDbEntity
  8
MAIN0
  6
CENTER
 62
3
100
AcDbLine
 10
1037.000639146252
 20
203.9399753142502
 30
0.0000000000000000
 11
1073.818736509890
 21
203.9399753142400
 31
0.0000000000000000
  0
LINE
  5
4D6
100
AcDbEntity
  8
MAIN0
  6
HIDDEN
 62
3
100
AcDbLine
 10
1040.263257168548
 20
195.1899753142494
 30
0.0000000000000000
 11
1070.263257168547
 21
195.1899753142411
 31
0.0000000000000000
  0
LINE
  5
4D7
100
AcDbEntity
  8
MAIN0
  6
CONTINUOUS
 62
3
100
AcDbLine
 10
1040.263257168551
 20
189.6899753142494
 30
0.0000000000000000
 11
1070.263257168551
 21
189.6899753142411
 31
0.0000000000000000
  0
LINE
  5
4D8
100
AcDbEntity
  8
MAIN0
  6
CONTINUOUS
 62
3
100
AcDbLine
 10
1040.263257168551
 20
189.6899753142494
 30
0.0000000000000000
 11
1040.263257168532
 21
218.1899753142494
 31
0.0000000000000000
  0
LINE
  5
4D9
100
AcDbEntity
  8
MAIN0
  6
CONTINUOUS
 62
3
100
AcDbLine
 10
1040.263257168583
 20
280.9994867203432
 30
0.0000000000000000
 11
1040.263257168570
 21
299.9994867203432
 31
0.0000000000000000
  0
LINE
  5
4DA
100
AcDbEntity
  8
MAIN0
  6
CONTINUOUS
 62
3
100
AcDbLine
 10
1040.263257168570
 20
299.9994867203432
 30
0.0000000000000000
 11
1070.263257168570
 21
299.9994867203556
 31
0.0000000000000000
  0
LINE
  5
4DB
100
AcDbEntity
  8
MAIN0
  6
CONTINUOUS
 62
3
100
AcDbLine
 10
1040.263257168576
 20
291.9994867203433
 30
0.0000000000000000
 11
1070.263257168576
 21
291.9994867203557
 31
0.0000000000000000
  0
LINE
  5
4DC
100
AcDbEntity
  8
MAIN0
  6
CONTINUOUS
 62
3
100
AcDbLine
 10
1040.263257168583
 20
280.9994867203432
 30
0.0000000000000000
 11
1070.263257168583
 21
280.9994867203556
 31
0.0000000000000000
  0
LINE
  5
4DD
100
AcDbEntity
  8
MAIN0
  6
CONTINUOUS
 62
3
100
AcDbLine
 10
1070.263257168583
 20
280.9994867203556
 30
0.0000000000000000
 11
1070.263257168570
 21
299.9994867203556
 31
0.0000000000000000
  0
CIRCLE
  5
4DE
100
AcDbEntity
  8
MAIN0
  6
CONTINUOUS
 62
3
100
AcDbCircle
 10
1055.263257168541
 20
203.9399753142453
 30
0.0000000000000000
 40
8.000000000000000
  0
CIRCLE
  5
4DF
100
AcDbEntity
  8
MAIN0
  6
CONTINUOUS
 62
3
100
AcDbCircle
 10
1055.263257168541
 20
203.9399753142453
 30
0.0000000000000000
 40
7.000000000000000
  0
LINE
  5
4E0
100
AcDbEntity
  8
WAKU0
  6
CONTINUOUS
 62
3
100
AcDbLine
 10
240.0000000000000
 20
51.00000000000000
 30
0.0000000000000000
 11
410.0000000000000
 21
51.00000000000000
 31
0.0000000000000000
  0
LINE
  5
4E1
100
AcDbEntity
  8
WAKU0
  6
CONTINUOUS
 62
3
100
AcDbLine
 10
240.0000000000000
 20
51.00000000000000
 30
0.0000000000000000
 11
240.0000000000000
 21
12.00000000000000
 31
0.0000000000000000
  0
LINE
  5
4E2
100
AcDbEntity
  8
WAKU0
  6
CONTINUOUS
 62
3
100
AcDbLine
 10
312.0000000000000
 20
51.00000000000000
 30
0.0000000000000000
 11
312.0000000000000
 21
12.00000000000000
 31
0.0000000000000000
  0
LINE
  5
4E3
100
AcDbEntity
  8
WAKU0
  6
CONTINUOUS
 62
3
100
AcDbLine
 10
332.0000000000000
 20
51.00000000000000
 30
0.0000000000000000
 11
332.0000000000000
 21
12.00000000000000
 31
0.0000000000000000
  0
LINE
  5
4E4
100
AcDbEntity
  8
WAKU0
  6
CONTINUOUS
 62
3
100
AcDbLine
 10
344.0000000000000
 20
51.00000000000000
 30
0.0000000000000000
 11
344.0000000000000
 21
12.00000000000000
 31
0.0000000000000000
  0
LINE
  5
4E5
100
AcDbEntity
  8
WAKU0
  6
CONTINUOUS
 62
3
100
AcDbLine
 10
344.0000000000000
 20
37.00000000000000
 30
0.0000000000000000
 11
410.0000000000000
 21
37.00000000000000
 31
0.0000000000000000
  0
LINE
  5
4E6
100
AcDbEntity
  8
WAKU0
  6
CONTINUOUS
 62
3
100
AcDbLine
 10
332.0000000000000
 20
23.00000000000000
 30
0.0000000000000000
 11
410.0000000000000
 21
23.00000000000000
 31
0.0000000000000000
  0
LINE
  5
4E7
100
AcDbEntity
  8
WAKU0
  6
CONTINUOUS
 62
3
100
AcDbLine
 10
375.0000000000000
 20
51.00000000000000
 30
0.0000000000000000
 11
375.0000000000000
 21
44.00000000000000
 31
0.0000000000000000
  0
LINE
  5
4E8
100
AcDbEntity
  8
WAKU0
  6
CONTINUOUS
 62
3
100
AcDbLine
 10
387.0000000000000
 20
51.00000000000000
 30
0.0000000000000000
 11
387.0000000000000
 21
44.00000000000000
 31
0.0000000000000000
  0
LINE
  5
4E9
100
AcDbEntity
  8
WAKU0
  6
CONTINUOUS
 62
3
100
AcDbLine
 10
312.0000000000000
 20
31.50000000000000
 30
0.0000000000000000
 11
332.0000000000000
 21
31.50000000000000
 31
0.0000000000000000
  0
LINE
  5
4EA
100
AcDbEntity
  8
WAKU0
  6
CONTINUOUS
 62
3
100
AcDbLine
 10
332.0000000000000
 20
44.00000000000000
 30
0.0000000000000000
 11
410.0000000000000
 21
44.00000000000000
 31
0.0000000000000000
  0
LINE
  5
4EB
100
AcDbEntity
  8
WAKU0
  6
CONTINUOUS
 62
3
100
AcDbLine
 10
240.0000000000000
 20
37.00000000000000
 30
0.0000000000000000
 11
312.0000000000000
 21
37.00000000000000
 31
0.0000000000000000
  0
LINE
  5
4EC
100
AcDbEntity
  8
WAKU0
  6
CONTINUOUS
 62
3
100
AcDbLine
 10
240.0000000000000
 20
23.00000000000000
 30
0.0000000000000000
 11
312.0000000000000
 21
23.00000000000000
 31
0.0000000000000000
  0
LINE
  5
4ED
100
AcDbEntity
  8
WAKU0
  6
CONTINUOUS
 62
3
100
AcDbLine
 10
288.0000000000000
 20
37.00000000000000
 30
0.0000000000000000
 11
288.0000000000000
 21
12.00000000000000
 31
0.0000000000000000
  0
LINE
  5
4EE
100
AcDbEntity
  8
WAKU0
  6
CONTINUOUS
 62
3
100
AcDbLine
 10
264.0000000000000
 20
37.00000000000000
 30
0.0000000000000000
 11
264.0000000000000
 21
23.00000000000000
 31
0.0000000000000000
  0
LINE
  5
4EF
100
AcDbEntity
  8
WAKU0
  6
CONTINUOUS
 62
3
100
AcDbLine
 10
300.0000000000000
 20
26.00000000000000
 30
0.0000000000000000
 11
300.0000000000000
 21
23.00000000000000
 31
0.0000000000000000
  0
LINE
  5
4F0
100
AcDbEntity
  8
WAKU0
  6
CONTINUOUS
 62
3
100
AcDbLine
 10
276.0000000000000
 20
26.00000000000000
 30
0.0000000000000000
 11
276.0000000000000
 21
23.00000000000000
 31
0.0000000000000000
  0
LINE
  5
4F1
100
AcDbEntity
  8
WAKU0
  6
CONTINUOUS
 62
3
100
AcDbLine
 10
252.0000000000000
 20
26.00000000000000
 30
0.0000000000000000
 11
252.0000000000000
 21
23.00000000000000
 31
0.0000000000000000
  0
LINE
  5
4F2
100
AcDbEntity
  8
WAKU0
  6
CONTINUOUS
 62
3
100
AcDbLine
 10
258.0000000000000
 20
51.00000000000000
 30
0.0000000000000000
 11
258.0000000000000
 21
37.00000000000000
 31
0.0000000000000000
  0
LINE
  5
4F3
100
AcDbEntity
  8
WAKU0
  6
CONTINUOUS
 62
3
100
AcDbLine
 10
240.0000000000000
 20
45.00000000000000
 30
0.0000000000000000
 11
312.0000000000000
 21
45.00000000000000
 31
0.0000000000000000
  0
LINE
  5
4F4
100
AcDbEntity
  8
WAKU0
  6
HIDDEN
 62
3
100
AcDbLine
 10
360.5000000000000
 20
23.00000000000000
 30
0.0000000000000000
 11
360.5000000000000
 21
12.00000000000000
 31
0.0000000000000000
  0
LINE
  5
4F5
100
AcDbEntity
  8
WAKU0
  6
HIDDEN
 62
3
100
AcDbLine
 10
372.9000000000000
 20
23.00000000000000
 30
0.0000000000000000
 11
372.9000000000000
 21
12.00000000000000
 31
0.0000000000000000
  0
MTEXT
  5
4F6
100
AcDbEntity
  8
WAKU0
  6
CONTINUOUS
 62
3
100
AcDbMText
 10
344.4820000243485
 20
49.04999995231628
 30
0.0000000000000000
 40
3.099999904632568
 41
0.0000000000000000
 71
     1
 72
     1
  1
{\H0.92x;{VQX125N}}
 11
1.000000000000000
 21
0.0000000000000000
 31
0.0000000000000000
  7
STANDARD
  0
MTEXT
  5
4F7
100
AcDbEntity
  8
WAKU0
  6
CONTINUOUS
 62
3
100
AcDbMText
 10
360.3350002765656
 20
43.50000000000000
 30
0.0000000000000000
 40
3.000000000000000
 41
0.0000000000000000
 71
     1
 72
     1
  1
{\H0.94x;{パワーバイス\PＰＯＷＥＲ　ＶＩＳＥ}}
 11
1.000000000000000
 21
0.0000000000000000
 31
0.0000000000000000
  7
KNJYOKO
  0
MTEXT
  5
4F8
100
AcDbEntity
  8
WAKU0
  6
CONTINUOUS
 62
3
100
AcDbMText
 10
348.9999989867210
 20
34.83333333333333
 30
0.0000000000000000
 40
4.000000000000000
 41
0.0000000000000000
 71
     1
 72
     1
  1
{\H0.59x;{ＶＱＸ１２５Ｎ　ガイケイ\PＶＱＸ１２５Ｎ　ＯＵＴＳＩＤＥ　ＶＩＥＷ}}
 11
1.000000000000000
 21
0.0000000000000000
 31
0.0000000000000000
  7
KNJYOKO
  0
MTEXT
  5
4F9
100
AcDbEntity
  8
WAKU0
  6
CONTINUOUS
 62
3
100
AcDbMText
 10
318.0049998760223
 20
39.29999995231628
 30
0.0000000000000000
 40
3.099999904632568
 41
0.0000000000000000
 71
     1
 72
     1
  1
{\H0.90x;{1:3}}
 11
1.000000000000000
 21
0.0000000000000000
 31
0.0000000000000000
  7
STANDARD
  0
MTEXT
  5
4FA
100
AcDbEntity
  8
WAKU0
  6
CONTINUOUS
 62
3
100
AcDbMText
 10
374.4000001549721
 20
20.15000009536743
 30
0.0000000000000000
 40
5.300000190734863
 41
0.0000000000000000
 71
     1
 72
     1
  1
{\H0.90x;{6444}}
 11
1.000000000000000
 21
0.0000000000000000
 31
0.0000000000000000
  7
STANDARD
  0
MTEXT
  5
4FB
100
AcDbEntity
  8
WAKU0
  6
CONTINUOUS
 62
3
100
AcDbMText
 10
362.3000000834465
 20
20.15000009536743
 30
0.0000000000000000
 40
5.300000190734863
 41
0.0000000000000000
 71
     1
 72
     1
  1
{\H0.87x;{39}}
 11
1.000000000000000
 21
0.0000000000000000
 31
0.0000000000000000
  7
STANDARD
  0
MTEXT
  5
4FC
100
AcDbEntity
  8
WAKU0
  6
CONTINUOUS
 62
3
100
AcDbMText
 10
345.5000001192093
 20
20.15000009536743
 30
0.0000000000000000
 40
5.300000190734863
 41
0.0000000000000000
 71
     1
 72
     1
  1
{\H0.89x;{61M}}
 11
1.000000000000000
 21
0.0000000000000000
 31
0.0000000000000000
  7
STANDARD
  0
MTEXT
  5
4FD
100
AcDbEntity
  8
WAKU0
  6
CONTINUOUS
 62
3
100
AcDbMText
 10
400.0000000476837
 20
20.15000009536743
 30
0.0000000000000000
 40
5.300000190734863
 41
0.0000000000000000
 71
     1
 72
     1
  1
{\H0.81x;{0}}
 11
1.000000000000000
 21
0.0000000000000000
 31
0.0000000000000000
  7
STANDARD
  0
MTEXT
  5
4FE
100
AcDbEntity
  8
WAKU0
  6
CONTINUOUS
 62
3
100
AcDbMText
 10
400.0000000819564
 20
44.84999990463257
 30
0.0000000000000000
 40
5.300000190734863
 41
0.0000000000000000
 71
     7
 72
     1
  1
{\H0.81x;{ }}
 11
1.000000000000000
 21
0.0000000000000000
 31
0.0000000000000000
  7
STANDARD
  0
MTEXT
  5
4FF
100
AcDbEntity
  8
WAKU0
  6
CONTINUOUS
 62
3
100
AcDbMText
 10
289.3850002884865
 20
33.00000000000000
 30
0.0000000000000000
 40
3.000000000000000
 41
0.0000000000000000
 71
     7
 72
     1
  1
{\H0.93x;{DRAWN BY}}
 11
1.000000000000000
 21
0.0000000000000000
 31
0.0000000000000000
  7
STANDARD
  0
MTEXT
  5
500
100
AcDbEntity
  8
WAKU0
  6
CONTINUOUS
 62
3
100
AcDbMText
 10
269.2149997949600
 20
32.95000004768372
 30
0.0000000000000000
 40
3.099999904632568
 41
0.0000000000000000
 71
     7
 72
     1
  1
{\H0.92x;{CHIEF}}
 11
1.000000000000000
 21
0.0000000000000000
 31
0.0000000000000000
  7
STANDARD
  0
MTEXT
  5
501
100
AcDbEntity
  8
WAKU0
  6
CONTINUOUS
 62
3
100
AcDbMText
 10
242.4249997138977
 20
32.95000004768372
 30
0.0000000000000000
 40
3.099999904632568
 41
0.0000000000000000
 71
     7
 72
     1
  1
{\H0.92x;{MANAGER}}
 11
1.000000000000000
 21
0.0000000000000000
 31
0.0000000000000000
  7
STANDARD
  0
MTEXT
  5
502
100
AcDbEntity
  8
WAKU0
  6
CONTINUOUS
 62
3
100
AcDbMText
 10
244.6599994301796
 20
18.13333336512248
 30
0.0000000000000000
 40
3.099999904632568
 41
0.0000000000000000
 71
     7
 72
     1
  1
{\H0.93x;{KITAGAWA IRON\PWORKS CO.,LTD.}}
 11
1.000000000000000
 21
0.0000000000000000
 31
0.0000000000000000
  7
STANDARD
  0
MTEXT
  5
503
100
AcDbEntity
  8
WAKU0
  6
CONTINUOUS
 62
3
100
AcDbMText
 10
241.0850002169609
 20
46.50000000000000
 30
0.0000000000000000
 40
3.000000000000000
 41
0.0000000000000000
 71
     7
 72
     1
  1
{\H0.92x;{CAREER}}
 11
1.000000000000000
 21
0.0000000000000000
 31
0.0000000000000000
  7
STANDARD
  0
MTEXT
  5
504
100
AcDbEntity
  8
WAKU0
  6
CONTINUOUS
 62
3
100
AcDbMText
 10
294.6099998354912
 20
18.95000004768372
 30
0.0000000000000000
 40
3.099999904632568
 41
0.0000000000000000
 71
     7
 72
     1
  1
{\H0.91x;{DATE}}
 11
1.000000000000000
 21
0.0000000000000000
 31
0.0000000000000000
  7
STANDARD
  0
MTEXT
  5
505
100
AcDbEntity
  8
WAKU0
  6
CONTINUOUS
 62
3
100
AcDbMText
 10
313.9000002145767
 20
26.50000000000000
 30
0.0000000000000000
 40
3.000000000000000
 41
0.0000000000000000
 71
     7
 72
     1
  1
{\H0.63x;{3RD ANGLE}}
 11
1.000000000000000
 21
0.0000000000000000
 31
0.0000000000000000
  7
STANDARD
  0
MTEXT
  5
506
100
AcDbEntity
  8
WAKU0
  6
CONTINUOUS
 62
3
100
AcDbMText
 10
315.2149997949600
 20
45.95000004768372
 30
0.0000000000000000
 40
3.099999904632568
 41
0.0000000000000000
 71
     7
 72
     1
  1
{\H0.92x;{SCALE}}
 11
1.000000000000000
 21
0.0000000000000000
 31
0.0000000000000000
  7
STANDARD
  0
MTEXT
  5
507
100
AcDbEntity
  8
WAKU0
  6
CONTINUOUS
 62
3
100
AcDbMText
 10
405.7000000476837
 20
46.00000000000000
 30
0.0000000000000000
 40
3.000000000000000
 41
0.0000000000000000
 71
     7
 72
     1
  1
{\H0.63x;{kg}}
 11
1.000000000000000
 21
0.0000000000000000
 31
0.0000000000000000
  7
STANDARD
  0
MTEXT
  5
508
100
AcDbEntity
  8
WAKU0
  6
CONTINUOUS
 62
3
100
AcDbMText
 10
375.6000001430512
 20
46.00000000000000
 30
0.0000000000000000
 40
3.000000000000000
 41
0.0000000000000000
 71
     7
 72
     1
  1
{\H0.63x;{WEIGHT}}
 11
1.000000000000000
 21
0.0000000000000000
 31
0.0000000000000000
  7
STANDARD
  0
MTEXT
  5
509
100
AcDbEntity
  8
WAKU0
  6
CONTINUOUS
 62
3
100
AcDbMText
 10
334.0049998760223
 20
18.13333336512248
 30
0.0000000000000000
 40
3.099999904632568
 41
0.0000000000000000
 71
     7
 72
     1
  1
{\H0.90x;{DRW\PNO.}}
 11
1.000000000000000
 21
0.0000000000000000
 31
0.0000000000000000
  7
STANDARD
  0
MTEXT
  5
50A
100
AcDbEntity
  8
WAKU0
  6
CONTINUOUS
 62
3
100
AcDbMText
 10
332.6099998354912
 20
31.95000004768372
 30
0.0000000000000000
 40
3.099999904632568
 41
0.0000000000000000
 71
     7
 72
     1
  1
{\H0.91x;{NAME}}
 11
1.000000000000000
 21
0.0000000000000000
 31
0.0000000000000000
  7
STANDARD
  0
MTEXT
  5
50B
100
AcDbEntity
  8
WAKU0
  6
CONTINUOUS
 62
3
100
AcDbMText
 10
332.6099998354912
 20
45.95000004768372
 30
0.0000000000000000
 40
3.099999904632568
 41
0.0000000000000000
 71
     7
 72
     1
  1
{\H0.91x;{TYPE}}
 11
1.000000000000000
 21
0.0000000000000000
 31
0.0000000000000000
  7
STANDARD
  0
LINE
  5
50C
100
AcDbEntity
  8
WAKU0
  6
HIDDEN
 62
3
100
AcDbLine
 10
407.1599564743885
 20
13.84999990463257
 30
0.0000000000000000
 11
396.9400436209789
 21
13.84999990463257
 31
0.0000000000000000
  0
LINE
  5
50D
100
AcDbEntity
  8
WAKU0
  6
HIDDEN
 62
3
100
AcDbLine
 10
407.1599564743885
 20
13.84999990463250
 30
0.0000000000000000
 11
402.0500000476852
 21
22.70070406014901
 31
0.0000000000000000
  0
LINE
  5
50E
100
AcDbEntity
  8
WAKU0
  6
HIDDEN
 62
3
100
AcDbLine
 10
402.0500000476852
 20
22.70070406014902
 30
0.0000000000000000
 11
396.9400436209789
 21
13.84999990463248
 31
0.0000000000000000
  0
LINE
  5
50F
100
AcDbEntity
  8
WAKU0
  6
CONTINUOUS
 62
3
100
AcDbLine
 10
330.4713877753800
 20
15.78041421262812
 30
0.0000000000000000
 11
330.4713877753800
 21
21.78041421262815
 31
0.0000000000000000
  0
LINE
  5
510
100
AcDbEntity
  8
WAKU0
  6
CONTINUOUS
 62
3
100
AcDbLine
 10
323.9336941228225
 20
17.28041421262811
 30
0.0000000000000000
 11
323.9336941228225
 21
20.28041421262824
 31
0.0000000000000000
  0
LINE
  5
511
100
AcDbEntity
  8
WAKU0
  6
CENTER
 62
12
100
AcDbLine
 10
313.4321805514995
 20
18.78041421262813
 30
0.0000000000000000
 11
331.2765788964694
 21
18.78041421262813
 31
0.0000000000000000
  0
LINE
  5
512
100
AcDbEntity
  8
WAKU0
  6
CENTER
 62
12
100
AcDbLine
 10
317.4474565857986
 20
14.55921662918448
 30
0.0000000000000000
 11
317.4474565857986
 21
22.89865102149943
 31
0.0000000000000000
  0
LINE
  5
513
100
AcDbEntity
  8
WAKU0
  6
CONTINUOUS
 62
3
100
AcDbLine
 10
323.9336941228225
 20
20.28041421262797
 30
0.0000000000000000
 11
330.4713877753800
 21
21.78041421262795
 31
0.0000000000000000
  0
LINE
  5
514
100
AcDbEntity
  8
WAKU0
  6
CONTINUOUS
 62
3
100
AcDbLine
 10
323.9336941228225
 20
17.28041421262811
 30
0.0000000000000000
 11
330.4713877753799
 21
15.78041421262812
 31
0.0000000000000000
  0
CIRCLE
  5
515
100
AcDbEntity
  8
WAKU0
  6
CONTINUOUS
 62
3
100
AcDbCircle
 10
317.4474565857986
 20
18.78041421262813
 30
0.0000000000000000
 40
1.499999999999972
  0
CIRCLE
  5
516
100
AcDbEntity
  8
WAKU0
  6
CONTINUOUS
 62
3
100
AcDbCircle
 10
317.4474565857986
 20
18.78041421262813
 30
0.0000000000000000
 40
2.999999999999979
  0
LINE
  5
517
100
AcDbEntity
  8
A0
  6
CONTINUOUS
 62
3
100
AcDbLine
 10
137.8083321023163
 20
146.2443654906830
 30
0.0000000000000000
 11
137.8083321023163
 21
31.74436775565499
 31
0.0000000000000000
  0
LINE
  5
518
100
AcDbEntity
  8
A0
  6
CONTINUOUS
 62
3
100
AcDbLine
 10
4.808332579106265
 20
133.4943657294164
 30
0.0000000000000000
 11
137.8083321023163
 21
133.4943657294755
 31
0.0000000000000000
  0
LINE
  5
519
100
AcDbEntity
  8
A0
  6
CONTINUOUS
 62
3
100
AcDbLine
 10
4.808332579105239
 20
146.2443654905651
 30
0.0000000000000000
 11
137.8083321023163
 21
146.2443654906832
 31
0.0000000000000000
  0
MTEXT
  5
51A
100
AcDbEntity
  8
A0
  6
CONTINUOUS
 62
3
100
AcDbMText
 10
21.68333138703690
 20
143.7443654910276
 30
0.0000000000000000
 40
7.749999761581421
 41
0.0000000000000000
 71
     1
 72
     1
  1
{\H0.71x;{仕様　　SPECIFICATIONS}}
 11
1.000000000000000
 21
0.0000000000000000
 31
0.0000000000000000
  7
KNJYOKO
  0
MTEXT
  5
51B
100
AcDbEntity
  8
A0
  6
CONTINUOUS
 62
3
100
AcDbMText
 10
93.80833114861093
 20
127.1193658483635
 30
0.0000000000000000
 40
7.749999761581421
 41
0.0000000000000000
 71
     1
 72
     1
  1
{\H0.70x;{０～２０５mm}}
 11
1.000000000000000
 21
0.0000000000000000
 31
0.0000000000000000
  7
KNJYOKO
  0
MTEXT
  5
51C
100
AcDbEntity
  8
A0
  6
CONTINUOUS
 62
3
100
AcDbMText
 10
6.058332579122407
 20
121.9943659675728
 30
0.0000000000000000
 40
7.749999761581421
 41
0.0000000000000000
 71
     1
 72
     1
  1
{\H0.71x;{CLAMPING RANGE}}
 11
1.000000000000000
 21
0.0000000000000000
 31
0.0000000000000000
  7
STANDARD
  0
LINE
  5
51D
100
AcDbEntity
  8
A0
  6
CONTINUOUS
 62
3
100
AcDbLine
 10
4.808332579107750
 20
112.9943662058208
 30
0.0000000000000000
 11
137.8083321023163
 21
112.9943662059387
 31
0.0000000000000000
  0
LINE
  5
51E
100
AcDbEntity
  8
A0
  6
CONTINUOUS
 62
3
100
AcDbLine
 10
92.55833114860866
 20
133.4943657294534
 30
0.0000000000000000
 11
92.55833114860866
 21
112.9943662058941
 31
0.0000000000000000
  0
MTEXT
  5
51F
100
AcDbEntity
  8
A0
  6
CONTINUOUS
 62
3
100
AcDbMText
 10
6.058332579122407
 20
101.4943664444100
 30
0.0000000000000000
 40
7.749999761581421
 41
0.0000000000000000
 71
     1
 72
     1
  1
{\H0.71x;{TIGHTENING TORQUE}}
 11
1.000000000000000
 21
0.0000000000000000
 31
0.0000000000000000
  7
STANDARD
  0
LINE
  5
520
100
AcDbEntity
  8
A0
  6
CONTINUOUS
 62
3
100
AcDbLine
 10
137.8083321023162
 20
92.49436668314985
 30
0.0000000000000000
 11
4.808332579109369
 21
92.49436668309073
 31
0.0000000000000000
  0
LINE
  5
521
100
AcDbEntity
  8
A0
  6
CONTINUOUS
 62
3
100
AcDbLine
 10
92.55833114860866
 20
92.49436668312768
 30
0.0000000000000000
 11
92.55833114860866
 21
31.74436775561497
 31
0.0000000000000000
  0
LINE
  5
522
100
AcDbEntity
  8
A0
  6
CONTINUOUS
 62
3
100
AcDbLine
 10
92.55833114860857
 20
71.99436715996498
 30
0.0000000000000000
 11
137.8083321023163
 21
71.99436715998499
 31
0.0000000000000000
  0
MTEXT
  5
523
100
AcDbEntity
  8
A0
  6
CONTINUOUS
 62
3
100
AcDbMText
 10
98.80833162544809
 20
70.74436715928749
 30
0.0000000000000000
 40
7.749999761581421
 41
0.0000000000000000
 71
     1
 72
     1
  1
{\H0.67x;{2}}
 11
1.000000000000000
 21
0.0000000000000000
 31
0.0000000000000000
  7
STANDARD
  0
LINE
  5
524
100
AcDbEntity
  8
A0
  6
CONTINUOUS
 62
3
100
AcDbLine
 10
137.8083321023162
 20
51.49436739840559
 30
0.0000000000000000
 11
4.808332579111791
 21
51.49436739834647
 31
0.0000000000000000
  0
MTEXT
  5
525
100
AcDbEntity
  8
A0
  6
CONTINUOUS
 62
3
100
AcDbMText
 10
98.80833162544809
 20
60.49436715966573
 30
0.0000000000000000
 40
7.749999761581421
 41
0.0000000000000000
 71
     1
 72
     1
  1
{\H0.67x;{3}}
 11
1.000000000000000
 21
0.0000000000000000
 31
0.0000000000000000
  7
STANDARD
  0
LINE
  5
526
100
AcDbEntity
  8
A0
  6
CONTINUOUS
 62
3
100
AcDbLine
 10
92.55833114860850
 20
82.24436692115008
 30
0.0000000000000000
 11
137.8083321023162
 21
82.24436692119021
 31
0.0000000000000000
  0
LINE
  5
527
100
AcDbEntity
  8
A0
  6
CONTINUOUS
 62
3
100
AcDbLine
 10
109.7071260184902
 20
92.49436668313530
 30
0.0000000000000000
 11
109.7071260184902
 21
51.49436739839331
 31
0.0000000000000000
  0
MTEXT
  5
528
100
AcDbEntity
  8
A0
  6
CONTINUOUS
 62
3
100
AcDbMText
 10
113.5293852706108
 20
80.99436692086800
 30
0.0000000000000000
 40
7.749999761581421
 41
0.0000000000000000
 71
     1
 72
     1
  1
{\H0.70x;{16KN}}
 11
1.000000000000000
 21
0.0000000000000000
 31
0.0000000000000000
  7
STANDARD
  0
MTEXT
  5
529
100
AcDbEntity
  8
A0
  6
CONTINUOUS
 62
3
100
AcDbMText
 10
113.5293852706108
 20
70.74436715928658
 30
0.0000000000000000
 40
7.749999761581421
 41
0.0000000000000000
 71
     1
 72
     1
  1
{\H0.70x;{28KN}}
 11
1.000000000000000
 21
0.0000000000000000
 31
0.0000000000000000
  7
STANDARD
  0
MTEXT
  5
52A
100
AcDbEntity
  8
A0
  6
CONTINUOUS
 62
3
100
AcDbMText
 10
113.5293852706108
 20
60.49436715966482
 30
0.0000000000000000
 40
7.749999761581421
 41
0.0000000000000000
 71
     1
 72
     1
  1
{\H0.70x;{40KN}}
 11
1.000000000000000
 21
0.0000000000000000
 31
0.0000000000000000
  7
STANDARD
  0
MTEXT
  5
52B
100
AcDbEntity
  8
A0
  6
CONTINUOUS
 62
3
100
AcDbMText
 10
98.80833162544809
 20
80.99436692086891
 30
0.0000000000000000
 40
7.749999761581421
 41
0.0000000000000000
 71
     1
 72
     1
  1
{\H0.67x;{1}}
 11
1.000000000000000
 21
0.0000000000000000
 31
0.0000000000000000
  7
STANDARD
  0
MTEXT
  5
52C
100
AcDbEntity
  8
A0
  6
CONTINUOUS
 62
3
100
AcDbMText
 10
104.1871447957824
 20
45.11936751728337
 30
0.0000000000000000
 40
7.749999761581421
 41
0.0000000000000000
 71
     1
 72
     1
  1
{\H0.70x;{35kg}}
 11
1.000000000000000
 21
0.0000000000000000
 31
0.0000000000000000
  7
STANDARD
  0
MTEXT
  5
52D
100
AcDbEntity
  8
A0
  6
CONTINUOUS
 62
3
100
AcDbMText
 10
6.058332579122407
 20
39.99436763650289
 30
0.0000000000000000
 40
6.999999880790710
 41
0.0000000000000000
 71
     1
 72
     1
  1
{\H0.67x;{MASS OF POWER VISE}}
 11
1.000000000000000
 21
0.0000000000000000
 31
0.0000000000000000
  7
STANDARD
  0
MTEXT
  5
52E
100
AcDbEntity
  8
A0
  6
CONTINUOUS
 62
3
100
AcDbMText
 10
6.058332579122407
 20
50.24436739808431
 30
0.0000000000000000
 40
7.749999761581421
 41
0.0000000000000000
 71
     1
 72
     1
  1
{\H0.70x;{製品質量}}
 11
1.000000000000000
 21
0.0000000000000000
 31
0.0000000000000000
  7
KNJYOKO
  0
MTEXT
  5
52F
100
AcDbEntity
  8
A0
  6
CONTINUOUS
 62
3
100
AcDbMText
 10
6.058332579122407
 20
80.99436692124715
 30
0.0000000000000000
 40
7.749999761581421
 41
0.0000000000000000
 71
     1
 72
     1
  1
{\H0.71x;{CLAMP RANGE}}
 11
1.000000000000000
 21
0.0000000000000000
 31
0.0000000000000000
  7
STANDARD
  0
MTEXT
  5
530
100
AcDbEntity
  8
A0
  6
CONTINUOUS
 62
3
100
AcDbMText
 10
6.058332579122407
 20
91.24436668282857
 30
0.0000000000000000
 40
7.749999761581421
 41
0.0000000000000000
 71
     1
 72
     1
  1
{\H0.70x;{締付けレンジ}}
 11
1.000000000000000
 21
0.0000000000000000
 31
0.0000000000000000
  7
KNJYOKO
  0
LINE
  5
531
100
AcDbEntity
  8
A0
  6
CONTINUOUS
 62
3
100
AcDbLine
 10
4.808332579105298
 20
146.2443654905648
 30
0.0000000000000000
 11
4.808332579113469
 21
31.74436775554136
 31
0.0000000000000000
  0
LINE
  5
532
100
AcDbEntity
  8
A0
  6
CONTINUOUS
 62
3
100
AcDbLine
 10
137.8083321023162
 20
31.74436775565965
 30
0.0000000000000000
 11
4.808332579113380
 21
31.74436775554170
 31
0.0000000000000000
  0
MTEXT
  5
533
100
AcDbEntity
  8
A0
  6
CONTINUOUS
 62
3
100
AcDbMText
 10
6.058332579122407
 20
111.7443662059914
 30
0.0000000000000000
 40
7.749999761581421
 41
0.0000000000000000
 71
     1
 72
     1
  1
{\H0.70x;{締付トルク}}
 11
1.000000000000000
 21
0.0000000000000000
 31
0.0000000000000000
  7
KNJYOKO
  0
MTEXT
  5
534
100
AcDbEntity
  8
A0
  6
CONTINUOUS
 62
3
100
AcDbMText
 10
6.058332579122407
 20
132.2443657291543
 30
0.0000000000000000
 40
7.749999761581421
 41
0.0000000000000000
 71
     1
 72
     1
  1
{\H0.70x;{口金の開き}}
 11
1.000000000000000
 21
0.0000000000000000
 31
0.0000000000000000
  7
KNJYOKO
  0
LINE
  5
535
100
AcDbEntity
  8
A0
  6
CONTINUOUS
 62
3
100
AcDbLine
 10
92.55833114860867
 20
61.74436715996499
 30
0.0000000000000000
 11
137.8083321023163
 21
61.74436715998500
 31
0.0000000000000000
  0
MTEXT
  5
536
100
AcDbEntity
  8
A0
  6
CONTINUOUS
 62
3
100
AcDbMText
 10
113.5293852706108
 20
91.24436668282766
 30
0.0000000000000000
 40
7.749999761581421
 41
0.0000000000000000
 71
     1
 72
     1
  1
{\H0.70x;{ 8KN}}
 11
1.000000000000000
 21
0.0000000000000000
 31
0.0000000000000000
  7
STANDARD
  0
MTEXT
  5
537
100
AcDbEntity
  8
A0
  6
CONTINUOUS
 62
3
100
AcDbMText
 10
98.80833162544809
 20
91.24436668282857
 30
0.0000000000000000
 40
7.749999761581421
 41
0.0000000000000000
 71
     1
 72
     1
  1
{\H0.67x;{0}}
 11
1.000000000000000
 21
0.0000000000000000
 31
0.0000000000000000
  7
STANDARD
  0
ENDSEC
  0
SECTION
  2
OBJECTS
  0
DICTIONARY
  5
596
100
AcDbDictionary
  3
ACAD_GROUP
350
597
  3
ACAD_MLINESTYLE
350
598
  0
DICTIONARY
  5
597
102
{ACAD_REACTORS
330
596
102
}
100
AcDbDictionary
  0
DICTIONARY
  5
598
102
{ACAD_REACTORS
330
596
102
}
100
AcDbDictionary
  3
STANDARD
350
599
  0
MLINESTYLE
  5
599
102
{ACAD_REACTORS
330
598
102
}
100
AcDbMlineStyle
  2
STANDARD
 70
     0
  3

 62
   256
 51
90.00
 52
90.00
 71
     2
 49
0.50
 62
   256
  6
BYLAYER
 49
-0.50
 62
   256
  6
BYLAYER
  0
ENDSEC
  0
EOF
