  0
SECTION
  2
HEADER
  9
$ACADVER
  1
AC1014
  9
$DWGCODEPAGE
  3
ANSI_932
  9
$LTSCALE
 40
20.0
  9
$FILLMODE
 70
     1
  9
$CLAYER
  8
0
  9
$PDMODE
 70
     0
  9
$SPLFRAME
 70
     0
  9
$SPLINETYPE
 70
     6
  9
$SPLINESEGS
 70
     8
  9
$DIMASZ
 40
2.000000
  9
$DIMEXE
 40
2.000000
  9
$DIMEXO
 40
0.800000
  9
$DIMTAD
 70
     1
  9
$DIMTIH
 70
     0
  9
$DIMTOH
 70
     0
  9
$DIMTVP
 40
0.500000
  9
$DIMTXT
 40
3.100000
  9
$EXTMIN
 10
0.000000
 20
0.000000
 30
0.000000
  9
$EXTMAX
 10
297.000000
 20
420.000000
 30
0.000000
  9
$MEASUREMENT
 70
  1
  9
$LIMMIN
 10
0.000000
 20
0.000000
  9
$LIMMAX
 10
297.000000
 20
420.000000
  9
$HANDLING
 70
     1
  9
$HANDSEED
  5
59C
  9
$DIMBLK
  1
_OPEN
  9
$DIMDEC
 70
     3
  9
$DIMAUNIT
 70
     1
  9
$DIMZIN
 70
     8
  9
$DIMTOFL
 70
     1
  0
ENDSEC
  0
SECTION
  2
CLASSES
  0
ENDSEC
  0
SECTION
  2
TABLES
  0
TABLE
  2
VPORT
  5
53A
100
AcDbSymbolTable
 70
     1
  0
VPORT
  5
53B
100
AcDbSymbolTableRecord
100
AcDbViewportTableRecord
  2
*ACTIVE
 70
     0
 12
646.219829
 22
451.708216
 40
2644.678330
 41
1.202066
  0
ENDTAB
  0
TABLE
  2
LTYPE
  5
53C
100
AcDbSymbolTable
 70
     4
  0
LTYPE
  5
53D
100
AcDbSymbolTableRecord
100
AcDbLinetypeTableRecord
  2
BYBLOCK
 70
     0
  3

 72
    65
 73
     0
 40
0.0
  0
LTYPE
  5
53E
100
AcDbSymbolTableRecord
100
AcDbLinetypeTableRecord
  2
BYLAYER
 70
     0
  3

 72
    65
 73
     0
 40
0.0
  0
LTYPE
  5
53F
100
AcDbSymbolTableRecord
100
AcDbLinetypeTableRecord
  2
CONTINUOUS
 70
     0
  3
Solid line (NEC CAE2D for Win R12.1 : 2016.08.08)
 72
    65
 73
     0
 40
0.0
  0
LTYPE
  5
540
100
AcDbSymbolTableRecord
100
AcDbLinetypeTableRecord
  2
HIDDEN
 70
     0
  3
__ __ __ __ __ __ __ __ __ __ __ __ __ __
 72
    65
 73
     2
 40
0.375
 49
0.25
 74
     0
 49
-0.125
 74
     0
  0
LTYPE
  5
541
100
AcDbSymbolTableRecord
100
AcDbLinetypeTableRecord
  2
CENTER
 70
     0
  3
____ _ ____ _ ____ _ ____ _ ____ _ ____
 72
    65
 73
     4
 40
2.0
 49
1.25
 74
     0
 49
-0.25
 74
     0
 49
0.25
 74
     0
 49
-0.25
 74
     0
  0
LTYPE
  5
542
100
AcDbSymbolTableRecord
100
AcDbLinetypeTableRecord
  2
PHANTOM
 70
     0
  3
______  __  __  ______  __  __  ______ 
 72
    65
 73
     6
 40
2.5
 49
1.25
 74
     0
 49
-0.25
 74
     0
 49
0.25
 74
     0
 49
-0.25
 74
     0
 49
0.25
 74
     0
 49
-0.25
 74
     0
  0
ENDTAB
  0
TABLE
  2
LAYER
  5
543
100
AcDbSymbolTable
 70
     9
  0
LAYER
  5
544
100
AcDbSymbolTableRecord
100
AcDbLayerTableRecord
  2
0
 70
     0
 62
     7
  6
CONTINUOUS
  0
LAYER
  5
545
100
AcDbSymbolTableRecord
100
AcDbLayerTableRecord
  2
MAIN0
 70
     0
 62
     7
  6
CONTINUOUS
  0
LAYER
  5
546
100
AcDbSymbolTableRecord
100
AcDbLayerTableRecord
  2
MAIN1
 70
     0
 62
     7
  6
CONTINUOUS
  0
LAYER
  5
547
100
AcDbSymbolTableRecord
100
AcDbLayerTableRecord
  2
MAIN3
 70
     0
 62
     7
  6
CONTINUOUS
  0
LAYER
  5
548
100
AcDbSymbolTableRecord
100
AcDbLayerTableRecord
  2
MAIN1023
 70
     0
 62
    16
  6
CONTINUOUS
  0
LAYER
  5
549
100
AcDbSymbolTableRecord
100
AcDbLayerTableRecord
  2
WAKU0
 70
     0
 62
     7
  6
CONTINUOUS
  0
LAYER
  5
54A
100
AcDbSymbolTableRecord
100
AcDbLayerTableRecord
  2
WAKU1023
 70
     0
 62
    16
  6
CONTINUOUS
  0
LAYER
  5
54B
100
AcDbSymbolTableRecord
100
AcDbLayerTableRecord
  2
A0
 70
     0
 62
     7
  6
CONTINUOUS
  0
LAYER
  5
54C
100
AcDbSymbolTableRecord
100
AcDbLayerTableRecord
  2
A1023
 70
     0
 62
    16
  6
CONTINUOUS
  0
ENDTAB
  0
TABLE
  2
STYLE
  5
54D
100
AcDbSymbolTable
 70
     4
  0
STYLE
  5
54E
100
AcDbSymbolTableRecord
100
AcDbTextStyleTableRecord
  2
STANDARD
 70
    64
 40
0.0
 41
1.0
 50
0.0
 71
     0
 42
7.749999761581421
  3
TXT
  4

  0
STYLE
  5
54F
100
AcDbSymbolTableRecord
100
AcDbTextStyleTableRecord
  2
ANKTATE
 70
    68
 40
0.0
 41
1.0
 50
0.0
 71
     0
 42
7.749999761581421
  3
TXT
  4

  0
STYLE
  5
34E
100
AcDbSymbolTableRecord
100
AcDbTextStyleTableRecord
  2
KNJYOKO
 70
    64
 40
0.0
 41
1.0
 50
0.0
 71
     0
 42
7.749999761581421
  3
TXT
  4
BIGFONT
  0
STYLE
  5
550
100
AcDbSymbolTableRecord
100
AcDbTextStyleTableRecord
  2
KNJTATE
 70
    68
 40
0.0
 41
1.0
 50
0.0
 71
     0
 42
7.749999761581421
  3
TXT
  4
BIGFONT
  0
ENDTAB
  0
TABLE
  2
VIEW
  5
551
100
AcDbSymbolTable
 70
     0
  0
ENDTAB
  0
TABLE
  2
UCS
  5
552
100
AcDbSymbolTable
 70
     0
  0
ENDTAB
  0
TABLE
  2
APPID
  5
553
100
AcDbSymbolTable
 70
     1
  0
APPID
  5
554
100
AcDbSymbolTableRecord
100
AcDbRegAppTableRecord
  2
ACAD
 70
     0
  0
ENDTAB
  0
TABLE
  2
DIMSTYLE
  5
555
100
AcDbSymbolTable
 70
     1
  0
DIMSTYLE
105
556
100
AcDbSymbolTableRecord
100
AcDbDimStyleTableRecord
  2
STANDARD
 70
     0
 41
2.000000
 44
2.000000
 42
0.800000
145
0.661290
140
3.100000
144
1.000000
146
0.903226
340
54E
  0
DIMSTYLE
105
557
100
AcDbSymbolTableRecord
100
AcDbDimStyleTableRecord
  2
MAIN001
 70
     0
 41
6.000000
 44
6.000000
 42
2.400000
145
0.553763
140
9.300000
144
1.000000
146
0.903226
 77
     1
 73
     0
 74
     0
271
     3
275
     1
 78
     8
172
     1
340
54E
  0
DIMSTYLE
105
558
100
AcDbSymbolTableRecord
100
AcDbDimStyleTableRecord
  2
WAKU002
 70
     0
 41
2.000000
 44
2.000000
 42
0.800000
145
0.661290
140
3.100000
144
1.000000
146
0.903226
 77
     1
 73
     0
 74
     0
271
     3
275
     1
 78
     8
172
     1
340
54E
  0
DIMSTYLE
105
559
100
AcDbSymbolTableRecord
100
AcDbDimStyleTableRecord
  2
A003
 70
     0
 41
5.000000
 44
5.000000
 42
2.000000
145
0.564516
140
7.750000
144
1.000000
146
0.903226
 77
     1
 73
     0
 74
     0
271
     3
275
     1
 78
     8
172
     1
340
54E
  0
ENDTAB
  0
TABLE
  2
BLOCK_RECORD
  5
55A
100
AcDbSymbolTable
 70
    67
  0
BLOCK_RECORD
  5
55B
100
AcDbSymbolTableRecord
100
AcDbBlockTableRecord
  2
*MODEL_SPACE
  0
BLOCK_RECORD
  5
55C
100
AcDbSymbolTableRecord
100
AcDbBlockTableRecord
  2
*PAPER_SPACE
  0
BLOCK_RECORD
  5
1
100
AcDbSymbolTableRecord
100
AcDbBlockTableRecord
  2
_NONE
  0
BLOCK_RECORD
  5
4
100
AcDbSymbolTableRecord
100
AcDbBlockTableRecord
  2
_CLOSED
  0
BLOCK_RECORD
  5
B
100
AcDbSymbolTableRecord
100
AcDbBlockTableRecord
  2
_DOT
  0
BLOCK_RECORD
  5
13
100
AcDbSymbolTableRecord
100
AcDbBlockTableRecord
  2
_OPEN
  0
BLOCK_RECORD
  5
19
100
AcDbSymbolTableRecord
100
AcDbBlockTableRecord
  2
_ORIGIN
  0
BLOCK_RECORD
  5
1E
100
AcDbSymbolTableRecord
100
AcDbBlockTableRecord
  2
_OPEN30
  0
BLOCK_RECORD
  5
24
100
AcDbSymbolTableRecord
100
AcDbBlockTableRecord
  2
_BOXFILLED
  0
BLOCK_RECORD
  5
29
100
AcDbSymbolTableRecord
100
AcDbBlockTableRecord
  2
_BOXBLANK
  0
BLOCK_RECORD
  5
31
100
AcDbSymbolTableRecord
100
AcDbBlockTableRecord
  2
_OBLIQUE
  0
BLOCK_RECORD
  5
35
100
AcDbSymbolTableRecord
100
AcDbBlockTableRecord
  2
_OPEN90
  0
BLOCK_RECORD
  5
3B
100
AcDbSymbolTableRecord
100
AcDbBlockTableRecord
  2
_CLOSEDBLANK
  0
BLOCK_RECORD
  5
41
100
AcDbSymbolTableRecord
100
AcDbBlockTableRecord
  2
_DOTBLANK
  0
BLOCK_RECORD
  5
55D
100
AcDbSymbolTableRecord
100
AcDbBlockTableRecord
  2
*D0
  0
BLOCK_RECORD
  5
55E
100
AcDbSymbolTableRecord
100
AcDbBlockTableRecord
  2
*D1
  0
BLOCK_RECORD
  5
55F
100
AcDbSymbolTableRecord
100
AcDbBlockTableRecord
  2
*D2
  0
BLOCK_RECORD
  5
560
100
AcDbSymbolTableRecord
100
AcDbBlockTableRecord
  2
*D3
  0
BLOCK_RECORD
  5
561
100
AcDbSymbolTableRecord
100
AcDbBlockTableRecord
  2
*D4
  0
BLOCK_RECORD
  5
562
100
AcDbSymbolTableRecord
100
AcDbBlockTableRecord
  2
*D5
  0
BLOCK_RECORD
  5
563
100
AcDbSymbolTableRecord
100
AcDbBlockTableRecord
  2
*D6
  0
BLOCK_RECORD
  5
564
100
AcDbSymbolTableRecord
100
AcDbBlockTableRecord
  2
*D7
  0
BLOCK_RECORD
  5
565
100
AcDbSymbolTableRecord
100
AcDbBlockTableRecord
  2
*D8
  0
BLOCK_RECORD
  5
566
100
AcDbSymbolTableRecord
100
AcDbBlockTableRecord
  2
*D9
  0
BLOCK_RECORD
  5
567
100
AcDbSymbolTableRecord
100
AcDbBlockTableRecord
  2
*D10
  0
BLOCK_RECORD
  5
568
100
AcDbSymbolTableRecord
100
AcDbBlockTableRecord
  2
*D11
  0
BLOCK_RECORD
  5
569
100
AcDbSymbolTableRecord
100
AcDbBlockTableRecord
  2
*D12
  0
BLOCK_RECORD
  5
56A
100
AcDbSymbolTableRecord
100
AcDbBlockTableRecord
  2
*D13
  0
BLOCK_RECORD
  5
56B
100
AcDbSymbolTableRecord
100
AcDbBlockTableRecord
  2
*D14
  0
BLOCK_RECORD
  5
56C
100
AcDbSymbolTableRecord
100
AcDbBlockTableRecord
  2
*D15
  0
BLOCK_RECORD
  5
56D
100
AcDbSymbolTableRecord
100
AcDbBlockTableRecord
  2
*D16
  0
BLOCK_RECORD
  5
56E
100
AcDbSymbolTableRecord
100
AcDbBlockTableRecord
  2
*D17
  0
BLOCK_RECORD
  5
56F
100
AcDbSymbolTableRecord
100
AcDbBlockTableRecord
  2
*D18
  0
BLOCK_RECORD
  5
570
100
AcDbSymbolTableRecord
100
AcDbBlockTableRecord
  2
*D19
  0
BLOCK_RECORD
  5
571
100
AcDbSymbolTableRecord
100
AcDbBlockTableRecord
  2
*D20
  0
BLOCK_RECORD
  5
572
100
AcDbSymbolTableRecord
100
AcDbBlockTableRecord
  2
*D21
  0
BLOCK_RECORD
  5
573
100
AcDbSymbolTableRecord
100
AcDbBlockTableRecord
  2
*D22
  0
BLOCK_RECORD
  5
574
100
AcDbSymbolTableRecord
100
AcDbBlockTableRecord
  2
*D23
  0
BLOCK_RECORD
  5
575
100
AcDbSymbolTableRecord
100
AcDbBlockTableRecord
  2
*D24
  0
BLOCK_RECORD
  5
576
100
AcDbSymbolTableRecord
100
AcDbBlockTableRecord
  2
D25
  0
BLOCK_RECORD
  5
577
100
AcDbSymbolTableRecord
100
AcDbBlockTableRecord
  2
*D26
  0
BLOCK_RECORD
  5
578
100
AcDbSymbolTableRecord
100
AcDbBlockTableRecord
  2
*D27
  0
BLOCK_RECORD
  5
579
100
AcDbSymbolTableRecord
100
AcDbBlockTableRecord
  2
*D28
  0
BLOCK_RECORD
  5
57A
100
AcDbSymbolTableRecord
100
AcDbBlockTableRecord
  2
*D29
  0
BLOCK_RECORD
  5
57B
100
AcDbSymbolTableRecord
100
AcDbBlockTableRecord
  2
*D30
  0
BLOCK_RECORD
  5
57C
100
AcDbSymbolTableRecord
100
AcDbBlockTableRecord
  2
*D31
  0
BLOCK_RECORD
  5
57D
100
AcDbSymbolTableRecord
100
AcDbBlockTableRecord
  2
*D32
  0
BLOCK_RECORD
  5
57E
100
AcDbSymbolTableRecord
100
AcDbBlockTableRecord
  2
*D33
  0
BLOCK_RECORD
  5
57F
100
AcDbSymbolTableRecord
100
AcDbBlockTableRecord
  2
*D34
  0
BLOCK_RECORD
  5
580
100
AcDbSymbolTableRecord
100
AcDbBlockTableRecord
  2
*D35
  0
BLOCK_RECORD
  5
581
100
AcDbSymbolTableRecord
100
AcDbBlockTableRecord
  2
*D36
  0
BLOCK_RECORD
  5
582
100
AcDbSymbolTableRecord
100
AcDbBlockTableRecord
  2
*D37
  0
BLOCK_RECORD
  5
583
100
AcDbSymbolTableRecord
100
AcDbBlockTableRecord
  2
*D38
  0
BLOCK_RECORD
  5
584
100
AcDbSymbolTableRecord
100
AcDbBlockTableRecord
  2
*D39
  0
BLOCK_RECORD
  5
585
100
AcDbSymbolTableRecord
100
AcDbBlockTableRecord
  2
*D40
  0
BLOCK_RECORD
  5
586
100
AcDbSymbolTableRecord
100
AcDbBlockTableRecord
  2
*D41
  0
BLOCK_RECORD
  5
587
100
AcDbSymbolTableRecord
100
AcDbBlockTableRecord
  2
*D42
  0
BLOCK_RECORD
  5
588
100
AcDbSymbolTableRecord
100
AcDbBlockTableRecord
  2
*D43
  0
BLOCK_RECORD
  5
589
100
AcDbSymbolTableRecord
100
AcDbBlockTableRecord
  2
*D44
  0
BLOCK_RECORD
  5
58A
100
AcDbSymbolTableRecord
100
AcDbBlockTableRecord
  2
*D45
  0
BLOCK_RECORD
  5
58B
100
AcDbSymbolTableRecord
100
AcDbBlockTableRecord
  2
*D46
  0
BLOCK_RECORD
  5
58C
100
AcDbSymbolTableRecord
100
AcDbBlockTableRecord
  2
*D47
  0
BLOCK_RECORD
  5
58D
100
AcDbSymbolTableRecord
100
AcDbBlockTableRecord
  2
*D48
  0
BLOCK_RECORD
  5
58E
100
AcDbSymbolTableRecord
100
AcDbBlockTableRecord
  2
*D49
  0
BLOCK_RECORD
  5
58F
100
AcDbSymbolTableRecord
100
AcDbBlockTableRecord
  2
*D50
  0
BLOCK_RECORD
  5
590
100
AcDbSymbolTableRecord
100
AcDbBlockTableRecord
  2
*D51
  0
BLOCK_RECORD
  5
591
100
AcDbSymbolTableRecord
100
AcDbBlockTableRecord
  2
*D52
  0
BLOCK_RECORD
  5
592
100
AcDbSymbolTableRecord
100
AcDbBlockTableRecord
  2
*D53
  0
BLOCK_RECORD
  5
593
100
AcDbSymbolTableRecord
100
AcDbBlockTableRecord
  2
*D54
  0
ENDTAB
  0
ENDSEC
  0
SECTION
  2
BLOCKS
  0
BLOCK
  5
594
100
AcDbEntity
  8
0
100
AcDbBlockBegin
  2
*MODEL_SPACE
 70
     0
 10
0.0
 20
0.0
 30
0.0
  3
*MODEL_SPACE
  1

  0
ENDBLK
  5
595
100
AcDbEntity
  8
0
100
AcDbBlockEnd
  0
BLOCK
  5
596
100
AcDbEntity
  8
0
100
AcDbBlockBegin
  2
*PAPER_SPACE
 70
     0
 10
0.0
 20
0.0
 30
0.0
  3
*PAPER_SPACE
  1

  0
ENDBLK
  5
597
100
AcDbEntity
  8
0
100
AcDbBlockEnd
  0
BLOCK
  5
2
100
AcDbEntity
  8
0
100
AcDbBlockBegin
  2
_NONE
 70
     0
 10
0.0
 20
0.0
 30
0.0
  3
_NONE
  1

  0
ENDBLK
  5
3
100
AcDbEntity
  8
0
100
AcDbBlockEnd
  0
BLOCK
  5
5
100
AcDbEntity
  8
0
100
AcDbBlockBegin
  2
_CLOSED
 70
     0
 10
0.0
 20
0.0
 30
0.0
  3
_CLOSED
  1

  0
LINE
  5
6
100
AcDbEntity
  8
0
  6
BYBLOCK
 62
     0
100
AcDbLine
 10
-1.0
 20
0.166667
 30
0.0
 11
0.0
 21
0.0
 31
0.0
  0
LINE
  5
7
100
AcDbEntity
  8
0
  6
BYBLOCK
 62
     0
100
AcDbLine
 10
0.0
 20
0.0
 30
0.0
 11
-1.0
 21
-0.166667
 31
0.0
  0
LINE
  5
8
100
AcDbEntity
  8
0
  6
BYBLOCK
 62
     0
100
AcDbLine
 10
-1.0
 20
0.166667
 30
0.0
 11
-1.0
 21
-0.166667
 31
0.0
  0
LINE
  5
9
100
AcDbEntity
  8
0
  6
BYBLOCK
 62
     0
100
AcDbLine
 10
0.0
 20
0.0
 30
0.0
 11
-1.0
 21
0.0
 31
0.0
  0
ENDBLK
  5
A
100
AcDbEntity
  8
0
100
AcDbBlockEnd
  0
BLOCK
  5
C
100
AcDbEntity
  8
0
100
AcDbBlockBegin
  2
_DOT
 70
     0
 10
0.0
 20
0.0
 30
0.0
  3
_DOT
  1

  0
POLYLINE
  5
D
100
AcDbEntity
  8
0
  6
BYBLOCK
 62
     0
100
AcDb2dPolyline
 66
     1
 10
0.0
 20
0.0
 30
0.0
 70
     1
 40
0.5
 41
0.5
  0
VERTEX
  5
E
100
AcDbEntity
  8
0
  6
BYBLOCK
 62
     0
100
AcDbVertex
100
AcDb2dVertex
 10
-0.25
 20
0.0
 30
0.0
 42
1.0
  0
VERTEX
  5
F
100
AcDbEntity
  8
0
  6
BYBLOCK
 62
     0
100
AcDbVertex
100
AcDb2dVertex
 10
0.25
 20
0.0
 30
0.0
 42
1.0
  0
SEQEND
  5
10
100
AcDbEntity
  8
0
  6
BYBLOCK
 62
     0
  0
LINE
  5
11
100
AcDbEntity
  8
0
  6
BYBLOCK
 62
     0
100
AcDbLine
 10
-0.5
 20
0.0
 30
0.0
 11
-1.0
 21
0.0
 31
0.0
  0
ENDBLK
  5
12
100
AcDbEntity
  8
0
100
AcDbBlockEnd
  0
BLOCK
  5
14
100
AcDbEntity
  8
0
100
AcDbBlockBegin
  2
_OPEN
 70
     0
 10
0.0
 20
0.0
 30
0.0
  3
_OPEN
  1

  0
LINE
  5
15
100
AcDbEntity
  8
0
  6
BYBLOCK
 62
     0
100
AcDbLine
 10
-1.0
 20
0.166667
 30
0.0
 11
0.0
 21
0.0
 31
0.0
  0
LINE
  5
16
100
AcDbEntity
  8
0
  6
BYBLOCK
 62
     0
100
AcDbLine
 10
0.0
 20
0.0
 30
0.0
 11
-1.0
 21
-0.166667
 31
0.0
  0
LINE
  5
17
100
AcDbEntity
  8
0
  6
BYBLOCK
 62
     0
100
AcDbLine
 10
0.0
 20
0.0
 30
0.0
 11
-1.0
 21
0.0
 31
0.0
  0
ENDBLK
  5
18
100
AcDbEntity
  8
0
100
AcDbBlockEnd
  0
BLOCK
  5
1A
100
AcDbEntity
  8
0
100
AcDbBlockBegin
  2
_ORIGIN
 70
     0
 10
0.0
 20
0.0
 30
0.0
  3
_ORIGIN
  1

  0
CIRCLE
  5
1B
100
AcDbEntity
  8
0
  6
BYBLOCK
 62
     0
100
AcDbCircle
 10
0.0
 20
0.0
 30
0.0
 40
0.5
  0
LINE
  5
1C
100
AcDbEntity
  8
0
  6
BYBLOCK
 62
     0
100
AcDbLine
 10
0.0
 20
0.0
 30
0.0
 11
-1.0
 21
0.0
 31
0.0
  0
ENDBLK
  5
1D
100
AcDbEntity
  8
0
100
AcDbBlockEnd
  0
BLOCK
  5
1F
100
AcDbEntity
  8
0
100
AcDbBlockBegin
  2
_OPEN30
 70
     0
 10
0.0
 20
0.0
 30
0.0
  3
_OPEN30
  1

  0
LINE
  5
20
100
AcDbEntity
  8
0
  6
BYBLOCK
 62
     0
100
AcDbLine
 10
-1.0
 20
0.267949
 30
0.0
 11
0.0
 21
0.0
 31
0.0
  0
LINE
  5
21
100
AcDbEntity
  8
0
  6
BYBLOCK
 62
     0
100
AcDbLine
 10
0.0
 20
0.0
 30
0.0
 11
-1.0
 21
-0.267949
 31
0.0
  0
LINE
  5
22
100
AcDbEntity
  8
0
  6
BYBLOCK
 62
     0
100
AcDbLine
 10
0.0
 20
0.0
 30
0.0
 11
-1.0
 21
0.0
 31
0.0
  0
ENDBLK
  5
23
100
AcDbEntity
  8
0
100
AcDbBlockEnd
  0
BLOCK
  5
25
100
AcDbEntity
  8
0
100
AcDbBlockBegin
  2
_BOXFILLED
 70
     0
 10
0.0
 20
0.0
 30
0.0
  3
_BOXFILLED
  1

  0
SOLID
  5
26
100
AcDbEntity
  8
0
  6
BYBLOCK
 62
     0
100
AcDbTrace
 10
-0.5
 20
0.5
 30
0.0
 11
0.5
 21
0.5
 31
0.0
 12
-0.5
 22
-0.5
 32
0.0
 13
0.5
 23
-0.5
 33
0.0
  0
LINE
  5
27
100
AcDbEntity
  8
0
  6
BYBLOCK
 62
     0
100
AcDbLine
 10
-0.5
 20
0.0
 30
0.0
 11
-1.0
 21
0.0
 31
0.0
  0
ENDBLK
  5
28
100
AcDbEntity
  8
0
100
AcDbBlockEnd
  0
BLOCK
  5
2A
100
AcDbEntity
  8
0
100
AcDbBlockBegin
  2
_BOXBLANK
 70
     0
 10
0.0
 20
0.0
 30
0.0
  3
_BOXBLANK
  1

  0
LINE
  5
2B
100
AcDbEntity
  8
0
  6
BYBLOCK
 62
     0
100
AcDbLine
 10
-0.5
 20
-0.5
 30
0.0
 11
0.5
 21
-0.5
 31
0.0
  0
LINE
  5
2C
100
AcDbEntity
  8
0
  6
BYBLOCK
 62
     0
100
AcDbLine
 10
0.5
 20
-0.5
 30
0.0
 11
0.5
 21
0.5
 31
0.0
  0
LINE
  5
2D
100
AcDbEntity
  8
0
  6
BYBLOCK
 62
     0
100
AcDbLine
 10
0.5
 20
0.5
 30
0.0
 11
-0.5
 21
0.5
 31
0.0
  0
LINE
  5
2E
100
AcDbEntity
  8
0
  6
BYBLOCK
 62
     0
100
AcDbLine
 10
-0.5
 20
0.5
 30
0.0
 11
-0.5
 21
-0.5
 31
0.0
  0
LINE
  5
2F
100
AcDbEntity
  8
0
  6
BYBLOCK
 62
     0
100
AcDbLine
 10
-0.5
 20
0.0
 30
0.0
 11
-1.0
 21
0.0
 31
0.0
  0
ENDBLK
  5
30
100
AcDbEntity
  8
0
100
AcDbBlockEnd
  0
BLOCK
  5
32
100
AcDbEntity
  8
0
100
AcDbBlockBegin
  2
_OBLIQUE
 70
     0
 10
0.0
 20
0.0
 30
0.0
  3
_OBLIQUE
  1

  0
LINE
  5
33
100
AcDbEntity
  8
0
  6
BYBLOCK
 62
     0
100
AcDbLine
 10
-0.5
 20
-0.5
 30
0.0
 11
0.5
 21
0.5
 31
0.0
  0
ENDBLK
  5
34
100
AcDbEntity
  8
0
100
AcDbBlockEnd
  0
BLOCK
  5
36
100
AcDbEntity
  8
0
100
AcDbBlockBegin
  2
_OPEN90
 70
     0
 10
0.0
 20
0.0
 30
0.0
  3
_OPEN90
  1

  0
LINE
  5
37
100
AcDbEntity
  8
0
  6
BYBLOCK
 62
     0
100
AcDbLine
 10
-0.5
 20
0.5
 30
0.0
 11
0.0
 21
0.0
 31
0.0
  0
LINE
  5
38
100
AcDbEntity
  8
0
  6
BYBLOCK
 62
     0
100
AcDbLine
 10
0.0
 20
0.0
 30
0.0
 11
-0.5
 21
-0.5
 31
0.0
  0
LINE
  5
39
100
AcDbEntity
  8
0
  6
BYBLOCK
 62
     0
100
AcDbLine
 10
0.0
 20
0.0
 30
0.0
 11
-1.0
 21
0.0
 31
0.0
  0
ENDBLK
  5
3A
100
AcDbEntity
  8
0
100
AcDbBlockEnd
  0
BLOCK
  5
3C
100
AcDbEntity
  8
0
100
AcDbBlockBegin
  2
_CLOSEDBLANK
 70
     0
 10
0.0
 20
0.0
 30
0.0
  3
_CLOSEDBLANK
  1

  0
LINE
  5
3D
100
AcDbEntity
  8
0
  6
BYBLOCK
 62
     0
100
AcDbLine
 10
-1.0
 20
0.1666666666666666
 30
0.0
 11
0.0
 21
0.0
 31
0.0
  0
LINE
  5
3E
100
AcDbEntity
  8
0
  6
BYBLOCK
 62
     0
100
AcDbLine
 10
0.0
 20
0.0
 30
0.0
 11
-1.0
 21
-0.1666666666666666
 31
0.0
  0
LINE
  5
3F
100
AcDbEntity
  8
0
  6
BYBLOCK
 62
     0
100
AcDbLine
 10
-1.0
 20
0.1666666666666666
 30
0.0
 11
-1.0
 21
-0.1666666666666666
 31
0.0
  0
ENDBLK
  5
40
100
AcDbEntity
  8
0
100
AcDbBlockEnd
  0
BLOCK
  5
42
100
AcDbEntity
  8
0
100
AcDbBlockBegin
  2
_DOTBLANK
 70
     0
 10
0.0
 20
0.0
 30
0.0
  3
_DOTBLANK
  1

  0
CIRCLE
  5
43
100
AcDbEntity
  8
0
  6
BYBLOCK
 62
     0
100
AcDbCircle
 10
0.0
 20
0.0
 30
0.0
 40
0.5
  0
LINE
  5
44
100
AcDbEntity
  8
0
  6
BYBLOCK
 62
     0
100
AcDbLine
 10
-0.5
 20
0.0
 30
0.0
 11
-1.0
 21
0.0
 31
0.0
  0
ENDBLK
  5
45
100
AcDbEntity
  8
0
100
AcDbBlockEnd
  0
BLOCK
  5
AB
100
AcDbEntity
  8
MAIN0
  6
CONTINUOUS
 62
3
100
AcDbBlockBegin
  2
*D0
 70
    65
 10
0.0
 20
0.0
 30
0.0
  0
LINE
  5
AC
100
AcDbEntity
  8
MAIN0
  6
BYBLOCK
 62
0
100
AcDbLine
 10
324.7596375108549
 20
308.4065894092423
 30
0.0000000000000000
 11
324.7596375108548
 21
199.5138322551931
 31
0.0000000000000000
  0
LINE
  5
AD
100
AcDbEntity
  8
MAIN0
  6
BYBLOCK
 62
0
100
AcDbLine
 10
330.7596375108548
 20
205.5138322551930
 30
0.0000000000000000
 11
872.2596375108550
 21
205.5138322551930
 31
0.0000000000000000
  0
INSERT
  5
AE
100
AcDbEntity
  8
MAIN0
  6
BYBLOCK
 62
0
100
AcDbBlockReference
  2
_OPEN
 10
324.7596375108548
 20
205.5138322551930
 30
0.0000000000000000
 41
6.000000000000000
 42
6.000000000000000
 43
6.000000000000000
 50
180.0000000000000
  0
INSERT
  5
AF
100
AcDbEntity
  8
MAIN0
  6
BYBLOCK
 62
0
100
AcDbBlockReference
  2
_OPEN
 10
878.2596375108550
 20
205.5138322551930
 30
0.0000000000000000
 41
6.000000000000000
 42
6.000000000000000
 43
6.000000000000000
 50
0.0000000000000000
  0
LINE
  5
B0
100
AcDbEntity
  8
MAIN0
  6
BYBLOCK
 62
0
100
AcDbLine
 10
878.2596375108550
 20
361.4065894092424
 30
0.0000000000000000
 11
878.2596375108550
 21
199.5138322551930
 31
0.0000000000000000
  0
MTEXT
  5
B1
100
AcDbEntity
  8
MAIN0
  6
BYBLOCK
 62
0
100
AcDbMText
 10
601.5096375108549
 20
210.6638321121419
 30
0.0000000000000000
 40
9.299999713897705
 41
0.0000000000000000
 71
     5
 72
     1
  1
\A1;553.5
 11
1.000000000000000
 21
0.0000000000000000
 31
0.0000000000000000
  7
STANDARD
  0
ENDBLK
  5
B2
100
AcDbEntity
  8
MAIN0
  6
CONTINUOUS
 62
3
100
AcDbBlockEnd
  0
BLOCK
  5
B4
100
AcDbEntity
  8
MAIN0
  6
CONTINUOUS
 62
3
100
AcDbBlockBegin
  2
*D1
 70
    65
 10
0.0
 20
0.0
 30
0.0
  0
LINE
  5
B5
100
AcDbEntity
  8
MAIN0
  6
BYBLOCK
 62
0
100
AcDbLine
 10
429.6683579061395
 20
310.8065894450051
 30
0.0000000000000000
 11
429.6683579061395
 21
305.8065894450051
 31
0.0000000000000000
  0
INSERT
  5
B6
100
AcDbEntity
  8
MAIN0
  6
BYBLOCK
 62
0
100
AcDbBlockReference
  2
_OPEN
 10
429.6683579061395
 20
310.8065894450051
 30
0.0000000000000000
 41
6.000000000000000
 42
6.000000000000000
 43
6.000000000000000
 50
270.0000000000000
  0
INSERT
  5
B7
100
AcDbEntity
  8
MAIN0
  6
BYBLOCK
 62
0
100
AcDbBlockReference
  2
_OPEN
 10
429.6683579061395
 20
305.8065894450051
 30
0.0000000000000000
 41
6.000000000000000
 42
6.000000000000000
 43
6.000000000000000
 50
90.00000000000000
  0
LINE
  5
B8
100
AcDbEntity
  8
MAIN0
  6
BYBLOCK
 62
0
100
AcDbLine
 10
429.6683579061395
 20
316.8065894450051
 30
0.0000000000000000
 11
429.6683579061395
 21
319.8065894450051
 31
0.0000000000000000
  0
LINE
  5
B9
100
AcDbEntity
  8
MAIN0
  6
BYBLOCK
 62
0
100
AcDbLine
 10
429.6683579061395
 20
299.8065894450051
 30
0.0000000000000000
 11
429.6683579061395
 21
292.9601038139271
 31
0.0000000000000000
  0
LINE
  5
BA
100
AcDbEntity
  8
MAIN0
  6
BYBLOCK
 62
0
100
AcDbLine
 10
458.3596374750921
 20
305.8065894450051
 30
0.0000000000000000
 11
423.6683579061395
 21
305.8065894450051
 31
0.0000000000000000
  0
MTEXT
  5
BB
100
AcDbEntity
  8
MAIN0
  6
BYBLOCK
 62
0
100
AcDbMText
 10
423.5183580491906
 20
295.9601038139271
 30
0.0000000000000000
 40
9.299999713897705
 41
0.0000000000000000
 71
     5
 72
     1
  1
\A1;5
 11
6.123233995736766e-017
 21
1.000000000000000
 31
0.0000000000000000
  7
STANDARD
  0
ENDBLK
  5
BC
100
AcDbEntity
  8
MAIN0
  6
CONTINUOUS
 62
3
100
AcDbBlockEnd
  0
BLOCK
  5
C4
100
AcDbEntity
  8
MAIN0
  6
CONTINUOUS
 62
3
100
AcDbBlockBegin
  2
*D2
 70
    65
 10
0.0
 20
0.0
 30
0.0
  0
LINE
  5
C5
100
AcDbEntity
  8
MAIN0
  6
BYBLOCK
 62
0
100
AcDbLine
 10
72.24160314086453
 20
478.2065894807679
 30
0.0000000000000000
 11
72.24160314086453
 21
542.1065556952510
 31
0.0000000000000000
  0
LINE
  5
C6
100
AcDbEntity
  8
MAIN0
  6
BYBLOCK
 62
0
100
AcDbLine
 10
78.24160314086453
 20
536.1065556952510
 30
0.0000000000000000
 11
225.7416031408645
 21
536.1065556952510
 31
0.0000000000000000
  0
INSERT
  5
C7
100
AcDbEntity
  8
MAIN0
  6
BYBLOCK
 62
0
100
AcDbBlockReference
  2
_OPEN
 10
72.24160314086453
 20
536.1065556952510
 30
0.0000000000000000
 41
6.000000000000000
 42
6.000000000000000
 43
6.000000000000000
 50
180.0000000000000
  0
INSERT
  5
C8
100
AcDbEntity
  8
MAIN0
  6
BYBLOCK
 62
0
100
AcDbBlockReference
  2
_OPEN
 10
231.7416031408645
 20
536.1065556952510
 30
0.0000000000000000
 41
6.000000000000000
 42
6.000000000000000
 43
6.000000000000000
 50
0.0000000000000000
  0
LINE
  5
C9
100
AcDbEntity
  8
MAIN0
  6
BYBLOCK
 62
0
100
AcDbLine
 10
231.7416031408645
 20
478.2065894807679
 30
0.0000000000000000
 11
231.7416031408645
 21
542.1065556952510
 31
0.0000000000000000
  0
MTEXT
  5
CA
100
AcDbEntity
  8
MAIN0
  6
BYBLOCK
 62
0
100
AcDbMText
 10
151.9916031408645
 20
541.2565555521999
 30
0.0000000000000000
 40
9.299999713897705
 41
0.0000000000000000
 71
     5
 72
     1
  1
\A1;159.5
 11
1.000000000000000
 21
0.0000000000000000
 31
0.0000000000000000
  7
STANDARD
  0
ENDBLK
  5
CB
100
AcDbEntity
  8
MAIN0
  6
CONTINUOUS
 62
3
100
AcDbBlockEnd
  0
BLOCK
  5
CD
100
AcDbEntity
  8
MAIN0
  6
CONTINUOUS
 62
3
100
AcDbBlockBegin
  2
*D3
 70
    65
 10
0.0
 20
0.0
 30
0.0
  0
LINE
  5
CE
100
AcDbEntity
  8
MAIN0
  6
BYBLOCK
 62
0
100
AcDbLine
 10
234.8916031766274
 20
310.8065894450051
 30
0.0000000000000000
 11
267.4076503724195
 21
310.8065894450051
 31
0.0000000000000000
  0
LINE
  5
CF
100
AcDbEntity
  8
MAIN0
  6
BYBLOCK
 62
0
100
AcDbLine
 10
261.4076503724195
 20
310.8065894450051
 30
0.0000000000000000
 11
261.4076503724195
 21
331.8065894450051
 31
0.0000000000000000
  0
INSERT
  5
D0
100
AcDbEntity
  8
MAIN0
  6
BYBLOCK
 62
0
100
AcDbBlockReference
  2
_OPEN
 10
261.4076503724195
 20
310.8065894450051
 30
0.0000000000000000
 41
6.000000000000000
 42
6.000000000000000
 43
6.000000000000000
 50
90.00000000000000
  0
INSERT
  5
D1
100
AcDbEntity
  8
MAIN0
  6
BYBLOCK
 62
0
100
AcDbBlockReference
  2
_OPEN
 10
261.4076503724195
 20
331.8065894450051
 30
0.0000000000000000
 41
6.000000000000000
 42
6.000000000000000
 43
6.000000000000000
 50
270.0000000000000
  0
LINE
  5
D2
100
AcDbEntity
  8
MAIN0
  6
BYBLOCK
 62
0
100
AcDbLine
 10
261.4076503724195
 20
304.8065894450051
 30
0.0000000000000000
 11
261.4076503724195
 21
301.8065894450051
 31
0.0000000000000000
  0
LINE
  5
D3
100
AcDbEntity
  8
MAIN0
  6
BYBLOCK
 62
0
100
AcDbLine
 10
261.4076503724195
 20
337.8065894450051
 30
0.0000000000000000
 11
261.4076503724195
 21
340.8065894450051
 31
0.0000000000000000
  0
LINE
  5
D4
100
AcDbEntity
  8
MAIN0
  6
BYBLOCK
 62
0
100
AcDbLine
 10
234.8916031766273
 20
331.8065894450051
 30
0.0000000000000000
 11
267.4076503724195
 21
331.8065894450051
 31
0.0000000000000000
  0
MTEXT
  5
D5
100
AcDbEntity
  8
MAIN0
  6
BYBLOCK
 62
0
100
AcDbMText
 10
256.2576505154707
 20
321.3065894450051
 30
0.0000000000000000
 40
9.299999713897705
 41
0.0000000000000000
 71
     5
 72
     1
  1
\A1;21
 11
6.123233995736766e-017
 21
1.000000000000000
 31
0.0000000000000000
  7
STANDARD
  0
ENDBLK
  5
D6
100
AcDbEntity
  8
MAIN0
  6
CONTINUOUS
 62
3
100
AcDbBlockEnd
  0
BLOCK
  5
D8
100
AcDbEntity
  8
MAIN0
  6
CONTINUOUS
 62
3
100
AcDbBlockBegin
  2
*D4
 70
    65
 10
0.0
 20
0.0
 30
0.0
  0
LINE
  5
D9
100
AcDbEntity
  8
MAIN0
  6
BYBLOCK
 62
0
100
AcDbLine
 10
234.8916031766273
 20
331.8065894450051
 30
0.0000000000000000
 11
267.4076503724195
 21
331.8065894450051
 31
0.0000000000000000
  0
LINE
  5
DA
100
AcDbEntity
  8
MAIN0
  6
BYBLOCK
 62
0
100
AcDbLine
 10
261.4076503724195
 20
337.8065894450051
 30
0.0000000000000000
 11
261.4076503724195
 21
375.8065894450051
 31
0.0000000000000000
  0
INSERT
  5
DB
100
AcDbEntity
  8
MAIN0
  6
BYBLOCK
 62
0
100
AcDbBlockReference
  2
_OPEN
 10
261.4076503724195
 20
331.8065894450051
 30
0.0000000000000000
 41
6.000000000000000
 42
6.000000000000000
 43
6.000000000000000
 50
270.0000000000000
  0
INSERT
  5
DC
100
AcDbEntity
  8
MAIN0
  6
BYBLOCK
 62
0
100
AcDbBlockReference
  2
_OPEN
 10
261.4076503724195
 20
381.8065894450051
 30
0.0000000000000000
 41
6.000000000000000
 42
6.000000000000000
 43
6.000000000000000
 50
90.00000000000000
  0
LINE
  5
DD
100
AcDbEntity
  8
MAIN0
  6
BYBLOCK
 62
0
100
AcDbLine
 10
234.8916031766273
 20
381.8065894450051
 30
0.0000000000000000
 11
267.4076503724195
 21
381.8065894450051
 31
0.0000000000000000
  0
MTEXT
  5
DE
100
AcDbEntity
  8
MAIN0
  6
BYBLOCK
 62
0
100
AcDbMText
 10
256.2576505154707
 20
356.8065894450051
 30
0.0000000000000000
 40
9.299999713897705
 41
0.0000000000000000
 71
     5
 72
     1
  1
\A1;50
 11
6.123233995736766e-017
 21
1.000000000000000
 31
0.0000000000000000
  7
STANDARD
  0
ENDBLK
  5
DF
100
AcDbEntity
  8
MAIN0
  6
CONTINUOUS
 62
3
100
AcDbBlockEnd
  0
BLOCK
  5
E1
100
AcDbEntity
  8
MAIN0
  6
CONTINUOUS
 62
3
100
AcDbBlockBegin
  2
*D5
 70
    65
 10
0.0
 20
0.0
 30
0.0
  0
LINE
  5
E2
100
AcDbEntity
  8
MAIN0
  6
BYBLOCK
 62
0
100
AcDbLine
 10
234.8916031766273
 20
381.8065894450051
 30
0.0000000000000000
 11
267.4076503724195
 21
381.8065894450051
 31
0.0000000000000000
  0
LINE
  5
E3
100
AcDbEntity
  8
MAIN0
  6
BYBLOCK
 62
0
100
AcDbLine
 10
261.4076503724195
 20
387.8065894450051
 30
0.0000000000000000
 11
261.4076503724195
 21
424.8065894450051
 31
0.0000000000000000
  0
INSERT
  5
E4
100
AcDbEntity
  8
MAIN0
  6
BYBLOCK
 62
0
100
AcDbBlockReference
  2
_OPEN
 10
261.4076503724195
 20
381.8065894450051
 30
0.0000000000000000
 41
6.000000000000000
 42
6.000000000000000
 43
6.000000000000000
 50
270.0000000000000
  0
INSERT
  5
E5
100
AcDbEntity
  8
MAIN0
  6
BYBLOCK
 62
0
100
AcDbBlockReference
  2
_OPEN
 10
261.4076503724195
 20
430.8065894450051
 30
0.0000000000000000
 41
6.000000000000000
 42
6.000000000000000
 43
6.000000000000000
 50
90.00000000000000
  0
LINE
  5
E6
100
AcDbEntity
  8
MAIN0
  6
BYBLOCK
 62
0
100
AcDbLine
 10
235.1916031766273
 20
430.8065894450051
 30
0.0000000000000000
 11
267.4076503724195
 21
430.8065894450051
 31
0.0000000000000000
  0
MTEXT
  5
E7
100
AcDbEntity
  8
MAIN0
  6
BYBLOCK
 62
0
100
AcDbMText
 10
256.2576505154707
 20
406.3065894450051
 30
0.0000000000000000
 40
9.299999713897705
 41
0.0000000000000000
 71
     5
 72
     1
  1
\A1;49
 11
6.123233995736766e-017
 21
1.000000000000000
 31
0.0000000000000000
  7
STANDARD
  0
ENDBLK
  5
E8
100
AcDbEntity
  8
MAIN0
  6
CONTINUOUS
 62
3
100
AcDbBlockEnd
  0
BLOCK
  5
EA
100
AcDbEntity
  8
MAIN0
  6
CONTINUOUS
 62
3
100
AcDbBlockBegin
  2
*D6
 70
    65
 10
0.0
 20
0.0
 30
0.0
  0
LINE
  5
EB
100
AcDbEntity
  8
MAIN0
  6
BYBLOCK
 62
0
100
AcDbLine
 10
232.4916031408645
 20
334.2065894807679
 30
0.0000000000000000
 11
232.4916031408645
 21
366.3317761690303
 31
0.0000000000000000
  0
LINE
  5
EC
100
AcDbEntity
  8
MAIN0
  6
BYBLOCK
 62
0
100
AcDbLine
 10
232.4916031408645
 20
360.3317761690303
 30
0.0000000000000000
 11
225.4916031408645
 21
360.3317761690303
 31
0.0000000000000000
  0
INSERT
  5
ED
100
AcDbEntity
  8
MAIN0
  6
BYBLOCK
 62
0
100
AcDbBlockReference
  2
_OPEN
 10
232.4916031408645
 20
360.3317761690303
 30
0.0000000000000000
 41
6.000000000000000
 42
6.000000000000000
 43
6.000000000000000
 50
180.0000000000000
  0
INSERT
  5
EE
100
AcDbEntity
  8
MAIN0
  6
BYBLOCK
 62
0
100
AcDbBlockReference
  2
_OPEN
 10
225.4916031408645
 20
360.3317761690303
 30
0.0000000000000000
 41
6.000000000000000
 42
6.000000000000000
 43
6.000000000000000
 50
360.0000000000000
  0
LINE
  5
EF
100
AcDbEntity
  8
MAIN0
  6
BYBLOCK
 62
0
100
AcDbLine
 10
238.4916031408645
 20
360.3317761690303
 30
0.0000000000000000
 11
245.9578668641033
 21
360.3317761690303
 31
0.0000000000000000
  0
LINE
  5
F0
100
AcDbEntity
  8
MAIN0
  6
BYBLOCK
 62
0
100
AcDbLine
 10
219.4916031408645
 20
360.3317761690303
 30
0.0000000000000000
 11
216.4916031408645
 21
360.3317761690303
 31
0.0000000000000000
  0
MTEXT
  5
F1
100
AcDbEntity
  8
MAIN0
  6
BYBLOCK
 62
0
100
AcDbMText
 10
242.9578668641033
 20
366.4817760259791
 30
0.0000000000000000
 40
9.299999713897705
 41
0.0000000000000000
 71
     5
 72
     1
  1
\A1;7
 11
1.000000000000000
 21
0.0000000000000000
 31
0.0000000000000000
  7
STANDARD
  0
ENDBLK
  5
F2
100
AcDbEntity
  8
MAIN0
  6
CONTINUOUS
 62
3
100
AcDbBlockEnd
  0
BLOCK
  5
F7
100
AcDbEntity
  8
MAIN0
  6
CONTINUOUS
 62
3
100
AcDbBlockBegin
  2
*D7
 70
    65
 10
0.0
 20
0.0
 30
0.0
  0
LINE
  5
F8
100
AcDbEntity
  8
MAIN0
  6
BYBLOCK
 62
0
100
AcDbLine
 10
324.7596375108552
 20
433.2065894807678
 30
0.0000000000000000
 11
324.7596375108552
 21
533.8488193890076
 31
0.0000000000000000
  0
LINE
  5
F9
100
AcDbEntity
  8
MAIN0
  6
BYBLOCK
 62
0
100
AcDbLine
 10
324.7596375108552
 20
527.8488193890076
 30
0.0000000000000000
 11
325.7596375108552
 21
527.8488193890076
 31
0.0000000000000000
  0
INSERT
  5
FA
100
AcDbEntity
  8
MAIN0
  6
BYBLOCK
 62
0
100
AcDbBlockReference
  2
_OPEN
 10
324.7596375108552
 20
527.8488193890076
 30
0.0000000000000000
 41
6.000000000000000
 42
6.000000000000000
 43
6.000000000000000
 50
0.0000000000000000
  0
INSERT
  5
FB
100
AcDbEntity
  8
MAIN0
  6
BYBLOCK
 62
0
100
AcDbBlockReference
  2
_OPEN
 10
325.7596375108552
 20
527.8488193890076
 30
0.0000000000000000
 41
6.000000000000000
 42
6.000000000000000
 43
6.000000000000000
 50
180.0000000000000
  0
LINE
  5
FC
100
AcDbEntity
  8
MAIN0
  6
BYBLOCK
 62
0
100
AcDbLine
 10
318.7596375108552
 20
527.8488193890076
 30
0.0000000000000000
 11
311.0782507842271
 21
527.8488193890076
 31
0.0000000000000000
  0
LINE
  5
FD
100
AcDbEntity
  8
MAIN0
  6
BYBLOCK
 62
0
100
AcDbLine
 10
331.7596375108552
 20
527.8488193890076
 30
0.0000000000000000
 11
334.7596375108552
 21
527.8488193890076
 31
0.0000000000000000
  0
LINE
  5
FE
100
AcDbEntity
  8
MAIN0
  6
BYBLOCK
 62
0
100
AcDbLine
 10
325.7596375108553
 20
478.2065894807678
 30
0.0000000000000000
 11
325.7596375108552
 21
533.8488193890076
 31
0.0000000000000000
  0
MTEXT
  5
FF
100
AcDbEntity
  8
MAIN0
  6
BYBLOCK
 62
0
100
AcDbMText
 10
314.0782507842271
 20
533.9988192459565
 30
0.0000000000000000
 40
9.299999713897705
 41
0.0000000000000000
 71
     5
 72
     1
  1
\A1;1
 11
1.000000000000000
 21
0.0000000000000000
 31
0.0000000000000000
  7
STANDARD
  0
ENDBLK
  5
100
100
AcDbEntity
  8
MAIN0
  6
CONTINUOUS
 62
3
100
AcDbBlockEnd
  0
BLOCK
  5
102
100
AcDbEntity
  8
MAIN0
  6
CONTINUOUS
 62
3
100
AcDbBlockBegin
  2
*D8
 70
    65
 10
0.0
 20
0.0
 30
0.0
  0
LINE
  5
103
100
AcDbEntity
  8
MAIN0
  6
BYBLOCK
 62
0
100
AcDbLine
 10
325.7596375108553
 20
478.2065894807678
 30
0.0000000000000000
 11
325.7596375108552
 21
533.8488193890076
 31
0.0000000000000000
  0
LINE
  5
104
100
AcDbEntity
  8
MAIN0
  6
BYBLOCK
 62
0
100
AcDbLine
 10
331.7596375108552
 20
527.8488193890076
 30
0.0000000000000000
 11
405.7596375108554
 21
527.8488193890076
 31
0.0000000000000000
  0
INSERT
  5
105
100
AcDbEntity
  8
MAIN0
  6
BYBLOCK
 62
0
100
AcDbBlockReference
  2
_OPEN
 10
325.7596375108552
 20
527.8488193890076
 30
0.0000000000000000
 41
6.000000000000000
 42
6.000000000000000
 43
6.000000000000000
 50
180.0000000000000
  0
INSERT
  5
106
100
AcDbEntity
  8
MAIN0
  6
BYBLOCK
 62
0
100
AcDbBlockReference
  2
_OPEN
 10
411.7596375108554
 20
527.8488193890076
 30
0.0000000000000000
 41
6.000000000000000
 42
6.000000000000000
 43
6.000000000000000
 50
0.0000000000000000
  0
LINE
  5
107
100
AcDbEntity
  8
MAIN0
  6
BYBLOCK
 62
0
100
AcDbLine
 10
411.7596375108554
 20
478.2065894807679
 30
0.0000000000000000
 11
411.7596375108554
 21
533.8488193890076
 31
0.0000000000000000
  0
MTEXT
  5
108
100
AcDbEntity
  8
MAIN0
  6
BYBLOCK
 62
0
100
AcDbMText
 10
368.7596375108553
 20
532.9988192459565
 30
0.0000000000000000
 40
9.299999713897705
 41
0.0000000000000000
 71
     5
 72
     1
  1
\A1;86
 11
1.000000000000000
 21
0.0000000000000000
 31
0.0000000000000000
  7
STANDARD
  0
ENDBLK
  5
109
100
AcDbEntity
  8
MAIN0
  6
CONTINUOUS
 62
3
100
AcDbBlockEnd
  0
BLOCK
  5
10B
100
AcDbEntity
  8
MAIN0
  6
CONTINUOUS
 62
3
100
AcDbBlockBegin
  2
*D9
 70
    65
 10
0.0
 20
0.0
 30
0.0
  0
LINE
  5
10C
100
AcDbEntity
  8
MAIN0
  6
BYBLOCK
 62
0
100
AcDbLine
 10
411.7596375108554
 20
478.2065894807679
 30
0.0000000000000000
 11
411.7596375108554
 21
533.8488193890076
 31
0.0000000000000000
  0
LINE
  5
10D
100
AcDbEntity
  8
MAIN0
  6
BYBLOCK
 62
0
100
AcDbLine
 10
417.7596375108554
 20
527.8488193890076
 30
0.0000000000000000
 11
491.7596375108556
 21
527.8488193890076
 31
0.0000000000000000
  0
INSERT
  5
10E
100
AcDbEntity
  8
MAIN0
  6
BYBLOCK
 62
0
100
AcDbBlockReference
  2
_OPEN
 10
411.7596375108554
 20
527.8488193890076
 30
0.0000000000000000
 41
6.000000000000000
 42
6.000000000000000
 43
6.000000000000000
 50
180.0000000000000
  0
INSERT
  5
10F
100
AcDbEntity
  8
MAIN0
  6
BYBLOCK
 62
0
100
AcDbBlockReference
  2
_OPEN
 10
497.7596375108556
 20
527.8488193890076
 30
0.0000000000000000
 41
6.000000000000000
 42
6.000000000000000
 43
6.000000000000000
 50
0.0000000000000000
  0
LINE
  5
110
100
AcDbEntity
  8
MAIN0
  6
BYBLOCK
 62
0
100
AcDbLine
 10
497.7596375108556
 20
478.2065894807679
 30
0.0000000000000000
 11
497.7596375108556
 21
533.8488193890076
 31
0.0000000000000000
  0
MTEXT
  5
111
100
AcDbEntity
  8
MAIN0
  6
BYBLOCK
 62
0
100
AcDbMText
 10
466.4481208161420
 20
533.9988192459565
 30
0.0000000000000000
 40
9.299999713897705
 41
0.0000000000000000
 71
     5
 72
     1
  1
\A1;275
 11
1.000000000000000
 21
0.0000000000000000
 31
0.0000000000000000
  7
STANDARD
  0
ENDBLK
  5
112
100
AcDbEntity
  8
MAIN0
  6
CONTINUOUS
 62
3
100
AcDbBlockEnd
  0
BLOCK
  5
114
100
AcDbEntity
  8
MAIN0
  6
CONTINUOUS
 62
1
100
AcDbBlockBegin
  2
*D10
 70
    65
 10
0.0
 20
0.0
 30
0.0
  0
LINE
  5
115
100
AcDbEntity
  8
MAIN0
  6
BYBLOCK
 62
0
100
AcDbLine
 10
497.7596375108556
 20
478.2065894807679
 30
0.0000000000000000
 11
497.7596375108556
 21
533.8488193890076
 31
0.0000000000000000
  0
LINE
  5
116
100
AcDbEntity
  8
MAIN0
  6
BYBLOCK
 62
0
100
AcDbLine
 10
503.7596375108556
 20
527.8488193890076
 30
0.0000000000000000
 11
577.7596375108556
 21
527.8488193890076
 31
0.0000000000000000
  0
INSERT
  5
117
100
AcDbEntity
  8
MAIN0
  6
BYBLOCK
 62
0
100
AcDbBlockReference
  2
_OPEN
 10
497.7596375108556
 20
527.8488193890076
 30
0.0000000000000000
 41
6.000000000000000
 42
6.000000000000000
 43
6.000000000000000
 50
180.0000000000000
  0
INSERT
  5
118
100
AcDbEntity
  8
MAIN0
  6
BYBLOCK
 62
0
100
AcDbBlockReference
  2
_OPEN
 10
583.7596375108556
 20
527.8488193890076
 30
0.0000000000000000
 41
6.000000000000000
 42
6.000000000000000
 43
6.000000000000000
 50
0.0000000000000000
  0
LINE
  5
119
100
AcDbEntity
  8
MAIN0
  6
BYBLOCK
 62
0
100
AcDbLine
 10
583.7596375108556
 20
478.2065894807679
 30
0.0000000000000000
 11
583.7596375108556
 21
533.8488193890076
 31
0.0000000000000000
  0
MTEXT
  5
11A
100
AcDbEntity
  8
MAIN0
  6
BYBLOCK
 62
0
100
AcDbMText
 10
540.7596375108556
 20
532.9988192459565
 30
0.0000000000000000
 40
9.299999713897705
 41
0.0000000000000000
 71
     5
 72
     1
  1
\A1;86
 11
1.000000000000000
 21
0.0000000000000000
 31
0.0000000000000000
  7
STANDARD
  0
ENDBLK
  5
11B
100
AcDbEntity
  8
MAIN0
  6
CONTINUOUS
 62
1
100
AcDbBlockEnd
  0
BLOCK
  5
11E
100
AcDbEntity
  8
MAIN0
  6
CONTINUOUS
 62
3
100
AcDbBlockBegin
  2
*D11
 70
    65
 10
0.0
 20
0.0
 30
0.0
  0
LINE
  5
11F
100
AcDbEntity
  8
MAIN0
  6
BYBLOCK
 62
0
100
AcDbLine
 10
460.7596375108549
 20
303.4065894092423
 30
0.0000000000000000
 11
460.7596375108549
 21
285.5496123824393
 31
0.0000000000000000
  0
LINE
  5
120
100
AcDbEntity
  8
MAIN0
  6
BYBLOCK
 62
0
100
AcDbLine
 10
460.7596375108549
 20
291.5496123824393
 30
0.0000000000000000
 11
478.7596375108549
 21
291.5496123824393
 31
0.0000000000000000
  0
INSERT
  5
121
100
AcDbEntity
  8
MAIN0
  6
BYBLOCK
 62
0
100
AcDbBlockReference
  2
_OPEN
 10
460.7596375108549
 20
291.5496123824393
 30
0.0000000000000000
 41
6.000000000000000
 42
6.000000000000000
 43
6.000000000000000
 50
0.0000000000000000
  0
INSERT
  5
122
100
AcDbEntity
  8
MAIN0
  6
BYBLOCK
 62
0
100
AcDbBlockReference
  2
_OPEN
 10
478.7596375108549
 20
291.5496123824393
 30
0.0000000000000000
 41
6.000000000000000
 42
6.000000000000000
 43
6.000000000000000
 50
180.0000000000000
  0
LINE
  5
123
100
AcDbEntity
  8
MAIN0
  6
BYBLOCK
 62
0
100
AcDbLine
 10
454.7596375108549
 20
291.5496123824393
 30
0.0000000000000000
 11
451.7596375108549
 21
291.5496123824393
 31
0.0000000000000000
  0
LINE
  5
124
100
AcDbEntity
  8
MAIN0
  6
BYBLOCK
 62
0
100
AcDbLine
 10
484.7596375108549
 20
291.5496123824393
 30
0.0000000000000000
 11
496.4068590506497
 21
291.5496123824393
 31
0.0000000000000000
  0
LINE
  5
125
100
AcDbEntity
  8
MAIN0
  6
BYBLOCK
 62
0
100
AcDbLine
 10
478.7596375108549
 20
303.4065894092423
 30
0.0000000000000000
 11
478.7596375108549
 21
285.5496123824393
 31
0.0000000000000000
  0
MTEXT
  5
126
100
AcDbEntity
  8
MAIN0
  6
BYBLOCK
 62
0
100
AcDbMText
 10
490.2568591937009
 20
297.6996122393881
 30
0.0000000000000000
 40
9.299999713897705
 41
0.0000000000000000
 71
     5
 72
     1
  1
\A1;18
 11
1.000000000000000
 21
0.0000000000000000
 31
0.0000000000000000
  7
STANDARD
  0
ENDBLK
  5
127
100
AcDbEntity
  8
MAIN0
  6
CONTINUOUS
 62
3
100
AcDbBlockEnd
  0
BLOCK
  5
15B
100
AcDbEntity
  8
MAIN0
  6
CONTINUOUS
 62
3
100
AcDbBlockBegin
  2
*D12
 70
    65
 10
0.0
 20
0.0
 30
0.0
  0
LINE
  5
15C
100
AcDbEntity
  8
MAIN0
  6
BYBLOCK
 62
0
100
AcDbLine
 10
1052.991686206989
 20
453.4065894803021
 30
0.0000000000000000
 11
1052.991686206989
 21
535.0343983016110
 31
0.0000000000000000
  0
LINE
  5
15D
100
AcDbEntity
  8
MAIN0
  6
BYBLOCK
 62
0
100
AcDbLine
 10
1058.991686206989
 20
529.0343983016110
 30
0.0000000000000000
 11
1216.991686206989
 21
529.0343983016110
 31
0.0000000000000000
  0
INSERT
  5
15E
100
AcDbEntity
  8
MAIN0
  6
BYBLOCK
 62
0
100
AcDbBlockReference
  2
_OPEN
 10
1052.991686206989
 20
529.0343983016110
 30
0.0000000000000000
 41
6.000000000000000
 42
6.000000000000000
 43
6.000000000000000
 50
180.0000000000000
  0
INSERT
  5
15F
100
AcDbEntity
  8
MAIN0
  6
BYBLOCK
 62
0
100
AcDbBlockReference
  2
_OPEN
 10
1222.991686206989
 20
529.0343983016110
 30
0.0000000000000000
 41
6.000000000000000
 42
6.000000000000000
 43
6.000000000000000
 50
0.0000000000000000
  0
LINE
  5
160
100
AcDbEntity
  8
MAIN0
  6
BYBLOCK
 62
0
100
AcDbLine
 10
1222.991686206989
 20
453.4065892973558
 30
0.0000000000000000
 11
1222.991686206989
 21
535.0343983016110
 31
0.0000000000000000
  0
MTEXT
  5
161
100
AcDbEntity
  8
MAIN0
  6
BYBLOCK
 62
0
100
AcDbMText
 10
1137.991686206989
 20
534.1843981585598
 30
0.0000000000000000
 40
9.299999713897705
 41
0.0000000000000000
 71
     5
 72
     1
  1
\A1;170
 11
1.000000000000000
 21
0.0000000000000000
 31
0.0000000000000000
  7
STANDARD
  0
ENDBLK
  5
162
100
AcDbEntity
  8
MAIN0
  6
CONTINUOUS
 62
3
100
AcDbBlockEnd
  0
BLOCK
  5
16E
100
AcDbEntity
  8
MAIN0
  6
CONTINUOUS
 62
3
100
AcDbBlockBegin
  2
*D13
 70
    65
 10
0.0
 20
0.0
 30
0.0
  0
LINE
  5
16F
100
AcDbEntity
  8
MAIN0
  6
BYBLOCK
 62
0
100
AcDbLine
 10
409.7596375108550
 20
391.4065894092423
 30
0.0000000000000000
 11
409.7596375108550
 21
352.3632937445687
 31
0.0000000000000000
  0
LINE
  5
170
100
AcDbEntity
  8
MAIN0
  6
BYBLOCK
 62
0
100
AcDbLine
 10
415.7596375108550
 20
358.3632937445687
 30
0.0000000000000000
 11
688.7596375108550
 21
358.3632937445687
 31
0.0000000000000000
  0
INSERT
  5
171
100
AcDbEntity
  8
MAIN0
  6
BYBLOCK
 62
0
100
AcDbBlockReference
  2
_OPEN
 10
409.7596375108550
 20
358.3632937445687
 30
0.0000000000000000
 41
6.000000000000000
 42
6.000000000000000
 43
6.000000000000000
 50
180.0000000000000
  0
INSERT
  5
172
100
AcDbEntity
  8
MAIN0
  6
BYBLOCK
 62
0
100
AcDbBlockReference
  2
_OPEN
 10
694.7596375108550
 20
358.3632937445687
 30
0.0000000000000000
 41
6.000000000000000
 42
6.000000000000000
 43
6.000000000000000
 50
0.0000000000000000
  0
LINE
  5
173
100
AcDbEntity
  8
MAIN0
  6
BYBLOCK
 62
0
100
AcDbLine
 10
694.7596375108550
 20
391.4065894092423
 30
0.0000000000000000
 11
694.7596375108550
 21
352.3632937445687
 31
0.0000000000000000
  0
MTEXT
  5
174
100
AcDbEntity
  8
MAIN0
  6
BYBLOCK
 62
0
100
AcDbMText
 10
552.2596375108550
 20
363.5132936015176
 30
0.0000000000000000
 40
9.299999713897705
 41
0.0000000000000000
 71
     5
 72
     1
  1
\A1;285
 11
1.000000000000000
 21
0.0000000000000000
 31
0.0000000000000000
  7
STANDARD
  0
ENDBLK
  5
175
100
AcDbEntity
  8
MAIN0
  6
CONTINUOUS
 62
3
100
AcDbBlockEnd
  0
BLOCK
  5
177
100
AcDbEntity
  8
MAIN0
  6
CONTINUOUS
 62
3
100
AcDbBlockBegin
  2
*D14
 70
    65
 10
0.0
 20
0.0
 30
0.0
  0
LINE
  5
178
100
AcDbEntity
  8
MAIN0
  6
BYBLOCK
 62
0
100
AcDbLine
 10
330.7596375108552
 20
358.4932380340845
 30
0.0000000000000000
 11
403.7596375108550
 21
358.4932380340845
 31
0.0000000000000000
  0
INSERT
  5
179
100
AcDbEntity
  8
MAIN0
  6
BYBLOCK
 62
0
100
AcDbBlockReference
  2
_OPEN
 10
324.7596375108552
 20
358.4932380340845
 30
0.0000000000000000
 41
6.000000000000000
 42
6.000000000000000
 43
6.000000000000000
 50
180.0000000000000
  0
INSERT
  5
17A
100
AcDbEntity
  8
MAIN0
  6
BYBLOCK
 62
0
100
AcDbBlockReference
  2
_OPEN
 10
409.7596375108550
 20
358.4932380340845
 30
0.0000000000000000
 41
6.000000000000000
 42
6.000000000000000
 43
6.000000000000000
 50
0.0000000000000000
  0
LINE
  5
17B
100
AcDbEntity
  8
MAIN0
  6
BYBLOCK
 62
0
100
AcDbLine
 10
409.7596375108550
 20
391.4065894092423
 30
0.0000000000000000
 11
409.7596375108550
 21
352.4932380340845
 31
0.0000000000000000
  0
MTEXT
  5
17C
100
AcDbEntity
  8
MAIN0
  6
BYBLOCK
 62
0
100
AcDbMText
 10
367.2596375108551
 20
363.6432378910334
 30
0.0000000000000000
 40
9.299999713897705
 41
0.0000000000000000
 71
     5
 72
     1
  1
\A1;85
 11
1.000000000000000
 21
0.0000000000000000
 31
0.0000000000000000
  7
STANDARD
  0
ENDBLK
  5
17D
100
AcDbEntity
  8
MAIN0
  6
CONTINUOUS
 62
3
100
AcDbBlockEnd
  0
BLOCK
  5
181
100
AcDbEntity
  8
MAIN0
  6
CONTINUOUS
 62
3
100
AcDbBlockBegin
  2
*D15
 70
    65
 10
0.0
 20
0.0
 30
0.0
  0
LINE
  5
182
100
AcDbEntity
  8
MAIN0
  6
BYBLOCK
 62
0
100
AcDbLine
 10
399.2942346537741
 20
475.8065894450052
 30
0.0000000000000000
 11
399.2942346537741
 21
466.8065894450052
 31
0.0000000000000000
  0
INSERT
  5
183
100
AcDbEntity
  8
MAIN0
  6
BYBLOCK
 62
0
100
AcDbBlockReference
  2
_OPEN
 10
399.2942346537741
 20
475.8065894450052
 30
0.0000000000000000
 41
6.000000000000000
 42
6.000000000000000
 43
6.000000000000000
 50
270.0000000000000
  0
INSERT
  5
184
100
AcDbEntity
  8
MAIN0
  6
BYBLOCK
 62
0
100
AcDbBlockReference
  2
_DOT
 10
399.2942346537741
 20
465.8065894450052
 30
0.0000000000000000
 41
3.000000000000000
 42
3.000000000000000
 43
3.000000000000000
 50
270.0000000000000
  0
LINE
  5
185
100
AcDbEntity
  8
MAIN0
  6
BYBLOCK
 62
0
100
AcDbLine
 10
399.2942346537741
 20
481.8065894450052
 30
0.0000000000000000
 11
399.2942346537741
 21
492.9937692096420
 31
0.0000000000000000
  0
LINE
  5
186
100
AcDbEntity
  8
MAIN0
  6
BYBLOCK
 62
0
100
AcDbLine
 10
380.3003266896064
 20
465.8065894450052
 30
0.0000000000000000
 11
405.2942346537741
 21
465.8065894450052
 31
0.0000000000000000
  0
MTEXT
  5
187
100
AcDbEntity
  8
MAIN0
  6
BYBLOCK
 62
0
100
AcDbMText
 10
393.1442347968252
 20
486.8437693526932
 30
0.0000000000000000
 40
9.299999713897705
 41
0.0000000000000000
 71
     5
 72
     1
  1
\A1;10
 11
6.123233995736766e-017
 21
1.000000000000000
 31
0.0000000000000000
  7
STANDARD
  0
ENDBLK
  5
188
100
AcDbEntity
  8
MAIN0
  6
CONTINUOUS
 62
3
100
AcDbBlockEnd
  0
BLOCK
  5
18A
100
AcDbEntity
  8
MAIN0
  6
CONTINUOUS
 62
3
100
AcDbBlockBegin
  2
*D16
 70
    65
 10
0.0
 20
0.0
 30
0.0
  0
LINE
  5
18B
100
AcDbEntity
  8
MAIN0
  6
BYBLOCK
 62
0
100
AcDbLine
 10
380.3003266896064
 20
465.8065894450052
 30
0.0000000000000000
 11
405.2942346537741
 21
465.8065894450052
 31
0.0000000000000000
  0
LINE
  5
18C
100
AcDbEntity
  8
MAIN0
  6
BYBLOCK
 62
0
100
AcDbLine
 10
399.2942346537741
 20
464.8065894450051
 30
0.0000000000000000
 11
399.2942346537741
 21
445.8065894450051
 31
0.0000000000000000
  0
INSERT
  5
18D
100
AcDbEntity
  8
MAIN0
  6
BYBLOCK
 62
0
100
AcDbBlockReference
  2
_DOT
 10
399.2942346537741
 20
465.8065894450051
 30
0.0000000000000000
 41
3.000000000000000
 42
3.000000000000000
 43
3.000000000000000
 50
90.00000000000000
  0
INSERT
  5
18E
100
AcDbEntity
  8
MAIN0
  6
BYBLOCK
 62
0
100
AcDbBlockReference
  2
_OPEN
 10
399.2942346537741
 20
445.8065894450051
 30
0.0000000000000000
 41
6.000000000000000
 42
6.000000000000000
 43
6.000000000000000
 50
90.00000000000000
  0
LINE
  5
18F
100
AcDbEntity
  8
MAIN0
  6
BYBLOCK
 62
0
100
AcDbLine
 10
399.2942346537741
 20
439.8065894450051
 30
0.0000000000000000
 11
399.2942346537741
 21
436.8065894450051
 31
0.0000000000000000
  0
LINE
  5
190
100
AcDbEntity
  8
MAIN0
  6
BYBLOCK
 62
0
100
AcDbLine
 10
379.7541798689601
 20
445.8065894450051
 30
0.0000000000000000
 11
405.2942346537741
 21
445.8065894450051
 31
0.0000000000000000
  0
MTEXT
  5
191
100
AcDbEntity
  8
MAIN0
  6
BYBLOCK
 62
0
100
AcDbMText
 10
394.1442347968252
 20
455.8065894450051
 30
0.0000000000000000
 40
9.299999713897705
 41
0.0000000000000000
 71
     5
 72
     1
  1
\A1;20
 11
6.123233995736766e-017
 21
1.000000000000000
 31
0.0000000000000000
  7
STANDARD
  0
ENDBLK
  5
192
100
AcDbEntity
  8
MAIN0
  6
CONTINUOUS
 62
3
100
AcDbBlockEnd
  0
BLOCK
  5
1A3
100
AcDbEntity
  8
MAIN0
  6
CONTINUOUS
 62
3
100
AcDbBlockBegin
  2
*D17
 70
    65
 10
0.0
 20
0.0
 30
0.0
  0
LINE
  5
1A4
100
AcDbEntity
  8
MAIN0
  6
BYBLOCK
 62
0
100
AcDbLine
 10
581.3596374750927
 20
452.0065894450051
 30
0.0000000000000000
 11
543.1778909661150
 21
452.0065894450051
 31
0.0000000000000000
  0
LINE
  5
1A5
100
AcDbEntity
  8
MAIN0
  6
BYBLOCK
 62
0
100
AcDbLine
 10
549.1778909661150
 20
452.0065894450051
 30
0.0000000000000000
 11
549.1778909661150
 21
430.8065894450051
 31
0.0000000000000000
  0
INSERT
  5
1A6
100
AcDbEntity
  8
MAIN0
  6
BYBLOCK
 62
0
100
AcDbBlockReference
  2
_OPEN
 10
549.1778909661150
 20
452.0065894450051
 30
0.0000000000000000
 41
6.000000000000000
 42
6.000000000000000
 43
6.000000000000000
 50
270.0000000000000
  0
INSERT
  5
1A7
100
AcDbEntity
  8
MAIN0
  6
BYBLOCK
 62
0
100
AcDbBlockReference
  2
_OPEN
 10
549.1778909661150
 20
430.8065894450051
 30
0.0000000000000000
 41
6.000000000000000
 42
6.000000000000000
 43
6.000000000000000
 50
90.00000000000000
  0
LINE
  5
1A8
100
AcDbEntity
  8
MAIN0
  6
BYBLOCK
 62
0
100
AcDbLine
 10
549.1778909661150
 20
458.0065894450051
 30
0.0000000000000000
 11
549.1778909661150
 21
461.0065894450051
 31
0.0000000000000000
  0
LINE
  5
1A9
100
AcDbEntity
  8
MAIN0
  6
BYBLOCK
 62
0
100
AcDbLine
 10
549.1778909661150
 20
424.8065894450051
 30
0.0000000000000000
 11
549.1778909661150
 21
421.8065894450051
 31
0.0000000000000000
  0
MTEXT
  5
1AA
100
AcDbEntity
  8
MAIN0
  6
BYBLOCK
 62
0
100
AcDbMText
 10
544.0278911091662
 20
441.4065894450051
 30
0.0000000000000000
 40
9.299999713897705
 41
0.0000000000000000
 71
     5
 72
     1
  1
\A1;21
 11
6.123233995736766e-017
 21
1.000000000000000
 31
0.0000000000000000
  7
STANDARD
  0
ENDBLK
  5
1AB
100
AcDbEntity
  8
MAIN0
  6
CONTINUOUS
 62
3
100
AcDbBlockEnd
  0
BLOCK
  5
1D0
100
AcDbEntity
  8
MAIN0
  6
CONTINUOUS
 62
3
100
AcDbBlockBegin
  2
*D18
 70
    65
 10
0.0
 20
0.0
 30
0.0
  0
LINE
  5
1D1
100
AcDbEntity
  8
MAIN0
  6
BYBLOCK
 62
0
100
AcDbLine
 10
1130.991686207102
 20
395.2480413650951
 30
0.0000000000000000
 11
1130.991686207102
 21
508.4714598619525
 31
0.0000000000000000
  0
LINE
  5
1D2
100
AcDbEntity
  8
MAIN0
  6
BYBLOCK
 62
0
100
AcDbLine
 10
1130.991686207102
 20
502.4714598619525
 30
0.0000000000000000
 11
1144.991686207102
 21
502.4714598619525
 31
0.0000000000000000
  0
INSERT
  5
1D3
100
AcDbEntity
  8
MAIN0
  6
BYBLOCK
 62
0
100
AcDbBlockReference
  2
_OPEN
 10
1130.991686207102
 20
502.4714598619525
 30
0.0000000000000000
 41
6.000000000000000
 42
6.000000000000000
 43
6.000000000000000
 50
0.0000000000000000
  0
INSERT
  5
1D4
100
AcDbEntity
  8
MAIN0
  6
BYBLOCK
 62
0
100
AcDbBlockReference
  2
_OPEN
 10
1144.991686207102
 20
502.4714598619525
 30
0.0000000000000000
 41
6.000000000000000
 42
6.000000000000000
 43
6.000000000000000
 50
180.0000000000000
  0
LINE
  5
1D5
100
AcDbEntity
  8
MAIN0
  6
BYBLOCK
 62
0
100
AcDbLine
 10
1124.991686207102
 20
502.4714598619525
 30
0.0000000000000000
 11
1121.991686207102
 21
502.4714598619525
 31
0.0000000000000000
  0
LINE
  5
1D6
100
AcDbEntity
  8
MAIN0
  6
BYBLOCK
 62
0
100
AcDbLine
 10
1150.991686207102
 20
502.4714598619525
 30
0.0000000000000000
 11
1153.991686207102
 21
502.4714598619525
 31
0.0000000000000000
  0
LINE
  5
1D7
100
AcDbEntity
  8
MAIN0
  6
BYBLOCK
 62
0
100
AcDbLine
 10
1144.991686207102
 20
395.2480413650960
 30
0.0000000000000000
 11
1144.991686207102
 21
508.4714598619525
 31
0.0000000000000000
  0
MTEXT
  5
1D8
100
AcDbEntity
  8
MAIN0
  6
BYBLOCK
 62
0
100
AcDbMText
 10
1137.991686207102
 20
507.6214597189014
 30
0.0000000000000000
 40
9.299999713897705
 41
0.0000000000000000
 71
     5
 72
     1
  1
\A1;14
 11
1.000000000000000
 21
0.0000000000000000
 31
0.0000000000000000
  7
STANDARD
  0
ENDBLK
  5
1D9
100
AcDbEntity
  8
MAIN0
  6
CONTINUOUS
 62
3
100
AcDbBlockEnd
  0
BLOCK
  5
207
100
AcDbEntity
  8
MAIN0
  6
CONTINUOUS
 62
3
100
AcDbBlockBegin
  2
*D19
 70
    65
 10
0.0
 20
0.0
 30
0.0
  0
LINE
  5
208
100
AcDbEntity
  8
MAIN0
  6
BYBLOCK
 62
0
100
AcDbLine
 10
912.0383817193489
 20
444.0341618666959
 30
0.0000000000000000
 11
912.0383817193489
 21
698.3412313991432
 31
0.0000000000000000
  0
LINE
  5
209
100
AcDbEntity
  8
MAIN0
  6
BYBLOCK
 62
0
100
AcDbLine
 10
912.0383817193489
 20
692.3412313991432
 30
0.0000000000000000
 11
927.0383817193415
 21
692.3412313991432
 31
0.0000000000000000
  0
INSERT
  5
20A
100
AcDbEntity
  8
MAIN0
  6
BYBLOCK
 62
0
100
AcDbBlockReference
  2
_OPEN
 10
912.0383817193489
 20
692.3412313991432
 30
0.0000000000000000
 41
6.000000000000000
 42
6.000000000000000
 43
6.000000000000000
 50
0.0000000000000000
  0
INSERT
  5
20B
100
AcDbEntity
  8
MAIN0
  6
BYBLOCK
 62
0
100
AcDbBlockReference
  2
_OPEN
 10
927.0383817193415
 20
692.3412313991432
 30
0.0000000000000000
 41
6.000000000000000
 42
6.000000000000000
 43
6.000000000000000
 50
180.0000000000000
  0
LINE
  5
20C
100
AcDbEntity
  8
MAIN0
  6
BYBLOCK
 62
0
100
AcDbLine
 10
906.0383817193489
 20
692.3412313991432
 30
0.0000000000000000
 11
903.0383817193489
 21
692.3412313991432
 31
0.0000000000000000
  0
LINE
  5
20D
100
AcDbEntity
  8
MAIN0
  6
BYBLOCK
 62
0
100
AcDbLine
 10
933.0383817193415
 20
692.3412313991432
 30
0.0000000000000000
 11
936.0383817193415
 21
692.3412313991432
 31
0.0000000000000000
  0
LINE
  5
20E
100
AcDbEntity
  8
MAIN0
  6
BYBLOCK
 62
0
100
AcDbLine
 10
927.0383817193415
 20
453.6341618666958
 30
0.0000000000000000
 11
927.0383817193415
 21
698.3412313991432
 31
0.0000000000000000
  0
MTEXT
  5
20F
100
AcDbEntity
  8
MAIN0
  6
BYBLOCK
 62
0
100
AcDbMText
 10
919.5383817193452
 20
697.4912312560921
 30
0.0000000000000000
 40
9.299999713897705
 41
0.0000000000000000
 71
     5
 72
     1
  1
\A1;15
 11
1.000000000000000
 21
0.0000000000000000
 31
0.0000000000000000
  7
STANDARD
  0
ENDBLK
  5
210
100
AcDbEntity
  8
MAIN0
  6
CONTINUOUS
 62
3
100
AcDbBlockEnd
  0
BLOCK
  5
212
100
AcDbEntity
  8
MAIN0
  6
CONTINUOUS
 62
3
100
AcDbBlockBegin
  2
*D20
 70
    65
 10
0.0
 20
0.0
 30
0.0
  0
LINE
  5
213
100
AcDbEntity
  8
MAIN0
  6
BYBLOCK
 62
0
100
AcDbLine
 10
927.0383817193415
 20
453.6341618666958
 30
0.0000000000000000
 11
927.0383817193415
 21
698.3412313991432
 31
0.0000000000000000
  0
LINE
  5
214
100
AcDbEntity
  8
MAIN0
  6
BYBLOCK
 62
0
100
AcDbLine
 10
933.0383817193415
 20
692.3412313991432
 30
0.0000000000000000
 11
958.0383817195143
 21
692.3412313991432
 31
0.0000000000000000
  0
INSERT
  5
215
100
AcDbEntity
  8
MAIN0
  6
BYBLOCK
 62
0
100
AcDbBlockReference
  2
_OPEN
 10
927.0383817193415
 20
692.3412313991432
 30
0.0000000000000000
 41
6.000000000000000
 42
6.000000000000000
 43
6.000000000000000
 50
180.0000000000000
  0
INSERT
  5
216
100
AcDbEntity
  8
MAIN0
  6
BYBLOCK
 62
0
100
AcDbBlockReference
  2
_OPEN
 10
964.0383817195143
 20
692.3412313991432
 30
0.0000000000000000
 41
6.000000000000000
 42
6.000000000000000
 43
6.000000000000000
 50
0.0000000000000000
  0
LINE
  5
217
100
AcDbEntity
  8
MAIN0
  6
BYBLOCK
 62
0
100
AcDbLine
 10
964.0383817195143
 20
657.0341618666982
 30
0.0000000000000000
 11
964.0383817195143
 21
698.3412313991432
 31
0.0000000000000000
  0
MTEXT
  5
218
100
AcDbEntity
  8
MAIN0
  6
BYBLOCK
 62
0
100
AcDbMText
 10
945.5383817194279
 20
697.4912312560921
 30
0.0000000000000000
 40
9.299999713897705
 41
0.0000000000000000
 71
     5
 72
     1
  1
\A1;37
 11
1.000000000000000
 21
0.0000000000000000
 31
0.0000000000000000
  7
STANDARD
  0
ENDBLK
  5
219
100
AcDbEntity
  8
MAIN0
  6
CONTINUOUS
 62
3
100
AcDbBlockEnd
  0
BLOCK
  5
21B
100
AcDbEntity
  8
MAIN0
  6
CONTINUOUS
 62
3
100
AcDbBlockBegin
  2
*D21
 70
    65
 10
0.0
 20
0.0
 30
0.0
  0
LINE
  5
21C
100
AcDbEntity
  8
MAIN0
  6
BYBLOCK
 62
0
100
AcDbLine
 10
964.0383817195143
 20
657.0341618666982
 30
0.0000000000000000
 11
964.0383817195143
 21
698.3412313991432
 31
0.0000000000000000
  0
LINE
  5
21D
100
AcDbEntity
  8
MAIN0
  6
BYBLOCK
 62
0
100
AcDbLine
 10
970.0383817195143
 20
692.3412313991432
 30
0.0000000000000000
 11
1053.038381719526
 21
692.3412313991432
 31
0.0000000000000000
  0
INSERT
  5
21E
100
AcDbEntity
  8
MAIN0
  6
BYBLOCK
 62
0
100
AcDbBlockReference
  2
_OPEN
 10
964.0383817195143
 20
692.3412313991432
 30
0.0000000000000000
 41
6.000000000000000
 42
6.000000000000000
 43
6.000000000000000
 50
180.0000000000000
  0
INSERT
  5
21F
100
AcDbEntity
  8
MAIN0
  6
BYBLOCK
 62
0
100
AcDbBlockReference
  2
_OPEN
 10
1059.038381719526
 20
692.3412313991432
 30
0.0000000000000000
 41
6.000000000000000
 42
6.000000000000000
 43
6.000000000000000
 50
0.0000000000000000
  0
LINE
  5
220
100
AcDbEntity
  8
MAIN0
  6
BYBLOCK
 62
0
100
AcDbLine
 10
1059.038381719526
 20
669.0341618666959
 30
0.0000000000000000
 11
1059.038381719526
 21
698.3412313991432
 31
0.0000000000000000
  0
MTEXT
  5
221
100
AcDbEntity
  8
MAIN0
  6
BYBLOCK
 62
0
100
AcDbMText
 10
1011.538381719520
 20
697.4912312560921
 30
0.0000000000000000
 40
9.299999713897705
 41
0.0000000000000000
 71
     5
 72
     1
  1
\A1;95
 11
1.000000000000000
 21
0.0000000000000000
 31
0.0000000000000000
  7
STANDARD
  0
ENDBLK
  5
222
100
AcDbEntity
  8
MAIN0
  6
CONTINUOUS
 62
3
100
AcDbBlockEnd
  0
BLOCK
  5
224
100
AcDbEntity
  8
MAIN0
  6
CONTINUOUS
 62
3
100
AcDbBlockBegin
  2
*D22
 70
    65
 10
0.0
 20
0.0
 30
0.0
  0
LINE
  5
225
100
AcDbEntity
  8
MAIN0
  6
BYBLOCK
 62
0
100
AcDbLine
 10
912.0383817193489
 20
444.0341618666959
 30
0.0000000000000000
 11
912.0383817193489
 21
716.3161623612184
 31
0.0000000000000000
  0
LINE
  5
226
100
AcDbEntity
  8
MAIN0
  6
BYBLOCK
 62
0
100
AcDbLine
 10
918.0383817193489
 20
710.3161623612184
 30
0.0000000000000000
 11
1053.038381719526
 21
710.3161623612184
 31
0.0000000000000000
  0
INSERT
  5
227
100
AcDbEntity
  8
MAIN0
  6
BYBLOCK
 62
0
100
AcDbBlockReference
  2
_OPEN
 10
912.0383817193489
 20
710.3161623612184
 30
0.0000000000000000
 41
6.000000000000000
 42
6.000000000000000
 43
6.000000000000000
 50
180.0000000000000
  0
INSERT
  5
228
100
AcDbEntity
  8
MAIN0
  6
BYBLOCK
 62
0
100
AcDbBlockReference
  2
_OPEN
 10
1059.038381719526
 20
710.3161623612184
 30
0.0000000000000000
 41
6.000000000000000
 42
6.000000000000000
 43
6.000000000000000
 50
0.0000000000000000
  0
LINE
  5
229
100
AcDbEntity
  8
MAIN0
  6
BYBLOCK
 62
0
100
AcDbLine
 10
1059.038381719526
 20
669.0341618666959
 30
0.0000000000000000
 11
1059.038381719526
 21
716.3161623612184
 31
0.0000000000000000
  0
MTEXT
  5
22A
100
AcDbEntity
  8
MAIN0
  6
BYBLOCK
 62
0
100
AcDbMText
 10
985.5383817194376
 20
715.4661622181673
 30
0.0000000000000000
 40
9.299999713897705
 41
0.0000000000000000
 71
     5
 72
     1
  1
\A1;147
 11
1.000000000000000
 21
0.0000000000000000
 31
0.0000000000000000
  7
STANDARD
  0
ENDBLK
  5
22B
100
AcDbEntity
  8
MAIN0
  6
CONTINUOUS
 62
3
100
AcDbBlockEnd
  0
BLOCK
  5
22D
100
AcDbEntity
  8
MAIN0
  6
CONTINUOUS
 62
3
100
AcDbBlockBegin
  2
*D23
 70
    65
 10
0.0
 20
0.0
 30
0.0
  0
LINE
  5
22E
100
AcDbEntity
  8
MAIN0
  6
BYBLOCK
 62
0
100
AcDbLine
 10
986.4916862071021
 20
338.4065894092422
 30
0.0000000000000000
 11
986.4916862071021
 21
248.8410262183304
 31
0.0000000000000000
  0
LINE
  5
22F
100
AcDbEntity
  8
MAIN0
  6
BYBLOCK
 62
0
100
AcDbLine
 10
992.4916862071021
 20
254.8410262183304
 30
0.0000000000000000
 11
1051.491686207102
 21
254.8410262183304
 31
0.0000000000000000
  0
INSERT
  5
230
100
AcDbEntity
  8
MAIN0
  6
BYBLOCK
 62
0
100
AcDbBlockReference
  2
_OPEN
 10
986.4916862071021
 20
254.8410262183304
 30
0.0000000000000000
 41
6.000000000000000
 42
6.000000000000000
 43
6.000000000000000
 50
180.0000000000000
  0
INSERT
  5
231
100
AcDbEntity
  8
MAIN0
  6
BYBLOCK
 62
0
100
AcDbBlockReference
  2
_OPEN
 10
1057.491686207102
 20
254.8410262183304
 30
0.0000000000000000
 41
6.000000000000000
 42
6.000000000000000
 43
6.000000000000000
 50
0.0000000000000000
  0
LINE
  5
232
100
AcDbEntity
  8
MAIN0
  6
BYBLOCK
 62
0
100
AcDbLine
 10
1057.491686207102
 20
308.4065894092423
 30
0.0000000000000000
 11
1057.491686207102
 21
248.8410262183304
 31
0.0000000000000000
  0
MTEXT
  5
233
100
AcDbEntity
  8
MAIN0
  6
BYBLOCK
 62
0
100
AcDbMText
 10
1021.991686207102
 20
259.9910260752793
 30
0.0000000000000000
 40
9.299999713897705
 41
0.0000000000000000
 71
     5
 72
     1
  1
\A1;71
 11
1.000000000000000
 21
0.0000000000000000
 31
0.0000000000000000
  7
STANDARD
  0
ENDBLK
  5
234
100
AcDbEntity
  8
MAIN0
  6
CONTINUOUS
 62
3
100
AcDbBlockEnd
  0
BLOCK
  5
236
100
AcDbEntity
  8
MAIN0
  6
CONTINUOUS
 62
3
100
AcDbBlockBegin
  2
*D24
 70
    65
 10
0.0
 20
0.0
 30
0.0
  0
LINE
  5
237
100
AcDbEntity
  8
MAIN0
  6
BYBLOCK
 62
0
100
AcDbLine
 10
1057.491686207102
 20
308.4065894092423
 30
0.0000000000000000
 11
1057.491686207102
 21
248.8410262183304
 31
0.0000000000000000
  0
LINE
  5
238
100
AcDbEntity
  8
MAIN0
  6
BYBLOCK
 62
0
100
AcDbLine
 10
1063.491686207102
 20
254.8410262183304
 30
0.0000000000000000
 11
1212.491686207102
 21
254.8410262183304
 31
0.0000000000000000
  0
INSERT
  5
239
100
AcDbEntity
  8
MAIN0
  6
BYBLOCK
 62
0
100
AcDbBlockReference
  2
_OPEN
 10
1057.491686207102
 20
254.8410262183304
 30
0.0000000000000000
 41
6.000000000000000
 42
6.000000000000000
 43
6.000000000000000
 50
180.0000000000000
  0
INSERT
  5
23A
100
AcDbEntity
  8
MAIN0
  6
BYBLOCK
 62
0
100
AcDbBlockReference
  2
_OPEN
 10
1218.491686207102
 20
254.8410262183304
 30
0.0000000000000000
 41
6.000000000000000
 42
6.000000000000000
 43
6.000000000000000
 50
0.0000000000000000
  0
LINE
  5
23B
100
AcDbEntity
  8
MAIN0
  6
BYBLOCK
 62
0
100
AcDbLine
 10
1218.491686207102
 20
308.4065894092424
 30
0.0000000000000000
 11
1218.491686207102
 21
248.8410262183304
 31
0.0000000000000000
  0
MTEXT
  5
23C
100
AcDbEntity
  8
MAIN0
  6
BYBLOCK
 62
0
100
AcDbMText
 10
1137.991686207102
 20
259.9910260752793
 30
0.0000000000000000
 40
9.299999713897705
 41
0.0000000000000000
 71
     5
 72
     1
  1
\A1;161
 11
1.000000000000000
 21
0.0000000000000000
 31
0.0000000000000000
  7
STANDARD
  0
ENDBLK
  5
23D
100
AcDbEntity
  8
MAIN0
  6
CONTINUOUS
 62
3
100
AcDbBlockEnd
  0
BLOCK
  5
23F
100
AcDbEntity
  8
MAIN0
  6
CONTINUOUS
 62
3
100
AcDbBlockBegin
  2
D25
 70
    64
 10
0.0
 20
0.0
 30
0.0
  0
LINE
  5
240
100
AcDbEntity
  8
MAIN0
  6
BYBLOCK
 62
0
100
AcDbLine
 10
21.31887212978279
 20
-67.58638835987748
 30
0.0000000000000000
 11
-151.4999999998869
 21
-67.58638835987767
 31
0.0000000000000000
  0
LINE
  5
241
100
AcDbEntity
  8
MAIN0
  6
BYBLOCK
 62
0
100
AcDbLine
 10
-145.4999999998869
 20
-69.38638843140325
 30
0.0000000000000000
 11
-151.4999999998869
 21
-67.58638835987767
 31
0.0000000000000000
  0
LINE
  5
242
100
AcDbEntity
  8
MAIN0
  6
BYBLOCK
 62
0
100
AcDbLine
 10
-151.4999999998869
 20
-67.58638835987767
 30
0.0000000000000000
 11
-145.4999999998869
 21
-65.78638828835210
 31
0.0000000000000000
  0
LINE
  5
243
100
AcDbEntity
  8
MAIN0
  6
BYBLOCK
 62
0
100
AcDbLine
 10
-151.4999999998870
 20
41.21634687414689
 30
0.0000000000000000
 11
-151.4999999998869
 21
-73.58638835987767
 31
0.0000000000000000
  0
MTEXT
  5
244
100
AcDbEntity
  8
MAIN0
  6
BYBLOCK
 62
0
100
AcDbMText
 10
13.56887212605750
 20
-62.43638850292862
 30
0.0000000000000000
 40
9.299999713897705
 41
0.0000000000000000
 71
     5
 72
     1
  1
\A1;（303）
 11
1.000000000000000
 21
0.0000000000000000
 31
0.0000000000000000
  7
KNJYOKO
  0
ENDBLK
  5
245
100
AcDbEntity
  8
MAIN0
  6
CONTINUOUS
 62
3
100
AcDbBlockEnd
  0
BLOCK
  5
248
100
AcDbEntity
  8
MAIN0
  6
CONTINUOUS
 62
3
100
AcDbBlockBegin
  2
*D26
 70
    65
 10
0.0
 20
0.0
 30
0.0
  0
LINE
  5
249
100
AcDbEntity
  8
MAIN0
  6
BYBLOCK
 62
0
100
AcDbLine
 10
324.7596375108549
 20
308.4065894092423
 30
0.0000000000000000
 11
324.7596375108549
 21
223.6038541752175
 31
0.0000000000000000
  0
LINE
  5
24A
100
AcDbEntity
  8
MAIN0
  6
BYBLOCK
 62
0
100
AcDbLine
 10
330.7596375108549
 20
229.6038541752175
 30
0.0000000000000000
 11
463.7596375108549
 21
229.6038541752175
 31
0.0000000000000000
  0
INSERT
  5
24B
100
AcDbEntity
  8
MAIN0
  6
BYBLOCK
 62
0
100
AcDbBlockReference
  2
_OPEN
 10
324.7596375108549
 20
229.6038541752175
 30
0.0000000000000000
 41
6.000000000000000
 42
6.000000000000000
 43
6.000000000000000
 50
180.0000000000000
  0
INSERT
  5
24C
100
AcDbEntity
  8
MAIN0
  6
BYBLOCK
 62
0
100
AcDbBlockReference
  2
_OPEN
 10
469.7596375108549
 20
229.6038541752175
 30
0.0000000000000000
 41
6.000000000000000
 42
6.000000000000000
 43
6.000000000000000
 50
0.0000000000000000
  0
LINE
  5
24D
100
AcDbEntity
  8
MAIN0
  6
BYBLOCK
 62
0
100
AcDbLine
 10
469.7596375108549
 20
295.7048643806265
 30
0.0000000000000000
 11
469.7596375108549
 21
223.6038541752175
 31
0.0000000000000000
  0
MTEXT
  5
24E
100
AcDbEntity
  8
MAIN0
  6
BYBLOCK
 62
0
100
AcDbMText
 10
397.2596375108549
 20
234.7538540321664
 30
0.0000000000000000
 40
9.299999713897705
 41
0.0000000000000000
 71
     5
 72
     1
  1
\A1;145
 11
1.000000000000000
 21
0.0000000000000000
 31
0.0000000000000000
  7
STANDARD
  0
ENDBLK
  5
24F
100
AcDbEntity
  8
MAIN0
  6
CONTINUOUS
 62
3
100
AcDbBlockEnd
  0
BLOCK
  5
251
100
AcDbEntity
  8
MAIN0
  6
CONTINUOUS
 62
3
100
AcDbBlockBegin
  2
*D27
 70
    65
 10
0.0
 20
0.0
 30
0.0
  0
LINE
  5
252
100
AcDbEntity
  8
MAIN0
  6
BYBLOCK
 62
0
100
AcDbLine
 10
469.7596375108549
 20
295.7048643806265
 30
0.0000000000000000
 11
469.7596375108549
 21
223.6038541752175
 31
0.0000000000000000
  0
LINE
  5
253
100
AcDbEntity
  8
MAIN0
  6
BYBLOCK
 62
0
100
AcDbLine
 10
475.7596375108549
 20
229.6038541752175
 30
0.0000000000000000
 11
872.2596375108550
 21
229.6038541752175
 31
0.0000000000000000
  0
INSERT
  5
254
100
AcDbEntity
  8
MAIN0
  6
BYBLOCK
 62
0
100
AcDbBlockReference
  2
_OPEN
 10
469.7596375108549
 20
229.6038541752175
 30
0.0000000000000000
 41
6.000000000000000
 42
6.000000000000000
 43
6.000000000000000
 50
180.0000000000000
  0
INSERT
  5
255
100
AcDbEntity
  8
MAIN0
  6
BYBLOCK
 62
0
100
AcDbBlockReference
  2
_OPEN
 10
878.2596375108550
 20
229.6038541752175
 30
0.0000000000000000
 41
6.000000000000000
 42
6.000000000000000
 43
6.000000000000000
 50
0.0000000000000000
  0
LINE
  5
256
100
AcDbEntity
  8
MAIN0
  6
BYBLOCK
 62
0
100
AcDbLine
 10
878.2596375108550
 20
361.4065894092424
 30
0.0000000000000000
 11
878.2596375108550
 21
223.6038541752175
 31
0.0000000000000000
  0
MTEXT
  5
257
100
AcDbEntity
  8
MAIN0
  6
BYBLOCK
 62
0
100
AcDbMText
 10
674.0096375108549
 20
234.7538540321664
 30
0.0000000000000000
 40
9.299999713897705
 41
0.0000000000000000
 71
     5
 72
     1
  1
\A1;408.5
 11
1.000000000000000
 21
0.0000000000000000
 31
0.0000000000000000
  7
STANDARD
  0
ENDBLK
  5
258
100
AcDbEntity
  8
MAIN0
  6
CONTINUOUS
 62
3
100
AcDbBlockEnd
  0
BLOCK
  5
25A
100
AcDbEntity
  8
MAIN0
  6
CONTINUOUS
 62
3
100
AcDbBlockBegin
  2
*D28
 70
    65
 10
0.0
 20
0.0
 30
0.0
  0
LINE
  5
25B
100
AcDbEntity
  8
MAIN0
  6
BYBLOCK
 62
0
100
AcDbLine
 10
411.7596375108552
 20
428.4065894092423
 30
0.0000000000000000
 11
411.7596375108552
 21
270.6367478921781
 31
0.0000000000000000
  0
LINE
  5
25C
100
AcDbEntity
  8
MAIN0
  6
BYBLOCK
 62
0
100
AcDbLine
 10
417.7596375108552
 20
276.6367478921781
 30
0.0000000000000000
 11
463.7596375108549
 21
276.6367478921781
 31
0.0000000000000000
  0
INSERT
  5
25D
100
AcDbEntity
  8
MAIN0
  6
BYBLOCK
 62
0
100
AcDbBlockReference
  2
_OPEN
 10
411.7596375108552
 20
276.6367478921781
 30
0.0000000000000000
 41
6.000000000000000
 42
6.000000000000000
 43
6.000000000000000
 50
180.0000000000000
  0
INSERT
  5
25E
100
AcDbEntity
  8
MAIN0
  6
BYBLOCK
 62
0
100
AcDbBlockReference
  2
_OPEN
 10
469.7596375108549
 20
276.6367478921781
 30
0.0000000000000000
 41
6.000000000000000
 42
6.000000000000000
 43
6.000000000000000
 50
0.0000000000000000
  0
LINE
  5
25F
100
AcDbEntity
  8
MAIN0
  6
BYBLOCK
 62
0
100
AcDbLine
 10
469.7596375108549
 20
295.7048643806265
 30
0.0000000000000000
 11
469.7596375108549
 21
270.6367478921781
 31
0.0000000000000000
  0
MTEXT
  5
260
100
AcDbEntity
  8
MAIN0
  6
BYBLOCK
 62
0
100
AcDbMText
 10
440.7596375108551
 20
281.7867477491269
 30
0.0000000000000000
 40
9.299999713897705
 41
0.0000000000000000
 71
     5
 72
     1
  1
\A1;58
 11
1.000000000000000
 21
0.0000000000000000
 31
0.0000000000000000
  7
STANDARD
  0
ENDBLK
  5
261
100
AcDbEntity
  8
MAIN0
  6
CONTINUOUS
 62
3
100
AcDbBlockEnd
  0
BLOCK
  5
263
100
AcDbEntity
  8
MAIN0
  6
CONTINUOUS
 62
3
100
AcDbBlockBegin
  2
*D29
 70
    65
 10
0.0
 20
0.0
 30
0.0
  0
LINE
  5
264
100
AcDbEntity
  8
MAIN0
  6
BYBLOCK
 62
0
100
AcDbLine
 10
469.7596375108549
 20
295.7048643806265
 30
0.0000000000000000
 11
469.7596375108549
 21
270.6367478921781
 31
0.0000000000000000
  0
LINE
  5
265
100
AcDbEntity
  8
MAIN0
  6
BYBLOCK
 62
0
100
AcDbLine
 10
475.7596375108549
 20
276.6367478921781
 30
0.0000000000000000
 11
773.7596375108551
 21
276.6367478921781
 31
0.0000000000000000
  0
INSERT
  5
266
100
AcDbEntity
  8
MAIN0
  6
BYBLOCK
 62
0
100
AcDbBlockReference
  2
_OPEN
 10
469.7596375108549
 20
276.6367478921781
 30
0.0000000000000000
 41
6.000000000000000
 42
6.000000000000000
 43
6.000000000000000
 50
180.0000000000000
  0
INSERT
  5
267
100
AcDbEntity
  8
MAIN0
  6
BYBLOCK
 62
0
100
AcDbBlockReference
  2
_OPEN
 10
779.7596375108551
 20
276.6367478921781
 30
0.0000000000000000
 41
6.000000000000000
 42
6.000000000000000
 43
6.000000000000000
 50
0.0000000000000000
  0
LINE
  5
268
100
AcDbEntity
  8
MAIN0
  6
BYBLOCK
 62
0
100
AcDbLine
 10
779.7596375108551
 20
308.4065894092423
 30
0.0000000000000000
 11
779.7596375108551
 21
270.6367478921781
 31
0.0000000000000000
  0
MTEXT
  5
269
100
AcDbEntity
  8
MAIN0
  6
BYBLOCK
 62
0
100
AcDbMText
 10
624.7596375108550
 20
281.7867477491269
 30
0.0000000000000000
 40
9.299999713897705
 41
0.0000000000000000
 71
     5
 72
     1
  1
\A1;310
 11
1.000000000000000
 21
0.0000000000000000
 31
0.0000000000000000
  7
STANDARD
  0
ENDBLK
  5
26A
100
AcDbEntity
  8
MAIN0
  6
CONTINUOUS
 62
3
100
AcDbBlockEnd
  0
BLOCK
  5
26C
100
AcDbEntity
  8
MAIN0
  6
CONTINUOUS
 62
3
100
AcDbBlockBegin
  2
*D30
 70
    65
 10
0.0
 20
0.0
 30
0.0
  0
LINE
  5
26D
100
AcDbEntity
  8
MAIN0
  6
BYBLOCK
 62
0
100
AcDbLine
 10
642.7349245624412
 20
316.8065894450051
 30
0.0000000000000000
 11
642.7349245624412
 21
387.8065894451368
 31
0.0000000000000000
  0
INSERT
  5
26E
100
AcDbEntity
  8
MAIN0
  6
BYBLOCK
 62
0
100
AcDbBlockReference
  2
_OPEN
 10
642.7349245624412
 20
310.8065894450051
 30
0.0000000000000000
 41
6.000000000000000
 42
6.000000000000000
 43
6.000000000000000
 50
270.0000000000000
  0
INSERT
  5
26F
100
AcDbEntity
  8
MAIN0
  6
BYBLOCK
 62
0
100
AcDbBlockReference
  2
_OPEN
 10
642.7349245624412
 20
393.8065894451368
 30
0.0000000000000000
 41
6.000000000000000
 42
6.000000000000000
 43
6.000000000000000
 50
90.00000000000000
  0
LINE
  5
270
100
AcDbEntity
  8
MAIN0
  6
BYBLOCK
 62
0
100
AcDbLine
 10
683.8931852105910
 20
393.8065894451368
 30
0.0000000000000000
 11
636.7349245624412
 21
393.8065894451368
 31
0.0000000000000000
  0
MTEXT
  5
271
100
AcDbEntity
  8
MAIN0
  6
BYBLOCK
 62
0
100
AcDbMText
 10
636.5849247054923
 20
345.3715374371999
 30
0.0000000000000000
 40
9.299999713897705
 41
0.0000000000000000
 71
     5
 72
     1
  1
\A1;83
 11
6.123233995736766e-017
 21
1.000000000000000
 31
0.0000000000000000
  7
STANDARD
  0
ENDBLK
  5
272
100
AcDbEntity
  8
MAIN0
  6
CONTINUOUS
 62
3
100
AcDbBlockEnd
  0
BLOCK
  5
274
100
AcDbEntity
  8
MAIN0
  6
CONTINUOUS
 62
3
100
AcDbBlockBegin
  2
*D31
 70
    65
 10
0.0
 20
0.0
 30
0.0
  0
LINE
  5
275
100
AcDbEntity
  8
MAIN0
  6
BYBLOCK
 62
0
100
AcDbLine
 10
683.8931852105910
 20
393.8065894451368
 30
0.0000000000000000
 11
636.7349245624412
 21
393.8065894451368
 31
0.0000000000000000
  0
LINE
  5
276
100
AcDbEntity
  8
MAIN0
  6
BYBLOCK
 62
0
100
AcDbLine
 10
642.7349245624412
 20
399.8065894451368
 30
0.0000000000000000
 11
642.7349245624412
 21
424.8065894450051
 31
0.0000000000000000
  0
INSERT
  5
277
100
AcDbEntity
  8
MAIN0
  6
BYBLOCK
 62
0
100
AcDbBlockReference
  2
_OPEN
 10
642.7349245624412
 20
393.8065894451368
 30
0.0000000000000000
 41
6.000000000000000
 42
6.000000000000000
 43
6.000000000000000
 50
270.0000000000000
  0
INSERT
  5
278
100
AcDbEntity
  8
MAIN0
  6
BYBLOCK
 62
0
100
AcDbBlockReference
  2
_OPEN
 10
642.7349245624412
 20
430.8065894450051
 30
0.0000000000000000
 41
6.000000000000000
 42
6.000000000000000
 43
6.000000000000000
 50
90.00000000000000
  0
LINE
  5
279
100
AcDbEntity
  8
MAIN0
  6
BYBLOCK
 62
0
100
AcDbLine
 10
642.7349245624412
 20
430.8065894450051
 30
0.0000000000000000
 11
642.7349245624412
 21
446.4459800406502
 31
0.0000000000000000
  0
LINE
  5
27A
100
AcDbEntity
  8
MAIN0
  6
BYBLOCK
 62
0
100
AcDbLine
 10
586.1596375466182
 20
430.8065894450051
 30
0.0000000000000000
 11
648.7349245624412
 21
430.8065894450051
 31
0.0000000000000000
  0
MTEXT
  5
27B
100
AcDbEntity
  8
MAIN0
  6
BYBLOCK
 62
0
100
AcDbMText
 10
636.5849247054923
 20
440.2959801837014
 30
0.0000000000000000
 40
9.299999713897705
 41
0.0000000000000000
 71
     5
 72
     1
  1
\A1;37
 11
6.123233995736766e-017
 21
1.000000000000000
 31
0.0000000000000000
  7
STANDARD
  0
ENDBLK
  5
27C
100
AcDbEntity
  8
MAIN0
  6
CONTINUOUS
 62
3
100
AcDbBlockEnd
  0
BLOCK
  5
27E
100
AcDbEntity
  8
MAIN0
  6
CONTINUOUS
 62
3
100
AcDbBlockBegin
  2
*D32
 70
    65
 10
0.0
 20
0.0
 30
0.0
  0
LINE
  5
27F
100
AcDbEntity
  8
MAIN0
  6
BYBLOCK
 62
0
100
AcDbLine
 10
755.3478277408048
 20
316.8065894450051
 30
0.0000000000000000
 11
755.3478277408048
 21
382.8065894445391
 31
0.0000000000000000
  0
INSERT
  5
280
100
AcDbEntity
  8
MAIN0
  6
BYBLOCK
 62
0
100
AcDbBlockReference
  2
_OPEN
 10
755.3478277408048
 20
310.8065894450051
 30
0.0000000000000000
 41
6.000000000000000
 42
6.000000000000000
 43
6.000000000000000
 50
270.0000000000000
  0
INSERT
  5
281
100
AcDbEntity
  8
MAIN0
  6
BYBLOCK
 62
0
100
AcDbBlockReference
  2
_OPEN
 10
755.3478277408048
 20
388.8065894445391
 30
0.0000000000000000
 41
6.000000000000000
 42
6.000000000000000
 43
6.000000000000000
 50
90.00000000000000
  0
LINE
  5
282
100
AcDbEntity
  8
MAIN0
  6
BYBLOCK
 62
0
100
AcDbLine
 10
790.1810867833835
 20
388.8065894445391
 30
0.0000000000000000
 11
749.3478277408048
 21
388.8065894445391
 31
0.0000000000000000
  0
MTEXT
  5
283
100
AcDbEntity
  8
MAIN0
  6
BYBLOCK
 62
0
100
AcDbMText
 10
750.1978278838559
 20
349.8065894447720
 30
0.0000000000000000
 40
9.299999713897705
 41
0.0000000000000000
 71
     5
 72
     1
  1
\A1;78
 11
6.123233995736766e-017
 21
1.000000000000000
 31
0.0000000000000000
  7
STANDARD
  0
ENDBLK
  5
284
100
AcDbEntity
  8
MAIN0
  6
CONTINUOUS
 62
3
100
AcDbBlockEnd
  0
BLOCK
  5
289
100
AcDbEntity
  8
MAIN0
  6
CONTINUOUS
 62
3
100
AcDbBlockBegin
  2
*D33
 70
    65
 10
0.0
 20
0.0
 30
0.0
  0
LINE
  5
28A
100
AcDbEntity
  8
MAIN0
  6
BYBLOCK
 62
0
100
AcDbLine
 10
936.9497122263315
 20
666.6341618309331
 30
0.0000000000000000
 11
886.9043746505306
 21
666.6341618309331
 31
0.0000000000000000
  0
LINE
  5
28B
100
AcDbEntity
  8
MAIN0
  6
BYBLOCK
 62
0
100
AcDbLine
 10
892.9043746505306
 20
660.6341618309331
 30
0.0000000000000000
 11
892.9043746505306
 21
447.6341618309331
 31
0.0000000000000000
  0
INSERT
  5
28C
100
AcDbEntity
  8
MAIN0
  6
BYBLOCK
 62
0
100
AcDbBlockReference
  2
_OPEN
 10
892.9043746505306
 20
666.6341618309331
 30
0.0000000000000000
 41
6.000000000000000
 42
6.000000000000000
 43
6.000000000000000
 50
90.00000000000000
  0
INSERT
  5
28D
100
AcDbEntity
  8
MAIN0
  6
BYBLOCK
 62
0
100
AcDbBlockReference
  2
_OPEN
 10
892.9043746505306
 20
441.6341618309331
 30
0.0000000000000000
 41
6.000000000000000
 42
6.000000000000000
 43
6.000000000000000
 50
270.0000000000000
  0
LINE
  5
28E
100
AcDbEntity
  8
MAIN0
  6
BYBLOCK
 62
0
100
AcDbLine
 10
899.4183671477663
 20
441.6341618309331
 30
0.0000000000000000
 11
886.9043746505306
 21
441.6341618309331
 31
0.0000000000000000
  0
MTEXT
  5
28F
100
AcDbEntity
  8
MAIN0
  6
BYBLOCK
 62
0
100
AcDbMText
 10
887.7543747935818
 20
554.1341618309331
 30
0.0000000000000000
 40
9.299999713897705
 41
0.0000000000000000
 71
     5
 72
     1
  1
\A1;225
 11
6.123233995736766e-017
 21
1.000000000000000
 31
0.0000000000000000
  7
STANDARD
  0
ENDBLK
  5
290
100
AcDbEntity
  8
MAIN0
  6
CONTINUOUS
 62
3
100
AcDbBlockEnd
  0
BLOCK
  5
297
100
AcDbEntity
  8
MAIN0
  6
CONTINUOUS
 62
3
100
AcDbBlockBegin
  2
*D34
 70
    65
 10
0.0
 20
0.0
 30
0.0
  0
LINE
  5
298
100
AcDbEntity
  8
MAIN0
  6
BYBLOCK
 62
0
100
AcDbLine
 10
905.1506391055710
 20
343.2065894807918
 30
0.0000000000000000
 11
905.1506391055710
 21
380.5795837440696
 31
0.0000000000000000
  0
LINE
  5
299
100
AcDbEntity
  8
MAIN0
  6
BYBLOCK
 62
0
100
AcDbLine
 10
911.1506391055710
 20
374.5795837440696
 30
0.0000000000000000
 11
944.1506391055706
 21
374.5795837440696
 31
0.0000000000000000
  0
INSERT
  5
29A
100
AcDbEntity
  8
MAIN0
  6
BYBLOCK
 62
0
100
AcDbBlockReference
  2
_OPEN
 10
905.1506391055710
 20
374.5795837440696
 30
0.0000000000000000
 41
6.000000000000000
 42
6.000000000000000
 43
6.000000000000000
 50
180.0000000000000
  0
INSERT
  5
29B
100
AcDbEntity
  8
MAIN0
  6
BYBLOCK
 62
0
100
AcDbBlockReference
  2
_OPEN
 10
950.1506391055706
 20
374.5795837440696
 30
0.0000000000000000
 41
6.000000000000000
 42
6.000000000000000
 43
6.000000000000000
 50
0.0000000000000000
  0
LINE
  5
29C
100
AcDbEntity
  8
MAIN0
  6
BYBLOCK
 62
0
100
AcDbLine
 10
950.1506391055706
 20
343.2065894807779
 30
0.0000000000000000
 11
950.1506391055706
 21
380.5795837440696
 31
0.0000000000000000
  0
MTEXT
  5
29D
100
AcDbEntity
  8
MAIN0
  6
BYBLOCK
 62
0
100
AcDbMText
 10
927.6506391055708
 20
379.7295836010185
 30
0.0000000000000000
 40
9.299999713897705
 41
0.0000000000000000
 71
     5
 72
     1
  1
\A1;45
 11
1.000000000000000
 21
0.0000000000000000
 31
0.0000000000000000
  7
STANDARD
  0
ENDBLK
  5
29E
100
AcDbEntity
  8
MAIN0
  6
CONTINUOUS
 62
3
100
AcDbBlockEnd
  0
BLOCK
  5
2A0
100
AcDbEntity
  8
MAIN0
  6
CONTINUOUS
 62
3
100
AcDbBlockBegin
  2
*D35
 70
    65
 10
0.0
 20
0.0
 30
0.0
  0
LINE
  5
2A1
100
AcDbEntity
  8
MAIN0
  6
BYBLOCK
 62
0
100
AcDbLine
 10
1051.891686242836
 20
210.9569427446329
 30
0.0000000000000000
 11
1083.787154346007
 21
210.9569427446423
 31
0.0000000000000000
  0
LINE
  5
2A2
100
AcDbEntity
  8
MAIN0
  6
BYBLOCK
 62
0
100
AcDbLine
 10
1077.787154346007
 20
210.9569427446405
 30
0.0000000000000000
 11
1077.787154346007
 21
193.4569427446406
 31
0.0000000000000000
  0
INSERT
  5
2A3
100
AcDbEntity
  8
MAIN0
  6
BYBLOCK
 62
0
100
AcDbBlockReference
  2
_OPEN
 10
1077.787154346007
 20
210.9569427446405
 30
0.0000000000000000
 41
6.000000000000000
 42
6.000000000000000
 43
6.000000000000000
 50
270.0000000000000
  0
INSERT
  5
2A4
100
AcDbEntity
  8
MAIN0
  6
BYBLOCK
 62
0
100
AcDbBlockReference
  2
_OPEN
 10
1077.787154346007
 20
193.4569427446406
 30
0.0000000000000000
 41
6.000000000000000
 42
6.000000000000000
 43
6.000000000000000
 50
90.00000000000000
  0
LINE
  5
2A5
100
AcDbEntity
  8
MAIN0
  6
BYBLOCK
 62
0
100
AcDbLine
 10
1077.787154346007
 20
216.9569427446405
 30
0.0000000000000000
 11
1077.787154346007
 21
219.9569427446405
 31
0.0000000000000000
  0
LINE
  5
2A6
100
AcDbEntity
  8
MAIN0
  6
BYBLOCK
 62
0
100
AcDbLine
 10
1077.787154346007
 20
187.4569427446406
 30
0.0000000000000000
 11
1077.787154346007
 21
161.5503751827737
 31
0.0000000000000000
  0
LINE
  5
2A7
100
AcDbEntity
  8
MAIN0
  6
BYBLOCK
 62
0
100
AcDbLine
 10
1051.891686242849
 20
193.4569427446330
 30
0.0000000000000000
 11
1083.787154346007
 21
193.4569427446424
 31
0.0000000000000000
  0
MTEXT
  5
2A8
100
AcDbEntity
  8
MAIN0
  6
BYBLOCK
 62
0
100
AcDbMText
 10
1071.637154489059
 20
172.5003754688760
 30
0.0000000000000000
 40
9.299999713897705
 41
0.0000000000000000
 71
     5
 72
     1
  1
\A1;17.5
 11
6.123233995736766e-017
 21
1.000000000000000
 31
0.0000000000000000
  7
STANDARD
  0
ENDBLK
  5
2A9
100
AcDbEntity
  8
MAIN0
  6
CONTINUOUS
 62
3
100
AcDbBlockEnd
  0
BLOCK
  5
2AB
100
AcDbEntity
  8
MAIN0
  6
CONTINUOUS
 62
3
100
AcDbBlockBegin
  2
*D36
 70
    65
 10
0.0
 20
0.0
 30
0.0
  0
LINE
  5
2AC
100
AcDbEntity
  8
MAIN0
  6
BYBLOCK
 62
0
100
AcDbLine
 10
1051.891686242833
 20
216.4569427446325
 30
0.0000000000000000
 11
1107.268018602558
 21
216.4569427446414
 31
0.0000000000000000
  0
LINE
  5
2AD
100
AcDbEntity
  8
MAIN0
  6
BYBLOCK
 62
0
100
AcDbLine
 10
1101.268018602558
 20
216.4569427446404
 30
0.0000000000000000
 11
1101.268018602558
 21
187.9569427446406
 31
0.0000000000000000
  0
INSERT
  5
2AE
100
AcDbEntity
  8
MAIN0
  6
BYBLOCK
 62
0
100
AcDbBlockReference
  2
_OPEN
 10
1101.268018602558
 20
216.4569427446404
 30
0.0000000000000000
 41
6.000000000000000
 42
6.000000000000000
 43
6.000000000000000
 50
270.0000000000000
  0
INSERT
  5
2AF
100
AcDbEntity
  8
MAIN0
  6
BYBLOCK
 62
0
100
AcDbBlockReference
  2
_OPEN
 10
1101.268018602558
 20
187.9569427446406
 30
0.0000000000000000
 41
6.000000000000000
 42
6.000000000000000
 43
6.000000000000000
 50
90.00000000000000
  0
LINE
  5
2B0
100
AcDbEntity
  8
MAIN0
  6
BYBLOCK
 62
0
100
AcDbLine
 10
1101.268018602558
 20
222.4569427446404
 30
0.0000000000000000
 11
1101.268018602558
 21
225.4569427446404
 31
0.0000000000000000
  0
LINE
  5
2B1
100
AcDbEntity
  8
MAIN0
  6
BYBLOCK
 62
0
100
AcDbLine
 10
1101.268018602558
 20
181.9569427446406
 30
0.0000000000000000
 11
1101.268018602558
 21
178.9569427446406
 31
0.0000000000000000
  0
LINE
  5
2B2
100
AcDbEntity
  8
MAIN0
  6
BYBLOCK
 62
0
100
AcDbLine
 10
1051.891686242853
 20
187.9569427446327
 30
0.0000000000000000
 11
1107.268018602558
 21
187.9569427446416
 31
0.0000000000000000
  0
MTEXT
  5
2B3
100
AcDbEntity
  8
MAIN0
  6
BYBLOCK
 62
0
100
AcDbMText
 10
1096.118018745609
 20
202.2069427446405
 30
0.0000000000000000
 40
9.299999713897705
 41
0.0000000000000000
 71
     5
 72
     1
  1
\A1;28.5
 11
6.123233995736766e-017
 21
1.000000000000000
 31
0.0000000000000000
  7
STANDARD
  0
ENDBLK
  5
2B4
100
AcDbEntity
  8
MAIN0
  6
CONTINUOUS
 62
3
100
AcDbBlockEnd
  0
BLOCK
  5
2B6
100
AcDbEntity
  8
MAIN0
  6
CONTINUOUS
 62
3
100
AcDbBlockBegin
  2
*D37
 70
    65
 10
0.0
 20
0.0
 30
0.0
  0
LINE
  5
2B7
100
AcDbEntity
  8
MAIN0
  6
BYBLOCK
 62
0
100
AcDbLine
 10
1019.491686207090
 20
185.5569427088778
 30
0.0000000000000000
 11
1019.491686207090
 21
157.7666160680120
 31
0.0000000000000000
  0
LINE
  5
2B8
100
AcDbEntity
  8
MAIN0
  6
BYBLOCK
 62
0
100
AcDbLine
 10
1025.491686207090
 20
163.7666160680120
 30
0.0000000000000000
 11
1043.491686207090
 21
163.7666160680120
 31
0.0000000000000000
  0
INSERT
  5
2B9
100
AcDbEntity
  8
MAIN0
  6
BYBLOCK
 62
0
100
AcDbBlockReference
  2
_OPEN
 10
1019.491686207090
 20
163.7666160680120
 30
0.0000000000000000
 41
6.000000000000000
 42
6.000000000000000
 43
6.000000000000000
 50
180.0000000000000
  0
INSERT
  5
2BA
100
AcDbEntity
  8
MAIN0
  6
BYBLOCK
 62
0
100
AcDbBlockReference
  2
_OPEN
 10
1049.491686207090
 20
163.7666160680120
 30
0.0000000000000000
 41
6.000000000000000
 42
6.000000000000000
 43
6.000000000000000
 50
0.0000000000000000
  0
LINE
  5
2BB
100
AcDbEntity
  8
MAIN0
  6
BYBLOCK
 62
0
100
AcDbLine
 10
1049.491686207090
 20
185.5569427088696
 30
0.0000000000000000
 11
1049.491686207090
 21
157.7666160680120
 31
0.0000000000000000
  0
MTEXT
  5
2BC
100
AcDbEntity
  8
MAIN0
  6
BYBLOCK
 62
0
100
AcDbMText
 10
1034.491686207090
 20
168.9166159249609
 30
0.0000000000000000
 40
9.299999713897705
 41
0.0000000000000000
 71
     5
 72
     1
  1
\A1;30
 11
1.000000000000000
 21
0.0000000000000000
 31
0.0000000000000000
  7
STANDARD
  0
ENDBLK
  5
2BD
100
AcDbEntity
  8
MAIN0
  6
CONTINUOUS
 62
3
100
AcDbBlockEnd
  0
BLOCK
  5
2BF
100
AcDbEntity
  8
MAIN0
  6
CONTINUOUS
 62
3
100
AcDbBlockBegin
  2
*D38
 70
    65
 10
0.0
 20
0.0
 30
0.0
  0
LINE
  5
2C0
100
AcDbEntity
  8
MAIN0
  6
BYBLOCK
 62
0
100
AcDbLine
 10
324.7596375108549
 20
308.4065894092423
 30
0.0000000000000000
 11
324.7596375108553
 21
248.8410262183304
 31
0.0000000000000000
  0
LINE
  5
2C1
100
AcDbEntity
  8
MAIN0
  6
BYBLOCK
 62
0
100
AcDbLine
 10
330.7596375108552
 20
254.8410262183304
 30
0.0000000000000000
 11
773.7596375108551
 21
254.8410262183304
 31
0.0000000000000000
  0
INSERT
  5
2C2
100
AcDbEntity
  8
MAIN0
  6
BYBLOCK
 62
0
100
AcDbBlockReference
  2
_OPEN
 10
324.7596375108552
 20
254.8410262183304
 30
0.0000000000000000
 41
6.000000000000000
 42
6.000000000000000
 43
6.000000000000000
 50
180.0000000000000
  0
INSERT
  5
2C3
100
AcDbEntity
  8
MAIN0
  6
BYBLOCK
 62
0
100
AcDbBlockReference
  2
_OPEN
 10
779.7596375108551
 20
254.8410262183304
 30
0.0000000000000000
 41
6.000000000000000
 42
6.000000000000000
 43
6.000000000000000
 50
0.0000000000000000
  0
LINE
  5
2C4
100
AcDbEntity
  8
MAIN0
  6
BYBLOCK
 62
0
100
AcDbLine
 10
779.7596375108551
 20
308.4065894092423
 30
0.0000000000000000
 11
779.7596375108551
 21
248.8410262183304
 31
0.0000000000000000
  0
MTEXT
  5
2C5
100
AcDbEntity
  8
MAIN0
  6
BYBLOCK
 62
0
100
AcDbMText
 10
552.2596375108551
 20
259.9910260752793
 30
0.0000000000000000
 40
9.299999713897705
 41
0.0000000000000000
 71
     5
 72
     1
  1
\A1;455
 11
1.000000000000000
 21
0.0000000000000000
 31
0.0000000000000000
  7
STANDARD
  0
ENDBLK
  5
2C6
100
AcDbEntity
  8
MAIN0
  6
CONTINUOUS
 62
3
100
AcDbBlockEnd
  0
BLOCK
  5
2C8
100
AcDbEntity
  8
MAIN0
  6
CONTINUOUS
 62
3
100
AcDbBlockBegin
  2
*D39
 70
    65
 10
0.0
 20
0.0
 30
0.0
  0
LINE
  5
2C9
100
AcDbEntity
  8
MAIN0
  6
BYBLOCK
 62
0
100
AcDbLine
 10
779.7596375108551
 20
308.4065894092423
 30
0.0000000000000000
 11
779.7596375108551
 21
248.8410262183304
 31
0.0000000000000000
  0
LINE
  5
2CA
100
AcDbEntity
  8
MAIN0
  6
BYBLOCK
 62
0
100
AcDbLine
 10
785.7596375108551
 20
254.8410262183304
 30
0.0000000000000000
 11
872.2596375108550
 21
254.8410262183304
 31
0.0000000000000000
  0
INSERT
  5
2CB
100
AcDbEntity
  8
MAIN0
  6
BYBLOCK
 62
0
100
AcDbBlockReference
  2
_OPEN
 10
779.7596375108551
 20
254.8410262183304
 30
0.0000000000000000
 41
6.000000000000000
 42
6.000000000000000
 43
6.000000000000000
 50
180.0000000000000
  0
INSERT
  5
2CC
100
AcDbEntity
  8
MAIN0
  6
BYBLOCK
 62
0
100
AcDbBlockReference
  2
_OPEN
 10
878.2596375108550
 20
254.8410262183304
 30
0.0000000000000000
 41
6.000000000000000
 42
6.000000000000000
 43
6.000000000000000
 50
0.0000000000000000
  0
LINE
  5
2CD
100
AcDbEntity
  8
MAIN0
  6
BYBLOCK
 62
0
100
AcDbLine
 10
878.2596375108550
 20
361.4065894092424
 30
0.0000000000000000
 11
878.2596375108550
 21
248.8410262183304
 31
0.0000000000000000
  0
MTEXT
  5
2CE
100
AcDbEntity
  8
MAIN0
  6
BYBLOCK
 62
0
100
AcDbMText
 10
829.0096375108550
 20
259.9910260752793
 30
0.0000000000000000
 40
9.299999713897705
 41
0.0000000000000000
 71
     5
 72
     1
  1
\A1;98.5
 11
1.000000000000000
 21
0.0000000000000000
 31
0.0000000000000000
  7
STANDARD
  0
ENDBLK
  5
2CF
100
AcDbEntity
  8
MAIN0
  6
CONTINUOUS
 62
3
100
AcDbBlockEnd
  0
BLOCK
  5
2D1
100
AcDbEntity
  8
MAIN0
  6
CONTINUOUS
 62
3
100
AcDbBlockBegin
  2
*D40
 70
    65
 10
0.0
 20
0.0
 30
0.0
  0
LINE
  5
2D2
100
AcDbEntity
  8
MAIN0
  6
BYBLOCK
 62
0
100
AcDbLine
 10
322.3596374750923
 20
310.8065894450051
 30
0.0000000000000000
 11
298.7596375108552
 21
310.8065894450051
 31
0.0000000000000000
  0
LINE
  5
2D3
100
AcDbEntity
  8
MAIN0
  6
BYBLOCK
 62
0
100
AcDbLine
 10
304.7596375108552
 20
316.8065894450051
 30
0.0000000000000000
 11
304.7596375108552
 21
424.8065894450051
 31
0.0000000000000000
  0
INSERT
  5
2D4
100
AcDbEntity
  8
MAIN0
  6
BYBLOCK
 62
0
100
AcDbBlockReference
  2
_OPEN
 10
304.7596375108552
 20
310.8065894450051
 30
0.0000000000000000
 41
6.000000000000000
 42
6.000000000000000
 43
6.000000000000000
 50
270.0000000000000
  0
INSERT
  5
2D5
100
AcDbEntity
  8
MAIN0
  6
BYBLOCK
 62
0
100
AcDbBlockReference
  2
_OPEN
 10
304.7596375108552
 20
430.8065894450051
 30
0.0000000000000000
 41
6.000000000000000
 42
6.000000000000000
 43
6.000000000000000
 50
90.00000000000000
  0
LINE
  5
2D6
100
AcDbEntity
  8
MAIN0
  6
BYBLOCK
 62
0
100
AcDbLine
 10
322.3596374750925
 20
430.8065894450051
 30
0.0000000000000000
 11
298.7596375108552
 21
430.8065894450051
 31
0.0000000000000000
  0
MTEXT
  5
2D7
100
AcDbEntity
  8
MAIN0
  6
BYBLOCK
 62
0
100
AcDbMText
 10
299.6096376539064
 20
370.8065894450051
 30
0.0000000000000000
 40
9.299999713897705
 41
0.0000000000000000
 71
     5
 72
     1
  1
\A1;120
 11
6.123233995736766e-017
 21
1.000000000000000
 31
0.0000000000000000
  7
STANDARD
  0
ENDBLK
  5
2D8
100
AcDbEntity
  8
MAIN0
  6
CONTINUOUS
 62
3
100
AcDbBlockEnd
  0
BLOCK
  5
2DA
100
AcDbEntity
  8
MAIN0
  6
CONTINUOUS
 62
3
100
AcDbBlockBegin
  2
*D41
 70
    65
 10
0.0
 20
0.0
 30
0.0
  0
LINE
  5
2DB
100
AcDbEntity
  8
MAIN0
  6
BYBLOCK
 62
0
100
AcDbLine
 10
322.3596374750925
 20
430.8065894450051
 30
0.0000000000000000
 11
298.7596375108552
 21
430.8065894450051
 31
0.0000000000000000
  0
LINE
  5
2DC
100
AcDbEntity
  8
MAIN0
  6
BYBLOCK
 62
0
100
AcDbLine
 10
304.7596375108552
 20
436.8065894450051
 30
0.0000000000000000
 11
304.7596375108552
 21
469.8065894450051
 31
0.0000000000000000
  0
INSERT
  5
2DD
100
AcDbEntity
  8
MAIN0
  6
BYBLOCK
 62
0
100
AcDbBlockReference
  2
_OPEN
 10
304.7596375108552
 20
430.8065894450051
 30
0.0000000000000000
 41
6.000000000000000
 42
6.000000000000000
 43
6.000000000000000
 50
270.0000000000000
  0
INSERT
  5
2DE
100
AcDbEntity
  8
MAIN0
  6
BYBLOCK
 62
0
100
AcDbBlockReference
  2
_OPEN
 10
304.7596375108552
 20
475.8065894450051
 30
0.0000000000000000
 41
6.000000000000000
 42
6.000000000000000
 43
6.000000000000000
 50
90.00000000000000
  0
LINE
  5
2DF
100
AcDbEntity
  8
MAIN0
  6
BYBLOCK
 62
0
100
AcDbLine
 10
323.3596374750925
 20
475.8065894450051
 30
0.0000000000000000
 11
298.7596375108552
 21
475.8065894450051
 31
0.0000000000000000
  0
MTEXT
  5
2E0
100
AcDbEntity
  8
MAIN0
  6
BYBLOCK
 62
0
100
AcDbMText
 10
299.6096376539064
 20
453.3065894450051
 30
0.0000000000000000
 40
9.299999713897705
 41
0.0000000000000000
 71
     5
 72
     1
  1
\A1;45
 11
6.123233995736766e-017
 21
1.000000000000000
 31
0.0000000000000000
  7
STANDARD
  0
ENDBLK
  5
2E1
100
AcDbEntity
  8
MAIN0
  6
CONTINUOUS
 62
3
100
AcDbBlockEnd
  0
BLOCK
  5
2E3
100
AcDbEntity
  8
MAIN0
  6
CONTINUOUS
 62
3
100
AcDbBlockBegin
  2
*D42
 70
    65
 10
0.0
 20
0.0
 30
0.0
  0
LINE
  5
2E4
100
AcDbEntity
  8
MAIN0
  6
BYBLOCK
 62
0
100
AcDbLine
 10
322.3596374750923
 20
310.8065894450051
 30
0.0000000000000000
 11
278.7596375108552
 21
310.8065894450051
 31
0.0000000000000000
  0
LINE
  5
2E5
100
AcDbEntity
  8
MAIN0
  6
BYBLOCK
 62
0
100
AcDbLine
 10
284.7596375108552
 20
316.8065894450051
 30
0.0000000000000000
 11
284.7596375108552
 21
469.8065894450051
 31
0.0000000000000000
  0
INSERT
  5
2E6
100
AcDbEntity
  8
MAIN0
  6
BYBLOCK
 62
0
100
AcDbBlockReference
  2
_OPEN
 10
284.7596375108552
 20
310.8065894450051
 30
0.0000000000000000
 41
6.000000000000000
 42
6.000000000000000
 43
6.000000000000000
 50
270.0000000000000
  0
INSERT
  5
2E7
100
AcDbEntity
  8
MAIN0
  6
BYBLOCK
 62
0
100
AcDbBlockReference
  2
_OPEN
 10
284.7596375108552
 20
475.8065894450051
 30
0.0000000000000000
 41
6.000000000000000
 42
6.000000000000000
 43
6.000000000000000
 50
90.00000000000000
  0
LINE
  5
2E8
100
AcDbEntity
  8
MAIN0
  6
BYBLOCK
 62
0
100
AcDbLine
 10
323.3596374750925
 20
475.8065894450051
 30
0.0000000000000000
 11
278.7596375108552
 21
475.8065894450051
 31
0.0000000000000000
  0
MTEXT
  5
2E9
100
AcDbEntity
  8
MAIN0
  6
BYBLOCK
 62
0
100
AcDbMText
 10
279.6096376539064
 20
393.3065894450051
 30
0.0000000000000000
 40
9.299999713897705
 41
0.0000000000000000
 71
     5
 72
     1
  1
\A1;165
 11
6.123233995736766e-017
 21
1.000000000000000
 31
0.0000000000000000
  7
STANDARD
  0
ENDBLK
  5
2EA
100
AcDbEntity
  8
MAIN0
  6
CONTINUOUS
 62
3
100
AcDbBlockEnd
  0
BLOCK
  5
2EC
100
AcDbEntity
  8
MAIN0
  6
CONTINUOUS
 62
3
100
AcDbBlockBegin
  2
*D43
 70
    65
 10
0.0
 20
0.0
 30
0.0
  0
LINE
  5
2ED
100
AcDbEntity
  8
MAIN0
  6
BYBLOCK
 62
0
100
AcDbLine
 10
411.7596375108553
 20
478.2065894807679
 30
0.0000000000000000
 11
411.7596375108553
 21
507.9536832402727
 31
0.0000000000000000
  0
LINE
  5
2EE
100
AcDbEntity
  8
MAIN0
  6
BYBLOCK
 62
0
100
AcDbLine
 10
405.7596375108553
 20
501.9536832402727
 30
0.0000000000000000
 11
374.7596375108553
 21
501.9536832402727
 31
0.0000000000000000
  0
INSERT
  5
2EF
100
AcDbEntity
  8
MAIN0
  6
BYBLOCK
 62
0
100
AcDbBlockReference
  2
_OPEN
 10
411.7596375108553
 20
501.9536832402727
 30
0.0000000000000000
 41
6.000000000000000
 42
6.000000000000000
 43
6.000000000000000
 50
360.0000000000000
  0
INSERT
  5
2F0
100
AcDbEntity
  8
MAIN0
  6
BYBLOCK
 62
0
100
AcDbBlockReference
  2
_OPEN
 10
368.7596375108553
 20
501.9536832402727
 30
0.0000000000000000
 41
6.000000000000000
 42
6.000000000000000
 43
6.000000000000000
 50
180.0000000000000
  0
LINE
  5
2F1
100
AcDbEntity
  8
MAIN0
  6
BYBLOCK
 62
0
100
AcDbLine
 10
368.7596375108553
 20
478.2065894807680
 30
0.0000000000000000
 11
368.7596375108553
 21
507.9536832402727
 31
0.0000000000000000
  0
MTEXT
  5
2F2
100
AcDbEntity
  8
MAIN0
  6
BYBLOCK
 62
0
100
AcDbMText
 10
390.2596375108553
 20
507.1036830972215
 30
0.0000000000000000
 40
9.299999713897705
 41
0.0000000000000000
 71
     5
 72
     1
  1
\A1;43
 11
1.000000000000000
 21
0.0000000000000000
 31
0.0000000000000000
  7
STANDARD
  0
ENDBLK
  5
2F3
100
AcDbEntity
  8
MAIN0
  6
CONTINUOUS
 62
3
100
AcDbBlockEnd
  0
BLOCK
  5
344
100
AcDbEntity
  8
MAIN0
  6
CONTINUOUS
 62
1
100
AcDbBlockBegin
  2
*D44
 70
    65
 10
0.0
 20
0.0
 30
0.0
  0
LINE
  5
345
100
AcDbEntity
  8
MAIN0
  6
BYBLOCK
 62
0
100
AcDbLine
 10
1057.491686207102
 20
308.4065894092423
 30
0.0000000000000000
 11
1057.491686207102
 21
265.5225407527982
 31
0.0000000000000000
  0
LINE
  5
346
100
AcDbEntity
  8
MAIN0
  6
BYBLOCK
 62
0
100
AcDbLine
 10
1057.491686207102
 20
271.5225407527982
 30
0.0000000000000000
 11
1034.491686207102
 21
271.5225407527982
 31
0.0000000000000000
  0
INSERT
  5
347
100
AcDbEntity
  8
MAIN0
  6
BYBLOCK
 62
0
100
AcDbBlockReference
  2
_OPEN
 10
1057.491686207102
 20
271.5225407527982
 30
0.0000000000000000
 41
6.000000000000000
 42
6.000000000000000
 43
6.000000000000000
 50
180.0000000000000
  0
INSERT
  5
348
100
AcDbEntity
  8
MAIN0
  6
BYBLOCK
 62
0
100
AcDbBlockReference
  2
_OPEN
 10
1034.491686207102
 20
271.5225407527982
 30
0.0000000000000000
 41
6.000000000000000
 42
6.000000000000000
 43
6.000000000000000
 50
360.0000000000000
  0
LINE
  5
349
100
AcDbEntity
  8
MAIN0
  6
BYBLOCK
 62
0
100
AcDbLine
 10
1063.491686207102
 20
271.5225407527982
 30
0.0000000000000000
 11
1095.557587384360
 21
271.5225407527982
 31
0.0000000000000000
  0
LINE
  5
34A
100
AcDbEntity
  8
MAIN0
  6
BYBLOCK
 62
0
100
AcDbLine
 10
1028.491686207102
 20
271.5225407527982
 30
0.0000000000000000
 11
1025.491686207102
 21
271.5225407527982
 31
0.0000000000000000
  0
MTEXT
  5
34B
100
AcDbEntity
  8
MAIN0
  6
BYBLOCK
 62
0
100
AcDbMText
 10
1079.207587956564
 20
277.6725406097471
 30
0.0000000000000000
 40
9.299999713897705
 41
0.0000000000000000
 71
     5
 72
     1
  1
\A1;15～31
 11
1.000000000000000
 21
0.0000000000000000
 31
0.0000000000000000
  7
KNJYOKO
  0
ENDBLK
  5
34C
100
AcDbEntity
  8
MAIN0
  6
CONTINUOUS
 62
1
100
AcDbBlockEnd
  0
BLOCK
  5
34F
100
AcDbEntity
  8
MAIN0
  6
CONTINUOUS
 62
3
100
AcDbBlockBegin
  2
*D45
 70
    65
 10
0.0
 20
0.0
 30
0.0
  0
LINE
  5
350
100
AcDbEntity
  8
MAIN0
  6
BYBLOCK
 62
0
100
AcDbLine
 10
985.7916861713393
 20
310.8065894450051
 30
0.0000000000000000
 11
966.1646813173271
 21
310.8065894450051
 31
0.0000000000000000
  0
LINE
  5
351
100
AcDbEntity
  8
MAIN0
  6
BYBLOCK
 62
0
100
AcDbLine
 10
972.1646813173271
 20
316.8065894450051
 30
0.0000000000000000
 11
972.1646813173271
 21
334.8065894450050
 31
0.0000000000000000
  0
INSERT
  5
352
100
AcDbEntity
  8
MAIN0
  6
BYBLOCK
 62
0
100
AcDbBlockReference
  2
_OPEN
 10
972.1646813173271
 20
310.8065894450051
 30
0.0000000000000000
 41
6.000000000000000
 42
6.000000000000000
 43
6.000000000000000
 50
270.0000000000000
  0
INSERT
  5
353
100
AcDbEntity
  8
MAIN0
  6
BYBLOCK
 62
0
100
AcDbBlockReference
  2
_OPEN
 10
972.1646813173271
 20
340.8065894450050
 30
0.0000000000000000
 41
6.000000000000000
 42
6.000000000000000
 43
6.000000000000000
 50
90.00000000000000
  0
LINE
  5
354
100
AcDbEntity
  8
MAIN0
  6
BYBLOCK
 62
0
100
AcDbLine
 10
984.0916861713392
 20
340.8065894450050
 30
0.0000000000000000
 11
966.1646813173271
 21
340.8065894450050
 31
0.0000000000000000
  0
MTEXT
  5
355
100
AcDbEntity
  8
MAIN0
  6
BYBLOCK
 62
0
100
AcDbMText
 10
967.0146814603783
 20
325.8065894450050
 30
0.0000000000000000
 40
9.299999713897705
 41
0.0000000000000000
 71
     5
 72
     1
  1
\A1;30
 11
6.123233995736766e-017
 21
1.000000000000000
 31
0.0000000000000000
  7
STANDARD
  0
ENDBLK
  5
356
100
AcDbEntity
  8
MAIN0
  6
CONTINUOUS
 62
3
100
AcDbBlockEnd
  0
BLOCK
  5
358
100
AcDbEntity
  8
MAIN0
  6
CONTINUOUS
 62
3
100
AcDbBlockBegin
  2
*D46
 70
    65
 10
0.0
 20
0.0
 30
0.0
  0
LINE
  5
359
100
AcDbEntity
  8
MAIN0
  6
BYBLOCK
 62
0
100
AcDbLine
 10
984.0916861713392
 20
340.8065894450050
 30
0.0000000000000000
 11
966.1646813173271
 21
340.8065894450050
 31
0.0000000000000000
  0
LINE
  5
35A
100
AcDbEntity
  8
MAIN0
  6
BYBLOCK
 62
0
100
AcDbLine
 10
972.1646813173271
 20
340.8065894450050
 30
0.0000000000000000
 11
972.1646813173271
 21
345.8065894450050
 31
0.0000000000000000
  0
INSERT
  5
35B
100
AcDbEntity
  8
MAIN0
  6
BYBLOCK
 62
0
100
AcDbBlockReference
  2
_OPEN
 10
972.1646813173271
 20
340.8065894450050
 30
0.0000000000000000
 41
6.000000000000000
 42
6.000000000000000
 43
6.000000000000000
 50
90.00000000000000
  0
INSERT
  5
35C
100
AcDbEntity
  8
MAIN0
  6
BYBLOCK
 62
0
100
AcDbBlockReference
  2
_OPEN
 10
972.1646813173271
 20
345.8065894450050
 30
0.0000000000000000
 41
6.000000000000000
 42
6.000000000000000
 43
6.000000000000000
 50
270.0000000000000
  0
LINE
  5
35D
100
AcDbEntity
  8
MAIN0
  6
BYBLOCK
 62
0
100
AcDbLine
 10
972.1646813173271
 20
334.8065894450050
 30
0.0000000000000000
 11
972.1646813173271
 21
331.8065894450050
 31
0.0000000000000000
  0
LINE
  5
35E
100
AcDbEntity
  8
MAIN0
  6
BYBLOCK
 62
0
100
AcDbLine
 10
972.1646813173271
 20
351.8065894450050
 30
0.0000000000000000
 11
972.1646813173271
 21
363.8203845223989
 31
0.0000000000000000
  0
LINE
  5
35F
100
AcDbEntity
  8
MAIN0
  6
BYBLOCK
 62
0
100
AcDbLine
 10
1014.591686171339
 20
345.8065894450050
 30
0.0000000000000000
 11
966.1646813173271
 21
345.8065894450050
 31
0.0000000000000000
  0
MTEXT
  5
360
100
AcDbEntity
  8
MAIN0
  6
BYBLOCK
 62
0
100
AcDbMText
 10
966.0146814603783
 20
360.8203845223989
 30
0.0000000000000000
 40
9.299999713897705
 41
0.0000000000000000
 71
     5
 72
     1
  1
\A1;5
 11
6.123233995736766e-017
 21
1.000000000000000
 31
0.0000000000000000
  7
STANDARD
  0
ENDBLK
  5
361
100
AcDbEntity
  8
MAIN0
  6
CONTINUOUS
 62
3
100
AcDbBlockEnd
  0
BLOCK
  5
3A1
100
AcDbEntity
  8
MAIN0
  6
CONTINUOUS
 62
3
100
AcDbBlockBegin
  2
*D47
 70
    65
 10
0.0
 20
0.0
 30
0.0
  0
LINE
  5
3A2
100
AcDbEntity
  8
MAIN0
  6
BYBLOCK
 62
0
100
AcDbLine
 10
497.7596375108556
 20
653.2150963796553
 30
0.0000000000000000
 11
497.7596375108557
 21
587.8732653174345
 31
0.0000000000000000
  0
LINE
  5
3A3
100
AcDbEntity
  8
MAIN0
  6
BYBLOCK
 62
0
100
AcDbLine
 10
503.7596375108557
 20
593.8732653174345
 30
0.0000000000000000
 11
534.7596375108558
 21
593.8732653174345
 31
0.0000000000000000
  0
INSERT
  5
3A4
100
AcDbEntity
  8
MAIN0
  6
BYBLOCK
 62
0
100
AcDbBlockReference
  2
_OPEN
 10
497.7596375108557
 20
593.8732653174345
 30
0.0000000000000000
 41
6.000000000000000
 42
6.000000000000000
 43
6.000000000000000
 50
180.0000000000000
  0
INSERT
  5
3A5
100
AcDbEntity
  8
MAIN0
  6
BYBLOCK
 62
0
100
AcDbBlockReference
  2
_OPEN
 10
540.7596375108558
 20
593.8732653174345
 30
0.0000000000000000
 41
6.000000000000000
 42
6.000000000000000
 43
6.000000000000000
 50
0.0000000000000000
  0
LINE
  5
3A6
100
AcDbEntity
  8
MAIN0
  6
BYBLOCK
 62
0
100
AcDbLine
 10
540.7596375108557
 20
722.4595651404393
 30
0.0000000000000000
 11
540.7596375108558
 21
587.8732653174346
 31
0.0000000000000000
  0
MTEXT
  5
3A7
100
AcDbEntity
  8
MAIN0
  6
BYBLOCK
 62
0
100
AcDbMText
 10
519.2596375108558
 20
599.0232651743834
 30
0.0000000000000000
 40
9.299999713897705
 41
0.0000000000000000
 71
     5
 72
     1
  1
\A1;43
 11
1.000000000000000
 21
0.0000000000000000
 31
0.0000000000000000
  7
STANDARD
  0
ENDBLK
  5
3A8
100
AcDbEntity
  8
MAIN0
  6
CONTINUOUS
 62
3
100
AcDbBlockEnd
  0
BLOCK
  5
3F2
100
AcDbEntity
  8
MAIN0
  6
CONTINUOUS
 62
3
100
AcDbBlockBegin
  2
*D48
 70
    65
 10
0.0
 20
0.0
 30
0.0
  0
LINE
  5
3F3
100
AcDbEntity
  8
MAIN0
  6
BYBLOCK
 62
0
100
AcDbLine
 10
341.7596375108558
 20
681.2146900293958
 30
0.0000000000000000
 11
341.7596375108558
 21
617.2356692061348
 31
0.0000000000000000
  0
LINE
  5
3F4
100
AcDbEntity
  8
MAIN0
  6
BYBLOCK
 62
0
100
AcDbLine
 10
347.7596375108558
 20
623.2356692061348
 30
0.0000000000000000
 11
390.7596375108558
 21
623.2356692061348
 31
0.0000000000000000
  0
INSERT
  5
3F5
100
AcDbEntity
  8
MAIN0
  6
BYBLOCK
 62
0
100
AcDbBlockReference
  2
_OPEN
 10
341.7596375108558
 20
623.2356692061348
 30
0.0000000000000000
 41
6.000000000000000
 42
6.000000000000000
 43
6.000000000000000
 50
180.0000000000000
  0
INSERT
  5
3F6
100
AcDbEntity
  8
MAIN0
  6
BYBLOCK
 62
0
100
AcDbBlockReference
  2
_OPEN
 10
396.7596375108558
 20
623.2356692061348
 30
0.0000000000000000
 41
6.000000000000000
 42
6.000000000000000
 43
6.000000000000000
 50
0.0000000000000000
  0
LINE
  5
3F7
100
AcDbEntity
  8
MAIN0
  6
BYBLOCK
 62
0
100
AcDbLine
 10
396.7596375108558
 20
681.2146900293958
 30
0.0000000000000000
 11
396.7596375108558
 21
617.2356692061348
 31
0.0000000000000000
  0
MTEXT
  5
3F8
100
AcDbEntity
  8
MAIN0
  6
BYBLOCK
 62
0
100
AcDbMText
 10
376.7237237305285
 20
629.3856690630837
 30
0.0000000000000000
 40
9.299999713897705
 41
0.0000000000000000
 71
     5
 72
     1
  1
\A1;55
 11
1.000000000000000
 21
0.0000000000000000
 31
0.0000000000000000
  7
STANDARD
  0
ENDBLK
  5
3F9
100
AcDbEntity
  8
MAIN0
  6
CONTINUOUS
 62
3
100
AcDbBlockEnd
  0
BLOCK
  5
3FB
100
AcDbEntity
  8
MAIN0
  6
CONTINUOUS
 62
3
100
AcDbBlockBegin
  2
*D49
 70
    65
 10
0.0
 20
0.0
 30
0.0
  0
LINE
  5
3FC
100
AcDbEntity
  8
MAIN0
  6
BYBLOCK
 62
0
100
AcDbLine
 10
396.7596375108558
 20
681.2146900293958
 30
0.0000000000000000
 11
396.7596375108558
 21
617.2356692061348
 31
0.0000000000000000
  0
LINE
  5
3FD
100
AcDbEntity
  8
MAIN0
  6
BYBLOCK
 62
0
100
AcDbLine
 10
396.7596375108558
 20
623.2356692061348
 30
0.0000000000000000
 11
411.7596375108557
 21
623.2356692061348
 31
0.0000000000000000
  0
INSERT
  5
3FE
100
AcDbEntity
  8
MAIN0
  6
BYBLOCK
 62
0
100
AcDbBlockReference
  2
_OPEN
 10
396.7596375108558
 20
623.2356692061348
 30
0.0000000000000000
 41
6.000000000000000
 42
6.000000000000000
 43
6.000000000000000
 50
0.0000000000000000
  0
INSERT
  5
3FF
100
AcDbEntity
  8
MAIN0
  6
BYBLOCK
 62
0
100
AcDbBlockReference
  2
_OPEN
 10
411.7596375108557
 20
623.2356692061348
 30
0.0000000000000000
 41
6.000000000000000
 42
6.000000000000000
 43
6.000000000000000
 50
180.0000000000000
  0
LINE
  5
400
100
AcDbEntity
  8
MAIN0
  6
BYBLOCK
 62
0
100
AcDbLine
 10
390.7596375108558
 20
623.2356692061348
 30
0.0000000000000000
 11
387.7596375108558
 21
623.2356692061348
 31
0.0000000000000000
  0
LINE
  5
401
100
AcDbEntity
  8
MAIN0
  6
BYBLOCK
 62
0
100
AcDbLine
 10
417.7596375108557
 20
623.2356692061348
 30
0.0000000000000000
 11
428.3647639042079
 21
623.2356692061348
 31
0.0000000000000000
  0
LINE
  5
402
100
AcDbEntity
  8
MAIN0
  6
BYBLOCK
 62
0
100
AcDbLine
 10
411.7596375108557
 20
653.2150963796562
 30
0.0000000000000000
 11
411.7596375108557
 21
617.2356692061348
 31
0.0000000000000000
  0
MTEXT
  5
403
100
AcDbEntity
  8
MAIN0
  6
BYBLOCK
 62
0
100
AcDbMText
 10
422.2147640472590
 20
629.3856690630837
 30
0.0000000000000000
 40
9.299999713897705
 41
0.0000000000000000
 71
     5
 72
     1
  1
\A1;15
 11
1.000000000000000
 21
0.0000000000000000
 31
0.0000000000000000
  7
STANDARD
  0
ENDBLK
  5
404
100
AcDbEntity
  8
MAIN0
  6
CONTINUOUS
 62
3
100
AcDbBlockEnd
  0
BLOCK
  5
406
100
AcDbEntity
  8
MAIN0
  6
CONTINUOUS
 62
3
100
AcDbBlockBegin
  2
*D50
 70
    65
 10
0.0
 20
0.0
 30
0.0
  0
LINE
  5
407
100
AcDbEntity
  8
MAIN0
  6
BYBLOCK
 62
0
100
AcDbLine
 10
497.7596375108556
 20
653.2150963796565
 30
0.0000000000000000
 11
497.7596375108556
 21
617.2356692061348
 31
0.0000000000000000
  0
LINE
  5
408
100
AcDbEntity
  8
MAIN0
  6
BYBLOCK
 62
0
100
AcDbLine
 10
497.7596375108556
 20
623.2356692061348
 30
0.0000000000000000
 11
512.7596375108559
 21
623.2356692061348
 31
0.0000000000000000
  0
INSERT
  5
409
100
AcDbEntity
  8
MAIN0
  6
BYBLOCK
 62
0
100
AcDbBlockReference
  2
_OPEN
 10
497.7596375108556
 20
623.2356692061348
 30
0.0000000000000000
 41
6.000000000000000
 42
6.000000000000000
 43
6.000000000000000
 50
0.0000000000000000
  0
INSERT
  5
40A
100
AcDbEntity
  8
MAIN0
  6
BYBLOCK
 62
0
100
AcDbBlockReference
  2
_OPEN
 10
512.7596375108559
 20
623.2356692061348
 30
0.0000000000000000
 41
6.000000000000000
 42
6.000000000000000
 43
6.000000000000000
 50
180.0000000000000
  0
LINE
  5
40B
100
AcDbEntity
  8
MAIN0
  6
BYBLOCK
 62
0
100
AcDbLine
 10
491.7596375108556
 20
623.2356692061348
 30
0.0000000000000000
 11
481.8199971920107
 21
623.2356692061348
 31
0.0000000000000000
  0
LINE
  5
40C
100
AcDbEntity
  8
MAIN0
  6
BYBLOCK
 62
0
100
AcDbLine
 10
518.7596375108559
 20
623.2356692061348
 30
0.0000000000000000
 11
521.7596375108559
 21
623.2356692061348
 31
0.0000000000000000
  0
LINE
  5
40D
100
AcDbEntity
  8
MAIN0
  6
BYBLOCK
 62
0
100
AcDbLine
 10
512.7596375108559
 20
671.2146900293956
 30
0.0000000000000000
 11
512.7596375108559
 21
617.2356692061348
 31
0.0000000000000000
  0
MTEXT
  5
40E
100
AcDbEntity
  8
MAIN0
  6
BYBLOCK
 62
0
100
AcDbMText
 10
487.9699970489595
 20
629.3856690630837
 30
0.0000000000000000
 40
9.299999713897705
 41
0.0000000000000000
 71
     5
 72
     1
  1
\A1;15
 11
1.000000000000000
 21
0.0000000000000000
 31
0.0000000000000000
  7
STANDARD
  0
ENDBLK
  5
40F
100
AcDbEntity
  8
MAIN0
  6
CONTINUOUS
 62
3
100
AcDbBlockEnd
  0
BLOCK
  5
411
100
AcDbEntity
  8
MAIN0
  6
CONTINUOUS
 62
3
100
AcDbBlockBegin
  2
*D51
 70
    65
 10
0.0
 20
0.0
 30
0.0
  0
LINE
  5
412
100
AcDbEntity
  8
MAIN0
  6
BYBLOCK
 62
0
100
AcDbLine
 10
512.7596375108559
 20
671.2146900293956
 30
0.0000000000000000
 11
512.7596375108559
 21
617.2356692061348
 31
0.0000000000000000
  0
LINE
  5
413
100
AcDbEntity
  8
MAIN0
  6
BYBLOCK
 62
0
100
AcDbLine
 10
518.7596375108559
 20
623.2356692061348
 30
0.0000000000000000
 11
556.7596375108559
 21
623.2356692061348
 31
0.0000000000000000
  0
INSERT
  5
414
100
AcDbEntity
  8
MAIN0
  6
BYBLOCK
 62
0
100
AcDbBlockReference
  2
_OPEN
 10
512.7596375108559
 20
623.2356692061348
 30
0.0000000000000000
 41
6.000000000000000
 42
6.000000000000000
 43
6.000000000000000
 50
180.0000000000000
  0
INSERT
  5
415
100
AcDbEntity
  8
MAIN0
  6
BYBLOCK
 62
0
100
AcDbBlockReference
  2
_OPEN
 10
562.7596375108559
 20
623.2356692061348
 30
0.0000000000000000
 41
6.000000000000000
 42
6.000000000000000
 43
6.000000000000000
 50
0.0000000000000000
  0
LINE
  5
416
100
AcDbEntity
  8
MAIN0
  6
BYBLOCK
 62
0
100
AcDbLine
 10
562.7596375108559
 20
671.2146900293956
 30
0.0000000000000000
 11
562.7596375108559
 21
617.2356692061348
 31
0.0000000000000000
  0
MTEXT
  5
417
100
AcDbEntity
  8
MAIN0
  6
BYBLOCK
 62
0
100
AcDbMText
 10
533.4610687695322
 20
629.3856690630837
 30
0.0000000000000000
 40
9.299999713897705
 41
0.0000000000000000
 71
     5
 72
     1
  1
\A1;50
 11
1.000000000000000
 21
0.0000000000000000
 31
0.0000000000000000
  7
STANDARD
  0
ENDBLK
  5
418
100
AcDbEntity
  8
MAIN0
  6
CONTINUOUS
 62
3
100
AcDbBlockEnd
  0
BLOCK
  5
41A
100
AcDbEntity
  8
MAIN0
  6
CONTINUOUS
 62
3
100
AcDbBlockBegin
  2
*D52
 70
    65
 10
0.0
 20
0.0
 30
0.0
  0
LINE
  5
41B
100
AcDbEntity
  8
MAIN0
  6
BYBLOCK
 62
0
100
AcDbLine
 10
328.4219348984959
 20
695.3650964154213
 30
0.0000000000000000
 11
274.7789645973951
 21
695.3650964154213
 31
0.0000000000000000
  0
LINE
  5
41C
100
AcDbEntity
  8
MAIN0
  6
BYBLOCK
 62
0
100
AcDbLine
 10
280.7789645973951
 20
701.3650964154213
 30
0.0000000000000000
 11
280.7789645973951
 21
769.3650964154210
 31
0.0000000000000000
  0
INSERT
  5
41D
100
AcDbEntity
  8
MAIN0
  6
BYBLOCK
 62
0
100
AcDbBlockReference
  2
_OPEN
 10
280.7789645973951
 20
695.3650964154213
 30
0.0000000000000000
 41
6.000000000000000
 42
6.000000000000000
 43
6.000000000000000
 50
270.0000000000000
  0
INSERT
  5
41E
100
AcDbEntity
  8
MAIN0
  6
BYBLOCK
 62
0
100
AcDbBlockReference
  2
_OPEN
 10
280.7789645973951
 20
775.3650964154210
 30
0.0000000000000000
 41
6.000000000000000
 42
6.000000000000000
 43
6.000000000000000
 50
90.00000000000000
  0
LINE
  5
41F
100
AcDbEntity
  8
MAIN0
  6
BYBLOCK
 62
0
100
AcDbLine
 10
328.4219348984959
 20
775.3650964154210
 30
0.0000000000000000
 11
274.7789645973951
 21
775.3650964154210
 31
0.0000000000000000
  0
MTEXT
  5
420
100
AcDbEntity
  8
MAIN0
  6
BYBLOCK
 62
0
100
AcDbMText
 10
275.6289647404462
 20
735.3650964154210
 30
0.0000000000000000
 40
9.299999713897705
 41
0.0000000000000000
 71
     5
 72
     1
  1
\A1;80
 11
6.123233995736766e-017
 21
1.000000000000000
 31
0.0000000000000000
  7
STANDARD
  0
ENDBLK
  5
421
100
AcDbEntity
  8
MAIN0
  6
CONTINUOUS
 62
3
100
AcDbBlockEnd
  0
BLOCK
  5
423
100
AcDbEntity
  8
MAIN0
  6
CONTINUOUS
 62
3
100
AcDbBlockBegin
  2
*D53
 70
    65
 10
0.0
 20
0.0
 30
0.0
  0
LINE
  5
424
100
AcDbEntity
  8
MAIN0
  6
BYBLOCK
 62
0
100
AcDbLine
 10
576.1403407366147
 20
685.3650964154210
 30
0.0000000000000000
 11
630.8567065988793
 21
685.3650964154210
 31
0.0000000000000000
  0
LINE
  5
425
100
AcDbEntity
  8
MAIN0
  6
BYBLOCK
 62
0
100
AcDbLine
 10
624.8567065988793
 20
691.3650964154210
 30
0.0000000000000000
 11
624.8567065988793
 21
779.3650964154213
 31
0.0000000000000000
  0
INSERT
  5
426
100
AcDbEntity
  8
MAIN0
  6
BYBLOCK
 62
0
100
AcDbBlockReference
  2
_OPEN
 10
624.8567065988793
 20
685.3650964154210
 30
0.0000000000000000
 41
6.000000000000000
 42
6.000000000000000
 43
6.000000000000000
 50
270.0000000000000
  0
INSERT
  5
427
100
AcDbEntity
  8
MAIN0
  6
BYBLOCK
 62
0
100
AcDbBlockReference
  2
_OPEN
 10
624.8567065988793
 20
785.3650964154213
 30
0.0000000000000000
 41
6.000000000000000
 42
6.000000000000000
 43
6.000000000000000
 50
90.00000000000000
  0
LINE
  5
428
100
AcDbEntity
  8
MAIN0
  6
BYBLOCK
 62
0
100
AcDbLine
 10
576.1403407366147
 20
785.3650964154213
 30
0.0000000000000000
 11
630.8567065988793
 21
785.3650964154213
 31
0.0000000000000000
  0
MTEXT
  5
429
100
AcDbEntity
  8
MAIN0
  6
BYBLOCK
 62
0
100
AcDbMText
 10
619.7067067419305
 20
735.3650964154210
 30
0.0000000000000000
 40
9.299999713897705
 41
0.0000000000000000
 71
     5
 72
     1
  1
\A1;100
 11
6.123233995736766e-017
 21
1.000000000000000
 31
0.0000000000000000
  7
STANDARD
  0
ENDBLK
  5
42A
100
AcDbEntity
  8
MAIN0
  6
CONTINUOUS
 62
3
100
AcDbBlockEnd
  0
BLOCK
  5
430
100
AcDbEntity
  8
MAIN0
  6
CONTINUOUS
 62
3
100
AcDbBlockBegin
  2
*D54
 70
    65
 10
0.0
 20
0.0
 30
0.0
  0
LINE
  5
431
100
AcDbEntity
  8
MAIN0
  6
BYBLOCK
 62
0
100
AcDbLine
 10
368.7596375108558
 20
722.4595651404397
 30
0.0000000000000000
 11
368.7596375108558
 21
587.8732653174345
 31
0.0000000000000000
  0
LINE
  5
432
100
AcDbEntity
  8
MAIN0
  6
BYBLOCK
 62
0
100
AcDbLine
 10
374.7596375108559
 20
593.8732653174345
 30
0.0000000000000000
 11
405.7596375108557
 21
593.8732653174345
 31
0.0000000000000000
  0
INSERT
  5
433
100
AcDbEntity
  8
MAIN0
  6
BYBLOCK
 62
0
100
AcDbBlockReference
  2
_OPEN
 10
368.7596375108559
 20
593.8732653174345
 30
0.0000000000000000
 41
6.000000000000000
 42
6.000000000000000
 43
6.000000000000000
 50
180.0000000000000
  0
INSERT
  5
434
100
AcDbEntity
  8
MAIN0
  6
BYBLOCK
 62
0
100
AcDbBlockReference
  2
_OPEN
 10
411.7596375108557
 20
593.8732653174345
 30
0.0000000000000000
 41
6.000000000000000
 42
6.000000000000000
 43
6.000000000000000
 50
0.0000000000000000
  0
LINE
  5
435
100
AcDbEntity
  8
MAIN0
  6
BYBLOCK
 62
0
100
AcDbLine
 10
411.7596375108557
 20
653.2150963796562
 30
0.0000000000000000
 11
411.7596375108557
 21
587.8732653174345
 31
0.0000000000000000
  0
MTEXT
  5
436
100
AcDbEntity
  8
MAIN0
  6
BYBLOCK
 62
0
100
AcDbMText
 10
390.2596375108558
 20
599.0232651743834
 30
0.0000000000000000
 40
9.299999713897705
 41
0.0000000000000000
 71
     5
 72
     1
  1
\A1;43
 11
1.000000000000000
 21
0.0000000000000000
 31
0.0000000000000000
  7
STANDARD
  0
ENDBLK
  5
437
100
AcDbEntity
  8
MAIN0
  6
CONTINUOUS
 62
3
100
AcDbBlockEnd
  0
ENDSEC
  0
SECTION
  2
ENTITIES
  0
LINE
  5
46
100
AcDbEntity
  8
MAIN0
  6
CONTINUOUS
 62
3
100
AcDbLine
 10
1058.241686207102
 20
475.8065894450051
 30
0.0000000000000000
 11
1217.741686207102
 21
475.8065894450052
 31
0.0000000000000000
  0
LINE
  5
47
100
AcDbEntity
  8
MAIN0
  6
CONTINUOUS
 62
3
100
AcDbLine
 10
1058.241686207102
 20
475.8065894450051
 30
0.0000000000000000
 11
1058.241686207102
 21
452.0065894445393
 31
0.0000000000000000
  0
LINE
  5
48
100
AcDbEntity
  8
MAIN0
  6
CONTINUOUS
 62
3
100
AcDbLine
 10
72.24160314086453
 20
475.8065894450051
 30
0.0000000000000000
 11
72.24160314086453
 21
430.8065894450051
 31
0.0000000000000000
  0
LINE
  5
49
100
AcDbEntity
  8
MAIN0
  6
CONTINUOUS
 62
3
100
AcDbLine
 10
1217.741686207102
 20
475.8065894450052
 30
0.0000000000000000
 11
1217.741686207102
 21
452.0065894445393
 31
0.0000000000000000
  0
LINE
  5
4A
100
AcDbEntity
  8
MAIN0
  6
CONTINUOUS
 62
3
100
AcDbLine
 10
231.7416031408645
 20
475.8065894450051
 30
0.0000000000000000
 11
231.7416031408645
 21
430.8065894450051
 31
0.0000000000000000
  0
LINE
  5
4B
100
AcDbEntity
  8
MAIN0
  6
CONTINUOUS
 62
3
100
AcDbLine
 10
71.19160314086457
 20
430.8065894450051
 30
0.0000000000000000
 11
232.7916031408645
 21
430.8065894450051
 31
0.0000000000000000
  0
LINE
  5
4C
100
AcDbEntity
  8
MAIN0
  6
CONTINUOUS
 62
3
100
AcDbLine
 10
324.7596375108552
 20
430.8065894450051
 30
0.0000000000000000
 11
324.7596375108549
 21
310.8065894450051
 31
0.0000000000000000
  0
LINE
  5
4D
100
AcDbEntity
  8
MAIN0
  6
CONTINUOUS
 62
3
100
AcDbLine
 10
497.7596375108554
 20
475.8065894450051
 30
0.0000000000000000
 11
497.7596375108553
 21
430.8065894450052
 31
0.0000000000000000
  0
LINE
  5
4E
100
AcDbEntity
  8
MAIN0
  6
CONTINUOUS
 62
3
100
AcDbLine
 10
325.7596375108552
 20
430.8065894450051
 30
0.0000000000000000
 11
325.7596375108553
 21
475.8065894450051
 31
0.0000000000000000
  0
LINE
  5
4F
100
AcDbEntity
  8
MAIN0
  6
CONTINUOUS
 62
3
100
AcDbLine
 10
411.7596375108553
 20
475.8065894450051
 30
0.0000000000000000
 11
411.7596375108552
 21
430.8065894450051
 31
0.0000000000000000
  0
LINE
  5
50
100
AcDbEntity
  8
MAIN0
  6
CONTINUOUS
 62
3
100
AcDbLine
 10
72.24160314086453
 20
475.8065894450051
 30
0.0000000000000000
 11
231.7416031408645
 21
475.8065894450051
 31
0.0000000000000000
  0
LINE
  5
51
100
AcDbEntity
  8
MAIN0
  6
CONTINUOUS
 62
3
100
AcDbLine
 10
354.7596375108551
 20
430.8065894450051
 30
0.0000000000000000
 11
354.7596375108551
 21
420.8065894450052
 31
0.0000000000000000
  0
LINE
  5
52
100
AcDbEntity
  8
MAIN0
  6
CONTINUOUS
 62
3
100
AcDbLine
 10
382.7596375108551
 20
430.8065894450051
 30
0.0000000000000000
 11
382.7596375108551
 21
420.8065894450051
 31
0.0000000000000000
  0
LINE
  5
53
100
AcDbEntity
  8
MAIN0
  6
CONTINUOUS
 62
3
100
AcDbLine
 10
354.7596375108549
 20
420.8065894450051
 30
0.0000000000000000
 11
382.7596375108551
 21
420.8065894450051
 31
0.0000000000000000
  0
LINE
  5
54
100
AcDbEntity
  8
MAIN0
  6
CONTINUOUS
 62
3
100
AcDbLine
 10
354.7596375108549
 20
421.8065894450051
 30
0.0000000000000000
 11
382.7596375108551
 21
421.8065894450051
 31
0.0000000000000000
  0
LINE
  5
55
100
AcDbEntity
  8
MAIN0
  6
CONTINUOUS
 62
3
100
AcDbLine
 10
324.7596375108553
 20
430.8065894450051
 30
0.0000000000000000
 11
354.7596375108551
 21
430.8065894450051
 31
0.0000000000000000
  0
LINE
  5
56
100
AcDbEntity
  8
MAIN0
  6
CONTINUOUS
 62
3
100
AcDbLine
 10
460.7596375108548
 20
315.8065894450051
 30
0.0000000000000000
 11
478.7596375108550
 21
315.8065894450051
 31
0.0000000000000000
  0
LINE
  5
57
100
AcDbEntity
  8
MAIN0
  6
CONTINUOUS
 62
3
100
AcDbLine
 10
324.7596375108551
 20
310.8065894450051
 30
0.0000000000000000
 11
460.7596375108549
 21
310.8065894450051
 31
0.0000000000000000
  0
LINE
  5
58
100
AcDbEntity
  8
MAIN0
  6
CONTINUOUS
 62
3
100
AcDbLine
 10
478.7596375108549
 20
310.8065894450051
 30
0.0000000000000000
 11
779.7596375108549
 21
310.8065894450051
 31
0.0000000000000000
  0
LINE
  5
59
100
AcDbEntity
  8
MAIN0
  6
CONTINUOUS
 62
3
100
AcDbLine
 10
460.7596375108549
 20
305.8065894450051
 30
0.0000000000000000
 11
478.7596375108548
 21
305.8065894450051
 31
0.0000000000000000
  0
LINE
  5
5A
100
AcDbEntity
  8
MAIN0
  6
CONTINUOUS
 62
3
100
AcDbLine
 10
71.99160314086453
 20
305.8065894450051
 30
0.0000000000000000
 11
96.99160314086453
 21
305.8065894450051
 31
0.0000000000000000
  0
LINE
  5
5B
100
AcDbEntity
  8
MAIN0
  6
CONTINUOUS
 62
3
100
AcDbLine
 10
206.9916031408644
 20
305.8065894450052
 30
0.0000000000000000
 11
231.9916031408644
 21
305.8065894450051
 31
0.0000000000000000
  0
LINE
  5
5C
100
AcDbEntity
  8
MAIN0
  6
CONTINUOUS
 62
3
100
AcDbLine
 10
1082.991686207102
 20
305.8065894450051
 30
0.0000000000000000
 11
1057.991686207102
 21
305.8065894450051
 31
0.0000000000000000
  0
LINE
  5
5D
100
AcDbEntity
  8
MAIN0
  6
CONTINUOUS
 62
3
100
AcDbLine
 10
1217.991686207102
 20
305.8065894450052
 30
0.0000000000000000
 11
1192.991686207102
 21
305.8065894450052
 31
0.0000000000000000
  0
LINE
  5
5E
100
AcDbEntity
  8
MAIN0
  6
CONTINUOUS
 62
3
100
AcDbLine
 10
1217.991686207102
 20
305.8065894450052
 30
0.0000000000000000
 11
1217.991686207102
 21
310.8065894450052
 31
0.0000000000000000
  0
LINE
  5
5F
100
AcDbEntity
  8
MAIN0
  6
CONTINUOUS
 62
3
100
AcDbLine
 10
231.9916031408645
 20
305.8065894450051
 30
0.0000000000000000
 11
231.9916031408645
 21
310.8065894450052
 31
0.0000000000000000
  0
LINE
  5
60
100
AcDbEntity
  8
MAIN0
  6
CONTINUOUS
 62
3
100
AcDbLine
 10
1192.991686207102
 20
305.8065894450052
 30
0.0000000000000000
 11
1192.991686207102
 21
310.8065894450052
 31
0.0000000000000000
  0
LINE
  5
61
100
AcDbEntity
  8
MAIN0
  6
CONTINUOUS
 62
3
100
AcDbLine
 10
206.9916031408645
 20
305.8065894450051
 30
0.0000000000000000
 11
206.9916031408645
 21
310.8065894450052
 31
0.0000000000000000
  0
LINE
  5
62
100
AcDbEntity
  8
MAIN0
  6
CONTINUOUS
 62
3
100
AcDbLine
 10
1082.991686207102
 20
305.8065894450052
 30
0.0000000000000000
 11
1082.991686207102
 21
310.8065894450051
 31
0.0000000000000000
  0
LINE
  5
63
100
AcDbEntity
  8
MAIN0
  6
CONTINUOUS
 62
3
100
AcDbLine
 10
96.99160314086453
 20
305.8065894450051
 30
0.0000000000000000
 11
96.99160314086453
 21
310.8065894450052
 31
0.0000000000000000
  0
LINE
  5
64
100
AcDbEntity
  8
MAIN0
  6
CONTINUOUS
 62
3
100
AcDbLine
 10
1057.991686207102
 20
305.8065894450051
 30
0.0000000000000000
 11
1057.991686207102
 21
310.8065894450051
 31
0.0000000000000000
  0
LINE
  5
65
100
AcDbEntity
  8
MAIN0
  6
CONTINUOUS
 62
3
100
AcDbLine
 10
71.99160314086430
 20
305.8065894450050
 30
0.0000000000000000
 11
71.99160314086430
 21
310.8065894450051
 31
0.0000000000000000
  0
LINE
  5
66
100
AcDbEntity
  8
MAIN0
  6
CONTINUOUS
 62
3
100
AcDbLine
 10
478.7596375108549
 20
305.8065894450051
 30
0.0000000000000000
 11
478.7596375108549
 21
315.8065894450051
 31
0.0000000000000000
  0
LINE
  5
67
100
AcDbEntity
  8
MAIN0
  6
CONTINUOUS
 62
3
100
AcDbLine
 10
460.7596375108549
 20
305.8065894450051
 30
0.0000000000000000
 11
460.7596375108549
 21
315.8065894450051
 31
0.0000000000000000
  0
LINE
  5
68
100
AcDbEntity
  8
MAIN0
  6
CONTINUOUS
 62
3
100
AcDbLine
 10
1146.991686207102
 20
315.8065894450051
 30
0.0000000000000000
 11
1128.991686207102
 21
315.8065894450051
 31
0.0000000000000000
  0
LINE
  5
69
100
AcDbEntity
  8
MAIN0
  6
CONTINUOUS
 62
3
100
AcDbLine
 10
160.9916031408645
 20
315.8065894450051
 30
0.0000000000000000
 11
142.9916031408645
 21
315.8065894450052
 31
0.0000000000000000
  0
LINE
  5
6A
100
AcDbEntity
  8
MAIN0
  6
CONTINUOUS
 62
3
100
AcDbLine
 10
1146.991686207102
 20
310.8065894450051
 30
0.0000000000000000
 11
1146.991686207102
 21
315.8065894450051
 31
0.0000000000000000
  0
LINE
  5
6B
100
AcDbEntity
  8
MAIN0
  6
CONTINUOUS
 62
3
100
AcDbLine
 10
160.9916031408645
 20
310.8065894450051
 30
0.0000000000000000
 11
160.9916031408645
 21
315.8065894450052
 31
0.0000000000000000
  0
LINE
  5
6C
100
AcDbEntity
  8
MAIN0
  6
CONTINUOUS
 62
3
100
AcDbLine
 10
1128.991686207102
 20
310.8065894450051
 30
0.0000000000000000
 11
1128.991686207102
 21
315.8065894450051
 31
0.0000000000000000
  0
LINE
  5
6D
100
AcDbEntity
  8
MAIN0
  6
CONTINUOUS
 62
3
100
AcDbLine
 10
142.9916031408645
 20
310.8065894450051
 30
0.0000000000000000
 11
142.9916031408645
 21
315.8065894450052
 31
0.0000000000000000
  0
LINE
  5
6E
100
AcDbEntity
  8
MAIN0
  6
CONTINUOUS
 62
3
100
AcDbLine
 10
71.49160314086453
 20
310.8065894450051
 30
0.0000000000000000
 11
142.9916031408645
 21
310.8065894450051
 31
0.0000000000000000
  0
LINE
  5
6F
100
AcDbEntity
  8
MAIN0
  6
CONTINUOUS
 62
3
100
AcDbLine
 10
160.9916031408645
 20
310.8065894450051
 30
0.0000000000000000
 11
232.4916031408646
 21
310.8065894450051
 31
0.0000000000000000
  0
LINE
  5
70
100
AcDbEntity
  8
MAIN0
  6
CONTINUOUS
 62
3
100
AcDbLine
 10
1057.491686207102
 20
310.8065894450051
 30
0.0000000000000000
 11
1128.991686207102
 21
310.8065894450051
 31
0.0000000000000000
  0
LINE
  5
71
100
AcDbEntity
  8
MAIN0
  6
CONTINUOUS
 62
3
100
AcDbLine
 10
1146.991686207102
 20
310.8065894450051
 30
0.0000000000000000
 11
1218.491686207102
 21
310.8065894450052
 31
0.0000000000000000
  0
LINE
  5
72
100
AcDbEntity
  8
MAIN0
  6
CONTINUOUS
 62
3
100
AcDbLine
 10
1211.491686207102
 20
381.8065894450052
 30
0.0000000000000000
 11
1211.491686207102
 21
331.8065894450052
 31
0.0000000000000000
  0
LINE
  5
73
100
AcDbEntity
  8
MAIN0
  6
CONTINUOUS
 62
3
100
AcDbLine
 10
225.4916031408645
 20
381.8065894450052
 30
0.0000000000000000
 11
225.4916031408645
 21
331.8065894450051
 31
0.0000000000000000
  0
LINE
  5
74
100
AcDbEntity
  8
MAIN0
  6
CONTINUOUS
 62
3
100
AcDbLine
 10
1064.491686207102
 20
381.8065894450051
 30
0.0000000000000000
 11
1064.491686207102
 21
331.8065894450051
 31
0.0000000000000000
  0
LINE
  5
75
100
AcDbEntity
  8
MAIN0
  6
CONTINUOUS
 62
3
100
AcDbLine
 10
78.49160314086453
 20
381.8065894450052
 30
0.0000000000000000
 11
78.49160314086453
 21
331.8065894450051
 31
0.0000000000000000
  0
LINE
  5
76
100
AcDbEntity
  8
MAIN0
  6
CONTINUOUS
 62
3
100
AcDbLine
 10
71.49160314086430
 20
381.8065894450051
 30
0.0000000000000000
 11
78.49160314086453
 21
381.8065894450051
 31
0.0000000000000000
  0
LINE
  5
77
100
AcDbEntity
  8
MAIN0
  6
CONTINUOUS
 62
3
100
AcDbLine
 10
71.49160314086430
 20
331.8065894450051
 30
0.0000000000000000
 11
78.49160314086453
 21
331.8065894450051
 31
0.0000000000000000
  0
LINE
  5
78
100
AcDbEntity
  8
MAIN0
  6
CONTINUOUS
 62
3
100
AcDbLine
 10
1057.491686207102
 20
381.8065894450050
 30
0.0000000000000000
 11
1064.491686207102
 21
381.8065894450051
 31
0.0000000000000000
  0
LINE
  5
79
100
AcDbEntity
  8
MAIN0
  6
CONTINUOUS
 62
3
100
AcDbLine
 10
1211.491686207102
 20
381.8065894450052
 30
0.0000000000000000
 11
1218.491686207102
 21
381.8065894450052
 31
0.0000000000000000
  0
LINE
  5
7A
100
AcDbEntity
  8
MAIN0
  6
CONTINUOUS
 62
3
100
AcDbLine
 10
1057.491686207102
 20
331.8065894450051
 30
0.0000000000000000
 11
1064.491686207102
 21
331.8065894450051
 31
0.0000000000000000
  0
LINE
  5
7B
100
AcDbEntity
  8
MAIN0
  6
CONTINUOUS
 62
3
100
AcDbLine
 10
1211.491686207102
 20
331.8065894450052
 30
0.0000000000000000
 11
1218.491686207102
 21
331.8065894450052
 31
0.0000000000000000
  0
LINE
  5
7C
100
AcDbEntity
  8
MAIN0
  6
CONTINUOUS
 62
3
100
AcDbLine
 10
71.49160314086453
 20
310.8065894450051
 30
0.0000000000000000
 11
71.49160314086453
 21
331.8065894450051
 31
0.0000000000000000
  0
LINE
  5
7D
100
AcDbEntity
  8
MAIN0
  6
CONTINUOUS
 62
3
100
AcDbLine
 10
71.49160314086453
 20
381.8065894450051
 30
0.0000000000000000
 11
71.49160314086453
 21
430.8065894450051
 31
0.0000000000000000
  0
LINE
  5
7E
100
AcDbEntity
  8
MAIN0
  6
CONTINUOUS
 62
3
100
AcDbLine
 10
232.4916031408645
 20
310.8065894450051
 30
0.0000000000000000
 11
232.4916031408645
 21
331.8065894450051
 31
0.0000000000000000
  0
LINE
  5
7F
100
AcDbEntity
  8
MAIN0
  6
CONTINUOUS
 62
3
100
AcDbLine
 10
232.4916031408645
 20
381.8065894450051
 30
0.0000000000000000
 11
232.4916031408645
 21
430.8065894450051
 31
0.0000000000000000
  0
LINE
  5
80
100
AcDbEntity
  8
MAIN0
  6
CONTINUOUS
 62
3
100
AcDbLine
 10
1218.491686207102
 20
310.8065894450052
 30
0.0000000000000000
 11
1218.491686207102
 21
331.8065894450052
 31
0.0000000000000000
  0
LINE
  5
81
100
AcDbEntity
  8
MAIN0
  6
CONTINUOUS
 62
3
100
AcDbLine
 10
1057.491686207102
 20
310.8065894450051
 30
0.0000000000000000
 11
1057.491686207102
 21
331.8065894450051
 31
0.0000000000000000
  0
LINE
  5
82
100
AcDbEntity
  8
MAIN0
  6
CONTINUOUS
 62
3
100
AcDbLine
 10
225.4916031408645
 20
381.8065894450051
 30
0.0000000000000000
 11
232.4916031408645
 21
381.8065894450051
 31
0.0000000000000000
  0
LINE
  5
83
100
AcDbEntity
  8
MAIN0
  6
CONTINUOUS
 62
3
100
AcDbLine
 10
324.7596375108551
 20
381.8065894450043
 30
0.0000000000000000
 11
779.7596375108560
 21
381.8065894450029
 31
0.0000000000000000
  0
LINE
  5
84
100
AcDbEntity
  8
MAIN0
  6
CONTINUOUS
 62
3
100
AcDbLine
 10
225.4916031408645
 20
331.8065894450051
 30
0.0000000000000000
 11
232.4916031408645
 21
331.8065894450051
 31
0.0000000000000000
  0
LINE
  5
85
100
AcDbEntity
  8
MAIN0
  6
CONTINUOUS
 62
3
100
AcDbLine
 10
324.7596375108550
 20
331.8065894450044
 30
0.0000000000000000
 11
779.7596375108560
 21
331.8065894450031
 31
0.0000000000000000
  0
CIRCLE
  5
86
100
AcDbEntity
  8
MAIN0
  6
CONTINUOUS
 62
3
100
AcDbCircle
 10
1137.991686207102
 20
388.8065894450050
 30
0.0000000000000000
 40
21.00000000000000
  0
CIRCLE
  5
87
100
AcDbEntity
  8
MAIN0
  6
CONTINUOUS
 62
3
100
AcDbCircle
 10
1137.991686207102
 20
388.8065894450050
 30
0.0000000000000000
 40
12.00000000000000
  0
LINE
  5
88
100
AcDbEntity
  8
MAIN0
  6
CONTINUOUS
 62
3
100
AcDbLine
 10
1140.991686207102
 20
400.4255394836273
 30
0.0000000000000000
 11
1140.991686207102
 21
409.5911991358315
 31
0.0000000000000000
  0
LINE
  5
89
100
AcDbEntity
  8
MAIN0
  6
CONTINUOUS
 62
3
100
AcDbLine
 10
1134.991686207102
 20
400.4255394836273
 30
0.0000000000000000
 11
1134.991686207102
 21
409.5911991358315
 31
0.0000000000000000
  0
LINE
  5
8A
100
AcDbEntity
  8
MAIN0
  6
CONTINUOUS
 62
3
100
AcDbLine
 10
1139.991686207102
 20
364.1375298759307
 30
0.0000000000000000
 11
1139.991686207102
 21
367.9020444846382
 31
0.0000000000000000
  0
LINE
  5
8B
100
AcDbEntity
  8
MAIN0
  6
CONTINUOUS
 62
3
100
AcDbLine
 10
1135.991686207102
 20
364.1375298759124
 30
0.0000000000000000
 11
1135.991686207102
 21
367.9020444846382
 31
0.0000000000000000
  0
LINE
  5
8C
100
AcDbEntity
  8
MAIN0
  6
CONTINUOUS
 62
3
100
AcDbLine
 10
192.4916031408645
 20
426.8065894450051
 30
0.0000000000000000
 11
192.4916031408645
 21
403.8065894450052
 31
0.0000000000000000
  0
LINE
  5
8D
100
AcDbEntity
  8
MAIN0
  6
CONTINUOUS
 62
3
100
AcDbLine
 10
111.4916031408645
 20
426.8065894450051
 30
0.0000000000000000
 11
111.4916031408645
 21
403.8065894450052
 31
0.0000000000000000
  0
LINE
  5
8E
100
AcDbEntity
  8
MAIN0
  6
CONTINUOUS
 62
3
100
AcDbLine
 10
200.9916031408645
 20
403.8065894450052
 30
0.0000000000000000
 11
200.9916031408645
 21
383.8065894450052
 31
0.0000000000000000
  0
LINE
  5
8F
100
AcDbEntity
  8
MAIN0
  6
CONTINUOUS
 62
3
100
AcDbLine
 10
102.9916031408645
 20
403.8065894450052
 30
0.0000000000000000
 11
102.9916031408645
 21
383.8065894450052
 31
0.0000000000000000
  0
LINE
  5
90
100
AcDbEntity
  8
MAIN0
  6
CONTINUOUS
 62
3
100
AcDbLine
 10
111.4916031408645
 20
403.8065894450051
 30
0.0000000000000000
 11
102.9916031408648
 21
403.8065894450051
 31
0.0000000000000000
  0
LINE
  5
91
100
AcDbEntity
  8
MAIN0
  6
CONTINUOUS
 62
3
100
AcDbLine
 10
200.9916031408645
 20
403.8065894450052
 30
0.0000000000000000
 11
192.4916031408645
 21
403.8065894450052
 31
0.0000000000000000
  0
LINE
  5
92
100
AcDbEntity
  8
MAIN0
  6
CONTINUOUS
 62
3
100
AcDbLine
 10
191.9916031408644
 20
383.8065894450050
 30
0.0000000000000000
 11
191.9916031408644
 21
371.8065894450050
 31
0.0000000000000000
  0
LINE
  5
93
100
AcDbEntity
  8
MAIN0
  6
CONTINUOUS
 62
3
100
AcDbLine
 10
111.9916031408645
 20
383.8065894450051
 30
0.0000000000000000
 11
111.9916031408645
 21
371.8065894450052
 31
0.0000000000000000
  0
LINE
  5
94
100
AcDbEntity
  8
MAIN0
  6
CONTINUOUS
 62
3
100
AcDbLine
 10
134.4768845151039
 20
350.8065894450051
 30
0.0000000000000000
 11
169.5063217666260
 21
350.8065894450051
 31
0.0000000000000000
  0
LINE
  5
95
100
AcDbEntity
  8
MAIN0
  6
CONTINUOUS
 62
3
100
AcDbLine
 10
173.7489624537454
 20
352.5639487578859
 30
0.0000000000000000
 11
191.9916031408646
 21
370.8065894450051
 31
0.0000000000000000
  0
LINE
  5
96
100
AcDbEntity
  8
MAIN0
  6
CONTINUOUS
 62
3
100
AcDbLine
 10
111.9916031408645
 20
370.8065894450057
 30
0.0000000000000000
 11
130.2342438279844
 21
352.5639487578858
 31
0.0000000000000000
  0
ARC
  5
97
100
AcDbEntity
  8
MAIN0
  6
CONTINUOUS
 62
3
100
AcDbCircle
 10
185.9916031408645
 20
371.8065894450051
 30
0.0000000000000000
 40
6.000000000000000
100
AcDbArc
 50
280.5842244229091
 51
359.9999999999934
  0
ARC
  5
98
100
AcDbEntity
  8
MAIN0
  6
CONTINUOUS
 62
3
100
AcDbCircle
 10
117.9916031408645
 20
371.8065894450052
 30
0.0000000000000000
 40
6.000000000000000
100
AcDbArc
 50
179.9999999999964
 51
259.4157755770859
  0
LINE
  5
99
100
AcDbEntity
  8
MAIN0
  6
CONTINUOUS
 62
3
100
AcDbLine
 10
102.9916031408645
 20
383.8065894450051
 30
0.0000000000000000
 11
111.9916031408645
 21
383.8065894450051
 31
0.0000000000000000
  0
LINE
  5
9A
100
AcDbEntity
  8
MAIN0
  6
CONTINUOUS
 62
3
100
AcDbLine
 10
191.9916031408645
 20
383.8065894450051
 30
0.0000000000000000
 11
200.9916031408644
 21
383.8065894450051
 31
0.0000000000000000
  0
ARC
  5
9B
100
AcDbEntity
  8
MAIN0
  6
CONTINUOUS
 62
3
100
AcDbCircle
 10
169.5063217666260
 20
356.8065894450051
 30
0.0000000000000000
 40
6.000000000000000
100
AcDbArc
 50
269.9999999999936
 51
314.9999999999931
  0
ARC
  5
9C
100
AcDbEntity
  8
MAIN0
  6
CONTINUOUS
 62
3
100
AcDbCircle
 10
134.4768845151039
 20
356.8065894450051
 30
0.0000000000000000
 40
6.000000000000000
100
AcDbArc
 50
224.9999999999950
 51
270.0000000005678
  0
LINE
  5
9D
100
AcDbEntity
  8
MAIN0
  6
CONTINUOUS
 62
3
100
AcDbLine
 10
177.9916031408645
 20
356.8065894450051
 30
0.0000000000000000
 11
125.9916031408652
 21
356.8065894450051
 31
0.0000000000000000
  0
LINE
  5
9E
100
AcDbEntity
  8
MAIN0
  6
CONTINUOUS
 62
3
100
AcDbLine
 10
855.7596375108550
 20
349.8065894450051
 30
0.0000000000000000
 11
848.7596375108550
 21
349.8065894450051
 31
0.0000000000000000
  0
LINE
  5
9F
100
AcDbEntity
  8
MAIN0
  6
CONTINUOUS
 62
3
100
AcDbLine
 10
855.7596375108550
 20
427.8065894450051
 30
0.0000000000000000
 11
848.7596375108550
 21
427.8065894450051
 31
0.0000000000000000
  0
LINE
  5
A0
100
AcDbEntity
  8
MAIN0
  6
CONTINUOUS
 62
3
100
AcDbLine
 10
846.7596375108386
 20
425.8065894450052
 30
0.0000000000000000
 11
828.7596375108549
 21
425.8065894450053
 31
0.0000000000000000
  0
LINE
  5
A1
100
AcDbEntity
  8
MAIN0
  6
CONTINUOUS
 62
3
100
AcDbLine
 10
846.7596375108712
 20
351.8065894450052
 30
0.0000000000000000
 11
828.7596375108549
 21
351.8065894450053
 31
0.0000000000000000
  0
LINE
  5
A2
100
AcDbEntity
  8
MAIN0
  6
CONTINUOUS
 62
3
100
AcDbLine
 10
878.2596375108553
 20
413.8065894450051
 30
0.0000000000000000
 11
855.7596375108550
 21
413.8065894450051
 31
0.0000000000000000
  0
LINE
  5
A3
100
AcDbEntity
  8
MAIN0
  6
CONTINUOUS
 62
3
100
AcDbLine
 10
878.2596375108553
 20
363.8065894450051
 30
0.0000000000000000
 11
855.7596375108550
 21
363.8065894450051
 31
0.0000000000000000
  0
LINE
  5
A4
100
AcDbEntity
  8
MAIN0
  6
CONTINUOUS
 62
3
100
AcDbLine
 10
846.7596375108391
 20
425.8065894450054
 30
0.0000000000000000
 11
848.7596375108551
 21
427.8065894450052
 31
0.0000000000000000
  0
LINE
  5
A5
100
AcDbEntity
  8
MAIN0
  6
CONTINUOUS
 62
3
100
AcDbLine
 10
846.7596375108717
 20
351.8065894450051
 30
0.0000000000000000
 11
848.7596375108557
 21
349.8065894450051
 31
0.0000000000000000
  0
LINE
  5
A6
100
AcDbEntity
  8
MAIN0
  6
CONTINUOUS
 62
3
100
AcDbLine
 10
846.7596375108381
 20
425.8065894450052
 30
0.0000000000000000
 11
846.7596375108724
 21
351.8065894450052
 31
0.0000000000000000
  0
LINE
  5
A7
100
AcDbEntity
  8
MAIN0
  6
CONTINUOUS
 62
3
100
AcDbLine
 10
828.7596375108547
 20
340.8065894445390
 30
0.0000000000000000
 11
828.7596375108549
 21
430.8065894445390
 31
0.0000000000000000
  0
LINE
  5
A8
100
AcDbEntity
  8
MAIN0
  6
CONTINUOUS
 62
3
100
AcDbLine
 10
878.2596375108552
 20
413.8065894450052
 30
0.0000000000000000
 11
878.2596375108550
 21
363.8065894450052
 31
0.0000000000000000
  0
LINE
  5
A9
100
AcDbEntity
  8
MAIN0
  6
CONTINUOUS
 62
3
100
AcDbLine
 10
855.7596375108547
 20
349.8065894450051
 30
0.0000000000000000
 11
855.7596375108549
 21
427.8065894450051
 31
0.0000000000000000
  0
LINE
  5
AA
100
AcDbEntity
  8
MAIN0
  6
CONTINUOUS
 62
3
100
AcDbLine
 10
848.7596375108547
 20
349.8065894450051
 30
0.0000000000000000
 11
848.7596375108549
 21
427.8065894450051
 31
0.0000000000000000
  0
DIMENSION
  5
B3
100
AcDbEntity
  8
MAIN0
  6
CONTINUOUS
 62
3
100
AcDbDimension
  2
*D0
 10
324.7596375108548
 20
205.5138322551930
 30
0.0000000000000000
 11
601.5096375108549
 21
206.0138322551930
 31
0.0000000000000000
 70
32
  3
MAIN001
100
AcDbAlignedDimension
 13
878.2596375108550
 23
363.8065894450052
 33
0.0000000000000000
 14
324.7596375108549
 24
310.8065894450051
 34
0.0000000000000000
100
AcDbRotatedDimension
1001
ACAD
1000
DSTYLE
1002
{
1070
   173
1070
     1
1070
     6
1000
_OPEN
1070
     7
1000
_OPEN
1070
    41
1040
6.000000
1002
}
  0
DIMENSION
  5
BD
100
AcDbEntity
  8
MAIN0
  6
CONTINUOUS
 62
3
100
AcDbDimension
  2
*D1
 10
429.6683579061395
 20
310.8065894450051
 30
0.0000000000000000
 11
428.1683579061395
 21
295.9601038139271
 31
0.0000000000000000
 70
160
  3
MAIN001
100
AcDbAlignedDimension
 13
460.7596375108549
 23
305.8065894450051
 33
0.0000000000000000
 14
324.7596375108551
 24
310.8065894450051
 34
0.0000000000000000
 50
90.00000000000000
100
AcDbRotatedDimension
1001
ACAD
1000
DSTYLE
1002
{
1070
   173
1070
     1
1070
     6
1000
_OPEN
1070
     7
1000
_OPEN
1070
    41
1040
6.000000
1070
   287
1070
     0
1002
}
  0
LINE
  5
BE
100
AcDbEntity
  8
MAIN0
  6
CONTINUOUS
 62
3
100
AcDbLine
 10
1144.991686207102
 20
384.7651375606783
 30
0.0000000000000000
 11
1144.991686207102
 21
392.8480413293332
 31
0.0000000000000000
  0
LINE
  5
BF
100
AcDbEntity
  8
MAIN0
  6
CONTINUOUS
 62
3
100
AcDbLine
 10
1130.991686207102
 20
384.7651375606772
 30
0.0000000000000000
 11
1130.991686207102
 21
392.8480413293323
 31
0.0000000000000000
  0
LINE
  5
C0
100
AcDbEntity
  8
MAIN0
  6
CONTINUOUS
 62
3
100
AcDbLine
 10
1130.991686207102
 20
392.8480413293324
 30
0.0000000000000000
 11
1137.991686207102
 21
396.8894932136605
 31
0.0000000000000000
  0
LINE
  5
C1
100
AcDbEntity
  8
MAIN0
  6
CONTINUOUS
 62
3
100
AcDbLine
 10
1137.991686207102
 20
380.7236856763502
 30
0.0000000000000000
 11
1144.991686207102
 21
384.7651375606782
 31
0.0000000000000000
  0
LINE
  5
C2
100
AcDbEntity
  8
MAIN0
  6
CONTINUOUS
 62
3
100
AcDbLine
 10
1137.991686207102
 20
396.8894932136605
 30
0.0000000000000000
 11
1144.991686207102
 21
392.8480413293333
 31
0.0000000000000000
  0
LINE
  5
C3
100
AcDbEntity
  8
MAIN0
  6
CONTINUOUS
 62
3
100
AcDbLine
 10
1130.991686207102
 20
384.7651375606772
 30
0.0000000000000000
 11
1137.991686207102
 21
380.7236856763502
 31
0.0000000000000000
  0
DIMENSION
  5
CC
100
AcDbEntity
  8
MAIN0
  6
CONTINUOUS
 62
3
100
AcDbDimension
  2
*D2
 10
72.24160314086453
 20
536.1065556952510
 30
0.0000000000000000
 11
151.9916031408645
 21
536.6065556952510
 31
0.0000000000000000
 70
32
  3
MAIN001
100
AcDbAlignedDimension
 13
231.7416031408645
 23
475.8065894450051
 33
0.0000000000000000
 14
72.24160314086453
 24
475.8065894450051
 34
0.0000000000000000
100
AcDbRotatedDimension
1001
ACAD
1000
DSTYLE
1002
{
1070
   173
1070
     1
1070
     6
1000
_OPEN
1070
     7
1000
_OPEN
1070
    41
1040
6.000000
1002
}
  0
DIMENSION
  5
D7
100
AcDbEntity
  8
MAIN0
  6
CONTINUOUS
 62
3
100
AcDbDimension
  2
*D3
 10
261.4076503724195
 20
310.8065894450051
 30
0.0000000000000000
 11
260.9076503724195
 21
321.3065894450051
 31
0.0000000000000000
 70
32
  3
MAIN001
100
AcDbAlignedDimension
 13
232.4916031408645
 23
331.8065894450051
 33
0.0000000000000000
 14
232.4916031408646
 24
310.8065894450051
 34
0.0000000000000000
 50
90.00000000000000
100
AcDbRotatedDimension
1001
ACAD
1000
DSTYLE
1002
{
1070
   173
1070
     1
1070
     6
1000
_OPEN
1070
     7
1000
_OPEN
1070
    41
1040
6.000000
1070
   287
1070
     0
1002
}
  0
DIMENSION
  5
E0
100
AcDbEntity
  8
MAIN0
  6
CONTINUOUS
 62
3
100
AcDbDimension
  2
*D4
 10
261.4076503724195
 20
331.8065894450051
 30
0.0000000000000000
 11
260.9076503724195
 21
356.8065894450051
 31
0.0000000000000000
 70
32
  3
MAIN001
100
AcDbAlignedDimension
 13
232.4916031408645
 23
381.8065894450051
 33
0.0000000000000000
 14
232.4916031408645
 24
331.8065894450051
 34
0.0000000000000000
 50
90.00000000000000
100
AcDbRotatedDimension
1001
ACAD
1000
DSTYLE
1002
{
1070
   173
1070
     1
1070
     6
1000
_OPEN
1070
     7
1000
_OPEN
1070
    41
1040
6.000000
1002
}
  0
DIMENSION
  5
E9
100
AcDbEntity
  8
MAIN0
  6
CONTINUOUS
 62
3
100
AcDbDimension
  2
*D5
 10
261.4076503724195
 20
381.8065894450051
 30
0.0000000000000000
 11
260.9076503724195
 21
406.3065894450051
 31
0.0000000000000000
 70
32
  3
MAIN001
100
AcDbAlignedDimension
 13
232.7916031408645
 23
430.8065894450051
 33
0.0000000000000000
 14
232.4916031408645
 24
381.8065894450051
 34
0.0000000000000000
 50
90.00000000000000
100
AcDbRotatedDimension
1001
ACAD
1000
DSTYLE
1002
{
1070
   173
1070
     1
1070
     6
1000
_OPEN
1070
     7
1000
_OPEN
1070
    41
1040
6.000000
1002
}
  0
DIMENSION
  5
F3
100
AcDbEntity
  8
MAIN0
  6
CONTINUOUS
 62
3
100
AcDbDimension
  2
*D6
 10
232.4916031408645
 20
360.3317761690303
 30
0.0000000000000000
 11
242.9578668641033
 21
361.8317761690303
 31
0.0000000000000000
 70
160
  3
MAIN001
100
AcDbAlignedDimension
 13
225.4916031408645
 23
381.8065894450052
 33
0.0000000000000000
 14
232.4916031408645
 24
331.8065894450051
 34
0.0000000000000000
100
AcDbRotatedDimension
1001
ACAD
1000
DSTYLE
1002
{
1070
   173
1070
     1
1070
     6
1000
_OPEN
1070
     7
1000
_OPEN
1070
    41
1040
6.000000
1070
   287
1070
     0
1002
}
  0
LINE
  5
F4
100
AcDbEntity
  8
MAIN0
  6
CONTINUOUS
 62
3
100
AcDbLine
 10
583.7596375108554
 20
475.8065894450051
 30
0.0000000000000000
 11
583.7596375108553
 21
415.0065894445393
 31
0.0000000000000000
  0
LINE
  5
F5
100
AcDbEntity
  8
MAIN0
  6
CONTINUOUS
 62
3
100
AcDbLine
 10
325.7596375108553
 20
475.8065894450051
 30
0.0000000000000000
 11
411.7596375108554
 21
475.8065894450052
 31
0.0000000000000000
  0
LINE
  5
F6
100
AcDbEntity
  8
MAIN0
  6
CONTINUOUS
 62
3
100
AcDbLine
 10
497.7596375108557
 20
475.8065894450051
 30
0.0000000000000000
 11
583.7596375108558
 21
475.8065894450052
 31
0.0000000000000000
  0
DIMENSION
  5
101
100
AcDbEntity
  8
MAIN0
  6
CONTINUOUS
 62
3
100
AcDbDimension
  2
*D7
 10
324.7596375108552
 20
527.8488193890076
 30
0.0000000000000000
 11
314.0782507842271
 21
529.3488193890076
 31
0.0000000000000000
 70
160
  3
MAIN001
100
AcDbAlignedDimension
 13
325.7596375108553
 23
475.8065894450050
 33
0.0000000000000000
 14
324.7596375108552
 24
430.8065894450051
 34
0.0000000000000000
100
AcDbRotatedDimension
1001
ACAD
1000
DSTYLE
1002
{
1070
   173
1070
     1
1070
     6
1000
_OPEN
1070
     7
1000
_OPEN
1070
    41
1040
6.000000
1070
   287
1070
     0
1002
}
  0
DIMENSION
  5
10A
100
AcDbEntity
  8
MAIN0
  6
CONTINUOUS
 62
3
100
AcDbDimension
  2
*D8
 10
325.7596375108552
 20
527.8488193890076
 30
0.0000000000000000
 11
368.7596375108553
 21
528.3488193890076
 31
0.0000000000000000
 70
32
  3
MAIN001
100
AcDbAlignedDimension
 13
411.7596375108554
 23
475.8065894450051
 33
0.0000000000000000
 14
325.7596375108553
 24
475.8065894450050
 34
0.0000000000000000
100
AcDbRotatedDimension
1001
ACAD
1000
DSTYLE
1002
{
1070
   173
1070
     1
1070
     6
1000
_OPEN
1070
     7
1000
_OPEN
1070
    41
1040
6.000000
1002
}
  0
DIMENSION
  5
113
100
AcDbEntity
  8
MAIN0
  6
CONTINUOUS
 62
3
100
AcDbDimension
  2
*D9
 10
411.7596375108554
 20
527.8488193890076
 30
0.0000000000000000
 11
466.4481208161420
 21
529.3488193890076
 31
0.0000000000000000
 70
160
  1
\A1;275
  3
MAIN001
100
AcDbAlignedDimension
 13
497.7596375108556
 23
475.8065894450051
 33
0.0000000000000000
 14
411.7596375108554
 24
475.8065894450051
 34
0.0000000000000000
100
AcDbRotatedDimension
1001
ACAD
1000
DSTYLE
1002
{
1070
   173
1070
     1
1070
     6
1000
_OPEN
1070
     7
1000
_OPEN
1070
    41
1040
6.000000
1002
}
  0
DIMENSION
  5
11C
100
AcDbEntity
  8
MAIN0
  6
CONTINUOUS
 62
1
100
AcDbDimension
  2
*D10
 10
497.7596375108556
 20
527.8488193890076
 30
0.0000000000000000
 11
540.7596375108556
 21
528.3488193890076
 31
0.0000000000000000
 70
32
  3
MAIN001
100
AcDbAlignedDimension
 13
583.7596375108556
 23
475.8065894450051
 33
0.0000000000000000
 14
497.7596375108556
 24
475.8065894450051
 34
0.0000000000000000
100
AcDbRotatedDimension
1001
ACAD
1000
DSTYLE
1002
{
1070
   173
1070
     1
1070
     6
1000
_OPEN
1070
     7
1000
_OPEN
1070
    41
1040
6.000000
1002
}
  0
MTEXT
  5
11D
100
AcDbEntity
  8
MAIN0
  6
CONTINUOUS
 62
3
100
AcDbMText
 10
430.6195803965236
 20
538.7596054736476
 30
0.0000000000000000
 40
9.299999713897705
 41
0.0000000000000000
 71
     1
 72
     1
  1
{\H0.90x;{MAX}}
 11
1.000000000000000
 21
0.0000000000000000
 31
0.0000000000000000
  7
STANDARD
  0
DIMENSION
  5
128
100
AcDbEntity
  8
MAIN0
  6
CONTINUOUS
 62
3
100
AcDbDimension
  2
*D11
 10
460.7596375108549
 20
291.5496123824393
 30
0.0000000000000000
 11
490.2568591937009
 21
293.0496123824393
 31
0.0000000000000000
 70
160
  3
MAIN001
100
AcDbAlignedDimension
 13
478.7596375108549
 23
305.8065894450051
 33
0.0000000000000000
 14
460.7596375108549
 24
305.8065894450051
 34
0.0000000000000000
100
AcDbRotatedDimension
1001
ACAD
1000
DSTYLE
1002
{
1070
   173
1070
     1
1070
     6
1000
_OPEN
1070
     7
1000
_OPEN
1070
    41
1040
6.000000
1070
   287
1070
     0
1002
}
  0
CIRCLE
  5
129
100
AcDbEntity
  8
MAIN0
  6
CONTINUOUS
 62
3
100
AcDbCircle
 10
1104.991686205021
 20
388.8065894450049
 30
0.0000000000000000
 40
4.250000000000000
  0
LINE
  5
12A
100
AcDbEntity
  8
MAIN0
  6
CONTINUOUS
 62
3
100
AcDbLine
 10
1104.991686205021
 20
391.1159905217636
 30
0.0000000000000000
 11
1106.991686205021
 21
389.9612899833844
 31
0.0000000000000000
  0
LINE
  5
12B
100
AcDbEntity
  8
MAIN0
  6
CONTINUOUS
 62
3
100
AcDbLine
 10
1106.991686205021
 20
389.9612899833841
 30
0.0000000000000000
 11
1106.991686205021
 21
387.6518889066257
 31
0.0000000000000000
  0
LINE
  5
12C
100
AcDbEntity
  8
MAIN0
  6
CONTINUOUS
 62
3
100
AcDbLine
 10
1106.991686205021
 20
387.6518889066258
 30
0.0000000000000000
 11
1104.991686205021
 21
386.4971883682466
 31
0.0000000000000000
  0
LINE
  5
12D
100
AcDbEntity
  8
MAIN0
  6
CONTINUOUS
 62
3
100
AcDbLine
 10
1104.991686205021
 20
386.4971883682466
 30
0.0000000000000000
 11
1102.991686205021
 21
387.6518889066258
 31
0.0000000000000000
  0
LINE
  5
12E
100
AcDbEntity
  8
MAIN0
  6
CONTINUOUS
 62
3
100
AcDbLine
 10
1102.991686205021
 20
387.6518889066257
 30
0.0000000000000000
 11
1102.991686205021
 21
389.9612899833841
 31
0.0000000000000000
  0
LINE
  5
12F
100
AcDbEntity
  8
MAIN0
  6
CONTINUOUS
 62
3
100
AcDbLine
 10
1102.991686205021
 20
389.9612899833842
 30
0.0000000000000000
 11
1104.991686205021
 21
391.1159905217635
 31
0.0000000000000000
  0
LINE
  5
130
100
AcDbEntity
  8
MAIN0
  6
CENTER
 62
3
100
AcDbLine
 10
1104.991686206989
 20
398.7623186717366
 30
0.0000000000000000
 11
1104.991686206989
 21
379.5108353981718
 31
0.0000000000000000
  0
CIRCLE
  5
131
100
AcDbEntity
  8
MAIN0
  6
CONTINUOUS
 62
3
100
AcDbCircle
 10
1137.991686206989
 20
388.8065894445391
 30
0.0000000000000000
 40
39.00000000000000
  0
CIRCLE
  5
132
100
AcDbEntity
  8
MAIN0
  6
CONTINUOUS
 62
3
100
AcDbCircle
 10
1137.991686206989
 20
388.8065894445391
 30
0.0000000000000000
 40
24.75000000000000
  0
LINE
  5
133
100
AcDbEntity
  8
MAIN0
  6
CONTINUOUS
 62
3
100
AcDbLine
 10
1057.491686207102
 20
412.7065894450051
 30
0.0000000000000000
 11
1057.491686207102
 21
381.8065894450051
 31
0.0000000000000000
  0
LINE
  5
134
100
AcDbEntity
  8
MAIN0
  6
CONTINUOUS
 62
3
100
AcDbLine
 10
1063.260401871137
 20
430.8065894450051
 30
0.0000000000000000
 11
1064.491686207102
 21
430.8065894450051
 31
0.0000000000000000
  0
LINE
  5
135
100
AcDbEntity
  8
MAIN0
  6
CONTINUOUS
 62
3
100
AcDbLine
 10
787.7596375108565
 20
419.3065894450051
 30
0.0000000000000000
 11
828.7596375108549
 21
419.3065894450051
 31
0.0000000000000000
  0
LINE
  5
136
100
AcDbEntity
  8
MAIN0
  6
CONTINUOUS
 62
3
100
AcDbLine
 10
1058.091686206989
 20
419.3065894450050
 30
0.0000000000000000
 11
1057.491686206989
 21
419.9065894450050
 31
0.0000000000000000
  0
LINE
  5
137
100
AcDbEntity
  8
MAIN0
  6
CONTINUOUS
 62
3
100
AcDbLine
 10
1058.091686207102
 20
413.3065894450050
 30
0.0000000000000000
 11
1057.491686207102
 21
412.7065894450050
 31
0.0000000000000000
  0
LINE
  5
138
100
AcDbEntity
  8
MAIN0
  6
CONTINUOUS
 62
3
100
AcDbLine
 10
1212.722970542841
 20
430.8065894450052
 30
0.0000000000000000
 11
1211.491686206876
 21
430.8065894450052
 31
0.0000000000000000
  0
LINE
  5
139
100
AcDbEntity
  8
MAIN0
  6
CONTINUOUS
 62
3
100
AcDbLine
 10
1218.491686206876
 20
413.3065894450054
 30
0.0000000000000000
 11
1218.491686206876
 21
381.8065894450053
 31
0.0000000000000000
  0
LINE
  5
13A
100
AcDbEntity
  8
MAIN0
  6
CONTINUOUS
 62
3
100
AcDbLine
 10
1217.491686206410
 20
419.3065894445394
 30
0.0000000000000000
 11
1213.491686206989
 21
419.3065894445393
 31
0.0000000000000000
  0
LINE
  5
13B
100
AcDbEntity
  8
MAIN0
  6
CONTINUOUS
 62
3
100
AcDbLine
 10
1217.891686206876
 20
413.3065894450053
 30
0.0000000000000000
 11
1213.491686206989
 21
413.3065894450053
 31
0.0000000000000000
  0
LINE
  5
13C
100
AcDbEntity
  8
MAIN0
  6
CONTINUOUS
 62
3
100
AcDbLine
 10
1217.891686206876
 20
413.3065894450052
 30
0.0000000000000000
 11
1218.491686206876
 21
412.7065894450053
 31
0.0000000000000000
  0
LINE
  5
13D
100
AcDbEntity
  8
MAIN0
  6
CONTINUOUS
 62
3
100
AcDbLine
 10
1214.491686206989
 20
418.2065894445391
 30
0.0000000000000000
 11
1214.491686206989
 21
417.0065894445392
 31
0.0000000000000000
  0
LINE
  5
13E
100
AcDbEntity
  8
MAIN0
  6
CONTINUOUS
 62
3
100
AcDbLine
 10
1061.491686206989
 20
418.2065894445391
 30
0.0000000000000000
 11
1061.491686206989
 21
417.0065894445392
 31
0.0000000000000000
  0
LINE
  5
13F
100
AcDbEntity
  8
MAIN0
  6
CONTINUOUS
 62
3
100
AcDbLine
 10
1057.191686206989
 20
430.8065894445391
 30
0.0000000000000000
 11
1057.191686206989
 21
418.6065894445392
 31
0.0000000000000000
  0
LINE
  5
140
100
AcDbEntity
  8
MAIN0
  6
CONTINUOUS
 62
3
100
AcDbLine
 10
1218.791686206989
 20
430.8065894445393
 30
0.0000000000000000
 11
1218.791686206989
 21
418.6065894445392
 31
0.0000000000000000
  0
LINE
  5
141
100
AcDbEntity
  8
MAIN0
  6
CONTINUOUS
 62
3
100
AcDbLine
 10
1057.591686139867
 20
418.2065894445391
 30
0.0000000000000000
 11
1061.491686206989
 21
418.2065894445391
 31
0.0000000000000000
  0
LINE
  5
142
100
AcDbEntity
  8
MAIN0
  6
CONTINUOUS
 62
3
100
AcDbLine
 10
1214.491686206989
 20
418.2065894445391
 30
0.0000000000000000
 11
1218.391686042224
 21
418.2065894445391
 31
0.0000000000000000
  0
LINE
  5
143
100
AcDbEntity
  8
MAIN0
  6
CONTINUOUS
 62
3
100
AcDbLine
 10
1214.491686206989
 20
417.0065894445392
 30
0.0000000000000000
 11
1218.591685888750
 21
417.0065894445392
 31
0.0000000000000000
  0
LINE
  5
144
100
AcDbEntity
  8
MAIN0
  6
CONTINUOUS
 62
3
100
AcDbLine
 10
1063.260401870665
 20
430.8065894445392
 30
0.0000000000000000
 11
1212.722970543313
 21
430.8065894445392
 31
0.0000000000000000
  0
ARC
  5
145
100
AcDbEntity
  8
MAIN0
  6
CONTINUOUS
 62
3
100
AcDbCircle
 10
1218.391686206989
 20
418.6065894445392
 30
0.0000000000000000
 40
0.4000000000000000
100
AcDbArc
 50
270.0000000005678
 51
359.9999999999934
  0
ARC
  5
146
100
AcDbEntity
  8
MAIN0
  6
CONTINUOUS
 62
3
100
AcDbCircle
 10
1218.591686206989
 20
418.4065894445391
 30
0.0000000000000000
 40
1.400000000000000
100
AcDbArc
 50
270.0000000005678
 51
359.9999999999934
  0
ARC
  5
147
100
AcDbEntity
  8
MAIN0
  6
CONTINUOUS
 62
3
100
AcDbCircle
 10
1218.591686206989
 20
430.6065894445392
 30
0.0000000000000000
 40
1.400000000000000
100
AcDbArc
 50
0.0000000000000000
 51
89.99999999999885
  0
ARC
  5
148
100
AcDbEntity
  8
MAIN0
  6
CONTINUOUS
 62
3
100
AcDbCircle
 10
1057.391686206989
 20
430.6065894445392
 30
0.0000000000000000
 40
1.400000000000000
100
AcDbArc
 50
89.99999999999696
 51
179.9999999999964
  0
ARC
  5
149
100
AcDbEntity
  8
MAIN0
  6
CONTINUOUS
 62
3
100
AcDbCircle
 10
1057.391686206989
 20
418.4065894445391
 30
0.0000000000000000
 40
1.400000000000000
100
AcDbArc
 50
179.9999999999964
 51
269.9999999999963
  0
ARC
  5
14A
100
AcDbEntity
  8
MAIN0
  6
CONTINUOUS
 62
3
100
AcDbCircle
 10
1057.591686206989
 20
418.6065894445392
 30
0.0000000000000000
 40
0.4000000000000000
100
AcDbArc
 50
179.9999999999964
 51
270.0000000005678
  0
LINE
  5
14B
100
AcDbEntity
  8
MAIN0
  6
CONTINUOUS
 62
3
100
AcDbLine
 10
1219.991686206989
 20
430.6065894445392
 30
0.0000000000000000
 11
1219.991686206989
 21
418.4065895741980
 31
0.0000000000000000
  0
LINE
  5
14C
100
AcDbEntity
  8
MAIN0
  6
CONTINUOUS
 62
3
100
AcDbLine
 10
1055.991686206989
 20
430.6065894445391
 30
0.0000000000000000
 11
1055.991686206989
 21
418.4065896019039
 31
0.0000000000000000
  0
LINE
  5
14D
100
AcDbEntity
  8
MAIN0
  6
CONTINUOUS
 62
3
100
AcDbLine
 10
1218.791686206989
 20
424.8221452247896
 30
0.0000000000000000
 11
1212.722970543313
 21
430.8065894445392
 31
0.0000000000000000
  0
LINE
  5
14E
100
AcDbEntity
  8
MAIN0
  6
CONTINUOUS
 62
3
100
AcDbLine
 10
1057.191686206989
 20
424.8221452247894
 30
0.0000000000000000
 11
1063.260401870665
 21
430.8065894445389
 31
0.0000000000000000
  0
LINE
  5
14F
100
AcDbEntity
  8
MAIN0
  6
CONTINUOUS
 62
3
100
AcDbLine
 10
1054.191686206989
 20
442.0066300905943
 30
0.0000000000000000
 11
1221.791686206989
 21
442.0066300905943
 31
0.0000000000000000
  0
LINE
  5
150
100
AcDbEntity
  8
MAIN0
  6
CONTINUOUS
 62
3
100
AcDbLine
 10
779.7596375108553
 20
412.3450652169437
 30
0.0000000000000000
 11
809.7596375108553
 21
412.3450652170199
 31
0.0000000000000000
  0
LINE
  5
151
100
AcDbEntity
  8
MAIN0
  6
CONTINUOUS
 62
3
100
AcDbLine
 10
809.7596375108551
 20
412.3450652170199
 30
0.0000000000000000
 11
809.7596375108551
 21
340.8065894445390
 31
0.0000000000000000
  0
LINE
  5
152
100
AcDbEntity
  8
MAIN0
  6
CONTINUOUS
 62
3
100
AcDbLine
 10
736.7596375108552
 20
417.0065894450051
 30
0.0000000000000000
 11
787.7596375108552
 21
417.0065894450051
 31
0.0000000000000000
  0
LINE
  5
153
100
AcDbEntity
  8
MAIN0
  6
CONTINUOUS
 62
3
100
AcDbLine
 10
1057.391686206989
 20
417.0065894445392
 30
0.0000000000000000
 11
1061.491686206989
 21
417.0065894445392
 31
0.0000000000000000
  0
LINE
  5
154
100
AcDbEntity
  8
MAIN0
  6
CONTINUOUS
 62
3
100
AcDbLine
 10
736.7596375108552
 20
432.0065894450051
 30
0.0000000000000000
 11
787.7596375108552
 21
432.0065894450051
 31
0.0000000000000000
  0
LINE
  5
155
100
AcDbEntity
  8
MAIN0
  6
CONTINUOUS
 62
3
100
AcDbLine
 10
682.7596375108552
 20
442.0065894450051
 30
0.0000000000000000
 11
736.7596375108553
 21
442.0065894450051
 31
0.0000000000000000
  0
LINE
  5
156
100
AcDbEntity
  8
MAIN0
  6
CONTINUOUS
 62
3
100
AcDbLine
 10
583.7596375108554
 20
452.0065894450051
 30
0.0000000000000000
 11
682.7596375108552
 21
452.0065894450051
 31
0.0000000000000000
  0
LINE
  5
157
100
AcDbEntity
  8
MAIN0
  6
CONTINUOUS
 62
3
100
AcDbLine
 10
787.7596375108552
 20
432.0065894450051
 30
0.0000000000000000
 11
787.7596375108552
 21
417.0065894450051
 31
0.0000000000000000
  0
LINE
  5
158
100
AcDbEntity
  8
MAIN0
  6
CONTINUOUS
 62
3
100
AcDbLine
 10
736.7596375108553
 20
442.0065894450051
 30
0.0000000000000000
 11
736.7596375108552
 21
415.0065894445393
 31
0.0000000000000000
  0
LINE
  5
159
100
AcDbEntity
  8
MAIN0
  6
CONTINUOUS
 62
3
100
AcDbLine
 10
779.7596375108551
 20
310.8065894450051
 30
0.0000000000000000
 11
779.7596375108551
 21
417.0065894450051
 31
0.0000000000000000
  0
LINE
  5
15A
100
AcDbEntity
  8
MAIN0
  6
CONTINUOUS
 62
3
100
AcDbLine
 10
382.7596375108552
 20
430.8065894450051
 30
0.0000000000000000
 11
583.7596375108554
 21
430.8065894450051
 31
0.0000000000000000
  0
DIMENSION
  5
163
100
AcDbEntity
  8
MAIN0
  6
CONTINUOUS
 62
3
100
AcDbDimension
  2
*D12
 10
1052.991686206989
 20
529.0343983016110
 30
0.0000000000000000
 11
1137.991686206989
 21
529.5343983016110
 31
0.0000000000000000
 70
32
  3
MAIN001
100
AcDbAlignedDimension
 13
1222.991686206989
 23
451.0065892615930
 33
0.0000000000000000
 14
1052.991686206989
 24
451.0065894445393
 34
0.0000000000000000
100
AcDbRotatedDimension
1001
ACAD
1000
DSTYLE
1002
{
1070
   173
1070
     1
1070
     6
1000
_OPEN
1070
     7
1000
_OPEN
1070
    41
1040
6.000000
1002
}
  0
LINE
  5
164
100
AcDbEntity
  8
MAIN0
  6
CONTINUOUS
 62
3
100
AcDbLine
 10
779.7596375108551
 20
412.3450652169437
 30
0.0000000000000000
 11
828.7596375108547
 21
412.3450652170681
 31
0.0000000000000000
  0
LINE
  5
165
100
AcDbEntity
  8
MAIN0
  6
CONTINUOUS
 62
3
100
AcDbLine
 10
787.7596375108552
 20
423.8065894454346
 30
0.0000000000000000
 11
828.7596375108548
 21
423.8065894453811
 31
0.0000000000000000
  0
LINE
  5
166
100
AcDbEntity
  8
MAIN0
  6
CONTINUOUS
 62
3
100
AcDbLine
 10
110.4916031408645
 20
430.0065894450051
 30
0.0000000000000000
 11
193.4916031408645
 21
430.0065894450051
 31
0.0000000000000000
  0
LINE
  5
167
100
AcDbEntity
  8
MAIN0
  6
CONTINUOUS
 62
3
100
AcDbLine
 10
779.7596375108551
 20
350.8065894449444
 30
0.0000000000000000
 11
805.7369848242411
 21
350.8065894448815
 31
0.0000000000000000
  0
LINE
  5
168
100
AcDbEntity
  8
MAIN0
  6
CONTINUOUS
 62
3
100
AcDbLine
 10
589.7596375108551
 20
413.3065894450051
 30
0.0000000000000000
 11
589.7596375108551
 21
415.0065894445393
 31
0.0000000000000000
  0
LINE
  5
169
100
AcDbEntity
  8
MAIN0
  6
CONTINUOUS
 62
3
100
AcDbLine
 10
589.7596375108551
 20
413.3065894450051
 30
0.0000000000000000
 11
779.7596375108551
 21
413.3065894450051
 31
0.0000000000000000
  0
LINE
  5
16A
100
AcDbEntity
  8
MAIN0
  6
CONTINUOUS
 62
3
100
AcDbLine
 10
1058.091686207102
 20
413.3065894450051
 30
0.0000000000000000
 11
1062.491686206989
 21
413.3065894450051
 31
0.0000000000000000
  0
LINE
  5
16B
100
AcDbEntity
  8
MAIN0
  6
CONTINUOUS
 62
3
100
AcDbLine
 10
193.4916031408645
 20
430.8065894450051
 30
0.0000000000000000
 11
193.4916031408645
 21
426.8065894450051
 31
0.0000000000000000
  0
LINE
  5
16C
100
AcDbEntity
  8
MAIN0
  6
CONTINUOUS
 62
3
100
AcDbLine
 10
110.4916031408645
 20
430.8065894450051
 30
0.0000000000000000
 11
110.4916031408645
 21
426.8065894450051
 31
0.0000000000000000
  0
LINE
  5
16D
100
AcDbEntity
  8
MAIN0
  6
CONTINUOUS
 62
3
100
AcDbLine
 10
110.4916031408645
 20
426.8065894450051
 30
0.0000000000000000
 11
193.4916031408645
 21
426.8065894450051
 31
0.0000000000000000
  0
DIMENSION
  5
176
100
AcDbEntity
  8
MAIN0
  6
CONTINUOUS
 62
3
100
AcDbDimension
  2
*D13
 10
409.7596375108550
 20
358.3632937445687
 30
0.0000000000000000
 11
552.2596375108550
 21
358.8632937445687
 31
0.0000000000000000
 70
32
  3
MAIN001
100
AcDbAlignedDimension
 13
694.7596375108550
 23
393.8065894450051
 33
0.0000000000000000
 14
409.7596375108550
 24
393.8065894450051
 34
0.0000000000000000
100
AcDbRotatedDimension
1001
ACAD
1000
DSTYLE
1002
{
1070
   173
1070
     1
1070
     6
1000
_OPEN
1070
     7
1000
_OPEN
1070
    41
1040
6.000000
1002
}
  0
DIMENSION
  5
17E
100
AcDbEntity
  8
MAIN0
  6
CONTINUOUS
 62
3
100
AcDbDimension
  2
*D14
 10
324.7596375108552
 20
358.4932380340845
 30
0.0000000000000000
 11
367.2596375108551
 21
358.9932380340845
 31
0.0000000000000000
 70
32
  3
MAIN001
100
AcDbAlignedDimension
 13
409.7596375108550
 23
393.8065894450051
 33
0.0000000000000000
 14
324.7596375108552
 24
430.8065894450051
 34
0.0000000000000000
100
AcDbRotatedDimension
1001
ACAD
1000
DSTYLE
1002
{
1070
   173
1070
     1
1070
     6
1000
_OPEN
1070
     7
1000
_OPEN
1070
    41
1040
6.000000
1002
}
  0
LINE
  5
17F
100
AcDbEntity
  8
MAIN0
  6
CENTER
 62
3
100
AcDbLine
 10
358.4212868129114
 20
465.8065894450052
 30
0.0000000000000000
 11
377.9003266538437
 21
465.8065894450052
 31
0.0000000000000000
  0
LINE
  5
180
100
AcDbEntity
  8
MAIN0
  6
CENTER
 62
3
100
AcDbLine
 10
359.1494779440762
 20
445.8065894450051
 30
0.0000000000000000
 11
377.3541798331974
 21
445.8065894450051
 31
0.0000000000000000
  0
DIMENSION
  5
189
100
AcDbEntity
  8
MAIN0
  6
CONTINUOUS
 62
3
100
AcDbDimension
  2
*D15
 10
399.2942346537741
 20
475.8065894450052
 30
0.0000000000000000
 11
397.7942346537741
 21
486.8437693526932
 31
0.0000000000000000
 70
160
  3
MAIN001
100
AcDbAlignedDimension
 13
377.9003266538437
 23
465.8065894450052
 33
0.0000000000000000
 14
325.7596375108552
 24
475.8065894450051
 34
0.0000000000000000
 50
90.00000000000000
100
AcDbRotatedDimension
1001
ACAD
1000
DSTYLE
1002
{
1070
   173
1070
     1
1070
     6
1000
_DOT
1070
     7
1000
_OPEN
1070
    41
1040
6.000000
1070
   287
1070
     0
1002
}
  0
DIMENSION
  5
193
100
AcDbEntity
  8
MAIN0
  6
CONTINUOUS
 62
3
100
AcDbDimension
  2
*D16
 10
399.2942346537741
 20
465.8065894450051
 30
0.0000000000000000
 11
398.7942346537741
 21
455.8065894450051
 31
0.0000000000000000
 70
32
  3
MAIN001
100
AcDbAlignedDimension
 13
377.3541798331974
 23
445.8065894450051
 33
0.0000000000000000
 14
377.9003266538437
 24
465.8065894450052
 34
0.0000000000000000
 50
90.00000000000000
100
AcDbRotatedDimension
1001
ACAD
1000
DSTYLE
1002
{
1070
   173
1070
     1
1070
     6
1000
_OPEN
1070
     7
1000
_DOT
1070
    41
1040
6.000000
1070
   287
1070
     0
1002
}
  0
LEADER
  5
194
100
AcDbEntity
  8
MAIN0
  6
CONTINUOUS
 62
3
100
AcDbLeader
  3
MAIN001
 73
     0
 75
     1
 40
9.299999713897705
 41
107.6690031757354
 76
     3
 10
366.7822104151347
 20
470.3989507201129
 30
0.0000000000000000
 10
324.1141272616516
 20
557.4701090033904
 30
0.0000000000000000
 10
318.3351274290214
 20
557.4701090033904
 30
0.0000000000000000
340
195
213
0.0000000000000000
223
-1.500000000000000
233
0.0000000000000000
1001
ACAD
1000
DSTYLE
1002
{
1070
   147
1040
0.0
1070
    77
1070
     1
1070
   173
1070
     1
1070
     6
1000
_OPEN
1070
     7
1000
_OPEN
1002
}
  0
MTEXT
  5
195
102
{ACAD_REACTORS
330
194
102
}
100
AcDbEntity
  8
MAIN0
  6
CONTINUOUS
 62
3
100
AcDbMText
 10
210.6661242532860
 20
568.2701087172881
 30
0.0000000000000000
 40
9.299999713897705
 41
0.0000000000000000
 71
     1
 72
     1
  1
{\H0.93x;{2x2-M10 深さ20\P        DEPTH}}
 11
1.000000000000000
 21
0.0000000000000000
 31
0.0000000000000000
  7
KNJYOKO
  0
LEADER
  5
196
100
AcDbEntity
  8
MAIN0
  6
CONTINUOUS
 62
3
100
AcDbLeader
  3
MAIN001
 73
     0
 74
     0
 75
     1
 40
9.299999713897705
 41
57.45100171661375
 76
     3
 10
696.5911716904790
 20
398.4590600304972
 30
0.0000000000000000
 10
732.1631607842908
 20
488.8191716612757
 30
0.0000000000000000
 10
737.9401606169209
 20
488.8191716612757
 30
0.0000000000000000
340
197
213
0.0000000000000000
223
-1.500000000000000
233
0.0000000000000000
1001
ACAD
1000
DSTYLE
1002
{
1070
   147
1040
0.0
1070
    77
1070
     1
1070
   173
1070
     1
1070
     6
1000
_OPEN
1070
     7
1000
_OPEN
1002
}
  0
MTEXT
  5
197
102
{ACAD_REACTORS
330
196
102
}
100
AcDbEntity
  8
MAIN0
  6
CONTINUOUS
 62
3
100
AcDbMText
 10
737.9411606169209
 20
499.6191713751734
 30
0.0000000000000000
 40
9.299999713897705
 41
0.0000000000000000
 71
     1
 72
     1
  1
{\H0.92x;{2x2-M10}}
 11
1.000000000000000
 21
0.0000000000000000
 31
0.0000000000000000
  7
STANDARD
  0
LINE
  5
198
100
AcDbEntity
  8
MAIN0
  6
CONTINUOUS
 62
3
100
AcDbLine
 10
1046.491686207102
 20
345.8065894450050
 30
0.0000000000000000
 11
1046.491686207102
 21
360.2065894450050
 31
0.0000000000000000
  0
LINE
  5
199
100
AcDbEntity
  8
MAIN0
  6
CONTINUOUS
 62
3
100
AcDbLine
 10
1046.491686207102
 20
360.2065894450050
 30
0.0000000000000000
 11
1043.720404914992
 21
361.8065894450051
 31
0.0000000000000000
  0
LINE
  5
19A
100
AcDbEntity
  8
MAIN0
  6
CONTINUOUS
 62
3
100
AcDbLine
 10
1043.720404914992
 20
361.8065894450050
 30
0.0000000000000000
 11
1025.262967499212
 21
361.8065894450050
 31
0.0000000000000000
  0
LINE
  5
19B
100
AcDbEntity
  8
MAIN0
  6
CONTINUOUS
 62
3
100
AcDbLine
 10
1025.262967499212
 20
361.8065894450050
 30
0.0000000000000000
 11
1022.491686207102
 21
360.2065894450050
 31
0.0000000000000000
  0
LINE
  5
19C
100
AcDbEntity
  8
MAIN0
  6
CONTINUOUS
 62
3
100
AcDbLine
 10
1022.491686207102
 20
360.2065894450050
 30
0.0000000000000000
 11
1022.491686207102
 21
345.8065894450050
 31
0.0000000000000000
  0
LINE
  5
19D
100
AcDbEntity
  8
MAIN0
  6
CONTINUOUS
 62
3
100
AcDbLine
 10
1046.491686207102
 20
360.2065894450050
 30
0.0000000000000000
 11
1022.491686207102
 21
360.2065894450050
 31
0.0000000000000000
  0
LINE
  5
19E
100
AcDbEntity
  8
MAIN0
  6
CONTINUOUS
 62
3
100
AcDbLine
 10
1042.491686207102
 20
320.8065894450051
 30
0.0000000000000000
 11
1042.491686207102
 21
299.8065894450050
 31
0.0000000000000000
  0
LINE
  5
19F
100
AcDbEntity
  8
MAIN0
  6
CONTINUOUS
 62
3
100
AcDbLine
 10
1026.491686207102
 20
299.8065894450050
 30
0.0000000000000000
 11
1026.491686207102
 21
320.8065894450051
 31
0.0000000000000000
  0
LINE
  5
1A0
100
AcDbEntity
  8
MAIN0
  6
CONTINUOUS
 62
3
100
AcDbLine
 10
1041.409154207102
 20
320.8065894450051
 30
0.0000000000000000
 11
1041.409154207102
 21
299.8065894450050
 31
0.0000000000000000
  0
LINE
  5
1A1
100
AcDbEntity
  8
MAIN0
  6
CONTINUOUS
 62
3
100
AcDbLine
 10
1027.574218207102
 20
320.8065894450051
 30
0.0000000000000000
 11
1027.574218207102
 21
299.8065894450050
 31
0.0000000000000000
  0
LINE
  5
1A2
100
AcDbEntity
  8
MAIN0
  6
CENTER
 62
3
100
AcDbLine
 10
1054.557648027115
 20
666.6341618309331
 30
0.0000000000000000
 11
939.3497122620943
 21
666.6341618309331
 31
0.0000000000000000
  0
DIMENSION
  5
1AC
100
AcDbEntity
  8
MAIN0
  6
CONTINUOUS
 62
3
100
AcDbDimension
  2
*D17
 10
549.1778909661150
 20
452.0065894450051
 30
0.0000000000000000
 11
548.6778909661150
 21
441.4065894450051
 31
0.0000000000000000
 70
32
  3
MAIN001
100
AcDbAlignedDimension
 13
583.7596375108554
 23
430.8065894450051
 33
0.0000000000000000
 14
583.7596375108554
 24
452.0065894450051
 34
0.0000000000000000
 50
90.00000000000000
100
AcDbRotatedDimension
1001
ACAD
1000
DSTYLE
1002
{
1070
   173
1070
     1
1070
     6
1000
_OPEN
1070
     7
1000
_OPEN
1070
    41
1040
6.000000
1070
   287
1070
     0
1002
}
  0
LINE
  5
1AD
100
AcDbEntity
  8
MAIN0
  6
CENTER
 62
3
100
AcDbLine
 10
151.9916031408645
 20
303.6873829349739
 30
0.0000000000000000
 11
151.9916031408645
 21
481.7273867700304
 31
0.0000000000000000
  0
LINE
  5
1AE
100
AcDbEntity
  8
MAIN0
  6
CONTINUOUS
 62
3
100
AcDbLine
 10
236.9916031408645
 20
415.0065894450051
 30
0.0000000000000000
 11
236.9916031408645
 21
452.0065894450051
 31
0.0000000000000000
  0
LINE
  5
1AF
100
AcDbEntity
  8
MAIN0
  6
CONTINUOUS
 62
3
100
AcDbLine
 10
66.99160314086453
 20
415.0065894450051
 30
0.0000000000000000
 11
66.99160314086453
 21
452.0065894450051
 31
0.0000000000000000
  0
LINE
  5
1B0
100
AcDbEntity
  8
MAIN0
  6
CONTINUOUS
 62
3
100
AcDbLine
 10
66.99160314086453
 20
452.0065894450051
 30
0.0000000000000000
 11
72.24160314086453
 21
452.0065894450051
 31
0.0000000000000000
  0
LINE
  5
1B1
100
AcDbEntity
  8
MAIN0
  6
CONTINUOUS
 62
3
100
AcDbLine
 10
231.7416031408644
 20
452.0065894450051
 30
0.0000000000000000
 11
236.9916031408645
 21
452.0065894450051
 31
0.0000000000000000
  0
LINE
  5
1B2
100
AcDbEntity
  8
MAIN0
  6
CONTINUOUS
 62
3
100
AcDbLine
 10
235.7916031408645
 20
415.0065894450051
 30
0.0000000000000000
 11
235.7916031408645
 21
432.0065894450051
 31
0.0000000000000000
  0
LINE
  5
1B3
100
AcDbEntity
  8
MAIN0
  6
CONTINUOUS
 62
3
100
AcDbLine
 10
235.4916031408645
 20
416.0065894450051
 30
0.0000000000000000
 11
235.4916031408645
 21
432.0065894450051
 31
0.0000000000000000
  0
LINE
  5
1B4
100
AcDbEntity
  8
MAIN0
  6
CONTINUOUS
 62
3
100
AcDbLine
 10
234.2916031408645
 20
416.2065894450051
 30
0.0000000000000000
 11
234.2916031408645
 21
432.0065894450051
 31
0.0000000000000000
  0
LINE
  5
1B5
100
AcDbEntity
  8
MAIN0
  6
CONTINUOUS
 62
3
100
AcDbLine
 10
231.7416031408644
 20
432.0065894450051
 30
0.0000000000000000
 11
235.7916031408645
 21
432.0065894450051
 31
0.0000000000000000
  0
LINE
  5
1B6
100
AcDbEntity
  8
MAIN0
  6
CONTINUOUS
 62
3
100
AcDbLine
 10
232.7916031408645
 20
418.2065894450051
 30
0.0000000000000000
 11
232.7916031408645
 21
430.8065894450051
 31
0.0000000000000000
  0
LINE
  5
1B7
100
AcDbEntity
  8
MAIN0
  6
CONTINUOUS
 62
3
100
AcDbLine
 10
233.9916031408645
 20
418.0065894450051
 30
0.0000000000000000
 11
233.9916031408645
 21
432.0065894450051
 31
0.0000000000000000
  0
LINE
  5
1B8
100
AcDbEntity
  8
MAIN0
  6
CONTINUOUS
 62
3
100
AcDbLine
 10
232.4916031408645
 20
416.2065894450051
 30
0.0000000000000000
 11
234.2916031408645
 21
416.2065894450051
 31
0.0000000000000000
  0
LINE
  5
1B9
100
AcDbEntity
  8
MAIN0
  6
CONTINUOUS
 62
3
100
AcDbLine
 10
232.4916031408645
 20
417.0065894450051
 30
0.0000000000000000
 11
232.9916031408645
 21
417.0065894450051
 31
0.0000000000000000
  0
ARC
  5
1BA
100
AcDbEntity
  8
MAIN0
  6
CONTINUOUS
 62
3
100
AcDbCircle
 10
232.9916031408645
 20
418.0065894450051
 30
0.0000000000000000
 40
1.000000000000000
100
AcDbArc
 50
270.0000000000000
 51
360.0000000000000
  0
LINE
  5
1BB
100
AcDbEntity
  8
MAIN0
  6
CONTINUOUS
 62
3
100
AcDbLine
 10
232.4916031408645
 20
418.2065894450051
 30
0.0000000000000000
 11
232.7916031408645
 21
418.2065894450051
 31
0.0000000000000000
  0
LINE
  5
1BC
100
AcDbEntity
  8
MAIN0
  6
CONTINUOUS
 62
3
100
AcDbLine
 10
232.4916031408645
 20
415.0065894450051
 30
0.0000000000000000
 11
234.4916031408645
 21
415.0065894450051
 31
0.0000000000000000
  0
LINE
  5
1BD
100
AcDbEntity
  8
MAIN0
  6
CONTINUOUS
 62
3
100
AcDbLine
 10
235.7916031408645
 20
415.0065894450051
 30
0.0000000000000000
 11
236.9916031408645
 21
415.0065894450051
 31
0.0000000000000000
  0
ARC
  5
1BE
100
AcDbEntity
  8
MAIN0
  6
CONTINUOUS
 62
3
100
AcDbCircle
 10
234.4916031408645
 20
416.0065894450051
 30
0.0000000000000000
 40
1.000000000000000
100
AcDbArc
 50
270.0000000000000
 51
360.0000000000000
  0
LINE
  5
1BF
100
AcDbEntity
  8
MAIN0
  6
CONTINUOUS
 62
3
100
AcDbLine
 10
68.19160314086457
 20
415.0065894450051
 30
0.0000000000000000
 11
68.19160314086457
 21
432.0065894450051
 31
0.0000000000000000
  0
LINE
  5
1C0
100
AcDbEntity
  8
MAIN0
  6
CONTINUOUS
 62
3
100
AcDbLine
 10
68.49160314086453
 20
416.0065894450051
 30
0.0000000000000000
 11
68.49160314086453
 21
432.0065894450051
 31
0.0000000000000000
  0
LINE
  5
1C1
100
AcDbEntity
  8
MAIN0
  6
CONTINUOUS
 62
3
100
AcDbLine
 10
69.69160314086457
 20
416.2065894450051
 30
0.0000000000000000
 11
69.69160314086457
 21
432.0065894450051
 31
0.0000000000000000
  0
LINE
  5
1C2
100
AcDbEntity
  8
MAIN0
  6
CONTINUOUS
 62
3
100
AcDbLine
 10
72.24160314086453
 20
432.0065894450051
 30
0.0000000000000000
 11
68.19160314086457
 21
432.0065894450051
 31
0.0000000000000000
  0
LINE
  5
1C3
100
AcDbEntity
  8
MAIN0
  6
CONTINUOUS
 62
3
100
AcDbLine
 10
71.19160314086457
 20
418.2065894450051
 30
0.0000000000000000
 11
71.19160314086457
 21
430.8065894450051
 31
0.0000000000000000
  0
LINE
  5
1C4
100
AcDbEntity
  8
MAIN0
  6
CONTINUOUS
 62
3
100
AcDbLine
 10
69.99160314086453
 20
418.0065894450051
 30
0.0000000000000000
 11
69.99160314086453
 21
432.0065894450051
 31
0.0000000000000000
  0
LINE
  5
1C5
100
AcDbEntity
  8
MAIN0
  6
CONTINUOUS
 62
3
100
AcDbLine
 10
71.49160314086453
 20
416.2065894450051
 30
0.0000000000000000
 11
69.69160314086457
 21
416.2065894450051
 31
0.0000000000000000
  0
LINE
  5
1C6
100
AcDbEntity
  8
MAIN0
  6
CONTINUOUS
 62
3
100
AcDbLine
 10
71.49160314086453
 20
417.0065894450051
 30
0.0000000000000000
 11
70.99160314086453
 21
417.0065894450051
 31
0.0000000000000000
  0
ARC
  5
1C7
100
AcDbEntity
  8
MAIN0
  6
CONTINUOUS
 62
3
100
AcDbCircle
 10
70.99160314086453
 20
418.0065894450051
 30
0.0000000000000000
 40
1.000000000000000
100
AcDbArc
 50
180.0000000000000
 51
270.0000000000000
  0
LINE
  5
1C8
100
AcDbEntity
  8
MAIN0
  6
CONTINUOUS
 62
3
100
AcDbLine
 10
71.49160314086453
 20
418.2065894450051
 30
0.0000000000000000
 11
71.19160314086457
 21
418.2065894450051
 31
0.0000000000000000
  0
LINE
  5
1C9
100
AcDbEntity
  8
MAIN0
  6
CONTINUOUS
 62
3
100
AcDbLine
 10
71.49160314086453
 20
415.0065894450051
 30
0.0000000000000000
 11
69.49160314086453
 21
415.0065894450051
 31
0.0000000000000000
  0
LINE
  5
1CA
100
AcDbEntity
  8
MAIN0
  6
CONTINUOUS
 62
3
100
AcDbLine
 10
68.19160314086457
 20
415.0065894450051
 30
0.0000000000000000
 11
66.99160314086453
 21
415.0065894450051
 31
0.0000000000000000
  0
ARC
  5
1CB
100
AcDbEntity
  8
MAIN0
  6
CONTINUOUS
 62
3
100
AcDbCircle
 10
69.49160314086453
 20
416.0065894450051
 30
0.0000000000000000
 40
1.000000000000000
100
AcDbArc
 50
180.0000000000000
 51
270.0000000000000
  0
LINE
  5
1CC
100
AcDbEntity
  8
MAIN0
  6
CENTER
 62
3
100
AcDbLine
 10
694.7596375098431
 20
410.9135468838351
 30
0.0000000000000000
 11
694.7596375099197
 21
385.0787845003627
 31
0.0000000000000000
  0
LINE
  5
1CD
100
AcDbEntity
  8
MAIN0
  6
CENTER
 62
3
100
AcDbLine
 10
409.7596375109644
 20
402.6934079426056
 30
0.0000000000000000
 11
409.7596375109962
 21
385.0787845003906
 31
0.0000000000000000
  0
LINE
  5
1CE
100
AcDbEntity
  8
MAIN0
  6
CENTER
 62
3
100
AcDbLine
 10
401.8172070387515
 20
393.8065894445101
 30
0.0000000000000000
 11
417.3767817468141
 21
393.8065894445443
 31
0.0000000000000000
  0
LINE
  5
1CF
100
AcDbEntity
  8
MAIN0
  6
CENTER
 62
3
100
AcDbLine
 10
686.2931852463538
 20
393.8065894451368
 30
0.0000000000000000
 11
702.4399131359027
 21
393.8065894451723
 31
0.0000000000000000
  0
DIMENSION
  5
1DA
100
AcDbEntity
  8
MAIN0
  6
CONTINUOUS
 62
3
100
AcDbDimension
  2
*D18
 10
1130.991686207102
 20
502.4714598619525
 30
0.0000000000000000
 11
1137.991686207102
 21
502.9714598619525
 31
0.0000000000000000
 70
32
  3
MAIN001
100
AcDbAlignedDimension
 13
1144.991686207102
 23
392.8480413293332
 33
0.0000000000000000
 14
1130.991686207102
 24
392.8480413293323
 34
0.0000000000000000
100
AcDbRotatedDimension
1001
ACAD
1000
DSTYLE
1002
{
1070
   173
1070
     1
1070
     6
1000
_OPEN
1070
     7
1000
_OPEN
1070
    41
1040
6.000000
1070
   287
1070
     0
1002
}
  0
LINE
  5
1DB
100
AcDbEntity
  8
MAIN0
  6
CENTER
 62
3
100
AcDbLine
 10
368.7596375108553
 20
475.8065894450052
 30
0.0000000000000000
 11
368.7596375108552
 21
436.5518422306807
 31
0.0000000000000000
  0
LINE
  5
1DC
100
AcDbEntity
  8
MAIN0
  6
PHANTOM
 62
3
100
AcDbLine
 10
1055.491686207101
 20
310.8065894450050
 30
0.0000000000000000
 11
969.2208880894175
 21
310.8065894450051
 31
0.0000000000000000
  0
CIRCLE
  5
1DD
100
AcDbEntity
  8
MAIN0
  6
CONTINUOUS
 62
3
100
AcDbCircle
 10
393.7596375108561
 20
797.3650964154213
 30
0.0000000000000000
 40
11.50000000000000
  0
CIRCLE
  5
1DE
100
AcDbEntity
  8
MAIN0
  6
CONTINUOUS
 62
3
100
AcDbCircle
 10
343.7596375100972
 20
797.3650964151964
 30
0.0000000000000000
 40
11.50000000000000
  0
CIRCLE
  5
1DF
100
AcDbEntity
  8
MAIN0
  6
CONTINUOUS
 62
3
100
AcDbCircle
 10
343.7596375100555
 20
673.3650964142003
 30
0.0000000000000000
 40
11.50000000000000
  0
CIRCLE
  5
1E0
100
AcDbEntity
  8
MAIN0
  6
CONTINUOUS
 62
3
100
AcDbCircle
 10
393.7596375109035
 20
673.3650964142000
 30
0.0000000000000000
 40
11.50000000000000
  0
CIRCLE
  5
1E1
100
AcDbEntity
  8
MAIN0
  6
HIDDEN
 62
3
100
AcDbCircle
 10
565.7596375100316
 20
763.3650964139979
 30
0.0000000000000000
 40
10.50000000000000
  0
LINE
  5
1E2
100
AcDbEntity
  8
MAIN0
  6
HIDDEN
 62
3
100
AcDbLine
 10
565.7596375100317
 20
770.2932996442735
 30
0.0000000000000000
 11
559.7596375100318
 21
766.8291980291358
 31
0.0000000000000000
  0
LINE
  5
1E3
100
AcDbEntity
  8
MAIN0
  6
HIDDEN
 62
3
100
AcDbLine
 10
559.7596375100316
 20
766.8291980291356
 30
0.0000000000000000
 11
559.7596375100316
 21
759.9009947988602
 31
0.0000000000000000
  0
LINE
  5
1E4
100
AcDbEntity
  8
MAIN0
  6
HIDDEN
 62
3
100
AcDbLine
 10
559.7596375100314
 20
759.9009947988602
 30
0.0000000000000000
 11
565.7596375100316
 21
756.4368931837223
 31
0.0000000000000000
  0
LINE
  5
1E5
100
AcDbEntity
  8
MAIN0
  6
HIDDEN
 62
3
100
AcDbLine
 10
565.7596375100318
 20
756.4368931837227
 30
0.0000000000000000
 11
571.7596375100317
 21
759.9009947988604
 31
0.0000000000000000
  0
LINE
  5
1E6
100
AcDbEntity
  8
MAIN0
  6
HIDDEN
 62
3
100
AcDbLine
 10
571.7596375100316
 20
759.9009947988602
 30
0.0000000000000000
 11
571.7596375100316
 21
766.8291980291356
 31
0.0000000000000000
  0
LINE
  5
1E7
100
AcDbEntity
  8
MAIN0
  6
HIDDEN
 62
3
100
AcDbLine
 10
571.7596375100316
 20
766.8291980291355
 30
0.0000000000000000
 11
565.7596375100314
 21
770.2932996442733
 31
0.0000000000000000
  0
CIRCLE
  5
1E8
100
AcDbEntity
  8
MAIN0
  6
CONTINUOUS
 62
3
100
AcDbCircle
 10
565.7596375100316
 20
763.3650964139979
 30
0.0000000000000000
 40
11.50000000000000
  0
CIRCLE
  5
1E9
100
AcDbEntity
  8
MAIN0
  6
HIDDEN
 62
3
100
AcDbCircle
 10
515.7596375111161
 20
763.3650964142130
 30
0.0000000000000000
 40
10.50000000000000
  0
LINE
  5
1EA
100
AcDbEntity
  8
MAIN0
  6
HIDDEN
 62
3
100
AcDbLine
 10
515.7596375111164
 20
770.2932996444888
 30
0.0000000000000000
 11
509.7596375111164
 21
766.8291980293510
 31
0.0000000000000000
  0
LINE
  5
1EB
100
AcDbEntity
  8
MAIN0
  6
HIDDEN
 62
3
100
AcDbLine
 10
509.7596375111161
 20
766.8291980293507
 30
0.0000000000000000
 11
509.7596375111161
 21
759.9009947990753
 31
0.0000000000000000
  0
LINE
  5
1EC
100
AcDbEntity
  8
MAIN0
  6
HIDDEN
 62
3
100
AcDbLine
 10
509.7596375111160
 20
759.9009947990753
 30
0.0000000000000000
 11
515.7596375111160
 21
756.4368931839374
 31
0.0000000000000000
  0
LINE
  5
1ED
100
AcDbEntity
  8
MAIN0
  6
HIDDEN
 62
3
100
AcDbLine
 10
515.7596375111164
 20
756.4368931839377
 30
0.0000000000000000
 11
521.7596375111164
 21
759.9009947990755
 31
0.0000000000000000
  0
LINE
  5
1EE
100
AcDbEntity
  8
MAIN0
  6
HIDDEN
 62
3
100
AcDbLine
 10
521.7596375111161
 20
759.9009947990753
 30
0.0000000000000000
 11
521.7596375111161
 21
766.8291980293507
 31
0.0000000000000000
  0
LINE
  5
1EF
100
AcDbEntity
  8
MAIN0
  6
HIDDEN
 62
3
100
AcDbLine
 10
521.7596375111160
 20
766.8291980293507
 30
0.0000000000000000
 11
515.7596375111160
 21
770.2932996444883
 31
0.0000000000000000
  0
CIRCLE
  5
1F0
100
AcDbEntity
  8
MAIN0
  6
CONTINUOUS
 62
3
100
AcDbCircle
 10
515.7596375111161
 20
763.3650964142130
 30
0.0000000000000000
 40
11.50000000000000
  0
CIRCLE
  5
1F1
100
AcDbEntity
  8
MAIN0
  6
HIDDEN
 62
3
100
AcDbCircle
 10
515.7596375112413
 20
707.3650964152978
 30
0.0000000000000000
 40
10.50000000000000
  0
LINE
  5
1F2
100
AcDbEntity
  8
MAIN0
  6
HIDDEN
 62
3
100
AcDbLine
 10
515.7596375112414
 20
714.2932996455734
 30
0.0000000000000000
 11
509.7596375112415
 21
710.8291980304357
 31
0.0000000000000000
  0
LINE
  5
1F3
100
AcDbEntity
  8
MAIN0
  6
HIDDEN
 62
3
100
AcDbLine
 10
509.7596375112413
 20
710.8291980304355
 30
0.0000000000000000
 11
509.7596375112413
 21
703.9009948001601
 31
0.0000000000000000
  0
LINE
  5
1F4
100
AcDbEntity
  8
MAIN0
  6
HIDDEN
 62
3
100
AcDbLine
 10
509.7596375112412
 20
703.9009948001601
 30
0.0000000000000000
 11
515.7596375112412
 21
700.4368931850222
 31
0.0000000000000000
  0
LINE
  5
1F5
100
AcDbEntity
  8
MAIN0
  6
HIDDEN
 62
3
100
AcDbLine
 10
515.7596375112414
 20
700.4368931850225
 30
0.0000000000000000
 11
521.7596375112414
 21
703.9009948001603
 31
0.0000000000000000
  0
LINE
  5
1F6
100
AcDbEntity
  8
MAIN0
  6
HIDDEN
 62
3
100
AcDbLine
 10
521.7596375112413
 20
703.9009948001601
 30
0.0000000000000000
 11
521.7596375112413
 21
710.8291980304355
 31
0.0000000000000000
  0
LINE
  5
1F7
100
AcDbEntity
  8
MAIN0
  6
HIDDEN
 62
3
100
AcDbLine
 10
521.7596375112412
 20
710.8291980304355
 30
0.0000000000000000
 11
515.7596375112412
 21
714.2932996455733
 31
0.0000000000000000
  0
CIRCLE
  5
1F8
100
AcDbEntity
  8
MAIN0
  6
CONTINUOUS
 62
3
100
AcDbCircle
 10
515.7596375112413
 20
707.3650964152978
 30
0.0000000000000000
 40
11.50000000000000
  0
CIRCLE
  5
1F9
100
AcDbEntity
  8
MAIN0
  6
HIDDEN
 62
3
100
AcDbCircle
 10
565.7596375100017
 20
707.3650964152978
 30
0.0000000000000000
 40
10.50000000000000
  0
LINE
  5
1FA
100
AcDbEntity
  8
MAIN0
  6
HIDDEN
 62
3
100
AcDbLine
 10
565.7596375100018
 20
714.2932996455734
 30
0.0000000000000000
 11
559.7596375100019
 21
710.8291980304356
 31
0.0000000000000000
  0
LINE
  5
1FB
100
AcDbEntity
  8
MAIN0
  6
HIDDEN
 62
3
100
AcDbLine
 10
559.7596375100017
 20
710.8291980304355
 30
0.0000000000000000
 11
559.7596375100017
 21
703.9009948001601
 31
0.0000000000000000
  0
LINE
  5
1FC
100
AcDbEntity
  8
MAIN0
  6
HIDDEN
 62
3
100
AcDbLine
 10
559.7596375100015
 20
703.9009948001601
 30
0.0000000000000000
 11
565.7596375100015
 21
700.4368931850223
 31
0.0000000000000000
  0
LINE
  5
1FD
100
AcDbEntity
  8
MAIN0
  6
HIDDEN
 62
3
100
AcDbLine
 10
565.7596375100018
 20
700.4368931850225
 30
0.0000000000000000
 11
571.7596375100018
 21
703.9009948001603
 31
0.0000000000000000
  0
LINE
  5
1FE
100
AcDbEntity
  8
MAIN0
  6
HIDDEN
 62
3
100
AcDbLine
 10
571.7596375100017
 20
703.9009948001601
 30
0.0000000000000000
 11
571.7596375100017
 21
710.8291980304355
 31
0.0000000000000000
  0
LINE
  5
1FF
100
AcDbEntity
  8
MAIN0
  6
HIDDEN
 62
3
100
AcDbLine
 10
571.7596375100015
 20
710.8291980304355
 30
0.0000000000000000
 11
565.7596375100015
 21
714.2932996455731
 31
0.0000000000000000
  0
CIRCLE
  5
200
100
AcDbEntity
  8
MAIN0
  6
CONTINUOUS
 62
3
100
AcDbCircle
 10
565.7596375100017
 20
707.3650964152978
 30
0.0000000000000000
 40
11.50000000000000
  0
LEADER
  5
201
100
AcDbEntity
  8
MAIN0
  6
CONTINUOUS
 62
3
100
AcDbLeader
  3
MAIN001
 73
     0
 75
     1
 40
9.299999713897705
 41
65.69900004023313
 76
     3
 10
366.2031105833994
 20
738.4414855433427
 30
0.0000000000000000
 10
281.1122898706763
 20
821.1419909642369
 30
0.0000000000000000
 10
275.7532900286583
 20
821.1419909642369
 30
0.0000000000000000
340
202
213
0.0000000000000000
223
-1.500000000000000
233
0.0000000000000000
1001
ACAD
1000
DSTYLE
1002
{
1070
   147
1040
0.0
1070
    77
1070
     1
1070
   173
1070
     1
1070
     6
1000
_OPEN
1070
     7
1000
_OPEN
1002
}
  0
MTEXT
  5
202
102
{ACAD_REACTORS
330
201
102
}
100
AcDbEntity
  8
MAIN0
  6
CONTINUOUS
 62
3
100
AcDbMText
 10
210.0542899884252
 20
831.9419906781346
 30
0.0000000000000000
 40
9.299999713897705
 41
0.0000000000000000
 71
     1
 72
     1
  1
{\H0.70x;{（吊りボルト用）\P（EYE BOLT）\P}
 11
1.000000000000000
 21
0.0000000000000000
 31
0.0000000000000000
  7
KNJYOKO
  0
MTEXT
  5
203
100
AcDbEntity
  8
MAIN0
  6
CONTINUOUS
 62
3
100
AcDbMText
 10
821.4113272063183
 20
190.7521569544048
 30
0.0000000000000000
 40
9.299999713897705
 41
0.0000000000000000
 71
     1
 72
     1
  1
{\H0.94x;{(押さえ金具４セット付属)}}
 11
1.000000000000000
 21
0.0000000000000000
 31
0.0000000000000000
  7
KNJYOKO
  0
MTEXT
  5
204
100
AcDbEntity
  8
MAIN0
  6
CONTINUOUS
 62
3
100
AcDbMText
 10
822.5112810412837
 20
174.4754933036882
 30
0.0000000000000000
 40
9.000000000000000
 41
0.0000000000000000
 71
     1
 72
     1
  1
{\H0.63x;{(CLAMPING PARTS  ACCESSARY 4 PAIR)}}
 11
1.000000000000000
 21
0.0000000000000000
 31
0.0000000000000000
  7
STANDARD
  0
LEADER
  5
205
100
AcDbEntity
  8
MAIN0
  6
CONTINUOUS
 62
3
100
AcDbLeader
  3
MAIN001
 73
     0
 75
     1
 40
9.000000000000000
 41
83.69899831914893
 76
     3
 10
1028.135487513444
 20
353.3381898201709
 30
0.0000000000000000
 10
977.3796104919159
 20
239.2457796076291
 30
0.0000000000000000
 10
972.3386104919158
 20
239.2457796076291
 30
0.0000000000000000
340
206
213
0.0000000000000000
223
-1.500000000000000
233
0.0000000000000000
1001
ACAD
1000
DSTYLE
1002
{
1070
   147
1040
0.0
1070
    77
1070
     1
1070
   173
1070
     1
1070
     6
1000
_DOT
1070
     7
1000
_DOT
1002
}
  0
MTEXT
  5
206
102
{ACAD_REACTORS
330
205
102
}
100
AcDbEntity
  8
MAIN0
  6
CONTINUOUS
 62
3
100
AcDbMText
 10
888.6396121727669
 20
249.7457796076291
 30
0.0000000000000000
 40
9.000000000000000
 41
0.0000000000000000
 71
     1
 72
     1
  1
{\H0.60x;{六角穴付ボルト　M16×65\PHEX,SOCKET HEAD\PCAP SCREW}}
 11
1.000000000000000
 21
0.0000000000000000
 31
0.0000000000000000
  7
KNJYOKO
  0
DIMENSION
  5
211
100
AcDbEntity
  8
MAIN0
  6
CONTINUOUS
 62
3
100
AcDbDimension
  2
*D19
 10
912.0383817193489
 20
692.3412313991432
 30
0.0000000000000000
 11
919.5383817193452
 21
692.8412313991432
 31
0.0000000000000000
 70
32
  3
MAIN001
100
AcDbAlignedDimension
 13
927.0383817193415
 23
451.2341618309329
 33
0.0000000000000000
 14
912.0383817193489
 24
441.6341618309331
 34
0.0000000000000000
100
AcDbRotatedDimension
1001
ACAD
1000
DSTYLE
1002
{
1070
   173
1070
     1
1070
     6
1000
_OPEN
1070
     7
1000
_OPEN
1070
    41
1040
6.000000
1070
   287
1070
     0
1002
}
  0
DIMENSION
  5
21A
100
AcDbEntity
  8
MAIN0
  6
CONTINUOUS
 62
3
100
AcDbDimension
  2
*D20
 10
927.0383817193415
 20
692.3412313991432
 30
0.0000000000000000
 11
945.5383817194279
 21
692.8412313991432
 31
0.0000000000000000
 70
32
  3
MAIN001
100
AcDbAlignedDimension
 13
964.0383817195143
 23
654.6341618309355
 33
0.0000000000000000
 14
927.0383817193415
 24
451.2341618309329
 34
0.0000000000000000
100
AcDbRotatedDimension
1001
ACAD
1000
DSTYLE
1002
{
1070
   173
1070
     1
1070
     6
1000
_OPEN
1070
     7
1000
_OPEN
1070
    41
1040
6.000000
1002
}
  0
DIMENSION
  5
223
100
AcDbEntity
  8
MAIN0
  6
CONTINUOUS
 62
3
100
AcDbDimension
  2
*D21
 10
964.0383817195143
 20
692.3412313991432
 30
0.0000000000000000
 11
1011.538381719520
 21
692.8412313991432
 31
0.0000000000000000
 70
32
  3
MAIN001
100
AcDbAlignedDimension
 13
1059.038381719526
 23
666.6341618309331
 33
0.0000000000000000
 14
964.0383817195143
 24
654.6341618309355
 34
0.0000000000000000
100
AcDbRotatedDimension
1001
ACAD
1000
DSTYLE
1002
{
1070
   173
1070
     1
1070
     6
1000
_OPEN
1070
     7
1000
_OPEN
1070
    41
1040
6.000000
1002
}
  0
DIMENSION
  5
22C
100
AcDbEntity
  8
MAIN0
  6
CONTINUOUS
 62
3
100
AcDbDimension
  2
*D22
 10
912.0383817193489
 20
710.3161623612184
 30
0.0000000000000000
 11
985.5383817194376
 21
710.8161623612184
 31
0.0000000000000000
 70
32
  3
MAIN001
100
AcDbAlignedDimension
 13
1059.038381719526
 23
666.6341618309331
 33
0.0000000000000000
 14
912.0383817193489
 24
441.6341618309331
 34
0.0000000000000000
100
AcDbRotatedDimension
1001
ACAD
1000
DSTYLE
1002
{
1070
   173
1070
     1
1070
     6
1000
_OPEN
1070
     7
1000
_OPEN
1070
    41
1040
6.000000
1002
}
  0
DIMENSION
  5
235
100
AcDbEntity
  8
MAIN0
  6
CONTINUOUS
 62
3
100
AcDbDimension
  2
*D23
 10
986.4916862071021
 20
254.8410262183304
 30
0.0000000000000000
 11
1021.991686207102
 21
255.3410262183304
 31
0.0000000000000000
 70
32
  3
MAIN001
100
AcDbAlignedDimension
 13
1057.491686207102
 23
310.8065894450051
 33
0.0000000000000000
 14
986.4916862071021
 24
340.8065894450050
 34
0.0000000000000000
100
AcDbRotatedDimension
1001
ACAD
1000
DSTYLE
1002
{
1070
   173
1070
     1
1070
     6
1000
_OPEN
1070
     7
1000
_OPEN
1070
    41
1040
6.000000
1002
}
  0
DIMENSION
  5
23E
100
AcDbEntity
  8
MAIN0
  6
CONTINUOUS
 62
3
100
AcDbDimension
  2
*D24
 10
1057.491686207102
 20
254.8410262183304
 30
0.0000000000000000
 11
1137.991686207102
 21
255.3410262183304
 31
0.0000000000000000
 70
32
  3
MAIN001
100
AcDbAlignedDimension
 13
1218.491686207102
 23
310.8065894450052
 33
0.0000000000000000
 14
1057.491686207102
 24
310.8065894450051
 34
0.0000000000000000
100
AcDbRotatedDimension
1001
ACAD
1000
DSTYLE
1002
{
1070
   173
1070
     1
1070
     6
1000
_OPEN
1070
     7
1000
_OPEN
1070
    41
1040
6.000000
1002
}
  0
INSERT
  5
246
100
AcDbEntity
  8
MAIN0
  6
CONTINUOUS
 62
3
100
AcDbBlockReference
  2
D25
 10
1137.991686206989
 20
297.1902425350953
 30
0.0000000000000000
 50
0.0000000000000000
  0
LINE
  5
247
100
AcDbEntity
  8
MAIN0
  6
CENTER
 62
3
100
AcDbLine
 10
469.7596375108549
 20
298.1048644163893
 30
0.0000000000000000
 11
469.7596375108549
 21
320.2920137058381
 31
0.0000000000000000
  0
DIMENSION
  5
250
100
AcDbEntity
  8
MAIN0
  6
CONTINUOUS
 62
3
100
AcDbDimension
  2
*D26
 10
324.7596375108549
 20
229.6038541752175
 30
0.0000000000000000
 11
397.2596375108549
 21
230.1038541752175
 31
0.0000000000000000
 70
32
  3
MAIN001
100
AcDbAlignedDimension
 13
469.7596375108549
 23
298.1048644163893
 33
0.0000000000000000
 14
324.7596375108549
 24
310.8065894450051
 34
0.0000000000000000
100
AcDbRotatedDimension
1001
ACAD
1000
DSTYLE
1002
{
1070
   173
1070
     1
1070
     6
1000
_OPEN
1070
     7
1000
_OPEN
1070
    41
1040
6.000000
1002
}
  0
DIMENSION
  5
259
100
AcDbEntity
  8
MAIN0
  6
CONTINUOUS
 62
3
100
AcDbDimension
  2
*D27
 10
469.7596375108549
 20
229.6038541752175
 30
0.0000000000000000
 11
674.0096375108549
 21
230.1038541752175
 31
0.0000000000000000
 70
32
  3
MAIN001
100
AcDbAlignedDimension
 13
878.2596375108550
 23
363.8065894450052
 33
0.0000000000000000
 14
469.7596375108549
 24
298.1048644163893
 34
0.0000000000000000
100
AcDbRotatedDimension
1001
ACAD
1000
DSTYLE
1002
{
1070
   173
1070
     1
1070
     6
1000
_OPEN
1070
     7
1000
_OPEN
1070
    41
1040
6.000000
1002
}
  0
DIMENSION
  5
262
100
AcDbEntity
  8
MAIN0
  6
CONTINUOUS
 62
3
100
AcDbDimension
  2
*D28
 10
411.7596375108552
 20
276.6367478921781
 30
0.0000000000000000
 11
440.7596375108551
 21
277.1367478921781
 31
0.0000000000000000
 70
32
  3
MAIN001
100
AcDbAlignedDimension
 13
469.7596375108549
 23
298.1048644163893
 33
0.0000000000000000
 14
411.7596375108552
 24
430.8065894450051
 34
0.0000000000000000
100
AcDbRotatedDimension
1001
ACAD
1000
DSTYLE
1002
{
1070
   173
1070
     1
1070
     6
1000
_OPEN
1070
     7
1000
_OPEN
1070
    41
1040
6.000000
1002
}
  0
DIMENSION
  5
26B
100
AcDbEntity
  8
MAIN0
  6
CONTINUOUS
 62
3
100
AcDbDimension
  2
*D29
 10
469.7596375108549
 20
276.6367478921781
 30
0.0000000000000000
 11
624.7596375108550
 21
277.1367478921781
 31
0.0000000000000000
 70
32
  3
MAIN001
100
AcDbAlignedDimension
 13
779.7596375108551
 23
310.8065894450051
 33
0.0000000000000000
 14
469.7596375108549
 24
298.1048644163893
 34
0.0000000000000000
100
AcDbRotatedDimension
1001
ACAD
1000
DSTYLE
1002
{
1070
   173
1070
     1
1070
     6
1000
_OPEN
1070
     7
1000
_OPEN
1070
    41
1040
6.000000
1002
}
  0
DIMENSION
  5
273
100
AcDbEntity
  8
MAIN0
  6
CONTINUOUS
 62
3
100
AcDbDimension
  2
*D30
 10
642.7349245624412
 20
310.8065894450051
 30
0.0000000000000000
 11
641.2349245624412
 21
345.3715374371999
 31
0.0000000000000000
 70
160
  3
MAIN001
100
AcDbAlignedDimension
 13
686.2931852463538
 23
393.8065894451368
 33
0.0000000000000000
 14
779.7596375108549
 24
310.8065894450051
 34
0.0000000000000000
 50
90.00000000000000
100
AcDbRotatedDimension
1001
ACAD
1000
DSTYLE
1002
{
1070
   173
1070
     1
1070
     6
1000
_OPEN
1070
     7
1000
_OPEN
1070
    41
1040
6.000000
1002
}
  0
DIMENSION
  5
27D
100
AcDbEntity
  8
MAIN0
  6
CONTINUOUS
 62
3
100
AcDbDimension
  2
*D31
 10
642.7349245624412
 20
393.8065894451368
 30
0.0000000000000000
 11
641.2349245624412
 21
440.2959801837014
 31
0.0000000000000000
 70
160
  3
MAIN001
100
AcDbAlignedDimension
 13
583.7596375108554
 23
430.8065894450051
 33
0.0000000000000000
 14
686.2931852463538
 24
393.8065894451368
 34
0.0000000000000000
 50
90.00000000000000
100
AcDbRotatedDimension
1001
ACAD
1000
DSTYLE
1002
{
1070
   173
1070
     1
1070
     6
1000
_OPEN
1070
     7
1000
_OPEN
1070
    41
1040
6.000000
1002
}
  0
DIMENSION
  5
285
100
AcDbEntity
  8
MAIN0
  6
CONTINUOUS
 62
3
100
AcDbDimension
  2
*D32
 10
755.3478277408048
 20
310.8065894450051
 30
0.0000000000000000
 11
754.8478277408048
 21
349.8065894447720
 31
0.0000000000000000
 70
32
  3
MAIN001
100
AcDbAlignedDimension
 13
792.5810868191463
 23
388.8065894445391
 33
0.0000000000000000
 14
478.7596375108549
 24
310.8065894450051
 34
0.0000000000000000
 50
90.00000000000000
100
AcDbRotatedDimension
1001
ACAD
1000
DSTYLE
1002
{
1070
   173
1070
     1
1070
     6
1000
_OPEN
1070
     7
1000
_OPEN
1070
    41
1040
6.000000
1002
}
  0
LINE
  5
286
100
AcDbEntity
  8
MAIN0
  6
CONTINUOUS
 62
3
100
AcDbLine
 10
682.7596375108560
 20
820.3650964154210
 30
0.0000000000000000
 11
682.7596375108556
 21
650.3650964154206
 31
0.0000000000000000
  0
LINE
  5
287
100
AcDbEntity
  8
MAIN0
  6
CONTINUOUS
 62
3
100
AcDbLine
 10
682.7596375108552
 20
452.0065894450051
 30
0.0000000000000000
 11
682.7596375108552
 21
415.0065894445393
 31
0.0000000000000000
  0
LINE
  5
288
100
AcDbEntity
  8
MAIN0
  6
CENTER
 62
3
100
AcDbLine
 10
901.8183671835291
 20
388.8065894445882
 30
0.0000000000000000
 11
901.8183671835291
 21
441.6341618309331
 31
0.0000000000000000
  0
DIMENSION
  5
291
100
AcDbEntity
  8
MAIN0
  6
CONTINUOUS
 62
3
100
AcDbDimension
  2
*D33
 10
892.9043746505306
 20
666.6341618309331
 30
0.0000000000000000
 11
892.4043746505306
 21
554.1341618309331
 31
0.0000000000000000
 70
32
  3
MAIN001
100
AcDbAlignedDimension
 13
901.8183671835291
 23
441.6341618309331
 33
0.0000000000000000
 14
939.3497122620943
 24
666.6341618309331
 34
0.0000000000000000
 50
90.00000000000000
100
AcDbRotatedDimension
1001
ACAD
1000
DSTYLE
1002
{
1070
   173
1070
     1
1070
     6
1000
_OPEN
1070
     7
1000
_OPEN
1070
    41
1040
6.000000
1002
}
  0
LINE
  5
292
100
AcDbEntity
  8
MAIN0
  6
CENTER
 62
3
100
AcDbLine
 10
927.6506391055791
 20
366.7568509785527
 30
0.0000000000000000
 11
927.6506391055508
 21
273.7957725978723
 31
0.0000000000000000
  0
LINE
  5
293
100
AcDbEntity
  8
MAIN0
  6
CONTINUOUS
 62
3
100
AcDbLine
 10
905.1506391055718
 20
340.8065894450289
 30
0.0000000000000000
 11
906.8227702531036
 21
310.8065894451477
 31
0.0000000000000000
  0
LINE
  5
294
100
AcDbEntity
  8
MAIN0
  6
CONTINUOUS
 62
3
100
AcDbLine
 10
950.1506391055704
 20
340.8065894450153
 30
0.0000000000000000
 11
948.4785079580203
 21
310.8065894451351
 31
0.0000000000000000
  0
LINE
  5
295
100
AcDbEntity
  8
MAIN0
  6
CONTINUOUS
 62
3
100
AcDbLine
 10
905.1506391055710
 20
340.8065894450292
 30
0.0000000000000000
 11
950.1506391055710
 21
340.8065894450153
 31
0.0000000000000000
  0
LINE
  5
296
100
AcDbEntity
  8
MAIN0
  6
CONTINUOUS
 62
3
100
AcDbLine
 10
906.8227702531036
 20
310.8065894451478
 30
0.0000000000000000
 11
948.4785079580204
 21
310.8065894451350
 31
0.0000000000000000
  0
DIMENSION
  5
29F
100
AcDbEntity
  8
MAIN0
  6
CONTINUOUS
 62
3
100
AcDbDimension
  2
*D34
 10
905.1506391055710
 20
374.5795837440696
 30
0.0000000000000000
 11
927.6506391055708
 21
375.0795837440696
 31
0.0000000000000000
 70
32
  3
MAIN001
100
AcDbAlignedDimension
 13
950.1506391055706
 23
340.8065894450151
 33
0.0000000000000000
 14
905.1506391055710
 24
340.8065894450290
 34
0.0000000000000000
100
AcDbRotatedDimension
1001
ACAD
1000
DSTYLE
1002
{
1070
   173
1070
     1
1070
     6
1000
_OPEN
1070
     7
1000
_OPEN
1070
    41
1040
6.000000
1002
}
  0
DIMENSION
  5
2AA
100
AcDbEntity
  8
MAIN0
  6
CONTINUOUS
 62
3
100
AcDbDimension
  2
*D35
 10
1077.787154346007
 20
210.9569427446405
 30
0.0000000000000000
 11
1076.287154346007
 21
172.5003754688760
 31
0.0000000000000000
 70
160
  3
MAIN001
100
AcDbAlignedDimension
 13
1049.491686207086
 23
193.4569427446323
 33
0.0000000000000000
 14
1049.491686207074
 24
210.9569427446322
 34
0.0000000000000000
 50
90.00000000000000
100
AcDbRotatedDimension
1001
ACAD
1000
DSTYLE
1002
{
1070
   173
1070
     1
1070
     6
1000
_OPEN
1070
     7
1000
_OPEN
1070
    41
1040
6.000000
1070
   287
1070
     0
1002
}
  0
DIMENSION
  5
2B5
100
AcDbEntity
  8
MAIN0
  6
CONTINUOUS
 62
3
100
AcDbDimension
  2
*D36
 10
1101.268018602558
 20
216.4569427446404
 30
0.0000000000000000
 11
1100.768018602558
 21
202.2069427446405
 31
0.0000000000000000
 70
32
  3
MAIN001
100
AcDbAlignedDimension
 13
1049.491686207090
 23
187.9569427446323
 33
0.0000000000000000
 14
1049.491686207070
 24
216.4569427446321
 34
0.0000000000000000
 50
90.00000000000000
100
AcDbRotatedDimension
1001
ACAD
1000
DSTYLE
1002
{
1070
   173
1070
     1
1070
     6
1000
_OPEN
1070
     7
1000
_OPEN
1070
    41
1040
6.000000
1070
   287
1070
     0
1002
}
  0
DIMENSION
  5
2BE
100
AcDbEntity
  8
MAIN0
  6
CONTINUOUS
 62
3
100
AcDbDimension
  2
*D37
 10
1019.491686207090
 20
163.7666160680120
 30
0.0000000000000000
 11
1034.491686207090
 21
164.2666160680120
 31
0.0000000000000000
 70
32
  3
MAIN001
100
AcDbAlignedDimension
 13
1049.491686207090
 23
187.9569427446324
 33
0.0000000000000000
 14
1019.491686207090
 24
187.9569427446406
 34
0.0000000000000000
100
AcDbRotatedDimension
1001
ACAD
1000
DSTYLE
1002
{
1070
   173
1070
     1
1070
     6
1000
_OPEN
1070
     7
1000
_OPEN
1070
    41
1040
6.000000
1002
}
  0
DIMENSION
  5
2C7
100
AcDbEntity
  8
MAIN0
  6
CONTINUOUS
 62
3
100
AcDbDimension
  2
*D38
 10
324.7596375108552
 20
254.8410262183304
 30
0.0000000000000000
 11
552.2596375108551
 21
255.3410262183304
 31
0.0000000000000000
 70
32
  3
MAIN001
100
AcDbAlignedDimension
 13
779.7596375108551
 23
310.8065894450051
 33
0.0000000000000000
 14
324.7596375108549
 24
310.8065894450051
 34
0.0000000000000000
100
AcDbRotatedDimension
1001
ACAD
1000
DSTYLE
1002
{
1070
   173
1070
     1
1070
     6
1000
_OPEN
1070
     7
1000
_OPEN
1070
    41
1040
6.000000
1002
}
  0
DIMENSION
  5
2D0
100
AcDbEntity
  8
MAIN0
  6
CONTINUOUS
 62
3
100
AcDbDimension
  2
*D39
 10
779.7596375108551
 20
254.8410262183304
 30
0.0000000000000000
 11
829.0096375108550
 21
255.3410262183304
 31
0.0000000000000000
 70
32
  3
MAIN001
100
AcDbAlignedDimension
 13
878.2596375108550
 23
363.8065894450052
 33
0.0000000000000000
 14
779.7596375108551
 24
310.8065894450051
 34
0.0000000000000000
100
AcDbRotatedDimension
1001
ACAD
1000
DSTYLE
1002
{
1070
   173
1070
     1
1070
     6
1000
_OPEN
1070
     7
1000
_OPEN
1070
    41
1040
6.000000
1002
}
  0
DIMENSION
  5
2D9
100
AcDbEntity
  8
MAIN0
  6
CONTINUOUS
 62
3
100
AcDbDimension
  2
*D40
 10
304.7596375108552
 20
310.8065894450051
 30
0.0000000000000000
 11
304.2596375108552
 21
370.8065894450051
 31
0.0000000000000000
 70
32
  3
MAIN001
100
AcDbAlignedDimension
 13
324.7596375108553
 23
430.8065894450051
 33
0.0000000000000000
 14
324.7596375108551
 24
310.8065894450051
 34
0.0000000000000000
 50
90.00000000000000
100
AcDbRotatedDimension
1001
ACAD
1000
DSTYLE
1002
{
1070
   173
1070
     1
1070
     6
1000
_OPEN
1070
     7
1000
_OPEN
1070
    41
1040
6.000000
1002
}
  0
DIMENSION
  5
2E2
100
AcDbEntity
  8
MAIN0
  6
CONTINUOUS
 62
3
100
AcDbDimension
  2
*D41
 10
304.7596375108552
 20
430.8065894450051
 30
0.0000000000000000
 11
304.2596375108552
 21
453.3065894450051
 31
0.0000000000000000
 70
32
  3
MAIN001
100
AcDbAlignedDimension
 13
325.7596375108553
 23
475.8065894450051
 33
0.0000000000000000
 14
324.7596375108553
 24
430.8065894450051
 34
0.0000000000000000
 50
90.00000000000000
100
AcDbRotatedDimension
1001
ACAD
1000
DSTYLE
1002
{
1070
   173
1070
     1
1070
     6
1000
_OPEN
1070
     7
1000
_OPEN
1070
    41
1040
6.000000
1002
}
  0
DIMENSION
  5
2EB
100
AcDbEntity
  8
MAIN0
  6
CONTINUOUS
 62
3
100
AcDbDimension
  2
*D42
 10
284.7596375108552
 20
310.8065894450051
 30
0.0000000000000000
 11
284.2596375108552
 21
393.3065894450051
 31
0.0000000000000000
 70
32
  3
MAIN001
100
AcDbAlignedDimension
 13
325.7596375108553
 23
475.8065894450051
 33
0.0000000000000000
 14
324.7596375108551
 24
310.8065894450051
 34
0.0000000000000000
 50
90.00000000000000
100
AcDbRotatedDimension
1001
ACAD
1000
DSTYLE
1002
{
1070
   173
1070
     1
1070
     6
1000
_OPEN
1070
     7
1000
_OPEN
1070
    41
1040
6.000000
1002
}
  0
DIMENSION
  5
2F4
100
AcDbEntity
  8
MAIN0
  6
CONTINUOUS
 62
3
100
AcDbDimension
  2
*D43
 10
411.7596375108553
 20
501.9536832402727
 30
0.0000000000000000
 11
390.2596375108553
 21
502.4536832402727
 31
0.0000000000000000
 70
32
  3
MAIN001
100
AcDbAlignedDimension
 13
368.7596375108553
 23
475.8065894450052
 33
0.0000000000000000
 14
411.7596375108553
 24
475.8065894450051
 34
0.0000000000000000
100
AcDbRotatedDimension
1001
ACAD
1000
DSTYLE
1002
{
1070
   173
1070
     1
1070
     6
1000
_OPEN
1070
     7
1000
_OPEN
1070
    41
1040
6.000000
1002
}
  0
LINE
  5
2F5
100
AcDbEntity
  8
MAIN0
  6
CONTINUOUS
 62
3
100
AcDbLine
 10
1063.491686207102
 20
340.8065894450050
 30
0.0000000000000000
 11
1063.491686207102
 21
331.8065894450051
 31
0.0000000000000000
  0
CIRCLE
  5
2F6
100
AcDbEntity
  8
MAIN0
  6
CONTINUOUS
 62
3
100
AcDbCircle
 10
694.7596375108550
 20
393.8065894450051
 30
0.0000000000000000
 40
5.000000000000000
  0
CIRCLE
  5
2F7
100
AcDbEntity
  8
MAIN0
  6
CONTINUOUS
 62
3
100
AcDbCircle
 10
694.7596375108550
 20
393.8065894450051
 30
0.0000000000000000
 40
4.250000000000000
  0
CIRCLE
  5
2F8
100
AcDbEntity
  8
MAIN0
  6
CONTINUOUS
 62
3
100
AcDbCircle
 10
409.7596375108550
 20
393.8065894450051
 30
0.0000000000000000
 40
5.000000000000000
  0
CIRCLE
  5
2F9
100
AcDbEntity
  8
MAIN0
  6
CONTINUOUS
 62
3
100
AcDbCircle
 10
409.7596375108550
 20
393.8065894450051
 30
0.0000000000000000
 40
4.250000000000000
  0
CIRCLE
  5
2FA
100
AcDbEntity
  8
MAIN0
  6
CONTINUOUS
 62
3
100
AcDbCircle
 10
1194.182769003387
 20
415.0089216729015
 30
0.0000000000000000
 40
9.000000000000000
  0
LINE
  5
2FB
100
AcDbEntity
  8
MAIN0
  6
CONTINUOUS
 62
3
100
AcDbLine
 10
1194.182769003387
 20
420.7824243647976
 30
0.0000000000000000
 11
1189.182769003387
 21
417.8956730188496
 31
0.0000000000000000
  0
LINE
  5
2FC
100
AcDbEntity
  8
MAIN0
  6
CONTINUOUS
 62
3
100
AcDbLine
 10
1189.182769003387
 20
417.8956730188495
 30
0.0000000000000000
 11
1189.182769003387
 21
412.1221703269534
 31
0.0000000000000000
  0
LINE
  5
2FD
100
AcDbEntity
  8
MAIN0
  6
CONTINUOUS
 62
3
100
AcDbLine
 10
1189.182769003387
 20
412.1221703269533
 30
0.0000000000000000
 11
1194.182769003387
 21
409.2354189810051
 31
0.0000000000000000
  0
LINE
  5
2FE
100
AcDbEntity
  8
MAIN0
  6
CONTINUOUS
 62
3
100
AcDbLine
 10
1194.182769003387
 20
409.2354189810052
 30
0.0000000000000000
 11
1199.182769003387
 21
412.1221703269534
 31
0.0000000000000000
  0
LINE
  5
2FF
100
AcDbEntity
  8
MAIN0
  6
CONTINUOUS
 62
3
100
AcDbLine
 10
1199.182769003387
 20
412.1221703269534
 30
0.0000000000000000
 11
1199.182769003387
 21
417.8956730188495
 31
0.0000000000000000
  0
LINE
  5
300
100
AcDbEntity
  8
MAIN0
  6
CONTINUOUS
 62
3
100
AcDbLine
 10
1199.182769003387
 20
417.8956730188494
 30
0.0000000000000000
 11
1194.182769003387
 21
420.7824243647976
 31
0.0000000000000000
  0
CIRCLE
  5
301
100
AcDbEntity
  8
MAIN0
  6
CONTINUOUS
 62
3
100
AcDbCircle
 10
1081.800603410817
 20
415.0089216729027
 30
0.0000000000000000
 40
9.000000000000000
  0
LINE
  5
302
100
AcDbEntity
  8
MAIN0
  6
CONTINUOUS
 62
3
100
AcDbLine
 10
1081.800603410817
 20
420.7824243647989
 30
0.0000000000000000
 11
1076.800603410817
 21
417.8956730188507
 31
0.0000000000000000
  0
LINE
  5
303
100
AcDbEntity
  8
MAIN0
  6
CONTINUOUS
 62
3
100
AcDbLine
 10
1076.800603410817
 20
417.8956730188507
 30
0.0000000000000000
 11
1076.800603410817
 21
412.1221703269546
 31
0.0000000000000000
  0
LINE
  5
304
100
AcDbEntity
  8
MAIN0
  6
CONTINUOUS
 62
3
100
AcDbLine
 10
1076.800603410817
 20
412.1221703269545
 30
0.0000000000000000
 11
1081.800603410817
 21
409.2354189810063
 31
0.0000000000000000
  0
LINE
  5
305
100
AcDbEntity
  8
MAIN0
  6
CONTINUOUS
 62
3
100
AcDbLine
 10
1081.800603410817
 20
409.2354189810064
 30
0.0000000000000000
 11
1086.800603410817
 21
412.1221703269546
 31
0.0000000000000000
  0
LINE
  5
306
100
AcDbEntity
  8
MAIN0
  6
CONTINUOUS
 62
3
100
AcDbLine
 10
1086.800603410817
 20
412.1221703269546
 30
0.0000000000000000
 11
1086.800603410817
 21
417.8956730188507
 31
0.0000000000000000
  0
LINE
  5
307
100
AcDbEntity
  8
MAIN0
  6
CONTINUOUS
 62
3
100
AcDbLine
 10
1086.800603410817
 20
417.8956730188506
 30
0.0000000000000000
 11
1081.800603410817
 21
420.7824243647988
 31
0.0000000000000000
  0
CIRCLE
  5
308
100
AcDbEntity
  8
MAIN0
  6
CONTINUOUS
 62
3
100
AcDbCircle
 10
1191.685261241735
 20
357.8065894450020
 30
0.0000000000000000
 40
9.000000000000000
  0
LINE
  5
309
100
AcDbEntity
  8
MAIN0
  6
CONTINUOUS
 62
3
100
AcDbLine
 10
1191.685261241735
 20
363.5800921368983
 30
0.0000000000000000
 11
1186.685261241735
 21
360.6933407909502
 31
0.0000000000000000
  0
LINE
  5
30A
100
AcDbEntity
  8
MAIN0
  6
CONTINUOUS
 62
3
100
AcDbLine
 10
1186.685261241735
 20
360.6933407909501
 30
0.0000000000000000
 11
1186.685261241735
 21
354.9198380990540
 31
0.0000000000000000
  0
LINE
  5
30B
100
AcDbEntity
  8
MAIN0
  6
CONTINUOUS
 62
3
100
AcDbLine
 10
1186.685261241735
 20
354.9198380990538
 30
0.0000000000000000
 11
1191.685261241735
 21
352.0330867531056
 31
0.0000000000000000
  0
LINE
  5
30C
100
AcDbEntity
  8
MAIN0
  6
CONTINUOUS
 62
3
100
AcDbLine
 10
1191.685261241735
 20
352.0330867531059
 30
0.0000000000000000
 11
1196.685261241735
 21
354.9198380990541
 31
0.0000000000000000
  0
LINE
  5
30D
100
AcDbEntity
  8
MAIN0
  6
CONTINUOUS
 62
3
100
AcDbLine
 10
1196.685261241735
 20
354.9198380990540
 30
0.0000000000000000
 11
1196.685261241735
 21
360.6933407909501
 31
0.0000000000000000
  0
LINE
  5
30E
100
AcDbEntity
  8
MAIN0
  6
CONTINUOUS
 62
3
100
AcDbLine
 10
1196.685261241735
 20
360.6933407909500
 30
0.0000000000000000
 11
1191.685261241735
 21
363.5800921368982
 31
0.0000000000000000
  0
CIRCLE
  5
30F
100
AcDbEntity
  8
MAIN0
  6
CONTINUOUS
 62
3
100
AcDbCircle
 10
1084.298111172469
 20
357.8065894450009
 30
0.0000000000000000
 40
9.000000000000000
  0
LINE
  5
310
100
AcDbEntity
  8
MAIN0
  6
CONTINUOUS
 62
3
100
AcDbLine
 10
1084.298111172469
 20
363.5800921368972
 30
0.0000000000000000
 11
1079.298111172469
 21
360.6933407909490
 31
0.0000000000000000
  0
LINE
  5
311
100
AcDbEntity
  8
MAIN0
  6
CONTINUOUS
 62
3
100
AcDbLine
 10
1079.298111172469
 20
360.6933407909490
 30
0.0000000000000000
 11
1079.298111172469
 21
354.9198380990529
 31
0.0000000000000000
  0
LINE
  5
312
100
AcDbEntity
  8
MAIN0
  6
CONTINUOUS
 62
3
100
AcDbLine
 10
1079.298111172469
 20
354.9198380990528
 30
0.0000000000000000
 11
1084.298111172469
 21
352.0330867531046
 31
0.0000000000000000
  0
LINE
  5
313
100
AcDbEntity
  8
MAIN0
  6
CONTINUOUS
 62
3
100
AcDbLine
 10
1084.298111172469
 20
352.0330867531047
 30
0.0000000000000000
 11
1089.298111172469
 21
354.9198380990529
 31
0.0000000000000000
  0
LINE
  5
314
100
AcDbEntity
  8
MAIN0
  6
CONTINUOUS
 62
3
100
AcDbLine
 10
1089.298111172469
 20
354.9198380990529
 30
0.0000000000000000
 11
1089.298111172469
 21
360.6933407909490
 31
0.0000000000000000
  0
LINE
  5
315
100
AcDbEntity
  8
MAIN0
  6
CONTINUOUS
 62
3
100
AcDbLine
 10
1089.298111172469
 20
360.6933407909489
 30
0.0000000000000000
 11
1084.298111172469
 21
363.5800921368970
 31
0.0000000000000000
  0
CIRCLE
  5
316
100
AcDbEntity
  8
MAIN0
  6
CONTINUOUS
 62
3
100
AcDbCircle
 10
1170.991686208957
 20
388.8065894450051
 30
0.0000000000000000
 40
4.250000000000000
  0
LINE
  5
317
100
AcDbEntity
  8
MAIN0
  6
CONTINUOUS
 62
3
100
AcDbLine
 10
1170.991686208957
 20
391.1159905217637
 30
0.0000000000000000
 11
1168.991686208957
 21
389.9612899833845
 31
0.0000000000000000
  0
LINE
  5
318
100
AcDbEntity
  8
MAIN0
  6
CONTINUOUS
 62
3
100
AcDbLine
 10
1168.991686208957
 20
389.9612899833843
 30
0.0000000000000000
 11
1168.991686208957
 21
387.6518889066259
 31
0.0000000000000000
  0
LINE
  5
319
100
AcDbEntity
  8
MAIN0
  6
CONTINUOUS
 62
3
100
AcDbLine
 10
1168.991686208957
 20
387.6518889066258
 30
0.0000000000000000
 11
1170.991686208957
 21
386.4971883682466
 31
0.0000000000000000
  0
LINE
  5
31A
100
AcDbEntity
  8
MAIN0
  6
CONTINUOUS
 62
3
100
AcDbLine
 10
1170.991686208958
 20
386.4971883682467
 30
0.0000000000000000
 11
1172.991686208957
 21
387.6518889066260
 31
0.0000000000000000
  0
LINE
  5
31B
100
AcDbEntity
  8
MAIN0
  6
CONTINUOUS
 62
3
100
AcDbLine
 10
1172.991686208957
 20
387.6518889066259
 30
0.0000000000000000
 11
1172.991686208957
 21
389.9612899833843
 31
0.0000000000000000
  0
LINE
  5
31C
100
AcDbEntity
  8
MAIN0
  6
CONTINUOUS
 62
3
100
AcDbLine
 10
1172.991686208957
 20
389.9612899833842
 30
0.0000000000000000
 11
1170.991686208957
 21
391.1159905217635
 31
0.0000000000000000
  0
LINE
  5
31D
100
AcDbEntity
  8
MAIN0
  6
CONTINUOUS
 62
3
100
AcDbLine
 10
1214.491686206989
 20
416.2065894445392
 30
0.0000000000000000
 11
1214.491686206989
 21
415.0065894445392
 31
0.0000000000000000
  0
LINE
  5
31E
100
AcDbEntity
  8
MAIN0
  6
CONTINUOUS
 62
3
100
AcDbLine
 10
1061.491686206989
 20
416.2065894445392
 30
0.0000000000000000
 11
1061.491686206989
 21
415.0065894445392
 31
0.0000000000000000
  0
LINE
  5
31F
100
AcDbEntity
  8
MAIN0
  6
CONTINUOUS
 62
3
100
AcDbLine
 10
1221.491686206989
 20
440.6065894445392
 30
0.0000000000000000
 11
1221.491686206989
 21
417.0065897641906
 31
0.0000000000000000
  0
LINE
  5
320
100
AcDbEntity
  8
MAIN0
  6
CONTINUOUS
 62
3
100
AcDbLine
 10
1220.291686206989
 20
432.0065894445393
 30
0.0000000000000000
 11
1220.291686206989
 21
417.2065896388934
 31
0.0000000000000000
  0
LINE
  5
321
100
AcDbEntity
  8
MAIN0
  6
CONTINUOUS
 62
3
100
AcDbLine
 10
1054.491686206989
 20
440.6065894445392
 30
0.0000000000000000
 11
1054.491686206989
 21
417.0065897797425
 31
0.0000000000000000
  0
LINE
  5
322
100
AcDbEntity
  8
MAIN0
  6
CONTINUOUS
 62
3
100
AcDbLine
 10
1055.691686206989
 20
432.0065894445393
 30
0.0000000000000000
 11
1055.691686206989
 21
417.2065896388933
 31
0.0000000000000000
  0
LINE
  5
323
100
AcDbEntity
  8
MAIN0
  6
CONTINUOUS
 62
3
100
AcDbLine
 10
1056.691686205401
 20
416.2065894445391
 30
0.0000000000000000
 11
1061.491686206989
 21
416.2065894445391
 31
0.0000000000000000
  0
LINE
  5
324
100
AcDbEntity
  8
MAIN0
  6
CONTINUOUS
 62
3
100
AcDbLine
 10
1214.491686206989
 20
416.2065894445391
 30
0.0000000000000000
 11
1219.291686159133
 21
416.2065894445391
 31
0.0000000000000000
  0
LINE
  5
325
100
AcDbEntity
  8
MAIN0
  6
CONTINUOUS
 62
3
100
AcDbLine
 10
1056.491686203262
 20
415.0065894445392
 30
0.0000000000000000
 11
1061.491686206989
 21
415.0065894445392
 31
0.0000000000000000
  0
LINE
  5
326
100
AcDbEntity
  8
MAIN0
  6
CONTINUOUS
 62
3
100
AcDbLine
 10
1214.491686206989
 20
415.0065894445392
 30
0.0000000000000000
 11
1219.491686166171
 21
415.0065894445392
 31
0.0000000000000000
  0
LINE
  5
327
100
AcDbEntity
  8
MAIN0
  6
CONTINUOUS
 62
3
100
AcDbLine
 10
1220.291686206989
 20
432.0065894445392
 30
0.0000000000000000
 11
1055.691686206989
 21
432.0065894445392
 31
0.0000000000000000
  0
ARC
  5
328
100
AcDbEntity
  8
MAIN0
  6
CONTINUOUS
 62
3
100
AcDbCircle
 10
1219.491686206989
 20
417.0065894445392
 30
0.0000000000000000
 40
2.000000000000000
100
AcDbArc
 50
270.0000000005678
 51
359.9999999999934
  0
ARC
  5
329
100
AcDbEntity
  8
MAIN0
  6
CONTINUOUS
 62
3
100
AcDbCircle
 10
1219.291686206989
 20
417.2065894445391
 30
0.0000000000000000
 40
1.000000000000000
100
AcDbArc
 50
270.0000000005678
 51
359.9999999999934
  0
ARC
  5
32A
100
AcDbEntity
  8
MAIN0
  6
CONTINUOUS
 62
3
100
AcDbCircle
 10
1056.691686206989
 20
417.2065894445391
 30
0.0000000000000000
 40
1.000000000000000
100
AcDbArc
 50
179.9999999999964
 51
270.0000000005678
  0
ARC
  5
32B
100
AcDbEntity
  8
MAIN0
  6
CONTINUOUS
 62
3
100
AcDbCircle
 10
1056.491686206989
 20
417.0065894445392
 30
0.0000000000000000
 40
2.000000000000000
100
AcDbArc
 50
179.9999999999964
 51
270.0000000005678
  0
ARC
  5
32C
100
AcDbEntity
  8
MAIN0
  6
CONTINUOUS
 62
3
100
AcDbCircle
 10
1220.091686206989
 20
440.6065894445392
 30
0.0000000000000000
 40
1.400000000000000
100
AcDbArc
 50
0.0000000000000000
 51
81.78678929826229
  0
ARC
  5
32D
100
AcDbEntity
  8
MAIN0
  6
CONTINUOUS
 62
3
100
AcDbCircle
 10
1055.891686206989
 20
440.6065894445392
 30
0.0000000000000000
 40
1.400000000000000
100
AcDbArc
 50
98.21321070173528
 51
179.9999999999964
  0
LINE
  5
32E
100
AcDbEntity
  8
MAIN0
  6
CONTINUOUS
 62
3
100
AcDbLine
 10
1221.791686206989
 20
442.0066300905943
 30
0.0000000000000000
 11
1221.791686206989
 21
415.0065894445393
 31
0.0000000000000000
  0
LINE
  5
32F
100
AcDbEntity
  8
MAIN0
  6
CONTINUOUS
 62
3
100
AcDbLine
 10
1054.191686206989
 20
442.0066300905943
 30
0.0000000000000000
 11
1054.191686206989
 21
415.0065894445393
 31
0.0000000000000000
  0
LINE
  5
330
100
AcDbEntity
  8
MAIN0
  6
CONTINUOUS
 62
3
100
AcDbLine
 10
1053.991686201674
 20
452.0065894445393
 30
0.0000000000000000
 11
1221.991684964745
 21
452.0065894445393
 31
0.0000000000000000
  0
LINE
  5
331
100
AcDbEntity
  8
MAIN0
  6
CONTINUOUS
 62
3
100
AcDbLine
 10
1222.991686206989
 20
415.0065894445392
 30
0.0000000000000000
 11
1222.991686206989
 21
451.0065892615930
 31
0.0000000000000000
  0
LINE
  5
332
100
AcDbEntity
  8
MAIN0
  6
CONTINUOUS
 62
3
100
AcDbLine
 10
1052.991686206989
 20
451.0065894445393
 30
0.0000000000000000
 11
1052.991686206989
 21
415.0065894445393
 31
0.0000000000000000
  0
LINE
  5
333
100
AcDbEntity
  8
MAIN0
  6
CONTINUOUS
 62
3
100
AcDbLine
 10
1221.791686206989
 20
415.0065894445393
 30
0.0000000000000000
 11
1222.991686206989
 21
415.0065894445393
 31
0.0000000000000000
  0
ARC
  5
334
100
AcDbEntity
  8
MAIN0
  6
CONTINUOUS
 62
3
100
AcDbCircle
 10
1221.991686206989
 20
451.0065894445393
 30
0.0000000000000000
 40
1.000000000000000
100
AcDbArc
 50
0.0000000000000000
 51
89.99999999999720
  0
ARC
  5
335
100
AcDbEntity
  8
MAIN0
  6
CONTINUOUS
 62
3
100
AcDbCircle
 10
1053.991686206989
 20
451.0065894445393
 30
0.0000000000000000
 40
1.000000000000000
100
AcDbArc
 50
89.99999999942553
 51
179.9999999999964
  0
LINE
  5
336
100
AcDbEntity
  8
MAIN0
  6
CONTINUOUS
 62
3
100
AcDbLine
 10
1057.391686206989
 20
432.0065894445393
 30
0.0000000000000000
 11
1098.491686206989
 21
432.0065894445393
 31
0.0000000000000000
  0
LINE
  5
337
100
AcDbEntity
  8
MAIN0
  6
CONTINUOUS
 62
3
100
AcDbLine
 10
1177.491686206989
 20
432.0065894445393
 30
0.0000000000000000
 11
1219.991686206989
 21
432.0065894445393
 31
0.0000000000000000
  0
LINE
  5
338
100
AcDbEntity
  8
MAIN0
  6
CONTINUOUS
 62
3
100
AcDbLine
 10
736.7596375108552
 20
415.0065894445393
 30
0.0000000000000000
 11
583.7596375108552
 21
415.0065894445393
 31
0.0000000000000000
  0
LINE
  5
339
100
AcDbEntity
  8
MAIN0
  6
CONTINUOUS
 62
3
100
AcDbLine
 10
1054.191686206989
 20
415.0065894445393
 30
0.0000000000000000
 11
1052.991686206989
 21
415.0065894445393
 31
0.0000000000000000
  0
LINE
  5
33A
100
AcDbEntity
  8
MAIN0
  6
CONTINUOUS
 62
3
100
AcDbLine
 10
1063.491686207102
 20
340.8065894450050
 30
0.0000000000000000
 11
986.4916862071020
 21
340.8065894450050
 31
0.0000000000000000
  0
LINE
  5
33B
100
AcDbEntity
  8
MAIN0
  6
CONTINUOUS
 62
3
100
AcDbLine
 10
1057.491686207102
 20
320.8065894450051
 30
0.0000000000000000
 11
1009.989553791631
 21
320.8065894450051
 31
0.0000000000000000
  0
LINE
  5
33C
100
AcDbEntity
  8
MAIN0
  6
CONTINUOUS
 62
3
100
AcDbLine
 10
986.4916862071021
 20
340.8065894450050
 30
0.0000000000000000
 11
988.1916862071022
 21
310.8065894450051
 31
0.0000000000000000
  0
LINE
  5
33D
100
AcDbEntity
  8
MAIN0
  6
CONTINUOUS
 62
3
100
AcDbLine
 10
1003.191686197464
 20
310.8065894450046
 30
0.0000000000000000
 11
1004.080707273562
 21
315.8484785110277
 31
0.0000000000000000
  0
ARC
  5
33E
100
AcDbEntity
  8
MAIN0
  6
CONTINUOUS
 62
3
100
AcDbCircle
 10
1009.989553791631
 20
314.8065894450052
 30
0.0000000000000000
 40
6.000000000000000
100
AcDbArc
 50
90.00000000000000
 51
169.9999999997949
  0
LINE
  5
33F
100
AcDbEntity
  8
MAIN0
  6
CONTINUOUS
 62
3
100
AcDbLine
 10
1003.191686197464
 20
310.8065894450051
 30
0.0000000000000000
 11
988.1916862071021
 21
310.8065894450051
 31
0.0000000000000000
  0
LINE
  5
340
100
AcDbEntity
  8
MAIN0
  6
CENTER
 62
3
100
AcDbLine
 10
1034.491686207101
 20
183.8349673861721
 30
0.0000000000000000
 11
1034.491686207102
 21
366.7568509785257
 31
0.0000000000000000
  0
LINE
  5
341
100
AcDbEntity
  8
MAIN0
  6
CONTINUOUS
 62
3
100
AcDbLine
 10
1051.991686207102
 20
345.8065894450050
 30
0.0000000000000000
 11
1016.991686207102
 21
345.8065894450050
 31
0.0000000000000000
  0
LINE
  5
342
100
AcDbEntity
  8
MAIN0
  6
CONTINUOUS
 62
3
100
AcDbLine
 10
1051.991686207102
 20
340.8065894450050
 30
0.0000000000000000
 11
1051.991686207102
 21
345.8065894450050
 31
0.0000000000000000
  0
LINE
  5
343
100
AcDbEntity
  8
MAIN0
  6
CONTINUOUS
 62
3
100
AcDbLine
 10
1016.991686207102
 20
340.8065894450050
 30
0.0000000000000000
 11
1016.991686207102
 21
345.8065894450050
 31
0.0000000000000000
  0
DIMENSION
  5
34D
100
AcDbEntity
  8
MAIN0
  6
CONTINUOUS
 62
1
100
AcDbDimension
  2
*D44
 10
1057.491686207102
 20
271.5225407527982
 30
0.0000000000000000
 11
1079.207587956564
 21
273.0225407527982
 31
0.0000000000000000
 70
160
  1
\A1;15～31
  3
MAIN001
100
AcDbAlignedDimension
 13
1034.491686207101
 23
183.8349673861721
 33
0.0000000000000000
 14
1057.491686207102
 24
310.8065894450051
 34
0.0000000000000000
100
AcDbRotatedDimension
1001
ACAD
1000
DSTYLE
1002
{
1070
   173
1070
     1
1070
     6
1000
_OPEN
1070
     7
1000
_OPEN
1070
    41
1040
6.000000
1070
   287
1070
     0
1070
   340
1005
34E
1002
}
  0
DIMENSION
  5
357
100
AcDbEntity
  8
MAIN0
  6
CONTINUOUS
 62
3
100
AcDbDimension
  2
*D45
 10
972.1646813173271
 20
310.8065894450051
 30
0.0000000000000000
 11
971.6646813173271
 21
325.8065894450050
 31
0.0000000000000000
 70
32
  3
MAIN001
100
AcDbAlignedDimension
 13
986.4916862071020
 23
340.8065894450050
 33
0.0000000000000000
 14
988.1916862071021
 24
310.8065894450051
 34
0.0000000000000000
 50
90.00000000000000
100
AcDbRotatedDimension
1001
ACAD
1000
DSTYLE
1002
{
1070
   173
1070
     1
1070
     6
1000
_OPEN
1070
     7
1000
_OPEN
1070
    41
1040
6.000000
1002
}
  0
DIMENSION
  5
362
100
AcDbEntity
  8
MAIN0
  6
CONTINUOUS
 62
3
100
AcDbDimension
  2
*D46
 10
972.1646813173271
 20
340.8065894450050
 30
0.0000000000000000
 11
970.6646813173271
 21
360.8203845223989
 31
0.0000000000000000
 70
160
  3
MAIN001
100
AcDbAlignedDimension
 13
1016.991686207102
 23
345.8065894450050
 33
0.0000000000000000
 14
986.4916862071020
 24
340.8065894450050
 34
0.0000000000000000
 50
90.00000000000000
100
AcDbRotatedDimension
1001
ACAD
1000
DSTYLE
1002
{
1070
   173
1070
     1
1070
     6
1000
_OPEN
1070
     7
1000
_OPEN
1070
    41
1040
6.000000
1070
   287
1070
     0
1002
}
  0
CIRCLE
  5
363
100
AcDbEntity
  8
MAIN0
  6
CONTINUOUS
 62
3
100
AcDbCircle
 10
368.7596375108553
 20
465.8065894450051
 30
0.0000000000000000
 40
5.000000000000000
  0
CIRCLE
  5
364
100
AcDbEntity
  8
MAIN0
  6
CONTINUOUS
 62
3
100
AcDbCircle
 10
368.7596375108553
 20
465.8065894450051
 30
0.0000000000000000
 40
4.250000000000000
  0
CIRCLE
  5
365
100
AcDbEntity
  8
MAIN0
  6
CONTINUOUS
 62
3
100
AcDbCircle
 10
368.7596375108553
 20
445.8065894450051
 30
0.0000000000000000
 40
5.000000000000000
  0
CIRCLE
  5
366
100
AcDbEntity
  8
MAIN0
  6
CONTINUOUS
 62
3
100
AcDbCircle
 10
368.7596375108553
 20
445.8065894450051
 30
0.0000000000000000
 40
4.250000000000000
  0
LINE
  5
367
100
AcDbEntity
  8
MAIN0
  6
CONTINUOUS
 62
3
100
AcDbLine
 10
324.7596375108561
 20
815.8650964154213
 30
0.0000000000000000
 11
324.7596375108558
 21
654.8650964154213
 31
0.0000000000000000
  0
LINE
  5
368
100
AcDbEntity
  8
MAIN0
  6
CONTINUOUS
 62
3
100
AcDbLine
 10
583.7596375108560
 20
820.3650964154214
 30
0.0000000000000000
 11
583.7596375108556
 21
650.3650964154208
 31
0.0000000000000000
  0
LINE
  5
369
100
AcDbEntity
  8
MAIN0
  6
CONTINUOUS
 62
3
100
AcDbLine
 10
325.7596375108557
 20
655.6150964154211
 30
0.0000000000000000
 11
325.7596375108561
 21
815.1150964154213
 31
0.0000000000000000
  0
LINE
  5
36A
100
AcDbEntity
  8
MAIN0
  6
CONTINUOUS
 62
3
100
AcDbLine
 10
497.7596375108560
 20
815.1150964154213
 30
0.0000000000000000
 11
497.7596375108556
 21
655.6150964154211
 31
0.0000000000000000
  0
LINE
  5
36B
100
AcDbEntity
  8
MAIN0
  6
CONTINUOUS
 62
3
100
AcDbLine
 10
855.7596375108552
 20
774.3650964154211
 30
0.0000000000000000
 11
848.7596375108554
 21
774.3650964154213
 31
0.0000000000000000
  0
LINE
  5
36C
100
AcDbEntity
  8
MAIN0
  6
CONTINUOUS
 62
3
100
AcDbLine
 10
855.7596375108553
 20
696.3650964154213
 30
0.0000000000000000
 11
848.7596375108551
 21
696.3650964154213
 31
0.0000000000000000
  0
LINE
  5
36D
100
AcDbEntity
  8
MAIN0
  6
CONTINUOUS
 62
3
100
AcDbLine
 10
878.2596375108560
 20
760.3650964154213
 30
0.0000000000000000
 11
855.7596375108553
 21
760.3650964154213
 31
0.0000000000000000
  0
LINE
  5
36E
100
AcDbEntity
  8
MAIN0
  6
CONTINUOUS
 62
3
100
AcDbLine
 10
878.2596375108560
 20
710.3650964154213
 30
0.0000000000000000
 11
855.7596375108553
 21
710.3650964154213
 31
0.0000000000000000
  0
LINE
  5
36F
100
AcDbEntity
  8
MAIN0
  6
CONTINUOUS
 62
3
100
AcDbLine
 10
846.7596375108556
 20
772.3650964154213
 30
0.0000000000000000
 11
828.7596375108553
 21
772.3650964154215
 31
0.0000000000000000
  0
LINE
  5
370
100
AcDbEntity
  8
MAIN0
  6
CONTINUOUS
 62
3
100
AcDbLine
 10
846.7596375108921
 20
698.3650964154213
 30
0.0000000000000000
 11
828.7596375108551
 21
698.3650964154213
 31
0.0000000000000000
  0
LINE
  5
371
100
AcDbEntity
  8
MAIN0
  6
CONTINUOUS
 62
3
100
AcDbLine
 10
846.7596375108553
 20
772.3650964154210
 30
0.0000000000000000
 11
848.7596375108554
 21
774.3650964154211
 31
0.0000000000000000
  0
LINE
  5
372
100
AcDbEntity
  8
MAIN0
  6
CONTINUOUS
 62
3
100
AcDbLine
 10
846.7596375108919
 20
698.3650964154208
 30
0.0000000000000000
 11
848.7596375108597
 21
696.3650964154208
 31
0.0000000000000000
  0
LINE
  5
373
100
AcDbEntity
  8
MAIN0
  6
CONTINUOUS
 62
3
100
AcDbLine
 10
846.7596375108548
 20
772.3650964154210
 30
0.0000000000000000
 11
846.7596375108939
 21
698.3650964154210
 31
0.0000000000000000
  0
LINE
  5
374
100
AcDbEntity
  8
MAIN0
  6
CONTINUOUS
 62
3
100
AcDbLine
 10
828.7596375108551
 20
654.8650964154213
 30
0.0000000000000000
 11
828.7596375108553
 21
815.8650964154213
 31
0.0000000000000000
  0
LINE
  5
375
100
AcDbEntity
  8
MAIN0
  6
CONTINUOUS
 62
3
100
AcDbLine
 10
878.2596375108560
 20
760.3650964154215
 30
0.0000000000000000
 11
878.2596375108560
 21
710.3650964154213
 31
0.0000000000000000
  0
LINE
  5
376
100
AcDbEntity
  8
MAIN0
  6
CONTINUOUS
 62
3
100
AcDbLine
 10
855.7596375108553
 20
696.3650964154211
 30
0.0000000000000000
 11
855.7596375108556
 21
774.3650964154210
 31
0.0000000000000000
  0
LINE
  5
377
100
AcDbEntity
  8
MAIN0
  6
CONTINUOUS
 62
3
100
AcDbLine
 10
848.7596375108552
 20
696.3650964154213
 30
0.0000000000000000
 11
848.7596375108554
 21
774.3650964154213
 31
0.0000000000000000
  0
LINE
  5
378
100
AcDbEntity
  8
MAIN0
  6
CONTINUOUS
 62
3
100
AcDbLine
 10
787.7596375108561
 20
808.8650964154213
 30
0.0000000000000000
 11
828.7596375108553
 21
808.8650964154213
 31
0.0000000000000000
  0
LINE
  5
379
100
AcDbEntity
  8
MAIN0
  6
CONTINUOUS
 62
3
100
AcDbLine
 10
787.7596375108557
 20
661.8650964154213
 30
0.0000000000000000
 11
828.7596375108552
 21
661.8650964154213
 31
0.0000000000000000
  0
LINE
  5
37A
100
AcDbEntity
  8
MAIN0
  6
CONTINUOUS
 62
3
100
AcDbLine
 10
736.7596375108567
 20
817.3650964154213
 30
0.0000000000000000
 11
787.7596375108561
 21
817.3650964154213
 31
0.0000000000000000
  0
LINE
  5
37B
100
AcDbEntity
  8
MAIN0
  6
CONTINUOUS
 62
3
100
AcDbLine
 10
583.7596375108561
 20
820.3650964154213
 30
0.0000000000000000
 11
682.7596375108560
 21
820.3650964154213
 31
0.0000000000000000
  0
LINE
  5
37C
100
AcDbEntity
  8
MAIN0
  6
CONTINUOUS
 62
3
100
AcDbLine
 10
682.7596375108560
 20
818.8650964154213
 30
0.0000000000000000
 11
736.7596375108567
 21
818.8650964154213
 31
0.0000000000000000
  0
LINE
  5
37D
100
AcDbEntity
  8
MAIN0
  6
CONTINUOUS
 62
3
100
AcDbLine
 10
324.7596375108561
 20
815.8650964154213
 30
0.0000000000000000
 11
583.7596375108560
 21
815.8650964154213
 31
0.0000000000000000
  0
LINE
  5
37E
100
AcDbEntity
  8
MAIN0
  6
CONTINUOUS
 62
3
100
AcDbLine
 10
787.7596375108561
 20
815.8650964154213
 30
0.0000000000000000
 11
828.7596375108553
 21
815.8650964154213
 31
0.0000000000000000
  0
LINE
  5
37F
100
AcDbEntity
  8
MAIN0
  6
CONTINUOUS
 62
3
100
AcDbLine
 10
583.7596375108560
 20
650.3650964154208
 30
0.0000000000000000
 11
682.7596375108556
 21
650.3650964154208
 31
0.0000000000000000
  0
LINE
  5
380
100
AcDbEntity
  8
MAIN0
  6
CONTINUOUS
 62
3
100
AcDbLine
 10
682.7596375108556
 20
651.8650964154208
 30
0.0000000000000000
 11
736.7596375108560
 21
651.8650964154208
 31
0.0000000000000000
  0
LINE
  5
381
100
AcDbEntity
  8
MAIN0
  6
CONTINUOUS
 62
3
100
AcDbLine
 10
736.7596375108560
 20
653.3650964154208
 30
0.0000000000000000
 11
787.7596375108560
 21
653.3650964154208
 31
0.0000000000000000
  0
LINE
  5
382
100
AcDbEntity
  8
MAIN0
  6
CONTINUOUS
 62
3
100
AcDbLine
 10
324.7596375108557
 20
654.8650964154213
 30
0.0000000000000000
 11
583.7596375108557
 21
654.8650964154213
 31
0.0000000000000000
  0
LINE
  5
383
100
AcDbEntity
  8
MAIN0
  6
CONTINUOUS
 62
3
100
AcDbLine
 10
787.7596375108557
 20
654.8650964154213
 30
0.0000000000000000
 11
828.7596375108552
 21
654.8650964154213
 31
0.0000000000000000
  0
LINE
  5
384
100
AcDbEntity
  8
MAIN0
  6
CONTINUOUS
 62
3
100
AcDbLine
 10
787.7596375108552
 20
817.3650964154210
 30
0.0000000000000000
 11
787.7596375108552
 21
653.3650964154208
 31
0.0000000000000000
  0
LINE
  5
385
100
AcDbEntity
  8
MAIN0
  6
CONTINUOUS
 62
3
100
AcDbLine
 10
411.7596375108561
 20
815.1150964154213
 30
0.0000000000000000
 11
411.7596375108557
 21
655.6150964154210
 31
0.0000000000000000
  0
LINE
  5
386
100
AcDbEntity
  8
MAIN0
  6
CONTINUOUS
 62
3
100
AcDbLine
 10
411.7596375108561
 20
815.1150964154213
 30
0.0000000000000000
 11
325.7596375108561
 21
815.1150964154213
 31
0.0000000000000000
  0
LINE
  5
387
100
AcDbEntity
  8
MAIN0
  6
CONTINUOUS
 62
3
100
AcDbLine
 10
583.7596375108561
 20
815.1150964154213
 30
0.0000000000000000
 11
497.7596375108561
 21
815.1150964154213
 31
0.0000000000000000
  0
LINE
  5
388
100
AcDbEntity
  8
MAIN0
  6
CONTINUOUS
 62
3
100
AcDbLine
 10
411.7596375108557
 20
655.6150964154211
 30
0.0000000000000000
 11
325.7596375108558
 21
655.6150964154211
 31
0.0000000000000000
  0
LINE
  5
389
100
AcDbEntity
  8
MAIN0
  6
CONTINUOUS
 62
3
100
AcDbLine
 10
583.7596375108557
 20
655.6150964154211
 30
0.0000000000000000
 11
497.7596375108557
 21
655.6150964154211
 31
0.0000000000000000
  0
LINE
  5
38A
100
AcDbEntity
  8
MAIN0
  6
CONTINUOUS
 62
3
100
AcDbLine
 10
736.7596375108565
 20
818.8650964154215
 30
0.0000000000000000
 11
736.7596375108558
 21
651.8650964154208
 31
0.0000000000000000
  0
LINE
  5
38B
100
AcDbEntity
  8
MAIN0
  6
CONTINUOUS
 62
3
100
AcDbLine
 10
411.7596375108560
 20
776.8650964154213
 30
0.0000000000000000
 11
497.7596375108560
 21
776.8650964154213
 31
0.0000000000000000
  0
LINE
  5
38C
100
AcDbEntity
  8
MAIN0
  6
CONTINUOUS
 62
3
100
AcDbLine
 10
411.7596375108564
 20
693.8650964154208
 30
0.0000000000000000
 11
497.7596375108564
 21
693.8650964154208
 31
0.0000000000000000
  0
CIRCLE
  5
38D
100
AcDbEntity
  8
MAIN0
  6
CONTINUOUS
 62
3
100
AcDbCircle
 10
432.7596375112937
 20
735.3650964154210
 30
0.0000000000000000
 40
3.000000000000000
  0
LINE
  5
38E
100
AcDbEntity
  8
MAIN0
  6
CENTER
 62
3
100
AcDbLine
 10
432.7596375111436
 20
730.2419203849770
 30
0.0000000000000000
 11
432.7596375111438
 21
740.3624379960445
 31
0.0000000000000000
  0
LINE
  5
38F
100
AcDbEntity
  8
MAIN0
  6
CENTER
 62
3
100
AcDbLine
 10
343.7596375107391
 20
689.1381735542018
 30
0.0000000000000000
 11
343.7596375107294
 21
660.2532686360992
 31
0.0000000000000000
  0
LINE
  5
390
100
AcDbEntity
  8
MAIN0
  6
CENTER
 62
3
100
AcDbLine
 10
343.7596375107802
 20
811.4902821773211
 30
0.0000000000000000
 11
343.7596375107703
 21
782.0603872907750
 31
0.0000000000000000
  0
LINE
  5
391
100
AcDbEntity
  8
MAIN0
  6
CENTER
 62
3
100
AcDbLine
 10
393.7596375115758
 20
689.1381735542027
 30
0.0000000000000000
 11
393.7596375115870
 21
659.7082682726336
 31
0.0000000000000000
  0
LINE
  5
392
100
AcDbEntity
  8
MAIN0
  6
CENTER
 62
3
100
AcDbLine
 10
393.7596375115290
 20
811.4902821773126
 30
0.0000000000000000
 11
393.7596375115402
 21
782.3328822749959
 31
0.0000000000000000
  0
LINE
  5
393
100
AcDbEntity
  8
MAIN0
  6
CENTER
 62
3
100
AcDbLine
 10
515.7596375118859
 20
722.3830709849406
 30
0.0000000000000000
 11
515.7596375119554
 21
691.3181646129970
 31
0.0000000000000000
  0
LINE
  5
394
100
AcDbEntity
  8
MAIN0
  6
CENTER
 62
3
100
AcDbLine
 10
515.7596375117611
 20
778.2453951415657
 30
0.0000000000000000
 11
515.7596375118311
 21
746.9079937854131
 31
0.0000000000000000
  0
LINE
  5
395
100
AcDbEntity
  8
MAIN0
  6
CENTER
 62
3
100
AcDbLine
 10
565.7596375106879
 20
722.1105656057113
 30
0.0000000000000000
 11
565.7596375106718
 21
692.1356599606921
 31
0.0000000000000000
  0
LINE
  5
396
100
AcDbEntity
  8
MAIN0
  6
CENTER
 62
3
100
AcDbLine
 10
565.7596375107179
 20
778.7903851100173
 30
0.0000000000000000
 11
565.7596375107014
 21
747.9979945123369
 31
0.0000000000000000
  0
LINE
  5
397
100
AcDbEntity
  8
MAIN0
  6
CENTER
 62
3
100
AcDbLine
 10
502.1731411259957
 20
763.3650964153189
 30
0.0000000000000000
 11
532.1480467710887
 21
763.3650964151900
 31
0.0000000000000000
  0
LINE
  5
398
100
AcDbEntity
  8
MAIN0
  6
CENTER
 62
3
100
AcDbLine
 10
550.4054809843168
 20
763.3650964151113
 30
0.0000000000000000
 11
580.3803866292678
 21
763.3650964149824
 31
0.0000000000000000
  0
LINE
  5
399
100
AcDbEntity
  8
MAIN0
  6
CENTER
 62
3
100
AcDbLine
 10
501.6281303675712
 20
707.3650964163453
 30
0.0000000000000000
 11
531.6030360125915
 21
707.3650964163453
 31
0.0000000000000000
  0
LINE
  5
39A
100
AcDbEntity
  8
MAIN0
  6
CENTER
 62
3
100
AcDbLine
 10
549.3154802573762
 20
707.3650964163453
 30
0.0000000000000000
 11
579.8353966608722
 21
707.3650964163453
 31
0.0000000000000000
  0
LINE
  5
39B
100
AcDbEntity
  8
MAIN0
  6
CENTER
 62
3
100
AcDbLine
 10
329.1361819134804
 20
673.3650964152478
 30
0.0000000000000000
 11
360.2010817885316
 21
673.3650964152478
 31
0.0000000000000000
  0
LINE
  5
39C
100
AcDbEntity
  8
MAIN0
  6
CENTER
 62
3
100
AcDbLine
 10
378.4585263967747
 20
673.3650964152475
 30
0.0000000000000000
 11
407.0709363306576
 21
673.3650964152475
 31
0.0000000000000000
  0
LINE
  5
39D
100
AcDbEntity
  8
MAIN0
  6
CENTER
 62
3
100
AcDbLine
 10
329.9536785605779
 20
797.3650964161818
 30
0.0000000000000000
 11
359.6560866225486
 21
797.3650964163153
 31
0.0000000000000000
  0
LINE
  5
39E
100
AcDbEntity
  8
MAIN0
  6
CENTER
 62
3
100
AcDbLine
 10
377.6410310490588
 20
797.3650964163960
 30
0.0000000000000000
 11
407.8884316783780
 21
797.3650964165321
 31
0.0000000000000000
  0
LINE
  5
39F
100
AcDbEntity
  8
MAIN0
  6
CENTER
 62
3
100
AcDbLine
 10
368.7596375108559
 20
724.8595651762025
 30
0.0000000000000000
 11
368.7596375108560
 21
748.2541979375260
 31
0.0000000000000000
  0
LINE
  5
3A0
100
AcDbEntity
  8
MAIN0
  6
CENTER
 62
3
100
AcDbLine
 10
540.7596375108559
 20
748.2541979375254
 30
0.0000000000000000
 11
540.7596375108558
 21
724.8595651762020
 31
0.0000000000000000
  0
DIMENSION
  5
3A9
100
AcDbEntity
  8
MAIN0
  6
CONTINUOUS
 62
3
100
AcDbDimension
  2
*D47
 10
497.7596375108557
 20
593.8732653174345
 30
0.0000000000000000
 11
519.2596375108558
 21
594.3732653174345
 31
0.0000000000000000
 70
32
  3
MAIN001
100
AcDbAlignedDimension
 13
540.7596375108557
 23
724.8595651762021
 33
0.0000000000000000
 14
497.7596375108556
 24
655.6150964154181
 34
0.0000000000000000
100
AcDbRotatedDimension
1001
ACAD
1000
DSTYLE
1002
{
1070
   173
1070
     1
1070
     6
1000
_OPEN
1070
     7
1000
_OPEN
1070
    41
1040
6.000000
1002
}
  0
LINE
  5
3AA
100
AcDbEntity
  8
MAIN0
  6
CENTER
 62
3
100
AcDbLine
 10
396.7596375108557
 20
705.1195543377866
 30
0.0000000000000000
 11
396.7596375108557
 21
683.6146900651585
 31
0.0000000000000000
  0
LINE
  5
3AB
100
AcDbEntity
  8
MAIN0
  6
CENTER
 62
3
100
AcDbLine
 10
385.8219349342587
 20
695.3650964154213
 30
0.0000000000000000
 11
407.7403407008519
 21
695.3650964154213
 31
0.0000000000000000
  0
LINE
  5
3AC
100
AcDbEntity
  8
MAIN0
  6
CENTER
 62
3
100
AcDbLine
 10
341.7596375108557
 20
705.1195543377867
 30
0.0000000000000000
 11
341.7596375108557
 21
683.6146900651586
 31
0.0000000000000000
  0
LINE
  5
3AD
100
AcDbEntity
  8
MAIN0
  6
CENTER
 62
3
100
AcDbLine
 10
330.8219349342587
 20
695.3650964154213
 30
0.0000000000000000
 11
352.7403407008519
 21
695.3650964154213
 31
0.0000000000000000
  0
CIRCLE
  5
3AE
100
AcDbEntity
  8
MAIN0
  6
CONTINUOUS
 62
3
100
AcDbCircle
 10
341.7596375108558
 20
695.3650964154213
 30
0.0000000000000000
 40
5.000000000000000
  0
CIRCLE
  5
3AF
100
AcDbEntity
  8
MAIN0
  6
CONTINUOUS
 62
3
100
AcDbCircle
 10
341.7596375108558
 20
695.3650964154213
 30
0.0000000000000000
 40
4.188101000000000
  0
LINE
  5
3B0
100
AcDbEntity
  8
MAIN0
  6
CONTINUOUS
 62
3
100
AcDbLine
 10
341.7596375108558
 20
698.2518477613692
 30
0.0000000000000000
 11
339.2596375108558
 21
696.8084720883951
 31
0.0000000000000000
  0
LINE
  5
3B1
100
AcDbEntity
  8
MAIN0
  6
CONTINUOUS
 62
3
100
AcDbLine
 10
339.2596375108558
 20
696.8084720883953
 30
0.0000000000000000
 11
339.2596375108558
 21
693.9217207424472
 31
0.0000000000000000
  0
LINE
  5
3B2
100
AcDbEntity
  8
MAIN0
  6
CONTINUOUS
 62
3
100
AcDbLine
 10
339.2596375108558
 20
693.9217207424471
 30
0.0000000000000000
 11
341.7596375108558
 21
692.4783450694730
 31
0.0000000000000000
  0
LINE
  5
3B3
100
AcDbEntity
  8
MAIN0
  6
CONTINUOUS
 62
3
100
AcDbLine
 10
341.7596375108558
 20
692.4783450694729
 30
0.0000000000000000
 11
344.2596375108558
 21
693.9217207424470
 31
0.0000000000000000
  0
LINE
  5
3B4
100
AcDbEntity
  8
MAIN0
  6
CONTINUOUS
 62
3
100
AcDbLine
 10
344.2596375108558
 20
693.9217207424472
 30
0.0000000000000000
 11
344.2596375108558
 21
696.8084720883953
 31
0.0000000000000000
  0
LINE
  5
3B5
100
AcDbEntity
  8
MAIN0
  6
CONTINUOUS
 62
3
100
AcDbLine
 10
344.2596375108559
 20
696.8084720883952
 30
0.0000000000000000
 11
341.7596375108559
 21
698.2518477613693
 31
0.0000000000000000
  0
LINE
  5
3B6
100
AcDbEntity
  8
MAIN0
  6
CENTER
 62
3
100
AcDbLine
 10
341.7596375108558
 20
765.6106384930556
 30
0.0000000000000000
 11
341.7596375108558
 21
787.1155027656837
 31
0.0000000000000000
  0
LINE
  5
3B7
100
AcDbEntity
  8
MAIN0
  6
CENTER
 62
3
100
AcDbLine
 10
330.8219349342587
 20
775.3650964154210
 30
0.0000000000000000
 11
352.7403407008519
 21
775.3650964154210
 31
0.0000000000000000
  0
CIRCLE
  5
3B8
100
AcDbEntity
  8
MAIN0
  6
CONTINUOUS
 62
3
100
AcDbCircle
 10
341.7596375108558
 20
775.3650964154210
 30
0.0000000000000000
 40
5.000000000000000
  0
CIRCLE
  5
3B9
100
AcDbEntity
  8
MAIN0
  6
CONTINUOUS
 62
3
100
AcDbCircle
 10
341.7596375108558
 20
775.3650964154210
 30
0.0000000000000000
 40
4.188101000000000
  0
LINE
  5
3BA
100
AcDbEntity
  8
MAIN0
  6
CONTINUOUS
 62
3
100
AcDbLine
 10
341.7596375108560
 20
772.4783450694729
 30
0.0000000000000000
 11
339.2596375108560
 21
773.9217207424470
 31
0.0000000000000000
  0
LINE
  5
3BB
100
AcDbEntity
  8
MAIN0
  6
CONTINUOUS
 62
3
100
AcDbLine
 10
339.2596375108558
 20
773.9217207424470
 30
0.0000000000000000
 11
339.2596375108558
 21
776.8084720883951
 31
0.0000000000000000
  0
LINE
  5
3BC
100
AcDbEntity
  8
MAIN0
  6
CONTINUOUS
 62
3
100
AcDbLine
 10
339.2596375108557
 20
776.8084720883950
 30
0.0000000000000000
 11
341.7596375108557
 21
778.2518477613691
 31
0.0000000000000000
  0
LINE
  5
3BD
100
AcDbEntity
  8
MAIN0
  6
CONTINUOUS
 62
3
100
AcDbLine
 10
341.7596375108560
 20
778.2518477613692
 30
0.0000000000000000
 11
344.2596375108560
 21
776.8084720883951
 31
0.0000000000000000
  0
LINE
  5
3BE
100
AcDbEntity
  8
MAIN0
  6
CONTINUOUS
 62
3
100
AcDbLine
 10
344.2596375108558
 20
776.8084720883951
 30
0.0000000000000000
 11
344.2596375108558
 21
773.9217207424470
 31
0.0000000000000000
  0
LINE
  5
3BF
100
AcDbEntity
  8
MAIN0
  6
CONTINUOUS
 62
3
100
AcDbLine
 10
344.2596375108558
 20
773.9217207424468
 30
0.0000000000000000
 11
341.7596375108558
 21
772.4783450694728
 31
0.0000000000000000
  0
LINE
  5
3C0
100
AcDbEntity
  8
MAIN0
  6
CENTER
 62
3
100
AcDbLine
 10
396.7596375108558
 20
765.6106384930556
 30
0.0000000000000000
 11
396.7596375108558
 21
787.1155027656837
 31
0.0000000000000000
  0
LINE
  5
3C1
100
AcDbEntity
  8
MAIN0
  6
CENTER
 62
3
100
AcDbLine
 10
385.8219349342587
 20
775.3650964154210
 30
0.0000000000000000
 11
407.7403407008519
 21
775.3650964154210
 31
0.0000000000000000
  0
CIRCLE
  5
3C2
100
AcDbEntity
  8
MAIN0
  6
CONTINUOUS
 62
3
100
AcDbCircle
 10
396.7596375108558
 20
775.3650964154210
 30
0.0000000000000000
 40
5.000000000000000
  0
CIRCLE
  5
3C3
100
AcDbEntity
  8
MAIN0
  6
CONTINUOUS
 62
3
100
AcDbCircle
 10
396.7596375108558
 20
775.3650964154210
 30
0.0000000000000000
 40
4.188101000000000
  0
LINE
  5
3C4
100
AcDbEntity
  8
MAIN0
  6
CONTINUOUS
 62
3
100
AcDbLine
 10
396.7596375108559
 20
772.4783450694729
 30
0.0000000000000000
 11
394.2596375108559
 21
773.9217207424470
 31
0.0000000000000000
  0
LINE
  5
3C5
100
AcDbEntity
  8
MAIN0
  6
CONTINUOUS
 62
3
100
AcDbLine
 10
394.2596375108558
 20
773.9217207424470
 30
0.0000000000000000
 11
394.2596375108558
 21
776.8084720883951
 31
0.0000000000000000
  0
LINE
  5
3C6
100
AcDbEntity
  8
MAIN0
  6
CONTINUOUS
 62
3
100
AcDbLine
 10
394.2596375108558
 20
776.8084720883950
 30
0.0000000000000000
 11
396.7596375108558
 21
778.2518477613691
 31
0.0000000000000000
  0
LINE
  5
3C7
100
AcDbEntity
  8
MAIN0
  6
CONTINUOUS
 62
3
100
AcDbLine
 10
396.7596375108560
 20
778.2518477613692
 30
0.0000000000000000
 11
399.2596375108560
 21
776.8084720883951
 31
0.0000000000000000
  0
LINE
  5
3C8
100
AcDbEntity
  8
MAIN0
  6
CONTINUOUS
 62
3
100
AcDbLine
 10
399.2596375108558
 20
776.8084720883951
 30
0.0000000000000000
 11
399.2596375108558
 21
773.9217207424470
 31
0.0000000000000000
  0
LINE
  5
3C9
100
AcDbEntity
  8
MAIN0
  6
CONTINUOUS
 62
3
100
AcDbLine
 10
399.2596375108558
 20
773.9217207424468
 30
0.0000000000000000
 11
396.7596375108558
 21
772.4783450694728
 31
0.0000000000000000
  0
LINE
  5
3CA
100
AcDbEntity
  8
MAIN0
  6
CENTER
 62
3
100
AcDbLine
 10
512.7596375108559
 20
775.6106384930558
 30
0.0000000000000000
 11
512.7596375108559
 21
797.1155027656839
 31
0.0000000000000000
  0
LINE
  5
3CB
100
AcDbEntity
  8
MAIN0
  6
CENTER
 62
3
100
AcDbLine
 10
501.8219349342588
 20
785.3650964154213
 30
0.0000000000000000
 11
523.7403407008519
 21
785.3650964154213
 31
0.0000000000000000
  0
CIRCLE
  5
3CC
100
AcDbEntity
  8
MAIN0
  6
CONTINUOUS
 62
3
100
AcDbCircle
 10
512.7596375108558
 20
785.3650964154213
 30
0.0000000000000000
 40
5.000000000000000
  0
CIRCLE
  5
3CD
100
AcDbEntity
  8
MAIN0
  6
CONTINUOUS
 62
3
100
AcDbCircle
 10
512.7596375108558
 20
785.3650964154213
 30
0.0000000000000000
 40
4.188101000000000
  0
LINE
  5
3CE
100
AcDbEntity
  8
MAIN0
  6
CONTINUOUS
 62
3
100
AcDbLine
 10
512.7596375108559
 20
782.4783450694731
 30
0.0000000000000000
 11
510.2596375108559
 21
783.9217207424472
 31
0.0000000000000000
  0
LINE
  5
3CF
100
AcDbEntity
  8
MAIN0
  6
CONTINUOUS
 62
3
100
AcDbLine
 10
510.2596375108558
 20
783.9217207424472
 30
0.0000000000000000
 11
510.2596375108558
 21
786.8084720883953
 31
0.0000000000000000
  0
LINE
  5
3D0
100
AcDbEntity
  8
MAIN0
  6
CONTINUOUS
 62
3
100
AcDbLine
 10
510.2596375108558
 20
786.8084720883953
 30
0.0000000000000000
 11
512.7596375108558
 21
788.2518477613694
 31
0.0000000000000000
  0
LINE
  5
3D1
100
AcDbEntity
  8
MAIN0
  6
CONTINUOUS
 62
3
100
AcDbLine
 10
512.7596375108559
 20
788.2518477613694
 30
0.0000000000000000
 11
515.2596375108559
 21
786.8084720883953
 31
0.0000000000000000
  0
LINE
  5
3D2
100
AcDbEntity
  8
MAIN0
  6
CONTINUOUS
 62
3
100
AcDbLine
 10
515.2596375108558
 20
786.8084720883953
 30
0.0000000000000000
 11
515.2596375108558
 21
783.9217207424472
 31
0.0000000000000000
  0
LINE
  5
3D3
100
AcDbEntity
  8
MAIN0
  6
CONTINUOUS
 62
3
100
AcDbLine
 10
515.2596375108558
 20
783.9217207424472
 30
0.0000000000000000
 11
512.7596375108558
 21
782.4783450694731
 31
0.0000000000000000
  0
LINE
  5
3D4
100
AcDbEntity
  8
MAIN0
  6
CENTER
 62
3
100
AcDbLine
 10
562.7596375108559
 20
775.6106384930558
 30
0.0000000000000000
 11
562.7596375108559
 21
797.1155027656839
 31
0.0000000000000000
  0
LINE
  5
3D5
100
AcDbEntity
  8
MAIN0
  6
CENTER
 62
3
100
AcDbLine
 10
551.8219349342588
 20
785.3650964154213
 30
0.0000000000000000
 11
573.7403407008519
 21
785.3650964154213
 31
0.0000000000000000
  0
CIRCLE
  5
3D6
100
AcDbEntity
  8
MAIN0
  6
CONTINUOUS
 62
3
100
AcDbCircle
 10
562.7596375108558
 20
785.3650964154213
 30
0.0000000000000000
 40
5.000000000000000
  0
CIRCLE
  5
3D7
100
AcDbEntity
  8
MAIN0
  6
CONTINUOUS
 62
3
100
AcDbCircle
 10
562.7596375108558
 20
785.3650964154213
 30
0.0000000000000000
 40
4.188101000000000
  0
LINE
  5
3D8
100
AcDbEntity
  8
MAIN0
  6
CONTINUOUS
 62
3
100
AcDbLine
 10
562.7596375108560
 20
782.4783450694731
 30
0.0000000000000000
 11
560.2596375108560
 21
783.9217207424472
 31
0.0000000000000000
  0
LINE
  5
3D9
100
AcDbEntity
  8
MAIN0
  6
CONTINUOUS
 62
3
100
AcDbLine
 10
560.2596375108558
 20
783.9217207424472
 30
0.0000000000000000
 11
560.2596375108558
 21
786.8084720883953
 31
0.0000000000000000
  0
LINE
  5
3DA
100
AcDbEntity
  8
MAIN0
  6
CONTINUOUS
 62
3
100
AcDbLine
 10
560.2596375108558
 20
786.8084720883953
 30
0.0000000000000000
 11
562.7596375108558
 21
788.2518477613694
 31
0.0000000000000000
  0
LINE
  5
3DB
100
AcDbEntity
  8
MAIN0
  6
CONTINUOUS
 62
3
100
AcDbLine
 10
562.7596375108560
 20
788.2518477613694
 30
0.0000000000000000
 11
565.2596375108560
 21
786.8084720883953
 31
0.0000000000000000
  0
LINE
  5
3DC
100
AcDbEntity
  8
MAIN0
  6
CONTINUOUS
 62
3
100
AcDbLine
 10
565.2596375108558
 20
786.8084720883953
 30
0.0000000000000000
 11
565.2596375108558
 21
783.9217207424472
 31
0.0000000000000000
  0
LINE
  5
3DD
100
AcDbEntity
  8
MAIN0
  6
CONTINUOUS
 62
3
100
AcDbLine
 10
565.2596375108558
 20
783.9217207424472
 30
0.0000000000000000
 11
562.7596375108558
 21
782.4783450694731
 31
0.0000000000000000
  0
LINE
  5
3DE
100
AcDbEntity
  8
MAIN0
  6
CENTER
 62
3
100
AcDbLine
 10
562.7596375108559
 20
695.1195543377864
 30
0.0000000000000000
 11
562.7596375108559
 21
673.6146900651584
 31
0.0000000000000000
  0
LINE
  5
3DF
100
AcDbEntity
  8
MAIN0
  6
CENTER
 62
3
100
AcDbLine
 10
551.8219349342588
 20
685.3650964154210
 30
0.0000000000000000
 11
573.7403407008519
 21
685.3650964154210
 31
0.0000000000000000
  0
CIRCLE
  5
3E0
100
AcDbEntity
  8
MAIN0
  6
CONTINUOUS
 62
3
100
AcDbCircle
 10
562.7596375108558
 20
685.3650964154210
 30
0.0000000000000000
 40
5.000000000000000
  0
CIRCLE
  5
3E1
100
AcDbEntity
  8
MAIN0
  6
CONTINUOUS
 62
3
100
AcDbCircle
 10
562.7596375108558
 20
685.3650964154210
 30
0.0000000000000000
 40
4.188101000000000
  0
LINE
  5
3E2
100
AcDbEntity
  8
MAIN0
  6
CONTINUOUS
 62
3
100
AcDbLine
 10
562.7596375108559
 20
688.2518477613689
 30
0.0000000000000000
 11
560.2596375108559
 21
686.8084720883949
 31
0.0000000000000000
  0
LINE
  5
3E3
100
AcDbEntity
  8
MAIN0
  6
CONTINUOUS
 62
3
100
AcDbLine
 10
560.2596375108558
 20
686.8084720883951
 30
0.0000000000000000
 11
560.2596375108558
 21
683.9217207424470
 31
0.0000000000000000
  0
LINE
  5
3E4
100
AcDbEntity
  8
MAIN0
  6
CONTINUOUS
 62
3
100
AcDbLine
 10
560.2596375108559
 20
683.9217207424467
 30
0.0000000000000000
 11
562.7596375108559
 21
682.4783450694727
 31
0.0000000000000000
  0
LINE
  5
3E5
100
AcDbEntity
  8
MAIN0
  6
CONTINUOUS
 62
3
100
AcDbLine
 10
562.7596375108559
 20
682.4783450694727
 30
0.0000000000000000
 11
565.2596375108559
 21
683.9217207424467
 31
0.0000000000000000
  0
LINE
  5
3E6
100
AcDbEntity
  8
MAIN0
  6
CONTINUOUS
 62
3
100
AcDbLine
 10
565.2596375108558
 20
683.9217207424470
 30
0.0000000000000000
 11
565.2596375108558
 21
686.8084720883951
 31
0.0000000000000000
  0
LINE
  5
3E7
100
AcDbEntity
  8
MAIN0
  6
CONTINUOUS
 62
3
100
AcDbLine
 10
565.2596375108559
 20
686.8084720883949
 30
0.0000000000000000
 11
562.7596375108559
 21
688.2518477613689
 31
0.0000000000000000
  0
LINE
  5
3E8
100
AcDbEntity
  8
MAIN0
  6
CENTER
 62
3
100
AcDbLine
 10
512.7596375108559
 20
695.1195543377864
 30
0.0000000000000000
 11
512.7596375108559
 21
673.6146900651584
 31
0.0000000000000000
  0
LINE
  5
3E9
100
AcDbEntity
  8
MAIN0
  6
CENTER
 62
3
100
AcDbLine
 10
501.8219349342588
 20
685.3650964154210
 30
0.0000000000000000
 11
523.7403407008519
 21
685.3650964154210
 31
0.0000000000000000
  0
CIRCLE
  5
3EA
100
AcDbEntity
  8
MAIN0
  6
CONTINUOUS
 62
3
100
AcDbCircle
 10
512.7596375108558
 20
685.3650964154210
 30
0.0000000000000000
 40
5.000000000000000
  0
CIRCLE
  5
3EB
100
AcDbEntity
  8
MAIN0
  6
CONTINUOUS
 62
3
100
AcDbCircle
 10
512.7596375108558
 20
685.3650964154210
 30
0.0000000000000000
 40
4.188101000000000
  0
LINE
  5
3EC
100
AcDbEntity
  8
MAIN0
  6
CONTINUOUS
 62
3
100
AcDbLine
 10
512.7596375108559
 20
688.2518477613688
 30
0.0000000000000000
 11
510.2596375108559
 21
686.8084720883948
 31
0.0000000000000000
  0
LINE
  5
3ED
100
AcDbEntity
  8
MAIN0
  6
CONTINUOUS
 62
3
100
AcDbLine
 10
510.2596375108558
 20
686.8084720883951
 30
0.0000000000000000
 11
510.2596375108558
 21
683.9217207424470
 31
0.0000000000000000
  0
LINE
  5
3EE
100
AcDbEntity
  8
MAIN0
  6
CONTINUOUS
 62
3
100
AcDbLine
 10
510.2596375108559
 20
683.9217207424467
 30
0.0000000000000000
 11
512.7596375108559
 21
682.4783450694727
 31
0.0000000000000000
  0
LINE
  5
3EF
100
AcDbEntity
  8
MAIN0
  6
CONTINUOUS
 62
3
100
AcDbLine
 10
512.7596375108559
 20
682.4783450694725
 30
0.0000000000000000
 11
515.2596375108559
 21
683.9217207424466
 31
0.0000000000000000
  0
LINE
  5
3F0
100
AcDbEntity
  8
MAIN0
  6
CONTINUOUS
 62
3
100
AcDbLine
 10
515.2596375108558
 20
683.9217207424470
 30
0.0000000000000000
 11
515.2596375108558
 21
686.8084720883951
 31
0.0000000000000000
  0
LINE
  5
3F1
100
AcDbEntity
  8
MAIN0
  6
CONTINUOUS
 62
3
100
AcDbLine
 10
515.2596375108559
 20
686.8084720883949
 30
0.0000000000000000
 11
512.7596375108559
 21
688.2518477613689
 31
0.0000000000000000
  0
DIMENSION
  5
3FA
100
AcDbEntity
  8
MAIN0
  6
CONTINUOUS
 62
3
100
AcDbDimension
  2
*D48
 10
341.7596375108558
 20
623.2356692061348
 30
0.0000000000000000
 11
376.7237237305285
 21
624.7356692061348
 31
0.0000000000000000
 70
160
  3
MAIN001
100
AcDbAlignedDimension
 13
396.7596375108558
 23
683.6146900651586
 33
0.0000000000000000
 14
341.7596375108558
 24
683.6146900651586
 34
0.0000000000000000
100
AcDbRotatedDimension
1001
ACAD
1000
DSTYLE
1002
{
1070
   173
1070
     1
1070
     6
1000
_OPEN
1070
     7
1000
_OPEN
1070
    41
1040
6.000000
1002
}
  0
DIMENSION
  5
405
100
AcDbEntity
  8
MAIN0
  6
CONTINUOUS
 62
3
100
AcDbDimension
  2
*D49
 10
396.7596375108558
 20
623.2356692061348
 30
0.0000000000000000
 11
422.2147640472590
 21
624.7356692061348
 31
0.0000000000000000
 70
160
  3
MAIN001
100
AcDbAlignedDimension
 13
411.7596375108557
 23
655.6150964154190
 33
0.0000000000000000
 14
396.7596375108558
 24
683.6146900651586
 34
0.0000000000000000
100
AcDbRotatedDimension
1001
ACAD
1000
DSTYLE
1002
{
1070
   173
1070
     1
1070
     6
1000
_OPEN
1070
     7
1000
_OPEN
1070
    41
1040
6.000000
1070
   287
1070
     0
1002
}
  0
DIMENSION
  5
410
100
AcDbEntity
  8
MAIN0
  6
CONTINUOUS
 62
3
100
AcDbDimension
  2
*D50
 10
497.7596375108556
 20
623.2356692061348
 30
0.0000000000000000
 11
487.9699970489595
 21
624.7356692061348
 31
0.0000000000000000
 70
160
  3
MAIN001
100
AcDbAlignedDimension
 13
512.7596375108559
 23
673.6146900651584
 33
0.0000000000000000
 14
497.7596375108556
 24
655.6150964154193
 34
0.0000000000000000
100
AcDbRotatedDimension
1001
ACAD
1000
DSTYLE
1002
{
1070
   173
1070
     1
1070
     6
1000
_OPEN
1070
     7
1000
_OPEN
1070
    41
1040
6.000000
1070
   287
1070
     0
1002
}
  0
DIMENSION
  5
419
100
AcDbEntity
  8
MAIN0
  6
CONTINUOUS
 62
3
100
AcDbDimension
  2
*D51
 10
512.7596375108559
 20
623.2356692061348
 30
0.0000000000000000
 11
533.4610687695322
 21
624.7356692061348
 31
0.0000000000000000
 70
160
  3
MAIN001
100
AcDbAlignedDimension
 13
562.7596375108559
 23
673.6146900651584
 33
0.0000000000000000
 14
512.7596375108559
 24
673.6146900651584
 34
0.0000000000000000
100
AcDbRotatedDimension
1001
ACAD
1000
DSTYLE
1002
{
1070
   173
1070
     1
1070
     6
1000
_OPEN
1070
     7
1000
_OPEN
1070
    41
1040
6.000000
1002
}
  0
DIMENSION
  5
422
100
AcDbEntity
  8
MAIN0
  6
CONTINUOUS
 62
3
100
AcDbDimension
  2
*D52
 10
280.7789645973951
 20
695.3650964154213
 30
0.0000000000000000
 11
280.2789645973951
 21
735.3650964154210
 31
0.0000000000000000
 70
32
  3
MAIN001
100
AcDbAlignedDimension
 13
330.8219349342587
 23
775.3650964154210
 33
0.0000000000000000
 14
330.8219349342587
 24
695.3650964154213
 34
0.0000000000000000
 50
90.00000000000000
100
AcDbRotatedDimension
1001
ACAD
1000
DSTYLE
1002
{
1070
   173
1070
     1
1070
     6
1000
_OPEN
1070
     7
1000
_OPEN
1070
    41
1040
6.000000
1002
}
  0
DIMENSION
  5
42B
100
AcDbEntity
  8
MAIN0
  6
CONTINUOUS
 62
3
100
AcDbDimension
  2
*D53
 10
624.8567065988793
 20
685.3650964154210
 30
0.0000000000000000
 11
624.3567065988793
 21
735.3650964154210
 31
0.0000000000000000
 70
32
  3
MAIN001
100
AcDbAlignedDimension
 13
573.7403407008519
 23
785.3650964154213
 33
0.0000000000000000
 14
573.7403407008519
 24
685.3650964154210
 34
0.0000000000000000
 50
90.00000000000000
100
AcDbRotatedDimension
1001
ACAD
1000
DSTYLE
1002
{
1070
   173
1070
     1
1070
     6
1000
_OPEN
1070
     7
1000
_OPEN
1070
    41
1040
6.000000
1002
}
  0
LINE
  5
42C
100
AcDbEntity
  8
MAIN0
  6
CENTER
 62
3
100
AcDbLine
 10
293.9425159111620
 20
735.3650964154213
 30
0.0000000000000000
 11
609.5567068849816
 21
735.3650964154213
 31
0.0000000000000000
  0
LINE
  5
42D
100
AcDbEntity
  8
MAIN0
  6
CENTER
 62
3
100
AcDbLine
 10
627.8567065988793
 20
735.3650964154213
 30
0.0000000000000000
 11
894.9485569681278
 21
735.3650964154213
 31
0.0000000000000000
  0
LEADER
  5
42E
100
AcDbEntity
  8
MAIN0
  6
CONTINUOUS
 62
3
100
AcDbLeader
  3
MAIN001
 73
     0
 75
     1
 40
9.299999713897705
 41
57.44900171661374
 76
     3
 10
337.7981128309182
 20
692.3144698879280
 30
0.0000000000000000
 10
309.1396828669025
 20
627.1071382405042
 30
0.0000000000000000
 10
303.3606830342723
 20
627.1071382405044
 30
0.0000000000000000
340
42F
213
0.0000000000000000
223
-1.500000000000000
233
0.0000000000000000
1001
ACAD
1000
DSTYLE
1002
{
1070
   147
1040
0.0
1070
    77
1070
     1
1070
   173
1070
     1
1070
     6
1000
_OPEN
1070
     7
1000
_OPEN
1002
}
  0
MTEXT
  5
42F
102
{ACAD_REACTORS
330
42E
102
}
100
AcDbEntity
  8
MAIN0
  6
CONTINUOUS
 62
3
100
AcDbMText
 10
245.9116813176586
 20
637.9071379544021
 30
0.0000000000000000
 40
9.299999713897705
 41
0.0000000000000000
 71
     1
 72
     1
  1
{\H0.92x;{2x5-M10\P深さ20\PDEPTH}}
 11
1.000000000000000
 21
0.0000000000000000
 31
0.0000000000000000
  7
KNJYOKO
  0
DIMENSION
  5
438
100
AcDbEntity
  8
MAIN0
  6
CONTINUOUS
 62
3
100
AcDbDimension
  2
*D54
 10
368.7596375108559
 20
593.8732653174345
 30
0.0000000000000000
 11
390.2596375108558
 21
594.3732653174345
 31
0.0000000000000000
 70
32
  3
MAIN001
100
AcDbAlignedDimension
 13
411.7596375108557
 23
655.6150964154190
 33
0.0000000000000000
 14
368.7596375108558
 24
724.8595651762025
 34
0.0000000000000000
100
AcDbRotatedDimension
1001
ACAD
1000
DSTYLE
1002
{
1070
   173
1070
     1
1070
     6
1000
_OPEN
1070
     7
1000
_OPEN
1070
    41
1040
6.000000
1002
}
  0
LINE
  5
439
100
AcDbEntity
  8
MAIN0
  6
CONTINUOUS
 62
3
100
AcDbLine
 10
954.0383817195279
 20
672.6341618309353
 30
0.0000000000000000
 11
954.0383817193640
 21
461.0612092225557
 31
0.0000000000000000
  0
LINE
  5
43A
100
AcDbEntity
  8
MAIN0
  6
CONTINUOUS
 62
3
100
AcDbLine
 10
971.0383817195279
 20
675.6341618309331
 30
0.0000000000000000
 11
957.0383817195279
 21
675.6341618309331
 31
0.0000000000000000
  0
LINE
  5
43B
100
AcDbEntity
  8
MAIN0
  6
CONTINUOUS
 62
3
100
AcDbLine
 10
974.0383817195279
 20
672.6341618309308
 30
0.0000000000000000
 11
974.0383817195186
 21
660.6341618309308
 31
0.0000000000000000
  0
LINE
  5
43C
100
AcDbEntity
  8
MAIN0
  6
CONTINUOUS
 62
3
100
AcDbLine
 10
912.0383817193489
 20
441.6341618309330
 30
0.0000000000000000
 11
912.0383817193439
 21
435.2341618309330
 31
0.0000000000000000
  0
LINE
  5
43D
100
AcDbEntity
  8
MAIN0
  6
CONTINUOUS
 62
3
100
AcDbLine
 10
927.0383817193434
 20
434.6341618309331
 30
0.0000000000000000
 11
912.6383817193434
 21
434.6341618309331
 31
0.0000000000000000
  0
LINE
  5
43E
100
AcDbEntity
  8
MAIN0
  6
CONTINUOUS
 62
3
100
AcDbLine
 10
927.0383817193490
 20
441.6341618309331
 30
0.0000000000000000
 11
927.0383817193415
 21
432.0341618309332
 31
0.0000000000000000
  0
LINE
  5
43F
100
AcDbEntity
  8
MAIN0
  6
CONTINUOUS
 62
3
100
AcDbLine
 10
912.0383817193490
 20
441.6341618309330
 30
0.0000000000000000
 11
912.0383817193440
 21
448.0341618309330
 31
0.0000000000000000
  0
LINE
  5
440
100
AcDbEntity
  8
MAIN0
  6
CONTINUOUS
 62
3
100
AcDbLine
 10
927.0383817193434
 20
448.6341618309331
 30
0.0000000000000000
 11
912.6383817193434
 21
448.6341618309331
 31
0.0000000000000000
  0
LINE
  5
441
100
AcDbEntity
  8
MAIN0
  6
CONTINUOUS
 62
3
100
AcDbLine
 10
927.0383817193490
 20
441.6341618309331
 30
0.0000000000000000
 11
927.0383817193415
 21
451.2341618309330
 31
0.0000000000000000
  0
LINE
  5
442
100
AcDbEntity
  8
MAIN0
  6
CONTINUOUS
 62
3
100
AcDbLine
 10
971.0383817195186
 20
657.6341618309331
 30
0.0000000000000000
 11
967.0383817195141
 21
657.6341618309331
 31
0.0000000000000000
  0
ARC
  5
443
100
AcDbEntity
  8
MAIN0
  6
CONTINUOUS
 62
3
100
AcDbCircle
 10
957.0383817195279
 20
672.6341618309331
 30
0.0000000000000000
 40
3.000000000000000
100
AcDbArc
 50
90.00000000000007
 51
180.0000000000001
  0
LINE
  5
444
100
AcDbEntity
  8
MAIN0
  6
CONTINUOUS
 62
3
100
AcDbLine
 10
927.0383817193490
 20
441.6341618309331
 30
0.0000000000000000
 11
912.0383817193490
 21
441.6341618309331
 31
0.0000000000000000
  0
LINE
  5
445
100
AcDbEntity
  8
MAIN0
  6
CONTINUOUS
 62
3
100
AcDbLine
 10
912.0383817193440
 20
435.2341618309330
 30
0.0000000000000000
 11
912.6383817193434
 21
434.6341618309330
 31
0.0000000000000000
  0
LINE
  5
446
100
AcDbEntity
  8
MAIN0
  6
CONTINUOUS
 62
3
100
AcDbLine
 10
912.6383817193434
 20
448.6341618309331
 30
0.0000000000000000
 11
912.0383817193440
 21
448.0341618309330
 31
0.0000000000000000
  0
ELLIPSE
  5
447
100
AcDbEntity
  8
MAIN0
  6
CONTINUOUS
 62
3
100
AcDbEllipse
 10
920.0383817193463
 20
445.1341618309388
 30
0.0000000000000000
 11
-2.050000000000000
 21
0.0000000000000000
 31
0.0000000000000000
210
0.0000000000000000
220
0.0000000000000000
230
1.000000000000000
 40
0.8536585365853660
 41
0.0000000000000000
 42
6.283185307179586
  0
LINE
  5
448
100
AcDbEntity
  8
MAIN0
  6
CONTINUOUS
 62
3
100
AcDbLine
 10
936.0383817193412
 20
431.6341618309331
 30
0.0000000000000000
 11
927.4383817193411
 21
431.6341618309331
 31
0.0000000000000000
  0
LINE
  5
449
100
AcDbEntity
  8
MAIN0
  6
CONTINUOUS
 62
3
100
AcDbLine
 10
936.0383817193566
 20
451.6341618309331
 30
0.0000000000000000
 11
927.4383817193411
 21
451.6341618309331
 31
0.0000000000000000
  0
LINE
  5
44A
100
AcDbEntity
  8
MAIN0
  6
CONTINUOUS
 62
3
100
AcDbLine
 10
936.0383817193567
 20
451.6341618309331
 30
0.0000000000000000
 11
936.0383817193413
 21
431.6341618309331
 31
0.0000000000000000
  0
LINE
  5
44B
100
AcDbEntity
  8
MAIN0
  6
CONTINUOUS
 62
3
100
AcDbLine
 10
964.0383817195143
 20
654.6341618309355
 30
0.0000000000000000
 11
964.0383817193398
 21
429.6341618309308
 31
0.0000000000000000
  0
LINE
  5
44C
100
AcDbEntity
  8
MAIN0
  6
CONTINUOUS
 62
3
100
AcDbLine
 10
961.0383817193396
 20
426.6341618309331
 30
0.0000000000000000
 11
954.6986357571768
 21
426.6341618309331
 31
0.0000000000000000
  0
LINE
  5
44D
100
AcDbEntity
  8
MAIN0
  6
CONTINUOUS
 62
3
100
AcDbLine
 10
936.0383817193413
 20
431.6341618309304
 30
0.0000000000000000
 11
954.6986357571759
 21
426.6341618309332
 31
0.0000000000000000
  0
LINE
  5
44E
100
AcDbEntity
  8
MAIN0
  6
CONTINUOUS
 62
3
100
AcDbLine
 10
936.0383817193874
 20
451.6341618309331
 30
0.0000000000000000
 11
949.5912959899790
 21
455.2656542648260
 31
0.0000000000000000
  0
ARC
  5
44F
100
AcDbEntity
  8
MAIN0
  6
CONTINUOUS
 62
3
100
AcDbCircle
 10
961.0383817193397
 20
429.6341618309331
 30
0.0000000000000000
 40
3.000000000000000
100
AcDbArc
 50
270.0000000000001
 51
360.0000000000001
  0
ARC
  5
450
100
AcDbEntity
  8
MAIN0
  6
CONTINUOUS
 62
3
100
AcDbCircle
 10
971.0383817195279
 20
672.6341618309331
 30
0.0000000000000000
 40
3.000000000000000
100
AcDbArc
 50
7.633331235512440e-014
 51
90.00000000000007
  0
ARC
  5
451
100
AcDbEntity
  8
MAIN0
  6
CONTINUOUS
 62
3
100
AcDbCircle
 10
971.0383817195186
 20
660.6341618309331
 30
0.0000000000000000
 40
3.000000000000000
100
AcDbArc
 50
270.0000000000001
 51
360.0000000000001
  0
LINE
  5
452
100
AcDbEntity
  8
MAIN0
  6
CONTINUOUS
 62
3
100
AcDbLine
 10
927.0383817193416
 20
432.0341618309330
 30
0.0000000000000000
 11
927.4383817193414
 21
431.6341618309330
 31
0.0000000000000000
  0
LINE
  5
453
100
AcDbEntity
  8
MAIN0
  6
CONTINUOUS
 62
3
100
AcDbLine
 10
927.0383817193415
 20
451.2341618309331
 30
0.0000000000000000
 11
927.4383817193412
 21
451.6341618309331
 31
0.0000000000000000
  0
ARC
  5
454
100
AcDbEntity
  8
MAIN0
  6
CONTINUOUS
 62
3
100
AcDbCircle
 10
948.0383817193640
 20
461.0612092225604
 30
0.0000000000000000
 40
6.000000000000000
100
AcDbArc
 50
284.9999999999988
 51
360.0000000000001
  0
ARC
  5
455
100
AcDbEntity
  8
MAIN0
  6
CONTINUOUS
 62
3
100
AcDbCircle
 10
967.0383817195141
 20
654.6341618309331
 30
0.0000000000000000
 40
3.000000000000000
100
AcDbArc
 50
90.00000000000007
 51
180.0000000000001
  0
ARC
  5
456
100
AcDbEntity
  8
MAIN1
  6
CONTINUOUS
 62
7
100
AcDbCircle
 10
1054.351268885545
 20
673.6341618309331
 30
0.0000000000000000
 40
4.000000000000000
100
AcDbArc
 50
11.21227141764971
 51
90.00000000000000
  0
ARC
  5
457
100
AcDbEntity
  8
MAIN1
  6
CONTINUOUS
 62
7
100
AcDbCircle
 10
1054.351268885545
 20
659.6341618309331
 30
0.0000000000000000
 40
4.000000000000000
100
AcDbArc
 50
270.0000000000000
 51
348.7877285823506
  0
LINE
  5
458
100
AcDbEntity
  8
MAIN1
  6
CONTINUOUS
 62
7
100
AcDbLine
 10
1008.038381719526
 20
677.6341618309331
 30
0.0000000000000000
 11
985.9551206301021
 21
676.7140259522071
 31
0.0000000000000000
  0
LINE
  5
459
100
AcDbEntity
  8
MAIN1
  6
CONTINUOUS
 62
7
100
AcDbLine
 10
985.9551206301015
 20
656.5542977096592
 30
0.0000000000000000
 11
1008.038381719526
 21
655.6341618309331
 31
0.0000000000000000
  0
ARC
  5
45A
100
AcDbEntity
  8
MAIN1
  6
CONTINUOUS
 62
7
100
AcDbCircle
 10
1019.038381719526
 20
666.6341618309331
 30
0.0000000000000000
 40
40.00000000000002
100
AcDbArc
 50
348.7877285823503
 51
371.2122714176497
  0
LINE
  5
45B
100
AcDbEntity
  8
MAIN1
  6
CONTINUOUS
 62
7
100
AcDbLine
 10
983.5383817195265
 20
675.1341618309331
 30
0.0000000000000000
 11
983.5383817195265
 21
658.1341618309331
 31
0.0000000000000000
  0
LINE
  5
45C
100
AcDbEntity
  8
MAIN1
  6
CONTINUOUS
 62
7
100
AcDbLine
 10
974.5383817195262
 20
675.1341618309331
 30
0.0000000000000000
 11
974.5383817195262
 21
672.1113874059847
 31
0.0000000000000000
  0
LINE
  5
45D
100
AcDbEntity
  8
MAIN1
  6
CONTINUOUS
 62
7
100
AcDbLine
 10
974.0383817195263
 20
672.1113874059847
 30
0.0000000000000000
 11
981.5383817195265
 21
672.1113874059847
 31
0.0000000000000000
  0
LINE
  5
45E
100
AcDbEntity
  8
MAIN1
  6
CONTINUOUS
 62
7
100
AcDbLine
 10
974.0383817195263
 20
661.1569362558814
 30
0.0000000000000000
 11
981.5383817195265
 21
661.1569362558814
 31
0.0000000000000000
  0
LINE
  5
45F
100
AcDbEntity
  8
MAIN1
  6
CONTINUOUS
 62
7
100
AcDbLine
 10
1054.351268885545
 20
677.6341618309331
 30
0.0000000000000000
 11
1008.038381719526
 21
677.6341618309331
 31
0.0000000000000000
  0
LINE
  5
460
100
AcDbEntity
  8
MAIN1
  6
CONTINUOUS
 62
7
100
AcDbLine
 10
1054.351268885545
 20
655.6341618309331
 30
0.0000000000000000
 11
1008.038381719526
 21
655.6341618309331
 31
0.0000000000000000
  0
LINE
  5
461
100
AcDbEntity
  8
MAIN1
  6
CONTINUOUS
 62
7
100
AcDbLine
 10
974.5383817195263
 20
675.1341618309331
 30
0.0000000000000000
 11
974.0383817195263
 21
674.6341618309331
 31
0.0000000000000000
  0
LINE
  5
462
100
AcDbEntity
  8
MAIN1
  6
CONTINUOUS
 62
7
100
AcDbLine
 10
983.5383817195263
 20
675.1341618309331
 30
0.0000000000000000
 11
984.0383817195265
 21
674.6341618309331
 31
0.0000000000000000
  0
LINE
  5
463
100
AcDbEntity
  8
MAIN1
  6
CONTINUOUS
 62
7
100
AcDbLine
 10
983.5383817195263
 20
658.1341618309331
 30
0.0000000000000000
 11
984.0383817195263
 21
658.6341618309331
 31
0.0000000000000000
  0
LINE
  5
464
100
AcDbEntity
  8
MAIN1
  6
CONTINUOUS
 62
7
100
AcDbLine
 10
974.0383817195263
 20
658.6341618309330
 30
0.0000000000000000
 11
974.5383817195263
 21
658.1341618309330
 31
0.0000000000000000
  0
LINE
  5
465
100
AcDbEntity
  8
MAIN1
  6
CONTINUOUS
 62
7
100
AcDbLine
 10
974.5383817195262
 20
675.1341618309331
 30
0.0000000000000000
 11
983.5383817195265
 21
675.1341618309331
 31
0.0000000000000000
  0
LINE
  5
466
100
AcDbEntity
  8
MAIN1
  6
CONTINUOUS
 62
7
100
AcDbLine
 10
974.5383817195262
 20
658.1341618309331
 30
0.0000000000000000
 11
983.5383817195265
 21
658.1341618309331
 31
0.0000000000000000
  0
LINE
  5
467
100
AcDbEntity
  8
MAIN1
  6
CONTINUOUS
 62
7
100
AcDbLine
 10
974.0383817195263
 20
658.6341618309331
 30
0.0000000000000000
 11
974.0383817195263
 21
674.6341618309331
 31
0.0000000000000000
  0
LINE
  5
468
100
AcDbEntity
  8
MAIN1
  6
CONTINUOUS
 62
7
100
AcDbLine
 10
974.5383817195262
 20
658.1341618309331
 30
0.0000000000000000
 11
974.5383817195262
 21
661.1569362558814
 31
0.0000000000000000
  0
LINE
  5
469
100
AcDbEntity
  8
MAIN1
  6
CONTINUOUS
 62
7
100
AcDbLine
 10
984.0383817195265
 20
658.5525638558439
 30
0.0000000000000000
 11
984.0383817195265
 21
674.7157598060223
 31
0.0000000000000000
  0
ARC
  5
46A
100
AcDbEntity
  8
MAIN1
  6
CONTINUOUS
 62
7
100
AcDbCircle
 10
986.0383817195263
 20
674.7157598060223
 30
0.0000000000000000
 40
2.000000000000000
100
AcDbArc
 50
92.38594403038889
 51
179.9999999999999
  0
ARC
  5
46B
100
AcDbEntity
  8
MAIN1
  6
CONTINUOUS
 62
7
100
AcDbCircle
 10
986.0383817195263
 20
658.5525638558439
 30
0.0000000000000000
 40
2.000000000000000
100
AcDbArc
 50
180.0000000000000
 51
267.6140559696109
  0
LINE
  5
46C
100
AcDbEntity
  8
MAIN1
  6
CONTINUOUS
 62
7
100
AcDbLine
 10
981.5383817195265
 20
661.1569362558814
 30
0.0000000000000000
 11
981.5383817195265
 21
672.1113874059847
 31
0.0000000000000000
  0
LINE
  5
46D
100
AcDbEntity
  8
MAIN3
  6
CONTINUOUS
 62
3
100
AcDbLine
 10
981.5383817195265
 20
661.1569362558817
 30
0.0000000000000000
 11
974.0383817195265
 21
672.1113874059848
 31
0.0000000000000000
  0
LINE
  5
46E
100
AcDbEntity
  8
MAIN3
  6
CONTINUOUS
 62
3
100
AcDbLine
 10
981.5383817195262
 20
672.1113874059849
 30
0.0000000000000000
 11
974.0383817195263
 21
661.1569362558817
 31
0.0000000000000000
  0
LINE
  5
46F
100
AcDbEntity
  8
MAIN1
  6
CONTINUOUS
 62
7
100
AcDbLine
 10
1008.038381719526
 20
677.6341618309331
 30
0.0000000000000000
 11
1008.038381719526
 21
655.6341618309331
 31
0.0000000000000000
  0
LINE
  5
470
100
AcDbEntity
  8
MAIN0
  6
CONTINUOUS
 62
3
100
AcDbLine
 10
939.6506391055701
 20
345.8065894450294
 30
0.0000000000000000
 11
939.6506391055701
 21
360.2065894450295
 31
0.0000000000000000
  0
LINE
  5
471
100
AcDbEntity
  8
MAIN0
  6
CONTINUOUS
 62
3
100
AcDbLine
 10
939.6506391055707
 20
360.2065894450296
 30
0.0000000000000000
 11
936.8793578134606
 21
361.8065894450295
 31
0.0000000000000000
  0
LINE
  5
472
100
AcDbEntity
  8
MAIN0
  6
CONTINUOUS
 62
3
100
AcDbLine
 10
936.8793578134602
 20
361.8065894450294
 30
0.0000000000000000
 11
918.4219203976805
 21
361.8065894450294
 31
0.0000000000000000
  0
LINE
  5
473
100
AcDbEntity
  8
MAIN0
  6
CONTINUOUS
 62
3
100
AcDbLine
 10
918.4219203976809
 20
361.8065894450298
 30
0.0000000000000000
 11
915.6506391055705
 21
360.2065894450296
 31
0.0000000000000000
  0
LINE
  5
474
100
AcDbEntity
  8
MAIN0
  6
CONTINUOUS
 62
3
100
AcDbLine
 10
915.6506391055701
 20
360.2065894450295
 30
0.0000000000000000
 11
915.6506391055701
 21
345.8065894450294
 31
0.0000000000000000
  0
LINE
  5
475
100
AcDbEntity
  8
MAIN0
  6
CONTINUOUS
 62
3
100
AcDbLine
 10
939.6506391055701
 20
360.2065894450295
 30
0.0000000000000000
 11
915.6506391055701
 21
360.2065894450295
 31
0.0000000000000000
  0
LINE
  5
476
100
AcDbEntity
  8
MAIN0
  6
CONTINUOUS
 62
3
100
AcDbLine
 10
945.1506391055701
 20
345.8065894450294
 30
0.0000000000000000
 11
910.1506391055701
 21
345.8065894450294
 31
0.0000000000000000
  0
LINE
  5
477
100
AcDbEntity
  8
MAIN0
  6
CONTINUOUS
 62
3
100
AcDbLine
 10
945.1506391055701
 20
340.8065894450294
 30
0.0000000000000000
 11
945.1506391055701
 21
345.8065894450294
 31
0.0000000000000000
  0
LINE
  5
478
100
AcDbEntity
  8
MAIN0
  6
CONTINUOUS
 62
3
100
AcDbLine
 10
910.1506391055701
 20
340.8065894450294
 30
0.0000000000000000
 11
910.1506391055701
 21
345.8065894450294
 31
0.0000000000000000
  0
LINE
  5
479
100
AcDbEntity
  8
MAIN0
  6
CONTINUOUS
 62
3
100
AcDbLine
 10
913.4006391055527
 20
280.8065894451445
 30
0.0000000000000000
 11
913.4006391055452
 21
291.8065894451445
 31
0.0000000000000000
  0
LINE
  5
47A
100
AcDbEntity
  8
MAIN0
  6
CONTINUOUS
 62
3
100
AcDbLine
 10
941.9006391055527
 20
280.8065894451564
 30
0.0000000000000000
 11
941.9006391055452
 21
291.8065894451564
 31
0.0000000000000000
  0
LINE
  5
47B
100
AcDbEntity
  8
MAIN0
  6
CONTINUOUS
 62
3
100
AcDbLine
 10
913.4006391055534
 20
280.8065894451445
 30
0.0000000000000000
 11
941.9006391055534
 21
280.8065894451564
 31
0.0000000000000000
  0
LINE
  5
47C
100
AcDbEntity
  8
MAIN0
  6
CONTINUOUS
 62
3
100
AcDbLine
 10
918.9006391055397
 20
299.8065894451468
 30
0.0000000000000000
 11
936.4006391055397
 21
299.8065894451540
 31
0.0000000000000000
  0
LINE
  5
47D
100
AcDbEntity
  8
MAIN0
  6
CONTINUOUS
 62
3
100
AcDbLine
 10
913.4006391055452
 20
291.8065894451445
 30
0.0000000000000000
 11
918.9006391055452
 21
291.8065894451468
 31
0.0000000000000000
  0
LINE
  5
47E
100
AcDbEntity
  8
MAIN0
  6
CONTINUOUS
 62
3
100
AcDbLine
 10
936.4006391055453
 20
291.8065894451541
 30
0.0000000000000000
 11
941.9006391055453
 21
291.8065894451564
 31
0.0000000000000000
  0
LINE
  5
47F
100
AcDbEntity
  8
MAIN0
  6
CONTINUOUS
 62
3
100
AcDbLine
 10
918.9006391055452
 20
291.8065894451466
 30
0.0000000000000000
 11
918.9006391055398
 21
299.8065894451466
 31
0.0000000000000000
  0
LINE
  5
480
100
AcDbEntity
  8
MAIN0
  6
CONTINUOUS
 62
3
100
AcDbLine
 10
936.4006391055452
 20
291.8065894451540
 30
0.0000000000000000
 11
936.4006391055398
 21
299.8065894451540
 31
0.0000000000000000
  0
LINE
  5
481
100
AcDbEntity
  8
MAIN0
  6
CONTINUOUS
 62
3
100
AcDbLine
 10
920.7331711055529
 20
310.8065894451535
 30
0.0000000000000000
 11
920.7331711055529
 21
299.8065894451565
 31
0.0000000000000000
  0
LINE
  5
482
100
AcDbEntity
  8
MAIN0
  6
CONTINUOUS
 62
3
100
AcDbLine
 10
919.6506391055530
 20
299.8065894451565
 30
0.0000000000000000
 11
919.6506391055530
 21
310.8065894451531
 31
0.0000000000000000
  0
LINE
  5
483
100
AcDbEntity
  8
MAIN0
  6
CONTINUOUS
 62
3
100
AcDbLine
 10
934.5681071055531
 20
310.8065894451593
 30
0.0000000000000000
 11
934.5681071055531
 21
299.8065894451565
 31
0.0000000000000000
  0
LINE
  5
484
100
AcDbEntity
  8
MAIN0
  6
CONTINUOUS
 62
3
100
AcDbLine
 10
935.6506391055530
 20
310.8065894451598
 30
0.0000000000000000
 11
935.6506391055530
 21
299.8065894451565
 31
0.0000000000000000
  0
LINE
  5
485
100
AcDbEntity
  8
MAIN0
  6
CONTINUOUS
 62
3
100
AcDbLine
 10
1019.491686207070
 20
216.4569427446404
 30
0.0000000000000000
 11
1049.491686207070
 21
216.4569427446321
 31
0.0000000000000000
  0
LINE
  5
486
100
AcDbEntity
  8
MAIN0
  6
HIDDEN
 62
3
100
AcDbLine
 10
1019.491686207074
 20
210.9569427446405
 30
0.0000000000000000
 11
1049.491686207074
 21
210.9569427446322
 31
0.0000000000000000
  0
LINE
  5
487
100
AcDbEntity
  8
MAIN0
  6
CONTINUOUS
 62
3
100
AcDbLine
 10
1019.491686207090
 20
187.9569427446406
 30
0.0000000000000000
 11
1019.491686207070
 21
216.4569427446406
 31
0.0000000000000000
  0
LINE
  5
488
100
AcDbEntity
  8
MAIN0
  6
CENTER
 62
3
100
AcDbLine
 10
1016.229068184790
 20
202.2069427446415
 30
0.0000000000000000
 11
1053.047165548429
 21
202.2069427446313
 31
0.0000000000000000
  0
LINE
  5
489
100
AcDbEntity
  8
MAIN0
  6
HIDDEN
 62
3
100
AcDbLine
 10
1019.491686207086
 20
193.4569427446406
 30
0.0000000000000000
 11
1049.491686207086
 21
193.4569427446323
 31
0.0000000000000000
  0
LINE
  5
48A
100
AcDbEntity
  8
MAIN0
  6
CONTINUOUS
 62
3
100
AcDbLine
 10
1019.491686207090
 20
187.9569427446406
 30
0.0000000000000000
 11
1049.491686207090
 21
187.9569427446323
 31
0.0000000000000000
  0
LINE
  5
48B
100
AcDbEntity
  8
MAIN0
  6
CONTINUOUS
 62
3
100
AcDbLine
 10
1049.491686207090
 20
187.9569427446324
 30
0.0000000000000000
 11
1049.491686207070
 21
216.4569427446324
 31
0.0000000000000000
  0
LINE
  5
48C
100
AcDbEntity
  8
MAIN0
  6
CONTINUOUS
 62
3
100
AcDbLine
 10
1019.491686207102
 20
280.8065894449989
 30
0.0000000000000000
 11
1019.491686207089
 21
299.8065894449989
 31
0.0000000000000000
  0
LINE
  5
48D
100
AcDbEntity
  8
MAIN0
  6
CONTINUOUS
 62
3
100
AcDbLine
 10
1019.491686207095
 20
291.8065894449989
 30
0.0000000000000000
 11
1049.491686207095
 21
291.8065894450113
 31
0.0000000000000000
  0
LINE
  5
48E
100
AcDbEntity
  8
MAIN0
  6
CONTINUOUS
 62
3
100
AcDbLine
 10
1019.491686207102
 20
280.8065894449987
 30
0.0000000000000000
 11
1049.491686207103
 21
280.8065894450112
 31
0.0000000000000000
  0
LINE
  5
48F
100
AcDbEntity
  8
MAIN0
  6
CONTINUOUS
 62
3
100
AcDbLine
 10
1019.491686207090
 20
299.8065894449987
 30
0.0000000000000000
 11
1049.491686207090
 21
299.8065894450112
 31
0.0000000000000000
  0
LINE
  5
490
100
AcDbEntity
  8
MAIN0
  6
CONTINUOUS
 62
3
100
AcDbLine
 10
1049.491686207102
 20
280.8065894450112
 30
0.0000000000000000
 11
1049.491686207089
 21
299.8065894450112
 31
0.0000000000000000
  0
LINE
  5
491
100
AcDbEntity
  8
MAIN0
  6
CONTINUOUS
 62
3
100
AcDbLine
 10
1217.891686206989
 20
419.3065894445392
 30
0.0000000000000000
 11
1213.991686206989
 21
419.3065894445392
 31
0.0000000000000000
  0
LINE
  5
492
100
AcDbEntity
  8
MAIN0
  6
CONTINUOUS
 62
3
100
AcDbLine
 10
1213.991686206989
 20
419.3065894445392
 30
0.0000000000000000
 11
1213.491686206989
 21
419.3065894445392
 31
0.0000000000000000
  0
LINE
  5
493
100
AcDbEntity
  8
MAIN0
  6
CONTINUOUS
 62
3
100
AcDbLine
 10
1218.791686206989
 20
430.8065894445392
 30
0.0000000000000000
 11
1137.991686206989
 21
430.8065894445393
 31
0.0000000000000000
  0
LINE
  5
494
100
AcDbEntity
  8
MAIN0
  6
CONTINUOUS
 62
3
100
AcDbLine
 10
1211.491686206980
 20
430.8065894445389
 30
0.0000000000000000
 11
1218.491686206988
 21
423.8065894445866
 31
0.0000000000000000
  0
LINE
  5
495
100
AcDbEntity
  8
MAIN0
  6
CONTINUOUS
 62
3
100
AcDbLine
 10
1057.491686206989
 20
423.8065894445391
 30
0.0000000000000000
 11
1064.491686206932
 21
430.8065894445389
 31
0.0000000000000000
  0
LINE
  5
496
100
AcDbEntity
  8
MAIN0
  6
CONTINUOUS
 62
3
100
AcDbLine
 10
1213.491686206989
 20
419.3065894445392
 30
0.0000000000000000
 11
1213.491686206989
 21
412.3450652174230
 31
0.0000000000000000
  0
LINE
  5
497
100
AcDbEntity
  8
MAIN0
  6
CONTINUOUS
 62
3
100
AcDbLine
 10
1218.491686206989
 20
419.9065894445392
 30
0.0000000000000000
 11
1218.491686206990
 21
423.8065894445864
 31
0.0000000000000000
  0
LINE
  5
498
100
AcDbEntity
  8
MAIN0
  6
CONTINUOUS
 62
3
100
AcDbLine
 10
1057.491686206989
 20
419.9065894445392
 30
0.0000000000000000
 11
1057.491686206989
 21
423.8065894445394
 31
0.0000000000000000
  0
LINE
  5
499
100
AcDbEntity
  8
MAIN0
  6
CENTER
 62
3
100
AcDbLine
 10
1170.991686206989
 20
398.7623186717368
 30
0.0000000000000000
 11
1170.991686206989
 21
379.5108353981720
 31
0.0000000000000000
  0
LINE
  5
49A
100
AcDbEntity
  8
MAIN0
  6
CONTINUOUS
 62
3
100
AcDbLine
 10
1208.991686206989
 20
403.7029295936956
 30
0.0000000000000000
 11
1208.991686206989
 21
354.9487250682731
 31
0.0000000000000000
  0
LINE
  5
49B
100
AcDbEntity
  8
MAIN0
  6
CONTINUOUS
 62
3
100
AcDbLine
 10
1066.991686206989
 20
403.7029307807912
 30
0.0000000000000000
 11
1066.991686206989
 21
354.9487250682731
 31
0.0000000000000000
  0
LINE
  5
49C
100
AcDbEntity
  8
MAIN0
  6
CENTER
 62
3
100
AcDbLine
 10
1137.991686206989
 20
388.8065894445391
 30
0.0000000000000000
 11
1182.846648537098
 21
388.8065894445392
 31
0.0000000000000000
  0
LINE
  5
49D
100
AcDbEntity
  8
MAIN0
  6
CENTER
 62
3
100
AcDbLine
 10
1137.991686206989
 20
488.7741617905361
 30
0.0000000000000000
 11
1137.991686206989
 21
297.1902425350953
 31
0.0000000000000000
  0
LINE
  5
49E
100
AcDbEntity
  8
MAIN0
  6
CONTINUOUS
 62
3
100
AcDbLine
 10
1058.091686206989
 20
419.3065894445392
 30
0.0000000000000000
 11
1062.491686206989
 21
419.3065894445392
 31
0.0000000000000000
  0
LINE
  5
49F
100
AcDbEntity
  8
MAIN0
  6
CONTINUOUS
 62
3
100
AcDbLine
 10
1162.240397512951
 20
340.8065894445392
 30
0.0000000000000000
 11
1187.978422970240
 21
385.3861572230567
 31
0.0000000000000000
  0
LINE
  5
4A0
100
AcDbEntity
  8
MAIN0
  6
CONTINUOUS
 62
3
100
AcDbLine
 10
1192.745981648196
 20
391.5993606586726
 30
0.0000000000000000
 11
1213.491686206989
 21
412.3450652174230
 31
0.0000000000000000
  0
ARC
  5
4A1
100
AcDbEntity
  8
MAIN0
  6
CONTINUOUS
 62
3
100
AcDbCircle
 10
1218.991686206989
 20
403.7029295936956
 30
0.0000000000000000
 40
10.00000000000000
100
AcDbArc
 50
134.9999999999388
 51
179.9999999999964
  0
ARC
  5
4A2
100
AcDbEntity
  8
MAIN0
  6
CONTINUOUS
 62
3
100
AcDbCircle
 10
1213.959185083772
 20
370.3861572230549
 30
0.0000000000000000
 40
30.00000000000000
100
AcDbArc
 50
134.9999999999388
 51
149.9999999999924
  0
ARC
  5
4A3
100
AcDbEntity
  8
MAIN0
  6
CONTINUOUS
 62
3
100
AcDbCircle
 10
1056.991686206989
 20
403.7029295936955
 30
0.0000000000000000
 40
10.00000000000000
100
AcDbArc
 50
3.663998993045972e-012
 51
45.00000000006129
  0
LINE
  5
4A4
100
AcDbEntity
  8
MAIN0
  6
CONTINUOUS
 62
3
100
AcDbLine
 10
1113.742974901027
 20
340.8065894445390
 30
0.0000000000000000
 11
1088.004949443739
 21
385.3861572230566
 31
0.0000000000000000
  0
ARC
  5
4A5
100
AcDbEntity
  8
MAIN0
  6
CONTINUOUS
 62
3
100
AcDbCircle
 10
1062.024187330206
 20
370.3861572230548
 30
0.0000000000000000
 40
30.00000000000000
100
AcDbArc
 50
30.00000000000760
 51
45.00000000006122
  0
LINE
  5
4A6
100
AcDbEntity
  8
MAIN0
  6
CONTINUOUS
 62
3
100
AcDbLine
 10
1062.491686206989
 20
419.3065894445391
 30
0.0000000000000000
 11
1062.491686206990
 21
412.3450652174230
 31
0.0000000000000000
  0
LINE
  5
4A7
100
AcDbEntity
  8
MAIN0
  6
CONTINUOUS
 62
3
100
AcDbLine
 10
1083.237390765781
 20
391.5993606586726
 30
0.0000000000000000
 11
1062.491686206989
 21
412.3450652174231
 31
0.0000000000000000
  0
LINE
  5
4A8
100
AcDbEntity
  8
MAIN0
  6
CONTINUOUS
 62
3
100
AcDbLine
 10
1218.491686206989
 20
419.9065894445392
 30
0.0000000000000000
 11
1217.891686206989
 21
419.3065894445392
 31
0.0000000000000000
  0
LINE
  5
4A9
100
AcDbEntity
  8
MAIN0
  6
CONTINUOUS
 62
3
100
AcDbLine
 10
1198.991686206979
 20
340.8065894445391
 30
0.0000000000000000
 11
1206.062754018851
 21
347.8776572564039
 31
0.0000000000000000
  0
ARC
  5
4AA
100
AcDbEntity
  8
MAIN0
  6
CONTINUOUS
 62
3
100
AcDbCircle
 10
1198.991686206989
 20
354.9487250682731
 30
0.0000000000000000
 40
10.00000000000000
100
AcDbArc
 50
314.9999999999645
 51
359.9999999999934
  0
ARC
  5
4AB
100
AcDbEntity
  8
MAIN0
  6
CONTINUOUS
 62
3
100
AcDbCircle
 10
1076.991686206989
 20
354.9487250682731
 30
0.0000000000000000
 40
10.00000000000000
100
AcDbArc
 50
180.0000000000000
 51
225.0000000000289
  0
LINE
  5
4AC
100
AcDbEntity
  8
MAIN0
  6
CONTINUOUS
 62
3
100
AcDbLine
 10
1076.991686206999
 20
340.8065894445390
 30
0.0000000000000000
 11
1069.920618395127
 21
347.8776572564038
 31
0.0000000000000000
  0
LINE
  5
4AD
100
AcDbEntity
  8
MAIN0
  6
CONTINUOUS
 62
3
100
AcDbLine
 10
779.7596375108550
 20
340.8065894445390
 30
0.0000000000000000
 11
828.7596375108548
 21
340.8065894445390
 31
0.0000000000000000
  0
LINE
  5
4AE
100
AcDbEntity
  8
MAIN0
  6
CONTINUOUS
 62
3
100
AcDbLine
 10
1076.991686206999
 20
340.8065894445390
 30
0.0000000000000000
 11
1198.991686206979
 21
340.8065894445391
 31
0.0000000000000000
  0
LINE
  5
4AF
100
AcDbEntity
  8
MAIN0
  6
CONTINUOUS
 62
3
100
AcDbLine
 10
787.7596375108552
 20
430.8065894445390
 30
0.0000000000000000
 11
828.7596375108550
 21
430.8065894445390
 31
0.0000000000000000
  0
LINE
  5
4B0
100
AcDbEntity
  8
MAIN0
  6
CONTINUOUS
 62
3
100
AcDbLine
 10
1057.168180285486
 20
430.8065894445391
 30
0.0000000000000000
 11
1137.991686206989
 21
430.8065894445392
 31
0.0000000000000000
  0
LINE
  5
4B1
100
AcDbEntity
  8
MAIN0
  6
CENTER
 62
3
100
AcDbLine
 10
901.8183671835291
 20
388.8065894445391
 30
0.0000000000000000
 11
792.5810868191463
 21
388.8065894445391
 31
0.0000000000000000
  0
LINE
  5
4B2
100
AcDbEntity
  8
MAIN0
  6
CENTER
 62
3
100
AcDbLine
 10
1137.991686206989
 20
388.8065894445391
 30
0.0000000000000000
 11
1092.531967436981
 21
388.8065894445391
 31
0.0000000000000000
  0
LINE
  5
4B3
100
AcDbEntity
  8
MAIN0
  6
CENTER
 62
3
100
AcDbLine
 10
959.3733572169813
 20
441.6341618309331
 30
0.0000000000000000
 11
901.8183671835291
 21
441.6341618309331
 31
0.0000000000000000
  0
CIRCLE
  5
4B4
100
AcDbEntity
  8
MAIN0
  6
HIDDEN
 62
3
100
AcDbCircle
 10
343.7596375108561
 20
797.3650964154213
 30
0.0000000000000000
 40
10.50000000000000
  0
LINE
  5
4B5
100
AcDbEntity
  8
MAIN0
  6
HIDDEN
 62
3
100
AcDbLine
 10
343.7596375108562
 20
804.2932996456968
 30
0.0000000000000000
 11
337.7596375108562
 21
800.8291980305590
 31
0.0000000000000000
  0
LINE
  5
4B6
100
AcDbEntity
  8
MAIN0
  6
HIDDEN
 62
3
100
AcDbLine
 10
337.7596375108561
 20
800.8291980305589
 30
0.0000000000000000
 11
337.7596375108561
 21
793.9009948002836
 31
0.0000000000000000
  0
LINE
  5
4B7
100
AcDbEntity
  8
MAIN0
  6
HIDDEN
 62
3
100
AcDbLine
 10
337.7596375108560
 20
793.9009948002833
 30
0.0000000000000000
 11
343.7596375108560
 21
790.4368931851456
 31
0.0000000000000000
  0
LINE
  5
4B8
100
AcDbEntity
  8
MAIN0
  6
HIDDEN
 62
3
100
AcDbLine
 10
343.7596375108562
 20
790.4368931851458
 30
0.0000000000000000
 11
349.7596375108562
 21
793.9009948002836
 31
0.0000000000000000
  0
LINE
  5
4B9
100
AcDbEntity
  8
MAIN0
  6
HIDDEN
 62
3
100
AcDbLine
 10
349.7596375108561
 20
793.9009948002836
 30
0.0000000000000000
 11
349.7596375108561
 21
800.8291980305589
 31
0.0000000000000000
  0
LINE
  5
4BA
100
AcDbEntity
  8
MAIN0
  6
HIDDEN
 62
3
100
AcDbLine
 10
349.7596375108560
 20
800.8291980305587
 30
0.0000000000000000
 11
343.7596375108560
 21
804.2932996456966
 31
0.0000000000000000
  0
CIRCLE
  5
4BB
100
AcDbEntity
  8
MAIN0
  6
HIDDEN
 62
3
100
AcDbCircle
 10
343.7596375108558
 20
673.3650964154213
 30
0.0000000000000000
 40
10.50000000000000
  0
LINE
  5
4BC
100
AcDbEntity
  8
MAIN0
  6
HIDDEN
 62
3
100
AcDbLine
 10
343.7596375108560
 20
680.2932996456968
 30
0.0000000000000000
 11
337.7596375108559
 21
676.8291980305589
 31
0.0000000000000000
  0
LINE
  5
4BD
100
AcDbEntity
  8
MAIN0
  6
HIDDEN
 62
3
100
AcDbLine
 10
337.7596375108558
 20
676.8291980305589
 30
0.0000000000000000
 11
337.7596375108558
 21
669.9009948002836
 31
0.0000000000000000
  0
LINE
  5
4BE
100
AcDbEntity
  8
MAIN0
  6
HIDDEN
 62
3
100
AcDbLine
 10
337.7596375108557
 20
669.9009948002835
 30
0.0000000000000000
 11
343.7596375108558
 21
666.4368931851457
 31
0.0000000000000000
  0
LINE
  5
4BF
100
AcDbEntity
  8
MAIN0
  6
HIDDEN
 62
3
100
AcDbLine
 10
343.7596375108559
 20
666.4368931851458
 30
0.0000000000000000
 11
349.7596375108560
 21
669.9009948002836
 31
0.0000000000000000
  0
LINE
  5
4C0
100
AcDbEntity
  8
MAIN0
  6
HIDDEN
 62
3
100
AcDbLine
 10
349.7596375108558
 20
669.9009948002836
 30
0.0000000000000000
 11
349.7596375108558
 21
676.8291980305589
 31
0.0000000000000000
  0
LINE
  5
4C1
100
AcDbEntity
  8
MAIN0
  6
HIDDEN
 62
3
100
AcDbLine
 10
349.7596375108558
 20
676.8291980305587
 30
0.0000000000000000
 11
343.7596375108557
 21
680.2932996456966
 31
0.0000000000000000
  0
CIRCLE
  5
4C2
100
AcDbEntity
  8
MAIN0
  6
HIDDEN
 62
3
100
AcDbCircle
 10
393.7596375108558
 20
673.3650964154210
 30
0.0000000000000000
 40
10.50000000000000
  0
LINE
  5
4C3
100
AcDbEntity
  8
MAIN0
  6
HIDDEN
 62
3
100
AcDbLine
 10
393.7596375108560
 20
680.2932996456966
 30
0.0000000000000000
 11
387.7596375108560
 21
676.8291980305588
 31
0.0000000000000000
  0
LINE
  5
4C4
100
AcDbEntity
  8
MAIN0
  6
HIDDEN
 62
3
100
AcDbLine
 10
387.7596375108558
 20
676.8291980305587
 30
0.0000000000000000
 11
387.7596375108558
 21
669.9009948002833
 31
0.0000000000000000
  0
LINE
  5
4C5
100
AcDbEntity
  8
MAIN0
  6
HIDDEN
 62
3
100
AcDbLine
 10
387.7596375108557
 20
669.9009948002833
 30
0.0000000000000000
 11
393.7596375108557
 21
666.4368931851456
 31
0.0000000000000000
  0
LINE
  5
4C6
100
AcDbEntity
  8
MAIN0
  6
HIDDEN
 62
3
100
AcDbLine
 10
393.7596375108560
 20
666.4368931851457
 30
0.0000000000000000
 11
399.7596375108560
 21
669.9009948002836
 31
0.0000000000000000
  0
LINE
  5
4C7
100
AcDbEntity
  8
MAIN0
  6
HIDDEN
 62
3
100
AcDbLine
 10
399.7596375108558
 20
669.9009948002833
 30
0.0000000000000000
 11
399.7596375108558
 21
676.8291980305587
 31
0.0000000000000000
  0
LINE
  5
4C8
100
AcDbEntity
  8
MAIN0
  6
HIDDEN
 62
3
100
AcDbLine
 10
399.7596375108557
 20
676.8291980305587
 30
0.0000000000000000
 11
393.7596375108557
 21
680.2932996456965
 31
0.0000000000000000
  0
CIRCLE
  5
4C9
100
AcDbEntity
  8
MAIN0
  6
HIDDEN
 62
3
100
AcDbCircle
 10
393.7596375108561
 20
797.3650964154213
 30
0.0000000000000000
 40
10.50000000000000
  0
LINE
  5
4CA
100
AcDbEntity
  8
MAIN0
  6
HIDDEN
 62
3
100
AcDbLine
 10
393.7596375108562
 20
804.2932996456968
 30
0.0000000000000000
 11
387.7596375108562
 21
800.8291980305592
 31
0.0000000000000000
  0
LINE
  5
4CB
100
AcDbEntity
  8
MAIN0
  6
HIDDEN
 62
3
100
AcDbLine
 10
387.7596375108561
 20
800.8291980305589
 30
0.0000000000000000
 11
387.7596375108561
 21
793.9009948002836
 31
0.0000000000000000
  0
LINE
  5
4CC
100
AcDbEntity
  8
MAIN0
  6
HIDDEN
 62
3
100
AcDbLine
 10
387.7596375108559
 20
793.9009948002835
 30
0.0000000000000000
 11
393.7596375108560
 21
790.4368931851457
 31
0.0000000000000000
  0
LINE
  5
4CD
100
AcDbEntity
  8
MAIN0
  6
HIDDEN
 62
3
100
AcDbLine
 10
393.7596375108564
 20
790.4368931851459
 30
0.0000000000000000
 11
399.7596375108562
 21
793.9009948002836
 31
0.0000000000000000
  0
LINE
  5
4CE
100
AcDbEntity
  8
MAIN0
  6
HIDDEN
 62
3
100
AcDbLine
 10
399.7596375108561
 20
793.9009948002836
 30
0.0000000000000000
 11
399.7596375108561
 21
800.8291980305589
 31
0.0000000000000000
  0
LINE
  5
4CF
100
AcDbEntity
  8
MAIN0
  6
HIDDEN
 62
3
100
AcDbLine
 10
399.7596375108560
 20
800.8291980305587
 30
0.0000000000000000
 11
393.7596375108559
 21
804.2932996456966
 31
0.0000000000000000
  0
CIRCLE
  5
4D0
100
AcDbEntity
  8
MAIN0
  6
CONTINUOUS
 62
3
100
AcDbCircle
 10
432.7596375112938
 20
735.3650964154213
 30
0.0000000000000000
 40
3.000000000000000
  0
CIRCLE
  5
4D1
100
AcDbEntity
  8
MAIN0
  6
CONTINUOUS
 62
3
100
AcDbCircle
 10
368.7596375108560
 20
735.3650964154213
 30
0.0000000000000000
 40
5.000000000000000
  0
CIRCLE
  5
4D2
100
AcDbEntity
  8
MAIN0
  6
CONTINUOUS
 62
3
100
AcDbCircle
 10
368.7596375108560
 20
735.3650964154213
 30
0.0000000000000000
 40
4.250000000000000
  0
CIRCLE
  5
4D3
100
AcDbEntity
  8
MAIN0
  6
CONTINUOUS
 62
3
100
AcDbCircle
 10
540.7596375108558
 20
735.3650964154213
 30
0.0000000000000000
 40
5.000000000000000
  0
CIRCLE
  5
4D4
100
AcDbEntity
  8
MAIN0
  6
CONTINUOUS
 62
3
100
AcDbCircle
 10
540.7596375108558
 20
735.3650964154213
 30
0.0000000000000000
 40
4.250000000000000
  0
CIRCLE
  5
4D5
100
AcDbEntity
  8
MAIN0
  6
CONTINUOUS
 62
3
100
AcDbCircle
 10
396.7596375108558
 20
695.3650964154213
 30
0.0000000000000000
 40
5.000000000000000
  0
CIRCLE
  5
4D6
100
AcDbEntity
  8
MAIN0
  6
CONTINUOUS
 62
3
100
AcDbCircle
 10
396.7596375108558
 20
695.3650964154213
 30
0.0000000000000000
 40
4.188101000000000
  0
LINE
  5
4D7
100
AcDbEntity
  8
MAIN0
  6
CONTINUOUS
 62
3
100
AcDbLine
 10
396.7596375108559
 20
698.2518477613692
 30
0.0000000000000000
 11
394.2596375108558
 21
696.8084720883951
 31
0.0000000000000000
  0
LINE
  5
4D8
100
AcDbEntity
  8
MAIN0
  6
CONTINUOUS
 62
3
100
AcDbLine
 10
394.2596375108558
 20
696.8084720883953
 30
0.0000000000000000
 11
394.2596375108558
 21
693.9217207424472
 31
0.0000000000000000
  0
LINE
  5
4D9
100
AcDbEntity
  8
MAIN0
  6
CONTINUOUS
 62
3
100
AcDbLine
 10
394.2596375108558
 20
693.9217207424471
 30
0.0000000000000000
 11
396.7596375108558
 21
692.4783450694730
 31
0.0000000000000000
  0
LINE
  5
4DA
100
AcDbEntity
  8
MAIN0
  6
CONTINUOUS
 62
3
100
AcDbLine
 10
396.7596375108558
 20
692.4783450694729
 30
0.0000000000000000
 11
399.2596375108559
 21
693.9217207424470
 31
0.0000000000000000
  0
LINE
  5
4DB
100
AcDbEntity
  8
MAIN0
  6
CONTINUOUS
 62
3
100
AcDbLine
 10
399.2596375108558
 20
693.9217207424472
 30
0.0000000000000000
 11
399.2596375108558
 21
696.8084720883953
 31
0.0000000000000000
  0
LINE
  5
4DC
100
AcDbEntity
  8
MAIN0
  6
CONTINUOUS
 62
3
100
AcDbLine
 10
399.2596375108559
 20
696.8084720883952
 30
0.0000000000000000
 11
396.7596375108559
 21
698.2518477613693
 31
0.0000000000000000
  0
CIRCLE
  5
4DD
100
AcDbEntity
  8
MAIN0
  6
CONTINUOUS
 62
3
100
AcDbCircle
 10
1034.491686207080
 20
202.2069427446366
 30
0.0000000000000000
 40
8.000000000000000
  0
CIRCLE
  5
4DE
100
AcDbEntity
  8
MAIN0
  6
CONTINUOUS
 62
3
100
AcDbCircle
 10
1034.491686207080
 20
202.2069427446366
 30
0.0000000000000000
 40
7.000000000000000
  0
LINE
  5
4DF
100
AcDbEntity
  8
WAKU0
  6
CONTINUOUS
 62
3
100
AcDbLine
 10
240.0000000000000
 20
51.00000000000000
 30
0.0000000000000000
 11
410.0000000000000
 21
51.00000000000000
 31
0.0000000000000000
  0
LINE
  5
4E0
100
AcDbEntity
  8
WAKU0
  6
CONTINUOUS
 62
3
100
AcDbLine
 10
240.0000000000000
 20
51.00000000000000
 30
0.0000000000000000
 11
240.0000000000000
 21
12.00000000000000
 31
0.0000000000000000
  0
LINE
  5
4E1
100
AcDbEntity
  8
WAKU0
  6
CONTINUOUS
 62
3
100
AcDbLine
 10
312.0000000000000
 20
51.00000000000000
 30
0.0000000000000000
 11
312.0000000000000
 21
12.00000000000000
 31
0.0000000000000000
  0
LINE
  5
4E2
100
AcDbEntity
  8
WAKU0
  6
CONTINUOUS
 62
3
100
AcDbLine
 10
332.0000000000000
 20
51.00000000000000
 30
0.0000000000000000
 11
332.0000000000000
 21
12.00000000000000
 31
0.0000000000000000
  0
LINE
  5
4E3
100
AcDbEntity
  8
WAKU0
  6
CONTINUOUS
 62
3
100
AcDbLine
 10
344.0000000000000
 20
51.00000000000000
 30
0.0000000000000000
 11
344.0000000000000
 21
12.00000000000000
 31
0.0000000000000000
  0
LINE
  5
4E4
100
AcDbEntity
  8
WAKU0
  6
CONTINUOUS
 62
3
100
AcDbLine
 10
344.0000000000000
 20
37.00000000000000
 30
0.0000000000000000
 11
410.0000000000000
 21
37.00000000000000
 31
0.0000000000000000
  0
LINE
  5
4E5
100
AcDbEntity
  8
WAKU0
  6
CONTINUOUS
 62
3
100
AcDbLine
 10
332.0000000000000
 20
23.00000000000000
 30
0.0000000000000000
 11
410.0000000000000
 21
23.00000000000000
 31
0.0000000000000000
  0
LINE
  5
4E6
100
AcDbEntity
  8
WAKU0
  6
CONTINUOUS
 62
3
100
AcDbLine
 10
375.0000000000000
 20
51.00000000000000
 30
0.0000000000000000
 11
375.0000000000000
 21
44.00000000000000
 31
0.0000000000000000
  0
LINE
  5
4E7
100
AcDbEntity
  8
WAKU0
  6
CONTINUOUS
 62
3
100
AcDbLine
 10
387.0000000000000
 20
51.00000000000000
 30
0.0000000000000000
 11
387.0000000000000
 21
44.00000000000000
 31
0.0000000000000000
  0
LINE
  5
4E8
100
AcDbEntity
  8
WAKU0
  6
CONTINUOUS
 62
3
100
AcDbLine
 10
312.0000000000000
 20
31.50000000000000
 30
0.0000000000000000
 11
332.0000000000000
 21
31.50000000000000
 31
0.0000000000000000
  0
LINE
  5
4E9
100
AcDbEntity
  8
WAKU0
  6
CONTINUOUS
 62
3
100
AcDbLine
 10
332.0000000000000
 20
44.00000000000000
 30
0.0000000000000000
 11
410.0000000000000
 21
44.00000000000000
 31
0.0000000000000000
  0
LINE
  5
4EA
100
AcDbEntity
  8
WAKU0
  6
CONTINUOUS
 62
3
100
AcDbLine
 10
240.0000000000000
 20
37.00000000000000
 30
0.0000000000000000
 11
312.0000000000000
 21
37.00000000000000
 31
0.0000000000000000
  0
LINE
  5
4EB
100
AcDbEntity
  8
WAKU0
  6
CONTINUOUS
 62
3
100
AcDbLine
 10
240.0000000000000
 20
23.00000000000000
 30
0.0000000000000000
 11
312.0000000000000
 21
23.00000000000000
 31
0.0000000000000000
  0
LINE
  5
4EC
100
AcDbEntity
  8
WAKU0
  6
CONTINUOUS
 62
3
100
AcDbLine
 10
288.0000000000000
 20
37.00000000000000
 30
0.0000000000000000
 11
288.0000000000000
 21
12.00000000000000
 31
0.0000000000000000
  0
LINE
  5
4ED
100
AcDbEntity
  8
WAKU0
  6
CONTINUOUS
 62
3
100
AcDbLine
 10
264.0000000000000
 20
37.00000000000000
 30
0.0000000000000000
 11
264.0000000000000
 21
23.00000000000000
 31
0.0000000000000000
  0
LINE
  5
4EE
100
AcDbEntity
  8
WAKU0
  6
CONTINUOUS
 62
3
100
AcDbLine
 10
300.0000000000000
 20
26.00000000000000
 30
0.0000000000000000
 11
300.0000000000000
 21
23.00000000000000
 31
0.0000000000000000
  0
LINE
  5
4EF
100
AcDbEntity
  8
WAKU0
  6
CONTINUOUS
 62
3
100
AcDbLine
 10
276.0000000000000
 20
26.00000000000000
 30
0.0000000000000000
 11
276.0000000000000
 21
23.00000000000000
 31
0.0000000000000000
  0
LINE
  5
4F0
100
AcDbEntity
  8
WAKU0
  6
CONTINUOUS
 62
3
100
AcDbLine
 10
252.0000000000000
 20
26.00000000000000
 30
0.0000000000000000
 11
252.0000000000000
 21
23.00000000000000
 31
0.0000000000000000
  0
LINE
  5
4F1
100
AcDbEntity
  8
WAKU0
  6
CONTINUOUS
 62
3
100
AcDbLine
 10
258.0000000000000
 20
51.00000000000000
 30
0.0000000000000000
 11
258.0000000000000
 21
37.00000000000000
 31
0.0000000000000000
  0
LINE
  5
4F2
100
AcDbEntity
  8
WAKU0
  6
CONTINUOUS
 62
3
100
AcDbLine
 10
240.0000000000000
 20
45.00000000000000
 30
0.0000000000000000
 11
312.0000000000000
 21
45.00000000000000
 31
0.0000000000000000
  0
LINE
  5
4F3
100
AcDbEntity
  8
WAKU0
  6
HIDDEN
 62
3
100
AcDbLine
 10
360.5000000000000
 20
23.00000000000000
 30
0.0000000000000000
 11
360.5000000000000
 21
12.00000000000000
 31
0.0000000000000000
  0
LINE
  5
4F4
100
AcDbEntity
  8
WAKU0
  6
HIDDEN
 62
3
100
AcDbLine
 10
372.9000000000000
 20
23.00000000000000
 30
0.0000000000000000
 11
372.9000000000000
 21
12.00000000000000
 31
0.0000000000000000
  0
MTEXT
  5
4F5
100
AcDbEntity
  8
WAKU0
  6
CONTINUOUS
 62
3
100
AcDbMText
 10
344.4820000243485
 20
49.04999995231628
 30
0.0000000000000000
 40
3.099999904632568
 41
0.0000000000000000
 71
     1
 72
     1
  1
{\H0.92x;{VQX160N}}
 11
1.000000000000000
 21
0.0000000000000000
 31
0.0000000000000000
  7
STANDARD
  0
MTEXT
  5
4F6
100
AcDbEntity
  8
WAKU0
  6
CONTINUOUS
 62
3
100
AcDbMText
 10
360.3350002765656
 20
43.50000000000000
 30
0.0000000000000000
 40
3.000000000000000
 41
0.0000000000000000
 71
     1
 72
     1
  1
{\H0.94x;{パワーバイス\PＰＯＷＥＲ　ＶＩＳＥ}}
 11
1.000000000000000
 21
0.0000000000000000
 31
0.0000000000000000
  7
KNJYOKO
  0
MTEXT
  5
4F7
100
AcDbEntity
  8
WAKU0
  6
CONTINUOUS
 62
3
100
AcDbMText
 10
348.9999989867210
 20
34.83333333333333
 30
0.0000000000000000
 40
4.000000000000000
 41
0.0000000000000000
 71
     1
 72
     1
  1
{\H0.59x;{ＶＱＸ１６０Ｎ　ガイケイ\PＶＱＸ１６０Ｎ　ＯＵＴＳＩＤＥ　ＶＩＥＷ}}
 11
1.000000000000000
 21
0.0000000000000000
 31
0.0000000000000000
  7
KNJYOKO
  0
MTEXT
  5
4F8
100
AcDbEntity
  8
WAKU0
  6
CONTINUOUS
 62
3
100
AcDbMText
 10
318.0049998760223
 20
39.29999995231628
 30
0.0000000000000000
 40
3.099999904632568
 41
0.0000000000000000
 71
     1
 72
     1
  1
{\H0.90x;{1:3}}
 11
1.000000000000000
 21
0.0000000000000000
 31
0.0000000000000000
  7
STANDARD
  0
MTEXT
  5
4F9
100
AcDbEntity
  8
WAKU0
  6
CONTINUOUS
 62
3
100
AcDbMText
 10
374.4000001549721
 20
20.15000009536743
 30
0.0000000000000000
 40
5.300000190734863
 41
0.0000000000000000
 71
     1
 72
     1
  1
{\H0.90x;{6953}}
 11
1.000000000000000
 21
0.0000000000000000
 31
0.0000000000000000
  7
STANDARD
  0
MTEXT
  5
4FA
100
AcDbEntity
  8
WAKU0
  6
CONTINUOUS
 62
3
100
AcDbMText
 10
362.3000000834465
 20
20.15000009536743
 30
0.0000000000000000
 40
5.300000190734863
 41
0.0000000000000000
 71
     1
 72
     1
  1
{\H0.87x;{39}}
 11
1.000000000000000
 21
0.0000000000000000
 31
0.0000000000000000
  7
STANDARD
  0
MTEXT
  5
4FB
100
AcDbEntity
  8
WAKU0
  6
CONTINUOUS
 62
3
100
AcDbMText
 10
345.5000001192093
 20
20.15000009536743
 30
0.0000000000000000
 40
5.300000190734863
 41
0.0000000000000000
 71
     1
 72
     1
  1
{\H0.89x;{61M}}
 11
1.000000000000000
 21
0.0000000000000000
 31
0.0000000000000000
  7
STANDARD
  0
MTEXT
  5
4FC
100
AcDbEntity
  8
WAKU0
  6
CONTINUOUS
 62
3
100
AcDbMText
 10
400.0000000476837
 20
20.15000009536743
 30
0.0000000000000000
 40
5.300000190734863
 41
0.0000000000000000
 71
     1
 72
     1
  1
{\H0.81x;{0}}
 11
1.000000000000000
 21
0.0000000000000000
 31
0.0000000000000000
  7
STANDARD
  0
MTEXT
  5
4FD
100
AcDbEntity
  8
WAKU0
  6
CONTINUOUS
 62
3
100
AcDbMText
 10
400.0000000819564
 20
44.84999990463257
 30
0.0000000000000000
 40
5.300000190734863
 41
0.0000000000000000
 71
     7
 72
     1
  1
{\H0.81x;{ }}
 11
1.000000000000000
 21
0.0000000000000000
 31
0.0000000000000000
  7
STANDARD
  0
MTEXT
  5
4FE
100
AcDbEntity
  8
WAKU0
  6
CONTINUOUS
 62
3
100
AcDbMText
 10
289.3850002884865
 20
33.00000000000000
 30
0.0000000000000000
 40
3.000000000000000
 41
0.0000000000000000
 71
     7
 72
     1
  1
{\H0.93x;{DRAWN BY}}
 11
1.000000000000000
 21
0.0000000000000000
 31
0.0000000000000000
  7
STANDARD
  0
MTEXT
  5
4FF
100
AcDbEntity
  8
WAKU0
  6
CONTINUOUS
 62
3
100
AcDbMText
 10
269.2149997949600
 20
32.95000004768372
 30
0.0000000000000000
 40
3.099999904632568
 41
0.0000000000000000
 71
     7
 72
     1
  1
{\H0.92x;{CHIEF}}
 11
1.000000000000000
 21
0.0000000000000000
 31
0.0000000000000000
  7
STANDARD
  0
MTEXT
  5
500
100
AcDbEntity
  8
WAKU0
  6
CONTINUOUS
 62
3
100
AcDbMText
 10
242.4249997138977
 20
32.95000004768372
 30
0.0000000000000000
 40
3.099999904632568
 41
0.0000000000000000
 71
     7
 72
     1
  1
{\H0.92x;{MANAGER}}
 11
1.000000000000000
 21
0.0000000000000000
 31
0.0000000000000000
  7
STANDARD
  0
MTEXT
  5
501
100
AcDbEntity
  8
WAKU0
  6
CONTINUOUS
 62
3
100
AcDbMText
 10
244.6599994301796
 20
18.13333336512248
 30
0.0000000000000000
 40
3.099999904632568
 41
0.0000000000000000
 71
     7
 72
     1
  1
{\H0.93x;{KITAGAWA IRON\PWORKS CO.,LTD.}}
 11
1.000000000000000
 21
0.0000000000000000
 31
0.0000000000000000
  7
STANDARD
  0
MTEXT
  5
502
100
AcDbEntity
  8
WAKU0
  6
CONTINUOUS
 62
3
100
AcDbMText
 10
241.0850002169609
 20
46.50000000000000
 30
0.0000000000000000
 40
3.000000000000000
 41
0.0000000000000000
 71
     7
 72
     1
  1
{\H0.92x;{CAREER}}
 11
1.000000000000000
 21
0.0000000000000000
 31
0.0000000000000000
  7
STANDARD
  0
MTEXT
  5
503
100
AcDbEntity
  8
WAKU0
  6
CONTINUOUS
 62
3
100
AcDbMText
 10
294.6099998354912
 20
18.95000004768372
 30
0.0000000000000000
 40
3.099999904632568
 41
0.0000000000000000
 71
     7
 72
     1
  1
{\H0.91x;{DATE}}
 11
1.000000000000000
 21
0.0000000000000000
 31
0.0000000000000000
  7
STANDARD
  0
MTEXT
  5
504
100
AcDbEntity
  8
WAKU0
  6
CONTINUOUS
 62
3
100
AcDbMText
 10
313.9000002145767
 20
26.50000000000000
 30
0.0000000000000000
 40
3.000000000000000
 41
0.0000000000000000
 71
     7
 72
     1
  1
{\H0.63x;{3RD ANGLE}}
 11
1.000000000000000
 21
0.0000000000000000
 31
0.0000000000000000
  7
STANDARD
  0
MTEXT
  5
505
100
AcDbEntity
  8
WAKU0
  6
CONTINUOUS
 62
3
100
AcDbMText
 10
315.2149997949600
 20
45.95000004768372
 30
0.0000000000000000
 40
3.099999904632568
 41
0.0000000000000000
 71
     7
 72
     1
  1
{\H0.92x;{SCALE}}
 11
1.000000000000000
 21
0.0000000000000000
 31
0.0000000000000000
  7
STANDARD
  0
MTEXT
  5
506
100
AcDbEntity
  8
WAKU0
  6
CONTINUOUS
 62
3
100
AcDbMText
 10
405.7000000476837
 20
46.00000000000000
 30
0.0000000000000000
 40
3.000000000000000
 41
0.0000000000000000
 71
     7
 72
     1
  1
{\H0.63x;{kg}}
 11
1.000000000000000
 21
0.0000000000000000
 31
0.0000000000000000
  7
STANDARD
  0
MTEXT
  5
507
100
AcDbEntity
  8
WAKU0
  6
CONTINUOUS
 62
3
100
AcDbMText
 10
375.6000001430512
 20
46.00000000000000
 30
0.0000000000000000
 40
3.000000000000000
 41
0.0000000000000000
 71
     7
 72
     1
  1
{\H0.63x;{WEIGHT}}
 11
1.000000000000000
 21
0.0000000000000000
 31
0.0000000000000000
  7
STANDARD
  0
MTEXT
  5
508
100
AcDbEntity
  8
WAKU0
  6
CONTINUOUS
 62
3
100
AcDbMText
 10
334.0049998760223
 20
18.13333336512248
 30
0.0000000000000000
 40
3.099999904632568
 41
0.0000000000000000
 71
     7
 72
     1
  1
{\H0.90x;{DRW\PNO.}}
 11
1.000000000000000
 21
0.0000000000000000
 31
0.0000000000000000
  7
STANDARD
  0
MTEXT
  5
509
100
AcDbEntity
  8
WAKU0
  6
CONTINUOUS
 62
3
100
AcDbMText
 10
332.6099998354912
 20
31.95000004768372
 30
0.0000000000000000
 40
3.099999904632568
 41
0.0000000000000000
 71
     7
 72
     1
  1
{\H0.91x;{NAME}}
 11
1.000000000000000
 21
0.0000000000000000
 31
0.0000000000000000
  7
STANDARD
  0
MTEXT
  5
50A
100
AcDbEntity
  8
WAKU0
  6
CONTINUOUS
 62
3
100
AcDbMText
 10
332.6099998354912
 20
45.95000004768372
 30
0.0000000000000000
 40
3.099999904632568
 41
0.0000000000000000
 71
     7
 72
     1
  1
{\H0.91x;{TYPE}}
 11
1.000000000000000
 21
0.0000000000000000
 31
0.0000000000000000
  7
STANDARD
  0
LINE
  5
50B
100
AcDbEntity
  8
WAKU0
  6
HIDDEN
 62
3
100
AcDbLine
 10
407.1599564743885
 20
13.84999990463257
 30
0.0000000000000000
 11
396.9400436209789
 21
13.84999990463257
 31
0.0000000000000000
  0
LINE
  5
50C
100
AcDbEntity
  8
WAKU0
  6
HIDDEN
 62
3
100
AcDbLine
 10
407.1599564743885
 20
13.84999990463250
 30
0.0000000000000000
 11
402.0500000476852
 21
22.70070406014901
 31
0.0000000000000000
  0
LINE
  5
50D
100
AcDbEntity
  8
WAKU0
  6
HIDDEN
 62
3
100
AcDbLine
 10
402.0500000476852
 20
22.70070406014902
 30
0.0000000000000000
 11
396.9400436209789
 21
13.84999990463248
 31
0.0000000000000000
  0
LINE
  5
50E
100
AcDbEntity
  8
WAKU0
  6
CONTINUOUS
 62
3
100
AcDbLine
 10
330.4713877753800
 20
15.78041421262812
 30
0.0000000000000000
 11
330.4713877753800
 21
21.78041421262815
 31
0.0000000000000000
  0
LINE
  5
50F
100
AcDbEntity
  8
WAKU0
  6
CONTINUOUS
 62
3
100
AcDbLine
 10
323.9336941228225
 20
17.28041421262811
 30
0.0000000000000000
 11
323.9336941228225
 21
20.28041421262824
 31
0.0000000000000000
  0
LINE
  5
510
100
AcDbEntity
  8
WAKU0
  6
CENTER
 62
12
100
AcDbLine
 10
313.4321805514995
 20
18.78041421262813
 30
0.0000000000000000
 11
331.2765788964694
 21
18.78041421262813
 31
0.0000000000000000
  0
LINE
  5
511
100
AcDbEntity
  8
WAKU0
  6
CENTER
 62
12
100
AcDbLine
 10
317.4474565857986
 20
14.55921662918448
 30
0.0000000000000000
 11
317.4474565857986
 21
22.89865102149943
 31
0.0000000000000000
  0
LINE
  5
512
100
AcDbEntity
  8
WAKU0
  6
CONTINUOUS
 62
3
100
AcDbLine
 10
323.9336941228225
 20
20.28041421262797
 30
0.0000000000000000
 11
330.4713877753800
 21
21.78041421262795
 31
0.0000000000000000
  0
LINE
  5
513
100
AcDbEntity
  8
WAKU0
  6
CONTINUOUS
 62
3
100
AcDbLine
 10
323.9336941228225
 20
17.28041421262811
 30
0.0000000000000000
 11
330.4713877753799
 21
15.78041421262812
 31
0.0000000000000000
  0
CIRCLE
  5
514
100
AcDbEntity
  8
WAKU0
  6
CONTINUOUS
 62
3
100
AcDbCircle
 10
317.4474565857986
 20
18.78041421262813
 30
0.0000000000000000
 40
1.499999999999972
  0
CIRCLE
  5
515
100
AcDbEntity
  8
WAKU0
  6
CONTINUOUS
 62
3
100
AcDbCircle
 10
317.4474565857986
 20
18.78041421262813
 30
0.0000000000000000
 40
2.999999999999979
  0
MTEXT
  5
516
100
AcDbEntity
  8
A0
  6
CONTINUOUS
 62
3
100
AcDbMText
 10
115.7386018835076
 20
183.4350545476229
 30
0.0000000000000000
 40
7.749999761581421
 41
0.0000000000000000
 71
     1
 72
     1
  1
{\H0.71x;{仕様　　SPECIFICATIONS}}
 11
1.000000000000000
 21
0.0000000000000000
 31
0.0000000000000000
  7
KNJYOKO
  0
LINE
  5
517
100
AcDbEntity
  8
A0
  6
CONTINUOUS
 62
3
100
AcDbLine
 10
98.86360307557595
 20
185.9350545471605
 30
0.0000000000000000
 11
231.8636025987870
 21
185.9350545472785
 31
0.0000000000000000
  0
LINE
  5
518
100
AcDbEntity
  8
A0
  6
CONTINUOUS
 62
3
100
AcDbLine
 10
98.86360307557705
 20
173.1850547860117
 30
0.0000000000000000
 11
231.8636025987871
 21
173.1850547860709
 31
0.0000000000000000
  0
MTEXT
  5
519
100
AcDbEntity
  8
A0
  6
CONTINUOUS
 62
3
100
AcDbMText
 10
100.1136030755930
 20
171.9350547857496
 30
0.0000000000000000
 40
7.749999761581421
 41
0.0000000000000000
 71
     1
 72
     1
  1
{\H0.70x;{口金の開き}}
 11
1.000000000000000
 21
0.0000000000000000
 31
0.0000000000000000
  7
KNJYOKO
  0
MTEXT
  5
51A
100
AcDbEntity
  8
A0
  6
CONTINUOUS
 62
3
100
AcDbMText
 10
100.1136030755930
 20
161.6850550241682
 30
0.0000000000000000
 40
7.749999761581421
 41
0.0000000000000000
 71
     1
 72
     1
  1
{\H0.71x;{CLAMPING RANGE}}
 11
1.000000000000000
 21
0.0000000000000000
 31
0.0000000000000000
  7
STANDARD
  0
MTEXT
  5
51B
100
AcDbEntity
  8
A0
  6
CONTINUOUS
 62
3
100
AcDbMText
 10
100.1136030755930
 20
151.4350552625867
 30
0.0000000000000000
 40
7.749999761581421
 41
0.0000000000000000
 71
     1
 72
     1
  1
{\H0.70x;{締付トルク}}
 11
1.000000000000000
 21
0.0000000000000000
 31
0.0000000000000000
  7
KNJYOKO
  0
MTEXT
  5
51C
100
AcDbEntity
  8
A0
  6
CONTINUOUS
 62
3
100
AcDbMText
 10
100.1136030755930
 20
141.1850555010053
 30
0.0000000000000000
 40
7.749999761581421
 41
0.0000000000000000
 71
     1
 72
     1
  1
{\H0.71x;{TIGHTENING TORQUE}}
 11
1.000000000000000
 21
0.0000000000000000
 31
0.0000000000000000
  7
STANDARD
  0
MTEXT
  5
51D
100
AcDbEntity
  8
A0
  6
CONTINUOUS
 62
3
100
AcDbMText
 10
100.1136030755930
 20
130.9350557394239
 30
0.0000000000000000
 40
7.749999761581421
 41
0.0000000000000000
 71
     1
 72
     1
  1
{\H0.70x;{締付けレンジ}}
 11
1.000000000000000
 21
0.0000000000000000
 31
0.0000000000000000
  7
KNJYOKO
  0
MTEXT
  5
51E
100
AcDbEntity
  8
A0
  6
CONTINUOUS
 62
3
100
AcDbMText
 10
100.1136030755930
 20
120.6850559778425
 30
0.0000000000000000
 40
7.749999761581421
 41
0.0000000000000000
 71
     1
 72
     1
  1
{\H0.71x;{CLAMP RANGE}}
 11
1.000000000000000
 21
0.0000000000000000
 31
0.0000000000000000
  7
STANDARD
  0
LINE
  5
51F
100
AcDbEntity
  8
A0
  6
CONTINUOUS
 62
3
100
AcDbLine
 10
231.8636025987871
 20
80.93505669381584
 30
0.0000000000000000
 11
98.86360307558269
 21
80.93505669375672
 31
0.0000000000000000
  0
MTEXT
  5
520
100
AcDbEntity
  8
A0
  6
CONTINUOUS
 62
3
100
AcDbMText
 10
100.1136030755931
 20
79.68505669349456
 30
0.0000000000000000
 40
7.749999761581421
 41
0.0000000000000000
 71
     1
 72
     1
  1
{\H0.70x;{製品質量}}
 11
1.000000000000000
 21
0.0000000000000000
 31
0.0000000000000000
  7
KNJYOKO
  0
MTEXT
  5
521
100
AcDbEntity
  8
A0
  6
CONTINUOUS
 62
3
100
AcDbMText
 10
100.1136030755931
 20
69.43505693191314
 30
0.0000000000000000
 40
6.999999880790710
 41
0.0000000000000000
 71
     1
 72
     1
  1
{\H0.67x;{MASS OF POWER VISE}}
 11
1.000000000000000
 21
0.0000000000000000
 31
0.0000000000000000
  7
STANDARD
  0
LINE
  5
522
100
AcDbEntity
  8
A0
  6
CONTINUOUS
 62
3
100
AcDbLine
 10
231.8636025987871
 20
61.18505705106990
 30
0.0000000000000000
 11
98.86360307558419
 21
61.18505705095195
 31
0.0000000000000000
  0
LINE
  5
523
100
AcDbEntity
  8
A0
  6
CONTINUOUS
 62
3
100
AcDbLine
 10
98.86360307557602
 20
185.9350545471601
 30
0.0000000000000000
 11
98.86360307558427
 21
61.18505705095167
 31
0.0000000000000000
  0
LINE
  5
524
100
AcDbEntity
  8
A0
  6
CONTINUOUS
 62
3
100
AcDbLine
 10
231.8636025987870
 20
132.1850557397452
 30
0.0000000000000000
 11
98.86360307558026
 21
132.1850557396861
 31
0.0000000000000000
  0
LINE
  5
525
100
AcDbEntity
  8
A0
  6
CONTINUOUS
 62
3
100
AcDbLine
 10
98.86360307557857
 20
152.6850552624162
 30
0.0000000000000000
 11
231.8636025987871
 21
152.6850552625341
 31
0.0000000000000000
  0
LINE
  5
526
100
AcDbEntity
  8
A0
  6
CONTINUOUS
 62
3
100
AcDbLine
 10
186.6136016450793
 20
173.1850547860487
 30
0.0000000000000000
 11
186.6136016450793
 21
152.6850552624894
 31
0.0000000000000000
  0
MTEXT
  5
527
100
AcDbEntity
  8
A0
  6
CONTINUOUS
 62
3
100
AcDbMText
 10
187.8636016450815
 20
166.8100549049589
 30
0.0000000000000000
 40
7.749999761581421
 41
0.0000000000000000
 71
     1
 72
     1
  1
{\H0.70x;{０～２７５mm}}
 11
1.000000000000000
 21
0.0000000000000000
 31
0.0000000000000000
  7
KNJYOKO
  0
LINE
  5
528
100
AcDbEntity
  8
A0
  6
CONTINUOUS
 62
3
100
AcDbLine
 10
231.8636025987869
 20
185.9350545472784
 30
0.0000000000000000
 11
231.8636025987870
 21
61.18505705106525
 31
0.0000000000000000
  0
MTEXT
  5
529
100
AcDbEntity
  8
A0
  6
CONTINUOUS
 62
3
100
AcDbMText
 10
207.5846557670815
 20
120.6850559774632
 30
0.0000000000000000
 40
7.749999761581421
 41
0.0000000000000000
 71
     1
 72
     1
  1
{\H0.70x;{18KN}}
 11
1.000000000000000
 21
0.0000000000000000
 31
0.0000000000000000
  7
STANDARD
  0
MTEXT
  5
52A
100
AcDbEntity
  8
A0
  6
CONTINUOUS
 62
3
100
AcDbMText
 10
207.5846557670815
 20
110.4350562158818
 30
0.0000000000000000
 40
7.749999761581421
 41
0.0000000000000000
 71
     1
 72
     1
  1
{\H0.70x;{32KN}}
 11
1.000000000000000
 21
0.0000000000000000
 31
0.0000000000000000
  7
STANDARD
  0
MTEXT
  5
52B
100
AcDbEntity
  8
A0
  6
CONTINUOUS
 62
3
100
AcDbMText
 10
207.5846557670815
 20
100.1850564543004
 30
0.0000000000000000
 40
7.749999761581421
 41
0.0000000000000000
 71
     1
 72
     1
  1
{\H0.70x;{46KN}}
 11
1.000000000000000
 21
0.0000000000000000
 31
0.0000000000000000
  7
STANDARD
  0
LINE
  5
52C
100
AcDbEntity
  8
A0
  6
CONTINUOUS
 62
3
100
AcDbLine
 10
203.7623965149608
 20
132.1850557397306
 30
0.0000000000000000
 11
203.7623965149609
 21
80.93505669380339
 31
0.0000000000000000
  0
MTEXT
  5
52D
100
AcDbEntity
  8
A0
  6
CONTINUOUS
 62
3
100
AcDbMText
 10
192.8636021219187
 20
100.1850564543013
 30
0.0000000000000000
 40
7.749999761581421
 41
0.0000000000000000
 71
     1
 72
     1
  1
{\H0.67x;{3}}
 11
1.000000000000000
 21
0.0000000000000000
 31
0.0000000000000000
  7
STANDARD
  0
MTEXT
  5
52E
100
AcDbEntity
  8
A0
  6
CONTINUOUS
 62
3
100
AcDbMText
 10
192.8636021219187
 20
110.4350562158827
 30
0.0000000000000000
 40
7.749999761581421
 41
0.0000000000000000
 71
     1
 72
     1
  1
{\H0.67x;{2}}
 11
1.000000000000000
 21
0.0000000000000000
 31
0.0000000000000000
  7
STANDARD
  0
MTEXT
  5
52F
100
AcDbEntity
  8
A0
  6
CONTINUOUS
 62
3
100
AcDbMText
 10
192.8636021219187
 20
120.6850559774642
 30
0.0000000000000000
 40
7.749999761581421
 41
0.0000000000000000
 71
     1
 72
     1
  1
{\H0.67x;{1}}
 11
1.000000000000000
 21
0.0000000000000000
 31
0.0000000000000000
  7
STANDARD
  0
LINE
  5
530
100
AcDbEntity
  8
A0
  6
CONTINUOUS
 62
3
100
AcDbLine
 10
186.6136016450793
 20
132.1850557397230
 30
0.0000000000000000
 11
186.6136016450794
 21
61.18505705102524
 31
0.0000000000000000
  0
LINE
  5
531
100
AcDbEntity
  8
A0
  6
CONTINUOUS
 62
3
100
AcDbLine
 10
186.6136016450793
 20
121.9350559777453
 30
0.0000000000000000
 11
231.8636025987871
 21
121.9350559777855
 31
0.0000000000000000
  0
LINE
  5
532
100
AcDbEntity
  8
A0
  6
CONTINUOUS
 62
3
100
AcDbLine
 10
186.6136016450792
 20
111.6850562165603
 30
0.0000000000000000
 11
231.8636025987868
 21
111.6850562165803
 31
0.0000000000000000
  0
MTEXT
  5
533
100
AcDbEntity
  8
A0
  6
CONTINUOUS
 62
3
100
AcDbMText
 10
198.2424152922531
 20
74.56005681269362
 30
0.0000000000000000
 40
7.749999761581421
 41
0.0000000000000000
 71
     1
 72
     1
  1
{\H0.70x;{62kg}}
 11
1.000000000000000
 21
0.0000000000000000
 31
0.0000000000000000
  7
STANDARD
  0
LINE
  5
534
100
AcDbEntity
  8
A0
  6
CONTINUOUS
 62
3
100
AcDbLine
 10
186.6136016450793
 20
101.4350564553753
 30
0.0000000000000000
 11
231.8636025987869
 21
101.4350564553953
 31
0.0000000000000000
  0
MTEXT
  5
535
100
AcDbEntity
  8
A0
  6
CONTINUOUS
 62
3
100
AcDbMText
 10
192.8636021219188
 20
89.93505669389099
 30
0.0000000000000000
 40
7.749999761581421
 41
0.0000000000000000
 71
     1
 72
     1
  1
{\H0.67x;{4}}
 11
1.000000000000000
 21
0.0000000000000000
 31
0.0000000000000000
  7
STANDARD
  0
MTEXT
  5
536
100
AcDbEntity
  8
A0
  6
CONTINUOUS
 62
3
100
AcDbMText
 10
207.5846557670815
 20
89.93505669389008
 30
0.0000000000000000
 40
7.749999761581421
 41
0.0000000000000000
 71
     1
 72
     1
  1
{\H0.70x;{60KN}}
 11
1.000000000000000
 21
0.0000000000000000
 31
0.0000000000000000
  7
STANDARD
  0
MTEXT
  5
537
100
AcDbEntity
  8
A0
  6
CONTINUOUS
 62
3
100
AcDbMText
 10
192.8636021219188
 20
130.9350557386693
 30
0.0000000000000000
 40
7.749999761581421
 41
0.0000000000000000
 71
     1
 72
     1
  1
{\H0.67x;{0}}
 11
1.000000000000000
 21
0.0000000000000000
 31
0.0000000000000000
  7
STANDARD
  0
MTEXT
  5
538
100
AcDbEntity
  8
A0
  6
CONTINUOUS
 62
3
100
AcDbMText
 10
207.5846557670815
 20
130.9350557386684
 30
0.0000000000000000
 40
7.749999761581421
 41
0.0000000000000000
 71
     1
 72
     1
  1
{\H0.70x;{10KN}}
 11
1.000000000000000
 21
0.0000000000000000
 31
0.0000000000000000
  7
STANDARD
  0
LINE
  5
539
100
AcDbEntity
  8
A0
  6
CONTINUOUS
 62
3
100
AcDbLine
 10
186.6136016450839
 20
91.18505645537525
 30
0.0000000000000000
 11
231.8636025987915
 21
91.18505645539526
 31
0.0000000000000000
  0
ENDSEC
  0
SECTION
  2
OBJECTS
  0
DICTIONARY
  5
598
100
AcDbDictionary
  3
ACAD_GROUP
350
599
  3
ACAD_MLINESTYLE
350
59A
  0
DICTIONARY
  5
599
102
{ACAD_REACTORS
330
598
102
}
100
AcDbDictionary
  0
DICTIONARY
  5
59A
102
{ACAD_REACTORS
330
598
102
}
100
AcDbDictionary
  3
STANDARD
350
59B
  0
MLINESTYLE
  5
59B
102
{ACAD_REACTORS
330
59A
102
}
100
AcDbMlineStyle
  2
STANDARD
 70
     0
  3

 62
   256
 51
90.00
 52
90.00
 71
     2
 49
0.50
 62
   256
  6
BYLAYER
 49
-0.50
 62
   256
  6
BYLAYER
  0
ENDSEC
  0
EOF
