  0
SECTION
  2
HEADER
  9
$ACADVER
  1
AC1014
  9
$DWGCODEPAGE
  3
ANSI_932
  9
$LTSCALE
 40
20.0
  9
$FILLMODE
 70
     1
  9
$CLAYER
  8
0
  9
$PDMODE
 70
     0
  9
$SPLFRAME
 70
     0
  9
$SPLINETYPE
 70
     6
  9
$SPLINESEGS
 70
     8
  9
$DIMASZ
 40
2.000000
  9
$DIMEXE
 40
2.000000
  9
$DIMEXO
 40
0.800000
  9
$DIMTAD
 70
     1
  9
$DIMTIH
 70
     0
  9
$DIMTOH
 70
     0
  9
$DIMTVP
 40
0.500000
  9
$DIMTXT
 40
3.100000
  9
$EXTMIN
 10
0.000000
 20
0.000000
 30
0.000000
  9
$EXTMAX
 10
297.000000
 20
420.000000
 30
0.000000
  9
$MEASUREMENT
 70
  1
  9
$LIMMIN
 10
0.000000
 20
0.000000
  9
$LIMMAX
 10
297.000000
 20
420.000000
  9
$HANDLING
 70
     1
  9
$HANDSEED
  5
5CE
  9
$DIMBLK
  1
_OPEN
  9
$DIMDEC
 70
     3
  9
$DIMAUNIT
 70
     1
  9
$DIMZIN
 70
     8
  9
$DIMTOFL
 70
     1
  0
ENDSEC
  0
SECTION
  2
CLASSES
  0
ENDSEC
  0
SECTION
  2
TABLES
  0
TABLE
  2
VPORT
  5
565
100
AcDbSymbolTable
 70
     1
  0
VPORT
  5
566
100
AcDbSymbolTableRecord
100
AcDbViewportTableRecord
  2
*ACTIVE
 70
     0
 12
597.129556
 22
777.773531
 40
2742.498313
 41
1.281418
  0
ENDTAB
  0
TABLE
  2
LTYPE
  5
567
100
AcDbSymbolTable
 70
     5
  0
LTYPE
  5
568
100
AcDbSymbolTableRecord
100
AcDbLinetypeTableRecord
  2
BYBLOCK
 70
     0
  3

 72
    65
 73
     0
 40
0.0
  0
LTYPE
  5
569
100
AcDbSymbolTableRecord
100
AcDbLinetypeTableRecord
  2
BYLAYER
 70
     0
  3

 72
    65
 73
     0
 40
0.0
  0
LTYPE
  5
56A
100
AcDbSymbolTableRecord
100
AcDbLinetypeTableRecord
  2
CONTINUOUS
 70
     0
  3
Solid line (NEC CAE2D for Win R12.1 : 2016.08.08)
 72
    65
 73
     0
 40
0.0
  0
LTYPE
  5
56B
100
AcDbSymbolTableRecord
100
AcDbLinetypeTableRecord
  2
DASHED
 70
     0
  3
__ __ __ __ __ __ __ __ __ __ __ __ __ _
 72
    65
 73
     2
 40
0.75
 49
0.5
 74
     0
 49
-0.25
 74
     0
  0
LTYPE
  5
56C
100
AcDbSymbolTableRecord
100
AcDbLinetypeTableRecord
  2
HIDDEN
 70
     0
  3
__ __ __ __ __ __ __ __ __ __ __ __ __ __
 72
    65
 73
     2
 40
0.375
 49
0.25
 74
     0
 49
-0.125
 74
     0
  0
LTYPE
  5
56D
100
AcDbSymbolTableRecord
100
AcDbLinetypeTableRecord
  2
CENTER
 70
     0
  3
____ _ ____ _ ____ _ ____ _ ____ _ ____
 72
    65
 73
     4
 40
2.0
 49
1.25
 74
     0
 49
-0.25
 74
     0
 49
0.25
 74
     0
 49
-0.25
 74
     0
  0
LTYPE
  5
56E
100
AcDbSymbolTableRecord
100
AcDbLinetypeTableRecord
  2
PHANTOM
 70
     0
  3
______  __  __  ______  __  __  ______ 
 72
    65
 73
     6
 40
2.5
 49
1.25
 74
     0
 49
-0.25
 74
     0
 49
0.25
 74
     0
 49
-0.25
 74
     0
 49
0.25
 74
     0
 49
-0.25
 74
     0
  0
ENDTAB
  0
TABLE
  2
LAYER
  5
56F
100
AcDbSymbolTable
 70
    19
  0
LAYER
  5
570
100
AcDbSymbolTableRecord
100
AcDbLayerTableRecord
  2
0
 70
     0
 62
     7
  6
CONTINUOUS
  0
LAYER
  5
571
100
AcDbSymbolTableRecord
100
AcDbLayerTableRecord
  2
MAIN0
 70
     0
 62
     7
  6
CONTINUOUS
  0
LAYER
  5
572
100
AcDbSymbolTableRecord
100
AcDbLayerTableRecord
  2
MAIN1
 70
     0
 62
     7
  6
CONTINUOUS
  0
LAYER
  5
573
100
AcDbSymbolTableRecord
100
AcDbLayerTableRecord
  2
MAIN2
 70
     0
 62
     5
  6
CONTINUOUS
  0
LAYER
  5
574
100
AcDbSymbolTableRecord
100
AcDbLayerTableRecord
  2
MAIN3
 70
     0
 62
    14
  6
CONTINUOUS
  0
LAYER
  5
575
100
AcDbSymbolTableRecord
100
AcDbLayerTableRecord
  2
MAIN4
 70
     0
 62
     9
  6
CONTINUOUS
  0
LAYER
  5
576
100
AcDbSymbolTableRecord
100
AcDbLayerTableRecord
  2
MAIN5
 70
     0
 62
     9
  6
CONTINUOUS
  0
LAYER
  5
577
100
AcDbSymbolTableRecord
100
AcDbLayerTableRecord
  2
MAIN6
 70
     0
 62
    10
  6
CONTINUOUS
  0
LAYER
  5
578
100
AcDbSymbolTableRecord
100
AcDbLayerTableRecord
  2
MAIN7
 70
     0
 62
     7
  6
CONTINUOUS
  0
LAYER
  5
579
100
AcDbSymbolTableRecord
100
AcDbLayerTableRecord
  2
MAIN8
 70
     0
 62
    12
  6
CONTINUOUS
  0
LAYER
  5
57A
100
AcDbSymbolTableRecord
100
AcDbLayerTableRecord
  2
MAIN9
 70
     0
 62
     8
  6
CONTINUOUS
  0
LAYER
  5
57B
100
AcDbSymbolTableRecord
100
AcDbLayerTableRecord
  2
MAIN10
 70
     0
 62
     7
  6
CONTINUOUS
  0
LAYER
  5
57C
100
AcDbSymbolTableRecord
100
AcDbLayerTableRecord
  2
MAIN1023
 70
     0
 62
    16
  6
CONTINUOUS
  0
LAYER
  5
57D
100
AcDbSymbolTableRecord
100
AcDbLayerTableRecord
  2
A0
 70
     0
 62
     7
  6
CONTINUOUS
  0
LAYER
  5
57E
100
AcDbSymbolTableRecord
100
AcDbLayerTableRecord
  2
A1023
 70
     0
 62
    16
  6
CONTINUOUS
  0
LAYER
  5
57F
100
AcDbSymbolTableRecord
100
AcDbLayerTableRecord
  2
WAKU0
 70
     0
 62
     7
  6
CONTINUOUS
  0
LAYER
  5
580
100
AcDbSymbolTableRecord
100
AcDbLayerTableRecord
  2
WAKU1023
 70
     0
 62
    16
  6
CONTINUOUS
  0
LAYER
  5
581
100
AcDbSymbolTableRecord
100
AcDbLayerTableRecord
  2
B0
 70
     0
 62
     7
  6
CONTINUOUS
  0
LAYER
  5
582
100
AcDbSymbolTableRecord
100
AcDbLayerTableRecord
  2
B1023
 70
     0
 62
    16
  6
CONTINUOUS
  0
ENDTAB
  0
TABLE
  2
STYLE
  5
583
100
AcDbSymbolTable
 70
     4
  0
STYLE
  5
584
100
AcDbSymbolTableRecord
100
AcDbTextStyleTableRecord
  2
STANDARD
 70
    64
 40
0.0
 41
1.0
 50
0.0
 71
     0
 42
7.749999761581421
  3
TXT
  4

  0
STYLE
  5
585
100
AcDbSymbolTableRecord
100
AcDbTextStyleTableRecord
  2
ANKTATE
 70
    68
 40
0.0
 41
1.0
 50
0.0
 71
     0
 42
7.749999761581421
  3
TXT
  4

  0
STYLE
  5
3A0
100
AcDbSymbolTableRecord
100
AcDbTextStyleTableRecord
  2
KNJYOKO
 70
    64
 40
0.0
 41
1.0
 50
0.0
 71
     0
 42
7.749999761581421
  3
TXT
  4
BIGFONT
  0
STYLE
  5
586
100
AcDbSymbolTableRecord
100
AcDbTextStyleTableRecord
  2
KNJTATE
 70
    68
 40
0.0
 41
1.0
 50
0.0
 71
     0
 42
7.749999761581421
  3
TXT
  4
BIGFONT
  0
ENDTAB
  0
TABLE
  2
VIEW
  5
587
100
AcDbSymbolTable
 70
     0
  0
ENDTAB
  0
TABLE
  2
UCS
  5
588
100
AcDbSymbolTable
 70
     0
  0
ENDTAB
  0
TABLE
  2
APPID
  5
589
100
AcDbSymbolTable
 70
     1
  0
APPID
  5
58A
100
AcDbSymbolTableRecord
100
AcDbRegAppTableRecord
  2
ACAD
 70
     0
  0
ENDTAB
  0
TABLE
  2
DIMSTYLE
  5
58B
100
AcDbSymbolTable
 70
     1
  0
DIMSTYLE
105
58C
100
AcDbSymbolTableRecord
100
AcDbDimStyleTableRecord
  2
STANDARD
 70
     0
 41
2.000000
 44
2.000000
 42
0.800000
145
0.661290
140
3.100000
144
1.000000
146
0.903226
340
584
  0
DIMSTYLE
105
58D
100
AcDbSymbolTableRecord
100
AcDbDimStyleTableRecord
  2
MAIN001
 70
     0
 41
8.000000
 44
8.000000
 42
3.200000
145
0.540323
140
12.400000
144
1.000000
146
0.903226
 77
     1
 73
     0
 74
     0
271
     3
275
     1
 78
     8
172
     1
340
584
  0
DIMSTYLE
105
58E
100
AcDbSymbolTableRecord
100
AcDbDimStyleTableRecord
  2
A002
 70
     0
 41
3.000000
 44
3.000000
 42
1.200000
145
0.607527
140
4.650000
144
1.000000
146
0.903226
 77
     1
 73
     0
 74
     0
271
     3
275
     1
 78
     8
172
     1
340
584
  0
DIMSTYLE
105
58F
100
AcDbSymbolTableRecord
100
AcDbDimStyleTableRecord
  2
WAKU003
 70
     0
 41
2.000000
 44
2.000000
 42
0.800000
145
0.661290
140
3.100000
144
1.000000
146
0.903226
 77
     1
 73
     0
 74
     0
271
     3
275
     1
 78
     8
172
     1
340
584
  0
DIMSTYLE
105
590
100
AcDbSymbolTableRecord
100
AcDbDimStyleTableRecord
  2
B004
 70
     0
 41
5.000000
 44
5.000000
 42
2.000000
145
0.564516
140
7.750000
144
1.000000
146
0.903226
 77
     1
 73
     0
 74
     0
271
     3
275
     1
 78
     8
172
     1
340
584
  0
ENDTAB
  0
TABLE
  2
BLOCK_RECORD
  5
591
100
AcDbSymbolTable
 70
    61
  0
BLOCK_RECORD
  5
592
100
AcDbSymbolTableRecord
100
AcDbBlockTableRecord
  2
*MODEL_SPACE
  0
BLOCK_RECORD
  5
593
100
AcDbSymbolTableRecord
100
AcDbBlockTableRecord
  2
*PAPER_SPACE
  0
BLOCK_RECORD
  5
1
100
AcDbSymbolTableRecord
100
AcDbBlockTableRecord
  2
_NONE
  0
BLOCK_RECORD
  5
4
100
AcDbSymbolTableRecord
100
AcDbBlockTableRecord
  2
_CLOSED
  0
BLOCK_RECORD
  5
B
100
AcDbSymbolTableRecord
100
AcDbBlockTableRecord
  2
_DOT
  0
BLOCK_RECORD
  5
13
100
AcDbSymbolTableRecord
100
AcDbBlockTableRecord
  2
_OPEN
  0
BLOCK_RECORD
  5
19
100
AcDbSymbolTableRecord
100
AcDbBlockTableRecord
  2
_ORIGIN
  0
BLOCK_RECORD
  5
1E
100
AcDbSymbolTableRecord
100
AcDbBlockTableRecord
  2
_OPEN30
  0
BLOCK_RECORD
  5
24
100
AcDbSymbolTableRecord
100
AcDbBlockTableRecord
  2
_BOXFILLED
  0
BLOCK_RECORD
  5
29
100
AcDbSymbolTableRecord
100
AcDbBlockTableRecord
  2
_BOXBLANK
  0
BLOCK_RECORD
  5
31
100
AcDbSymbolTableRecord
100
AcDbBlockTableRecord
  2
_OBLIQUE
  0
BLOCK_RECORD
  5
35
100
AcDbSymbolTableRecord
100
AcDbBlockTableRecord
  2
_OPEN90
  0
BLOCK_RECORD
  5
3B
100
AcDbSymbolTableRecord
100
AcDbBlockTableRecord
  2
_CLOSEDBLANK
  0
BLOCK_RECORD
  5
41
100
AcDbSymbolTableRecord
100
AcDbBlockTableRecord
  2
_DOTBLANK
  0
BLOCK_RECORD
  5
594
100
AcDbSymbolTableRecord
100
AcDbBlockTableRecord
  2
*D0
  0
BLOCK_RECORD
  5
595
100
AcDbSymbolTableRecord
100
AcDbBlockTableRecord
  2
*D1
  0
BLOCK_RECORD
  5
596
100
AcDbSymbolTableRecord
100
AcDbBlockTableRecord
  2
*D2
  0
BLOCK_RECORD
  5
597
100
AcDbSymbolTableRecord
100
AcDbBlockTableRecord
  2
*D3
  0
BLOCK_RECORD
  5
598
100
AcDbSymbolTableRecord
100
AcDbBlockTableRecord
  2
*D4
  0
BLOCK_RECORD
  5
599
100
AcDbSymbolTableRecord
100
AcDbBlockTableRecord
  2
*D5
  0
BLOCK_RECORD
  5
59A
100
AcDbSymbolTableRecord
100
AcDbBlockTableRecord
  2
*D6
  0
BLOCK_RECORD
  5
59B
100
AcDbSymbolTableRecord
100
AcDbBlockTableRecord
  2
*D7
  0
BLOCK_RECORD
  5
59C
100
AcDbSymbolTableRecord
100
AcDbBlockTableRecord
  2
*D8
  0
BLOCK_RECORD
  5
59D
100
AcDbSymbolTableRecord
100
AcDbBlockTableRecord
  2
*D9
  0
BLOCK_RECORD
  5
59E
100
AcDbSymbolTableRecord
100
AcDbBlockTableRecord
  2
*D10
  0
BLOCK_RECORD
  5
59F
100
AcDbSymbolTableRecord
100
AcDbBlockTableRecord
  2
*D11
  0
BLOCK_RECORD
  5
5A0
100
AcDbSymbolTableRecord
100
AcDbBlockTableRecord
  2
*D12
  0
BLOCK_RECORD
  5
5A1
100
AcDbSymbolTableRecord
100
AcDbBlockTableRecord
  2
*D13
  0
BLOCK_RECORD
  5
5A2
100
AcDbSymbolTableRecord
100
AcDbBlockTableRecord
  2
*D14
  0
BLOCK_RECORD
  5
5A3
100
AcDbSymbolTableRecord
100
AcDbBlockTableRecord
  2
*D15
  0
BLOCK_RECORD
  5
5A4
100
AcDbSymbolTableRecord
100
AcDbBlockTableRecord
  2
*D16
  0
BLOCK_RECORD
  5
5A5
100
AcDbSymbolTableRecord
100
AcDbBlockTableRecord
  2
*D17
  0
BLOCK_RECORD
  5
5A6
100
AcDbSymbolTableRecord
100
AcDbBlockTableRecord
  2
*D18
  0
BLOCK_RECORD
  5
5A7
100
AcDbSymbolTableRecord
100
AcDbBlockTableRecord
  2
*D19
  0
BLOCK_RECORD
  5
5A8
100
AcDbSymbolTableRecord
100
AcDbBlockTableRecord
  2
*D20
  0
BLOCK_RECORD
  5
5A9
100
AcDbSymbolTableRecord
100
AcDbBlockTableRecord
  2
*D21
  0
BLOCK_RECORD
  5
5AA
100
AcDbSymbolTableRecord
100
AcDbBlockTableRecord
  2
*D22
  0
BLOCK_RECORD
  5
5AB
100
AcDbSymbolTableRecord
100
AcDbBlockTableRecord
  2
*D23
  0
BLOCK_RECORD
  5
5AC
100
AcDbSymbolTableRecord
100
AcDbBlockTableRecord
  2
*D24
  0
BLOCK_RECORD
  5
5AD
100
AcDbSymbolTableRecord
100
AcDbBlockTableRecord
  2
*D25
  0
BLOCK_RECORD
  5
5AE
100
AcDbSymbolTableRecord
100
AcDbBlockTableRecord
  2
*D26
  0
BLOCK_RECORD
  5
5AF
100
AcDbSymbolTableRecord
100
AcDbBlockTableRecord
  2
*D27
  0
BLOCK_RECORD
  5
5B0
100
AcDbSymbolTableRecord
100
AcDbBlockTableRecord
  2
*D28
  0
BLOCK_RECORD
  5
5B1
100
AcDbSymbolTableRecord
100
AcDbBlockTableRecord
  2
*D29
  0
BLOCK_RECORD
  5
5B2
100
AcDbSymbolTableRecord
100
AcDbBlockTableRecord
  2
*D30
  0
BLOCK_RECORD
  5
5B3
100
AcDbSymbolTableRecord
100
AcDbBlockTableRecord
  2
*D31
  0
BLOCK_RECORD
  5
5B4
100
AcDbSymbolTableRecord
100
AcDbBlockTableRecord
  2
*D32
  0
BLOCK_RECORD
  5
5B5
100
AcDbSymbolTableRecord
100
AcDbBlockTableRecord
  2
*D33
  0
BLOCK_RECORD
  5
5B6
100
AcDbSymbolTableRecord
100
AcDbBlockTableRecord
  2
*D34
  0
BLOCK_RECORD
  5
5B7
100
AcDbSymbolTableRecord
100
AcDbBlockTableRecord
  2
*D35
  0
BLOCK_RECORD
  5
5B8
100
AcDbSymbolTableRecord
100
AcDbBlockTableRecord
  2
*D36
  0
BLOCK_RECORD
  5
5B9
100
AcDbSymbolTableRecord
100
AcDbBlockTableRecord
  2
*D37
  0
BLOCK_RECORD
  5
5BA
100
AcDbSymbolTableRecord
100
AcDbBlockTableRecord
  2
*D38
  0
BLOCK_RECORD
  5
5BB
100
AcDbSymbolTableRecord
100
AcDbBlockTableRecord
  2
*D39
  0
BLOCK_RECORD
  5
5BC
100
AcDbSymbolTableRecord
100
AcDbBlockTableRecord
  2
*D40
  0
BLOCK_RECORD
  5
5BD
100
AcDbSymbolTableRecord
100
AcDbBlockTableRecord
  2
*D41
  0
BLOCK_RECORD
  5
5BE
100
AcDbSymbolTableRecord
100
AcDbBlockTableRecord
  2
*D42
  0
BLOCK_RECORD
  5
5BF
100
AcDbSymbolTableRecord
100
AcDbBlockTableRecord
  2
*D43
  0
BLOCK_RECORD
  5
5C0
100
AcDbSymbolTableRecord
100
AcDbBlockTableRecord
  2
*D44
  0
BLOCK_RECORD
  5
5C1
100
AcDbSymbolTableRecord
100
AcDbBlockTableRecord
  2
*D45
  0
BLOCK_RECORD
  5
5C2
100
AcDbSymbolTableRecord
100
AcDbBlockTableRecord
  2
*D46
  0
BLOCK_RECORD
  5
5C3
100
AcDbSymbolTableRecord
100
AcDbBlockTableRecord
  2
*D47
  0
BLOCK_RECORD
  5
5C4
100
AcDbSymbolTableRecord
100
AcDbBlockTableRecord
  2
M0
  0
ENDTAB
  0
ENDSEC
  0
SECTION
  2
BLOCKS
  0
BLOCK
  5
5C5
100
AcDbEntity
  8
0
100
AcDbBlockBegin
  2
*MODEL_SPACE
 70
     0
 10
0.0
 20
0.0
 30
0.0
  3
*MODEL_SPACE
  1

  0
ENDBLK
  5
5C6
100
AcDbEntity
  8
0
100
AcDbBlockEnd
  0
BLOCK
  5
5C7
100
AcDbEntity
  8
0
100
AcDbBlockBegin
  2
*PAPER_SPACE
 70
     0
 10
0.0
 20
0.0
 30
0.0
  3
*PAPER_SPACE
  1

  0
ENDBLK
  5
5C8
100
AcDbEntity
  8
0
100
AcDbBlockEnd
  0
BLOCK
  5
2
100
AcDbEntity
  8
0
100
AcDbBlockBegin
  2
_NONE
 70
     0
 10
0.0
 20
0.0
 30
0.0
  3
_NONE
  1

  0
ENDBLK
  5
3
100
AcDbEntity
  8
0
100
AcDbBlockEnd
  0
BLOCK
  5
5
100
AcDbEntity
  8
0
100
AcDbBlockBegin
  2
_CLOSED
 70
     0
 10
0.0
 20
0.0
 30
0.0
  3
_CLOSED
  1

  0
LINE
  5
6
100
AcDbEntity
  8
0
  6
BYBLOCK
 62
     0
100
AcDbLine
 10
-1.0
 20
0.166667
 30
0.0
 11
0.0
 21
0.0
 31
0.0
  0
LINE
  5
7
100
AcDbEntity
  8
0
  6
BYBLOCK
 62
     0
100
AcDbLine
 10
0.0
 20
0.0
 30
0.0
 11
-1.0
 21
-0.166667
 31
0.0
  0
LINE
  5
8
100
AcDbEntity
  8
0
  6
BYBLOCK
 62
     0
100
AcDbLine
 10
-1.0
 20
0.166667
 30
0.0
 11
-1.0
 21
-0.166667
 31
0.0
  0
LINE
  5
9
100
AcDbEntity
  8
0
  6
BYBLOCK
 62
     0
100
AcDbLine
 10
0.0
 20
0.0
 30
0.0
 11
-1.0
 21
0.0
 31
0.0
  0
ENDBLK
  5
A
100
AcDbEntity
  8
0
100
AcDbBlockEnd
  0
BLOCK
  5
C
100
AcDbEntity
  8
0
100
AcDbBlockBegin
  2
_DOT
 70
     0
 10
0.0
 20
0.0
 30
0.0
  3
_DOT
  1

  0
POLYLINE
  5
D
100
AcDbEntity
  8
0
  6
BYBLOCK
 62
     0
100
AcDb2dPolyline
 66
     1
 10
0.0
 20
0.0
 30
0.0
 70
     1
 40
0.5
 41
0.5
  0
VERTEX
  5
E
100
AcDbEntity
  8
0
  6
BYBLOCK
 62
     0
100
AcDbVertex
100
AcDb2dVertex
 10
-0.25
 20
0.0
 30
0.0
 42
1.0
  0
VERTEX
  5
F
100
AcDbEntity
  8
0
  6
BYBLOCK
 62
     0
100
AcDbVertex
100
AcDb2dVertex
 10
0.25
 20
0.0
 30
0.0
 42
1.0
  0
SEQEND
  5
10
100
AcDbEntity
  8
0
  6
BYBLOCK
 62
     0
  0
LINE
  5
11
100
AcDbEntity
  8
0
  6
BYBLOCK
 62
     0
100
AcDbLine
 10
-0.5
 20
0.0
 30
0.0
 11
-1.0
 21
0.0
 31
0.0
  0
ENDBLK
  5
12
100
AcDbEntity
  8
0
100
AcDbBlockEnd
  0
BLOCK
  5
14
100
AcDbEntity
  8
0
100
AcDbBlockBegin
  2
_OPEN
 70
     0
 10
0.0
 20
0.0
 30
0.0
  3
_OPEN
  1

  0
LINE
  5
15
100
AcDbEntity
  8
0
  6
BYBLOCK
 62
     0
100
AcDbLine
 10
-1.0
 20
0.166667
 30
0.0
 11
0.0
 21
0.0
 31
0.0
  0
LINE
  5
16
100
AcDbEntity
  8
0
  6
BYBLOCK
 62
     0
100
AcDbLine
 10
0.0
 20
0.0
 30
0.0
 11
-1.0
 21
-0.166667
 31
0.0
  0
LINE
  5
17
100
AcDbEntity
  8
0
  6
BYBLOCK
 62
     0
100
AcDbLine
 10
0.0
 20
0.0
 30
0.0
 11
-1.0
 21
0.0
 31
0.0
  0
ENDBLK
  5
18
100
AcDbEntity
  8
0
100
AcDbBlockEnd
  0
BLOCK
  5
1A
100
AcDbEntity
  8
0
100
AcDbBlockBegin
  2
_ORIGIN
 70
     0
 10
0.0
 20
0.0
 30
0.0
  3
_ORIGIN
  1

  0
CIRCLE
  5
1B
100
AcDbEntity
  8
0
  6
BYBLOCK
 62
     0
100
AcDbCircle
 10
0.0
 20
0.0
 30
0.0
 40
0.5
  0
LINE
  5
1C
100
AcDbEntity
  8
0
  6
BYBLOCK
 62
     0
100
AcDbLine
 10
0.0
 20
0.0
 30
0.0
 11
-1.0
 21
0.0
 31
0.0
  0
ENDBLK
  5
1D
100
AcDbEntity
  8
0
100
AcDbBlockEnd
  0
BLOCK
  5
1F
100
AcDbEntity
  8
0
100
AcDbBlockBegin
  2
_OPEN30
 70
     0
 10
0.0
 20
0.0
 30
0.0
  3
_OPEN30
  1

  0
LINE
  5
20
100
AcDbEntity
  8
0
  6
BYBLOCK
 62
     0
100
AcDbLine
 10
-1.0
 20
0.267949
 30
0.0
 11
0.0
 21
0.0
 31
0.0
  0
LINE
  5
21
100
AcDbEntity
  8
0
  6
BYBLOCK
 62
     0
100
AcDbLine
 10
0.0
 20
0.0
 30
0.0
 11
-1.0
 21
-0.267949
 31
0.0
  0
LINE
  5
22
100
AcDbEntity
  8
0
  6
BYBLOCK
 62
     0
100
AcDbLine
 10
0.0
 20
0.0
 30
0.0
 11
-1.0
 21
0.0
 31
0.0
  0
ENDBLK
  5
23
100
AcDbEntity
  8
0
100
AcDbBlockEnd
  0
BLOCK
  5
25
100
AcDbEntity
  8
0
100
AcDbBlockBegin
  2
_BOXFILLED
 70
     0
 10
0.0
 20
0.0
 30
0.0
  3
_BOXFILLED
  1

  0
SOLID
  5
26
100
AcDbEntity
  8
0
  6
BYBLOCK
 62
     0
100
AcDbTrace
 10
-0.5
 20
0.5
 30
0.0
 11
0.5
 21
0.5
 31
0.0
 12
-0.5
 22
-0.5
 32
0.0
 13
0.5
 23
-0.5
 33
0.0
  0
LINE
  5
27
100
AcDbEntity
  8
0
  6
BYBLOCK
 62
     0
100
AcDbLine
 10
-0.5
 20
0.0
 30
0.0
 11
-1.0
 21
0.0
 31
0.0
  0
ENDBLK
  5
28
100
AcDbEntity
  8
0
100
AcDbBlockEnd
  0
BLOCK
  5
2A
100
AcDbEntity
  8
0
100
AcDbBlockBegin
  2
_BOXBLANK
 70
     0
 10
0.0
 20
0.0
 30
0.0
  3
_BOXBLANK
  1

  0
LINE
  5
2B
100
AcDbEntity
  8
0
  6
BYBLOCK
 62
     0
100
AcDbLine
 10
-0.5
 20
-0.5
 30
0.0
 11
0.5
 21
-0.5
 31
0.0
  0
LINE
  5
2C
100
AcDbEntity
  8
0
  6
BYBLOCK
 62
     0
100
AcDbLine
 10
0.5
 20
-0.5
 30
0.0
 11
0.5
 21
0.5
 31
0.0
  0
LINE
  5
2D
100
AcDbEntity
  8
0
  6
BYBLOCK
 62
     0
100
AcDbLine
 10
0.5
 20
0.5
 30
0.0
 11
-0.5
 21
0.5
 31
0.0
  0
LINE
  5
2E
100
AcDbEntity
  8
0
  6
BYBLOCK
 62
     0
100
AcDbLine
 10
-0.5
 20
0.5
 30
0.0
 11
-0.5
 21
-0.5
 31
0.0
  0
LINE
  5
2F
100
AcDbEntity
  8
0
  6
BYBLOCK
 62
     0
100
AcDbLine
 10
-0.5
 20
0.0
 30
0.0
 11
-1.0
 21
0.0
 31
0.0
  0
ENDBLK
  5
30
100
AcDbEntity
  8
0
100
AcDbBlockEnd
  0
BLOCK
  5
32
100
AcDbEntity
  8
0
100
AcDbBlockBegin
  2
_OBLIQUE
 70
     0
 10
0.0
 20
0.0
 30
0.0
  3
_OBLIQUE
  1

  0
LINE
  5
33
100
AcDbEntity
  8
0
  6
BYBLOCK
 62
     0
100
AcDbLine
 10
-0.5
 20
-0.5
 30
0.0
 11
0.5
 21
0.5
 31
0.0
  0
ENDBLK
  5
34
100
AcDbEntity
  8
0
100
AcDbBlockEnd
  0
BLOCK
  5
36
100
AcDbEntity
  8
0
100
AcDbBlockBegin
  2
_OPEN90
 70
     0
 10
0.0
 20
0.0
 30
0.0
  3
_OPEN90
  1

  0
LINE
  5
37
100
AcDbEntity
  8
0
  6
BYBLOCK
 62
     0
100
AcDbLine
 10
-0.5
 20
0.5
 30
0.0
 11
0.0
 21
0.0
 31
0.0
  0
LINE
  5
38
100
AcDbEntity
  8
0
  6
BYBLOCK
 62
     0
100
AcDbLine
 10
0.0
 20
0.0
 30
0.0
 11
-0.5
 21
-0.5
 31
0.0
  0
LINE
  5
39
100
AcDbEntity
  8
0
  6
BYBLOCK
 62
     0
100
AcDbLine
 10
0.0
 20
0.0
 30
0.0
 11
-1.0
 21
0.0
 31
0.0
  0
ENDBLK
  5
3A
100
AcDbEntity
  8
0
100
AcDbBlockEnd
  0
BLOCK
  5
3C
100
AcDbEntity
  8
0
100
AcDbBlockBegin
  2
_CLOSEDBLANK
 70
     0
 10
0.0
 20
0.0
 30
0.0
  3
_CLOSEDBLANK
  1

  0
LINE
  5
3D
100
AcDbEntity
  8
0
  6
BYBLOCK
 62
     0
100
AcDbLine
 10
-1.0
 20
0.1666666666666666
 30
0.0
 11
0.0
 21
0.0
 31
0.0
  0
LINE
  5
3E
100
AcDbEntity
  8
0
  6
BYBLOCK
 62
     0
100
AcDbLine
 10
0.0
 20
0.0
 30
0.0
 11
-1.0
 21
-0.1666666666666666
 31
0.0
  0
LINE
  5
3F
100
AcDbEntity
  8
0
  6
BYBLOCK
 62
     0
100
AcDbLine
 10
-1.0
 20
0.1666666666666666
 30
0.0
 11
-1.0
 21
-0.1666666666666666
 31
0.0
  0
ENDBLK
  5
40
100
AcDbEntity
  8
0
100
AcDbBlockEnd
  0
BLOCK
  5
42
100
AcDbEntity
  8
0
100
AcDbBlockBegin
  2
_DOTBLANK
 70
     0
 10
0.0
 20
0.0
 30
0.0
  3
_DOTBLANK
  1

  0
CIRCLE
  5
43
100
AcDbEntity
  8
0
  6
BYBLOCK
 62
     0
100
AcDbCircle
 10
0.0
 20
0.0
 30
0.0
 40
0.5
  0
LINE
  5
44
100
AcDbEntity
  8
0
  6
BYBLOCK
 62
     0
100
AcDbLine
 10
-0.5
 20
0.0
 30
0.0
 11
-1.0
 21
0.0
 31
0.0
  0
ENDBLK
  5
45
100
AcDbEntity
  8
0
100
AcDbBlockEnd
  0
BLOCK
  5
14B
100
AcDbEntity
  8
MAIN0
  6
CONTINUOUS
 62
3
100
AcDbBlockBegin
  2
*D0
 70
    65
 10
0.0
 20
0.0
 30
0.0
  0
LINE
  5
14C
100
AcDbEntity
  8
MAIN0
  6
BYBLOCK
 62
0
100
AcDbLine
 10
1448.613211769001
 20
634.2332615001300
 30
0.0000000000000000
 11
1448.613211768990
 21
700.1015920481182
 31
0.0000000000000000
  0
LINE
  5
14D
100
AcDbEntity
  8
MAIN0
  6
BYBLOCK
 62
0
100
AcDbLine
 10
1440.613211768991
 20
692.1015920481182
 30
0.0000000000000000
 11
1306.613211769001
 21
692.1015920481182
 31
0.0000000000000000
  0
INSERT
  5
14E
100
AcDbEntity
  8
MAIN0
  6
BYBLOCK
 62
0
100
AcDbBlockReference
  2
_OPEN
 10
1448.613211768991
 20
692.1015920481182
 30
0.0000000000000000
 41
8.000000000000000
 42
8.000000000000000
 43
8.000000000000000
 50
360.0000000000000
  0
INSERT
  5
14F
100
AcDbEntity
  8
MAIN0
  6
BYBLOCK
 62
0
100
AcDbBlockReference
  2
_OPEN
 10
1298.613211769001
 20
692.1015920481182
 30
0.0000000000000000
 41
8.000000000000000
 42
8.000000000000000
 43
8.000000000000000
 50
180.0000000000000
  0
LINE
  5
150
100
AcDbEntity
  8
MAIN0
  6
BYBLOCK
 62
0
100
AcDbLine
 10
1298.613211769001
 20
634.2332615000469
 30
0.0000000000000000
 11
1298.613211769001
 21
700.1015920481182
 31
0.0000000000000000
  0
MTEXT
  5
151
100
AcDbEntity
  8
MAIN0
  6
BYBLOCK
 62
0
100
AcDbMText
 10
1373.613211768996
 20
698.8015918573833
 30
0.0000000000000000
 40
12.39999961853027
 41
0.0000000000000000
 71
     5
 72
     1
  1
\A1;150
 11
1.000000000000000
 21
0.0000000000000000
 31
0.0000000000000000
  7
STANDARD
  0
ENDBLK
  5
152
100
AcDbEntity
  8
MAIN0
  6
CONTINUOUS
 62
3
100
AcDbBlockEnd
  0
BLOCK
  5
15D
100
AcDbEntity
  8
MAIN0
  6
CONTINUOUS
 62
3
100
AcDbBlockBegin
  2
*D1
 70
    65
 10
0.0
 20
0.0
 30
0.0
  0
LINE
  5
15E
100
AcDbEntity
  8
MAIN0
  6
BYBLOCK
 62
0
100
AcDbLine
 10
1298.613211769027
 20
496.5332614046794
 30
0.0000000000000000
 11
1298.613211769027
 21
336.8790701463596
 31
0.0000000000000000
  0
LINE
  5
15F
100
AcDbEntity
  8
MAIN0
  6
BYBLOCK
 62
0
100
AcDbLine
 10
1306.613211769027
 20
344.8790701463596
 30
0.0000000000000000
 11
1440.613211769027
 21
344.8790701463596
 31
0.0000000000000000
  0
INSERT
  5
160
100
AcDbEntity
  8
MAIN0
  6
BYBLOCK
 62
0
100
AcDbBlockReference
  2
_OPEN
 10
1298.613211769027
 20
344.8790701463596
 30
0.0000000000000000
 41
8.000000000000000
 42
8.000000000000000
 43
8.000000000000000
 50
180.0000000000000
  0
INSERT
  5
161
100
AcDbEntity
  8
MAIN0
  6
BYBLOCK
 62
0
100
AcDbBlockReference
  2
_OPEN
 10
1448.613211769027
 20
344.8790701463596
 30
0.0000000000000000
 41
8.000000000000000
 42
8.000000000000000
 43
8.000000000000000
 50
0.0000000000000000
  0
LINE
  5
162
100
AcDbEntity
  8
MAIN0
  6
BYBLOCK
 62
0
100
AcDbLine
 10
1448.613211769027
 20
496.5332614047624
 30
0.0000000000000000
 11
1448.613211769027
 21
336.8790701463596
 31
0.0000000000000000
  0
MTEXT
  5
163
100
AcDbEntity
  8
MAIN0
  6
BYBLOCK
 62
0
100
AcDbMText
 10
1373.613211769027
 20
351.5790699556247
 30
0.0000000000000000
 40
12.39999961853027
 41
0.0000000000000000
 71
     5
 72
     1
  1
\A1;150
 11
1.000000000000000
 21
0.0000000000000000
 31
0.0000000000000000
  7
STANDARD
  0
ENDBLK
  5
164
100
AcDbEntity
  8
MAIN0
  6
CONTINUOUS
 62
3
100
AcDbBlockEnd
  0
BLOCK
  5
166
100
AcDbEntity
  8
MAIN0
  6
CONTINUOUS
 62
3
100
AcDbBlockBegin
  2
*D2
 70
    65
 10
0.0
 20
0.0
 30
0.0
  0
LINE
  5
167
100
AcDbEntity
  8
MAIN0
  6
BYBLOCK
 62
0
100
AcDbLine
 10
367.3153088227743
 20
633.7332614995860
 30
0.0000000000000000
 11
367.3153088227743
 21
699.6015920481182
 31
0.0000000000000000
  0
LINE
  5
168
100
AcDbEntity
  8
MAIN0
  6
BYBLOCK
 62
0
100
AcDbLine
 10
359.3153088227743
 20
691.6015920481182
 30
0.0000000000000000
 11
297.3153088227743
 21
691.6015920481182
 31
0.0000000000000000
  0
INSERT
  5
169
100
AcDbEntity
  8
MAIN0
  6
BYBLOCK
 62
0
100
AcDbBlockReference
  2
_OPEN
 10
367.3153088227743
 20
691.6015920481182
 30
0.0000000000000000
 41
8.000000000000000
 42
8.000000000000000
 43
8.000000000000000
 50
360.0000000000000
  0
INSERT
  5
16A
100
AcDbEntity
  8
MAIN0
  6
BYBLOCK
 62
0
100
AcDbBlockReference
  2
_OPEN
 10
289.3153088227743
 20
691.6015920481182
 30
0.0000000000000000
 41
8.000000000000000
 42
8.000000000000000
 43
8.000000000000000
 50
180.0000000000000
  0
LINE
  5
16B
100
AcDbEntity
  8
MAIN0
  6
BYBLOCK
 62
0
100
AcDbLine
 10
289.3153088227743
 20
633.7332614995413
 30
0.0000000000000000
 11
289.3153088227743
 21
699.6015920481182
 31
0.0000000000000000
  0
MTEXT
  5
16C
100
AcDbEntity
  8
MAIN0
  6
BYBLOCK
 62
0
100
AcDbMText
 10
328.3153088227743
 20
698.3015918573833
 30
0.0000000000000000
 40
12.39999961853027
 41
0.0000000000000000
 71
     5
 72
     1
  1
\A1;78
 11
1.000000000000000
 21
0.0000000000000000
 31
0.0000000000000000
  7
STANDARD
  0
ENDBLK
  5
16D
100
AcDbEntity
  8
MAIN0
  6
CONTINUOUS
 62
3
100
AcDbBlockEnd
  0
BLOCK
  5
16F
100
AcDbEntity
  8
MAIN0
  6
CONTINUOUS
 62
3
100
AcDbBlockBegin
  2
*D3
 70
    65
 10
0.0
 20
0.0
 30
0.0
  0
LINE
  5
170
100
AcDbEntity
  8
MAIN0
  6
BYBLOCK
 62
0
100
AcDbLine
 10
288.3153088227429
 20
594.2332614995422
 30
0.0000000000000000
 11
288.3153088227429
 21
700.1015920481182
 31
0.0000000000000000
  0
LINE
  5
171
100
AcDbEntity
  8
MAIN0
  6
BYBLOCK
 62
0
100
AcDbLine
 10
288.3153088227429
 20
692.1015920481182
 30
0.0000000000000000
 11
289.3153088227743
 21
692.1015920481182
 31
0.0000000000000000
  0
INSERT
  5
172
100
AcDbEntity
  8
MAIN0
  6
BYBLOCK
 62
0
100
AcDbBlockReference
  2
_OPEN
 10
288.3153088227429
 20
692.1015920481182
 30
0.0000000000000000
 41
8.000000000000000
 42
8.000000000000000
 43
8.000000000000000
 50
0.0000000000000000
  0
INSERT
  5
173
100
AcDbEntity
  8
MAIN0
  6
BYBLOCK
 62
0
100
AcDbBlockReference
  2
_OPEN
 10
289.3153088227743
 20
692.1015920481182
 30
0.0000000000000000
 41
8.000000000000000
 42
8.000000000000000
 43
8.000000000000000
 50
180.0000000000000
  0
LINE
  5
174
100
AcDbEntity
  8
MAIN0
  6
BYBLOCK
 62
0
100
AcDbLine
 10
280.3153088227429
 20
692.1015920481182
 30
0.0000000000000000
 11
260.6408465807883
 21
692.1015920481182
 31
0.0000000000000000
  0
LINE
  5
175
100
AcDbEntity
  8
MAIN0
  6
BYBLOCK
 62
0
100
AcDbLine
 10
297.3153088227743
 20
692.1015920481182
 30
0.0000000000000000
 11
301.3153088227743
 21
692.1015920481182
 31
0.0000000000000000
  0
LINE
  5
176
100
AcDbEntity
  8
MAIN0
  6
BYBLOCK
 62
0
100
AcDbLine
 10
289.3153088227743
 20
633.7332614995413
 30
0.0000000000000000
 11
289.3153088227743
 21
700.1015920481182
 31
0.0000000000000000
  0
MTEXT
  5
177
100
AcDbEntity
  8
MAIN0
  6
BYBLOCK
 62
0
100
AcDbMText
 10
264.6408465807883
 20
700.3015918573833
 30
0.0000000000000000
 40
12.39999961853027
 41
0.0000000000000000
 71
     5
 72
     1
  1
\A1;1
 11
1.000000000000000
 21
0.0000000000000000
 31
0.0000000000000000
  7
STANDARD
  0
ENDBLK
  5
178
100
AcDbEntity
  8
MAIN0
  6
CONTINUOUS
 62
3
100
AcDbBlockEnd
  0
BLOCK
  5
17A
100
AcDbEntity
  8
MAIN0
  6
CONTINUOUS
 62
3
100
AcDbBlockBegin
  2
*D4
 70
    65
 10
0.0
 20
0.0
 30
0.0
  0
LINE
  5
17B
100
AcDbEntity
  8
MAIN0
  6
BYBLOCK
 62
0
100
AcDbLine
 10
424.3153088226605
 20
482.8332614042499
 30
0.0000000000000000
 11
424.3153088226605
 21
436.6116278209722
 31
0.0000000000000000
  0
LINE
  5
17C
100
AcDbEntity
  8
MAIN0
  6
BYBLOCK
 62
0
100
AcDbLine
 10
424.3153088226605
 20
444.6116278209722
 30
0.0000000000000000
 11
442.3153088226605
 21
444.6116278209722
 31
0.0000000000000000
  0
INSERT
  5
17D
100
AcDbEntity
  8
MAIN0
  6
BYBLOCK
 62
0
100
AcDbBlockReference
  2
_OPEN
 10
424.3153088226605
 20
444.6116278209722
 30
0.0000000000000000
 41
8.000000000000000
 42
8.000000000000000
 43
8.000000000000000
 50
0.0000000000000000
  0
INSERT
  5
17E
100
AcDbEntity
  8
MAIN0
  6
BYBLOCK
 62
0
100
AcDbBlockReference
  2
_OPEN
 10
442.3153088226605
 20
444.6116278209722
 30
0.0000000000000000
 41
8.000000000000000
 42
8.000000000000000
 43
8.000000000000000
 50
180.0000000000000
  0
LINE
  5
17F
100
AcDbEntity
  8
MAIN0
  6
BYBLOCK
 62
0
100
AcDbLine
 10
416.3153088226605
 20
444.6116278209722
 30
0.0000000000000000
 11
412.3153088226605
 21
444.6116278209722
 31
0.0000000000000000
  0
LINE
  5
180
100
AcDbEntity
  8
MAIN0
  6
BYBLOCK
 62
0
100
AcDbLine
 10
450.3153088226605
 20
444.6116278209722
 30
0.0000000000000000
 11
463.9084492784775
 21
444.6116278209722
 31
0.0000000000000000
  0
LINE
  5
181
100
AcDbEntity
  8
MAIN0
  6
BYBLOCK
 62
0
100
AcDbLine
 10
442.3153088226605
 20
482.8332614042600
 30
0.0000000000000000
 11
442.3153088226605
 21
436.6116278209722
 31
0.0000000000000000
  0
MTEXT
  5
182
100
AcDbEntity
  8
MAIN0
  6
BYBLOCK
 62
0
100
AcDbMText
 10
455.7084494692123
 20
452.8116276302374
 30
0.0000000000000000
 40
12.39999961853027
 41
0.0000000000000000
 71
     5
 72
     1
  1
\A1;18
 11
1.000000000000000
 21
0.0000000000000000
 31
0.0000000000000000
  7
STANDARD
  0
ENDBLK
  5
183
100
AcDbEntity
  8
MAIN0
  6
CONTINUOUS
 62
3
100
AcDbBlockEnd
  0
BLOCK
  5
185
100
AcDbEntity
  8
MAIN0
  6
CONTINUOUS
 62
3
100
AcDbBlockBegin
  2
*D5
 70
    65
 10
0.0
 20
0.0
 30
0.0
  0
LINE
  5
186
100
AcDbEntity
  8
MAIN0
  6
BYBLOCK
 62
0
100
AcDbLine
 10
367.3153088227743
 20
633.7332614995860
 30
0.0000000000000000
 11
367.3153088227743
 21
700.1015920481182
 31
0.0000000000000000
  0
LINE
  5
187
100
AcDbEntity
  8
MAIN0
  6
BYBLOCK
 62
0
100
AcDbLine
 10
375.3153088227743
 20
692.1015920481182
 30
0.0000000000000000
 11
554.3153088227741
 21
692.1015920481182
 31
0.0000000000000000
  0
INSERT
  5
188
100
AcDbEntity
  8
MAIN0
  6
BYBLOCK
 62
0
100
AcDbBlockReference
  2
_OPEN
 10
367.3153088227743
 20
692.1015920481182
 30
0.0000000000000000
 41
8.000000000000000
 42
8.000000000000000
 43
8.000000000000000
 50
180.0000000000000
  0
INSERT
  5
189
100
AcDbEntity
  8
MAIN0
  6
BYBLOCK
 62
0
100
AcDbBlockReference
  2
_OPEN
 10
562.3153088227741
 20
692.1015920481182
 30
0.0000000000000000
 41
8.000000000000000
 42
8.000000000000000
 43
8.000000000000000
 50
0.0000000000000000
  0
LINE
  5
18A
100
AcDbEntity
  8
MAIN0
  6
BYBLOCK
 62
0
100
AcDbLine
 10
562.3153088227741
 20
634.2332614996940
 30
0.0000000000000000
 11
562.3153088227741
 21
700.1015920481182
 31
0.0000000000000000
  0
MTEXT
  5
18B
100
AcDbEntity
  8
MAIN0
  6
BYBLOCK
 62
0
100
AcDbMText
 10
464.8153088227742
 20
698.8015918573833
 30
0.0000000000000000
 40
12.39999961853027
 41
0.0000000000000000
 71
     5
 72
     1
  1
\A1;MAX195
 11
1.000000000000000
 21
0.0000000000000000
 31
0.0000000000000000
  7
STANDARD
  0
ENDBLK
  5
18C
100
AcDbEntity
  8
MAIN0
  6
CONTINUOUS
 62
3
100
AcDbBlockEnd
  0
BLOCK
  5
18F
100
AcDbEntity
  8
MAIN0
  6
CONTINUOUS
 62
3
100
AcDbBlockBegin
  2
*D6
 70
    65
 10
0.0
 20
0.0
 30
0.0
  0
LINE
  5
190
100
AcDbEntity
  8
MAIN0
  6
BYBLOCK
 62
0
100
AcDbLine
 10
656.5153088703481
 20
491.0332614520608
 30
0.0000000000000000
 11
1009.651525741730
 21
491.0332614520608
 31
0.0000000000000000
  0
LINE
  5
191
100
AcDbEntity
  8
MAIN0
  6
BYBLOCK
 62
0
100
AcDbLine
 10
1001.651525741730
 20
499.0332614520608
 30
0.0000000000000000
 11
1001.651525741730
 21
623.0332614521400
 31
0.0000000000000000
  0
INSERT
  5
192
100
AcDbEntity
  8
MAIN0
  6
BYBLOCK
 62
0
100
AcDbBlockReference
  2
_OPEN
 10
1001.651525741730
 20
491.0332614520608
 30
0.0000000000000000
 41
8.000000000000000
 42
8.000000000000000
 43
8.000000000000000
 50
270.0000000000000
  0
INSERT
  5
193
100
AcDbEntity
  8
MAIN0
  6
BYBLOCK
 62
0
100
AcDbBlockReference
  2
_OPEN
 10
1001.651525741730
 20
631.0332614521400
 30
0.0000000000000000
 41
8.000000000000000
 42
8.000000000000000
 43
8.000000000000000
 50
90.00000000000000
  0
LINE
  5
194
100
AcDbEntity
  8
MAIN0
  6
BYBLOCK
 62
0
100
AcDbLine
 10
799.5153088704578
 20
631.0332614521400
 30
0.0000000000000000
 11
1009.651525741730
 21
631.0332614521400
 31
0.0000000000000000
  0
MTEXT
  5
195
100
AcDbEntity
  8
MAIN0
  6
BYBLOCK
 62
0
100
AcDbMText
 10
994.9515259324651
 20
561.0332614521004
 30
0.0000000000000000
 40
12.39999961853027
 41
0.0000000000000000
 71
     5
 72
     1
  1
\A1;140
 11
6.123233995736766e-017
 21
1.000000000000000
 31
0.0000000000000000
  7
STANDARD
  0
ENDBLK
  5
196
100
AcDbEntity
  8
MAIN0
  6
CONTINUOUS
 62
3
100
AcDbBlockEnd
  0
BLOCK
  5
198
100
AcDbEntity
  8
MAIN0
  6
CONTINUOUS
 62
3
100
AcDbBlockBegin
  2
*D7
 70
    65
 10
0.0
 20
0.0
 30
0.0
  0
LINE
  5
199
100
AcDbEntity
  8
MAIN0
  6
BYBLOCK
 62
0
100
AcDbLine
 10
656.5153088703481
 20
491.0332614520608
 30
0.0000000000000000
 11
867.1484220683615
 21
491.0332614520608
 31
0.0000000000000000
  0
LINE
  5
19A
100
AcDbEntity
  8
MAIN0
  6
BYBLOCK
 62
0
100
AcDbLine
 10
859.1484220683615
 20
491.0332614520608
 30
0.0000000000000000
 11
859.1484220683615
 21
496.0332614521510
 31
0.0000000000000000
  0
INSERT
  5
19B
100
AcDbEntity
  8
MAIN0
  6
BYBLOCK
 62
0
100
AcDbBlockReference
  2
_OPEN
 10
859.1484220683615
 20
491.0332614520608
 30
0.0000000000000000
 41
8.000000000000000
 42
8.000000000000000
 43
8.000000000000000
 50
90.00000000000000
  0
INSERT
  5
19C
100
AcDbEntity
  8
MAIN0
  6
BYBLOCK
 62
0
100
AcDbBlockReference
  2
_OPEN
 10
859.1484220683615
 20
496.0332614521510
 30
0.0000000000000000
 41
8.000000000000000
 42
8.000000000000000
 43
8.000000000000000
 50
270.0000000000000
  0
LINE
  5
19D
100
AcDbEntity
  8
MAIN0
  6
BYBLOCK
 62
0
100
AcDbLine
 10
859.1484220683615
 20
483.0332614520608
 30
0.0000000000000000
 11
859.1484220683615
 21
479.0332614520608
 31
0.0000000000000000
  0
LINE
  5
19E
100
AcDbEntity
  8
MAIN0
  6
BYBLOCK
 62
0
100
AcDbLine
 10
859.1484220683615
 20
504.0332614521510
 30
0.0000000000000000
 11
859.1484220683615
 21
508.1464325802904
 31
0.0000000000000000
  0
LINE
  5
19F
100
AcDbEntity
  8
MAIN0
  6
BYBLOCK
 62
0
100
AcDbLine
 10
819.5153088703521
 20
496.0332614521510
 30
0.0000000000000000
 11
867.1484220683615
 21
496.0332614521510
 31
0.0000000000000000
  0
MTEXT
  5
1A0
100
AcDbEntity
  8
MAIN0
  6
BYBLOCK
 62
0
100
AcDbMText
 10
850.9484222590963
 20
504.1464325802904
 30
0.0000000000000000
 40
12.39999961853027
 41
0.0000000000000000
 71
     5
 72
     1
  1
\A1;5
 11
6.123233995736766e-017
 21
1.000000000000000
 31
0.0000000000000000
  7
STANDARD
  0
ENDBLK
  5
1A1
100
AcDbEntity
  8
MAIN0
  6
CONTINUOUS
 62
3
100
AcDbBlockEnd
  0
BLOCK
  5
1A3
100
AcDbEntity
  8
MAIN0
  6
CONTINUOUS
 62
3
100
AcDbBlockBegin
  2
*D8
 70
    65
 10
0.0
 20
0.0
 30
0.0
  0
LINE
  5
1A4
100
AcDbEntity
  8
MAIN0
  6
BYBLOCK
 62
0
100
AcDbLine
 10
656.5153088703481
 20
491.0332614520608
 30
0.0000000000000000
 11
977.6955876950046
 21
491.0332614520608
 31
0.0000000000000000
  0
LINE
  5
1A5
100
AcDbEntity
  8
MAIN0
  6
BYBLOCK
 62
0
100
AcDbLine
 10
969.6955876950046
 20
499.0332614520608
 30
0.0000000000000000
 11
969.6955876950046
 21
548.0332614521674
 31
0.0000000000000000
  0
INSERT
  5
1A6
100
AcDbEntity
  8
MAIN0
  6
BYBLOCK
 62
0
100
AcDbBlockReference
  2
_OPEN
 10
969.6955876950046
 20
491.0332614520608
 30
0.0000000000000000
 41
8.000000000000000
 42
8.000000000000000
 43
8.000000000000000
 50
270.0000000000000
  0
INSERT
  5
1A7
100
AcDbEntity
  8
MAIN0
  6
BYBLOCK
 62
0
100
AcDbBlockReference
  2
_OPEN
 10
969.6955876950046
 20
556.0332614521674
 30
0.0000000000000000
 41
8.000000000000000
 42
8.000000000000000
 43
8.000000000000000
 50
90.00000000000000
  0
LINE
  5
1A8
100
AcDbEntity
  8
MAIN0
  6
BYBLOCK
 62
0
100
AcDbLine
 10
848.8629397811815
 20
556.0332614521674
 30
0.0000000000000000
 11
977.6955876950046
 21
556.0332614521674
 31
0.0000000000000000
  0
MTEXT
  5
1A9
100
AcDbEntity
  8
MAIN0
  6
BYBLOCK
 62
0
100
AcDbMText
 10
962.9955878857395
 20
523.5332614521141
 30
0.0000000000000000
 40
12.39999961853027
 41
0.0000000000000000
 71
     5
 72
     1
  1
\A1;65
 11
6.123233995736766e-017
 21
1.000000000000000
 31
0.0000000000000000
  7
STANDARD
  0
ENDBLK
  5
1AA
100
AcDbEntity
  8
MAIN0
  6
CONTINUOUS
 62
3
100
AcDbBlockEnd
  0
BLOCK
  5
1C1
100
AcDbEntity
  8
MAIN0
  6
CONTINUOUS
 62
3
100
AcDbBlockBegin
  2
*D9
 70
    65
 10
0.0
 20
0.0
 30
0.0
  0
LINE
  5
1C2
100
AcDbEntity
  8
MAIN0
  6
BYBLOCK
 62
0
100
AcDbLine
 10
286.1153087750907
 20
630.5332614518590
 30
0.0000000000000000
 11
184.1735933065331
 21
630.5332614518590
 31
0.0000000000000000
  0
LINE
  5
1C3
100
AcDbEntity
  8
MAIN0
  6
BYBLOCK
 62
0
100
AcDbLine
 10
192.1735933065331
 20
622.5332614518590
 30
0.0000000000000000
 11
192.1735933065331
 21
499.0332614518584
 31
0.0000000000000000
  0
INSERT
  5
1C4
100
AcDbEntity
  8
MAIN0
  6
BYBLOCK
 62
0
100
AcDbBlockReference
  2
_OPEN
 10
192.1735933065331
 20
630.5332614518590
 30
0.0000000000000000
 41
8.000000000000000
 42
8.000000000000000
 43
8.000000000000000
 50
90.00000000000000
  0
INSERT
  5
1C5
100
AcDbEntity
  8
MAIN0
  6
BYBLOCK
 62
0
100
AcDbBlockReference
  2
_OPEN
 10
192.1735933065331
 20
491.0332614518584
 30
0.0000000000000000
 41
8.000000000000000
 42
8.000000000000000
 43
8.000000000000000
 50
270.0000000000000
  0
LINE
  5
1C6
100
AcDbEntity
  8
MAIN0
  6
BYBLOCK
 62
0
100
AcDbLine
 10
285.1153087749809
 20
491.0332614518584
 30
0.0000000000000000
 11
184.1735933065331
 21
491.0332614518584
 31
0.0000000000000000
  0
MTEXT
  5
1C7
100
AcDbEntity
  8
MAIN0
  6
BYBLOCK
 62
0
100
AcDbMText
 10
185.4735934972679
 20
560.7832614518586
 30
0.0000000000000000
 40
12.39999961853027
 41
0.0000000000000000
 71
     5
 72
     1
  1
\A1;139.5
 11
6.123233995736766e-017
 21
1.000000000000000
 31
0.0000000000000000
  7
STANDARD
  0
ENDBLK
  5
1C8
100
AcDbEntity
  8
MAIN0
  6
CONTINUOUS
 62
3
100
AcDbBlockEnd
  0
BLOCK
  5
1CA
100
AcDbEntity
  8
MAIN0
  6
CONTINUOUS
 62
3
100
AcDbBlockBegin
  2
*D10
 70
    65
 10
0.0
 20
0.0
 30
0.0
  0
LINE
  5
1CB
100
AcDbEntity
  8
MAIN0
  6
BYBLOCK
 62
0
100
AcDbLine
 10
285.1153087749253
 20
591.0332614518585
 30
0.0000000000000000
 11
218.2423031360381
 21
591.0332614518585
 31
0.0000000000000000
  0
LINE
  5
1CC
100
AcDbEntity
  8
MAIN0
  6
BYBLOCK
 62
0
100
AcDbLine
 10
226.2423031360381
 20
583.0332614518585
 30
0.0000000000000000
 11
226.2423031360381
 21
499.0332614518584
 31
0.0000000000000000
  0
INSERT
  5
1CD
100
AcDbEntity
  8
MAIN0
  6
BYBLOCK
 62
0
100
AcDbBlockReference
  2
_OPEN
 10
226.2423031360381
 20
591.0332614518585
 30
0.0000000000000000
 41
8.000000000000000
 42
8.000000000000000
 43
8.000000000000000
 50
90.00000000000000
  0
INSERT
  5
1CE
100
AcDbEntity
  8
MAIN0
  6
BYBLOCK
 62
0
100
AcDbBlockReference
  2
_OPEN
 10
226.2423031360381
 20
491.0332614518584
 30
0.0000000000000000
 41
8.000000000000000
 42
8.000000000000000
 43
8.000000000000000
 50
270.0000000000000
  0
LINE
  5
1CF
100
AcDbEntity
  8
MAIN0
  6
BYBLOCK
 62
0
100
AcDbLine
 10
285.1153087749809
 20
491.0332614518584
 30
0.0000000000000000
 11
218.2423031360381
 21
491.0332614518584
 31
0.0000000000000000
  0
MTEXT
  5
1D0
100
AcDbEntity
  8
MAIN0
  6
BYBLOCK
 62
0
100
AcDbMText
 10
219.5423033267729
 20
541.0332614518584
 30
0.0000000000000000
 40
12.39999961853027
 41
0.0000000000000000
 71
     5
 72
     1
  1
\A1;100
 11
6.123233995736766e-017
 21
1.000000000000000
 31
0.0000000000000000
  7
STANDARD
  0
ENDBLK
  5
1D1
100
AcDbEntity
  8
MAIN0
  6
CONTINUOUS
 62
3
100
AcDbBlockEnd
  0
BLOCK
  5
1D5
100
AcDbEntity
  8
MAIN0
  6
CONTINUOUS
 62
3
100
AcDbBlockBegin
  2
*D11
 70
    65
 10
0.0
 20
0.0
 30
0.0
  0
LINE
  5
1D6
100
AcDbEntity
  8
MAIN0
  6
BYBLOCK
 62
0
100
AcDbLine
 10
286.1153087750907
 20
630.5332614518590
 30
0.0000000000000000
 11
218.2423031360381
 21
630.5332614518590
 31
0.0000000000000000
  0
LINE
  5
1D7
100
AcDbEntity
  8
MAIN0
  6
BYBLOCK
 62
0
100
AcDbLine
 10
226.2423031360381
 20
630.5332614518590
 30
0.0000000000000000
 11
226.2423031360381
 21
591.0332614518585
 31
0.0000000000000000
  0
INSERT
  5
1D8
100
AcDbEntity
  8
MAIN0
  6
BYBLOCK
 62
0
100
AcDbBlockReference
  2
_OPEN
 10
226.2423031360381
 20
630.5332614518590
 30
0.0000000000000000
 41
8.000000000000000
 42
8.000000000000000
 43
8.000000000000000
 50
270.0000000000000
  0
INSERT
  5
1D9
100
AcDbEntity
  8
MAIN0
  6
BYBLOCK
 62
0
100
AcDbBlockReference
  2
_OPEN
 10
226.2423031360381
 20
591.0332614518585
 30
0.0000000000000000
 41
8.000000000000000
 42
8.000000000000000
 43
8.000000000000000
 50
90.00000000000000
  0
LINE
  5
1DA
100
AcDbEntity
  8
MAIN0
  6
BYBLOCK
 62
0
100
AcDbLine
 10
226.2423031360381
 20
638.5332614518590
 30
0.0000000000000000
 11
226.2423031360381
 21
642.5332614518590
 31
0.0000000000000000
  0
LINE
  5
1DB
100
AcDbEntity
  8
MAIN0
  6
BYBLOCK
 62
0
100
AcDbLine
 10
226.2423031360381
 20
583.0332614518585
 30
0.0000000000000000
 11
226.2423031360381
 21
579.0332614518585
 31
0.0000000000000000
  0
LINE
  5
1DC
100
AcDbEntity
  8
MAIN0
  6
BYBLOCK
 62
0
100
AcDbLine
 10
285.1153087749253
 20
591.0332614518585
 30
0.0000000000000000
 11
218.2423031360381
 21
591.0332614518585
 31
0.0000000000000000
  0
MTEXT
  5
1DD
100
AcDbEntity
  8
MAIN0
  6
BYBLOCK
 62
0
100
AcDbMText
 10
219.5423033267729
 20
610.7832614518587
 30
0.0000000000000000
 40
12.39999961853027
 41
0.0000000000000000
 71
     5
 72
     1
  1
\A1;39.5
 11
6.123233995736766e-017
 21
1.000000000000000
 31
0.0000000000000000
  7
STANDARD
  0
ENDBLK
  5
1DE
100
AcDbEntity
  8
MAIN0
  6
CONTINUOUS
 62
3
100
AcDbBlockEnd
  0
BLOCK
  5
1F3
100
AcDbEntity
  8
MAIN0
  6
CONTINUOUS
 62
3
100
AcDbBlockBegin
  2
*D12
 70
    65
 10
0.0
 20
0.0
 30
0.0
  0
LINE
  5
1F4
100
AcDbEntity
  8
MAIN0
  6
BYBLOCK
 62
0
100
AcDbLine
 10
445.5153088703442
 20
486.0332614519438
 30
0.0000000000000000
 11
506.9620422193318
 21
486.0332614519438
 31
0.0000000000000000
  0
LINE
  5
1F5
100
AcDbEntity
  8
MAIN0
  6
BYBLOCK
 62
0
100
AcDbLine
 10
498.9620422193318
 20
486.0332614519438
 30
0.0000000000000000
 11
498.9620422193318
 21
491.0332614519438
 31
0.0000000000000000
  0
INSERT
  5
1F6
100
AcDbEntity
  8
MAIN0
  6
BYBLOCK
 62
0
100
AcDbBlockReference
  2
_OPEN
 10
498.9620422193318
 20
486.0332614519438
 30
0.0000000000000000
 41
8.000000000000000
 42
8.000000000000000
 43
8.000000000000000
 50
90.00000000000000
  0
INSERT
  5
1F7
100
AcDbEntity
  8
MAIN0
  6
BYBLOCK
 62
0
100
AcDbBlockReference
  2
_OPEN
 10
498.9620422193318
 20
491.0332614519438
 30
0.0000000000000000
 41
8.000000000000000
 42
8.000000000000000
 43
8.000000000000000
 50
270.0000000000000
  0
LINE
  5
1F8
100
AcDbEntity
  8
MAIN0
  6
BYBLOCK
 62
0
100
AcDbLine
 10
498.9620422193318
 20
478.0332614519438
 30
0.0000000000000000
 11
498.9620422193318
 21
468.2120329170872
 31
0.0000000000000000
  0
LINE
  5
1F9
100
AcDbEntity
  8
MAIN0
  6
BYBLOCK
 62
0
100
AcDbLine
 10
498.9620422193318
 20
499.0332614519438
 30
0.0000000000000000
 11
498.9620422193318
 21
503.0332614519438
 31
0.0000000000000000
  0
MTEXT
  5
1FA
100
AcDbEntity
  8
MAIN0
  6
BYBLOCK
 62
0
100
AcDbMText
 10
490.7620424100666
 20
472.2120329170872
 30
0.0000000000000000
 40
12.39999961853027
 41
0.0000000000000000
 71
     5
 72
     1
  1
\A1;5
 11
6.123233995736766e-017
 21
1.000000000000000
 31
0.0000000000000000
  7
STANDARD
  0
ENDBLK
  5
1FB
100
AcDbEntity
  8
MAIN0
  6
CONTINUOUS
 62
3
100
AcDbBlockEnd
  0
BLOCK
  5
1FD
100
AcDbEntity
  8
MAIN0
  6
CONTINUOUS
 62
3
100
AcDbBlockBegin
  2
*D13
 70
    65
 10
0.0
 20
0.0
 30
0.0
  0
LINE
  5
1FE
100
AcDbEntity
  8
MAIN0
  6
BYBLOCK
 62
0
100
AcDbLine
 10
286.1153087755471
 20
1033.432304755154
 30
0.0000000000000000
 11
190.3153088226645
 21
1033.432304755154
 31
0.0000000000000000
  0
LINE
  5
1FF
100
AcDbEntity
  8
MAIN0
  6
BYBLOCK
 62
0
100
AcDbLine
 10
198.3153088226645
 20
1025.432304755154
 30
0.0000000000000000
 11
198.3153088226645
 21
916.9323047551543
 31
0.0000000000000000
  0
INSERT
  5
200
100
AcDbEntity
  8
MAIN0
  6
BYBLOCK
 62
0
100
AcDbBlockReference
  2
_OPEN
 10
198.3153088226645
 20
1033.432304755154
 30
0.0000000000000000
 41
8.000000000000000
 42
8.000000000000000
 43
8.000000000000000
 50
90.00000000000000
  0
INSERT
  5
201
100
AcDbEntity
  8
MAIN0
  6
BYBLOCK
 62
0
100
AcDbBlockReference
  2
_OPEN
 10
198.3153088226645
 20
908.9323047551543
 30
0.0000000000000000
 41
8.000000000000000
 42
8.000000000000000
 43
8.000000000000000
 50
270.0000000000000
  0
LINE
  5
202
100
AcDbEntity
  8
MAIN0
  6
BYBLOCK
 62
0
100
AcDbLine
 10
286.1153087754496
 20
908.9323047551543
 30
0.0000000000000000
 11
190.3153088226645
 21
908.9323047551543
 31
0.0000000000000000
  0
MTEXT
  5
203
100
AcDbEntity
  8
MAIN0
  6
BYBLOCK
 62
0
100
AcDbMText
 10
191.6153090133993
 20
971.1823047551543
 30
0.0000000000000000
 40
12.39999961853027
 41
0.0000000000000000
 71
     5
 72
     1
  1
\A1;124.5
 11
6.123233995736766e-017
 21
1.000000000000000
 31
0.0000000000000000
  7
STANDARD
  0
ENDBLK
  5
204
100
AcDbEntity
  8
MAIN0
  6
CONTINUOUS
 62
3
100
AcDbBlockEnd
  0
BLOCK
  5
206
100
AcDbEntity
  8
MAIN0
  6
CONTINUOUS
 62
3
100
AcDbBlockBegin
  2
*D14
 70
    65
 10
0.0
 20
0.0
 30
0.0
  0
LINE
  5
207
100
AcDbEntity
  8
MAIN0
  6
BYBLOCK
 62
0
100
AcDbLine
 10
484.4471561652778
 20
1026.182304755154
 30
0.0000000000000000
 11
484.4471561652778
 21
916.1823047551543
 31
0.0000000000000000
  0
INSERT
  5
208
100
AcDbEntity
  8
MAIN0
  6
BYBLOCK
 62
0
100
AcDbBlockReference
  2
_OPEN
 10
484.4471561652778
 20
1034.182304755154
 30
0.0000000000000000
 41
8.000000000000000
 42
8.000000000000000
 43
8.000000000000000
 50
90.00000000000000
  0
INSERT
  5
209
100
AcDbEntity
  8
MAIN0
  6
BYBLOCK
 62
0
100
AcDbBlockReference
  2
_OPEN
 10
484.4471561652778
 20
908.1823047551543
 30
0.0000000000000000
 41
8.000000000000000
 42
8.000000000000000
 43
8.000000000000000
 50
270.0000000000000
  0
MTEXT
  5
20A
100
AcDbEntity
  8
MAIN0
  6
BYBLOCK
 62
0
100
AcDbMText
 10
477.7471563560127
 20
971.1823047551543
 30
0.0000000000000000
 40
12.39999961853027
 41
0.0000000000000000
 71
     5
 72
     1
  1
\A1;126
 11
6.123233995736766e-017
 21
1.000000000000000
 31
0.0000000000000000
  7
STANDARD
  0
ENDBLK
  5
20B
100
AcDbEntity
  8
MAIN0
  6
CONTINUOUS
 62
3
100
AcDbBlockEnd
  0
BLOCK
  5
25B
100
AcDbEntity
  8
MAIN0
  6
CONTINUOUS
 62
3
100
AcDbBlockBegin
  2
*D15
 70
    65
 10
0.0
 20
0.0
 30
0.0
  0
LINE
  5
25C
100
AcDbEntity
  8
MAIN0
  6
BYBLOCK
 62
0
100
AcDbLine
 10
292.8653087755064
 20
946.1823047551526
 30
0.0000000000000000
 11
253.1488500539786
 21
946.1823047551526
 31
0.0000000000000000
  0
LINE
  5
25D
100
AcDbEntity
  8
MAIN0
  6
BYBLOCK
 62
0
100
AcDbLine
 10
261.1488500539786
 20
954.1823047551526
 30
0.0000000000000000
 11
261.1488500539786
 21
988.1823047551527
 31
0.0000000000000000
  0
INSERT
  5
25E
100
AcDbEntity
  8
MAIN0
  6
BYBLOCK
 62
0
100
AcDbBlockReference
  2
_OPEN
 10
261.1488500539786
 20
946.1823047551526
 30
0.0000000000000000
 41
8.000000000000000
 42
8.000000000000000
 43
8.000000000000000
 50
270.0000000000000
  0
INSERT
  5
25F
100
AcDbEntity
  8
MAIN0
  6
BYBLOCK
 62
0
100
AcDbBlockReference
  2
_OPEN
 10
261.1488500539786
 20
996.1823047551527
 30
0.0000000000000000
 41
8.000000000000000
 42
8.000000000000000
 43
8.000000000000000
 50
90.00000000000000
  0
LINE
  5
260
100
AcDbEntity
  8
MAIN0
  6
BYBLOCK
 62
0
100
AcDbLine
 10
292.8653087754902
 20
996.1823047551527
 30
0.0000000000000000
 11
253.1488500539786
 21
996.1823047551527
 31
0.0000000000000000
  0
MTEXT
  5
261
100
AcDbEntity
  8
MAIN0
  6
BYBLOCK
 62
0
100
AcDbMText
 10
254.4488502447135
 20
971.1823047551526
 30
0.0000000000000000
 40
12.39999961853027
 41
0.0000000000000000
 71
     5
 72
     1
  1
\A1;50
 11
6.123233995736766e-017
 21
1.000000000000000
 31
0.0000000000000000
  7
STANDARD
  0
ENDBLK
  5
262
100
AcDbEntity
  8
MAIN0
  6
CONTINUOUS
 62
3
100
AcDbBlockEnd
  0
BLOCK
  5
264
100
AcDbEntity
  8
MAIN0
  6
CONTINUOUS
 62
3
100
AcDbBlockBegin
  2
*D16
 70
    65
 10
0.0
 20
0.0
 30
0.0
  0
LINE
  5
265
100
AcDbEntity
  8
MAIN0
  6
BYBLOCK
 62
0
100
AcDbLine
 10
302.3153088231902
 20
936.7323047074689
 30
0.0000000000000000
 11
302.3153088231902
 21
859.4300471412198
 31
0.0000000000000000
  0
LINE
  5
266
100
AcDbEntity
  8
MAIN0
  6
BYBLOCK
 62
0
100
AcDbLine
 10
310.3153088231902
 20
867.4300471412198
 30
0.0000000000000000
 11
349.3153088231902
 21
867.4300471412198
 31
0.0000000000000000
  0
INSERT
  5
267
100
AcDbEntity
  8
MAIN0
  6
BYBLOCK
 62
0
100
AcDbBlockReference
  2
_OPEN
 10
302.3153088231902
 20
867.4300471412198
 30
0.0000000000000000
 41
8.000000000000000
 42
8.000000000000000
 43
8.000000000000000
 50
180.0000000000000
  0
INSERT
  5
268
100
AcDbEntity
  8
MAIN0
  6
BYBLOCK
 62
0
100
AcDbBlockReference
  2
_OPEN
 10
357.3153088231902
 20
867.4300471412198
 30
0.0000000000000000
 41
8.000000000000000
 42
8.000000000000000
 43
8.000000000000000
 50
0.0000000000000000
  0
LINE
  5
269
100
AcDbEntity
  8
MAIN0
  6
BYBLOCK
 62
0
100
AcDbLine
 10
357.3153088231902
 20
936.7323047074724
 30
0.0000000000000000
 11
357.3153088231902
 21
859.4300471412198
 31
0.0000000000000000
  0
MTEXT
  5
26A
100
AcDbEntity
  8
MAIN0
  6
BYBLOCK
 62
0
100
AcDbMText
 10
329.8153088231902
 20
874.1300469504849
 30
0.0000000000000000
 40
12.39999961853027
 41
0.0000000000000000
 71
     5
 72
     1
  1
\A1;55
 11
1.000000000000000
 21
0.0000000000000000
 31
0.0000000000000000
  7
STANDARD
  0
ENDBLK
  5
26B
100
AcDbEntity
  8
MAIN0
  6
CONTINUOUS
 62
3
100
AcDbBlockEnd
  0
BLOCK
  5
26D
100
AcDbEntity
  8
MAIN0
  6
CONTINUOUS
 62
3
100
AcDbBlockBegin
  2
*D17
 70
    65
 10
0.0
 20
0.0
 30
0.0
  0
LINE
  5
26E
100
AcDbEntity
  8
MAIN0
  6
BYBLOCK
 62
0
100
AcDbLine
 10
357.3153088231902
 20
936.7323047074724
 30
0.0000000000000000
 11
357.3153088231902
 21
859.4300471412198
 31
0.0000000000000000
  0
LINE
  5
26F
100
AcDbEntity
  8
MAIN0
  6
BYBLOCK
 62
0
100
AcDbLine
 10
357.3153088231902
 20
867.4300471412198
 30
0.0000000000000000
 11
367.3153088231333
 21
867.4300471412198
 31
0.0000000000000000
  0
INSERT
  5
270
100
AcDbEntity
  8
MAIN0
  6
BYBLOCK
 62
0
100
AcDbBlockReference
  2
_OPEN
 10
357.3153088231902
 20
867.4300471412198
 30
0.0000000000000000
 41
8.000000000000000
 42
8.000000000000000
 43
8.000000000000000
 50
0.0000000000000000
  0
INSERT
  5
271
100
AcDbEntity
  8
MAIN0
  6
BYBLOCK
 62
0
100
AcDbBlockReference
  2
_OPEN
 10
367.3153088231333
 20
867.4300471412198
 30
0.0000000000000000
 41
8.000000000000000
 42
8.000000000000000
 43
8.000000000000000
 50
180.0000000000000
  0
LINE
  5
272
100
AcDbEntity
  8
MAIN0
  6
BYBLOCK
 62
0
100
AcDbLine
 10
349.3153088231902
 20
867.4300471412198
 30
0.0000000000000000
 11
345.3153088231902
 21
867.4300471412198
 31
0.0000000000000000
  0
LINE
  5
273
100
AcDbEntity
  8
MAIN0
  6
BYBLOCK
 62
0
100
AcDbLine
 10
375.3153088231333
 20
867.4300471412198
 30
0.0000000000000000
 11
389.0602138919713
 21
867.4300471412198
 31
0.0000000000000000
  0
LINE
  5
274
100
AcDbEntity
  8
MAIN0
  6
BYBLOCK
 62
0
100
AcDbLine
 10
367.3153088231333
 20
905.7323047074706
 30
0.0000000000000000
 11
367.3153088231333
 21
859.4300471412198
 31
0.0000000000000000
  0
MTEXT
  5
275
100
AcDbEntity
  8
MAIN0
  6
BYBLOCK
 62
0
100
AcDbMText
 10
380.8602140827061
 20
875.6300469504849
 30
0.0000000000000000
 40
12.39999961853027
 41
0.0000000000000000
 71
     5
 72
     1
  1
\A1;10
 11
1.000000000000000
 21
0.0000000000000000
 31
0.0000000000000000
  7
STANDARD
  0
ENDBLK
  5
276
100
AcDbEntity
  8
MAIN0
  6
CONTINUOUS
 62
3
100
AcDbBlockEnd
  0
BLOCK
  5
278
100
AcDbEntity
  8
MAIN0
  6
CONTINUOUS
 62
3
100
AcDbBlockBegin
  2
*D18
 70
    65
 10
0.0
 20
0.0
 30
0.0
  0
LINE
  5
279
100
AcDbEntity
  8
MAIN0
  6
BYBLOCK
 62
0
100
AcDbLine
 10
328.3153088231820
 20
980.6323048028380
 30
0.0000000000000000
 11
328.3153088231820
 21
1077.787179850316
 31
0.0000000000000000
  0
LINE
  5
27A
100
AcDbEntity
  8
MAIN0
  6
BYBLOCK
 62
0
100
AcDbLine
 10
336.3153088231820
 20
1069.787179850316
 30
0.0000000000000000
 11
359.3153088232309
 21
1069.787179850316
 31
0.0000000000000000
  0
INSERT
  5
27B
100
AcDbEntity
  8
MAIN0
  6
BYBLOCK
 62
0
100
AcDbBlockReference
  2
_OPEN
 10
328.3153088231820
 20
1069.787179850316
 30
0.0000000000000000
 41
8.000000000000000
 42
8.000000000000000
 43
8.000000000000000
 50
180.0000000000000
  0
INSERT
  5
27C
100
AcDbEntity
  8
MAIN0
  6
BYBLOCK
 62
0
100
AcDbBlockReference
  2
_OPEN
 10
367.3153088232309
 20
1069.787179850316
 30
0.0000000000000000
 41
8.000000000000000
 42
8.000000000000000
 43
8.000000000000000
 50
0.0000000000000000
  0
LINE
  5
27D
100
AcDbEntity
  8
MAIN0
  6
BYBLOCK
 62
0
100
AcDbLine
 10
367.3153088232309
 20
1036.632304802838
 30
0.0000000000000000
 11
367.3153088232309
 21
1077.787179850316
 31
0.0000000000000000
  0
MTEXT
  5
27E
100
AcDbEntity
  8
MAIN0
  6
BYBLOCK
 62
0
100
AcDbMText
 10
347.8153088232065
 20
1076.487179659581
 30
0.0000000000000000
 40
12.39999961853027
 41
0.0000000000000000
 71
     5
 72
     1
  1
\A1;39
 11
1.000000000000000
 21
0.0000000000000000
 31
0.0000000000000000
  7
STANDARD
  0
ENDBLK
  5
27F
100
AcDbEntity
  8
MAIN0
  6
CONTINUOUS
 62
3
100
AcDbBlockEnd
  0
BLOCK
  5
281
100
AcDbEntity
  8
MAIN0
  6
CONTINUOUS
 62
3
100
AcDbBlockBegin
  2
*D19
 70
    65
 10
0.0
 20
0.0
 30
0.0
  0
LINE
  5
282
100
AcDbEntity
  8
MAIN0
  6
BYBLOCK
 62
0
100
AcDbLine
 10
343.5153088704345
 20
600.5332614518804
 30
0.0000000000000000
 11
363.7752511954648
 21
600.5332614518804
 31
0.0000000000000000
  0
LINE
  5
283
100
AcDbEntity
  8
MAIN0
  6
BYBLOCK
 62
0
100
AcDbLine
 10
355.7752511954648
 20
600.5332614518804
 30
0.0000000000000000
 11
355.7752511954648
 21
619.5332614518807
 31
0.0000000000000000
  0
INSERT
  5
284
100
AcDbEntity
  8
MAIN0
  6
BYBLOCK
 62
0
100
AcDbBlockReference
  2
_OPEN
 10
355.7752511954648
 20
600.5332614518804
 30
0.0000000000000000
 41
8.000000000000000
 42
8.000000000000000
 43
8.000000000000000
 50
90.00000000000000
  0
INSERT
  5
285
100
AcDbEntity
  8
MAIN0
  6
BYBLOCK
 62
0
100
AcDbBlockReference
  2
_DOT
 10
355.7752511954648
 20
620.5332614518807
 30
0.0000000000000000
 41
4.000000000000000
 42
4.000000000000000
 43
4.000000000000000
 50
90.00000000000000
  0
LINE
  5
286
100
AcDbEntity
  8
MAIN0
  6
BYBLOCK
 62
0
100
AcDbLine
 10
355.7752511954648
 20
592.5332614518804
 30
0.0000000000000000
 11
355.7752511954648
 21
588.5332614518804
 31
0.0000000000000000
  0
LINE
  5
287
100
AcDbEntity
  8
MAIN0
  6
BYBLOCK
 62
0
100
AcDbLine
 10
343.5153088704503
 20
620.5332614518807
 30
0.0000000000000000
 11
363.7752511954648
 21
620.5332614518807
 31
0.0000000000000000
  0
MTEXT
  5
288
100
AcDbEntity
  8
MAIN0
  6
BYBLOCK
 62
0
100
AcDbMText
 10
349.0752513861997
 20
610.5332614518806
 30
0.0000000000000000
 40
12.39999961853027
 41
0.0000000000000000
 71
     5
 72
     1
  1
\A1;20
 11
6.123233995736766e-017
 21
1.000000000000000
 31
0.0000000000000000
  7
STANDARD
  0
ENDBLK
  5
289
100
AcDbEntity
  8
MAIN0
  6
CONTINUOUS
 62
3
100
AcDbBlockEnd
  0
BLOCK
  5
28B
100
AcDbEntity
  8
MAIN0
  6
CONTINUOUS
 62
3
100
AcDbBlockBegin
  2
*D20
 70
    65
 10
0.0
 20
0.0
 30
0.0
  0
LINE
  5
28C
100
AcDbEntity
  8
MAIN0
  6
BYBLOCK
 62
0
100
AcDbLine
 10
343.5153088704503
 20
620.5332614518807
 30
0.0000000000000000
 11
363.7752511954648
 21
620.5332614518807
 31
0.0000000000000000
  0
LINE
  5
28D
100
AcDbEntity
  8
MAIN0
  6
BYBLOCK
 62
0
100
AcDbLine
 10
355.7752511954648
 20
621.5332614518807
 30
0.0000000000000000
 11
355.7752511954648
 21
630.5332614519022
 31
0.0000000000000000
  0
INSERT
  5
28E
100
AcDbEntity
  8
MAIN0
  6
BYBLOCK
 62
0
100
AcDbBlockReference
  2
_DOT
 10
355.7752511954648
 20
620.5332614518807
 30
0.0000000000000000
 41
4.000000000000000
 42
4.000000000000000
 43
4.000000000000000
 50
270.0000000000000
  0
INSERT
  5
28F
100
AcDbEntity
  8
MAIN0
  6
BYBLOCK
 62
0
100
AcDbBlockReference
  2
_OPEN
 10
355.7752511954648
 20
630.5332614519022
 30
0.0000000000000000
 41
8.000000000000000
 42
8.000000000000000
 43
8.000000000000000
 50
270.0000000000000
  0
LINE
  5
290
100
AcDbEntity
  8
MAIN0
  6
BYBLOCK
 62
0
100
AcDbLine
 10
355.7752511954648
 20
638.5332614519022
 30
0.0000000000000000
 11
355.7752511954648
 21
649.6130158262955
 31
0.0000000000000000
  0
MTEXT
  5
291
100
AcDbEntity
  8
MAIN0
  6
BYBLOCK
 62
0
100
AcDbMText
 10
347.5752513861997
 20
641.4130160170304
 30
0.0000000000000000
 40
12.39999961853027
 41
0.0000000000000000
 71
     5
 72
     1
  1
\A1;10
 11
6.123233995736766e-017
 21
1.000000000000000
 31
0.0000000000000000
  7
STANDARD
  0
ENDBLK
  5
292
100
AcDbEntity
  8
MAIN0
  6
CONTINUOUS
 62
3
100
AcDbBlockEnd
  0
BLOCK
  5
294
100
AcDbEntity
  8
MAIN0
  6
CONTINUOUS
 62
3
100
AcDbBlockBegin
  2
*D21
 70
    65
 10
0.0
 20
0.0
 30
0.0
  0
LINE
  5
295
100
AcDbEntity
  8
MAIN0
  6
BYBLOCK
 62
0
100
AcDbLine
 10
328.3153088227666
 20
635.7332614995644
 30
0.0000000000000000
 11
328.3153088227666
 21
671.2819636569743
 31
0.0000000000000000
  0
LINE
  5
296
100
AcDbEntity
  8
MAIN0
  6
BYBLOCK
 62
0
100
AcDbLine
 10
336.3153088227666
 20
663.2819636569743
 30
0.0000000000000000
 11
359.3153088227743
 21
663.2819636569743
 31
0.0000000000000000
  0
INSERT
  5
297
100
AcDbEntity
  8
MAIN0
  6
BYBLOCK
 62
0
100
AcDbBlockReference
  2
_OPEN
 10
328.3153088227666
 20
663.2819636569743
 30
0.0000000000000000
 41
8.000000000000000
 42
8.000000000000000
 43
8.000000000000000
 50
180.0000000000000
  0
INSERT
  5
298
100
AcDbEntity
  8
MAIN0
  6
BYBLOCK
 62
0
100
AcDbBlockReference
  2
_OPEN
 10
367.3153088227743
 20
663.2819636569743
 30
0.0000000000000000
 41
8.000000000000000
 42
8.000000000000000
 43
8.000000000000000
 50
0.0000000000000000
  0
LINE
  5
299
100
AcDbEntity
  8
MAIN0
  6
BYBLOCK
 62
0
100
AcDbLine
 10
367.3153088227743
 20
633.7332614995860
 30
0.0000000000000000
 11
367.3153088227743
 21
671.2819636569743
 31
0.0000000000000000
  0
MTEXT
  5
29A
100
AcDbEntity
  8
MAIN0
  6
BYBLOCK
 62
0
100
AcDbMText
 10
347.8153088227704
 20
669.9819634662395
 30
0.0000000000000000
 40
12.39999961853027
 41
0.0000000000000000
 71
     5
 72
     1
  1
\A1;39
 11
1.000000000000000
 21
0.0000000000000000
 31
0.0000000000000000
  7
STANDARD
  0
ENDBLK
  5
29B
100
AcDbEntity
  8
MAIN0
  6
CONTINUOUS
 62
3
100
AcDbBlockEnd
  0
BLOCK
  5
2B0
100
AcDbEntity
  8
MAIN0
  6
CONTINUOUS
 62
3
100
AcDbBlockBegin
  2
*D22
 70
    65
 10
0.0
 20
0.0
 30
0.0
  0
LINE
  5
2B1
100
AcDbEntity
  8
MAIN0
  6
BYBLOCK
 62
0
100
AcDbLine
 10
562.3153088231331
 20
905.7323047074706
 30
0.0000000000000000
 11
562.3153088231331
 21
859.4300471412198
 31
0.0000000000000000
  0
LINE
  5
2B2
100
AcDbEntity
  8
MAIN0
  6
BYBLOCK
 62
0
100
AcDbLine
 10
562.3153088231331
 20
867.4300471412198
 30
0.0000000000000000
 11
572.3153088231887
 21
867.4300471412198
 31
0.0000000000000000
  0
INSERT
  5
2B3
100
AcDbEntity
  8
MAIN0
  6
BYBLOCK
 62
0
100
AcDbBlockReference
  2
_OPEN
 10
562.3153088231331
 20
867.4300471412198
 30
0.0000000000000000
 41
8.000000000000000
 42
8.000000000000000
 43
8.000000000000000
 50
0.0000000000000000
  0
INSERT
  5
2B4
100
AcDbEntity
  8
MAIN0
  6
BYBLOCK
 62
0
100
AcDbBlockReference
  2
_OPEN
 10
572.3153088231887
 20
867.4300471412198
 30
0.0000000000000000
 41
8.000000000000000
 42
8.000000000000000
 43
8.000000000000000
 50
180.0000000000000
  0
LINE
  5
2B5
100
AcDbEntity
  8
MAIN0
  6
BYBLOCK
 62
0
100
AcDbLine
 10
554.3153088231331
 20
867.4300471412198
 30
0.0000000000000000
 11
539.1691999518313
 21
867.4300471412198
 31
0.0000000000000000
  0
LINE
  5
2B6
100
AcDbEntity
  8
MAIN0
  6
BYBLOCK
 62
0
100
AcDbLine
 10
580.3153088231887
 20
867.4300471412198
 30
0.0000000000000000
 11
584.3153088231887
 21
867.4300471412198
 31
0.0000000000000000
  0
LINE
  5
2B7
100
AcDbEntity
  8
MAIN0
  6
BYBLOCK
 62
0
100
AcDbLine
 10
572.3153088231887
 20
921.7323047074685
 30
0.0000000000000000
 11
572.3153088231887
 21
859.4300471412198
 31
0.0000000000000000
  0
MTEXT
  5
2B8
100
AcDbEntity
  8
MAIN0
  6
BYBLOCK
 62
0
100
AcDbMText
 10
547.3691997610964
 20
875.6300469504849
 30
0.0000000000000000
 40
12.39999961853027
 41
0.0000000000000000
 71
     5
 72
     1
  1
\A1;10
 11
1.000000000000000
 21
0.0000000000000000
 31
0.0000000000000000
  7
STANDARD
  0
ENDBLK
  5
2B9
100
AcDbEntity
  8
MAIN0
  6
CONTINUOUS
 62
3
100
AcDbBlockEnd
  0
BLOCK
  5
2BB
100
AcDbEntity
  8
MAIN0
  6
CONTINUOUS
 62
3
100
AcDbBlockBegin
  2
*D23
 70
    65
 10
0.0
 20
0.0
 30
0.0
  0
LINE
  5
2BC
100
AcDbEntity
  8
MAIN0
  6
BYBLOCK
 62
0
100
AcDbLine
 10
572.3153088231887
 20
921.7323047074685
 30
0.0000000000000000
 11
572.3153088231887
 21
859.4300471412198
 31
0.0000000000000000
  0
LINE
  5
2BD
100
AcDbEntity
  8
MAIN0
  6
BYBLOCK
 62
0
100
AcDbLine
 10
580.3153088231887
 20
867.4300471412198
 30
0.0000000000000000
 11
614.3153088231886
 21
867.4300471412198
 31
0.0000000000000000
  0
INSERT
  5
2BE
100
AcDbEntity
  8
MAIN0
  6
BYBLOCK
 62
0
100
AcDbBlockReference
  2
_OPEN
 10
572.3153088231887
 20
867.4300471412198
 30
0.0000000000000000
 41
8.000000000000000
 42
8.000000000000000
 43
8.000000000000000
 50
180.0000000000000
  0
INSERT
  5
2BF
100
AcDbEntity
  8
MAIN0
  6
BYBLOCK
 62
0
100
AcDbBlockReference
  2
_OPEN
 10
622.3153088231886
 20
867.4300471412198
 30
0.0000000000000000
 41
8.000000000000000
 42
8.000000000000000
 43
8.000000000000000
 50
0.0000000000000000
  0
LINE
  5
2C0
100
AcDbEntity
  8
MAIN0
  6
BYBLOCK
 62
0
100
AcDbLine
 10
622.3153088231886
 20
920.9823047074588
 30
0.0000000000000000
 11
622.3153088231886
 21
859.4300471412198
 31
0.0000000000000000
  0
MTEXT
  5
2C1
100
AcDbEntity
  8
MAIN0
  6
BYBLOCK
 62
0
100
AcDbMText
 10
597.3153088231886
 20
874.1300469504849
 30
0.0000000000000000
 40
12.39999961853027
 41
0.0000000000000000
 71
     5
 72
     1
  1
\A1;50
 11
1.000000000000000
 21
0.0000000000000000
 31
0.0000000000000000
  7
STANDARD
  0
ENDBLK
  5
2C2
100
AcDbEntity
  8
MAIN0
  6
CONTINUOUS
 62
3
100
AcDbBlockEnd
  0
BLOCK
  5
2C4
100
AcDbEntity
  8
MAIN0
  6
CONTINUOUS
 62
3
100
AcDbBlockBegin
  2
*D24
 70
    65
 10
0.0
 20
0.0
 30
0.0
  0
LINE
  5
2C5
100
AcDbEntity
  8
MAIN0
  6
BYBLOCK
 62
0
100
AcDbLine
 10
562.3153088232307
 20
1036.632304802838
 30
0.0000000000000000
 11
562.3153088232307
 21
1077.787179850316
 31
0.0000000000000000
  0
LINE
  5
2C6
100
AcDbEntity
  8
MAIN0
  6
BYBLOCK
 62
0
100
AcDbLine
 10
570.3153088232307
 20
1069.787179850316
 30
0.0000000000000000
 11
591.3153088231820
 21
1069.787179850316
 31
0.0000000000000000
  0
INSERT
  5
2C7
100
AcDbEntity
  8
MAIN0
  6
BYBLOCK
 62
0
100
AcDbBlockReference
  2
_OPEN
 10
562.3153088232307
 20
1069.787179850316
 30
0.0000000000000000
 41
8.000000000000000
 42
8.000000000000000
 43
8.000000000000000
 50
180.0000000000000
  0
INSERT
  5
2C8
100
AcDbEntity
  8
MAIN0
  6
BYBLOCK
 62
0
100
AcDbBlockReference
  2
_OPEN
 10
599.3153088231820
 20
1069.787179850316
 30
0.0000000000000000
 41
8.000000000000000
 42
8.000000000000000
 43
8.000000000000000
 50
0.0000000000000000
  0
LINE
  5
2C9
100
AcDbEntity
  8
MAIN0
  6
BYBLOCK
 62
0
100
AcDbLine
 10
599.3153088231820
 20
981.3823048028307
 30
0.0000000000000000
 11
599.3153088231820
 21
1077.787179850316
 31
0.0000000000000000
  0
MTEXT
  5
2CA
100
AcDbEntity
  8
MAIN0
  6
BYBLOCK
 62
0
100
AcDbMText
 10
580.8153088232064
 20
1076.487179659581
 30
0.0000000000000000
 40
12.39999961853027
 41
0.0000000000000000
 71
     5
 72
     1
  1
\A1;37
 11
1.000000000000000
 21
0.0000000000000000
 31
0.0000000000000000
  7
STANDARD
  0
ENDBLK
  5
2CB
100
AcDbEntity
  8
MAIN0
  6
CONTINUOUS
 62
3
100
AcDbBlockEnd
  0
BLOCK
  5
2CD
100
AcDbEntity
  8
MAIN0
  6
CONTINUOUS
 62
3
100
AcDbBlockBegin
  2
*D25
 70
    65
 10
0.0
 20
0.0
 30
0.0
  0
LINE
  5
2CE
100
AcDbEntity
  8
MAIN0
  6
BYBLOCK
 62
0
100
AcDbLine
 10
562.8653087755049
 20
931.1823047551522
 30
0.0000000000000000
 11
514.8857110615192
 21
931.1823047551522
 31
0.0000000000000000
  0
LINE
  5
2CF
100
AcDbEntity
  8
MAIN0
  6
BYBLOCK
 62
0
100
AcDbLine
 10
522.8857110615192
 20
939.1823047551522
 30
0.0000000000000000
 11
522.8857110615192
 21
1003.182304755152
 31
0.0000000000000000
  0
INSERT
  5
2D0
100
AcDbEntity
  8
MAIN0
  6
BYBLOCK
 62
0
100
AcDbBlockReference
  2
_OPEN
 10
522.8857110615192
 20
931.1823047551522
 30
0.0000000000000000
 41
8.000000000000000
 42
8.000000000000000
 43
8.000000000000000
 50
270.0000000000000
  0
INSERT
  5
2D1
100
AcDbEntity
  8
MAIN0
  6
BYBLOCK
 62
0
100
AcDbBlockReference
  2
_OPEN
 10
522.8857110615192
 20
1011.182304755152
 30
0.0000000000000000
 41
8.000000000000000
 42
8.000000000000000
 43
8.000000000000000
 50
90.00000000000000
  0
LINE
  5
2D2
100
AcDbEntity
  8
MAIN0
  6
BYBLOCK
 62
0
100
AcDbLine
 10
562.8653087754915
 20
1011.182304755152
 30
0.0000000000000000
 11
514.8857110615192
 21
1011.182304755152
 31
0.0000000000000000
  0
MTEXT
  5
2D3
100
AcDbEntity
  8
MAIN0
  6
BYBLOCK
 62
0
100
AcDbMText
 10
516.1857112522540
 20
971.1823047551524
 30
0.0000000000000000
 40
12.39999961853027
 41
0.0000000000000000
 71
     5
 72
     1
  1
\A1;80
 11
6.123233995736766e-017
 21
1.000000000000000
 31
0.0000000000000000
  7
STANDARD
  0
ENDBLK
  5
2D4
100
AcDbEntity
  8
MAIN0
  6
CONTINUOUS
 62
3
100
AcDbBlockEnd
  0
BLOCK
  5
313
100
AcDbEntity
  8
MAIN0
  6
CONTINUOUS
 62
3
100
AcDbBlockBegin
  2
*D26
 70
    65
 10
0.0
 20
0.0
 30
0.0
  0
LINE
  5
314
100
AcDbEntity
  8
MAIN0
  6
BYBLOCK
 62
0
100
AcDbLine
 10
562.3153088227742
 20
634.2332614996941
 30
0.0000000000000000
 11
562.3153088227742
 21
700.1015920481182
 31
0.0000000000000000
  0
LINE
  5
315
100
AcDbEntity
  8
MAIN0
  6
BYBLOCK
 62
0
100
AcDbLine
 10
570.3153088227742
 20
692.1015920481182
 30
0.0000000000000000
 11
628.3153088227742
 21
692.1015920481182
 31
0.0000000000000000
  0
INSERT
  5
316
100
AcDbEntity
  8
MAIN0
  6
BYBLOCK
 62
0
100
AcDbBlockReference
  2
_OPEN
 10
562.3153088227742
 20
692.1015920481182
 30
0.0000000000000000
 41
8.000000000000000
 42
8.000000000000000
 43
8.000000000000000
 50
180.0000000000000
  0
INSERT
  5
317
100
AcDbEntity
  8
MAIN0
  6
BYBLOCK
 62
0
100
AcDbBlockReference
  2
_OPEN
 10
636.3153088227742
 20
692.1015920481182
 30
0.0000000000000000
 41
8.000000000000000
 42
8.000000000000000
 43
8.000000000000000
 50
0.0000000000000000
  0
LINE
  5
318
100
AcDbEntity
  8
MAIN0
  6
BYBLOCK
 62
0
100
AcDbLine
 10
636.3153088227742
 20
634.2332614996360
 30
0.0000000000000000
 11
636.3153088227742
 21
700.1015920481182
 31
0.0000000000000000
  0
MTEXT
  5
319
100
AcDbEntity
  8
MAIN0
  6
BYBLOCK
 62
0
100
AcDbMText
 10
599.3153088227742
 20
698.8015918573833
 30
0.0000000000000000
 40
12.39999961853027
 41
0.0000000000000000
 71
     5
 72
     1
  1
\A1;74
 11
1.000000000000000
 21
0.0000000000000000
 31
0.0000000000000000
  7
STANDARD
  0
ENDBLK
  5
31A
100
AcDbEntity
  8
MAIN0
  6
CONTINUOUS
 62
3
100
AcDbBlockEnd
  0
BLOCK
  5
32A
100
AcDbEntity
  8
MAIN0
  6
CONTINUOUS
 62
3
100
AcDbBlockBegin
  2
*D27
 70
    65
 10
0.0
 20
0.0
 30
0.0
  0
LINE
  5
32B
100
AcDbEntity
  8
MAIN0
  6
BYBLOCK
 62
0
100
AcDbLine
 10
288.3153088226645
 20
487.8332614041747
 30
0.0000000000000000
 11
288.3153088226645
 21
322.7236304138087
 31
0.0000000000000000
  0
LINE
  5
32C
100
AcDbEntity
  8
MAIN0
  6
BYBLOCK
 62
0
100
AcDbLine
 10
296.3153088226645
 20
330.7236304138087
 30
0.0000000000000000
 11
425.3153088226503
 21
330.7236304138087
 31
0.0000000000000000
  0
INSERT
  5
32D
100
AcDbEntity
  8
MAIN0
  6
BYBLOCK
 62
0
100
AcDbBlockReference
  2
_OPEN
 10
288.3153088226645
 20
330.7236304138087
 30
0.0000000000000000
 41
8.000000000000000
 42
8.000000000000000
 43
8.000000000000000
 50
180.0000000000000
  0
INSERT
  5
32E
100
AcDbEntity
  8
MAIN0
  6
BYBLOCK
 62
0
100
AcDbBlockReference
  2
_OPEN
 10
433.3153088226503
 20
330.7236304138087
 30
0.0000000000000000
 41
8.000000000000000
 42
8.000000000000000
 43
8.000000000000000
 50
0.0000000000000000
  0
LINE
  5
32F
100
AcDbEntity
  8
MAIN0
  6
BYBLOCK
 62
0
100
AcDbLine
 10
433.3153088226503
 20
470.0754300189582
 30
0.0000000000000000
 11
433.3153088226503
 21
322.7236304138087
 31
0.0000000000000000
  0
MTEXT
  5
330
100
AcDbEntity
  8
MAIN0
  6
BYBLOCK
 62
0
100
AcDbMText
 10
360.8153088226574
 20
337.4236302230738
 30
0.0000000000000000
 40
12.39999961853027
 41
0.0000000000000000
 71
     5
 72
     1
  1
\A1;145
 11
1.000000000000000
 21
0.0000000000000000
 31
0.0000000000000000
  7
STANDARD
  0
ENDBLK
  5
331
100
AcDbEntity
  8
MAIN0
  6
CONTINUOUS
 62
3
100
AcDbBlockEnd
  0
BLOCK
  5
333
100
AcDbEntity
  8
MAIN0
  6
CONTINUOUS
 62
3
100
AcDbBlockBegin
  2
*D28
 70
    65
 10
0.0
 20
0.0
 30
0.0
  0
LINE
  5
334
100
AcDbEntity
  8
MAIN0
  6
BYBLOCK
 62
0
100
AcDbLine
 10
433.3153088226503
 20
470.0754300189582
 30
0.0000000000000000
 11
433.3153088226503
 21
322.7236304138087
 31
0.0000000000000000
  0
LINE
  5
335
100
AcDbEntity
  8
MAIN0
  6
BYBLOCK
 62
0
100
AcDbLine
 10
441.3153088226503
 20
330.7236304138087
 30
0.0000000000000000
 11
830.3153088226802
 21
330.7236304138087
 31
0.0000000000000000
  0
INSERT
  5
336
100
AcDbEntity
  8
MAIN0
  6
BYBLOCK
 62
0
100
AcDbBlockReference
  2
_OPEN
 10
433.3153088226503
 20
330.7236304138087
 30
0.0000000000000000
 41
8.000000000000000
 42
8.000000000000000
 43
8.000000000000000
 50
180.0000000000000
  0
INSERT
  5
337
100
AcDbEntity
  8
MAIN0
  6
BYBLOCK
 62
0
100
AcDbBlockReference
  2
_OPEN
 10
838.3153088226802
 20
330.7236304138087
 30
0.0000000000000000
 41
8.000000000000000
 42
8.000000000000000
 43
8.000000000000000
 50
0.0000000000000000
  0
LINE
  5
338
100
AcDbEntity
  8
MAIN0
  6
BYBLOCK
 62
0
100
AcDbLine
 10
838.3153088226802
 20
507.8332614044796
 30
0.0000000000000000
 11
838.3153088226802
 21
322.7236304138087
 31
0.0000000000000000
  0
MTEXT
  5
339
100
AcDbEntity
  8
MAIN0
  6
BYBLOCK
 62
0
100
AcDbMText
 10
635.8153088226652
 20
337.4236302230738
 30
0.0000000000000000
 40
12.39999961853027
 41
0.0000000000000000
 71
     5
 72
     1
  1
\A1;405
 11
1.000000000000000
 21
0.0000000000000000
 31
0.0000000000000000
  7
STANDARD
  0
ENDBLK
  5
33A
100
AcDbEntity
  8
MAIN0
  6
CONTINUOUS
 62
3
100
AcDbBlockEnd
  0
BLOCK
  5
33C
100
AcDbEntity
  8
MAIN0
  6
CONTINUOUS
 62
3
100
AcDbBlockBegin
  2
*D29
 70
    65
 10
0.0
 20
0.0
 30
0.0
  0
LINE
  5
33D
100
AcDbEntity
  8
MAIN0
  6
BYBLOCK
 62
0
100
AcDbLine
 10
288.3153088226645
 20
487.8332614041747
 30
0.0000000000000000
 11
288.3153088226645
 21
297.0009078676537
 31
0.0000000000000000
  0
LINE
  5
33E
100
AcDbEntity
  8
MAIN0
  6
BYBLOCK
 62
0
100
AcDbLine
 10
296.3153088226645
 20
305.0009078676537
 30
0.0000000000000000
 11
830.3153088226802
 21
305.0009078676537
 31
0.0000000000000000
  0
INSERT
  5
33F
100
AcDbEntity
  8
MAIN0
  6
BYBLOCK
 62
0
100
AcDbBlockReference
  2
_OPEN
 10
288.3153088226645
 20
305.0009078676537
 30
0.0000000000000000
 41
8.000000000000000
 42
8.000000000000000
 43
8.000000000000000
 50
180.0000000000000
  0
INSERT
  5
340
100
AcDbEntity
  8
MAIN0
  6
BYBLOCK
 62
0
100
AcDbBlockReference
  2
_OPEN
 10
838.3153088226802
 20
305.0009078676537
 30
0.0000000000000000
 41
8.000000000000000
 42
8.000000000000000
 43
8.000000000000000
 50
0.0000000000000000
  0
LINE
  5
341
100
AcDbEntity
  8
MAIN0
  6
BYBLOCK
 62
0
100
AcDbLine
 10
838.3153088226802
 20
507.8332614044796
 30
0.0000000000000000
 11
838.3153088226802
 21
297.0009078676537
 31
0.0000000000000000
  0
MTEXT
  5
342
100
AcDbEntity
  8
MAIN0
  6
BYBLOCK
 62
0
100
AcDbMText
 10
563.3153088226723
 20
311.7009076769189
 30
0.0000000000000000
 40
12.39999961853027
 41
0.0000000000000000
 71
     5
 72
     1
  1
\A1;550
 11
1.000000000000000
 21
0.0000000000000000
 31
0.0000000000000000
  7
STANDARD
  0
ENDBLK
  5
343
100
AcDbEntity
  8
MAIN0
  6
CONTINUOUS
 62
3
100
AcDbBlockEnd
  0
BLOCK
  5
345
100
AcDbEntity
  8
MAIN0
  6
CONTINUOUS
 62
3
100
AcDbBlockBegin
  2
*D30
 70
    65
 10
0.0
 20
0.0
 30
0.0
  0
LINE
  5
346
100
AcDbEntity
  8
MAIN0
  6
BYBLOCK
 62
0
100
AcDbLine
 10
838.3153088226802
 20
507.8332614044796
 30
0.0000000000000000
 11
838.3153088226802
 21
297.0009078676537
 31
0.0000000000000000
  0
LINE
  5
347
100
AcDbEntity
  8
MAIN0
  6
BYBLOCK
 62
0
100
AcDbLine
 10
846.3153088226802
 20
305.0009078676537
 30
0.0000000000000000
 11
894.3153088227382
 21
305.0009078676537
 31
0.0000000000000000
  0
INSERT
  5
348
100
AcDbEntity
  8
MAIN0
  6
BYBLOCK
 62
0
100
AcDbBlockReference
  2
_OPEN
 10
838.3153088226802
 20
305.0009078676537
 30
0.0000000000000000
 41
8.000000000000000
 42
8.000000000000000
 43
8.000000000000000
 50
180.0000000000000
  0
INSERT
  5
349
100
AcDbEntity
  8
MAIN0
  6
BYBLOCK
 62
0
100
AcDbBlockReference
  2
_OPEN
 10
902.3153088227382
 20
305.0009078676537
 30
0.0000000000000000
 41
8.000000000000000
 42
8.000000000000000
 43
8.000000000000000
 50
0.0000000000000000
  0
LINE
  5
34A
100
AcDbEntity
  8
MAIN0
  6
BYBLOCK
 62
0
100
AcDbLine
 10
902.3153088227382
 20
589.8332614045162
 30
0.0000000000000000
 11
902.3153088227382
 21
297.0009078676537
 31
0.0000000000000000
  0
MTEXT
  5
34B
100
AcDbEntity
  8
MAIN0
  6
BYBLOCK
 62
0
100
AcDbMText
 10
876.1261287945461
 20
313.2009076769189
 30
0.0000000000000000
 40
12.39999961853027
 41
0.0000000000000000
 71
     5
 72
     1
  1
\A1;64
 11
1.000000000000000
 21
0.0000000000000000
 31
0.0000000000000000
  7
STANDARD
  0
ENDBLK
  5
34C
100
AcDbEntity
  8
MAIN0
  6
CONTINUOUS
 62
3
100
AcDbBlockEnd
  0
BLOCK
  5
34E
100
AcDbEntity
  8
MAIN0
  6
CONTINUOUS
 62
3
100
AcDbBlockBegin
  2
*D31
 70
    65
 10
0.0
 20
0.0
 30
0.0
  0
LINE
  5
34F
100
AcDbEntity
  8
MAIN0
  6
BYBLOCK
 62
0
100
AcDbLine
 10
288.3153088226645
 20
487.8332614041747
 30
0.0000000000000000
 11
288.3153088226645
 21
353.3141261430567
 31
0.0000000000000000
  0
LINE
  5
350
100
AcDbEntity
  8
MAIN0
  6
BYBLOCK
 62
0
100
AcDbLine
 10
296.3153088226645
 20
361.3141261430567
 30
0.0000000000000000
 11
645.3153088226645
 21
361.3141261430567
 31
0.0000000000000000
  0
INSERT
  5
351
100
AcDbEntity
  8
MAIN0
  6
BYBLOCK
 62
0
100
AcDbBlockReference
  2
_OPEN
 10
288.3153088226645
 20
361.3141261430567
 30
0.0000000000000000
 41
8.000000000000000
 42
8.000000000000000
 43
8.000000000000000
 50
180.0000000000000
  0
INSERT
  5
352
100
AcDbEntity
  8
MAIN0
  6
BYBLOCK
 62
0
100
AcDbBlockReference
  2
_OPEN
 10
653.3153088226645
 20
361.3141261430567
 30
0.0000000000000000
 41
8.000000000000000
 42
8.000000000000000
 43
8.000000000000000
 50
0.0000000000000000
  0
LINE
  5
353
100
AcDbEntity
  8
MAIN0
  6
BYBLOCK
 62
0
100
AcDbLine
 10
653.3153088226645
 20
487.8332614038883
 30
0.0000000000000000
 11
653.3153088226645
 21
353.3141261430567
 31
0.0000000000000000
  0
MTEXT
  5
354
100
AcDbEntity
  8
MAIN0
  6
BYBLOCK
 62
0
100
AcDbMText
 10
470.8153088226645
 20
368.0141259523218
 30
0.0000000000000000
 40
12.39999961853027
 41
0.0000000000000000
 71
     5
 72
     1
  1
\A1;365
 11
1.000000000000000
 21
0.0000000000000000
 31
0.0000000000000000
  7
STANDARD
  0
ENDBLK
  5
355
100
AcDbEntity
  8
MAIN0
  6
CONTINUOUS
 62
3
100
AcDbBlockEnd
  0
BLOCK
  5
357
100
AcDbEntity
  8
MAIN0
  6
CONTINUOUS
 62
3
100
AcDbBlockBegin
  2
*D32
 70
    65
 10
0.0
 20
0.0
 30
0.0
  0
LINE
  5
358
100
AcDbEntity
  8
MAIN0
  6
BYBLOCK
 62
0
100
AcDbLine
 10
653.3153088226645
 20
487.8332614038883
 30
0.0000000000000000
 11
653.3153088226645
 21
353.3141261430567
 31
0.0000000000000000
  0
LINE
  5
359
100
AcDbEntity
  8
MAIN0
  6
BYBLOCK
 62
0
100
AcDbLine
 10
661.3153088226645
 20
361.3141261430567
 30
0.0000000000000000
 11
830.3153088226802
 21
361.3141261430567
 31
0.0000000000000000
  0
INSERT
  5
35A
100
AcDbEntity
  8
MAIN0
  6
BYBLOCK
 62
0
100
AcDbBlockReference
  2
_OPEN
 10
653.3153088226645
 20
361.3141261430567
 30
0.0000000000000000
 41
8.000000000000000
 42
8.000000000000000
 43
8.000000000000000
 50
180.0000000000000
  0
INSERT
  5
35B
100
AcDbEntity
  8
MAIN0
  6
BYBLOCK
 62
0
100
AcDbBlockReference
  2
_OPEN
 10
838.3153088226802
 20
361.3141261430567
 30
0.0000000000000000
 41
8.000000000000000
 42
8.000000000000000
 43
8.000000000000000
 50
0.0000000000000000
  0
LINE
  5
35C
100
AcDbEntity
  8
MAIN0
  6
BYBLOCK
 62
0
100
AcDbLine
 10
838.3153088226802
 20
507.8332614044796
 30
0.0000000000000000
 11
838.3153088226802
 21
353.3141261430567
 31
0.0000000000000000
  0
MTEXT
  5
35D
100
AcDbEntity
  8
MAIN0
  6
BYBLOCK
 62
0
100
AcDbMText
 10
745.8153088226723
 20
368.0141259523218
 30
0.0000000000000000
 40
12.39999961853027
 41
0.0000000000000000
 71
     5
 72
     1
  1
\A1;185
 11
1.000000000000000
 21
0.0000000000000000
 31
0.0000000000000000
  7
STANDARD
  0
ENDBLK
  5
35E
100
AcDbEntity
  8
MAIN0
  6
CONTINUOUS
 62
3
100
AcDbBlockEnd
  0
BLOCK
  5
360
100
AcDbEntity
  8
MAIN0
  6
CONTINUOUS
 62
3
100
AcDbBlockBegin
  2
*D33
 70
    65
 10
0.0
 20
0.0
 30
0.0
  0
LINE
  5
361
100
AcDbEntity
  8
MAIN0
  6
BYBLOCK
 62
0
100
AcDbLine
 10
367.3153088227433
 20
587.8332614042186
 30
0.0000000000000000
 11
367.3153088227433
 21
383.9046218723048
 31
0.0000000000000000
  0
LINE
  5
362
100
AcDbEntity
  8
MAIN0
  6
BYBLOCK
 62
0
100
AcDbLine
 10
375.3153088227433
 20
391.9046218723048
 30
0.0000000000000000
 11
425.3153088226503
 21
391.9046218723048
 31
0.0000000000000000
  0
INSERT
  5
363
100
AcDbEntity
  8
MAIN0
  6
BYBLOCK
 62
0
100
AcDbBlockReference
  2
_OPEN
 10
367.3153088227433
 20
391.9046218723048
 30
0.0000000000000000
 41
8.000000000000000
 42
8.000000000000000
 43
8.000000000000000
 50
180.0000000000000
  0
INSERT
  5
364
100
AcDbEntity
  8
MAIN0
  6
BYBLOCK
 62
0
100
AcDbBlockReference
  2
_OPEN
 10
433.3153088226503
 20
391.9046218723048
 30
0.0000000000000000
 41
8.000000000000000
 42
8.000000000000000
 43
8.000000000000000
 50
0.0000000000000000
  0
LINE
  5
365
100
AcDbEntity
  8
MAIN0
  6
BYBLOCK
 62
0
100
AcDbLine
 10
433.3153088226503
 20
470.0754300189582
 30
0.0000000000000000
 11
433.3153088226503
 21
383.9046218723048
 31
0.0000000000000000
  0
MTEXT
  5
366
100
AcDbEntity
  8
MAIN0
  6
BYBLOCK
 62
0
100
AcDbMText
 10
400.3153088226968
 20
398.6046216815699
 30
0.0000000000000000
 40
12.39999961853027
 41
0.0000000000000000
 71
     5
 72
     1
  1
\A1;66
 11
1.000000000000000
 21
0.0000000000000000
 31
0.0000000000000000
  7
STANDARD
  0
ENDBLK
  5
367
100
AcDbEntity
  8
MAIN0
  6
CONTINUOUS
 62
3
100
AcDbBlockEnd
  0
BLOCK
  5
369
100
AcDbEntity
  8
MAIN0
  6
CONTINUOUS
 62
3
100
AcDbBlockBegin
  2
*D34
 70
    65
 10
0.0
 20
0.0
 30
0.0
  0
LINE
  5
36A
100
AcDbEntity
  8
MAIN0
  6
BYBLOCK
 62
0
100
AcDbLine
 10
433.3153088226503
 20
470.0754300189582
 30
0.0000000000000000
 11
433.3153088226503
 21
383.9046218723048
 31
0.0000000000000000
  0
LINE
  5
36B
100
AcDbEntity
  8
MAIN0
  6
BYBLOCK
 62
0
100
AcDbLine
 10
441.3153088226503
 20
391.9046218723048
 30
0.0000000000000000
 11
645.3153088226645
 21
391.9046218723048
 31
0.0000000000000000
  0
INSERT
  5
36C
100
AcDbEntity
  8
MAIN0
  6
BYBLOCK
 62
0
100
AcDbBlockReference
  2
_OPEN
 10
433.3153088226503
 20
391.9046218723048
 30
0.0000000000000000
 41
8.000000000000000
 42
8.000000000000000
 43
8.000000000000000
 50
180.0000000000000
  0
INSERT
  5
36D
100
AcDbEntity
  8
MAIN0
  6
BYBLOCK
 62
0
100
AcDbBlockReference
  2
_OPEN
 10
653.3153088226645
 20
391.9046218723048
 30
0.0000000000000000
 41
8.000000000000000
 42
8.000000000000000
 43
8.000000000000000
 50
0.0000000000000000
  0
LINE
  5
36E
100
AcDbEntity
  8
MAIN0
  6
BYBLOCK
 62
0
100
AcDbLine
 10
653.3153088226645
 20
487.8332614038883
 30
0.0000000000000000
 11
653.3153088226645
 21
383.9046218723048
 31
0.0000000000000000
  0
MTEXT
  5
36F
100
AcDbEntity
  8
MAIN0
  6
BYBLOCK
 62
0
100
AcDbMText
 10
543.3153088226575
 20
398.6046216815699
 30
0.0000000000000000
 40
12.39999961853027
 41
0.0000000000000000
 71
     5
 72
     1
  1
\A1;220
 11
1.000000000000000
 21
0.0000000000000000
 31
0.0000000000000000
  7
STANDARD
  0
ENDBLK
  5
370
100
AcDbEntity
  8
MAIN0
  6
CONTINUOUS
 62
3
100
AcDbBlockEnd
  0
BLOCK
  5
372
100
AcDbEntity
  8
MAIN0
  6
CONTINUOUS
 62
3
100
AcDbBlockBegin
  2
*D35
 70
    65
 10
0.0
 20
0.0
 30
0.0
  0
LINE
  5
373
100
AcDbEntity
  8
MAIN0
  6
BYBLOCK
 62
0
100
AcDbLine
 10
288.3153088226645
 20
487.8332614041747
 30
0.0000000000000000
 11
288.3153088226645
 21
413.1473842419508
 31
0.0000000000000000
  0
LINE
  5
374
100
AcDbEntity
  8
MAIN0
  6
BYBLOCK
 62
0
100
AcDbLine
 10
296.3153088226645
 20
421.1473842419508
 30
0.0000000000000000
 11
355.3153088227218
 21
421.1473842419508
 31
0.0000000000000000
  0
INSERT
  5
375
100
AcDbEntity
  8
MAIN0
  6
BYBLOCK
 62
0
100
AcDbBlockReference
  2
_OPEN
 10
288.3153088226645
 20
421.1473842419508
 30
0.0000000000000000
 41
8.000000000000000
 42
8.000000000000000
 43
8.000000000000000
 50
180.0000000000000
  0
INSERT
  5
376
100
AcDbEntity
  8
MAIN0
  6
BYBLOCK
 62
0
100
AcDbBlockReference
  2
_OPEN
 10
363.3153088227218
 20
421.1473842419508
 30
0.0000000000000000
 41
8.000000000000000
 42
8.000000000000000
 43
8.000000000000000
 50
0.0000000000000000
  0
LINE
  5
377
100
AcDbEntity
  8
MAIN0
  6
BYBLOCK
 62
0
100
AcDbLine
 10
363.3153088227218
 20
548.8332614042163
 30
0.0000000000000000
 11
363.3153088227218
 21
413.1473842419508
 31
0.0000000000000000
  0
MTEXT
  5
378
100
AcDbEntity
  8
MAIN0
  6
BYBLOCK
 62
0
100
AcDbMText
 10
325.8153088226931
 20
427.8473840512160
 30
0.0000000000000000
 40
12.39999961853027
 41
0.0000000000000000
 71
     5
 72
     1
  1
\A1;75
 11
1.000000000000000
 21
0.0000000000000000
 31
0.0000000000000000
  7
STANDARD
  0
ENDBLK
  5
379
100
AcDbEntity
  8
MAIN0
  6
CONTINUOUS
 62
3
100
AcDbBlockEnd
  0
BLOCK
  5
37B
100
AcDbEntity
  8
MAIN0
  6
CONTINUOUS
 62
3
100
AcDbBlockBegin
  2
*D36
 70
    65
 10
0.0
 20
0.0
 30
0.0
  0
LINE
  5
37C
100
AcDbEntity
  8
MAIN0
  6
BYBLOCK
 62
0
100
AcDbLine
 10
363.3153088227218
 20
548.8332614042163
 30
0.0000000000000000
 11
363.3153088227218
 21
413.1473842419508
 31
0.0000000000000000
  0
LINE
  5
37D
100
AcDbEntity
  8
MAIN0
  6
BYBLOCK
 62
0
100
AcDbLine
 10
371.3153088227218
 20
421.1473842419508
 30
0.0000000000000000
 11
610.3153088227218
 21
421.1473842419508
 31
0.0000000000000000
  0
INSERT
  5
37E
100
AcDbEntity
  8
MAIN0
  6
BYBLOCK
 62
0
100
AcDbBlockReference
  2
_OPEN
 10
363.3153088227218
 20
421.1473842419508
 30
0.0000000000000000
 41
8.000000000000000
 42
8.000000000000000
 43
8.000000000000000
 50
180.0000000000000
  0
INSERT
  5
37F
100
AcDbEntity
  8
MAIN0
  6
BYBLOCK
 62
0
100
AcDbBlockReference
  2
_OPEN
 10
618.3153088227218
 20
421.1473842419508
 30
0.0000000000000000
 41
8.000000000000000
 42
8.000000000000000
 43
8.000000000000000
 50
0.0000000000000000
  0
LINE
  5
380
100
AcDbEntity
  8
MAIN0
  6
BYBLOCK
 62
0
100
AcDbLine
 10
618.3153088227218
 20
548.8332614042163
 30
0.0000000000000000
 11
618.3153088227218
 21
413.1473842419508
 31
0.0000000000000000
  0
MTEXT
  5
381
100
AcDbEntity
  8
MAIN0
  6
BYBLOCK
 62
0
100
AcDbMText
 10
490.8153088227218
 20
427.8473840512160
 30
0.0000000000000000
 40
12.39999961853027
 41
0.0000000000000000
 71
     5
 72
     1
  1
\A1;255
 11
1.000000000000000
 21
0.0000000000000000
 31
0.0000000000000000
  7
STANDARD
  0
ENDBLK
  5
382
100
AcDbEntity
  8
MAIN0
  6
CONTINUOUS
 62
3
100
AcDbBlockEnd
  0
BLOCK
  5
384
100
AcDbEntity
  8
MAIN0
  6
CONTINUOUS
 62
3
100
AcDbBlockBegin
  2
*D37
 70
    65
 10
0.0
 20
0.0
 30
0.0
  0
LINE
  5
385
100
AcDbEntity
  8
MAIN0
  6
BYBLOCK
 62
0
100
AcDbLine
 10
584.0649252092829
 20
499.0332614520608
 30
0.0000000000000000
 11
584.0649252092829
 21
556.0332614520414
 31
0.0000000000000000
  0
INSERT
  5
386
100
AcDbEntity
  8
MAIN0
  6
BYBLOCK
 62
0
100
AcDbBlockReference
  2
_OPEN
 10
584.0649252092829
 20
491.0332614520608
 30
0.0000000000000000
 41
8.000000000000000
 42
8.000000000000000
 43
8.000000000000000
 50
270.0000000000000
  0
INSERT
  5
387
100
AcDbEntity
  8
MAIN0
  6
BYBLOCK
 62
0
100
AcDbBlockReference
  2
_OPEN
 10
584.0649252092829
 20
564.0332614520414
 30
0.0000000000000000
 41
8.000000000000000
 42
8.000000000000000
 43
8.000000000000000
 50
90.00000000000000
  0
LINE
  5
388
100
AcDbEntity
  8
MAIN0
  6
BYBLOCK
 62
0
100
AcDbLine
 10
603.1153087750379
 20
564.0332614520414
 30
0.0000000000000000
 11
576.0649252092829
 21
564.0332614520414
 31
0.0000000000000000
  0
MTEXT
  5
389
100
AcDbEntity
  8
MAIN0
  6
BYBLOCK
 62
0
100
AcDbMText
 10
577.3649254000178
 20
527.5332614520511
 30
0.0000000000000000
 40
12.39999961853027
 41
0.0000000000000000
 71
     5
 72
     1
  1
\A1;73
 11
6.123233995736766e-017
 21
1.000000000000000
 31
0.0000000000000000
  7
STANDARD
  0
ENDBLK
  5
38A
100
AcDbEntity
  8
MAIN0
  6
CONTINUOUS
 62
3
100
AcDbBlockEnd
  0
BLOCK
  5
38C
100
AcDbEntity
  8
MAIN0
  6
CONTINUOUS
 62
3
100
AcDbBlockBegin
  2
*D38
 70
    65
 10
0.0
 20
0.0
 30
0.0
  0
LINE
  5
38D
100
AcDbEntity
  8
MAIN0
  6
BYBLOCK
 62
0
100
AcDbLine
 10
603.1153087750379
 20
564.0332614520414
 30
0.0000000000000000
 11
576.0649252092829
 21
564.0332614520414
 31
0.0000000000000000
  0
LINE
  5
38E
100
AcDbEntity
  8
MAIN0
  6
BYBLOCK
 62
0
100
AcDbLine
 10
584.0649252092829
 20
564.0332614520414
 30
0.0000000000000000
 11
584.0649252092829
 21
591.0332614521402
 31
0.0000000000000000
  0
INSERT
  5
38F
100
AcDbEntity
  8
MAIN0
  6
BYBLOCK
 62
0
100
AcDbBlockReference
  2
_OPEN
 10
584.0649252092829
 20
564.0332614520414
 30
0.0000000000000000
 41
8.000000000000000
 42
8.000000000000000
 43
8.000000000000000
 50
90.00000000000000
  0
INSERT
  5
390
100
AcDbEntity
  8
MAIN0
  6
BYBLOCK
 62
0
100
AcDbBlockReference
  2
_OPEN
 10
584.0649252092829
 20
591.0332614521402
 30
0.0000000000000000
 41
8.000000000000000
 42
8.000000000000000
 43
8.000000000000000
 50
270.0000000000000
  0
LINE
  5
391
100
AcDbEntity
  8
MAIN0
  6
BYBLOCK
 62
0
100
AcDbLine
 10
584.0649252092829
 20
556.0332614520414
 30
0.0000000000000000
 11
584.0649252092829
 21
552.0332614520414
 31
0.0000000000000000
  0
LINE
  5
392
100
AcDbEntity
  8
MAIN0
  6
BYBLOCK
 62
0
100
AcDbLine
 10
584.0649252092829
 20
599.0332614521402
 30
0.0000000000000000
 11
584.0649252092829
 21
603.0332614521402
 31
0.0000000000000000
  0
MTEXT
  5
393
100
AcDbEntity
  8
MAIN0
  6
BYBLOCK
 62
0
100
AcDbMText
 10
577.3649254000178
 20
577.5332614520908
 30
0.0000000000000000
 40
12.39999961853027
 41
0.0000000000000000
 71
     5
 72
     1
  1
\A1;27
 11
6.123233995736766e-017
 21
1.000000000000000
 31
0.0000000000000000
  7
STANDARD
  0
ENDBLK
  5
394
100
AcDbEntity
  8
MAIN0
  6
CONTINUOUS
 62
3
100
AcDbBlockEnd
  0
BLOCK
  5
396
100
AcDbEntity
  8
MAIN0
  6
CONTINUOUS
 62
1
100
AcDbBlockBegin
  2
*D39
 70
    65
 10
0.0
 20
0.0
 30
0.0
  0
LINE
  5
397
100
AcDbEntity
  8
MAIN0
  6
BYBLOCK
 62
0
100
AcDbLine
 10
1287.613211769017
 20
436.3514551118905
 30
0.0000000000000000
 11
1310.613211769029
 21
436.3514551118905
 31
0.0000000000000000
  0
INSERT
  5
398
100
AcDbEntity
  8
MAIN0
  6
BYBLOCK
 62
0
100
AcDbBlockReference
  2
_OPEN
 10
1287.613211769017
 20
436.3514551118905
 30
0.0000000000000000
 41
8.000000000000000
 42
8.000000000000000
 43
8.000000000000000
 50
0.0000000000000000
  0
INSERT
  5
399
100
AcDbEntity
  8
MAIN0
  6
BYBLOCK
 62
0
100
AcDbBlockReference
  2
_OPEN
 10
1310.613211769029
 20
436.3514551118905
 30
0.0000000000000000
 41
8.000000000000000
 42
8.000000000000000
 43
8.000000000000000
 50
180.0000000000000
  0
LINE
  5
39A
100
AcDbEntity
  8
MAIN0
  6
BYBLOCK
 62
0
100
AcDbLine
 10
1279.613211769017
 20
436.3514551118905
 30
0.0000000000000000
 11
1275.613211769017
 21
436.3514551118905
 31
0.0000000000000000
  0
LINE
  5
39B
100
AcDbEntity
  8
MAIN0
  6
BYBLOCK
 62
0
100
AcDbLine
 10
1318.613211769029
 20
436.3514551118905
 30
0.0000000000000000
 11
1359.311031206423
 21
436.3514551118905
 31
0.0000000000000000
  0
LINE
  5
39C
100
AcDbEntity
  8
MAIN0
  6
BYBLOCK
 62
0
100
AcDbLine
 10
1310.613211769029
 20
487.8332614046818
 30
0.0000000000000000
 11
1310.613211769029
 21
428.3514551118905
 31
0.0000000000000000
  0
MTEXT
  5
39D
100
AcDbEntity
  8
MAIN0
  6
BYBLOCK
 62
0
100
AcDbMText
 10
1337.511031969362
 20
444.5514549211556
 30
0.0000000000000000
 40
12.39999961853027
 41
0.0000000000000000
 71
     5
 72
     1
  1
\A1;15～31
 11
1.000000000000000
 21
0.0000000000000000
 31
0.0000000000000000
  7
KNJYOKO
  0
ENDBLK
  5
39E
100
AcDbEntity
  8
MAIN0
  6
CONTINUOUS
 62
1
100
AcDbBlockEnd
  0
BLOCK
  5
3C0
100
AcDbEntity
  8
MAIN0
  6
CONTINUOUS
 62
3
100
AcDbBlockBegin
  2
*D40
 70
    65
 10
0.0
 20
0.0
 30
0.0
  0
LINE
  5
3C1
100
AcDbEntity
  8
MAIN0
  6
BYBLOCK
 62
0
100
AcDbLine
 10
1125.979354690711
 20
524.2332614999472
 30
0.0000000000000000
 11
1125.979354690711
 21
562.8062557513042
 31
0.0000000000000000
  0
LINE
  5
3C2
100
AcDbEntity
  8
MAIN0
  6
BYBLOCK
 62
0
100
AcDbLine
 10
1133.979354690711
 20
554.8062557513042
 30
0.0000000000000000
 11
1162.979354690711
 21
554.8062557513042
 31
0.0000000000000000
  0
INSERT
  5
3C3
100
AcDbEntity
  8
MAIN0
  6
BYBLOCK
 62
0
100
AcDbBlockReference
  2
_OPEN
 10
1125.979354690711
 20
554.8062557513042
 30
0.0000000000000000
 41
8.000000000000000
 42
8.000000000000000
 43
8.000000000000000
 50
180.0000000000000
  0
INSERT
  5
3C4
100
AcDbEntity
  8
MAIN0
  6
BYBLOCK
 62
0
100
AcDbBlockReference
  2
_OPEN
 10
1170.979354690711
 20
554.8062557513042
 30
0.0000000000000000
 41
8.000000000000000
 42
8.000000000000000
 43
8.000000000000000
 50
0.0000000000000000
  0
LINE
  5
3C5
100
AcDbEntity
  8
MAIN0
  6
BYBLOCK
 62
0
100
AcDbLine
 10
1170.979354690711
 20
524.2332614999333
 30
0.0000000000000000
 11
1170.979354690711
 21
562.8062557513042
 31
0.0000000000000000
  0
MTEXT
  5
3C6
100
AcDbEntity
  8
MAIN0
  6
BYBLOCK
 62
0
100
AcDbMText
 10
1148.479354690711
 20
561.5062555605693
 30
0.0000000000000000
 40
12.39999961853027
 41
0.0000000000000000
 71
     5
 72
     1
  1
\A1;45
 11
1.000000000000000
 21
0.0000000000000000
 31
0.0000000000000000
  7
STANDARD
  0
ENDBLK
  5
3C7
100
AcDbEntity
  8
MAIN0
  6
CONTINUOUS
 62
3
100
AcDbBlockEnd
  0
BLOCK
  5
3C9
100
AcDbEntity
  8
MAIN0
  6
CONTINUOUS
 62
3
100
AcDbBlockBegin
  2
*D41
 70
    65
 10
0.0
 20
0.0
 30
0.0
  0
LINE
  5
3CA
100
AcDbEntity
  8
MAIN0
  6
BYBLOCK
 62
0
100
AcDbLine
 10
1269.413211721292
 20
293.5378544121359
 30
0.0000000000000000
 11
1237.403553162406
 21
293.5378544121359
 31
0.0000000000000000
  0
LINE
  5
3CB
100
AcDbEntity
  8
MAIN0
  6
BYBLOCK
 62
0
100
AcDbLine
 10
1245.403553162406
 20
293.5378544121359
 30
0.0000000000000000
 11
1245.403553162406
 21
265.0378544121360
 31
0.0000000000000000
  0
INSERT
  5
3CC
100
AcDbEntity
  8
MAIN0
  6
BYBLOCK
 62
0
100
AcDbBlockReference
  2
_OPEN
 10
1245.403553162406
 20
293.5378544121359
 30
0.0000000000000000
 41
8.000000000000000
 42
8.000000000000000
 43
8.000000000000000
 50
270.0000000000000
  0
INSERT
  5
3CD
100
AcDbEntity
  8
MAIN0
  6
BYBLOCK
 62
0
100
AcDbBlockReference
  2
_OPEN
 10
1245.403553162406
 20
265.0378544121360
 30
0.0000000000000000
 41
8.000000000000000
 42
8.000000000000000
 43
8.000000000000000
 50
90.00000000000000
  0
LINE
  5
3CE
100
AcDbEntity
  8
MAIN0
  6
BYBLOCK
 62
0
100
AcDbLine
 10
1245.403553162406
 20
301.5378544121359
 30
0.0000000000000000
 11
1245.403553162406
 21
305.5378544121359
 31
0.0000000000000000
  0
LINE
  5
3CF
100
AcDbEntity
  8
MAIN0
  6
BYBLOCK
 62
0
100
AcDbLine
 10
1245.403553162406
 20
257.0378544121360
 30
0.0000000000000000
 11
1245.403553162406
 21
253.0378544121360
 31
0.0000000000000000
  0
LINE
  5
3D0
100
AcDbEntity
  8
MAIN0
  6
BYBLOCK
 62
0
100
AcDbLine
 10
1269.413211721312
 20
265.0378544121360
 30
0.0000000000000000
 11
1237.403553162406
 21
265.0378544121360
 31
0.0000000000000000
  0
MTEXT
  5
3D1
100
AcDbEntity
  8
MAIN0
  6
BYBLOCK
 62
0
100
AcDbMText
 10
1238.703553353141
 20
279.2878544121359
 30
0.0000000000000000
 40
12.39999961853027
 41
0.0000000000000000
 71
     5
 72
     1
  1
\A1;28.5
 11
6.123233995736766e-017
 21
1.000000000000000
 31
0.0000000000000000
  7
STANDARD
  0
ENDBLK
  5
3D2
100
AcDbEntity
  8
MAIN0
  6
CONTINUOUS
 62
3
100
AcDbBlockEnd
  0
BLOCK
  5
3D4
100
AcDbEntity
  8
MAIN0
  6
CONTINUOUS
 62
3
100
AcDbBlockBegin
  2
*D42
 70
    65
 10
0.0
 20
0.0
 30
0.0
  0
LINE
  5
3D5
100
AcDbEntity
  8
MAIN0
  6
BYBLOCK
 62
0
100
AcDbLine
 10
1305.813211816664
 20
288.0378544121285
 30
0.0000000000000000
 11
1343.761017614667
 21
288.0378544121379
 31
0.0000000000000000
  0
LINE
  5
3D6
100
AcDbEntity
  8
MAIN0
  6
BYBLOCK
 62
0
100
AcDbLine
 10
1335.761017614667
 20
288.0378544121360
 30
0.0000000000000000
 11
1335.761017614667
 21
270.5378544121360
 31
0.0000000000000000
  0
INSERT
  5
3D7
100
AcDbEntity
  8
MAIN0
  6
BYBLOCK
 62
0
100
AcDbBlockReference
  2
_OPEN
 10
1335.761017614667
 20
288.0378544121360
 30
0.0000000000000000
 41
8.000000000000000
 42
8.000000000000000
 43
8.000000000000000
 50
270.0000000000000
  0
INSERT
  5
3D8
100
AcDbEntity
  8
MAIN0
  6
BYBLOCK
 62
0
100
AcDbBlockReference
  2
_OPEN
 10
1335.761017614667
 20
270.5378544121360
 30
0.0000000000000000
 41
8.000000000000000
 42
8.000000000000000
 43
8.000000000000000
 50
90.00000000000000
  0
LINE
  5
3D9
100
AcDbEntity
  8
MAIN0
  6
BYBLOCK
 62
0
100
AcDbLine
 10
1335.761017614667
 20
296.0378544121360
 30
0.0000000000000000
 11
1335.761017614667
 21
300.0378544121360
 31
0.0000000000000000
  0
LINE
  5
3DA
100
AcDbEntity
  8
MAIN0
  6
BYBLOCK
 62
0
100
AcDbLine
 10
1335.761017614667
 20
262.5378544121360
 30
0.0000000000000000
 11
1335.761017614667
 21
229.3027357444399
 31
0.0000000000000000
  0
LINE
  5
3DB
100
AcDbEntity
  8
MAIN0
  6
BYBLOCK
 62
0
100
AcDbLine
 10
1305.813211816676
 20
270.5378544121285
 30
0.0000000000000000
 11
1343.761017614667
 21
270.5378544121380
 31
0.0000000000000000
  0
MTEXT
  5
3DC
100
AcDbEntity
  8
MAIN0
  6
BYBLOCK
 62
0
100
AcDbMText
 10
1327.561017805402
 20
243.9027361259097
 30
0.0000000000000000
 40
12.39999961853027
 41
0.0000000000000000
 71
     5
 72
     1
  1
\A1;17.5
 11
6.123233995736766e-017
 21
1.000000000000000
 31
0.0000000000000000
  7
STANDARD
  0
ENDBLK
  5
3DD
100
AcDbEntity
  8
MAIN0
  6
CONTINUOUS
 62
3
100
AcDbBlockEnd
  0
BLOCK
  5
3DF
100
AcDbEntity
  8
MAIN0
  6
CONTINUOUS
 62
3
100
AcDbBlockBegin
  2
*D43
 70
    65
 10
0.0
 20
0.0
 30
0.0
  0
LINE
  5
3E0
100
AcDbEntity
  8
MAIN0
  6
BYBLOCK
 62
0
100
AcDbLine
 10
1272.613211768996
 20
261.8378543644523
 30
0.0000000000000000
 11
1272.613211768996
 21
221.2642166818648
 31
0.0000000000000000
  0
LINE
  5
3E1
100
AcDbEntity
  8
MAIN0
  6
BYBLOCK
 62
0
100
AcDbLine
 10
1272.613211768996
 20
229.2642166818648
 30
0.0000000000000000
 11
1302.613211768996
 21
229.2642166818648
 31
0.0000000000000000
  0
INSERT
  5
3E2
100
AcDbEntity
  8
MAIN0
  6
BYBLOCK
 62
0
100
AcDbBlockReference
  2
_OPEN
 10
1272.613211768996
 20
229.2642166818648
 30
0.0000000000000000
 41
8.000000000000000
 42
8.000000000000000
 43
8.000000000000000
 50
0.0000000000000000
  0
INSERT
  5
3E3
100
AcDbEntity
  8
MAIN0
  6
BYBLOCK
 62
0
100
AcDbBlockReference
  2
_OPEN
 10
1302.613211768996
 20
229.2642166818648
 30
0.0000000000000000
 41
8.000000000000000
 42
8.000000000000000
 43
8.000000000000000
 50
180.0000000000000
  0
LINE
  5
3E4
100
AcDbEntity
  8
MAIN0
  6
BYBLOCK
 62
0
100
AcDbLine
 10
1264.613211768996
 20
229.2642166818648
 30
0.0000000000000000
 11
1260.613211768996
 21
229.2642166818648
 31
0.0000000000000000
  0
LINE
  5
3E5
100
AcDbEntity
  8
MAIN0
  6
BYBLOCK
 62
0
100
AcDbLine
 10
1310.613211768996
 20
229.2642166818648
 30
0.0000000000000000
 11
1314.613211768996
 21
229.2642166818648
 31
0.0000000000000000
  0
LINE
  5
3E6
100
AcDbEntity
  8
MAIN0
  6
BYBLOCK
 62
0
100
AcDbLine
 10
1302.613211768996
 20
261.8378543644440
 30
0.0000000000000000
 11
1302.613211768996
 21
221.2642166818648
 31
0.0000000000000000
  0
MTEXT
  5
3E7
100
AcDbEntity
  8
MAIN0
  6
BYBLOCK
 62
0
100
AcDbMText
 10
1287.613211768996
 20
235.9642164911299
 30
0.0000000000000000
 40
12.39999961853027
 41
0.0000000000000000
 71
     5
 72
     1
  1
\A1;30
 11
1.000000000000000
 21
0.0000000000000000
 31
0.0000000000000000
  7
STANDARD
  0
ENDBLK
  5
3E8
100
AcDbEntity
  8
MAIN0
  6
CONTINUOUS
 62
3
100
AcDbBlockEnd
  0
BLOCK
  5
3F2
100
AcDbEntity
  8
MAIN0
  6
CONTINUOUS
 62
3
100
AcDbBlockBegin
  2
*D44
 70
    65
 10
0.0
 20
0.0
 30
0.0
  0
LINE
  5
3F3
100
AcDbEntity
  8
MAIN0
  6
BYBLOCK
 62
0
100
AcDbLine
 10
1239.613211769023
 20
517.8332614046663
 30
0.0000000000000000
 11
1239.613211769023
 21
399.2058524783907
 31
0.0000000000000000
  0
LINE
  5
3F4
100
AcDbEntity
  8
MAIN0
  6
BYBLOCK
 62
0
100
AcDbLine
 10
1247.613211769023
 20
407.2058524783907
 30
0.0000000000000000
 11
1302.613211769029
 21
407.2058524783907
 31
0.0000000000000000
  0
INSERT
  5
3F5
100
AcDbEntity
  8
MAIN0
  6
BYBLOCK
 62
0
100
AcDbBlockReference
  2
_OPEN
 10
1239.613211769023
 20
407.2058524783907
 30
0.0000000000000000
 41
8.000000000000000
 42
8.000000000000000
 43
8.000000000000000
 50
180.0000000000000
  0
INSERT
  5
3F6
100
AcDbEntity
  8
MAIN0
  6
BYBLOCK
 62
0
100
AcDbBlockReference
  2
_OPEN
 10
1310.613211769029
 20
407.2058524783907
 30
0.0000000000000000
 41
8.000000000000000
 42
8.000000000000000
 43
8.000000000000000
 50
0.0000000000000000
  0
LINE
  5
3F7
100
AcDbEntity
  8
MAIN0
  6
BYBLOCK
 62
0
100
AcDbLine
 10
1310.613211769029
 20
487.8332614046818
 30
0.0000000000000000
 11
1310.613211769029
 21
399.2058524783907
 31
0.0000000000000000
  0
MTEXT
  5
3F8
100
AcDbEntity
  8
MAIN0
  6
BYBLOCK
 62
0
100
AcDbMText
 10
1275.113211769026
 20
413.9058522876558
 30
0.0000000000000000
 40
12.39999961853027
 41
0.0000000000000000
 71
     5
 72
     1
  1
\A1;71
 11
1.000000000000000
 21
0.0000000000000000
 31
0.0000000000000000
  7
STANDARD
  0
ENDBLK
  5
3F9
100
AcDbEntity
  8
MAIN0
  6
CONTINUOUS
 62
3
100
AcDbBlockEnd
  0
BLOCK
  5
3FB
100
AcDbEntity
  8
MAIN0
  6
CONTINUOUS
 62
3
100
AcDbBlockBegin
  2
*D45
 70
    65
 10
0.0
 20
0.0
 30
0.0
  0
LINE
  5
3FC
100
AcDbEntity
  8
MAIN0
  6
BYBLOCK
 62
0
100
AcDbLine
 10
1310.613211769029
 20
487.8332614046818
 30
0.0000000000000000
 11
1310.613211769029
 21
399.2058524783907
 31
0.0000000000000000
  0
LINE
  5
3FD
100
AcDbEntity
  8
MAIN0
  6
BYBLOCK
 62
0
100
AcDbLine
 10
1318.613211769029
 20
407.2058524783907
 30
0.0000000000000000
 11
1428.613211769029
 21
407.2058524783907
 31
0.0000000000000000
  0
INSERT
  5
3FE
100
AcDbEntity
  8
MAIN0
  6
BYBLOCK
 62
0
100
AcDbBlockReference
  2
_OPEN
 10
1310.613211769029
 20
407.2058524783907
 30
0.0000000000000000
 41
8.000000000000000
 42
8.000000000000000
 43
8.000000000000000
 50
180.0000000000000
  0
INSERT
  5
3FF
100
AcDbEntity
  8
MAIN0
  6
BYBLOCK
 62
0
100
AcDbBlockReference
  2
_OPEN
 10
1436.613211769029
 20
407.2058524783907
 30
0.0000000000000000
 41
8.000000000000000
 42
8.000000000000000
 43
8.000000000000000
 50
0.0000000000000000
  0
LINE
  5
400
100
AcDbEntity
  8
MAIN0
  6
BYBLOCK
 62
0
100
AcDbLine
 10
1436.613211769029
 20
487.8332614047603
 30
0.0000000000000000
 11
1436.613211769029
 21
399.2058524783907
 31
0.0000000000000000
  0
MTEXT
  5
401
100
AcDbEntity
  8
MAIN0
  6
BYBLOCK
 62
0
100
AcDbMText
 10
1373.613211769029
 20
413.9058522876558
 30
0.0000000000000000
 40
12.39999961853027
 41
0.0000000000000000
 71
     5
 72
     1
  1
\A1;126
 11
1.000000000000000
 21
0.0000000000000000
 31
0.0000000000000000
  7
STANDARD
  0
ENDBLK
  5
402
100
AcDbEntity
  8
MAIN0
  6
CONTINUOUS
 62
3
100
AcDbBlockEnd
  0
BLOCK
  5
404
100
AcDbEntity
  8
MAIN0
  6
CONTINUOUS
 62
3
100
AcDbBlockBegin
  2
*D46
 70
    65
 10
0.0
 20
0.0
 30
0.0
  0
LINE
  5
405
100
AcDbEntity
  8
MAIN0
  6
BYBLOCK
 62
0
100
AcDbLine
 10
1238.113211721339
 20
491.0332614523500
 30
0.0000000000000000
 11
1206.983052846117
 21
491.0332614523500
 31
0.0000000000000000
  0
LINE
  5
406
100
AcDbEntity
  8
MAIN0
  6
BYBLOCK
 62
0
100
AcDbLine
 10
1214.983052846117
 20
491.0332614523500
 30
0.0000000000000000
 11
1214.983052846117
 21
520.0332614523236
 31
0.0000000000000000
  0
INSERT
  5
407
100
AcDbEntity
  8
MAIN0
  6
BYBLOCK
 62
0
100
AcDbBlockReference
  2
_OPEN
 10
1214.983052846117
 20
491.0332614523500
 30
0.0000000000000000
 41
8.000000000000000
 42
8.000000000000000
 43
8.000000000000000
 50
90.00000000000000
  0
INSERT
  5
408
100
AcDbEntity
  8
MAIN0
  6
BYBLOCK
 62
0
100
AcDbBlockReference
  2
_DOT
 10
1214.983052846117
 20
521.0332614523236
 30
0.0000000000000000
 41
4.000000000000000
 42
4.000000000000000
 43
4.000000000000000
 50
90.00000000000000
  0
LINE
  5
409
100
AcDbEntity
  8
MAIN0
  6
BYBLOCK
 62
0
100
AcDbLine
 10
1214.983052846117
 20
483.0332614523500
 30
0.0000000000000000
 11
1214.983052846117
 21
479.0332614523500
 31
0.0000000000000000
  0
LINE
  5
40A
100
AcDbEntity
  8
MAIN0
  6
BYBLOCK
 62
0
100
AcDbLine
 10
1236.413211721340
 20
521.0332614523236
 30
0.0000000000000000
 11
1206.983052846117
 21
521.0332614523236
 31
0.0000000000000000
  0
MTEXT
  5
40B
100
AcDbEntity
  8
MAIN0
  6
BYBLOCK
 62
0
100
AcDbMText
 10
1208.283053036852
 20
506.0332614523368
 30
0.0000000000000000
 40
12.39999961853027
 41
0.0000000000000000
 71
     5
 72
     1
  1
\A1;30
 11
6.123233995736766e-017
 21
1.000000000000000
 31
0.0000000000000000
  7
STANDARD
  0
ENDBLK
  5
40C
100
AcDbEntity
  8
MAIN0
  6
CONTINUOUS
 62
3
100
AcDbBlockEnd
  0
BLOCK
  5
40E
100
AcDbEntity
  8
MAIN0
  6
CONTINUOUS
 62
3
100
AcDbBlockBegin
  2
*D47
 70
    65
 10
0.0
 20
0.0
 30
0.0
  0
LINE
  5
40F
100
AcDbEntity
  8
MAIN0
  6
BYBLOCK
 62
0
100
AcDbLine
 10
1236.413211721340
 20
521.0332614523236
 30
0.0000000000000000
 11
1206.983052846117
 21
521.0332614523236
 31
0.0000000000000000
  0
LINE
  5
410
100
AcDbEntity
  8
MAIN0
  6
BYBLOCK
 62
0
100
AcDbLine
 10
1214.983052846117
 20
522.0332614523236
 30
0.0000000000000000
 11
1214.983052846117
 21
526.0332614523500
 31
0.0000000000000000
  0
INSERT
  5
411
100
AcDbEntity
  8
MAIN0
  6
BYBLOCK
 62
0
100
AcDbBlockReference
  2
_DOT
 10
1214.983052846117
 20
521.0332614523236
 30
0.0000000000000000
 41
4.000000000000000
 42
4.000000000000000
 43
4.000000000000000
 50
270.0000000000000
  0
INSERT
  5
412
100
AcDbEntity
  8
MAIN0
  6
BYBLOCK
 62
0
100
AcDbBlockReference
  2
_OPEN
 10
1214.983052846117
 20
526.0332614523500
 30
0.0000000000000000
 41
8.000000000000000
 42
8.000000000000000
 43
8.000000000000000
 50
270.0000000000000
  0
LINE
  5
413
100
AcDbEntity
  8
MAIN0
  6
BYBLOCK
 62
0
100
AcDbLine
 10
1214.983052846117
 20
534.0332614523500
 30
0.0000000000000000
 11
1214.983052846117
 21
543.6961217840351
 31
0.0000000000000000
  0
LINE
  5
414
100
AcDbEntity
  8
MAIN0
  6
BYBLOCK
 62
0
100
AcDbLine
 10
1266.913211721339
 20
526.0332614523500
 30
0.0000000000000000
 11
1206.983052846117
 21
526.0332614523500
 31
0.0000000000000000
  0
MTEXT
  5
415
100
AcDbEntity
  8
MAIN0
  6
BYBLOCK
 62
0
100
AcDbMText
 10
1206.783053036852
 20
539.6961217840351
 30
0.0000000000000000
 40
12.39999961853027
 41
0.0000000000000000
 71
     5
 72
     1
  1
\A1;5
 11
6.123233995736766e-017
 21
1.000000000000000
 31
0.0000000000000000
  7
STANDARD
  0
ENDBLK
  5
416
100
AcDbEntity
  8
MAIN0
  6
CONTINUOUS
 62
3
100
AcDbBlockEnd
  0
BLOCK
  5
4DF
100
AcDbEntity
  8
A0
  6
BYBLOCK
 62
4
100
AcDbBlockBegin
  2
M0
 70
    64
 10
0.0
 20
0.0
 30
0.0
  0
LINE
  5
4E0
100
AcDbEntity
  8
A0
  6
BYBLOCK
 62
0
100
AcDbLine
 10
118.2921523986873
 20
90.79916003384106
 30
0.0000000000000000
 11
118.2921523986873
 21
99.79916003384125
 31
0.0000000000000000
  0
LINE
  5
4E1
100
AcDbEntity
  8
A0
  6
BYBLOCK
 62
0
100
AcDbLine
 10
109.2921523986873
 20
90.79916003384111
 30
0.0000000000000000
 11
109.2921523986873
 21
99.79916003384126
 31
0.0000000000000000
  0
LINE
  5
4E2
100
AcDbEntity
  8
A0
  6
BYBLOCK
 62
0
100
AcDbLine
 10
109.2921523986873
 20
99.79916003384125
 30
0.0000000000000000
 11
118.2921523986873
 21
99.79916003384125
 31
0.0000000000000000
  0
LINE
  5
4E3
100
AcDbEntity
  8
A0
  6
BYBLOCK
 62
0
100
AcDbLine
 10
109.2921523986873
 20
90.79916003384111
 30
0.0000000000000000
 11
118.2921523986873
 21
90.79916003384111
 31
0.0000000000000000
  0
LINE
  5
4E4
100
AcDbEntity
  8
A0
  6
BYBLOCK
 62
0
100
AcDbLine
 10
116.4438028281363
 20
95.29916003384103
 30
0.0000000000000000
 11
113.7921523986870
 21
92.64750960439172
 31
0.0000000000000000
  0
LINE
  5
4E5
100
AcDbEntity
  8
A0
  6
BYBLOCK
 62
0
100
AcDbLine
 10
111.1405019692375
 20
95.29916003384093
 30
0.0000000000000000
 11
113.7921523986871
 21
92.64750960439139
 31
0.0000000000000000
  0
CIRCLE
  5
4E6
100
AcDbEntity
  8
A0
  6
BYBLOCK
 62
0
100
AcDbCircle
 10
113.7921523986873
 20
95.29916003384125
 30
0.0000000000000000
 40
1.875000000000000
  0
ENDBLK
  5
4E7
100
AcDbEntity
  8
A0
  6
BYBLOCK
 62
4
100
AcDbBlockEnd
  0
ENDSEC
  0
SECTION
  2
ENTITIES
  0
LINE
  5
46
100
AcDbEntity
  8
MAIN0
  6
CONTINUOUS
 62
3
100
AcDbLine
 10
636.3153088232408
 20
1046.182304755154
 30
0.0000000000000000
 11
822.5114612433836
 21
1046.182304755154
 31
0.0000000000000000
  0
LINE
  5
47
100
AcDbEntity
  8
MAIN0
  6
CONTINUOUS
 62
3
100
AcDbLine
 10
636.3153088231233
 20
896.1823047551543
 30
0.0000000000000000
 11
822.5114612433836
 21
896.1823047551543
 31
0.0000000000000000
  0
LINE
  5
48
100
AcDbEntity
  8
MAIN0
  6
CONTINUOUS
 62
3
100
AcDbLine
 10
288.3153088226645
 20
491.0332614518584
 30
0.0000000000000000
 11
288.3153088227429
 21
591.0332614518585
 31
0.0000000000000000
  0
LINE
  5
49
100
AcDbEntity
  8
MAIN0
  6
CONTINUOUS
 62
3
100
AcDbLine
 10
288.3153088231326
 20
908.1823047551543
 30
0.0000000000000000
 11
288.3153088232313
 21
1034.182304755154
 31
0.0000000000000000
  0
LINE
  5
4A
100
AcDbEntity
  8
MAIN0
  6
CONTINUOUS
 62
3
100
AcDbLine
 10
367.3153088227433
 20
591.0332614519023
 30
0.0000000000000000
 11
367.3153088227743
 21
630.5332614519023
 31
0.0000000000000000
  0
LINE
  5
4B
100
AcDbEntity
  8
MAIN0
  6
CONTINUOUS
 62
3
100
AcDbLine
 10
367.3153088231333
 20
908.9323047551543
 30
0.0000000000000000
 11
367.3153088232309
 21
1033.432304755154
 31
0.0000000000000000
  0
LINE
  5
4C
100
AcDbEntity
  8
MAIN0
  6
CONTINUOUS
 62
3
100
AcDbLine
 10
562.3153088227429
 20
591.0332614520104
 30
0.0000000000000000
 11
562.3153088227742
 21
631.0332614520104
 31
0.0000000000000000
  0
LINE
  5
4D
100
AcDbEntity
  8
MAIN0
  6
CONTINUOUS
 62
3
100
AcDbLine
 10
562.3153088231331
 20
908.9323047551543
 30
0.0000000000000000
 11
562.3153088232307
 21
1033.432304755154
 31
0.0000000000000000
  0
LINE
  5
4E
100
AcDbEntity
  8
MAIN0
  6
CONTINUOUS
 62
3
100
AcDbLine
 10
838.3153088226802
 20
511.0332614521633
 30
0.0000000000000000
 11
838.3153088227507
 21
601.0332614521633
 31
0.0000000000000000
  0
LINE
  5
4F
100
AcDbEntity
  8
MAIN0
  6
CONTINUOUS
 62
3
100
AcDbLine
 10
289.3153088231333
 20
908.9323047551543
 30
0.0000000000000000
 11
367.3153088231332
 21
908.9323047551543
 31
0.0000000000000000
  0
LINE
  5
50
100
AcDbEntity
  8
MAIN0
  6
CONTINUOUS
 62
3
100
AcDbLine
 10
289.3153088232309
 20
1033.432304755154
 30
0.0000000000000000
 11
367.3153088232307
 21
1033.432304755154
 31
0.0000000000000000
  0
LINE
  5
51
100
AcDbEntity
  8
MAIN0
  6
CONTINUOUS
 62
3
100
AcDbLine
 10
289.3153088231333
 20
908.9323047551543
 30
0.0000000000000000
 11
289.3153088232309
 21
1033.432304755154
 31
0.0000000000000000
  0
LINE
  5
52
100
AcDbEntity
  8
MAIN0
  6
CONTINUOUS
 62
3
100
AcDbLine
 10
367.3153088232056
 20
1001.182304755154
 30
0.0000000000000000
 11
562.3153088232054
 21
1001.182304755154
 31
0.0000000000000000
  0
LINE
  5
53
100
AcDbEntity
  8
MAIN0
  6
CONTINUOUS
 62
3
100
AcDbLine
 10
367.3153088231586
 20
941.1823047551543
 30
0.0000000000000000
 11
562.3153088231584
 21
941.1823047551543
 31
0.0000000000000000
  0
LINE
  5
54
100
AcDbEntity
  8
MAIN0
  6
CONTINUOUS
 62
3
100
AcDbLine
 10
424.3153088226605
 20
486.0332614519336
 30
0.0000000000000000
 11
424.3153088226684
 21
496.0332614519338
 31
0.0000000000000000
  0
LINE
  5
55
100
AcDbEntity
  8
MAIN0
  6
CONTINUOUS
 62
3
100
AcDbLine
 10
442.3153088226605
 20
486.0332614519438
 30
0.0000000000000000
 11
442.3153088226684
 21
496.0332614519438
 31
0.0000000000000000
  0
LINE
  5
56
100
AcDbEntity
  8
MAIN0
  6
CONTINUOUS
 62
3
100
AcDbLine
 10
424.3153088226604
 20
486.0332614519338
 30
0.0000000000000000
 11
442.3153088226605
 21
486.0332614519438
 31
0.0000000000000000
  0
LINE
  5
57
100
AcDbEntity
  8
MAIN0
  6
CONTINUOUS
 62
3
100
AcDbLine
 10
424.3153088226683
 20
496.0332614519338
 30
0.0000000000000000
 11
442.3153088226683
 21
496.0332614519438
 31
0.0000000000000000
  0
LINE
  5
58
100
AcDbEntity
  8
MAIN0
  6
CONTINUOUS
 62
3
100
AcDbLine
 10
288.3153088226645
 20
491.0332614518584
 30
0.0000000000000000
 11
424.3153088226713
 21
491.0332614519338
 31
0.0000000000000000
  0
LINE
  5
59
100
AcDbEntity
  8
MAIN0
  6
CONTINUOUS
 62
3
100
AcDbLine
 10
823.3153088226713
 20
499.7332614521550
 30
0.0000000000000000
 11
823.3153088227548
 21
607.0332614521497
 31
0.0000000000000000
  0
LINE
  5
5A
100
AcDbEntity
  8
MAIN0
  6
CONTINUOUS
 62
3
100
AcDbLine
 10
827.3153088226802
 20
511.0332614521572
 30
0.0000000000000000
 11
827.3153088227507
 21
601.0332614521572
 31
0.0000000000000000
  0
LINE
  5
5B
100
AcDbEntity
  8
MAIN0
  6
CONTINUOUS
 62
3
100
AcDbLine
 10
827.3153088227507
 20
601.0332614521572
 30
0.0000000000000000
 11
838.3153088227507
 21
601.0332614521633
 31
0.0000000000000000
  0
LINE
  5
5C
100
AcDbEntity
  8
MAIN0
  6
CONTINUOUS
 62
3
100
AcDbLine
 10
827.3153088226802
 20
511.0332614521572
 30
0.0000000000000000
 11
838.3153088226802
 21
511.0332614521633
 31
0.0000000000000000
  0
LINE
  5
5D
100
AcDbEntity
  8
MAIN0
  6
CONTINUOUS
 62
3
100
AcDbLine
 10
826.2800326422878
 20
536.1481648796826
 30
0.0000000000000000
 11
827.3153088227000
 21
536.4255662961668
 31
0.0000000000000000
  0
ARC
  5
5E
100
AcDbEntity
  8
MAIN0
  6
CONTINUOUS
 62
3
100
AcDbCircle
 10
827.3153088218189
 20
947.4335048775251
 30
0.0000000000000000
 40
4.000000000000000
100
AcDbArc
 50
104.9999999999810
 51
180.0000000000000
  0
LINE
  5
5F
100
AcDbEntity
  8
MAIN0
  6
CONTINUOUS
 62
3
100
AcDbLine
 10
826.2800326422660
 20
575.9183580246307
 30
0.0000000000000000
 11
827.3153088226784
 21
575.6409566081476
 31
0.0000000000000000
  0
ARC
  5
60
100
AcDbEntity
  8
MAIN0
  6
CONTINUOUS
 62
3
100
AcDbCircle
 10
827.3153088217925
 20
994.9311046327875
 30
0.0000000000000000
 40
4.000000000000000
100
AcDbArc
 50
180.0000000000635
 51
255.0000000000825
  0
LINE
  5
61
100
AcDbEntity
  8
MAIN0
  6
CONTINUOUS
 62
3
100
AcDbLine
 10
838.3153088227443
 20
599.5332614521634
 30
0.0000000000000000
 11
838.3153088227443
 21
586.5332614521634
 31
0.0000000000000000
  0
LINE
  5
62
100
AcDbEntity
  8
MAIN0
  6
CENTER
 62
3
100
AcDbLine
 10
816.3153088226677
 20
495.3033679219515
 30
0.0000000000000000
 11
816.3153088226786
 21
509.1599138597773
 31
0.0000000000000000
  0
LINE
  5
63
100
AcDbEntity
  8
MAIN0
  6
CONTINUOUS
 62
3
100
AcDbLine
 10
811.5653088226695
 20
497.5960648573629
 30
0.0000000000000000
 11
811.5653088226713
 21
499.7332614521484
 31
0.0000000000000000
  0
LINE
  5
64
100
AcDbEntity
  8
MAIN0
  6
CONTINUOUS
 62
3
100
AcDbLine
 10
821.0653088226695
 20
497.5960648573554
 30
0.0000000000000000
 11
821.0653088226713
 21
499.7332614521537
 31
0.0000000000000000
  0
ARC
  5
65
100
AcDbEntity
  8
MAIN0
  6
CONTINUOUS
 62
3
100
AcDbCircle
 10
816.3153088226748
 20
504.0332614521511
 30
0.0000000000000000
 40
8.000000000000000
100
AcDbArc
 50
233.5764263576238
 51
306.4235736422858
  0
LINE
  5
66
100
AcDbEntity
  8
MAIN0
  6
CONTINUOUS
 62
3
100
AcDbLine
 10
732.5653088226696
 20
497.5960648573192
 30
0.0000000000000000
 11
732.5653088226713
 21
499.7332614521047
 31
0.0000000000000000
  0
LINE
  5
67
100
AcDbEntity
  8
MAIN0
  6
CONTINUOUS
 62
3
100
AcDbLine
 10
742.0653088226696
 20
497.5960648573117
 30
0.0000000000000000
 11
742.0653088226713
 21
499.7332614521100
 31
0.0000000000000000
  0
ARC
  5
68
100
AcDbEntity
  8
MAIN0
  6
CONTINUOUS
 62
3
100
AcDbCircle
 10
737.3153088226748
 20
504.0332614521073
 30
0.0000000000000000
 40
8.000000000000000
100
AcDbArc
 50
233.5764263576238
 51
306.4235736422858
  0
LINE
  5
69
100
AcDbEntity
  8
MAIN0
  6
CENTER
 62
3
100
AcDbLine
 10
737.3153088226678
 20
495.3033679219078
 30
0.0000000000000000
 11
737.3153088226786
 21
509.1599138597335
 31
0.0000000000000000
  0
LINE
  5
6A
100
AcDbEntity
  8
MAIN0
  6
CONTINUOUS
 62
3
100
AcDbLine
 10
654.5653088226695
 20
497.5960648572759
 30
0.0000000000000000
 11
654.5653088226711
 21
499.7332614520615
 31
0.0000000000000000
  0
ARC
  5
6B
100
AcDbEntity
  8
MAIN0
  6
CONTINUOUS
 62
3
100
AcDbCircle
 10
659.3153088226745
 20
504.0332614520640
 30
0.0000000000000000
 40
8.000000000000000
100
AcDbArc
 50
233.5764263576238
 51
306.4235736422858
  0
LINE
  5
6C
100
AcDbEntity
  8
MAIN0
  6
CONTINUOUS
 62
3
100
AcDbLine
 10
664.0653088226695
 20
497.5960648572684
 30
0.0000000000000000
 11
664.0653088226711
 21
499.7332614520667
 31
0.0000000000000000
  0
LINE
  5
6D
100
AcDbEntity
  8
MAIN0
  6
CENTER
 62
3
100
AcDbLine
 10
659.3153088226677
 20
495.3033679218644
 30
0.0000000000000000
 11
659.3153088226786
 21
509.1599138596903
 31
0.0000000000000000
  0
LINE
  5
6E
100
AcDbEntity
  8
MAIN0
  6
CONTINUOUS
 62
3
100
AcDbLine
 10
288.3153088226808
 20
512.0332614518584
 30
0.0000000000000000
 11
653.3153088226529
 21
512.0332614520607
 31
0.0000000000000000
  0
LINE
  5
6F
100
AcDbEntity
  8
MAIN0
  6
CONTINUOUS
 62
3
100
AcDbLine
 10
288.3153088227122
 20
552.0332614518584
 30
0.0000000000000000
 11
653.3153088226306
 21
552.0332614520607
 31
0.0000000000000000
  0
LINE
  5
70
100
AcDbEntity
  8
MAIN0
  6
CONTINUOUS
 62
3
100
AcDbLine
 10
289.3153088227744
 20
630.5332614518590
 30
0.0000000000000000
 11
367.3153088227744
 21
630.5332614519022
 31
0.0000000000000000
  0
LINE
  5
71
100
AcDbEntity
  8
MAIN0
  6
CONTINUOUS
 62
3
100
AcDbLine
 10
562.3153088227741
 20
631.0332614520103
 30
0.0000000000000000
 11
796.3153088227741
 21
631.0332614521400
 31
0.0000000000000000
  0
LINE
  5
72
100
AcDbEntity
  8
MAIN0
  6
CONTINUOUS
 62
3
100
AcDbLine
 10
316.3153088227360
 20
582.0332614518740
 30
0.0000000000000000
 11
316.3153088227430
 21
591.0332614518740
 31
0.0000000000000000
  0
LINE
  5
73
100
AcDbEntity
  8
MAIN0
  6
CONTINUOUS
 62
3
100
AcDbLine
 10
340.3153088227360
 20
582.0332614518873
 30
0.0000000000000000
 11
340.3153088227430
 21
591.0332614518873
 31
0.0000000000000000
  0
LINE
  5
74
100
AcDbEntity
  8
MAIN0
  6
CONTINUOUS
 62
3
100
AcDbLine
 10
316.3153088227359
 20
582.0332614518741
 30
0.0000000000000000
 11
340.3153088227359
 21
582.0332614518873
 31
0.0000000000000000
  0
LINE
  5
75
100
AcDbEntity
  8
MAIN0
  6
CONTINUOUS
 62
3
100
AcDbLine
 10
288.3153088226090
 20
591.0332614518585
 30
0.0000000000000000
 11
316.3153088227429
 21
591.0332614518741
 31
0.0000000000000000
  0
LINE
  5
76
100
AcDbEntity
  8
MAIN0
  6
CONTINUOUS
 62
3
100
AcDbLine
 10
340.3153088227429
 20
591.0332614518874
 30
0.0000000000000000
 11
796.3153088227427
 21
591.0332614521402
 31
0.0000000000000000
  0
LINE
  5
77
100
AcDbEntity
  8
MAIN0
  6
CONTINUOUS
 62
3
100
AcDbLine
 10
289.3153088227433
 20
591.0332614518591
 30
0.0000000000000000
 11
289.3153088227743
 21
630.5332614518576
 31
0.0000000000000000
  0
LINE
  5
78
100
AcDbEntity
  8
MAIN0
  6
CENTER
 62
3
100
AcDbLine
 10
340.3153088227666
 20
620.5332614518807
 30
0.0000000000000000
 11
316.3153088227666
 21
620.5332614518807
 31
0.0000000000000000
  0
LINE
  5
79
100
AcDbEntity
  8
MAIN0
  6
CENTER
 62
3
100
AcDbLine
 10
328.3153088227666
 20
632.5332614518807
 30
0.0000000000000000
 11
328.3153088227666
 21
608.5332614518807
 31
0.0000000000000000
  0
LINE
  5
7A
100
AcDbEntity
  8
MAIN0
  6
CENTER
 62
3
100
AcDbLine
 10
340.3153088227508
 20
600.5332614518804
 30
0.0000000000000000
 11
316.3153088227508
 21
600.5332614518804
 31
0.0000000000000000
  0
LINE
  5
7B
100
AcDbEntity
  8
MAIN0
  6
CENTER
 62
3
100
AcDbLine
 10
328.3153088227508
 20
612.5332614518804
 30
0.0000000000000000
 11
328.3153088227508
 21
593.7718522957367
 31
0.0000000000000000
  0
LINE
  5
7C
100
AcDbEntity
  8
MAIN0
  6
CENTER
 62
3
100
AcDbLine
 10
630.3153088227216
 20
564.0332614520414
 30
0.0000000000000000
 11
606.3153088227216
 21
564.0332614520414
 31
0.0000000000000000
  0
LINE
  5
7D
100
AcDbEntity
  8
MAIN0
  6
CENTER
 62
3
100
AcDbLine
 10
375.3153088227218
 20
564.0332614519000
 30
0.0000000000000000
 11
351.3153088227218
 21
564.0332614519000
 31
0.0000000000000000
  0
LINE
  5
7E
100
AcDbEntity
  8
MAIN0
  6
CENTER
 62
3
100
AcDbLine
 10
363.3153088227218
 20
576.0332614519000
 30
0.0000000000000000
 11
363.3153088227218
 21
552.0332614519000
 31
0.0000000000000000
  0
LINE
  5
7F
100
AcDbEntity
  8
MAIN0
  6
CONTINUOUS
 62
3
100
AcDbLine
 10
636.3153088227429
 20
591.0332614519523
 30
0.0000000000000000
 11
636.3153088227742
 21
631.0332614519523
 31
0.0000000000000000
  0
LINE
  5
80
100
AcDbEntity
  8
MAIN0
  6
CONTINUOUS
 62
3
100
AcDbLine
 10
636.3153088231231
 20
896.1823047550962
 30
0.0000000000000000
 11
636.3153088232408
 21
1046.182304755096
 31
0.0000000000000000
  0
LINE
  5
81
100
AcDbEntity
  8
MAIN0
  6
CONTINUOUS
 62
3
100
AcDbLine
 10
562.3153088232309
 20
1033.432304755154
 30
0.0000000000000000
 11
636.3153088232308
 21
1033.432304755154
 31
0.0000000000000000
  0
LINE
  5
82
100
AcDbEntity
  8
MAIN0
  6
CONTINUOUS
 62
3
100
AcDbLine
 10
562.3153088231331
 20
908.9323047551543
 30
0.0000000000000000
 11
636.3153088231331
 21
908.9323047551543
 31
0.0000000000000000
  0
LINE
  5
83
100
AcDbEntity
  8
MAIN0
  6
CONTINUOUS
 62
3
100
AcDbLine
 10
1335.374119406472
 20
575.8012106446790
 30
0.0000000000000000
 11
1337.374119406475
 21
579.2653122598158
 31
0.0000000000000000
  0
LINE
  5
84
100
AcDbEntity
  8
MAIN0
  6
CONTINUOUS
 62
3
100
AcDbLine
 10
1335.680577642851
 20
580.2430790529255
 30
0.0000000000000000
 11
1337.374119406474
 21
579.2653122598156
 31
0.0000000000000000
  0
LINE
  5
85
100
AcDbEntity
  8
MAIN0
  6
CONTINUOUS
 62
3
100
AcDbLine
 10
1333.680577642854
 20
576.7789774377859
 30
0.0000000000000000
 11
1335.374119406472
 21
575.8012106446790
 31
0.0000000000000000
  0
LINE
  5
86
100
AcDbEntity
  8
MAIN0
  6
CONTINUOUS
 62
3
100
AcDbLine
 10
1328.657678183037
 20
558.0332614523792
 30
0.0000000000000000
 11
1330.613211769259
 21
558.0332614523805
 31
0.0000000000000000
  0
LINE
  5
87
100
AcDbEntity
  8
MAIN0
  6
CONTINUOUS
 62
3
100
AcDbLine
 10
1330.613211769256
 20
554.0332614523808
 30
0.0000000000000000
 11
1330.613211769259
 21
558.0332614523811
 31
0.0000000000000000
  0
LINE
  5
88
100
AcDbEntity
  8
MAIN0
  6
CONTINUOUS
 62
3
100
AcDbLine
 10
1328.657678183039
 20
554.0332614523788
 30
0.0000000000000000
 11
1330.613211769256
 21
554.0332614523803
 31
0.0000000000000000
  0
LINE
  5
89
100
AcDbEntity
  8
MAIN0
  6
CONTINUOUS
 62
3
100
AcDbLine
 10
1333.680577642879
 20
535.2875454669750
 30
0.0000000000000000
 11
1335.374119406507
 21
536.2653122600909
 31
0.0000000000000000
  0
LINE
  5
8A
100
AcDbEntity
  8
MAIN0
  6
CONTINUOUS
 62
3
100
AcDbLine
 10
1337.374119406505
 20
532.8012106449521
 30
0.0000000000000000
 11
1335.374119406507
 21
536.2653122600916
 31
0.0000000000000000
  0
LINE
  5
8B
100
AcDbEntity
  8
MAIN0
  6
CONTINUOUS
 62
3
100
AcDbLine
 10
1335.680577642880
 20
531.8234438518374
 30
0.0000000000000000
 11
1337.374119406505
 21
532.8012106449519
 31
0.0000000000000000
  0
LINE
  5
8C
100
AcDbEntity
  8
MAIN0
  6
CONTINUOUS
 62
3
100
AcDbLine
 10
1353.845262576717
 20
517.7941690899028
 30
0.0000000000000000
 11
1350.381160961580
 21
519.7941690899053
 31
0.0000000000000000
  0
LINE
  5
8D
100
AcDbEntity
  8
MAIN0
  6
CONTINUOUS
 62
3
100
AcDbLine
 10
1349.403394168459
 20
518.1006273262622
 30
0.0000000000000000
 11
1350.381160961581
 21
519.7941690899046
 31
0.0000000000000000
  0
LINE
  5
8E
100
AcDbEntity
  8
MAIN0
  6
CONTINUOUS
 62
3
100
AcDbLine
 10
1371.613211769020
 20
513.0332614526689
 30
0.0000000000000000
 11
1375.613211769021
 21
513.0332614526719
 31
0.0000000000000000
  0
LINE
  5
8F
100
AcDbEntity
  8
MAIN0
  6
CONTINUOUS
 62
3
100
AcDbLine
 10
1375.613211769019
 20
511.0777278664265
 30
0.0000000000000000
 11
1375.613211769020
 21
513.0332614526716
 31
0.0000000000000000
  0
LINE
  5
90
100
AcDbEntity
  8
MAIN0
  6
CONTINUOUS
 62
3
100
AcDbLine
 10
1371.613211769019
 20
511.0777278664262
 30
0.0000000000000000
 11
1371.613211769020
 21
513.0332614526687
 31
0.0000000000000000
  0
LINE
  5
91
100
AcDbEntity
  8
MAIN0
  6
CONTINUOUS
 62
3
100
AcDbLine
 10
1394.358927754430
 20
516.1006273262598
 30
0.0000000000000000
 11
1393.381160961318
 21
517.7941690898863
 31
0.0000000000000000
  0
LINE
  5
92
100
AcDbEntity
  8
MAIN0
  6
CONTINUOUS
 62
3
100
AcDbLine
 10
1393.381160961318
 20
517.7941690898865
 30
0.0000000000000000
 11
1396.845262576455
 21
519.7941690898892
 31
0.0000000000000000
  0
LINE
  5
93
100
AcDbEntity
  8
MAIN0
  6
CONTINUOUS
 62
3
100
AcDbLine
 10
1397.823029369569
 20
518.1006273262593
 30
0.0000000000000000
 11
1396.845262576455
 21
519.7941690898888
 31
0.0000000000000000
  0
LINE
  5
94
100
AcDbEntity
  8
MAIN0
  6
CONTINUOUS
 62
3
100
AcDbLine
 10
1409.852304131529
 20
532.8012106449387
 30
0.0000000000000000
 11
1411.852304131526
 21
536.2653122600783
 31
0.0000000000000000
  0
LINE
  5
95
100
AcDbEntity
  8
MAIN0
  6
CONTINUOUS
 62
3
100
AcDbLine
 10
1411.545845895146
 20
531.8234438518286
 30
0.0000000000000000
 11
1409.852304131529
 21
532.8012106449385
 31
0.0000000000000000
  0
LINE
  5
96
100
AcDbEntity
  8
MAIN0
  6
CONTINUOUS
 62
3
100
AcDbLine
 10
1413.545845895148
 20
535.2875454669659
 30
0.0000000000000000
 11
1411.852304131526
 21
536.2653122600779
 31
0.0000000000000000
  0
LINE
  5
97
100
AcDbEntity
  8
MAIN0
  6
CONTINUOUS
 62
3
100
AcDbLine
 10
1349.403394168425
 20
593.9658955785246
 30
0.0000000000000000
 11
1350.381160961540
 21
592.2723538148966
 31
0.0000000000000000
  0
LINE
  5
98
100
AcDbEntity
  8
MAIN0
  6
CONTINUOUS
 62
3
100
AcDbLine
 10
1353.845262576675
 20
594.2723538149023
 30
0.0000000000000000
 11
1350.381160961540
 21
592.2723538148960
 31
0.0000000000000000
  0
LINE
  5
99
100
AcDbEntity
  8
MAIN0
  6
CONTINUOUS
 62
3
100
AcDbLine
 10
1352.867495783561
 20
595.9658955785276
 30
0.0000000000000000
 11
1353.845262576675
 21
594.2723538149025
 31
0.0000000000000000
  0
LINE
  5
9A
100
AcDbEntity
  8
MAIN0
  6
CONTINUOUS
 62
3
100
AcDbLine
 10
1371.613211768968
 20
600.9887950383802
 30
0.0000000000000000
 11
1371.613211768969
 21
599.0332614521351
 31
0.0000000000000000
  0
LINE
  5
9B
100
AcDbEntity
  8
MAIN0
  6
CONTINUOUS
 62
3
100
AcDbLine
 10
1375.613211768968
 20
599.0332614521419
 30
0.0000000000000000
 11
1371.613211768968
 21
599.0332614521349
 31
0.0000000000000000
  0
LINE
  5
9C
100
AcDbEntity
  8
MAIN0
  6
CONTINUOUS
 62
3
100
AcDbLine
 10
1375.613211768968
 20
600.9887950383845
 30
0.0000000000000000
 11
1375.613211768968
 21
599.0332614521419
 31
0.0000000000000000
  0
LINE
  5
9D
100
AcDbEntity
  8
MAIN0
  6
CONTINUOUS
 62
3
100
AcDbLine
 10
1393.381160961276
 20
594.2723538149257
 30
0.0000000000000000
 11
1396.845262576415
 21
592.2723538149269
 31
0.0000000000000000
  0
LINE
  5
9E
100
AcDbEntity
  8
MAIN0
  6
CONTINUOUS
 62
3
100
AcDbLine
 10
1394.358927754394
 20
595.9658955785676
 30
0.0000000000000000
 11
1393.381160961276
 21
594.2723538149260
 31
0.0000000000000000
  0
LINE
  5
9F
100
AcDbEntity
  8
MAIN0
  6
CONTINUOUS
 62
3
100
AcDbLine
 10
1397.823029369534
 20
593.9658955785712
 30
0.0000000000000000
 11
1396.845262576415
 21
592.2723538149276
 31
0.0000000000000000
  0
LINE
  5
A0
100
AcDbEntity
  8
MAIN0
  6
CONTINUOUS
 62
3
100
AcDbLine
 10
1409.852304131503
 20
579.2653122598933
 30
0.0000000000000000
 11
1411.852304131504
 21
575.8012106447559
 31
0.0000000000000000
  0
LINE
  5
A1
100
AcDbEntity
  8
MAIN0
  6
CONTINUOUS
 62
3
100
AcDbLine
 10
1411.545845895127
 20
580.2430790530098
 30
0.0000000000000000
 11
1409.852304131503
 21
579.2653122598935
 31
0.0000000000000000
  0
LINE
  5
A2
100
AcDbEntity
  8
MAIN0
  6
CONTINUOUS
 62
3
100
AcDbLine
 10
1413.545845895132
 20
576.7789774378744
 30
0.0000000000000000
 11
1411.852304131505
 21
575.8012106447563
 31
0.0000000000000000
  0
LINE
  5
A3
100
AcDbEntity
  8
MAIN0
  6
CONTINUOUS
 62
3
100
AcDbLine
 10
1418.568745354991
 20
558.0332614524751
 30
0.0000000000000000
 11
1416.613211768774
 21
558.0332614524717
 31
0.0000000000000000
  0
LINE
  5
A4
100
AcDbEntity
  8
MAIN0
  6
CONTINUOUS
 62
3
100
AcDbLine
 10
1416.613211768773
 20
558.0332614524716
 30
0.0000000000000000
 11
1416.613211768775
 21
554.0332614524713
 31
0.0000000000000000
  0
LINE
  5
A5
100
AcDbEntity
  8
MAIN0
  6
CONTINUOUS
 62
3
100
AcDbLine
 10
1418.568745354997
 20
554.0332614524750
 30
0.0000000000000000
 11
1416.613211768775
 21
554.0332614524716
 31
0.0000000000000000
  0
LINE
  5
A6
100
AcDbEntity
  8
MAIN0
  6
CONTINUOUS
 62
3
100
AcDbLine
 10
827.3153088226818
 20
513.0842373592716
 30
0.0000000000000000
 11
838.3153088226820
 21
513.0842373592838
 31
0.0000000000000000
  0
LINE
  5
A7
100
AcDbEntity
  8
MAIN0
  6
CONTINUOUS
 62
3
100
AcDbLine
 10
827.3153088226811
 20
512.0489611791384
 30
0.0000000000000000
 11
838.3153088226811
 21
512.0489611791505
 31
0.0000000000000000
  0
LINE
  5
A8
100
AcDbEntity
  8
MAIN0
  6
CONTINUOUS
 62
3
100
AcDbLine
 10
827.3153088227491
 20
598.9822855445912
 30
0.0000000000000000
 11
838.3153088227491
 21
598.9822855445851
 31
0.0000000000000000
  0
LINE
  5
A9
100
AcDbEntity
  8
MAIN0
  6
CONTINUOUS
 62
3
100
AcDbLine
 10
827.3153088227500
 20
600.0175617251762
 30
0.0000000000000000
 11
838.3153088227498
 21
600.0175617251762
 31
0.0000000000000000
  0
LINE
  5
AA
100
AcDbEntity
  8
MAIN0
  6
CONTINUOUS
 62
3
100
AcDbLine
 10
838.3153088231468
 20
926.1823047551542
 30
0.0000000000000000
 11
838.3153088232173
 21
1016.182304755154
 31
0.0000000000000000
  0
LINE
  5
AB
100
AcDbEntity
  8
MAIN0
  6
CONTINUOUS
 62
3
100
AcDbLine
 10
827.3153088232173
 20
1016.182304755148
 30
0.0000000000000000
 11
838.3153088232173
 21
1016.182304755154
 31
0.0000000000000000
  0
LINE
  5
AC
100
AcDbEntity
  8
MAIN0
  6
CONTINUOUS
 62
3
100
AcDbLine
 10
827.3153088231468
 20
926.1823047551482
 30
0.0000000000000000
 11
838.3153088231468
 21
926.1823047551542
 31
0.0000000000000000
  0
LINE
  5
AD
100
AcDbEntity
  8
MAIN0
  6
CONTINUOUS
 62
3
100
AcDbLine
 10
826.2800326427546
 20
951.2972081826736
 30
0.0000000000000000
 11
827.3153088231666
 21
951.5746095991578
 31
0.0000000000000000
  0
LINE
  5
AE
100
AcDbEntity
  8
MAIN0
  6
CONTINUOUS
 62
3
100
AcDbLine
 10
826.2800326427323
 20
991.0674013276216
 30
0.0000000000000000
 11
827.3153088231447
 21
990.7899999111386
 31
0.0000000000000000
  0
LINE
  5
AF
100
AcDbEntity
  8
MAIN0
  6
CONTINUOUS
 62
3
100
AcDbLine
 10
838.3153088232109
 20
1014.682304755154
 30
0.0000000000000000
 11
838.3153088232109
 21
1001.682304755154
 31
0.0000000000000000
  0
LINE
  5
B0
100
AcDbEntity
  8
MAIN0
  6
CONTINUOUS
 62
3
100
AcDbLine
 10
827.3153088231484
 20
928.2332806622624
 30
0.0000000000000000
 11
838.3153088231486
 21
928.2332806622746
 31
0.0000000000000000
  0
LINE
  5
B1
100
AcDbEntity
  8
MAIN0
  6
CONTINUOUS
 62
3
100
AcDbLine
 10
827.3153088231475
 20
927.1980044821291
 30
0.0000000000000000
 11
838.3153088231475
 21
927.1980044821414
 31
0.0000000000000000
  0
LINE
  5
B2
100
AcDbEntity
  8
MAIN0
  6
CONTINUOUS
 62
3
100
AcDbLine
 10
827.3153088232157
 20
1014.131328847582
 30
0.0000000000000000
 11
838.3153088232157
 21
1014.131328847576
 31
0.0000000000000000
  0
LINE
  5
B3
100
AcDbEntity
  8
MAIN0
  6
CONTINUOUS
 62
3
100
AcDbLine
 10
827.3153088232166
 20
1015.166605028167
 30
0.0000000000000000
 11
838.3153088232164
 21
1015.166605028167
 31
0.0000000000000000
  0
LINE
  5
B4
100
AcDbEntity
  8
MAIN0
  6
CONTINUOUS
 62
3
100
AcDbLine
 10
664.8208623216933
 20
578.0332614520671
 30
0.0000000000000000
 11
818.5114612464736
 21
578.0332614521523
 31
0.0000000000000000
  0
CIRCLE
  5
B5
100
AcDbEntity
  8
MAIN0
  6
CONTINUOUS
 62
3
100
AcDbCircle
 10
794.3153088227061
 20
544.0332614521439
 30
0.0000000000000000
 40
17.00000000000000
  0
LINE
  5
B6
100
AcDbEntity
  8
MAIN0
  6
CENTER
 62
3
100
AcDbLine
 10
819.3153088227061
 20
544.0332614521439
 30
0.0000000000000000
 11
769.3153088227061
 21
544.0332614521439
 31
0.0000000000000000
  0
LINE
  5
B7
100
AcDbEntity
  8
MAIN0
  6
CENTER
 62
3
100
AcDbLine
 10
794.3153088227061
 20
569.0332614521439
 30
0.0000000000000000
 11
794.3153088227061
 21
519.0332614521439
 31
0.0000000000000000
  0
LINE
  5
B8
100
AcDbEntity
  8
MAIN0
  6
CENTER
 62
3
100
AcDbLine
 10
780.3153088226958
 20
531.0332614521278
 30
0.0000000000000000
 11
768.3153088226958
 21
531.0332614521278
 31
0.0000000000000000
  0
LINE
  5
B9
100
AcDbEntity
  8
MAIN0
  6
CENTER
 62
3
100
AcDbLine
 10
774.3153088226958
 20
537.0486397171878
 30
0.0000000000000000
 11
774.3153088226958
 21
525.0332614521278
 31
0.0000000000000000
  0
LINE
  5
BA
100
AcDbEntity
  8
MAIN0
  6
CENTER
 62
3
100
AcDbLine
 10
720.3153088227225
 20
565.0332614520946
 30
0.0000000000000000
 11
708.3153088227225
 21
565.0332614520946
 31
0.0000000000000000
  0
LINE
  5
BB
100
AcDbEntity
  8
MAIN0
  6
CENTER
 62
3
100
AcDbLine
 10
714.3153088227225
 20
571.0332614520946
 30
0.0000000000000000
 11
714.3153088227225
 21
559.0332614520946
 31
0.0000000000000000
  0
LINE
  5
BC
100
AcDbEntity
  8
MAIN0
  6
CENTER
 62
3
100
AcDbLine
 10
368.3153088231475
 20
927.1823047551543
 30
0.0000000000000000
 11
333.3153088231475
 21
927.1823047551543
 31
0.0000000000000000
  0
LINE
  5
BD
100
AcDbEntity
  8
MAIN0
  6
CENTER
 62
3
100
AcDbLine
 10
350.8153088231475
 20
944.6823047551543
 30
0.0000000000000000
 11
350.8153088231475
 21
909.6823047551543
 31
0.0000000000000000
  0
LINE
  5
BE
100
AcDbEntity
  8
MAIN0
  6
CENTER
 62
3
100
AcDbLine
 10
323.3153088231476
 20
927.1823047551543
 30
0.0000000000000000
 11
288.3153088231476
 21
927.1823047551543
 31
0.0000000000000000
  0
LINE
  5
BF
100
AcDbEntity
  8
MAIN0
  6
CENTER
 62
3
100
AcDbLine
 10
305.8153088231476
 20
944.6823047551543
 30
0.0000000000000000
 11
305.8153088231476
 21
909.6823047551543
 31
0.0000000000000000
  0
LINE
  5
C0
100
AcDbEntity
  8
MAIN0
  6
CENTER
 62
3
100
AcDbLine
 10
368.3153088232165
 20
1015.182304755154
 30
0.0000000000000000
 11
333.3153088232165
 21
1015.182304755154
 31
0.0000000000000000
  0
LINE
  5
C1
100
AcDbEntity
  8
MAIN0
  6
CENTER
 62
3
100
AcDbLine
 10
350.8153088232165
 20
1032.682304755154
 30
0.0000000000000000
 11
350.8153088232165
 21
997.6823047551543
 31
0.0000000000000000
  0
LINE
  5
C2
100
AcDbEntity
  8
MAIN0
  6
CENTER
 62
3
100
AcDbLine
 10
323.3153088232166
 20
1015.182304755154
 30
0.0000000000000000
 11
288.3153088232166
 21
1015.182304755154
 31
0.0000000000000000
  0
LINE
  5
C3
100
AcDbEntity
  8
MAIN0
  6
CENTER
 62
3
100
AcDbLine
 10
305.8153088232166
 20
1032.682304755154
 30
0.0000000000000000
 11
305.8153088232166
 21
997.6823047551543
 31
0.0000000000000000
  0
LINE
  5
C4
100
AcDbEntity
  8
MAIN0
  6
CENTER
 62
3
100
AcDbLine
 10
637.8153088231958
 20
988.6823047551543
 30
0.0000000000000000
 11
602.8153088231958
 21
988.6823047551543
 31
0.0000000000000000
  0
LINE
  5
C5
100
AcDbEntity
  8
MAIN0
  6
CENTER
 62
3
100
AcDbLine
 10
620.3153088231958
 20
1006.182304755154
 30
0.0000000000000000
 11
620.3153088231958
 21
971.1823047551543
 31
0.0000000000000000
  0
LINE
  5
C6
100
AcDbEntity
  8
MAIN0
  6
CENTER
 62
3
100
AcDbLine
 10
637.8153088231684
 20
953.6823047551543
 30
0.0000000000000000
 11
602.8153088231684
 21
953.6823047551543
 31
0.0000000000000000
  0
LINE
  5
C7
100
AcDbEntity
  8
MAIN0
  6
CENTER
 62
3
100
AcDbLine
 10
620.3153088231684
 20
971.1823047551543
 30
0.0000000000000000
 11
620.3153088231684
 21
936.1823047551543
 31
0.0000000000000000
  0
LINE
  5
C8
100
AcDbEntity
  8
MAIN0
  6
CENTER
 62
3
100
AcDbLine
 10
595.8153088231683
 20
953.6823047551543
 30
0.0000000000000000
 11
560.8153088231683
 21
953.6823047551543
 31
0.0000000000000000
  0
LINE
  5
C9
100
AcDbEntity
  8
MAIN0
  6
CENTER
 62
3
100
AcDbLine
 10
578.3153088231683
 20
971.1823047551543
 30
0.0000000000000000
 11
578.3153088231683
 21
936.1823047551543
 31
0.0000000000000000
  0
LINE
  5
CA
100
AcDbEntity
  8
MAIN0
  6
CENTER
 62
3
100
AcDbLine
 10
595.8153088231958
 20
988.6823047551543
 30
0.0000000000000000
 11
560.8153088231958
 21
988.6823047551543
 31
0.0000000000000000
  0
LINE
  5
CB
100
AcDbEntity
  8
MAIN0
  6
CENTER
 62
3
100
AcDbLine
 10
578.3153088231958
 20
1006.182304755154
 30
0.0000000000000000
 11
578.3153088231958
 21
971.1823047551543
 31
0.0000000000000000
  0
LINE
  5
CC
100
AcDbEntity
  8
MAIN0
  6
CENTER
 62
3
100
AcDbLine
 10
375.3153088227218
 20
564.0332614519000
 30
0.0000000000000000
 11
351.3153088227218
 21
564.0332614519000
 31
0.0000000000000000
  0
LINE
  5
CD
100
AcDbEntity
  8
MAIN0
  6
CENTER
 62
3
100
AcDbLine
 10
363.3153088227218
 20
576.0332614519000
 30
0.0000000000000000
 11
363.3153088227218
 21
552.0332614519000
 31
0.0000000000000000
  0
LINE
  5
CE
100
AcDbEntity
  8
MAIN0
  6
CENTER
 62
3
100
AcDbLine
 10
618.3153088227218
 20
576.0332614519000
 30
0.0000000000000000
 11
618.3153088227218
 21
552.0332614519000
 31
0.0000000000000000
  0
LINE
  5
CF
100
AcDbEntity
  8
MAIN0
  6
CENTER
 62
3
100
AcDbLine
 10
777.8938088227225
 20
552.0332614521234
 30
0.0000000000000000
 11
754.7368088227224
 21
552.0332614521234
 31
0.0000000000000000
  0
LINE
  5
D0
100
AcDbEntity
  8
MAIN0
  6
CENTER
 62
3
100
AcDbLine
 10
766.3153088227225
 20
563.6117614521234
 30
0.0000000000000000
 11
766.3153088227225
 21
540.4547614521234
 31
0.0000000000000000
  0
CIRCLE
  5
D1
100
AcDbEntity
  8
MAIN0
  6
CONTINUOUS
 62
3
100
AcDbCircle
 10
809.3153088227225
 20
567.0332614521474
 30
0.0000000000000000
 40
5.722500000000000
  0
CIRCLE
  5
D2
100
AcDbEntity
  8
MAIN0
  6
CONTINUOUS
 62
3
100
AcDbCircle
 10
809.3153088227225
 20
567.0332614521474
 30
0.0000000000000000
 40
6.578500000000002
  0
LINE
  5
D3
100
AcDbEntity
  8
MAIN0
  6
CENTER
 62
3
100
AcDbLine
 10
809.3153088227225
 20
578.6117614521473
 30
0.0000000000000000
 11
809.3153088227225
 21
555.4547614521473
 31
0.0000000000000000
  0
LINE
  5
D4
100
AcDbEntity
  8
MAIN0
  6
CENTER
 62
3
100
AcDbLine
 10
820.8938088227224
 20
567.0332614521474
 30
0.0000000000000000
 11
797.7368088227224
 21
567.0332614521474
 31
0.0000000000000000
  0
ARC
  5
D5
100
AcDbEntity
  8
MAIN0
  6
DASHED
 62
3
100
AcDbCircle
 10
827.3153088226966
 20
532.2844615745260
 30
0.0000000000000000
 40
4.000000000000000
100
AcDbArc
 50
104.9999999999810
 51
180.0000000000000
  0
ARC
  5
D6
100
AcDbEntity
  8
MAIN0
  6
DASHED
 62
3
100
AcDbCircle
 10
827.3153088226704
 20
579.7820613297885
 30
0.0000000000000000
 40
4.000000000000000
100
AcDbArc
 50
180.0000000000635
 51
255.0000000000825
  0
LINE
  5
D7
100
AcDbEntity
  8
MAIN0
  6
DASHED
 62
3
100
AcDbLine
 10
637.5153088227428
 20
591.0332614519514
 30
0.0000000000000000
 11
637.5153088227733
 21
629.8332614520521
 31
0.0000000000000000
  0
LINE
  5
D8
100
AcDbEntity
  8
MAIN0
  6
DASHED
 62
3
100
AcDbLine
 10
637.5153088227733
 20
629.8332614520519
 30
0.0000000000000000
 11
796.3153088227748
 21
629.8332614521401
 31
0.0000000000000000
  0
LINE
  5
D9
100
AcDbEntity
  8
MAIN0
  6
CONTINUOUS
 62
3
100
AcDbLine
 10
822.5114612464759
 20
502.0332614521545
 30
0.0000000000000000
 11
822.5114612464759
 21
574.0332614521523
 31
0.0000000000000000
  0
LINE
  5
DA
100
AcDbEntity
  8
MAIN0
  6
CONTINUOUS
 62
3
100
AcDbLine
 10
660.8208623216956
 20
574.0332614520702
 30
0.0000000000000000
 11
660.8208623216392
 21
502.0332614520649
 31
0.0000000000000000
  0
ARC
  5
DB
100
AcDbEntity
  8
MAIN0
  6
CONTINUOUS
 62
3
100
AcDbCircle
 10
664.8208623216956
 20
574.0332614520671
 30
0.0000000000000000
 40
4.000000000000000
100
AcDbArc
 50
90.00000000000000
 51
180.0000000000000
  0
ARC
  5
DC
100
AcDbEntity
  8
MAIN0
  6
CONTINUOUS
 62
3
100
AcDbCircle
 10
818.5114612464759
 20
574.0332614521523
 30
0.0000000000000000
 40
4.000000000000000
100
AcDbArc
 50
0.0000000000000000
 51
90.00000000000000
  0
LINE
  5
DD
100
AcDbEntity
  8
MAIN0
  6
DASHED
 62
3
100
AcDbLine
 10
644.3153088227680
 20
623.0332614520557
 30
0.0000000000000000
 11
791.3153088225017
 21
623.0332614521371
 31
0.0000000000000000
  0
ARC
  5
DE
100
AcDbEntity
  8
MAIN0
  6
CONTINUOUS
 62
3
100
AcDbCircle
 10
819.3153088227548
 20
607.0332614521527
 30
0.0000000000000000
 40
4.000000000000000
100
AcDbArc
 50
0.0000000000000000
 51
90.00000000000000
  0
ARC
  5
DF
100
AcDbEntity
  8
MAIN0
  6
HIDDEN
 62
3
100
AcDbCircle
 10
810.3153088227225
 20
603.0332614521449
 30
0.0000000000000000
 40
9.000000000000000
100
AcDbArc
 50
89.34234007931813
 51
117.2660444507642
  0
LINE
  5
E0
100
AcDbEntity
  8
MAIN0
  6
CENTER
 62
3
100
AcDbLine
 10
816.5452103523624
 20
603.0332614521449
 30
0.0000000000000000
 11
804.0854072930824
 21
603.0332614521449
 31
0.0000000000000000
  0
LINE
  5
E1
100
AcDbEntity
  8
MAIN0
  6
CONTINUOUS
 62
3
100
AcDbLine
 10
823.3153088227489
 20
599.0346021021358
 30
0.0000000000000000
 11
827.3153088227493
 21
599.0346038930217
 31
0.0000000000000000
  0
ARC
  5
E2
100
AcDbEntity
  8
MAIN0
  6
CONTINUOUS
 62
3
100
AcDbCircle
 10
838.3153077031179
 20
605.5346088179581
 30
0.0000000000000000
 40
5.000000000000000
100
AcDbArc
 50
126.8699232984452
 51
233.1301280067553
  0
LINE
  5
E3
100
AcDbEntity
  8
MAIN0
  6
CONTINUOUS
 62
3
100
AcDbLine
 10
835.3153059122287
 20
609.5346074747906
 30
0.0000000000000000
 11
835.3153047929229
 21
612.0346074747930
 31
0.0000000000000000
  0
LINE
  5
E4
100
AcDbEntity
  8
MAIN0
  6
CONTINUOUS
 62
3
100
AcDbLine
 10
835.3153097184711
 20
601.0332614521616
 30
0.0000000000000000
 11
835.3153094940074
 21
601.5346074747915
 31
0.0000000000000000
  0
LINE
  5
E5
100
AcDbEntity
  8
MAIN0
  6
DASHED
 62
3
100
AcDbLine
 10
791.3153088225017
 20
588.0332614521394
 30
0.0000000000000000
 11
791.3153088225017
 21
623.0332614521373
 31
0.0000000000000000
  0
ARC
  5
E6
100
AcDbEntity
  8
MAIN0
  6
DASHED
 62
3
100
AcDbCircle
 10
795.3153088225017
 20
615.0332614521394
 30
0.0000000000000000
 40
4.000000000000000
100
AcDbArc
 50
180.0000000000000
 51
270.0000000000000
  0
LINE
  5
E7
100
AcDbEntity
  8
MAIN0
  6
DASHED
 62
3
100
AcDbLine
 10
795.3153088225188
 20
584.0332614521394
 30
0.0000000000000000
 11
823.3153088227371
 21
584.0332614521550
 31
0.0000000000000000
  0
ARC
  5
E8
100
AcDbEntity
  8
MAIN0
  6
DASHED
 62
3
100
AcDbCircle
 10
795.3153088225017
 20
588.0332614521394
 30
0.0000000000000000
 40
4.000000000000000
100
AcDbArc
 50
180.0000000000000
 51
270.0000000000000
  0
LINE
  5
E9
100
AcDbEntity
  8
MAIN0
  6
DASHED
 62
3
100
AcDbLine
 10
644.3153088227427
 20
591.0332614520559
 30
0.0000000000000000
 11
644.3153088227680
 21
623.0332614520557
 31
0.0000000000000000
  0
LINE
  5
EA
100
AcDbEntity
  8
MAIN0
  6
DASHED
 62
3
100
AcDbLine
 10
741.6099969516542
 20
611.0332614521096
 30
0.0000000000000000
 11
741.6099969516495
 21
623.0332614521096
 31
0.0000000000000000
  0
LINE
  5
EB
100
AcDbEntity
  8
MAIN0
  6
DASHED
 62
3
100
AcDbLine
 10
741.6099969516542
 20
611.0332614521096
 30
0.0000000000000000
 11
796.3153088227585
 21
611.0332614521400
 31
0.0000000000000000
  0
LINE
  5
EC
100
AcDbEntity
  8
MAIN0
  6
CONTINUOUS
 62
3
100
AcDbLine
 10
796.3153088227584
 20
611.0332614521400
 30
0.0000000000000000
 11
819.3153088227525
 21
611.0332614521527
 31
0.0000000000000000
  0
LINE
  5
ED
100
AcDbEntity
  8
MAIN0
  6
CONTINUOUS
 62
3
100
AcDbLine
 10
1298.613211769027
 20
499.7332614523631
 30
0.0000000000000000
 11
1298.613211769012
 21
578.0332614523629
 31
0.0000000000000000
  0
LINE
  5
EE
100
AcDbEntity
  8
MAIN0
  6
CONTINUOUS
 62
3
100
AcDbLine
 10
1448.613211769027
 20
499.7332614524461
 30
0.0000000000000000
 11
1448.613211769012
 21
578.0332614524459
 31
0.0000000000000000
  0
LINE
  5
EF
100
AcDbEntity
  8
MAIN0
  6
CONTINUOUS
 62
3
100
AcDbLine
 10
442.3153088226713
 20
491.0332614519438
 30
0.0000000000000000
 11
653.3153088226645
 21
491.0332614520608
 31
0.0000000000000000
  0
LINE
  5
F0
100
AcDbEntity
  8
MAIN0
  6
CONTINUOUS
 62
3
100
AcDbLine
 10
653.3153088226743
 20
499.7332614520607
 30
0.0000000000000000
 11
823.3153088226711
 21
499.7332614521550
 31
0.0000000000000000
  0
LINE
  5
F1
100
AcDbEntity
  8
MAIN0
  6
CONTINUOUS
 62
3
100
AcDbLine
 10
1298.613211769027
 20
499.7332614523631
 30
0.0000000000000000
 11
1448.613211769027
 21
499.7332614524462
 31
0.0000000000000000
  0
LINE
  5
F2
100
AcDbEntity
  8
MAIN0
  6
CONTINUOUS
 62
3
100
AcDbLine
 10
653.3153088226729
 20
502.0332614520607
 30
0.0000000000000000
 11
823.3153088226729
 21
502.0332614521549
 31
0.0000000000000000
  0
LINE
  5
F3
100
AcDbEntity
  8
MAIN0
  6
CONTINUOUS
 62
3
100
AcDbLine
 10
1298.613211769027
 20
502.0332614523629
 30
0.0000000000000000
 11
1448.613211769027
 21
502.0332614524460
 31
0.0000000000000000
  0
LINE
  5
F4
100
AcDbEntity
  8
MAIN0
  6
CENTER
 62
3
100
AcDbLine
 10
1373.613211769031
 20
479.9805944156366
 30
0.0000000000000000
 11
1373.613211768997
 21
655.1107349741403
 31
0.0000000000000000
  0
LINE
  5
F5
100
AcDbEntity
  8
MAIN0
  6
CENTER
 62
3
100
AcDbLine
 10
1314.215265806636
 20
556.0332614523715
 30
0.0000000000000000
 11
1431.628898714387
 21
556.0332614524365
 31
0.0000000000000000
  0
LINE
  5
F6
100
AcDbEntity
  8
MAIN0
  6
CENTER
 62
3
100
AcDbLine
 10
1424.807280562337
 20
542.3158520619708
 30
0.0000000000000000
 11
1322.419142975695
 21
569.7506708428379
 31
0.0000000000000000
  0
LINE
  5
F7
100
AcDbEntity
  8
MAIN0
  6
CENTER
 62
3
100
AcDbLine
 10
1387.330621159450
 20
607.2273302457249
 30
0.0000000000000000
 11
1359.895802378582
 21
504.8391926590837
 31
0.0000000000000000
  0
ARC
  5
F8
100
AcDbEntity
  8
MAIN0
  6
CONTINUOUS
 62
3
100
AcDbCircle
 10
1373.613211769016
 20
556.0332614524043
 30
0.0000000000000000
 40
45.00000000000000
100
AcDbArc
 50
152.5473181826250
 51
177.4551956202053
  0
ARC
  5
F9
100
AcDbEntity
  8
MAIN0
  6
CONTINUOUS
 62
3
100
AcDbCircle
 10
1373.613211769016
 20
556.0332614524043
 30
0.0000000000000000
 40
45.00000000000000
100
AcDbArc
 50
182.5473181826250
 51
207.4551956202053
  0
ARC
  5
FA
100
AcDbEntity
  8
MAIN0
  6
CONTINUOUS
 62
3
100
AcDbCircle
 10
1373.613211769016
 20
556.0332614524043
 30
0.0000000000000000
 40
45.00000000000000
100
AcDbArc
 50
212.5473181826249
 51
237.4551956202053
  0
LINE
  5
FB
100
AcDbEntity
  8
MAIN0
  6
CONTINUOUS
 62
3
100
AcDbLine
 10
1352.867495783605
 20
516.1006273262580
 30
0.0000000000000000
 11
1353.845262576718
 21
517.7941690898844
 31
0.0000000000000000
  0
ARC
  5
FC
100
AcDbEntity
  8
MAIN0
  6
CONTINUOUS
 62
3
100
AcDbCircle
 10
1373.613211769016
 20
556.0332614524043
 30
0.0000000000000000
 40
45.00000000000000
100
AcDbArc
 50
242.5473181826249
 51
267.4551956202053
  0
ARC
  5
FD
100
AcDbEntity
  8
MAIN0
  6
CONTINUOUS
 62
3
100
AcDbCircle
 10
1373.613211769016
 20
556.0332614524043
 30
0.0000000000000000
 40
45.00000000000000
100
AcDbArc
 50
272.5473181826249
 51
297.4551956202053
  0
ARC
  5
FE
100
AcDbEntity
  8
MAIN0
  6
CONTINUOUS
 62
3
100
AcDbCircle
 10
1373.613211769016
 20
556.0332614524043
 30
0.0000000000000000
 40
45.00000000000000
100
AcDbArc
 50
302.5473181826249
 51
327.4551956202053
  0
ARC
  5
FF
100
AcDbEntity
  8
MAIN0
  6
CONTINUOUS
 62
3
100
AcDbCircle
 10
1373.613211769016
 20
556.0332614524043
 30
0.0000000000000000
 40
45.00000000000000
100
AcDbArc
 50
332.5473181826248
 51
357.4551956202052
  0
ARC
  5
100
100
AcDbEntity
  8
MAIN0
  6
CONTINUOUS
 62
3
100
AcDbCircle
 10
1373.613211769016
 20
556.0332614524043
 30
0.0000000000000000
 40
45.00000000000000
100
AcDbArc
 50
2.547318182624775
 51
27.45519562020514
  0
ARC
  5
101
100
AcDbEntity
  8
MAIN0
  6
CONTINUOUS
 62
3
100
AcDbCircle
 10
1373.613211769016
 20
556.0332614524043
 30
0.0000000000000000
 40
45.00000000000000
100
AcDbArc
 50
32.54731818262474
 51
57.45519562020511
  0
ARC
  5
102
100
AcDbEntity
  8
MAIN0
  6
CONTINUOUS
 62
3
100
AcDbCircle
 10
1373.613211769016
 20
556.0332614524043
 30
0.0000000000000000
 40
45.00000000000000
100
AcDbArc
 50
92.54731818262471
 51
117.4551956202051
  0
ARC
  5
103
100
AcDbEntity
  8
MAIN0
  6
CONTINUOUS
 62
3
100
AcDbCircle
 10
1373.613211769016
 20
556.0332614524043
 30
0.0000000000000000
 40
45.00000000000000
100
AcDbArc
 50
122.5473181826247
 51
147.4551956202050
  0
CIRCLE
  5
104
100
AcDbEntity
  8
MAIN0
  6
CONTINUOUS
 62
3
100
AcDbCircle
 10
1373.613211769016
 20
556.0332614524043
 30
0.0000000000000000
 40
10.00000000000000
  0
CIRCLE
  5
105
100
AcDbEntity
  8
MAIN0
  6
CONTINUOUS
 62
3
100
AcDbCircle
 10
1373.613211769016
 20
556.0332614524043
 30
0.0000000000000000
 40
7.100000000000001
  0
LINE
  5
106
100
AcDbEntity
  8
MAIN0
  6
CONTINUOUS
 62
3
100
AcDbLine
 10
1374.683661039627
 20
567.7556391275625
 30
0.0000000000000000
 11
1374.217258501300
 21
566.0150011577471
 31
0.0000000000000000
  0
LINE
  5
107
100
AcDbEntity
  8
MAIN0
  6
CONTINUOUS
 62
3
100
AcDbLine
 10
1378.547364344783
 20
566.7203629471526
 30
0.0000000000000000
 11
1378.080961806456
 21
564.9797249773370
 31
0.0000000000000000
  0
LINE
  5
108
100
AcDbEntity
  8
MAIN0
  6
CONTINUOUS
 62
3
100
AcDbLine
 10
1378.547364344783
 20
566.7203629471526
 30
0.0000000000000000
 11
1374.683661039627
 21
567.7556391275626
 31
0.0000000000000000
  0
CIRCLE
  5
109
100
AcDbEntity
  8
MAIN0
  6
CONTINUOUS
 62
3
100
AcDbCircle
 10
1383.189516437809
 20
591.7725170250999
 30
0.0000000000000000
 40
10.00000000000000
  0
ARC
  5
10A
100
AcDbEntity
  8
MAIN0
  6
CONTINUOUS
 62
3
100
AcDbCircle
 10
1373.613211769016
 20
556.0332614524043
 30
0.0000000000000000
 40
45.00000000000000
100
AcDbArc
 50
62.54731818262472
 51
66.56745246656062
  0
ARC
  5
10B
100
AcDbEntity
  8
MAIN0
  6
CONTINUOUS
 62
3
100
AcDbCircle
 10
1373.613211769016
 20
556.0332614524043
 30
0.0000000000000000
 40
45.00000000000000
100
AcDbArc
 50
83.43254753343945
 51
87.45519562020508
  0
LINE
  5
10C
100
AcDbEntity
  8
MAIN0
  6
CENTER
 62
3
100
AcDbLine
 10
1400.576181311012
 20
587.1137742132545
 30
0.0000000000000000
 11
1365.802851564606
 21
596.4312598369452
 31
0.0000000000000000
  0
LINE
  5
10D
100
AcDbEntity
  8
MAIN0
  6
CONTINUOUS
 62
3
100
AcDbLine
 10
1408.841041676618
 20
584.0332614524240
 30
0.0000000000000000
 11
1442.613211769010
 21
584.0332614524427
 31
0.0000000000000000
  0
LINE
  5
10E
100
AcDbEntity
  8
MAIN0
  6
CONTINUOUS
 62
3
100
AcDbLine
 10
1301.613211769005
 20
611.0332614523645
 30
0.0000000000000000
 11
1372.013211769005
 21
611.0332614524035
 31
0.0000000000000000
  0
LINE
  5
10F
100
AcDbEntity
  8
MAIN0
  6
CONTINUOUS
 62
3
100
AcDbLine
 10
1372.013211769008
 20
599.0332614521356
 30
0.0000000000000000
 11
1372.013211769005
 21
612.0346074752257
 31
0.0000000000000000
  0
LINE
  5
110
100
AcDbEntity
  8
MAIN0
  6
CONTINUOUS
 62
3
100
AcDbLine
 10
1375.213211769008
 20
599.0332614521412
 30
0.0000000000000000
 11
1375.213211769005
 21
612.0346074752275
 31
0.0000000000000000
  0
LINE
  5
111
100
AcDbEntity
  8
MAIN0
  6
CONTINUOUS
 62
3
100
AcDbLine
 10
1372.013211769005
 20
612.0346074752257
 30
0.0000000000000000
 11
1375.213211769005
 21
612.0346074752275
 31
0.0000000000000000
  0
LINE
  5
112
100
AcDbEntity
  8
MAIN0
  6
CENTER
 62
3
100
AcDbLine
 10
1367.886273846667
 20
603.0346074752234
 30
0.0000000000000000
 11
1382.093179826888
 21
603.0346074752313
 31
0.0000000000000000
  0
LINE
  5
113
100
AcDbEntity
  8
MAIN0
  6
CONTINUOUS
 62
3
100
AcDbLine
 10
1301.613211769011
 20
581.0332614523629
 30
0.0000000000000000
 11
1301.613211769002
 21
628.8332614524422
 31
0.0000000000000000
  0
ARC
  5
114
100
AcDbEntity
  8
MAIN0
  6
CONTINUOUS
 62
3
100
AcDbCircle
 10
1298.613211769011
 20
581.0332614523629
 30
0.0000000000000000
 40
3.000000000000000
100
AcDbArc
 50
270.0000000000000
 51
360.0000000000000
  0
LINE
  5
115
100
AcDbEntity
  8
MAIN0
  6
CONTINUOUS
 62
3
100
AcDbLine
 10
1445.613211769011
 20
580.6125620176631
 30
0.0000000000000000
 11
1445.613211769011
 21
581.0332614524427
 31
0.0000000000000000
  0
ARC
  5
116
100
AcDbEntity
  8
MAIN0
  6
CONTINUOUS
 62
3
100
AcDbCircle
 10
1442.613211769011
 20
581.0332614524427
 30
0.0000000000000000
 40
3.000000000000000
100
AcDbArc
 50
0.0000000000000000
 51
90.00000000000000
  0
ARC
  5
117
100
AcDbEntity
  8
MAIN0
  6
CONTINUOUS
 62
3
100
AcDbCircle
 10
1448.613211769011
 20
581.0332614524459
 30
0.0000000000000000
 40
3.000000000000000
100
AcDbArc
 50
180.0000000000000
 51
270.0000000000000
  0
LINE
  5
118
100
AcDbEntity
  8
MAIN0
  6
CONTINUOUS
 62
3
100
AcDbLine
 10
1298.613211768985
 20
578.0332614523629
 30
0.0000000000000000
 11
1335.374119406471
 21
578.0332614523832
 31
0.0000000000000000
  0
LINE
  5
119
100
AcDbEntity
  8
MAIN0
  6
CONTINUOUS
 62
3
100
AcDbLine
 10
1445.613211769011
 20
581.0332614523911
 30
0.0000000000000000
 11
1445.613211769002
 21
628.8332614524446
 31
0.0000000000000000
  0
LINE
  5
11A
100
AcDbEntity
  8
MAIN0
  6
CONTINUOUS
 62
3
100
AcDbLine
 10
1301.613211769003
 20
623.0332614523645
 30
0.0000000000000000
 11
1445.613211769003
 21
623.0332614524443
 31
0.0000000000000000
  0
CIRCLE
  5
11B
100
AcDbEntity
  8
MAIN0
  6
CONTINUOUS
 62
3
100
AcDbCircle
 10
1320.613211769009
 20
592.0332614523750
 30
0.0000000000000000
 40
12.50000000000000
  0
LINE
  5
11C
100
AcDbEntity
  8
MAIN0
  6
CENTER
 62
3
100
AcDbLine
 10
1341.113211769009
 20
592.0332614523750
 30
0.0000000000000000
 11
1300.113211769009
 21
592.0332614523750
 31
0.0000000000000000
  0
LINE
  5
11D
100
AcDbEntity
  8
MAIN0
  6
CENTER
 62
3
100
AcDbLine
 10
1320.613211769009
 20
612.5332614523750
 30
0.0000000000000000
 11
1320.613211769009
 21
571.5332614523750
 31
0.0000000000000000
  0
LINE
  5
11E
100
AcDbEntity
  8
MAIN0
  6
CONTINUOUS
 62
3
100
AcDbLine
 10
1298.613211769011
 20
579.8332614523631
 30
0.0000000000000000
 11
1298.613211769001
 21
631.0332614523632
 31
0.0000000000000000
  0
LINE
  5
11F
100
AcDbEntity
  8
MAIN0
  6
CONTINUOUS
 62
3
100
AcDbLine
 10
1448.613211769011
 20
579.8332614524463
 30
0.0000000000000000
 11
1448.613211769001
 21
631.0332614524463
 31
0.0000000000000000
  0
LINE
  5
120
100
AcDbEntity
  8
MAIN0
  6
CONTINUOUS
 62
3
100
AcDbLine
 10
1298.613211768951
 20
631.0332614523632
 30
0.0000000000000000
 11
1448.613211768951
 21
631.0332614524464
 31
0.0000000000000000
  0
LINE
  5
121
100
AcDbEntity
  8
MAIN0
  6
CONTINUOUS
 62
3
100
AcDbLine
 10
1299.813211769001
 20
629.8332614523638
 30
0.0000000000000000
 11
1447.413211769002
 21
629.8332614524456
 31
0.0000000000000000
  0
LINE
  5
122
100
AcDbEntity
  8
MAIN0
  6
CONTINUOUS
 62
3
100
AcDbLine
 10
1447.413211769012
 20
579.8332614524456
 30
0.0000000000000000
 11
1447.413211769002
 21
629.8332614524456
 31
0.0000000000000000
  0
LINE
  5
123
100
AcDbEntity
  8
MAIN0
  6
CONTINUOUS
 62
3
100
AcDbLine
 10
1299.813211769011
 20
579.8332614523637
 30
0.0000000000000000
 11
1299.813211769002
 21
629.8332614523638
 31
0.0000000000000000
  0
LINE
  5
124
100
AcDbEntity
  8
MAIN0
  6
CONTINUOUS
 62
3
100
AcDbLine
 10
1298.613211768980
 20
579.8332614523631
 30
0.0000000000000000
 11
1299.813211769011
 21
579.8332614523638
 31
0.0000000000000000
  0
LINE
  5
125
100
AcDbEntity
  8
MAIN0
  6
CONTINUOUS
 62
3
100
AcDbLine
 10
1447.413211769012
 20
579.8332614524456
 30
0.0000000000000000
 11
1448.613211768980
 21
579.8332614524463
 31
0.0000000000000000
  0
LINE
  5
126
100
AcDbEntity
  8
MAIN0
  6
CONTINUOUS
 62
3
100
AcDbLine
 10
1302.863211769025
 20
497.5960648575797
 30
0.0000000000000000
 11
1302.863211769027
 21
499.7332614523653
 31
0.0000000000000000
  0
ARC
  5
127
100
AcDbEntity
  8
MAIN0
  6
CONTINUOUS
 62
3
100
AcDbCircle
 10
1307.613211769030
 20
504.0332614523679
 30
0.0000000000000000
 40
8.000000000000000
100
AcDbArc
 50
233.5764263576238
 51
306.4235736422858
  0
LINE
  5
128
100
AcDbEntity
  8
MAIN0
  6
CENTER
 62
3
100
AcDbLine
 10
1307.613211769023
 20
495.3033679221683
 30
0.0000000000000000
 11
1307.613211769034
 21
509.1599138599942
 31
0.0000000000000000
  0
LINE
  5
129
100
AcDbEntity
  8
MAIN0
  6
CONTINUOUS
 62
3
100
AcDbLine
 10
1312.363211769026
 20
497.5960648575723
 30
0.0000000000000000
 11
1312.363211769027
 21
499.7332614523706
 31
0.0000000000000000
  0
LINE
  5
12A
100
AcDbEntity
  8
MAIN0
  6
CONTINUOUS
 62
3
100
AcDbLine
 10
1434.863211769026
 20
497.5960648576529
 30
0.0000000000000000
 11
1434.863211769027
 21
499.7332614524385
 31
0.0000000000000000
  0
ARC
  5
12B
100
AcDbEntity
  8
MAIN0
  6
CONTINUOUS
 62
3
100
AcDbCircle
 10
1439.613211769030
 20
504.0332614524411
 30
0.0000000000000000
 40
8.000000000000000
100
AcDbArc
 50
233.5764263576238
 51
306.4235736422858
  0
LINE
  5
12C
100
AcDbEntity
  8
MAIN0
  6
CENTER
 62
3
100
AcDbLine
 10
1439.613211769024
 20
495.3033679222415
 30
0.0000000000000000
 11
1439.613211769034
 21
509.1599138600673
 31
0.0000000000000000
  0
LINE
  5
12D
100
AcDbEntity
  8
MAIN0
  6
CONTINUOUS
 62
3
100
AcDbLine
 10
1444.363211769026
 20
497.5960648576454
 30
0.0000000000000000
 11
1444.363211769027
 21
499.7332614524437
 31
0.0000000000000000
  0
LINE
  5
12E
100
AcDbEntity
  8
MAIN0
  6
CONTINUOUS
 62
3
100
AcDbLine
 10
1364.613211769029
 20
491.0332614523997
 30
0.0000000000000000
 11
1364.613211769028
 21
496.0332614523997
 31
0.0000000000000000
  0
LINE
  5
12F
100
AcDbEntity
  8
MAIN0
  6
CONTINUOUS
 62
3
100
AcDbLine
 10
1382.613211769029
 20
491.0332614524097
 30
0.0000000000000000
 11
1382.613211769028
 21
496.0332614524097
 31
0.0000000000000000
  0
LINE
  5
130
100
AcDbEntity
  8
MAIN0
  6
CONTINUOUS
 62
3
100
AcDbLine
 10
1364.613211769028
 20
496.0332614523997
 30
0.0000000000000000
 11
1382.613211769028
 21
496.0332614524097
 31
0.0000000000000000
  0
LINE
  5
131
100
AcDbEntity
  8
MAIN0
  6
CONTINUOUS
 62
3
100
AcDbLine
 10
1310.613211769029
 20
491.0332614523697
 30
0.0000000000000000
 11
1364.613211769029
 21
491.0332614523997
 31
0.0000000000000000
  0
LINE
  5
132
100
AcDbEntity
  8
MAIN0
  6
CONTINUOUS
 62
3
100
AcDbLine
 10
1382.613211769029
 20
491.0332614524097
 30
0.0000000000000000
 11
1436.613211769029
 21
491.0332614524397
 31
0.0000000000000000
  0
LINE
  5
133
100
AcDbEntity
  8
MAIN0
  6
CONTINUOUS
 62
3
100
AcDbLine
 10
1411.113211769030
 20
486.0332614524256
 30
0.0000000000000000
 11
1436.113211769030
 21
486.0332614524394
 31
0.0000000000000000
  0
LINE
  5
134
100
AcDbEntity
  8
MAIN0
  6
CENTER
 62
3
100
AcDbLine
 10
1323.613211769030
 20
486.0332614524066
 30
0.0000000000000000
 11
1323.613211769027
 21
502.0332614523612
 31
0.0000000000000000
  0
LINE
  5
135
100
AcDbEntity
  8
MAIN0
  6
CENTER
 62
3
100
AcDbLine
 10
1423.613211769030
 20
486.0332614524397
 30
0.0000000000000000
 11
1423.613211769027
 21
502.0332614524394
 31
0.0000000000000000
  0
LINE
  5
136
100
AcDbEntity
  8
MAIN0
  6
CONTINUOUS
 62
3
100
AcDbLine
 10
1336.113211769030
 20
486.0332614524108
 30
0.0000000000000000
 11
1311.113211769030
 21
486.0332614524149
 31
0.0000000000000000
  0
LINE
  5
137
100
AcDbEntity
  8
MAIN0
  6
CENTER
 62
3
100
AcDbLine
 10
1287.613211769017
 20
551.0332614523418
 30
0.0000000000000000
 11
1287.613211769072
 21
259.9430442763415
 31
0.0000000000000000
  0
LINE
  5
138
100
AcDbEntity
  8
MAIN0
  6
DASHED
 62
3
100
AcDbLine
 10
1310.613211769017
 20
512.0332614523629
 30
0.0000000000000000
 11
1316.613211769025
 21
512.0332614523663
 31
0.0000000000000000
  0
LINE
  5
139
100
AcDbEntity
  8
MAIN0
  6
DASHED
 62
3
100
AcDbLine
 10
1316.613211769025
 20
512.0332614523663
 30
0.0000000000000000
 11
1316.613211769023
 21
521.0332614523665
 31
0.0000000000000000
  0
LINE
  5
13A
100
AcDbEntity
  8
MAIN0
  6
CONTINUOUS
 62
3
100
AcDbLine
 10
1239.613211769023
 20
521.0332614523236
 30
0.0000000000000000
 11
1298.613211769023
 21
521.0332614523560
 31
0.0000000000000000
  0
LINE
  5
13B
100
AcDbEntity
  8
MAIN0
  6
DASHED
 62
3
100
AcDbLine
 10
1298.613211769023
 20
521.0332614523625
 30
0.0000000000000000
 11
1316.613211769023
 21
521.0332614523725
 31
0.0000000000000000
  0
LINE
  5
13C
100
AcDbEntity
  8
MAIN0
  6
CONTINUOUS
 62
3
100
AcDbLine
 10
1272.613211769035
 20
480.0332614523420
 30
0.0000000000000000
 11
1302.613211769035
 21
480.0332614523585
 31
0.0000000000000000
  0
LINE
  5
13D
100
AcDbEntity
  8
MAIN0
  6
CONTINUOUS
 62
3
100
AcDbLine
 10
1272.613211769038
 20
461.0332614523420
 30
0.0000000000000000
 11
1302.613211769038
 21
461.0332614523585
 31
0.0000000000000000
  0
LINE
  5
13E
100
AcDbEntity
  8
MAIN0
  6
CONTINUOUS
 62
3
100
AcDbLine
 10
1272.613211769035
 20
480.0332614523420
 30
0.0000000000000000
 11
1272.613211769038
 21
461.0332614523420
 31
0.0000000000000000
  0
LINE
  5
13F
100
AcDbEntity
  8
MAIN0
  6
CONTINUOUS
 62
3
100
AcDbLine
 10
1302.613211769035
 20
480.0332614523585
 30
0.0000000000000000
 11
1302.613211769038
 21
461.0332614523584
 31
0.0000000000000000
  0
LINE
  5
140
100
AcDbEntity
  8
MAIN0
  6
CONTINUOUS
 62
3
100
AcDbLine
 10
1272.613211769032
 20
472.0332614523420
 30
0.0000000000000000
 11
1302.613211769032
 21
472.0332614523585
 31
0.0000000000000000
  0
LINE
  5
141
100
AcDbEntity
  8
MAIN0
  6
CONTINUOUS
 62
3
100
AcDbLine
 10
653.3153088226645
 20
491.0332614515721
 30
0.0000000000000000
 11
653.3153088227430
 21
591.0332614520609
 31
0.0000000000000000
  0
LINE
  5
142
100
AcDbEntity
  8
MAIN0
  6
DASHED
 62
3
100
AcDbLine
 10
653.3153088231297
 20
1034.182304755148
 30
0.0000000000000000
 11
672.0214575448995
 21
1044.982304755154
 31
0.0000000000000000
  0
LINE
  5
143
100
AcDbEntity
  8
MAIN0
  6
DASHED
 62
3
100
AcDbLine
 10
653.3153088230308
 20
908.1823047552680
 30
0.0000000000000000
 11
672.0214575449834
 21
897.3823047551543
 31
0.0000000000000000
  0
LINE
  5
144
100
AcDbEntity
  8
MAIN0
  6
DASHED
 62
3
100
AcDbLine
 10
637.5153088232398
 20
1044.982304755154
 30
0.0000000000000000
 11
796.3153088230989
 21
1044.982304755154
 31
0.0000000000000000
  0
LINE
  5
145
100
AcDbEntity
  8
MAIN0
  6
DASHED
 62
3
100
AcDbLine
 10
637.5153088231241
 20
897.3823047551542
 30
0.0000000000000000
 11
796.3153088229831
 21
897.3823047551542
 31
0.0000000000000000
  0
LINE
  5
146
100
AcDbEntity
  8
MAIN0
  6
DASHED
 62
3
100
AcDbLine
 10
637.5153088231241
 20
897.3823047551542
 30
0.0000000000000000
 11
637.5153088232398
 21
1044.982304755154
 31
0.0000000000000000
  0
LINE
  5
147
100
AcDbEntity
  8
MAIN0
  6
CONTINUOUS
 62
3
100
AcDbLine
 10
288.3153088232313
 20
1034.182304755154
 30
0.0000000000000000
 11
636.3153088232314
 21
1034.182304755154
 31
0.0000000000000000
  0
LINE
  5
148
100
AcDbEntity
  8
MAIN0
  6
DASHED
 62
3
100
AcDbLine
 10
636.3153088232314
 20
1034.182304755154
 30
0.0000000000000000
 11
653.3153088231297
 21
1034.182304755154
 31
0.0000000000000000
  0
LINE
  5
149
100
AcDbEntity
  8
MAIN0
  6
CONTINUOUS
 62
3
100
AcDbLine
 10
288.3153088231326
 20
908.1823047551543
 30
0.0000000000000000
 11
636.3153088231327
 21
908.1823047551543
 31
0.0000000000000000
  0
LINE
  5
14A
100
AcDbEntity
  8
MAIN0
  6
DASHED
 62
3
100
AcDbLine
 10
636.3153088231327
 20
908.1823047551543
 30
0.0000000000000000
 11
653.3153088230308
 21
908.1823047551543
 31
0.0000000000000000
  0
DIMENSION
  5
153
100
AcDbEntity
  8
MAIN0
  6
CONTINUOUS
 62
3
100
AcDbDimension
  2
*D0
 10
1448.613211768991
 20
692.1015920481182
 30
0.0000000000000000
 11
1373.613211768996
 21
692.6015920481182
 31
0.0000000000000000
 70
32
  3
MAIN001
100
AcDbAlignedDimension
 13
1298.613211769001
 23
631.0332614523632
 33
0.0000000000000000
 14
1448.613211769001
 24
631.0332614524463
 34
0.0000000000000000
100
AcDbRotatedDimension
1001
ACAD
1000
DSTYLE
1002
{
1070
   173
1070
     1
1070
     6
1000
_OPEN
1070
     7
1000
_OPEN
1070
    41
1040
8.000000
1002
}
  0
LINE
  5
154
100
AcDbEntity
  8
MAIN0
  6
CONTINUOUS
 62
3
100
AcDbLine
 10
1436.613211769029
 20
491.0332614524440
 30
0.0000000000000000
 11
1436.613211769028
 21
496.6170629653465
 31
0.0000000000000000
  0
LINE
  5
155
100
AcDbEntity
  8
MAIN0
  6
CONTINUOUS
 62
3
100
AcDbLine
 10
1310.613211769029
 20
491.0332614523655
 30
0.0000000000000000
 11
1310.613211769028
 21
496.6170629652712
 31
0.0000000000000000
  0
LINE
  5
156
100
AcDbEntity
  8
MAIN0
  6
CONTINUOUS
 62
3
100
AcDbLine
 10
1436.113211769030
 20
486.0332614524396
 30
0.0000000000000000
 11
1436.113211769029
 21
491.0332614524396
 31
0.0000000000000000
  0
LINE
  5
157
100
AcDbEntity
  8
MAIN0
  6
CONTINUOUS
 62
3
100
AcDbLine
 10
1411.113211769030
 20
486.0332614524348
 30
0.0000000000000000
 11
1411.113211769029
 21
491.0332614524348
 31
0.0000000000000000
  0
LINE
  5
158
100
AcDbEntity
  8
MAIN0
  6
CONTINUOUS
 62
3
100
AcDbLine
 10
1311.113211769030
 20
486.0332614524151
 30
0.0000000000000000
 11
1311.113211769029
 21
491.0332614524151
 31
0.0000000000000000
  0
LINE
  5
159
100
AcDbEntity
  8
MAIN0
  6
CONTINUOUS
 62
3
100
AcDbLine
 10
1336.113211769030
 20
486.0332614524201
 30
0.0000000000000000
 11
1336.113211769029
 21
491.0332614524201
 31
0.0000000000000000
  0
LINE
  5
15A
100
AcDbEntity
  8
MAIN0
  6
DASHED
 62
3
100
AcDbLine
 10
1310.613211769017
 20
512.0332614523629
 30
0.0000000000000000
 11
1310.613211769033
 21
501.0332614523625
 31
0.0000000000000000
  0
LINE
  5
15B
100
AcDbEntity
  8
MAIN0
  6
CONTINUOUS
 62
3
100
AcDbLine
 10
1263.111079353552
 20
501.0332614523364
 30
0.0000000000000000
 11
1298.613211769027
 21
501.0332614523559
 31
0.0000000000000000
  0
LINE
  5
15C
100
AcDbEntity
  8
MAIN0
  6
DASHED
 62
3
100
AcDbLine
 10
1298.613211769027
 20
501.0332614523559
 30
0.0000000000000000
 11
1310.613211769033
 21
501.0332614523625
 31
0.0000000000000000
  0
DIMENSION
  5
165
100
AcDbEntity
  8
MAIN0
  6
CONTINUOUS
 62
3
100
AcDbDimension
  2
*D1
 10
1298.613211769027
 20
344.8790701463596
 30
0.0000000000000000
 11
1373.613211769027
 21
345.3790701463596
 31
0.0000000000000000
 70
32
  3
MAIN001
100
AcDbAlignedDimension
 13
1448.613211769027
 23
499.7332614524461
 33
0.0000000000000000
 14
1298.613211769027
 24
499.7332614523631
 34
0.0000000000000000
100
AcDbRotatedDimension
1001
ACAD
1000
DSTYLE
1002
{
1070
   173
1070
     1
1070
     6
1000
_OPEN
1070
     7
1000
_OPEN
1070
    41
1040
8.000000
1002
}
  0
DIMENSION
  5
16E
100
AcDbEntity
  8
MAIN0
  6
CONTINUOUS
 62
3
100
AcDbDimension
  2
*D2
 10
367.3153088227743
 20
691.6015920481182
 30
0.0000000000000000
 11
328.3153088227743
 21
692.1015920481182
 31
0.0000000000000000
 70
32
  3
MAIN001
100
AcDbAlignedDimension
 13
289.3153088227743
 23
630.5332614518576
 33
0.0000000000000000
 14
367.3153088227743
 24
630.5332614519023
 34
0.0000000000000000
100
AcDbRotatedDimension
1001
ACAD
1000
DSTYLE
1002
{
1070
   173
1070
     1
1070
     6
1000
_OPEN
1070
     7
1000
_OPEN
1070
    41
1040
8.000000
1002
}
  0
DIMENSION
  5
179
100
AcDbEntity
  8
MAIN0
  6
CONTINUOUS
 62
3
100
AcDbDimension
  2
*D3
 10
288.3153088227429
 20
692.1015920481182
 30
0.0000000000000000
 11
264.6408465807883
 21
694.1015920481182
 31
0.0000000000000000
 70
160
  3
MAIN001
100
AcDbAlignedDimension
 13
289.3153088227743
 23
630.5332614518576
 33
0.0000000000000000
 14
288.3153088227429
 24
591.0332614518585
 34
0.0000000000000000
100
AcDbRotatedDimension
1001
ACAD
1000
DSTYLE
1002
{
1070
   173
1070
     1
1070
     6
1000
_OPEN
1070
     7
1000
_OPEN
1070
    41
1040
8.000000
1070
   287
1070
     0
1002
}
  0
DIMENSION
  5
184
100
AcDbEntity
  8
MAIN0
  6
CONTINUOUS
 62
3
100
AcDbDimension
  2
*D4
 10
424.3153088226605
 20
444.6116278209722
 30
0.0000000000000000
 11
455.7084494692123
 21
446.6116278209722
 31
0.0000000000000000
 70
160
  3
MAIN001
100
AcDbAlignedDimension
 13
442.3153088226605
 23
486.0332614519438
 33
0.0000000000000000
 14
424.3153088226605
 24
486.0332614519336
 34
0.0000000000000000
100
AcDbRotatedDimension
1001
ACAD
1000
DSTYLE
1002
{
1070
   173
1070
     1
1070
     6
1000
_OPEN
1070
     7
1000
_OPEN
1070
    41
1040
8.000000
1070
   287
1070
     0
1002
}
  0
DIMENSION
  5
18D
100
AcDbEntity
  8
MAIN0
  6
CONTINUOUS
 62
3
100
AcDbDimension
  2
*D5
 10
367.3153088227743
 20
692.1015920481182
 30
0.0000000000000000
 11
464.8153088227742
 21
692.6015920481182
 31
0.0000000000000000
 70
32
  1
\A1;MAX195
  3
MAIN001
100
AcDbAlignedDimension
 13
562.3153088227741
 23
631.0332614520103
 33
0.0000000000000000
 14
367.3153088227743
 24
630.5332614519023
 34
0.0000000000000000
100
AcDbRotatedDimension
1001
ACAD
1000
DSTYLE
1002
{
1070
   173
1070
     1
1070
     6
1000
_OPEN
1070
     7
1000
_OPEN
1070
    41
1040
8.000000
1002
}
  0
LINE
  5
18E
100
AcDbEntity
  8
MAIN0
  6
CENTER
 62
3
100
AcDbLine
 10
815.5996926184846
 20
556.0332614521507
 30
0.0000000000000000
 11
845.6629397334975
 21
556.0332614521674
 31
0.0000000000000000
  0
DIMENSION
  5
197
100
AcDbEntity
  8
MAIN0
  6
CONTINUOUS
 62
3
100
AcDbDimension
  2
*D6
 10
1001.651525741730
 20
491.0332614520608
 30
0.0000000000000000
 11
1001.151525741730
 21
561.0332614521004
 31
0.0000000000000000
 70
32
  3
MAIN001
100
AcDbAlignedDimension
 13
796.3153088227741
 23
631.0332614521400
 33
0.0000000000000000
 14
653.3153088226644
 24
491.0332614520608
 34
0.0000000000000000
 50
90.00000000000000
100
AcDbRotatedDimension
1001
ACAD
1000
DSTYLE
1002
{
1070
   173
1070
     1
1070
     6
1000
_OPEN
1070
     7
1000
_OPEN
1070
    41
1040
8.000000
1002
}
  0
DIMENSION
  5
1A2
100
AcDbEntity
  8
MAIN0
  6
CONTINUOUS
 62
3
100
AcDbDimension
  2
*D7
 10
859.1484220683615
 20
491.0332614520608
 30
0.0000000000000000
 11
857.1484220683615
 21
504.1464325802904
 31
0.0000000000000000
 70
160
  3
MAIN001
100
AcDbAlignedDimension
 13
816.3153088226684
 23
496.0332614521510
 33
0.0000000000000000
 14
653.3153088226644
 24
491.0332614520608
 34
0.0000000000000000
 50
90.00000000000000
100
AcDbRotatedDimension
1001
ACAD
1000
DSTYLE
1002
{
1070
   173
1070
     1
1070
     6
1000
_OPEN
1070
     7
1000
_OPEN
1070
    41
1040
8.000000
1070
   287
1070
     0
1002
}
  0
DIMENSION
  5
1AB
100
AcDbEntity
  8
MAIN0
  6
CONTINUOUS
 62
3
100
AcDbDimension
  2
*D8
 10
969.6955876950046
 20
491.0332614520608
 30
0.0000000000000000
 11
969.1955876950046
 21
523.5332614521141
 31
0.0000000000000000
 70
32
  3
MAIN001
100
AcDbAlignedDimension
 13
845.6629397334978
 23
556.0332614521674
 33
0.0000000000000000
 14
653.3153088226644
 24
491.0332614520608
 34
0.0000000000000000
 50
90.00000000000000
100
AcDbRotatedDimension
1001
ACAD
1000
DSTYLE
1002
{
1070
   173
1070
     1
1070
     6
1000
_OPEN
1070
     7
1000
_OPEN
1070
    41
1040
8.000000
1002
}
  0
LEADER
  5
1AC
100
AcDbEntity
  8
MAIN0
  6
CONTINUOUS
 62
3
100
AcDbLeader
  3
MAIN001
 73
     0
 75
     1
 40
12.39999961853027
 41
82.11900226974501
 76
     3
 10
616.8867530703822
 20
568.8248403632623
 30
0.0000000000000000
 10
563.2597229151933
 20
730.3021152542369
 30
0.0000000000000000
 10
555.5547231383531
 20
730.3021152542369
 30
0.0000000000000000
340
1AD
213
0.0000000000000000
223
-2.000000000000000
233
0.0000000000000000
1001
ACAD
1000
DSTYLE
1002
{
1070
   147
1040
0.0
1070
    77
1070
     1
1070
   173
1070
     1
1070
     6
1000
_OPEN
1070
     7
1000
_OPEN
1002
}
  0
MTEXT
  5
1AD
102
{ACAD_REACTORS
330
1AC
102
}
100
AcDbEntity
  8
MAIN0
  6
CONTINUOUS
 62
3
100
AcDbMText
 10
473.4357208686081
 20
744.7021148727672
 30
0.0000000000000000
 40
12.39999961853027
 41
0.0000000000000000
 71
     1
 72
     1
  1
{\H0.93x;{2×2－M10}}
 11
1.000000000000000
 21
0.0000000000000000
 31
0.0000000000000000
  7
KNJYOKO
  0
POLYLINE
  5
1AE
100
AcDbEntity
  8
MAIN0
  6
CONTINUOUS
 62
3
100
AcDb2dPolyline
 66
     1
 10
0.0000000000000000
 20
0.0000000000000000
 30
0.0000000000000000
 70
     1
 40
2.000000000000000
 41
2.000000000000000
  0
VERTEX
  5
1AF
100
AcDbEntity
  8
MAIN0
  6
CONTINUOUS
 62
3
100
AcDbVertex
100
AcDb2dVertex
 10
888.8107534932208
 20
598.1608945403214
 30
0.0000000000000000
 42
1.000000000000000
  0
VERTEX
  5
1B0
100
AcDbEntity
  8
MAIN0
  6
CONTINUOUS
 62
3
100
AcDbVertex
100
AcDb2dVertex
 10
886.8107534932208
 20
598.1608945403214
 30
0.0000000000000000
 42
1.000000000000000
  0
SEQEND
  5
1B1
100
AcDbEntity
  8
MAIN0
  6
CONTINUOUS
 62
3
  0
LEADER
  5
1B2
100
AcDbEntity
  8
MAIN0
  6
CONTINUOUS
 62
3
100
AcDbLeader
  3
MAIN001
 73
     0
 74
     0
 75
     1
 40
12.39999961853027
 41
109.8410025367737
 76
     3
 10
887.8107534932208
 20
598.1608945403214
 30
0.0000000000000000
 10
858.3294221837317
 20
674.7048587731381
 30
0.0000000000000000
 10
866.0324219605719
 20
674.7048587731381
 30
0.0000000000000000
340
1B3
213
0.0000000000000000
223
-2.000000000000000
233
0.0000000000000000
1001
ACAD
1000
DSTYLE
1002
{
1070
   147
1040
0.0
1070
    77
1070
     1
1070
   173
1070
     1
1070
     6
1000
_DOT
1070
     7
1000
_DOT
1002
}
  0
MTEXT
  5
1B3
102
{ACAD_REACTORS
330
1B2
102
}
100
AcDbEntity
  8
MAIN0
  6
CONTINUOUS
 62
3
100
AcDbMText
 10
866.0334219605719
 20
689.1048583916684
 30
0.0000000000000000
 40
12.39999961853027
 41
0.0000000000000000
 71
     1
 72
     1
  1
{\H0.93x;{にぎりは取外し可}}
 11
1.000000000000000
 21
0.0000000000000000
 31
0.0000000000000000
  7
KNJYOKO
  0
LEADER
  5
1B4
100
AcDbEntity
  8
MAIN0
  6
CONTINUOUS
 62
3
100
AcDbLeader
  3
MAIN001
 73
     0
 74
     0
 75
     1
 40
12.39999961853027
 41
173.1900854244967
 76
     3
 10
808.1863051658384
 20
573.5141574544562
 30
0.0000000000000000
 10
772.5152107814193
 20
729.9315754257004
 30
0.0000000000000000
 10
780.2182105582596
 20
729.9315754257004
 30
0.0000000000000000
340
1B5
213
2.929918871806081
223
-2.000000000000000
233
0.0000000000000000
1001
ACAD
1000
DSTYLE
1002
{
1070
   147
1040
0.0
1070
    77
1070
     1
1070
   173
1070
     1
1070
     6
1000
_OPEN
1070
     7
1000
_OPEN
1002
}
  0
MTEXT
  5
1B5
102
{ACAD_REACTORS
330
1B4
102
}
100
AcDbEntity
  8
MAIN0
  6
CONTINUOUS
 62
3
100
AcDbMText
 10
777.2882916864535
 20
744.3315750442307
 30
0.0000000000000000
 40
12.39999961853027
 41
0.0000000000000000
 71
     1
 72
     1
  1
{\H0.91x;{締め側エア供給口，Rｃ1/4\P(反対側共2ヶ所）}}
 11
1.000000000000000
 21
0.0000000000000000
 31
0.0000000000000000
  7
KNJYOKO
  0
LEADER
  5
1B6
100
AcDbEntity
  8
MAIN0
  6
CONTINUOUS
 62
3
100
AcDbLeader
  3
MAIN001
 73
     0
 75
     1
 40
12.39999961853027
 41
110.0790032615662
 76
     3
 10
1313.733808009608
 20
602.4699181926886
 30
0.0000000000000000
 10
1217.086150406213
 20
749.0928614649940
 30
0.0000000000000000
 10
1209.381150629373
 20
749.0928614649940
 30
0.0000000000000000
340
1B7
213
0.0000000000000000
223
-2.000000000000000
233
0.0000000000000000
1001
ACAD
1000
DSTYLE
1002
{
1070
   147
1040
0.0
1070
    77
1070
     1
1070
   173
1070
     1
1070
     6
1000
_OPEN
1070
     7
1000
_OPEN
1002
}
  0
MTEXT
  5
1B7
102
{ACAD_REACTORS
330
1B6
102
}
100
AcDbEntity
  8
MAIN0
  6
CONTINUOUS
 62
3
100
AcDbMText
 10
1099.302147367806
 20
763.4928610835243
 30
0.0000000000000000
 40
12.39999961853027
 41
0.0000000000000000
 71
     1
 72
     1
  1
{\H0.93x;{ロックバルブ\PLOCK VALVE}}
 11
1.000000000000000
 21
0.0000000000000000
 31
0.0000000000000000
  7
KNJYOKO
  0
LEADER
  5
1B8
100
AcDbEntity
  8
MAIN0
  6
CONTINUOUS
 62
3
100
AcDbLeader
  3
MAIN001
 73
     0
 75
     1
 40
12.39999961853027
 41
107.0790025463105
 76
     3
 10
1248.792060573049
 20
503.6492857242846
 30
0.0000000000000000
 10
1210.383574249055
 20
415.7414168204801
 30
0.0000000000000000
 10
1202.678574472215
 20
415.7414168204801
 30
0.0000000000000000
340
1B9
213
0.0000000000000000
223
-2.000000000000000
233
0.0000000000000000
1001
ACAD
1000
DSTYLE
1002
{
1070
   147
1040
0.0
1070
    77
1070
     1
1070
   173
1070
     1
1070
     6
1000
_DOT
1070
     7
1000
_DOT
1002
}
  0
MTEXT
  5
1B9
102
{ACAD_REACTORS
330
1B8
102
}
100
AcDbEntity
  8
MAIN0
  6
CONTINUOUS
 62
3
100
AcDbMText
 10
1095.599571925905
 20
430.1414164390104
 30
0.0000000000000000
 40
12.39999961853027
 41
0.0000000000000000
 71
     1
 72
     1
  1
{\H0.93x;{クランプ\P（4セット付属）}}
 11
1.000000000000000
 21
0.0000000000000000
 31
0.0000000000000000
  7
KNJYOKO
  0
LEADER
  5
1BA
100
AcDbEntity
  8
MAIN0
  6
CONTINUOUS
 62
3
100
AcDbLeader
  3
MAIN001
 73
     0
 75
     1
 40
12.39999961853027
 41
68.19900195503237
 76
     3
 10
1281.500795496640
 20
529.0611346642862
 30
0.0000000000000000
 10
1226.444022264326
 20
617.3394409336363
 30
0.0000000000000000
 10
1218.739022487486
 20
617.3394409336363
 30
0.0000000000000000
340
1BB
213
0.0000000000000000
223
-2.000000000000000
233
0.0000000000000000
1001
ACAD
1000
DSTYLE
1002
{
1070
   147
1040
0.0
1070
    77
1070
     1
1070
   173
1070
     1
1070
     6
1000
_DOT
1070
     7
1000
_DOT
1002
}
  0
MTEXT
  5
1BB
102
{ACAD_REACTORS
330
1BA
102
}
100
AcDbEntity
  8
MAIN0
  6
CONTINUOUS
 62
3
100
AcDbMText
 10
1150.540020532453
 20
631.7394405521666
 30
0.0000000000000000
 40
12.39999961853027
 41
0.0000000000000000
 71
     1
 72
     1
  1
{\H0.92x;{M16×65}}
 11
1.000000000000000
 21
0.0000000000000000
 31
0.0000000000000000
  7
KNJYOKO
  0
MTEXT
  5
1BC
100
AcDbEntity
  8
MAIN0
  6
CONTINUOUS
 62
3
100
AcDbMText
 10
1310.158998334578
 20
341.1368806776524
 30
0.0000000000000000
 40
12.39999961853027
 41
0.0000000000000000
 71
     1
 72
     1
  1
{\H0.94x;{（エアユニット幅）}}
 11
1.000000000000000
 21
0.0000000000000000
 31
0.0000000000000000
  7
KNJYOKO
  0
MTEXT
  5
1BD
100
AcDbEntity
  8
MAIN0
  6
CONTINUOUS
 62
3
100
AcDbMText
 10
1319.498091712841
 20
690.1887862856604
 30
0.0000000000000000
 40
12.39999961853027
 41
0.0000000000000000
 71
     1
 72
     1
  1
{\H0.93x;{（カバー幅寸法）}}
 11
1.000000000000000
 21
0.0000000000000000
 31
0.0000000000000000
  7
KNJYOKO
  0
LINE
  5
1BE
100
AcDbEntity
  8
MAIN0
  6
CONTINUOUS
 62
3
100
AcDbLine
 10
502.3153088231584
 20
941.1823047551543
 30
0.0000000000000000
 11
502.3153088232055
 21
1001.182304755154
 31
0.0000000000000000
  0
LINE
  5
1BF
100
AcDbEntity
  8
MAIN0
  6
CONTINUOUS
 62
3
100
AcDbLine
 10
452.3153088231584
 20
941.1823047551543
 30
0.0000000000000000
 11
452.3153088232055
 21
1001.182304755154
 31
0.0000000000000000
  0
LINE
  5
1C0
100
AcDbEntity
  8
MAIN0
  6
CONTINUOUS
 62
3
100
AcDbLine
 10
402.3153088231584
 20
941.1823047551543
 30
0.0000000000000000
 11
402.3153088232055
 21
1001.182304755154
 31
0.0000000000000000
  0
DIMENSION
  5
1C9
100
AcDbEntity
  8
MAIN0
  6
CONTINUOUS
 62
3
100
AcDbDimension
  2
*D9
 10
192.1735933065331
 20
630.5332614518590
 30
0.0000000000000000
 11
191.6735933065331
 21
560.7832614518586
 31
0.0000000000000000
 70
32
  3
MAIN001
100
AcDbAlignedDimension
 13
288.3153088226646
 23
491.0332614518584
 33
0.0000000000000000
 14
289.3153088227744
 24
630.5332614518590
 34
0.0000000000000000
 50
90.00000000000000
100
AcDbRotatedDimension
1001
ACAD
1000
DSTYLE
1002
{
1070
   173
1070
     1
1070
     6
1000
_OPEN
1070
     7
1000
_OPEN
1070
    41
1040
8.000000
1002
}
  0
DIMENSION
  5
1D2
100
AcDbEntity
  8
MAIN0
  6
CONTINUOUS
 62
3
100
AcDbDimension
  2
*D10
 10
226.2423031360381
 20
591.0332614518585
 30
0.0000000000000000
 11
225.7423031360381
 21
541.0332614518584
 31
0.0000000000000000
 70
32
  3
MAIN001
100
AcDbAlignedDimension
 13
288.3153088226646
 23
491.0332614518584
 33
0.0000000000000000
 14
288.3153088226090
 24
591.0332614518585
 34
0.0000000000000000
 50
90.00000000000000
100
AcDbRotatedDimension
1001
ACAD
1000
DSTYLE
1002
{
1070
   173
1070
     1
1070
     6
1000
_OPEN
1070
     7
1000
_OPEN
1070
    41
1040
8.000000
1002
}
  0
LEADER
  5
1D3
100
AcDbEntity
  8
MAIN0
  6
CONTINUOUS
 62
3
100
AcDbLeader
  3
MAIN001
 73
     0
 74
     0
 75
     1
 40
12.39999961853027
 41
171.6220646649316
 76
     3
 10
764.8498982225669
 20
558.2672928252396
 30
0.0000000000000000
 10
713.3153088226645
 20
801.0332614518584
 30
0.0000000000000000
 10
721.0183085995047
 20
801.0332614518584
 30
0.0000000000000000
340
1D4
213
3.117939636139568
223
-2.000000000000000
233
0.0000000000000000
1001
ACAD
1000
DSTYLE
1002
{
1070
   147
1040
0.0
1070
    77
1070
     1
1070
   173
1070
     1
1070
     6
1000
_OPEN
1070
     7
1000
_OPEN
1002
}
  0
MTEXT
  5
1D4
102
{ACAD_REACTORS
330
1D3
102
}
100
AcDbEntity
  8
MAIN0
  6
CONTINUOUS
 62
3
100
AcDbMText
 10
717.9003689633652
 20
815.4332610703887
 30
0.0000000000000000
 40
12.39999961853027
 41
0.0000000000000000
 71
     1
 72
     1
  1
{\H0.91x;{緩め側エア供給口,Rｃ1/4\P（反対側共2ヶ所）}}
 11
1.000000000000000
 21
0.0000000000000000
 31
0.0000000000000000
  7
KNJYOKO
  0
DIMENSION
  5
1DF
100
AcDbEntity
  8
MAIN0
  6
CONTINUOUS
 62
3
100
AcDbDimension
  2
*D11
 10
226.2423031360381
 20
630.5332614518590
 30
0.0000000000000000
 11
225.7423031360381
 21
610.7832614518587
 31
0.0000000000000000
 70
32
  3
MAIN001
100
AcDbAlignedDimension
 13
288.3153088226090
 23
591.0332614518585
 33
0.0000000000000000
 14
289.3153088227744
 24
630.5332614518590
 34
0.0000000000000000
 50
90.00000000000000
100
AcDbRotatedDimension
1001
ACAD
1000
DSTYLE
1002
{
1070
   173
1070
     1
1070
     6
1000
_OPEN
1070
     7
1000
_OPEN
1070
    41
1040
8.000000
1070
   287
1070
     0
1002
}
  0
LINE
  5
1E0
100
AcDbEntity
  8
MAIN0
  6
DASHED
 62
3
100
AcDbLine
 10
644.3153088225017
 20
939.1042748904629
 30
0.0000000000000000
 11
644.3153088225017
 21
1003.260334619845
 31
0.0000000000000000
  0
LINE
  5
1E1
100
AcDbEntity
  8
MAIN0
  6
DASHED
 62
3
100
AcDbLine
 10
687.0206206945895
 20
1043.182304755154
 30
0.0000000000000000
 11
796.3153088230976
 21
1043.182304755154
 31
0.0000000000000000
  0
LINE
  5
1E2
100
AcDbEntity
  8
MAIN0
  6
DASHED
 62
3
100
AcDbLine
 10
687.0206206945895
 20
899.1823047551543
 30
0.0000000000000000
 11
796.3153088229844
 21
899.1823047551543
 31
0.0000000000000000
  0
ARC
  5
1E3
100
AcDbEntity
  8
MAIN0
  6
DASHED
 62
3
100
AcDbCircle
 10
714.3153088225017
 20
971.1823047551543
 30
0.0000000000000000
 40
77.00000000000000
100
AcDbArc
 50
290.7613618052196
 51
429.2386381947804
  0
ARC
  5
1E4
100
AcDbEntity
  8
MAIN0
  6
DASHED
 62
3
100
AcDbCircle
 10
714.3153088225017
 20
971.1823047551543
 30
0.0000000000000000
 40
77.00000000000000
100
AcDbArc
 50
110.7613618052196
 51
155.3800226713425
  0
ARC
  5
1E5
100
AcDbEntity
  8
MAIN0
  6
DASHED
 62
3
100
AcDbCircle
 10
714.3153088225017
 20
971.1823047551543
 30
0.0000000000000000
 40
77.00000000000000
100
AcDbArc
 50
204.6199773286575
 51
249.2386381947805
  0
LINE
  5
1E6
100
AcDbEntity
  8
MAIN0
  6
DASHED
 62
3
100
AcDbLine
 10
653.3153088230308
 20
908.1823047551542
 30
0.0000000000000000
 11
653.3153088230433
 21
924.1929442565681
 31
0.0000000000000000
  0
LINE
  5
1E7
100
AcDbEntity
  8
MAIN0
  6
DASHED
 62
3
100
AcDbLine
 10
653.3153088231171
 20
1018.171665253836
 30
0.0000000000000000
 11
653.3153088231297
 21
1034.182304755154
 31
0.0000000000000000
  0
LINE
  5
1E8
100
AcDbEntity
  8
MAIN0
  6
CONTINUOUS
 62
3
100
AcDbLine
 10
827.3153088226841
 20
516.0621182826126
 30
0.0000000000000000
 11
838.3153088226841
 21
516.0621182826034
 31
0.0000000000000000
  0
LINE
  5
1E9
100
AcDbEntity
  8
MAIN0
  6
CONTINUOUS
 62
3
100
AcDbLine
 10
827.3153088226857
 20
518.0621182819095
 30
0.0000000000000000
 11
838.3153088226857
 21
518.0621182819156
 31
0.0000000000000000
  0
LINE
  5
1EA
100
AcDbEntity
  8
MAIN0
  6
CONTINUOUS
 62
3
100
AcDbLine
 10
827.3153088226964
 20
531.8012106447222
 30
0.0000000000000000
 11
838.3153088226966
 21
531.8012106447252
 31
0.0000000000000000
  0
LINE
  5
1EB
100
AcDbEntity
  8
MAIN0
  6
CONTINUOUS
 62
3
100
AcDbLine
 10
827.3153088226991
 20
535.2653122603197
 30
0.0000000000000000
 11
838.3153088226993
 21
535.2653122603135
 31
0.0000000000000000
  0
LINE
  5
1EC
100
AcDbEntity
  8
MAIN0
  6
CONTINUOUS
 62
3
100
AcDbLine
 10
827.3153088227139
 20
554.0332614526369
 30
0.0000000000000000
 11
838.3153088227141
 21
554.0332614526369
 31
0.0000000000000000
  0
LINE
  5
1ED
100
AcDbEntity
  8
MAIN0
  6
CONTINUOUS
 62
3
100
AcDbLine
 10
827.3153088227170
 20
558.0332614517020
 30
0.0000000000000000
 11
838.3153088227168
 21
558.0332614517141
 31
0.0000000000000000
  0
LINE
  5
1EE
100
AcDbEntity
  8
MAIN0
  6
CONTINUOUS
 62
3
100
AcDbLine
 10
827.3153088227316
 20
576.8012106444903
 30
0.0000000000000000
 11
838.3153088227318
 21
576.8012106444903
 31
0.0000000000000000
  0
LINE
  5
1EF
100
AcDbEntity
  8
MAIN0
  6
CONTINUOUS
 62
3
100
AcDbLine
 10
827.3153088227343
 20
580.2653122598522
 30
0.0000000000000000
 11
838.3153088227346
 21
580.2653122598522
 31
0.0000000000000000
  0
LINE
  5
1F0
100
AcDbEntity
  8
MAIN0
  6
CONTINUOUS
 62
3
100
AcDbLine
 10
827.3153088227452
 20
594.0044046226649
 30
0.0000000000000000
 11
838.3153088227450
 21
594.0044046226618
 31
0.0000000000000000
  0
LINE
  5
1F1
100
AcDbEntity
  8
MAIN0
  6
CONTINUOUS
 62
3
100
AcDbLine
 10
827.3153088227468
 20
596.0044046223134
 30
0.0000000000000000
 11
838.3153088227468
 21
596.0044046223179
 31
0.0000000000000000
  0
MTEXT
  5
1F2
100
AcDbEntity
  8
MAIN0
  6
CONTINUOUS
 62
3
100
AcDbMText
 10
449.4906261065320
 20
229.7961349909142
 30
0.0000000000000000
 40
12.39999961853027
 41
0.0000000000000000
 71
     1
 72
     1
  1
{\H0.94x;{※エア供給口は締め側、緩め側共\P　左右両側面の2方向に設けて\P　あるので、選択して使用下さい}}
 11
1.000000000000000
 21
0.0000000000000000
 31
0.0000000000000000
  7
KNJYOKO
  0
DIMENSION
  5
1FC
100
AcDbEntity
  8
MAIN0
  6
CONTINUOUS
 62
3
100
AcDbDimension
  2
*D12
 10
498.9620422193318
 20
486.0332614519438
 30
0.0000000000000000
 11
496.9620422193318
 21
472.2120329170872
 31
0.0000000000000000
 70
160
  3
MAIN001
100
AcDbAlignedDimension
 13
442.3153088226713
 23
491.0332614519438
 33
0.0000000000000000
 14
442.3153088226605
 24
486.0332614519438
 34
0.0000000000000000
 50
90.00000000000000
100
AcDbRotatedDimension
1001
ACAD
1000
DSTYLE
1002
{
1070
   173
1070
     1
1070
     6
1000
_OPEN
1070
     7
1000
_OPEN
1070
    41
1040
8.000000
1070
   287
1070
     0
1002
}
  0
DIMENSION
  5
205
100
AcDbEntity
  8
MAIN0
  6
CONTINUOUS
 62
3
100
AcDbDimension
  2
*D13
 10
198.3153088226645
 20
1033.432304755154
 30
0.0000000000000000
 11
197.8153088226645
 21
971.1823047551543
 31
0.0000000000000000
 70
32
  3
MAIN001
100
AcDbAlignedDimension
 13
289.3153088231333
 23
908.9323047551543
 33
0.0000000000000000
 14
289.3153088232309
 24
1033.432304755154
 34
0.0000000000000000
 50
90.00000000000000
100
AcDbRotatedDimension
1001
ACAD
1000
DSTYLE
1002
{
1070
   173
1070
     1
1070
     6
1000
_OPEN
1070
     7
1000
_OPEN
1070
    41
1040
8.000000
1002
}
  0
DIMENSION
  5
20C
100
AcDbEntity
  8
MAIN0
  6
CONTINUOUS
 62
3
100
AcDbDimension
  2
*D14
 10
484.4471561652778
 20
1034.182304755154
 30
0.0000000000000000
 11
483.9471561652778
 21
971.1823047551543
 31
0.0000000000000000
 70
32
  3
MAIN001
100
AcDbAlignedDimension
 13
636.3153088231327
 23
908.1823047551543
 33
0.0000000000000000
 14
636.3153088232314
 24
1034.182304755154
 34
0.0000000000000000
 50
90.00000000000000
100
AcDbRotatedDimension
1001
ACAD
1000
DSTYLE
1002
{
1070
   173
1070
     1
1070
     6
1000
_OPEN
1070
     7
1000
_OPEN
1070
    41
1040
8.000000
1002
}
  0
LINE
  5
20D
100
AcDbEntity
  8
MAIN0
  6
CENTER
 62
3
100
AcDbLine
 10
264.9055461265936
 20
971.1823047551543
 30
0.0000000000000000
 11
464.0471565467475
 21
971.1823047551543
 31
0.0000000000000000
  0
LINE
  5
20E
100
AcDbEntity
  8
MAIN0
  6
CONTINUOUS
 62
3
100
AcDbLine
 10
827.3153088231522
 20
933.2111615849065
 30
0.0000000000000000
 11
838.3153088231522
 21
933.2111615849126
 31
0.0000000000000000
  0
LINE
  5
20F
100
AcDbEntity
  8
MAIN0
  6
CONTINUOUS
 62
3
100
AcDbLine
 10
827.3153088231504
 20
931.2111615856095
 30
0.0000000000000000
 11
838.3153088231506
 21
931.2111615856004
 31
0.0000000000000000
  0
LINE
  5
210
100
AcDbEntity
  8
MAIN0
  6
CONTINUOUS
 62
3
100
AcDbLine
 10
827.3153088231629
 20
946.9502539477192
 30
0.0000000000000000
 11
838.3153088231632
 21
946.9502539477223
 31
0.0000000000000000
  0
LINE
  5
211
100
AcDbEntity
  8
MAIN0
  6
CONTINUOUS
 62
3
100
AcDbLine
 10
827.3153088231657
 20
950.4143555633166
 30
0.0000000000000000
 11
838.3153088231657
 21
950.4143555633106
 31
0.0000000000000000
  0
LINE
  5
212
100
AcDbEntity
  8
MAIN0
  6
CONTINUOUS
 62
3
100
AcDbLine
 10
827.3153088231804
 20
969.1823047556338
 30
0.0000000000000000
 11
838.3153088231807
 21
969.1823047556338
 31
0.0000000000000000
  0
LINE
  5
213
100
AcDbEntity
  8
MAIN0
  6
CONTINUOUS
 62
3
100
AcDbLine
 10
827.3153088231836
 20
973.1823047546989
 30
0.0000000000000000
 11
838.3153088231834
 21
973.1823047547111
 31
0.0000000000000000
  0
LINE
  5
214
100
AcDbEntity
  8
MAIN0
  6
CONTINUOUS
 62
3
100
AcDbLine
 10
827.3153088231982
 20
991.9502539474872
 30
0.0000000000000000
 11
838.3153088231984
 21
991.9502539474872
 31
0.0000000000000000
  0
LINE
  5
215
100
AcDbEntity
  8
MAIN0
  6
CONTINUOUS
 62
3
100
AcDbLine
 10
827.3153088232009
 20
995.4143555628491
 30
0.0000000000000000
 11
838.3153088232011
 21
995.4143555628491
 31
0.0000000000000000
  0
LINE
  5
216
100
AcDbEntity
  8
MAIN0
  6
CONTINUOUS
 62
3
100
AcDbLine
 10
827.3153088232134
 20
1011.153447925310
 30
0.0000000000000000
 11
838.3153088232134
 21
1011.153447925315
 31
0.0000000000000000
  0
LINE
  5
217
100
AcDbEntity
  8
MAIN0
  6
CONTINUOUS
 62
3
100
AcDbLine
 10
827.3153088232118
 20
1009.153447925662
 30
0.0000000000000000
 11
838.3153088232116
 21
1009.153447925659
 31
0.0000000000000000
  0
LINE
  5
218
100
AcDbEntity
  8
MAIN0
  6
CONTINUOUS
 62
3
100
AcDbLine
 10
833.3153088218344
 20
972.7823047551542
 30
0.0000000000000000
 11
833.3153088218403
 21
969.5823047551542
 31
0.0000000000000000
  0
LINE
  5
219
100
AcDbEntity
  8
MAIN0
  6
CONTINUOUS
 62
3
100
AcDbLine
 10
801.3153088227225
 20
972.7823047551542
 30
0.0000000000000000
 11
833.3153088218344
 21
972.7823047551542
 31
0.0000000000000000
  0
LINE
  5
21A
100
AcDbEntity
  8
MAIN0
  6
CONTINUOUS
 62
3
100
AcDbLine
 10
796.3153088230397
 20
969.5823047551543
 30
0.0000000000000000
 11
833.3153088218403
 21
969.5823047551543
 31
0.0000000000000000
  0
LINE
  5
21B
100
AcDbEntity
  8
MAIN0
  6
CONTINUOUS
 62
3
100
AcDbLine
 10
827.3153088231466
 20
926.1823047551480
 30
0.0000000000000000
 11
827.3153088231807
 21
969.5823047551542
 31
0.0000000000000000
  0
LINE
  5
21C
100
AcDbEntity
  8
MAIN0
  6
CONTINUOUS
 62
3
100
AcDbLine
 10
827.3153088231832
 20
972.7823047551542
 30
0.0000000000000000
 11
827.3153088232173
 21
1016.182304755148
 31
0.0000000000000000
  0
LINE
  5
21D
100
AcDbEntity
  8
MAIN0
  6
CONTINUOUS
 62
3
100
AcDbLine
 10
1381.213211769007
 20
601.5752829539624
 30
0.0000000000000000
 11
1381.213211769007
 21
606.4185820714429
 31
0.0000000000000000
  0
LINE
  5
21E
100
AcDbEntity
  8
MAIN0
  6
CONTINUOUS
 62
3
100
AcDbLine
 10
1381.213211769007
 20
606.4185820714430
 30
0.0000000000000000
 11
1380.713211769007
 21
607.2846074752274
 31
0.0000000000000000
  0
LINE
  5
21F
100
AcDbEntity
  8
MAIN0
  6
CONTINUOUS
 62
3
100
AcDbLine
 10
1380.713211769007
 20
607.2846074752274
 30
0.0000000000000000
 11
1376.213211769007
 21
607.2846074752274
 31
0.0000000000000000
  0
LINE
  5
220
100
AcDbEntity
  8
MAIN0
  6
CONTINUOUS
 62
3
100
AcDbLine
 10
1380.713211769007
 20
601.4610625912449
 30
0.0000000000000000
 11
1380.713211769007
 21
607.2846074752274
 31
0.0000000000000000
  0
LINE
  5
221
100
AcDbEntity
  8
MAIN0
  6
CONTINUOUS
 62
3
100
AcDbLine
 10
796.3153088227429
 20
591.0332614518268
 30
0.0000000000000000
 11
796.3153088227742
 21
631.0332614521400
 31
0.0000000000000000
  0
LINE
  5
222
100
AcDbEntity
  8
MAIN0
  6
CONTINUOUS
 62
3
100
AcDbLine
 10
796.3153088229822
 20
896.1823047551543
 30
0.0000000000000000
 11
796.3153088230999
 21
1046.182304755154
 31
0.0000000000000000
  0
LINE
  5
223
100
AcDbEntity
  8
MAIN0
  6
CENTER
 62
3
100
AcDbLine
 10
810.3153088227225
 20
609.2631629817849
 30
0.0000000000000000
 11
810.3153088227225
 21
596.8144424155304
 31
0.0000000000000000
  0
LINE
  5
224
100
AcDbEntity
  8
MAIN0
  6
CENTER
 62
3
100
AcDbLine
 10
810.3153088227225
 20
980.8973101324621
 30
0.0000000000000000
 11
810.3153088227225
 21
963.9537447078308
 31
0.0000000000000000
  0
LINE
  5
225
100
AcDbEntity
  8
MAIN0
  6
CONTINUOUS
 62
3
100
AcDbLine
 10
801.3153088227225
 20
972.7823047551542
 30
0.0000000000000000
 11
801.3153088227225
 21
969.5823047551543
 31
0.0000000000000000
  0
LINE
  5
226
100
AcDbEntity
  8
MAIN0
  6
CONTINUOUS
 62
3
100
AcDbLine
 10
806.0653088227227
 20
977.2823047551542
 30
0.0000000000000000
 11
806.0653088227227
 21
972.7823047551542
 31
0.0000000000000000
  0
LINE
  5
227
100
AcDbEntity
  8
MAIN0
  6
CONTINUOUS
 62
3
100
AcDbLine
 10
814.5653088227223
 20
977.2823047551541
 30
0.0000000000000000
 11
806.0653088227225
 21
977.2823047551541
 31
0.0000000000000000
  0
LINE
  5
228
100
AcDbEntity
  8
MAIN0
  6
CONTINUOUS
 62
3
100
AcDbLine
 10
813.6992834189377
 20
977.7823047551541
 30
0.0000000000000000
 11
806.9313342265070
 21
977.7823047551541
 31
0.0000000000000000
  0
LINE
  5
229
100
AcDbEntity
  8
MAIN0
  6
CONTINUOUS
 62
3
100
AcDbLine
 10
806.9313342265070
 20
977.7823047551540
 30
0.0000000000000000
 11
806.0653088227225
 21
977.2823047551540
 31
0.0000000000000000
  0
LINE
  5
22A
100
AcDbEntity
  8
MAIN0
  6
CONTINUOUS
 62
3
100
AcDbLine
 10
814.5653088227223
 20
977.2823047551542
 30
0.0000000000000000
 11
814.5653088227223
 21
972.7823047551542
 31
0.0000000000000000
  0
LINE
  5
22B
100
AcDbEntity
  8
MAIN0
  6
CONTINUOUS
 62
3
100
AcDbLine
 10
813.6992834189377
 20
977.7823047551542
 30
0.0000000000000000
 11
814.5653088227223
 21
977.2823047551542
 31
0.0000000000000000
  0
LINE
  5
22C
100
AcDbEntity
  8
MAIN0
  6
CONTINUOUS
 62
3
100
AcDbLine
 10
823.3153088219731
 20
899.1823047599880
 30
0.0000000000000000
 11
823.3153088218403
 21
969.5823047551543
 31
0.0000000000000000
  0
LINE
  5
22D
100
AcDbEntity
  8
MAIN0
  6
CONTINUOUS
 62
3
100
AcDbLine
 10
823.3153088218344
 20
972.7823047551542
 30
0.0000000000000000
 11
823.3153088217014
 21
1043.182304755154
 31
0.0000000000000000
  0
LINE
  5
22E
100
AcDbEntity
  8
MAIN0
  6
CONTINUOUS
 62
3
100
AcDbLine
 10
796.3153088229847
 20
899.1823047551543
 30
0.0000000000000000
 11
823.3153088219790
 21
899.1823047551543
 31
0.0000000000000000
  0
LINE
  5
22F
100
AcDbEntity
  8
MAIN0
  6
CONTINUOUS
 62
3
100
AcDbLine
 10
796.3153088230974
 20
1043.182304755154
 30
0.0000000000000000
 11
823.3153088216959
 21
1043.182304755154
 31
0.0000000000000000
  0
LINE
  5
230
100
AcDbEntity
  8
MAIN0
  6
CONTINUOUS
 62
3
100
AcDbLine
 10
823.3153088206782
 20
1043.182304755154
 30
0.0000000000000000
 11
822.5114612433836
 21
1046.182304755154
 31
0.0000000000000000
  0
LINE
  5
231
100
AcDbEntity
  8
MAIN0
  6
CONTINUOUS
 62
3
100
AcDbLine
 10
823.3153088206780
 20
899.1823047551543
 30
0.0000000000000000
 11
822.5114612433836
 21
896.1823047551543
 31
0.0000000000000000
  0
MTEXT
  5
232
100
AcDbEntity
  8
MAIN0
  6
CONTINUOUS
 62
3
100
AcDbMText
 10
201.7241367872238
 20
943.2366252055444
 30
0.0000000000000000
 40
12.39999961853027
 41
0.0000000000000000
 71
     1
 72
     1
  1
{\H0.92x;{(口金幅）\P}
 11
6.123233995736766e-017
 21
1.000000000000000
 31
0.0000000000000000
  7
KNJYOKO
  0
MTEXT
  5
233
100
AcDbEntity
  8
MAIN0
  6
CONTINUOUS
 62
3
100
AcDbMText
 10
1338.407824981069
 20
402.1184734921227
 30
0.0000000000000000
 40
12.39999961853027
 41
0.0000000000000000
 71
     1
 72
     1
  1
{\H0.93x;{(ボデ-幅）}}
 11
1.000000000000000
 21
0.0000000000000000
 31
0.0000000000000000
  7
KNJYOKO
  0
LINE
  5
234
100
AcDbEntity
  8
MAIN0
  6
CENTER
 62
3
100
AcDbLine
 10
302.3153088231902
 20
952.4323047551526
 30
0.0000000000000000
 11
302.3153088231902
 21
939.9323047551526
 31
0.0000000000000000
  0
LINE
  5
235
100
AcDbEntity
  8
MAIN0
  6
CENTER
 62
3
100
AcDbLine
 10
296.0653088231902
 20
946.1823047551526
 30
0.0000000000000000
 11
308.5653088231902
 21
946.1823047551526
 31
0.0000000000000000
  0
LINE
  5
236
100
AcDbEntity
  8
MAIN0
  6
CENTER
 62
3
100
AcDbLine
 10
357.3153088231902
 20
952.4323047551561
 30
0.0000000000000000
 11
357.3153088231902
 21
939.9323047551561
 31
0.0000000000000000
  0
LINE
  5
237
100
AcDbEntity
  8
MAIN0
  6
CENTER
 62
3
100
AcDbLine
 10
351.0653088231902
 20
946.1823047551561
 30
0.0000000000000000
 11
363.5653088231902
 21
946.1823047551561
 31
0.0000000000000000
  0
LINE
  5
238
100
AcDbEntity
  8
MAIN0
  6
CENTER
 62
3
100
AcDbLine
 10
357.3153088231740
 20
1002.432304755156
 30
0.0000000000000000
 11
357.3153088231739
 21
989.9323047551561
 31
0.0000000000000000
  0
LINE
  5
239
100
AcDbEntity
  8
MAIN0
  6
CENTER
 62
3
100
AcDbLine
 10
351.0653088231739
 20
996.1823047551561
 30
0.0000000000000000
 11
363.5653088231739
 21
996.1823047551561
 31
0.0000000000000000
  0
LINE
  5
23A
100
AcDbEntity
  8
MAIN0
  6
CENTER
 62
3
100
AcDbLine
 10
302.3153088231740
 20
1002.432304755153
 30
0.0000000000000000
 11
302.3153088231739
 21
989.9323047551527
 31
0.0000000000000000
  0
LINE
  5
23B
100
AcDbEntity
  8
MAIN0
  6
CENTER
 62
3
100
AcDbLine
 10
296.0653088231739
 20
996.1823047551527
 30
0.0000000000000000
 11
308.5653088231739
 21
996.1823047551527
 31
0.0000000000000000
  0
CIRCLE
  5
23C
100
AcDbEntity
  8
MAIN0
  6
CONTINUOUS
 62
3
100
AcDbCircle
 10
328.3153088231820
 20
971.1823047551543
 30
0.0000000000000000
 40
5.000000000000000
  0
CIRCLE
  5
23D
100
AcDbEntity
  8
MAIN0
  6
CONTINUOUS
 62
3
100
AcDbCircle
 10
328.3153088231820
 20
971.1823047551543
 30
0.0000000000000000
 40
4.250000000000000
  0
LINE
  5
23E
100
AcDbEntity
  8
MAIN0
  6
CENTER
 62
3
100
AcDbLine
 10
328.3153088231820
 20
977.4323047551543
 30
0.0000000000000000
 11
328.3153088231820
 21
964.9323047551543
 31
0.0000000000000000
  0
CIRCLE
  5
23F
100
AcDbEntity
  8
MAIN0
  6
CONTINUOUS
 62
3
100
AcDbCircle
 10
305.8153088231907
 20
1015.182304755165
 30
0.0000000000000000
 40
10.00000000000000
  0
CIRCLE
  5
240
100
AcDbEntity
  8
MAIN0
  6
CONTINUOUS
 62
3
100
AcDbCircle
 10
305.8153088231965
 20
927.1823047551410
 30
0.0000000000000000
 40
10.00000000000000
  0
CIRCLE
  5
241
100
AcDbEntity
  8
MAIN0
  6
CONTINUOUS
 62
3
100
AcDbCircle
 10
350.8153088231965
 20
927.1823047551557
 30
0.0000000000000000
 40
10.00000000000000
  0
CIRCLE
  5
242
100
AcDbEntity
  8
MAIN0
  6
CONTINUOUS
 62
3
100
AcDbCircle
 10
350.8153088231446
 20
1015.182304755179
 30
0.0000000000000000
 40
10.00000000000000
  0
CIRCLE
  5
243
100
AcDbEntity
  8
MAIN0
  6
CONTINUOUS
 62
3
100
AcDbCircle
 10
302.3153088231739
 20
996.1823047551527
 30
0.0000000000000000
 40
5.000000000000000
  0
CIRCLE
  5
244
100
AcDbEntity
  8
MAIN0
  6
CONTINUOUS
 62
3
100
AcDbCircle
 10
302.3153088231739
 20
996.1823047551527
 30
0.0000000000000000
 40
4.188101000000000
  0
LINE
  5
245
100
AcDbEntity
  8
MAIN0
  6
CONTINUOUS
 62
3
100
AcDbLine
 10
302.3153088231740
 20
999.0690561011008
 30
0.0000000000000000
 11
299.8153088231740
 21
997.6256804281268
 31
0.0000000000000000
  0
LINE
  5
246
100
AcDbEntity
  8
MAIN0
  6
CONTINUOUS
 62
3
100
AcDbLine
 10
299.8153088231739
 20
997.6256804281268
 30
0.0000000000000000
 11
299.8153088231739
 21
994.7389290821786
 31
0.0000000000000000
  0
LINE
  5
247
100
AcDbEntity
  8
MAIN0
  6
CONTINUOUS
 62
3
100
AcDbLine
 10
299.8153088231738
 20
994.7389290821785
 30
0.0000000000000000
 11
302.3153088231740
 21
993.2955534092044
 31
0.0000000000000000
  0
LINE
  5
248
100
AcDbEntity
  8
MAIN0
  6
CONTINUOUS
 62
3
100
AcDbLine
 10
302.3153088231739
 20
993.2955534092046
 30
0.0000000000000000
 11
304.8153088231740
 21
994.7389290821786
 31
0.0000000000000000
  0
LINE
  5
249
100
AcDbEntity
  8
MAIN0
  6
CONTINUOUS
 62
3
100
AcDbLine
 10
304.8153088231739
 20
994.7389290821786
 30
0.0000000000000000
 11
304.8153088231739
 21
997.6256804281268
 31
0.0000000000000000
  0
LINE
  5
24A
100
AcDbEntity
  8
MAIN0
  6
CONTINUOUS
 62
3
100
AcDbLine
 10
304.8153088231738
 20
997.6256804281267
 30
0.0000000000000000
 11
302.3153088231738
 21
999.0690561011007
 31
0.0000000000000000
  0
CIRCLE
  5
24B
100
AcDbEntity
  8
MAIN0
  6
CONTINUOUS
 62
3
100
AcDbCircle
 10
302.3153088231902
 20
946.1823047551526
 30
0.0000000000000000
 40
5.000000000000000
  0
CIRCLE
  5
24C
100
AcDbEntity
  8
MAIN0
  6
CONTINUOUS
 62
3
100
AcDbCircle
 10
302.3153088231902
 20
946.1823047551526
 30
0.0000000000000000
 40
4.188101000000000
  0
LINE
  5
24D
100
AcDbEntity
  8
MAIN0
  6
CONTINUOUS
 62
3
100
AcDbLine
 10
302.3153088231902
 20
949.0690561011006
 30
0.0000000000000000
 11
299.8153088231902
 21
947.6256804281267
 31
0.0000000000000000
  0
LINE
  5
24E
100
AcDbEntity
  8
MAIN0
  6
CONTINUOUS
 62
3
100
AcDbLine
 10
299.8153088231902
 20
947.6256804281267
 30
0.0000000000000000
 11
299.8153088231902
 21
944.7389290821785
 31
0.0000000000000000
  0
LINE
  5
24F
100
AcDbEntity
  8
MAIN0
  6
CONTINUOUS
 62
3
100
AcDbLine
 10
299.8153088231902
 20
944.7389290821784
 30
0.0000000000000000
 11
302.3153088231902
 21
943.2955534092043
 31
0.0000000000000000
  0
LINE
  5
250
100
AcDbEntity
  8
MAIN0
  6
CONTINUOUS
 62
3
100
AcDbLine
 10
302.3153088231902
 20
943.2955534092043
 30
0.0000000000000000
 11
304.8153088231902
 21
944.7389290821784
 31
0.0000000000000000
  0
LINE
  5
251
100
AcDbEntity
  8
MAIN0
  6
CONTINUOUS
 62
3
100
AcDbLine
 10
304.8153088231902
 20
944.7389290821785
 30
0.0000000000000000
 11
304.8153088231902
 21
947.6256804281267
 31
0.0000000000000000
  0
LINE
  5
252
100
AcDbEntity
  8
MAIN0
  6
CONTINUOUS
 62
3
100
AcDbLine
 10
304.8153088231902
 20
947.6256804281265
 30
0.0000000000000000
 11
302.3153088231902
 21
949.0690561011006
 31
0.0000000000000000
  0
CIRCLE
  5
253
100
AcDbEntity
  8
MAIN0
  6
CONTINUOUS
 62
3
100
AcDbCircle
 10
357.3153088231902
 20
946.1823047551561
 30
0.0000000000000000
 40
5.000000000000000
  0
CIRCLE
  5
254
100
AcDbEntity
  8
MAIN0
  6
CONTINUOUS
 62
3
100
AcDbCircle
 10
357.3153088231902
 20
946.1823047551561
 30
0.0000000000000000
 40
4.188101000000000
  0
LINE
  5
255
100
AcDbEntity
  8
MAIN0
  6
CONTINUOUS
 62
3
100
AcDbLine
 10
357.3153088231902
 20
949.0690561011043
 30
0.0000000000000000
 11
354.8153088231902
 21
947.6256804281302
 31
0.0000000000000000
  0
LINE
  5
256
100
AcDbEntity
  8
MAIN0
  6
CONTINUOUS
 62
3
100
AcDbLine
 10
354.8153088231902
 20
947.6256804281302
 30
0.0000000000000000
 11
354.8153088231902
 21
944.7389290821820
 31
0.0000000000000000
  0
LINE
  5
257
100
AcDbEntity
  8
MAIN0
  6
CONTINUOUS
 62
3
100
AcDbLine
 10
354.8153088231902
 20
944.7389290821819
 30
0.0000000000000000
 11
357.3153088231902
 21
943.2955534092079
 31
0.0000000000000000
  0
LINE
  5
258
100
AcDbEntity
  8
MAIN0
  6
CONTINUOUS
 62
3
100
AcDbLine
 10
357.3153088231902
 20
943.2955534092080
 30
0.0000000000000000
 11
359.8153088231902
 21
944.7389290821820
 31
0.0000000000000000
  0
LINE
  5
259
100
AcDbEntity
  8
MAIN0
  6
CONTINUOUS
 62
3
100
AcDbLine
 10
359.8153088231902
 20
944.7389290821820
 30
0.0000000000000000
 11
359.8153088231902
 21
947.6256804281302
 31
0.0000000000000000
  0
LINE
  5
25A
100
AcDbEntity
  8
MAIN0
  6
CONTINUOUS
 62
3
100
AcDbLine
 10
359.8153088231902
 20
947.6256804281301
 30
0.0000000000000000
 11
357.3153088231902
 21
949.0690561011041
 31
0.0000000000000000
  0
DIMENSION
  5
263
100
AcDbEntity
  8
MAIN0
  6
CONTINUOUS
 62
3
100
AcDbDimension
  2
*D15
 10
261.1488500539786
 20
946.1823047551526
 30
0.0000000000000000
 11
260.6488500539786
 21
971.1823047551526
 31
0.0000000000000000
 70
32
  3
MAIN001
100
AcDbAlignedDimension
 13
296.0653088231739
 23
996.1823047551527
 33
0.0000000000000000
 14
296.0653088231902
 24
946.1823047551526
 34
0.0000000000000000
 50
90.00000000000000
100
AcDbRotatedDimension
1001
ACAD
1000
DSTYLE
1002
{
1070
   173
1070
     1
1070
     6
1000
_OPEN
1070
     7
1000
_OPEN
1070
    41
1040
8.000000
1002
}
  0
DIMENSION
  5
26C
100
AcDbEntity
  8
MAIN0
  6
CONTINUOUS
 62
3
100
AcDbDimension
  2
*D16
 10
302.3153088231902
 20
867.4300471412198
 30
0.0000000000000000
 11
329.8153088231902
 21
867.9300471412198
 31
0.0000000000000000
 70
32
  3
MAIN001
100
AcDbAlignedDimension
 13
357.3153088231902
 23
939.9323047551561
 33
0.0000000000000000
 14
302.3153088231902
 24
939.9323047551526
 34
0.0000000000000000
100
AcDbRotatedDimension
1001
ACAD
1000
DSTYLE
1002
{
1070
   173
1070
     1
1070
     6
1000
_OPEN
1070
     7
1000
_OPEN
1070
    41
1040
8.000000
1002
}
  0
DIMENSION
  5
277
100
AcDbEntity
  8
MAIN0
  6
CONTINUOUS
 62
3
100
AcDbDimension
  2
*D17
 10
357.3153088231902
 20
867.4300471412198
 30
0.0000000000000000
 11
380.8602140827061
 21
869.4300471412198
 31
0.0000000000000000
 70
160
  3
MAIN001
100
AcDbAlignedDimension
 13
367.3153088231333
 23
908.9323047551543
 33
0.0000000000000000
 14
357.3153088231902
 24
939.9323047551561
 34
0.0000000000000000
100
AcDbRotatedDimension
1001
ACAD
1000
DSTYLE
1002
{
1070
   173
1070
     1
1070
     6
1000
_OPEN
1070
     7
1000
_OPEN
1070
    41
1040
8.000000
1070
   287
1070
     0
1002
}
  0
DIMENSION
  5
280
100
AcDbEntity
  8
MAIN0
  6
CONTINUOUS
 62
3
100
AcDbDimension
  2
*D18
 10
328.3153088231820
 20
1069.787179850316
 30
0.0000000000000000
 11
347.8153088232065
 21
1070.287179850316
 31
0.0000000000000000
 70
32
  3
MAIN001
100
AcDbAlignedDimension
 13
367.3153088232309
 23
1033.432304755154
 33
0.0000000000000000
 14
328.3153088231820
 24
977.4323047551543
 34
0.0000000000000000
100
AcDbRotatedDimension
1001
ACAD
1000
DSTYLE
1002
{
1070
   173
1070
     1
1070
     6
1000
_OPEN
1070
     7
1000
_OPEN
1070
    41
1040
8.000000
1002
}
  0
DIMENSION
  5
28A
100
AcDbEntity
  8
MAIN0
  6
CONTINUOUS
 62
3
100
AcDbDimension
  2
*D19
 10
355.7752511954648
 20
600.5332614518804
 30
0.0000000000000000
 11
355.2752511954648
 21
610.5332614518806
 31
0.0000000000000000
 70
32
  3
MAIN001
100
AcDbAlignedDimension
 13
340.3153088227666
 23
620.5332614518807
 33
0.0000000000000000
 14
340.3153088227508
 24
600.5332614518804
 34
0.0000000000000000
 50
90.00000000000000
100
AcDbRotatedDimension
1001
ACAD
1000
DSTYLE
1002
{
1070
   173
1070
     1
1070
     6
1000
_DOT
1070
     7
1000
_OPEN
1070
    41
1040
8.000000
1070
   287
1070
     0
1002
}
  0
DIMENSION
  5
293
100
AcDbEntity
  8
MAIN0
  6
CONTINUOUS
 62
3
100
AcDbDimension
  2
*D20
 10
355.7752511954648
 20
620.5332614518807
 30
0.0000000000000000
 11
353.7752511954648
 21
641.4130160170304
 31
0.0000000000000000
 70
160
  3
MAIN001
100
AcDbAlignedDimension
 13
367.3153088227744
 23
630.5332614519022
 33
0.0000000000000000
 14
340.3153088227666
 24
620.5332614518807
 34
0.0000000000000000
 50
90.00000000000000
100
AcDbRotatedDimension
1001
ACAD
1000
DSTYLE
1002
{
1070
   173
1070
     1
1070
     6
1000
_OPEN
1070
     7
1000
_DOT
1070
    41
1040
8.000000
1070
   287
1070
     0
1002
}
  0
DIMENSION
  5
29C
100
AcDbEntity
  8
MAIN0
  6
CONTINUOUS
 62
3
100
AcDbDimension
  2
*D21
 10
328.3153088227666
 20
663.2819636569743
 30
0.0000000000000000
 11
347.8153088227704
 21
663.7819636569743
 31
0.0000000000000000
 70
32
  3
MAIN001
100
AcDbAlignedDimension
 13
367.3153088227743
 23
630.5332614519023
 33
0.0000000000000000
 14
328.3153088227666
 24
632.5332614518807
 34
0.0000000000000000
100
AcDbRotatedDimension
1001
ACAD
1000
DSTYLE
1002
{
1070
   173
1070
     1
1070
     6
1000
_OPEN
1070
     7
1000
_OPEN
1070
    41
1040
8.000000
1002
}
  0
LEADER
  5
29D
100
AcDbEntity
  8
MAIN0
  6
CONTINUOUS
 62
3
100
AcDbLeader
  3
MAIN001
 73
     0
 75
     1
 40
12.39999961853027
 41
143.5590042343140
 76
     3
 10
325.6553887337263
 20
624.7670334249467
 30
0.0000000000000000
 10
284.6472666114256
 20
734.1839586065285
 30
0.0000000000000000
 10
276.9422668345854
 20
734.1839586065285
 30
0.0000000000000000
340
29E
213
0.0000000000000000
223
-2.000000000000000
233
0.0000000000000000
1001
ACAD
1000
DSTYLE
1002
{
1070
   147
1040
0.0
1070
    77
1070
     1
1070
   173
1070
     1
1070
     6
1000
_OPEN
1070
     7
1000
_OPEN
1002
}
  0
MTEXT
  5
29E
102
{ACAD_REACTORS
330
29D
102
}
100
AcDbEntity
  8
MAIN0
  6
CONTINUOUS
 62
3
100
AcDbMText
 10
133.3832626002714
 20
748.5839582250587
 30
0.0000000000000000
 40
12.39999961853027
 41
0.0000000000000000
 71
     1
 72
     1
  1
{\H0.93x;{2×2－M10 深さ20\P        DEPTH}}
 11
1.000000000000000
 21
0.0000000000000000
 31
0.0000000000000000
  7
KNJYOKO
  0
LEADER
  5
29F
100
AcDbEntity
  8
MAIN0
  6
CONTINUOUS
 62
3
100
AcDbLeader
  3
MAIN001
 73
     0
 75
     1
 40
12.39999961853027
 41
143.5590042343140
 76
     3
 10
298.6143611558289
 20
942.8203133269285
 30
0.0000000000000000
 10
244.2229769783459
 20
883.9790266389277
 30
0.0000000000000000
 10
236.5179772015057
 20
883.9790266389277
 30
0.0000000000000000
340
2A0
213
0.0000000000000000
223
-2.000000000000000
233
0.0000000000000000
1001
ACAD
1000
DSTYLE
1002
{
1070
   147
1040
0.0
1070
    77
1070
     1
1070
   173
1070
     1
1070
     6
1000
_OPEN
1070
     7
1000
_OPEN
1002
}
  0
MTEXT
  5
2A0
102
{ACAD_REACTORS
330
29F
102
}
100
AcDbEntity
  8
MAIN0
  6
CONTINUOUS
 62
3
100
AcDbMText
 10
92.95897296719176
 20
898.3790262574580
 30
0.0000000000000000
 40
12.39999961853027
 41
0.0000000000000000
 71
     1
 72
     1
  1
{\H0.93x;{2×5－M10 深さ20\P        DEPTH}}
 11
1.000000000000000
 21
0.0000000000000000
 31
0.0000000000000000
  7
KNJYOKO
  0
LINE
  5
2A1
100
AcDbEntity
  8
MAIN0
  6
CENTER
 62
3
100
AcDbLine
 10
578.5653088231752
 20
1011.182304755153
 30
0.0000000000000000
 11
566.0653088231752
 21
1011.182304755152
 31
0.0000000000000000
  0
LINE
  5
2A2
100
AcDbEntity
  8
MAIN0
  6
CENTER
 62
3
100
AcDbLine
 10
572.3153088231753
 20
1004.932304755152
 30
0.0000000000000000
 11
572.3153088231753
 21
1017.432304755152
 31
0.0000000000000000
  0
LINE
  5
2A3
100
AcDbEntity
  8
MAIN0
  6
CENTER
 62
3
100
AcDbLine
 10
622.3153088231753
 20
1004.182304755143
 30
0.0000000000000000
 11
622.3153088231753
 21
1018.182304755143
 31
0.0000000000000000
  0
LINE
  5
2A4
100
AcDbEntity
  8
MAIN0
  6
CENTER
 62
3
100
AcDbLine
 10
629.3153088231753
 20
1011.182304755143
 30
0.0000000000000000
 11
615.3153088231753
 21
1011.182304755143
 31
0.0000000000000000
  0
CIRCLE
  5
2A5
100
AcDbEntity
  8
MAIN0
  6
CONTINUOUS
 62
3
100
AcDbCircle
 10
620.3153088231791
 20
988.6823047551429
 30
0.0000000000000000
 40
10.00000000000000
  0
CIRCLE
  5
2A6
100
AcDbEntity
  8
MAIN0
  6
CONTINUOUS
 62
3
100
AcDbCircle
 10
578.3153088231791
 20
988.6823047551511
 30
0.0000000000000000
 40
10.00000000000000
  0
CIRCLE
  5
2A7
100
AcDbEntity
  8
MAIN0
  6
CONTINUOUS
 62
3
100
AcDbCircle
 10
599.3153088231820
 20
971.1823047551470
 30
0.0000000000000000
 40
4.250000000000000
  0
CIRCLE
  5
2A8
100
AcDbEntity
  8
MAIN0
  6
CONTINUOUS
 62
3
100
AcDbCircle
 10
599.3153088231820
 20
971.1823047551470
 30
0.0000000000000000
 40
5.000000000000000
  0
CIRCLE
  5
2A9
100
AcDbEntity
  8
MAIN0
  6
CONTINUOUS
 62
3
100
AcDbCircle
 10
620.3153088231848
 20
953.6823047551429
 30
0.0000000000000000
 40
10.00000000000000
  0
CIRCLE
  5
2AA
100
AcDbEntity
  8
MAIN0
  6
CONTINUOUS
 62
3
100
AcDbCircle
 10
578.3153088231850
 20
953.6823047551511
 30
0.0000000000000000
 40
10.00000000000000
  0
LINE
  5
2AB
100
AcDbEntity
  8
MAIN0
  6
CENTER
 62
3
100
AcDbLine
 10
629.3153088231886
 20
931.1823047551426
 30
0.0000000000000000
 11
615.3153088231886
 21
931.1823047551426
 31
0.0000000000000000
  0
LINE
  5
2AC
100
AcDbEntity
  8
MAIN0
  6
CENTER
 62
3
100
AcDbLine
 10
622.3153088231886
 20
924.1823047551425
 30
0.0000000000000000
 11
622.3153088231886
 21
938.1823047551425
 31
0.0000000000000000
  0
LINE
  5
2AD
100
AcDbEntity
  8
MAIN0
  6
CENTER
 62
3
100
AcDbLine
 10
578.5653088231886
 20
931.1823047551522
 30
0.0000000000000000
 11
566.0653088231886
 21
931.1823047551522
 31
0.0000000000000000
  0
LINE
  5
2AE
100
AcDbEntity
  8
MAIN0
  6
CENTER
 62
3
100
AcDbLine
 10
572.3153088231887
 20
924.9323047551522
 30
0.0000000000000000
 11
572.3153088231887
 21
937.4323047551522
 31
0.0000000000000000
  0
LINE
  5
2AF
100
AcDbEntity
  8
MAIN0
  6
CENTER
 62
3
100
AcDbLine
 10
599.3153088231820
 20
964.1823047551470
 30
0.0000000000000000
 11
599.3153088231820
 21
978.1823047551470
 31
0.0000000000000000
  0
DIMENSION
  5
2BA
100
AcDbEntity
  8
MAIN0
  6
CONTINUOUS
 62
3
100
AcDbDimension
  2
*D22
 10
562.3153088231331
 20
867.4300471412198
 30
0.0000000000000000
 11
547.3691997610964
 21
869.4300471412198
 31
0.0000000000000000
 70
160
  3
MAIN001
100
AcDbAlignedDimension
 13
572.3153088231887
 23
924.9323047551522
 33
0.0000000000000000
 14
562.3153088231331
 24
908.9323047551543
 34
0.0000000000000000
100
AcDbRotatedDimension
1001
ACAD
1000
DSTYLE
1002
{
1070
   173
1070
     1
1070
     6
1000
_OPEN
1070
     7
1000
_OPEN
1070
    41
1040
8.000000
1070
   287
1070
     0
1002
}
  0
DIMENSION
  5
2C3
100
AcDbEntity
  8
MAIN0
  6
CONTINUOUS
 62
3
100
AcDbDimension
  2
*D23
 10
572.3153088231887
 20
867.4300471412198
 30
0.0000000000000000
 11
597.3153088231886
 21
867.9300471412198
 31
0.0000000000000000
 70
32
  3
MAIN001
100
AcDbAlignedDimension
 13
622.3153088231886
 23
924.1823047551425
 33
0.0000000000000000
 14
572.3153088231887
 24
924.9323047551522
 34
0.0000000000000000
100
AcDbRotatedDimension
1001
ACAD
1000
DSTYLE
1002
{
1070
   173
1070
     1
1070
     6
1000
_OPEN
1070
     7
1000
_OPEN
1070
    41
1040
8.000000
1002
}
  0
DIMENSION
  5
2CC
100
AcDbEntity
  8
MAIN0
  6
CONTINUOUS
 62
3
100
AcDbDimension
  2
*D24
 10
562.3153088232307
 20
1069.787179850316
 30
0.0000000000000000
 11
580.8153088232064
 21
1070.287179850316
 31
0.0000000000000000
 70
32
  3
MAIN001
100
AcDbAlignedDimension
 13
599.3153088231820
 23
978.1823047551470
 33
0.0000000000000000
 14
562.3153088232307
 24
1033.432304755154
 34
0.0000000000000000
100
AcDbRotatedDimension
1001
ACAD
1000
DSTYLE
1002
{
1070
   173
1070
     1
1070
     6
1000
_OPEN
1070
     7
1000
_OPEN
1070
    41
1040
8.000000
1002
}
  0
DIMENSION
  5
2D5
100
AcDbEntity
  8
MAIN0
  6
CONTINUOUS
 62
3
100
AcDbDimension
  2
*D25
 10
522.8857110615192
 20
931.1823047551522
 30
0.0000000000000000
 11
522.3857110615192
 21
971.1823047551524
 31
0.0000000000000000
 70
32
  3
MAIN001
100
AcDbAlignedDimension
 13
566.0653088231752
 23
1011.182304755152
 33
0.0000000000000000
 14
566.0653088231886
 24
931.1823047551522
 34
0.0000000000000000
 50
90.00000000000000
100
AcDbRotatedDimension
1001
ACAD
1000
DSTYLE
1002
{
1070
   173
1070
     1
1070
     6
1000
_OPEN
1070
     7
1000
_OPEN
1070
    41
1040
8.000000
1002
}
  0
CIRCLE
  5
2D6
100
AcDbEntity
  8
MAIN0
  6
HIDDEN
 62
3
100
AcDbCircle
 10
578.3153088231958
 20
988.6823047551543
 30
0.0000000000000000
 40
9.000000000000000
  0
LINE
  5
2D7
100
AcDbEntity
  8
MAIN0
  6
HIDDEN
 62
3
100
AcDbLine
 10
578.3153088231959
 20
994.4558074470505
 30
0.0000000000000000
 11
573.3153088231957
 21
991.5690561011023
 31
0.0000000000000000
  0
LINE
  5
2D8
100
AcDbEntity
  8
MAIN0
  6
HIDDEN
 62
3
100
AcDbLine
 10
573.3153088231958
 20
991.5690561011024
 30
0.0000000000000000
 11
573.3153088231958
 21
985.7955534092062
 31
0.0000000000000000
  0
LINE
  5
2D9
100
AcDbEntity
  8
MAIN0
  6
HIDDEN
 62
3
100
AcDbLine
 10
573.3153088231958
 20
985.7955534092060
 30
0.0000000000000000
 11
578.3153088231958
 21
982.9088020632579
 31
0.0000000000000000
  0
LINE
  5
2DA
100
AcDbEntity
  8
MAIN0
  6
HIDDEN
 62
3
100
AcDbLine
 10
578.3153088231957
 20
982.9088020632579
 30
0.0000000000000000
 11
583.3153088231957
 21
985.7955534092060
 31
0.0000000000000000
  0
LINE
  5
2DB
100
AcDbEntity
  8
MAIN0
  6
HIDDEN
 62
3
100
AcDbLine
 10
583.3153088231958
 20
985.7955534092062
 30
0.0000000000000000
 11
583.3153088231958
 21
991.5690561011024
 31
0.0000000000000000
  0
LINE
  5
2DC
100
AcDbEntity
  8
MAIN0
  6
HIDDEN
 62
3
100
AcDbLine
 10
583.3153088231957
 20
991.5690561011022
 30
0.0000000000000000
 11
578.3153088231957
 21
994.4558074470504
 31
0.0000000000000000
  0
CIRCLE
  5
2DD
100
AcDbEntity
  8
MAIN0
  6
HIDDEN
 62
3
100
AcDbCircle
 10
620.3153088231958
 20
988.6823047551543
 30
0.0000000000000000
 40
9.000000000000000
  0
LINE
  5
2DE
100
AcDbEntity
  8
MAIN0
  6
HIDDEN
 62
3
100
AcDbLine
 10
620.3153088231957
 20
994.4558074470505
 30
0.0000000000000000
 11
615.3153088231957
 21
991.5690561011023
 31
0.0000000000000000
  0
LINE
  5
2DF
100
AcDbEntity
  8
MAIN0
  6
HIDDEN
 62
3
100
AcDbLine
 10
615.3153088231958
 20
991.5690561011024
 30
0.0000000000000000
 11
615.3153088231958
 21
985.7955534092062
 31
0.0000000000000000
  0
LINE
  5
2E0
100
AcDbEntity
  8
MAIN0
  6
HIDDEN
 62
3
100
AcDbLine
 10
615.3153088231958
 20
985.7955534092060
 30
0.0000000000000000
 11
620.3153088231957
 21
982.9088020632579
 31
0.0000000000000000
  0
LINE
  5
2E1
100
AcDbEntity
  8
MAIN0
  6
HIDDEN
 62
3
100
AcDbLine
 10
620.3153088231957
 20
982.9088020632579
 30
0.0000000000000000
 11
625.3153088231957
 21
985.7955534092060
 31
0.0000000000000000
  0
LINE
  5
2E2
100
AcDbEntity
  8
MAIN0
  6
HIDDEN
 62
3
100
AcDbLine
 10
625.3153088231958
 20
985.7955534092062
 30
0.0000000000000000
 11
625.3153088231958
 21
991.5690561011024
 31
0.0000000000000000
  0
LINE
  5
2E3
100
AcDbEntity
  8
MAIN0
  6
HIDDEN
 62
3
100
AcDbLine
 10
625.3153088231958
 20
991.5690561011023
 30
0.0000000000000000
 11
620.3153088231957
 21
994.4558074470506
 31
0.0000000000000000
  0
CIRCLE
  5
2E4
100
AcDbEntity
  8
MAIN0
  6
HIDDEN
 62
3
100
AcDbCircle
 10
620.3153088231684
 20
953.6823047551543
 30
0.0000000000000000
 40
9.000000000000000
  0
LINE
  5
2E5
100
AcDbEntity
  8
MAIN0
  6
HIDDEN
 62
3
100
AcDbLine
 10
620.3153088231684
 20
959.4558074470505
 30
0.0000000000000000
 11
615.3153088231684
 21
956.5690561011023
 31
0.0000000000000000
  0
LINE
  5
2E6
100
AcDbEntity
  8
MAIN0
  6
HIDDEN
 62
3
100
AcDbLine
 10
615.3153088231684
 20
956.5690561011024
 30
0.0000000000000000
 11
615.3153088231684
 21
950.7955534092062
 31
0.0000000000000000
  0
LINE
  5
2E7
100
AcDbEntity
  8
MAIN0
  6
HIDDEN
 62
3
100
AcDbLine
 10
615.3153088231684
 20
950.7955534092062
 30
0.0000000000000000
 11
620.3153088231684
 21
947.9088020632580
 31
0.0000000000000000
  0
LINE
  5
2E8
100
AcDbEntity
  8
MAIN0
  6
HIDDEN
 62
3
100
AcDbLine
 10
620.3153088231682
 20
947.9088020632578
 30
0.0000000000000000
 11
625.3153088231682
 21
950.7955534092059
 31
0.0000000000000000
  0
LINE
  5
2E9
100
AcDbEntity
  8
MAIN0
  6
HIDDEN
 62
3
100
AcDbLine
 10
625.3153088231684
 20
950.7955534092062
 30
0.0000000000000000
 11
625.3153088231684
 21
956.5690561011024
 31
0.0000000000000000
  0
LINE
  5
2EA
100
AcDbEntity
  8
MAIN0
  6
HIDDEN
 62
3
100
AcDbLine
 10
625.3153088231684
 20
956.5690561011023
 30
0.0000000000000000
 11
620.3153088231684
 21
959.4558074470506
 31
0.0000000000000000
  0
CIRCLE
  5
2EB
100
AcDbEntity
  8
MAIN0
  6
HIDDEN
 62
3
100
AcDbCircle
 10
578.3153088231683
 20
953.6823047551543
 30
0.0000000000000000
 40
9.000000000000000
  0
LINE
  5
2EC
100
AcDbEntity
  8
MAIN0
  6
HIDDEN
 62
3
100
AcDbLine
 10
578.3153088231684
 20
959.4558074470505
 30
0.0000000000000000
 11
573.3153088231684
 21
956.5690561011023
 31
0.0000000000000000
  0
LINE
  5
2ED
100
AcDbEntity
  8
MAIN0
  6
HIDDEN
 62
3
100
AcDbLine
 10
573.3153088231683
 20
956.5690561011024
 30
0.0000000000000000
 11
573.3153088231683
 21
950.7955534092062
 31
0.0000000000000000
  0
LINE
  5
2EE
100
AcDbEntity
  8
MAIN0
  6
HIDDEN
 62
3
100
AcDbLine
 10
573.3153088231683
 20
950.7955534092060
 30
0.0000000000000000
 11
578.3153088231683
 21
947.9088020632579
 31
0.0000000000000000
  0
LINE
  5
2EF
100
AcDbEntity
  8
MAIN0
  6
HIDDEN
 62
3
100
AcDbLine
 10
578.3153088231682
 20
947.9088020632578
 30
0.0000000000000000
 11
583.3153088231682
 21
950.7955534092059
 31
0.0000000000000000
  0
LINE
  5
2F0
100
AcDbEntity
  8
MAIN0
  6
HIDDEN
 62
3
100
AcDbLine
 10
583.3153088231683
 20
950.7955534092062
 30
0.0000000000000000
 11
583.3153088231683
 21
956.5690561011024
 31
0.0000000000000000
  0
LINE
  5
2F1
100
AcDbEntity
  8
MAIN0
  6
HIDDEN
 62
3
100
AcDbLine
 10
583.3153088231683
 20
956.5690561011024
 30
0.0000000000000000
 11
578.3153088231682
 21
959.4558074470506
 31
0.0000000000000000
  0
CIRCLE
  5
2F2
100
AcDbEntity
  8
MAIN0
  6
CONTINUOUS
 62
3
100
AcDbCircle
 10
622.3153088231752
 20
1011.182304755143
 30
0.0000000000000000
 40
5.000000000000000
  0
CIRCLE
  5
2F3
100
AcDbEntity
  8
MAIN0
  6
CONTINUOUS
 62
3
100
AcDbCircle
 10
622.3153088231752
 20
1011.182304755143
 30
0.0000000000000000
 40
4.188101000000000
  0
LINE
  5
2F4
100
AcDbEntity
  8
MAIN0
  6
CONTINUOUS
 62
3
100
AcDbLine
 10
622.3153088231752
 20
1014.069056101091
 30
0.0000000000000000
 11
619.8153088231753
 21
1012.625680428117
 31
0.0000000000000000
  0
LINE
  5
2F5
100
AcDbEntity
  8
MAIN0
  6
CONTINUOUS
 62
3
100
AcDbLine
 10
619.8153088231752
 20
1012.625680428117
 30
0.0000000000000000
 11
619.8153088231752
 21
1009.738929082169
 31
0.0000000000000000
  0
LINE
  5
2F6
100
AcDbEntity
  8
MAIN0
  6
CONTINUOUS
 62
3
100
AcDbLine
 10
619.8153088231752
 20
1009.738929082169
 30
0.0000000000000000
 11
622.3153088231752
 21
1008.295553409195
 31
0.0000000000000000
  0
LINE
  5
2F7
100
AcDbEntity
  8
MAIN0
  6
CONTINUOUS
 62
3
100
AcDbLine
 10
622.3153088231752
 20
1008.295553409194
 30
0.0000000000000000
 11
624.8153088231752
 21
1009.738929082169
 31
0.0000000000000000
  0
LINE
  5
2F8
100
AcDbEntity
  8
MAIN0
  6
CONTINUOUS
 62
3
100
AcDbLine
 10
624.8153088231752
 20
1009.738929082169
 30
0.0000000000000000
 11
624.8153088231752
 21
1012.625680428117
 31
0.0000000000000000
  0
LINE
  5
2F9
100
AcDbEntity
  8
MAIN0
  6
CONTINUOUS
 62
3
100
AcDbLine
 10
624.8153088231752
 20
1012.625680428117
 30
0.0000000000000000
 11
622.3153088231752
 21
1014.069056101091
 31
0.0000000000000000
  0
CIRCLE
  5
2FA
100
AcDbEntity
  8
MAIN0
  6
CONTINUOUS
 62
3
100
AcDbCircle
 10
572.3153088231752
 20
1011.182304755153
 30
0.0000000000000000
 40
5.000000000000000
  0
CIRCLE
  5
2FB
100
AcDbEntity
  8
MAIN0
  6
CONTINUOUS
 62
3
100
AcDbCircle
 10
572.3153088231752
 20
1011.182304755153
 30
0.0000000000000000
 40
4.188101000000000
  0
LINE
  5
2FC
100
AcDbEntity
  8
MAIN0
  6
CONTINUOUS
 62
3
100
AcDbLine
 10
572.3153088231752
 20
1014.069056101100
 30
0.0000000000000000
 11
569.8153088231752
 21
1012.625680428126
 31
0.0000000000000000
  0
LINE
  5
2FD
100
AcDbEntity
  8
MAIN0
  6
CONTINUOUS
 62
3
100
AcDbLine
 10
569.8153088231752
 20
1012.625680428127
 30
0.0000000000000000
 11
569.8153088231752
 21
1009.738929082178
 31
0.0000000000000000
  0
LINE
  5
2FE
100
AcDbEntity
  8
MAIN0
  6
CONTINUOUS
 62
3
100
AcDbLine
 10
569.8153088231752
 20
1009.738929082178
 30
0.0000000000000000
 11
572.3153088231752
 21
1008.295553409204
 31
0.0000000000000000
  0
LINE
  5
2FF
100
AcDbEntity
  8
MAIN0
  6
CONTINUOUS
 62
3
100
AcDbLine
 10
572.3153088231752
 20
1008.295553409204
 30
0.0000000000000000
 11
574.8153088231752
 21
1009.738929082178
 31
0.0000000000000000
  0
LINE
  5
300
100
AcDbEntity
  8
MAIN0
  6
CONTINUOUS
 62
3
100
AcDbLine
 10
574.8153088231752
 20
1009.738929082178
 30
0.0000000000000000
 11
574.8153088231752
 21
1012.625680428127
 31
0.0000000000000000
  0
LINE
  5
301
100
AcDbEntity
  8
MAIN0
  6
CONTINUOUS
 62
3
100
AcDbLine
 10
574.8153088231752
 20
1012.625680428127
 30
0.0000000000000000
 11
572.3153088231752
 21
1014.069056101101
 31
0.0000000000000000
  0
CIRCLE
  5
302
100
AcDbEntity
  8
MAIN0
  6
CONTINUOUS
 62
3
100
AcDbCircle
 10
572.3153088231886
 20
931.1823047551522
 30
0.0000000000000000
 40
5.000000000000000
  0
CIRCLE
  5
303
100
AcDbEntity
  8
MAIN0
  6
CONTINUOUS
 62
3
100
AcDbCircle
 10
572.3153088231886
 20
931.1823047551522
 30
0.0000000000000000
 40
4.188101000000000
  0
LINE
  5
304
100
AcDbEntity
  8
MAIN0
  6
CONTINUOUS
 62
3
100
AcDbLine
 10
572.3153088231886
 20
934.0690561011003
 30
0.0000000000000000
 11
569.8153088231886
 21
932.6256804281263
 31
0.0000000000000000
  0
LINE
  5
305
100
AcDbEntity
  8
MAIN0
  6
CONTINUOUS
 62
3
100
AcDbLine
 10
569.8153088231886
 20
932.6256804281263
 30
0.0000000000000000
 11
569.8153088231886
 21
929.7389290821782
 31
0.0000000000000000
  0
LINE
  5
306
100
AcDbEntity
  8
MAIN0
  6
CONTINUOUS
 62
3
100
AcDbLine
 10
569.8153088231886
 20
929.7389290821782
 30
0.0000000000000000
 11
572.3153088231886
 21
928.2955534092041
 31
0.0000000000000000
  0
LINE
  5
307
100
AcDbEntity
  8
MAIN0
  6
CONTINUOUS
 62
3
100
AcDbLine
 10
572.3153088231886
 20
928.2955534092040
 30
0.0000000000000000
 11
574.8153088231886
 21
929.7389290821781
 31
0.0000000000000000
  0
LINE
  5
308
100
AcDbEntity
  8
MAIN0
  6
CONTINUOUS
 62
3
100
AcDbLine
 10
574.8153088231886
 20
929.7389290821782
 30
0.0000000000000000
 11
574.8153088231886
 21
932.6256804281263
 31
0.0000000000000000
  0
LINE
  5
309
100
AcDbEntity
  8
MAIN0
  6
CONTINUOUS
 62
3
100
AcDbLine
 10
574.8153088231886
 20
932.6256804281263
 30
0.0000000000000000
 11
572.3153088231886
 21
934.0690561011004
 31
0.0000000000000000
  0
CIRCLE
  5
30A
100
AcDbEntity
  8
MAIN0
  6
CONTINUOUS
 62
3
100
AcDbCircle
 10
622.3153088231886
 20
931.1823047551426
 30
0.0000000000000000
 40
5.000000000000000
  0
CIRCLE
  5
30B
100
AcDbEntity
  8
MAIN0
  6
CONTINUOUS
 62
3
100
AcDbCircle
 10
622.3153088231886
 20
931.1823047551426
 30
0.0000000000000000
 40
4.188101000000000
  0
LINE
  5
30C
100
AcDbEntity
  8
MAIN0
  6
CONTINUOUS
 62
3
100
AcDbLine
 10
622.3153088231884
 20
934.0690561010906
 30
0.0000000000000000
 11
619.8153088231886
 21
932.6256804281165
 31
0.0000000000000000
  0
LINE
  5
30D
100
AcDbEntity
  8
MAIN0
  6
CONTINUOUS
 62
3
100
AcDbLine
 10
619.8153088231886
 20
932.6256804281167
 30
0.0000000000000000
 11
619.8153088231886
 21
929.7389290821685
 31
0.0000000000000000
  0
LINE
  5
30E
100
AcDbEntity
  8
MAIN0
  6
CONTINUOUS
 62
3
100
AcDbLine
 10
619.8153088231886
 20
929.7389290821685
 30
0.0000000000000000
 11
622.3153088231886
 21
928.2955534091944
 31
0.0000000000000000
  0
LINE
  5
30F
100
AcDbEntity
  8
MAIN0
  6
CONTINUOUS
 62
3
100
AcDbLine
 10
622.3153088231884
 20
928.2955534091943
 30
0.0000000000000000
 11
624.8153088231884
 21
929.7389290821684
 31
0.0000000000000000
  0
LINE
  5
310
100
AcDbEntity
  8
MAIN0
  6
CONTINUOUS
 62
3
100
AcDbLine
 10
624.8153088231886
 20
929.7389290821685
 30
0.0000000000000000
 11
624.8153088231886
 21
932.6256804281167
 31
0.0000000000000000
  0
LINE
  5
311
100
AcDbEntity
  8
MAIN0
  6
CONTINUOUS
 62
3
100
AcDbLine
 10
624.8153088231885
 20
932.6256804281165
 30
0.0000000000000000
 11
622.3153088231886
 21
934.0690561010906
 31
0.0000000000000000
  0
LINE
  5
312
100
AcDbEntity
  8
MAIN0
  6
CENTER
 62
3
100
AcDbLine
 10
714.3153088225058
 20
960.7257719466602
 30
0.0000000000000000
 11
714.3153088224976
 21
981.9150366946053
 31
0.0000000000000000
  0
DIMENSION
  5
31B
100
AcDbEntity
  8
MAIN0
  6
CONTINUOUS
 62
3
100
AcDbDimension
  2
*D26
 10
562.3153088227742
 20
692.1015920481182
 30
0.0000000000000000
 11
599.3153088227742
 21
692.6015920481182
 31
0.0000000000000000
 70
32
  3
MAIN001
100
AcDbAlignedDimension
 13
636.3153088227742
 23
631.0332614519523
 33
0.0000000000000000
 14
562.3153088227742
 24
631.0332614520104
 34
0.0000000000000000
100
AcDbRotatedDimension
1001
ACAD
1000
DSTYLE
1002
{
1070
   173
1070
     1
1070
     6
1000
_OPEN
1070
     7
1000
_OPEN
1070
    41
1040
8.000000
1002
}
  0
LINE
  5
31C
100
AcDbEntity
  8
MAIN0
  6
CENTER
 62
3
100
AcDbLine
 10
488.4471561652778
 20
971.1823047551543
 30
0.0000000000000000
 11
502.4857114429889
 21
971.1823047551543
 31
0.0000000000000000
  0
LINE
  5
31D
100
AcDbEntity
  8
MAIN0
  6
CENTER
 62
3
100
AcDbLine
 10
526.8857110615192
 20
971.1823047551543
 30
0.0000000000000000
 11
842.2935044501037
 21
971.1823047551543
 31
0.0000000000000000
  0
LEADER
  5
31E
100
AcDbEntity
  8
MAIN0
  6
CONTINUOUS
 62
3
100
AcDbLeader
  3
MAIN001
 73
     0
 75
     1
 40
12.39999961853027
 41
87.59900005364418
 76
     3
 10
325.7587818957254
 20
974.2586938830758
 30
0.0000000000000000
 10
212.3043542787612
 20
1084.526034444268
 30
0.0000000000000000
 10
205.1593544894040
 20
1084.526034444268
 30
0.0000000000000000
340
31F
213
0.0000000000000000
223
-2.000000000000000
233
0.0000000000000000
1001
ACAD
1000
DSTYLE
1002
{
1070
   147
1040
0.0
1070
    77
1070
     1
1070
   173
1070
     1
1070
     6
1000
_OPEN
1070
     7
1000
_OPEN
1002
}
  0
MTEXT
  5
31F
102
{ACAD_REACTORS
330
31E
102
}
100
AcDbEntity
  8
MAIN0
  6
CONTINUOUS
 62
3
100
AcDbMText
 10
117.5603544357599
 20
1098.926034062798
 30
0.0000000000000000
 40
12.39999961853027
 41
0.0000000000000000
 71
     1
 72
     1
  1
{\H0.70x;{（吊りボルト用）\P（EYE BOLT）\P}
 11
1.000000000000000
 21
0.0000000000000000
 31
0.0000000000000000
  7
KNJYOKO
  0
MTEXT
  5
320
100
AcDbEntity
  8
MAIN0
  6
CONTINUOUS
 62
3
100
AcDbMText
 10
1095.158278501702
 20
396.0391271883666
 30
0.0000000000000000
 40
12.00000000000000
 41
0.0000000000000000
 71
     1
 72
     1
  1
{\H0.62x;{CLAMP\P(ATTACHMENTS　4SET)}}
 11
1.000000000000000
 21
0.0000000000000000
 31
0.0000000000000000
  7
KNJYOKO
  0
MTEXT
  5
321
100
AcDbEntity
  8
MAIN0
  6
CONTINUOUS
 62
3
100
AcDbMText
 10
722.4239936447945
 20
783.6063887674818
 30
0.0000000000000000
 40
12.00000000000000
 41
0.0000000000000000
 71
     1
 72
     1
  1
{\H0.63x;{LOOSENING SIDE AIR PORT}}
 11
1.000000000000000
 21
0.0000000000000000
 31
0.0000000000000000
  7
STANDARD
  0
MTEXT
  5
322
100
AcDbEntity
  8
MAIN0
  6
CONTINUOUS
 62
3
100
AcDbMText
 10
783.6331391474649
 20
715.1393819146572
 30
0.0000000000000000
 40
12.00000000000000
 41
0.0000000000000000
 71
     1
 72
     1
  1
{\H0.63x;{TIFHTENING SIDE AIR PORT}}
 11
1.000000000000000
 21
0.0000000000000000
 31
0.0000000000000000
  7
STANDARD
  0
MTEXT
  5
323
100
AcDbEntity
  8
MAIN0
  6
CONTINUOUS
 62
3
100
AcDbMText
 10
874.6919043796622
 20
670.3423765772077
 30
0.0000000000000000
 40
12.00000000000000
 41
0.0000000000000000
 71
     1
 72
     1
  1
{\H0.63x;{GRIP FOR HANDLE \PCAN BE REMOVED}}
 11
1.000000000000000
 21
0.0000000000000000
 31
0.0000000000000000
  7
STANDARD
  0
MTEXT
  5
324
100
AcDbEntity
  8
MAIN0
  6
CONTINUOUS
 62
3
100
AcDbMText
 10
1288.187688720641
 20
324.1462954660311
 30
0.0000000000000000
 40
12.00000000000000
 41
0.0000000000000000
 71
     1
 72
     1
  1
{\H0.63x;{(AIR CONTROL UNIT WIDTH)}}
 11
1.000000000000000
 21
0.0000000000000000
 31
0.0000000000000000
  7
STANDARD
  0
MTEXT
  5
325
100
AcDbEntity
  8
MAIN0
  6
CONTINUOUS
 62
3
100
AcDbMText
 10
1333.475480441378
 20
384.6795002869970
 30
0.0000000000000000
 40
12.00000000000000
 41
0.0000000000000000
 71
     1
 72
     1
  1
{\H0.63x;{(BODY WIDTH)}}
 11
1.000000000000000
 21
0.0000000000000000
 31
0.0000000000000000
  7
STANDARD
  0
MTEXT
  5
326
100
AcDbEntity
  8
MAIN0
  6
CONTINUOUS
 62
3
100
AcDbMText
 10
1311.291234839206
 20
674.9152962576901
 30
0.0000000000000000
 40
12.00000000000000
 41
0.0000000000000000
 71
     1
 72
     1
  1
{\H0.63x;{(COVER WIDTH SIZE)}}
 11
1.000000000000000
 21
0.0000000000000000
 31
0.0000000000000000
  7
STANDARD
  0
MTEXT
  5
327
100
AcDbEntity
  8
MAIN0
  6
CONTINUOUS
 62
3
100
AcDbMText
 10
446.5629228771677
 20
170.2331365589456
 30
0.0000000000000000
 40
12.00000000000000
 41
0.0000000000000000
 71
     1
 72
     1
  1
{\H0.63x;{※ A PAIR OF HOSE CONNENTION PORTS FOR CLAMP AND\P 　UNCLAMP (BOTH Rc 1/4) ARE PROVIDED ON BOTH SIDES\P 　OF VISE BODY RESPECTIVELY. SELECTING AND PIPING.}}
 11
1.000000000000000
 21
0.0000000000000000
 31
0.0000000000000000
  7
KNJYOKO
  0
MTEXT
  5
328
100
AcDbEntity
  8
MAIN0
  6
CONTINUOUS
 62
3
100
AcDbMText
 10
216.0345412349673
 20
937.5088126706836
 30
0.0000000000000000
 40
12.00000000000000
 41
0.0000000000000000
 71
     1
 72
     1
  1
{\H0.63x;{(JAW WIDTH)}}
 11
6.123233995736766e-017
 21
1.000000000000000
 31
0.0000000000000000
  7
STANDARD
  0
LINE
  5
329
100
AcDbEntity
  8
MAIN0
  6
CENTER
 62
3
100
AcDbLine
 10
433.3153088226503
 20
473.2754300666419
 30
0.0000000000000000
 11
433.3153088226734
 21
502.2845812230580
 31
0.0000000000000000
  0
DIMENSION
  5
332
100
AcDbEntity
  8
MAIN0
  6
CONTINUOUS
 62
3
100
AcDbDimension
  2
*D27
 10
288.3153088226645
 20
330.7236304138087
 30
0.0000000000000000
 11
360.8153088226574
 21
331.2236304138087
 31
0.0000000000000000
 70
32
  3
MAIN001
100
AcDbAlignedDimension
 13
433.3153088226503
 23
473.2754300666419
 33
0.0000000000000000
 14
288.3153088226645
 24
491.0332614518584
 34
0.0000000000000000
100
AcDbRotatedDimension
1001
ACAD
1000
DSTYLE
1002
{
1070
   173
1070
     1
1070
     6
1000
_OPEN
1070
     7
1000
_OPEN
1070
    41
1040
8.000000
1002
}
  0
DIMENSION
  5
33B
100
AcDbEntity
  8
MAIN0
  6
CONTINUOUS
 62
3
100
AcDbDimension
  2
*D28
 10
433.3153088226503
 20
330.7236304138087
 30
0.0000000000000000
 11
635.8153088226652
 21
331.2236304138087
 31
0.0000000000000000
 70
32
  3
MAIN001
100
AcDbAlignedDimension
 13
838.3153088226802
 23
511.0332614521633
 33
0.0000000000000000
 14
433.3153088226503
 24
473.2754300666419
 34
0.0000000000000000
100
AcDbRotatedDimension
1001
ACAD
1000
DSTYLE
1002
{
1070
   173
1070
     1
1070
     6
1000
_OPEN
1070
     7
1000
_OPEN
1070
    41
1040
8.000000
1002
}
  0
DIMENSION
  5
344
100
AcDbEntity
  8
MAIN0
  6
CONTINUOUS
 62
3
100
AcDbDimension
  2
*D29
 10
288.3153088226645
 20
305.0009078676537
 30
0.0000000000000000
 11
563.3153088226723
 21
305.5009078676537
 31
0.0000000000000000
 70
32
  3
MAIN001
100
AcDbAlignedDimension
 13
838.3153088226802
 23
511.0332614521633
 33
0.0000000000000000
 14
288.3153088226645
 24
491.0332614518584
 34
0.0000000000000000
100
AcDbRotatedDimension
1001
ACAD
1000
DSTYLE
1002
{
1070
   173
1070
     1
1070
     6
1000
_OPEN
1070
     7
1000
_OPEN
1070
    41
1040
8.000000
1002
}
  0
DIMENSION
  5
34D
100
AcDbEntity
  8
MAIN0
  6
CONTINUOUS
 62
3
100
AcDbDimension
  2
*D30
 10
838.3153088226802
 20
305.0009078676537
 30
0.0000000000000000
 11
876.1261287945461
 21
307.0009078676537
 31
0.0000000000000000
 70
160
  3
MAIN001
100
AcDbAlignedDimension
 13
902.3153088227382
 23
593.0332614521999
 33
0.0000000000000000
 14
838.3153088226802
 24
511.0332614521633
 34
0.0000000000000000
100
AcDbRotatedDimension
1001
ACAD
1000
DSTYLE
1002
{
1070
   173
1070
     1
1070
     6
1000
_OPEN
1070
     7
1000
_OPEN
1070
    41
1040
8.000000
1002
}
  0
DIMENSION
  5
356
100
AcDbEntity
  8
MAIN0
  6
CONTINUOUS
 62
3
100
AcDbDimension
  2
*D31
 10
288.3153088226645
 20
361.3141261430567
 30
0.0000000000000000
 11
470.8153088226645
 21
361.8141261430567
 31
0.0000000000000000
 70
32
  3
MAIN001
100
AcDbAlignedDimension
 13
653.3153088226645
 23
491.0332614515721
 33
0.0000000000000000
 14
288.3153088226645
 24
491.0332614518584
 34
0.0000000000000000
100
AcDbRotatedDimension
1001
ACAD
1000
DSTYLE
1002
{
1070
   173
1070
     1
1070
     6
1000
_OPEN
1070
     7
1000
_OPEN
1070
    41
1040
8.000000
1002
}
  0
DIMENSION
  5
35F
100
AcDbEntity
  8
MAIN0
  6
CONTINUOUS
 62
3
100
AcDbDimension
  2
*D32
 10
653.3153088226645
 20
361.3141261430567
 30
0.0000000000000000
 11
745.8153088226723
 21
361.8141261430567
 31
0.0000000000000000
 70
32
  3
MAIN001
100
AcDbAlignedDimension
 13
838.3153088226802
 23
511.0332614521633
 33
0.0000000000000000
 14
653.3153088226645
 24
491.0332614515721
 34
0.0000000000000000
100
AcDbRotatedDimension
1001
ACAD
1000
DSTYLE
1002
{
1070
   173
1070
     1
1070
     6
1000
_OPEN
1070
     7
1000
_OPEN
1070
    41
1040
8.000000
1002
}
  0
DIMENSION
  5
368
100
AcDbEntity
  8
MAIN0
  6
CONTINUOUS
 62
3
100
AcDbDimension
  2
*D33
 10
367.3153088227433
 20
391.9046218723048
 30
0.0000000000000000
 11
400.3153088226968
 21
392.4046218723048
 31
0.0000000000000000
 70
32
  3
MAIN001
100
AcDbAlignedDimension
 13
433.3153088226503
 23
473.2754300666419
 33
0.0000000000000000
 14
367.3153088227433
 24
591.0332614519023
 34
0.0000000000000000
100
AcDbRotatedDimension
1001
ACAD
1000
DSTYLE
1002
{
1070
   173
1070
     1
1070
     6
1000
_OPEN
1070
     7
1000
_OPEN
1070
    41
1040
8.000000
1002
}
  0
DIMENSION
  5
371
100
AcDbEntity
  8
MAIN0
  6
CONTINUOUS
 62
3
100
AcDbDimension
  2
*D34
 10
433.3153088226503
 20
391.9046218723048
 30
0.0000000000000000
 11
543.3153088226575
 21
392.4046218723048
 31
0.0000000000000000
 70
32
  3
MAIN001
100
AcDbAlignedDimension
 13
653.3153088226645
 23
491.0332614515721
 33
0.0000000000000000
 14
433.3153088226503
 24
473.2754300666419
 34
0.0000000000000000
100
AcDbRotatedDimension
1001
ACAD
1000
DSTYLE
1002
{
1070
   173
1070
     1
1070
     6
1000
_OPEN
1070
     7
1000
_OPEN
1070
    41
1040
8.000000
1002
}
  0
DIMENSION
  5
37A
100
AcDbEntity
  8
MAIN0
  6
CONTINUOUS
 62
3
100
AcDbDimension
  2
*D35
 10
288.3153088226645
 20
421.1473842419508
 30
0.0000000000000000
 11
325.8153088226931
 21
421.6473842419508
 31
0.0000000000000000
 70
32
  3
MAIN001
100
AcDbAlignedDimension
 13
363.3153088227218
 23
552.0332614519000
 33
0.0000000000000000
 14
288.3153088226645
 24
491.0332614518584
 34
0.0000000000000000
100
AcDbRotatedDimension
1001
ACAD
1000
DSTYLE
1002
{
1070
   173
1070
     1
1070
     6
1000
_OPEN
1070
     7
1000
_OPEN
1070
    41
1040
8.000000
1002
}
  0
DIMENSION
  5
383
100
AcDbEntity
  8
MAIN0
  6
CONTINUOUS
 62
3
100
AcDbDimension
  2
*D36
 10
363.3153088227218
 20
421.1473842419508
 30
0.0000000000000000
 11
490.8153088227218
 21
421.6473842419508
 31
0.0000000000000000
 70
32
  3
MAIN001
100
AcDbAlignedDimension
 13
618.3153088227218
 23
552.0332614519000
 33
0.0000000000000000
 14
363.3153088227218
 24
552.0332614519000
 34
0.0000000000000000
100
AcDbRotatedDimension
1001
ACAD
1000
DSTYLE
1002
{
1070
   173
1070
     1
1070
     6
1000
_OPEN
1070
     7
1000
_OPEN
1070
    41
1040
8.000000
1002
}
  0
DIMENSION
  5
38B
100
AcDbEntity
  8
MAIN0
  6
CONTINUOUS
 62
3
100
AcDbDimension
  2
*D37
 10
584.0649252092829
 20
491.0332614520608
 30
0.0000000000000000
 11
583.5649252092829
 21
527.5332614520511
 31
0.0000000000000000
 70
32
  3
MAIN001
100
AcDbAlignedDimension
 13
606.3153088227216
 23
564.0332614520414
 33
0.0000000000000000
 14
653.3153088226645
 24
491.0332614520608
 34
0.0000000000000000
 50
90.00000000000000
100
AcDbRotatedDimension
1001
ACAD
1000
DSTYLE
1002
{
1070
   173
1070
     1
1070
     6
1000
_OPEN
1070
     7
1000
_OPEN
1070
    41
1040
8.000000
1002
}
  0
DIMENSION
  5
395
100
AcDbEntity
  8
MAIN0
  6
CONTINUOUS
 62
3
100
AcDbDimension
  2
*D38
 10
584.0649252092829
 20
564.0332614520414
 30
0.0000000000000000
 11
583.5649252092829
 21
577.5332614520908
 31
0.0000000000000000
 70
32
  3
MAIN001
100
AcDbAlignedDimension
 13
796.3153088227427
 23
591.0332614521402
 33
0.0000000000000000
 14
606.3153088227216
 24
564.0332614520414
 34
0.0000000000000000
 50
90.00000000000000
100
AcDbRotatedDimension
1001
ACAD
1000
DSTYLE
1002
{
1070
   173
1070
     1
1070
     6
1000
_OPEN
1070
     7
1000
_OPEN
1070
    41
1040
8.000000
1070
   287
1070
     0
1002
}
  0
DIMENSION
  5
39F
100
AcDbEntity
  8
MAIN0
  6
CONTINUOUS
 62
1
100
AcDbDimension
  2
*D39
 10
1287.613211769017
 20
436.3514551118905
 30
0.0000000000000000
 11
1337.511031969362
 21
438.3514551118905
 31
0.0000000000000000
 70
160
  1
\A1;15～31
  3
MAIN001
100
AcDbAlignedDimension
 13
1310.613211769029
 23
491.0332614523655
 33
0.0000000000000000
 14
1287.613211769017
 24
551.0332614523418
 34
0.0000000000000000
100
AcDbRotatedDimension
1001
ACAD
1000
DSTYLE
1002
{
1070
   173
1070
     1
1070
     6
1000
_OPEN
1070
     7
1000
_OPEN
1070
    41
1040
8.000000
1070
   287
1070
     0
1070
   340
1005
3A0
1002
}
  0
LINE
  5
3A1
100
AcDbEntity
  8
MAIN0
  6
CONTINUOUS
 62
3
100
AcDbLine
 10
751.8153088227225
 20
547.5332614521474
 30
0.0000000000000000
 11
729.8153088227225
 21
547.5332614521474
 31
0.0000000000000000
  0
ARC
  5
3A2
100
AcDbEntity
  8
MAIN0
  6
CONTINUOUS
 62
3
100
AcDbCircle
 10
729.8153088227225
 20
551.5332614521474
 30
0.0000000000000000
 40
4.000000000000000
100
AcDbArc
 50
180.0000000000000
 51
270.0000000000000
  0
LINE
  5
3A3
100
AcDbEntity
  8
MAIN0
  6
CONTINUOUS
 62
3
100
AcDbLine
 10
725.8153088227225
 20
552.5332614521474
 30
0.0000000000000000
 11
725.8153088227225
 21
551.5332614521474
 31
0.0000000000000000
  0
ARC
  5
3A4
100
AcDbEntity
  8
MAIN0
  6
CONTINUOUS
 62
3
100
AcDbCircle
 10
729.8153088227225
 20
552.5332614521474
 30
0.0000000000000000
 40
4.000000000000000
100
AcDbArc
 50
90.00000000000000
 51
180.0000000000000
  0
LINE
  5
3A5
100
AcDbEntity
  8
MAIN0
  6
CONTINUOUS
 62
3
100
AcDbLine
 10
751.8153088227225
 20
556.5332614521474
 30
0.0000000000000000
 11
729.8153088227225
 21
556.5332614521474
 31
0.0000000000000000
  0
ARC
  5
3A6
100
AcDbEntity
  8
MAIN0
  6
CONTINUOUS
 62
3
100
AcDbCircle
 10
751.8153088227225
 20
552.5332614521474
 30
0.0000000000000000
 40
4.000000000000000
100
AcDbArc
 50
0.0000000000000000
 51
90.00000000000000
  0
LINE
  5
3A7
100
AcDbEntity
  8
MAIN0
  6
CONTINUOUS
 62
3
100
AcDbLine
 10
755.8153088227225
 20
552.5332614521474
 30
0.0000000000000000
 11
755.8153088227225
 21
551.5332614521474
 31
0.0000000000000000
  0
ARC
  5
3A8
100
AcDbEntity
  8
MAIN0
  6
CONTINUOUS
 62
3
100
AcDbCircle
 10
751.8153088227225
 20
551.5332614521474
 30
0.0000000000000000
 40
4.000000000000000
100
AcDbArc
 50
270.0000000000000
 51
360.0000000000000
  0
LINE
  5
3A9
100
AcDbEntity
  8
MAIN0
  6
CONTINUOUS
 62
3
100
AcDbLine
 10
794.8153088227225
 20
562.5332614521474
 30
0.0000000000000000
 11
772.8153088227225
 21
562.5332614521474
 31
0.0000000000000000
  0
ARC
  5
3AA
100
AcDbEntity
  8
MAIN0
  6
CONTINUOUS
 62
3
100
AcDbCircle
 10
772.8153088227225
 20
566.5332614521473
 30
0.0000000000000000
 40
4.000000000000000
100
AcDbArc
 50
180.0000000000000
 51
270.0000000000000
  0
LINE
  5
3AB
100
AcDbEntity
  8
MAIN0
  6
CONTINUOUS
 62
3
100
AcDbLine
 10
768.8153088227225
 20
567.5332614521473
 30
0.0000000000000000
 11
768.8153088227225
 21
566.5332614521473
 31
0.0000000000000000
  0
ARC
  5
3AC
100
AcDbEntity
  8
MAIN0
  6
CONTINUOUS
 62
3
100
AcDbCircle
 10
772.8153088227225
 20
567.5332614521473
 30
0.0000000000000000
 40
4.000000000000000
100
AcDbArc
 50
90.00000000000000
 51
180.0000000000000
  0
LINE
  5
3AD
100
AcDbEntity
  8
MAIN0
  6
CONTINUOUS
 62
3
100
AcDbLine
 10
794.8153088227225
 20
571.5332614521474
 30
0.0000000000000000
 11
772.8153088227225
 21
571.5332614521474
 31
0.0000000000000000
  0
ARC
  5
3AE
100
AcDbEntity
  8
MAIN0
  6
CONTINUOUS
 62
3
100
AcDbCircle
 10
794.8153088227225
 20
567.5332614521474
 30
0.0000000000000000
 40
4.000000000000000
100
AcDbArc
 50
0.0000000000000000
 51
90.00000000000000
  0
LINE
  5
3AF
100
AcDbEntity
  8
MAIN0
  6
CONTINUOUS
 62
3
100
AcDbLine
 10
798.8153088227225
 20
567.5332614521474
 30
0.0000000000000000
 11
798.8153088227225
 21
566.5332614521473
 31
0.0000000000000000
  0
ARC
  5
3B0
100
AcDbEntity
  8
MAIN0
  6
CONTINUOUS
 62
3
100
AcDbCircle
 10
794.8153088227225
 20
566.5332614521473
 30
0.0000000000000000
 40
4.000000000000000
100
AcDbArc
 50
270.0000000000000
 51
360.0000000000000
  0
CIRCLE
  5
3B1
100
AcDbEntity
  8
MAIN0
  6
CONTINUOUS
 62
3
100
AcDbCircle
 10
811.3153088218373
 20
939.1823047551543
 30
0.0000000000000000
 40
7.500000000000000
  0
LINE
  5
3B2
100
AcDbEntity
  8
MAIN0
  6
CENTER
 62
3
100
AcDbLine
 10
811.3153088218373
 20
929.3839294849572
 30
0.0000000000000000
 11
811.3153088218373
 21
948.9806800253513
 31
0.0000000000000000
  0
LINE
  5
3B3
100
AcDbEntity
  8
MAIN0
  6
CENTER
 62
3
100
AcDbLine
 10
801.5169335516403
 20
939.1823047551543
 30
0.0000000000000000
 11
821.1136840920344
 21
939.1823047551543
 31
0.0000000000000000
  0
LEADER
  5
3B4
100
AcDbEntity
  8
MAIN0
  6
CONTINUOUS
 62
3
100
AcDbLeader
  3
MAIN001
 73
     0
 74
     0
 75
     1
 40
12.39999961853027
 41
108.8010000715256
 76
     3
 10
1433.613211769016
 20
530.0332614524052
 30
0.0000000000000000
 10
1472.995869633445
 20
564.3459841596202
 30
0.0000000000000000
 10
1480.138869422802
 20
564.3459841596202
 30
0.0000000000000000
340
3B5
213
0.0000000000000000
223
-2.000000000000000
233
0.0000000000000000
1001
ACAD
1000
DSTYLE
1002
{
1070
   147
1040
0.0
1070
    77
1070
     1
1070
   173
1070
     1
1070
     6
1000
_DOT
1070
     7
1000
_DOT
1002
}
  0
MTEXT
  5
3B5
102
{ACAD_REACTORS
330
3B4
102
}
100
AcDbEntity
  8
MAIN0
  6
CONTINUOUS
 62
3
100
AcDbMText
 10
1480.139869422802
 20
578.7459837781505
 30
0.0000000000000000
 40
12.39999961853027
 41
0.0000000000000000
 71
     1
 72
     1
  1
{\H0.71x;{グリースニップル\PGREASE NIPPLE}}
 11
1.000000000000000
 21
0.0000000000000000
 31
0.0000000000000000
  7
KNJYOKO
  0
LINE
  5
3B6
100
AcDbEntity
  8
MAIN0
  6
CONTINUOUS
 62
3
100
AcDbLine
 10
1368.863211769026
 20
497.5960648576163
 30
0.0000000000000000
 11
1368.863211769027
 21
499.7332614524019
 31
0.0000000000000000
  0
ARC
  5
3B7
100
AcDbEntity
  8
MAIN0
  6
CONTINUOUS
 62
3
100
AcDbCircle
 10
1373.613211769031
 20
504.0332614524045
 30
0.0000000000000000
 40
8.000000000000000
100
AcDbArc
 50
233.5764263576238
 51
306.4235736422858
  0
LINE
  5
3B8
100
AcDbEntity
  8
MAIN0
  6
CONTINUOUS
 62
3
100
AcDbLine
 10
1378.363211769026
 20
497.5960648576089
 30
0.0000000000000000
 11
1378.363211769027
 21
499.7332614524072
 31
0.0000000000000000
  0
LINE
  5
3B9
100
AcDbEntity
  8
MAIN0
  6
HIDDEN
 62
3
100
AcDbLine
 10
810.4186336614323
 20
612.0345963280187
 30
0.0000000000000000
 11
818.3153088218373
 21
612.0345998635298
 31
0.0000000000000000
  0
LINE
  5
3BA
100
AcDbEntity
  8
MAIN0
  6
CONTINUOUS
 62
3
100
AcDbLine
 10
818.3153088218371
 20
612.0345998635297
 30
0.0000000000000000
 11
835.3153047929227
 21
612.0346074747930
 31
0.0000000000000000
  0
LINE
  5
3BB
100
AcDbEntity
  8
MAIN0
  6
CENTER
 62
3
100
AcDbLine
 10
1148.479354690719
 20
546.9835229857872
 30
0.0000000000000000
 11
1148.479354690691
 21
454.0224446051068
 31
0.0000000000000000
  0
LINE
  5
3BC
100
AcDbEntity
  8
MAIN0
  6
CONTINUOUS
 62
3
100
AcDbLine
 10
1125.979354690712
 20
521.0332614522635
 30
0.0000000000000000
 11
1127.651485838244
 21
491.0332614523823
 31
0.0000000000000000
  0
LINE
  5
3BD
100
AcDbEntity
  8
MAIN0
  6
CONTINUOUS
 62
3
100
AcDbLine
 10
1170.979354690710
 20
521.0332614522498
 30
0.0000000000000000
 11
1169.307223543160
 21
491.0332614523695
 31
0.0000000000000000
  0
LINE
  5
3BE
100
AcDbEntity
  8
MAIN0
  6
CONTINUOUS
 62
3
100
AcDbLine
 10
1125.979354690711
 20
521.0332614522637
 30
0.0000000000000000
 11
1170.979354690711
 21
521.0332614522499
 31
0.0000000000000000
  0
LINE
  5
3BF
100
AcDbEntity
  8
MAIN0
  6
CONTINUOUS
 62
3
100
AcDbLine
 10
1127.651485838244
 20
491.0332614524045
 30
0.0000000000000000
 11
1169.307223543160
 21
491.0332614523917
 31
0.0000000000000000
  0
DIMENSION
  5
3C8
100
AcDbEntity
  8
MAIN0
  6
CONTINUOUS
 62
3
100
AcDbDimension
  2
*D40
 10
1125.979354690711
 20
554.8062557513042
 30
0.0000000000000000
 11
1148.479354690711
 21
555.3062557513042
 31
0.0000000000000000
 70
32
  3
MAIN001
100
AcDbAlignedDimension
 13
1170.979354690711
 23
521.0332614522496
 33
0.0000000000000000
 14
1125.979354690711
 24
521.0332614522635
 34
0.0000000000000000
100
AcDbRotatedDimension
1001
ACAD
1000
DSTYLE
1002
{
1070
   173
1070
     1
1070
     6
1000
_OPEN
1070
     7
1000
_OPEN
1070
    41
1040
8.000000
1002
}
  0
DIMENSION
  5
3D3
100
AcDbEntity
  8
MAIN0
  6
CONTINUOUS
 62
3
100
AcDbDimension
  2
*D41
 10
1245.403553162406
 20
293.5378544121359
 30
0.0000000000000000
 11
1244.903553162406
 21
279.2878544121359
 31
0.0000000000000000
 70
32
  3
MAIN001
100
AcDbAlignedDimension
 13
1272.613211768996
 23
265.0378544121360
 33
0.0000000000000000
 14
1272.613211768976
 24
293.5378544121359
 34
0.0000000000000000
 50
90.00000000000000
100
AcDbRotatedDimension
1001
ACAD
1000
DSTYLE
1002
{
1070
   173
1070
     1
1070
     6
1000
_OPEN
1070
     7
1000
_OPEN
1070
    41
1040
8.000000
1070
   287
1070
     0
1002
}
  0
DIMENSION
  5
3DE
100
AcDbEntity
  8
MAIN0
  6
CONTINUOUS
 62
3
100
AcDbDimension
  2
*D42
 10
1335.761017614667
 20
288.0378544121360
 30
0.0000000000000000
 11
1333.761017614667
 21
243.9027361259097
 31
0.0000000000000000
 70
160
  3
MAIN001
100
AcDbAlignedDimension
 13
1302.613211768992
 23
270.5378544121277
 33
0.0000000000000000
 14
1302.613211768980
 24
288.0378544121277
 34
0.0000000000000000
 50
90.00000000000000
100
AcDbRotatedDimension
1001
ACAD
1000
DSTYLE
1002
{
1070
   173
1070
     1
1070
     6
1000
_OPEN
1070
     7
1000
_OPEN
1070
    41
1040
8.000000
1070
   287
1070
     0
1002
}
  0
DIMENSION
  5
3E9
100
AcDbEntity
  8
MAIN0
  6
CONTINUOUS
 62
3
100
AcDbDimension
  2
*D43
 10
1272.613211768996
 20
229.2642166818648
 30
0.0000000000000000
 11
1287.613211768996
 21
229.7642166818648
 31
0.0000000000000000
 70
32
  3
MAIN001
100
AcDbAlignedDimension
 13
1302.613211768996
 23
265.0378544121277
 33
0.0000000000000000
 14
1272.613211768996
 24
265.0378544121360
 34
0.0000000000000000
100
AcDbRotatedDimension
1001
ACAD
1000
DSTYLE
1002
{
1070
   173
1070
     1
1070
     6
1000
_OPEN
1070
     7
1000
_OPEN
1070
    41
1040
8.000000
1070
   287
1070
     0
1002
}
  0
LINE
  5
3EA
100
AcDbEntity
  8
MAIN0
  6
DASHED
 62
3
100
AcDbLine
 10
1305.113211769023
 20
521.0332614523500
 30
0.0000000000000000
 11
1305.113211769023
 21
526.0332614523500
 31
0.0000000000000000
  0
LINE
  5
3EB
100
AcDbEntity
  8
MAIN0
  6
CONTINUOUS
 62
3
100
AcDbLine
 10
1270.113211769023
 20
521.0332614523500
 30
0.0000000000000000
 11
1270.113211769023
 21
526.0332614523500
 31
0.0000000000000000
  0
LINE
  5
3EC
100
AcDbEntity
  8
MAIN0
  6
CONTINUOUS
 62
3
100
AcDbLine
 10
1270.113211769023
 20
526.0332614523500
 30
0.0000000000000000
 11
1298.613211769022
 21
526.0332614523500
 31
0.0000000000000000
  0
LINE
  5
3ED
100
AcDbEntity
  8
MAIN0
  6
DASHED
 62
3
100
AcDbLine
 10
1298.613211769022
 20
526.0332614523500
 30
0.0000000000000000
 11
1305.113211769023
 21
526.0332614523500
 31
0.0000000000000000
  0
LINE
  5
3EE
100
AcDbEntity
  8
MAIN0
  6
CONTINUOUS
 62
3
100
AcDbLine
 10
1239.613211769023
 20
521.0332614523500
 30
0.0000000000000000
 11
1241.313211769023
 21
491.0332614523501
 31
0.0000000000000000
  0
LINE
  5
3EF
100
AcDbEntity
  8
MAIN0
  6
CONTINUOUS
 62
3
100
AcDbLine
 10
1256.313211759385
 20
491.0332614523500
 30
0.0000000000000000
 11
1241.313211769023
 21
491.0332614523500
 31
0.0000000000000000
  0
LINE
  5
3F0
100
AcDbEntity
  8
MAIN0
  6
CONTINUOUS
 62
3
100
AcDbLine
 10
1256.313211759385
 20
491.0332614523495
 30
0.0000000000000000
 11
1257.202232835482
 21
496.0751505183727
 31
0.0000000000000000
  0
ARC
  5
3F1
100
AcDbEntity
  8
MAIN0
  6
CONTINUOUS
 62
3
100
AcDbCircle
 10
1263.111079353552
 20
495.0332614523501
 30
0.0000000000000000
 40
6.000000000000000
100
AcDbArc
 50
90.00000000000000
 51
169.9999999997949
  0
DIMENSION
  5
3FA
100
AcDbEntity
  8
MAIN0
  6
CONTINUOUS
 62
3
100
AcDbDimension
  2
*D44
 10
1239.613211769023
 20
407.2058524783907
 30
0.0000000000000000
 11
1275.113211769026
 21
407.7058524783907
 31
0.0000000000000000
 70
32
  3
MAIN001
100
AcDbAlignedDimension
 13
1310.613211769029
 23
491.0332614523655
 33
0.0000000000000000
 14
1239.613211769023
 24
521.0332614523500
 34
0.0000000000000000
100
AcDbRotatedDimension
1001
ACAD
1000
DSTYLE
1002
{
1070
   173
1070
     1
1070
     6
1000
_OPEN
1070
     7
1000
_OPEN
1070
    41
1040
8.000000
1002
}
  0
DIMENSION
  5
403
100
AcDbEntity
  8
MAIN0
  6
CONTINUOUS
 62
3
100
AcDbDimension
  2
*D45
 10
1310.613211769029
 20
407.2058524783907
 30
0.0000000000000000
 11
1373.613211769029
 21
407.7058524783907
 31
0.0000000000000000
 70
32
  3
MAIN001
100
AcDbAlignedDimension
 13
1436.613211769029
 23
491.0332614524440
 33
0.0000000000000000
 14
1310.613211769029
 24
491.0332614523655
 34
0.0000000000000000
100
AcDbRotatedDimension
1001
ACAD
1000
DSTYLE
1002
{
1070
   173
1070
     1
1070
     6
1000
_OPEN
1070
     7
1000
_OPEN
1070
    41
1040
8.000000
1002
}
  0
DIMENSION
  5
40D
100
AcDbEntity
  8
MAIN0
  6
CONTINUOUS
 62
3
100
AcDbDimension
  2
*D46
 10
1214.983052846117
 20
491.0332614523500
 30
0.0000000000000000
 11
1214.483052846117
 21
506.0332614523368
 31
0.0000000000000000
 70
32
  3
MAIN001
100
AcDbAlignedDimension
 13
1239.613211769023
 23
521.0332614523236
 33
0.0000000000000000
 14
1241.313211769023
 24
491.0332614523500
 34
0.0000000000000000
 50
90.00000000000000
100
AcDbRotatedDimension
1001
ACAD
1000
DSTYLE
1002
{
1070
   173
1070
     1
1070
     6
1000
_DOT
1070
     7
1000
_OPEN
1070
    41
1040
8.000000
1070
   287
1070
     0
1002
}
  0
DIMENSION
  5
417
100
AcDbEntity
  8
MAIN0
  6
CONTINUOUS
 62
3
100
AcDbDimension
  2
*D47
 10
1214.983052846117
 20
521.0332614523236
 30
0.0000000000000000
 11
1212.983052846117
 21
539.6961217840351
 31
0.0000000000000000
 70
160
  3
MAIN001
100
AcDbAlignedDimension
 13
1270.113211769023
 23
526.0332614523500
 33
0.0000000000000000
 14
1239.613211769023
 24
521.0332614523236
 34
0.0000000000000000
 50
90.00000000000000
100
AcDbRotatedDimension
1001
ACAD
1000
DSTYLE
1002
{
1070
   173
1070
     1
1070
     6
1000
_OPEN
1070
     7
1000
_DOT
1070
    41
1040
8.000000
1070
   287
1070
     0
1002
}
  0
CIRCLE
  5
418
100
AcDbEntity
  8
MAIN0
  6
CONTINUOUS
 62
3
100
AcDbCircle
 10
714.3153088227225
 20
565.0332614520946
 30
0.0000000000000000
 40
3.000000000000000
  0
CIRCLE
  5
419
100
AcDbEntity
  8
MAIN0
  6
CONTINUOUS
 62
3
100
AcDbCircle
 10
714.3153088227225
 20
565.0332614520946
 30
0.0000000000000000
 40
2.500000000000000
  0
CIRCLE
  5
41A
100
AcDbEntity
  8
MAIN0
  6
CONTINUOUS
 62
3
100
AcDbCircle
 10
766.3153088227225
 20
552.0332614521234
 30
0.0000000000000000
 40
6.578500000000002
  0
CIRCLE
  5
41B
100
AcDbEntity
  8
MAIN0
  6
CONTINUOUS
 62
3
100
AcDbCircle
 10
766.3153088227225
 20
552.0332614521234
 30
0.0000000000000000
 40
5.722500000000000
  0
CIRCLE
  5
41C
100
AcDbEntity
  8
MAIN0
  6
CONTINUOUS
 62
3
100
AcDbCircle
 10
774.3153088226958
 20
531.0332614521278
 30
0.0000000000000000
 40
3.000000000000000
  0
CIRCLE
  5
41D
100
AcDbEntity
  8
MAIN0
  6
CONTINUOUS
 62
3
100
AcDbCircle
 10
774.3153088226958
 20
531.0332614521278
 30
0.0000000000000000
 40
2.500000000000000
  0
LINE
  5
41E
100
AcDbEntity
  8
MAIN0
  6
DASHED
 62
3
100
AcDbLine
 10
1299.613211769022
 20
526.0332614523500
 30
0.0000000000000000
 11
1299.613211769022
 21
540.4332614523499
 31
0.0000000000000000
  0
LINE
  5
41F
100
AcDbEntity
  8
MAIN0
  6
CONTINUOUS
 62
3
100
AcDbLine
 10
1296.841930476912
 20
542.0332614523500
 30
0.0000000000000000
 11
1278.384493061132
 21
542.0332614523502
 31
0.0000000000000000
  0
LINE
  5
420
100
AcDbEntity
  8
MAIN0
  6
CONTINUOUS
 62
3
100
AcDbLine
 10
1278.384493061132
 20
542.0332614523502
 30
0.0000000000000000
 11
1275.613211769022
 21
540.4332614523502
 31
0.0000000000000000
  0
LINE
  5
421
100
AcDbEntity
  8
MAIN0
  6
CONTINUOUS
 62
3
100
AcDbLine
 10
1275.613211769022
 20
540.4332614523502
 30
0.0000000000000000
 11
1275.613211769022
 21
526.0332614523502
 31
0.0000000000000000
  0
LINE
  5
422
100
AcDbEntity
  8
MAIN0
  6
CONTINUOUS
 62
3
100
AcDbLine
 10
1295.613211769023
 20
501.0332614523544
 30
0.0000000000000000
 11
1295.613211769022
 21
480.0332614523549
 31
0.0000000000000000
  0
LINE
  5
423
100
AcDbEntity
  8
MAIN0
  6
CONTINUOUS
 62
3
100
AcDbLine
 10
1279.613211769022
 20
480.0332614523460
 30
0.0000000000000000
 11
1279.613211769023
 21
501.0332614523456
 31
0.0000000000000000
  0
LINE
  5
424
100
AcDbEntity
  8
MAIN0
  6
CONTINUOUS
 62
3
100
AcDbLine
 10
1294.530679769023
 20
501.0332614523538
 30
0.0000000000000000
 11
1294.530679769023
 21
480.0332614523542
 31
0.0000000000000000
  0
LINE
  5
425
100
AcDbEntity
  8
MAIN0
  6
CONTINUOUS
 62
3
100
AcDbLine
 10
1280.695743769023
 20
501.0332614523462
 30
0.0000000000000000
 11
1280.695743769023
 21
480.0332614523466
 31
0.0000000000000000
  0
LINE
  5
426
100
AcDbEntity
  8
MAIN0
  6
CONTINUOUS
 62
3
100
AcDbLine
 10
1296.841930476911
 20
542.0332614523497
 30
0.0000000000000000
 11
1298.613211769019
 21
541.0106117215410
 31
0.0000000000000000
  0
LINE
  5
427
100
AcDbEntity
  8
MAIN0
  6
DASHED
 62
3
100
AcDbLine
 10
1298.613211769019
 20
541.0106117215410
 30
0.0000000000000000
 11
1299.613211769022
 21
540.4332614523498
 31
0.0000000000000000
  0
LINE
  5
428
100
AcDbEntity
  8
MAIN0
  6
CONTINUOUS
 62
3
100
AcDbLine
 10
1275.613211769022
 20
540.4332614523502
 30
0.0000000000000000
 11
1298.613211769019
 21
540.4332614523499
 31
0.0000000000000000
  0
LINE
  5
429
100
AcDbEntity
  8
MAIN0
  6
DASHED
 62
3
100
AcDbLine
 10
1298.613211769019
 20
540.4332614523499
 30
0.0000000000000000
 11
1299.613211769022
 21
540.4332614523499
 31
0.0000000000000000
  0
CIRCLE
  5
42A
100
AcDbEntity
  8
MAIN0
  6
CONTINUOUS
 62
3
100
AcDbCircle
 10
357.3153088231740
 20
996.1823047551561
 30
0.0000000000000000
 40
5.000000000000000
  0
CIRCLE
  5
42B
100
AcDbEntity
  8
MAIN0
  6
CONTINUOUS
 62
3
100
AcDbCircle
 10
357.3153088231740
 20
996.1823047551561
 30
0.0000000000000000
 40
4.188101000000000
  0
LINE
  5
42C
100
AcDbEntity
  8
MAIN0
  6
CONTINUOUS
 62
3
100
AcDbLine
 10
357.3153088231738
 20
999.0690561011041
 30
0.0000000000000000
 11
354.8153088231740
 21
997.6256804281301
 31
0.0000000000000000
  0
LINE
  5
42D
100
AcDbEntity
  8
MAIN0
  6
CONTINUOUS
 62
3
100
AcDbLine
 10
354.8153088231740
 20
997.6256804281302
 30
0.0000000000000000
 11
354.8153088231740
 21
994.7389290821820
 31
0.0000000000000000
  0
LINE
  5
42E
100
AcDbEntity
  8
MAIN0
  6
CONTINUOUS
 62
3
100
AcDbLine
 10
354.8153088231739
 20
994.7389290821819
 30
0.0000000000000000
 11
357.3153088231740
 21
993.2955534092079
 31
0.0000000000000000
  0
LINE
  5
42F
100
AcDbEntity
  8
MAIN0
  6
CONTINUOUS
 62
3
100
AcDbLine
 10
357.3153088231739
 20
993.2955534092080
 30
0.0000000000000000
 11
359.8153088231739
 21
994.7389290821820
 31
0.0000000000000000
  0
LINE
  5
430
100
AcDbEntity
  8
MAIN0
  6
CONTINUOUS
 62
3
100
AcDbLine
 10
359.8153088231740
 20
994.7389290821820
 30
0.0000000000000000
 11
359.8153088231740
 21
997.6256804281302
 31
0.0000000000000000
  0
LINE
  5
431
100
AcDbEntity
  8
MAIN0
  6
CONTINUOUS
 62
3
100
AcDbLine
 10
359.8153088231739
 20
997.6256804281301
 30
0.0000000000000000
 11
357.3153088231739
 21
999.0690561011041
 31
0.0000000000000000
  0
CIRCLE
  5
432
100
AcDbEntity
  8
MAIN0
  6
HIDDEN
 62
3
100
AcDbCircle
 10
350.8153088232165
 20
1015.182304755154
 30
0.0000000000000000
 40
9.000000000000000
  0
LINE
  5
433
100
AcDbEntity
  8
MAIN0
  6
HIDDEN
 62
3
100
AcDbLine
 10
350.8153088232166
 20
1020.955807447051
 30
0.0000000000000000
 11
345.8153088232165
 21
1018.069056101102
 31
0.0000000000000000
  0
LINE
  5
434
100
AcDbEntity
  8
MAIN0
  6
HIDDEN
 62
3
100
AcDbLine
 10
345.8153088232165
 20
1018.069056101102
 30
0.0000000000000000
 11
345.8153088232165
 21
1012.295553409206
 31
0.0000000000000000
  0
LINE
  5
435
100
AcDbEntity
  8
MAIN0
  6
HIDDEN
 62
3
100
AcDbLine
 10
345.8153088232165
 20
1012.295553409206
 30
0.0000000000000000
 11
350.8153088232165
 21
1009.408802063258
 31
0.0000000000000000
  0
LINE
  5
436
100
AcDbEntity
  8
MAIN0
  6
HIDDEN
 62
3
100
AcDbLine
 10
350.8153088232165
 20
1009.408802063258
 30
0.0000000000000000
 11
355.8153088232165
 21
1012.295553409206
 31
0.0000000000000000
  0
LINE
  5
437
100
AcDbEntity
  8
MAIN0
  6
HIDDEN
 62
3
100
AcDbLine
 10
355.8153088232165
 20
1012.295553409206
 30
0.0000000000000000
 11
355.8153088232165
 21
1018.069056101102
 31
0.0000000000000000
  0
LINE
  5
438
100
AcDbEntity
  8
MAIN0
  6
HIDDEN
 62
3
100
AcDbLine
 10
355.8153088232165
 20
1018.069056101102
 30
0.0000000000000000
 11
350.8153088232165
 21
1020.955807447051
 31
0.0000000000000000
  0
CIRCLE
  5
439
100
AcDbEntity
  8
MAIN0
  6
HIDDEN
 62
3
100
AcDbCircle
 10
305.8153088232166
 20
1015.182304755154
 30
0.0000000000000000
 40
9.000000000000000
  0
LINE
  5
43A
100
AcDbEntity
  8
MAIN0
  6
HIDDEN
 62
3
100
AcDbLine
 10
305.8153088232166
 20
1020.955807447051
 30
0.0000000000000000
 11
300.8153088232166
 21
1018.069056101102
 31
0.0000000000000000
  0
LINE
  5
43B
100
AcDbEntity
  8
MAIN0
  6
HIDDEN
 62
3
100
AcDbLine
 10
300.8153088232166
 20
1018.069056101102
 30
0.0000000000000000
 11
300.8153088232166
 21
1012.295553409206
 31
0.0000000000000000
  0
LINE
  5
43C
100
AcDbEntity
  8
MAIN0
  6
HIDDEN
 62
3
100
AcDbLine
 10
300.8153088232166
 20
1012.295553409206
 30
0.0000000000000000
 11
305.8153088232166
 21
1009.408802063258
 31
0.0000000000000000
  0
LINE
  5
43D
100
AcDbEntity
  8
MAIN0
  6
HIDDEN
 62
3
100
AcDbLine
 10
305.8153088232166
 20
1009.408802063258
 30
0.0000000000000000
 11
310.8153088232166
 21
1012.295553409206
 31
0.0000000000000000
  0
LINE
  5
43E
100
AcDbEntity
  8
MAIN0
  6
HIDDEN
 62
3
100
AcDbLine
 10
310.8153088232166
 20
1012.295553409206
 30
0.0000000000000000
 11
310.8153088232166
 21
1018.069056101102
 31
0.0000000000000000
  0
LINE
  5
43F
100
AcDbEntity
  8
MAIN0
  6
HIDDEN
 62
3
100
AcDbLine
 10
310.8153088232166
 20
1018.069056101102
 30
0.0000000000000000
 11
305.8153088232166
 21
1020.955807447051
 31
0.0000000000000000
  0
CIRCLE
  5
440
100
AcDbEntity
  8
MAIN0
  6
HIDDEN
 62
3
100
AcDbCircle
 10
350.8153088231475
 20
927.1823047551543
 30
0.0000000000000000
 40
9.000000000000000
  0
LINE
  5
441
100
AcDbEntity
  8
MAIN0
  6
HIDDEN
 62
3
100
AcDbLine
 10
350.8153088231475
 20
932.9558074470505
 30
0.0000000000000000
 11
345.8153088231475
 21
930.0690561011023
 31
0.0000000000000000
  0
LINE
  5
442
100
AcDbEntity
  8
MAIN0
  6
HIDDEN
 62
3
100
AcDbLine
 10
345.8153088231475
 20
930.0690561011024
 30
0.0000000000000000
 11
345.8153088231475
 21
924.2955534092062
 31
0.0000000000000000
  0
LINE
  5
443
100
AcDbEntity
  8
MAIN0
  6
HIDDEN
 62
3
100
AcDbLine
 10
345.8153088231476
 20
924.2955534092062
 30
0.0000000000000000
 11
350.8153088231476
 21
921.4088020632580
 31
0.0000000000000000
  0
LINE
  5
444
100
AcDbEntity
  8
MAIN0
  6
HIDDEN
 62
3
100
AcDbLine
 10
350.8153088231475
 20
921.4088020632578
 30
0.0000000000000000
 11
355.8153088231475
 21
924.2955534092059
 31
0.0000000000000000
  0
LINE
  5
445
100
AcDbEntity
  8
MAIN0
  6
HIDDEN
 62
3
100
AcDbLine
 10
355.8153088231475
 20
924.2955534092062
 30
0.0000000000000000
 11
355.8153088231475
 21
930.0690561011024
 31
0.0000000000000000
  0
LINE
  5
446
100
AcDbEntity
  8
MAIN0
  6
HIDDEN
 62
3
100
AcDbLine
 10
355.8153088231475
 20
930.0690561011023
 30
0.0000000000000000
 11
350.8153088231475
 21
932.9558074470505
 31
0.0000000000000000
  0
CIRCLE
  5
447
100
AcDbEntity
  8
MAIN0
  6
HIDDEN
 62
3
100
AcDbCircle
 10
305.8153088231476
 20
927.1823047551543
 30
0.0000000000000000
 40
9.000000000000000
  0
LINE
  5
448
100
AcDbEntity
  8
MAIN0
  6
HIDDEN
 62
3
100
AcDbLine
 10
305.8153088231476
 20
932.9558074470505
 30
0.0000000000000000
 11
300.8153088231476
 21
930.0690561011023
 31
0.0000000000000000
  0
LINE
  5
449
100
AcDbEntity
  8
MAIN0
  6
HIDDEN
 62
3
100
AcDbLine
 10
300.8153088231476
 20
930.0690561011024
 30
0.0000000000000000
 11
300.8153088231476
 21
924.2955534092062
 31
0.0000000000000000
  0
LINE
  5
44A
100
AcDbEntity
  8
MAIN0
  6
HIDDEN
 62
3
100
AcDbLine
 10
300.8153088231476
 20
924.2955534092060
 30
0.0000000000000000
 11
305.8153088231476
 21
921.4088020632579
 31
0.0000000000000000
  0
LINE
  5
44B
100
AcDbEntity
  8
MAIN0
  6
HIDDEN
 62
3
100
AcDbLine
 10
305.8153088231477
 20
921.4088020632578
 30
0.0000000000000000
 11
310.8153088231477
 21
924.2955534092059
 31
0.0000000000000000
  0
LINE
  5
44C
100
AcDbEntity
  8
MAIN0
  6
HIDDEN
 62
3
100
AcDbLine
 10
310.8153088231476
 20
924.2955534092062
 30
0.0000000000000000
 11
310.8153088231476
 21
930.0690561011024
 31
0.0000000000000000
  0
LINE
  5
44D
100
AcDbEntity
  8
MAIN0
  6
HIDDEN
 62
3
100
AcDbLine
 10
310.8153088231477
 20
930.0690561011023
 30
0.0000000000000000
 11
305.8153088231476
 21
932.9558074470505
 31
0.0000000000000000
  0
CIRCLE
  5
44E
100
AcDbEntity
  8
MAIN0
  6
CONTINUOUS
 62
3
100
AcDbCircle
 10
328.3153088227666
 20
620.5332614518807
 30
0.0000000000000000
 40
5.000000000000000
  0
CIRCLE
  5
44F
100
AcDbEntity
  8
MAIN0
  6
CONTINUOUS
 62
3
100
AcDbCircle
 10
328.3153088227666
 20
620.5332614518807
 30
0.0000000000000000
 40
4.250000000000000
  0
CIRCLE
  5
450
100
AcDbEntity
  8
MAIN0
  6
CONTINUOUS
 62
3
100
AcDbCircle
 10
328.3153088227508
 20
600.5332614518804
 30
0.0000000000000000
 40
5.000000000000000
  0
CIRCLE
  5
451
100
AcDbEntity
  8
MAIN0
  6
CONTINUOUS
 62
3
100
AcDbCircle
 10
328.3153088227508
 20
600.5332614518804
 30
0.0000000000000000
 40
4.250000000000000
  0
CIRCLE
  5
452
100
AcDbEntity
  8
MAIN0
  6
CONTINUOUS
 62
3
100
AcDbCircle
 10
810.3153088227225
 20
603.0332614521449
 30
0.0000000000000000
 40
3.000000000000000
  0
CIRCLE
  5
453
100
AcDbEntity
  8
MAIN0
  6
CONTINUOUS
 62
3
100
AcDbCircle
 10
810.3153088227225
 20
603.0332614521449
 30
0.0000000000000000
 40
2.500000000000000
  0
LINE
  5
454
100
AcDbEntity
  8
MAIN2
  6
CENTER
 62
1
100
AcDbLine
 10
826.3153088227446
 20
593.0332614521634
 30
0.0000000000000000
 11
906.1772328331444
 21
593.0332614521634
 31
0.0000000000000000
  0
LINE
  5
455
100
AcDbEntity
  8
MAIN1
  6
CONTINUOUS
 62
7
100
AcDbLine
 10
838.3153088227446
 20
586.5332614521634
 30
0.0000000000000000
 11
838.3153088227446
 21
599.5332614521634
 31
0.0000000000000000
  0
ARC
  5
456
100
AcDbEntity
  8
MAIN1
  6
CONTINUOUS
 62
7
100
AcDbCircle
 10
878.3153088227446
 20
562.5332614521634
 30
0.0000000000000000
 40
40.49999999999999
100
AcDbArc
 50
56.64142674044641
 51
112.8213532309397
  0
ARC
  5
457
100
AcDbEntity
  8
MAIN1
  6
CONTINUOUS
 62
7
100
AcDbCircle
 10
898.2503088227443
 20
593.0332614521634
 30
0.0000000000000000
 40
4.065000000000000
100
AcDbArc
 50
305.0590268596384
 51
414.9409731403615
  0
ARC
  5
458
100
AcDbEntity
  8
MAIN1
  6
CONTINUOUS
 62
7
100
AcDbCircle
 10
854.0253088227446
 20
619.0332614521634
 30
0.0000000000000000
 40
21.00000000000000
100
AcDbArc
 50
248.2132107017387
 51
294.1158717169586
  0
ARC
  5
459
100
AcDbEntity
  8
MAIN1
  6
CONTINUOUS
 62
7
100
AcDbCircle
 10
854.0253088227446
 20
567.0332614521634
 30
0.0000000000000000
 40
21.00000000000000
100
AcDbArc
 50
65.88412828304135
 51
111.7867892982612
  0
ARC
  5
45A
100
AcDbEntity
  8
MAIN1
  6
CONTINUOUS
 62
7
100
AcDbCircle
 10
878.3153088227446
 20
623.5332614521634
 30
0.0000000000000000
 40
40.49999999999999
100
AcDbArc
 50
247.1786467690603
 51
303.3585732595536
  0
LINE
  5
45B
100
AcDbEntity
  8
MAIN1
  6
CONTINUOUS
 62
7
100
AcDbLine
 10
846.2310801886847
 20
599.5332614521633
 30
0.0000000000000000
 11
846.2310801886849
 21
586.5332614521635
 31
0.0000000000000000
  0
LINE
  5
45C
100
AcDbEntity
  8
MAIN1
  6
CONTINUOUS
 62
7
100
AcDbLine
 10
846.2310801886847
 20
599.5332614521633
 30
0.0000000000000000
 11
838.3153088227446
 21
599.5332614521634
 31
0.0000000000000000
  0
LINE
  5
45D
100
AcDbEntity
  8
MAIN1
  6
CONTINUOUS
 62
7
100
AcDbLine
 10
846.2310801886847
 20
586.5332614521635
 30
0.0000000000000000
 11
838.3153088227443
 21
586.5332614521634
 31
0.0000000000000000
  0
LINE
  5
45E
100
AcDbEntity
  8
MAIN2
  6
CENTER
 62
1
100
AcDbLine
 10
826.3153088231898
 20
980.8973101324775
 30
0.0000000000000000
 11
906.1772328335896
 21
980.8973101324775
 31
0.0000000000000000
  0
LINE
  5
45F
100
AcDbEntity
  8
MAIN1
  6
CONTINUOUS
 62
7
100
AcDbLine
 10
838.3153088231898
 20
974.3973101324775
 30
0.0000000000000000
 11
838.3153088231898
 21
987.3973101324775
 31
0.0000000000000000
  0
ARC
  5
460
100
AcDbEntity
  8
MAIN1
  6
CONTINUOUS
 62
7
100
AcDbCircle
 10
878.3153088231898
 20
950.3973101324775
 30
0.0000000000000000
 40
40.49999999999999
100
AcDbArc
 50
56.64142674044641
 51
112.8213532309397
  0
ARC
  5
461
100
AcDbEntity
  8
MAIN1
  6
CONTINUOUS
 62
7
100
AcDbCircle
 10
898.2503088231895
 20
980.8973101324775
 30
0.0000000000000000
 40
4.065000000000000
100
AcDbArc
 50
305.0590268596384
 51
414.9409731403615
  0
ARC
  5
462
100
AcDbEntity
  8
MAIN1
  6
CONTINUOUS
 62
7
100
AcDbCircle
 10
854.0253088231898
 20
1006.897310132478
 30
0.0000000000000000
 40
21.00000000000000
100
AcDbArc
 50
248.2132107017387
 51
294.1158717169586
  0
ARC
  5
463
100
AcDbEntity
  8
MAIN1
  6
CONTINUOUS
 62
7
100
AcDbCircle
 10
854.0253088231898
 20
954.8973101324775
 30
0.0000000000000000
 40
21.00000000000000
100
AcDbArc
 50
65.88412828304135
 51
111.7867892982612
  0
ARC
  5
464
100
AcDbEntity
  8
MAIN1
  6
CONTINUOUS
 62
7
100
AcDbCircle
 10
878.3153088231898
 20
1011.397310132478
 30
0.0000000000000000
 40
40.49999999999999
100
AcDbArc
 50
247.1786467690603
 51
303.3585732595536
  0
LINE
  5
465
100
AcDbEntity
  8
MAIN1
  6
CONTINUOUS
 62
7
100
AcDbLine
 10
846.2310801891299
 20
987.3973101324774
 30
0.0000000000000000
 11
846.2310801891301
 21
974.3973101324775
 31
0.0000000000000000
  0
LINE
  5
466
100
AcDbEntity
  8
MAIN1
  6
CONTINUOUS
 62
7
100
AcDbLine
 10
846.2310801891299
 20
987.3973101324773
 30
0.0000000000000000
 11
838.3153088231898
 21
987.3973101324775
 31
0.0000000000000000
  0
LINE
  5
467
100
AcDbEntity
  8
MAIN1
  6
CONTINUOUS
 62
7
100
AcDbLine
 10
846.2310801891299
 20
974.3973101324775
 30
0.0000000000000000
 11
838.3153088231895
 21
974.3973101324775
 31
0.0000000000000000
  0
CIRCLE
  5
468
100
AcDbEntity
  8
MAIN0
  6
CONTINUOUS
 62
3
100
AcDbCircle
 10
1369.213288002273
 20
539.6125224054903
 30
0.0000000000000000
 40
5.000000000000000
  0
CIRCLE
  5
469
100
AcDbEntity
  8
MAIN0
  6
CONTINUOUS
 62
3
100
AcDbCircle
 10
1433.613211769016
 20
530.0332614524052
 30
0.0000000000000000
 40
7.500000000000000
  0
LINE
  5
46A
100
AcDbEntity
  8
MAIN0
  6
CENTER
 62
3
100
AcDbLine
 10
1443.113211769016
 20
530.0332614524052
 30
0.0000000000000000
 11
1424.113211769016
 21
530.0332614524052
 31
0.0000000000000000
  0
LINE
  5
46B
100
AcDbEntity
  8
MAIN0
  6
CENTER
 62
3
100
AcDbLine
 10
1433.613211769016
 20
539.5332614524052
 30
0.0000000000000000
 11
1433.613211769016
 21
520.5332614524052
 31
0.0000000000000000
  0
LINE
  5
46C
100
AcDbEntity
  8
MAIN0
  6
CONTINUOUS
 62
12
100
AcDbLine
 10
1435.633937711180
 20
533.5332614524053
 30
0.0000000000000000
 11
1431.592485826853
 21
533.5332614524053
 31
0.0000000000000000
  0
LINE
  5
46D
100
AcDbEntity
  8
MAIN0
  6
CONTINUOUS
 62
12
100
AcDbLine
 10
1431.592485826853
 20
526.5332614524054
 30
0.0000000000000000
 11
1435.633937711180
 21
526.5332614524054
 31
0.0000000000000000
  0
LINE
  5
46E
100
AcDbEntity
  8
MAIN0
  6
CONTINUOUS
 62
12
100
AcDbLine
 10
1437.654663653344
 20
530.0332614524054
 30
0.0000000000000000
 11
1435.633937711181
 21
533.5332614524054
 31
0.0000000000000000
  0
LINE
  5
46F
100
AcDbEntity
  8
MAIN0
  6
CONTINUOUS
 62
12
100
AcDbLine
 10
1431.592485826853
 20
533.5332614524052
 30
0.0000000000000000
 11
1429.571759884690
 21
530.0332614524051
 31
0.0000000000000000
  0
LINE
  5
470
100
AcDbEntity
  8
MAIN0
  6
CONTINUOUS
 62
12
100
AcDbLine
 10
1429.571759884689
 20
530.0332614524052
 30
0.0000000000000000
 11
1431.592485826853
 21
526.5332614524052
 31
0.0000000000000000
  0
LINE
  5
471
100
AcDbEntity
  8
MAIN0
  6
CONTINUOUS
 62
12
100
AcDbLine
 10
1435.633937711180
 20
526.5332614524056
 30
0.0000000000000000
 11
1437.654663653343
 21
530.0332614524053
 31
0.0000000000000000
  0
CIRCLE
  5
472
100
AcDbEntity
  8
MAIN0
  6
CONTINUOUS
 62
12
100
AcDbCircle
 10
1433.613211769016
 20
530.0332614524052
 30
0.0000000000000000
 40
2.154065922853398
  0
CIRCLE
  5
473
100
AcDbEntity
  8
MAIN0
  6
CONTINUOUS
 62
12
100
AcDbCircle
 10
1433.613211769016
 20
530.0332614524052
 30
0.0000000000000000
 40
3.299999999999997
  0
CIRCLE
  5
474
100
AcDbEntity
  8
MAIN0
  6
CONTINUOUS
 62
12
100
AcDbCircle
 10
1433.613211769016
 20
530.0332614524052
 30
0.0000000000000000
 40
0.9914283891267653
  0
CIRCLE
  5
475
100
AcDbEntity
  8
MAIN0
  6
CONTINUOUS
 62
3
100
AcDbCircle
 10
1313.613211769015
 20
530.0332614524044
 30
0.0000000000000000
 40
7.500000000000000
  0
LINE
  5
476
100
AcDbEntity
  8
MAIN0
  6
CENTER
 62
3
100
AcDbLine
 10
1323.113211769015
 20
530.0332614524044
 30
0.0000000000000000
 11
1304.113211769015
 21
530.0332614524044
 31
0.0000000000000000
  0
LINE
  5
477
100
AcDbEntity
  8
MAIN0
  6
CENTER
 62
3
100
AcDbLine
 10
1313.613211769015
 20
539.5332614524044
 30
0.0000000000000000
 11
1313.613211769015
 21
520.5332614524044
 31
0.0000000000000000
  0
LINE
  5
478
100
AcDbEntity
  8
MAIN0
  6
CONTINUOUS
 62
12
100
AcDbLine
 10
1315.633937711179
 20
533.5332614524045
 30
0.0000000000000000
 11
1311.592485826852
 21
533.5332614524045
 31
0.0000000000000000
  0
LINE
  5
479
100
AcDbEntity
  8
MAIN0
  6
CONTINUOUS
 62
12
100
AcDbLine
 10
1311.592485826852
 20
526.5332614524045
 30
0.0000000000000000
 11
1315.633937711179
 21
526.5332614524045
 31
0.0000000000000000
  0
LINE
  5
47A
100
AcDbEntity
  8
MAIN0
  6
CONTINUOUS
 62
12
100
AcDbLine
 10
1317.654663653343
 20
530.0332614524045
 30
0.0000000000000000
 11
1315.633937711179
 21
533.5332614524044
 31
0.0000000000000000
  0
LINE
  5
47B
100
AcDbEntity
  8
MAIN0
  6
CONTINUOUS
 62
12
100
AcDbLine
 10
1311.592485826852
 20
533.5332614524045
 30
0.0000000000000000
 11
1309.571759884688
 21
530.0332614524045
 31
0.0000000000000000
  0
LINE
  5
47C
100
AcDbEntity
  8
MAIN0
  6
CONTINUOUS
 62
12
100
AcDbLine
 10
1309.571759884688
 20
530.0332614524043
 30
0.0000000000000000
 11
1311.592485826852
 21
526.5332614524044
 31
0.0000000000000000
  0
LINE
  5
47D
100
AcDbEntity
  8
MAIN0
  6
CONTINUOUS
 62
12
100
AcDbLine
 10
1315.633937711179
 20
526.5332614524048
 30
0.0000000000000000
 11
1317.654663653343
 21
530.0332614524046
 31
0.0000000000000000
  0
CIRCLE
  5
47E
100
AcDbEntity
  8
MAIN0
  6
CONTINUOUS
 62
12
100
AcDbCircle
 10
1313.613211769015
 20
530.0332614524044
 30
0.0000000000000000
 40
2.154065922853398
  0
CIRCLE
  5
47F
100
AcDbEntity
  8
MAIN0
  6
CONTINUOUS
 62
12
100
AcDbCircle
 10
1313.613211769015
 20
530.0332614524044
 30
0.0000000000000000
 40
3.299999999999997
  0
CIRCLE
  5
480
100
AcDbEntity
  8
MAIN0
  6
CONTINUOUS
 62
12
100
AcDbCircle
 10
1313.613211769015
 20
530.0332614524044
 30
0.0000000000000000
 40
0.9914283891267653
  0
LINE
  5
481
100
AcDbEntity
  8
MAIN0
  6
CONTINUOUS
 62
3
100
AcDbLine
 10
1335.013211769016
 20
613.2332614524061
 30
0.0000000000000000
 11
1348.213211769016
 21
613.2332614524061
 31
0.0000000000000000
  0
LINE
  5
482
100
AcDbEntity
  8
MAIN0
  6
CONTINUOUS
 62
3
100
AcDbLine
 10
1334.613211769016
 20
612.8332614524061
 30
0.0000000000000000
 11
1335.013211769016
 21
613.2332614524062
 31
0.0000000000000000
  0
LINE
  5
483
100
AcDbEntity
  8
MAIN0
  6
CONTINUOUS
 62
3
100
AcDbLine
 10
1348.613211769016
 20
612.8332614524061
 30
0.0000000000000000
 11
1348.213211769016
 21
613.2332614524062
 31
0.0000000000000000
  0
LINE
  5
484
100
AcDbEntity
  8
MAIN0
  6
CONTINUOUS
 62
3
100
AcDbLine
 10
1348.613211769016
 20
611.0332614524052
 30
0.0000000000000000
 11
1348.613211769016
 21
612.8332614524061
 31
0.0000000000000000
  0
LINE
  5
485
100
AcDbEntity
  8
MAIN0
  6
CONTINUOUS
 62
3
100
AcDbLine
 10
1334.613211769016
 20
611.0332614524052
 30
0.0000000000000000
 11
1334.613211769016
 21
612.8332614524061
 31
0.0000000000000000
  0
LINE
  5
486
100
AcDbEntity
  8
MAIN0
  6
CENTER
 62
3
100
AcDbLine
 10
1341.613211769016
 20
606.8718822236524
 30
0.0000000000000000
 11
1341.613211769016
 21
615.3907310005810
 31
0.0000000000000000
  0
LINE
  5
487
100
AcDbEntity
  8
MAIN0
  6
CONTINUOUS
 62
3
100
AcDbLine
 10
1375.213211769007
 20
608.0346074752274
 30
0.0000000000000000
 11
1376.213211769007
 21
608.0346074752274
 31
0.0000000000000000
  0
LINE
  5
488
100
AcDbEntity
  8
MAIN0
  6
CONTINUOUS
 62
3
100
AcDbLine
 10
1376.213211769007
 20
608.0346074752274
 30
0.0000000000000000
 11
1376.213211769007
 21
600.9580875511223
 31
0.0000000000000000
  0
LINE
  5
489
100
AcDbEntity
  8
MAIN0
  6
CONTINUOUS
 62
3
100
AcDbLine
 10
1445.613211769003
 20
628.8332614524434
 30
0.0000000000000000
 11
1444.613211769003
 21
629.8332614524434
 31
0.0000000000000000
  0
LINE
  5
48A
100
AcDbEntity
  8
MAIN0
  6
CONTINUOUS
 62
3
100
AcDbLine
 10
1302.613211769003
 20
629.8332614524433
 30
0.0000000000000000
 11
1301.613211769003
 21
628.8332614524434
 31
0.0000000000000000
  0
CIRCLE
  5
48B
100
AcDbEntity
  8
MAIN0
  6
CONTINUOUS
 62
3
100
AcDbCircle
 10
618.3153088227218
 20
564.0332614520414
 30
0.0000000000000000
 40
5.000000000000000
  0
CIRCLE
  5
48C
100
AcDbEntity
  8
MAIN0
  6
CONTINUOUS
 62
3
100
AcDbCircle
 10
618.3153088227218
 20
564.0332614520414
 30
0.0000000000000000
 40
4.250000000000000
  0
CIRCLE
  5
48D
100
AcDbEntity
  8
MAIN0
  6
CONTINUOUS
 62
3
100
AcDbCircle
 10
363.3153088227218
 20
564.0332614519000
 30
0.0000000000000000
 40
5.000000000000000
  0
CIRCLE
  5
48E
100
AcDbEntity
  8
MAIN0
  6
CONTINUOUS
 62
3
100
AcDbCircle
 10
363.3153088227218
 20
564.0332614519000
 30
0.0000000000000000
 40
4.250000000000000
  0
CIRCLE
  5
48F
100
AcDbEntity
  8
MAIN0
  6
CONTINUOUS
 62
3
100
AcDbCircle
 10
811.3153088218373
 20
939.1823047551543
 30
0.0000000000000000
 40
7.000000000000000
  0
LINE
  5
490
100
AcDbEntity
  8
MAIN0
  6
CONTINUOUS
 62
3
100
AcDbLine
 10
808.8153088218373
 20
937.7389290821802
 30
0.0000000000000000
 11
808.8153088218373
 21
940.6256804281284
 31
0.0000000000000000
  0
LINE
  5
491
100
AcDbEntity
  8
MAIN0
  6
CONTINUOUS
 62
3
100
AcDbLine
 10
811.3153088218376
 20
936.2955534092062
 30
0.0000000000000000
 11
808.8153088218373
 21
937.7389290821802
 31
0.0000000000000000
  0
LINE
  5
492
100
AcDbEntity
  8
MAIN0
  6
CONTINUOUS
 62
3
100
AcDbLine
 10
808.8153088218373
 20
940.6256804281284
 30
0.0000000000000000
 11
811.3153088218373
 21
942.0690561011024
 31
0.0000000000000000
  0
LINE
  5
493
100
AcDbEntity
  8
MAIN0
  6
CONTINUOUS
 62
3
100
AcDbLine
 10
813.8153088218373
 20
940.6256804281284
 30
0.0000000000000000
 11
811.3153088218373
 21
942.0690561011024
 31
0.0000000000000000
  0
LINE
  5
494
100
AcDbEntity
  8
MAIN0
  6
CONTINUOUS
 62
3
100
AcDbLine
 10
813.8153088218373
 20
937.7389290821802
 30
0.0000000000000000
 11
813.8153088218373
 21
940.6256804281284
 31
0.0000000000000000
  0
LINE
  5
495
100
AcDbEntity
  8
MAIN0
  6
CONTINUOUS
 62
3
100
AcDbLine
 10
811.3153088218373
 20
936.2955534092062
 30
0.0000000000000000
 11
813.8153088218373
 21
937.7389290821802
 31
0.0000000000000000
  0
LINE
  5
496
100
AcDbEntity
  8
MAIN0
  6
CONTINUOUS
 62
3
100
AcDbLine
 10
804.7153088218374
 20
613.2332614521690
 30
0.0000000000000000
 11
817.9153088218372
 21
613.2332614521690
 31
0.0000000000000000
  0
LINE
  5
497
100
AcDbEntity
  8
MAIN0
  6
CONTINUOUS
 62
3
100
AcDbLine
 10
804.3153088218371
 20
612.8332614521689
 30
0.0000000000000000
 11
804.7153088218372
 21
613.2332614521690
 31
0.0000000000000000
  0
LINE
  5
498
100
AcDbEntity
  8
MAIN0
  6
CONTINUOUS
 62
3
100
AcDbLine
 10
818.3153088218373
 20
612.8332614521692
 30
0.0000000000000000
 11
817.9153088218375
 21
613.2332614521691
 31
0.0000000000000000
  0
LINE
  5
499
100
AcDbEntity
  8
MAIN0
  6
CONTINUOUS
 62
3
100
AcDbLine
 10
818.3153088218373
 20
611.0332614521683
 30
0.0000000000000000
 11
818.3153088218373
 21
612.8332614521690
 31
0.0000000000000000
  0
LINE
  5
49A
100
AcDbEntity
  8
MAIN0
  6
CONTINUOUS
 62
3
100
AcDbLine
 10
804.3153088218373
 20
611.0332614521683
 30
0.0000000000000000
 11
804.3153088218373
 21
612.8332614521690
 31
0.0000000000000000
  0
LINE
  5
49B
100
AcDbEntity
  8
MAIN0
  6
CONTINUOUS
 62
3
100
AcDbLine
 10
1160.479354690710
 20
526.0332614522531
 30
0.0000000000000000
 11
1160.479354690710
 21
540.4332614522532
 31
0.0000000000000000
  0
LINE
  5
49C
100
AcDbEntity
  8
MAIN0
  6
CONTINUOUS
 62
3
100
AcDbLine
 10
1160.479354690711
 20
540.4332614522532
 30
0.0000000000000000
 11
1157.708073398601
 21
542.0332614522531
 31
0.0000000000000000
  0
LINE
  5
49D
100
AcDbEntity
  8
MAIN0
  6
CONTINUOUS
 62
3
100
AcDbLine
 10
1157.708073398600
 20
542.0332614522531
 30
0.0000000000000000
 11
1139.250635982821
 21
542.0332614522531
 31
0.0000000000000000
  0
LINE
  5
49E
100
AcDbEntity
  8
MAIN0
  6
CONTINUOUS
 62
3
100
AcDbLine
 10
1139.250635982821
 20
542.0332614522533
 30
0.0000000000000000
 11
1136.479354690710
 21
540.4332614522532
 31
0.0000000000000000
  0
LINE
  5
49F
100
AcDbEntity
  8
MAIN0
  6
CONTINUOUS
 62
3
100
AcDbLine
 10
1136.479354690710
 20
540.4332614522532
 30
0.0000000000000000
 11
1136.479354690710
 21
526.0332614522531
 31
0.0000000000000000
  0
LINE
  5
4A0
100
AcDbEntity
  8
MAIN0
  6
CONTINUOUS
 62
3
100
AcDbLine
 10
1160.479354690710
 20
540.4332614522532
 30
0.0000000000000000
 11
1136.479354690710
 21
540.4332614522532
 31
0.0000000000000000
  0
LINE
  5
4A1
100
AcDbEntity
  8
MAIN0
  6
CONTINUOUS
 62
3
100
AcDbLine
 10
1134.229354690691
 20
461.0332614523812
 30
0.0000000000000000
 11
1134.229354690684
 21
472.0332614523812
 31
0.0000000000000000
  0
LINE
  5
4A2
100
AcDbEntity
  8
MAIN0
  6
CONTINUOUS
 62
3
100
AcDbLine
 10
1162.729354690691
 20
461.0332614523932
 30
0.0000000000000000
 11
1162.729354690684
 21
472.0332614523932
 31
0.0000000000000000
  0
LINE
  5
4A3
100
AcDbEntity
  8
MAIN0
  6
CONTINUOUS
 62
3
100
AcDbLine
 10
1134.229354690692
 20
461.0332614523813
 30
0.0000000000000000
 11
1162.729354690692
 21
461.0332614523932
 31
0.0000000000000000
  0
LINE
  5
4A4
100
AcDbEntity
  8
MAIN0
  6
CONTINUOUS
 62
3
100
AcDbLine
 10
1139.729354690678
 20
480.0332614523836
 30
0.0000000000000000
 11
1157.229354690678
 21
480.0332614523908
 31
0.0000000000000000
  0
LINE
  5
4A5
100
AcDbEntity
  8
MAIN0
  6
CONTINUOUS
 62
3
100
AcDbLine
 10
1134.229354690684
 20
472.0332614523813
 30
0.0000000000000000
 11
1139.729354690684
 21
472.0332614523836
 31
0.0000000000000000
  0
LINE
  5
4A6
100
AcDbEntity
  8
MAIN0
  6
CONTINUOUS
 62
3
100
AcDbLine
 10
1157.229354690684
 20
472.0332614523908
 30
0.0000000000000000
 11
1162.729354690684
 21
472.0332614523932
 31
0.0000000000000000
  0
LINE
  5
4A7
100
AcDbEntity
  8
MAIN0
  6
CONTINUOUS
 62
3
100
AcDbLine
 10
1139.729354690684
 20
472.0332614523834
 30
0.0000000000000000
 11
1139.729354690678
 21
480.0332614523834
 31
0.0000000000000000
  0
LINE
  5
4A8
100
AcDbEntity
  8
MAIN0
  6
CONTINUOUS
 62
3
100
AcDbLine
 10
1157.229354690684
 20
472.0332614523908
 30
0.0000000000000000
 11
1157.229354690678
 21
480.0332614523908
 31
0.0000000000000000
  0
LINE
  5
4A9
100
AcDbEntity
  8
MAIN0
  6
CONTINUOUS
 62
3
100
AcDbLine
 10
1141.561886690693
 20
491.0332614523881
 30
0.0000000000000000
 11
1141.561886690693
 21
480.0332614523843
 31
0.0000000000000000
  0
LINE
  5
4AA
100
AcDbEntity
  8
MAIN0
  6
CONTINUOUS
 62
3
100
AcDbLine
 10
1140.479354690693
 20
480.0332614523838
 30
0.0000000000000000
 11
1140.479354690693
 21
491.0332614523876
 31
0.0000000000000000
  0
LINE
  5
4AB
100
AcDbEntity
  8
MAIN0
  6
CONTINUOUS
 62
3
100
AcDbLine
 10
1155.396822690693
 20
491.0332614523938
 30
0.0000000000000000
 11
1155.396822690693
 21
480.0332614523900
 31
0.0000000000000000
  0
LINE
  5
4AC
100
AcDbEntity
  8
MAIN0
  6
CONTINUOUS
 62
3
100
AcDbLine
 10
1156.479354690693
 20
491.0332614523943
 30
0.0000000000000000
 11
1156.479354690693
 21
480.0332614523905
 31
0.0000000000000000
  0
LINE
  5
4AD
100
AcDbEntity
  8
MAIN0
  6
CONTINUOUS
 62
3
100
AcDbLine
 10
1272.613211768976
 20
293.5378544121359
 30
0.0000000000000000
 11
1302.613211768976
 21
293.5378544121276
 31
0.0000000000000000
  0
LINE
  5
4AE
100
AcDbEntity
  8
MAIN0
  6
HIDDEN
 62
3
100
AcDbLine
 10
1272.613211768980
 20
288.0378544121360
 30
0.0000000000000000
 11
1302.613211768980
 21
288.0378544121277
 31
0.0000000000000000
  0
LINE
  5
4AF
100
AcDbEntity
  8
MAIN0
  6
CONTINUOUS
 62
3
100
AcDbLine
 10
1272.613211768996
 20
265.0378544121360
 30
0.0000000000000000
 11
1272.613211768977
 21
293.5378544121360
 31
0.0000000000000000
  0
LINE
  5
4B0
100
AcDbEntity
  8
MAIN0
  6
CENTER
 62
3
100
AcDbLine
 10
1269.350593746697
 20
279.2878544121369
 30
0.0000000000000000
 11
1306.168691110335
 21
279.2878544121267
 31
0.0000000000000000
  0
LINE
  5
4B1
100
AcDbEntity
  8
MAIN0
  6
HIDDEN
 62
3
100
AcDbLine
 10
1272.613211768993
 20
270.5378544121360
 30
0.0000000000000000
 11
1302.613211768992
 21
270.5378544121277
 31
0.0000000000000000
  0
LINE
  5
4B2
100
AcDbEntity
  8
MAIN0
  6
CONTINUOUS
 62
3
100
AcDbLine
 10
1272.613211768996
 20
265.0378544121360
 30
0.0000000000000000
 11
1302.613211768996
 21
265.0378544121277
 31
0.0000000000000000
  0
LINE
  5
4B3
100
AcDbEntity
  8
MAIN0
  6
CONTINUOUS
 62
3
100
AcDbLine
 10
1302.613211768996
 20
265.0378544121277
 30
0.0000000000000000
 11
1302.613211768976
 21
293.5378544121277
 31
0.0000000000000000
  0
LINE
  5
4B4
100
AcDbEntity
  8
MAIN0
  6
CONTINUOUS
 62
3
100
AcDbLine
 10
1130.979354690710
 20
521.0332614522639
 30
0.0000000000000000
 11
1130.979354690710
 21
526.0332614522639
 31
0.0000000000000000
  0
LINE
  5
4B5
100
AcDbEntity
  8
MAIN0
  6
CONTINUOUS
 62
3
100
AcDbLine
 10
1165.979354690710
 20
526.0332614522639
 30
0.0000000000000000
 11
1130.979354690710
 21
526.0332614522639
 31
0.0000000000000000
  0
LINE
  5
4B6
100
AcDbEntity
  8
MAIN0
  6
CONTINUOUS
 62
3
100
AcDbLine
 10
1165.979354690710
 20
521.0332614522639
 30
0.0000000000000000
 11
1165.979354690710
 21
526.0332614522639
 31
0.0000000000000000
  0
CIRCLE
  5
4B7
100
AcDbEntity
  8
MAIN0
  6
CONTINUOUS
 62
3
100
AcDbCircle
 10
1287.613211768986
 20
279.2878544121319
 30
0.0000000000000000
 40
8.000000000000000
  0
CIRCLE
  5
4B8
100
AcDbEntity
  8
MAIN0
  6
CONTINUOUS
 62
3
100
AcDbCircle
 10
1287.613211768986
 20
279.2878544121319
 30
0.0000000000000000
 40
7.000000000000000
  0
LINE
  5
4B9
100
AcDbEntity
  8
A0
  6
CENTER
 62
3
100
AcDbLine
 10
87.33867198651060
 20
72.41321267466316
 30
0.0000000000000000
 11
148.7921523987056
 21
72.41321267466432
 31
0.0000000000000000
  0
LINE
  5
4BA
100
AcDbEntity
  8
A0
  6
HIDDEN
 62
3
100
AcDbLine
 10
97.33867198652438
 20
87.79916003384224
 30
0.0000000000000000
 11
111.2921523986902
 21
87.79916003384125
 31
0.0000000000000000
  0
LINE
  5
4BB
100
AcDbEntity
  8
A0
  6
CONTINUOUS
 62
3
100
AcDbLine
 10
97.33867198655949
 20
127.0501136557888
 30
0.0000000000000000
 11
113.7921523986510
 21
127.0501136557890
 31
0.0000000000000000
  0
LINE
  5
4BC
100
AcDbEntity
  8
A0
  6
CONTINUOUS
 62
3
100
AcDbLine
 10
81.51234796610113
 20
109.9760793853690
 30
0.0000000000000000
 11
101.5123479661011
 21
109.9760793853643
 31
0.0000000000000000
  0
LINE
  5
4BD
100
AcDbEntity
  8
A0
  6
CONTINUOUS
 62
3
100
AcDbLine
 10
101.5123479660935
 20
122.4970494294166
 30
0.0000000000000000
 11
101.5123479661013
 21
109.9760793853642
 31
0.0000000000000000
  0
LINE
  5
4BE
100
AcDbEntity
  8
A0
  6
CONTINUOUS
 62
3
100
AcDbLine
 10
94.33867198649914
 20
59.51282543634058
 30
0.0000000000000000
 11
120.3386719864991
 21
59.51282543634422
 31
0.0000000000000000
  0
LINE
  5
4BF
100
AcDbEntity
  8
A0
  6
CONTINUOUS
 62
3
100
AcDbLine
 10
94.33867198648804
 20
46.99186986612629
 30
0.0000000000000000
 11
120.3386719864880
 21
46.99186986612578
 31
0.0000000000000000
  0
LINE
  5
4C0
100
AcDbEntity
  8
A0
  6
CONTINUOUS
 62
3
100
AcDbLine
 10
97.33867198655949
 20
127.0501136557888
 30
0.0000000000000000
 11
97.33867198655543
 21
122.4970494294181
 31
0.0000000000000000
  0
LINE
  5
4C1
100
AcDbEntity
  8
A0
  6
CONTINUOUS
 62
3
100
AcDbLine
 10
113.7921523986511
 20
127.0501136557890
 30
0.0000000000000000
 11
113.7921523986811
 21
97.17416003384118
 31
0.0000000000000000
  0
LINE
  5
4C2
100
AcDbEntity
  8
A0
  6
CONTINUOUS
 62
3
100
AcDbLine
 10
94.33867198649904
 20
59.51282543634054
 30
0.0000000000000000
 11
94.33867198648784
 21
46.99186986612798
 31
0.0000000000000000
  0
LINE
  5
4C3
100
AcDbEntity
  8
A0
  6
CONTINUOUS
 62
3
100
AcDbLine
 10
107.3386719864990
 20
59.51282543634238
 30
0.0000000000000000
 11
107.3386719864878
 21
46.99186986611635
 31
0.0000000000000000
  0
LINE
  5
4C4
100
AcDbEntity
  8
A0
  6
CONTINUOUS
 62
3
100
AcDbLine
 10
120.3386719864990
 20
59.51282543634417
 30
0.0000000000000000
 11
120.3386719864878
 21
46.99186986610472
 31
0.0000000000000000
  0
LINE
  5
4C5
100
AcDbEntity
  8
A0
  6
CONTINUOUS
 62
3
100
AcDbLine
 10
104.3386719865048
 20
65.99795159691657
 30
0.0000000000000000
 11
104.3386719864878
 21
46.99186986611814
 31
0.0000000000000000
  0
LINE
  5
4C6
100
AcDbEntity
  8
A0
  6
CONTINUOUS
 62
3
100
AcDbLine
 10
105.2386720222533
 20
49.99186986611733
 30
0.0000000000000000
 11
104.3386719864878
 21
46.99186986611814
 31
0.0000000000000000
  0
LINE
  5
4C7
100
AcDbEntity
  8
A0
  6
CONTINUOUS
 62
3
100
AcDbLine
 10
104.3386719864878
 20
46.99186986611814
 30
0.0000000000000000
 11
103.4386719507277
 21
49.99186986611894
 31
0.0000000000000000
  0
LINE
  5
4C8
100
AcDbEntity
  8
A0
  6
CONTINUOUS
 62
3
100
AcDbLine
 10
104.3386719865048
 20
65.99795159691659
 30
0.0000000000000000
 11
113.7921523987119
 21
65.99795159691644
 31
0.0000000000000000
  0
LINE
  5
4C9
100
AcDbEntity
  8
A0
  6
CONTINUOUS
 62
3
100
AcDbLine
 10
97.33867198647184
 20
28.86679769163187
 30
0.0000000000000000
 11
97.33867198649926
 21
59.51282543634086
 31
0.0000000000000000
  0
LINE
  5
4CA
100
AcDbEntity
  8
A0
  6
CONTINUOUS
 62
3
100
AcDbLine
 10
96.43867195073379
 20
56.51282543634166
 30
0.0000000000000000
 11
97.33867198649926
 21
59.51282543634086
 31
0.0000000000000000
  0
LINE
  5
4CB
100
AcDbEntity
  8
A0
  6
CONTINUOUS
 62
3
100
AcDbLine
 10
97.33867198649926
 20
59.51282543634086
 30
0.0000000000000000
 11
98.23867202225937
 21
56.51282543634006
 31
0.0000000000000000
  0
LINE
  5
4CC
100
AcDbEntity
  8
A0
  6
CONTINUOUS
 62
3
100
AcDbLine
 10
113.7921523987076
 20
70.41321267466365
 30
0.0000000000000000
 11
113.7921523987121
 21
65.99795159691645
 31
0.0000000000000000
  0
LINE
  5
4CD
100
AcDbEntity
  8
A0
  6
CONTINUOUS
 62
3
100
AcDbLine
 10
113.7921523986854
 20
92.67783969032121
 30
0.0000000000000000
 11
113.7921523987037
 21
74.41321267466367
 31
0.0000000000000000
  0
LINE
  5
4CE
100
AcDbEntity
  8
A0
  6
CONTINUOUS
 62
3
100
AcDbLine
 10
97.33867198649926
 20
59.51282543634086
 30
0.0000000000000000
 11
97.33867198650903
 21
70.41321267466336
 31
0.0000000000000000
  0
LINE
  5
4CF
100
AcDbEntity
  8
A0
  6
CONTINUOUS
 62
3
100
AcDbLine
 10
97.33867198651238
 20
74.41321267466334
 30
0.0000000000000000
 11
97.33867198654423
 21
109.9760793853653
 31
0.0000000000000000
  0
LINE
  5
4D0
100
AcDbEntity
  8
A0
  6
CONTINUOUS
 62
3
100
AcDbLine
 10
81.51234796609350
 20
122.4970494294041
 30
0.0000000000000000
 11
81.51234796610132
 21
109.9760793853518
 31
0.0000000000000000
  0
LINE
  5
4D1
100
AcDbEntity
  8
A0
  6
CONTINUOUS
 62
3
100
AcDbLine
 10
81.51234796609445
 20
120.7546135904050
 30
0.0000000000000000
 11
101.5123479660945
 21
120.7546135904029
 31
0.0000000000000000
  0
LINE
  5
4D2
100
AcDbEntity
  8
A0
  6
CONTINUOUS
 62
3
100
AcDbLine
 10
91.51234796609445
 20
120.7546135904040
 30
0.0000000000000000
 11
91.51234796610370
 21
105.9760793853666
 31
0.0000000000000000
  0
CIRCLE
  5
4D3
100
AcDbEntity
  8
A0
  6
PHANTOM
 62
3
100
AcDbCircle
 10
125.8229027714015
 20
122.4970494294077
 30
0.0000000000000000
 40
4.000000000000000
  0
LINE
  5
4D4
100
AcDbEntity
  8
A0
  6
CONTINUOUS
 62
3
100
AcDbLine
 10
81.51234796609354
 20
122.4970494294237
 30
0.0000000000000000
 11
101.5123479660935
 21
122.4970494294166
 31
0.0000000000000000
  0
LINE
  5
4D5
100
AcDbEntity
  8
A0
  6
PHANTOM
 62
3
100
AcDbLine
 10
113.7921523986554
 20
122.4970494294119
 30
0.0000000000000000
 11
121.8229027714013
 21
122.4970494294091
 31
0.0000000000000000
  0
LINE
  5
4D6
100
AcDbEntity
  8
A0
  6
PHANTOM
 62
3
100
AcDbLine
 10
126.4240269454938
 20
121.4558718181533
 30
0.0000000000000000
 11
124.0471000129414
 21
125.5728300312126
 31
0.0000000000000000
  0
LINE
  5
4D7
100
AcDbEntity
  8
A0
  6
PHANTOM
 62
3
100
AcDbLine
 10
124.7676771185640
 20
122.5247538019779
 30
0.0000000000000000
 11
124.0471000129414
 21
125.5728300312126
 31
0.0000000000000000
  0
LINE
  5
4D8
100
AcDbEntity
  8
A0
  6
PHANTOM
 62
3
100
AcDbLine
 10
124.0471000129414
 20
125.5728300312126
 30
0.0000000000000000
 11
126.3265229073190
 21
123.4247538377407
 31
0.0000000000000000
  0
LINE
  5
4D9
100
AcDbEntity
  8
A0
  6
CONTINUOUS
 62
3
100
AcDbLine
 10
86.33867198649153
 20
50.99186986612644
 30
0.0000000000000000
 11
94.33867198649153
 21
50.99186986612629
 31
0.0000000000000000
  0
LINE
  5
4DA
100
AcDbEntity
  8
A0
  6
CONTINUOUS
 62
3
100
AcDbLine
 10
86.33867198649541
 20
55.51282543633948
 30
0.0000000000000000
 11
86.33867198649138
 21
50.99186986612642
 31
0.0000000000000000
  0
LINE
  5
4DB
100
AcDbEntity
  8
A0
  6
CONTINUOUS
 62
3
100
AcDbLine
 10
120.3386719864925
 20
51.99186986612573
 30
0.0000000000000000
 11
128.2903508379238
 21
51.99186986612557
 31
0.0000000000000000
  0
LINE
  5
4DC
100
AcDbEntity
  8
A0
  6
CONTINUOUS
 62
3
100
AcDbLine
 10
120.3386719864948
 20
54.51282543634422
 30
0.0000000000000000
 11
126.8348764608471
 21
54.51282543634513
 31
0.0000000000000000
  0
LINE
  5
4DD
100
AcDbEntity
  8
A0
  6
CONTINUOUS
 62
3
100
AcDbLine
 10
125.5735196013210
 20
56.69755960352622
 30
0.0000000000000000
 11
129.9651842205205
 21
49.09097335324645
 31
0.0000000000000000
  0
CIRCLE
  5
4DE
100
AcDbEntity
  8
A0
  6
CONTINUOUS
 62
3
100
AcDbCircle
 10
125.0735196013448
 20
57.56358500727270
 30
0.0000000000000000
 40
1.000000000000000
  0
INSERT
  5
4E8
100
AcDbEntity
  8
A0
  6
CONTINUOUS
 62
4
100
AcDbBlockReference
  2
M0
 10
0.0000000000000000
 20
0.0000000000000000
 30
0.0000000000000000
 50
0.0000000000000000
  0
LINE
  5
4E9
100
AcDbEntity
  8
A0
  6
CONTINUOUS
 62
3
100
AcDbLine
 10
117.3386719865002
 20
59.51282543634381
 30
0.0000000000000000
 11
110.3386719864939
 21
46.99186986612599
 31
0.0000000000000000
  0
LINE
  5
4EA
100
AcDbEntity
  8
A0
  6
CONTINUOUS
 62
3
100
AcDbLine
 10
116.6602996901927
 20
56.45507935598076
 30
0.0000000000000000
 11
117.3386719865002
 21
59.51282543634381
 31
0.0000000000000000
  0
LINE
  5
4EB
100
AcDbEntity
  8
A0
  6
CONTINUOUS
 62
3
100
AcDbLine
 10
117.3386719865002
 20
59.51282543634381
 30
0.0000000000000000
 11
115.0891614453826
 21
57.33344424211134
 31
0.0000000000000000
  0
LINE
  5
4EC
100
AcDbEntity
  8
A0
  6
CONTINUOUS
 62
3
100
AcDbLine
 10
117.3386719864883
 20
46.99186986612583
 30
0.0000000000000000
 11
110.3386719865037
 21
59.51282543634292
 31
0.0000000000000000
  0
LINE
  5
4ED
100
AcDbEntity
  8
A0
  6
CONTINUOUS
 62
3
100
AcDbLine
 10
115.0891614453736
 20
49.17125106036122
 30
0.0000000000000000
 11
117.3386719864883
 21
46.99186986612583
 31
0.0000000000000000
  0
LINE
  5
4EE
100
AcDbEntity
  8
A0
  6
CONTINUOUS
 62
3
100
AcDbLine
 10
117.3386719864883
 20
46.99186986612583
 30
0.0000000000000000
 11
116.6602996901848
 21
50.04961594648976
 31
0.0000000000000000
  0
LINE
  5
4EF
100
AcDbEntity
  8
A0
  6
HIDDEN
 62
3
100
AcDbLine
 10
111.2921523986872
 20
90.79916003384125
 30
0.0000000000000000
 11
111.2921523986902
 21
87.79916003384125
 31
0.0000000000000000
  0
CIRCLE
  5
4F0
100
AcDbEntity
  8
A0
  6
CONTINUOUS
 62
3
100
AcDbCircle
 10
97.33867198652438
 20
87.79916003384224
 30
0.0000000000000000
 40
0.7500000000000000
  0
CIRCLE
  5
4F1
100
AcDbEntity
  8
A0
  6
PHANTOM
 62
3
100
AcDbCircle
 10
113.7921523986556
 20
122.4970494294119
 30
0.0000000000000000
 40
0.7500000000000000
  0
LINE
  5
4F2
100
AcDbEntity
  8
A0
  6
CONTINUOUS
 62
3
100
AcDbLine
 10
96.33867198650901
 20
70.41321267466334
 30
0.0000000000000000
 11
98.33867198650903
 21
70.41321267466338
 31
0.0000000000000000
  0
LINE
  5
4F3
100
AcDbEntity
  8
A0
  6
CONTINUOUS
 62
3
100
AcDbLine
 10
112.7921523987076
 20
70.41321267466364
 30
0.0000000000000000
 11
114.7921523987076
 21
70.41321267466368
 31
0.0000000000000000
  0
LINE
  5
4F4
100
AcDbEntity
  8
A0
  6
CONTINUOUS
 62
3
100
AcDbLine
 10
96.33867198651259
 20
74.41321267466334
 30
0.0000000000000000
 11
98.33867198651261
 21
74.41321267466338
 31
0.0000000000000000
  0
LINE
  5
4F5
100
AcDbEntity
  8
A0
  6
CONTINUOUS
 62
3
100
AcDbLine
 10
112.7921523987036
 20
74.41321267466364
 30
0.0000000000000000
 11
114.7921523987036
 21
74.41321267466368
 31
0.0000000000000000
  0
LINE
  5
4F6
100
AcDbEntity
  8
A0
  6
CONTINUOUS
 62
3
100
AcDbLine
 10
93.87457037133680
 20
22.86679769163174
 30
0.0000000000000000
 11
97.33867198643553
 21
28.86679769156356
 31
0.0000000000000000
  0
LINE
  5
4F7
100
AcDbEntity
  8
A0
  6
CONTINUOUS
 62
3
100
AcDbLine
 10
100.8027736015339
 20
22.86679769163202
 30
0.0000000000000000
 11
97.33867198643560
 21
28.86679769156379
 31
0.0000000000000000
  0
LINE
  5
4F8
100
AcDbEntity
  8
A0
  6
CONTINUOUS
 62
3
100
AcDbLine
 10
93.87457037133679
 20
22.86679769163170
 30
0.0000000000000000
 11
100.8027736015338
 21
22.86679769163201
 31
0.0000000000000000
  0
LINE
  5
4F9
100
AcDbEntity
  8
A0
  6
CONTINUOUS
 62
3
100
AcDbLine
 10
91.83867198649455
 20
54.30038987097559
 30
0.0000000000000000
 11
92.53867198653290
 21
55.51282543634033
 31
0.0000000000000000
  0
LINE
  5
4FA
100
AcDbEntity
  8
A0
  6
CONTINUOUS
 62
3
100
AcDbLine
 10
91.83867198649455
 20
54.30038987097539
 30
0.0000000000000000
 11
91.13867198645900
 21
55.51282543634027
 31
0.0000000000000000
  0
LINE
  5
4FB
100
AcDbEntity
  8
A0
  6
CONTINUOUS
 62
3
100
AcDbLine
 10
92.53867198653298
 20
55.51282543634034
 30
0.0000000000000000
 11
94.33867198649539
 21
55.51282543634059
 31
0.0000000000000000
  0
LINE
  5
4FC
100
AcDbEntity
  8
A0
  6
CONTINUOUS
 62
3
100
AcDbLine
 10
88.83867198649450
 20
54.30038987097518
 30
0.0000000000000000
 11
89.53867198653286
 21
55.51282543633991
 31
0.0000000000000000
  0
LINE
  5
4FD
100
AcDbEntity
  8
A0
  6
CONTINUOUS
 62
3
100
AcDbLine
 10
88.83867198649450
 20
54.30038987097497
 30
0.0000000000000000
 11
88.13867198645896
 21
55.51282543633985
 31
0.0000000000000000
  0
LINE
  5
4FE
100
AcDbEntity
  8
A0
  6
CONTINUOUS
 62
3
100
AcDbLine
 10
86.33867198649537
 20
55.51282543633947
 30
0.0000000000000000
 11
88.13867198645903
 21
55.51282543633973
 31
0.0000000000000000
  0
LINE
  5
4FF
100
AcDbEntity
  8
A0
  6
CONTINUOUS
 62
3
100
AcDbLine
 10
89.53867198653288
 20
55.51282543633992
 30
0.0000000000000000
 11
91.13867198645882
 21
55.51282543634014
 31
0.0000000000000000
  0
MTEXT
  5
500
100
AcDbEntity
  8
A0
  6
CONTINUOUS
 62
3
100
AcDbMText
 10
116.7921523987057
 20
80.91321267466367
 30
0.0000000000000000
 40
4.500000000000000
 41
0.0000000000000000
 71
     1
 72
     1
  1
{\H0.92x;{Rc1/4}}
 11
1.000000000000000
 21
0.0000000000000000
 31
0.0000000000000000
  7
STANDARD
  0
MTEXT
  5
501
100
AcDbEntity
  8
A0
  6
CONTINUOUS
 62
3
100
AcDbMText
 10
74.79215239870572
 20
80.91321267466367
 30
0.0000000000000000
 40
4.500000000000000
 41
0.0000000000000000
 71
     1
 72
     1
  1
{\H0.92x;{Rc1/4}}
 11
1.000000000000000
 21
0.0000000000000000
 31
0.0000000000000000
  7
STANDARD
  0
MTEXT
  5
502
100
AcDbEntity
  8
A0
  6
CONTINUOUS
 62
3
100
AcDbMText
 10
73.06650125213062
 20
135.3333445745730
 30
0.0000000000000000
 40
4.500000000000000
 41
0.0000000000000000
 71
     1
 72
     1
  1
{\H0.92x;{シリンダ}}
 11
1.000000000000000
 21
0.0000000000000000
 31
0.0000000000000000
  7
KNJYOKO
  0
MTEXT
  5
503
100
AcDbEntity
  8
A0
  6
CONTINUOUS
 62
3
100
AcDbMText
 10
121.7921523987057
 20
97.91321267466368
 30
0.0000000000000000
 40
4.500000000000000
 41
0.0000000000000000
 71
     1
 72
     1
  1
{\H0.93x;{ロックバルブ\P}
 11
1.000000000000000
 21
0.0000000000000000
 31
0.0000000000000000
  7
KNJYOKO
  0
MTEXT
  5
504
100
AcDbEntity
  8
A0
  6
CONTINUOUS
 62
3
100
AcDbMText
 10
133.2574080472060
 20
126.0358500277425
 30
0.0000000000000000
 40
4.500000000000000
 41
0.0000000000000000
 71
     1
 72
     1
  1
{\H0.93x;{圧力ゲージ\P（オプション）}}
 11
1.000000000000000
 21
0.0000000000000000
 31
0.0000000000000000
  7
KNJYOKO
  0
LINE
  5
505
100
AcDbEntity
  8
A0
  6
CONTINUOUS
 62
3
100
AcDbLine
 10
143.7921523987056
 20
72.41321267466424
 30
0.0000000000000000
 11
143.7921523987157
 21
62.41321267466424
 31
0.0000000000000000
  0
LINE
  5
506
100
AcDbEntity
  8
A0
  6
CONTINUOUS
 62
3
100
AcDbLine
 10
144.6921524344755
 20
65.41321267466515
 30
0.0000000000000000
 11
143.7921523987157
 21
62.41321267466424
 31
0.0000000000000000
  0
LINE
  5
507
100
AcDbEntity
  8
A0
  6
CONTINUOUS
 62
3
100
AcDbLine
 10
143.7921523987157
 20
62.41321267466424
 30
0.0000000000000000
 11
142.8921523629499
 21
65.41321267466334
 31
0.0000000000000000
  0
MTEXT
  5
508
100
AcDbEntity
  8
A0
  6
CONTINUOUS
 62
3
100
AcDbMText
 10
135.7921523987057
 20
59.91321267466367
 30
0.0000000000000000
 40
4.500000000000000
 41
0.0000000000000000
 71
     1
 72
     1
  1
{\H0.93x;{客先にて手配\P下さい。}}
 11
1.000000000000000
 21
0.0000000000000000
 31
0.0000000000000000
  7
KNJYOKO
  0
MTEXT
  5
509
100
AcDbEntity
  8
A0
  6
CONTINUOUS
 62
3
100
AcDbMText
 10
133.4638721748544
 20
49.54859132006375
 30
0.0000000000000000
 40
4.500000000000000
 41
0.0000000000000000
 71
     1
 72
     1
  1
{\H0.61x;{CUSTOMER'S PREPARE}}
 11
1.000000000000000
 21
0.0000000000000000
 31
0.0000000000000000
  7
STANDARD
  0
MTEXT
  5
50A
100
AcDbEntity
  8
A0
  6
CONTINUOUS
 62
3
100
AcDbMText
 10
73.06650125213062
 20
128.9864989916267
 30
0.0000000000000000
 40
4.500000000000000
 41
0.0000000000000000
 71
     1
 72
     1
  1
{\H0.63x;{CYLINDER}}
 11
1.000000000000000
 21
0.0000000000000000
 31
0.0000000000000000
  7
STANDARD
  0
MTEXT
  5
50B
100
AcDbEntity
  8
A0
  6
CONTINUOUS
 62
3
100
AcDbMText
 10
133.8733480894914
 20
114.8596421245046
 30
0.0000000000000000
 40
4.500000000000000
 41
0.0000000000000000
 71
     1
 72
     1
  1
{\H0.63x;{PRESSURE GAUGE\P(OPTION)}}
 11
1.000000000000000
 21
0.0000000000000000
 31
0.0000000000000000
  7
STANDARD
  0
MTEXT
  5
50C
100
AcDbEntity
  8
A0
  6
CONTINUOUS
 62
3
100
AcDbMText
 10
122.1753712741661
 20
91.37387087819293
 30
0.0000000000000000
 40
4.500000000000000
 41
0.0000000000000000
 71
     1
 72
     1
  1
{\H0.63x;{LOCK VALVE}}
 11
1.000000000000000
 21
0.0000000000000000
 31
0.0000000000000000
  7
STANDARD
  0
LINE
  5
50D
100
AcDbEntity
  8
WAKU0
  6
CONTINUOUS
 62
3
100
AcDbLine
 10
240.0000000000000
 20
51.00000000000000
 30
0.0000000000000000
 11
410.0000000000000
 21
51.00000000000000
 31
0.0000000000000000
  0
LINE
  5
50E
100
AcDbEntity
  8
WAKU0
  6
CONTINUOUS
 62
3
100
AcDbLine
 10
240.0000000000000
 20
51.00000000000000
 30
0.0000000000000000
 11
240.0000000000000
 21
12.00000000000000
 31
0.0000000000000000
  0
LINE
  5
50F
100
AcDbEntity
  8
WAKU0
  6
CONTINUOUS
 62
3
100
AcDbLine
 10
312.0000000000000
 20
51.00000000000000
 30
0.0000000000000000
 11
312.0000000000000
 21
12.00000000000000
 31
0.0000000000000000
  0
LINE
  5
510
100
AcDbEntity
  8
WAKU0
  6
CONTINUOUS
 62
3
100
AcDbLine
 10
332.0000000000000
 20
51.00000000000000
 30
0.0000000000000000
 11
332.0000000000000
 21
12.00000000000000
 31
0.0000000000000000
  0
LINE
  5
511
100
AcDbEntity
  8
WAKU0
  6
CONTINUOUS
 62
3
100
AcDbLine
 10
344.0000000000000
 20
51.00000000000000
 30
0.0000000000000000
 11
344.0000000000000
 21
12.00000000000000
 31
0.0000000000000000
  0
LINE
  5
512
100
AcDbEntity
  8
WAKU0
  6
CONTINUOUS
 62
3
100
AcDbLine
 10
344.0000000000000
 20
37.00000000000000
 30
0.0000000000000000
 11
410.0000000000000
 21
37.00000000000000
 31
0.0000000000000000
  0
LINE
  5
513
100
AcDbEntity
  8
WAKU0
  6
CONTINUOUS
 62
3
100
AcDbLine
 10
332.0000000000000
 20
23.00000000000000
 30
0.0000000000000000
 11
410.0000000000000
 21
23.00000000000000
 31
0.0000000000000000
  0
LINE
  5
514
100
AcDbEntity
  8
WAKU0
  6
CONTINUOUS
 62
3
100
AcDbLine
 10
375.0000000000000
 20
51.00000000000000
 30
0.0000000000000000
 11
375.0000000000000
 21
44.00000000000000
 31
0.0000000000000000
  0
LINE
  5
515
100
AcDbEntity
  8
WAKU0
  6
CONTINUOUS
 62
3
100
AcDbLine
 10
387.0000000000000
 20
51.00000000000000
 30
0.0000000000000000
 11
387.0000000000000
 21
44.00000000000000
 31
0.0000000000000000
  0
LINE
  5
516
100
AcDbEntity
  8
WAKU0
  6
CONTINUOUS
 62
3
100
AcDbLine
 10
312.0000000000000
 20
31.50000000000000
 30
0.0000000000000000
 11
332.0000000000000
 21
31.50000000000000
 31
0.0000000000000000
  0
LINE
  5
517
100
AcDbEntity
  8
WAKU0
  6
CONTINUOUS
 62
3
100
AcDbLine
 10
332.0000000000000
 20
44.00000000000000
 30
0.0000000000000000
 11
410.0000000000000
 21
44.00000000000000
 31
0.0000000000000000
  0
LINE
  5
518
100
AcDbEntity
  8
WAKU0
  6
CONTINUOUS
 62
3
100
AcDbLine
 10
240.0000000000000
 20
37.00000000000000
 30
0.0000000000000000
 11
312.0000000000000
 21
37.00000000000000
 31
0.0000000000000000
  0
LINE
  5
519
100
AcDbEntity
  8
WAKU0
  6
CONTINUOUS
 62
3
100
AcDbLine
 10
240.0000000000000
 20
23.00000000000000
 30
0.0000000000000000
 11
312.0000000000000
 21
23.00000000000000
 31
0.0000000000000000
  0
LINE
  5
51A
100
AcDbEntity
  8
WAKU0
  6
CONTINUOUS
 62
3
100
AcDbLine
 10
288.0000000000000
 20
37.00000000000000
 30
0.0000000000000000
 11
288.0000000000000
 21
12.00000000000000
 31
0.0000000000000000
  0
LINE
  5
51B
100
AcDbEntity
  8
WAKU0
  6
CONTINUOUS
 62
3
100
AcDbLine
 10
264.0000000000000
 20
37.00000000000000
 30
0.0000000000000000
 11
264.0000000000000
 21
23.00000000000000
 31
0.0000000000000000
  0
LINE
  5
51C
100
AcDbEntity
  8
WAKU0
  6
CONTINUOUS
 62
3
100
AcDbLine
 10
300.0000000000000
 20
26.00000000000000
 30
0.0000000000000000
 11
300.0000000000000
 21
23.00000000000000
 31
0.0000000000000000
  0
LINE
  5
51D
100
AcDbEntity
  8
WAKU0
  6
CONTINUOUS
 62
3
100
AcDbLine
 10
276.0000000000000
 20
26.00000000000000
 30
0.0000000000000000
 11
276.0000000000000
 21
23.00000000000000
 31
0.0000000000000000
  0
LINE
  5
51E
100
AcDbEntity
  8
WAKU0
  6
CONTINUOUS
 62
3
100
AcDbLine
 10
252.0000000000000
 20
26.00000000000000
 30
0.0000000000000000
 11
252.0000000000000
 21
23.00000000000000
 31
0.0000000000000000
  0
LINE
  5
51F
100
AcDbEntity
  8
WAKU0
  6
CONTINUOUS
 62
3
100
AcDbLine
 10
258.0000000000000
 20
51.00000000000000
 30
0.0000000000000000
 11
258.0000000000000
 21
37.00000000000000
 31
0.0000000000000000
  0
LINE
  5
520
100
AcDbEntity
  8
WAKU0
  6
CONTINUOUS
 62
3
100
AcDbLine
 10
240.0000000000000
 20
45.00000000000000
 30
0.0000000000000000
 11
312.0000000000000
 21
45.00000000000000
 31
0.0000000000000000
  0
LINE
  5
521
100
AcDbEntity
  8
WAKU0
  6
HIDDEN
 62
3
100
AcDbLine
 10
360.5000000000000
 20
23.00000000000000
 30
0.0000000000000000
 11
360.5000000000000
 21
12.00000000000000
 31
0.0000000000000000
  0
LINE
  5
522
100
AcDbEntity
  8
WAKU0
  6
HIDDEN
 62
3
100
AcDbLine
 10
372.9000000000000
 20
23.00000000000000
 30
0.0000000000000000
 11
372.9000000000000
 21
12.00000000000000
 31
0.0000000000000000
  0
MTEXT
  5
523
100
AcDbEntity
  8
WAKU0
  6
CONTINUOUS
 62
3
100
AcDbMText
 10
344.4820000243485
 20
49.04999995231628
 30
0.0000000000000000
 40
3.099999904632568
 41
0.0000000000000000
 71
     1
 72
     1
  1
{\H0.92x;{VQA125N}}
 11
1.000000000000000
 21
0.0000000000000000
 31
0.0000000000000000
  7
STANDARD
  0
MTEXT
  5
524
100
AcDbEntity
  8
WAKU0
  6
CONTINUOUS
 62
3
100
AcDbMText
 10
360.3350002765656
 20
43.50000000000000
 30
0.0000000000000000
 40
3.000000000000000
 41
0.0000000000000000
 71
     1
 72
     1
  1
{\H0.94x;{パワーバイス\PＰＯＷＥＲ　ＶＩＳＥ}}
 11
1.000000000000000
 21
0.0000000000000000
 31
0.0000000000000000
  7
KNJYOKO
  0
MTEXT
  5
525
100
AcDbEntity
  8
WAKU0
  6
CONTINUOUS
 62
3
100
AcDbMText
 10
348.9999989867210
 20
34.83333333333333
 30
0.0000000000000000
 40
4.000000000000000
 41
0.0000000000000000
 71
     1
 72
     1
  1
{\H0.59x;{ＶＱＡ１２５Ｎ　ガイケイ\PＶＱＡ１２５Ｎ　ＯＵＴＳＩＤＥ　ＶＩＥＷ}}
 11
1.000000000000000
 21
0.0000000000000000
 31
0.0000000000000000
  7
KNJYOKO
  0
MTEXT
  5
526
100
AcDbEntity
  8
WAKU0
  6
CONTINUOUS
 62
3
100
AcDbMText
 10
318.0049998760223
 20
39.29999995231628
 30
0.0000000000000000
 40
3.099999904632568
 41
0.0000000000000000
 71
     1
 72
     1
  1
{\H0.90x;{1:4}}
 11
1.000000000000000
 21
0.0000000000000000
 31
0.0000000000000000
  7
STANDARD
  0
MTEXT
  5
527
100
AcDbEntity
  8
WAKU0
  6
CONTINUOUS
 62
3
100
AcDbMText
 10
374.4000001549721
 20
20.15000009536743
 30
0.0000000000000000
 40
5.300000190734863
 41
0.0000000000000000
 71
     1
 72
     1
  1
{\H0.90x;{6959}}
 11
1.000000000000000
 21
0.0000000000000000
 31
0.0000000000000000
  7
STANDARD
  0
MTEXT
  5
528
100
AcDbEntity
  8
WAKU0
  6
CONTINUOUS
 62
3
100
AcDbMText
 10
362.3000000834465
 20
20.15000009536743
 30
0.0000000000000000
 40
5.300000190734863
 41
0.0000000000000000
 71
     1
 72
     1
  1
{\H0.87x;{39}}
 11
1.000000000000000
 21
0.0000000000000000
 31
0.0000000000000000
  7
STANDARD
  0
MTEXT
  5
529
100
AcDbEntity
  8
WAKU0
  6
CONTINUOUS
 62
3
100
AcDbMText
 10
345.5000001192093
 20
20.15000009536743
 30
0.0000000000000000
 40
5.300000190734863
 41
0.0000000000000000
 71
     1
 72
     1
  1
{\H0.89x;{61M}}
 11
1.000000000000000
 21
0.0000000000000000
 31
0.0000000000000000
  7
STANDARD
  0
MTEXT
  5
52A
100
AcDbEntity
  8
WAKU0
  6
CONTINUOUS
 62
3
100
AcDbMText
 10
400.0000000476837
 20
20.15000009536743
 30
0.0000000000000000
 40
5.300000190734863
 41
0.0000000000000000
 71
     1
 72
     1
  1
{\H0.81x;{1}}
 11
1.000000000000000
 21
0.0000000000000000
 31
0.0000000000000000
  7
STANDARD
  0
MTEXT
  5
52B
100
AcDbEntity
  8
WAKU0
  6
CONTINUOUS
 62
3
100
AcDbMText
 10
400.0000000819564
 20
44.84999990463257
 30
0.0000000000000000
 40
5.300000190734863
 41
0.0000000000000000
 71
     7
 72
     1
  1
{\H0.81x;{ }}
 11
1.000000000000000
 21
0.0000000000000000
 31
0.0000000000000000
  7
STANDARD
  0
MTEXT
  5
52C
100
AcDbEntity
  8
WAKU0
  6
CONTINUOUS
 62
3
100
AcDbMText
 10
289.3850002884865
 20
33.00000000000000
 30
0.0000000000000000
 40
3.000000000000000
 41
0.0000000000000000
 71
     7
 72
     1
  1
{\H0.93x;{DRAWN BY}}
 11
1.000000000000000
 21
0.0000000000000000
 31
0.0000000000000000
  7
STANDARD
  0
MTEXT
  5
52D
100
AcDbEntity
  8
WAKU0
  6
CONTINUOUS
 62
3
100
AcDbMText
 10
269.2149997949600
 20
32.95000004768372
 30
0.0000000000000000
 40
3.099999904632568
 41
0.0000000000000000
 71
     7
 72
     1
  1
{\H0.92x;{CHIEF}}
 11
1.000000000000000
 21
0.0000000000000000
 31
0.0000000000000000
  7
STANDARD
  0
MTEXT
  5
52E
100
AcDbEntity
  8
WAKU0
  6
CONTINUOUS
 62
3
100
AcDbMText
 10
242.4249997138977
 20
32.95000004768372
 30
0.0000000000000000
 40
3.099999904632568
 41
0.0000000000000000
 71
     7
 72
     1
  1
{\H0.92x;{MANAGER}}
 11
1.000000000000000
 21
0.0000000000000000
 31
0.0000000000000000
  7
STANDARD
  0
MTEXT
  5
52F
100
AcDbEntity
  8
WAKU0
  6
CONTINUOUS
 62
3
100
AcDbMText
 10
244.6599994301796
 20
18.13333336512248
 30
0.0000000000000000
 40
3.099999904632568
 41
0.0000000000000000
 71
     7
 72
     1
  1
{\H0.93x;{KITAGAWA IRON\PWORKS CO.,LTD.}}
 11
1.000000000000000
 21
0.0000000000000000
 31
0.0000000000000000
  7
STANDARD
  0
MTEXT
  5
530
100
AcDbEntity
  8
WAKU0
  6
CONTINUOUS
 62
3
100
AcDbMText
 10
241.0850002169609
 20
46.50000000000000
 30
0.0000000000000000
 40
3.000000000000000
 41
0.0000000000000000
 71
     7
 72
     1
  1
{\H0.92x;{CAREER}}
 11
1.000000000000000
 21
0.0000000000000000
 31
0.0000000000000000
  7
STANDARD
  0
MTEXT
  5
531
100
AcDbEntity
  8
WAKU0
  6
CONTINUOUS
 62
3
100
AcDbMText
 10
294.6099998354912
 20
18.95000004768372
 30
0.0000000000000000
 40
3.099999904632568
 41
0.0000000000000000
 71
     7
 72
     1
  1
{\H0.91x;{DATE}}
 11
1.000000000000000
 21
0.0000000000000000
 31
0.0000000000000000
  7
STANDARD
  0
MTEXT
  5
532
100
AcDbEntity
  8
WAKU0
  6
CONTINUOUS
 62
3
100
AcDbMText
 10
313.9000002145767
 20
26.50000000000000
 30
0.0000000000000000
 40
3.000000000000000
 41
0.0000000000000000
 71
     7
 72
     1
  1
{\H0.63x;{3RD ANGLE}}
 11
1.000000000000000
 21
0.0000000000000000
 31
0.0000000000000000
  7
STANDARD
  0
MTEXT
  5
533
100
AcDbEntity
  8
WAKU0
  6
CONTINUOUS
 62
3
100
AcDbMText
 10
315.2149997949600
 20
45.95000004768372
 30
0.0000000000000000
 40
3.099999904632568
 41
0.0000000000000000
 71
     7
 72
     1
  1
{\H0.92x;{SCALE}}
 11
1.000000000000000
 21
0.0000000000000000
 31
0.0000000000000000
  7
STANDARD
  0
MTEXT
  5
534
100
AcDbEntity
  8
WAKU0
  6
CONTINUOUS
 62
3
100
AcDbMText
 10
405.7000000476837
 20
46.00000000000000
 30
0.0000000000000000
 40
3.000000000000000
 41
0.0000000000000000
 71
     7
 72
     1
  1
{\H0.63x;{kg}}
 11
1.000000000000000
 21
0.0000000000000000
 31
0.0000000000000000
  7
STANDARD
  0
MTEXT
  5
535
100
AcDbEntity
  8
WAKU0
  6
CONTINUOUS
 62
3
100
AcDbMText
 10
375.6000001430512
 20
46.00000000000000
 30
0.0000000000000000
 40
3.000000000000000
 41
0.0000000000000000
 71
     7
 72
     1
  1
{\H0.63x;{WEIGHT}}
 11
1.000000000000000
 21
0.0000000000000000
 31
0.0000000000000000
  7
STANDARD
  0
MTEXT
  5
536
100
AcDbEntity
  8
WAKU0
  6
CONTINUOUS
 62
3
100
AcDbMText
 10
334.0049998760223
 20
18.13333336512248
 30
0.0000000000000000
 40
3.099999904632568
 41
0.0000000000000000
 71
     7
 72
     1
  1
{\H0.90x;{DRW\PNO.}}
 11
1.000000000000000
 21
0.0000000000000000
 31
0.0000000000000000
  7
STANDARD
  0
MTEXT
  5
537
100
AcDbEntity
  8
WAKU0
  6
CONTINUOUS
 62
3
100
AcDbMText
 10
332.6099998354912
 20
31.95000004768372
 30
0.0000000000000000
 40
3.099999904632568
 41
0.0000000000000000
 71
     7
 72
     1
  1
{\H0.91x;{NAME}}
 11
1.000000000000000
 21
0.0000000000000000
 31
0.0000000000000000
  7
STANDARD
  0
MTEXT
  5
538
100
AcDbEntity
  8
WAKU0
  6
CONTINUOUS
 62
3
100
AcDbMText
 10
332.6099998354912
 20
45.95000004768372
 30
0.0000000000000000
 40
3.099999904632568
 41
0.0000000000000000
 71
     7
 72
     1
  1
{\H0.91x;{TYPE}}
 11
1.000000000000000
 21
0.0000000000000000
 31
0.0000000000000000
  7
STANDARD
  0
LINE
  5
539
100
AcDbEntity
  8
WAKU0
  6
HIDDEN
 62
3
100
AcDbLine
 10
407.1599564743885
 20
13.84999990463257
 30
0.0000000000000000
 11
396.9400436209789
 21
13.84999990463257
 31
0.0000000000000000
  0
LINE
  5
53A
100
AcDbEntity
  8
WAKU0
  6
HIDDEN
 62
3
100
AcDbLine
 10
407.1599564743885
 20
13.84999990463250
 30
0.0000000000000000
 11
402.0500000476852
 21
22.70070406014901
 31
0.0000000000000000
  0
LINE
  5
53B
100
AcDbEntity
  8
WAKU0
  6
HIDDEN
 62
3
100
AcDbLine
 10
402.0500000476852
 20
22.70070406014902
 30
0.0000000000000000
 11
396.9400436209789
 21
13.84999990463248
 31
0.0000000000000000
  0
LINE
  5
53C
100
AcDbEntity
  8
WAKU0
  6
CONTINUOUS
 62
3
100
AcDbLine
 10
330.4713877753800
 20
15.78041421262812
 30
0.0000000000000000
 11
330.4713877753800
 21
21.78041421262815
 31
0.0000000000000000
  0
LINE
  5
53D
100
AcDbEntity
  8
WAKU0
  6
CONTINUOUS
 62
3
100
AcDbLine
 10
323.9336941228225
 20
17.28041421262811
 30
0.0000000000000000
 11
323.9336941228225
 21
20.28041421262824
 31
0.0000000000000000
  0
LINE
  5
53E
100
AcDbEntity
  8
WAKU0
  6
CENTER
 62
12
100
AcDbLine
 10
313.4321805514995
 20
18.78041421262813
 30
0.0000000000000000
 11
331.2765788964694
 21
18.78041421262813
 31
0.0000000000000000
  0
LINE
  5
53F
100
AcDbEntity
  8
WAKU0
  6
CENTER
 62
12
100
AcDbLine
 10
317.4474565857986
 20
14.55921662918448
 30
0.0000000000000000
 11
317.4474565857986
 21
22.89865102149943
 31
0.0000000000000000
  0
LINE
  5
540
100
AcDbEntity
  8
WAKU0
  6
CONTINUOUS
 62
3
100
AcDbLine
 10
323.9336941228225
 20
20.28041421262797
 30
0.0000000000000000
 11
330.4713877753800
 21
21.78041421262795
 31
0.0000000000000000
  0
LINE
  5
541
100
AcDbEntity
  8
WAKU0
  6
CONTINUOUS
 62
3
100
AcDbLine
 10
323.9336941228225
 20
17.28041421262811
 30
0.0000000000000000
 11
330.4713877753799
 21
15.78041421262812
 31
0.0000000000000000
  0
CIRCLE
  5
542
100
AcDbEntity
  8
WAKU0
  6
CONTINUOUS
 62
3
100
AcDbCircle
 10
317.4474565857986
 20
18.78041421262813
 30
0.0000000000000000
 40
1.499999999999972
  0
CIRCLE
  5
543
100
AcDbEntity
  8
WAKU0
  6
CONTINUOUS
 62
3
100
AcDbCircle
 10
317.4474565857986
 20
18.78041421262813
 30
0.0000000000000000
 40
2.999999999999979
  0
LINE
  5
544
100
AcDbEntity
  8
B0
  6
CONTINUOUS
 62
3
100
AcDbLine
 10
-98.41381173241643
 20
201.4658589074932
 30
0.0000000000000000
 11
41.58618779079465
 21
201.4658589076113
 31
0.0000000000000000
  0
LINE
  5
545
100
AcDbEntity
  8
B0
  6
CONTINUOUS
 62
3
100
AcDbLine
 10
-98.41381173241543
 20
186.4658591463445
 30
0.0000000000000000
 11
41.58618779079460
 21
186.4658591464036
 31
0.0000000000000000
  0
LINE
  5
546
100
AcDbEntity
  8
B0
  6
CONTINUOUS
 62
3
100
AcDbLine
 10
-98.41381173241672
 20
201.4658589074932
 30
0.0000000000000000
 11
-98.41381173240595
 21
38.96585962274898
 31
0.0000000000000000
  0
MTEXT
  5
547
100
AcDbEntity
  8
B0
  6
CONTINUOUS
 62
3
100
AcDbMText
 10
-81.37172137366572
 20
198.8194002985843
 30
0.0000000000000000
 40
10.00000000000000
 41
0.0000000000000000
 71
     1
 72
     1
  1
{\H0.62x;{仕様　　SPECIFICATIONS}}
 11
1.000000000000000
 21
0.0000000000000000
 31
0.0000000000000000
  7
KNJYOKO
  0
LINE
  5
548
100
AcDbEntity
  8
B0
  6
CONTINUOUS
 62
3
100
AcDbLine
 10
41.58618779079457
 20
201.4658589076113
 30
0.0000000000000000
 11
41.58618779079457
 21
38.96585962286687
 31
0.0000000000000000
  0
LINE
  5
549
100
AcDbEntity
  8
B0
  6
CONTINUOUS
 62
3
100
AcDbLine
 10
-98.41381173241382
 20
143.9658596227490
 30
0.0000000000000000
 11
41.58618779079468
 21
143.9658596228669
 31
0.0000000000000000
  0
MTEXT
  5
54A
100
AcDbEntity
  8
B0
  6
CONTINUOUS
 62
3
100
AcDbMText
 10
-97.16381173239934
 20
184.7158591460824
 30
0.0000000000000000
 40
7.749999761581421
 41
0.0000000000000000
 71
     1
 72
     1
  1
{\H0.70x;{締付力}}
 11
1.000000000000000
 21
0.0000000000000000
 31
0.0000000000000000
  7
KNJYOKO
  0
MTEXT
  5
54B
100
AcDbEntity
  8
B0
  6
CONTINUOUS
 62
3
100
AcDbMText
 10
-97.16381173239934
 20
173.9658593845009
 30
0.0000000000000000
 40
7.749999761581421
 41
0.0000000000000000
 71
     1
 72
     1
  1
{\H0.71x;{CLAMPING FORCE}}
 11
1.000000000000000
 21
0.0000000000000000
 31
0.0000000000000000
  7
STANDARD
  0
LINE
  5
54C
100
AcDbEntity
  8
B0
  6
CONTINUOUS
 62
3
100
AcDbLine
 10
-3.413812209205432
 20
163.9658596228290
 30
0.0000000000000000
 11
-3.413812209205432
 21
83.96585962282698
 31
0.0000000000000000
  0
LINE
  5
54D
100
AcDbEntity
  8
B0
  6
CONTINUOUS
 62
3
100
AcDbLine
 10
-98.41381173240492
 20
123.9658596227490
 30
0.0000000000000000
 11
41.58618779080358
 21
123.9658596228669
 31
0.0000000000000000
  0
LINE
  5
54E
100
AcDbEntity
  8
B0
  6
CONTINUOUS
 62
3
100
AcDbLine
 10
-98.41381173239610
 20
103.9658596227490
 30
0.0000000000000000
 11
41.58618779081242
 21
103.9658596228669
 31
0.0000000000000000
  0
LINE
  5
54F
100
AcDbEntity
  8
B0
  6
CONTINUOUS
 62
3
100
AcDbLine
 10
-98.41381173238726
 20
83.96585962274898
 30
0.0000000000000000
 11
41.58618779082129
 21
83.96585962286687
 31
0.0000000000000000
  0
MTEXT
  5
550
100
AcDbEntity
  8
B0
  6
CONTINUOUS
 62
3
100
AcDbMText
 10
-96.10289901110609
 20
143.4770457773635
 30
0.0000000000000000
 40
7.749999761581421
 41
0.0000000000000000
 71
     1
 72
     1
  1
{\H0.68x;{エア圧力　　　　0.3Mpa}}
 11
1.000000000000000
 21
0.0000000000000000
 31
0.0000000000000000
  7
KNJYOKO
  0
MTEXT
  5
551
100
AcDbEntity
  8
B0
  6
CONTINUOUS
 62
3
100
AcDbMText
 10
-93.80048335904898
 20
133.5141802482999
 30
0.0000000000000000
 40
7.749999761581421
 41
0.0000000000000000
 71
     1
 72
     1
  1
{\H0.71x;{AIR PRESSURE}}
 11
1.000000000000000
 21
0.0000000000000000
 31
0.0000000000000000
  7
STANDARD
  0
MTEXT
  5
552
100
AcDbEntity
  8
B0
  6
CONTINUOUS
 62
3
100
AcDbMText
 10
-96.10289901109722
 20
123.4770457773635
 30
0.0000000000000000
 40
7.749999761581421
 41
0.0000000000000000
 71
     1
 72
     1
  1
{\H0.69x;{エア圧力　　　　0.45Mpa}}
 11
1.000000000000000
 21
0.0000000000000000
 31
0.0000000000000000
  7
KNJYOKO
  0
MTEXT
  5
553
100
AcDbEntity
  8
B0
  6
CONTINUOUS
 62
3
100
AcDbMText
 10
-93.80048335904012
 20
113.5141802482999
 30
0.0000000000000000
 40
7.749999761581421
 41
0.0000000000000000
 71
     1
 72
     1
  1
{\H0.71x;{AIR PRESSURE}}
 11
1.000000000000000
 21
0.0000000000000000
 31
0.0000000000000000
  7
STANDARD
  0
MTEXT
  5
554
100
AcDbEntity
  8
B0
  6
CONTINUOUS
 62
3
100
AcDbMText
 10
-96.10289901108838
 20
103.4770457773635
 30
0.0000000000000000
 40
7.749999761581421
 41
0.0000000000000000
 71
     1
 72
     1
  1
{\H0.68x;{エア圧力　　　　0.6Mpa}}
 11
1.000000000000000
 21
0.0000000000000000
 31
0.0000000000000000
  7
KNJYOKO
  0
MTEXT
  5
555
100
AcDbEntity
  8
B0
  6
CONTINUOUS
 62
3
100
AcDbMText
 10
-93.80048335903128
 20
93.51418024829988
 30
0.0000000000000000
 40
7.749999761581421
 41
0.0000000000000000
 71
     1
 72
     1
  1
{\H0.71x;{AIR PRESSURE}}
 11
1.000000000000000
 21
0.0000000000000000
 31
0.0000000000000000
  7
STANDARD
  0
MTEXT
  5
556
100
AcDbEntity
  8
B0
  6
CONTINUOUS
 62
3
100
AcDbMText
 10
-1.913812209205432
 20
134.7158593844084
 30
0.0000000000000000
 40
7.749999761581421
 41
0.0000000000000000
 71
     1
 72
     1
  1
{\H0.92x;{20 kN}}
 11
1.000000000000000
 21
0.0000000000000000
 31
0.0000000000000000
  7
STANDARD
  0
MTEXT
  5
557
100
AcDbEntity
  8
B0
  6
CONTINUOUS
 62
3
100
AcDbMText
 10
-1.913812209196564
 20
114.7158593844084
 30
0.0000000000000000
 40
7.749999761581421
 41
0.0000000000000000
 71
     1
 72
     1
  1
{\H0.92x;{30 kN}}
 11
1.000000000000000
 21
0.0000000000000000
 31
0.0000000000000000
  7
STANDARD
  0
MTEXT
  5
558
100
AcDbEntity
  8
B0
  6
CONTINUOUS
 62
3
100
AcDbMText
 10
-1.913812209187753
 20
94.71585938440842
 30
0.0000000000000000
 40
7.749999761581421
 41
0.0000000000000000
 71
     1
 72
     1
  1
{\H0.92x;{40 kN}}
 11
1.000000000000000
 21
0.0000000000000000
 31
0.0000000000000000
  7
STANDARD
  0
LINE
  5
559
100
AcDbEntity
  8
B0
  6
CONTINUOUS
 62
3
100
AcDbLine
 10
-98.41381173236908
 20
61.46585962274898
 30
0.0000000000000000
 11
41.58618779083945
 21
61.46585962286687
 31
0.0000000000000000
  0
MTEXT
  5
55A
100
AcDbEntity
  8
B0
  6
CONTINUOUS
 62
3
100
AcDbMText
 10
-97.16381173237677
 20
82.21585962248682
 30
0.0000000000000000
 40
7.749999761581421
 41
0.0000000000000000
 71
     1
 72
     1
  1
{\H0.70x;{口金自動締付最大ストローク}}
 11
1.000000000000000
 21
0.0000000000000000
 31
0.0000000000000000
  7
KNJYOKO
  0
MTEXT
  5
55B
100
AcDbEntity
  8
B0
  6
CONTINUOUS
 62
3
100
AcDbMText
 10
-97.16381173237677
 20
71.46585986090540
 30
0.0000000000000000
 40
6.999999880790710
 41
0.0000000000000000
 71
     1
 72
     1
  1
{\H0.67x;{JAW STROKE}}
 11
1.000000000000000
 21
0.0000000000000000
 31
0.0000000000000000
  7
STANDARD
  0
MTEXT
  5
55C
100
AcDbEntity
  8
B0
  6
CONTINUOUS
 62
3
100
AcDbMText
 10
-1.913812209169564
 20
72.21585938440842
 30
0.0000000000000000
 40
7.749999761581421
 41
0.0000000000000000
 71
     1
 72
     1
  1
{\H0.85x;{4.0 mm}}
 11
1.000000000000000
 21
0.0000000000000000
 31
0.0000000000000000
  7
STANDARD
  0
LINE
  5
55D
100
AcDbEntity
  8
B0
  6
CONTINUOUS
 62
3
100
AcDbLine
 10
-98.41381173235092
 20
38.96585962274899
 30
0.0000000000000000
 11
41.58618779085758
 21
38.96585962286688
 31
0.0000000000000000
  0
MTEXT
  5
55E
100
AcDbEntity
  8
B0
  6
CONTINUOUS
 62
3
100
AcDbMText
 10
-1.913812209151431
 20
49.71585938440842
 30
0.0000000000000000
 40
7.749999761581421
 41
0.0000000000000000
 71
     1
 72
     1
  1
{\H0.92x;{45 kg}}
 11
1.000000000000000
 21
0.0000000000000000
 31
0.0000000000000000
  7
STANDARD
  0
MTEXT
  5
55F
100
AcDbEntity
  8
B0
  6
CONTINUOUS
 62
3
100
AcDbMText
 10
-97.16381173235861
 20
59.71585962248682
 30
0.0000000000000000
 40
7.749999761581421
 41
0.0000000000000000
 71
     1
 72
     1
  1
{\H0.70x;{製品質量}}
 11
1.000000000000000
 21
0.0000000000000000
 31
0.0000000000000000
  7
KNJYOKO
  0
MTEXT
  5
560
100
AcDbEntity
  8
B0
  6
CONTINUOUS
 62
3
100
AcDbMText
 10
-97.16381173235861
 20
48.96585986090540
 30
0.0000000000000000
 40
6.999999880790710
 41
0.0000000000000000
 71
     1
 72
     1
  1
{\H0.67x;{MASS OF POWER VISE}}
 11
1.000000000000000
 21
0.0000000000000000
 31
0.0000000000000000
  7
STANDARD
  0
LINE
  5
561
100
AcDbEntity
  8
B0
  6
CONTINUOUS
 62
3
100
AcDbLine
 10
-98.41381173243066
 20
163.9658596227490
 30
0.0000000000000000
 11
41.58618779077783
 21
163.9658596228669
 31
0.0000000000000000
  0
MTEXT
  5
562
100
AcDbEntity
  8
B0
  6
CONTINUOUS
 62
3
100
AcDbMText
 10
-96.10289901110609
 20
163.4770457773635
 30
0.0000000000000000
 40
7.749999761581421
 41
0.0000000000000000
 71
     1
 72
     1
  1
{\H0.69x;{エア圧力　　　　0.15Mpa}}
 11
1.000000000000000
 21
0.0000000000000000
 31
0.0000000000000000
  7
KNJYOKO
  0
MTEXT
  5
563
100
AcDbEntity
  8
B0
  6
CONTINUOUS
 62
3
100
AcDbMText
 10
-93.80048335904898
 20
153.5141802482999
 30
0.0000000000000000
 40
7.749999761581421
 41
0.0000000000000000
 71
     1
 72
     1
  1
{\H0.71x;{AIR PRESSURE}}
 11
1.000000000000000
 21
0.0000000000000000
 31
0.0000000000000000
  7
STANDARD
  0
MTEXT
  5
564
100
AcDbEntity
  8
B0
  6
CONTINUOUS
 62
3
100
AcDbMText
 10
-1.913812209205432
 20
154.7158593844084
 30
0.0000000000000000
 40
7.749999761581421
 41
0.0000000000000000
 71
     1
 72
     1
  1
{\H0.92x;{10 kN}}
 11
1.000000000000000
 21
0.0000000000000000
 31
0.0000000000000000
  7
STANDARD
  0
ENDSEC
  0
SECTION
  2
OBJECTS
  0
DICTIONARY
  5
5C9
100
AcDbDictionary
  3
ACAD_GROUP
350
5CA
  3
ACAD_MLINESTYLE
350
5CB
  3
DWGPROPS
350
5CC
  0
DICTIONARY
  5
5CA
102
{ACAD_REACTORS
330
5C9
102
}
100
AcDbDictionary
  0
DICTIONARY
  5
5CB
102
{ACAD_REACTORS
330
5C9
102
}
100
AcDbDictionary
  3
STANDARD
350
5CD
  0
MLINESTYLE
  5
5CD
102
{ACAD_REACTORS
330
5CB
102
}
100
AcDbMlineStyle
  2
STANDARD
 70
     0
  3

 62
   256
 51
90.00
 52
90.00
 71
     2
 49
0.50
 62
   256
  6
BYLAYER
 49
-0.50
 62
   256
  6
BYLAYER
  0
XRECORD
  5
5CC
102
{ACAD_REACTORS
330
5C9
102
}
100
AcDbXrecord
280
     1
  1
DWGPROPS COOKIE
  2
ＶＱＡ１２５　ガイケイ　
  3

  4

  6
エアバイス
  7

  8

  9

300
=
301
=
302
=
303
=
304
=
305
=
306
=
307
=
308
=
309
=
 40
0.000000
 41
0.000000
 42
0.000000
  1

 90
        0
  0
ENDSEC
  0
EOF
