  0
SECTION
  2
HEADER
  9
$ACADVER
  1
AC1014
  9
$DWGCODEPAGE
  3
ANSI_932
  9
$LTSCALE
 40
20.0
  9
$FILLMODE
 70
     1
  9
$CLAYER
  8
0
  9
$PDMODE
 70
     0
  9
$SPLFRAME
 70
     0
  9
$SPLINETYPE
 70
     6
  9
$SPLINESEGS
 70
     8
  9
$DIMASZ
 40
2.000000
  9
$DIMEXE
 40
2.000000
  9
$DIMEXO
 40
0.800000
  9
$DIMTAD
 70
     1
  9
$DIMTIH
 70
     0
  9
$DIMTOH
 70
     0
  9
$DIMTVP
 40
0.500000
  9
$DIMTXT
 40
3.100000
  9
$EXTMIN
 10
0.000000
 20
0.000000
 30
0.000000
  9
$EXTMAX
 10
297.000000
 20
420.000000
 30
0.000000
  9
$MEASUREMENT
 70
  1
  9
$LIMMIN
 10
0.000000
 20
0.000000
  9
$LIMMAX
 10
297.000000
 20
420.000000
  9
$HANDLING
 70
     1
  9
$HANDSEED
  5
615
  9
$DIMBLK
  1
_OPEN
  9
$DIMDEC
 70
     3
  9
$DIMAUNIT
 70
     1
  9
$DIMZIN
 70
     8
  9
$DIMTOFL
 70
     1
  0
ENDSEC
  0
SECTION
  2
CLASSES
  0
ENDSEC
  0
SECTION
  2
TABLES
  0
TABLE
  2
VPORT
  5
5B1
100
AcDbSymbolTable
 70
     1
  0
VPORT
  5
5B2
100
AcDbSymbolTableRecord
100
AcDbViewportTableRecord
  2
*ACTIVE
 70
     0
 12
435.528016
 22
355.974356
 40
1789.440218
 41
1.314634
  0
ENDTAB
  0
TABLE
  2
LTYPE
  5
5B3
100
AcDbSymbolTable
 70
     3
  0
LTYPE
  5
5B4
100
AcDbSymbolTableRecord
100
AcDbLinetypeTableRecord
  2
BYBLOCK
 70
     0
  3

 72
    65
 73
     0
 40
0.0
  0
LTYPE
  5
5B5
100
AcDbSymbolTableRecord
100
AcDbLinetypeTableRecord
  2
BYLAYER
 70
     0
  3

 72
    65
 73
     0
 40
0.0
  0
LTYPE
  5
5B6
100
AcDbSymbolTableRecord
100
AcDbLinetypeTableRecord
  2
CONTINUOUS
 70
     0
  3
Solid line (NEC CAE2D for Win R12.1 : 2016.08.08)
 72
    65
 73
     0
 40
0.0
  0
LTYPE
  5
5B7
100
AcDbSymbolTableRecord
100
AcDbLinetypeTableRecord
  2
HIDDEN
 70
     0
  3
__ __ __ __ __ __ __ __ __ __ __ __ __ __
 72
    65
 73
     2
 40
0.375
 49
0.25
 74
     0
 49
-0.125
 74
     0
  0
LTYPE
  5
5B8
100
AcDbSymbolTableRecord
100
AcDbLinetypeTableRecord
  2
CENTER
 70
     0
  3
____ _ ____ _ ____ _ ____ _ ____ _ ____
 72
    65
 73
     4
 40
2.0
 49
1.25
 74
     0
 49
-0.25
 74
     0
 49
0.25
 74
     0
 49
-0.25
 74
     0
  0
ENDTAB
  0
TABLE
  2
LAYER
  5
5B9
100
AcDbSymbolTable
 70
    10
  0
LAYER
  5
5BA
100
AcDbSymbolTableRecord
100
AcDbLayerTableRecord
  2
0
 70
     0
 62
     7
  6
CONTINUOUS
  0
LAYER
  5
5BB
100
AcDbSymbolTableRecord
100
AcDbLayerTableRecord
  2
MAIN0
 70
     0
 62
     7
  6
CONTINUOUS
  0
LAYER
  5
5BC
100
AcDbSymbolTableRecord
100
AcDbLayerTableRecord
  2
MAIN1
 70
     0
 62
     7
  6
CONTINUOUS
  0
LAYER
  5
5BD
100
AcDbSymbolTableRecord
100
AcDbLayerTableRecord
  2
MAIN3
 70
     0
 62
     7
  6
CONTINUOUS
  0
LAYER
  5
5BE
100
AcDbSymbolTableRecord
100
AcDbLayerTableRecord
  2
MAIN10
 70
     0
 62
     7
  6
CONTINUOUS
  0
LAYER
  5
5BF
100
AcDbSymbolTableRecord
100
AcDbLayerTableRecord
  2
MAIN1023
 70
     0
 62
    16
  6
CONTINUOUS
  0
LAYER
  5
5C0
100
AcDbSymbolTableRecord
100
AcDbLayerTableRecord
  2
WAKU0
 70
     0
 62
     7
  6
CONTINUOUS
  0
LAYER
  5
5C1
100
AcDbSymbolTableRecord
100
AcDbLayerTableRecord
  2
WAKU1023
 70
     0
 62
    16
  6
CONTINUOUS
  0
LAYER
  5
5C2
100
AcDbSymbolTableRecord
100
AcDbLayerTableRecord
  2
A0
 70
     0
 62
     7
  6
CONTINUOUS
  0
LAYER
  5
5C3
100
AcDbSymbolTableRecord
100
AcDbLayerTableRecord
  2
A1023
 70
     0
 62
    16
  6
CONTINUOUS
  0
ENDTAB
  0
TABLE
  2
STYLE
  5
5C4
100
AcDbSymbolTable
 70
     4
  0
STYLE
  5
5C5
100
AcDbSymbolTableRecord
100
AcDbTextStyleTableRecord
  2
STANDARD
 70
    64
 40
0.0
 41
1.0
 50
0.0
 71
     0
 42
7.749999761581421
  3
TXT
  4

  0
STYLE
  5
5C6
100
AcDbSymbolTableRecord
100
AcDbTextStyleTableRecord
  2
ANKTATE
 70
    68
 40
0.0
 41
1.0
 50
0.0
 71
     0
 42
7.749999761581421
  3
TXT
  4

  0
STYLE
  5
35D
100
AcDbSymbolTableRecord
100
AcDbTextStyleTableRecord
  2
KNJYOKO
 70
    64
 40
0.0
 41
1.0
 50
0.0
 71
     0
 42
7.749999761581421
  3
TXT
  4
BIGFONT
  0
STYLE
  5
5C7
100
AcDbSymbolTableRecord
100
AcDbTextStyleTableRecord
  2
KNJTATE
 70
    68
 40
0.0
 41
1.0
 50
0.0
 71
     0
 42
7.749999761581421
  3
TXT
  4
BIGFONT
  0
ENDTAB
  0
TABLE
  2
VIEW
  5
5C8
100
AcDbSymbolTable
 70
     0
  0
ENDTAB
  0
TABLE
  2
UCS
  5
5C9
100
AcDbSymbolTable
 70
     0
  0
ENDTAB
  0
TABLE
  2
APPID
  5
5CA
100
AcDbSymbolTable
 70
     1
  0
APPID
  5
5CB
100
AcDbSymbolTableRecord
100
AcDbRegAppTableRecord
  2
ACAD
 70
     0
  0
ENDTAB
  0
TABLE
  2
DIMSTYLE
  5
5CC
100
AcDbSymbolTable
 70
     1
  0
DIMSTYLE
105
5CD
100
AcDbSymbolTableRecord
100
AcDbDimStyleTableRecord
  2
STANDARD
 70
     0
 41
2.000000
 44
2.000000
 42
0.800000
145
0.661290
140
3.100000
144
1.000000
146
0.903226
340
5C5
  0
DIMSTYLE
105
5CE
100
AcDbSymbolTableRecord
100
AcDbDimStyleTableRecord
  2
MAIN001
 70
     0
 41
5.000000
 44
5.000000
 42
2.000000
145
0.564516
140
7.750000
144
1.000000
146
0.903226
 77
     1
 73
     0
 74
     0
271
     3
275
     1
 78
     8
172
     1
340
5C5
  0
DIMSTYLE
105
5CF
100
AcDbSymbolTableRecord
100
AcDbDimStyleTableRecord
  2
WAKU002
 70
     0
 41
2.000000
 44
2.000000
 42
0.800000
145
0.661290
140
3.100000
144
1.000000
146
0.903226
 77
     1
 73
     0
 74
     0
271
     3
275
     1
 78
     8
172
     1
340
5C5
  0
DIMSTYLE
105
5D0
100
AcDbSymbolTableRecord
100
AcDbDimStyleTableRecord
  2
A003
 70
     0
 41
5.000000
 44
5.000000
 42
2.000000
145
0.564516
140
7.750000
144
1.000000
146
0.903226
 77
     1
 73
     0
 74
     0
271
     3
275
     1
 78
     8
172
     1
340
5C5
  0
ENDTAB
  0
TABLE
  2
BLOCK_RECORD
  5
5D1
100
AcDbSymbolTable
 70
    68
  0
BLOCK_RECORD
  5
5D2
100
AcDbSymbolTableRecord
100
AcDbBlockTableRecord
  2
*MODEL_SPACE
  0
BLOCK_RECORD
  5
5D3
100
AcDbSymbolTableRecord
100
AcDbBlockTableRecord
  2
*PAPER_SPACE
  0
BLOCK_RECORD
  5
1
100
AcDbSymbolTableRecord
100
AcDbBlockTableRecord
  2
_NONE
  0
BLOCK_RECORD
  5
4
100
AcDbSymbolTableRecord
100
AcDbBlockTableRecord
  2
_CLOSED
  0
BLOCK_RECORD
  5
B
100
AcDbSymbolTableRecord
100
AcDbBlockTableRecord
  2
_DOT
  0
BLOCK_RECORD
  5
13
100
AcDbSymbolTableRecord
100
AcDbBlockTableRecord
  2
_OPEN
  0
BLOCK_RECORD
  5
19
100
AcDbSymbolTableRecord
100
AcDbBlockTableRecord
  2
_ORIGIN
  0
BLOCK_RECORD
  5
1E
100
AcDbSymbolTableRecord
100
AcDbBlockTableRecord
  2
_OPEN30
  0
BLOCK_RECORD
  5
24
100
AcDbSymbolTableRecord
100
AcDbBlockTableRecord
  2
_BOXFILLED
  0
BLOCK_RECORD
  5
29
100
AcDbSymbolTableRecord
100
AcDbBlockTableRecord
  2
_BOXBLANK
  0
BLOCK_RECORD
  5
31
100
AcDbSymbolTableRecord
100
AcDbBlockTableRecord
  2
_OBLIQUE
  0
BLOCK_RECORD
  5
35
100
AcDbSymbolTableRecord
100
AcDbBlockTableRecord
  2
_OPEN90
  0
BLOCK_RECORD
  5
3B
100
AcDbSymbolTableRecord
100
AcDbBlockTableRecord
  2
_CLOSEDBLANK
  0
BLOCK_RECORD
  5
41
100
AcDbSymbolTableRecord
100
AcDbBlockTableRecord
  2
_DOTBLANK
  0
BLOCK_RECORD
  5
5D4
100
AcDbSymbolTableRecord
100
AcDbBlockTableRecord
  2
*D0
  0
BLOCK_RECORD
  5
5D5
100
AcDbSymbolTableRecord
100
AcDbBlockTableRecord
  2
*D1
  0
BLOCK_RECORD
  5
5D6
100
AcDbSymbolTableRecord
100
AcDbBlockTableRecord
  2
*D2
  0
BLOCK_RECORD
  5
5D7
100
AcDbSymbolTableRecord
100
AcDbBlockTableRecord
  2
*D3
  0
BLOCK_RECORD
  5
5D8
100
AcDbSymbolTableRecord
100
AcDbBlockTableRecord
  2
*D4
  0
BLOCK_RECORD
  5
5D9
100
AcDbSymbolTableRecord
100
AcDbBlockTableRecord
  2
*D5
  0
BLOCK_RECORD
  5
5DA
100
AcDbSymbolTableRecord
100
AcDbBlockTableRecord
  2
*D6
  0
BLOCK_RECORD
  5
5DB
100
AcDbSymbolTableRecord
100
AcDbBlockTableRecord
  2
*D7
  0
BLOCK_RECORD
  5
5DC
100
AcDbSymbolTableRecord
100
AcDbBlockTableRecord
  2
*D8
  0
BLOCK_RECORD
  5
5DD
100
AcDbSymbolTableRecord
100
AcDbBlockTableRecord
  2
*D9
  0
BLOCK_RECORD
  5
5DE
100
AcDbSymbolTableRecord
100
AcDbBlockTableRecord
  2
*D10
  0
BLOCK_RECORD
  5
5DF
100
AcDbSymbolTableRecord
100
AcDbBlockTableRecord
  2
*D11
  0
BLOCK_RECORD
  5
5E0
100
AcDbSymbolTableRecord
100
AcDbBlockTableRecord
  2
*D12
  0
BLOCK_RECORD
  5
5E1
100
AcDbSymbolTableRecord
100
AcDbBlockTableRecord
  2
*D13
  0
BLOCK_RECORD
  5
5E2
100
AcDbSymbolTableRecord
100
AcDbBlockTableRecord
  2
*D14
  0
BLOCK_RECORD
  5
5E3
100
AcDbSymbolTableRecord
100
AcDbBlockTableRecord
  2
*D15
  0
BLOCK_RECORD
  5
5E4
100
AcDbSymbolTableRecord
100
AcDbBlockTableRecord
  2
*D16
  0
BLOCK_RECORD
  5
5E5
100
AcDbSymbolTableRecord
100
AcDbBlockTableRecord
  2
*D17
  0
BLOCK_RECORD
  5
5E6
100
AcDbSymbolTableRecord
100
AcDbBlockTableRecord
  2
*D18
  0
BLOCK_RECORD
  5
5E7
100
AcDbSymbolTableRecord
100
AcDbBlockTableRecord
  2
*D19
  0
BLOCK_RECORD
  5
5E8
100
AcDbSymbolTableRecord
100
AcDbBlockTableRecord
  2
*D20
  0
BLOCK_RECORD
  5
5E9
100
AcDbSymbolTableRecord
100
AcDbBlockTableRecord
  2
*D21
  0
BLOCK_RECORD
  5
5EA
100
AcDbSymbolTableRecord
100
AcDbBlockTableRecord
  2
*D22
  0
BLOCK_RECORD
  5
5EB
100
AcDbSymbolTableRecord
100
AcDbBlockTableRecord
  2
*D23
  0
BLOCK_RECORD
  5
5EC
100
AcDbSymbolTableRecord
100
AcDbBlockTableRecord
  2
*D24
  0
BLOCK_RECORD
  5
5ED
100
AcDbSymbolTableRecord
100
AcDbBlockTableRecord
  2
*D25
  0
BLOCK_RECORD
  5
5EE
100
AcDbSymbolTableRecord
100
AcDbBlockTableRecord
  2
*D26
  0
BLOCK_RECORD
  5
5EF
100
AcDbSymbolTableRecord
100
AcDbBlockTableRecord
  2
*D27
  0
BLOCK_RECORD
  5
5F0
100
AcDbSymbolTableRecord
100
AcDbBlockTableRecord
  2
*D28
  0
BLOCK_RECORD
  5
5F1
100
AcDbSymbolTableRecord
100
AcDbBlockTableRecord
  2
*D29
  0
BLOCK_RECORD
  5
5F2
100
AcDbSymbolTableRecord
100
AcDbBlockTableRecord
  2
*D30
  0
BLOCK_RECORD
  5
5F3
100
AcDbSymbolTableRecord
100
AcDbBlockTableRecord
  2
*D31
  0
BLOCK_RECORD
  5
5F4
100
AcDbSymbolTableRecord
100
AcDbBlockTableRecord
  2
D32
  0
BLOCK_RECORD
  5
5F5
100
AcDbSymbolTableRecord
100
AcDbBlockTableRecord
  2
*D33
  0
BLOCK_RECORD
  5
5F6
100
AcDbSymbolTableRecord
100
AcDbBlockTableRecord
  2
*D34
  0
BLOCK_RECORD
  5
5F7
100
AcDbSymbolTableRecord
100
AcDbBlockTableRecord
  2
*D35
  0
BLOCK_RECORD
  5
5F8
100
AcDbSymbolTableRecord
100
AcDbBlockTableRecord
  2
*D36
  0
BLOCK_RECORD
  5
5F9
100
AcDbSymbolTableRecord
100
AcDbBlockTableRecord
  2
*D37
  0
BLOCK_RECORD
  5
5FA
100
AcDbSymbolTableRecord
100
AcDbBlockTableRecord
  2
*D38
  0
BLOCK_RECORD
  5
5FB
100
AcDbSymbolTableRecord
100
AcDbBlockTableRecord
  2
*D39
  0
BLOCK_RECORD
  5
5FC
100
AcDbSymbolTableRecord
100
AcDbBlockTableRecord
  2
*D40
  0
BLOCK_RECORD
  5
5FD
100
AcDbSymbolTableRecord
100
AcDbBlockTableRecord
  2
*D41
  0
BLOCK_RECORD
  5
5FE
100
AcDbSymbolTableRecord
100
AcDbBlockTableRecord
  2
*D42
  0
BLOCK_RECORD
  5
5FF
100
AcDbSymbolTableRecord
100
AcDbBlockTableRecord
  2
*D43
  0
BLOCK_RECORD
  5
600
100
AcDbSymbolTableRecord
100
AcDbBlockTableRecord
  2
*D44
  0
BLOCK_RECORD
  5
601
100
AcDbSymbolTableRecord
100
AcDbBlockTableRecord
  2
*D45
  0
BLOCK_RECORD
  5
602
100
AcDbSymbolTableRecord
100
AcDbBlockTableRecord
  2
*D46
  0
BLOCK_RECORD
  5
603
100
AcDbSymbolTableRecord
100
AcDbBlockTableRecord
  2
*D47
  0
BLOCK_RECORD
  5
604
100
AcDbSymbolTableRecord
100
AcDbBlockTableRecord
  2
*D48
  0
BLOCK_RECORD
  5
605
100
AcDbSymbolTableRecord
100
AcDbBlockTableRecord
  2
*D49
  0
BLOCK_RECORD
  5
606
100
AcDbSymbolTableRecord
100
AcDbBlockTableRecord
  2
*D50
  0
BLOCK_RECORD
  5
607
100
AcDbSymbolTableRecord
100
AcDbBlockTableRecord
  2
*D51
  0
BLOCK_RECORD
  5
608
100
AcDbSymbolTableRecord
100
AcDbBlockTableRecord
  2
*D52
  0
BLOCK_RECORD
  5
609
100
AcDbSymbolTableRecord
100
AcDbBlockTableRecord
  2
*D53
  0
BLOCK_RECORD
  5
60A
100
AcDbSymbolTableRecord
100
AcDbBlockTableRecord
  2
*D54
  0
BLOCK_RECORD
  5
60B
100
AcDbSymbolTableRecord
100
AcDbBlockTableRecord
  2
*D55
  0
ENDTAB
  0
ENDSEC
  0
SECTION
  2
BLOCKS
  0
BLOCK
  5
60C
100
AcDbEntity
  8
0
100
AcDbBlockBegin
  2
*MODEL_SPACE
 70
     0
 10
0.0
 20
0.0
 30
0.0
  3
*MODEL_SPACE
  1

  0
ENDBLK
  5
60D
100
AcDbEntity
  8
0
100
AcDbBlockEnd
  0
BLOCK
  5
60E
100
AcDbEntity
  8
0
100
AcDbBlockBegin
  2
*PAPER_SPACE
 70
     0
 10
0.0
 20
0.0
 30
0.0
  3
*PAPER_SPACE
  1

  0
ENDBLK
  5
60F
100
AcDbEntity
  8
0
100
AcDbBlockEnd
  0
BLOCK
  5
2
100
AcDbEntity
  8
0
100
AcDbBlockBegin
  2
_NONE
 70
     0
 10
0.0
 20
0.0
 30
0.0
  3
_NONE
  1

  0
ENDBLK
  5
3
100
AcDbEntity
  8
0
100
AcDbBlockEnd
  0
BLOCK
  5
5
100
AcDbEntity
  8
0
100
AcDbBlockBegin
  2
_CLOSED
 70
     0
 10
0.0
 20
0.0
 30
0.0
  3
_CLOSED
  1

  0
LINE
  5
6
100
AcDbEntity
  8
0
  6
BYBLOCK
 62
     0
100
AcDbLine
 10
-1.0
 20
0.166667
 30
0.0
 11
0.0
 21
0.0
 31
0.0
  0
LINE
  5
7
100
AcDbEntity
  8
0
  6
BYBLOCK
 62
     0
100
AcDbLine
 10
0.0
 20
0.0
 30
0.0
 11
-1.0
 21
-0.166667
 31
0.0
  0
LINE
  5
8
100
AcDbEntity
  8
0
  6
BYBLOCK
 62
     0
100
AcDbLine
 10
-1.0
 20
0.166667
 30
0.0
 11
-1.0
 21
-0.166667
 31
0.0
  0
LINE
  5
9
100
AcDbEntity
  8
0
  6
BYBLOCK
 62
     0
100
AcDbLine
 10
0.0
 20
0.0
 30
0.0
 11
-1.0
 21
0.0
 31
0.0
  0
ENDBLK
  5
A
100
AcDbEntity
  8
0
100
AcDbBlockEnd
  0
BLOCK
  5
C
100
AcDbEntity
  8
0
100
AcDbBlockBegin
  2
_DOT
 70
     0
 10
0.0
 20
0.0
 30
0.0
  3
_DOT
  1

  0
POLYLINE
  5
D
100
AcDbEntity
  8
0
  6
BYBLOCK
 62
     0
100
AcDb2dPolyline
 66
     1
 10
0.0
 20
0.0
 30
0.0
 70
     1
 40
0.5
 41
0.5
  0
VERTEX
  5
E
100
AcDbEntity
  8
0
  6
BYBLOCK
 62
     0
100
AcDbVertex
100
AcDb2dVertex
 10
-0.25
 20
0.0
 30
0.0
 42
1.0
  0
VERTEX
  5
F
100
AcDbEntity
  8
0
  6
BYBLOCK
 62
     0
100
AcDbVertex
100
AcDb2dVertex
 10
0.25
 20
0.0
 30
0.0
 42
1.0
  0
SEQEND
  5
10
100
AcDbEntity
  8
0
  6
BYBLOCK
 62
     0
  0
LINE
  5
11
100
AcDbEntity
  8
0
  6
BYBLOCK
 62
     0
100
AcDbLine
 10
-0.5
 20
0.0
 30
0.0
 11
-1.0
 21
0.0
 31
0.0
  0
ENDBLK
  5
12
100
AcDbEntity
  8
0
100
AcDbBlockEnd
  0
BLOCK
  5
14
100
AcDbEntity
  8
0
100
AcDbBlockBegin
  2
_OPEN
 70
     0
 10
0.0
 20
0.0
 30
0.0
  3
_OPEN
  1

  0
LINE
  5
15
100
AcDbEntity
  8
0
  6
BYBLOCK
 62
     0
100
AcDbLine
 10
-1.0
 20
0.166667
 30
0.0
 11
0.0
 21
0.0
 31
0.0
  0
LINE
  5
16
100
AcDbEntity
  8
0
  6
BYBLOCK
 62
     0
100
AcDbLine
 10
0.0
 20
0.0
 30
0.0
 11
-1.0
 21
-0.166667
 31
0.0
  0
LINE
  5
17
100
AcDbEntity
  8
0
  6
BYBLOCK
 62
     0
100
AcDbLine
 10
0.0
 20
0.0
 30
0.0
 11
-1.0
 21
0.0
 31
0.0
  0
ENDBLK
  5
18
100
AcDbEntity
  8
0
100
AcDbBlockEnd
  0
BLOCK
  5
1A
100
AcDbEntity
  8
0
100
AcDbBlockBegin
  2
_ORIGIN
 70
     0
 10
0.0
 20
0.0
 30
0.0
  3
_ORIGIN
  1

  0
CIRCLE
  5
1B
100
AcDbEntity
  8
0
  6
BYBLOCK
 62
     0
100
AcDbCircle
 10
0.0
 20
0.0
 30
0.0
 40
0.5
  0
LINE
  5
1C
100
AcDbEntity
  8
0
  6
BYBLOCK
 62
     0
100
AcDbLine
 10
0.0
 20
0.0
 30
0.0
 11
-1.0
 21
0.0
 31
0.0
  0
ENDBLK
  5
1D
100
AcDbEntity
  8
0
100
AcDbBlockEnd
  0
BLOCK
  5
1F
100
AcDbEntity
  8
0
100
AcDbBlockBegin
  2
_OPEN30
 70
     0
 10
0.0
 20
0.0
 30
0.0
  3
_OPEN30
  1

  0
LINE
  5
20
100
AcDbEntity
  8
0
  6
BYBLOCK
 62
     0
100
AcDbLine
 10
-1.0
 20
0.267949
 30
0.0
 11
0.0
 21
0.0
 31
0.0
  0
LINE
  5
21
100
AcDbEntity
  8
0
  6
BYBLOCK
 62
     0
100
AcDbLine
 10
0.0
 20
0.0
 30
0.0
 11
-1.0
 21
-0.267949
 31
0.0
  0
LINE
  5
22
100
AcDbEntity
  8
0
  6
BYBLOCK
 62
     0
100
AcDbLine
 10
0.0
 20
0.0
 30
0.0
 11
-1.0
 21
0.0
 31
0.0
  0
ENDBLK
  5
23
100
AcDbEntity
  8
0
100
AcDbBlockEnd
  0
BLOCK
  5
25
100
AcDbEntity
  8
0
100
AcDbBlockBegin
  2
_BOXFILLED
 70
     0
 10
0.0
 20
0.0
 30
0.0
  3
_BOXFILLED
  1

  0
SOLID
  5
26
100
AcDbEntity
  8
0
  6
BYBLOCK
 62
     0
100
AcDbTrace
 10
-0.5
 20
0.5
 30
0.0
 11
0.5
 21
0.5
 31
0.0
 12
-0.5
 22
-0.5
 32
0.0
 13
0.5
 23
-0.5
 33
0.0
  0
LINE
  5
27
100
AcDbEntity
  8
0
  6
BYBLOCK
 62
     0
100
AcDbLine
 10
-0.5
 20
0.0
 30
0.0
 11
-1.0
 21
0.0
 31
0.0
  0
ENDBLK
  5
28
100
AcDbEntity
  8
0
100
AcDbBlockEnd
  0
BLOCK
  5
2A
100
AcDbEntity
  8
0
100
AcDbBlockBegin
  2
_BOXBLANK
 70
     0
 10
0.0
 20
0.0
 30
0.0
  3
_BOXBLANK
  1

  0
LINE
  5
2B
100
AcDbEntity
  8
0
  6
BYBLOCK
 62
     0
100
AcDbLine
 10
-0.5
 20
-0.5
 30
0.0
 11
0.5
 21
-0.5
 31
0.0
  0
LINE
  5
2C
100
AcDbEntity
  8
0
  6
BYBLOCK
 62
     0
100
AcDbLine
 10
0.5
 20
-0.5
 30
0.0
 11
0.5
 21
0.5
 31
0.0
  0
LINE
  5
2D
100
AcDbEntity
  8
0
  6
BYBLOCK
 62
     0
100
AcDbLine
 10
0.5
 20
0.5
 30
0.0
 11
-0.5
 21
0.5
 31
0.0
  0
LINE
  5
2E
100
AcDbEntity
  8
0
  6
BYBLOCK
 62
     0
100
AcDbLine
 10
-0.5
 20
0.5
 30
0.0
 11
-0.5
 21
-0.5
 31
0.0
  0
LINE
  5
2F
100
AcDbEntity
  8
0
  6
BYBLOCK
 62
     0
100
AcDbLine
 10
-0.5
 20
0.0
 30
0.0
 11
-1.0
 21
0.0
 31
0.0
  0
ENDBLK
  5
30
100
AcDbEntity
  8
0
100
AcDbBlockEnd
  0
BLOCK
  5
32
100
AcDbEntity
  8
0
100
AcDbBlockBegin
  2
_OBLIQUE
 70
     0
 10
0.0
 20
0.0
 30
0.0
  3
_OBLIQUE
  1

  0
LINE
  5
33
100
AcDbEntity
  8
0
  6
BYBLOCK
 62
     0
100
AcDbLine
 10
-0.5
 20
-0.5
 30
0.0
 11
0.5
 21
0.5
 31
0.0
  0
ENDBLK
  5
34
100
AcDbEntity
  8
0
100
AcDbBlockEnd
  0
BLOCK
  5
36
100
AcDbEntity
  8
0
100
AcDbBlockBegin
  2
_OPEN90
 70
     0
 10
0.0
 20
0.0
 30
0.0
  3
_OPEN90
  1

  0
LINE
  5
37
100
AcDbEntity
  8
0
  6
BYBLOCK
 62
     0
100
AcDbLine
 10
-0.5
 20
0.5
 30
0.0
 11
0.0
 21
0.0
 31
0.0
  0
LINE
  5
38
100
AcDbEntity
  8
0
  6
BYBLOCK
 62
     0
100
AcDbLine
 10
0.0
 20
0.0
 30
0.0
 11
-0.5
 21
-0.5
 31
0.0
  0
LINE
  5
39
100
AcDbEntity
  8
0
  6
BYBLOCK
 62
     0
100
AcDbLine
 10
0.0
 20
0.0
 30
0.0
 11
-1.0
 21
0.0
 31
0.0
  0
ENDBLK
  5
3A
100
AcDbEntity
  8
0
100
AcDbBlockEnd
  0
BLOCK
  5
3C
100
AcDbEntity
  8
0
100
AcDbBlockBegin
  2
_CLOSEDBLANK
 70
     0
 10
0.0
 20
0.0
 30
0.0
  3
_CLOSEDBLANK
  1

  0
LINE
  5
3D
100
AcDbEntity
  8
0
  6
BYBLOCK
 62
     0
100
AcDbLine
 10
-1.0
 20
0.1666666666666666
 30
0.0
 11
0.0
 21
0.0
 31
0.0
  0
LINE
  5
3E
100
AcDbEntity
  8
0
  6
BYBLOCK
 62
     0
100
AcDbLine
 10
0.0
 20
0.0
 30
0.0
 11
-1.0
 21
-0.1666666666666666
 31
0.0
  0
LINE
  5
3F
100
AcDbEntity
  8
0
  6
BYBLOCK
 62
     0
100
AcDbLine
 10
-1.0
 20
0.1666666666666666
 30
0.0
 11
-1.0
 21
-0.1666666666666666
 31
0.0
  0
ENDBLK
  5
40
100
AcDbEntity
  8
0
100
AcDbBlockEnd
  0
BLOCK
  5
42
100
AcDbEntity
  8
0
100
AcDbBlockBegin
  2
_DOTBLANK
 70
     0
 10
0.0
 20
0.0
 30
0.0
  3
_DOTBLANK
  1

  0
CIRCLE
  5
43
100
AcDbEntity
  8
0
  6
BYBLOCK
 62
     0
100
AcDbCircle
 10
0.0
 20
0.0
 30
0.0
 40
0.5
  0
LINE
  5
44
100
AcDbEntity
  8
0
  6
BYBLOCK
 62
     0
100
AcDbLine
 10
-0.5
 20
0.0
 30
0.0
 11
-1.0
 21
0.0
 31
0.0
  0
ENDBLK
  5
45
100
AcDbEntity
  8
0
100
AcDbBlockEnd
  0
BLOCK
  5
91
100
AcDbEntity
  8
MAIN0
  6
CONTINUOUS
 62
3
100
AcDbBlockBegin
  2
*D0
 70
    65
 10
0.0
 20
0.0
 30
0.0
  0
LINE
  5
92
100
AcDbEntity
  8
MAIN0
  6
BYBLOCK
 62
0
100
AcDbLine
 10
445.0400319623665
 20
280.8627223742806
 30
0.0000000000000000
 11
445.0400319623665
 21
275.8627223742676
 31
0.0000000000000000
  0
INSERT
  5
93
100
AcDbEntity
  8
MAIN0
  6
BYBLOCK
 62
0
100
AcDbBlockReference
  2
_OPEN
 10
445.0400319623665
 20
280.8627223742806
 30
0.0000000000000000
 41
5.000000000000000
 42
5.000000000000000
 43
5.000000000000000
 50
270.0000000000000
  0
INSERT
  5
94
100
AcDbEntity
  8
MAIN0
  6
BYBLOCK
 62
0
100
AcDbBlockReference
  2
_OPEN
 10
445.0400319623665
 20
275.8627223742676
 30
0.0000000000000000
 41
5.000000000000000
 42
5.000000000000000
 43
5.000000000000000
 50
90.00000000000000
  0
LINE
  5
95
100
AcDbEntity
  8
MAIN0
  6
BYBLOCK
 62
0
100
AcDbLine
 10
445.0400319623665
 20
285.8627223742806
 30
0.0000000000000000
 11
445.0400319623665
 21
288.3627223742806
 31
0.0000000000000000
  0
LINE
  5
96
100
AcDbEntity
  8
MAIN0
  6
BYBLOCK
 62
0
100
AcDbLine
 10
445.0400319623665
 20
270.8627223742676
 30
0.0000000000000000
 11
445.0400319623665
 21
262.2816062255162
 31
0.0000000000000000
  0
LINE
  5
97
100
AcDbEntity
  8
MAIN0
  6
BYBLOCK
 62
0
100
AcDbLine
 10
481.0400319325648
 20
275.8627223742676
 30
0.0000000000000000
 11
440.0400319623665
 21
275.8627223742676
 31
0.0000000000000000
  0
MTEXT
  5
98
100
AcDbEntity
  8
MAIN0
  6
BYBLOCK
 62
0
100
AcDbMText
 10
439.9150320815758
 20
264.7816062255162
 30
0.0000000000000000
 40
7.749999761581421
 41
0.0000000000000000
 71
     5
 72
     1
  1
\A1;5
 11
6.123233995736766e-017
 21
1.000000000000000
 31
0.0000000000000000
  7
STANDARD
  0
ENDBLK
  5
99
100
AcDbEntity
  8
MAIN0
  6
CONTINUOUS
 62
3
100
AcDbBlockEnd
  0
BLOCK
  5
9B
100
AcDbEntity
  8
MAIN0
  6
CONTINUOUS
 62
3
100
AcDbBlockBegin
  2
*D1
 70
    65
 10
0.0
 20
0.0
 30
0.0
  0
LINE
  5
9C
100
AcDbEntity
  8
MAIN0
  6
BYBLOCK
 62
0
100
AcDbLine
 10
272.0400319623017
 20
309.3627223752417
 30
0.0000000000000000
 11
337.0400319622906
 21
309.3627223752417
 31
0.0000000000000000
  0
INSERT
  5
9D
100
AcDbEntity
  8
MAIN0
  6
BYBLOCK
 62
0
100
AcDbBlockReference
  2
_OPEN
 10
267.0400319623017
 20
309.3627223752417
 30
0.0000000000000000
 41
5.000000000000000
 42
5.000000000000000
 43
5.000000000000000
 50
180.0000000000000
  0
INSERT
  5
9E
100
AcDbEntity
  8
MAIN0
  6
BYBLOCK
 62
0
100
AcDbBlockReference
  2
_OPEN
 10
342.0400319622906
 20
309.3627223752417
 30
0.0000000000000000
 41
5.000000000000000
 42
5.000000000000000
 43
5.000000000000000
 50
0.0000000000000000
  0
LINE
  5
9F
100
AcDbEntity
  8
MAIN0
  6
BYBLOCK
 62
0
100
AcDbLine
 10
342.0400319622906
 20
312.8627223447825
 30
0.0000000000000000
 11
342.0400319622906
 21
304.3627223752417
 31
0.0000000000000000
  0
MTEXT
  5
A0
100
AcDbEntity
  8
MAIN0
  6
BYBLOCK
 62
0
100
AcDbMText
 10
304.5400319622961
 20
313.7377222560324
 30
0.0000000000000000
 40
7.749999761581421
 41
0.0000000000000000
 71
     5
 72
     1
  1
\A1;75
 11
1.000000000000000
 21
0.0000000000000000
 31
0.0000000000000000
  7
STANDARD
  0
ENDBLK
  5
A1
100
AcDbEntity
  8
MAIN0
  6
CONTINUOUS
 62
3
100
AcDbBlockEnd
  0
BLOCK
  5
A3
100
AcDbEntity
  8
MAIN0
  6
CONTINUOUS
 62
3
100
AcDbBlockBegin
  2
*D2
 70
    65
 10
0.0
 20
0.0
 30
0.0
  0
LINE
  5
A4
100
AcDbEntity
  8
MAIN0
  6
BYBLOCK
 62
0
100
AcDbLine
 10
342.0400319622906
 20
312.8627223447825
 30
0.0000000000000000
 11
342.0400319622906
 21
304.3627223752417
 31
0.0000000000000000
  0
LINE
  5
A5
100
AcDbEntity
  8
MAIN0
  6
BYBLOCK
 62
0
100
AcDbLine
 10
347.0400319622906
 20
309.3627223752417
 30
0.0000000000000000
 11
557.0400319626893
 21
309.3627223752417
 31
0.0000000000000000
  0
INSERT
  5
A6
100
AcDbEntity
  8
MAIN0
  6
BYBLOCK
 62
0
100
AcDbBlockReference
  2
_OPEN
 10
342.0400319622906
 20
309.3627223752417
 30
0.0000000000000000
 41
5.000000000000000
 42
5.000000000000000
 43
5.000000000000000
 50
180.0000000000000
  0
INSERT
  5
A7
100
AcDbEntity
  8
MAIN0
  6
BYBLOCK
 62
0
100
AcDbBlockReference
  2
_OPEN
 10
562.0400319626893
 20
309.3627223752417
 30
0.0000000000000000
 41
5.000000000000000
 42
5.000000000000000
 43
5.000000000000000
 50
0.0000000000000000
  0
LINE
  5
A8
100
AcDbEntity
  8
MAIN0
  6
BYBLOCK
 62
0
100
AcDbLine
 10
562.0400319626893
 20
312.8627223448400
 30
0.0000000000000000
 11
562.0400319626893
 21
304.3627223752417
 31
0.0000000000000000
  0
MTEXT
  5
A9
100
AcDbEntity
  8
MAIN0
  6
BYBLOCK
 62
0
100
AcDbMText
 10
452.0400319624900
 20
313.7377222560324
 30
0.0000000000000000
 40
7.749999761581421
 41
0.0000000000000000
 71
     5
 72
     1
  1
\A1;220
 11
1.000000000000000
 21
0.0000000000000000
 31
0.0000000000000000
  7
STANDARD
  0
ENDBLK
  5
AA
100
AcDbEntity
  8
MAIN0
  6
CONTINUOUS
 62
3
100
AcDbBlockEnd
  0
BLOCK
  5
AC
100
AcDbEntity
  8
MAIN0
  6
CONTINUOUS
 62
3
100
AcDbBlockBegin
  2
*D3
 70
    65
 10
0.0
 20
0.0
 30
0.0
  0
LINE
  5
AD
100
AcDbEntity
  8
MAIN0
  6
BYBLOCK
 62
0
100
AcDbLine
 10
562.0400319626893
 20
312.8627223448400
 30
0.0000000000000000
 11
562.0400319626893
 21
304.3627223752417
 31
0.0000000000000000
  0
LINE
  5
AE
100
AcDbEntity
  8
MAIN0
  6
BYBLOCK
 62
0
100
AcDbLine
 10
567.0400319626893
 20
309.3627223752417
 30
0.0000000000000000
 11
632.0400319624831
 21
309.3627223752417
 31
0.0000000000000000
  0
INSERT
  5
AF
100
AcDbEntity
  8
MAIN0
  6
BYBLOCK
 62
0
100
AcDbBlockReference
  2
_OPEN
 10
562.0400319626893
 20
309.3627223752417
 30
0.0000000000000000
 41
5.000000000000000
 42
5.000000000000000
 43
5.000000000000000
 50
180.0000000000000
  0
INSERT
  5
B0
100
AcDbEntity
  8
MAIN0
  6
BYBLOCK
 62
0
100
AcDbBlockReference
  2
_OPEN
 10
637.0400319624831
 20
309.3627223752417
 30
0.0000000000000000
 41
5.000000000000000
 42
5.000000000000000
 43
5.000000000000000
 50
0.0000000000000000
  0
MTEXT
  5
B1
100
AcDbEntity
  8
MAIN0
  6
BYBLOCK
 62
0
100
AcDbMText
 10
599.5400319625862
 20
313.7377222560324
 30
0.0000000000000000
 40
7.749999761581421
 41
0.0000000000000000
 71
     5
 72
     1
  1
\A1;75
 11
1.000000000000000
 21
0.0000000000000000
 31
0.0000000000000000
  7
STANDARD
  0
ENDBLK
  5
B2
100
AcDbEntity
  8
MAIN0
  6
CONTINUOUS
 62
3
100
AcDbBlockEnd
  0
BLOCK
  5
B6
100
AcDbEntity
  8
MAIN0
  6
CONTINUOUS
 62
3
100
AcDbBlockBegin
  2
*D4
 70
    65
 10
0.0
 20
0.0
 30
0.0
  0
LINE
  5
B7
100
AcDbEntity
  8
MAIN0
  6
BYBLOCK
 62
0
100
AcDbLine
 10
497.6400319325957
 20
387.0627223742861
 30
0.0000000000000000
 11
475.0400319623981
 21
387.0627223742861
 31
0.0000000000000000
  0
LINE
  5
B8
100
AcDbEntity
  8
MAIN0
  6
BYBLOCK
 62
0
100
AcDbLine
 10
480.0400319623981
 20
387.0627223742861
 30
0.0000000000000000
 11
480.0400319623981
 21
365.8627223743821
 31
0.0000000000000000
  0
INSERT
  5
B9
100
AcDbEntity
  8
MAIN0
  6
BYBLOCK
 62
0
100
AcDbBlockReference
  2
_OPEN
 10
480.0400319623981
 20
387.0627223742861
 30
0.0000000000000000
 41
5.000000000000000
 42
5.000000000000000
 43
5.000000000000000
 50
270.0000000000000
  0
INSERT
  5
BA
100
AcDbEntity
  8
MAIN0
  6
BYBLOCK
 62
0
100
AcDbBlockReference
  2
_OPEN
 10
480.0400319623981
 20
365.8627223743821
 30
0.0000000000000000
 41
5.000000000000000
 42
5.000000000000000
 43
5.000000000000000
 50
90.00000000000000
  0
LINE
  5
BB
100
AcDbEntity
  8
MAIN0
  6
BYBLOCK
 62
0
100
AcDbLine
 10
480.0400319623981
 20
392.0627223742861
 30
0.0000000000000000
 11
480.0400319623981
 21
394.5627223742861
 31
0.0000000000000000
  0
LINE
  5
BC
100
AcDbEntity
  8
MAIN0
  6
BYBLOCK
 62
0
100
AcDbLine
 10
480.0400319623981
 20
360.8627223743821
 30
0.0000000000000000
 11
480.0400319623981
 21
358.3627223743821
 31
0.0000000000000000
  0
MTEXT
  5
BD
100
AcDbEntity
  8
MAIN0
  6
BYBLOCK
 62
0
100
AcDbMText
 10
475.6650320816074
 20
376.4627223743341
 30
0.0000000000000000
 40
7.749999761581421
 41
0.0000000000000000
 71
     5
 72
     1
  1
\A1;21
 11
6.123233995736766e-017
 21
1.000000000000000
 31
0.0000000000000000
  7
STANDARD
  0
ENDBLK
  5
BE
100
AcDbEntity
  8
MAIN0
  6
CONTINUOUS
 62
3
100
AcDbBlockEnd
  0
BLOCK
  5
C0
100
AcDbEntity
  8
MAIN0
  6
CONTINUOUS
 62
3
100
AcDbBlockBegin
  2
*D5
 70
    65
 10
0.0
 20
0.0
 30
0.0
  0
LINE
  5
C1
100
AcDbEntity
  8
MAIN0
  6
BYBLOCK
 62
0
100
AcDbLine
 10
267.0400319622833
 20
366.8627224038658
 30
0.0000000000000000
 11
267.0400319622831
 21
464.8627223741713
 31
0.0000000000000000
  0
LINE
  5
C2
100
AcDbEntity
  8
MAIN0
  6
BYBLOCK
 62
0
100
AcDbLine
 10
267.0400319622830
 20
459.8627223741712
 30
0.0000000000000000
 11
268.0400319623981
 21
459.8627223741712
 31
0.0000000000000000
  0
INSERT
  5
C3
100
AcDbEntity
  8
MAIN0
  6
BYBLOCK
 62
0
100
AcDbBlockReference
  2
_OPEN
 10
267.0400319622830
 20
459.8627223741712
 30
0.0000000000000000
 41
5.000000000000000
 42
5.000000000000000
 43
5.000000000000000
 50
0.0000000000000000
  0
INSERT
  5
C4
100
AcDbEntity
  8
MAIN0
  6
BYBLOCK
 62
0
100
AcDbBlockReference
  2
_OPEN
 10
268.0400319623981
 20
459.8627223741712
 30
0.0000000000000000
 41
5.000000000000000
 42
5.000000000000000
 43
5.000000000000000
 50
180.0000000000000
  0
LINE
  5
C5
100
AcDbEntity
  8
MAIN0
  6
BYBLOCK
 62
0
100
AcDbLine
 10
262.0400319622830
 20
459.8627223741712
 30
0.0000000000000000
 11
255.3745460606893
 21
459.8627223741712
 31
0.0000000000000000
  0
LINE
  5
C6
100
AcDbEntity
  8
MAIN0
  6
BYBLOCK
 62
0
100
AcDbLine
 10
273.0400319623981
 20
459.8627223741712
 30
0.0000000000000000
 11
275.5400319623981
 21
459.8627223741712
 31
0.0000000000000000
  0
LINE
  5
C7
100
AcDbEntity
  8
MAIN0
  6
BYBLOCK
 62
0
100
AcDbLine
 10
268.0400319623981
 20
417.6627224039127
 30
0.0000000000000000
 11
268.0400319623981
 21
464.8627223741712
 31
0.0000000000000000
  0
MTEXT
  5
C8
100
AcDbEntity
  8
MAIN0
  6
BYBLOCK
 62
0
100
AcDbMText
 10
257.8745460606893
 20
464.9877222549619
 30
0.0000000000000000
 40
7.749999761581421
 41
0.0000000000000000
 71
     5
 72
     1
  1
\A1;1
 11
1.000000000000000
 21
0.0000000000000000
 31
0.0000000000000000
  7
STANDARD
  0
ENDBLK
  5
C9
100
AcDbEntity
  8
MAIN0
  6
CONTINUOUS
 62
3
100
AcDbBlockEnd
  0
BLOCK
  5
CB
100
AcDbEntity
  8
MAIN0
  6
CONTINUOUS
 62
3
100
AcDbBlockBegin
  2
*D6
 70
    65
 10
0.0
 20
0.0
 30
0.0
  0
LINE
  5
CC
100
AcDbEntity
  8
MAIN0
  6
BYBLOCK
 62
0
100
AcDbLine
 10
268.0400319623981
 20
417.6627224039127
 30
0.0000000000000000
 11
268.0400319623981
 21
464.8627223741712
 31
0.0000000000000000
  0
LINE
  5
CD
100
AcDbEntity
  8
MAIN0
  6
BYBLOCK
 62
0
100
AcDbLine
 10
273.0400319623983
 20
459.8627223741712
 30
0.0000000000000000
 11
347.0400319623980
 21
459.8627223741712
 31
0.0000000000000000
  0
INSERT
  5
CE
100
AcDbEntity
  8
MAIN0
  6
BYBLOCK
 62
0
100
AcDbBlockReference
  2
_OPEN
 10
268.0400319623983
 20
459.8627223741712
 30
0.0000000000000000
 41
5.000000000000000
 42
5.000000000000000
 43
5.000000000000000
 50
180.0000000000000
  0
INSERT
  5
CF
100
AcDbEntity
  8
MAIN0
  6
BYBLOCK
 62
0
100
AcDbBlockReference
  2
_OPEN
 10
352.0400319623980
 20
459.8627223741712
 30
0.0000000000000000
 41
5.000000000000000
 42
5.000000000000000
 43
5.000000000000000
 50
0.0000000000000000
  0
LINE
  5
D0
100
AcDbEntity
  8
MAIN0
  6
BYBLOCK
 62
0
100
AcDbLine
 10
352.0400319623980
 20
417.3627224039132
 30
0.0000000000000000
 11
352.0400319623980
 21
464.8627223741712
 31
0.0000000000000000
  0
MTEXT
  5
D1
100
AcDbEntity
  8
MAIN0
  6
BYBLOCK
 62
0
100
AcDbMText
 10
310.0400319623982
 20
464.2377222549619
 30
0.0000000000000000
 40
7.749999761581421
 41
0.0000000000000000
 71
     5
 72
     1
  1
\A1;84
 11
1.000000000000000
 21
0.0000000000000000
 31
0.0000000000000000
  7
STANDARD
  0
ENDBLK
  5
D2
100
AcDbEntity
  8
MAIN0
  6
CONTINUOUS
 62
3
100
AcDbBlockEnd
  0
BLOCK
  5
D4
100
AcDbEntity
  8
MAIN0
  6
CONTINUOUS
 62
3
100
AcDbBlockBegin
  2
*D7
 70
    65
 10
0.0
 20
0.0
 30
0.0
  0
LINE
  5
D5
100
AcDbEntity
  8
MAIN0
  6
BYBLOCK
 62
0
100
AcDbLine
 10
352.0400319623980
 20
417.3627224039132
 30
0.0000000000000000
 11
352.0400319623980
 21
464.8627223741712
 31
0.0000000000000000
  0
LINE
  5
D6
100
AcDbEntity
  8
MAIN0
  6
BYBLOCK
 62
0
100
AcDbLine
 10
357.0400319623980
 20
459.8627223741712
 30
0.0000000000000000
 11
417.0400319623980
 21
459.8627223741712
 31
0.0000000000000000
  0
INSERT
  5
D7
100
AcDbEntity
  8
MAIN0
  6
BYBLOCK
 62
0
100
AcDbBlockReference
  2
_OPEN
 10
352.0400319623980
 20
459.8627223741712
 30
0.0000000000000000
 41
5.000000000000000
 42
5.000000000000000
 43
5.000000000000000
 50
180.0000000000000
  0
INSERT
  5
D8
100
AcDbEntity
  8
MAIN0
  6
BYBLOCK
 62
0
100
AcDbBlockReference
  2
_OPEN
 10
422.0400319623980
 20
459.8627223741712
 30
0.0000000000000000
 41
5.000000000000000
 42
5.000000000000000
 43
5.000000000000000
 50
0.0000000000000000
  0
LINE
  5
D9
100
AcDbEntity
  8
MAIN0
  6
BYBLOCK
 62
0
100
AcDbLine
 10
422.0400319623980
 20
417.6627224039829
 30
0.0000000000000000
 11
422.0400319623980
 21
464.8627223741712
 31
0.0000000000000000
  0
MTEXT
  5
DA
100
AcDbEntity
  8
MAIN0
  6
BYBLOCK
 62
0
100
AcDbMText
 10
387.0400319623980
 20
464.2377222549619
 30
0.0000000000000000
 40
7.749999761581421
 41
0.0000000000000000
 71
     5
 72
     1
  1
\A1;MAX 204
 11
1.000000000000000
 21
0.0000000000000000
 31
0.0000000000000000
  7
STANDARD
  0
ENDBLK
  5
DB
100
AcDbEntity
  8
MAIN0
  6
CONTINUOUS
 62
3
100
AcDbBlockEnd
  0
BLOCK
  5
DD
100
AcDbEntity
  8
MAIN0
  6
CONTINUOUS
 62
1
100
AcDbBlockBegin
  2
*D8
 70
    65
 10
0.0
 20
0.0
 30
0.0
  0
LINE
  5
DE
100
AcDbEntity
  8
MAIN0
  6
BYBLOCK
 62
0
100
AcDbLine
 10
422.0400319623980
 20
417.6627224039829
 30
0.0000000000000000
 11
422.0400319623980
 21
464.8627223741712
 31
0.0000000000000000
  0
LINE
  5
DF
100
AcDbEntity
  8
MAIN0
  6
BYBLOCK
 62
0
100
AcDbLine
 10
427.0400319623980
 20
459.8627223741712
 30
0.0000000000000000
 11
493.0400319623977
 21
459.8627223741712
 31
0.0000000000000000
  0
INSERT
  5
E0
100
AcDbEntity
  8
MAIN0
  6
BYBLOCK
 62
0
100
AcDbBlockReference
  2
_OPEN
 10
422.0400319623980
 20
459.8627223741712
 30
0.0000000000000000
 41
5.000000000000000
 42
5.000000000000000
 43
5.000000000000000
 50
180.0000000000000
  0
INSERT
  5
E1
100
AcDbEntity
  8
MAIN0
  6
BYBLOCK
 62
0
100
AcDbBlockReference
  2
_OPEN
 10
498.0400319623977
 20
459.8627223741712
 30
0.0000000000000000
 41
5.000000000000000
 42
5.000000000000000
 43
5.000000000000000
 50
0.0000000000000000
  0
LINE
  5
E2
100
AcDbEntity
  8
MAIN0
  6
BYBLOCK
 62
0
100
AcDbLine
 10
498.0400319623977
 20
417.3627224039830
 30
0.0000000000000000
 11
498.0400319623977
 21
464.8627223741712
 31
0.0000000000000000
  0
MTEXT
  5
E3
100
AcDbEntity
  8
MAIN0
  6
BYBLOCK
 62
0
100
AcDbMText
 10
460.0400319623979
 20
464.2377222549619
 30
0.0000000000000000
 40
7.749999761581421
 41
0.0000000000000000
 71
     5
 72
     1
  1
\A1;76
 11
1.000000000000000
 21
0.0000000000000000
 31
0.0000000000000000
  7
STANDARD
  0
ENDBLK
  5
E4
100
AcDbEntity
  8
MAIN0
  6
CONTINUOUS
 62
1
100
AcDbBlockEnd
  0
BLOCK
  5
E6
100
AcDbEntity
  8
MAIN0
  6
CONTINUOUS
 62
3
100
AcDbBlockBegin
  2
*D9
 70
    65
 10
0.0
 20
0.0
 30
0.0
  0
LINE
  5
E7
100
AcDbEntity
  8
MAIN0
  6
BYBLOCK
 62
0
100
AcDbLine
 10
310.0400319623672
 20
417.8627224039130
 30
0.0000000000000000
 11
310.0400319623672
 21
446.8627223741108
 31
0.0000000000000000
  0
LINE
  5
E8
100
AcDbEntity
  8
MAIN0
  6
BYBLOCK
 62
0
100
AcDbLine
 10
315.0400319623672
 20
441.8627223741108
 30
0.0000000000000000
 11
347.0400319623980
 21
441.8627223741108
 31
0.0000000000000000
  0
INSERT
  5
E9
100
AcDbEntity
  8
MAIN0
  6
BYBLOCK
 62
0
100
AcDbBlockReference
  2
_OPEN
 10
310.0400319623672
 20
441.8627223741108
 30
0.0000000000000000
 41
5.000000000000000
 42
5.000000000000000
 43
5.000000000000000
 50
180.0000000000000
  0
INSERT
  5
EA
100
AcDbEntity
  8
MAIN0
  6
BYBLOCK
 62
0
100
AcDbBlockReference
  2
_OPEN
 10
352.0400319623980
 20
441.8627223741108
 30
0.0000000000000000
 41
5.000000000000000
 42
5.000000000000000
 43
5.000000000000000
 50
0.0000000000000000
  0
LINE
  5
EB
100
AcDbEntity
  8
MAIN0
  6
BYBLOCK
 62
0
100
AcDbLine
 10
352.0400319623980
 20
417.3627224039132
 30
0.0000000000000000
 11
352.0400319623980
 21
446.8627223741108
 31
0.0000000000000000
  0
MTEXT
  5
EC
100
AcDbEntity
  8
MAIN0
  6
BYBLOCK
 62
0
100
AcDbMText
 10
331.0400319623825
 20
446.2377222549015
 30
0.0000000000000000
 40
7.749999761581421
 41
0.0000000000000000
 71
     5
 72
     1
  1
\A1;42
 11
1.000000000000000
 21
0.0000000000000000
 31
0.0000000000000000
  7
STANDARD
  0
ENDBLK
  5
ED
100
AcDbEntity
  8
MAIN0
  6
CONTINUOUS
 62
3
100
AcDbBlockEnd
  0
BLOCK
  5
EF
100
AcDbEntity
  8
MAIN0
  6
CONTINUOUS
 62
3
100
AcDbBlockBegin
  2
*D10
 70
    65
 10
0.0
 20
0.0
 30
0.0
  0
LINE
  5
F0
100
AcDbEntity
  8
MAIN0
  6
BYBLOCK
 62
0
100
AcDbLine
 10
334.0400319623670
 20
415.8627223741107
 30
0.0000000000000000
 11
334.0400319623670
 21
406.8627223741107
 31
0.0000000000000000
  0
INSERT
  5
F1
100
AcDbEntity
  8
MAIN0
  6
BYBLOCK
 62
0
100
AcDbBlockReference
  2
_OPEN
 10
334.0400319623670
 20
415.8627223741107
 30
0.0000000000000000
 41
5.000000000000000
 42
5.000000000000000
 43
5.000000000000000
 50
270.0000000000000
  0
INSERT
  5
F2
100
AcDbEntity
  8
MAIN0
  6
BYBLOCK
 62
0
100
AcDbBlockReference
  2
_DOT
 10
334.0400319623670
 20
405.8627223741107
 30
0.0000000000000000
 41
2.500000000000000
 42
2.500000000000000
 43
2.500000000000000
 50
270.0000000000000
  0
LINE
  5
F3
100
AcDbEntity
  8
MAIN0
  6
BYBLOCK
 62
0
100
AcDbLine
 10
334.0400319623670
 20
420.8627223741107
 30
0.0000000000000000
 11
334.0400319623670
 21
433.3787199732965
 31
0.0000000000000000
  0
LINE
  5
F4
100
AcDbEntity
  8
MAIN0
  6
BYBLOCK
 62
0
100
AcDbLine
 10
322.0400319921695
 20
405.8627223741107
 30
0.0000000000000000
 11
339.0400319623670
 21
405.8627223741107
 31
0.0000000000000000
  0
MTEXT
  5
F5
100
AcDbEntity
  8
MAIN0
  6
BYBLOCK
 62
0
100
AcDbMText
 10
328.9150320815763
 20
428.2537200925058
 30
0.0000000000000000
 40
7.749999761581421
 41
0.0000000000000000
 71
     5
 72
     1
  1
\A1;10
 11
6.123233995736766e-017
 21
1.000000000000000
 31
0.0000000000000000
  7
STANDARD
  0
ENDBLK
  5
F6
100
AcDbEntity
  8
MAIN0
  6
CONTINUOUS
 62
3
100
AcDbBlockEnd
  0
BLOCK
  5
F8
100
AcDbEntity
  8
MAIN0
  6
CONTINUOUS
 62
3
100
AcDbBlockBegin
  2
*D11
 70
    65
 10
0.0
 20
0.0
 30
0.0
  0
LINE
  5
F9
100
AcDbEntity
  8
MAIN0
  6
BYBLOCK
 62
0
100
AcDbLine
 10
322.0400319921695
 20
405.8627223741107
 30
0.0000000000000000
 11
339.0400319623670
 21
405.8627223741107
 31
0.0000000000000000
  0
LINE
  5
FA
100
AcDbEntity
  8
MAIN0
  6
BYBLOCK
 62
0
100
AcDbLine
 10
334.0400319623670
 20
404.8627223741107
 30
0.0000000000000000
 11
334.0400319623670
 21
385.8627223741107
 31
0.0000000000000000
  0
INSERT
  5
FB
100
AcDbEntity
  8
MAIN0
  6
BYBLOCK
 62
0
100
AcDbBlockReference
  2
_DOT
 10
334.0400319623670
 20
405.8627223741107
 30
0.0000000000000000
 41
2.500000000000000
 42
2.500000000000000
 43
2.500000000000000
 50
90.00000000000000
  0
INSERT
  5
FC
100
AcDbEntity
  8
MAIN0
  6
BYBLOCK
 62
0
100
AcDbBlockReference
  2
_OPEN
 10
334.0400319623670
 20
385.8627223741107
 30
0.0000000000000000
 41
5.000000000000000
 42
5.000000000000000
 43
5.000000000000000
 50
90.00000000000000
  0
LINE
  5
FD
100
AcDbEntity
  8
MAIN0
  6
BYBLOCK
 62
0
100
AcDbLine
 10
334.0400319623670
 20
380.8627223741107
 30
0.0000000000000000
 11
334.0400319623670
 21
378.3627223741107
 31
0.0000000000000000
  0
LINE
  5
FE
100
AcDbEntity
  8
MAIN0
  6
BYBLOCK
 62
0
100
AcDbLine
 10
321.4400319921843
 20
385.8627223741107
 30
0.0000000000000000
 11
339.0400319623670
 21
385.8627223741107
 31
0.0000000000000000
  0
MTEXT
  5
FF
100
AcDbEntity
  8
MAIN0
  6
BYBLOCK
 62
0
100
AcDbMText
 10
329.6650320815763
 20
395.8627223741107
 30
0.0000000000000000
 40
7.749999761581421
 41
0.0000000000000000
 71
     5
 72
     1
  1
\A1;20
 11
6.123233995736766e-017
 21
1.000000000000000
 31
0.0000000000000000
  7
STANDARD
  0
ENDBLK
  5
100
100
AcDbEntity
  8
MAIN0
  6
CONTINUOUS
 62
3
100
AcDbBlockEnd
  0
BLOCK
  5
102
100
AcDbEntity
  8
MAIN0
  6
CONTINUOUS
 62
3
100
AcDbBlockBegin
  2
*D12
 70
    65
 10
0.0
 20
0.0
 30
0.0
  0
LINE
  5
103
100
AcDbEntity
  8
MAIN0
  6
BYBLOCK
 62
0
100
AcDbLine
 10
422.0400319623462
 20
550.8784516935488
 30
0.0000000000000000
 11
422.0400319623462
 21
509.7937868396077
 31
0.0000000000000000
  0
LINE
  5
104
100
AcDbEntity
  8
MAIN0
  6
BYBLOCK
 62
0
100
AcDbLine
 10
427.0400319623462
 20
514.7937868396077
 30
0.0000000000000000
 11
455.0400319623974
 21
514.7937868396077
 31
0.0000000000000000
  0
INSERT
  5
105
100
AcDbEntity
  8
MAIN0
  6
BYBLOCK
 62
0
100
AcDbBlockReference
  2
_OPEN
 10
422.0400319623462
 20
514.7937868396077
 30
0.0000000000000000
 41
5.000000000000000
 42
5.000000000000000
 43
5.000000000000000
 50
180.0000000000000
  0
INSERT
  5
106
100
AcDbEntity
  8
MAIN0
  6
BYBLOCK
 62
0
100
AcDbBlockReference
  2
_OPEN
 10
460.0400319623974
 20
514.7937868396077
 30
0.0000000000000000
 41
5.000000000000000
 42
5.000000000000000
 43
5.000000000000000
 50
0.0000000000000000
  0
LINE
  5
107
100
AcDbEntity
  8
MAIN0
  6
BYBLOCK
 62
0
100
AcDbLine
 10
460.0400319623974
 20
601.7784516935446
 30
0.0000000000000000
 11
460.0400319623974
 21
509.7937868396077
 31
0.0000000000000000
  0
MTEXT
  5
108
100
AcDbEntity
  8
MAIN0
  6
BYBLOCK
 62
0
100
AcDbMText
 10
441.0400319623718
 20
519.1687867203984
 30
0.0000000000000000
 40
7.749999761581421
 41
0.0000000000000000
 71
     5
 72
     1
  1
\A1;38
 11
1.000000000000000
 21
0.0000000000000000
 31
0.0000000000000000
  7
STANDARD
  0
ENDBLK
  5
109
100
AcDbEntity
  8
MAIN0
  6
CONTINUOUS
 62
3
100
AcDbBlockEnd
  0
BLOCK
  5
1CF
100
AcDbEntity
  8
MAIN0
  6
CONTINUOUS
 62
3
100
AcDbBlockBegin
  2
*D13
 70
    65
 10
0.0
 20
0.0
 30
0.0
  0
LINE
  5
1D0
100
AcDbEntity
  8
MAIN0
  6
BYBLOCK
 62
0
100
AcDbLine
 10
883.8870444250227
 20
387.0627222600995
 30
0.0000000000000000
 11
883.8870444250227
 21
464.8627223746266
 31
0.0000000000000000
  0
LINE
  5
1D1
100
AcDbEntity
  8
MAIN0
  6
BYBLOCK
 62
0
100
AcDbLine
 10
888.8870444250227
 20
459.8627223746266
 30
0.0000000000000000
 11
1013.887044425023
 21
459.8627223746266
 31
0.0000000000000000
  0
INSERT
  5
1D2
100
AcDbEntity
  8
MAIN0
  6
BYBLOCK
 62
0
100
AcDbBlockReference
  2
_OPEN
 10
883.8870444250227
 20
459.8627223746266
 30
0.0000000000000000
 41
5.000000000000000
 42
5.000000000000000
 43
5.000000000000000
 50
180.0000000000000
  0
INSERT
  5
1D3
100
AcDbEntity
  8
MAIN0
  6
BYBLOCK
 62
0
100
AcDbBlockReference
  2
_OPEN
 10
1018.887044425023
 20
459.8627223746266
 30
0.0000000000000000
 41
5.000000000000000
 42
5.000000000000000
 43
5.000000000000000
 50
0.0000000000000000
  0
LINE
  5
1D4
100
AcDbEntity
  8
MAIN0
  6
BYBLOCK
 62
0
100
AcDbLine
 10
1018.887044425023
 20
387.0627222600996
 30
0.0000000000000000
 11
1018.887044425023
 21
464.8627223746266
 31
0.0000000000000000
  0
MTEXT
  5
1D5
100
AcDbEntity
  8
MAIN0
  6
BYBLOCK
 62
0
100
AcDbMText
 10
951.3870444250227
 20
464.2377222554173
 30
0.0000000000000000
 40
7.749999761581421
 41
0.0000000000000000
 71
     5
 72
     1
  1
\A1;135
 11
1.000000000000000
 21
0.0000000000000000
 31
0.0000000000000000
  7
STANDARD
  0
ENDBLK
  5
1D6
100
AcDbEntity
  8
MAIN0
  6
CONTINUOUS
 62
3
100
AcDbBlockEnd
  0
BLOCK
  5
1DC
100
AcDbEntity
  8
MAIN0
  6
CONTINUOUS
 62
3
100
AcDbBlockBegin
  2
*D14
 70
    65
 10
0.0
 20
0.0
 30
0.0
  0
LINE
  5
1DD
100
AcDbEntity
  8
MAIN0
  6
BYBLOCK
 62
0
100
AcDbLine
 10
944.3870444250225
 20
336.9041742871190
 30
0.0000000000000000
 11
944.3870444250225
 21
446.8627223745415
 31
0.0000000000000000
  0
LINE
  5
1DE
100
AcDbEntity
  8
MAIN0
  6
BYBLOCK
 62
0
100
AcDbLine
 10
944.3870444250225
 20
441.8627223745415
 30
0.0000000000000000
 11
958.3870444250225
 21
441.8627223745415
 31
0.0000000000000000
  0
INSERT
  5
1DF
100
AcDbEntity
  8
MAIN0
  6
BYBLOCK
 62
0
100
AcDbBlockReference
  2
_OPEN
 10
944.3870444250225
 20
441.8627223745415
 30
0.0000000000000000
 41
5.000000000000000
 42
5.000000000000000
 43
5.000000000000000
 50
0.0000000000000000
  0
INSERT
  5
1E0
100
AcDbEntity
  8
MAIN0
  6
BYBLOCK
 62
0
100
AcDbBlockReference
  2
_OPEN
 10
958.3870444250225
 20
441.8627223745415
 30
0.0000000000000000
 41
5.000000000000000
 42
5.000000000000000
 43
5.000000000000000
 50
180.0000000000000
  0
LINE
  5
1E1
100
AcDbEntity
  8
MAIN0
  6
BYBLOCK
 62
0
100
AcDbLine
 10
939.3870444250225
 20
441.8627223745415
 30
0.0000000000000000
 11
936.8870444250225
 21
441.8627223745415
 31
0.0000000000000000
  0
LINE
  5
1E2
100
AcDbEntity
  8
MAIN0
  6
BYBLOCK
 62
0
100
AcDbLine
 10
963.3870444250225
 20
441.8627223745415
 30
0.0000000000000000
 11
965.8870444250225
 21
441.8627223745415
 31
0.0000000000000000
  0
LINE
  5
1E3
100
AcDbEntity
  8
MAIN0
  6
BYBLOCK
 62
0
100
AcDbLine
 10
958.3870444250225
 20
336.9041742871189
 30
0.0000000000000000
 11
958.3870444250225
 21
446.8627223745415
 31
0.0000000000000000
  0
MTEXT
  5
1E4
100
AcDbEntity
  8
MAIN0
  6
BYBLOCK
 62
0
100
AcDbMText
 10
951.3870444250225
 20
446.2377222553322
 30
0.0000000000000000
 40
7.749999761581421
 41
0.0000000000000000
 71
     5
 72
     1
  1
\A1;14
 11
1.000000000000000
 21
0.0000000000000000
 31
0.0000000000000000
  7
STANDARD
  0
ENDBLK
  5
1E5
100
AcDbEntity
  8
MAIN0
  6
CONTINUOUS
 62
3
100
AcDbBlockEnd
  0
BLOCK
  5
1E8
100
AcDbEntity
  8
MAIN0
  6
CONTINUOUS
 62
3
100
AcDbBlockBegin
  2
*D15
 70
    65
 10
0.0
 20
0.0
 30
0.0
  0
LINE
  5
1E9
100
AcDbEntity
  8
MAIN0
  6
BYBLOCK
 62
0
100
AcDbLine
 10
845.8870443952204
 20
315.8627223747760
 30
0.0000000000000000
 11
801.7471831927858
 21
315.8627223747760
 31
0.0000000000000000
  0
LINE
  5
1EA
100
AcDbEntity
  8
MAIN0
  6
BYBLOCK
 62
0
100
AcDbLine
 10
806.7471831927858
 20
315.8627223747760
 30
0.0000000000000000
 11
806.7471831927858
 21
310.8627223747760
 31
0.0000000000000000
  0
INSERT
  5
1EB
100
AcDbEntity
  8
MAIN0
  6
BYBLOCK
 62
0
100
AcDbBlockReference
  2
_OPEN
 10
806.7471831927858
 20
315.8627223747760
 30
0.0000000000000000
 41
5.000000000000000
 42
5.000000000000000
 43
5.000000000000000
 50
270.0000000000000
  0
INSERT
  5
1EC
100
AcDbEntity
  8
MAIN0
  6
BYBLOCK
 62
0
100
AcDbBlockReference
  2
_OPEN
 10
806.7471831927858
 20
310.8627223747760
 30
0.0000000000000000
 41
5.000000000000000
 42
5.000000000000000
 43
5.000000000000000
 50
90.00000000000000
  0
LINE
  5
1ED
100
AcDbEntity
  8
MAIN0
  6
BYBLOCK
 62
0
100
AcDbLine
 10
806.7471831927858
 20
320.8627223747760
 30
0.0000000000000000
 11
806.7471831927858
 21
327.9158059576425
 31
0.0000000000000000
  0
LINE
  5
1EE
100
AcDbEntity
  8
MAIN0
  6
BYBLOCK
 62
0
100
AcDbLine
 10
806.7471831927858
 20
305.8627223747760
 30
0.0000000000000000
 11
806.7471831927858
 21
303.3627223747760
 31
0.0000000000000000
  0
LINE
  5
1EF
100
AcDbEntity
  8
MAIN0
  6
BYBLOCK
 62
0
100
AcDbLine
 10
815.3870443952204
 20
310.8627223747760
 30
0.0000000000000000
 11
801.7471831927858
 21
310.8627223747760
 31
0.0000000000000000
  0
MTEXT
  5
1F0
100
AcDbEntity
  8
MAIN0
  6
BYBLOCK
 62
0
100
AcDbMText
 10
801.6221833119951
 20
325.4158059576425
 30
0.0000000000000000
 40
7.749999761581421
 41
0.0000000000000000
 71
     5
 72
     1
  1
\A1;5
 11
6.123233995736766e-017
 21
1.000000000000000
 31
0.0000000000000000
  7
STANDARD
  0
ENDBLK
  5
1F1
100
AcDbEntity
  8
MAIN0
  6
CONTINUOUS
 62
3
100
AcDbBlockEnd
  0
BLOCK
  5
1F3
100
AcDbEntity
  8
MAIN0
  6
CONTINUOUS
 62
3
100
AcDbBlockBegin
  2
*D16
 70
    65
 10
0.0
 20
0.0
 30
0.0
  0
LINE
  5
1F4
100
AcDbEntity
  8
MAIN0
  6
BYBLOCK
 62
0
100
AcDbLine
 10
815.3870443952204
 20
310.8627223747760
 30
0.0000000000000000
 11
801.7471831927858
 21
310.8627223747760
 31
0.0000000000000000
  0
LINE
  5
1F5
100
AcDbEntity
  8
MAIN0
  6
BYBLOCK
 62
0
100
AcDbLine
 10
806.7471831927858
 20
305.8627223747760
 30
0.0000000000000000
 11
806.7471831927858
 21
285.8627223747760
 31
0.0000000000000000
  0
INSERT
  5
1F6
100
AcDbEntity
  8
MAIN0
  6
BYBLOCK
 62
0
100
AcDbBlockReference
  2
_OPEN
 10
806.7471831927858
 20
310.8627223747760
 30
0.0000000000000000
 41
5.000000000000000
 42
5.000000000000000
 43
5.000000000000000
 50
90.00000000000000
  0
INSERT
  5
1F7
100
AcDbEntity
  8
MAIN0
  6
BYBLOCK
 62
0
100
AcDbBlockReference
  2
_OPEN
 10
806.7471831927858
 20
280.8627223747760
 30
0.0000000000000000
 41
5.000000000000000
 42
5.000000000000000
 43
5.000000000000000
 50
270.0000000000000
  0
LINE
  5
1F8
100
AcDbEntity
  8
MAIN0
  6
BYBLOCK
 62
0
100
AcDbLine
 10
817.0870443952205
 20
280.8627223747760
 30
0.0000000000000000
 11
801.7471831927858
 21
280.8627223747760
 31
0.0000000000000000
  0
MTEXT
  5
1F9
100
AcDbEntity
  8
MAIN0
  6
BYBLOCK
 62
0
100
AcDbMText
 10
802.3721833119951
 20
295.8627223747760
 30
0.0000000000000000
 40
7.749999761581421
 41
0.0000000000000000
 71
     5
 72
     1
  1
\A1;30
 11
6.123233995736766e-017
 21
1.000000000000000
 31
0.0000000000000000
  7
STANDARD
  0
ENDBLK
  5
1FA
100
AcDbEntity
  8
MAIN0
  6
CONTINUOUS
 62
3
100
AcDbBlockEnd
  0
BLOCK
  5
277
100
AcDbEntity
  8
MAIN0
  6
CONTINUOUS
 62
3
100
AcDbBlockBegin
  2
*D17
 70
    65
 10
0.0
 20
0.0
 30
0.0
  0
LINE
  5
278
100
AcDbEntity
  8
MAIN0
  6
BYBLOCK
 62
0
100
AcDbLine
 10
61.42808282697865
 20
417.8627224029671
 30
0.0000000000000000
 11
61.42808282697865
 21
438.8627223741417
 31
0.0000000000000000
  0
LINE
  5
279
100
AcDbEntity
  8
MAIN0
  6
BYBLOCK
 62
0
100
AcDbLine
 10
66.42808282697865
 20
433.8627223741417
 30
0.0000000000000000
 11
181.4280828269787
 21
433.8627223741417
 31
0.0000000000000000
  0
INSERT
  5
27A
100
AcDbEntity
  8
MAIN0
  6
BYBLOCK
 62
0
100
AcDbBlockReference
  2
_OPEN
 10
61.42808282697865
 20
433.8627223741417
 30
0.0000000000000000
 41
5.000000000000000
 42
5.000000000000000
 43
5.000000000000000
 50
180.0000000000000
  0
INSERT
  5
27B
100
AcDbEntity
  8
MAIN0
  6
BYBLOCK
 62
0
100
AcDbBlockReference
  2
_OPEN
 10
186.4280828269787
 20
433.8627223741417
 30
0.0000000000000000
 41
5.000000000000000
 42
5.000000000000000
 43
5.000000000000000
 50
0.0000000000000000
  0
LINE
  5
27C
100
AcDbEntity
  8
MAIN0
  6
BYBLOCK
 62
0
100
AcDbLine
 10
186.4280828269787
 20
417.8627224029671
 30
0.0000000000000000
 11
186.4280828269787
 21
438.8627223741417
 31
0.0000000000000000
  0
MTEXT
  5
27D
100
AcDbEntity
  8
MAIN0
  6
BYBLOCK
 62
0
100
AcDbMText
 10
123.9280828269787
 20
438.2377222549324
 30
0.0000000000000000
 40
7.749999761581421
 41
0.0000000000000000
 71
     5
 72
     1
  1
\A1;125
 11
1.000000000000000
 21
0.0000000000000000
 31
0.0000000000000000
  7
STANDARD
  0
ENDBLK
  5
27E
100
AcDbEntity
  8
MAIN0
  6
CONTINUOUS
 62
3
100
AcDbBlockEnd
  0
BLOCK
  5
280
100
AcDbEntity
  8
MAIN0
  6
CONTINUOUS
 62
3
100
AcDbBlockBegin
  2
*D18
 70
    65
 10
0.0
 20
0.0
 30
0.0
  0
LINE
  5
281
100
AcDbEntity
  8
MAIN0
  6
BYBLOCK
 62
0
100
AcDbLine
 10
188.8280822368860
 20
365.8627223718252
 30
0.0000000000000000
 11
214.6160379990012
 21
365.8627223718253
 31
0.0000000000000000
  0
LINE
  5
282
100
AcDbEntity
  8
MAIN0
  6
BYBLOCK
 62
0
100
AcDbLine
 10
209.6160379990012
 20
360.8627223718253
 30
0.0000000000000000
 11
209.6160379990012
 21
346.8627223738460
 31
0.0000000000000000
  0
INSERT
  5
283
100
AcDbEntity
  8
MAIN0
  6
BYBLOCK
 62
0
100
AcDbBlockReference
  2
_OPEN
 10
209.6160379990012
 20
365.8627223718253
 30
0.0000000000000000
 41
5.000000000000000
 42
5.000000000000000
 43
5.000000000000000
 50
90.00000000000000
  0
INSERT
  5
284
100
AcDbEntity
  8
MAIN0
  6
BYBLOCK
 62
0
100
AcDbBlockReference
  2
_OPEN
 10
209.6160379990012
 20
341.8627223738460
 30
0.0000000000000000
 41
5.000000000000000
 42
5.000000000000000
 43
5.000000000000000
 50
270.0000000000000
  0
LINE
  5
285
100
AcDbEntity
  8
MAIN0
  6
BYBLOCK
 62
0
100
AcDbLine
 10
187.9280828567810
 20
341.8627223738459
 30
0.0000000000000000
 11
214.6160379990012
 21
341.8627223738460
 31
0.0000000000000000
  0
MTEXT
  5
286
100
AcDbEntity
  8
MAIN0
  6
BYBLOCK
 62
0
100
AcDbMText
 10
205.2410381182104
 20
353.8627223728357
 30
0.0000000000000000
 40
7.749999761581421
 41
0.0000000000000000
 71
     5
 72
     1
  1
\A1;24
 11
6.123233995736766e-017
 21
1.000000000000000
 31
0.0000000000000000
  7
STANDARD
  0
ENDBLK
  5
287
100
AcDbEntity
  8
MAIN0
  6
CONTINUOUS
 62
3
100
AcDbBlockEnd
  0
BLOCK
  5
289
100
AcDbEntity
  8
MAIN0
  6
CONTINUOUS
 62
3
100
AcDbBlockBegin
  2
*D19
 70
    65
 10
0.0
 20
0.0
 30
0.0
  0
LINE
  5
28A
100
AcDbEntity
  8
MAIN0
  6
BYBLOCK
 62
0
100
AcDbLine
 10
187.9280828567810
 20
341.8627223738459
 30
0.0000000000000000
 11
214.6160379990012
 21
341.8627223738460
 31
0.0000000000000000
  0
LINE
  5
28B
100
AcDbEntity
  8
MAIN0
  6
BYBLOCK
 62
0
100
AcDbLine
 10
209.6160379990012
 20
336.8627223738460
 30
0.0000000000000000
 11
209.6160379990012
 21
306.8627223738460
 31
0.0000000000000000
  0
INSERT
  5
28C
100
AcDbEntity
  8
MAIN0
  6
BYBLOCK
 62
0
100
AcDbBlockReference
  2
_OPEN
 10
209.6160379990012
 20
341.8627223738460
 30
0.0000000000000000
 41
5.000000000000000
 42
5.000000000000000
 43
5.000000000000000
 50
90.00000000000000
  0
INSERT
  5
28D
100
AcDbEntity
  8
MAIN0
  6
BYBLOCK
 62
0
100
AcDbBlockReference
  2
_OPEN
 10
209.6160379990012
 20
301.8627223738460
 30
0.0000000000000000
 41
5.000000000000000
 42
5.000000000000000
 43
5.000000000000000
 50
270.0000000000000
  0
LINE
  5
28E
100
AcDbEntity
  8
MAIN0
  6
BYBLOCK
 62
0
100
AcDbLine
 10
187.9280828567805
 20
301.8627223738461
 30
0.0000000000000000
 11
214.6160379990012
 21
301.8627223738460
 31
0.0000000000000000
  0
MTEXT
  5
28F
100
AcDbEntity
  8
MAIN0
  6
BYBLOCK
 62
0
100
AcDbMText
 10
205.2410381182104
 20
321.8627223738460
 30
0.0000000000000000
 40
7.749999761581421
 41
0.0000000000000000
 71
     5
 72
     1
  1
\A1;40
 11
6.123233995736766e-017
 21
1.000000000000000
 31
0.0000000000000000
  7
STANDARD
  0
ENDBLK
  5
290
100
AcDbEntity
  8
MAIN0
  6
CONTINUOUS
 62
3
100
AcDbBlockEnd
  0
BLOCK
  5
292
100
AcDbEntity
  8
MAIN0
  6
CONTINUOUS
 62
3
100
AcDbBlockBegin
  2
*D20
 70
    65
 10
0.0
 20
0.0
 30
0.0
  0
LINE
  5
293
100
AcDbEntity
  8
MAIN0
  6
BYBLOCK
 62
0
100
AcDbLine
 10
187.9280828567805
 20
301.8627223738461
 30
0.0000000000000000
 11
214.6160379990012
 21
301.8627223738460
 31
0.0000000000000000
  0
LINE
  5
294
100
AcDbEntity
  8
MAIN0
  6
BYBLOCK
 62
0
100
AcDbLine
 10
209.6160379990012
 20
296.8627223738460
 30
0.0000000000000000
 11
209.6160379990012
 21
285.8627223738459
 31
0.0000000000000000
  0
INSERT
  5
295
100
AcDbEntity
  8
MAIN0
  6
BYBLOCK
 62
0
100
AcDbBlockReference
  2
_OPEN
 10
209.6160379990012
 20
301.8627223738460
 30
0.0000000000000000
 41
5.000000000000000
 42
5.000000000000000
 43
5.000000000000000
 50
90.00000000000000
  0
INSERT
  5
296
100
AcDbEntity
  8
MAIN0
  6
BYBLOCK
 62
0
100
AcDbBlockReference
  2
_OPEN
 10
209.6160379990012
 20
280.8627223738459
 30
0.0000000000000000
 41
5.000000000000000
 42
5.000000000000000
 43
5.000000000000000
 50
270.0000000000000
  0
LINE
  5
297
100
AcDbEntity
  8
MAIN0
  6
BYBLOCK
 62
0
100
AcDbLine
 10
188.5280828567807
 20
280.8627223738459
 30
0.0000000000000000
 11
214.6160379990012
 21
280.8627223738459
 31
0.0000000000000000
  0
MTEXT
  5
298
100
AcDbEntity
  8
MAIN0
  6
BYBLOCK
 62
0
100
AcDbMText
 10
205.2410381182104
 20
291.3627223738460
 30
0.0000000000000000
 40
7.749999761581421
 41
0.0000000000000000
 71
     5
 72
     1
  1
\A1;21
 11
6.123233995736766e-017
 21
1.000000000000000
 31
0.0000000000000000
  7
STANDARD
  0
ENDBLK
  5
299
100
AcDbEntity
  8
MAIN0
  6
CONTINUOUS
 62
3
100
AcDbBlockEnd
  0
BLOCK
  5
29B
100
AcDbEntity
  8
MAIN0
  6
CONTINUOUS
 62
3
100
AcDbBlockBegin
  2
*D21
 70
    65
 10
0.0
 20
0.0
 30
0.0
  0
LINE
  5
29C
100
AcDbEntity
  8
MAIN0
  6
BYBLOCK
 62
0
100
AcDbLine
 10
180.9280828269784
 20
317.8627223738460
 30
0.0000000000000000
 11
186.9280828269779
 21
317.8627223738460
 31
0.0000000000000000
  0
INSERT
  5
29D
100
AcDbEntity
  8
MAIN0
  6
BYBLOCK
 62
0
100
AcDbBlockReference
  2
_OPEN
 10
180.9280828269784
 20
317.8627223738460
 30
0.0000000000000000
 41
5.000000000000000
 42
5.000000000000000
 43
5.000000000000000
 50
0.0000000000000000
  0
INSERT
  5
29E
100
AcDbEntity
  8
MAIN0
  6
BYBLOCK
 62
0
100
AcDbBlockReference
  2
_OPEN
 10
186.9280828269779
 20
317.8627223738460
 30
0.0000000000000000
 41
5.000000000000000
 42
5.000000000000000
 43
5.000000000000000
 50
180.0000000000000
  0
LINE
  5
29F
100
AcDbEntity
  8
MAIN0
  6
BYBLOCK
 62
0
100
AcDbLine
 10
175.9280828269784
 20
317.8627223738460
 30
0.0000000000000000
 11
169.0460805286105
 21
317.8627223738460
 31
0.0000000000000000
  0
LINE
  5
2A0
100
AcDbEntity
  8
MAIN0
  6
BYBLOCK
 62
0
100
AcDbLine
 10
191.9280828269779
 20
317.8627223738460
 30
0.0000000000000000
 11
194.4280828269779
 21
317.8627223738460
 31
0.0000000000000000
  0
LINE
  5
2A1
100
AcDbEntity
  8
MAIN0
  6
BYBLOCK
 62
0
100
AcDbLine
 10
186.9280828269779
 20
302.8627224036481
 30
0.0000000000000000
 11
186.9280828269779
 21
322.8627223738460
 31
0.0000000000000000
  0
MTEXT
  5
2A2
100
AcDbEntity
  8
MAIN0
  6
BYBLOCK
 62
0
100
AcDbMText
 10
171.5460805286105
 20
322.9877222546367
 30
0.0000000000000000
 40
7.749999761581421
 41
0.0000000000000000
 71
     5
 72
     1
  1
\A1;6
 11
1.000000000000000
 21
0.0000000000000000
 31
0.0000000000000000
  7
STANDARD
  0
ENDBLK
  5
2A3
100
AcDbEntity
  8
MAIN0
  6
CONTINUOUS
 62
3
100
AcDbBlockEnd
  0
BLOCK
  5
2AE
100
AcDbEntity
  8
MAIN0
  6
CONTINUOUS
 62
3
100
AcDbBlockBegin
  2
*D22
 70
    65
 10
0.0
 20
0.0
 30
0.0
  0
LINE
  5
2AF
100
AcDbEntity
  8
MAIN0
  6
BYBLOCK
 62
0
100
AcDbLine
 10
287.0400319630903
 20
579.2965998544723
 30
0.0000000000000000
 11
287.0400319630903
 21
532.4112995642233
 31
0.0000000000000000
  0
LINE
  5
2B0
100
AcDbEntity
  8
MAIN0
  6
BYBLOCK
 62
0
100
AcDbLine
 10
292.0400319630903
 20
537.4112995642233
 30
0.0000000000000000
 11
337.0400319630903
 21
537.4112995642233
 31
0.0000000000000000
  0
INSERT
  5
2B1
100
AcDbEntity
  8
MAIN0
  6
BYBLOCK
 62
0
100
AcDbBlockReference
  2
_OPEN
 10
287.0400319630903
 20
537.4112995642233
 30
0.0000000000000000
 41
5.000000000000000
 42
5.000000000000000
 43
5.000000000000000
 50
180.0000000000000
  0
INSERT
  5
2B2
100
AcDbEntity
  8
MAIN0
  6
BYBLOCK
 62
0
100
AcDbBlockReference
  2
_OPEN
 10
342.0400319630903
 20
537.4112995642233
 30
0.0000000000000000
 41
5.000000000000000
 42
5.000000000000000
 43
5.000000000000000
 50
0.0000000000000000
  0
LINE
  5
2B3
100
AcDbEntity
  8
MAIN0
  6
BYBLOCK
 62
0
100
AcDbLine
 10
342.0400319630903
 20
579.2965998544723
 30
0.0000000000000000
 11
342.0400319630903
 21
532.4112995642233
 31
0.0000000000000000
  0
MTEXT
  5
2B4
100
AcDbEntity
  8
MAIN0
  6
BYBLOCK
 62
0
100
AcDbMText
 10
320.2250094165745
 20
542.5362994450140
 30
0.0000000000000000
 40
7.749999761581421
 41
0.0000000000000000
 71
     5
 72
     1
  1
\A1;55
 11
1.000000000000000
 21
0.0000000000000000
 31
0.0000000000000000
  7
STANDARD
  0
ENDBLK
  5
2B5
100
AcDbEntity
  8
MAIN0
  6
CONTINUOUS
 62
3
100
AcDbBlockEnd
  0
BLOCK
  5
2B7
100
AcDbEntity
  8
MAIN0
  6
CONTINUOUS
 62
3
100
AcDbBlockBegin
  2
*D23
 70
    65
 10
0.0
 20
0.0
 30
0.0
  0
LINE
  5
2B8
100
AcDbEntity
  8
MAIN0
  6
BYBLOCK
 62
0
100
AcDbLine
 10
342.0400319630903
 20
579.2965998544723
 30
0.0000000000000000
 11
342.0400319630903
 21
532.4112995642233
 31
0.0000000000000000
  0
LINE
  5
2B9
100
AcDbEntity
  8
MAIN0
  6
BYBLOCK
 62
0
100
AcDbLine
 10
342.0400319630903
 20
537.4112995642233
 30
0.0000000000000000
 11
352.0400319630903
 21
537.4112995642233
 31
0.0000000000000000
  0
INSERT
  5
2BA
100
AcDbEntity
  8
MAIN0
  6
BYBLOCK
 62
0
100
AcDbBlockReference
  2
_OPEN
 10
342.0400319630903
 20
537.4112995642233
 30
0.0000000000000000
 41
5.000000000000000
 42
5.000000000000000
 43
5.000000000000000
 50
0.0000000000000000
  0
INSERT
  5
2BB
100
AcDbEntity
  8
MAIN0
  6
BYBLOCK
 62
0
100
AcDbBlockReference
  2
_OPEN
 10
352.0400319630903
 20
537.4112995642233
 30
0.0000000000000000
 41
5.000000000000000
 42
5.000000000000000
 43
5.000000000000000
 50
180.0000000000000
  0
LINE
  5
2BC
100
AcDbEntity
  8
MAIN0
  6
BYBLOCK
 62
0
100
AcDbLine
 10
337.0400319630903
 20
537.4112995642233
 30
0.0000000000000000
 11
334.5400319630903
 21
537.4112995642233
 31
0.0000000000000000
  0
LINE
  5
2BD
100
AcDbEntity
  8
MAIN0
  6
BYBLOCK
 62
0
100
AcDbLine
 10
357.0400319630903
 20
537.4112995642233
 30
0.0000000000000000
 11
367.4277968092675
 21
537.4112995642233
 31
0.0000000000000000
  0
LINE
  5
2BE
100
AcDbEntity
  8
MAIN0
  6
BYBLOCK
 62
0
100
AcDbLine
 10
352.0400319630903
 20
550.7784516940658
 30
0.0000000000000000
 11
352.0400319630903
 21
532.4112995642233
 31
0.0000000000000000
  0
MTEXT
  5
2BF
100
AcDbEntity
  8
MAIN0
  6
BYBLOCK
 62
0
100
AcDbMText
 10
362.3027969284768
 20
542.5362994450140
 30
0.0000000000000000
 40
7.749999761581421
 41
0.0000000000000000
 71
     5
 72
     1
  1
\A1;10
 11
1.000000000000000
 21
0.0000000000000000
 31
0.0000000000000000
  7
STANDARD
  0
ENDBLK
  5
2C0
100
AcDbEntity
  8
MAIN0
  6
CONTINUOUS
 62
3
100
AcDbBlockEnd
  0
BLOCK
  5
2C2
100
AcDbEntity
  8
MAIN0
  6
CONTINUOUS
 62
3
100
AcDbBlockBegin
  2
*D24
 70
    65
 10
0.0
 20
0.0
 30
0.0
  0
LINE
  5
2C3
100
AcDbEntity
  8
MAIN0
  6
BYBLOCK
 62
0
100
AcDbLine
 10
422.0400319623462
 20
550.8784516935488
 30
0.0000000000000000
 11
422.0400319623462
 21
532.4112995642233
 31
0.0000000000000000
  0
LINE
  5
2C4
100
AcDbEntity
  8
MAIN0
  6
BYBLOCK
 62
0
100
AcDbLine
 10
422.0400319623462
 20
537.4112995642233
 30
0.0000000000000000
 11
432.0400319623051
 21
537.4112995642233
 31
0.0000000000000000
  0
INSERT
  5
2C5
100
AcDbEntity
  8
MAIN0
  6
BYBLOCK
 62
0
100
AcDbBlockReference
  2
_OPEN
 10
422.0400319623462
 20
537.4112995642233
 30
0.0000000000000000
 41
5.000000000000000
 42
5.000000000000000
 43
5.000000000000000
 50
0.0000000000000000
  0
INSERT
  5
2C6
100
AcDbEntity
  8
MAIN0
  6
BYBLOCK
 62
0
100
AcDbBlockReference
  2
_OPEN
 10
432.0400319623051
 20
537.4112995642233
 30
0.0000000000000000
 41
5.000000000000000
 42
5.000000000000000
 43
5.000000000000000
 50
180.0000000000000
  0
LINE
  5
2C7
100
AcDbEntity
  8
MAIN0
  6
BYBLOCK
 62
0
100
AcDbLine
 10
417.0400319623461
 20
537.4112995642233
 30
0.0000000000000000
 11
406.5625333100552
 21
537.4112995642233
 31
0.0000000000000000
  0
LINE
  5
2C8
100
AcDbEntity
  8
MAIN0
  6
BYBLOCK
 62
0
100
AcDbLine
 10
437.0400319623051
 20
537.4112995642233
 30
0.0000000000000000
 11
439.5400319623051
 21
537.4112995642233
 31
0.0000000000000000
  0
LINE
  5
2C9
100
AcDbEntity
  8
MAIN0
  6
BYBLOCK
 62
0
100
AcDbLine
 10
432.0400319623051
 20
563.1519036125617
 30
0.0000000000000000
 11
432.0400319623051
 21
532.4112995642233
 31
0.0000000000000000
  0
MTEXT
  5
2CA
100
AcDbEntity
  8
MAIN0
  6
BYBLOCK
 62
0
100
AcDbMText
 10
411.6875331908459
 20
542.5362994450140
 30
0.0000000000000000
 40
7.749999761581421
 41
0.0000000000000000
 71
     5
 72
     1
  1
\A1;10
 11
1.000000000000000
 21
0.0000000000000000
 31
0.0000000000000000
  7
STANDARD
  0
ENDBLK
  5
2CB
100
AcDbEntity
  8
MAIN0
  6
CONTINUOUS
 62
3
100
AcDbBlockEnd
  0
BLOCK
  5
2CD
100
AcDbEntity
  8
MAIN0
  6
CONTINUOUS
 62
3
100
AcDbBlockBegin
  2
*D25
 70
    65
 10
0.0
 20
0.0
 30
0.0
  0
LINE
  5
2CE
100
AcDbEntity
  8
MAIN0
  6
BYBLOCK
 62
0
100
AcDbLine
 10
432.0400319623051
 20
563.1519036125617
 30
0.0000000000000000
 11
432.0400319623051
 21
532.4112995642233
 31
0.0000000000000000
  0
LINE
  5
2CF
100
AcDbEntity
  8
MAIN0
  6
BYBLOCK
 62
0
100
AcDbLine
 10
437.0400319623051
 20
537.4112995642233
 30
0.0000000000000000
 11
477.0400319623051
 21
537.4112995642233
 31
0.0000000000000000
  0
INSERT
  5
2D0
100
AcDbEntity
  8
MAIN0
  6
BYBLOCK
 62
0
100
AcDbBlockReference
  2
_OPEN
 10
432.0400319623051
 20
537.4112995642233
 30
0.0000000000000000
 41
5.000000000000000
 42
5.000000000000000
 43
5.000000000000000
 50
180.0000000000000
  0
INSERT
  5
2D1
100
AcDbEntity
  8
MAIN0
  6
BYBLOCK
 62
0
100
AcDbBlockReference
  2
_OPEN
 10
482.0400319623051
 20
537.4112995642233
 30
0.0000000000000000
 41
5.000000000000000
 42
5.000000000000000
 43
5.000000000000000
 50
0.0000000000000000
  0
LINE
  5
2D2
100
AcDbEntity
  8
MAIN0
  6
BYBLOCK
 62
0
100
AcDbLine
 10
482.0400319623051
 20
563.1519036124685
 30
0.0000000000000000
 11
482.0400319623051
 21
532.4112995642233
 31
0.0000000000000000
  0
MTEXT
  5
2D3
100
AcDbEntity
  8
MAIN0
  6
BYBLOCK
 62
0
100
AcDbMText
 10
452.7933668771231
 20
542.5362994450140
 30
0.0000000000000000
 40
7.749999761581421
 41
0.0000000000000000
 71
     5
 72
     1
  1
\A1;50
 11
1.000000000000000
 21
0.0000000000000000
 31
0.0000000000000000
  7
STANDARD
  0
ENDBLK
  5
2D4
100
AcDbEntity
  8
MAIN0
  6
CONTINUOUS
 62
3
100
AcDbBlockEnd
  0
BLOCK
  5
2D8
100
AcDbEntity
  8
MAIN0
  6
CONTINUOUS
 62
3
100
AcDbBlockBegin
  2
*D26
 70
    65
 10
0.0
 20
0.0
 30
0.0
  0
LINE
  5
2D9
100
AcDbEntity
  8
MAIN0
  6
BYBLOCK
 62
0
100
AcDbLine
 10
757.0400319626871
 20
387.8627224025263
 30
0.0000000000000000
 11
757.0400319626871
 21
592.4694275053130
 31
0.0000000000000000
  0
LINE
  5
2DA
100
AcDbEntity
  8
MAIN0
  6
BYBLOCK
 62
0
100
AcDbLine
 10
757.0400319626871
 20
587.4694275053130
 30
0.0000000000000000
 11
772.0400319626872
 21
587.4694275053130
 31
0.0000000000000000
  0
INSERT
  5
2DB
100
AcDbEntity
  8
MAIN0
  6
BYBLOCK
 62
0
100
AcDbBlockReference
  2
_OPEN
 10
757.0400319626871
 20
587.4694275053130
 30
0.0000000000000000
 41
5.000000000000000
 42
5.000000000000000
 43
5.000000000000000
 50
0.0000000000000000
  0
INSERT
  5
2DC
100
AcDbEntity
  8
MAIN0
  6
BYBLOCK
 62
0
100
AcDbBlockReference
  2
_OPEN
 10
772.0400319626872
 20
587.4694275053130
 30
0.0000000000000000
 41
5.000000000000000
 42
5.000000000000000
 43
5.000000000000000
 50
180.0000000000000
  0
LINE
  5
2DD
100
AcDbEntity
  8
MAIN0
  6
BYBLOCK
 62
0
100
AcDbLine
 10
752.0400319626871
 20
587.4694275053130
 30
0.0000000000000000
 11
749.5400319626871
 21
587.4694275053130
 31
0.0000000000000000
  0
LINE
  5
2DE
100
AcDbEntity
  8
MAIN0
  6
BYBLOCK
 62
0
100
AcDbLine
 10
777.0400319626872
 20
587.4694275053130
 30
0.0000000000000000
 11
779.5400319626872
 21
587.4694275053130
 31
0.0000000000000000
  0
LINE
  5
2DF
100
AcDbEntity
  8
MAIN0
  6
BYBLOCK
 62
0
100
AcDbLine
 10
772.0400319626882
 20
397.8627224025265
 30
0.0000000000000000
 11
772.0400319626872
 21
592.4694275053130
 31
0.0000000000000000
  0
MTEXT
  5
2E0
100
AcDbEntity
  8
MAIN0
  6
BYBLOCK
 62
0
100
AcDbMText
 10
764.5400319626872
 20
591.8444273861037
 30
0.0000000000000000
 40
7.749999761581421
 41
0.0000000000000000
 71
     5
 72
     1
  1
\A1;15
 11
1.000000000000000
 21
0.0000000000000000
 31
0.0000000000000000
  7
STANDARD
  0
ENDBLK
  5
2E1
100
AcDbEntity
  8
MAIN0
  6
CONTINUOUS
 62
3
100
AcDbBlockEnd
  0
BLOCK
  5
2E3
100
AcDbEntity
  8
MAIN0
  6
CONTINUOUS
 62
3
100
AcDbBlockBegin
  2
*D27
 70
    65
 10
0.0
 20
0.0
 30
0.0
  0
LINE
  5
2E4
100
AcDbEntity
  8
MAIN0
  6
BYBLOCK
 62
0
100
AcDbLine
 10
772.0400319626882
 20
397.8627224025265
 30
0.0000000000000000
 11
772.0400319626872
 21
592.4694275053130
 31
0.0000000000000000
  0
LINE
  5
2E5
100
AcDbEntity
  8
MAIN0
  6
BYBLOCK
 62
0
100
AcDbLine
 10
777.0400319626872
 20
587.4694275053130
 30
0.0000000000000000
 11
797.0400319626693
 21
587.4694275053130
 31
0.0000000000000000
  0
INSERT
  5
2E6
100
AcDbEntity
  8
MAIN0
  6
BYBLOCK
 62
0
100
AcDbBlockReference
  2
_OPEN
 10
772.0400319626872
 20
587.4694275053130
 30
0.0000000000000000
 41
5.000000000000000
 42
5.000000000000000
 43
5.000000000000000
 50
180.0000000000000
  0
INSERT
  5
2E7
100
AcDbEntity
  8
MAIN0
  6
BYBLOCK
 62
0
100
AcDbBlockReference
  2
_OPEN
 10
802.0400319626693
 20
587.4694275053130
 30
0.0000000000000000
 41
5.000000000000000
 42
5.000000000000000
 43
5.000000000000000
 50
0.0000000000000000
  0
LINE
  5
2E8
100
AcDbEntity
  8
MAIN0
  6
BYBLOCK
 62
0
100
AcDbLine
 10
802.0400319626693
 20
558.3627224025263
 30
0.0000000000000000
 11
802.0400319626693
 21
592.4694275053130
 31
0.0000000000000000
  0
MTEXT
  5
2E9
100
AcDbEntity
  8
MAIN0
  6
BYBLOCK
 62
0
100
AcDbMText
 10
787.0400319626783
 20
591.8444273861037
 30
0.0000000000000000
 40
7.749999761581421
 41
0.0000000000000000
 71
     5
 72
     1
  1
\A1;30
 11
1.000000000000000
 21
0.0000000000000000
 31
0.0000000000000000
  7
STANDARD
  0
ENDBLK
  5
2EA
100
AcDbEntity
  8
MAIN0
  6
CONTINUOUS
 62
3
100
AcDbBlockEnd
  0
BLOCK
  5
2EC
100
AcDbEntity
  8
MAIN0
  6
CONTINUOUS
 62
3
100
AcDbBlockBegin
  2
*D28
 70
    65
 10
0.0
 20
0.0
 30
0.0
  0
LINE
  5
2ED
100
AcDbEntity
  8
MAIN0
  6
BYBLOCK
 62
0
100
AcDbLine
 10
802.0400319626693
 20
558.3627224025263
 30
0.0000000000000000
 11
802.0400319626693
 21
592.4694275053130
 31
0.0000000000000000
  0
LINE
  5
2EE
100
AcDbEntity
  8
MAIN0
  6
BYBLOCK
 62
0
100
AcDbLine
 10
807.0400319626693
 20
587.4694275053130
 30
0.0000000000000000
 11
869.0400319626635
 21
587.4694275053130
 31
0.0000000000000000
  0
INSERT
  5
2EF
100
AcDbEntity
  8
MAIN0
  6
BYBLOCK
 62
0
100
AcDbBlockReference
  2
_OPEN
 10
802.0400319626693
 20
587.4694275053130
 30
0.0000000000000000
 41
5.000000000000000
 42
5.000000000000000
 43
5.000000000000000
 50
180.0000000000000
  0
INSERT
  5
2F0
100
AcDbEntity
  8
MAIN0
  6
BYBLOCK
 62
0
100
AcDbBlockReference
  2
_OPEN
 10
874.0400319626635
 20
587.4694275053130
 30
0.0000000000000000
 41
5.000000000000000
 42
5.000000000000000
 43
5.000000000000000
 50
0.0000000000000000
  0
LINE
  5
2F1
100
AcDbEntity
  8
MAIN0
  6
BYBLOCK
 62
0
100
AcDbLine
 10
874.0400319626635
 20
567.8627224025266
 30
0.0000000000000000
 11
874.0400319626635
 21
592.4694275053130
 31
0.0000000000000000
  0
MTEXT
  5
2F2
100
AcDbEntity
  8
MAIN0
  6
BYBLOCK
 62
0
100
AcDbMText
 10
838.0400319626665
 20
591.8444273861037
 30
0.0000000000000000
 40
7.749999761581421
 41
0.0000000000000000
 71
     5
 72
     1
  1
\A1;72
 11
1.000000000000000
 21
0.0000000000000000
 31
0.0000000000000000
  7
STANDARD
  0
ENDBLK
  5
2F3
100
AcDbEntity
  8
MAIN0
  6
CONTINUOUS
 62
3
100
AcDbBlockEnd
  0
BLOCK
  5
2F5
100
AcDbEntity
  8
MAIN0
  6
CONTINUOUS
 62
3
100
AcDbBlockBegin
  2
*D29
 70
    65
 10
0.0
 20
0.0
 30
0.0
  0
LINE
  5
2F6
100
AcDbEntity
  8
MAIN0
  6
BYBLOCK
 62
0
100
AcDbLine
 10
757.0400319626871
 20
387.8627224025263
 30
0.0000000000000000
 11
757.0400319626871
 21
611.3560277183281
 31
0.0000000000000000
  0
LINE
  5
2F7
100
AcDbEntity
  8
MAIN0
  6
BYBLOCK
 62
0
100
AcDbLine
 10
762.0400319626871
 20
606.3560277183281
 30
0.0000000000000000
 11
869.0400319626635
 21
606.3560277183281
 31
0.0000000000000000
  0
INSERT
  5
2F8
100
AcDbEntity
  8
MAIN0
  6
BYBLOCK
 62
0
100
AcDbBlockReference
  2
_OPEN
 10
757.0400319626871
 20
606.3560277183281
 30
0.0000000000000000
 41
5.000000000000000
 42
5.000000000000000
 43
5.000000000000000
 50
180.0000000000000
  0
INSERT
  5
2F9
100
AcDbEntity
  8
MAIN0
  6
BYBLOCK
 62
0
100
AcDbBlockReference
  2
_OPEN
 10
874.0400319626635
 20
606.3560277183281
 30
0.0000000000000000
 41
5.000000000000000
 42
5.000000000000000
 43
5.000000000000000
 50
0.0000000000000000
  0
LINE
  5
2FA
100
AcDbEntity
  8
MAIN0
  6
BYBLOCK
 62
0
100
AcDbLine
 10
874.0400319626635
 20
567.8627224025266
 30
0.0000000000000000
 11
874.0400319626635
 21
611.3560277183281
 31
0.0000000000000000
  0
MTEXT
  5
2FB
100
AcDbEntity
  8
MAIN0
  6
BYBLOCK
 62
0
100
AcDbMText
 10
815.5400319626754
 20
610.7310275991188
 30
0.0000000000000000
 40
7.749999761581421
 41
0.0000000000000000
 71
     5
 72
     1
  1
\A1;117
 11
1.000000000000000
 21
0.0000000000000000
 31
0.0000000000000000
  7
STANDARD
  0
ENDBLK
  5
2FC
100
AcDbEntity
  8
MAIN0
  6
CONTINUOUS
 62
3
100
AcDbBlockEnd
  0
BLOCK
  5
2FE
100
AcDbEntity
  8
MAIN0
  6
CONTINUOUS
 62
3
100
AcDbBlockBegin
  2
*D30
 70
    65
 10
0.0
 20
0.0
 30
0.0
  0
LINE
  5
2FF
100
AcDbEntity
  8
MAIN0
  6
BYBLOCK
 62
0
100
AcDbLine
 10
817.3870444250227
 20
308.8627223449736
 30
0.0000000000000000
 11
817.3870444250227
 21
209.8627223747760
 31
0.0000000000000000
  0
LINE
  5
300
100
AcDbEntity
  8
MAIN0
  6
BYBLOCK
 62
0
100
AcDbLine
 10
822.3870444250227
 20
214.8627223747760
 30
0.0000000000000000
 11
883.3870444250231
 21
214.8627223747760
 31
0.0000000000000000
  0
INSERT
  5
301
100
AcDbEntity
  8
MAIN0
  6
BYBLOCK
 62
0
100
AcDbBlockReference
  2
_OPEN
 10
817.3870444250227
 20
214.8627223747760
 30
0.0000000000000000
 41
5.000000000000000
 42
5.000000000000000
 43
5.000000000000000
 50
180.0000000000000
  0
INSERT
  5
302
100
AcDbEntity
  8
MAIN0
  6
BYBLOCK
 62
0
100
AcDbBlockReference
  2
_OPEN
 10
888.3870444250231
 20
214.8627223747760
 30
0.0000000000000000
 41
5.000000000000000
 42
5.000000000000000
 43
5.000000000000000
 50
0.0000000000000000
  0
LINE
  5
303
100
AcDbEntity
  8
MAIN0
  6
BYBLOCK
 62
0
100
AcDbLine
 10
888.3870444250231
 20
279.2627223449741
 30
0.0000000000000000
 11
888.3870444250231
 21
209.8627223747760
 31
0.0000000000000000
  0
MTEXT
  5
304
100
AcDbEntity
  8
MAIN0
  6
BYBLOCK
 62
0
100
AcDbMText
 10
852.8870444250229
 20
219.2377222555667
 30
0.0000000000000000
 40
7.749999761581421
 41
0.0000000000000000
 71
     5
 72
     1
  1
\A1;71
 11
1.000000000000000
 21
0.0000000000000000
 31
0.0000000000000000
  7
STANDARD
  0
ENDBLK
  5
305
100
AcDbEntity
  8
MAIN0
  6
CONTINUOUS
 62
3
100
AcDbBlockEnd
  0
BLOCK
  5
307
100
AcDbEntity
  8
MAIN0
  6
CONTINUOUS
 62
3
100
AcDbBlockBegin
  2
*D31
 70
    65
 10
0.0
 20
0.0
 30
0.0
  0
LINE
  5
308
100
AcDbEntity
  8
MAIN0
  6
BYBLOCK
 62
0
100
AcDbLine
 10
888.3870444250231
 20
279.2627223449741
 30
0.0000000000000000
 11
888.3870444250231
 21
209.8627223747760
 31
0.0000000000000000
  0
LINE
  5
309
100
AcDbEntity
  8
MAIN0
  6
BYBLOCK
 62
0
100
AcDbLine
 10
893.3870444250231
 20
214.8627223747760
 30
0.0000000000000000
 11
1009.387044425023
 21
214.8627223747760
 31
0.0000000000000000
  0
INSERT
  5
30A
100
AcDbEntity
  8
MAIN0
  6
BYBLOCK
 62
0
100
AcDbBlockReference
  2
_OPEN
 10
888.3870444250231
 20
214.8627223747760
 30
0.0000000000000000
 41
5.000000000000000
 42
5.000000000000000
 43
5.000000000000000
 50
180.0000000000000
  0
INSERT
  5
30B
100
AcDbEntity
  8
MAIN0
  6
BYBLOCK
 62
0
100
AcDbBlockReference
  2
_OPEN
 10
1014.387044425023
 20
214.8627223747760
 30
0.0000000000000000
 41
5.000000000000000
 42
5.000000000000000
 43
5.000000000000000
 50
0.0000000000000000
  0
LINE
  5
30C
100
AcDbEntity
  8
MAIN0
  6
BYBLOCK
 62
0
100
AcDbLine
 10
1014.387044425023
 20
279.2627223449734
 30
0.0000000000000000
 11
1014.387044425023
 21
209.8627223747760
 31
0.0000000000000000
  0
MTEXT
  5
30D
100
AcDbEntity
  8
MAIN0
  6
BYBLOCK
 62
0
100
AcDbMText
 10
951.3870444250229
 20
219.2377222555667
 30
0.0000000000000000
 40
7.749999761581421
 41
0.0000000000000000
 71
     5
 72
     1
  1
\A1;126
 11
1.000000000000000
 21
0.0000000000000000
 31
0.0000000000000000
  7
STANDARD
  0
ENDBLK
  5
30E
100
AcDbEntity
  8
MAIN0
  6
CONTINUOUS
 62
3
100
AcDbBlockEnd
  0
BLOCK
  5
310
100
AcDbEntity
  8
MAIN0
  6
CONTINUOUS
 62
3
100
AcDbBlockBegin
  2
D32
 70
    64
 10
0.0
 20
0.0
 30
0.0
  0
LINE
  5
311
100
AcDbEntity
  8
MAIN0
  6
BYBLOCK
 62
0
100
AcDbLine
 10
17.19603894887817
 20
-73.47140605454146
 30
0.0000000000000000
 11
-134.0000000000004
 21
-73.47140605454115
 31
0.0000000000000000
  0
LINE
  5
312
100
AcDbEntity
  8
MAIN0
  6
BYBLOCK
 62
0
100
AcDbLine
 10
-129.0000000000004
 20
-74.97140611414581
 30
0.0000000000000000
 11
-134.0000000000004
 21
-73.47140605454115
 31
0.0000000000000000
  0
LINE
  5
313
100
AcDbEntity
  8
MAIN0
  6
BYBLOCK
 62
0
100
AcDbLine
 10
-134.0000000000004
 20
-73.47140605454115
 30
0.0000000000000000
 11
-129.0000000000004
 21
-71.97140599493652
 31
0.0000000000000000
  0
LINE
  5
314
100
AcDbEntity
  8
MAIN0
  6
BYBLOCK
 62
0
100
AcDbLine
 10
-134.0000000000001
 20
38.52859391565656
 30
0.0000000000000000
 11
-134.0000000000004
 21
-78.47140605454115
 31
0.0000000000000000
  0
MTEXT
  5
315
100
AcDbEntity
  8
MAIN0
  6
BYBLOCK
 62
0
100
AcDbMText
 10
9.446038945152878
 20
-69.09640617375072
 30
0.0000000000000000
 40
7.749999761581421
 41
0.0000000000000000
 71
     5
 72
     1
  1
\A1;（268）
 11
1.000000000000000
 21
0.0000000000000000
 31
0.0000000000000000
  7
KNJYOKO
  0
ENDBLK
  5
316
100
AcDbEntity
  8
MAIN0
  6
CONTINUOUS
 62
3
100
AcDbBlockEnd
  0
BLOCK
  5
318
100
AcDbEntity
  8
MAIN0
  6
CONTINUOUS
 62
3
100
AcDbBlockBegin
  2
*D33
 70
    65
 10
0.0
 20
0.0
 30
0.0
  0
LINE
  5
319
100
AcDbEntity
  8
MAIN0
  6
BYBLOCK
 62
0
100
AcDbLine
 10
352.0400319623980
 20
364.2627223443081
 30
0.0000000000000000
 11
352.0400319623980
 21
234.8627223742674
 31
0.0000000000000000
  0
LINE
  5
31A
100
AcDbEntity
  8
MAIN0
  6
BYBLOCK
 62
0
100
AcDbLine
 10
357.0400319623980
 20
239.8627223742674
 30
0.0000000000000000
 11
487.0400319623672
 21
239.8627223742674
 31
0.0000000000000000
  0
INSERT
  5
31B
100
AcDbEntity
  8
MAIN0
  6
BYBLOCK
 62
0
100
AcDbBlockReference
  2
_OPEN
 10
352.0400319623980
 20
239.8627223742674
 30
0.0000000000000000
 41
5.000000000000000
 42
5.000000000000000
 43
5.000000000000000
 50
180.0000000000000
  0
INSERT
  5
31C
100
AcDbEntity
  8
MAIN0
  6
BYBLOCK
 62
0
100
AcDbBlockReference
  2
_OPEN
 10
492.0400319623672
 20
239.8627223742674
 30
0.0000000000000000
 41
5.000000000000000
 42
5.000000000000000
 43
5.000000000000000
 50
0.0000000000000000
  0
LINE
  5
31D
100
AcDbEntity
  8
MAIN0
  6
BYBLOCK
 62
0
100
AcDbLine
 10
492.0400319623672
 20
264.8730050842385
 30
0.0000000000000000
 11
492.0400319623672
 21
234.8627223742674
 31
0.0000000000000000
  0
MTEXT
  5
31E
100
AcDbEntity
  8
MAIN0
  6
BYBLOCK
 62
0
100
AcDbMText
 10
422.0400319623825
 20
244.2377222550581
 30
0.0000000000000000
 40
7.749999761581421
 41
0.0000000000000000
 71
     5
 72
     1
  1
\A1;140
 11
1.000000000000000
 21
0.0000000000000000
 31
0.0000000000000000
  7
STANDARD
  0
ENDBLK
  5
31F
100
AcDbEntity
  8
MAIN0
  6
CONTINUOUS
 62
3
100
AcDbBlockEnd
  0
BLOCK
  5
321
100
AcDbEntity
  8
MAIN0
  6
CONTINUOUS
 62
3
100
AcDbBlockBegin
  2
*D34
 70
    65
 10
0.0
 20
0.0
 30
0.0
  0
LINE
  5
322
100
AcDbEntity
  8
MAIN0
  6
BYBLOCK
 62
0
100
AcDbLine
 10
492.0400319623672
 20
264.8730050842385
 30
0.0000000000000000
 11
492.0400319623672
 21
234.8627223742674
 31
0.0000000000000000
  0
LINE
  5
323
100
AcDbEntity
  8
MAIN0
  6
BYBLOCK
 62
0
100
AcDbLine
 10
497.0400319623672
 20
239.8627223742674
 30
0.0000000000000000
 11
632.0400319624831
 21
239.8627223742674
 31
0.0000000000000000
  0
INSERT
  5
324
100
AcDbEntity
  8
MAIN0
  6
BYBLOCK
 62
0
100
AcDbBlockReference
  2
_OPEN
 10
492.0400319623672
 20
239.8627223742674
 30
0.0000000000000000
 41
5.000000000000000
 42
5.000000000000000
 43
5.000000000000000
 50
180.0000000000000
  0
INSERT
  5
325
100
AcDbEntity
  8
MAIN0
  6
BYBLOCK
 62
0
100
AcDbBlockReference
  2
_OPEN
 10
637.0400319624831
 20
239.8627223742674
 30
0.0000000000000000
 41
5.000000000000000
 42
5.000000000000000
 43
5.000000000000000
 50
0.0000000000000000
  0
LINE
  5
326
100
AcDbEntity
  8
MAIN0
  6
BYBLOCK
 62
0
100
AcDbLine
 10
637.0400319624831
 20
279.2627223447715
 30
0.0000000000000000
 11
637.0400319624831
 21
234.8627223742674
 31
0.0000000000000000
  0
MTEXT
  5
327
100
AcDbEntity
  8
MAIN0
  6
BYBLOCK
 62
0
100
AcDbMText
 10
564.5400319624251
 20
244.2377222550581
 30
0.0000000000000000
 40
7.749999761581421
 41
0.0000000000000000
 71
     5
 72
     1
  1
\A1;145
 11
1.000000000000000
 21
0.0000000000000000
 31
0.0000000000000000
  7
STANDARD
  0
ENDBLK
  5
328
100
AcDbEntity
  8
MAIN0
  6
CONTINUOUS
 62
3
100
AcDbBlockEnd
  0
BLOCK
  5
32A
100
AcDbEntity
  8
MAIN0
  6
CONTINUOUS
 62
3
100
AcDbBlockBegin
  2
*D35
 70
    65
 10
0.0
 20
0.0
 30
0.0
  0
LINE
  5
32B
100
AcDbEntity
  8
MAIN0
  6
BYBLOCK
 62
0
100
AcDbLine
 10
538.0400319626904
 20
285.8627223743885
 30
0.0000000000000000
 11
538.0400319626904
 21
316.8627223746423
 31
0.0000000000000000
  0
INSERT
  5
32C
100
AcDbEntity
  8
MAIN0
  6
BYBLOCK
 62
0
100
AcDbBlockReference
  2
_OPEN
 10
538.0400319626904
 20
280.8627223743885
 30
0.0000000000000000
 41
5.000000000000000
 42
5.000000000000000
 43
5.000000000000000
 50
270.0000000000000
  0
INSERT
  5
32D
100
AcDbEntity
  8
MAIN0
  6
BYBLOCK
 62
0
100
AcDbBlockReference
  2
_OPEN
 10
538.0400319626904
 20
321.8627223746423
 30
0.0000000000000000
 41
5.000000000000000
 42
5.000000000000000
 43
5.000000000000000
 50
90.00000000000000
  0
LINE
  5
32E
100
AcDbEntity
  8
MAIN0
  6
BYBLOCK
 62
0
100
AcDbLine
 10
553.0400319328870
 20
321.8627223746423
 30
0.0000000000000000
 11
533.0400319626904
 21
321.8627223746423
 31
0.0000000000000000
  0
MTEXT
  5
32F
100
AcDbEntity
  8
MAIN0
  6
BYBLOCK
 62
0
100
AcDbMText
 10
533.6650320818997
 20
301.3627223745154
 30
0.0000000000000000
 40
7.749999761581421
 41
0.0000000000000000
 71
     5
 72
     1
  1
\A1;41
 11
6.123233995736766e-017
 21
1.000000000000000
 31
0.0000000000000000
  7
STANDARD
  0
ENDBLK
  5
330
100
AcDbEntity
  8
MAIN0
  6
CONTINUOUS
 62
3
100
AcDbBlockEnd
  0
BLOCK
  5
332
100
AcDbEntity
  8
MAIN0
  6
CONTINUOUS
 62
3
100
AcDbBlockBegin
  2
*D36
 70
    65
 10
0.0
 20
0.0
 30
0.0
  0
LINE
  5
333
100
AcDbEntity
  8
MAIN0
  6
BYBLOCK
 62
0
100
AcDbLine
 10
553.0400319328870
 20
321.8627223746423
 30
0.0000000000000000
 11
533.0400319626904
 21
321.8627223746423
 31
0.0000000000000000
  0
LINE
  5
334
100
AcDbEntity
  8
MAIN0
  6
BYBLOCK
 62
0
100
AcDbLine
 10
538.0400319626904
 20
326.8627223746423
 30
0.0000000000000000
 11
538.0400319626904
 21
360.8627223743821
 31
0.0000000000000000
  0
INSERT
  5
335
100
AcDbEntity
  8
MAIN0
  6
BYBLOCK
 62
0
100
AcDbBlockReference
  2
_OPEN
 10
538.0400319626904
 20
321.8627223746423
 30
0.0000000000000000
 41
5.000000000000000
 42
5.000000000000000
 43
5.000000000000000
 50
270.0000000000000
  0
INSERT
  5
336
100
AcDbEntity
  8
MAIN0
  6
BYBLOCK
 62
0
100
AcDbBlockReference
  2
_OPEN
 10
538.0400319626904
 20
365.8627223743821
 30
0.0000000000000000
 41
5.000000000000000
 42
5.000000000000000
 43
5.000000000000000
 50
90.00000000000000
  0
LINE
  5
337
100
AcDbEntity
  8
MAIN0
  6
BYBLOCK
 62
0
100
AcDbLine
 10
500.0400319922004
 20
365.8627223743821
 30
0.0000000000000000
 11
543.0400319626904
 21
365.8627223743821
 31
0.0000000000000000
  0
MTEXT
  5
338
100
AcDbEntity
  8
MAIN0
  6
BYBLOCK
 62
0
100
AcDbMText
 10
533.6650320818997
 20
343.8627223745122
 30
0.0000000000000000
 40
7.749999761581421
 41
0.0000000000000000
 71
     5
 72
     1
  1
\A1;44
 11
6.123233995736766e-017
 21
1.000000000000000
 31
0.0000000000000000
  7
STANDARD
  0
ENDBLK
  5
339
100
AcDbEntity
  8
MAIN0
  6
CONTINUOUS
 62
3
100
AcDbBlockEnd
  0
BLOCK
  5
33B
100
AcDbEntity
  8
MAIN0
  6
CONTINUOUS
 62
3
100
AcDbBlockBegin
  2
*D37
 70
    65
 10
0.0
 20
0.0
 30
0.0
  0
LINE
  5
33C
100
AcDbEntity
  8
MAIN0
  6
BYBLOCK
 62
0
100
AcDbLine
 10
310.0400319631448
 20
601.7784516940657
 30
0.0000000000000000
 11
310.0400319631448
 21
509.7937868396077
 31
0.0000000000000000
  0
LINE
  5
33D
100
AcDbEntity
  8
MAIN0
  6
BYBLOCK
 62
0
100
AcDbLine
 10
315.0400319631448
 20
514.7937868396077
 30
0.0000000000000000
 11
347.0400319630904
 21
514.7937868396077
 31
0.0000000000000000
  0
INSERT
  5
33E
100
AcDbEntity
  8
MAIN0
  6
BYBLOCK
 62
0
100
AcDbBlockReference
  2
_OPEN
 10
310.0400319631448
 20
514.7937868396077
 30
0.0000000000000000
 41
5.000000000000000
 42
5.000000000000000
 43
5.000000000000000
 50
180.0000000000000
  0
INSERT
  5
33F
100
AcDbEntity
  8
MAIN0
  6
BYBLOCK
 62
0
100
AcDbBlockReference
  2
_OPEN
 10
352.0400319630904
 20
514.7937868396077
 30
0.0000000000000000
 41
5.000000000000000
 42
5.000000000000000
 43
5.000000000000000
 50
0.0000000000000000
  0
LINE
  5
340
100
AcDbEntity
  8
MAIN0
  6
BYBLOCK
 62
0
100
AcDbLine
 10
352.0400319630903
 20
550.7784516940657
 30
0.0000000000000000
 11
352.0400319630904
 21
509.7937868396077
 31
0.0000000000000000
  0
MTEXT
  5
341
100
AcDbEntity
  8
MAIN0
  6
BYBLOCK
 62
0
100
AcDbMText
 10
331.0400319631176
 20
519.1687867203984
 30
0.0000000000000000
 40
7.749999761581421
 41
0.0000000000000000
 71
     5
 72
     1
  1
\A1;42
 11
1.000000000000000
 21
0.0000000000000000
 31
0.0000000000000000
  7
STANDARD
  0
ENDBLK
  5
342
100
AcDbEntity
  8
MAIN0
  6
CONTINUOUS
 62
3
100
AcDbBlockEnd
  0
BLOCK
  5
34A
100
AcDbEntity
  8
MAIN0
  6
CONTINUOUS
 62
3
100
AcDbBlockBegin
  2
*D38
 70
    65
 10
0.0
 20
0.0
 30
0.0
  0
LINE
  5
34B
100
AcDbEntity
  8
MAIN0
  6
BYBLOCK
 62
0
100
AcDbLine
 10
747.6697969151894
 20
312.8627224045798
 30
0.0000000000000000
 11
747.6697969151894
 21
349.6357166738181
 31
0.0000000000000000
  0
LINE
  5
34C
100
AcDbEntity
  8
MAIN0
  6
BYBLOCK
 62
0
100
AcDbLine
 10
752.6697969151894
 20
344.6357166738181
 30
0.0000000000000000
 11
787.6697969151890
 21
344.6357166738181
 31
0.0000000000000000
  0
INSERT
  5
34D
100
AcDbEntity
  8
MAIN0
  6
BYBLOCK
 62
0
100
AcDbBlockReference
  2
_OPEN
 10
747.6697969151894
 20
344.6357166738181
 30
0.0000000000000000
 41
5.000000000000000
 42
5.000000000000000
 43
5.000000000000000
 50
180.0000000000000
  0
INSERT
  5
34E
100
AcDbEntity
  8
MAIN0
  6
BYBLOCK
 62
0
100
AcDbBlockReference
  2
_OPEN
 10
792.6697969151890
 20
344.6357166738181
 30
0.0000000000000000
 41
5.000000000000000
 42
5.000000000000000
 43
5.000000000000000
 50
0.0000000000000000
  0
LINE
  5
34F
100
AcDbEntity
  8
MAIN0
  6
BYBLOCK
 62
0
100
AcDbLine
 10
792.6697969151890
 20
312.8627224045659
 30
0.0000000000000000
 11
792.6697969151890
 21
349.6357166738181
 31
0.0000000000000000
  0
MTEXT
  5
350
100
AcDbEntity
  8
MAIN0
  6
BYBLOCK
 62
0
100
AcDbMText
 10
770.1697969151892
 20
349.0107165546089
 30
0.0000000000000000
 40
7.749999761581421
 41
0.0000000000000000
 71
     5
 72
     1
  1
\A1;45
 11
1.000000000000000
 21
0.0000000000000000
 31
0.0000000000000000
  7
STANDARD
  0
ENDBLK
  5
351
100
AcDbEntity
  8
MAIN0
  6
CONTINUOUS
 62
3
100
AcDbBlockEnd
  0
BLOCK
  5
354
100
AcDbEntity
  8
MAIN0
  6
CONTINUOUS
 62
1
100
AcDbBlockBegin
  2
*D39
 70
    65
 10
0.0
 20
0.0
 30
0.0
  0
LINE
  5
355
100
AcDbEntity
  8
MAIN0
  6
BYBLOCK
 62
0
100
AcDbLine
 10
870.3870444250227
 20
232.8627223747760
 30
0.0000000000000000
 11
883.3870444250231
 21
232.8627223747760
 31
0.0000000000000000
  0
INSERT
  5
356
100
AcDbEntity
  8
MAIN0
  6
BYBLOCK
 62
0
100
AcDbBlockReference
  2
_OPEN
 10
865.3870444250227
 20
232.8627223747760
 30
0.0000000000000000
 41
5.000000000000000
 42
5.000000000000000
 43
5.000000000000000
 50
180.0000000000000
  0
INSERT
  5
357
100
AcDbEntity
  8
MAIN0
  6
BYBLOCK
 62
0
100
AcDbBlockReference
  2
_OPEN
 10
888.3870444250231
 20
232.8627223747760
 30
0.0000000000000000
 41
5.000000000000000
 42
5.000000000000000
 43
5.000000000000000
 50
0.0000000000000000
  0
LINE
  5
358
100
AcDbEntity
  8
MAIN0
  6
BYBLOCK
 62
0
100
AcDbLine
 10
888.3870444250231
 20
232.8627223747760
 30
0.0000000000000000
 11
921.0697727707143
 21
232.8627223747760
 31
0.0000000000000000
  0
LINE
  5
359
100
AcDbEntity
  8
MAIN0
  6
BYBLOCK
 62
0
100
AcDbLine
 10
888.3870444250231
 20
279.2627223449741
 30
0.0000000000000000
 11
888.3870444250231
 21
227.8627223747760
 31
0.0000000000000000
  0
MTEXT
  5
35A
100
AcDbEntity
  8
MAIN0
  6
BYBLOCK
 62
0
100
AcDbMText
 10
907.4447732475514
 20
237.9877222555667
 30
0.0000000000000000
 40
7.749999761581421
 41
0.0000000000000000
 71
     5
 72
     1
  1
\A1;15～31
 11
1.000000000000000
 21
0.0000000000000000
 31
0.0000000000000000
  7
KNJYOKO
  0
ENDBLK
  5
35B
100
AcDbEntity
  8
MAIN0
  6
CONTINUOUS
 62
1
100
AcDbBlockEnd
  0
BLOCK
  5
35E
100
AcDbEntity
  8
MAIN0
  6
CONTINUOUS
 62
3
100
AcDbBlockBegin
  2
*D40
 70
    65
 10
0.0
 20
0.0
 30
0.0
  0
LINE
  5
35F
100
AcDbEntity
  8
MAIN0
  6
BYBLOCK
 62
0
100
AcDbLine
 10
848.1182271908718
 20
186.0046174927259
 30
0.0000000000000000
 11
822.2689127589828
 21
186.0046174927259
 31
0.0000000000000000
  0
LINE
  5
360
100
AcDbEntity
  8
MAIN0
  6
BYBLOCK
 62
0
100
AcDbLine
 10
827.2689127589828
 20
186.0046174927259
 30
0.0000000000000000
 11
827.2689127589828
 21
157.5046174927261
 31
0.0000000000000000
  0
INSERT
  5
361
100
AcDbEntity
  8
MAIN0
  6
BYBLOCK
 62
0
100
AcDbBlockReference
  2
_OPEN
 10
827.2689127589828
 20
186.0046174927259
 30
0.0000000000000000
 41
5.000000000000000
 42
5.000000000000000
 43
5.000000000000000
 50
270.0000000000000
  0
INSERT
  5
362
100
AcDbEntity
  8
MAIN0
  6
BYBLOCK
 62
0
100
AcDbBlockReference
  2
_OPEN
 10
827.2689127589828
 20
157.5046174927261
 30
0.0000000000000000
 41
5.000000000000000
 42
5.000000000000000
 43
5.000000000000000
 50
90.00000000000000
  0
LINE
  5
363
100
AcDbEntity
  8
MAIN0
  6
BYBLOCK
 62
0
100
AcDbLine
 10
827.2689127589828
 20
191.0046174927259
 30
0.0000000000000000
 11
827.2689127589828
 21
193.5046174927259
 31
0.0000000000000000
  0
LINE
  5
364
100
AcDbEntity
  8
MAIN0
  6
BYBLOCK
 62
0
100
AcDbLine
 10
827.2689127589828
 20
152.5046174927261
 30
0.0000000000000000
 11
827.2689127589828
 21
150.0046174927261
 31
0.0000000000000000
  0
LINE
  5
365
100
AcDbEntity
  8
MAIN0
  6
BYBLOCK
 62
0
100
AcDbLine
 10
848.1182271908920
 20
157.5046174927261
 30
0.0000000000000000
 11
822.2689127589828
 21
157.5046174927261
 31
0.0000000000000000
  0
MTEXT
  5
366
100
AcDbEntity
  8
MAIN0
  6
BYBLOCK
 62
0
100
AcDbMText
 10
822.8939128781921
 20
171.7546174927260
 30
0.0000000000000000
 40
7.749999761581421
 41
0.0000000000000000
 71
     5
 72
     1
  1
\A1;28.5
 11
6.123233995736766e-017
 21
1.000000000000000
 31
0.0000000000000000
  7
STANDARD
  0
ENDBLK
  5
367
100
AcDbEntity
  8
MAIN0
  6
CONTINUOUS
 62
3
100
AcDbBlockEnd
  0
BLOCK
  5
369
100
AcDbEntity
  8
MAIN0
  6
CONTINUOUS
 62
3
100
AcDbBlockBegin
  2
*D41
 70
    65
 10
0.0
 20
0.0
 30
0.0
  0
LINE
  5
36A
100
AcDbEntity
  8
MAIN0
  6
BYBLOCK
 62
0
100
AcDbLine
 10
882.1182272504803
 20
180.5046174927183
 30
0.0000000000000000
 11
912.9456470493492
 21
180.5046174927275
 31
0.0000000000000000
  0
LINE
  5
36B
100
AcDbEntity
  8
MAIN0
  6
BYBLOCK
 62
0
100
AcDbLine
 10
907.9456470493492
 20
180.5046174927260
 30
0.0000000000000000
 11
907.9456470493492
 21
163.0046174927261
 31
0.0000000000000000
  0
INSERT
  5
36C
100
AcDbEntity
  8
MAIN0
  6
BYBLOCK
 62
0
100
AcDbBlockReference
  2
_OPEN
 10
907.9456470493492
 20
180.5046174927260
 30
0.0000000000000000
 41
5.000000000000000
 42
5.000000000000000
 43
5.000000000000000
 50
270.0000000000000
  0
INSERT
  5
36D
100
AcDbEntity
  8
MAIN0
  6
BYBLOCK
 62
0
100
AcDbBlockReference
  2
_OPEN
 10
907.9456470493492
 20
163.0046174927261
 30
0.0000000000000000
 41
5.000000000000000
 42
5.000000000000000
 43
5.000000000000000
 50
90.00000000000000
  0
LINE
  5
36E
100
AcDbEntity
  8
MAIN0
  6
BYBLOCK
 62
0
100
AcDbLine
 10
907.9456470493492
 20
185.5046174927260
 30
0.0000000000000000
 11
907.9456470493492
 21
188.0046174927260
 31
0.0000000000000000
  0
LINE
  5
36F
100
AcDbEntity
  8
MAIN0
  6
BYBLOCK
 62
0
100
AcDbLine
 10
907.9456470493492
 20
158.0046174927261
 30
0.0000000000000000
 11
907.9456470493492
 21
138.9166648042671
 31
0.0000000000000000
  0
LINE
  5
370
100
AcDbEntity
  8
MAIN0
  6
BYBLOCK
 62
0
100
AcDbLine
 10
882.1182272504926
 20
163.0046174927184
 30
0.0000000000000000
 11
912.9456470493492
 21
163.0046174927275
 31
0.0000000000000000
  0
MTEXT
  5
371
100
AcDbEntity
  8
MAIN0
  6
BYBLOCK
 62
0
100
AcDbMText
 10
902.8206471685585
 20
148.0416650426857
 30
0.0000000000000000
 40
7.749999761581421
 41
0.0000000000000000
 71
     5
 72
     1
  1
\A1;17.5
 11
6.123233995736766e-017
 21
1.000000000000000
 31
0.0000000000000000
  7
STANDARD
  0
ENDBLK
  5
372
100
AcDbEntity
  8
MAIN0
  6
CONTINUOUS
 62
3
100
AcDbBlockEnd
  0
BLOCK
  5
374
100
AcDbEntity
  8
MAIN0
  6
CONTINUOUS
 62
3
100
AcDbBlockBegin
  2
*D42
 70
    65
 10
0.0
 20
0.0
 30
0.0
  0
LINE
  5
375
100
AcDbEntity
  8
MAIN0
  6
BYBLOCK
 62
0
100
AcDbLine
 10
850.1182272206943
 20
155.5046174629237
 30
0.0000000000000000
 11
850.1182272206943
 21
133.4003458994644
 31
0.0000000000000000
  0
LINE
  5
376
100
AcDbEntity
  8
MAIN0
  6
BYBLOCK
 62
0
100
AcDbLine
 10
855.1182272206943
 20
138.4003458994644
 30
0.0000000000000000
 11
875.1182272206938
 21
138.4003458994644
 31
0.0000000000000000
  0
INSERT
  5
377
100
AcDbEntity
  8
MAIN0
  6
BYBLOCK
 62
0
100
AcDbBlockReference
  2
_OPEN
 10
850.1182272206943
 20
138.4003458994644
 30
0.0000000000000000
 41
5.000000000000000
 42
5.000000000000000
 43
5.000000000000000
 50
180.0000000000000
  0
INSERT
  5
378
100
AcDbEntity
  8
MAIN0
  6
BYBLOCK
 62
0
100
AcDbBlockReference
  2
_OPEN
 10
880.1182272206938
 20
138.4003458994644
 30
0.0000000000000000
 41
5.000000000000000
 42
5.000000000000000
 43
5.000000000000000
 50
0.0000000000000000
  0
LINE
  5
379
100
AcDbEntity
  8
MAIN0
  6
BYBLOCK
 62
0
100
AcDbLine
 10
880.1182272206938
 20
155.5046174629154
 30
0.0000000000000000
 11
880.1182272206938
 21
133.4003458994644
 31
0.0000000000000000
  0
MTEXT
  5
37A
100
AcDbEntity
  8
MAIN0
  6
BYBLOCK
 62
0
100
AcDbMText
 10
865.1182272206941
 20
142.7753457802551
 30
0.0000000000000000
 40
7.749999761581421
 41
0.0000000000000000
 71
     5
 72
     1
  1
\A1;30
 11
1.000000000000000
 21
0.0000000000000000
 31
0.0000000000000000
  7
STANDARD
  0
ENDBLK
  5
37B
100
AcDbEntity
  8
MAIN0
  6
CONTINUOUS
 62
3
100
AcDbBlockEnd
  0
BLOCK
  5
37D
100
AcDbEntity
  8
MAIN0
  6
CONTINUOUS
 62
3
100
AcDbBlockBegin
  2
*D43
 70
    65
 10
0.0
 20
0.0
 30
0.0
  0
LINE
  5
37E
100
AcDbEntity
  8
MAIN0
  6
BYBLOCK
 62
0
100
AcDbLine
 10
267.0400319623018
 20
279.2627223442616
 30
0.0000000000000000
 11
267.0400319623018
 21
216.8627223745957
 31
0.0000000000000000
  0
LINE
  5
37F
100
AcDbEntity
  8
MAIN0
  6
BYBLOCK
 62
0
100
AcDbLine
 10
272.0400319623018
 20
221.8627223745957
 30
0.0000000000000000
 11
632.0400319624831
 21
221.8627223745957
 31
0.0000000000000000
  0
INSERT
  5
380
100
AcDbEntity
  8
MAIN0
  6
BYBLOCK
 62
0
100
AcDbBlockReference
  2
_OPEN
 10
267.0400319623018
 20
221.8627223745957
 30
0.0000000000000000
 41
5.000000000000000
 42
5.000000000000000
 43
5.000000000000000
 50
180.0000000000000
  0
INSERT
  5
381
100
AcDbEntity
  8
MAIN0
  6
BYBLOCK
 62
0
100
AcDbBlockReference
  2
_OPEN
 10
637.0400319624831
 20
221.8627223745957
 30
0.0000000000000000
 41
5.000000000000000
 42
5.000000000000000
 43
5.000000000000000
 50
0.0000000000000000
  0
LINE
  5
382
100
AcDbEntity
  8
MAIN0
  6
BYBLOCK
 62
0
100
AcDbLine
 10
637.0400319624831
 20
279.2627223447715
 30
0.0000000000000000
 11
637.0400319624831
 21
216.8627223745957
 31
0.0000000000000000
  0
MTEXT
  5
383
100
AcDbEntity
  8
MAIN0
  6
BYBLOCK
 62
0
100
AcDbMText
 10
452.0400319623925
 20
226.2377222553864
 30
0.0000000000000000
 40
7.749999761581421
 41
0.0000000000000000
 71
     5
 72
     1
  1
\A1;370
 11
1.000000000000000
 21
0.0000000000000000
 31
0.0000000000000000
  7
STANDARD
  0
ENDBLK
  5
384
100
AcDbEntity
  8
MAIN0
  6
CONTINUOUS
 62
3
100
AcDbBlockEnd
  0
BLOCK
  5
386
100
AcDbEntity
  8
MAIN0
  6
CONTINUOUS
 62
3
100
AcDbBlockBegin
  2
*D44
 70
    65
 10
0.0
 20
0.0
 30
0.0
  0
LINE
  5
387
100
AcDbEntity
  8
MAIN0
  6
BYBLOCK
 62
0
100
AcDbLine
 10
637.0400319624831
 20
279.2627223447715
 30
0.0000000000000000
 11
637.0400319624831
 21
216.8627223745957
 31
0.0000000000000000
  0
LINE
  5
388
100
AcDbEntity
  8
MAIN0
  6
BYBLOCK
 62
0
100
AcDbLine
 10
642.0400319624831
 20
221.8627223745957
 30
0.0000000000000000
 11
717.0400319626872
 21
221.8627223745957
 31
0.0000000000000000
  0
INSERT
  5
389
100
AcDbEntity
  8
MAIN0
  6
BYBLOCK
 62
0
100
AcDbBlockReference
  2
_OPEN
 10
637.0400319624831
 20
221.8627223745957
 30
0.0000000000000000
 41
5.000000000000000
 42
5.000000000000000
 43
5.000000000000000
 50
180.0000000000000
  0
INSERT
  5
38A
100
AcDbEntity
  8
MAIN0
  6
BYBLOCK
 62
0
100
AcDbBlockReference
  2
_OPEN
 10
722.0400319626872
 20
221.8627223745957
 30
0.0000000000000000
 41
5.000000000000000
 42
5.000000000000000
 43
5.000000000000000
 50
0.0000000000000000
  0
LINE
  5
38B
100
AcDbEntity
  8
MAIN0
  6
BYBLOCK
 62
0
100
AcDbLine
 10
722.0400319626872
 20
303.8627223428241
 30
0.0000000000000000
 11
722.0400319626872
 21
216.8627223745957
 31
0.0000000000000000
  0
MTEXT
  5
38C
100
AcDbEntity
  8
MAIN0
  6
BYBLOCK
 62
0
100
AcDbMText
 10
679.5400319625851
 20
226.2377222553864
 30
0.0000000000000000
 40
7.749999761581421
 41
0.0000000000000000
 71
     5
 72
     1
  1
\A1;85
 11
1.000000000000000
 21
0.0000000000000000
 31
0.0000000000000000
  7
STANDARD
  0
ENDBLK
  5
38D
100
AcDbEntity
  8
MAIN0
  6
CONTINUOUS
 62
3
100
AcDbBlockEnd
  0
BLOCK
  5
38F
100
AcDbEntity
  8
MAIN0
  6
CONTINUOUS
 62
3
100
AcDbBlockBegin
  2
*D45
 70
    65
 10
0.0
 20
0.0
 30
0.0
  0
LINE
  5
390
100
AcDbEntity
  8
MAIN0
  6
BYBLOCK
 62
0
100
AcDbLine
 10
638.6400319922836
 20
280.8627223745689
 30
0.0000000000000000
 11
740.2562469173206
 21
280.8627223743791
 31
0.0000000000000000
  0
LINE
  5
391
100
AcDbEntity
  8
MAIN0
  6
BYBLOCK
 62
0
100
AcDbLine
 10
735.2562469173206
 20
285.8627223743885
 30
0.0000000000000000
 11
735.2562469173206
 21
325.8627223726270
 31
0.0000000000000000
  0
INSERT
  5
392
100
AcDbEntity
  8
MAIN0
  6
BYBLOCK
 62
0
100
AcDbBlockReference
  2
_OPEN
 10
735.2562469173206
 20
280.8627223743885
 30
0.0000000000000000
 41
5.000000000000000
 42
5.000000000000000
 43
5.000000000000000
 50
270.0000000000000
  0
INSERT
  5
393
100
AcDbEntity
  8
MAIN0
  6
BYBLOCK
 62
0
100
AcDbBlockReference
  2
_OPEN
 10
735.2562469173206
 20
330.8627223726270
 30
0.0000000000000000
 41
5.000000000000000
 42
5.000000000000000
 43
5.000000000000000
 50
90.00000000000000
  0
LINE
  5
394
100
AcDbEntity
  8
MAIN0
  6
BYBLOCK
 62
0
100
AcDbLine
 10
732.7294890600296
 20
330.8627223726270
 30
0.0000000000000000
 11
740.2562469173206
 21
330.8627223726270
 31
0.0000000000000000
  0
MTEXT
  5
395
100
AcDbEntity
  8
MAIN0
  6
BYBLOCK
 62
0
100
AcDbMText
 10
730.8812470365299
 20
305.8627223735077
 30
0.0000000000000000
 40
7.749999761581421
 41
0.0000000000000000
 71
     5
 72
     1
  1
\A1;50
 11
6.123233995736766e-017
 21
1.000000000000000
 31
0.0000000000000000
  7
STANDARD
  0
ENDBLK
  5
396
100
AcDbEntity
  8
MAIN0
  6
CONTINUOUS
 62
3
100
AcDbBlockEnd
  0
BLOCK
  5
398
100
AcDbEntity
  8
MAIN0
  6
CONTINUOUS
 62
3
100
AcDbBlockBegin
  2
*D46
 70
    65
 10
0.0
 20
0.0
 30
0.0
  0
LINE
  5
399
100
AcDbEntity
  8
MAIN0
  6
BYBLOCK
 62
0
100
AcDbLine
 10
483.0400319623672
 20
273.8627223444653
 30
0.0000000000000000
 11
483.0400319623672
 21
252.8627223742674
 31
0.0000000000000000
  0
LINE
  5
39A
100
AcDbEntity
  8
MAIN0
  6
BYBLOCK
 62
0
100
AcDbLine
 10
483.0400319623672
 20
257.8627223742674
 30
0.0000000000000000
 11
501.0400319623672
 21
257.8627223742674
 31
0.0000000000000000
  0
INSERT
  5
39B
100
AcDbEntity
  8
MAIN0
  6
BYBLOCK
 62
0
100
AcDbBlockReference
  2
_OPEN
 10
483.0400319623672
 20
257.8627223742674
 30
0.0000000000000000
 41
5.000000000000000
 42
5.000000000000000
 43
5.000000000000000
 50
0.0000000000000000
  0
INSERT
  5
39C
100
AcDbEntity
  8
MAIN0
  6
BYBLOCK
 62
0
100
AcDbBlockReference
  2
_OPEN
 10
501.0400319623672
 20
257.8627223742674
 30
0.0000000000000000
 41
5.000000000000000
 42
5.000000000000000
 43
5.000000000000000
 50
180.0000000000000
  0
LINE
  5
39D
100
AcDbEntity
  8
MAIN0
  6
BYBLOCK
 62
0
100
AcDbLine
 10
478.0400319623672
 20
257.8627223742674
 30
0.0000000000000000
 11
465.0347388480594
 21
257.8627223742674
 31
0.0000000000000000
  0
LINE
  5
39E
100
AcDbEntity
  8
MAIN0
  6
BYBLOCK
 62
0
100
AcDbLine
 10
506.0400319623672
 20
257.8627223742674
 30
0.0000000000000000
 11
508.5400319623672
 21
257.8627223742674
 31
0.0000000000000000
  0
LINE
  5
39F
100
AcDbEntity
  8
MAIN0
  6
BYBLOCK
 62
0
100
AcDbLine
 10
501.0400319623672
 20
273.8627223444653
 30
0.0000000000000000
 11
501.0400319623672
 21
252.8627223742674
 31
0.0000000000000000
  0
MTEXT
  5
3A0
100
AcDbEntity
  8
MAIN0
  6
BYBLOCK
 62
0
100
AcDbMText
 10
470.1597387288501
 20
262.9877222550581
 30
0.0000000000000000
 40
7.749999761581421
 41
0.0000000000000000
 71
     5
 72
     1
  1
\A1;18
 11
1.000000000000000
 21
0.0000000000000000
 31
0.0000000000000000
  7
STANDARD
  0
ENDBLK
  5
3A1
100
AcDbEntity
  8
MAIN0
  6
CONTINUOUS
 62
3
100
AcDbBlockEnd
  0
BLOCK
  5
3A3
100
AcDbEntity
  8
MAIN0
  6
CONTINUOUS
 62
3
100
AcDbBlockBegin
  2
*D47
 70
    65
 10
0.0
 20
0.0
 30
0.0
  0
LINE
  5
3A4
100
AcDbEntity
  8
MAIN0
  6
BYBLOCK
 62
0
100
AcDbLine
 10
267.0400319623017
 20
279.2627223442616
 30
0.0000000000000000
 11
267.0400319623017
 21
198.8627223744298
 31
0.0000000000000000
  0
LINE
  5
3A5
100
AcDbEntity
  8
MAIN0
  6
BYBLOCK
 62
0
100
AcDbLine
 10
272.0400319623017
 20
203.8627223744298
 30
0.0000000000000000
 11
487.0400319623672
 21
203.8627223744298
 31
0.0000000000000000
  0
INSERT
  5
3A6
100
AcDbEntity
  8
MAIN0
  6
BYBLOCK
 62
0
100
AcDbBlockReference
  2
_OPEN
 10
267.0400319623017
 20
203.8627223744298
 30
0.0000000000000000
 41
5.000000000000000
 42
5.000000000000000
 43
5.000000000000000
 50
180.0000000000000
  0
INSERT
  5
3A7
100
AcDbEntity
  8
MAIN0
  6
BYBLOCK
 62
0
100
AcDbBlockReference
  2
_OPEN
 10
492.0400319623672
 20
203.8627223744298
 30
0.0000000000000000
 41
5.000000000000000
 42
5.000000000000000
 43
5.000000000000000
 50
0.0000000000000000
  0
LINE
  5
3A8
100
AcDbEntity
  8
MAIN0
  6
BYBLOCK
 62
0
100
AcDbLine
 10
492.0400319623672
 20
264.8730050842385
 30
0.0000000000000000
 11
492.0400319623672
 21
198.8627223744298
 31
0.0000000000000000
  0
MTEXT
  5
3A9
100
AcDbEntity
  8
MAIN0
  6
BYBLOCK
 62
0
100
AcDbMText
 10
377.4052793695749
 20
208.9877222552206
 30
0.0000000000000000
 40
7.749999761581421
 41
0.0000000000000000
 71
     5
 72
     1
  1
\A1;225
 11
1.000000000000000
 21
0.0000000000000000
 31
0.0000000000000000
  7
STANDARD
  0
ENDBLK
  5
3AA
100
AcDbEntity
  8
MAIN0
  6
CONTINUOUS
 62
3
100
AcDbBlockEnd
  0
BLOCK
  5
3AC
100
AcDbEntity
  8
MAIN0
  6
CONTINUOUS
 62
3
100
AcDbBlockBegin
  2
*D48
 70
    65
 10
0.0
 20
0.0
 30
0.0
  0
LINE
  5
3AD
100
AcDbEntity
  8
MAIN0
  6
BYBLOCK
 62
0
100
AcDbLine
 10
492.0400319623672
 20
264.8730050842385
 30
0.0000000000000000
 11
492.0400319623672
 21
198.8627223744298
 31
0.0000000000000000
  0
LINE
  5
3AE
100
AcDbEntity
  8
MAIN0
  6
BYBLOCK
 62
0
100
AcDbLine
 10
497.0400319623672
 20
203.8627223744298
 30
0.0000000000000000
 11
717.0400319626872
 21
203.8627223744298
 31
0.0000000000000000
  0
INSERT
  5
3AF
100
AcDbEntity
  8
MAIN0
  6
BYBLOCK
 62
0
100
AcDbBlockReference
  2
_OPEN
 10
492.0400319623672
 20
203.8627223744298
 30
0.0000000000000000
 41
5.000000000000000
 42
5.000000000000000
 43
5.000000000000000
 50
180.0000000000000
  0
INSERT
  5
3B0
100
AcDbEntity
  8
MAIN0
  6
BYBLOCK
 62
0
100
AcDbBlockReference
  2
_OPEN
 10
722.0400319626872
 20
203.8627223744298
 30
0.0000000000000000
 41
5.000000000000000
 42
5.000000000000000
 43
5.000000000000000
 50
0.0000000000000000
  0
LINE
  5
3B1
100
AcDbEntity
  8
MAIN0
  6
BYBLOCK
 62
0
100
AcDbLine
 10
722.0400319626872
 20
303.8627223428241
 30
0.0000000000000000
 11
722.0400319626872
 21
198.8627223744298
 31
0.0000000000000000
  0
MTEXT
  5
3B2
100
AcDbEntity
  8
MAIN0
  6
BYBLOCK
 62
0
100
AcDbMText
 10
611.4574926751669
 20
208.9877222552206
 30
0.0000000000000000
 40
7.749999761581421
 41
0.0000000000000000
 71
     5
 72
     1
  1
\A1;230
 11
1.000000000000000
 21
0.0000000000000000
 31
0.0000000000000000
  7
STANDARD
  0
ENDBLK
  5
3B3
100
AcDbEntity
  8
MAIN0
  6
CONTINUOUS
 62
3
100
AcDbBlockEnd
  0
BLOCK
  5
3B5
100
AcDbEntity
  8
MAIN0
  6
CONTINUOUS
 62
3
100
AcDbBlockBegin
  2
*D49
 70
    65
 10
0.0
 20
0.0
 30
0.0
  0
LINE
  5
3B6
100
AcDbEntity
  8
MAIN0
  6
BYBLOCK
 62
0
100
AcDbLine
 10
267.0400319623017
 20
279.2627223442617
 30
0.0000000000000000
 11
267.0400319623016
 21
180.8627223742674
 31
0.0000000000000000
  0
LINE
  5
3B7
100
AcDbEntity
  8
MAIN0
  6
BYBLOCK
 62
0
100
AcDbLine
 10
272.0400319623017
 20
185.8627223742674
 30
0.0000000000000000
 11
717.0400319626873
 21
185.8627223742674
 31
0.0000000000000000
  0
INSERT
  5
3B8
100
AcDbEntity
  8
MAIN0
  6
BYBLOCK
 62
0
100
AcDbBlockReference
  2
_OPEN
 10
267.0400319623017
 20
185.8627223742674
 30
0.0000000000000000
 41
5.000000000000000
 42
5.000000000000000
 43
5.000000000000000
 50
180.0000000000000
  0
INSERT
  5
3B9
100
AcDbEntity
  8
MAIN0
  6
BYBLOCK
 62
0
100
AcDbBlockReference
  2
_OPEN
 10
722.0400319626873
 20
185.8627223742674
 30
0.0000000000000000
 41
5.000000000000000
 42
5.000000000000000
 43
5.000000000000000
 50
0.0000000000000000
  0
LINE
  5
3BA
100
AcDbEntity
  8
MAIN0
  6
BYBLOCK
 62
0
100
AcDbLine
 10
722.0400319626871
 20
303.8627223428241
 30
0.0000000000000000
 11
722.0400319626872
 21
180.8627223742674
 31
0.0000000000000000
  0
MTEXT
  5
3BB
100
AcDbEntity
  8
MAIN0
  6
BYBLOCK
 62
0
100
AcDbMText
 10
505.6183636290001
 20
190.4043889217248
 30
0.0000000000000000
 40
7.749999761581421
 41
0.0000000000000000
 71
     5
 72
     1
  1
\A1;455
 11
1.000000000000000
 21
0.0000000000000000
 31
0.0000000000000000
  7
STANDARD
  0
ENDBLK
  5
3BC
100
AcDbEntity
  8
MAIN0
  6
CONTINUOUS
 62
3
100
AcDbBlockEnd
  0
BLOCK
  5
3BE
100
AcDbEntity
  8
MAIN0
  6
CONTINUOUS
 62
3
100
AcDbBlockBegin
  2
*D50
 70
    65
 10
0.0
 20
0.0
 30
0.0
  0
LINE
  5
3BF
100
AcDbEntity
  8
MAIN0
  6
BYBLOCK
 62
0
100
AcDbLine
 10
266.2400319325958
 20
415.8627223741107
 30
0.0000000000000000
 11
246.0400319623019
 21
415.8627223741107
 31
0.0000000000000000
  0
LINE
  5
3C0
100
AcDbEntity
  8
MAIN0
  6
BYBLOCK
 62
0
100
AcDbLine
 10
251.0400319623019
 20
410.8627223741107
 30
0.0000000000000000
 11
251.0400319623019
 21
370.8627223741107
 31
0.0000000000000000
  0
INSERT
  5
3C1
100
AcDbEntity
  8
MAIN0
  6
BYBLOCK
 62
0
100
AcDbBlockReference
  2
_OPEN
 10
251.0400319623019
 20
415.8627223741107
 30
0.0000000000000000
 41
5.000000000000000
 42
5.000000000000000
 43
5.000000000000000
 50
90.00000000000000
  0
INSERT
  5
3C2
100
AcDbEntity
  8
MAIN0
  6
BYBLOCK
 62
0
100
AcDbBlockReference
  2
_OPEN
 10
251.0400319623019
 20
365.8627223741107
 30
0.0000000000000000
 41
5.000000000000000
 42
5.000000000000000
 43
5.000000000000000
 50
270.0000000000000
  0
LINE
  5
3C3
100
AcDbEntity
  8
MAIN0
  6
BYBLOCK
 62
0
100
AcDbLine
 10
266.4400319325958
 20
365.8627223741107
 30
0.0000000000000000
 11
246.0400319623019
 21
365.8627223741107
 31
0.0000000000000000
  0
MTEXT
  5
3C4
100
AcDbEntity
  8
MAIN0
  6
BYBLOCK
 62
0
100
AcDbMText
 10
246.6650320815112
 20
390.8627223741107
 30
0.0000000000000000
 40
7.749999761581421
 41
0.0000000000000000
 71
     5
 72
     1
  1
\A1;50
 11
6.123233995736766e-017
 21
1.000000000000000
 31
0.0000000000000000
  7
STANDARD
  0
ENDBLK
  5
3C5
100
AcDbEntity
  8
MAIN0
  6
CONTINUOUS
 62
3
100
AcDbBlockEnd
  0
BLOCK
  5
3C7
100
AcDbEntity
  8
MAIN0
  6
CONTINUOUS
 62
3
100
AcDbBlockBegin
  2
*D51
 70
    65
 10
0.0
 20
0.0
 30
0.0
  0
LINE
  5
3C8
100
AcDbEntity
  8
MAIN0
  6
BYBLOCK
 62
0
100
AcDbLine
 10
266.4400319325958
 20
365.8627223741107
 30
0.0000000000000000
 11
246.0400319623019
 21
365.8627223741107
 31
0.0000000000000000
  0
LINE
  5
3C9
100
AcDbEntity
  8
MAIN0
  6
BYBLOCK
 62
0
100
AcDbLine
 10
251.0400319623019
 20
360.8627223741107
 30
0.0000000000000000
 11
251.0400319623019
 21
285.8627223740639
 31
0.0000000000000000
  0
INSERT
  5
3CA
100
AcDbEntity
  8
MAIN0
  6
BYBLOCK
 62
0
100
AcDbBlockReference
  2
_OPEN
 10
251.0400319623019
 20
365.8627223741107
 30
0.0000000000000000
 41
5.000000000000000
 42
5.000000000000000
 43
5.000000000000000
 50
90.00000000000000
  0
INSERT
  5
3CB
100
AcDbEntity
  8
MAIN0
  6
BYBLOCK
 62
0
100
AcDbBlockReference
  2
_OPEN
 10
251.0400319623019
 20
280.8627223740639
 30
0.0000000000000000
 41
5.000000000000000
 42
5.000000000000000
 43
5.000000000000000
 50
270.0000000000000
  0
LINE
  5
3CC
100
AcDbEntity
  8
MAIN0
  6
BYBLOCK
 62
0
100
AcDbLine
 10
265.4400319324993
 20
280.8627223740639
 30
0.0000000000000000
 11
246.0400319623019
 21
280.8627223740639
 31
0.0000000000000000
  0
MTEXT
  5
3CD
100
AcDbEntity
  8
MAIN0
  6
BYBLOCK
 62
0
100
AcDbMText
 10
246.6650320815112
 20
323.3627223740873
 30
0.0000000000000000
 40
7.749999761581421
 41
0.0000000000000000
 71
     5
 72
     1
  1
\A1;85
 11
6.123233995736766e-017
 21
1.000000000000000
 31
0.0000000000000000
  7
STANDARD
  0
ENDBLK
  5
3CE
100
AcDbEntity
  8
MAIN0
  6
CONTINUOUS
 62
3
100
AcDbBlockEnd
  0
BLOCK
  5
3D0
100
AcDbEntity
  8
MAIN0
  6
CONTINUOUS
 62
3
100
AcDbBlockBegin
  2
*D52
 70
    65
 10
0.0
 20
0.0
 30
0.0
  0
LINE
  5
3D1
100
AcDbEntity
  8
MAIN0
  6
BYBLOCK
 62
0
100
AcDbLine
 10
266.2400319325958
 20
415.8627223741107
 30
0.0000000000000000
 11
230.0400319623019
 21
415.8627223741107
 31
0.0000000000000000
  0
LINE
  5
3D2
100
AcDbEntity
  8
MAIN0
  6
BYBLOCK
 62
0
100
AcDbLine
 10
235.0400319623019
 20
410.8627223741107
 30
0.0000000000000000
 11
235.0400319623019
 21
285.8627223740639
 31
0.0000000000000000
  0
INSERT
  5
3D3
100
AcDbEntity
  8
MAIN0
  6
BYBLOCK
 62
0
100
AcDbBlockReference
  2
_OPEN
 10
235.0400319623019
 20
415.8627223741107
 30
0.0000000000000000
 41
5.000000000000000
 42
5.000000000000000
 43
5.000000000000000
 50
90.00000000000000
  0
INSERT
  5
3D4
100
AcDbEntity
  8
MAIN0
  6
BYBLOCK
 62
0
100
AcDbBlockReference
  2
_OPEN
 10
235.0400319623019
 20
280.8627223740639
 30
0.0000000000000000
 41
5.000000000000000
 42
5.000000000000000
 43
5.000000000000000
 50
270.0000000000000
  0
LINE
  5
3D5
100
AcDbEntity
  8
MAIN0
  6
BYBLOCK
 62
0
100
AcDbLine
 10
265.4400319324993
 20
280.8627223740639
 30
0.0000000000000000
 11
230.0400319623019
 21
280.8627223740639
 31
0.0000000000000000
  0
MTEXT
  5
3D6
100
AcDbEntity
  8
MAIN0
  6
BYBLOCK
 62
0
100
AcDbMText
 10
230.6650320815112
 20
348.3627223740873
 30
0.0000000000000000
 40
7.749999761581421
 41
0.0000000000000000
 71
     5
 72
     1
  1
\A1;135
 11
6.123233995736766e-017
 21
1.000000000000000
 31
0.0000000000000000
  7
STANDARD
  0
ENDBLK
  5
3D7
100
AcDbEntity
  8
MAIN0
  6
CONTINUOUS
 62
3
100
AcDbBlockEnd
  0
BLOCK
  5
47A
100
AcDbEntity
  8
MAIN0
  6
CONTINUOUS
 62
3
100
AcDbBlockBegin
  2
*D53
 70
    65
 10
0.0
 20
0.0
 30
0.0
  0
LINE
  5
47B
100
AcDbEntity
  8
MAIN0
  6
BYBLOCK
 62
0
100
AcDbLine
 10
788.6849007748334
 20
565.8627223727237
 30
0.0000000000000000
 11
738.0400319626878
 21
565.8627223727237
 31
0.0000000000000000
  0
LINE
  5
47C
100
AcDbEntity
  8
MAIN0
  6
BYBLOCK
 62
0
100
AcDbLine
 10
743.0400319626878
 20
560.8627223727237
 30
0.0000000000000000
 11
743.0400319626878
 21
390.8627223727240
 31
0.0000000000000000
  0
INSERT
  5
47D
100
AcDbEntity
  8
MAIN0
  6
BYBLOCK
 62
0
100
AcDbBlockReference
  2
_OPEN
 10
743.0400319626878
 20
565.8627223727237
 30
0.0000000000000000
 41
5.000000000000000
 42
5.000000000000000
 43
5.000000000000000
 50
90.00000000000000
  0
INSERT
  5
47E
100
AcDbEntity
  8
MAIN0
  6
BYBLOCK
 62
0
100
AcDbBlockReference
  2
_OPEN
 10
743.0400319626878
 20
385.8627223727240
 30
0.0000000000000000
 41
5.000000000000000
 42
5.000000000000000
 43
5.000000000000000
 50
270.0000000000000
  0
MTEXT
  5
47F
100
AcDbEntity
  8
MAIN0
  6
BYBLOCK
 62
0
100
AcDbMText
 10
738.6650320818970
 20
475.8627223727239
 30
0.0000000000000000
 40
7.749999761581421
 41
0.0000000000000000
 71
     5
 72
     1
  1
\A1;180
 11
6.123233995736766e-017
 21
1.000000000000000
 31
0.0000000000000000
  7
STANDARD
  0
ENDBLK
  5
480
100
AcDbEntity
  8
MAIN0
  6
CONTINUOUS
 62
3
100
AcDbBlockEnd
  0
BLOCK
  5
51A
100
AcDbEntity
  8
MAIN0
  6
CONTINUOUS
 62
3
100
AcDbBlockBegin
  2
*D54
 70
    65
 10
0.0
 20
0.0
 30
0.0
  0
LINE
  5
51B
100
AcDbEntity
  8
MAIN0
  6
BYBLOCK
 62
0
100
AcDbLine
 10
274.9461733412273
 20
589.7784517239126
 30
0.0000000000000000
 11
238.0900227274799
 21
589.7784517239126
 31
0.0000000000000000
  0
LINE
  5
51C
100
AcDbEntity
  8
MAIN0
  6
BYBLOCK
 62
0
100
AcDbLine
 10
243.0900227274799
 20
594.7784517239126
 30
0.0000000000000000
 11
243.0900227274799
 21
634.7784517239124
 31
0.0000000000000000
  0
INSERT
  5
51D
100
AcDbEntity
  8
MAIN0
  6
BYBLOCK
 62
0
100
AcDbBlockReference
  2
_OPEN
 10
243.0900227274799
 20
589.7784517239126
 30
0.0000000000000000
 41
5.000000000000000
 42
5.000000000000000
 43
5.000000000000000
 50
270.0000000000000
  0
INSERT
  5
51E
100
AcDbEntity
  8
MAIN0
  6
BYBLOCK
 62
0
100
AcDbBlockReference
  2
_OPEN
 10
243.0900227274799
 20
639.7784517239124
 30
0.0000000000000000
 41
5.000000000000000
 42
5.000000000000000
 43
5.000000000000000
 50
90.00000000000000
  0
LINE
  5
51F
100
AcDbEntity
  8
MAIN0
  6
BYBLOCK
 62
0
100
AcDbLine
 10
274.9461733412946
 20
639.7784517239124
 30
0.0000000000000000
 11
238.0900227274799
 21
639.7784517239124
 31
0.0000000000000000
  0
MTEXT
  5
520
100
AcDbEntity
  8
MAIN0
  6
BYBLOCK
 62
0
100
AcDbMText
 10
238.7150228466892
 20
614.7784517239124
 30
0.0000000000000000
 40
7.749999761581421
 41
0.0000000000000000
 71
     5
 72
     1
  1
\A1;50
 11
6.123233995736766e-017
 21
1.000000000000000
 31
0.0000000000000000
  7
STANDARD
  0
ENDBLK
  5
521
100
AcDbEntity
  8
MAIN0
  6
CONTINUOUS
 62
3
100
AcDbBlockEnd
  0
BLOCK
  5
523
100
AcDbEntity
  8
MAIN0
  6
CONTINUOUS
 62
3
100
AcDbBlockBegin
  2
*D55
 70
    65
 10
0.0
 20
0.0
 30
0.0
  0
LINE
  5
524
100
AcDbEntity
  8
MAIN0
  6
BYBLOCK
 62
0
100
AcDbLine
 10
493.5652822084601
 20
574.7784517233378
 30
0.0000000000000000
 11
535.7379815460542
 21
574.7784517233378
 31
0.0000000000000000
  0
LINE
  5
525
100
AcDbEntity
  8
MAIN0
  6
BYBLOCK
 62
0
100
AcDbLine
 10
530.7379815460542
 20
579.7784517233378
 30
0.0000000000000000
 11
530.7379815460542
 21
649.7784517231361
 31
0.0000000000000000
  0
INSERT
  5
526
100
AcDbEntity
  8
MAIN0
  6
BYBLOCK
 62
0
100
AcDbBlockReference
  2
_OPEN
 10
530.7379815460542
 20
574.7784517233378
 30
0.0000000000000000
 41
5.000000000000000
 42
5.000000000000000
 43
5.000000000000000
 50
270.0000000000000
  0
INSERT
  5
527
100
AcDbEntity
  8
MAIN0
  6
BYBLOCK
 62
0
100
AcDbBlockReference
  2
_OPEN
 10
530.7379815460542
 20
654.7784517231361
 30
0.0000000000000000
 41
5.000000000000000
 42
5.000000000000000
 43
5.000000000000000
 50
90.00000000000000
  0
LINE
  5
528
100
AcDbEntity
  8
MAIN0
  6
BYBLOCK
 62
0
100
AcDbLine
 10
493.5652822085679
 20
654.7784517231361
 30
0.0000000000000000
 11
535.7379815460542
 21
654.7784517231361
 31
0.0000000000000000
  0
MTEXT
  5
529
100
AcDbEntity
  8
MAIN0
  6
BYBLOCK
 62
0
100
AcDbMText
 10
526.3629816652635
 20
614.7784517232369
 30
0.0000000000000000
 40
7.749999761581421
 41
0.0000000000000000
 71
     5
 72
     1
  1
\A1;80
 11
6.123233995736766e-017
 21
1.000000000000000
 31
0.0000000000000000
  7
STANDARD
  0
ENDBLK
  5
52A
100
AcDbEntity
  8
MAIN0
  6
CONTINUOUS
 62
3
100
AcDbBlockEnd
  0
ENDSEC
  0
SECTION
  2
ENTITIES
  0
LEADER
  5
46
100
AcDbEntity
  8
MAIN0
  6
CONTINUOUS
 62
3
100
AcDbLeader
  3
MAIN001
 73
     0
 75
     1
 40
7.749999761581421
 41
49.59900142455098
 76
     3
 10
308.1191288939092
 20
410.4790121615455
 30
0.0000000000000000
 10
279.6956392957417
 20
478.7859803316582
 30
0.0000000000000000
 10
274.8796394352165
 20
478.7859803316582
 30
0.0000000000000000
340
47
213
0.0000000000000000
223
-1.250000000000000
233
0.0000000000000000
1001
ACAD
1000
DSTYLE
1002
{
1070
   147
1040
0.0
1070
    77
1070
     1
1070
   173
1070
     1
1070
     6
1000
_OPEN
1070
     7
1000
_OPEN
1002
}
  0
MTEXT
  5
47
102
{ACAD_REACTORS
330
46
102
}
100
AcDbEntity
  8
MAIN0
  6
CONTINUOUS
 62
3
100
AcDbMText
 10
225.2806380106655
 20
487.7859800932396
 30
0.0000000000000000
 40
7.749999761581421
 41
0.0000000000000000
 71
     1
 72
     1
  1
{\H0.93x;{2×2-M10}}
 11
1.000000000000000
 21
0.0000000000000000
 31
0.0000000000000000
  7
KNJYOKO
  0
LEADER
  5
48
100
AcDbEntity
  8
MAIN0
  6
CONTINUOUS
 62
3
100
AcDbLeader
  3
MAIN001
 73
     0
 74
     0
 75
     1
 40
7.749999761581421
 41
49.60100142455110
 76
     3
 10
563.8715661423136
 20
326.5151929601341
 30
0.0000000000000000
 10
590.8566143535792
 20
395.0627223743969
 30
0.0000000000000000
 10
595.6706142141043
 20
395.0627223743969
 30
0.0000000000000000
340
49
213
-0.001000000000090040
223
-1.250000000000000
233
0.0000000000000000
1001
ACAD
1000
DSTYLE
1002
{
1070
   147
1040
0.0
1070
    77
1070
     1
1070
   173
1070
     1
1070
     6
1000
_OPEN
1070
     7
1000
_OPEN
1002
}
  0
MTEXT
  5
49
102
{ACAD_REACTORS
330
48
102
}
100
AcDbEntity
  8
MAIN0
  6
CONTINUOUS
 62
3
100
AcDbMText
 10
595.6716142141044
 20
404.0627221359783
 30
0.0000000000000000
 40
7.749999761581421
 41
0.0000000000000000
 71
     1
 72
     1
  1
{\H0.93x;{2×2-M10}}
 11
1.000000000000000
 21
0.0000000000000000
 31
0.0000000000000000
  7
KNJYOKO
  0
LEADER
  5
4A
100
AcDbEntity
  8
MAIN0
  6
CONTINUOUS
 62
3
100
AcDbLeader
  3
MAIN001
 73
     0
 75
     1
 40
7.749999761581421
 41
72.24900202655789
 76
     3
 10
459.1961444108805
 20
619.7067225966245
 30
0.0000000000000000
 10
445.1426736657911
 20
701.7784517232998
 30
0.0000000000000000
 10
440.3266738052660
 20
701.7784517232998
 30
0.0000000000000000
340
4B
213
0.0000000000000000
223
-1.250000000000000
233
0.0000000000000000
1001
ACAD
1000
DSTYLE
1002
{
1070
   147
1040
0.0
1070
    77
1070
     1
1070
   173
1070
     1
1070
     6
1000
_OPEN
1070
     7
1000
_OPEN
1002
}
  0
MTEXT
  5
4B
102
{ACAD_REACTORS
330
4A
102
}
100
AcDbEntity
  8
MAIN0
  6
CONTINUOUS
 62
3
100
AcDbMText
 10
368.0776717787081
 20
710.7784514848812
 30
0.0000000000000000
 40
7.749999761581421
 41
0.0000000000000000
 71
     1
 72
     1
  1
{\H0.93x;{ M10\P（吊りボルト用）\P（EYE BOLT）}}
 11
1.000000000000000
 21
0.0000000000000000
 31
0.0000000000000000
  7
KNJYOKO
  0
LEADER
  5
4C
100
AcDbEntity
  8
MAIN0
  6
CONTINUOUS
 62
3
100
AcDbLeader
  3
MAIN001
 73
     0
 75
     1
 40
7.749999761581421
 41
72.24900202655789
 76
     3
 10
309.2287809640385
 20
619.7121999761049
 30
0.0000000000000000
 10
295.7347141168292
 20
701.7784517235011
 30
0.0000000000000000
 10
290.9187142563040
 20
701.7784517235011
 30
0.0000000000000000
340
4D
213
0.0000000000000000
223
-1.250000000000000
233
0.0000000000000000
1001
ACAD
1000
DSTYLE
1002
{
1070
   147
1040
0.0
1070
    77
1070
     1
1070
   173
1070
     1
1070
     6
1000
_OPEN
1070
     7
1000
_OPEN
1002
}
  0
MTEXT
  5
4D
102
{ACAD_REACTORS
330
4C
102
}
100
AcDbEntity
  8
MAIN0
  6
CONTINUOUS
 62
3
100
AcDbMText
 10
218.6697122297462
 20
710.7784514850825
 30
0.0000000000000000
 40
7.749999761581421
 41
0.0000000000000000
 71
     1
 72
     1
  1
{\H0.93x;{　M10\P（吊りボルト用）\P（EYE BOLT）}}
 11
1.000000000000000
 21
0.0000000000000000
 31
0.0000000000000000
  7
KNJYOKO
  0
LINE
  5
4E
100
AcDbEntity
  8
MAIN0
  6
CENTER
 62
3
100
AcDbLine
 10
730.7294890302272
 20
330.8627223726270
 30
0.0000000000000000
 11
647.7111040224942
 21
330.8627223726270
 31
0.0000000000000000
  0
LINE
  5
4F
100
AcDbEntity
  8
MAIN0
  6
CONTINUOUS
 62
3
100
AcDbLine
 10
691.0400319627242
 20
298.8627223727893
 30
0.0000000000000000
 11
691.0400319627886
 21
365.8627223726274
 31
0.0000000000000000
  0
LINE
  5
50
100
AcDbEntity
  8
MAIN0
  6
CONTINUOUS
 62
3
100
AcDbLine
 10
693.0400319627097
 20
298.8627223727966
 30
0.0000000000000000
 11
693.0400319629185
 21
365.8627223726277
 31
0.0000000000000000
  0
LINE
  5
51
100
AcDbEntity
  8
MAIN0
  6
CONTINUOUS
 62
3
100
AcDbLine
 10
678.0400319630058
 20
293.3627223726270
 30
0.0000000000000000
 11
673.0086589268802
 21
293.3627223726270
 31
0.0000000000000000
  0
LINE
  5
52
100
AcDbEntity
  8
MAIN0
  6
CONTINUOUS
 62
3
100
AcDbLine
 10
672.0400319625393
 20
294.8627223746041
 30
0.0000000000000000
 11
672.0400319628315
 21
365.8627223743478
 31
0.0000000000000000
  0
LINE
  5
53
100
AcDbEntity
  8
MAIN0
  6
CONTINUOUS
 62
3
100
AcDbLine
 10
301.0400319624017
 20
358.8627223741109
 30
0.0000000000000000
 11
301.0400319623963
 21
365.8627223741108
 31
0.0000000000000000
  0
LINE
  5
54
100
AcDbEntity
  8
MAIN0
  6
CONTINUOUS
 62
3
100
AcDbLine
 10
319.0400319624030
 20
358.8627223741356
 30
0.0000000000000000
 11
319.0400319623976
 21
365.8627223741367
 31
0.0000000000000000
  0
LINE
  5
55
100
AcDbEntity
  8
MAIN0
  6
CONTINUOUS
 62
3
100
AcDbLine
 10
301.0400319624016
 20
358.8627223741108
 30
0.0000000000000000
 11
319.0400319624031
 21
358.8627223741356
 31
0.0000000000000000
  0
LINE
  5
56
100
AcDbEntity
  8
MAIN0
  6
CONTINUOUS
 62
3
100
AcDbLine
 10
301.0400319624007
 20
359.8627223741108
 30
0.0000000000000000
 11
319.0400319624023
 21
359.8627223741356
 31
0.0000000000000000
  0
LINE
  5
57
100
AcDbEntity
  8
MAIN0
  6
CONTINUOUS
 62
3
100
AcDbLine
 10
602.6400319623979
 20
339.7627223723861
 30
0.0000000000000000
 11
640.0400319623980
 21
339.7627223723999
 31
0.0000000000000000
  0
LINE
  5
58
100
AcDbEntity
  8
MAIN0
  6
CONTINUOUS
 62
3
100
AcDbLine
 10
498.0400319623981
 20
337.5627223728827
 30
0.0000000000000000
 11
602.6400319623980
 21
337.5627223728827
 31
0.0000000000000000
  0
LINE
  5
59
100
AcDbEntity
  8
MAIN0
  6
CONTINUOUS
 62
3
100
AcDbLine
 10
267.0400319622873
 20
341.8627223741252
 30
0.0000000000000000
 11
498.0400319623981
 21
341.8627223744666
 31
0.0000000000000000
  0
CIRCLE
  5
5A
100
AcDbEntity
  8
MAIN0
  6
CONTINUOUS
 62
3
100
AcDbCircle
 10
562.0400319626893
 20
321.8627223746423
 30
0.0000000000000000
 40
5.000000000000000
  0
CIRCLE
  5
5B
100
AcDbEntity
  8
MAIN0
  6
CONTINUOUS
 62
3
100
AcDbCircle
 10
562.0400319626893
 20
321.8627223746423
 30
0.0000000000000000
 40
4.250000000000000
  0
LINE
  5
5C
100
AcDbEntity
  8
MAIN0
  6
CENTER
 62
3
100
AcDbLine
 10
562.0400319626893
 20
328.8627223746423
 30
0.0000000000000000
 11
562.0400319626893
 21
314.8627223746423
 31
0.0000000000000000
  0
LINE
  5
5D
100
AcDbEntity
  8
MAIN0
  6
CENTER
 62
3
100
AcDbLine
 10
569.0400319626893
 20
321.8627223746423
 30
0.0000000000000000
 11
555.0400319626893
 21
321.8627223746423
 31
0.0000000000000000
  0
CIRCLE
  5
5E
100
AcDbEntity
  8
MAIN0
  6
CONTINUOUS
 62
3
100
AcDbCircle
 10
342.0400319622906
 20
321.8627223745848
 30
0.0000000000000000
 40
5.000000000000000
  0
CIRCLE
  5
5F
100
AcDbEntity
  8
MAIN0
  6
CONTINUOUS
 62
3
100
AcDbCircle
 10
342.0400319622906
 20
321.8627223745848
 30
0.0000000000000000
 40
4.250000000000000
  0
LINE
  5
60
100
AcDbEntity
  8
MAIN0
  6
CENTER
 62
3
100
AcDbLine
 10
342.0400319622906
 20
328.8627223745848
 30
0.0000000000000000
 11
342.0400319622906
 21
314.8627223745848
 31
0.0000000000000000
  0
LINE
  5
61
100
AcDbEntity
  8
MAIN0
  6
CENTER
 62
3
100
AcDbLine
 10
349.0400319622906
 20
321.8627223745848
 30
0.0000000000000000
 11
335.0400319622906
 21
321.8627223745848
 31
0.0000000000000000
  0
LINE
  5
62
100
AcDbEntity
  8
MAIN0
  6
CENTER
 62
3
100
AcDbLine
 10
319.4400319623820
 20
385.8627223741107
 30
0.0000000000000000
 11
300.6400319623821
 21
385.8627223741107
 31
0.0000000000000000
  0
LINE
  5
63
100
AcDbEntity
  8
MAIN0
  6
CENTER
 62
3
100
AcDbLine
 10
320.0400319623672
 20
405.8627223741107
 30
0.0000000000000000
 11
300.0400319623672
 21
405.8627223741107
 31
0.0000000000000000
  0
LINE
  5
64
100
AcDbEntity
  8
MAIN0
  6
CENTER
 62
3
100
AcDbLine
 10
310.0400319623821
 20
376.4627223741107
 30
0.0000000000000000
 11
310.0400319623670
 21
415.8627223741107
 31
0.0000000000000000
  0
LINE
  5
65
100
AcDbEntity
  8
MAIN0
  6
CENTER
 62
3
100
AcDbLine
 10
310.0400319631448
 20
625.7784517238680
 30
0.0000000000000000
 11
310.0400319631448
 21
603.7784517238680
 31
0.0000000000000000
  0
CIRCLE
  5
66
100
AcDbEntity
  8
MAIN0
  6
CONTINUOUS
 62
3
100
AcDbCircle
 10
364.0400319623976
 20
614.7784517234090
 30
0.0000000000000000
 40
3.000000000000000
  0
LINE
  5
67
100
AcDbEntity
  8
MAIN0
  6
CENTER
 62
3
100
AcDbLine
 10
364.0400319623976
 20
623.7784517234090
 30
0.0000000000000000
 11
364.0400319623976
 21
605.7784517234090
 31
0.0000000000000000
  0
LINE
  5
68
100
AcDbEntity
  8
MAIN0
  6
CENTER
 62
3
100
AcDbLine
 10
460.0400319623974
 20
625.7784517233470
 30
0.0000000000000000
 11
460.0400319623974
 21
603.7784517233470
 31
0.0000000000000000
  0
LINE
  5
69
100
AcDbEntity
  8
MAIN0
  6
CONTINUOUS
 62
3
100
AcDbLine
 10
498.0400319624536
 20
682.2784517232281
 30
0.0000000000000000
 11
570.0400319630317
 21
682.2784517231311
 31
0.0000000000000000
  0
LINE
  5
6A
100
AcDbEntity
  8
MAIN0
  6
CONTINUOUS
 62
3
100
AcDbLine
 10
498.0400319623412
 20
547.2784517232281
 30
0.0000000000000000
 11
570.0400319627263
 21
547.2784517231311
 31
0.0000000000000000
  0
LINE
  5
6B
100
AcDbEntity
  8
MAIN0
  6
CONTINUOUS
 62
3
100
AcDbLine
 10
602.6400319624673
 20
548.7784517230874
 30
0.0000000000000000
 11
602.6400319625259
 21
680.7784517230874
 31
0.0000000000000000
  0
LINE
  5
6C
100
AcDbEntity
  8
MAIN0
  6
CONTINUOUS
 62
3
100
AcDbLine
 10
570.0400319630280
 20
680.7784517231312
 30
0.0000000000000000
 11
602.6400319625259
 21
680.7784517230873
 31
0.0000000000000000
  0
LINE
  5
6D
100
AcDbEntity
  8
MAIN0
  6
CONTINUOUS
 62
3
100
AcDbLine
 10
570.0400319627296
 20
548.7784517231313
 30
0.0000000000000000
 11
602.6400319624673
 21
548.7784517230874
 31
0.0000000000000000
  0
LINE
  5
6E
100
AcDbEntity
  8
MAIN0
  6
CONTINUOUS
 62
3
100
AcDbLine
 10
570.0400319627264
 20
547.2784517231312
 30
0.0000000000000000
 11
570.0400319630318
 21
682.2784517231313
 31
0.0000000000000000
  0
LINE
  5
6F
100
AcDbEntity
  8
MAIN0
  6
CONTINUOUS
 62
3
100
AcDbLine
 10
640.0400319622719
 20
550.2784517230369
 30
0.0000000000000000
 11
640.0400319621750
 21
679.2784517230368
 31
0.0000000000000000
  0
LINE
  5
70
100
AcDbEntity
  8
MAIN0
  6
CONTINUOUS
 62
3
100
AcDbLine
 10
602.6400319625252
 20
679.2784517230871
 30
0.0000000000000000
 11
640.0400319621749
 21
679.2784517230367
 31
0.0000000000000000
  0
LINE
  5
71
100
AcDbEntity
  8
MAIN0
  6
CONTINUOUS
 62
3
100
AcDbLine
 10
602.6400319624681
 20
550.2784517230872
 30
0.0000000000000000
 11
640.0400319622717
 21
550.2784517230368
 31
0.0000000000000000
  0
LINE
  5
72
100
AcDbEntity
  8
MAIN0
  6
CONTINUOUS
 62
3
100
AcDbLine
 10
640.0400319621759
 20
677.7784517230368
 30
0.0000000000000000
 11
672.0400319633887
 21
677.7784517229936
 31
0.0000000000000000
  0
LINE
  5
73
100
AcDbEntity
  8
MAIN0
  6
CONTINUOUS
 62
3
100
AcDbLine
 10
640.0400319622705
 20
551.7784517230368
 30
0.0000000000000000
 11
672.0400319631523
 21
551.7784517229937
 31
0.0000000000000000
  0
LINE
  5
74
100
AcDbEntity
  8
MAIN0
  6
CONTINUOUS
 62
3
100
AcDbLine
 10
675.0400319633424
 20
652.2784517229898
 30
0.0000000000000000
 11
678.0400319623064
 21
652.2784517229857
 31
0.0000000000000000
  0
LINE
  5
75
100
AcDbEntity
  8
MAIN0
  6
CONTINUOUS
 62
3
100
AcDbLine
 10
675.0400319631987
 20
577.2784517229896
 30
0.0000000000000000
 11
678.0400319623711
 21
577.2784517229857
 31
0.0000000000000000
  0
LINE
  5
76
100
AcDbEntity
  8
MAIN0
  6
CONTINUOUS
 62
3
100
AcDbLine
 10
678.0400319623711
 20
577.2784517229859
 30
0.0000000000000000
 11
678.0400319623063
 21
652.2784517229857
 31
0.0000000000000000
  0
LINE
  5
77
100
AcDbEntity
  8
MAIN0
  6
CONTINUOUS
 62
3
100
AcDbLine
 10
672.0400319631524
 20
551.7784517229939
 30
0.0000000000000000
 11
672.0400319632397
 21
598.3155397024821
 31
0.0000000000000000
  0
LINE
  5
78
100
AcDbEntity
  8
MAIN0
  6
CONTINUOUS
 62
3
100
AcDbLine
 10
672.0400319633014
 20
631.2413637400405
 30
0.0000000000000000
 11
672.0400319633887
 21
677.7784517229939
 31
0.0000000000000000
  0
LINE
  5
79
100
AcDbEntity
  8
MAIN0
  6
CONTINUOUS
 62
3
100
AcDbLine
 10
703.0400319617091
 20
576.3784517230317
 30
0.0000000000000000
 11
703.0400319616178
 21
653.1784517230312
 31
0.0000000000000000
  0
LINE
  5
7A
100
AcDbEntity
  8
MAIN0
  6
CONTINUOUS
 62
3
100
AcDbLine
 10
702.4400319616631
 20
575.7784517229854
 30
0.0000000000000000
 11
693.0400319616634
 21
575.7784517229854
 31
0.0000000000000000
  0
LINE
  5
7B
100
AcDbEntity
  8
MAIN0
  6
CONTINUOUS
 62
3
100
AcDbLine
 10
691.0400319616949
 20
577.7784517229859
 30
0.0000000000000000
 11
693.0400319616633
 21
575.7784517229854
 31
0.0000000000000000
  0
LINE
  5
7C
100
AcDbEntity
  8
MAIN0
  6
CONTINUOUS
 62
3
100
AcDbLine
 10
702.4400319616632
 20
575.7784517229850
 30
0.0000000000000000
 11
703.0400319616632
 21
576.3784517229851
 31
0.0000000000000000
  0
LINE
  5
7D
100
AcDbEntity
  8
MAIN0
  6
CONTINUOUS
 62
3
100
AcDbLine
 10
702.4400319616630
 20
653.7784517229854
 30
0.0000000000000000
 11
693.0400319616633
 21
653.7784517229854
 31
0.0000000000000000
  0
LINE
  5
7E
100
AcDbEntity
  8
MAIN0
  6
CONTINUOUS
 62
3
100
AcDbLine
 10
691.0400319616947
 20
651.7784517229846
 30
0.0000000000000000
 11
693.0400319616630
 21
653.7784517229852
 31
0.0000000000000000
  0
LINE
  5
7F
100
AcDbEntity
  8
MAIN0
  6
CONTINUOUS
 62
3
100
AcDbLine
 10
702.4400319616630
 20
653.7784517229858
 30
0.0000000000000000
 11
703.0400319616631
 21
653.1784517229858
 31
0.0000000000000000
  0
LINE
  5
80
100
AcDbEntity
  8
MAIN0
  6
CONTINUOUS
 62
3
100
AcDbLine
 10
678.0400319623756
 20
651.7784517229856
 30
0.0000000000000000
 11
691.0400319616950
 21
651.7784517229856
 31
0.0000000000000000
  0
LINE
  5
81
100
AcDbEntity
  8
MAIN0
  6
CONTINUOUS
 62
3
100
AcDbLine
 10
678.0400319623017
 20
577.7784517229854
 30
0.0000000000000000
 11
691.0400319616955
 21
577.7784517229854
 31
0.0000000000000000
  0
LINE
  5
82
100
AcDbEntity
  8
MAIN0
  6
CONTINUOUS
 62
3
100
AcDbLine
 10
722.0400319616634
 20
639.7784517229857
 30
0.0000000000000000
 11
703.0400319616639
 21
639.7784517229857
 31
0.0000000000000000
  0
LINE
  5
83
100
AcDbEntity
  8
MAIN0
  6
CONTINUOUS
 62
3
100
AcDbLine
 10
722.0400319616634
 20
639.7784517229859
 30
0.0000000000000000
 11
722.0400319616633
 21
589.7784517229858
 31
0.0000000000000000
  0
LINE
  5
84
100
AcDbEntity
  8
MAIN0
  6
CONTINUOUS
 62
3
100
AcDbLine
 10
722.0400319616634
 20
589.7784517229856
 30
0.0000000000000000
 11
703.0400319616639
 21
589.7784517229856
 31
0.0000000000000000
  0
LINE
  5
85
100
AcDbEntity
  8
MAIN0
  6
CONTINUOUS
 62
3
100
AcDbLine
 10
703.0400319616833
 20
597.5738011859826
 30
0.0000000000000000
 11
693.0400319617321
 21
597.5738011860249
 31
0.0000000000000000
  0
LINE
  5
86
100
AcDbEntity
  8
MAIN0
  6
CONTINUOUS
 62
3
100
AcDbLine
 10
691.0400319617567
 20
602.7784517190644
 30
0.0000000000000000
 11
678.0400319623262
 21
602.7784517190869
 31
0.0000000000000000
  0
LINE
  5
87
100
AcDbEntity
  8
MAIN0
  6
CONTINUOUS
 62
3
100
AcDbLine
 10
691.0400319617265
 20
626.7784517271812
 30
0.0000000000000000
 11
678.0400319623504
 21
626.7784517271423
 31
0.0000000000000000
  0
LINE
  5
88
100
AcDbEntity
  8
MAIN0
  6
CONTINUOUS
 62
3
100
AcDbLine
 10
703.0400319616432
 20
631.9831022599831
 30
0.0000000000000000
 11
693.0400319616905
 21
631.9831022599728
 31
0.0000000000000000
  0
LINE
  5
89
100
AcDbEntity
  8
MAIN0
  6
CONTINUOUS
 62
3
100
AcDbLine
 10
691.0400319617263
 20
626.7784517271809
 30
0.0000000000000000
 11
693.0400319616898
 21
631.9831022599726
 31
0.0000000000000000
  0
LINE
  5
8A
100
AcDbEntity
  8
MAIN0
  6
CONTINUOUS
 62
3
100
AcDbLine
 10
691.0400319617564
 20
602.7784517190644
 30
0.0000000000000000
 11
693.0400319617322
 21
597.5738011860249
 31
0.0000000000000000
  0
LINE
  5
8B
100
AcDbEntity
  8
MAIN0
  6
CONTINUOUS
 62
3
100
AcDbLine
 10
693.0400319617588
 20
575.7784517229854
 30
0.0000000000000000
 11
693.0400319617321
 21
597.5738011860249
 31
0.0000000000000000
  0
LINE
  5
8C
100
AcDbEntity
  8
MAIN0
  6
CONTINUOUS
 62
3
100
AcDbLine
 10
693.0400319616900
 20
631.9831022599730
 30
0.0000000000000000
 11
693.0400319616633
 21
653.7784517229857
 31
0.0000000000000000
  0
LINE
  5
8D
100
AcDbEntity
  8
MAIN0
  6
CONTINUOUS
 62
3
100
AcDbLine
 10
691.0400319617878
 20
577.7784517229853
 30
0.0000000000000000
 11
691.0400319617567
 21
602.7784517190644
 31
0.0000000000000000
  0
LINE
  5
8E
100
AcDbEntity
  8
MAIN0
  6
CONTINUOUS
 62
3
100
AcDbLine
 10
691.0400319617268
 20
626.7784517271812
 30
0.0000000000000000
 11
691.0400319616956
 21
651.7784517229854
 31
0.0000000000000000
  0
LINE
  5
8F
100
AcDbEntity
  8
MAIN0
  6
CONTINUOUS
 62
3
100
AcDbLine
 10
678.0400319623504
 20
601.3155397024882
 30
0.0000000000000000
 11
675.0400319632279
 21
601.3155397024764
 31
0.0000000000000000
  0
LINE
  5
90
100
AcDbEntity
  8
MAIN0
  6
CONTINUOUS
 62
3
100
AcDbLine
 10
678.0400319623273
 20
628.2413637400422
 30
0.0000000000000000
 11
675.0400319633091
 21
628.2413637400348
 31
0.0000000000000000
  0
DIMENSION
  5
9A
100
AcDbEntity
  8
MAIN0
  6
CONTINUOUS
 62
3
100
AcDbDimension
  2
*D0
 10
445.0400319623665
 20
280.8627223742806
 30
0.0000000000000000
 11
443.7900319623665
 21
264.7816062255162
 31
0.0000000000000000
 70
160
  3
MAIN001
100
AcDbAlignedDimension
 13
483.0400319623672
 23
275.8627223742676
 33
0.0000000000000000
 14
421.6400319623544
 24
280.8627223742806
 34
0.0000000000000000
 50
90.00000000000000
100
AcDbRotatedDimension
1001
ACAD
1000
DSTYLE
1002
{
1070
   173
1070
     1
1070
     6
1000
_OPEN
1070
     7
1000
_OPEN
1070
    41
1040
5.000000
1070
   287
1070
     0
1002
}
  0
DIMENSION
  5
A2
100
AcDbEntity
  8
MAIN0
  6
CONTINUOUS
 62
3
100
AcDbDimension
  2
*D1
 10
267.0400319623017
 20
309.3627223752417
 30
0.0000000000000000
 11
304.5400319622961
 21
309.8627223752417
 31
0.0000000000000000
 70
32
  3
MAIN001
100
AcDbAlignedDimension
 13
342.0400319622906
 23
314.8627223745848
 33
0.0000000000000000
 14
267.0400319623017
 24
281.2627223740639
 34
0.0000000000000000
100
AcDbRotatedDimension
1001
ACAD
1000
DSTYLE
1002
{
1070
   173
1070
     1
1070
     6
1000
_OPEN
1070
     7
1000
_OPEN
1070
    41
1040
5.000000
1002
}
  0
DIMENSION
  5
AB
100
AcDbEntity
  8
MAIN0
  6
CONTINUOUS
 62
3
100
AcDbDimension
  2
*D2
 10
342.0400319622906
 20
309.3627223752417
 30
0.0000000000000000
 11
452.0400319624900
 21
309.8627223752417
 31
0.0000000000000000
 70
32
  3
MAIN001
100
AcDbAlignedDimension
 13
562.0400319626893
 23
314.8627223746423
 33
0.0000000000000000
 14
342.0400319622906
 24
314.8627223745848
 34
0.0000000000000000
100
AcDbRotatedDimension
1001
ACAD
1000
DSTYLE
1002
{
1070
   173
1070
     1
1070
     6
1000
_OPEN
1070
     7
1000
_OPEN
1070
    41
1040
5.000000
1002
}
  0
DIMENSION
  5
B3
100
AcDbEntity
  8
MAIN0
  6
CONTINUOUS
 62
3
100
AcDbDimension
  2
*D3
 10
562.0400319626893
 20
309.3627223752417
 30
0.0000000000000000
 11
599.5400319625862
 21
309.8627223752417
 31
0.0000000000000000
 70
32
  3
MAIN001
100
AcDbAlignedDimension
 13
637.0400319624831
 23
281.2627223745738
 33
0.0000000000000000
 14
562.0400319626893
 24
314.8627223746423
 34
0.0000000000000000
100
AcDbRotatedDimension
1001
ACAD
1000
DSTYLE
1002
{
1070
   173
1070
     1
1070
     6
1000
_OPEN
1070
     7
1000
_OPEN
1070
    41
1040
5.000000
1002
}
  0
LINE
  5
B4
100
AcDbEntity
  8
MAIN0
  6
CONTINUOUS
 62
3
100
AcDbLine
 10
267.0400319622971
 20
301.8627223752416
 30
0.0000000000000000
 11
525.2900322011089
 21
301.8627223750507
 31
0.0000000000000000
  0
LINE
  5
B5
100
AcDbEntity
  8
MAIN0
  6
CONTINUOUS
 62
3
100
AcDbLine
 10
540.5400319626904
 20
301.8627223750395
 30
0.0000000000000000
 11
637.0400319625680
 21
301.8627223749682
 31
0.0000000000000000
  0
DIMENSION
  5
BF
100
AcDbEntity
  8
MAIN0
  6
CONTINUOUS
 62
3
100
AcDbDimension
  2
*D4
 10
480.0400319623981
 20
387.0627223742861
 30
0.0000000000000000
 11
479.5400319623981
 21
376.4627223743341
 31
0.0000000000000000
 70
32
  3
MAIN001
100
AcDbAlignedDimension
 13
498.0400319623981
 23
365.8627223743821
 33
0.0000000000000000
 14
499.6400319623980
 24
387.0627223742861
 34
0.0000000000000000
 50
90.00000000000000
100
AcDbRotatedDimension
1001
ACAD
1000
DSTYLE
1002
{
1070
   173
1070
     1
1070
     6
1000
_OPEN
1070
     7
1000
_OPEN
1070
    41
1040
5.000000
1070
   287
1070
     0
1002
}
  0
DIMENSION
  5
CA
100
AcDbEntity
  8
MAIN0
  6
CONTINUOUS
 62
3
100
AcDbDimension
  2
*D5
 10
267.0400319622830
 20
459.8627223741712
 30
0.0000000000000000
 11
257.8745460606893
 21
461.1127223741712
 31
0.0000000000000000
 70
160
  3
MAIN001
100
AcDbAlignedDimension
 13
268.0400319623981
 23
415.6627223741104
 33
0.0000000000000000
 14
267.0400319622833
 24
364.8627223740634
 34
0.0000000000000000
100
AcDbRotatedDimension
1001
ACAD
1000
DSTYLE
1002
{
1070
   173
1070
     1
1070
     6
1000
_OPEN
1070
     7
1000
_OPEN
1070
    41
1040
5.000000
1070
   287
1070
     0
1002
}
  0
DIMENSION
  5
D3
100
AcDbEntity
  8
MAIN0
  6
CONTINUOUS
 62
3
100
AcDbDimension
  2
*D6
 10
268.0400319623983
 20
459.8627223741712
 30
0.0000000000000000
 11
310.0400319623982
 21
460.3627223741712
 31
0.0000000000000000
 70
32
  3
MAIN001
100
AcDbAlignedDimension
 13
352.0400319623980
 23
415.3627223741109
 33
0.0000000000000000
 14
268.0400319623981
 24
415.6627223741104
 34
0.0000000000000000
100
AcDbRotatedDimension
1001
ACAD
1000
DSTYLE
1002
{
1070
   173
1070
     1
1070
     6
1000
_OPEN
1070
     7
1000
_OPEN
1070
    41
1040
5.000000
1002
}
  0
DIMENSION
  5
DC
100
AcDbEntity
  8
MAIN0
  6
CONTINUOUS
 62
3
100
AcDbDimension
  2
*D7
 10
352.0400319623980
 20
459.8627223741712
 30
0.0000000000000000
 11
387.0400319623980
 21
460.3627223741712
 31
0.0000000000000000
 70
32
  1
\A1;MAX 204
  3
MAIN001
100
AcDbAlignedDimension
 13
422.0400319623980
 23
415.6627223741806
 33
0.0000000000000000
 14
352.0400319623980
 24
415.3627223741109
 34
0.0000000000000000
100
AcDbRotatedDimension
1001
ACAD
1000
DSTYLE
1002
{
1070
   173
1070
     1
1070
     6
1000
_OPEN
1070
     7
1000
_OPEN
1070
    41
1040
5.000000
1002
}
  0
DIMENSION
  5
E5
100
AcDbEntity
  8
MAIN0
  6
CONTINUOUS
 62
1
100
AcDbDimension
  2
*D8
 10
422.0400319623980
 20
459.8627223741712
 30
0.0000000000000000
 11
460.0400319623979
 21
460.3627223741712
 31
0.0000000000000000
 70
32
  3
MAIN001
100
AcDbAlignedDimension
 13
498.0400319623977
 23
415.3627223741806
 33
0.0000000000000000
 14
422.0400319623980
 24
415.6627223741806
 34
0.0000000000000000
100
AcDbRotatedDimension
1001
ACAD
1000
DSTYLE
1002
{
1070
   173
1070
     1
1070
     6
1000
_OPEN
1070
     7
1000
_OPEN
1070
    41
1040
5.000000
1002
}
  0
DIMENSION
  5
EE
100
AcDbEntity
  8
MAIN0
  6
CONTINUOUS
 62
3
100
AcDbDimension
  2
*D9
 10
310.0400319623672
 20
441.8627223741108
 30
0.0000000000000000
 11
331.0400319623825
 21
442.3627223741108
 31
0.0000000000000000
 70
32
  3
MAIN001
100
AcDbAlignedDimension
 13
352.0400319623980
 23
415.3627223741109
 33
0.0000000000000000
 14
310.0400319623672
 24
415.8627223741107
 34
0.0000000000000000
100
AcDbRotatedDimension
1001
ACAD
1000
DSTYLE
1002
{
1070
   173
1070
     1
1070
     6
1000
_OPEN
1070
     7
1000
_OPEN
1070
    41
1040
5.000000
1002
}
  0
DIMENSION
  5
F7
100
AcDbEntity
  8
MAIN0
  6
CONTINUOUS
 62
3
100
AcDbDimension
  2
*D10
 10
334.0400319623670
 20
415.8627223741107
 30
0.0000000000000000
 11
332.7900319623670
 21
428.2537200925058
 31
0.0000000000000000
 70
160
  3
MAIN001
100
AcDbAlignedDimension
 13
320.0400319623672
 23
405.8627223741107
 33
0.0000000000000000
 14
351.5400319623979
 24
415.8627223741107
 34
0.0000000000000000
 50
90.00000000000000
100
AcDbRotatedDimension
1001
ACAD
1000
DSTYLE
1002
{
1070
   173
1070
     1
1070
     6
1000
_DOT
1070
     7
1000
_OPEN
1070
    41
1040
5.000000
1070
   287
1070
     0
1002
}
  0
DIMENSION
  5
101
100
AcDbEntity
  8
MAIN0
  6
CONTINUOUS
 62
3
100
AcDbDimension
  2
*D11
 10
334.0400319623670
 20
405.8627223741107
 30
0.0000000000000000
 11
333.5400319623670
 21
395.8627223741107
 31
0.0000000000000000
 70
32
  3
MAIN001
100
AcDbAlignedDimension
 13
319.4400319623820
 23
385.8627223741107
 33
0.0000000000000000
 14
320.0400319623672
 24
405.8627223741107
 34
0.0000000000000000
 50
90.00000000000000
100
AcDbRotatedDimension
1001
ACAD
1000
DSTYLE
1002
{
1070
   173
1070
     1
1070
     6
1000
_OPEN
1070
     7
1000
_DOT
1070
    41
1040
5.000000
1070
   287
1070
     0
1002
}
  0
DIMENSION
  5
10A
100
AcDbEntity
  8
MAIN0
  6
CONTINUOUS
 62
3
100
AcDbDimension
  2
*D12
 10
422.0400319623462
 20
514.7937868396077
 30
0.0000000000000000
 11
441.0400319623718
 21
515.2937868396077
 31
0.0000000000000000
 70
32
  3
MAIN001
100
AcDbAlignedDimension
 13
460.0400319623974
 23
603.7784517233470
 33
0.0000000000000000
 14
422.0400319623462
 24
552.8784517233511
 34
0.0000000000000000
100
AcDbRotatedDimension
1001
ACAD
1000
DSTYLE
1002
{
1070
   173
1070
     1
1070
     6
1000
_OPEN
1070
     7
1000
_OPEN
1070
    41
1040
5.000000
1002
}
  0
LINE
  5
10B
100
AcDbEntity
  8
MAIN0
  6
CONTINUOUS
 62
3
100
AcDbLine
 10
894.3870444250227
 20
301.8627223747760
 30
0.0000000000000000
 11
894.3870444250227
 21
341.8627223747764
 31
0.0000000000000000
  0
LINE
  5
10C
100
AcDbEntity
  8
MAIN0
  6
CONTINUOUS
 62
3
100
AcDbLine
 10
888.3870444250231
 20
281.2627223747764
 30
0.0000000000000000
 11
888.3870444250231
 21
300.8627223747759
 31
0.0000000000000000
  0
LINE
  5
10D
100
AcDbEntity
  8
MAIN0
  6
CONTINUOUS
 62
3
100
AcDbLine
 10
894.3870444250227
 20
301.8627223747760
 30
0.0000000000000000
 11
889.3870444250232
 21
301.8627223747760
 31
0.0000000000000000
  0
LINE
  5
10E
100
AcDbEntity
  8
MAIN0
  6
CENTER
 62
3
100
AcDbLine
 10
951.3870444250229
 20
270.3341284293171
 30
0.0000000000000000
 11
951.3870444250232
 21
421.8627223740947
 31
0.0000000000000000
  0
LINE
  5
10F
100
AcDbEntity
  8
MAIN0
  6
CONTINUOUS
 62
3
100
AcDbLine
 10
889.8870444250227
 20
365.8627223747762
 30
0.0000000000000000
 11
919.7870444250215
 21
365.8627223747762
 31
0.0000000000000000
  0
LINE
  5
110
100
AcDbEntity
  8
MAIN0
  6
CONTINUOUS
 62
3
100
AcDbLine
 10
982.9870444250231
 20
365.8627223747762
 30
0.0000000000000000
 11
1012.887044425023
 21
365.8627223747762
 31
0.0000000000000000
  0
LINE
  5
111
100
AcDbEntity
  8
MAIN0
  6
CONTINUOUS
 62
3
100
AcDbLine
 10
889.3870444250230
 20
341.8627223747763
 30
0.0000000000000000
 11
894.3870444250227
 21
341.8627223747763
 31
0.0000000000000000
  0
LINE
  5
112
100
AcDbEntity
  8
MAIN0
  6
CONTINUOUS
 62
3
100
AcDbLine
 10
888.3870444250230
 20
342.8627223747767
 30
0.0000000000000000
 11
889.3870444250231
 21
341.8627223747765
 31
0.0000000000000000
  0
LINE
  5
113
100
AcDbEntity
  8
MAIN0
  6
CONTINUOUS
 62
3
100
AcDbLine
 10
889.3870444250231
 20
301.8627223747763
 30
0.0000000000000000
 11
888.3870444250229
 21
300.8627223747761
 31
0.0000000000000000
  0
LINE
  5
114
100
AcDbEntity
  8
MAIN0
  6
CONTINUOUS
 62
3
100
AcDbLine
 10
888.3870444250232
 20
281.2627223747762
 30
0.0000000000000000
 11
888.7870444250231
 21
280.8627223747762
 31
0.0000000000000000
  0
LINE
  5
115
100
AcDbEntity
  8
MAIN0
  6
CONTINUOUS
 62
3
100
AcDbLine
 10
1008.387044425023
 20
301.8627223747760
 30
0.0000000000000000
 11
1008.387044425023
 21
341.8627223747760
 31
0.0000000000000000
  0
LINE
  5
116
100
AcDbEntity
  8
MAIN0
  6
CONTINUOUS
 62
3
100
AcDbLine
 10
1014.387044425023
 20
281.2627223747758
 30
0.0000000000000000
 11
1014.387044425023
 21
300.8627223747757
 31
0.0000000000000000
  0
LINE
  5
117
100
AcDbEntity
  8
MAIN0
  6
CONTINUOUS
 62
3
100
AcDbLine
 10
1008.387044425023
 20
301.8627223747761
 30
0.0000000000000000
 11
1013.387044425023
 21
301.8627223747761
 31
0.0000000000000000
  0
LINE
  5
118
100
AcDbEntity
  8
MAIN0
  6
CONTINUOUS
 62
3
100
AcDbLine
 10
1013.387044425023
 20
341.8627223747760
 30
0.0000000000000000
 11
1008.387044425023
 21
341.8627223747760
 31
0.0000000000000000
  0
LINE
  5
119
100
AcDbEntity
  8
MAIN0
  6
CONTINUOUS
 62
3
100
AcDbLine
 10
1014.387044425023
 20
342.8627223747759
 30
0.0000000000000000
 11
1013.387044425023
 21
341.8627223747757
 31
0.0000000000000000
  0
LINE
  5
11A
100
AcDbEntity
  8
MAIN0
  6
CONTINUOUS
 62
3
100
AcDbLine
 10
1013.387044425023
 20
301.8627223747760
 30
0.0000000000000000
 11
1014.387044425023
 21
300.8627223747761
 31
0.0000000000000000
  0
LINE
  5
11B
100
AcDbEntity
  8
MAIN0
  6
CONTINUOUS
 62
3
100
AcDbLine
 10
1014.387044425023
 20
281.2627223747759
 30
0.0000000000000000
 11
1013.987044425023
 21
280.8627223747760
 31
0.0000000000000000
  0
LINE
  5
11C
100
AcDbEntity
  8
MAIN0
  6
CONTINUOUS
 62
3
100
AcDbLine
 10
1017.687044425023
 20
377.0627223727550
 30
0.0000000000000000
 11
1017.687044425023
 21
337.5627223727550
 31
0.0000000000000000
  0
LINE
  5
11D
100
AcDbEntity
  8
MAIN0
  6
CONTINUOUS
 62
3
100
AcDbLine
 10
1018.887044425023
 20
337.5627223727551
 30
0.0000000000000000
 11
1018.887044425023
 21
385.0627222302973
 31
0.0000000000000000
  0
ARC
  5
11E
100
AcDbEntity
  8
MAIN0
  6
CONTINUOUS
 62
3
100
AcDbCircle
 10
1016.887044425023
 20
385.0627223727551
 30
0.0000000000000000
 40
2.000000000000000
100
AcDbArc
 50
0.0000000000000000
 51
89.99999999942553
  0
LINE
  5
11F
100
AcDbEntity
  8
MAIN0
  6
CONTINUOUS
 62
3
100
AcDbLine
 10
1017.687044425023
 20
337.5627223727551
 30
0.0000000000000000
 11
1018.887044425023
 21
337.5627223727551
 31
0.0000000000000000
  0
LINE
  5
120
100
AcDbEntity
  8
MAIN0
  6
CONTINUOUS
 62
3
100
AcDbLine
 10
980.3870444250227
 20
367.0627223727551
 30
0.0000000000000000
 11
1015.350369383094
 21
367.0627223727551
 31
0.0000000000000000
  0
LINE
  5
121
100
AcDbEntity
  8
MAIN0
  6
CONTINUOUS
 62
3
100
AcDbLine
 10
891.3870444250227
 20
340.9627223727552
 30
0.0000000000000000
 11
888.4870444250229
 21
340.9627223727552
 31
0.0000000000000000
  0
ARC
  5
122
100
AcDbEntity
  8
MAIN0
  6
CONTINUOUS
 62
3
100
AcDbCircle
 10
888.0870444250228
 20
340.9627223727550
 30
0.0000000000000000
 40
1.200000000000000
100
AcDbArc
 50
180.0000000000067
 51
270.0000000000046
  0
ARC
  5
123
100
AcDbEntity
  8
MAIN0
  6
CONTINUOUS
 62
3
100
AcDbCircle
 10
888.0870444250228
 20
365.8627223727551
 30
0.0000000000000000
 40
1.200000000000000
100
AcDbArc
 50
90.00000000000000
 51
180.0000000000000
  0
ARC
  5
124
100
AcDbEntity
  8
MAIN0
  6
CONTINUOUS
 62
3
100
AcDbCircle
 10
888.4870444250227
 20
365.4627223727550
 30
0.0000000000000000
 40
0.4000000000000000
100
AcDbArc
 50
90.00000000000259
 51
180.0000000000000
  0
ARC
  5
125
100
AcDbEntity
  8
MAIN0
  6
CONTINUOUS
 62
3
100
AcDbCircle
 10
888.4870444250227
 20
341.3627223727551
 30
0.0000000000000000
 40
0.4000000000000000
100
AcDbArc
 50
180.0000000000067
 51
269.9999999994322
  0
LINE
  5
126
100
AcDbEntity
  8
MAIN0
  6
CONTINUOUS
 62
3
100
AcDbLine
 10
891.3870444250227
 20
339.7627223727552
 30
0.0000000000000000
 11
888.0870445958311
 21
339.7627223727552
 31
0.0000000000000000
  0
LINE
  5
127
100
AcDbEntity
  8
MAIN0
  6
CONTINUOUS
 62
3
100
AcDbLine
 10
886.8870444250226
 20
365.8627223727551
 30
0.0000000000000000
 11
886.8870444250229
 21
340.9627223727550
 31
0.0000000000000000
  0
LINE
  5
128
100
AcDbEntity
  8
MAIN0
  6
CONTINUOUS
 62
3
100
AcDbLine
 10
891.3870444250227
 20
340.9627223727552
 30
0.0000000000000000
 11
891.3870444250227
 21
339.7627223727552
 31
0.0000000000000000
  0
LINE
  5
129
100
AcDbEntity
  8
MAIN0
  6
CONTINUOUS
 62
3
100
AcDbLine
 10
902.0870444250226
 20
365.8627223727550
 30
0.0000000000000000
 11
888.0870444250230
 21
351.8627223727484
 31
0.0000000000000000
  0
LINE
  5
12A
100
AcDbEntity
  8
MAIN0
  6
CONTINUOUS
 62
3
100
AcDbLine
 10
891.3870444250227
 20
338.7627223727552
 30
0.0000000000000000
 11
891.3870444250227
 21
337.5627223727551
 31
0.0000000000000000
  0
LINE
  5
12B
100
AcDbEntity
  8
MAIN0
  6
CONTINUOUS
 62
3
100
AcDbLine
 10
885.3870444250227
 20
375.6627223727550
 30
0.0000000000000000
 11
885.3870444250227
 21
339.5627223727551
 31
0.0000000000000000
  0
LINE
  5
12C
100
AcDbEntity
  8
MAIN0
  6
CONTINUOUS
 62
3
100
AcDbLine
 10
891.3870444250227
 20
338.7627223727552
 30
0.0000000000000000
 11
887.5870444779808
 21
338.7627223727552
 31
0.0000000000000000
  0
LINE
  5
12D
100
AcDbEntity
  8
MAIN0
  6
CONTINUOUS
 62
3
100
AcDbLine
 10
891.3870444250227
 20
337.5627223727553
 30
0.0000000000000000
 11
887.3870444671674
 21
337.5627223727553
 31
0.0000000000000000
  0
ARC
  5
12E
100
AcDbEntity
  8
MAIN0
  6
CONTINUOUS
 62
3
100
AcDbCircle
 10
887.3870444250227
 20
339.5627223727551
 30
0.0000000000000000
 40
2.000000000000000
100
AcDbArc
 50
180.0000000000067
 51
269.9999999994322
  0
ARC
  5
12F
100
AcDbEntity
  8
MAIN0
  6
CONTINUOUS
 62
3
100
AcDbCircle
 10
887.5870444250228
 20
339.7627223727552
 30
0.0000000000000000
 40
1.000000000000000
100
AcDbArc
 50
180.0000000000067
 51
269.9999999994322
  0
ARC
  5
130
100
AcDbEntity
  8
MAIN0
  6
CONTINUOUS
 62
3
100
AcDbCircle
 10
886.7870444250228
 20
375.6627223727550
 30
0.0000000000000000
 40
1.400000000000000
100
AcDbArc
 50
98.21321070173772
 51
180.0000000000000
  0
LINE
  5
131
100
AcDbEntity
  8
MAIN0
  6
CONTINUOUS
 62
3
100
AcDbLine
 10
885.0870444250227
 20
377.0627223727551
 30
0.0000000000000000
 11
885.0870444250228
 21
337.5627223727551
 31
0.0000000000000000
  0
LINE
  5
132
100
AcDbEntity
  8
MAIN0
  6
CONTINUOUS
 62
3
100
AcDbLine
 10
883.8870444250230
 20
337.5627223727549
 30
0.0000000000000000
 11
883.8870444250229
 21
385.0627222302971
 31
0.0000000000000000
  0
ARC
  5
133
100
AcDbEntity
  8
MAIN0
  6
CONTINUOUS
 62
3
100
AcDbCircle
 10
885.8870444250227
 20
385.0627223727551
 30
0.0000000000000000
 40
2.000000000000000
100
AcDbArc
 50
90.00000000057449
 51
180.0000000000000
  0
LINE
  5
134
100
AcDbEntity
  8
MAIN0
  6
CONTINUOUS
 62
3
100
AcDbLine
 10
885.0870444250228
 20
337.5627223727551
 30
0.0000000000000000
 11
883.8870444250227
 21
337.5627223727551
 31
0.0000000000000000
  0
LINE
  5
135
100
AcDbEntity
  8
MAIN0
  6
CONTINUOUS
 62
3
100
AcDbLine
 10
1017.687044425023
 20
377.0627223727552
 30
0.0000000000000000
 11
885.0870444250229
 21
377.0627223727551
 31
0.0000000000000000
  0
LINE
  5
136
100
AcDbEntity
  8
MAIN0
  6
CONTINUOUS
 62
3
100
AcDbLine
 10
1014.687044425093
 20
365.4627223727550
 30
0.0000000000000000
 11
1014.687044425087
 21
341.3627223727549
 31
0.0000000000000000
  0
LINE
  5
137
100
AcDbEntity
  8
MAIN0
  6
CONTINUOUS
 62
3
100
AcDbLine
 10
886.5870444250735
 20
367.0627223727549
 30
0.0000000000000000
 11
886.5870444250772
 21
339.7627223727550
 31
0.0000000000000000
  0
LINE
  5
138
100
AcDbEntity
  8
MAIN0
  6
CONTINUOUS
 62
3
100
AcDbLine
 10
1011.387044425023
 20
340.9627223727552
 30
0.0000000000000000
 11
1014.287044425023
 21
340.9627223727552
 31
0.0000000000000000
  0
ARC
  5
139
100
AcDbEntity
  8
MAIN0
  6
CONTINUOUS
 62
3
100
AcDbCircle
 10
1014.687044425023
 20
340.9627223727550
 30
0.0000000000000000
 40
1.200000000000000
100
AcDbArc
 50
269.9999999999953
 51
359.9999999999934
  0
ARC
  5
13A
100
AcDbEntity
  8
MAIN0
  6
CONTINUOUS
 62
3
100
AcDbCircle
 10
1014.687044425023
 20
365.8627223727551
 30
0.0000000000000000
 40
1.200000000000000
100
AcDbArc
 50
0.0000000000000000
 51
90.00000000000000
  0
ARC
  5
13B
100
AcDbEntity
  8
MAIN0
  6
CONTINUOUS
 62
3
100
AcDbCircle
 10
1014.287044425023
 20
365.4627223727550
 30
0.0000000000000000
 40
0.4000000000000000
100
AcDbArc
 50
0.0000000000000000
 51
89.99999999999740
  0
ARC
  5
13C
100
AcDbEntity
  8
MAIN0
  6
CONTINUOUS
 62
3
100
AcDbCircle
 10
1014.287044425023
 20
341.3627223727551
 30
0.0000000000000000
 40
0.4000000000000000
100
AcDbArc
 50
270.0000000005678
 51
359.9999999999934
  0
LINE
  5
13D
100
AcDbEntity
  8
MAIN0
  6
CONTINUOUS
 62
3
100
AcDbLine
 10
1011.387044425023
 20
339.7627223727552
 30
0.0000000000000000
 11
1014.687044254215
 21
339.7627223727552
 31
0.0000000000000000
  0
LINE
  5
13E
100
AcDbEntity
  8
MAIN0
  6
CONTINUOUS
 62
3
100
AcDbLine
 10
1015.887044425023
 20
365.8627223727551
 30
0.0000000000000000
 11
1015.887044425023
 21
340.9627223727550
 31
0.0000000000000000
  0
LINE
  5
13F
100
AcDbEntity
  8
MAIN0
  6
CONTINUOUS
 62
3
100
AcDbLine
 10
1011.387044425023
 20
340.9627223727550
 30
0.0000000000000000
 11
1011.387044425023
 21
339.7627223727552
 31
0.0000000000000000
  0
LINE
  5
140
100
AcDbEntity
  8
MAIN0
  6
CONTINUOUS
 62
3
100
AcDbLine
 10
1000.687044425023
 20
365.8627223727551
 30
0.0000000000000000
 11
1014.687044425089
 21
351.8627223726817
 31
0.0000000000000000
  0
LINE
  5
141
100
AcDbEntity
  8
MAIN0
  6
CONTINUOUS
 62
3
100
AcDbLine
 10
1011.387044425023
 20
338.7627223727552
 30
0.0000000000000000
 11
1011.387044425023
 21
337.5627223727551
 31
0.0000000000000000
  0
LINE
  5
142
100
AcDbEntity
  8
MAIN0
  6
CONTINUOUS
 62
3
100
AcDbLine
 10
1017.387044425023
 20
375.6627223727550
 30
0.0000000000000000
 11
1017.387044425023
 21
339.5627223727551
 31
0.0000000000000000
  0
LINE
  5
143
100
AcDbEntity
  8
MAIN0
  6
CONTINUOUS
 62
3
100
AcDbLine
 10
1016.187044425023
 20
367.0627223727551
 30
0.0000000000000000
 11
1016.187044425023
 21
339.7627223727552
 31
0.0000000000000000
  0
LINE
  5
144
100
AcDbEntity
  8
MAIN0
  6
CONTINUOUS
 62
3
100
AcDbLine
 10
1011.387044425023
 20
338.7627223727552
 30
0.0000000000000000
 11
1015.187044372065
 21
338.7627223727552
 31
0.0000000000000000
  0
LINE
  5
145
100
AcDbEntity
  8
MAIN0
  6
CONTINUOUS
 62
3
100
AcDbLine
 10
1011.387044425023
 20
337.5627223727551
 30
0.0000000000000000
 11
1015.387044382878
 21
337.5627223727551
 31
0.0000000000000000
  0
ARC
  5
146
100
AcDbEntity
  8
MAIN0
  6
CONTINUOUS
 62
3
100
AcDbCircle
 10
1015.387044425023
 20
339.5627223727551
 30
0.0000000000000000
 40
2.000000000000000
100
AcDbArc
 50
270.0000000005678
 51
359.9999999999934
  0
ARC
  5
147
100
AcDbEntity
  8
MAIN0
  6
CONTINUOUS
 62
3
100
AcDbCircle
 10
1015.187044425023
 20
339.7627223727552
 30
0.0000000000000000
 40
1.000000000000000
100
AcDbArc
 50
270.0000000005678
 51
359.9999999999934
  0
ARC
  5
148
100
AcDbEntity
  8
MAIN0
  6
CONTINUOUS
 62
3
100
AcDbCircle
 10
1015.987044425023
 20
375.6627223727550
 30
0.0000000000000000
 40
1.400000000000000
100
AcDbArc
 50
0.0000000000000000
 51
81.78678929826229
  0
LINE
  5
149
100
AcDbEntity
  8
MAIN0
  6
CONTINUOUS
 62
3
100
AcDbLine
 10
886.5870444250230
 20
367.0627223727553
 30
0.0000000000000000
 11
1016.187044425023
 21
367.0627223727553
 31
0.0000000000000000
  0
LINE
  5
14A
100
AcDbEntity
  8
MAIN0
  6
CONTINUOUS
 62
3
100
AcDbLine
 10
888.8870444250233
 20
387.0627223727551
 30
0.0000000000000000
 11
888.8870444250234
 21
415.8627223740948
 31
0.0000000000000000
  0
LINE
  5
14B
100
AcDbEntity
  8
MAIN0
  6
CONTINUOUS
 62
3
100
AcDbLine
 10
1013.887044425023
 20
387.0627223727551
 30
0.0000000000000000
 11
1013.887044425023
 21
415.8627223740947
 31
0.0000000000000000
  0
LINE
  5
14C
100
AcDbEntity
  8
MAIN0
  6
CONTINUOUS
 62
3
100
AcDbLine
 10
885.8870456370745
 20
387.0627223727549
 30
0.0000000000000000
 11
1016.887043212971
 21
387.0627223727549
 31
0.0000000000000000
  0
LINE
  5
14D
100
AcDbEntity
  8
MAIN0
  6
CONTINUOUS
 62
3
100
AcDbLine
 10
888.8870444250232
 20
415.8627223740947
 30
0.0000000000000000
 11
1013.887044425023
 21
415.8627223740947
 31
0.0000000000000000
  0
LINE
  5
14E
100
AcDbEntity
  8
MAIN0
  6
CONTINUOUS
 62
3
100
AcDbLine
 10
888.4870444250228
 20
365.8627223727553
 30
0.0000000000000000
 11
1014.287043805128
 21
365.8627223727553
 31
0.0000000000000000
  0
LINE
  5
14F
100
AcDbEntity
  8
MAIN0
  6
CONTINUOUS
 62
3
100
AcDbLine
 10
998.3870444250231
 20
365.8627223729964
 30
0.0000000000000000
 11
1014.387044425023
 21
349.8627223729963
 31
0.0000000000000000
  0
LINE
  5
150
100
AcDbEntity
  8
MAIN0
  6
CONTINUOUS
 62
3
100
AcDbLine
 10
895.3870444250234
 20
365.8627223729963
 30
0.0000000000000000
 11
1007.387044425023
 21
365.8627223729963
 31
0.0000000000000000
  0
LINE
  5
151
100
AcDbEntity
  8
MAIN0
  6
CONTINUOUS
 62
3
100
AcDbLine
 10
904.3870444250229
 20
365.8627223729957
 30
0.0000000000000000
 11
888.3870444250230
 21
349.8627223729961
 31
0.0000000000000000
  0
LINE
  5
152
100
AcDbEntity
  8
MAIN0
  6
CONTINUOUS
 62
3
100
AcDbLine
 10
910.6562207150038
 20
291.8627223746627
 30
0.0000000000000000
 11
992.1178681350422
 21
291.8627223746627
 31
0.0000000000000000
  0
LINE
  5
153
100
AcDbEntity
  8
MAIN0
  6
CENTER
 62
3
100
AcDbLine
 10
921.1870444250232
 20
307.3627223729963
 30
0.0000000000000000
 11
900.1870444250232
 21
307.3627223729963
 31
0.0000000000000000
  0
LINE
  5
154
100
AcDbEntity
  8
MAIN0
  6
CENTER
 62
3
100
AcDbLine
 10
910.6870444250232
 20
317.8627223729963
 30
0.0000000000000000
 11
910.6870444250232
 21
296.8627223729963
 31
0.0000000000000000
  0
LINE
  5
155
100
AcDbEntity
  8
MAIN0
  6
CENTER
 62
3
100
AcDbLine
 10
921.1870444250232
 20
354.3627223729963
 30
0.0000000000000000
 11
900.1870444250232
 21
354.3627223729963
 31
0.0000000000000000
  0
LINE
  5
156
100
AcDbEntity
  8
MAIN0
  6
CENTER
 62
3
100
AcDbLine
 10
910.6870444250232
 20
364.8627223729963
 30
0.0000000000000000
 11
910.6870444250232
 21
343.8627223729963
 31
0.0000000000000000
  0
LINE
  5
157
100
AcDbEntity
  8
MAIN0
  6
CENTER
 62
3
100
AcDbLine
 10
1002.587044425023
 20
354.3627223729963
 30
0.0000000000000000
 11
981.5870444250230
 21
354.3627223729963
 31
0.0000000000000000
  0
LINE
  5
158
100
AcDbEntity
  8
MAIN0
  6
CENTER
 62
3
100
AcDbLine
 10
992.0870444250230
 20
364.8627223729963
 30
0.0000000000000000
 11
992.0870444250230
 21
343.8627223729963
 31
0.0000000000000000
  0
LINE
  5
159
100
AcDbEntity
  8
MAIN0
  6
CENTER
 62
3
100
AcDbLine
 10
1002.587044425023
 20
307.3627223729963
 30
0.0000000000000000
 11
981.5870444250230
 21
307.3627223729963
 31
0.0000000000000000
  0
LINE
  5
15A
100
AcDbEntity
  8
MAIN0
  6
CENTER
 62
3
100
AcDbLine
 10
992.0870444250230
 20
317.8627223729963
 30
0.0000000000000000
 11
992.0870444250230
 21
296.8627223729963
 31
0.0000000000000000
  0
ARC
  5
15B
100
AcDbEntity
  8
MAIN0
  6
CONTINUOUS
 62
3
100
AcDbCircle
 10
951.3870444250230
 20
330.8627223729963
 30
0.0000000000000000
 40
37.50000000000000
100
AcDbArc
 50
238.5760935141543
 51
301.4239064858458
  0
ARC
  5
15C
100
AcDbEntity
  8
MAIN0
  6
CONTINUOUS
 62
3
100
AcDbCircle
 10
910.6870444250232
 20
307.3627223729963
 30
0.0000000000000000
 40
8.500000000000000
100
AcDbArc
 50
47.96929745604307
 51
372.0345964210294
  0
ARC
  5
15D
100
AcDbEntity
  8
MAIN0
  6
CONTINUOUS
 62
3
100
AcDbCircle
 10
992.0870444250230
 20
307.3627223729963
 30
0.0000000000000000
 40
8.500000000000000
100
AcDbArc
 50
167.9654035789671
 51
492.0307025439610
  0
ARC
  5
15E
100
AcDbEntity
  8
MAIN0
  6
CONTINUOUS
 62
3
100
AcDbCircle
 10
992.0870444250230
 20
354.3627223729963
 30
0.0000000000000000
 40
8.500000000000000
100
AcDbArc
 50
227.9692974560390
 51
552.0345964210328
  0
ARC
  5
15F
100
AcDbEntity
  8
MAIN0
  6
CONTINUOUS
 62
3
100
AcDbCircle
 10
910.6870444250232
 20
354.3627223729963
 30
0.0000000000000000
 40
8.500000000000000
100
AcDbArc
 50
347.9654035789706
 51
672.0307025439569
  0
LINE
  5
160
100
AcDbEntity
  8
MAIN0
  6
CENTER
 62
3
100
AcDbLine
 10
882.8870444250227
 20
330.8627223730298
 30
0.0000000000000000
 11
1019.887044425023
 21
330.8627223729995
 31
0.0000000000000000
  0
CIRCLE
  5
161
100
AcDbEntity
  8
MAIN0
  6
CONTINUOUS
 62
3
100
AcDbCircle
 10
910.6868504471894
 20
307.3627223727551
 30
0.0000000000000000
 40
8.000000000000000
  0
LINE
  5
162
100
AcDbEntity
  8
MAIN0
  6
CONTINUOUS
 62
3
100
AcDbLine
 10
910.6868504471900
 20
311.9815245262720
 30
0.0000000000000000
 11
906.6868504471897
 21
309.6721234495134
 31
0.0000000000000000
  0
LINE
  5
163
100
AcDbEntity
  8
MAIN0
  6
CONTINUOUS
 62
3
100
AcDbLine
 10
906.6868504471894
 20
309.6721234495137
 30
0.0000000000000000
 11
906.6868504471894
 21
305.0533212959965
 31
0.0000000000000000
  0
LINE
  5
164
100
AcDbEntity
  8
MAIN0
  6
CONTINUOUS
 62
3
100
AcDbLine
 10
906.6868504471895
 20
305.0533212959965
 30
0.0000000000000000
 11
910.6868504471895
 21
302.7439202192380
 31
0.0000000000000000
  0
LINE
  5
165
100
AcDbEntity
  8
MAIN0
  6
CONTINUOUS
 62
3
100
AcDbLine
 10
910.6868504471897
 20
302.7439202192380
 30
0.0000000000000000
 11
914.6868504471900
 21
305.0533212959966
 31
0.0000000000000000
  0
LINE
  5
166
100
AcDbEntity
  8
MAIN0
  6
CONTINUOUS
 62
3
100
AcDbLine
 10
914.6868504471894
 20
305.0533212959965
 30
0.0000000000000000
 11
914.6868504471894
 21
309.6721234495137
 31
0.0000000000000000
  0
LINE
  5
167
100
AcDbEntity
  8
MAIN0
  6
CONTINUOUS
 62
3
100
AcDbLine
 10
914.6868504471895
 20
309.6721234495136
 30
0.0000000000000000
 11
910.6868504471895
 21
311.9815245262720
 31
0.0000000000000000
  0
CIRCLE
  5
168
100
AcDbEntity
  8
MAIN0
  6
CONTINUOUS
 62
3
100
AcDbCircle
 10
910.6868504471894
 20
354.3627223727551
 30
0.0000000000000000
 40
8.000000000000000
  0
LINE
  5
169
100
AcDbEntity
  8
MAIN0
  6
CONTINUOUS
 62
3
100
AcDbLine
 10
910.6868504471896
 20
358.9815245262722
 30
0.0000000000000000
 11
906.6868504471898
 21
356.6721234495138
 31
0.0000000000000000
  0
LINE
  5
16A
100
AcDbEntity
  8
MAIN0
  6
CONTINUOUS
 62
3
100
AcDbLine
 10
906.6868504471894
 20
356.6721234495137
 30
0.0000000000000000
 11
906.6868504471894
 21
352.0533212959965
 31
0.0000000000000000
  0
LINE
  5
16B
100
AcDbEntity
  8
MAIN0
  6
CONTINUOUS
 62
3
100
AcDbLine
 10
906.6868504471896
 20
352.0533212959965
 30
0.0000000000000000
 11
910.6868504471896
 21
349.7439202192380
 31
0.0000000000000000
  0
LINE
  5
16C
100
AcDbEntity
  8
MAIN0
  6
CONTINUOUS
 62
3
100
AcDbLine
 10
910.6868504471896
 20
349.7439202192382
 30
0.0000000000000000
 11
914.6868504471896
 21
352.0533212959967
 31
0.0000000000000000
  0
LINE
  5
16D
100
AcDbEntity
  8
MAIN0
  6
CONTINUOUS
 62
3
100
AcDbLine
 10
914.6868504471894
 20
352.0533212959965
 30
0.0000000000000000
 11
914.6868504471894
 21
356.6721234495137
 31
0.0000000000000000
  0
LINE
  5
16E
100
AcDbEntity
  8
MAIN0
  6
CONTINUOUS
 62
3
100
AcDbLine
 10
914.6868504471896
 20
356.6721234495135
 30
0.0000000000000000
 11
910.6868504471896
 21
358.9815245262720
 31
0.0000000000000000
  0
CIRCLE
  5
16F
100
AcDbEntity
  8
MAIN0
  6
CONTINUOUS
 62
3
100
AcDbCircle
 10
992.0872384028565
 20
354.3627223727551
 30
0.0000000000000000
 40
8.000000000000000
  0
LINE
  5
170
100
AcDbEntity
  8
MAIN0
  6
CONTINUOUS
 62
3
100
AcDbLine
 10
992.0872384028567
 20
358.9815245262722
 30
0.0000000000000000
 11
988.0872384028569
 21
356.6721234495138
 31
0.0000000000000000
  0
LINE
  5
171
100
AcDbEntity
  8
MAIN0
  6
CONTINUOUS
 62
3
100
AcDbLine
 10
988.0872384028565
 20
356.6721234495137
 30
0.0000000000000000
 11
988.0872384028565
 21
352.0533212959965
 31
0.0000000000000000
  0
LINE
  5
172
100
AcDbEntity
  8
MAIN0
  6
CONTINUOUS
 62
3
100
AcDbLine
 10
988.0872384028571
 20
352.0533212959963
 30
0.0000000000000000
 11
992.0872384028568
 21
349.7439202192380
 31
0.0000000000000000
  0
LINE
  5
173
100
AcDbEntity
  8
MAIN0
  6
CONTINUOUS
 62
3
100
AcDbLine
 10
992.0872384028568
 20
349.7439202192382
 30
0.0000000000000000
 11
996.0872384028569
 21
352.0533212959968
 31
0.0000000000000000
  0
LINE
  5
174
100
AcDbEntity
  8
MAIN0
  6
CONTINUOUS
 62
3
100
AcDbLine
 10
996.0872384028565
 20
352.0533212959965
 30
0.0000000000000000
 11
996.0872384028565
 21
356.6721234495137
 31
0.0000000000000000
  0
LINE
  5
175
100
AcDbEntity
  8
MAIN0
  6
CONTINUOUS
 62
3
100
AcDbLine
 10
996.0872384028568
 20
356.6721234495135
 30
0.0000000000000000
 11
992.0872384028569
 21
358.9815245262719
 31
0.0000000000000000
  0
CIRCLE
  5
176
100
AcDbEntity
  8
MAIN0
  6
CONTINUOUS
 62
3
100
AcDbCircle
 10
992.0872384028565
 20
307.3627223727551
 30
0.0000000000000000
 40
8.000000000000000
  0
LINE
  5
177
100
AcDbEntity
  8
MAIN0
  6
CONTINUOUS
 62
3
100
AcDbLine
 10
992.0872384028568
 20
311.9815245262719
 30
0.0000000000000000
 11
988.0872384028570
 21
309.6721234495136
 31
0.0000000000000000
  0
LINE
  5
178
100
AcDbEntity
  8
MAIN0
  6
CONTINUOUS
 62
3
100
AcDbLine
 10
988.0872384028565
 20
309.6721234495137
 30
0.0000000000000000
 11
988.0872384028565
 21
305.0533212959965
 31
0.0000000000000000
  0
LINE
  5
179
100
AcDbEntity
  8
MAIN0
  6
CONTINUOUS
 62
3
100
AcDbLine
 10
988.0872384028565
 20
305.0533212959966
 30
0.0000000000000000
 11
992.0872384028565
 21
302.7439202192381
 31
0.0000000000000000
  0
LINE
  5
17A
100
AcDbEntity
  8
MAIN0
  6
CONTINUOUS
 62
3
100
AcDbLine
 10
992.0872384028570
 20
302.7439202192380
 30
0.0000000000000000
 11
996.0872384028568
 21
305.0533212959964
 31
0.0000000000000000
  0
LINE
  5
17B
100
AcDbEntity
  8
MAIN0
  6
CONTINUOUS
 62
3
100
AcDbLine
 10
996.0872384028565
 20
305.0533212959965
 30
0.0000000000000000
 11
996.0872384028565
 21
309.6721234495137
 31
0.0000000000000000
  0
LINE
  5
17C
100
AcDbEntity
  8
MAIN0
  6
CONTINUOUS
 62
3
100
AcDbLine
 10
996.0872384028565
 20
309.6721234495136
 30
0.0000000000000000
 11
992.0872384028565
 21
311.9815245262721
 31
0.0000000000000000
  0
LINE
  5
17D
100
AcDbEntity
  8
MAIN0
  6
CONTINUOUS
 62
3
100
AcDbLine
 10
968.5916949591194
 20
365.8627223729906
 30
0.0000000000000000
 11
934.1823938909522
 21
365.8627223730031
 31
0.0000000000000000
  0
LINE
  5
17E
100
AcDbEntity
  8
MAIN0
  6
CENTER
 62
3
100
AcDbLine
 10
918.3870444250182
 20
337.6127223729865
 30
0.0000000000000000
 11
918.3870444250182
 21
324.1127223729865
 31
0.0000000000000000
  0
LINE
  5
17F
100
AcDbEntity
  8
MAIN0
  6
CENTER
 62
3
100
AcDbLine
 10
984.3870444250277
 20
337.6127223729865
 30
0.0000000000000000
 11
984.3870444250277
 21
324.1127223729865
 31
0.0000000000000000
  0
LINE
  5
180
100
AcDbEntity
  8
MAIN0
  6
CONTINUOUS
 62
3
100
AcDbLine
 10
929.0935476154149
 20
298.8627223729963
 30
0.0000000000000000
 11
973.6805412346308
 21
298.8627223729963
 31
0.0000000000000000
  0
ARC
  5
181
100
AcDbEntity
  8
MAIN0
  6
CONTINUOUS
 62
3
100
AcDbCircle
 10
951.3870444250230
 20
330.8627223729963
 30
0.0000000000000000
 40
39.00000000000000
100
AcDbArc
 50
304.8638379543034
 51
423.8230478283153
  0
ARC
  5
182
100
AcDbEntity
  8
MAIN0
  6
CONTINUOUS
 62
3
100
AcDbCircle
 10
951.3870444250230
 20
330.8627223729963
 30
0.0000000000000000
 40
39.00000000000000
100
AcDbArc
 50
116.1769521716430
 51
235.1361620456966
  0
CIRCLE
  5
183
100
AcDbEntity
  8
MAIN0
  6
CONTINUOUS
 62
3
100
AcDbCircle
 10
918.3870444250182
 20
330.8627223729865
 30
0.0000000000000000
 40
4.750000000000000
  0
CIRCLE
  5
184
100
AcDbEntity
  8
MAIN0
  6
CONTINUOUS
 62
3
100
AcDbCircle
 10
984.3870444250277
 20
330.8627223729865
 30
0.0000000000000000
 40
4.750000000000000
  0
CIRCLE
  5
185
100
AcDbEntity
  8
MAIN0
  6
CONTINUOUS
 62
3
100
AcDbCircle
 10
918.3870444250182
 20
330.8627223729865
 30
0.0000000000000000
 40
4.250000000000000
  0
LINE
  5
186
100
AcDbEntity
  8
MAIN0
  6
CONTINUOUS
 62
3
100
AcDbLine
 10
918.3870444250185
 20
333.1721234497451
 30
0.0000000000000000
 11
916.3870444250185
 21
332.0174229113658
 31
0.0000000000000000
  0
LINE
  5
187
100
AcDbEntity
  8
MAIN0
  6
CONTINUOUS
 62
3
100
AcDbLine
 10
916.3870444250182
 20
332.0174229113656
 30
0.0000000000000000
 11
916.3870444250182
 21
329.7080218346072
 31
0.0000000000000000
  0
LINE
  5
188
100
AcDbEntity
  8
MAIN0
  6
CONTINUOUS
 62
3
100
AcDbLine
 10
916.3870444250184
 20
329.7080218346071
 30
0.0000000000000000
 11
918.3870444250184
 21
328.5533212962279
 31
0.0000000000000000
  0
LINE
  5
189
100
AcDbEntity
  8
MAIN0
  6
CONTINUOUS
 62
3
100
AcDbLine
 10
918.3870444250185
 20
328.5533212962281
 30
0.0000000000000000
 11
920.3870444250185
 21
329.7080218346074
 31
0.0000000000000000
  0
LINE
  5
18A
100
AcDbEntity
  8
MAIN0
  6
CONTINUOUS
 62
3
100
AcDbLine
 10
920.3870444250182
 20
329.7080218346072
 30
0.0000000000000000
 11
920.3870444250182
 21
332.0174229113656
 31
0.0000000000000000
  0
LINE
  5
18B
100
AcDbEntity
  8
MAIN0
  6
CONTINUOUS
 62
3
100
AcDbLine
 10
920.3870444250184
 20
332.0174229113656
 30
0.0000000000000000
 11
918.3870444250184
 21
333.1721234497448
 31
0.0000000000000000
  0
CIRCLE
  5
18C
100
AcDbEntity
  8
MAIN0
  6
CONTINUOUS
 62
3
100
AcDbCircle
 10
984.3870444250277
 20
330.8627223729865
 30
0.0000000000000000
 40
4.250000000000000
  0
LINE
  5
18D
100
AcDbEntity
  8
MAIN0
  6
CONTINUOUS
 62
3
100
AcDbLine
 10
984.3870444250280
 20
333.1721234497451
 30
0.0000000000000000
 11
982.3870444250281
 21
332.0174229113659
 31
0.0000000000000000
  0
LINE
  5
18E
100
AcDbEntity
  8
MAIN0
  6
CONTINUOUS
 62
3
100
AcDbLine
 10
982.3870444250277
 20
332.0174229113656
 30
0.0000000000000000
 11
982.3870444250277
 21
329.7080218346072
 31
0.0000000000000000
  0
LINE
  5
18F
100
AcDbEntity
  8
MAIN0
  6
CONTINUOUS
 62
3
100
AcDbLine
 10
982.3870444250280
 20
329.7080218346071
 30
0.0000000000000000
 11
984.3870444250281
 21
328.5533212962278
 31
0.0000000000000000
  0
LINE
  5
190
100
AcDbEntity
  8
MAIN0
  6
CONTINUOUS
 62
3
100
AcDbLine
 10
984.3870444250281
 20
328.5533212962281
 30
0.0000000000000000
 11
986.3870444250280
 21
329.7080218346073
 31
0.0000000000000000
  0
LINE
  5
191
100
AcDbEntity
  8
MAIN0
  6
CONTINUOUS
 62
3
100
AcDbLine
 10
986.3870444250277
 20
329.7080218346072
 30
0.0000000000000000
 11
986.3870444250277
 21
332.0174229113656
 31
0.0000000000000000
  0
LINE
  5
192
100
AcDbEntity
  8
MAIN0
  6
CONTINUOUS
 62
3
100
AcDbLine
 10
986.3870444250279
 20
332.0174229113656
 30
0.0000000000000000
 11
984.3870444250280
 21
333.1721234497448
 31
0.0000000000000000
  0
CIRCLE
  5
193
100
AcDbEntity
  8
MAIN0
  6
CONTINUOUS
 62
3
100
AcDbCircle
 10
951.3870444250230
 20
330.8627223729963
 30
0.0000000000000000
 40
25.00000000002711
  0
LINE
  5
194
100
AcDbEntity
  8
MAIN0
  6
CONTINUOUS
 62
3
100
AcDbLine
 10
948.3870444250230
 20
344.5375167041736
 30
0.0000000000000000
 11
948.3870444250230
 21
355.4302314042349
 31
0.0000000000000000
  0
LINE
  5
195
100
AcDbEntity
  8
MAIN0
  6
CONTINUOUS
 62
3
100
AcDbLine
 10
954.3870444250230
 20
344.5375167041736
 30
0.0000000000000000
 11
954.3870444250230
 21
355.4302314042349
 31
0.0000000000000000
  0
LINE
  5
196
100
AcDbEntity
  8
MAIN0
  6
CONTINUOUS
 62
3
100
AcDbLine
 10
944.3870444250224
 20
334.9041742573168
 30
0.0000000000000000
 11
951.3870444250224
 21
338.9456261416581
 31
0.0000000000000000
  0
LINE
  5
197
100
AcDbEntity
  8
MAIN0
  6
CONTINUOUS
 62
3
100
AcDbLine
 10
944.3870444250227
 20
326.8212704886551
 30
0.0000000000000000
 11
944.3870444250227
 21
334.9041742573168
 31
0.0000000000000000
  0
LINE
  5
198
100
AcDbEntity
  8
MAIN0
  6
CONTINUOUS
 62
3
100
AcDbLine
 10
944.3870444250229
 20
326.8212704886553
 30
0.0000000000000000
 11
951.3870444250229
 21
322.7798186043348
 31
0.0000000000000000
  0
LINE
  5
199
100
AcDbEntity
  8
MAIN0
  6
CONTINUOUS
 62
3
100
AcDbLine
 10
958.3870444250230
 20
326.8212704886553
 30
0.0000000000000000
 11
951.3870444250231
 21
322.7798186043348
 31
0.0000000000000000
  0
LINE
  5
19A
100
AcDbEntity
  8
MAIN0
  6
CONTINUOUS
 62
3
100
AcDbLine
 10
958.3870444250229
 20
326.8212704886550
 30
0.0000000000000000
 11
958.3870444250229
 21
334.9041742573167
 31
0.0000000000000000
  0
LINE
  5
19B
100
AcDbEntity
  8
MAIN0
  6
CONTINUOUS
 62
3
100
AcDbLine
 10
958.3870444250232
 20
334.9041742573165
 30
0.0000000000000000
 11
951.3870444250232
 21
338.9456261416578
 31
0.0000000000000000
  0
CIRCLE
  5
19C
100
AcDbEntity
  8
MAIN0
  6
CONTINUOUS
 62
3
100
AcDbCircle
 10
951.3870444250227
 20
330.8627223729963
 30
0.0000000000000000
 40
14.00000000000000
  0
CIRCLE
  5
19D
100
AcDbEntity
  8
MAIN0
  6
CONTINUOUS
 62
3
100
AcDbCircle
 10
951.3870444250227
 20
330.8627223729963
 30
0.0000000000000000
 40
28.00000000000000
  0
LINE
  5
19E
100
AcDbEntity
  8
MAIN0
  6
CONTINUOUS
 62
3
100
AcDbLine
 10
953.0870444250230
 20
302.9143771625906
 30
0.0000000000000000
 11
953.0870444250230
 21
305.9205893446974
 31
0.0000000000000000
  0
LINE
  5
19F
100
AcDbEntity
  8
MAIN0
  6
CONTINUOUS
 62
3
100
AcDbLine
 10
949.6870444250229
 20
302.9143771625906
 30
0.0000000000000000
 11
949.6870444250229
 21
305.9205893446974
 31
0.0000000000000000
  0
LINE
  5
1A0
100
AcDbEntity
  8
MAIN0
  6
CONTINUOUS
 62
3
100
AcDbLine
 10
894.3870444250227
 20
301.8627223747760
 30
0.0000000000000000
 11
894.3870444250227
 21
310.8627223747760
 31
0.0000000000000000
  0
LINE
  5
1A1
100
AcDbEntity
  8
MAIN0
  6
CONTINUOUS
 62
3
100
AcDbLine
 10
888.3870444250227
 20
301.8627223747760
 30
0.0000000000000000
 11
894.3870444250227
 21
301.8627223747760
 31
0.0000000000000000
  0
LINE
  5
1A2
100
AcDbEntity
  8
MAIN0
  6
CONTINUOUS
 62
3
100
AcDbLine
 10
888.3870444250227
 20
290.8627223747760
 30
0.0000000000000000
 11
888.3870444250227
 21
301.8627223747760
 31
0.0000000000000000
  0
LINE
  5
1A3
100
AcDbEntity
  8
MAIN0
  6
CONTINUOUS
 62
3
100
AcDbLine
 10
894.3870444250227
 20
310.8627223747760
 30
0.0000000000000000
 11
817.3870444250227
 21
310.8627223747760
 31
0.0000000000000000
  0
LINE
  5
1A4
100
AcDbEntity
  8
MAIN0
  6
CONTINUOUS
 62
3
100
AcDbLine
 10
888.3870444250227
 20
290.8627223747760
 30
0.0000000000000000
 11
840.8849120095521
 21
290.8627223747760
 31
0.0000000000000000
  0
LINE
  5
1A5
100
AcDbEntity
  8
MAIN0
  6
CONTINUOUS
 62
3
100
AcDbLine
 10
817.3870444250226
 20
310.8627223747757
 30
0.0000000000000000
 11
819.0870444250227
 21
280.8627223747759
 31
0.0000000000000000
  0
LINE
  5
1A6
100
AcDbEntity
  8
MAIN0
  6
CONTINUOUS
 62
3
100
AcDbLine
 10
834.0870444153846
 20
280.8627223747754
 30
0.0000000000000000
 11
834.9760654914823
 21
285.9046114407984
 31
0.0000000000000000
  0
ARC
  5
1A7
100
AcDbEntity
  8
MAIN0
  6
CONTINUOUS
 62
3
100
AcDbCircle
 10
840.8849120095521
 20
284.8627223747760
 30
0.0000000000000000
 40
6.000000000000000
100
AcDbArc
 50
90.00000000000000
 51
169.9999999997949
  0
LINE
  5
1A8
100
AcDbEntity
  8
MAIN0
  6
CONTINUOUS
 62
3
100
AcDbLine
 10
834.0870444153849
 20
280.8627223747760
 30
0.0000000000000000
 11
819.0870444250228
 21
280.8627223747760
 31
0.0000000000000000
  0
LINE
  5
1A9
100
AcDbEntity
  8
MAIN0
  6
CONTINUOUS
 62
3
100
AcDbLine
 10
882.8870444250227
 20
315.8627223747760
 30
0.0000000000000000
 11
847.8870444250227
 21
315.8627223747760
 31
0.0000000000000000
  0
LINE
  5
1AA
100
AcDbEntity
  8
MAIN0
  6
CONTINUOUS
 62
3
100
AcDbLine
 10
882.8870444250227
 20
310.8627223747760
 30
0.0000000000000000
 11
882.8870444250227
 21
315.8627223747760
 31
0.0000000000000000
  0
LINE
  5
1AB
100
AcDbEntity
  8
MAIN0
  6
CONTINUOUS
 62
3
100
AcDbLine
 10
847.8870444250227
 20
310.8627223747760
 30
0.0000000000000000
 11
847.8870444250227
 21
315.8627223747760
 31
0.0000000000000000
  0
LINE
  5
1AC
100
AcDbEntity
  8
MAIN0
  6
CONTINUOUS
 62
3
100
AcDbLine
 10
877.3870444250227
 20
315.8627223747760
 30
0.0000000000000000
 11
877.3870444250227
 21
330.2627223747758
 31
0.0000000000000000
  0
LINE
  5
1AD
100
AcDbEntity
  8
MAIN0
  6
CONTINUOUS
 62
3
100
AcDbLine
 10
877.3870444250229
 20
330.2627223747756
 30
0.0000000000000000
 11
874.6157631329127
 21
331.8627223747757
 31
0.0000000000000000
  0
LINE
  5
1AE
100
AcDbEntity
  8
MAIN0
  6
CONTINUOUS
 62
3
100
AcDbLine
 10
874.6157631329126
 20
331.8627223747760
 30
0.0000000000000000
 11
856.1583257171329
 21
331.8627223747760
 31
0.0000000000000000
  0
LINE
  5
1AF
100
AcDbEntity
  8
MAIN0
  6
CONTINUOUS
 62
3
100
AcDbLine
 10
856.1583257171330
 20
331.8627223747758
 30
0.0000000000000000
 11
853.3870444250230
 21
330.2627223747759
 31
0.0000000000000000
  0
LINE
  5
1B0
100
AcDbEntity
  8
MAIN0
  6
CONTINUOUS
 62
3
100
AcDbLine
 10
853.3870444250227
 20
330.2627223747758
 30
0.0000000000000000
 11
853.3870444250227
 21
315.8627223747760
 31
0.0000000000000000
  0
LINE
  5
1B1
100
AcDbEntity
  8
MAIN0
  6
CONTINUOUS
 62
3
100
AcDbLine
 10
877.3870444250227
 20
330.2627223747758
 30
0.0000000000000000
 11
853.3870444250227
 21
330.2627223747758
 31
0.0000000000000000
  0
LINE
  5
1B2
100
AcDbEntity
  8
MAIN0
  6
CONTINUOUS
 62
3
100
AcDbLine
 10
873.3870444250227
 20
290.8627223747760
 30
0.0000000000000000
 11
873.3870444250227
 21
269.8627223747760
 31
0.0000000000000000
  0
LINE
  5
1B3
100
AcDbEntity
  8
MAIN0
  6
CONTINUOUS
 62
3
100
AcDbLine
 10
857.3870444250227
 20
269.8627223747760
 30
0.0000000000000000
 11
857.3870444250227
 21
290.8627223747760
 31
0.0000000000000000
  0
LINE
  5
1B4
100
AcDbEntity
  8
MAIN0
  6
CONTINUOUS
 62
3
100
AcDbLine
 10
872.3045124250228
 20
290.8627223747760
 30
0.0000000000000000
 11
872.3045124250228
 21
269.8627223747760
 31
0.0000000000000000
  0
LINE
  5
1B5
100
AcDbEntity
  8
MAIN0
  6
CONTINUOUS
 62
3
100
AcDbLine
 10
858.4695764250226
 20
290.8627223747760
 30
0.0000000000000000
 11
858.4695764250226
 21
269.8627223747760
 31
0.0000000000000000
  0
LINE
  5
1B6
100
AcDbEntity
  8
MAIN0
  6
CONTINUOUS
 62
3
100
AcDbLine
 10
888.8870444250224
 20
280.8627223747761
 30
0.0000000000000000
 11
888.8870444250223
 21
275.8627223747745
 31
0.0000000000000000
  0
LINE
  5
1B7
100
AcDbEntity
  8
MAIN0
  6
CONTINUOUS
 62
3
100
AcDbLine
 10
913.8870444250223
 20
275.8627223747760
 30
0.0000000000000000
 11
888.8870444250223
 21
275.8627223747760
 31
0.0000000000000000
  0
LINE
  5
1B8
100
AcDbEntity
  8
MAIN0
  6
CONTINUOUS
 62
3
100
AcDbLine
 10
913.8870444250224
 20
280.8627223747761
 30
0.0000000000000000
 11
913.8870444250223
 21
275.8627223747761
 31
0.0000000000000000
  0
LINE
  5
1B9
100
AcDbEntity
  8
MAIN0
  6
CONTINUOUS
 62
3
100
AcDbLine
 10
988.8870444250264
 20
280.8627223747760
 30
0.0000000000000000
 11
988.8870444250264
 21
275.8627223747760
 31
0.0000000000000000
  0
LINE
  5
1BA
100
AcDbEntity
  8
MAIN0
  6
CONTINUOUS
 62
3
100
AcDbLine
 10
1013.887044425027
 20
275.8627223747759
 30
0.0000000000000000
 11
988.8870444250267
 21
275.8627223747759
 31
0.0000000000000000
  0
LINE
  5
1BB
100
AcDbEntity
  8
MAIN0
  6
CONTINUOUS
 62
3
100
AcDbLine
 10
1013.887044425027
 20
280.8627223747761
 30
0.0000000000000000
 11
1013.887044425027
 21
275.8627223747798
 31
0.0000000000000000
  0
LINE
  5
1BC
100
AcDbEntity
  8
MAIN0
  6
CONTINUOUS
 62
3
100
AcDbLine
 10
942.3870444250230
 20
281.4627223747761
 30
0.0000000000000000
 11
942.3870444250230
 21
285.8627223747760
 31
0.0000000000000000
  0
LINE
  5
1BD
100
AcDbEntity
  8
MAIN0
  6
CONTINUOUS
 62
3
100
AcDbLine
 10
942.3870444250230
 20
285.8627223747760
 30
0.0000000000000000
 11
960.3870444250230
 21
285.8627223747760
 31
0.0000000000000000
  0
LINE
  5
1BE
100
AcDbEntity
  8
MAIN0
  6
CONTINUOUS
 62
3
100
AcDbLine
 10
942.3870444250233
 20
281.4627223747760
 30
0.0000000000000000
 11
941.7870444250231
 21
280.8627223747757
 31
0.0000000000000000
  0
LINE
  5
1BF
100
AcDbEntity
  8
MAIN0
  6
CONTINUOUS
 62
3
100
AcDbLine
 10
960.3870444250230
 20
281.4627223747761
 30
0.0000000000000000
 11
960.3870444250230
 21
285.8627223747760
 31
0.0000000000000000
  0
LINE
  5
1C0
100
AcDbEntity
  8
MAIN0
  6
CONTINUOUS
 62
3
100
AcDbLine
 10
960.3870444250230
 20
281.4627223747762
 30
0.0000000000000000
 11
960.9870444250231
 21
280.8627223747762
 31
0.0000000000000000
  0
LINE
  5
1C1
100
AcDbEntity
  8
MAIN0
  6
CONTINUOUS
 62
3
100
AcDbLine
 10
888.7870444250233
 20
280.8627223747760
 30
0.0000000000000000
 11
941.7870444250231
 21
280.8627223747760
 31
0.0000000000000000
  0
LINE
  5
1C2
100
AcDbEntity
  8
MAIN0
  6
CONTINUOUS
 62
3
100
AcDbLine
 10
960.9870444250231
 20
280.8627223747760
 30
0.0000000000000000
 11
1013.987044425023
 21
280.8627223747760
 31
0.0000000000000000
  0
LINE
  5
1C3
100
AcDbEntity
  8
MAIN0
  6
CONTINUOUS
 62
3
100
AcDbLine
 10
888.3870444250230
 20
342.8627223747765
 30
0.0000000000000000
 11
888.3870444250229
 21
352.1627223727485
 31
0.0000000000000000
  0
LINE
  5
1C4
100
AcDbEntity
  8
MAIN0
  6
CONTINUOUS
 62
3
100
AcDbLine
 10
1014.387044425023
 20
342.8627223747761
 30
0.0000000000000000
 11
1014.387044425023
 21
352.1627223727482
 31
0.0000000000000000
  0
ARC
  5
1C5
100
AcDbEntity
  8
MAIN0
  6
CONTINUOUS
 62
3
100
AcDbCircle
 10
893.3870444250227
 20
336.0342952482501
 30
0.0000000000000000
 40
3.000000000000000
100
AcDbArc
 50
0.0000000000000000
 51
70.52877936551049
  0
ARC
  5
1C6
100
AcDbEntity
  8
MAIN0
  6
CONTINUOUS
 62
3
100
AcDbCircle
 10
951.3870444250230
 20
330.8627223729963
 30
0.0000000000000000
 40
60.00000000000000
100
AcDbArc
 50
205.8419327631667
 51
215.4505426368312
  0
ARC
  5
1C7
100
AcDbEntity
  8
MAIN0
  6
CONTINUOUS
 62
3
100
AcDbCircle
 10
906.3870444250227
 20
309.0682276552931
 30
0.0000000000000000
 40
10.00000000000000
100
AcDbArc
 50
180.0000000000000
 51
205.8419327631667
  0
ARC
  5
1C8
100
AcDbEntity
  8
MAIN0
  6
CONTINUOUS
 62
3
100
AcDbCircle
 10
910.6562207150038
 20
301.8627223746627
 30
0.0000000000000000
 40
10.00000000000000
100
AcDbArc
 50
215.4505426368312
 51
270.0000000000000
  0
LINE
  5
1C9
100
AcDbEntity
  8
MAIN0
  6
CONTINUOUS
 62
3
100
AcDbLine
 10
896.3870444250226
 20
309.0682276552931
 30
0.0000000000000000
 11
896.3870444250225
 21
336.0342952482503
 31
0.0000000000000000
  0
ARC
  5
1CA
100
AcDbEntity
  8
MAIN0
  6
CONTINUOUS
 62
3
100
AcDbCircle
 10
1009.387044425023
 20
336.0342952482499
 30
0.0000000000000000
 40
3.000000000000000
100
AcDbArc
 50
109.4712206344893
 51
179.9999999999997
  0
LINE
  5
1CB
100
AcDbEntity
  8
MAIN0
  6
CONTINUOUS
 62
3
100
AcDbLine
 10
1006.387044425023
 20
309.0682276552928
 30
0.0000000000000000
 11
1006.387044425023
 21
336.0342952482498
 31
0.0000000000000000
  0
ARC
  5
1CC
100
AcDbEntity
  8
MAIN0
  6
CONTINUOUS
 62
3
100
AcDbCircle
 10
996.3870444250232
 20
309.0682276552929
 30
0.0000000000000000
 40
10.00000000000000
100
AcDbArc
 50
334.1580672368331
 51
359.9999999999997
  0
ARC
  5
1CD
100
AcDbEntity
  8
MAIN0
  6
CONTINUOUS
 62
3
100
AcDbCircle
 10
951.3870444250232
 20
330.8627223729963
 30
0.0000000000000000
 40
60.00000000000000
100
AcDbArc
 50
324.5494573631685
 51
334.1580672368331
  0
ARC
  5
1CE
100
AcDbEntity
  8
MAIN0
  6
CONTINUOUS
 62
3
100
AcDbCircle
 10
992.1178681350422
 20
301.8627223746625
 30
0.0000000000000000
 40
10.00000000000000
100
AcDbArc
 50
269.9999999999997
 51
324.5494573631685
  0
DIMENSION
  5
1D7
100
AcDbEntity
  8
MAIN0
  6
CONTINUOUS
 62
3
100
AcDbDimension
  2
*D13
 10
883.8870444250227
 20
459.8627223746266
 30
0.0000000000000000
 11
951.3870444250227
 21
460.3627223746266
 31
0.0000000000000000
 70
32
  3
MAIN001
100
AcDbAlignedDimension
 13
1018.887044425023
 23
385.0627222302973
 33
0.0000000000000000
 14
883.8870444250227
 24
385.0627222302971
 34
0.0000000000000000
100
AcDbRotatedDimension
1001
ACAD
1000
DSTYLE
1002
{
1070
   173
1070
     1
1070
     6
1000
_OPEN
1070
     7
1000
_OPEN
1070
    41
1040
5.000000
1002
}
  0
MTEXT
  5
1D8
100
AcDbEntity
  8
MAIN0
  6
CONTINUOUS
 62
3
100
AcDbMText
 10
964.5939158500386
 20
312.9413686196887
 30
0.0000000000000000
 40
7.500000000000000
 41
0.0000000000000000
 71
     1
 72
     1
  1
{\H0.63x;{3}}
 11
-0.8660254037845803
 21
-0.4999999999997548
 31
0.0000000000000000
  7
STANDARD
  0
MTEXT
  5
1D9
100
AcDbEntity
  8
MAIN0
  6
CONTINUOUS
 62
3
100
AcDbMText
 10
971.9107337999818
 20
321.9742660726091
 30
0.0000000000000000
 40
7.500000000000000
 41
0.0000000000000000
 71
     1
 72
     1
  1
{\H0.63x;{2}}
 11
-0.4999999999999527
 21
-0.8660254037844659
 31
0.0000000000000000
  7
STANDARD
  0
MTEXT
  5
1DA
100
AcDbEntity
  8
MAIN0
  6
CONTINUOUS
 62
3
100
AcDbMText
 10
973.4133553965147
 20
333.1962256517061
 30
0.0000000000000000
 40
7.500000000000000
 41
0.0000000000000000
 71
     1
 72
     1
  1
{\H0.63x;{1}}
 11
-1.836970198721030e-016
 21
-1.000000000000000
 31
0.0000000000000000
  7
STANDARD
  0
MTEXT
  5
1DB
100
AcDbEntity
  8
MAIN0
  6
CONTINUOUS
 62
3
100
AcDbMText
 10
969.2956376386359
 20
343.8967509779191
 30
0.0000000000000000
 40
7.500000000000000
 41
0.0000000000000000
 71
     1
 72
     1
  1
{\H0.63x;{0}}
 11
0.4999999999999993
 21
-0.8660254037844390
 31
0.0000000000000000
  7
STANDARD
  0
DIMENSION
  5
1E6
100
AcDbEntity
  8
MAIN0
  6
CONTINUOUS
 62
3
100
AcDbDimension
  2
*D14
 10
944.3870444250225
 20
441.8627223745415
 30
0.0000000000000000
 11
951.3870444250225
 21
442.3627223745415
 31
0.0000000000000000
 70
32
  3
MAIN001
100
AcDbAlignedDimension
 13
958.3870444250225
 23
334.9041742573166
 33
0.0000000000000000
 14
944.3870444250225
 24
334.9041742573167
 34
0.0000000000000000
100
AcDbRotatedDimension
1001
ACAD
1000
DSTYLE
1002
{
1070
   173
1070
     1
1070
     6
1000
_OPEN
1070
     7
1000
_OPEN
1070
    41
1040
5.000000
1070
   287
1070
     0
1002
}
  0
LINE
  5
1E7
100
AcDbEntity
  8
MAIN0
  6
CONTINUOUS
 62
3
100
AcDbLine
 10
888.0870444250230
 20
341.3627223727551
 30
0.0000000000000000
 11
888.0870444250228
 21
365.4627223727550
 31
0.0000000000000000
  0
DIMENSION
  5
1F2
100
AcDbEntity
  8
MAIN0
  6
CONTINUOUS
 62
3
100
AcDbDimension
  2
*D15
 10
806.7471831927858
 20
315.8627223747760
 30
0.0000000000000000
 11
805.4971831927858
 21
325.4158059576425
 31
0.0000000000000000
 70
160
  3
MAIN001
100
AcDbAlignedDimension
 13
817.3870444250227
 23
310.8627223747760
 33
0.0000000000000000
 14
847.8870444250227
 24
315.8627223747760
 34
0.0000000000000000
 50
90.00000000000000
100
AcDbRotatedDimension
1001
ACAD
1000
DSTYLE
1002
{
1070
   173
1070
     1
1070
     6
1000
_OPEN
1070
     7
1000
_OPEN
1070
    41
1040
5.000000
1070
   287
1070
     0
1002
}
  0
DIMENSION
  5
1FB
100
AcDbEntity
  8
MAIN0
  6
CONTINUOUS
 62
3
100
AcDbDimension
  2
*D16
 10
806.7471831927858
 20
310.8627223747760
 30
0.0000000000000000
 11
806.2471831927858
 21
295.8627223747760
 31
0.0000000000000000
 70
32
  3
MAIN001
100
AcDbAlignedDimension
 13
819.0870444250228
 23
280.8627223747760
 33
0.0000000000000000
 14
817.3870444250227
 24
310.8627223747760
 34
0.0000000000000000
 50
90.00000000000000
100
AcDbRotatedDimension
1001
ACAD
1000
DSTYLE
1002
{
1070
   173
1070
     1
1070
     6
1000
_OPEN
1070
     7
1000
_OPEN
1070
    41
1040
5.000000
1002
}
  0
ARC
  5
1FC
100
AcDbEntity
  8
MAIN0
  6
CONTINUOUS
 62
3
100
AcDbCircle
 10
669.0400319625392
 20
294.8627223746164
 30
0.0000000000000000
 40
3.000000000000000
100
AcDbArc
 50
270.0000000000000
 51
311.4096220805483
  0
ARC
  5
1FD
100
AcDbEntity
  8
MAIN0
  6
CONTINUOUS
 62
3
100
AcDbCircle
 10
673.0086589268802
 20
290.3627223726270
 30
0.0000000000000000
 40
3.000000000000000
100
AcDbArc
 50
90.00000000000000
 51
131.4096220805500
  0
LINE
  5
1FE
100
AcDbEntity
  8
MAIN0
  6
CONTINUOUS
 62
3
100
AcDbLine
 10
640.0400319623982
 20
349.8627223730280
 30
0.0000000000000000
 11
672.0400319627655
 21
349.8627223730422
 31
0.0000000000000000
  0
LINE
  5
1FF
100
AcDbEntity
  8
MAIN0
  6
CONTINUOUS
 62
3
100
AcDbLine
 10
640.0400319623981
 20
341.8627223748907
 30
0.0000000000000000
 11
672.0400319627327
 21
341.8627223749049
 31
0.0000000000000000
  0
LINE
  5
200
100
AcDbEntity
  8
MAIN0
  6
CONTINUOUS
 62
3
100
AcDbLine
 10
637.0400319627202
 20
338.8627223734213
 30
0.0000000000000000
 11
672.0400319627203
 21
338.8627223733591
 31
0.0000000000000000
  0
LINE
  5
201
100
AcDbEntity
  8
MAIN0
  6
CONTINUOUS
 62
3
100
AcDbLine
 10
638.5400319625887
 20
306.8835647561532
 30
0.0000000000000000
 11
670.5400319625887
 21
306.8835647561887
 31
0.0000000000000000
  0
LINE
  5
202
100
AcDbEntity
  8
MAIN0
  6
CONTINUOUS
 62
3
100
AcDbLine
 10
672.0400319631824
 20
567.7784517213880
 30
0.0000000000000000
 11
640.0400319622587
 21
567.7784517213880
 31
0.0000000000000000
  0
LINE
  5
203
100
AcDbEntity
  8
MAIN0
  6
CONTINUOUS
 62
3
100
AcDbLine
 10
672.0400319633587
 20
661.7784517213880
 30
0.0000000000000000
 11
640.0400319621882
 21
661.7784517213881
 31
0.0000000000000000
  0
ARC
  5
204
100
AcDbEntity
  8
MAIN0
  6
CONTINUOUS
 62
3
100
AcDbCircle
 10
675.0400319631946
 20
574.2784517229898
 30
0.0000000000000000
 40
3.000000000000000
100
AcDbArc
 50
90.00000000000000
 51
180.0000000000000
  0
ARC
  5
205
100
AcDbEntity
  8
MAIN0
  6
CONTINUOUS
 62
3
100
AcDbCircle
 10
675.0400319633465
 20
655.2784517229898
 30
0.0000000000000000
 40
3.000000000000000
100
AcDbArc
 50
180.0000000000000
 51
270.0000000000000
  0
LINE
  5
206
100
AcDbEntity
  8
MAIN0
  6
CONTINUOUS
 62
3
100
AcDbLine
 10
66.92808282697797
 20
301.8627223738460
 30
0.0000000000000000
 11
66.92808282697797
 21
341.8627223738465
 31
0.0000000000000000
  0
LINE
  5
207
100
AcDbEntity
  8
MAIN0
  6
CONTINUOUS
 62
3
100
AcDbLine
 10
60.92808282697843
 20
281.2627223738465
 30
0.0000000000000000
 11
60.92808282697843
 21
300.8627223738459
 31
0.0000000000000000
  0
LINE
  5
208
100
AcDbEntity
  8
MAIN0
  6
CONTINUOUS
 62
3
100
AcDbLine
 10
66.92808282697797
 20
301.8627223738460
 30
0.0000000000000000
 11
61.92808282697843
 21
301.8627223738460
 31
0.0000000000000000
  0
LINE
  5
209
100
AcDbEntity
  8
MAIN0
  6
CENTER
 62
3
100
AcDbLine
 10
123.9280828269780
 20
270.3341284283871
 30
0.0000000000000000
 11
123.9280828269783
 21
421.8627223731647
 31
0.0000000000000000
  0
LINE
  5
20A
100
AcDbEntity
  8
MAIN0
  6
CONTINUOUS
 62
3
100
AcDbLine
 10
62.42808282697797
 20
365.8627223738462
 30
0.0000000000000000
 11
92.32808282697670
 21
365.8627223738462
 31
0.0000000000000000
  0
LINE
  5
20B
100
AcDbEntity
  8
MAIN0
  6
CONTINUOUS
 62
3
100
AcDbLine
 10
155.5280828269783
 20
365.8627223738462
 30
0.0000000000000000
 11
185.4280828269784
 21
365.8627223738462
 31
0.0000000000000000
  0
LINE
  5
20C
100
AcDbEntity
  8
MAIN0
  6
CONTINUOUS
 62
3
100
AcDbLine
 10
61.92808282697820
 20
341.8627223738463
 30
0.0000000000000000
 11
66.92808282697797
 21
341.8627223738463
 31
0.0000000000000000
  0
LINE
  5
20D
100
AcDbEntity
  8
MAIN0
  6
CONTINUOUS
 62
3
100
AcDbLine
 10
60.92808282697820
 20
342.8627223738467
 30
0.0000000000000000
 11
61.92808282697843
 21
341.8627223738466
 31
0.0000000000000000
  0
LINE
  5
20E
100
AcDbEntity
  8
MAIN0
  6
CONTINUOUS
 62
3
100
AcDbLine
 10
61.92808282697843
 20
301.8627223738463
 30
0.0000000000000000
 11
60.92808282697820
 21
300.8627223738462
 31
0.0000000000000000
  0
LINE
  5
20F
100
AcDbEntity
  8
MAIN0
  6
CONTINUOUS
 62
3
100
AcDbLine
 10
60.92808282697854
 20
281.2627223738462
 30
0.0000000000000000
 11
61.32808282697852
 21
280.8627223738462
 31
0.0000000000000000
  0
LINE
  5
210
100
AcDbEntity
  8
MAIN0
  6
CONTINUOUS
 62
3
100
AcDbLine
 10
180.9280828269784
 20
301.8627223738460
 30
0.0000000000000000
 11
180.9280828269784
 21
341.8627223738460
 31
0.0000000000000000
  0
LINE
  5
211
100
AcDbEntity
  8
MAIN0
  6
CONTINUOUS
 62
3
100
AcDbLine
 10
186.9280828269777
 20
281.2627223738458
 30
0.0000000000000000
 11
186.9280828269779
 21
300.8627223738457
 31
0.0000000000000000
  0
LINE
  5
212
100
AcDbEntity
  8
MAIN0
  6
CONTINUOUS
 62
3
100
AcDbLine
 10
180.9280828269780
 20
301.8627223738461
 30
0.0000000000000000
 11
185.9280828269782
 21
301.8627223738461
 31
0.0000000000000000
  0
LINE
  5
213
100
AcDbEntity
  8
MAIN0
  6
CONTINUOUS
 62
3
100
AcDbLine
 10
185.9280828269787
 20
341.8627223738459
 30
0.0000000000000000
 11
180.9280828269787
 21
341.8627223738459
 31
0.0000000000000000
  0
LINE
  5
214
100
AcDbEntity
  8
MAIN0
  6
CONTINUOUS
 62
3
100
AcDbLine
 10
186.9280828269782
 20
342.8627223738459
 30
0.0000000000000000
 11
185.9280828269780
 21
341.8627223738458
 31
0.0000000000000000
  0
LINE
  5
215
100
AcDbEntity
  8
MAIN0
  6
CONTINUOUS
 62
3
100
AcDbLine
 10
185.9280828269782
 20
301.8627223738461
 30
0.0000000000000000
 11
186.9280828269780
 21
300.8627223738462
 31
0.0000000000000000
  0
LINE
  5
216
100
AcDbEntity
  8
MAIN0
  6
CONTINUOUS
 62
3
100
AcDbLine
 10
186.9280828269784
 20
281.2627223738459
 30
0.0000000000000000
 11
186.5280828269785
 21
280.8627223738460
 31
0.0000000000000000
  0
LINE
  5
217
100
AcDbEntity
  8
MAIN0
  6
CONTINUOUS
 62
3
100
AcDbLine
 10
190.2280828269784
 20
377.0627223718249
 30
0.0000000000000000
 11
190.2280828269783
 21
337.5627223718249
 31
0.0000000000000000
  0
LINE
  5
218
100
AcDbEntity
  8
MAIN0
  6
CONTINUOUS
 62
3
100
AcDbLine
 10
191.4280828269780
 20
337.5627223718252
 30
0.0000000000000000
 11
191.4280828269780
 21
385.0627222293674
 31
0.0000000000000000
  0
ARC
  5
219
100
AcDbEntity
  8
MAIN0
  6
CONTINUOUS
 62
3
100
AcDbCircle
 10
189.4280828269780
 20
385.0627223718252
 30
0.0000000000000000
 40
2.000000000000000
100
AcDbArc
 50
0.0000000000000000
 51
89.99999999942553
  0
LINE
  5
21A
100
AcDbEntity
  8
MAIN0
  6
CONTINUOUS
 62
3
100
AcDbLine
 10
190.2280828269782
 20
337.5627223718252
 30
0.0000000000000000
 11
191.4280828269780
 21
337.5627223718252
 31
0.0000000000000000
  0
LINE
  5
21B
100
AcDbEntity
  8
MAIN0
  6
CONTINUOUS
 62
3
100
AcDbLine
 10
63.92808282697797
 20
340.9627223718252
 30
0.0000000000000000
 11
61.02808282697811
 21
340.9627223718252
 31
0.0000000000000000
  0
ARC
  5
21C
100
AcDbEntity
  8
MAIN0
  6
CONTINUOUS
 62
3
100
AcDbCircle
 10
60.62808282697802
 20
340.9627223718250
 30
0.0000000000000000
 40
1.200000000000000
100
AcDbArc
 50
180.0000000000067
 51
270.0000000000046
  0
ARC
  5
21D
100
AcDbEntity
  8
MAIN0
  6
CONTINUOUS
 62
3
100
AcDbCircle
 10
60.62808282697802
 20
365.8627223718251
 30
0.0000000000000000
 40
1.200000000000000
100
AcDbArc
 50
90.00000000000000
 51
180.0000000000000
  0
ARC
  5
21E
100
AcDbEntity
  8
MAIN0
  6
CONTINUOUS
 62
3
100
AcDbCircle
 10
61.02808282697788
 20
365.4627223718250
 30
0.0000000000000000
 40
0.4000000000000000
100
AcDbArc
 50
90.00000000000259
 51
180.0000000000000
  0
ARC
  5
21F
100
AcDbEntity
  8
MAIN0
  6
CONTINUOUS
 62
3
100
AcDbCircle
 10
61.02808282697788
 20
341.3627223718251
 30
0.0000000000000000
 40
0.4000000000000000
100
AcDbArc
 50
180.0000000000067
 51
269.9999999994322
  0
LINE
  5
220
100
AcDbEntity
  8
MAIN0
  6
CONTINUOUS
 62
3
100
AcDbLine
 10
63.92808282697797
 20
339.7627223718252
 30
0.0000000000000000
 11
60.62808299778635
 21
339.7627223718252
 31
0.0000000000000000
  0
LINE
  5
221
100
AcDbEntity
  8
MAIN0
  6
CONTINUOUS
 62
3
100
AcDbLine
 10
59.42808282697774
 20
365.8627223718251
 30
0.0000000000000000
 11
59.42808282697797
 21
340.9627223718250
 31
0.0000000000000000
  0
LINE
  5
222
100
AcDbEntity
  8
MAIN0
  6
CONTINUOUS
 62
3
100
AcDbLine
 10
63.92808282697797
 20
340.9627223718252
 30
0.0000000000000000
 11
63.92808282697797
 21
339.7627223718251
 31
0.0000000000000000
  0
LINE
  5
223
100
AcDbEntity
  8
MAIN0
  6
CONTINUOUS
 62
3
100
AcDbLine
 10
63.92808282697797
 20
338.7627223718251
 30
0.0000000000000000
 11
63.92808282697797
 21
337.5627223718251
 31
0.0000000000000000
  0
LINE
  5
224
100
AcDbEntity
  8
MAIN0
  6
CONTINUOUS
 62
3
100
AcDbLine
 10
57.92808282697797
 20
375.6627223718251
 30
0.0000000000000000
 11
57.92808282697797
 21
339.5627223718252
 31
0.0000000000000000
  0
LINE
  5
225
100
AcDbEntity
  8
MAIN0
  6
CONTINUOUS
 62
3
100
AcDbLine
 10
63.92808282697797
 20
338.7627223718252
 30
0.0000000000000000
 11
60.12808287993607
 21
338.7627223718252
 31
0.0000000000000000
  0
LINE
  5
226
100
AcDbEntity
  8
MAIN0
  6
CONTINUOUS
 62
3
100
AcDbLine
 10
63.92808282697797
 20
337.5627223718254
 30
0.0000000000000000
 11
59.92808286912259
 21
337.5627223718254
 31
0.0000000000000000
  0
ARC
  5
227
100
AcDbEntity
  8
MAIN0
  6
CONTINUOUS
 62
3
100
AcDbCircle
 10
59.92808282697797
 20
339.5627223718252
 30
0.0000000000000000
 40
2.000000000000000
100
AcDbArc
 50
180.0000000000067
 51
269.9999999994322
  0
ARC
  5
228
100
AcDbEntity
  8
MAIN0
  6
CONTINUOUS
 62
3
100
AcDbCircle
 10
60.12808282697802
 20
339.7627223718252
 30
0.0000000000000000
 40
1.000000000000000
100
AcDbArc
 50
180.0000000000067
 51
269.9999999994322
  0
ARC
  5
229
100
AcDbEntity
  8
MAIN0
  6
CONTINUOUS
 62
3
100
AcDbCircle
 10
59.32808282697806
 20
375.6627223718251
 30
0.0000000000000000
 40
1.400000000000000
100
AcDbArc
 50
98.21321070173772
 51
180.0000000000000
  0
LINE
  5
22A
100
AcDbEntity
  8
MAIN0
  6
CONTINUOUS
 62
3
100
AcDbLine
 10
57.62808282697779
 20
377.0627223718251
 30
0.0000000000000000
 11
57.62808282697790
 21
337.5627223718251
 31
0.0000000000000000
  0
LINE
  5
22B
100
AcDbEntity
  8
MAIN0
  6
CONTINUOUS
 62
3
100
AcDbLine
 10
56.42808282697831
 20
337.5627223718249
 30
0.0000000000000000
 11
56.42808282697820
 21
385.0627222293671
 31
0.0000000000000000
  0
ARC
  5
22C
100
AcDbEntity
  8
MAIN0
  6
CONTINUOUS
 62
3
100
AcDbCircle
 10
58.42808282697797
 20
385.0627223718252
 30
0.0000000000000000
 40
2.000000000000000
100
AcDbArc
 50
90.00000000057449
 51
180.0000000000000
  0
LINE
  5
22D
100
AcDbEntity
  8
MAIN0
  6
CONTINUOUS
 62
3
100
AcDbLine
 10
57.62808282697802
 20
337.5627223718252
 30
0.0000000000000000
 11
56.42808282697797
 21
337.5627223718252
 31
0.0000000000000000
  0
LINE
  5
22E
100
AcDbEntity
  8
MAIN0
  6
CONTINUOUS
 62
3
100
AcDbLine
 10
187.2280828270481
 20
365.4627223718251
 30
0.0000000000000000
 11
187.2280828270417
 21
341.3627223718249
 31
0.0000000000000000
  0
LINE
  5
22F
100
AcDbEntity
  8
MAIN0
  6
CONTINUOUS
 62
3
100
AcDbLine
 10
59.12808282702872
 20
367.0627223718249
 30
0.0000000000000000
 11
59.12808282703247
 21
339.7627223718250
 31
0.0000000000000000
  0
LINE
  5
230
100
AcDbEntity
  8
MAIN0
  6
CONTINUOUS
 62
3
100
AcDbLine
 10
183.9280828269780
 20
340.9627223718252
 30
0.0000000000000000
 11
186.8280828269781
 21
340.9627223718252
 31
0.0000000000000000
  0
ARC
  5
231
100
AcDbEntity
  8
MAIN0
  6
CONTINUOUS
 62
3
100
AcDbCircle
 10
187.2280828269782
 20
340.9627223718250
 30
0.0000000000000000
 40
1.200000000000000
100
AcDbArc
 50
269.9999999999953
 51
359.9999999999934
  0
ARC
  5
232
100
AcDbEntity
  8
MAIN0
  6
CONTINUOUS
 62
3
100
AcDbCircle
 10
187.2280828269782
 20
365.8627223718251
 30
0.0000000000000000
 40
1.200000000000000
100
AcDbArc
 50
0.0000000000000000
 51
90.00000000000000
  0
ARC
  5
233
100
AcDbEntity
  8
MAIN0
  6
CONTINUOUS
 62
3
100
AcDbCircle
 10
186.8280828269781
 20
365.4627223718250
 30
0.0000000000000000
 40
0.4000000000000000
100
AcDbArc
 50
0.0000000000000000
 51
89.99999999999740
  0
ARC
  5
234
100
AcDbEntity
  8
MAIN0
  6
CONTINUOUS
 62
3
100
AcDbCircle
 10
186.8280828269781
 20
341.3627223718251
 30
0.0000000000000000
 40
0.4000000000000000
100
AcDbArc
 50
270.0000000005678
 51
359.9999999999934
  0
LINE
  5
235
100
AcDbEntity
  8
MAIN0
  6
CONTINUOUS
 62
3
100
AcDbLine
 10
183.9280828269780
 20
339.7627223718252
 30
0.0000000000000000
 11
187.2280826561698
 21
339.7627223718252
 31
0.0000000000000000
  0
LINE
  5
236
100
AcDbEntity
  8
MAIN0
  6
CONTINUOUS
 62
3
100
AcDbLine
 10
188.4280828269780
 20
365.8627223718251
 30
0.0000000000000000
 11
188.4280828269780
 21
340.9627223718250
 31
0.0000000000000000
  0
LINE
  5
237
100
AcDbEntity
  8
MAIN0
  6
CONTINUOUS
 62
3
100
AcDbLine
 10
183.9280828269780
 20
340.9627223718250
 30
0.0000000000000000
 11
183.9280828269780
 21
339.7627223718252
 31
0.0000000000000000
  0
LINE
  5
238
100
AcDbEntity
  8
MAIN0
  6
CONTINUOUS
 62
3
100
AcDbLine
 10
183.9280828269780
 20
338.7627223718252
 30
0.0000000000000000
 11
183.9280828269780
 21
337.5627223718252
 31
0.0000000000000000
  0
LINE
  5
239
100
AcDbEntity
  8
MAIN0
  6
CONTINUOUS
 62
3
100
AcDbLine
 10
189.9280828269780
 20
375.6627223718251
 30
0.0000000000000000
 11
189.9280828269780
 21
339.5627223718252
 31
0.0000000000000000
  0
LINE
  5
23A
100
AcDbEntity
  8
MAIN0
  6
CONTINUOUS
 62
3
100
AcDbLine
 10
188.7280828269782
 20
367.0627223718252
 30
0.0000000000000000
 11
188.7280828269782
 21
339.7627223718252
 31
0.0000000000000000
  0
LINE
  5
23B
100
AcDbEntity
  8
MAIN0
  6
CONTINUOUS
 62
3
100
AcDbLine
 10
183.9280828269780
 20
338.7627223718252
 30
0.0000000000000000
 11
187.7280827740201
 21
338.7627223718252
 31
0.0000000000000000
  0
LINE
  5
23C
100
AcDbEntity
  8
MAIN0
  6
CONTINUOUS
 62
3
100
AcDbLine
 10
183.9280828269780
 20
337.5627223718252
 30
0.0000000000000000
 11
187.9280827848334
 21
337.5627223718252
 31
0.0000000000000000
  0
ARC
  5
23D
100
AcDbEntity
  8
MAIN0
  6
CONTINUOUS
 62
3
100
AcDbCircle
 10
187.9280828269780
 20
339.5627223718252
 30
0.0000000000000000
 40
2.000000000000000
100
AcDbArc
 50
270.0000000005678
 51
359.9999999999934
  0
ARC
  5
23E
100
AcDbEntity
  8
MAIN0
  6
CONTINUOUS
 62
3
100
AcDbCircle
 10
187.7280828269782
 20
339.7627223718252
 30
0.0000000000000000
 40
1.000000000000000
100
AcDbArc
 50
270.0000000005678
 51
359.9999999999934
  0
ARC
  5
23F
100
AcDbEntity
  8
MAIN0
  6
CONTINUOUS
 62
3
100
AcDbCircle
 10
188.5280828269781
 20
375.6627223718251
 30
0.0000000000000000
 40
1.400000000000000
100
AcDbArc
 50
0.0000000000000000
 51
81.78678929826229
  0
LINE
  5
240
100
AcDbEntity
  8
MAIN0
  6
CONTINUOUS
 62
3
100
AcDbLine
 10
61.42808282697843
 20
365.8627223720663
 30
0.0000000000000000
 11
61.42808282697865
 21
415.8627223731648
 31
0.0000000000000000
  0
LINE
  5
241
100
AcDbEntity
  8
MAIN0
  6
CONTINUOUS
 62
3
100
AcDbLine
 10
186.4280828269784
 20
365.8627223718253
 30
0.0000000000000000
 11
186.4280828269787
 21
415.8627223731648
 31
0.0000000000000000
  0
LINE
  5
242
100
AcDbEntity
  8
MAIN0
  6
CONTINUOUS
 62
3
100
AcDbLine
 10
61.42808282697843
 20
415.8627223731648
 30
0.0000000000000000
 11
186.4280828269784
 21
415.8627223731648
 31
0.0000000000000000
  0
LINE
  5
243
100
AcDbEntity
  8
MAIN0
  6
CONTINUOUS
 62
3
100
AcDbLine
 10
61.02808282697799
 20
365.8627223718252
 30
0.0000000000000000
 11
186.8280822070836
 21
365.8627223718252
 31
0.0000000000000000
  0
LINE
  5
244
100
AcDbEntity
  8
MAIN0
  6
CONTINUOUS
 62
3
100
AcDbLine
 10
67.92808282697865
 20
365.8627223720663
 30
0.0000000000000000
 11
179.9280828269780
 21
365.8627223720663
 31
0.0000000000000000
  0
LINE
  5
245
100
AcDbEntity
  8
MAIN0
  6
CONTINUOUS
 62
3
100
AcDbLine
 10
141.1327333610745
 20
365.8627223720606
 30
0.0000000000000000
 11
106.7234322929073
 21
365.8627223720731
 31
0.0000000000000000
  0
LINE
  5
246
100
AcDbEntity
  8
MAIN0
  6
CONTINUOUS
 62
3
100
AcDbLine
 10
66.92808282697797
 20
301.8627223738460
 30
0.0000000000000000
 11
66.92808282697797
 21
310.8627223738460
 31
0.0000000000000000
  0
LINE
  5
247
100
AcDbEntity
  8
MAIN0
  6
CONTINUOUS
 62
3
100
AcDbLine
 10
61.92808282697786
 20
301.8627223738460
 30
0.0000000000000000
 11
66.92808282697797
 21
301.8627223738460
 31
0.0000000000000000
  0
LINE
  5
248
100
AcDbEntity
  8
MAIN0
  6
CONTINUOUS
 62
3
100
AcDbLine
 10
61.42808282697763
 20
280.8627223738461
 30
0.0000000000000000
 11
61.42808282697752
 21
275.8627223738445
 31
0.0000000000000000
  0
LINE
  5
249
100
AcDbEntity
  8
MAIN0
  6
CONTINUOUS
 62
3
100
AcDbLine
 10
86.42808282697752
 20
275.8627223738459
 30
0.0000000000000000
 11
61.42808282697752
 21
275.8627223738459
 31
0.0000000000000000
  0
LINE
  5
24A
100
AcDbEntity
  8
MAIN0
  6
CONTINUOUS
 62
3
100
AcDbLine
 10
86.42808282697763
 20
280.8627223738461
 30
0.0000000000000000
 11
86.42808282697752
 21
275.8627223738461
 31
0.0000000000000000
  0
LINE
  5
24B
100
AcDbEntity
  8
MAIN0
  6
CONTINUOUS
 62
3
100
AcDbLine
 10
161.4280828269816
 20
280.8627223738459
 30
0.0000000000000000
 11
161.4280828269816
 21
275.8627223738459
 31
0.0000000000000000
  0
LINE
  5
24C
100
AcDbEntity
  8
MAIN0
  6
CONTINUOUS
 62
3
100
AcDbLine
 10
186.4280828269820
 20
275.8627223738459
 30
0.0000000000000000
 11
161.4280828269820
 21
275.8627223738459
 31
0.0000000000000000
  0
LINE
  5
24D
100
AcDbEntity
  8
MAIN0
  6
CONTINUOUS
 62
3
100
AcDbLine
 10
186.4280828269820
 20
280.8627223738461
 30
0.0000000000000000
 11
186.4280828269820
 21
275.8627223738498
 31
0.0000000000000000
  0
LINE
  5
24E
100
AcDbEntity
  8
MAIN0
  6
CONTINUOUS
 62
3
100
AcDbLine
 10
114.9280828269782
 20
281.4627223738461
 30
0.0000000000000000
 11
114.9280828269782
 21
285.8627223738460
 31
0.0000000000000000
  0
LINE
  5
24F
100
AcDbEntity
  8
MAIN0
  6
CONTINUOUS
 62
3
100
AcDbLine
 10
114.9280828269782
 20
285.8627223738460
 30
0.0000000000000000
 11
132.9280828269782
 21
285.8627223738460
 31
0.0000000000000000
  0
LINE
  5
250
100
AcDbEntity
  8
MAIN0
  6
CONTINUOUS
 62
3
100
AcDbLine
 10
114.9280828269785
 20
281.4627223738460
 30
0.0000000000000000
 11
114.3280828269783
 21
280.8627223738458
 31
0.0000000000000000
  0
LINE
  5
251
100
AcDbEntity
  8
MAIN0
  6
CONTINUOUS
 62
3
100
AcDbLine
 10
132.9280828269782
 20
281.4627223738461
 30
0.0000000000000000
 11
132.9280828269782
 21
285.8627223738460
 31
0.0000000000000000
  0
LINE
  5
252
100
AcDbEntity
  8
MAIN0
  6
CONTINUOUS
 62
3
100
AcDbLine
 10
132.9280828269780
 20
281.4627223738462
 30
0.0000000000000000
 11
133.5280828269781
 21
280.8627223738462
 31
0.0000000000000000
  0
LINE
  5
253
100
AcDbEntity
  8
MAIN0
  6
CONTINUOUS
 62
3
100
AcDbLine
 10
61.32808282697852
 20
280.8627223738459
 30
0.0000000000000000
 11
114.3280828269783
 21
280.8627223738459
 31
0.0000000000000000
  0
LINE
  5
254
100
AcDbEntity
  8
MAIN0
  6
CONTINUOUS
 62
3
100
AcDbLine
 10
133.5280828269783
 20
280.8627223738459
 30
0.0000000000000000
 11
186.5280828269783
 21
280.8627223738459
 31
0.0000000000000000
  0
LINE
  5
255
100
AcDbEntity
  8
MAIN0
  6
CONTINUOUS
 62
3
100
AcDbLine
 10
60.92808282697808
 20
342.8627223738465
 30
0.0000000000000000
 11
60.92808282697774
 21
364.3627223718252
 31
0.0000000000000000
  0
LINE
  5
256
100
AcDbEntity
  8
MAIN0
  6
CONTINUOUS
 62
3
100
AcDbLine
 10
186.9280828269784
 20
342.8627223738461
 30
0.0000000000000000
 11
186.9280828269779
 21
364.3627223718252
 31
0.0000000000000000
  0
LINE
  5
257
100
AcDbEntity
  8
MAIN0
  6
CONTINUOUS
 62
3
100
AcDbLine
 10
60.62808282697813
 20
341.3627223718252
 30
0.0000000000000000
 11
60.62808282697790
 21
365.4627223718251
 31
0.0000000000000000
  0
LINE
  5
258
100
AcDbEntity
  8
MAIN0
  6
CONTINUOUS
 62
3
100
AcDbLine
 10
58.42808403902973
 20
387.0627223718249
 30
0.0000000000000000
 11
61.42808282697854
 21
387.0627223718249
 31
0.0000000000000000
  0
LINE
  5
259
100
AcDbEntity
  8
MAIN0
  6
CONTINUOUS
 62
3
100
AcDbLine
 10
186.4280828269785
 20
387.0627223718249
 30
0.0000000000000000
 11
189.4280816149260
 21
387.0627223718249
 31
0.0000000000000000
  0
LINE
  5
25A
100
AcDbEntity
  8
MAIN0
  6
CONTINUOUS
 62
3
100
AcDbLine
 10
61.42808282697843
 20
377.0627223718252
 30
0.0000000000000000
 11
57.62808282697802
 21
377.0627223718252
 31
0.0000000000000000
  0
LINE
  5
25B
100
AcDbEntity
  8
MAIN0
  6
CONTINUOUS
 62
3
100
AcDbLine
 10
190.2280828269779
 20
377.0627223718252
 30
0.0000000000000000
 11
186.4280828269784
 21
377.0627223718252
 31
0.0000000000000000
  0
LINE
  5
25C
100
AcDbEntity
  8
MAIN0
  6
CONTINUOUS
 62
3
100
AcDbLine
 10
59.12808282697824
 20
367.0627223718253
 30
0.0000000000000000
 11
61.42808282697843
 21
367.0627223718253
 31
0.0000000000000000
  0
LINE
  5
25D
100
AcDbEntity
  8
MAIN0
  6
CONTINUOUS
 62
3
100
AcDbLine
 10
186.4280828269784
 20
367.0627223718253
 30
0.0000000000000000
 11
188.7280828269784
 21
367.0627223718253
 31
0.0000000000000000
  0
LINE
  5
25E
100
AcDbEntity
  8
MAIN0
  6
CONTINUOUS
 62
3
100
AcDbLine
 10
92.92808282697661
 20
365.8627223718253
 30
0.0000000000000000
 11
92.92808282697661
 21
362.0627223736049
 31
0.0000000000000000
  0
LINE
  5
25F
100
AcDbEntity
  8
MAIN0
  6
CONTINUOUS
 62
3
100
AcDbLine
 10
92.92808282697661
 20
362.0627223736049
 30
0.0000000000000000
 11
154.9280828269780
 21
362.0627223736049
 31
0.0000000000000000
  0
LINE
  5
260
100
AcDbEntity
  8
MAIN0
  6
CONTINUOUS
 62
3
100
AcDbLine
 10
92.92808282697661
 20
365.2627223736050
 30
0.0000000000000000
 11
154.9280828269780
 21
365.2627223736050
 31
0.0000000000000000
  0
LINE
  5
261
100
AcDbEntity
  8
MAIN0
  6
CONTINUOUS
 62
3
100
AcDbLine
 10
154.9280828269780
 20
365.8627223736052
 30
0.0000000000000000
 11
154.9280828269780
 21
362.0627223736049
 31
0.0000000000000000
  0
LINE
  5
262
100
AcDbEntity
  8
MAIN0
  6
CONTINUOUS
 62
3
100
AcDbLine
 10
93.92808282697797
 20
362.0627223718253
 30
0.0000000000000000
 11
93.92808282697797
 21
346.8627223718259
 31
0.0000000000000000
  0
LINE
  5
263
100
AcDbEntity
  8
MAIN0
  6
CONTINUOUS
 62
3
100
AcDbLine
 10
92.92808282697797
 20
345.8627223718259
 30
0.0000000000000000
 11
93.92808282697797
 21
346.8627223718259
 31
0.0000000000000000
  0
LINE
  5
264
100
AcDbEntity
  8
MAIN0
  6
CONTINUOUS
 62
3
100
AcDbLine
 10
88.42808282697797
 20
345.8627223718260
 30
0.0000000000000000
 11
92.92808282697774
 21
345.8627223718259
 31
0.0000000000000000
  0
LINE
  5
265
100
AcDbEntity
  8
MAIN0
  6
CONTINUOUS
 62
3
100
AcDbLine
 10
88.42808282697797
 20
345.8627223718253
 30
0.0000000000000000
 11
88.42808282697797
 21
330.8627223718253
 31
0.0000000000000000
  0
LINE
  5
266
100
AcDbEntity
  8
MAIN0
  6
CONTINUOUS
 62
3
100
AcDbLine
 10
93.82808282697806
 20
330.8627223718253
 30
0.0000000000000000
 11
88.42808282697797
 21
330.8627223718253
 31
0.0000000000000000
  0
LINE
  5
267
100
AcDbEntity
  8
MAIN0
  6
CONTINUOUS
 62
3
100
AcDbLine
 10
93.82808282697806
 20
330.8627223718254
 30
0.0000000000000000
 11
94.42808282697797
 21
330.2627223718255
 31
0.0000000000000000
  0
LINE
  5
268
100
AcDbEntity
  8
MAIN0
  6
CONTINUOUS
 62
3
100
AcDbLine
 10
94.42808282697797
 20
330.2627223718253
 30
0.0000000000000000
 11
94.42808282697797
 21
316.8627223697654
 31
0.0000000000000000
  0
ARC
  5
269
100
AcDbEntity
  8
MAIN0
  6
CONTINUOUS
 62
3
100
AcDbCircle
 10
100.4280828269780
 20
316.8627223697654
 30
0.0000000000000000
 40
6.000000000000000
100
AcDbArc
 50
180.0000000000000
 51
243.9431670700172
  0
ARC
  5
26A
100
AcDbEntity
  8
MAIN0
  6
CONTINUOUS
 62
3
100
AcDbCircle
 10
107.8548205920115
 20
310.8627223718253
 30
0.0000000000000000
 40
10.00000000000000
100
AcDbArc
 50
182.0000000000008
 51
270.0000000000000
  0
LINE
  5
26B
100
AcDbEntity
  8
MAIN0
  6
CONTINUOUS
 62
3
100
AcDbLine
 10
97.82803030062928
 20
311.4553452920845
 30
0.0000000000000000
 11
97.86091232182048
 21
310.5137274048001
 31
0.0000000000000000
  0
LINE
  5
26C
100
AcDbEntity
  8
MAIN0
  6
CONTINUOUS
 62
3
100
AcDbLine
 10
107.8548205920115
 20
300.8627223718253
 30
0.0000000000000000
 11
140.0013450619445
 21
300.8627223718253
 31
0.0000000000000000
  0
ARC
  5
26D
100
AcDbEntity
  8
MAIN0
  6
CONTINUOUS
 62
3
100
AcDbCircle
 10
140.0013450619445
 20
310.8627223718253
 30
0.0000000000000000
 40
10.00000000000000
100
AcDbArc
 50
270.0000000000000
 51
358.0000000000002
  0
LINE
  5
26E
100
AcDbEntity
  8
MAIN0
  6
CONTINUOUS
 62
3
100
AcDbLine
 10
150.0281353533267
 20
311.4553452920854
 30
0.0000000000000000
 11
149.9952533321355
 21
310.5137274048004
 31
0.0000000000000000
  0
ARC
  5
26F
100
AcDbEntity
  8
MAIN0
  6
CONTINUOUS
 62
3
100
AcDbCircle
 10
147.4280828269762
 20
316.8627223697654
 30
0.0000000000000000
 40
6.000000000000000
100
AcDbArc
 50
296.0568329316739
 51
359.9999999999997
  0
LINE
  5
270
100
AcDbEntity
  8
MAIN0
  6
CONTINUOUS
 62
3
100
AcDbLine
 10
153.4280828269764
 20
330.2627223718251
 30
0.0000000000000000
 11
153.4280828269763
 21
316.8627223697653
 31
0.0000000000000000
  0
LINE
  5
271
100
AcDbEntity
  8
MAIN0
  6
CONTINUOUS
 62
3
100
AcDbLine
 10
153.4280828269762
 20
330.2627223718253
 30
0.0000000000000000
 11
154.0280828269763
 21
330.8627223718253
 31
0.0000000000000000
  0
LINE
  5
272
100
AcDbEntity
  8
MAIN0
  6
CONTINUOUS
 62
3
100
AcDbLine
 10
154.0280828269764
 20
330.8627223718252
 30
0.0000000000000000
 11
159.4280828269763
 21
330.8627223718252
 31
0.0000000000000000
  0
LINE
  5
273
100
AcDbEntity
  8
MAIN0
  6
CONTINUOUS
 62
3
100
AcDbLine
 10
159.4280828269777
 20
330.8627223718255
 30
0.0000000000000000
 11
159.4280828269777
 21
345.8627223718255
 31
0.0000000000000000
  0
LINE
  5
274
100
AcDbEntity
  8
MAIN0
  6
CONTINUOUS
 62
3
100
AcDbLine
 10
154.9280828269780
 20
345.8627223718253
 30
0.0000000000000000
 11
159.4280828269780
 21
345.8627223718253
 31
0.0000000000000000
  0
LINE
  5
275
100
AcDbEntity
  8
MAIN0
  6
CONTINUOUS
 62
3
100
AcDbLine
 10
154.9280828269780
 20
345.8627223718253
 30
0.0000000000000000
 11
153.9280828269779
 21
346.8627223718253
 31
0.0000000000000000
  0
LINE
  5
276
100
AcDbEntity
  8
MAIN0
  6
CONTINUOUS
 62
3
100
AcDbLine
 10
153.9280828269780
 20
362.0627223718253
 30
0.0000000000000000
 11
153.9280828269780
 21
346.8627223718253
 31
0.0000000000000000
  0
DIMENSION
  5
27F
100
AcDbEntity
  8
MAIN0
  6
CONTINUOUS
 62
3
100
AcDbDimension
  2
*D17
 10
61.42808282697865
 20
433.8627223741417
 30
0.0000000000000000
 11
123.9280828269787
 21
434.3627223741417
 31
0.0000000000000000
 70
32
  3
MAIN001
100
AcDbAlignedDimension
 13
186.4280828269787
 23
415.8627223731648
 33
0.0000000000000000
 14
61.42808282697865
 24
415.8627223731648
 34
0.0000000000000000
100
AcDbRotatedDimension
1001
ACAD
1000
DSTYLE
1002
{
1070
   173
1070
     1
1070
     6
1000
_OPEN
1070
     7
1000
_OPEN
1070
    41
1040
5.000000
1002
}
  0
DIMENSION
  5
288
100
AcDbEntity
  8
MAIN0
  6
CONTINUOUS
 62
3
100
AcDbDimension
  2
*D18
 10
209.6160379990012
 20
365.8627223718253
 30
0.0000000000000000
 11
209.1160379990012
 21
353.8627223728357
 31
0.0000000000000000
 70
32
  3
MAIN001
100
AcDbAlignedDimension
 13
185.9280828269787
 23
341.8627223738459
 33
0.0000000000000000
 14
186.8280822070836
 24
365.8627223718252
 34
0.0000000000000000
 50
90.00000000000000
100
AcDbRotatedDimension
1001
ACAD
1000
DSTYLE
1002
{
1070
   173
1070
     1
1070
     6
1000
_OPEN
1070
     7
1000
_OPEN
1070
    41
1040
5.000000
1002
}
  0
DIMENSION
  5
291
100
AcDbEntity
  8
MAIN0
  6
CONTINUOUS
 62
3
100
AcDbDimension
  2
*D19
 10
209.6160379990012
 20
341.8627223738460
 30
0.0000000000000000
 11
209.1160379990012
 21
321.8627223738460
 31
0.0000000000000000
 70
32
  3
MAIN001
100
AcDbAlignedDimension
 13
185.9280828269782
 23
301.8627223738461
 33
0.0000000000000000
 14
185.9280828269787
 24
341.8627223738459
 34
0.0000000000000000
 50
90.00000000000000
100
AcDbRotatedDimension
1001
ACAD
1000
DSTYLE
1002
{
1070
   173
1070
     1
1070
     6
1000
_OPEN
1070
     7
1000
_OPEN
1070
    41
1040
5.000000
1002
}
  0
DIMENSION
  5
29A
100
AcDbEntity
  8
MAIN0
  6
CONTINUOUS
 62
3
100
AcDbDimension
  2
*D20
 10
209.6160379990012
 20
301.8627223738460
 30
0.0000000000000000
 11
209.1160379990012
 21
291.3627223738460
 31
0.0000000000000000
 70
32
  3
MAIN001
100
AcDbAlignedDimension
 13
186.5280828269783
 23
280.8627223738459
 33
0.0000000000000000
 14
185.9280828269782
 24
301.8627223738461
 34
0.0000000000000000
 50
90.00000000000000
100
AcDbRotatedDimension
1001
ACAD
1000
DSTYLE
1002
{
1070
   173
1070
     1
1070
     6
1000
_OPEN
1070
     7
1000
_OPEN
1070
    41
1040
5.000000
1002
}
  0
DIMENSION
  5
2A4
100
AcDbEntity
  8
MAIN0
  6
CONTINUOUS
 62
3
100
AcDbDimension
  2
*D21
 10
180.9280828269784
 20
317.8627223738460
 30
0.0000000000000000
 11
171.5460805286105
 21
319.1127223738460
 31
0.0000000000000000
 70
160
  3
MAIN001
100
AcDbAlignedDimension
 13
186.9280828269779
 23
300.8627223738458
 33
0.0000000000000000
 14
180.9280828269783
 24
301.8627223738459
 34
0.0000000000000000
100
AcDbRotatedDimension
1001
ACAD
1000
DSTYLE
1002
{
1070
   173
1070
     1
1070
     6
1000
_OPEN
1070
     7
1000
_OPEN
1070
    41
1040
5.000000
1070
   287
1070
     0
1002
}
  0
LINE
  5
2A5
100
AcDbEntity
  8
MAIN0
  6
CONTINUOUS
 62
3
100
AcDbLine
 10
60.92808282697797
 20
364.3627223718252
 30
0.0000000000000000
 11
62.42808282697774
 21
365.8627223718252
 31
0.0000000000000000
  0
LINE
  5
2A6
100
AcDbEntity
  8
MAIN0
  6
CONTINUOUS
 62
3
100
AcDbLine
 10
185.4280828269777
 20
365.8627223718252
 30
0.0000000000000000
 11
186.9280828269777
 21
364.3627223718253
 31
0.0000000000000000
  0
ARC
  5
2A7
100
AcDbEntity
  8
MAIN0
  6
CONTINUOUS
 62
3
100
AcDbCircle
 10
669.0400319625393
 20
294.8627223746164
 30
0.0000000000000000
 40
3.000000000000000
100
AcDbArc
 50
270.0000000000000
 51
360.0000000000000
  0
ARC
  5
2A8
100
AcDbEntity
  8
MAIN0
  6
CONTINUOUS
 62
3
100
AcDbCircle
 10
675.0400319632396
 20
598.3155397024764
 30
0.0000000000000000
 40
3.000000000000000
100
AcDbArc
 50
90.00000000000000
 51
180.0000000000000
  0
ARC
  5
2A9
100
AcDbEntity
  8
MAIN0
  6
CONTINUOUS
 62
3
100
AcDbCircle
 10
675.0400319633014
 20
631.2413637400348
 30
0.0000000000000000
 40
3.000000000000000
100
AcDbArc
 50
180.0000000000000
 51
270.0000000000000
  0
MTEXT
  5
2AA
100
AcDbEntity
  8
MAIN0
  6
CONTINUOUS
 62
3
100
AcDbMText
 10
681.8479290645224
 20
154.9758254885978
 30
0.0000000000000000
 40
7.749999761581421
 41
0.0000000000000000
 71
     1
 72
     1
  1
{\H0.94x;{(押さえ金具４セット付属)}}
 11
1.000000000000000
 21
0.0000000000000000
 31
0.0000000000000000
  7
KNJYOKO
  0
MTEXT
  5
2AB
100
AcDbEntity
  8
MAIN0
  6
CONTINUOUS
 62
3
100
AcDbMText
 10
682.3688360652404
 20
141.6444456621816
 30
0.0000000000000000
 40
7.500000000000000
 41
0.0000000000000000
 71
     1
 72
     1
  1
{\H0.63x;{(CLAMPING PARTS  ACCESSARY 4 PAIR)}}
 11
1.000000000000000
 21
0.0000000000000000
 31
0.0000000000000000
  7
STANDARD
  0
LEADER
  5
2AC
100
AcDbEntity
  8
MAIN0
  6
CONTINUOUS
 62
3
100
AcDbLeader
  3
MAIN001
 73
     0
 75
     1
 40
7.500000000000000
 41
65.24899827146533
 76
     3
 10
858.4433609939462
 20
321.4687193740048
 30
0.0000000000000000
 10
807.4407937947256
 20
212.8316794611023
 30
0.0000000000000000
 10
803.2397937947255
 20
212.8316794611023
 30
0.0000000000000000
340
2AD
213
0.0000000000000000
223
-1.250000000000000
233
0.0000000000000000
1001
ACAD
1000
DSTYLE
1002
{
1070
   147
1040
0.0
1070
    77
1070
     1
1070
   173
1070
     1
1070
     6
1000
_DOT
1070
     7
1000
_DOT
1002
}
  0
MTEXT
  5
2AD
102
{ACAD_REACTORS
330
2AC
102
}
100
AcDbEntity
  8
MAIN0
  6
CONTINUOUS
 62
3
100
AcDbMText
 10
737.9907955232602
 20
221.5816794611023
 30
0.0000000000000000
 40
7.500000000000000
 41
0.0000000000000000
 71
     1
 72
     1
  1
{\H0.61x;{六角穴付ボルト\PM16×65\PHEX,SOCKET HEAD\PCAP SCREW}}
 11
1.000000000000000
 21
0.0000000000000000
 31
0.0000000000000000
  7
KNJYOKO
  0
DIMENSION
  5
2B6
100
AcDbEntity
  8
MAIN0
  6
CONTINUOUS
 62
3
100
AcDbDimension
  2
*D22
 10
287.0400319630903
 20
537.4112995642233
 30
0.0000000000000000
 11
320.2250094165745
 21
538.6612995642233
 31
0.0000000000000000
 70
160
  3
MAIN001
100
AcDbAlignedDimension
 13
342.0400319630903
 23
581.2965998842747
 33
0.0000000000000000
 14
287.0400319630903
 24
581.2965998842747
 34
0.0000000000000000
100
AcDbRotatedDimension
1001
ACAD
1000
DSTYLE
1002
{
1070
   173
1070
     1
1070
     6
1000
_OPEN
1070
     7
1000
_OPEN
1070
    41
1040
5.000000
1002
}
  0
DIMENSION
  5
2C1
100
AcDbEntity
  8
MAIN0
  6
CONTINUOUS
 62
3
100
AcDbDimension
  2
*D23
 10
342.0400319630903
 20
537.4112995642233
 30
0.0000000000000000
 11
362.3027969284768
 21
538.6612995642233
 31
0.0000000000000000
 70
160
  3
MAIN001
100
AcDbAlignedDimension
 13
352.0400319630903
 23
552.7784517238681
 33
0.0000000000000000
 14
342.0400319630903
 24
581.2965998842747
 34
0.0000000000000000
100
AcDbRotatedDimension
1001
ACAD
1000
DSTYLE
1002
{
1070
   173
1070
     1
1070
     6
1000
_OPEN
1070
     7
1000
_OPEN
1070
    41
1040
5.000000
1070
   287
1070
     0
1002
}
  0
DIMENSION
  5
2CC
100
AcDbEntity
  8
MAIN0
  6
CONTINUOUS
 62
3
100
AcDbDimension
  2
*D24
 10
422.0400319623462
 20
537.4112995642233
 30
0.0000000000000000
 11
411.6875331908459
 21
538.6612995642233
 31
0.0000000000000000
 70
160
  3
MAIN001
100
AcDbAlignedDimension
 13
432.0400319623051
 23
565.1519036423640
 33
0.0000000000000000
 14
422.0400319623462
 24
552.8784517233511
 34
0.0000000000000000
100
AcDbRotatedDimension
1001
ACAD
1000
DSTYLE
1002
{
1070
   173
1070
     1
1070
     6
1000
_OPEN
1070
     7
1000
_OPEN
1070
    41
1040
5.000000
1070
   287
1070
     0
1002
}
  0
DIMENSION
  5
2D5
100
AcDbEntity
  8
MAIN0
  6
CONTINUOUS
 62
3
100
AcDbDimension
  2
*D25
 10
432.0400319623051
 20
537.4112995642233
 30
0.0000000000000000
 11
452.7933668771231
 21
538.6612995642233
 31
0.0000000000000000
 70
160
  3
MAIN001
100
AcDbAlignedDimension
 13
482.0400319623051
 23
565.1519036422708
 33
0.0000000000000000
 14
432.0400319623051
 24
565.1519036423640
 34
0.0000000000000000
100
AcDbRotatedDimension
1001
ACAD
1000
DSTYLE
1002
{
1070
   173
1070
     1
1070
     6
1000
_OPEN
1070
     7
1000
_OPEN
1070
    41
1040
5.000000
1002
}
  0
LINE
  5
2D6
100
AcDbEntity
  8
MAIN0
  6
CENTER
 62
3
100
AcDbLine
 10
257.0400319618939
 20
614.7784517235531
 30
0.0000000000000000
 11
517.9879817844728
 21
614.7784517232013
 31
0.0000000000000000
  0
LINE
  5
2D7
100
AcDbEntity
  8
MAIN0
  6
CENTER
 62
3
100
AcDbLine
 10
533.2379815460541
 20
614.7784517231809
 30
0.0000000000000000
 11
744.2341624167337
 21
614.7784517228964
 31
0.0000000000000000
  0
DIMENSION
  5
2E2
100
AcDbEntity
  8
MAIN0
  6
CONTINUOUS
 62
3
100
AcDbDimension
  2
*D26
 10
757.0400319626871
 20
587.4694275053130
 30
0.0000000000000000
 11
764.5400319626872
 21
587.9694275053130
 31
0.0000000000000000
 70
32
  3
MAIN001
100
AcDbAlignedDimension
 13
772.0400319626882
 23
395.8627223727242
 33
0.0000000000000000
 14
757.0400319626871
 24
385.8627223727240
 34
0.0000000000000000
100
AcDbRotatedDimension
1001
ACAD
1000
DSTYLE
1002
{
1070
   173
1070
     1
1070
     6
1000
_OPEN
1070
     7
1000
_OPEN
1070
    41
1040
5.000000
1070
   287
1070
     0
1002
}
  0
DIMENSION
  5
2EB
100
AcDbEntity
  8
MAIN0
  6
CONTINUOUS
 62
3
100
AcDbDimension
  2
*D27
 10
772.0400319626872
 20
587.4694275053130
 30
0.0000000000000000
 11
787.0400319626783
 21
587.9694275053130
 31
0.0000000000000000
 70
32
  3
MAIN001
100
AcDbAlignedDimension
 13
802.0400319626693
 23
556.3627223727240
 33
0.0000000000000000
 14
772.0400319626882
 24
395.8627223727242
 34
0.0000000000000000
100
AcDbRotatedDimension
1001
ACAD
1000
DSTYLE
1002
{
1070
   173
1070
     1
1070
     6
1000
_OPEN
1070
     7
1000
_OPEN
1070
    41
1040
5.000000
1002
}
  0
DIMENSION
  5
2F4
100
AcDbEntity
  8
MAIN0
  6
CONTINUOUS
 62
3
100
AcDbDimension
  2
*D28
 10
802.0400319626693
 20
587.4694275053130
 30
0.0000000000000000
 11
838.0400319626665
 21
587.9694275053130
 31
0.0000000000000000
 70
32
  3
MAIN001
100
AcDbAlignedDimension
 13
874.0400319626635
 23
565.8627223727243
 33
0.0000000000000000
 14
802.0400319626693
 24
556.3627223727240
 34
0.0000000000000000
100
AcDbRotatedDimension
1001
ACAD
1000
DSTYLE
1002
{
1070
   173
1070
     1
1070
     6
1000
_OPEN
1070
     7
1000
_OPEN
1070
    41
1040
5.000000
1002
}
  0
DIMENSION
  5
2FD
100
AcDbEntity
  8
MAIN0
  6
CONTINUOUS
 62
3
100
AcDbDimension
  2
*D29
 10
757.0400319626871
 20
606.3560277183281
 30
0.0000000000000000
 11
815.5400319626754
 21
606.8560277183281
 31
0.0000000000000000
 70
32
  3
MAIN001
100
AcDbAlignedDimension
 13
874.0400319626635
 23
565.8627223727243
 33
0.0000000000000000
 14
757.0400319626871
 24
385.8627223727240
 34
0.0000000000000000
100
AcDbRotatedDimension
1001
ACAD
1000
DSTYLE
1002
{
1070
   173
1070
     1
1070
     6
1000
_OPEN
1070
     7
1000
_OPEN
1070
    41
1040
5.000000
1002
}
  0
DIMENSION
  5
306
100
AcDbEntity
  8
MAIN0
  6
CONTINUOUS
 62
3
100
AcDbDimension
  2
*D30
 10
817.3870444250227
 20
214.8627223747760
 30
0.0000000000000000
 11
852.8870444250229
 21
215.3627223747760
 31
0.0000000000000000
 70
32
  3
MAIN001
100
AcDbAlignedDimension
 13
888.3870444250231
 23
281.2627223747764
 33
0.0000000000000000
 14
817.3870444250227
 24
310.8627223747760
 34
0.0000000000000000
100
AcDbRotatedDimension
1001
ACAD
1000
DSTYLE
1002
{
1070
   173
1070
     1
1070
     6
1000
_OPEN
1070
     7
1000
_OPEN
1070
    41
1040
5.000000
1002
}
  0
DIMENSION
  5
30F
100
AcDbEntity
  8
MAIN0
  6
CONTINUOUS
 62
3
100
AcDbDimension
  2
*D31
 10
888.3870444250231
 20
214.8627223747760
 30
0.0000000000000000
 11
951.3870444250229
 21
215.3627223747760
 31
0.0000000000000000
 70
32
  3
MAIN001
100
AcDbAlignedDimension
 13
1014.387044425023
 23
281.2627223747758
 33
0.0000000000000000
 14
888.3870444250231
 24
281.2627223747764
 34
0.0000000000000000
100
AcDbRotatedDimension
1001
ACAD
1000
DSTYLE
1002
{
1070
   173
1070
     1
1070
     6
1000
_OPEN
1070
     7
1000
_OPEN
1070
    41
1040
5.000000
1002
}
  0
INSERT
  5
317
100
AcDbEntity
  8
MAIN0
  6
CONTINUOUS
 62
3
100
AcDbBlockReference
  2
D32
 10
951.3870444250229
 20
270.3341284293171
 30
0.0000000000000000
 50
0.0000000000000000
  0
DIMENSION
  5
320
100
AcDbEntity
  8
MAIN0
  6
CONTINUOUS
 62
3
100
AcDbDimension
  2
*D33
 10
352.0400319623980
 20
239.8627223742674
 30
0.0000000000000000
 11
422.0400319623825
 21
240.3627223742674
 31
0.0000000000000000
 70
32
  3
MAIN001
100
AcDbAlignedDimension
 13
492.0400319623672
 23
266.8730051140408
 33
0.0000000000000000
 14
352.0400319623980
 24
366.2627223741105
 34
0.0000000000000000
100
AcDbRotatedDimension
1001
ACAD
1000
DSTYLE
1002
{
1070
   173
1070
     1
1070
     6
1000
_OPEN
1070
     7
1000
_OPEN
1070
    41
1040
5.000000
1002
}
  0
DIMENSION
  5
329
100
AcDbEntity
  8
MAIN0
  6
CONTINUOUS
 62
3
100
AcDbDimension
  2
*D34
 10
492.0400319623672
 20
239.8627223742674
 30
0.0000000000000000
 11
564.5400319624251
 21
240.3627223742674
 31
0.0000000000000000
 70
32
  3
MAIN001
100
AcDbAlignedDimension
 13
637.0400319624831
 23
281.2627223745738
 33
0.0000000000000000
 14
492.0400319623672
 24
266.8730051140408
 34
0.0000000000000000
100
AcDbRotatedDimension
1001
ACAD
1000
DSTYLE
1002
{
1070
   173
1070
     1
1070
     6
1000
_OPEN
1070
     7
1000
_OPEN
1070
    41
1040
5.000000
1002
}
  0
DIMENSION
  5
331
100
AcDbEntity
  8
MAIN0
  6
CONTINUOUS
 62
3
100
AcDbDimension
  2
*D35
 10
538.0400319626904
 20
280.8627223743885
 30
0.0000000000000000
 11
537.5400319626904
 21
301.3627223745154
 31
0.0000000000000000
 70
32
  3
MAIN001
100
AcDbAlignedDimension
 13
555.0400319626893
 23
321.8627223746423
 33
0.0000000000000000
 14
501.0400319623740
 24
280.8627223743885
 34
0.0000000000000000
 50
90.00000000000000
100
AcDbRotatedDimension
1001
ACAD
1000
DSTYLE
1002
{
1070
   173
1070
     1
1070
     6
1000
_OPEN
1070
     7
1000
_OPEN
1070
    41
1040
5.000000
1002
}
  0
DIMENSION
  5
33A
100
AcDbEntity
  8
MAIN0
  6
CONTINUOUS
 62
3
100
AcDbDimension
  2
*D36
 10
538.0400319626904
 20
321.8627223746423
 30
0.0000000000000000
 11
537.5400319626904
 21
343.8627223745122
 31
0.0000000000000000
 70
32
  3
MAIN001
100
AcDbAlignedDimension
 13
498.0400319623981
 23
365.8627223743821
 33
0.0000000000000000
 14
555.0400319626893
 24
321.8627223746423
 34
0.0000000000000000
 50
90.00000000000000
100
AcDbRotatedDimension
1001
ACAD
1000
DSTYLE
1002
{
1070
   173
1070
     1
1070
     6
1000
_OPEN
1070
     7
1000
_OPEN
1070
    41
1040
5.000000
1002
}
  0
DIMENSION
  5
343
100
AcDbEntity
  8
MAIN0
  6
CONTINUOUS
 62
3
100
AcDbDimension
  2
*D37
 10
310.0400319631448
 20
514.7937868396077
 30
0.0000000000000000
 11
331.0400319631176
 21
515.2937868396077
 31
0.0000000000000000
 70
32
  3
MAIN001
100
AcDbAlignedDimension
 13
352.0400319630903
 23
552.7784517238680
 33
0.0000000000000000
 14
310.0400319631448
 24
603.7784517238680
 34
0.0000000000000000
100
AcDbRotatedDimension
1001
ACAD
1000
DSTYLE
1002
{
1070
   173
1070
     1
1070
     6
1000
_OPEN
1070
     7
1000
_OPEN
1070
    41
1040
5.000000
1002
}
  0
LINE
  5
344
100
AcDbEntity
  8
MAIN0
  6
CENTER
 62
3
100
AcDbLine
 10
730.7294890302272
 20
330.8627223726270
 30
0.0000000000000000
 11
730.7294890301928
 21
385.8627223727240
 31
0.0000000000000000
  0
LINE
  5
345
100
AcDbEntity
  8
MAIN0
  6
CENTER
 62
3
100
AcDbLine
 10
770.1697969151974
 20
336.8129839083011
 30
0.0000000000000000
 11
770.1697969151691
 21
243.8519055276207
 31
0.0000000000000000
  0
LINE
  5
346
100
AcDbEntity
  8
MAIN0
  6
CONTINUOUS
 62
3
100
AcDbLine
 10
747.6697969151901
 20
310.8627223747774
 30
0.0000000000000000
 11
749.3419280627219
 21
280.8627223748962
 31
0.0000000000000000
  0
LINE
  5
347
100
AcDbEntity
  8
MAIN0
  6
CONTINUOUS
 62
3
100
AcDbLine
 10
792.6697969151887
 20
310.8627223747638
 30
0.0000000000000000
 11
790.9976657676386
 21
280.8627223748835
 31
0.0000000000000000
  0
LINE
  5
348
100
AcDbEntity
  8
MAIN0
  6
CONTINUOUS
 62
3
100
AcDbLine
 10
747.6697969151893
 20
310.8627223747776
 30
0.0000000000000000
 11
792.6697969151893
 21
310.8627223747639
 31
0.0000000000000000
  0
LINE
  5
349
100
AcDbEntity
  8
MAIN0
  6
CONTINUOUS
 62
3
100
AcDbLine
 10
749.3419280627219
 20
280.8627223748962
 30
0.0000000000000000
 11
790.9976657676386
 21
280.8627223748835
 31
0.0000000000000000
  0
DIMENSION
  5
352
100
AcDbEntity
  8
MAIN0
  6
CONTINUOUS
 62
3
100
AcDbDimension
  2
*D38
 10
747.6697969151894
 20
344.6357166738181
 30
0.0000000000000000
 11
770.1697969151892
 21
345.1357166738181
 31
0.0000000000000000
 70
32
  3
MAIN001
100
AcDbAlignedDimension
 13
792.6697969151890
 23
310.8627223747636
 33
0.0000000000000000
 14
747.6697969151894
 24
310.8627223747774
 34
0.0000000000000000
100
AcDbRotatedDimension
1001
ACAD
1000
DSTYLE
1002
{
1070
   173
1070
     1
1070
     6
1000
_OPEN
1070
     7
1000
_OPEN
1070
    41
1040
5.000000
1002
}
  0
LINE
  5
353
100
AcDbEntity
  8
MAIN0
  6
CENTER
 62
3
100
AcDbLine
 10
865.3870444250227
 20
152.8767132530919
 30
0.0000000000000000
 11
865.3870444250227
 21
335.2627223747758
 31
0.0000000000000000
  0
DIMENSION
  5
35C
100
AcDbEntity
  8
MAIN0
  6
CONTINUOUS
 62
1
100
AcDbDimension
  2
*D39
 10
865.3870444250227
 20
232.8627223747760
 30
0.0000000000000000
 11
907.4447732475514
 21
234.1127223747760
 31
0.0000000000000000
 70
160
  1
\A1;15～31
  3
MAIN001
100
AcDbAlignedDimension
 13
888.3870444250231
 23
281.2627223747764
 33
0.0000000000000000
 14
865.3870444250227
 24
152.8767132530919
 34
0.0000000000000000
100
AcDbRotatedDimension
1001
ACAD
1000
DSTYLE
1002
{
1070
   173
1070
     1
1070
     6
1000
_OPEN
1070
     7
1000
_OPEN
1070
    41
1040
5.000000
1070
   340
1005
35D
1002
}
  0
DIMENSION
  5
368
100
AcDbEntity
  8
MAIN0
  6
CONTINUOUS
 62
3
100
AcDbDimension
  2
*D40
 10
827.2689127589828
 20
186.0046174927259
 30
0.0000000000000000
 11
826.7689127589828
 21
171.7546174927260
 31
0.0000000000000000
 70
32
  3
MAIN001
100
AcDbAlignedDimension
 13
850.1182272206943
 23
157.5046174927261
 33
0.0000000000000000
 14
850.1182272206742
 24
186.0046174927259
 34
0.0000000000000000
 50
90.00000000000000
100
AcDbRotatedDimension
1001
ACAD
1000
DSTYLE
1002
{
1070
   173
1070
     1
1070
     6
1000
_OPEN
1070
     7
1000
_OPEN
1070
    41
1040
5.000000
1070
   287
1070
     0
1002
}
  0
DIMENSION
  5
373
100
AcDbEntity
  8
MAIN0
  6
CONTINUOUS
 62
3
100
AcDbDimension
  2
*D41
 10
907.9456470493492
 20
180.5046174927260
 30
0.0000000000000000
 11
906.6956470493492
 21
148.0416650426857
 31
0.0000000000000000
 70
160
  3
MAIN001
100
AcDbAlignedDimension
 13
880.1182272206903
 23
163.0046174927178
 33
0.0000000000000000
 14
880.1182272206780
 24
180.5046174927177
 34
0.0000000000000000
 50
90.00000000000000
100
AcDbRotatedDimension
1001
ACAD
1000
DSTYLE
1002
{
1070
   173
1070
     1
1070
     6
1000
_OPEN
1070
     7
1000
_OPEN
1070
    41
1040
5.000000
1070
   287
1070
     0
1002
}
  0
DIMENSION
  5
37C
100
AcDbEntity
  8
MAIN0
  6
CONTINUOUS
 62
3
100
AcDbDimension
  2
*D42
 10
850.1182272206943
 20
138.4003458994644
 30
0.0000000000000000
 11
865.1182272206941
 21
138.9003458994644
 31
0.0000000000000000
 70
32
  3
MAIN001
100
AcDbAlignedDimension
 13
880.1182272206938
 23
157.5046174927178
 33
0.0000000000000000
 14
850.1182272206943
 24
157.5046174927261
 34
0.0000000000000000
100
AcDbRotatedDimension
1001
ACAD
1000
DSTYLE
1002
{
1070
   173
1070
     1
1070
     6
1000
_OPEN
1070
     7
1000
_OPEN
1070
    41
1040
5.000000
1002
}
  0
DIMENSION
  5
385
100
AcDbEntity
  8
MAIN0
  6
CONTINUOUS
 62
3
100
AcDbDimension
  2
*D43
 10
267.0400319623018
 20
221.8627223745957
 30
0.0000000000000000
 11
452.0400319623925
 21
222.3627223745957
 31
0.0000000000000000
 70
32
  3
MAIN001
100
AcDbAlignedDimension
 13
637.0400319624831
 23
281.2627223745738
 33
0.0000000000000000
 14
267.0400319623018
 24
281.2627223740639
 34
0.0000000000000000
100
AcDbRotatedDimension
1001
ACAD
1000
DSTYLE
1002
{
1070
   173
1070
     1
1070
     6
1000
_OPEN
1070
     7
1000
_OPEN
1070
    41
1040
5.000000
1002
}
  0
DIMENSION
  5
38E
100
AcDbEntity
  8
MAIN0
  6
CONTINUOUS
 62
3
100
AcDbDimension
  2
*D44
 10
637.0400319624831
 20
221.8627223745957
 30
0.0000000000000000
 11
679.5400319625851
 21
222.3627223745957
 31
0.0000000000000000
 70
32
  3
MAIN001
100
AcDbAlignedDimension
 13
722.0400319626872
 23
305.8627223726264
 33
0.0000000000000000
 14
637.0400319624831
 24
281.2627223745738
 34
0.0000000000000000
100
AcDbRotatedDimension
1001
ACAD
1000
DSTYLE
1002
{
1070
   173
1070
     1
1070
     6
1000
_OPEN
1070
     7
1000
_OPEN
1070
    41
1040
5.000000
1002
}
  0
DIMENSION
  5
397
100
AcDbEntity
  8
MAIN0
  6
CONTINUOUS
 62
3
100
AcDbDimension
  2
*D45
 10
735.2562469173206
 20
280.8627223743885
 30
0.0000000000000000
 11
734.7562469173206
 21
305.8627223735077
 31
0.0000000000000000
 70
32
  3
MAIN001
100
AcDbAlignedDimension
 13
730.7294890302272
 23
330.8627223726270
 33
0.0000000000000000
 14
636.6400319624813
 24
280.8627223745726
 34
0.0000000000000000
 50
90.00000000000000
100
AcDbRotatedDimension
1001
ACAD
1000
DSTYLE
1002
{
1070
   173
1070
     1
1070
     6
1000
_OPEN
1070
     7
1000
_OPEN
1070
    41
1040
5.000000
1002
}
  0
DIMENSION
  5
3A2
100
AcDbEntity
  8
MAIN0
  6
CONTINUOUS
 62
3
100
AcDbDimension
  2
*D46
 10
483.0400319623672
 20
257.8627223742674
 30
0.0000000000000000
 11
470.1597387288501
 21
259.1127223742674
 31
0.0000000000000000
 70
160
  3
MAIN001
100
AcDbAlignedDimension
 13
501.0400319623672
 23
275.8627223742676
 33
0.0000000000000000
 14
483.0400319623672
 24
275.8627223742676
 34
0.0000000000000000
100
AcDbRotatedDimension
1001
ACAD
1000
DSTYLE
1002
{
1070
   173
1070
     1
1070
     6
1000
_OPEN
1070
     7
1000
_OPEN
1070
    41
1040
5.000000
1070
   287
1070
     0
1002
}
  0
DIMENSION
  5
3AB
100
AcDbEntity
  8
MAIN0
  6
CONTINUOUS
 62
3
100
AcDbDimension
  2
*D47
 10
267.0400319623017
 20
203.8627223744298
 30
0.0000000000000000
 11
377.4052793695749
 21
205.1127223744298
 31
0.0000000000000000
 70
160
  3
MAIN001
100
AcDbAlignedDimension
 13
492.0400319623672
 23
266.8730051140408
 33
0.0000000000000000
 14
267.0400319623017
 24
281.2627223740639
 34
0.0000000000000000
100
AcDbRotatedDimension
1001
ACAD
1000
DSTYLE
1002
{
1070
   173
1070
     1
1070
     6
1000
_OPEN
1070
     7
1000
_OPEN
1070
    41
1040
5.000000
1002
}
  0
DIMENSION
  5
3B4
100
AcDbEntity
  8
MAIN0
  6
CONTINUOUS
 62
3
100
AcDbDimension
  2
*D48
 10
492.0400319623672
 20
203.8627223744298
 30
0.0000000000000000
 11
611.4574926751669
 21
205.1127223744298
 31
0.0000000000000000
 70
160
  3
MAIN001
100
AcDbAlignedDimension
 13
722.0400319626872
 23
305.8627223726264
 33
0.0000000000000000
 14
492.0400319623672
 24
266.8730051140408
 34
0.0000000000000000
100
AcDbRotatedDimension
1001
ACAD
1000
DSTYLE
1002
{
1070
   173
1070
     1
1070
     6
1000
_OPEN
1070
     7
1000
_OPEN
1070
    41
1040
5.000000
1002
}
  0
DIMENSION
  5
3BD
100
AcDbEntity
  8
MAIN0
  6
CONTINUOUS
 62
3
100
AcDbDimension
  2
*D49
 10
267.0400319623017
 20
185.8627223742674
 30
0.0000000000000000
 11
505.6183636290001
 21
186.5293890409341
 31
0.0000000000000000
 70
160
  3
MAIN001
100
AcDbAlignedDimension
 13
722.0400319626871
 23
305.8627223726264
 33
0.0000000000000000
 14
267.0400319623017
 24
281.2627223740640
 34
0.0000000000000000
100
AcDbRotatedDimension
1001
ACAD
1000
DSTYLE
1002
{
1070
   173
1070
     1
1070
     6
1000
_OPEN
1070
     7
1000
_OPEN
1070
    41
1040
5.000000
1002
}
  0
DIMENSION
  5
3C6
100
AcDbEntity
  8
MAIN0
  6
CONTINUOUS
 62
3
100
AcDbDimension
  2
*D50
 10
251.0400319623019
 20
415.8627223741107
 30
0.0000000000000000
 11
250.5400319623019
 21
390.8627223741107
 31
0.0000000000000000
 70
32
  3
MAIN001
100
AcDbAlignedDimension
 13
268.4400319623982
 23
365.8627223741107
 33
0.0000000000000000
 14
268.2400319623981
 24
415.8627223741107
 34
0.0000000000000000
 50
90.00000000000000
100
AcDbRotatedDimension
1001
ACAD
1000
DSTYLE
1002
{
1070
   173
1070
     1
1070
     6
1000
_OPEN
1070
     7
1000
_OPEN
1070
    41
1040
5.000000
1002
}
  0
DIMENSION
  5
3CF
100
AcDbEntity
  8
MAIN0
  6
CONTINUOUS
 62
3
100
AcDbDimension
  2
*D51
 10
251.0400319623019
 20
365.8627223741107
 30
0.0000000000000000
 11
250.5400319623019
 21
323.3627223740873
 31
0.0000000000000000
 70
32
  3
MAIN001
100
AcDbAlignedDimension
 13
267.4400319623017
 23
280.8627223740639
 33
0.0000000000000000
 14
268.4400319623982
 24
365.8627223741107
 34
0.0000000000000000
 50
90.00000000000000
100
AcDbRotatedDimension
1001
ACAD
1000
DSTYLE
1002
{
1070
   173
1070
     1
1070
     6
1000
_OPEN
1070
     7
1000
_OPEN
1070
    41
1040
5.000000
1002
}
  0
DIMENSION
  5
3D8
100
AcDbEntity
  8
MAIN0
  6
CONTINUOUS
 62
3
100
AcDbDimension
  2
*D52
 10
235.0400319623019
 20
415.8627223741107
 30
0.0000000000000000
 11
234.5400319623019
 21
348.3627223740873
 31
0.0000000000000000
 70
32
  3
MAIN001
100
AcDbAlignedDimension
 13
267.4400319623017
 23
280.8627223740639
 33
0.0000000000000000
 14
268.2400319623981
 24
415.8627223741107
 34
0.0000000000000000
 50
90.00000000000000
100
AcDbRotatedDimension
1001
ACAD
1000
DSTYLE
1002
{
1070
   173
1070
     1
1070
     6
1000
_OPEN
1070
     7
1000
_OPEN
1070
    41
1040
5.000000
1002
}
  0
LINE
  5
3D9
100
AcDbEntity
  8
MAIN0
  6
CONTINUOUS
 62
3
100
AcDbLine
 10
267.0400319628021
 20
676.7784517235400
 30
0.0000000000000000
 11
267.0400319622495
 21
552.7784517235399
 31
0.0000000000000000
  0
LINE
  5
3DA
100
AcDbEntity
  8
MAIN0
  6
CONTINUOUS
 62
3
100
AcDbLine
 10
352.0400319630904
 20
645.7784517234240
 30
0.0000000000000000
 11
422.0400319624236
 21
645.7784517233297
 31
0.0000000000000000
  0
LINE
  5
3DB
100
AcDbEntity
  8
MAIN0
  6
CONTINUOUS
 62
3
100
AcDbLine
 10
268.0400319622451
 20
551.7784517235382
 30
0.0000000000000000
 11
267.0400319622494
 21
552.7784517235397
 31
0.0000000000000000
  0
LINE
  5
3DC
100
AcDbEntity
  8
MAIN0
  6
CONTINUOUS
 62
3
100
AcDbLine
 10
267.0400319628024
 20
676.7784517235398
 30
0.0000000000000000
 11
268.0400319628068
 21
677.7784517235384
 31
0.0000000000000000
  0
LINE
  5
3DD
100
AcDbEntity
  8
MAIN0
  6
CONTINUOUS
 62
3
100
AcDbLine
 10
352.0400319630904
 20
583.7784517234252
 30
0.0000000000000000
 11
422.0400319623719
 21
583.7784517233307
 31
0.0000000000000000
  0
LINE
  5
3DE
100
AcDbEntity
  8
MAIN0
  6
CONTINUOUS
 62
3
100
AcDbLine
 10
268.0400319628066
 20
677.7784517235384
 30
0.0000000000000000
 11
498.0400319624498
 21
677.7784517232283
 31
0.0000000000000000
  0
LINE
  5
3DF
100
AcDbEntity
  8
MAIN0
  6
CONTINUOUS
 62
3
100
AcDbLine
 10
268.0400319622451
 20
551.7784517235383
 30
0.0000000000000000
 11
498.0400319623451
 21
551.7784517232281
 31
0.0000000000000000
  0
CIRCLE
  5
3E0
100
AcDbEntity
  8
MAIN0
  6
CONTINUOUS
 62
3
100
AcDbCircle
 10
310.0400319631448
 20
614.7784517238680
 30
0.0000000000000000
 40
5.000000000000000
  0
CIRCLE
  5
3E1
100
AcDbEntity
  8
MAIN0
  6
CONTINUOUS
 62
3
100
AcDbCircle
 10
310.0400319631448
 20
614.7784517238680
 30
0.0000000000000000
 40
4.250000000000000
  0
CIRCLE
  5
3E2
100
AcDbEntity
  8
MAIN0
  6
CONTINUOUS
 62
3
100
AcDbCircle
 10
438.0400319623815
 20
595.7784517233492
 30
0.0000000000000000
 40
9.500000000000000
  0
LINE
  5
3E3
100
AcDbEntity
  8
MAIN0
  6
CONTINUOUS
 62
3
100
AcDbLine
 10
498.0400319623412
 20
547.2784517232286
 30
0.0000000000000000
 11
498.0400319624536
 21
682.2784517232285
 31
0.0000000000000000
  0
LINE
  5
3E4
100
AcDbEntity
  8
MAIN0
  6
CONTINUOUS
 62
3
100
AcDbLine
 10
422.0400319623462
 20
552.8784517233511
 30
0.0000000000000000
 11
422.0400319624493
 21
676.6784517233106
 31
0.0000000000000000
  0
LINE
  5
3E5
100
AcDbEntity
  8
MAIN0
  6
CONTINUOUS
 62
3
100
AcDbLine
 10
422.6400319624493
 20
677.2784517233104
 30
0.0000000000000000
 11
497.5400319624493
 21
677.2784517233296
 31
0.0000000000000000
  0
LINE
  5
3E6
100
AcDbEntity
  8
MAIN0
  6
CONTINUOUS
 62
3
100
AcDbLine
 10
422.6400319623450
 20
552.2784517233507
 30
0.0000000000000000
 11
497.5400319623454
 21
552.2784517233428
 31
0.0000000000000000
  0
LINE
  5
3E7
100
AcDbEntity
  8
MAIN0
  6
CONTINUOUS
 62
3
100
AcDbLine
 10
498.0400319624492
 20
676.7784517233301
 30
0.0000000000000000
 11
497.5400319624498
 21
677.2784517233299
 31
0.0000000000000000
  0
LINE
  5
3E8
100
AcDbEntity
  8
MAIN0
  6
CONTINUOUS
 62
3
100
AcDbLine
 10
498.0400319623460
 20
552.7784517233428
 30
0.0000000000000000
 11
497.5400319623455
 21
552.2784517233428
 31
0.0000000000000000
  0
LINE
  5
3E9
100
AcDbEntity
  8
MAIN0
  6
CONTINUOUS
 62
3
100
AcDbLine
 10
422.6400319623453
 20
552.2784517233506
 30
0.0000000000000000
 11
422.0400319623458
 21
552.8784517233506
 31
0.0000000000000000
  0
LINE
  5
3EA
100
AcDbEntity
  8
MAIN0
  6
CONTINUOUS
 62
3
100
AcDbLine
 10
422.6400319624499
 20
677.2784517233108
 30
0.0000000000000000
 11
422.0400319624494
 21
676.6784517233107
 31
0.0000000000000000
  0
LINE
  5
3EB
100
AcDbEntity
  8
MAIN0
  6
CENTER
 62
3
100
AcDbLine
 10
482.0400319623819
 20
607.9451183900115
 30
0.0000000000000000
 11
482.0400319623818
 21
583.6117850566782
 31
0.0000000000000000
  0
LINE
  5
3EC
100
AcDbEntity
  8
MAIN0
  6
CENTER
 62
3
100
AcDbLine
 10
469.8733652957150
 20
595.7784517233447
 30
0.0000000000000000
 11
494.2066986290483
 21
595.7784517233447
 31
0.0000000000000000
  0
LINE
  5
3ED
100
AcDbEntity
  8
MAIN0
  6
CENTER
 62
3
100
AcDbLine
 10
482.0400319624133
 20
645.9451183900112
 30
0.0000000000000000
 11
482.0400319624133
 21
621.6117850566780
 31
0.0000000000000000
  0
LINE
  5
3EE
100
AcDbEntity
  8
MAIN0
  6
CENTER
 62
3
100
AcDbLine
 10
469.8733652957466
 20
633.7784517233445
 30
0.0000000000000000
 11
494.2066986290799
 21
633.7784517233445
 31
0.0000000000000000
  0
LINE
  5
3EF
100
AcDbEntity
  8
MAIN0
  6
CENTER
 62
3
100
AcDbLine
 10
438.0400319624133
 20
645.9451183900158
 30
0.0000000000000000
 11
438.0400319624132
 21
621.6117850566825
 31
0.0000000000000000
  0
LINE
  5
3F0
100
AcDbEntity
  8
MAIN0
  6
CENTER
 62
3
100
AcDbLine
 10
425.8733652957466
 20
633.7784517233492
 30
0.0000000000000000
 11
450.2066986290799
 21
633.7784517233492
 31
0.0000000000000000
  0
LINE
  5
3F1
100
AcDbEntity
  8
MAIN0
  6
CENTER
 62
3
100
AcDbLine
 10
438.0400319623816
 20
607.9451183900162
 30
0.0000000000000000
 11
438.0400319623815
 21
583.6117850566830
 31
0.0000000000000000
  0
LINE
  5
3F2
100
AcDbEntity
  8
MAIN0
  6
CENTER
 62
3
100
AcDbLine
 10
425.8733652957147
 20
595.7784517233494
 30
0.0000000000000000
 11
450.2066986290482
 21
595.7784517233494
 31
0.0000000000000000
  0
CIRCLE
  5
3F3
100
AcDbEntity
  8
MAIN0
  6
CONTINUOUS
 62
3
100
AcDbCircle
 10
482.0400319623817
 20
595.7784517233445
 30
0.0000000000000000
 40
9.500000000000000
  0
CIRCLE
  5
3F4
100
AcDbEntity
  8
MAIN0
  6
CONTINUOUS
 62
3
100
AcDbCircle
 10
482.0400319624133
 20
633.7784517233442
 30
0.0000000000000000
 40
9.500000000000000
  0
CIRCLE
  5
3F5
100
AcDbEntity
  8
MAIN0
  6
CONTINUOUS
 62
3
100
AcDbCircle
 10
438.0400319624133
 20
633.7784517233492
 30
0.0000000000000000
 40
9.500000000000000
  0
CIRCLE
  5
3F6
100
AcDbEntity
  8
MAIN0
  6
CONTINUOUS
 62
3
100
AcDbCircle
 10
460.0400319623974
 20
614.7784517233470
 30
0.0000000000000000
 40
5.000000000000000
  0
CIRCLE
  5
3F7
100
AcDbEntity
  8
MAIN0
  6
CONTINUOUS
 62
3
100
AcDbCircle
 10
460.0400319623974
 20
614.7784517233470
 30
0.0000000000000000
 40
4.250000000000000
  0
LINE
  5
3F8
100
AcDbEntity
  8
MAIN0
  6
CONTINUOUS
 62
3
100
AcDbLine
 10
93.92808282697797
 20
359.8627223718252
 30
0.0000000000000000
 11
93.92808282697797
 21
345.8627223718258
 31
0.0000000000000000
  0
LINE
  5
3F9
100
AcDbEntity
  8
MAIN0
  6
CONTINUOUS
 62
3
100
AcDbLine
 10
88.42808282697797
 20
345.8627223718252
 30
0.0000000000000000
 11
88.42808282697797
 21
330.8627223718253
 31
0.0000000000000000
  0
LINE
  5
3FA
100
AcDbEntity
  8
MAIN0
  6
CONTINUOUS
 62
3
100
AcDbLine
 10
88.42808282697808
 20
345.8627223718258
 30
0.0000000000000000
 11
93.92808282697786
 21
345.8627223718258
 31
0.0000000000000000
  0
LINE
  5
3FB
100
AcDbEntity
  8
MAIN0
  6
CONTINUOUS
 62
3
100
AcDbLine
 10
153.9280828269780
 20
345.8627223718252
 30
0.0000000000000000
 11
159.4280828269780
 21
345.8627223718252
 31
0.0000000000000000
  0
LINE
  5
3FC
100
AcDbEntity
  8
MAIN0
  6
CONTINUOUS
 62
3
100
AcDbLine
 10
153.9280828269780
 20
359.8627223718252
 30
0.0000000000000000
 11
153.9280828269780
 21
345.8627223718252
 31
0.0000000000000000
  0
LINE
  5
3FD
100
AcDbEntity
  8
MAIN0
  6
CONTINUOUS
 62
3
100
AcDbLine
 10
159.4280828269780
 20
330.8627223718252
 30
0.0000000000000000
 11
159.4280828269780
 21
345.8627223718253
 31
0.0000000000000000
  0
CIRCLE
  5
3FE
100
AcDbEntity
  8
MAIN0
  6
CONTINUOUS
 62
3
100
AcDbCircle
 10
310.0400319623708
 20
405.8627223741107
 30
0.0000000000000000
 40
5.000000000000000
  0
CIRCLE
  5
3FF
100
AcDbEntity
  8
MAIN0
  6
CONTINUOUS
 62
3
100
AcDbCircle
 10
310.0400319623708
 20
405.8627223741107
 30
0.0000000000000000
 40
4.250000000000000
  0
CIRCLE
  5
400
100
AcDbEntity
  8
MAIN0
  6
CONTINUOUS
 62
3
100
AcDbCircle
 10
310.0400319623785
 20
385.8627223741107
 30
0.0000000000000000
 40
5.000000000000000
  0
CIRCLE
  5
401
100
AcDbEntity
  8
MAIN0
  6
CONTINUOUS
 62
3
100
AcDbCircle
 10
310.0400319623785
 20
385.8627223741107
 30
0.0000000000000000
 40
4.250000000000000
  0
ELLIPSE
  5
402
100
AcDbEntity
  8
MAIN0
  6
CONTINUOUS
 62
3
100
AcDbEllipse
 10
765.0400319626829
 20
389.3627223727299
 30
0.0000000000000000
 11
-2.050000000000000
 21
0.0000000000000000
 31
0.0000000000000000
210
0.0000000000000000
220
0.0000000000000000
230
1.000000000000000
 40
0.8536585365853660
 41
0.0000000000000000
 42
6.283185307179586
  0
LINE
  5
403
100
AcDbEntity
  8
MAIN0
  6
CONTINUOUS
 62
3
100
AcDbLine
 10
794.0400319626679
 20
570.3627223727241
 30
0.0000000000000000
 11
794.0400319626854
 21
403.9500238022056
 31
0.0000000000000000
  0
LINE
  5
404
100
AcDbEntity
  8
MAIN0
  6
CONTINUOUS
 62
3
100
AcDbLine
 10
802.0400319626693
 20
556.3627223727240
 30
0.0000000000000000
 11
802.0400319626885
 21
374.3627223727244
 31
0.0000000000000000
  0
LINE
  5
405
100
AcDbEntity
  8
MAIN0
  6
CONTINUOUS
 62
3
100
AcDbLine
 10
808.0400319626679
 20
570.3627223727244
 30
0.0000000000000000
 11
808.0400319626688
 21
561.3627223727244
 31
0.0000000000000000
  0
LINE
  5
406
100
AcDbEntity
  8
MAIN0
  6
CONTINUOUS
 62
3
100
AcDbLine
 10
805.5400319626676
 20
572.8627223727242
 30
0.0000000000000000
 11
796.5400319626676
 21
572.8627223727242
 31
0.0000000000000000
  0
LINE
  5
407
100
AcDbEntity
  8
MAIN0
  6
CONTINUOUS
 62
3
100
AcDbLine
 10
805.5400319626685
 20
558.8627223727242
 30
0.0000000000000000
 11
804.5400319626692
 21
558.8627223727242
 31
0.0000000000000000
  0
LINE
  5
408
100
AcDbEntity
  8
MAIN0
  6
CONTINUOUS
 62
3
100
AcDbLine
 10
772.0400319626879
 20
378.8627223727241
 30
0.0000000000000000
 11
757.6400319626878
 21
378.8627223727241
 31
0.0000000000000000
  0
LINE
  5
409
100
AcDbEntity
  8
MAIN0
  6
CONTINUOUS
 62
3
100
AcDbLine
 10
781.0400319626881
 20
375.8627223727241
 30
0.0000000000000000
 11
772.0400319626881
 21
375.8627223727241
 31
0.0000000000000000
  0
LINE
  5
40A
100
AcDbEntity
  8
MAIN0
  6
CONTINUOUS
 62
3
100
AcDbLine
 10
772.0400319626871
 20
385.8627223727241
 30
0.0000000000000000
 11
772.0400319626881
 21
375.8627223727241
 31
0.0000000000000000
  0
LINE
  5
40B
100
AcDbEntity
  8
MAIN0
  6
CONTINUOUS
 62
3
100
AcDbLine
 10
757.0400319626871
 20
385.8627223727242
 30
0.0000000000000000
 11
757.0400319626878
 21
379.4627223727243
 31
0.0000000000000000
  0
LINE
  5
40C
100
AcDbEntity
  8
MAIN0
  6
CONTINUOUS
 62
3
100
AcDbLine
 10
799.5400319626883
 20
371.8627223727242
 30
0.0000000000000000
 11
795.9682351929562
 21
371.8627223727241
 31
0.0000000000000000
  0
LINE
  5
40D
100
AcDbEntity
  8
MAIN0
  6
CONTINUOUS
 62
3
100
AcDbLine
 10
781.0400319626871
 20
385.8627223727240
 30
0.0000000000000000
 11
781.0400319626881
 21
375.8627223727240
 31
0.0000000000000000
  0
LINE
  5
40E
100
AcDbEntity
  8
MAIN0
  6
CONTINUOUS
 62
3
100
AcDbLine
 10
757.0400319626878
 20
379.4627223727242
 30
0.0000000000000000
 11
757.6400319626879
 21
378.8627223727241
 31
0.0000000000000000
  0
LINE
  5
40F
100
AcDbEntity
  8
MAIN0
  6
CONTINUOUS
 62
3
100
AcDbLine
 10
781.0400319626883
 20
375.8627223727203
 30
0.0000000000000000
 11
795.6503188241687
 21
371.9479078070015
 31
0.0000000000000000
  0
LINE
  5
410
100
AcDbEntity
  8
MAIN0
  6
CONTINUOUS
 62
3
100
AcDbLine
 10
757.0400319626872
 20
385.8627223727240
 30
0.0000000000000000
 11
772.0400319626872
 21
385.8627223727241
 31
0.0000000000000000
  0
LINE
  5
411
100
AcDbEntity
  8
MAIN0
  6
CONTINUOUS
 62
3
100
AcDbLine
 10
772.0400319626879
 20
392.8627223727241
 30
0.0000000000000000
 11
757.6400319626878
 21
392.8627223727241
 31
0.0000000000000000
  0
LINE
  5
412
100
AcDbEntity
  8
MAIN0
  6
CONTINUOUS
 62
3
100
AcDbLine
 10
781.0400319626881
 20
395.8627223727241
 30
0.0000000000000000
 11
772.0400319626881
 21
395.8627223727241
 31
0.0000000000000000
  0
LINE
  5
413
100
AcDbEntity
  8
MAIN0
  6
CONTINUOUS
 62
3
100
AcDbLine
 10
772.0400319626872
 20
385.8627223727242
 30
0.0000000000000000
 11
772.0400319626882
 21
395.8627223727242
 31
0.0000000000000000
  0
LINE
  5
414
100
AcDbEntity
  8
MAIN0
  6
CONTINUOUS
 62
3
100
AcDbLine
 10
757.0400319626872
 20
385.8627223727240
 30
0.0000000000000000
 11
757.0400319626879
 21
392.2627223727241
 31
0.0000000000000000
  0
LINE
  5
415
100
AcDbEntity
  8
MAIN0
  6
CONTINUOUS
 62
3
100
AcDbLine
 10
781.0400319626872
 20
385.8627223727242
 30
0.0000000000000000
 11
781.0400319626882
 21
395.8627223727242
 31
0.0000000000000000
  0
LINE
  5
416
100
AcDbEntity
  8
MAIN0
  6
CONTINUOUS
 62
3
100
AcDbLine
 10
757.0400319626881
 20
392.2627223727241
 30
0.0000000000000000
 11
757.6400319626882
 21
392.8627223727241
 31
0.0000000000000000
  0
LINE
  5
417
100
AcDbEntity
  8
MAIN0
  6
CONTINUOUS
 62
3
100
AcDbLine
 10
781.0400319626881
 20
395.8627223727283
 30
0.0000000000000000
 11
789.5929462332996
 21
398.1544688444702
 31
0.0000000000000000
  0
ARC
  5
418
100
AcDbEntity
  8
MAIN0
  6
CONTINUOUS
 62
3
100
AcDbCircle
 10
788.0400319626854
 20
403.9500238022044
 30
0.0000000000000000
 40
6.000000000000000
100
AcDbArc
 50
284.9999999999930
 51
360.0000000000001
  0
ARC
  5
419
100
AcDbEntity
  8
MAIN0
  6
CONTINUOUS
 62
3
100
AcDbCircle
 10
799.5400319626885
 20
374.3627223727242
 30
0.0000000000000000
 40
2.500000000000000
100
AcDbArc
 50
270.0000000000001
 51
360.0000000000001
  0
ARC
  5
41A
100
AcDbEntity
  8
MAIN0
  6
CONTINUOUS
 62
3
100
AcDbCircle
 10
796.2973664369247
 20
374.3627223727242
 30
0.0000000000000000
 40
2.500000000000000
100
AcDbArc
 50
255.0000000000070
 51
270.0000000000001
  0
ARC
  5
41B
100
AcDbEntity
  8
MAIN0
  6
CONTINUOUS
 62
3
100
AcDbCircle
 10
796.5400319626679
 20
570.3627223727242
 30
0.0000000000000000
 40
2.500000000000000
100
AcDbArc
 50
90.00000000000007
 51
180.0000000000001
  0
ARC
  5
41C
100
AcDbEntity
  8
MAIN0
  6
CONTINUOUS
 62
3
100
AcDbCircle
 10
804.5400319626692
 20
556.3627223727242
 30
0.0000000000000000
 40
2.500000000000000
100
AcDbArc
 50
90.00000000000007
 51
180.0000000000001
  0
ARC
  5
41D
100
AcDbEntity
  8
MAIN0
  6
CONTINUOUS
 62
3
100
AcDbCircle
 10
796.5400319626679
 20
570.3627223727242
 30
0.0000000000000000
 40
2.500000000000000
100
AcDbArc
 50
90.00000000000007
 51
180.0000000000001
  0
ARC
  5
41E
100
AcDbEntity
  8
MAIN0
  6
CONTINUOUS
 62
3
100
AcDbCircle
 10
804.5400319626695
 20
556.3627223727242
 30
0.0000000000000000
 40
2.500000000000000
100
AcDbArc
 50
90.00000000000007
 51
180.0000000000001
  0
ARC
  5
41F
100
AcDbEntity
  8
MAIN0
  6
CONTINUOUS
 62
3
100
AcDbCircle
 10
805.5400319626679
 20
570.3627223727242
 30
0.0000000000000000
 40
2.500000000000000
100
AcDbArc
 50
7.633331235512440e-014
 51
90.00000000000007
  0
ARC
  5
420
100
AcDbEntity
  8
MAIN0
  6
CONTINUOUS
 62
3
100
AcDbCircle
 10
805.5400319626688
 20
561.3627223727242
 30
0.0000000000000000
 40
2.500000000000000
100
AcDbArc
 50
270.0000000000001
 51
360.0000000000001
  0
LINE
  5
421
100
AcDbEntity
  8
MAIN1
  6
CONTINUOUS
 62
7
100
AcDbLine
 10
808.5400319626683
 20
558.8627223727242
 30
0.0000000000000000
 11
808.5400319626683
 21
560.9637428871579
 31
0.0000000000000000
  0
LINE
  5
422
100
AcDbEntity
  8
MAIN1
  6
CONTINUOUS
 62
7
100
AcDbLine
 10
808.0400319626683
 20
559.3627223727242
 30
0.0000000000000000
 11
808.0400319626683
 21
572.3627223727242
 31
0.0000000000000000
  0
LINE
  5
423
100
AcDbEntity
  8
MAIN1
  6
CONTINUOUS
 62
7
100
AcDbLine
 10
808.5400319626683
 20
558.8627223727242
 30
0.0000000000000000
 11
815.5400319626683
 21
558.8627223727242
 31
0.0000000000000000
  0
LINE
  5
424
100
AcDbEntity
  8
MAIN1
  6
CONTINUOUS
 62
7
100
AcDbLine
 10
808.5400319626683
 20
572.8627223727242
 30
0.0000000000000000
 11
815.5400319626683
 21
572.8627223727243
 31
0.0000000000000000
  0
LINE
  5
425
100
AcDbEntity
  8
MAIN1
  6
CONTINUOUS
 62
7
100
AcDbLine
 10
808.0400319626685
 20
559.3627223727242
 30
0.0000000000000000
 11
808.5400319626685
 21
558.8627223727243
 31
0.0000000000000000
  0
LINE
  5
426
100
AcDbEntity
  8
MAIN1
  6
CONTINUOUS
 62
7
100
AcDbLine
 10
815.5400319626684
 20
558.8627223727243
 30
0.0000000000000000
 11
816.0400319626684
 21
559.3627223727242
 31
0.0000000000000000
  0
LINE
  5
427
100
AcDbEntity
  8
MAIN1
  6
CONTINUOUS
 62
7
100
AcDbLine
 10
815.5400319626683
 20
572.8627223727243
 30
0.0000000000000000
 11
816.0400319626683
 21
572.3627223727243
 31
0.0000000000000000
  0
LINE
  5
428
100
AcDbEntity
  8
MAIN1
  6
CONTINUOUS
 62
7
100
AcDbLine
 10
808.5400319626684
 20
572.8627223727240
 30
0.0000000000000000
 11
808.0400319626685
 21
572.3627223727241
 31
0.0000000000000000
  0
LINE
  5
429
100
AcDbEntity
  8
MAIN1
  6
CONTINUOUS
 62
7
100
AcDbLine
 10
808.0400319626683
 20
570.7617018582905
 30
0.0000000000000000
 11
814.0400319626683
 21
570.7617018582905
 31
0.0000000000000000
  0
LINE
  5
42A
100
AcDbEntity
  8
MAIN1
  6
CONTINUOUS
 62
7
100
AcDbLine
 10
808.0400319626683
 20
560.9637428871579
 30
0.0000000000000000
 11
814.0400319626683
 21
560.9637428871579
 31
0.0000000000000000
  0
LINE
  5
42B
100
AcDbEntity
  8
MAIN1
  6
CONTINUOUS
 62
7
100
AcDbLine
 10
808.5400319626683
 20
570.7617018582905
 30
0.0000000000000000
 11
808.5400319626683
 21
572.8627223727242
 31
0.0000000000000000
  0
LINE
  5
42C
100
AcDbEntity
  8
MAIN1
  6
CONTINUOUS
 62
7
100
AcDbLine
 10
815.5400319626683
 20
558.8627223727242
 30
0.0000000000000000
 11
815.5400319626683
 21
572.8627223727242
 31
0.0000000000000000
  0
LINE
  5
42D
100
AcDbEntity
  8
MAIN1
  6
CONTINUOUS
 62
7
100
AcDbLine
 10
816.0400319626683
 20
572.3491440280735
 30
0.0000000000000000
 11
816.0400319626683
 21
559.3763007173748
 31
0.0000000000000000
  0
LINE
  5
42E
100
AcDbEntity
  8
MAIN1
  6
CONTINUOUS
 62
7
100
AcDbLine
 10
870.3649251248451
 20
556.8627223727240
 30
0.0000000000000000
 11
834.0400319626683
 21
556.8627223727240
 31
0.0000000000000000
  0
LINE
  5
42F
100
AcDbEntity
  8
MAIN1
  6
CONTINUOUS
 62
7
100
AcDbLine
 10
870.3649251248451
 20
574.8627223727243
 30
0.0000000000000000
 11
834.0400319626683
 21
574.8627223727243
 31
0.0000000000000000
  0
LINE
  5
430
100
AcDbEntity
  8
MAIN1
  6
CONTINUOUS
 62
7
100
AcDbLine
 10
817.5512799312724
 20
557.7787641522463
 30
0.0000000000000000
 11
834.0400319626683
 21
556.8627223727240
 31
0.0000000000000000
  0
LINE
  5
431
100
AcDbEntity
  8
MAIN1
  6
CONTINUOUS
 62
7
100
AcDbLine
 10
834.0400319626685
 20
574.8627223727243
 30
0.0000000000000000
 11
817.5512799312725
 21
573.9466805932021
 31
0.0000000000000000
  0
ARC
  5
432
100
AcDbEntity
  8
MAIN1
  6
CONTINUOUS
 62
7
100
AcDbCircle
 10
844.0400319626683
 20
565.8627223727242
 30
0.0000000000000000
 40
30.00000000000000
100
AcDbArc
 50
347.1604115930955
 51
372.8395884069045
  0
ARC
  5
433
100
AcDbEntity
  8
MAIN1
  6
CONTINUOUS
 62
7
100
AcDbCircle
 10
870.3649251248451
 20
559.8627223727240
 30
0.0000000000000000
 40
3.000000000000000
100
AcDbArc
 50
270.0000000000000
 51
347.1604115930957
  0
ARC
  5
434
100
AcDbEntity
  8
MAIN1
  6
CONTINUOUS
 62
7
100
AcDbCircle
 10
870.3649251248451
 20
571.8627223727243
 30
0.0000000000000000
 40
3.000000000000000
100
AcDbArc
 50
12.83958840690469
 51
89.99999999999946
  0
ARC
  5
435
100
AcDbEntity
  8
MAIN1
  6
CONTINUOUS
 62
7
100
AcDbCircle
 10
817.6400319626684
 20
559.3763007173748
 30
0.0000000000000000
 40
1.600000000000000
100
AcDbArc
 50
180.0000000000000
 51
266.8201698801350
  0
ARC
  5
436
100
AcDbEntity
  8
MAIN1
  6
CONTINUOUS
 62
7
100
AcDbCircle
 10
817.6400319626684
 20
572.3491440280735
 30
0.0000000000000000
 40
1.600000000000000
100
AcDbArc
 50
93.17983011986493
 51
179.9999999999999
  0
LINE
  5
437
100
AcDbEntity
  8
MAIN1
  6
CONTINUOUS
 62
7
100
AcDbLine
 10
814.0400319626683
 20
560.9637428871579
 30
0.0000000000000000
 11
814.0400319626683
 21
570.7617018582905
 31
0.0000000000000000
  0
LINE
  5
438
100
AcDbEntity
  8
MAIN3
  6
CONTINUOUS
 62
3
100
AcDbLine
 10
808.0400319626682
 20
560.9637428871580
 30
0.0000000000000000
 11
814.0400319626683
 21
570.7617018582907
 31
0.0000000000000000
  0
LINE
  5
439
100
AcDbEntity
  8
MAIN3
  6
CONTINUOUS
 62
3
100
AcDbLine
 10
808.0400319626683
 20
570.7617018582906
 30
0.0000000000000000
 11
814.0400319626683
 21
560.9637428871579
 31
0.0000000000000000
  0
LINE
  5
43A
100
AcDbEntity
  8
MAIN1
  6
CONTINUOUS
 62
7
100
AcDbLine
 10
834.0400319626683
 20
574.8627223727243
 30
0.0000000000000000
 11
834.0400319626683
 21
556.8627223727240
 31
0.0000000000000000
  0
LINE
  5
43B
100
AcDbEntity
  8
MAIN0
  6
CONTINUOUS
 62
3
100
AcDbLine
 10
782.1697969151885
 20
315.8627223747779
 30
0.0000000000000000
 11
782.1697969151885
 21
330.2627223747780
 31
0.0000000000000000
  0
LINE
  5
43C
100
AcDbEntity
  8
MAIN0
  6
CONTINUOUS
 62
3
100
AcDbLine
 10
782.1697969151890
 20
330.2627223747780
 30
0.0000000000000000
 11
779.3985156230789
 21
331.8627223747780
 31
0.0000000000000000
  0
LINE
  5
43D
100
AcDbEntity
  8
MAIN0
  6
CONTINUOUS
 62
3
100
AcDbLine
 10
779.3985156230785
 20
331.8627223747779
 30
0.0000000000000000
 11
760.9410782072989
 21
331.8627223747779
 31
0.0000000000000000
  0
LINE
  5
43E
100
AcDbEntity
  8
MAIN0
  6
CONTINUOUS
 62
3
100
AcDbLine
 10
760.9410782072993
 20
331.8627223747782
 30
0.0000000000000000
 11
758.1697969151888
 21
330.2627223747781
 31
0.0000000000000000
  0
LINE
  5
43F
100
AcDbEntity
  8
MAIN0
  6
CONTINUOUS
 62
3
100
AcDbLine
 10
758.1697969151885
 20
330.2627223747780
 30
0.0000000000000000
 11
758.1697969151885
 21
315.8627223747779
 31
0.0000000000000000
  0
LINE
  5
440
100
AcDbEntity
  8
MAIN0
  6
CONTINUOUS
 62
3
100
AcDbLine
 10
782.1697969151885
 20
330.2627223747780
 30
0.0000000000000000
 11
758.1697969151885
 21
330.2627223747780
 31
0.0000000000000000
  0
LINE
  5
441
100
AcDbEntity
  8
MAIN0
  6
CONTINUOUS
 62
3
100
AcDbLine
 10
787.6697969151885
 20
315.8627223747779
 30
0.0000000000000000
 11
752.6697969151885
 21
315.8627223747779
 31
0.0000000000000000
  0
LINE
  5
442
100
AcDbEntity
  8
MAIN0
  6
CONTINUOUS
 62
3
100
AcDbLine
 10
787.6697969151885
 20
310.8627223747779
 30
0.0000000000000000
 11
787.6697969151885
 21
315.8627223747779
 31
0.0000000000000000
  0
LINE
  5
443
100
AcDbEntity
  8
MAIN0
  6
CONTINUOUS
 62
3
100
AcDbLine
 10
752.6697969151885
 20
310.8627223747779
 30
0.0000000000000000
 11
752.6697969151885
 21
315.8627223747779
 31
0.0000000000000000
  0
LINE
  5
444
100
AcDbEntity
  8
MAIN0
  6
CONTINUOUS
 62
3
100
AcDbLine
 10
755.9197969151710
 20
250.8627223748929
 30
0.0000000000000000
 11
755.9197969151635
 21
261.8627223748929
 31
0.0000000000000000
  0
LINE
  5
445
100
AcDbEntity
  8
MAIN0
  6
CONTINUOUS
 62
3
100
AcDbLine
 10
784.4197969151710
 20
250.8627223749049
 30
0.0000000000000000
 11
784.4197969151635
 21
261.8627223749049
 31
0.0000000000000000
  0
LINE
  5
446
100
AcDbEntity
  8
MAIN0
  6
CONTINUOUS
 62
3
100
AcDbLine
 10
755.9197969151717
 20
250.8627223748930
 30
0.0000000000000000
 11
784.4197969151717
 21
250.8627223749049
 31
0.0000000000000000
  0
LINE
  5
447
100
AcDbEntity
  8
MAIN0
  6
CONTINUOUS
 62
3
100
AcDbLine
 10
761.4197969151579
 20
269.8627223748952
 30
0.0000000000000000
 11
778.9197969151579
 21
269.8627223749025
 31
0.0000000000000000
  0
LINE
  5
448
100
AcDbEntity
  8
MAIN0
  6
CONTINUOUS
 62
3
100
AcDbLine
 10
755.9197969151635
 20
261.8627223748930
 30
0.0000000000000000
 11
761.4197969151635
 21
261.8627223748953
 31
0.0000000000000000
  0
LINE
  5
449
100
AcDbEntity
  8
MAIN0
  6
CONTINUOUS
 62
3
100
AcDbLine
 10
778.9197969151637
 20
261.8627223749026
 30
0.0000000000000000
 11
784.4197969151637
 21
261.8627223749049
 31
0.0000000000000000
  0
LINE
  5
44A
100
AcDbEntity
  8
MAIN0
  6
CONTINUOUS
 62
3
100
AcDbLine
 10
761.4197969151635
 20
261.8627223748951
 30
0.0000000000000000
 11
761.4197969151580
 21
269.8627223748951
 31
0.0000000000000000
  0
LINE
  5
44B
100
AcDbEntity
  8
MAIN0
  6
CONTINUOUS
 62
3
100
AcDbLine
 10
778.9197969151635
 20
261.8627223749025
 30
0.0000000000000000
 11
778.9197969151580
 21
269.8627223749025
 31
0.0000000000000000
  0
LINE
  5
44C
100
AcDbEntity
  8
MAIN0
  6
CONTINUOUS
 62
3
100
AcDbLine
 10
763.2523289151711
 20
280.8627223749020
 30
0.0000000000000000
 11
763.2523289151711
 21
269.8627223749049
 31
0.0000000000000000
  0
LINE
  5
44D
100
AcDbEntity
  8
MAIN0
  6
CONTINUOUS
 62
3
100
AcDbLine
 10
762.1697969151712
 20
269.8627223749049
 30
0.0000000000000000
 11
762.1697969151712
 21
280.8627223749015
 31
0.0000000000000000
  0
LINE
  5
44E
100
AcDbEntity
  8
MAIN0
  6
CONTINUOUS
 62
3
100
AcDbLine
 10
777.0872649151713
 20
280.8627223749078
 30
0.0000000000000000
 11
777.0872649151713
 21
269.8627223749049
 31
0.0000000000000000
  0
LINE
  5
44F
100
AcDbEntity
  8
MAIN0
  6
CONTINUOUS
 62
3
100
AcDbLine
 10
778.1697969151712
 20
280.8627223749082
 30
0.0000000000000000
 11
778.1697969151712
 21
269.8627223749049
 31
0.0000000000000000
  0
LINE
  5
450
100
AcDbEntity
  8
MAIN0
  6
CONTINUOUS
 62
3
100
AcDbLine
 10
850.1182272206742
 20
186.0046174927259
 30
0.0000000000000000
 11
880.1182272206742
 21
186.0046174927176
 31
0.0000000000000000
  0
LINE
  5
451
100
AcDbEntity
  8
MAIN0
  6
HIDDEN
 62
3
100
AcDbLine
 10
850.1182272206780
 20
180.5046174927260
 30
0.0000000000000000
 11
880.1182272206780
 21
180.5046174927177
 31
0.0000000000000000
  0
LINE
  5
452
100
AcDbEntity
  8
MAIN0
  6
CONTINUOUS
 62
3
100
AcDbLine
 10
850.1182272206943
 20
157.5046174927261
 30
0.0000000000000000
 11
850.1182272206747
 21
186.0046174927261
 31
0.0000000000000000
  0
LINE
  5
453
100
AcDbEntity
  8
MAIN0
  6
CENTER
 62
3
100
AcDbLine
 10
846.8556091983946
 20
171.7546174927269
 30
0.0000000000000000
 11
883.6737065620332
 21
171.7546174927167
 31
0.0000000000000000
  0
LINE
  5
454
100
AcDbEntity
  8
MAIN0
  6
HIDDEN
 62
3
100
AcDbLine
 10
850.1182272206908
 20
163.0046174927261
 30
0.0000000000000000
 11
880.1182272206903
 21
163.0046174927178
 31
0.0000000000000000
  0
LINE
  5
455
100
AcDbEntity
  8
MAIN0
  6
CONTINUOUS
 62
3
100
AcDbLine
 10
850.1182272206943
 20
157.5046174927261
 30
0.0000000000000000
 11
880.1182272206943
 21
157.5046174927178
 31
0.0000000000000000
  0
LINE
  5
456
100
AcDbEntity
  8
MAIN0
  6
CONTINUOUS
 62
3
100
AcDbLine
 10
880.1182272206938
 20
157.5046174927178
 30
0.0000000000000000
 11
880.1182272206743
 21
186.0046174927178
 31
0.0000000000000000
  0
LINE
  5
457
100
AcDbEntity
  8
MAIN0
  6
CONTINUOUS
 62
3
100
AcDbLine
 10
850.1182272207150
 20
261.8627223747699
 30
0.0000000000000000
 11
880.1182272207150
 21
261.8627223747823
 31
0.0000000000000000
  0
LINE
  5
458
100
AcDbEntity
  8
MAIN0
  6
CONTINUOUS
 62
3
100
AcDbLine
 10
850.1182272207093
 20
269.8627223747698
 30
0.0000000000000000
 11
880.1182272207093
 21
269.8627223747822
 31
0.0000000000000000
  0
LINE
  5
459
100
AcDbEntity
  8
MAIN0
  6
CONTINUOUS
 62
3
100
AcDbLine
 10
850.1182272207220
 20
250.8627223747699
 30
0.0000000000000000
 11
850.1182272207091
 21
269.8627223747698
 31
0.0000000000000000
  0
LINE
  5
45A
100
AcDbEntity
  8
MAIN0
  6
CONTINUOUS
 62
3
100
AcDbLine
 10
850.1182272207223
 20
250.8627223747698
 30
0.0000000000000000
 11
880.1182272207223
 21
250.8627223747822
 31
0.0000000000000000
  0
LINE
  5
45B
100
AcDbEntity
  8
MAIN0
  6
CONTINUOUS
 62
3
100
AcDbLine
 10
880.1182272207220
 20
250.8627223747822
 30
0.0000000000000000
 11
880.1182272207091
 21
269.8627223747822
 31
0.0000000000000000
  0
LINE
  5
45C
100
AcDbEntity
  8
MAIN0
  6
CONTINUOUS
 62
3
100
AcDbLine
 10
267.0400319623018
 20
281.2627223740639
 30
0.0000000000000000
 11
267.0400319622833
 21
364.8627223740634
 31
0.0000000000000000
  0
LINE
  5
45D
100
AcDbEntity
  8
MAIN0
  6
CONTINUOUS
 62
3
100
AcDbLine
 10
268.0400319622827
 20
365.8627223740653
 30
0.0000000000000000
 11
300.0400319623980
 21
365.8627223741094
 31
0.0000000000000000
  0
LINE
  5
45E
100
AcDbEntity
  8
MAIN0
  6
CONTINUOUS
 62
3
100
AcDbLine
 10
636.6400319624811
 20
280.8627223745725
 30
0.0000000000000000
 11
637.0400319624828
 21
281.2627223745731
 31
0.0000000000000000
  0
LINE
  5
45F
100
AcDbEntity
  8
MAIN0
  6
CONTINUOUS
 62
3
100
AcDbLine
 10
267.0400319622833
 20
364.8627223740639
 30
0.0000000000000000
 11
268.0400319622829
 21
365.8627223740652
 31
0.0000000000000000
  0
LINE
  5
460
100
AcDbEntity
  8
MAIN0
  6
CONTINUOUS
 62
3
100
AcDbLine
 10
267.0400319623020
 20
281.2627223740633
 30
0.0000000000000000
 11
267.4400319623019
 21
280.8627223740641
 31
0.0000000000000000
  0
LINE
  5
461
100
AcDbEntity
  8
MAIN0
  6
CONTINUOUS
 62
3
100
AcDbLine
 10
501.0400319623672
 20
285.8627223742676
 30
0.0000000000000000
 11
483.0400319623672
 21
285.8627223742676
 31
0.0000000000000000
  0
LINE
  5
462
100
AcDbEntity
  8
MAIN0
  6
CONTINUOUS
 62
3
100
AcDbLine
 10
501.0400319623672
 20
275.8627223742676
 30
0.0000000000000000
 11
483.0400319623672
 21
275.8627223742676
 31
0.0000000000000000
  0
LINE
  5
463
100
AcDbEntity
  8
MAIN0
  6
CONTINUOUS
 62
3
100
AcDbLine
 10
483.0400319623666
 20
281.4627223742668
 30
0.0000000000000000
 11
482.4400319623670
 21
280.8627223742673
 31
0.0000000000000000
  0
LINE
  5
464
100
AcDbEntity
  8
MAIN0
  6
CONTINUOUS
 62
3
100
AcDbLine
 10
501.0400319623672
 20
281.4627223742679
 30
0.0000000000000000
 11
501.6400319623674
 21
280.8627223742677
 31
0.0000000000000000
  0
LINE
  5
465
100
AcDbEntity
  8
MAIN0
  6
CENTER
 62
3
100
AcDbLine
 10
492.0400319623672
 20
298.5254818023175
 30
0.0000000000000000
 11
492.0400319623672
 21
266.8730051140408
 31
0.0000000000000000
  0
LINE
  5
466
100
AcDbEntity
  8
MAIN0
  6
CONTINUOUS
 62
3
100
AcDbLine
 10
267.4400319623017
 20
280.8627223740639
 30
0.0000000000000000
 11
483.0400319623741
 21
280.8627223743674
 31
0.0000000000000000
  0
LINE
  5
467
100
AcDbEntity
  8
MAIN0
  6
CONTINUOUS
 62
3
100
AcDbLine
 10
501.0400319623740
 20
280.8627223743885
 30
0.0000000000000000
 11
636.6400319624813
 21
280.8627223745726
 31
0.0000000000000000
  0
LINE
  5
468
100
AcDbEntity
  8
MAIN0
  6
CONTINUOUS
 62
3
100
AcDbLine
 10
501.0400319623672
 20
275.8627223742676
 30
0.0000000000000000
 11
501.0400319623672
 21
285.8627223742667
 31
0.0000000000000000
  0
LINE
  5
469
100
AcDbEntity
  8
MAIN0
  6
CONTINUOUS
 62
3
100
AcDbLine
 10
483.0400319623672
 20
275.8627223742676
 30
0.0000000000000000
 11
483.0400319623672
 21
285.8627223742676
 31
0.0000000000000000
  0
LINE
  5
46A
100
AcDbEntity
  8
MAIN0
  6
CONTINUOUS
 62
3
100
AcDbLine
 10
640.0400319623980
 20
365.8627223745267
 30
0.0000000000000000
 11
678.0400319625601
 21
365.8627223749660
 31
0.0000000000000000
  0
LINE
  5
46B
100
AcDbEntity
  8
MAIN0
  6
CONTINUOUS
 62
3
100
AcDbLine
 10
637.0400319625433
 20
291.8627223745730
 30
0.0000000000000000
 11
669.0400319625433
 21
291.8627223746164
 31
0.0000000000000000
  0
LINE
  5
46C
100
AcDbEntity
  8
MAIN0
  6
CONTINUOUS
 62
3
100
AcDbLine
 10
352.0400319623981
 20
381.1318856580090
 30
0.0000000000000000
 11
352.0400319623981
 21
366.2627223741808
 31
0.0000000000000000
  0
LINE
  5
46D
100
AcDbEntity
  8
MAIN0
  6
CONTINUOUS
 62
3
100
AcDbLine
 10
352.0400319623984
 20
366.2627223741806
 30
0.0000000000000000
 11
352.4400319623984
 21
365.8627223741806
 31
0.0000000000000000
  0
LINE
  5
46E
100
AcDbEntity
  8
MAIN0
  6
CONTINUOUS
 62
3
100
AcDbLine
 10
422.0400319623981
 20
365.8627223741785
 30
0.0000000000000000
 11
422.0400319623980
 21
415.6627223741807
 31
0.0000000000000000
  0
LINE
  5
46F
100
AcDbEntity
  8
MAIN0
  6
CONTINUOUS
 62
3
100
AcDbLine
 10
497.5400319623981
 20
415.8627223741808
 30
0.0000000000000000
 11
422.2400319623981
 21
415.8627223741808
 31
0.0000000000000000
  0
LINE
  5
470
100
AcDbEntity
  8
MAIN0
  6
CONTINUOUS
 62
3
100
AcDbLine
 10
498.0400319623979
 20
366.2627223741807
 30
0.0000000000000000
 11
498.0400319623978
 21
415.3627223741806
 31
0.0000000000000000
  0
LINE
  5
471
100
AcDbEntity
  8
MAIN0
  6
CONTINUOUS
 62
3
100
AcDbLine
 10
352.0400319623980
 20
366.2627223741807
 30
0.0000000000000000
 11
352.4400319623981
 21
365.8627223741808
 31
0.0000000000000000
  0
LINE
  5
472
100
AcDbEntity
  8
MAIN0
  6
CONTINUOUS
 62
3
100
AcDbLine
 10
422.0400319623983
 20
415.6627223741807
 30
0.0000000000000000
 11
422.2400319623984
 21
415.8627223741806
 31
0.0000000000000000
  0
LINE
  5
473
100
AcDbEntity
  8
MAIN0
  6
CONTINUOUS
 62
3
100
AcDbLine
 10
497.5400319623981
 20
415.8627223741806
 30
0.0000000000000000
 11
498.0400319623983
 21
415.3627223741805
 31
0.0000000000000000
  0
LINE
  5
474
100
AcDbEntity
  8
MAIN0
  6
CONTINUOUS
 62
3
100
AcDbLine
 10
352.4400319623982
 20
365.8627223741808
 30
0.0000000000000000
 11
380.4400319623979
 21
365.8627223741808
 31
0.0000000000000000
  0
LINE
  5
475
100
AcDbEntity
  8
MAIN0
  6
CONTINUOUS
 62
3
100
AcDbLine
 10
637.0400319624831
 20
281.2627223745738
 30
0.0000000000000000
 11
637.0400319627239
 21
339.7627223723987
 31
0.0000000000000000
  0
LINE
  5
476
100
AcDbEntity
  8
MAIN0
  6
CONTINUOUS
 62
3
100
AcDbLine
 10
678.0400319630057
 20
293.3627223726269
 30
0.0000000000000000
 11
678.0400319625408
 21
365.8627223727429
 31
0.0000000000000000
  0
LINE
  5
477
100
AcDbEntity
  8
MAIN0
  6
CONTINUOUS
 62
3
100
AcDbLine
 10
319.0400319623976
 20
365.8627223741366
 30
0.0000000000000000
 11
498.0400319623981
 21
365.8627223743821
 31
0.0000000000000000
  0
LINE
  5
478
100
AcDbEntity
  8
MAIN0
  6
CENTER
 62
3
100
AcDbLine
 10
880.9436806218076
 20
565.8627223727237
 30
0.0000000000000000
 11
790.6849008046357
 21
565.8627223727237
 31
0.0000000000000000
  0
LINE
  5
479
100
AcDbEntity
  8
MAIN0
  6
CENTER
 62
3
100
AcDbLine
 10
805.8694041899051
 20
385.8627223727240
 30
0.0000000000000000
 11
730.7294890301928
 21
385.8627223727240
 31
0.0000000000000000
  0
DIMENSION
  5
481
100
AcDbEntity
  8
MAIN0
  6
CONTINUOUS
 62
3
100
AcDbDimension
  2
*D53
 10
743.0400319626878
 20
565.8627223727237
 30
0.0000000000000000
 11
742.5400319626878
 21
475.8627223727239
 31
0.0000000000000000
 70
32
  3
MAIN001
100
AcDbAlignedDimension
 13
730.7294890301928
 23
385.8627223727240
 33
0.0000000000000000
 14
790.6849008046357
 24
565.8627223727237
 34
0.0000000000000000
 50
90.00000000000000
100
AcDbRotatedDimension
1001
ACAD
1000
DSTYLE
1002
{
1070
   173
1070
     1
1070
     6
1000
_OPEN
1070
     7
1000
_OPEN
1070
    41
1040
5.000000
1002
}
  0
LINE
  5
482
100
AcDbEntity
  8
MAIN0
  6
CENTER
 62
3
100
AcDbLine
 10
321.0400319625228
 20
660.7784517242865
 30
0.0000000000000000
 11
347.0400319625228
 21
660.7784517242864
 31
0.0000000000000000
  0
LINE
  5
483
100
AcDbEntity
  8
MAIN0
  6
CENTER
 62
3
100
AcDbLine
 10
334.0400319625229
 20
647.7784517242864
 30
0.0000000000000000
 11
334.0400319625229
 21
673.7784517242864
 31
0.0000000000000000
  0
LINE
  5
484
100
AcDbEntity
  8
MAIN0
  6
CENTER
 62
3
100
AcDbLine
 10
273.0400319624748
 20
660.7784517242865
 30
0.0000000000000000
 11
299.0400319624748
 21
660.7784517242865
 31
0.0000000000000000
  0
LINE
  5
485
100
AcDbEntity
  8
MAIN0
  6
CENTER
 62
3
100
AcDbLine
 10
286.0400319624747
 20
647.7784517242865
 30
0.0000000000000000
 11
286.0400319624747
 21
673.7784517242865
 31
0.0000000000000000
  0
LINE
  5
486
100
AcDbEntity
  8
MAIN0
  6
CENTER
 62
3
100
AcDbLine
 10
321.0400319625226
 20
568.7784517234497
 30
0.0000000000000000
 11
347.0400319625226
 21
568.7784517234497
 31
0.0000000000000000
  0
LINE
  5
487
100
AcDbEntity
  8
MAIN0
  6
CENTER
 62
3
100
AcDbLine
 10
334.0400319625227
 20
555.7784517234497
 30
0.0000000000000000
 11
334.0400319625227
 21
581.7784517234497
 31
0.0000000000000000
  0
LINE
  5
488
100
AcDbEntity
  8
MAIN0
  6
CENTER
 62
3
100
AcDbLine
 10
273.0400319624746
 20
568.7784517234500
 30
0.0000000000000000
 11
299.0400319624746
 21
568.7784517234499
 31
0.0000000000000000
  0
LINE
  5
489
100
AcDbEntity
  8
MAIN0
  6
CENTER
 62
3
100
AcDbLine
 10
286.0400319624745
 20
555.7784517234500
 30
0.0000000000000000
 11
286.0400319624745
 21
581.7784517234500
 31
0.0000000000000000
  0
CIRCLE
  5
48A
100
AcDbEntity
  8
MAIN0
  6
HIDDEN
 62
3
100
AcDbCircle
 10
334.0400319625227
 20
568.7784517234495
 30
0.0000000000000000
 40
10.50000000000000
  0
LINE
  5
48B
100
AcDbEntity
  8
MAIN0
  6
HIDDEN
 62
3
100
AcDbLine
 10
327.1118287322474
 20
568.7784517234495
 30
0.0000000000000000
 11
330.5759303473850
 21
562.7784517234496
 31
0.0000000000000000
  0
LINE
  5
48C
100
AcDbEntity
  8
MAIN0
  6
HIDDEN
 62
3
100
AcDbLine
 10
330.5759303473849
 20
562.7784517234497
 30
0.0000000000000000
 11
337.5041335776605
 21
562.7784517234497
 31
0.0000000000000000
  0
LINE
  5
48D
100
AcDbEntity
  8
MAIN0
  6
HIDDEN
 62
3
100
AcDbLine
 10
337.5041335776604
 20
562.7784517234496
 30
0.0000000000000000
 11
340.9682351927980
 21
568.7784517234496
 31
0.0000000000000000
  0
LINE
  5
48E
100
AcDbEntity
  8
MAIN0
  6
HIDDEN
 62
3
100
AcDbLine
 10
340.9682351927984
 20
568.7784517234495
 30
0.0000000000000000
 11
337.5041335776607
 21
574.7784517234495
 31
0.0000000000000000
  0
LINE
  5
48F
100
AcDbEntity
  8
MAIN0
  6
HIDDEN
 62
3
100
AcDbLine
 10
337.5041335776605
 20
574.7784517234497
 30
0.0000000000000000
 11
330.5759303473849
 21
574.7784517234497
 31
0.0000000000000000
  0
LINE
  5
490
100
AcDbEntity
  8
MAIN0
  6
HIDDEN
 62
3
100
AcDbLine
 10
330.5759303473848
 20
574.7784517234496
 30
0.0000000000000000
 11
327.1118287322471
 21
568.7784517234496
 31
0.0000000000000000
  0
CIRCLE
  5
491
100
AcDbEntity
  8
MAIN0
  6
HIDDEN
 62
3
100
AcDbCircle
 10
334.0400319625227
 20
660.7784517242864
 30
0.0000000000000000
 40
10.50000000000000
  0
LINE
  5
492
100
AcDbEntity
  8
MAIN0
  6
HIDDEN
 62
3
100
AcDbLine
 10
327.1118287322476
 20
660.7784517242865
 30
0.0000000000000000
 11
330.5759303473853
 21
654.7784517242862
 31
0.0000000000000000
  0
LINE
  5
493
100
AcDbEntity
  8
MAIN0
  6
HIDDEN
 62
3
100
AcDbLine
 10
330.5759303473850
 20
654.7784517242862
 30
0.0000000000000000
 11
337.5041335776606
 21
654.7784517242862
 31
0.0000000000000000
  0
LINE
  5
494
100
AcDbEntity
  8
MAIN0
  6
HIDDEN
 62
3
100
AcDbLine
 10
337.5041335776605
 20
654.7784517242864
 30
0.0000000000000000
 11
340.9682351927982
 21
660.7784517242864
 31
0.0000000000000000
  0
LINE
  5
495
100
AcDbEntity
  8
MAIN0
  6
HIDDEN
 62
3
100
AcDbLine
 10
340.9682351927985
 20
660.7784517242865
 30
0.0000000000000000
 11
337.5041335776609
 21
666.7784517242862
 31
0.0000000000000000
  0
LINE
  5
496
100
AcDbEntity
  8
MAIN0
  6
HIDDEN
 62
3
100
AcDbLine
 10
337.5041335776606
 20
666.7784517242862
 30
0.0000000000000000
 11
330.5759303473850
 21
666.7784517242862
 31
0.0000000000000000
  0
LINE
  5
497
100
AcDbEntity
  8
MAIN0
  6
HIDDEN
 62
3
100
AcDbLine
 10
330.5759303473850
 20
666.7784517242862
 30
0.0000000000000000
 11
327.1118287322473
 21
660.7784517242862
 31
0.0000000000000000
  0
CIRCLE
  5
498
100
AcDbEntity
  8
MAIN0
  6
HIDDEN
 62
3
100
AcDbCircle
 10
286.0400319624747
 20
660.7784517242865
 30
0.0000000000000000
 40
10.50000000000000
  0
LINE
  5
499
100
AcDbEntity
  8
MAIN0
  6
HIDDEN
 62
3
100
AcDbLine
 10
279.1118287321995
 20
660.7784517242865
 30
0.0000000000000000
 11
282.5759303473371
 21
654.7784517242867
 31
0.0000000000000000
  0
LINE
  5
49A
100
AcDbEntity
  8
MAIN0
  6
HIDDEN
 62
3
100
AcDbLine
 10
282.5759303473368
 20
654.7784517242865
 30
0.0000000000000000
 11
289.5041335776124
 21
654.7784517242865
 31
0.0000000000000000
  0
LINE
  5
49B
100
AcDbEntity
  8
MAIN0
  6
HIDDEN
 62
3
100
AcDbLine
 10
289.5041335776124
 20
654.7784517242865
 30
0.0000000000000000
 11
292.9682351927501
 21
660.7784517242865
 31
0.0000000000000000
  0
LINE
  5
49C
100
AcDbEntity
  8
MAIN0
  6
HIDDEN
 62
3
100
AcDbLine
 10
292.9682351927504
 20
660.7784517242865
 30
0.0000000000000000
 11
289.5041335776127
 21
666.7784517242867
 31
0.0000000000000000
  0
LINE
  5
49D
100
AcDbEntity
  8
MAIN0
  6
HIDDEN
 62
3
100
AcDbLine
 10
289.5041335776124
 20
666.7784517242865
 30
0.0000000000000000
 11
282.5759303473368
 21
666.7784517242865
 31
0.0000000000000000
  0
LINE
  5
49E
100
AcDbEntity
  8
MAIN0
  6
HIDDEN
 62
3
100
AcDbLine
 10
282.5759303473369
 20
666.7784517242865
 30
0.0000000000000000
 11
279.1118287321992
 21
660.7784517242865
 31
0.0000000000000000
  0
CIRCLE
  5
49F
100
AcDbEntity
  8
MAIN0
  6
HIDDEN
 62
3
100
AcDbCircle
 10
286.0400319624745
 20
568.7784517234497
 30
0.0000000000000000
 40
10.50000000000000
  0
LINE
  5
4A0
100
AcDbEntity
  8
MAIN0
  6
HIDDEN
 62
3
100
AcDbLine
 10
279.1118287321990
 20
568.7784517234497
 30
0.0000000000000000
 11
282.5759303473367
 21
562.7784517234496
 31
0.0000000000000000
  0
LINE
  5
4A1
100
AcDbEntity
  8
MAIN0
  6
HIDDEN
 62
3
100
AcDbLine
 10
282.5759303473367
 20
562.7784517234497
 30
0.0000000000000000
 11
289.5041335776123
 21
562.7784517234497
 31
0.0000000000000000
  0
LINE
  5
4A2
100
AcDbEntity
  8
MAIN0
  6
HIDDEN
 62
3
100
AcDbLine
 10
289.5041335776122
 20
562.7784517234497
 30
0.0000000000000000
 11
292.9682351927498
 21
568.7784517234497
 31
0.0000000000000000
  0
LINE
  5
4A3
100
AcDbEntity
  8
MAIN0
  6
HIDDEN
 62
3
100
AcDbLine
 10
292.9682351927499
 20
568.7784517234497
 30
0.0000000000000000
 11
289.5041335776124
 21
574.7784517234496
 31
0.0000000000000000
  0
LINE
  5
4A4
100
AcDbEntity
  8
MAIN0
  6
HIDDEN
 62
3
100
AcDbLine
 10
289.5041335776123
 20
574.7784517234497
 30
0.0000000000000000
 11
282.5759303473367
 21
574.7784517234497
 31
0.0000000000000000
  0
LINE
  5
4A5
100
AcDbEntity
  8
MAIN0
  6
HIDDEN
 62
3
100
AcDbLine
 10
282.5759303473367
 20
574.7784517234497
 30
0.0000000000000000
 11
279.1118287321990
 21
568.7784517234497
 31
0.0000000000000000
  0
CIRCLE
  5
4A6
100
AcDbEntity
  8
MAIN0
  6
HIDDEN
 62
3
100
AcDbCircle
 10
482.0400319623817
 20
595.7784517233445
 30
0.0000000000000000
 40
9.000000000000000
  0
LINE
  5
4A7
100
AcDbEntity
  8
MAIN0
  6
HIDDEN
 62
3
100
AcDbLine
 10
476.2665292704855
 20
595.7784517233445
 30
0.0000000000000000
 11
479.1532806164337
 21
590.7784517233445
 31
0.0000000000000000
  0
LINE
  5
4A8
100
AcDbEntity
  8
MAIN0
  6
HIDDEN
 62
3
100
AcDbLine
 10
479.1532806164336
 20
590.7784517233447
 30
0.0000000000000000
 11
484.9267833083299
 21
590.7784517233447
 31
0.0000000000000000
  0
LINE
  5
4A9
100
AcDbEntity
  8
MAIN0
  6
HIDDEN
 62
3
100
AcDbLine
 10
484.9267833083299
 20
590.7784517233445
 30
0.0000000000000000
 11
487.8135346542781
 21
595.7784517233445
 31
0.0000000000000000
  0
LINE
  5
4AA
100
AcDbEntity
  8
MAIN0
  6
HIDDEN
 62
3
100
AcDbLine
 10
487.8135346542781
 20
595.7784517233445
 30
0.0000000000000000
 11
484.9267833083300
 21
600.7784517233445
 31
0.0000000000000000
  0
LINE
  5
4AB
100
AcDbEntity
  8
MAIN0
  6
HIDDEN
 62
3
100
AcDbLine
 10
484.9267833083300
 20
600.7784517233447
 30
0.0000000000000000
 11
479.1532806164337
 21
600.7784517233447
 31
0.0000000000000000
  0
LINE
  5
4AC
100
AcDbEntity
  8
MAIN0
  6
HIDDEN
 62
3
100
AcDbLine
 10
479.1532806164337
 20
600.7784517233446
 30
0.0000000000000000
 11
476.2665292704855
 21
595.7784517233445
 31
0.0000000000000000
  0
CIRCLE
  5
4AD
100
AcDbEntity
  8
MAIN0
  6
HIDDEN
 62
3
100
AcDbCircle
 10
482.0400319624133
 20
633.7784517233442
 30
0.0000000000000000
 40
9.000000000000000
  0
LINE
  5
4AE
100
AcDbEntity
  8
MAIN0
  6
HIDDEN
 62
3
100
AcDbLine
 10
476.2665292705173
 20
633.7784517233442
 30
0.0000000000000000
 11
479.1532806164654
 21
628.7784517233442
 31
0.0000000000000000
  0
LINE
  5
4AF
100
AcDbEntity
  8
MAIN0
  6
HIDDEN
 62
3
100
AcDbLine
 10
479.1532806164651
 20
628.7784517233445
 30
0.0000000000000000
 11
484.9267833083613
 21
628.7784517233445
 31
0.0000000000000000
  0
LINE
  5
4B0
100
AcDbEntity
  8
MAIN0
  6
HIDDEN
 62
3
100
AcDbLine
 10
484.9267833083617
 20
628.7784517233442
 30
0.0000000000000000
 11
487.8135346543098
 21
633.7784517233442
 31
0.0000000000000000
  0
LINE
  5
4B1
100
AcDbEntity
  8
MAIN0
  6
HIDDEN
 62
3
100
AcDbLine
 10
487.8135346543098
 20
633.7784517233442
 30
0.0000000000000000
 11
484.9267833083617
 21
638.7784517233442
 31
0.0000000000000000
  0
LINE
  5
4B2
100
AcDbEntity
  8
MAIN0
  6
HIDDEN
 62
3
100
AcDbLine
 10
484.9267833083614
 20
638.7784517233445
 30
0.0000000000000000
 11
479.1532806164651
 21
638.7784517233445
 31
0.0000000000000000
  0
LINE
  5
4B3
100
AcDbEntity
  8
MAIN0
  6
HIDDEN
 62
3
100
AcDbLine
 10
479.1532806164655
 20
638.7784517233444
 30
0.0000000000000000
 11
476.2665292705173
 21
633.7784517233444
 31
0.0000000000000000
  0
CIRCLE
  5
4B4
100
AcDbEntity
  8
MAIN0
  6
HIDDEN
 62
3
100
AcDbCircle
 10
438.0400319624133
 20
633.7784517233492
 30
0.0000000000000000
 40
9.000000000000000
  0
LINE
  5
4B5
100
AcDbEntity
  8
MAIN0
  6
HIDDEN
 62
3
100
AcDbLine
 10
432.2665292705172
 20
633.7784517233492
 30
0.0000000000000000
 11
435.1532806164654
 21
628.7784517233490
 31
0.0000000000000000
  0
LINE
  5
4B6
100
AcDbEntity
  8
MAIN0
  6
HIDDEN
 62
3
100
AcDbLine
 10
435.1532806164650
 20
628.7784517233492
 30
0.0000000000000000
 11
440.9267833083613
 21
628.7784517233492
 31
0.0000000000000000
  0
LINE
  5
4B7
100
AcDbEntity
  8
MAIN0
  6
HIDDEN
 62
3
100
AcDbLine
 10
440.9267833083617
 20
628.7784517233492
 30
0.0000000000000000
 11
443.8135346543099
 21
633.7784517233492
 31
0.0000000000000000
  0
LINE
  5
4B8
100
AcDbEntity
  8
MAIN0
  6
HIDDEN
 62
3
100
AcDbLine
 10
443.8135346543097
 20
633.7784517233490
 30
0.0000000000000000
 11
440.9267833083616
 21
638.7784517233492
 31
0.0000000000000000
  0
LINE
  5
4B9
100
AcDbEntity
  8
MAIN0
  6
HIDDEN
 62
3
100
AcDbLine
 10
440.9267833083613
 20
638.7784517233492
 30
0.0000000000000000
 11
435.1532806164651
 21
638.7784517233492
 31
0.0000000000000000
  0
LINE
  5
4BA
100
AcDbEntity
  8
MAIN0
  6
HIDDEN
 62
3
100
AcDbLine
 10
435.1532806164655
 20
638.7784517233492
 30
0.0000000000000000
 11
432.2665292705174
 21
633.7784517233492
 31
0.0000000000000000
  0
CIRCLE
  5
4BB
100
AcDbEntity
  8
MAIN0
  6
HIDDEN
 62
3
100
AcDbCircle
 10
438.0400319623815
 20
595.7784517233492
 30
0.0000000000000000
 40
9.000000000000000
  0
LINE
  5
4BC
100
AcDbEntity
  8
MAIN0
  6
HIDDEN
 62
3
100
AcDbLine
 10
432.2665292704854
 20
595.7784517233491
 30
0.0000000000000000
 11
435.1532806164336
 21
590.7784517233491
 31
0.0000000000000000
  0
LINE
  5
4BD
100
AcDbEntity
  8
MAIN0
  6
HIDDEN
 62
3
100
AcDbLine
 10
435.1532806164333
 20
590.7784517233494
 30
0.0000000000000000
 11
440.9267833083296
 21
590.7784517233494
 31
0.0000000000000000
  0
LINE
  5
4BE
100
AcDbEntity
  8
MAIN0
  6
HIDDEN
 62
3
100
AcDbLine
 10
440.9267833083298
 20
590.7784517233492
 30
0.0000000000000000
 11
443.8135346542780
 21
595.7784517233492
 31
0.0000000000000000
  0
LINE
  5
4BF
100
AcDbEntity
  8
MAIN0
  6
HIDDEN
 62
3
100
AcDbLine
 10
443.8135346542780
 20
595.7784517233491
 30
0.0000000000000000
 11
440.9267833083298
 21
600.7784517233491
 31
0.0000000000000000
  0
LINE
  5
4C0
100
AcDbEntity
  8
MAIN0
  6
HIDDEN
 62
3
100
AcDbLine
 10
440.9267833083297
 20
600.7784517233494
 30
0.0000000000000000
 11
435.1532806164334
 21
600.7784517233494
 31
0.0000000000000000
  0
LINE
  5
4C1
100
AcDbEntity
  8
MAIN0
  6
HIDDEN
 62
3
100
AcDbLine
 10
435.1532806164336
 20
600.7784517233492
 30
0.0000000000000000
 11
432.2665292704854
 21
595.7784517233492
 31
0.0000000000000000
  0
LINE
  5
4C2
100
AcDbEntity
  8
MAIN0
  6
CONTINUOUS
 62
3
100
AcDbLine
 10
93.92808282697797
 20
359.8627223718252
 30
0.0000000000000000
 11
153.9280828269780
 21
359.8627223718252
 31
0.0000000000000000
  0
LINE
  5
4C3
100
AcDbEntity
  8
MAIN0
  6
CONTINUOUS
 62
3
100
AcDbLine
 10
106.4280828270106
 20
305.8627223718252
 30
0.0000000000000000
 11
94.42808282697808
 21
317.8627223719888
 31
0.0000000000000000
  0
LINE
  5
4C4
100
AcDbEntity
  8
MAIN0
  6
CONTINUOUS
 62
3
100
AcDbLine
 10
106.4280828270106
 20
305.8627223718252
 30
0.0000000000000000
 11
141.4280828269456
 21
305.8627223718252
 31
0.0000000000000000
  0
LINE
  5
4C5
100
AcDbEntity
  8
MAIN0
  6
CONTINUOUS
 62
3
100
AcDbLine
 10
94.42808282697808
 20
330.2627223718253
 30
0.0000000000000000
 11
94.42808282697808
 21
317.8627223719889
 31
0.0000000000000000
  0
LINE
  5
4C6
100
AcDbEntity
  8
MAIN0
  6
CONTINUOUS
 62
3
100
AcDbLine
 10
153.4280828269782
 20
330.2627223718272
 30
0.0000000000000000
 11
153.4280828269781
 21
317.8627223719887
 31
0.0000000000000000
  0
LINE
  5
4C7
100
AcDbEntity
  8
MAIN0
  6
CONTINUOUS
 62
3
100
AcDbLine
 10
141.4280828269457
 20
305.8627223718253
 30
0.0000000000000000
 11
153.4280828269782
 21
317.8627223719888
 31
0.0000000000000000
  0
LINE
  5
4C8
100
AcDbEntity
  8
MAIN0
  6
CENTER
 62
3
100
AcDbLine
 10
276.9461733710970
 20
639.7784517239124
 30
0.0000000000000000
 11
298.6896552140727
 21
639.7784517238831
 31
0.0000000000000000
  0
LINE
  5
4C9
100
AcDbEntity
  8
MAIN0
  6
CENTER
 62
3
100
AcDbLine
 10
330.5800732356854
 20
639.7784517238401
 30
0.0000000000000000
 11
350.8740006299659
 21
639.7784517238129
 31
0.0000000000000000
  0
LINE
  5
4CA
100
AcDbEntity
  8
MAIN0
  6
CENTER
 62
3
100
AcDbLine
 10
276.9461733710298
 20
589.7784517239127
 30
0.0000000000000000
 11
298.6896552140055
 21
589.7784517238833
 31
0.0000000000000000
  0
LINE
  5
4CB
100
AcDbEntity
  8
MAIN0
  6
CENTER
 62
3
100
AcDbLine
 10
330.5800732356179
 20
589.7784517238399
 30
0.0000000000000000
 11
350.8740006298983
 21
589.7784517238125
 31
0.0000000000000000
  0
LINE
  5
4CC
100
AcDbEntity
  8
MAIN0
  6
CENTER
 62
3
100
AcDbLine
 10
287.0400319630903
 20
581.2965998842747
 30
0.0000000000000000
 11
287.0400319630903
 21
600.6241270698458
 31
0.0000000000000000
  0
LINE
  5
4CD
100
AcDbEntity
  8
MAIN0
  6
CENTER
 62
3
100
AcDbLine
 10
287.0400319630902
 20
629.6154361939739
 30
0.0000000000000000
 11
287.0400319630902
 21
649.9093452425550
 31
0.0000000000000000
  0
LINE
  5
4CE
100
AcDbEntity
  8
MAIN0
  6
CENTER
 62
3
100
AcDbLine
 10
342.0400319630903
 20
581.2965998842747
 30
0.0000000000000000
 11
342.0400319630903
 21
600.6241270698456
 31
0.0000000000000000
  0
LINE
  5
4CF
100
AcDbEntity
  8
MAIN0
  6
CENTER
 62
3
100
AcDbLine
 10
342.0400319630903
 20
629.6154361939739
 30
0.0000000000000000
 11
342.0400319630903
 21
649.9093452425550
 31
0.0000000000000000
  0
LEADER
  5
4D0
100
AcDbEntity
  8
MAIN0
  6
CONTINUOUS
 62
3
100
AcDbLeader
  3
MAIN001
 73
     0
 75
     1
 40
7.749999761581421
 41
89.72400264644622
 76
     3
 10
282.8735426383192
 20
587.0143303975882
 30
0.0000000000000000
 10
244.7456856512528
 20
521.5078490714870
 30
0.0000000000000000
 10
239.9296857907276
 20
521.5078490714870
 30
0.0000000000000000
340
4D1
213
0.0000000000000000
223
-1.250000000000000
233
0.0000000000000000
1001
ACAD
1000
DSTYLE
1002
{
1070
   147
1040
0.0
1070
    77
1070
     1
1070
   173
1070
     1
1070
     6
1000
_OPEN
1070
     7
1000
_OPEN
1002
}
  0
MTEXT
  5
4D1
102
{ACAD_REACTORS
330
4D0
102
}
100
AcDbEntity
  8
MAIN0
  6
CONTINUOUS
 62
3
100
AcDbMText
 10
150.2056831442814
 20
530.5078488330685
 30
0.0000000000000000
 40
7.749999761581421
 41
0.0000000000000000
 71
     1
 72
     1
  1
{\H0.93x;{2x5-M10 深さ20\P        DEPTH}}
 11
1.000000000000000
 21
0.0000000000000000
 31
0.0000000000000000
  7
KNJYOKO
  0
LINE
  5
4D2
100
AcDbEntity
  8
MAIN0
  6
CENTER
 62
3
100
AcDbLine
 10
422.4693458891936
 20
654.7784517232288
 30
0.0000000000000000
 11
442.7632549375644
 21
654.7784517232014
 31
0.0000000000000000
  0
LINE
  5
4D3
100
AcDbEntity
  8
MAIN0
  6
CENTER
 62
3
100
AcDbLine
 10
471.7545640616913
 20
654.7784517231626
 30
0.0000000000000000
 11
491.5652821787655
 21
654.7784517231360
 31
0.0000000000000000
  0
LINE
  5
4D4
100
AcDbEntity
  8
MAIN0
  6
CENTER
 62
3
100
AcDbLine
 10
482.0400319624225
 20
644.5942816871525
 30
0.0000000000000000
 11
482.0400319624390
 21
664.4049998042287
 31
0.0000000000000000
  0
LINE
  5
4D5
100
AcDbEntity
  8
MAIN0
  6
CENTER
 62
3
100
AcDbLine
 10
432.0400319624225
 20
644.5942816871941
 30
0.0000000000000000
 11
432.0400319624390
 21
664.4049998042704
 31
0.0000000000000000
  0
CIRCLE
  5
4D6
100
AcDbEntity
  8
MAIN0
  6
CONTINUOUS
 62
3
100
AcDbCircle
 10
482.0400319624309
 20
654.7784517231422
 30
0.0000000000000000
 40
5.000000000000000
  0
CIRCLE
  5
4D7
100
AcDbEntity
  8
MAIN0
  6
CONTINUOUS
 62
3
100
AcDbCircle
 10
482.0400319624309
 20
654.7784517231422
 30
0.0000000000000000
 40
4.188101000000000
  0
LINE
  5
4D8
100
AcDbEntity
  8
MAIN0
  6
CONTINUOUS
 62
3
100
AcDbLine
 10
482.0400319624308
 20
657.6652030690900
 30
0.0000000000000000
 11
479.5400319624309
 21
656.2218273961162
 31
0.0000000000000000
  0
LINE
  5
4D9
100
AcDbEntity
  8
MAIN0
  6
CONTINUOUS
 62
3
100
AcDbLine
 10
479.5400319624309
 20
656.2218273961163
 30
0.0000000000000000
 11
479.5400319624309
 21
653.3350760501681
 31
0.0000000000000000
  0
LINE
  5
4DA
100
AcDbEntity
  8
MAIN0
  6
CONTINUOUS
 62
3
100
AcDbLine
 10
479.5400319624309
 20
653.3350760501678
 30
0.0000000000000000
 11
482.0400319624309
 21
651.8917003771937
 31
0.0000000000000000
  0
LINE
  5
4DB
100
AcDbEntity
  8
MAIN0
  6
CONTINUOUS
 62
3
100
AcDbLine
 10
482.0400319624308
 20
651.8917003771937
 30
0.0000000000000000
 11
484.5400319624308
 21
653.3350760501678
 31
0.0000000000000000
  0
LINE
  5
4DC
100
AcDbEntity
  8
MAIN0
  6
CONTINUOUS
 62
3
100
AcDbLine
 10
484.5400319624309
 20
653.3350760501681
 30
0.0000000000000000
 11
484.5400319624309
 21
656.2218273961163
 31
0.0000000000000000
  0
LINE
  5
4DD
100
AcDbEntity
  8
MAIN0
  6
CONTINUOUS
 62
3
100
AcDbLine
 10
484.5400319624309
 20
656.2218273961159
 30
0.0000000000000000
 11
482.0400319624309
 21
657.6652030690900
 31
0.0000000000000000
  0
CIRCLE
  5
4DE
100
AcDbEntity
  8
MAIN0
  6
CONTINUOUS
 62
3
100
AcDbCircle
 10
432.0400319624309
 20
654.7784517232166
 30
0.0000000000000000
 40
5.000000000000000
  0
CIRCLE
  5
4DF
100
AcDbEntity
  8
MAIN0
  6
CONTINUOUS
 62
3
100
AcDbCircle
 10
432.0400319624309
 20
654.7784517232166
 30
0.0000000000000000
 40
4.188101000000000
  0
LINE
  5
4E0
100
AcDbEntity
  8
MAIN0
  6
CONTINUOUS
 62
3
100
AcDbLine
 10
432.0400319624308
 20
657.6652030691646
 30
0.0000000000000000
 11
429.5400319624309
 21
656.2218273961905
 31
0.0000000000000000
  0
LINE
  5
4E1
100
AcDbEntity
  8
MAIN0
  6
CONTINUOUS
 62
3
100
AcDbLine
 10
429.5400319624309
 20
656.2218273961906
 30
0.0000000000000000
 11
429.5400319624309
 21
653.3350760502425
 31
0.0000000000000000
  0
LINE
  5
4E2
100
AcDbEntity
  8
MAIN0
  6
CONTINUOUS
 62
3
100
AcDbLine
 10
429.5400319624310
 20
653.3350760502422
 30
0.0000000000000000
 11
432.0400319624310
 21
651.8917003772681
 31
0.0000000000000000
  0
LINE
  5
4E3
100
AcDbEntity
  8
MAIN0
  6
CONTINUOUS
 62
3
100
AcDbLine
 10
432.0400319624309
 20
651.8917003772683
 30
0.0000000000000000
 11
434.5400319624309
 21
653.3350760502424
 31
0.0000000000000000
  0
LINE
  5
4E4
100
AcDbEntity
  8
MAIN0
  6
CONTINUOUS
 62
3
100
AcDbLine
 10
434.5400319624309
 20
653.3350760502425
 30
0.0000000000000000
 11
434.5400319624309
 21
656.2218273961906
 31
0.0000000000000000
  0
LINE
  5
4E5
100
AcDbEntity
  8
MAIN0
  6
CONTINUOUS
 62
3
100
AcDbLine
 10
434.5400319624310
 20
656.2218273961903
 30
0.0000000000000000
 11
432.0400319624310
 21
657.6652030691644
 31
0.0000000000000000
  0
LINE
  5
4E6
100
AcDbEntity
  8
MAIN0
  6
CENTER
 62
3
100
AcDbLine
 10
471.7545640615836
 20
574.7784517233646
 30
0.0000000000000000
 11
491.5652821786578
 21
574.7784517233379
 31
0.0000000000000000
  0
LINE
  5
4E7
100
AcDbEntity
  8
MAIN0
  6
CENTER
 62
3
100
AcDbLine
 10
482.0400319623420
 20
584.9626217593470
 30
0.0000000000000000
 11
482.0400319623051
 21
565.1519036422708
 31
0.0000000000000000
  0
LINE
  5
4E8
100
AcDbEntity
  8
MAIN0
  6
CENTER
 62
3
100
AcDbLine
 10
432.0400319623420
 20
584.9626217594403
 30
0.0000000000000000
 11
432.0400319623051
 21
565.1519036423640
 31
0.0000000000000000
  0
CIRCLE
  5
4E9
100
AcDbEntity
  8
MAIN0
  6
CONTINUOUS
 62
3
100
AcDbCircle
 10
482.0400319623231
 20
574.7784517233573
 30
0.0000000000000000
 40
5.000000000000000
  0
CIRCLE
  5
4EA
100
AcDbEntity
  8
MAIN0
  6
CONTINUOUS
 62
3
100
AcDbCircle
 10
482.0400319623231
 20
574.7784517233573
 30
0.0000000000000000
 40
4.188101000000000
  0
LINE
  5
4EB
100
AcDbEntity
  8
MAIN0
  6
CONTINUOUS
 62
3
100
AcDbLine
 10
482.0400319623152
 20
571.8917003774095
 30
0.0000000000000000
 11
479.5400319623194
 21
573.3350760503902
 31
0.0000000000000000
  0
LINE
  5
4EC
100
AcDbEntity
  8
MAIN0
  6
CONTINUOUS
 62
3
100
AcDbLine
 10
479.5400319623192
 20
573.3350760503899
 30
0.0000000000000000
 11
479.5400319623270
 21
576.2218273963381
 31
0.0000000000000000
  0
LINE
  5
4ED
100
AcDbEntity
  8
MAIN0
  6
CONTINUOUS
 62
3
100
AcDbLine
 10
479.5400319623270
 20
576.2218273963385
 30
0.0000000000000000
 11
482.0400319623309
 21
577.6652030693058
 31
0.0000000000000000
  0
LINE
  5
4EE
100
AcDbEntity
  8
MAIN0
  6
CONTINUOUS
 62
3
100
AcDbLine
 10
482.0400319623308
 20
577.6652030693058
 30
0.0000000000000000
 11
484.5400319623269
 21
576.2218273963249
 31
0.0000000000000000
  0
LINE
  5
4EF
100
AcDbEntity
  8
MAIN0
  6
CONTINUOUS
 62
3
100
AcDbLine
 10
484.5400319623270
 20
576.2218273963247
 30
0.0000000000000000
 11
484.5400319623192
 21
573.3350760503765
 31
0.0000000000000000
  0
LINE
  5
4F0
100
AcDbEntity
  8
MAIN0
  6
CONTINUOUS
 62
3
100
AcDbLine
 10
484.5400319623192
 20
573.3350760503770
 30
0.0000000000000000
 11
482.0400319623153
 21
571.8917003774096
 31
0.0000000000000000
  0
CIRCLE
  5
4F1
100
AcDbEntity
  8
MAIN0
  6
CONTINUOUS
 62
3
100
AcDbCircle
 10
432.0400319623231
 20
574.7784517234178
 30
0.0000000000000000
 40
5.000000000000000
  0
CIRCLE
  5
4F2
100
AcDbEntity
  8
MAIN0
  6
CONTINUOUS
 62
3
100
AcDbCircle
 10
432.0400319623231
 20
574.7784517234178
 30
0.0000000000000000
 40
4.188101000000000
  0
LINE
  5
4F3
100
AcDbEntity
  8
MAIN0
  6
CONTINUOUS
 62
3
100
AcDbLine
 10
432.0400319623154
 20
571.8917003774699
 30
0.0000000000000000
 11
429.5400319623192
 21
573.3350760504508
 31
0.0000000000000000
  0
LINE
  5
4F4
100
AcDbEntity
  8
MAIN0
  6
CONTINUOUS
 62
3
100
AcDbLine
 10
429.5400319623192
 20
573.3350760504504
 30
0.0000000000000000
 11
429.5400319623270
 21
576.2218273963986
 31
0.0000000000000000
  0
LINE
  5
4F5
100
AcDbEntity
  8
MAIN0
  6
CONTINUOUS
 62
3
100
AcDbLine
 10
429.5400319623271
 20
576.2218273963989
 30
0.0000000000000000
 11
432.0400319623311
 21
577.6652030693663
 31
0.0000000000000000
  0
LINE
  5
4F6
100
AcDbEntity
  8
MAIN0
  6
CONTINUOUS
 62
3
100
AcDbLine
 10
432.0400319623309
 20
577.6652030693662
 30
0.0000000000000000
 11
434.5400319623271
 21
576.2218273963854
 31
0.0000000000000000
  0
LINE
  5
4F7
100
AcDbEntity
  8
MAIN0
  6
CONTINUOUS
 62
3
100
AcDbLine
 10
434.5400319623270
 20
576.2218273963852
 30
0.0000000000000000
 11
434.5400319623192
 21
573.3350760504370
 31
0.0000000000000000
  0
LINE
  5
4F8
100
AcDbEntity
  8
MAIN0
  6
CONTINUOUS
 62
3
100
AcDbLine
 10
434.5400319623194
 20
573.3350760504374
 30
0.0000000000000000
 11
432.0400319623154
 21
571.8917003774700
 31
0.0000000000000000
  0
LINE
  5
4F9
100
AcDbEntity
  8
MAIN0
  6
CENTER
 62
3
100
AcDbLine
 10
422.4693458890858
 20
574.7784517234311
 30
0.0000000000000000
 11
442.7632549374566
 21
574.7784517234038
 31
0.0000000000000000
  0
CIRCLE
  5
4FA
100
AcDbEntity
  8
MAIN0
  6
CONTINUOUS
 62
3
100
AcDbCircle
 10
342.0400319630903
 20
639.7784517238250
 30
0.0000000000000000
 40
5.000000000000000
  0
CIRCLE
  5
4FB
100
AcDbEntity
  8
MAIN0
  6
CONTINUOUS
 62
3
100
AcDbCircle
 10
342.0400319630903
 20
639.7784517238250
 30
0.0000000000000000
 40
4.188101000000000
  0
LINE
  5
4FC
100
AcDbEntity
  8
MAIN0
  6
CONTINUOUS
 62
3
100
AcDbLine
 10
342.0400319630903
 20
642.6652030697728
 30
0.0000000000000000
 11
339.5400319630904
 21
641.2218273967990
 31
0.0000000000000000
  0
LINE
  5
4FD
100
AcDbEntity
  8
MAIN0
  6
CONTINUOUS
 62
3
100
AcDbLine
 10
339.5400319630903
 20
641.2218273967991
 30
0.0000000000000000
 11
339.5400319630903
 21
638.3350760508509
 31
0.0000000000000000
  0
LINE
  5
4FE
100
AcDbEntity
  8
MAIN0
  6
CONTINUOUS
 62
3
100
AcDbLine
 10
339.5400319630903
 20
638.3350760508506
 30
0.0000000000000000
 11
342.0400319630903
 21
636.8917003778765
 31
0.0000000000000000
  0
LINE
  5
4FF
100
AcDbEntity
  8
MAIN0
  6
CONTINUOUS
 62
3
100
AcDbLine
 10
342.0400319630903
 20
636.8917003778765
 30
0.0000000000000000
 11
344.5400319630903
 21
638.3350760508506
 31
0.0000000000000000
  0
LINE
  5
500
100
AcDbEntity
  8
MAIN0
  6
CONTINUOUS
 62
3
100
AcDbLine
 10
344.5400319630903
 20
638.3350760508509
 30
0.0000000000000000
 11
344.5400319630903
 21
641.2218273967991
 31
0.0000000000000000
  0
LINE
  5
501
100
AcDbEntity
  8
MAIN0
  6
CONTINUOUS
 62
3
100
AcDbLine
 10
344.5400319630903
 20
641.2218273967987
 30
0.0000000000000000
 11
342.0400319630903
 21
642.6652030697728
 31
0.0000000000000000
  0
CIRCLE
  5
502
100
AcDbEntity
  8
MAIN0
  6
CONTINUOUS
 62
3
100
AcDbCircle
 10
287.0400319630903
 20
639.7784517238994
 30
0.0000000000000000
 40
5.000000000000000
  0
CIRCLE
  5
503
100
AcDbEntity
  8
MAIN0
  6
CONTINUOUS
 62
3
100
AcDbCircle
 10
287.0400319630903
 20
639.7784517238994
 30
0.0000000000000000
 40
4.188101000000000
  0
LINE
  5
504
100
AcDbEntity
  8
MAIN0
  6
CONTINUOUS
 62
3
100
AcDbLine
 10
287.0400319630903
 20
642.6652030698474
 30
0.0000000000000000
 11
284.5400319630903
 21
641.2218273968733
 31
0.0000000000000000
  0
LINE
  5
505
100
AcDbEntity
  8
MAIN0
  6
CONTINUOUS
 62
3
100
AcDbLine
 10
284.5400319630903
 20
641.2218273968734
 30
0.0000000000000000
 11
284.5400319630903
 21
638.3350760509253
 31
0.0000000000000000
  0
LINE
  5
506
100
AcDbEntity
  8
MAIN0
  6
CONTINUOUS
 62
3
100
AcDbLine
 10
284.5400319630903
 20
638.3350760509250
 30
0.0000000000000000
 11
287.0400319630903
 21
636.8917003779509
 31
0.0000000000000000
  0
LINE
  5
507
100
AcDbEntity
  8
MAIN0
  6
CONTINUOUS
 62
3
100
AcDbLine
 10
287.0400319630903
 20
636.8917003779511
 30
0.0000000000000000
 11
289.5400319630903
 21
638.3350760509252
 31
0.0000000000000000
  0
LINE
  5
508
100
AcDbEntity
  8
MAIN0
  6
CONTINUOUS
 62
3
100
AcDbLine
 10
289.5400319630903
 20
638.3350760509253
 30
0.0000000000000000
 11
289.5400319630903
 21
641.2218273968734
 31
0.0000000000000000
  0
LINE
  5
509
100
AcDbEntity
  8
MAIN0
  6
CONTINUOUS
 62
3
100
AcDbLine
 10
289.5400319630903
 20
641.2218273968731
 30
0.0000000000000000
 11
287.0400319630903
 21
642.6652030698472
 31
0.0000000000000000
  0
CIRCLE
  5
50A
100
AcDbEntity
  8
MAIN0
  6
CONTINUOUS
 62
3
100
AcDbCircle
 10
342.0400319630903
 20
589.7784517238250
 30
0.0000000000000000
 40
5.000000000000000
  0
CIRCLE
  5
50B
100
AcDbEntity
  8
MAIN0
  6
CONTINUOUS
 62
3
100
AcDbCircle
 10
342.0400319630903
 20
589.7784517238250
 30
0.0000000000000000
 40
4.188101000000000
  0
LINE
  5
50C
100
AcDbEntity
  8
MAIN0
  6
CONTINUOUS
 62
3
100
AcDbLine
 10
342.0400319630903
 20
592.6652030697730
 30
0.0000000000000000
 11
339.5400319630905
 21
591.2218273967990
 31
0.0000000000000000
  0
LINE
  5
50D
100
AcDbEntity
  8
MAIN0
  6
CONTINUOUS
 62
3
100
AcDbLine
 10
339.5400319630903
 20
591.2218273967991
 30
0.0000000000000000
 11
339.5400319630903
 21
588.3350760508509
 31
0.0000000000000000
  0
LINE
  5
50E
100
AcDbEntity
  8
MAIN0
  6
CONTINUOUS
 62
3
100
AcDbLine
 10
339.5400319630903
 20
588.3350760508508
 30
0.0000000000000000
 11
342.0400319630903
 21
586.8917003778768
 31
0.0000000000000000
  0
LINE
  5
50F
100
AcDbEntity
  8
MAIN0
  6
CONTINUOUS
 62
3
100
AcDbLine
 10
342.0400319630903
 20
586.8917003778768
 30
0.0000000000000000
 11
344.5400319630903
 21
588.3350760508508
 31
0.0000000000000000
  0
LINE
  5
510
100
AcDbEntity
  8
MAIN0
  6
CONTINUOUS
 62
3
100
AcDbLine
 10
344.5400319630903
 20
588.3350760508509
 30
0.0000000000000000
 11
344.5400319630903
 21
591.2218273967991
 31
0.0000000000000000
  0
LINE
  5
511
100
AcDbEntity
  8
MAIN0
  6
CONTINUOUS
 62
3
100
AcDbLine
 10
344.5400319630903
 20
591.2218273967990
 30
0.0000000000000000
 11
342.0400319630903
 21
592.6652030697730
 31
0.0000000000000000
  0
CIRCLE
  5
512
100
AcDbEntity
  8
MAIN0
  6
CONTINUOUS
 62
3
100
AcDbCircle
 10
287.0400319630903
 20
589.7784517238994
 30
0.0000000000000000
 40
5.000000000000000
  0
CIRCLE
  5
513
100
AcDbEntity
  8
MAIN0
  6
CONTINUOUS
 62
3
100
AcDbCircle
 10
287.0400319630903
 20
589.7784517238994
 30
0.0000000000000000
 40
4.188101000000000
  0
LINE
  5
514
100
AcDbEntity
  8
MAIN0
  6
CONTINUOUS
 62
3
100
AcDbLine
 10
287.0400319630903
 20
592.6652030698474
 30
0.0000000000000000
 11
284.5400319630904
 21
591.2218273968733
 31
0.0000000000000000
  0
LINE
  5
515
100
AcDbEntity
  8
MAIN0
  6
CONTINUOUS
 62
3
100
AcDbLine
 10
284.5400319630903
 20
591.2218273968734
 30
0.0000000000000000
 11
284.5400319630903
 21
588.3350760509253
 31
0.0000000000000000
  0
LINE
  5
516
100
AcDbEntity
  8
MAIN0
  6
CONTINUOUS
 62
3
100
AcDbLine
 10
284.5400319630903
 20
588.3350760509252
 30
0.0000000000000000
 11
287.0400319630903
 21
586.8917003779511
 31
0.0000000000000000
  0
LINE
  5
517
100
AcDbEntity
  8
MAIN0
  6
CONTINUOUS
 62
3
100
AcDbLine
 10
287.0400319630903
 20
586.8917003779511
 30
0.0000000000000000
 11
289.5400319630903
 21
588.3350760509252
 31
0.0000000000000000
  0
LINE
  5
518
100
AcDbEntity
  8
MAIN0
  6
CONTINUOUS
 62
3
100
AcDbLine
 10
289.5400319630903
 20
588.3350760509253
 30
0.0000000000000000
 11
289.5400319630903
 21
591.2218273968734
 31
0.0000000000000000
  0
LINE
  5
519
100
AcDbEntity
  8
MAIN0
  6
CONTINUOUS
 62
3
100
AcDbLine
 10
289.5400319630903
 20
591.2218273968732
 30
0.0000000000000000
 11
287.0400319630903
 21
592.6652030698473
 31
0.0000000000000000
  0
DIMENSION
  5
522
100
AcDbEntity
  8
MAIN0
  6
CONTINUOUS
 62
3
100
AcDbDimension
  2
*D54
 10
243.0900227274799
 20
589.7784517239126
 30
0.0000000000000000
 11
242.5900227274799
 21
614.7784517239124
 31
0.0000000000000000
 70
32
  3
MAIN001
100
AcDbAlignedDimension
 13
276.9461733710970
 23
639.7784517239124
 33
0.0000000000000000
 14
276.9461733710297
 24
589.7784517239126
 34
0.0000000000000000
 50
90.00000000000000
100
AcDbRotatedDimension
1001
ACAD
1000
DSTYLE
1002
{
1070
   173
1070
     1
1070
     6
1000
_OPEN
1070
     7
1000
_OPEN
1070
    41
1040
5.000000
1002
}
  0
DIMENSION
  5
52B
100
AcDbEntity
  8
MAIN0
  6
CONTINUOUS
 62
3
100
AcDbDimension
  2
*D55
 10
530.7379815460542
 20
574.7784517233378
 30
0.0000000000000000
 11
530.2379815460542
 21
614.7784517232369
 31
0.0000000000000000
 70
32
  3
MAIN001
100
AcDbAlignedDimension
 13
491.5652821787656
 23
654.7784517231361
 33
0.0000000000000000
 14
491.5652821786578
 24
574.7784517233378
 34
0.0000000000000000
 50
90.00000000000000
100
AcDbRotatedDimension
1001
ACAD
1000
DSTYLE
1002
{
1070
   173
1070
     1
1070
     6
1000
_OPEN
1070
     7
1000
_OPEN
1070
    41
1040
5.000000
1002
}
  0
CIRCLE
  5
52C
100
AcDbEntity
  8
MAIN0
  6
CONTINUOUS
 62
3
100
AcDbCircle
 10
865.1182272206839
 20
171.7546174927220
 30
0.0000000000000000
 40
8.000000000000000
  0
CIRCLE
  5
52D
100
AcDbEntity
  8
MAIN0
  6
CONTINUOUS
 62
3
100
AcDbCircle
 10
865.1182272206839
 20
171.7546174927220
 30
0.0000000000000000
 40
7.000000000000000
  0
LINE
  5
52E
100
AcDbEntity
  8
MAIN0
  6
CONTINUOUS
 62
3
100
AcDbLine
 10
722.0400319626868
 20
355.8627223726269
 30
0.0000000000000000
 11
703.0400319625966
 21
355.8627223726269
 31
0.0000000000000000
  0
LINE
  5
52F
100
AcDbEntity
  8
MAIN0
  6
CONTINUOUS
 62
3
100
AcDbLine
 10
722.0400319626868
 20
305.8627223726269
 30
0.0000000000000000
 11
703.0400319627780
 21
305.8627223726269
 31
0.0000000000000000
  0
LINE
  5
530
100
AcDbEntity
  8
MAIN0
  6
CONTINUOUS
 62
3
100
AcDbLine
 10
722.0400319626872
 20
355.8627223726264
 30
0.0000000000000000
 11
722.0400319626872
 21
305.8627223726264
 31
0.0000000000000000
  0
LINE
  5
531
100
AcDbEntity
  8
MAIN0
  6
CONTINUOUS
 62
3
100
AcDbLine
 10
678.0400319628020
 20
299.2627223727418
 30
0.0000000000000000
 11
678.0400319627889
 21
302.8627223727431
 31
0.0000000000000000
  0
LINE
  5
532
100
AcDbEntity
  8
MAIN0
  6
CONTINUOUS
 62
3
100
AcDbLine
 10
678.0400319628026
 20
299.2627223727416
 30
0.0000000000000000
 11
678.4400319628032
 21
298.8627223727437
 31
0.0000000000000000
  0
LINE
  5
533
100
AcDbEntity
  8
MAIN0
  6
CONTINUOUS
 62
3
100
AcDbLine
 10
702.4400319628037
 20
298.8627223728182
 30
0.0000000000000000
 11
703.0400319628014
 21
299.4627223728203
 31
0.0000000000000000
  0
LINE
  5
534
100
AcDbEntity
  8
MAIN0
  6
CONTINUOUS
 62
3
100
AcDbLine
 10
678.4400319628031
 20
298.8627223727436
 30
0.0000000000000000
 11
702.4400319628161
 21
298.8627223728308
 31
0.0000000000000000
  0
LINE
  5
535
100
AcDbEntity
  8
MAIN0
  6
CONTINUOUS
 62
3
100
AcDbLine
 10
678.0400319625603
 20
365.8627223727430
 30
0.0000000000000000
 11
702.4400319625463
 21
365.8627223728316
 31
0.0000000000000000
  0
LINE
  5
536
100
AcDbEntity
  8
MAIN0
  6
CONTINUOUS
 62
3
100
AcDbLine
 10
702.4400319625599
 20
365.8627223728182
 30
0.0000000000000000
 11
703.0400319625617
 21
365.2627223728207
 31
0.0000000000000000
  0
LINE
  5
537
100
AcDbEntity
  8
MAIN0
  6
CONTINUOUS
 62
3
100
AcDbLine
 10
703.0400319628013
 20
299.4627223728212
 30
0.0000000000000000
 11
703.0400319625624
 21
365.2627223728200
 31
0.0000000000000000
  0
LINE
  5
538
100
AcDbEntity
  8
MAIN0
  6
CONTINUOUS
 62
3
100
AcDbLine
 10
268.0400319623984
 20
366.2627223741105
 30
0.0000000000000000
 11
268.4400319623984
 21
365.8627223741106
 31
0.0000000000000000
  0
LINE
  5
539
100
AcDbEntity
  8
MAIN0
  6
CONTINUOUS
 62
3
100
AcDbLine
 10
268.0400319623982
 20
366.2627223741108
 30
0.0000000000000000
 11
268.0400319623981
 21
415.6627223741104
 31
0.0000000000000000
  0
LINE
  5
53A
100
AcDbEntity
  8
MAIN0
  6
CONTINUOUS
 62
3
100
AcDbLine
 10
352.0400319623979
 20
415.3627223741108
 30
0.0000000000000000
 11
352.0400319623980
 21
366.2627223741105
 31
0.0000000000000000
  0
LINE
  5
53B
100
AcDbEntity
  8
MAIN0
  6
CONTINUOUS
 62
3
100
AcDbLine
 10
351.5400319623979
 20
415.8627223741107
 30
0.0000000000000000
 11
268.2400319623981
 21
415.8627223741107
 31
0.0000000000000000
  0
LINE
  5
53C
100
AcDbEntity
  8
MAIN0
  6
CONTINUOUS
 62
3
100
AcDbLine
 10
351.6400319623980
 20
365.8627223741107
 30
0.0000000000000000
 11
319.6400319623982
 21
365.8627223741107
 31
0.0000000000000000
  0
LINE
  5
53D
100
AcDbEntity
  8
MAIN0
  6
CONTINUOUS
 62
3
100
AcDbLine
 10
268.0400319623984
 20
366.2627223741105
 30
0.0000000000000000
 11
268.4400319623987
 21
365.8627223741103
 31
0.0000000000000000
  0
LINE
  5
53E
100
AcDbEntity
  8
MAIN0
  6
CONTINUOUS
 62
3
100
AcDbLine
 10
351.6400319623983
 20
365.8627223741104
 30
0.0000000000000000
 11
352.0400319623983
 21
366.2627223741104
 31
0.0000000000000000
  0
LINE
  5
53F
100
AcDbEntity
  8
MAIN0
  6
CONTINUOUS
 62
3
100
AcDbLine
 10
268.0400319623980
 20
415.6627223741106
 30
0.0000000000000000
 11
268.2400319623980
 21
415.8627223741107
 31
0.0000000000000000
  0
LINE
  5
540
100
AcDbEntity
  8
MAIN0
  6
CONTINUOUS
 62
3
100
AcDbLine
 10
351.5400319623982
 20
415.8627223741104
 30
0.0000000000000000
 11
352.0400319623982
 21
415.3627223741104
 31
0.0000000000000000
  0
LINE
  5
541
100
AcDbEntity
  8
MAIN0
  6
CONTINUOUS
 62
3
100
AcDbLine
 10
268.4400319623982
 20
365.8627223741107
 30
0.0000000000000000
 11
301.0400319623963
 21
365.8627223741107
 31
0.0000000000000000
  0
LINE
  5
542
100
AcDbEntity
  8
MAIN0
  6
CONTINUOUS
 62
3
100
AcDbLine
 10
354.0400319623981
 20
365.8627223742208
 30
0.0000000000000000
 11
380.0400319623981
 21
365.8627223742208
 31
0.0000000000000000
  0
LINE
  5
543
100
AcDbEntity
  8
MAIN0
  6
CONTINUOUS
 62
3
100
AcDbLine
 10
499.6400319623980
 20
387.0627223742861
 30
0.0000000000000000
 11
569.0400319623981
 21
387.0627223742861
 31
0.0000000000000000
  0
LINE
  5
544
100
AcDbEntity
  8
MAIN0
  6
CONTINUOUS
 62
3
100
AcDbLine
 10
498.0400319623981
 20
337.5627223728827
 30
0.0000000000000000
 11
498.0400319623981
 21
385.4627223742862
 31
0.0000000000000000
  0
ARC
  5
545
100
AcDbEntity
  8
MAIN0
  6
CONTINUOUS
 62
3
100
AcDbCircle
 10
569.0400319623981
 20
386.0627223742861
 30
0.0000000000000000
 40
1.000000000000000
100
AcDbArc
 50
0.0000000000000000
 51
89.99999999942553
  0
ARC
  5
546
100
AcDbEntity
  8
MAIN0
  6
CONTINUOUS
 62
3
100
AcDbCircle
 10
499.6400319623980
 20
385.4627223742862
 30
0.0000000000000000
 40
1.600000000000000
100
AcDbArc
 50
89.99999999942553
 51
179.9999999999964
  0
LINE
  5
547
100
AcDbEntity
  8
MAIN0
  6
CONTINUOUS
 62
3
100
AcDbLine
 10
570.0400319623980
 20
386.0627223742864
 30
0.0000000000000000
 11
570.0400319623972
 21
337.5627223728827
 31
0.0000000000000000
  0
LINE
  5
548
100
AcDbEntity
  8
MAIN0
  6
CONTINUOUS
 62
3
100
AcDbLine
 10
640.0400319623981
 20
367.0627223742861
 30
0.0000000000000000
 11
640.0400319623981
 21
339.7627223723998
 31
0.0000000000000000
  0
LINE
  5
549
100
AcDbEntity
  8
MAIN0
  6
CONTINUOUS
 62
3
100
AcDbLine
 10
602.6400319623980
 20
367.0627223742861
 30
0.0000000000000000
 11
640.0400319623981
 21
367.0627223742861
 31
0.0000000000000000
  0
ARC
  5
54A
100
AcDbEntity
  8
MAIN0
  6
CONTINUOUS
 62
3
100
AcDbCircle
 10
601.6400319623980
 20
376.0627223742863
 30
0.0000000000000000
 40
1.000000000000000
100
AcDbArc
 50
0.0000000000000000
 51
89.99999999942553
  0
LINE
  5
54B
100
AcDbEntity
  8
MAIN0
  6
CONTINUOUS
 62
3
100
AcDbLine
 10
602.6400319623980
 20
376.0627223742863
 30
0.0000000000000000
 11
602.6400319623980
 21
337.5627223728827
 31
0.0000000000000000
  0
LINE
  5
54C
100
AcDbEntity
  8
MAIN0
  6
CONTINUOUS
 62
3
100
AcDbLine
 10
570.0400319623976
 20
377.0627223742863
 30
0.0000000000000000
 11
601.6400319624082
 21
377.0627223742863
 31
0.0000000000000000
  0
LINE
  5
54D
100
AcDbEntity
  8
MAIN0
  6
CONTINUOUS
 62
3
100
AcDbLine
 10
351.5400319630903
 20
677.2784517238679
 30
0.0000000000000000
 11
268.6400319630905
 21
677.2784517238681
 31
0.0000000000000000
  0
LINE
  5
54E
100
AcDbEntity
  8
MAIN0
  6
CONTINUOUS
 62
3
100
AcDbLine
 10
351.5400319630903
 20
552.2784517238679
 30
0.0000000000000000
 11
268.6400319630902
 21
552.2784517238682
 31
0.0000000000000000
  0
LINE
  5
54F
100
AcDbEntity
  8
MAIN0
  6
CONTINUOUS
 62
3
100
AcDbLine
 10
352.0400319630903
 20
552.7784517238681
 30
0.0000000000000000
 11
352.0400319630903
 21
676.7784517238679
 31
0.0000000000000000
  0
LINE
  5
550
100
AcDbEntity
  8
MAIN0
  6
CONTINUOUS
 62
3
100
AcDbLine
 10
268.0400319630902
 20
552.8784517238682
 30
0.0000000000000000
 11
268.0400319630903
 21
676.6784517238682
 31
0.0000000000000000
  0
LINE
  5
551
100
AcDbEntity
  8
MAIN0
  6
CONTINUOUS
 62
3
100
AcDbLine
 10
351.5400319630904
 20
552.2784517238675
 30
0.0000000000000000
 11
352.0400319630904
 21
552.7784517238675
 31
0.0000000000000000
  0
LINE
  5
552
100
AcDbEntity
  8
MAIN0
  6
CONTINUOUS
 62
3
100
AcDbLine
 10
352.0400319630904
 20
676.7784517238677
 30
0.0000000000000000
 11
351.5400319630904
 21
677.2784517238675
 31
0.0000000000000000
  0
LINE
  5
553
100
AcDbEntity
  8
MAIN0
  6
CONTINUOUS
 62
3
100
AcDbLine
 10
268.6400319630905
 20
552.2784517238684
 30
0.0000000000000000
 11
268.0400319630905
 21
552.8784517238685
 31
0.0000000000000000
  0
LINE
  5
554
100
AcDbEntity
  8
MAIN0
  6
CONTINUOUS
 62
3
100
AcDbLine
 10
268.0400319630902
 20
676.6784517238684
 30
0.0000000000000000
 11
268.6400319630901
 21
677.2784517238683
 31
0.0000000000000000
  0
CIRCLE
  5
555
100
AcDbEntity
  8
MAIN0
  6
CONTINUOUS
 62
3
100
AcDbCircle
 10
334.0400319625227
 20
660.7784517242864
 30
0.0000000000000000
 40
11.00000000000000
  0
CIRCLE
  5
556
100
AcDbEntity
  8
MAIN0
  6
CONTINUOUS
 62
3
100
AcDbCircle
 10
286.0400319624747
 20
660.7784517242865
 30
0.0000000000000000
 40
11.00000000000000
  0
CIRCLE
  5
557
100
AcDbEntity
  8
MAIN0
  6
CONTINUOUS
 62
3
100
AcDbCircle
 10
286.0400319624745
 20
568.7784517234497
 30
0.0000000000000000
 40
11.00000000000000
  0
CIRCLE
  5
558
100
AcDbEntity
  8
MAIN0
  6
CONTINUOUS
 62
3
100
AcDbCircle
 10
334.0400319625227
 20
568.7784517234495
 30
0.0000000000000000
 40
11.00000000000000
  0
LINE
  5
559
100
AcDbEntity
  8
WAKU0
  6
CONTINUOUS
 62
3
100
AcDbLine
 10
240.0000000000000
 20
51.00000000000000
 30
0.0000000000000000
 11
410.0000000000000
 21
51.00000000000000
 31
0.0000000000000000
  0
LINE
  5
55A
100
AcDbEntity
  8
WAKU0
  6
CONTINUOUS
 62
3
100
AcDbLine
 10
240.0000000000000
 20
51.00000000000000
 30
0.0000000000000000
 11
240.0000000000000
 21
12.00000000000000
 31
0.0000000000000000
  0
LINE
  5
55B
100
AcDbEntity
  8
WAKU0
  6
CONTINUOUS
 62
3
100
AcDbLine
 10
312.0000000000000
 20
51.00000000000000
 30
0.0000000000000000
 11
312.0000000000000
 21
12.00000000000000
 31
0.0000000000000000
  0
LINE
  5
55C
100
AcDbEntity
  8
WAKU0
  6
CONTINUOUS
 62
3
100
AcDbLine
 10
332.0000000000000
 20
51.00000000000000
 30
0.0000000000000000
 11
332.0000000000000
 21
12.00000000000000
 31
0.0000000000000000
  0
LINE
  5
55D
100
AcDbEntity
  8
WAKU0
  6
CONTINUOUS
 62
3
100
AcDbLine
 10
344.0000000000000
 20
51.00000000000000
 30
0.0000000000000000
 11
344.0000000000000
 21
12.00000000000000
 31
0.0000000000000000
  0
LINE
  5
55E
100
AcDbEntity
  8
WAKU0
  6
CONTINUOUS
 62
3
100
AcDbLine
 10
344.0000000000000
 20
37.00000000000000
 30
0.0000000000000000
 11
410.0000000000000
 21
37.00000000000000
 31
0.0000000000000000
  0
LINE
  5
55F
100
AcDbEntity
  8
WAKU0
  6
CONTINUOUS
 62
3
100
AcDbLine
 10
332.0000000000000
 20
23.00000000000000
 30
0.0000000000000000
 11
410.0000000000000
 21
23.00000000000000
 31
0.0000000000000000
  0
LINE
  5
560
100
AcDbEntity
  8
WAKU0
  6
CONTINUOUS
 62
3
100
AcDbLine
 10
375.0000000000000
 20
51.00000000000000
 30
0.0000000000000000
 11
375.0000000000000
 21
44.00000000000000
 31
0.0000000000000000
  0
LINE
  5
561
100
AcDbEntity
  8
WAKU0
  6
CONTINUOUS
 62
3
100
AcDbLine
 10
387.0000000000000
 20
51.00000000000000
 30
0.0000000000000000
 11
387.0000000000000
 21
44.00000000000000
 31
0.0000000000000000
  0
LINE
  5
562
100
AcDbEntity
  8
WAKU0
  6
CONTINUOUS
 62
3
100
AcDbLine
 10
312.0000000000000
 20
31.50000000000000
 30
0.0000000000000000
 11
332.0000000000000
 21
31.50000000000000
 31
0.0000000000000000
  0
LINE
  5
563
100
AcDbEntity
  8
WAKU0
  6
CONTINUOUS
 62
3
100
AcDbLine
 10
332.0000000000000
 20
44.00000000000000
 30
0.0000000000000000
 11
410.0000000000000
 21
44.00000000000000
 31
0.0000000000000000
  0
LINE
  5
564
100
AcDbEntity
  8
WAKU0
  6
CONTINUOUS
 62
3
100
AcDbLine
 10
240.0000000000000
 20
37.00000000000000
 30
0.0000000000000000
 11
312.0000000000000
 21
37.00000000000000
 31
0.0000000000000000
  0
LINE
  5
565
100
AcDbEntity
  8
WAKU0
  6
CONTINUOUS
 62
3
100
AcDbLine
 10
240.0000000000000
 20
23.00000000000000
 30
0.0000000000000000
 11
312.0000000000000
 21
23.00000000000000
 31
0.0000000000000000
  0
LINE
  5
566
100
AcDbEntity
  8
WAKU0
  6
CONTINUOUS
 62
3
100
AcDbLine
 10
288.0000000000000
 20
37.00000000000000
 30
0.0000000000000000
 11
288.0000000000000
 21
12.00000000000000
 31
0.0000000000000000
  0
LINE
  5
567
100
AcDbEntity
  8
WAKU0
  6
CONTINUOUS
 62
3
100
AcDbLine
 10
264.0000000000000
 20
37.00000000000000
 30
0.0000000000000000
 11
264.0000000000000
 21
23.00000000000000
 31
0.0000000000000000
  0
LINE
  5
568
100
AcDbEntity
  8
WAKU0
  6
CONTINUOUS
 62
3
100
AcDbLine
 10
300.0000000000000
 20
26.00000000000000
 30
0.0000000000000000
 11
300.0000000000000
 21
23.00000000000000
 31
0.0000000000000000
  0
LINE
  5
569
100
AcDbEntity
  8
WAKU0
  6
CONTINUOUS
 62
3
100
AcDbLine
 10
276.0000000000000
 20
26.00000000000000
 30
0.0000000000000000
 11
276.0000000000000
 21
23.00000000000000
 31
0.0000000000000000
  0
LINE
  5
56A
100
AcDbEntity
  8
WAKU0
  6
CONTINUOUS
 62
3
100
AcDbLine
 10
252.0000000000000
 20
26.00000000000000
 30
0.0000000000000000
 11
252.0000000000000
 21
23.00000000000000
 31
0.0000000000000000
  0
LINE
  5
56B
100
AcDbEntity
  8
WAKU0
  6
CONTINUOUS
 62
3
100
AcDbLine
 10
258.0000000000000
 20
51.00000000000000
 30
0.0000000000000000
 11
258.0000000000000
 21
37.00000000000000
 31
0.0000000000000000
  0
LINE
  5
56C
100
AcDbEntity
  8
WAKU0
  6
CONTINUOUS
 62
3
100
AcDbLine
 10
240.0000000000000
 20
45.00000000000000
 30
0.0000000000000000
 11
312.0000000000000
 21
45.00000000000000
 31
0.0000000000000000
  0
LINE
  5
56D
100
AcDbEntity
  8
WAKU0
  6
HIDDEN
 62
3
100
AcDbLine
 10
360.5000000000000
 20
23.00000000000000
 30
0.0000000000000000
 11
360.5000000000000
 21
12.00000000000000
 31
0.0000000000000000
  0
LINE
  5
56E
100
AcDbEntity
  8
WAKU0
  6
HIDDEN
 62
3
100
AcDbLine
 10
372.9000000000000
 20
23.00000000000000
 30
0.0000000000000000
 11
372.9000000000000
 21
12.00000000000000
 31
0.0000000000000000
  0
MTEXT
  5
56F
100
AcDbEntity
  8
WAKU0
  6
CONTINUOUS
 62
3
100
AcDbMText
 10
344.4820000243485
 20
49.04999995231628
 30
0.0000000000000000
 40
3.099999904632568
 41
0.0000000000000000
 71
     1
 72
     1
  1
{\H0.93x;{VE125N-15}}
 11
1.000000000000000
 21
0.0000000000000000
 31
0.0000000000000000
  7
STANDARD
  0
MTEXT
  5
570
100
AcDbEntity
  8
WAKU0
  6
CONTINUOUS
 62
3
100
AcDbMText
 10
360.3350002765656
 20
43.50000000000000
 30
0.0000000000000000
 40
3.000000000000000
 41
0.0000000000000000
 71
     1
 72
     1
  1
{\H0.94x;{パワーバイス\PＰＯＷＥＲ　ＶＩＳＥ}}
 11
1.000000000000000
 21
0.0000000000000000
 31
0.0000000000000000
  7
KNJYOKO
  0
MTEXT
  5
571
100
AcDbEntity
  8
WAKU0
  6
CONTINUOUS
 62
3
100
AcDbMText
 10
346.1999988853931
 20
34.83333333333333
 30
0.0000000000000000
 40
4.000000000000000
 41
0.0000000000000000
 71
     1
 72
     1
  1
{\H0.59x;{ＶＥ１２５Ｎ－１５　ガイケイ\PＶＥ１２５Ｎ‐１５　ＯＵＴＳＩＤＥ　ＶＩＥＷ}}
 11
1.000000000000000
 21
0.0000000000000000
 31
0.0000000000000000
  7
KNJYOKO
  0
MTEXT
  5
572
100
AcDbEntity
  8
WAKU0
  6
CONTINUOUS
 62
3
100
AcDbMText
 10
318.0049998760223
 20
39.29999995231628
 30
0.0000000000000000
 40
3.099999904632568
 41
0.0000000000000000
 71
     1
 72
     1
  1
{\H0.90x;{2:5}}
 11
1.000000000000000
 21
0.0000000000000000
 31
0.0000000000000000
  7
STANDARD
  0
MTEXT
  5
573
100
AcDbEntity
  8
WAKU0
  6
CONTINUOUS
 62
3
100
AcDbMText
 10
374.4000001549721
 20
20.15000009536743
 30
0.0000000000000000
 40
5.300000190734863
 41
0.0000000000000000
 71
     1
 72
     1
  1
{\H0.90x;{6962}}
 11
1.000000000000000
 21
0.0000000000000000
 31
0.0000000000000000
  7
STANDARD
  0
MTEXT
  5
574
100
AcDbEntity
  8
WAKU0
  6
CONTINUOUS
 62
3
100
AcDbMText
 10
362.3000000834465
 20
20.15000009536743
 30
0.0000000000000000
 40
5.300000190734863
 41
0.0000000000000000
 71
     1
 72
     1
  1
{\H0.87x;{39}}
 11
1.000000000000000
 21
0.0000000000000000
 31
0.0000000000000000
  7
STANDARD
  0
MTEXT
  5
575
100
AcDbEntity
  8
WAKU0
  6
CONTINUOUS
 62
3
100
AcDbMText
 10
345.5000001192093
 20
20.15000009536743
 30
0.0000000000000000
 40
5.300000190734863
 41
0.0000000000000000
 71
     1
 72
     1
  1
{\H0.89x;{61M}}
 11
1.000000000000000
 21
0.0000000000000000
 31
0.0000000000000000
  7
STANDARD
  0
MTEXT
  5
576
100
AcDbEntity
  8
WAKU0
  6
CONTINUOUS
 62
3
100
AcDbMText
 10
400.0000000476837
 20
20.15000009536743
 30
0.0000000000000000
 40
5.300000190734863
 41
0.0000000000000000
 71
     1
 72
     1
  1
{\H0.81x;{0}}
 11
1.000000000000000
 21
0.0000000000000000
 31
0.0000000000000000
  7
STANDARD
  0
MTEXT
  5
577
100
AcDbEntity
  8
WAKU0
  6
CONTINUOUS
 62
3
100
AcDbMText
 10
400.0000000819564
 20
44.84999990463257
 30
0.0000000000000000
 40
5.300000190734863
 41
0.0000000000000000
 71
     7
 72
     1
  1
{\H0.81x;{ }}
 11
1.000000000000000
 21
0.0000000000000000
 31
0.0000000000000000
  7
STANDARD
  0
MTEXT
  5
578
100
AcDbEntity
  8
WAKU0
  6
CONTINUOUS
 62
3
100
AcDbMText
 10
289.3850002884865
 20
33.00000000000000
 30
0.0000000000000000
 40
3.000000000000000
 41
0.0000000000000000
 71
     7
 72
     1
  1
{\H0.93x;{DRAWN BY}}
 11
1.000000000000000
 21
0.0000000000000000
 31
0.0000000000000000
  7
STANDARD
  0
MTEXT
  5
579
100
AcDbEntity
  8
WAKU0
  6
CONTINUOUS
 62
3
100
AcDbMText
 10
269.2149997949600
 20
32.95000004768372
 30
0.0000000000000000
 40
3.099999904632568
 41
0.0000000000000000
 71
     7
 72
     1
  1
{\H0.92x;{CHIEF}}
 11
1.000000000000000
 21
0.0000000000000000
 31
0.0000000000000000
  7
STANDARD
  0
MTEXT
  5
57A
100
AcDbEntity
  8
WAKU0
  6
CONTINUOUS
 62
3
100
AcDbMText
 10
242.4249997138977
 20
32.95000004768372
 30
0.0000000000000000
 40
3.099999904632568
 41
0.0000000000000000
 71
     7
 72
     1
  1
{\H0.92x;{MANAGER}}
 11
1.000000000000000
 21
0.0000000000000000
 31
0.0000000000000000
  7
STANDARD
  0
MTEXT
  5
57B
100
AcDbEntity
  8
WAKU0
  6
CONTINUOUS
 62
3
100
AcDbMText
 10
244.6599994301796
 20
18.13333336512248
 30
0.0000000000000000
 40
3.099999904632568
 41
0.0000000000000000
 71
     7
 72
     1
  1
{\H0.93x;{KITAGAWA IRON\PWORKS CO.,LTD.}}
 11
1.000000000000000
 21
0.0000000000000000
 31
0.0000000000000000
  7
STANDARD
  0
MTEXT
  5
57C
100
AcDbEntity
  8
WAKU0
  6
CONTINUOUS
 62
3
100
AcDbMText
 10
241.0850002169609
 20
46.50000000000000
 30
0.0000000000000000
 40
3.000000000000000
 41
0.0000000000000000
 71
     7
 72
     1
  1
{\H0.92x;{CAREER}}
 11
1.000000000000000
 21
0.0000000000000000
 31
0.0000000000000000
  7
STANDARD
  0
MTEXT
  5
57D
100
AcDbEntity
  8
WAKU0
  6
CONTINUOUS
 62
3
100
AcDbMText
 10
294.6099998354912
 20
18.95000004768372
 30
0.0000000000000000
 40
3.099999904632568
 41
0.0000000000000000
 71
     7
 72
     1
  1
{\H0.91x;{DATE}}
 11
1.000000000000000
 21
0.0000000000000000
 31
0.0000000000000000
  7
STANDARD
  0
MTEXT
  5
57E
100
AcDbEntity
  8
WAKU0
  6
CONTINUOUS
 62
3
100
AcDbMText
 10
313.9000002145767
 20
26.50000000000000
 30
0.0000000000000000
 40
3.000000000000000
 41
0.0000000000000000
 71
     7
 72
     1
  1
{\H0.63x;{3RD ANGLE}}
 11
1.000000000000000
 21
0.0000000000000000
 31
0.0000000000000000
  7
STANDARD
  0
MTEXT
  5
57F
100
AcDbEntity
  8
WAKU0
  6
CONTINUOUS
 62
3
100
AcDbMText
 10
315.2149997949600
 20
45.95000004768372
 30
0.0000000000000000
 40
3.099999904632568
 41
0.0000000000000000
 71
     7
 72
     1
  1
{\H0.92x;{SCALE}}
 11
1.000000000000000
 21
0.0000000000000000
 31
0.0000000000000000
  7
STANDARD
  0
MTEXT
  5
580
100
AcDbEntity
  8
WAKU0
  6
CONTINUOUS
 62
3
100
AcDbMText
 10
405.7000000476837
 20
46.00000000000000
 30
0.0000000000000000
 40
3.000000000000000
 41
0.0000000000000000
 71
     7
 72
     1
  1
{\H0.63x;{kg}}
 11
1.000000000000000
 21
0.0000000000000000
 31
0.0000000000000000
  7
STANDARD
  0
MTEXT
  5
581
100
AcDbEntity
  8
WAKU0
  6
CONTINUOUS
 62
3
100
AcDbMText
 10
375.6000001430512
 20
46.00000000000000
 30
0.0000000000000000
 40
3.000000000000000
 41
0.0000000000000000
 71
     7
 72
     1
  1
{\H0.63x;{WEIGHT}}
 11
1.000000000000000
 21
0.0000000000000000
 31
0.0000000000000000
  7
STANDARD
  0
MTEXT
  5
582
100
AcDbEntity
  8
WAKU0
  6
CONTINUOUS
 62
3
100
AcDbMText
 10
334.0049998760223
 20
18.13333336512248
 30
0.0000000000000000
 40
3.099999904632568
 41
0.0000000000000000
 71
     7
 72
     1
  1
{\H0.90x;{DRW\PNO.}}
 11
1.000000000000000
 21
0.0000000000000000
 31
0.0000000000000000
  7
STANDARD
  0
MTEXT
  5
583
100
AcDbEntity
  8
WAKU0
  6
CONTINUOUS
 62
3
100
AcDbMText
 10
332.6099998354912
 20
31.95000004768372
 30
0.0000000000000000
 40
3.099999904632568
 41
0.0000000000000000
 71
     7
 72
     1
  1
{\H0.91x;{NAME}}
 11
1.000000000000000
 21
0.0000000000000000
 31
0.0000000000000000
  7
STANDARD
  0
MTEXT
  5
584
100
AcDbEntity
  8
WAKU0
  6
CONTINUOUS
 62
3
100
AcDbMText
 10
332.6099998354912
 20
45.95000004768372
 30
0.0000000000000000
 40
3.099999904632568
 41
0.0000000000000000
 71
     7
 72
     1
  1
{\H0.91x;{TYPE}}
 11
1.000000000000000
 21
0.0000000000000000
 31
0.0000000000000000
  7
STANDARD
  0
LINE
  5
585
100
AcDbEntity
  8
WAKU0
  6
HIDDEN
 62
3
100
AcDbLine
 10
407.1599564743885
 20
13.84999990463257
 30
0.0000000000000000
 11
396.9400436209789
 21
13.84999990463257
 31
0.0000000000000000
  0
LINE
  5
586
100
AcDbEntity
  8
WAKU0
  6
HIDDEN
 62
3
100
AcDbLine
 10
407.1599564743885
 20
13.84999990463250
 30
0.0000000000000000
 11
402.0500000476852
 21
22.70070406014901
 31
0.0000000000000000
  0
LINE
  5
587
100
AcDbEntity
  8
WAKU0
  6
HIDDEN
 62
3
100
AcDbLine
 10
402.0500000476852
 20
22.70070406014902
 30
0.0000000000000000
 11
396.9400436209789
 21
13.84999990463248
 31
0.0000000000000000
  0
LINE
  5
588
100
AcDbEntity
  8
WAKU0
  6
CONTINUOUS
 62
3
100
AcDbLine
 10
330.4713877753800
 20
15.78041421262812
 30
0.0000000000000000
 11
330.4713877753800
 21
21.78041421262815
 31
0.0000000000000000
  0
LINE
  5
589
100
AcDbEntity
  8
WAKU0
  6
CONTINUOUS
 62
3
100
AcDbLine
 10
323.9336941228225
 20
17.28041421262811
 30
0.0000000000000000
 11
323.9336941228225
 21
20.28041421262824
 31
0.0000000000000000
  0
LINE
  5
58A
100
AcDbEntity
  8
WAKU0
  6
CENTER
 62
12
100
AcDbLine
 10
313.4321805514995
 20
18.78041421262813
 30
0.0000000000000000
 11
331.2765788964694
 21
18.78041421262813
 31
0.0000000000000000
  0
LINE
  5
58B
100
AcDbEntity
  8
WAKU0
  6
CENTER
 62
12
100
AcDbLine
 10
317.4474565857986
 20
14.55921662918448
 30
0.0000000000000000
 11
317.4474565857986
 21
22.89865102149943
 31
0.0000000000000000
  0
LINE
  5
58C
100
AcDbEntity
  8
WAKU0
  6
CONTINUOUS
 62
3
100
AcDbLine
 10
323.9336941228225
 20
20.28041421262797
 30
0.0000000000000000
 11
330.4713877753800
 21
21.78041421262795
 31
0.0000000000000000
  0
LINE
  5
58D
100
AcDbEntity
  8
WAKU0
  6
CONTINUOUS
 62
3
100
AcDbLine
 10
323.9336941228225
 20
17.28041421262811
 30
0.0000000000000000
 11
330.4713877753799
 21
15.78041421262812
 31
0.0000000000000000
  0
CIRCLE
  5
58E
100
AcDbEntity
  8
WAKU0
  6
CONTINUOUS
 62
3
100
AcDbCircle
 10
317.4474565857986
 20
18.78041421262813
 30
0.0000000000000000
 40
1.499999999999972
  0
CIRCLE
  5
58F
100
AcDbEntity
  8
WAKU0
  6
CONTINUOUS
 62
3
100
AcDbCircle
 10
317.4474565857986
 20
18.78041421262813
 30
0.0000000000000000
 40
2.999999999999979
  0
LINE
  5
590
100
AcDbEntity
  8
A0
  6
CONTINUOUS
 62
3
100
AcDbLine
 10
171.8110583818228
 20
222.2027196181407
 30
0.0000000000000000
 11
171.8110583818228
 21
107.7027218831126
 31
0.0000000000000000
  0
LINE
  5
591
100
AcDbEntity
  8
A0
  6
CONTINUOUS
 62
3
100
AcDbLine
 10
38.81105885861280
 20
209.4527198568740
 30
0.0000000000000000
 11
171.8110583818228
 21
209.4527198569332
 31
0.0000000000000000
  0
LINE
  5
592
100
AcDbEntity
  8
A0
  6
CONTINUOUS
 62
3
100
AcDbLine
 10
38.81105885861177
 20
222.2027196180228
 30
0.0000000000000000
 11
171.8110583818228
 21
222.2027196181408
 31
0.0000000000000000
  0
MTEXT
  5
593
100
AcDbEntity
  8
A0
  6
CONTINUOUS
 62
3
100
AcDbMText
 10
55.68605766654343
 20
219.7027196184853
 30
0.0000000000000000
 40
7.749999761581421
 41
0.0000000000000000
 71
     1
 72
     1
  1
{\H0.71x;{仕様　　SPECIFICATIONS}}
 11
1.000000000000000
 21
0.0000000000000000
 31
0.0000000000000000
  7
KNJYOKO
  0
MTEXT
  5
594
100
AcDbEntity
  8
A0
  6
CONTINUOUS
 62
3
100
AcDbMText
 10
127.8110574281175
 20
203.0777199758212
 30
0.0000000000000000
 40
7.749999761581421
 41
0.0000000000000000
 71
     1
 72
     1
  1
{\H0.70x;{０～２０４mm}}
 11
1.000000000000000
 21
0.0000000000000000
 31
0.0000000000000000
  7
KNJYOKO
  0
MTEXT
  5
595
100
AcDbEntity
  8
A0
  6
CONTINUOUS
 62
3
100
AcDbMText
 10
40.06105885862894
 20
197.9527200950305
 30
0.0000000000000000
 40
7.749999761581421
 41
0.0000000000000000
 71
     1
 72
     1
  1
{\H0.71x;{CLAMPING RANGE}}
 11
1.000000000000000
 21
0.0000000000000000
 31
0.0000000000000000
  7
STANDARD
  0
LINE
  5
596
100
AcDbEntity
  8
A0
  6
CONTINUOUS
 62
3
100
AcDbLine
 10
38.81105885861428
 20
188.9527203332784
 30
0.0000000000000000
 11
171.8110583818228
 21
188.9527203333963
 31
0.0000000000000000
  0
LINE
  5
597
100
AcDbEntity
  8
A0
  6
CONTINUOUS
 62
3
100
AcDbLine
 10
126.5610574281152
 20
209.4527198569110
 30
0.0000000000000000
 11
126.5610574281152
 21
188.9527203333517
 31
0.0000000000000000
  0
MTEXT
  5
598
100
AcDbEntity
  8
A0
  6
CONTINUOUS
 62
3
100
AcDbMText
 10
40.06105885862894
 20
177.4527205718676
 30
0.0000000000000000
 40
7.749999761581421
 41
0.0000000000000000
 71
     1
 72
     1
  1
{\H0.71x;{TIGHTENING TORQUE}}
 11
1.000000000000000
 21
0.0000000000000000
 31
0.0000000000000000
  7
STANDARD
  0
LINE
  5
599
100
AcDbEntity
  8
A0
  6
CONTINUOUS
 62
3
100
AcDbLine
 10
171.8110583818227
 20
168.4527208106075
 30
0.0000000000000000
 11
38.81105885861590
 21
168.4527208105484
 31
0.0000000000000000
  0
LINE
  5
59A
100
AcDbEntity
  8
A0
  6
CONTINUOUS
 62
3
100
AcDbLine
 10
126.5610574281152
 20
168.4527208105853
 30
0.0000000000000000
 11
126.5610574281152
 21
107.7027218830726
 31
0.0000000000000000
  0
LINE
  5
59B
100
AcDbEntity
  8
A0
  6
CONTINUOUS
 62
3
100
AcDbLine
 10
126.5610574281151
 20
147.9527212874226
 30
0.0000000000000000
 11
171.8110583818229
 21
147.9527212874426
 31
0.0000000000000000
  0
MTEXT
  5
59C
100
AcDbEntity
  8
A0
  6
CONTINUOUS
 62
3
100
AcDbMText
 10
132.8110579049546
 20
146.7027212867451
 30
0.0000000000000000
 40
7.749999761581421
 41
0.0000000000000000
 71
     1
 72
     1
  1
{\H0.67x;{2}}
 11
1.000000000000000
 21
0.0000000000000000
 31
0.0000000000000000
  7
STANDARD
  0
LINE
  5
59D
100
AcDbEntity
  8
A0
  6
CONTINUOUS
 62
3
100
AcDbLine
 10
171.8110583818228
 20
127.4527215258632
 30
0.0000000000000000
 11
38.81105885861832
 21
127.4527215258041
 31
0.0000000000000000
  0
MTEXT
  5
59E
100
AcDbEntity
  8
A0
  6
CONTINUOUS
 62
3
100
AcDbMText
 10
132.8110579049546
 20
136.4527212871234
 30
0.0000000000000000
 40
7.749999761581421
 41
0.0000000000000000
 71
     1
 72
     1
  1
{\H0.67x;{3}}
 11
1.000000000000000
 21
0.0000000000000000
 31
0.0000000000000000
  7
STANDARD
  0
LINE
  5
59F
100
AcDbEntity
  8
A0
  6
CONTINUOUS
 62
3
100
AcDbLine
 10
126.5610574281150
 20
158.2027210486077
 30
0.0000000000000000
 11
171.8110583818228
 21
158.2027210486478
 31
0.0000000000000000
  0
LINE
  5
5A0
100
AcDbEntity
  8
A0
  6
CONTINUOUS
 62
3
100
AcDbLine
 10
143.7098522979967
 20
168.4527208105929
 30
0.0000000000000000
 11
143.7098522979967
 21
127.4527215258509
 31
0.0000000000000000
  0
MTEXT
  5
5A1
100
AcDbEntity
  8
A0
  6
CONTINUOUS
 62
3
100
AcDbMText
 10
147.5321115501173
 20
156.9527210483256
 30
0.0000000000000000
 40
7.749999761581421
 41
0.0000000000000000
 71
     1
 72
     1
  1
{\H0.70x;{12KN}}
 11
1.000000000000000
 21
0.0000000000000000
 31
0.0000000000000000
  7
STANDARD
  0
MTEXT
  5
5A2
100
AcDbEntity
  8
A0
  6
CONTINUOUS
 62
3
100
AcDbMText
 10
147.5321115501173
 20
146.7027212867442
 30
0.0000000000000000
 40
7.749999761581421
 41
0.0000000000000000
 71
     1
 72
     1
  1
{\H0.70x;{21KN}}
 11
1.000000000000000
 21
0.0000000000000000
 31
0.0000000000000000
  7
STANDARD
  0
MTEXT
  5
5A3
100
AcDbEntity
  8
A0
  6
CONTINUOUS
 62
3
100
AcDbMText
 10
147.5321115501173
 20
136.4527212871224
 30
0.0000000000000000
 40
7.749999761581421
 41
0.0000000000000000
 71
     1
 72
     1
  1
{\H0.70x;{30KN}}
 11
1.000000000000000
 21
0.0000000000000000
 31
0.0000000000000000
  7
STANDARD
  0
MTEXT
  5
5A4
100
AcDbEntity
  8
A0
  6
CONTINUOUS
 62
3
100
AcDbMText
 10
132.8110579049546
 20
156.9527210483265
 30
0.0000000000000000
 40
7.749999761581421
 41
0.0000000000000000
 71
     1
 72
     1
  1
{\H0.67x;{1}}
 11
1.000000000000000
 21
0.0000000000000000
 31
0.0000000000000000
  7
STANDARD
  0
MTEXT
  5
5A5
100
AcDbEntity
  8
A0
  6
CONTINUOUS
 62
3
100
AcDbMText
 10
138.1898710752889
 20
121.0777216447410
 30
0.0000000000000000
 40
7.749999761581421
 41
0.0000000000000000
 71
     1
 72
     1
  1
{\H0.70x;{35kg}}
 11
1.000000000000000
 21
0.0000000000000000
 31
0.0000000000000000
  7
STANDARD
  0
MTEXT
  5
5A6
100
AcDbEntity
  8
A0
  6
CONTINUOUS
 62
3
100
AcDbMText
 10
40.06105885862894
 20
115.9527217639605
 30
0.0000000000000000
 40
6.999999880790710
 41
0.0000000000000000
 71
     1
 72
     1
  1
{\H0.67x;{MASS OF POWER VISE}}
 11
1.000000000000000
 21
0.0000000000000000
 31
0.0000000000000000
  7
STANDARD
  0
MTEXT
  5
5A7
100
AcDbEntity
  8
A0
  6
CONTINUOUS
 62
3
100
AcDbMText
 10
40.06105885862894
 20
126.2027215255419
 30
0.0000000000000000
 40
7.749999761581421
 41
0.0000000000000000
 71
     1
 72
     1
  1
{\H0.70x;{製品質量}}
 11
1.000000000000000
 21
0.0000000000000000
 31
0.0000000000000000
  7
KNJYOKO
  0
MTEXT
  5
5A8
100
AcDbEntity
  8
A0
  6
CONTINUOUS
 62
3
100
AcDbMText
 10
40.06105885862894
 20
156.9527210487048
 30
0.0000000000000000
 40
7.749999761581421
 41
0.0000000000000000
 71
     1
 72
     1
  1
{\H0.71x;{CLAMP RANGE}}
 11
1.000000000000000
 21
0.0000000000000000
 31
0.0000000000000000
  7
STANDARD
  0
MTEXT
  5
5A9
100
AcDbEntity
  8
A0
  6
CONTINUOUS
 62
3
100
AcDbMText
 10
40.06105885862894
 20
167.2027208102862
 30
0.0000000000000000
 40
7.749999761581421
 41
0.0000000000000000
 71
     1
 72
     1
  1
{\H0.70x;{締付けレンジ}}
 11
1.000000000000000
 21
0.0000000000000000
 31
0.0000000000000000
  7
KNJYOKO
  0
LINE
  5
5AA
100
AcDbEntity
  8
A0
  6
CONTINUOUS
 62
3
100
AcDbLine
 10
38.81105885861181
 20
222.2027196180224
 30
0.0000000000000000
 11
38.81105885861998
 21
107.7027218829990
 31
0.0000000000000000
  0
LINE
  5
5AB
100
AcDbEntity
  8
A0
  6
CONTINUOUS
 62
3
100
AcDbLine
 10
171.8110583818228
 20
107.7027218831173
 30
0.0000000000000000
 11
38.81105885861992
 21
107.7027218829993
 31
0.0000000000000000
  0
MTEXT
  5
5AC
100
AcDbEntity
  8
A0
  6
CONTINUOUS
 62
3
100
AcDbMText
 10
40.06105885862894
 20
187.7027203334490
 30
0.0000000000000000
 40
7.749999761581421
 41
0.0000000000000000
 71
     1
 72
     1
  1
{\H0.70x;{締付トルク}}
 11
1.000000000000000
 21
0.0000000000000000
 31
0.0000000000000000
  7
KNJYOKO
  0
MTEXT
  5
5AD
100
AcDbEntity
  8
A0
  6
CONTINUOUS
 62
3
100
AcDbMText
 10
40.06105885862894
 20
208.2027198566119
 30
0.0000000000000000
 40
7.749999761581421
 41
0.0000000000000000
 71
     1
 72
     1
  1
{\H0.70x;{口金の開き}}
 11
1.000000000000000
 21
0.0000000000000000
 31
0.0000000000000000
  7
KNJYOKO
  0
LINE
  5
5AE
100
AcDbEntity
  8
A0
  6
CONTINUOUS
 62
3
100
AcDbLine
 10
126.5610574281152
 20
137.7027212874226
 30
0.0000000000000000
 11
171.8110583818228
 21
137.7027212874426
 31
0.0000000000000000
  0
MTEXT
  5
5AF
100
AcDbEntity
  8
A0
  6
CONTINUOUS
 62
3
100
AcDbMText
 10
147.5321115501173
 20
167.2027208102853
 30
0.0000000000000000
 40
7.749999761581421
 41
0.0000000000000000
 71
     1
 72
     1
  1
{\H0.70x;{ 8KN}}
 11
1.000000000000000
 21
0.0000000000000000
 31
0.0000000000000000
  7
STANDARD
  0
MTEXT
  5
5B0
100
AcDbEntity
  8
A0
  6
CONTINUOUS
 62
3
100
AcDbMText
 10
132.8110579049546
 20
167.2027208102862
 30
0.0000000000000000
 40
7.749999761581421
 41
0.0000000000000000
 71
     1
 72
     1
  1
{\H0.67x;{0}}
 11
1.000000000000000
 21
0.0000000000000000
 31
0.0000000000000000
  7
STANDARD
  0
ENDSEC
  0
SECTION
  2
OBJECTS
  0
DICTIONARY
  5
610
100
AcDbDictionary
  3
ACAD_GROUP
350
611
  3
ACAD_MLINESTYLE
350
612
  3
DWGPROPS
350
613
  0
DICTIONARY
  5
611
102
{ACAD_REACTORS
330
610
102
}
100
AcDbDictionary
  0
DICTIONARY
  5
612
102
{ACAD_REACTORS
330
610
102
}
100
AcDbDictionary
  3
STANDARD
350
614
  0
MLINESTYLE
  5
614
102
{ACAD_REACTORS
330
612
102
}
100
AcDbMlineStyle
  2
STANDARD
 70
     0
  3

 62
   256
 51
90.00
 52
90.00
 71
     2
 49
0.50
 62
   256
  6
BYLAYER
 49
-0.50
 62
   256
  6
BYLAYER
  0
XRECORD
  5
613
102
{ACAD_REACTORS
330
610
102
}
100
AcDbXrecord
280
     1
  1
DWGPROPS COOKIE
  2
ＶＥ１２５－１５　ガイケイ
  3

  4

  6
パワーバイス
  7

  8

  9

300
=
301
=
302
=
303
=
304
=
305
=
306
=
307
=
308
=
309
=
 40
0.000000
 41
0.000000
 42
0.000000
  1

 90
        0
  0
ENDSEC
  0
EOF
