  0
SECTION
  2
HEADER
  9
$ACADVER
  1
AC1014
  9
$DWGCODEPAGE
  3
ANSI_932
  9
$LTSCALE
 40
20.0
  9
$FILLMODE
 70
     1
  9
$CLAYER
  8
0
  9
$PDMODE
 70
     0
  9
$SPLFRAME
 70
     0
  9
$SPLINETYPE
 70
     6
  9
$SPLINESEGS
 70
     8
  9
$DIMASZ
 40
2.000000
  9
$DIMEXE
 40
2.000000
  9
$DIMEXO
 40
0.800000
  9
$DIMTAD
 70
     1
  9
$DIMTIH
 70
     0
  9
$DIMTOH
 70
     0
  9
$DIMTVP
 40
0.500000
  9
$DIMTXT
 40
3.100000
  9
$EXTMIN
 10
0.000000
 20
0.000000
 30
0.000000
  9
$EXTMAX
 10
297.000000
 20
420.000000
 30
0.000000
  9
$MEASUREMENT
 70
  1
  9
$LIMMIN
 10
0.000000
 20
0.000000
  9
$LIMMAX
 10
297.000000
 20
420.000000
  9
$HANDLING
 70
     1
  9
$HANDSEED
  5
59C
  9
$DIMBLK
  1
_OPEN
  9
$DIMDEC
 70
     3
  9
$DIMAUNIT
 70
     1
  9
$DIMZIN
 70
     8
  9
$DIMTOFL
 70
     1
  0
ENDSEC
  0
SECTION
  2
CLASSES
  0
ENDSEC
  0
SECTION
  2
TABLES
  0
TABLE
  2
VPORT
  5
53B
100
AcDbSymbolTable
 70
     1
  0
VPORT
  5
53C
100
AcDbSymbolTableRecord
100
AcDbViewportTableRecord
  2
*ACTIVE
 70
     0
 12
665.907031
 22
261.821759
 40
2264.905418
 41
1.314634
  0
ENDTAB
  0
TABLE
  2
LTYPE
  5
53D
100
AcDbSymbolTable
 70
     3
  0
LTYPE
  5
53E
100
AcDbSymbolTableRecord
100
AcDbLinetypeTableRecord
  2
BYBLOCK
 70
     0
  3

 72
    65
 73
     0
 40
0.0
  0
LTYPE
  5
53F
100
AcDbSymbolTableRecord
100
AcDbLinetypeTableRecord
  2
BYLAYER
 70
     0
  3

 72
    65
 73
     0
 40
0.0
  0
LTYPE
  5
540
100
AcDbSymbolTableRecord
100
AcDbLinetypeTableRecord
  2
CONTINUOUS
 70
     0
  3
Solid line (NEC CAE2D for Win R12.1 : 2016.08.08)
 72
    65
 73
     0
 40
0.0
  0
LTYPE
  5
541
100
AcDbSymbolTableRecord
100
AcDbLinetypeTableRecord
  2
HIDDEN
 70
     0
  3
__ __ __ __ __ __ __ __ __ __ __ __ __ __
 72
    65
 73
     2
 40
0.375
 49
0.25
 74
     0
 49
-0.125
 74
     0
  0
LTYPE
  5
542
100
AcDbSymbolTableRecord
100
AcDbLinetypeTableRecord
  2
CENTER
 70
     0
  3
____ _ ____ _ ____ _ ____ _ ____ _ ____
 72
    65
 73
     4
 40
2.0
 49
1.25
 74
     0
 49
-0.25
 74
     0
 49
0.25
 74
     0
 49
-0.25
 74
     0
  0
ENDTAB
  0
TABLE
  2
LAYER
  5
543
100
AcDbSymbolTable
 70
     9
  0
LAYER
  5
544
100
AcDbSymbolTableRecord
100
AcDbLayerTableRecord
  2
0
 70
     0
 62
     7
  6
CONTINUOUS
  0
LAYER
  5
545
100
AcDbSymbolTableRecord
100
AcDbLayerTableRecord
  2
MAIN0
 70
     0
 62
     7
  6
CONTINUOUS
  0
LAYER
  5
546
100
AcDbSymbolTableRecord
100
AcDbLayerTableRecord
  2
MAIN1
 70
     0
 62
     7
  6
CONTINUOUS
  0
LAYER
  5
547
100
AcDbSymbolTableRecord
100
AcDbLayerTableRecord
  2
MAIN3
 70
     0
 62
     7
  6
CONTINUOUS
  0
LAYER
  5
548
100
AcDbSymbolTableRecord
100
AcDbLayerTableRecord
  2
MAIN1023
 70
     0
 62
    16
  6
CONTINUOUS
  0
LAYER
  5
549
100
AcDbSymbolTableRecord
100
AcDbLayerTableRecord
  2
WAKU0
 70
     0
 62
     7
  6
CONTINUOUS
  0
LAYER
  5
54A
100
AcDbSymbolTableRecord
100
AcDbLayerTableRecord
  2
WAKU1023
 70
     0
 62
    16
  6
CONTINUOUS
  0
LAYER
  5
54B
100
AcDbSymbolTableRecord
100
AcDbLayerTableRecord
  2
A0
 70
     0
 62
     7
  6
CONTINUOUS
  0
LAYER
  5
54C
100
AcDbSymbolTableRecord
100
AcDbLayerTableRecord
  2
A1023
 70
     0
 62
    16
  6
CONTINUOUS
  0
ENDTAB
  0
TABLE
  2
STYLE
  5
54D
100
AcDbSymbolTable
 70
     4
  0
STYLE
  5
54E
100
AcDbSymbolTableRecord
100
AcDbTextStyleTableRecord
  2
STANDARD
 70
    64
 40
0.0
 41
1.0
 50
0.0
 71
     0
 42
7.749999761581421
  3
TXT
  4

  0
STYLE
  5
54F
100
AcDbSymbolTableRecord
100
AcDbTextStyleTableRecord
  2
ANKTATE
 70
    68
 40
0.0
 41
1.0
 50
0.0
 71
     0
 42
7.749999761581421
  3
TXT
  4

  0
STYLE
  5
16F
100
AcDbSymbolTableRecord
100
AcDbTextStyleTableRecord
  2
KNJYOKO
 70
    64
 40
0.0
 41
1.0
 50
0.0
 71
     0
 42
7.749999761581421
  3
TXT
  4
BIGFONT
  0
STYLE
  5
550
100
AcDbSymbolTableRecord
100
AcDbTextStyleTableRecord
  2
KNJTATE
 70
    68
 40
0.0
 41
1.0
 50
0.0
 71
     0
 42
7.749999761581421
  3
TXT
  4
BIGFONT
  0
ENDTAB
  0
TABLE
  2
VIEW
  5
551
100
AcDbSymbolTable
 70
     0
  0
ENDTAB
  0
TABLE
  2
UCS
  5
552
100
AcDbSymbolTable
 70
     0
  0
ENDTAB
  0
TABLE
  2
APPID
  5
553
100
AcDbSymbolTable
 70
     1
  0
APPID
  5
554
100
AcDbSymbolTableRecord
100
AcDbRegAppTableRecord
  2
ACAD
 70
     0
  0
ENDTAB
  0
TABLE
  2
DIMSTYLE
  5
555
100
AcDbSymbolTable
 70
     1
  0
DIMSTYLE
105
556
100
AcDbSymbolTableRecord
100
AcDbDimStyleTableRecord
  2
STANDARD
 70
     0
 41
2.000000
 44
2.000000
 42
0.800000
145
0.661290
140
3.100000
144
1.000000
146
0.903226
340
54E
  0
DIMSTYLE
105
557
100
AcDbSymbolTableRecord
100
AcDbDimStyleTableRecord
  2
MAIN001
 70
     0
 41
6.000000
 44
6.000000
 42
2.400000
145
0.553763
140
9.300000
144
1.000000
146
0.903226
 77
     1
 73
     0
 74
     0
271
     3
275
     1
 78
     8
172
     1
340
54E
  0
DIMSTYLE
105
558
100
AcDbSymbolTableRecord
100
AcDbDimStyleTableRecord
  2
WAKU002
 70
     0
 41
2.000000
 44
2.000000
 42
0.800000
145
0.661290
140
3.100000
144
1.000000
146
0.903226
 77
     1
 73
     0
 74
     0
271
     3
275
     1
 78
     8
172
     1
340
54E
  0
DIMSTYLE
105
559
100
AcDbSymbolTableRecord
100
AcDbDimStyleTableRecord
  2
A003
 70
     0
 41
5.000000
 44
5.000000
 42
2.000000
145
0.564516
140
7.750000
144
1.000000
146
0.903226
 77
     1
 73
     0
 74
     0
271
     3
275
     1
 78
     8
172
     1
340
54E
  0
ENDTAB
  0
TABLE
  2
BLOCK_RECORD
  5
55A
100
AcDbSymbolTable
 70
    67
  0
BLOCK_RECORD
  5
55B
100
AcDbSymbolTableRecord
100
AcDbBlockTableRecord
  2
*MODEL_SPACE
  0
BLOCK_RECORD
  5
55C
100
AcDbSymbolTableRecord
100
AcDbBlockTableRecord
  2
*PAPER_SPACE
  0
BLOCK_RECORD
  5
1
100
AcDbSymbolTableRecord
100
AcDbBlockTableRecord
  2
_NONE
  0
BLOCK_RECORD
  5
4
100
AcDbSymbolTableRecord
100
AcDbBlockTableRecord
  2
_CLOSED
  0
BLOCK_RECORD
  5
B
100
AcDbSymbolTableRecord
100
AcDbBlockTableRecord
  2
_DOT
  0
BLOCK_RECORD
  5
13
100
AcDbSymbolTableRecord
100
AcDbBlockTableRecord
  2
_OPEN
  0
BLOCK_RECORD
  5
19
100
AcDbSymbolTableRecord
100
AcDbBlockTableRecord
  2
_ORIGIN
  0
BLOCK_RECORD
  5
1E
100
AcDbSymbolTableRecord
100
AcDbBlockTableRecord
  2
_OPEN30
  0
BLOCK_RECORD
  5
24
100
AcDbSymbolTableRecord
100
AcDbBlockTableRecord
  2
_BOXFILLED
  0
BLOCK_RECORD
  5
29
100
AcDbSymbolTableRecord
100
AcDbBlockTableRecord
  2
_BOXBLANK
  0
BLOCK_RECORD
  5
31
100
AcDbSymbolTableRecord
100
AcDbBlockTableRecord
  2
_OBLIQUE
  0
BLOCK_RECORD
  5
35
100
AcDbSymbolTableRecord
100
AcDbBlockTableRecord
  2
_OPEN90
  0
BLOCK_RECORD
  5
3B
100
AcDbSymbolTableRecord
100
AcDbBlockTableRecord
  2
_CLOSEDBLANK
  0
BLOCK_RECORD
  5
41
100
AcDbSymbolTableRecord
100
AcDbBlockTableRecord
  2
_DOTBLANK
  0
BLOCK_RECORD
  5
55D
100
AcDbSymbolTableRecord
100
AcDbBlockTableRecord
  2
*D0
  0
BLOCK_RECORD
  5
55E
100
AcDbSymbolTableRecord
100
AcDbBlockTableRecord
  2
*D1
  0
BLOCK_RECORD
  5
55F
100
AcDbSymbolTableRecord
100
AcDbBlockTableRecord
  2
*D2
  0
BLOCK_RECORD
  5
560
100
AcDbSymbolTableRecord
100
AcDbBlockTableRecord
  2
*D3
  0
BLOCK_RECORD
  5
561
100
AcDbSymbolTableRecord
100
AcDbBlockTableRecord
  2
*D4
  0
BLOCK_RECORD
  5
562
100
AcDbSymbolTableRecord
100
AcDbBlockTableRecord
  2
*D5
  0
BLOCK_RECORD
  5
563
100
AcDbSymbolTableRecord
100
AcDbBlockTableRecord
  2
*D6
  0
BLOCK_RECORD
  5
564
100
AcDbSymbolTableRecord
100
AcDbBlockTableRecord
  2
*D7
  0
BLOCK_RECORD
  5
565
100
AcDbSymbolTableRecord
100
AcDbBlockTableRecord
  2
*D8
  0
BLOCK_RECORD
  5
566
100
AcDbSymbolTableRecord
100
AcDbBlockTableRecord
  2
*D9
  0
BLOCK_RECORD
  5
567
100
AcDbSymbolTableRecord
100
AcDbBlockTableRecord
  2
*D10
  0
BLOCK_RECORD
  5
568
100
AcDbSymbolTableRecord
100
AcDbBlockTableRecord
  2
*D11
  0
BLOCK_RECORD
  5
569
100
AcDbSymbolTableRecord
100
AcDbBlockTableRecord
  2
*D12
  0
BLOCK_RECORD
  5
56A
100
AcDbSymbolTableRecord
100
AcDbBlockTableRecord
  2
*D13
  0
BLOCK_RECORD
  5
56B
100
AcDbSymbolTableRecord
100
AcDbBlockTableRecord
  2
*D14
  0
BLOCK_RECORD
  5
56C
100
AcDbSymbolTableRecord
100
AcDbBlockTableRecord
  2
*D15
  0
BLOCK_RECORD
  5
56D
100
AcDbSymbolTableRecord
100
AcDbBlockTableRecord
  2
*D16
  0
BLOCK_RECORD
  5
56E
100
AcDbSymbolTableRecord
100
AcDbBlockTableRecord
  2
*D17
  0
BLOCK_RECORD
  5
56F
100
AcDbSymbolTableRecord
100
AcDbBlockTableRecord
  2
*D18
  0
BLOCK_RECORD
  5
570
100
AcDbSymbolTableRecord
100
AcDbBlockTableRecord
  2
*D19
  0
BLOCK_RECORD
  5
571
100
AcDbSymbolTableRecord
100
AcDbBlockTableRecord
  2
*D20
  0
BLOCK_RECORD
  5
572
100
AcDbSymbolTableRecord
100
AcDbBlockTableRecord
  2
*D21
  0
BLOCK_RECORD
  5
573
100
AcDbSymbolTableRecord
100
AcDbBlockTableRecord
  2
*D22
  0
BLOCK_RECORD
  5
574
100
AcDbSymbolTableRecord
100
AcDbBlockTableRecord
  2
*D23
  0
BLOCK_RECORD
  5
575
100
AcDbSymbolTableRecord
100
AcDbBlockTableRecord
  2
*D24
  0
BLOCK_RECORD
  5
576
100
AcDbSymbolTableRecord
100
AcDbBlockTableRecord
  2
*D25
  0
BLOCK_RECORD
  5
577
100
AcDbSymbolTableRecord
100
AcDbBlockTableRecord
  2
*D26
  0
BLOCK_RECORD
  5
578
100
AcDbSymbolTableRecord
100
AcDbBlockTableRecord
  2
*D27
  0
BLOCK_RECORD
  5
579
100
AcDbSymbolTableRecord
100
AcDbBlockTableRecord
  2
*D28
  0
BLOCK_RECORD
  5
57A
100
AcDbSymbolTableRecord
100
AcDbBlockTableRecord
  2
*D29
  0
BLOCK_RECORD
  5
57B
100
AcDbSymbolTableRecord
100
AcDbBlockTableRecord
  2
*D30
  0
BLOCK_RECORD
  5
57C
100
AcDbSymbolTableRecord
100
AcDbBlockTableRecord
  2
*D31
  0
BLOCK_RECORD
  5
57D
100
AcDbSymbolTableRecord
100
AcDbBlockTableRecord
  2
*D32
  0
BLOCK_RECORD
  5
57E
100
AcDbSymbolTableRecord
100
AcDbBlockTableRecord
  2
*D33
  0
BLOCK_RECORD
  5
57F
100
AcDbSymbolTableRecord
100
AcDbBlockTableRecord
  2
*D34
  0
BLOCK_RECORD
  5
580
100
AcDbSymbolTableRecord
100
AcDbBlockTableRecord
  2
*D35
  0
BLOCK_RECORD
  5
581
100
AcDbSymbolTableRecord
100
AcDbBlockTableRecord
  2
*D36
  0
BLOCK_RECORD
  5
582
100
AcDbSymbolTableRecord
100
AcDbBlockTableRecord
  2
*D37
  0
BLOCK_RECORD
  5
583
100
AcDbSymbolTableRecord
100
AcDbBlockTableRecord
  2
*D38
  0
BLOCK_RECORD
  5
584
100
AcDbSymbolTableRecord
100
AcDbBlockTableRecord
  2
*D39
  0
BLOCK_RECORD
  5
585
100
AcDbSymbolTableRecord
100
AcDbBlockTableRecord
  2
*D40
  0
BLOCK_RECORD
  5
586
100
AcDbSymbolTableRecord
100
AcDbBlockTableRecord
  2
*D41
  0
BLOCK_RECORD
  5
587
100
AcDbSymbolTableRecord
100
AcDbBlockTableRecord
  2
*D42
  0
BLOCK_RECORD
  5
588
100
AcDbSymbolTableRecord
100
AcDbBlockTableRecord
  2
*D43
  0
BLOCK_RECORD
  5
589
100
AcDbSymbolTableRecord
100
AcDbBlockTableRecord
  2
*D44
  0
BLOCK_RECORD
  5
58A
100
AcDbSymbolTableRecord
100
AcDbBlockTableRecord
  2
*D45
  0
BLOCK_RECORD
  5
58B
100
AcDbSymbolTableRecord
100
AcDbBlockTableRecord
  2
D46
  0
BLOCK_RECORD
  5
58C
100
AcDbSymbolTableRecord
100
AcDbBlockTableRecord
  2
*D47
  0
BLOCK_RECORD
  5
58D
100
AcDbSymbolTableRecord
100
AcDbBlockTableRecord
  2
*D48
  0
BLOCK_RECORD
  5
58E
100
AcDbSymbolTableRecord
100
AcDbBlockTableRecord
  2
*D49
  0
BLOCK_RECORD
  5
58F
100
AcDbSymbolTableRecord
100
AcDbBlockTableRecord
  2
*D50
  0
BLOCK_RECORD
  5
590
100
AcDbSymbolTableRecord
100
AcDbBlockTableRecord
  2
*D51
  0
BLOCK_RECORD
  5
591
100
AcDbSymbolTableRecord
100
AcDbBlockTableRecord
  2
*D52
  0
BLOCK_RECORD
  5
592
100
AcDbSymbolTableRecord
100
AcDbBlockTableRecord
  2
*D53
  0
BLOCK_RECORD
  5
593
100
AcDbSymbolTableRecord
100
AcDbBlockTableRecord
  2
*D54
  0
ENDTAB
  0
ENDSEC
  0
SECTION
  2
BLOCKS
  0
BLOCK
  5
594
100
AcDbEntity
  8
0
100
AcDbBlockBegin
  2
*MODEL_SPACE
 70
     0
 10
0.0
 20
0.0
 30
0.0
  3
*MODEL_SPACE
  1

  0
ENDBLK
  5
595
100
AcDbEntity
  8
0
100
AcDbBlockEnd
  0
BLOCK
  5
596
100
AcDbEntity
  8
0
100
AcDbBlockBegin
  2
*PAPER_SPACE
 70
     0
 10
0.0
 20
0.0
 30
0.0
  3
*PAPER_SPACE
  1

  0
ENDBLK
  5
597
100
AcDbEntity
  8
0
100
AcDbBlockEnd
  0
BLOCK
  5
2
100
AcDbEntity
  8
0
100
AcDbBlockBegin
  2
_NONE
 70
     0
 10
0.0
 20
0.0
 30
0.0
  3
_NONE
  1

  0
ENDBLK
  5
3
100
AcDbEntity
  8
0
100
AcDbBlockEnd
  0
BLOCK
  5
5
100
AcDbEntity
  8
0
100
AcDbBlockBegin
  2
_CLOSED
 70
     0
 10
0.0
 20
0.0
 30
0.0
  3
_CLOSED
  1

  0
LINE
  5
6
100
AcDbEntity
  8
0
  6
BYBLOCK
 62
     0
100
AcDbLine
 10
-1.0
 20
0.166667
 30
0.0
 11
0.0
 21
0.0
 31
0.0
  0
LINE
  5
7
100
AcDbEntity
  8
0
  6
BYBLOCK
 62
     0
100
AcDbLine
 10
0.0
 20
0.0
 30
0.0
 11
-1.0
 21
-0.166667
 31
0.0
  0
LINE
  5
8
100
AcDbEntity
  8
0
  6
BYBLOCK
 62
     0
100
AcDbLine
 10
-1.0
 20
0.166667
 30
0.0
 11
-1.0
 21
-0.166667
 31
0.0
  0
LINE
  5
9
100
AcDbEntity
  8
0
  6
BYBLOCK
 62
     0
100
AcDbLine
 10
0.0
 20
0.0
 30
0.0
 11
-1.0
 21
0.0
 31
0.0
  0
ENDBLK
  5
A
100
AcDbEntity
  8
0
100
AcDbBlockEnd
  0
BLOCK
  5
C
100
AcDbEntity
  8
0
100
AcDbBlockBegin
  2
_DOT
 70
     0
 10
0.0
 20
0.0
 30
0.0
  3
_DOT
  1

  0
POLYLINE
  5
D
100
AcDbEntity
  8
0
  6
BYBLOCK
 62
     0
100
AcDb2dPolyline
 66
     1
 10
0.0
 20
0.0
 30
0.0
 70
     1
 40
0.5
 41
0.5
  0
VERTEX
  5
E
100
AcDbEntity
  8
0
  6
BYBLOCK
 62
     0
100
AcDbVertex
100
AcDb2dVertex
 10
-0.25
 20
0.0
 30
0.0
 42
1.0
  0
VERTEX
  5
F
100
AcDbEntity
  8
0
  6
BYBLOCK
 62
     0
100
AcDbVertex
100
AcDb2dVertex
 10
0.25
 20
0.0
 30
0.0
 42
1.0
  0
SEQEND
  5
10
100
AcDbEntity
  8
0
  6
BYBLOCK
 62
     0
  0
LINE
  5
11
100
AcDbEntity
  8
0
  6
BYBLOCK
 62
     0
100
AcDbLine
 10
-0.5
 20
0.0
 30
0.0
 11
-1.0
 21
0.0
 31
0.0
  0
ENDBLK
  5
12
100
AcDbEntity
  8
0
100
AcDbBlockEnd
  0
BLOCK
  5
14
100
AcDbEntity
  8
0
100
AcDbBlockBegin
  2
_OPEN
 70
     0
 10
0.0
 20
0.0
 30
0.0
  3
_OPEN
  1

  0
LINE
  5
15
100
AcDbEntity
  8
0
  6
BYBLOCK
 62
     0
100
AcDbLine
 10
-1.0
 20
0.166667
 30
0.0
 11
0.0
 21
0.0
 31
0.0
  0
LINE
  5
16
100
AcDbEntity
  8
0
  6
BYBLOCK
 62
     0
100
AcDbLine
 10
0.0
 20
0.0
 30
0.0
 11
-1.0
 21
-0.166667
 31
0.0
  0
LINE
  5
17
100
AcDbEntity
  8
0
  6
BYBLOCK
 62
     0
100
AcDbLine
 10
0.0
 20
0.0
 30
0.0
 11
-1.0
 21
0.0
 31
0.0
  0
ENDBLK
  5
18
100
AcDbEntity
  8
0
100
AcDbBlockEnd
  0
BLOCK
  5
1A
100
AcDbEntity
  8
0
100
AcDbBlockBegin
  2
_ORIGIN
 70
     0
 10
0.0
 20
0.0
 30
0.0
  3
_ORIGIN
  1

  0
CIRCLE
  5
1B
100
AcDbEntity
  8
0
  6
BYBLOCK
 62
     0
100
AcDbCircle
 10
0.0
 20
0.0
 30
0.0
 40
0.5
  0
LINE
  5
1C
100
AcDbEntity
  8
0
  6
BYBLOCK
 62
     0
100
AcDbLine
 10
0.0
 20
0.0
 30
0.0
 11
-1.0
 21
0.0
 31
0.0
  0
ENDBLK
  5
1D
100
AcDbEntity
  8
0
100
AcDbBlockEnd
  0
BLOCK
  5
1F
100
AcDbEntity
  8
0
100
AcDbBlockBegin
  2
_OPEN30
 70
     0
 10
0.0
 20
0.0
 30
0.0
  3
_OPEN30
  1

  0
LINE
  5
20
100
AcDbEntity
  8
0
  6
BYBLOCK
 62
     0
100
AcDbLine
 10
-1.0
 20
0.267949
 30
0.0
 11
0.0
 21
0.0
 31
0.0
  0
LINE
  5
21
100
AcDbEntity
  8
0
  6
BYBLOCK
 62
     0
100
AcDbLine
 10
0.0
 20
0.0
 30
0.0
 11
-1.0
 21
-0.267949
 31
0.0
  0
LINE
  5
22
100
AcDbEntity
  8
0
  6
BYBLOCK
 62
     0
100
AcDbLine
 10
0.0
 20
0.0
 30
0.0
 11
-1.0
 21
0.0
 31
0.0
  0
ENDBLK
  5
23
100
AcDbEntity
  8
0
100
AcDbBlockEnd
  0
BLOCK
  5
25
100
AcDbEntity
  8
0
100
AcDbBlockBegin
  2
_BOXFILLED
 70
     0
 10
0.0
 20
0.0
 30
0.0
  3
_BOXFILLED
  1

  0
SOLID
  5
26
100
AcDbEntity
  8
0
  6
BYBLOCK
 62
     0
100
AcDbTrace
 10
-0.5
 20
0.5
 30
0.0
 11
0.5
 21
0.5
 31
0.0
 12
-0.5
 22
-0.5
 32
0.0
 13
0.5
 23
-0.5
 33
0.0
  0
LINE
  5
27
100
AcDbEntity
  8
0
  6
BYBLOCK
 62
     0
100
AcDbLine
 10
-0.5
 20
0.0
 30
0.0
 11
-1.0
 21
0.0
 31
0.0
  0
ENDBLK
  5
28
100
AcDbEntity
  8
0
100
AcDbBlockEnd
  0
BLOCK
  5
2A
100
AcDbEntity
  8
0
100
AcDbBlockBegin
  2
_BOXBLANK
 70
     0
 10
0.0
 20
0.0
 30
0.0
  3
_BOXBLANK
  1

  0
LINE
  5
2B
100
AcDbEntity
  8
0
  6
BYBLOCK
 62
     0
100
AcDbLine
 10
-0.5
 20
-0.5
 30
0.0
 11
0.5
 21
-0.5
 31
0.0
  0
LINE
  5
2C
100
AcDbEntity
  8
0
  6
BYBLOCK
 62
     0
100
AcDbLine
 10
0.5
 20
-0.5
 30
0.0
 11
0.5
 21
0.5
 31
0.0
  0
LINE
  5
2D
100
AcDbEntity
  8
0
  6
BYBLOCK
 62
     0
100
AcDbLine
 10
0.5
 20
0.5
 30
0.0
 11
-0.5
 21
0.5
 31
0.0
  0
LINE
  5
2E
100
AcDbEntity
  8
0
  6
BYBLOCK
 62
     0
100
AcDbLine
 10
-0.5
 20
0.5
 30
0.0
 11
-0.5
 21
-0.5
 31
0.0
  0
LINE
  5
2F
100
AcDbEntity
  8
0
  6
BYBLOCK
 62
     0
100
AcDbLine
 10
-0.5
 20
0.0
 30
0.0
 11
-1.0
 21
0.0
 31
0.0
  0
ENDBLK
  5
30
100
AcDbEntity
  8
0
100
AcDbBlockEnd
  0
BLOCK
  5
32
100
AcDbEntity
  8
0
100
AcDbBlockBegin
  2
_OBLIQUE
 70
     0
 10
0.0
 20
0.0
 30
0.0
  3
_OBLIQUE
  1

  0
LINE
  5
33
100
AcDbEntity
  8
0
  6
BYBLOCK
 62
     0
100
AcDbLine
 10
-0.5
 20
-0.5
 30
0.0
 11
0.5
 21
0.5
 31
0.0
  0
ENDBLK
  5
34
100
AcDbEntity
  8
0
100
AcDbBlockEnd
  0
BLOCK
  5
36
100
AcDbEntity
  8
0
100
AcDbBlockBegin
  2
_OPEN90
 70
     0
 10
0.0
 20
0.0
 30
0.0
  3
_OPEN90
  1

  0
LINE
  5
37
100
AcDbEntity
  8
0
  6
BYBLOCK
 62
     0
100
AcDbLine
 10
-0.5
 20
0.5
 30
0.0
 11
0.0
 21
0.0
 31
0.0
  0
LINE
  5
38
100
AcDbEntity
  8
0
  6
BYBLOCK
 62
     0
100
AcDbLine
 10
0.0
 20
0.0
 30
0.0
 11
-0.5
 21
-0.5
 31
0.0
  0
LINE
  5
39
100
AcDbEntity
  8
0
  6
BYBLOCK
 62
     0
100
AcDbLine
 10
0.0
 20
0.0
 30
0.0
 11
-1.0
 21
0.0
 31
0.0
  0
ENDBLK
  5
3A
100
AcDbEntity
  8
0
100
AcDbBlockEnd
  0
BLOCK
  5
3C
100
AcDbEntity
  8
0
100
AcDbBlockBegin
  2
_CLOSEDBLANK
 70
     0
 10
0.0
 20
0.0
 30
0.0
  3
_CLOSEDBLANK
  1

  0
LINE
  5
3D
100
AcDbEntity
  8
0
  6
BYBLOCK
 62
     0
100
AcDbLine
 10
-1.0
 20
0.1666666666666666
 30
0.0
 11
0.0
 21
0.0
 31
0.0
  0
LINE
  5
3E
100
AcDbEntity
  8
0
  6
BYBLOCK
 62
     0
100
AcDbLine
 10
0.0
 20
0.0
 30
0.0
 11
-1.0
 21
-0.1666666666666666
 31
0.0
  0
LINE
  5
3F
100
AcDbEntity
  8
0
  6
BYBLOCK
 62
     0
100
AcDbLine
 10
-1.0
 20
0.1666666666666666
 30
0.0
 11
-1.0
 21
-0.1666666666666666
 31
0.0
  0
ENDBLK
  5
40
100
AcDbEntity
  8
0
100
AcDbBlockEnd
  0
BLOCK
  5
42
100
AcDbEntity
  8
0
100
AcDbBlockBegin
  2
_DOTBLANK
 70
     0
 10
0.0
 20
0.0
 30
0.0
  3
_DOTBLANK
  1

  0
CIRCLE
  5
43
100
AcDbEntity
  8
0
  6
BYBLOCK
 62
     0
100
AcDbCircle
 10
0.0
 20
0.0
 30
0.0
 40
0.5
  0
LINE
  5
44
100
AcDbEntity
  8
0
  6
BYBLOCK
 62
     0
100
AcDbLine
 10
-0.5
 20
0.0
 30
0.0
 11
-1.0
 21
0.0
 31
0.0
  0
ENDBLK
  5
45
100
AcDbEntity
  8
0
100
AcDbBlockEnd
  0
BLOCK
  5
7D
100
AcDbEntity
  8
MAIN0
  6
CONTINUOUS
 62
3
100
AcDbBlockBegin
  2
*D0
 70
    65
 10
0.0
 20
0.0
 30
0.0
  0
LINE
  5
7E
100
AcDbEntity
  8
MAIN0
  6
BYBLOCK
 62
0
100
AcDbLine
 10
387.5023149380588
 20
323.3392586815918
 30
0.0000000000000000
 11
387.5023149380585
 21
181.1079267509617
 31
0.0000000000000000
  0
LINE
  5
7F
100
AcDbEntity
  8
MAIN0
  6
BYBLOCK
 62
0
100
AcDbLine
 10
393.5023149380585
 20
187.1079267509617
 30
0.0000000000000000
 11
833.0023149380587
 21
187.1079267509617
 31
0.0000000000000000
  0
INSERT
  5
80
100
AcDbEntity
  8
MAIN0
  6
BYBLOCK
 62
0
100
AcDbBlockReference
  2
_OPEN
 10
387.5023149380585
 20
187.1079267509617
 30
0.0000000000000000
 41
6.000000000000000
 42
6.000000000000000
 43
6.000000000000000
 50
180.0000000000000
  0
INSERT
  5
81
100
AcDbEntity
  8
MAIN0
  6
BYBLOCK
 62
0
100
AcDbBlockReference
  2
_OPEN
 10
839.0023149380587
 20
187.1079267509617
 30
0.0000000000000000
 41
6.000000000000000
 42
6.000000000000000
 43
6.000000000000000
 50
0.0000000000000000
  0
LINE
  5
82
100
AcDbEntity
  8
MAIN0
  6
BYBLOCK
 62
0
100
AcDbLine
 10
839.0023149380587
 20
363.3392586815917
 30
0.0000000000000000
 11
839.0023149380587
 21
181.1079267509617
 31
0.0000000000000000
  0
MTEXT
  5
83
100
AcDbEntity
  8
MAIN0
  6
BYBLOCK
 62
0
100
AcDbMText
 10
602.6351206927893
 20
193.2579266079106
 30
0.0000000000000000
 40
9.299999713897705
 41
0.0000000000000000
 71
     5
 72
     1
  1
\A1;451.5
 11
1.000000000000000
 21
0.0000000000000000
 31
0.0000000000000000
  7
STANDARD
  0
ENDBLK
  5
84
100
AcDbEntity
  8
MAIN0
  6
CONTINUOUS
 62
3
100
AcDbBlockEnd
  0
BLOCK
  5
86
100
AcDbEntity
  8
MAIN0
  6
CONTINUOUS
 62
3
100
AcDbBlockBegin
  2
*D1
 70
    65
 10
0.0
 20
0.0
 30
0.0
  0
LINE
  5
87
100
AcDbEntity
  8
MAIN0
  6
BYBLOCK
 62
0
100
AcDbLine
 10
98.46025137190972
 20
467.6392587531173
 30
0.0000000000000000
 11
98.46025137190972
 21
521.2109045104899
 31
0.0000000000000000
  0
LINE
  5
88
100
AcDbEntity
  8
MAIN0
  6
BYBLOCK
 62
0
100
AcDbLine
 10
104.4602513719097
 20
515.2109045104899
 30
0.0000000000000000
 11
216.9602513719097
 21
515.2109045104899
 31
0.0000000000000000
  0
INSERT
  5
89
100
AcDbEntity
  8
MAIN0
  6
BYBLOCK
 62
0
100
AcDbBlockReference
  2
_OPEN
 10
98.46025137190972
 20
515.2109045104899
 30
0.0000000000000000
 41
6.000000000000000
 42
6.000000000000000
 43
6.000000000000000
 50
180.0000000000000
  0
INSERT
  5
8A
100
AcDbEntity
  8
MAIN0
  6
BYBLOCK
 62
0
100
AcDbBlockReference
  2
_OPEN
 10
222.9602513719097
 20
515.2109045104899
 30
0.0000000000000000
 41
6.000000000000000
 42
6.000000000000000
 43
6.000000000000000
 50
0.0000000000000000
  0
LINE
  5
8B
100
AcDbEntity
  8
MAIN0
  6
BYBLOCK
 62
0
100
AcDbLine
 10
222.9602513719097
 20
467.6392587531173
 30
0.0000000000000000
 11
222.9602513719097
 21
521.2109045104899
 31
0.0000000000000000
  0
MTEXT
  5
8C
100
AcDbEntity
  8
MAIN0
  6
BYBLOCK
 62
0
100
AcDbMText
 10
160.7102513719097
 20
520.3609043674387
 30
0.0000000000000000
 40
9.299999713897705
 41
0.0000000000000000
 71
     5
 72
     1
  1
\A1;124.5
 11
1.000000000000000
 21
0.0000000000000000
 31
0.0000000000000000
  7
STANDARD
  0
ENDBLK
  5
8D
100
AcDbEntity
  8
MAIN0
  6
CONTINUOUS
 62
3
100
AcDbBlockEnd
  0
BLOCK
  5
8F
100
AcDbEntity
  8
MAIN0
  6
CONTINUOUS
 62
3
100
AcDbBlockBegin
  2
*D2
 70
    65
 10
0.0
 20
0.0
 30
0.0
  0
LINE
  5
90
100
AcDbEntity
  8
MAIN0
  6
BYBLOCK
 62
0
100
AcDbLine
 10
226.1102514076724
 20
325.7392587173545
 30
0.0000000000000000
 11
271.2865731092063
 21
325.7392587173545
 31
0.0000000000000000
  0
LINE
  5
91
100
AcDbEntity
  8
MAIN0
  6
BYBLOCK
 62
0
100
AcDbLine
 10
265.2865731092063
 20
325.7392587173545
 30
0.0000000000000000
 11
265.2865731092063
 21
346.7392587173545
 31
0.0000000000000000
  0
INSERT
  5
92
100
AcDbEntity
  8
MAIN0
  6
BYBLOCK
 62
0
100
AcDbBlockReference
  2
_OPEN
 10
265.2865731092063
 20
325.7392587173545
 30
0.0000000000000000
 41
6.000000000000000
 42
6.000000000000000
 43
6.000000000000000
 50
90.00000000000000
  0
INSERT
  5
93
100
AcDbEntity
  8
MAIN0
  6
BYBLOCK
 62
0
100
AcDbBlockReference
  2
_OPEN
 10
265.2865731092063
 20
346.7392587173545
 30
0.0000000000000000
 41
6.000000000000000
 42
6.000000000000000
 43
6.000000000000000
 50
270.0000000000000
  0
LINE
  5
94
100
AcDbEntity
  8
MAIN0
  6
BYBLOCK
 62
0
100
AcDbLine
 10
265.2865731092063
 20
319.7392587173545
 30
0.0000000000000000
 11
265.2865731092063
 21
316.7392587173545
 31
0.0000000000000000
  0
LINE
  5
95
100
AcDbEntity
  8
MAIN0
  6
BYBLOCK
 62
0
100
AcDbLine
 10
265.2865731092063
 20
352.7392587173545
 30
0.0000000000000000
 11
265.2865731092063
 21
355.7392587173545
 31
0.0000000000000000
  0
LINE
  5
96
100
AcDbEntity
  8
MAIN0
  6
BYBLOCK
 62
0
100
AcDbLine
 10
226.1102514076723
 20
346.7392587173545
 30
0.0000000000000000
 11
271.2865731092063
 21
346.7392587173545
 31
0.0000000000000000
  0
MTEXT
  5
97
100
AcDbEntity
  8
MAIN0
  6
BYBLOCK
 62
0
100
AcDbMText
 10
260.1365732522575
 20
336.2392587173545
 30
0.0000000000000000
 40
9.299999713897705
 41
0.0000000000000000
 71
     5
 72
     1
  1
\A1;21
 11
6.123233995736766e-017
 21
1.000000000000000
 31
0.0000000000000000
  7
STANDARD
  0
ENDBLK
  5
98
100
AcDbEntity
  8
MAIN0
  6
CONTINUOUS
 62
3
100
AcDbBlockEnd
  0
BLOCK
  5
9A
100
AcDbEntity
  8
MAIN0
  6
CONTINUOUS
 62
3
100
AcDbBlockBegin
  2
*D3
 70
    65
 10
0.0
 20
0.0
 30
0.0
  0
LINE
  5
9B
100
AcDbEntity
  8
MAIN0
  6
BYBLOCK
 62
0
100
AcDbLine
 10
226.1102514076723
 20
346.7392587173545
 30
0.0000000000000000
 11
271.2865731092063
 21
346.7392587173545
 31
0.0000000000000000
  0
LINE
  5
9C
100
AcDbEntity
  8
MAIN0
  6
BYBLOCK
 62
0
100
AcDbLine
 10
265.2865731092063
 20
352.7392587173545
 30
0.0000000000000000
 11
265.2865731092063
 21
380.7392587173545
 31
0.0000000000000000
  0
INSERT
  5
9D
100
AcDbEntity
  8
MAIN0
  6
BYBLOCK
 62
0
100
AcDbBlockReference
  2
_OPEN
 10
265.2865731092063
 20
346.7392587173545
 30
0.0000000000000000
 41
6.000000000000000
 42
6.000000000000000
 43
6.000000000000000
 50
270.0000000000000
  0
INSERT
  5
9E
100
AcDbEntity
  8
MAIN0
  6
BYBLOCK
 62
0
100
AcDbBlockReference
  2
_OPEN
 10
265.2865731092063
 20
386.7392587173545
 30
0.0000000000000000
 41
6.000000000000000
 42
6.000000000000000
 43
6.000000000000000
 50
90.00000000000000
  0
LINE
  5
9F
100
AcDbEntity
  8
MAIN0
  6
BYBLOCK
 62
0
100
AcDbLine
 10
226.1102514076723
 20
386.7392587173545
 30
0.0000000000000000
 11
271.2865731092063
 21
386.7392587173545
 31
0.0000000000000000
  0
MTEXT
  5
A0
100
AcDbEntity
  8
MAIN0
  6
BYBLOCK
 62
0
100
AcDbMText
 10
260.1365732522575
 20
366.7392587173545
 30
0.0000000000000000
 40
9.299999713897705
 41
0.0000000000000000
 71
     5
 72
     1
  1
\A1;40
 11
6.123233995736766e-017
 21
1.000000000000000
 31
0.0000000000000000
  7
STANDARD
  0
ENDBLK
  5
A1
100
AcDbEntity
  8
MAIN0
  6
CONTINUOUS
 62
3
100
AcDbBlockEnd
  0
BLOCK
  5
A3
100
AcDbEntity
  8
MAIN0
  6
CONTINUOUS
 62
3
100
AcDbBlockBegin
  2
*D4
 70
    65
 10
0.0
 20
0.0
 30
0.0
  0
LINE
  5
A4
100
AcDbEntity
  8
MAIN0
  6
BYBLOCK
 62
0
100
AcDbLine
 10
226.1102514076723
 20
386.7392587173545
 30
0.0000000000000000
 11
271.2865731092063
 21
386.7392587173545
 31
0.0000000000000000
  0
LINE
  5
A5
100
AcDbEntity
  8
MAIN0
  6
BYBLOCK
 62
0
100
AcDbLine
 10
265.2865731092063
 20
392.7392587173545
 30
0.0000000000000000
 11
265.2865731092063
 21
419.7392587173545
 31
0.0000000000000000
  0
INSERT
  5
A6
100
AcDbEntity
  8
MAIN0
  6
BYBLOCK
 62
0
100
AcDbBlockReference
  2
_OPEN
 10
265.2865731092063
 20
386.7392587173545
 30
0.0000000000000000
 41
6.000000000000000
 42
6.000000000000000
 43
6.000000000000000
 50
270.0000000000000
  0
INSERT
  5
A7
100
AcDbEntity
  8
MAIN0
  6
BYBLOCK
 62
0
100
AcDbBlockReference
  2
_OPEN
 10
265.2865731092063
 20
425.7392587173545
 30
0.0000000000000000
 41
6.000000000000000
 42
6.000000000000000
 43
6.000000000000000
 50
90.00000000000000
  0
LINE
  5
A8
100
AcDbEntity
  8
MAIN0
  6
BYBLOCK
 62
0
100
AcDbLine
 10
226.1102514076724
 20
425.7392587173545
 30
0.0000000000000000
 11
271.2865731092063
 21
425.7392587173545
 31
0.0000000000000000
  0
MTEXT
  5
A9
100
AcDbEntity
  8
MAIN0
  6
BYBLOCK
 62
0
100
AcDbMText
 10
260.1365732522575
 20
406.2392587173545
 30
0.0000000000000000
 40
9.299999713897705
 41
0.0000000000000000
 71
     5
 72
     1
  1
\A1;39
 11
6.123233995736766e-017
 21
1.000000000000000
 31
0.0000000000000000
  7
STANDARD
  0
ENDBLK
  5
AA
100
AcDbEntity
  8
MAIN0
  6
CONTINUOUS
 62
3
100
AcDbBlockEnd
  0
BLOCK
  5
AC
100
AcDbEntity
  8
MAIN0
  6
CONTINUOUS
 62
3
100
AcDbBlockBegin
  2
*D5
 70
    65
 10
0.0
 20
0.0
 30
0.0
  0
LINE
  5
AD
100
AcDbEntity
  8
MAIN0
  6
BYBLOCK
 62
0
100
AcDbLine
 10
223.7102513719095
 20
349.1392587531173
 30
0.0000000000000000
 11
223.7102513719095
 21
369.2376184183115
 31
0.0000000000000000
  0
LINE
  5
AE
100
AcDbEntity
  8
MAIN0
  6
BYBLOCK
 62
0
100
AcDbLine
 10
223.7102513719095
 20
363.2376184183115
 30
0.0000000000000000
 11
216.7102513719096
 21
363.2376184183115
 31
0.0000000000000000
  0
INSERT
  5
AF
100
AcDbEntity
  8
MAIN0
  6
BYBLOCK
 62
0
100
AcDbBlockReference
  2
_OPEN
 10
223.7102513719095
 20
363.2376184183115
 30
0.0000000000000000
 41
6.000000000000000
 42
6.000000000000000
 43
6.000000000000000
 50
180.0000000000000
  0
INSERT
  5
B0
100
AcDbEntity
  8
MAIN0
  6
BYBLOCK
 62
0
100
AcDbBlockReference
  2
_OPEN
 10
216.7102513719096
 20
363.2376184183115
 30
0.0000000000000000
 41
6.000000000000000
 42
6.000000000000000
 43
6.000000000000000
 50
360.0000000000000
  0
LINE
  5
B1
100
AcDbEntity
  8
MAIN0
  6
BYBLOCK
 62
0
100
AcDbLine
 10
229.7102513719095
 20
363.2376184183115
 30
0.0000000000000000
 11
238.3906756514132
 21
363.2376184183115
 31
0.0000000000000000
  0
LINE
  5
B2
100
AcDbEntity
  8
MAIN0
  6
BYBLOCK
 62
0
100
AcDbLine
 10
210.7102513719096
 20
363.2376184183115
 30
0.0000000000000000
 11
207.7102513719096
 21
363.2376184183115
 31
0.0000000000000000
  0
MTEXT
  5
B3
100
AcDbEntity
  8
MAIN0
  6
BYBLOCK
 62
0
100
AcDbMText
 10
235.3906756514132
 20
369.3876182752604
 30
0.0000000000000000
 40
9.299999713897705
 41
0.0000000000000000
 71
     5
 72
     1
  1
\A1;7
 11
1.000000000000000
 21
0.0000000000000000
 31
0.0000000000000000
  7
STANDARD
  0
ENDBLK
  5
B4
100
AcDbEntity
  8
MAIN0
  6
CONTINUOUS
 62
3
100
AcDbBlockEnd
  0
BLOCK
  5
B7
100
AcDbEntity
  8
MAIN0
  6
CONTINUOUS
 62
3
100
AcDbBlockBegin
  2
*D6
 70
    65
 10
0.0
 20
0.0
 30
0.0
  0
LINE
  5
B8
100
AcDbEntity
  8
MAIN0
  6
BYBLOCK
 62
0
100
AcDbLine
 10
387.5023149380588
 20
323.3392586815918
 30
0.0000000000000000
 11
387.5023149380586
 21
239.6122781438624
 31
0.0000000000000000
  0
LINE
  5
B9
100
AcDbEntity
  8
MAIN0
  6
BYBLOCK
 62
0
100
AcDbLine
 10
393.5023149380586
 20
245.6122781438624
 30
0.0000000000000000
 11
746.5023149380586
 21
245.6122781438624
 31
0.0000000000000000
  0
INSERT
  5
BA
100
AcDbEntity
  8
MAIN0
  6
BYBLOCK
 62
0
100
AcDbBlockReference
  2
_OPEN
 10
387.5023149380586
 20
245.6122781438624
 30
0.0000000000000000
 41
6.000000000000000
 42
6.000000000000000
 43
6.000000000000000
 50
180.0000000000000
  0
INSERT
  5
BB
100
AcDbEntity
  8
MAIN0
  6
BYBLOCK
 62
0
100
AcDbBlockReference
  2
_OPEN
 10
752.5023149380586
 20
245.6122781438624
 30
0.0000000000000000
 41
6.000000000000000
 42
6.000000000000000
 43
6.000000000000000
 50
0.0000000000000000
  0
LINE
  5
BC
100
AcDbEntity
  8
MAIN0
  6
BYBLOCK
 62
0
100
AcDbLine
 10
752.5023149380586
 20
323.3392586815917
 30
0.0000000000000000
 11
752.5023149380586
 21
239.6122781438624
 31
0.0000000000000000
  0
MTEXT
  5
BD
100
AcDbEntity
  8
MAIN0
  6
BYBLOCK
 62
0
100
AcDbMText
 10
570.0023149380586
 20
250.7622780008112
 30
0.0000000000000000
 40
9.299999713897705
 41
0.0000000000000000
 71
     5
 72
     1
  1
\A1;365
 11
1.000000000000000
 21
0.0000000000000000
 31
0.0000000000000000
  7
STANDARD
  0
ENDBLK
  5
BE
100
AcDbEntity
  8
MAIN0
  6
CONTINUOUS
 62
3
100
AcDbBlockEnd
  0
BLOCK
  5
C0
100
AcDbEntity
  8
MAIN0
  6
CONTINUOUS
 62
3
100
AcDbBlockBegin
  2
*D7
 70
    65
 10
0.0
 20
0.0
 30
0.0
  0
LINE
  5
C1
100
AcDbEntity
  8
MAIN0
  6
BYBLOCK
 62
0
100
AcDbLine
 10
752.5023149380586
 20
323.3392586815917
 30
0.0000000000000000
 11
752.5023149380586
 21
239.6122781438624
 31
0.0000000000000000
  0
LINE
  5
C2
100
AcDbEntity
  8
MAIN0
  6
BYBLOCK
 62
0
100
AcDbLine
 10
758.5023149380585
 20
245.6122781438624
 30
0.0000000000000000
 11
833.0023149380587
 21
245.6122781438624
 31
0.0000000000000000
  0
INSERT
  5
C3
100
AcDbEntity
  8
MAIN0
  6
BYBLOCK
 62
0
100
AcDbBlockReference
  2
_OPEN
 10
752.5023149380585
 20
245.6122781438624
 30
0.0000000000000000
 41
6.000000000000000
 42
6.000000000000000
 43
6.000000000000000
 50
180.0000000000000
  0
INSERT
  5
C4
100
AcDbEntity
  8
MAIN0
  6
BYBLOCK
 62
0
100
AcDbBlockReference
  2
_OPEN
 10
839.0023149380587
 20
245.6122781438624
 30
0.0000000000000000
 41
6.000000000000000
 42
6.000000000000000
 43
6.000000000000000
 50
0.0000000000000000
  0
LINE
  5
C5
100
AcDbEntity
  8
MAIN0
  6
BYBLOCK
 62
0
100
AcDbLine
 10
839.0023149380587
 20
363.3392586815917
 30
0.0000000000000000
 11
839.0023149380587
 21
239.6122781438624
 31
0.0000000000000000
  0
MTEXT
  5
C6
100
AcDbEntity
  8
MAIN0
  6
BYBLOCK
 62
0
100
AcDbMText
 10
795.7523149380586
 20
250.7622780008112
 30
0.0000000000000000
 40
9.299999713897705
 41
0.0000000000000000
 71
     5
 72
     1
  1
\A1;86.5
 11
1.000000000000000
 21
0.0000000000000000
 31
0.0000000000000000
  7
STANDARD
  0
ENDBLK
  5
C7
100
AcDbEntity
  8
MAIN0
  6
CONTINUOUS
 62
3
100
AcDbBlockEnd
  0
BLOCK
  5
C9
100
AcDbEntity
  8
MAIN0
  6
CONTINUOUS
 62
3
100
AcDbBlockBegin
  2
*D8
 70
    65
 10
0.0
 20
0.0
 30
0.0
  0
LINE
  5
CA
100
AcDbEntity
  8
MAIN0
  6
BYBLOCK
 62
0
100
AcDbLine
 10
600.0023149380588
 20
318.3392586815916
 30
0.0000000000000000
 11
600.0023149380588
 21
288.9394721069998
 31
0.0000000000000000
  0
LINE
  5
CB
100
AcDbEntity
  8
MAIN0
  6
BYBLOCK
 62
0
100
AcDbLine
 10
600.0023149380588
 20
294.9394721069998
 30
0.0000000000000000
 11
618.0023149380588
 21
294.9394721069998
 31
0.0000000000000000
  0
INSERT
  5
CC
100
AcDbEntity
  8
MAIN0
  6
BYBLOCK
 62
0
100
AcDbBlockReference
  2
_OPEN
 10
600.0023149380588
 20
294.9394721069998
 30
0.0000000000000000
 41
6.000000000000000
 42
6.000000000000000
 43
6.000000000000000
 50
0.0000000000000000
  0
INSERT
  5
CD
100
AcDbEntity
  8
MAIN0
  6
BYBLOCK
 62
0
100
AcDbBlockReference
  2
_OPEN
 10
618.0023149380588
 20
294.9394721069998
 30
0.0000000000000000
 41
6.000000000000000
 42
6.000000000000000
 43
6.000000000000000
 50
180.0000000000000
  0
LINE
  5
CE
100
AcDbEntity
  8
MAIN0
  6
BYBLOCK
 62
0
100
AcDbLine
 10
594.0023149380588
 20
294.9394721069998
 30
0.0000000000000000
 11
591.0023149380588
 21
294.9394721069998
 31
0.0000000000000000
  0
LINE
  5
CF
100
AcDbEntity
  8
MAIN0
  6
BYBLOCK
 62
0
100
AcDbLine
 10
624.0023149380588
 20
294.9394721069998
 30
0.0000000000000000
 11
638.2263076068823
 21
294.9394721069998
 31
0.0000000000000000
  0
LINE
  5
D0
100
AcDbEntity
  8
MAIN0
  6
BYBLOCK
 62
0
100
AcDbLine
 10
618.0023149380588
 20
318.3392586815918
 30
0.0000000000000000
 11
618.0023149380588
 21
288.9394721069998
 31
0.0000000000000000
  0
MTEXT
  5
D1
100
AcDbEntity
  8
MAIN0
  6
BYBLOCK
 62
0
100
AcDbMText
 10
632.0763077499335
 20
301.0894719639487
 30
0.0000000000000000
 40
9.299999713897705
 41
0.0000000000000000
 71
     5
 72
     1
  1
\A1;18
 11
1.000000000000000
 21
0.0000000000000000
 31
0.0000000000000000
  7
STANDARD
  0
ENDBLK
  5
D2
100
AcDbEntity
  8
MAIN0
  6
CONTINUOUS
 62
3
100
AcDbBlockEnd
  0
BLOCK
  5
103
100
AcDbEntity
  8
MAIN0
  6
CONTINUOUS
 62
3
100
AcDbBlockBegin
  2
*D9
 70
    65
 10
0.0
 20
0.0
 30
0.0
  0
LINE
  5
104
100
AcDbEntity
  8
MAIN0
  6
BYBLOCK
 62
0
100
AcDbLine
 10
387.5023149380586
 20
428.1392587531174
 30
0.0000000000000000
 11
387.5023149380586
 21
520.5458429590572
 31
0.0000000000000000
  0
LINE
  5
105
100
AcDbEntity
  8
MAIN0
  6
BYBLOCK
 62
0
100
AcDbLine
 10
387.5023149380586
 20
514.5458429590572
 30
0.0000000000000000
 11
388.5023149380586
 21
514.5458429590572
 31
0.0000000000000000
  0
INSERT
  5
106
100
AcDbEntity
  8
MAIN0
  6
BYBLOCK
 62
0
100
AcDbBlockReference
  2
_OPEN
 10
387.5023149380586
 20
514.5458429590572
 30
0.0000000000000000
 41
6.000000000000000
 42
6.000000000000000
 43
6.000000000000000
 50
0.0000000000000000
  0
INSERT
  5
107
100
AcDbEntity
  8
MAIN0
  6
BYBLOCK
 62
0
100
AcDbBlockReference
  2
_OPEN
 10
388.5023149380586
 20
514.5458429590572
 30
0.0000000000000000
 41
6.000000000000000
 42
6.000000000000000
 43
6.000000000000000
 50
180.0000000000000
  0
LINE
  5
108
100
AcDbEntity
  8
MAIN0
  6
BYBLOCK
 62
0
100
AcDbLine
 10
381.5023149380586
 20
514.5458429590572
 30
0.0000000000000000
 11
373.3600837826226
 21
514.5458429590572
 31
0.0000000000000000
  0
LINE
  5
109
100
AcDbEntity
  8
MAIN0
  6
BYBLOCK
 62
0
100
AcDbLine
 10
394.5023149380586
 20
514.5458429590572
 30
0.0000000000000000
 11
397.5023149380586
 21
514.5458429590572
 31
0.0000000000000000
  0
LINE
  5
10A
100
AcDbEntity
  8
MAIN0
  6
BYBLOCK
 62
0
100
AcDbLine
 10
388.5023149380585
 20
467.6392587531152
 30
0.0000000000000000
 11
388.5023149380587
 21
520.5458429590573
 31
0.0000000000000000
  0
MTEXT
  5
10B
100
AcDbEntity
  8
MAIN0
  6
BYBLOCK
 62
0
100
AcDbMText
 10
376.3600837826226
 20
520.6958428160060
 30
0.0000000000000000
 40
9.299999713897705
 41
0.0000000000000000
 71
     5
 72
     1
  1
\A1;1
 11
1.000000000000000
 21
0.0000000000000000
 31
0.0000000000000000
  7
STANDARD
  0
ENDBLK
  5
10C
100
AcDbEntity
  8
MAIN0
  6
CONTINUOUS
 62
3
100
AcDbBlockEnd
  0
BLOCK
  5
10E
100
AcDbEntity
  8
MAIN0
  6
CONTINUOUS
 62
3
100
AcDbBlockBegin
  2
*D10
 70
    65
 10
0.0
 20
0.0
 30
0.0
  0
LINE
  5
10F
100
AcDbEntity
  8
MAIN0
  6
BYBLOCK
 62
0
100
AcDbLine
 10
388.5023149380585
 20
467.6392587531152
 30
0.0000000000000000
 11
388.5023149380587
 21
520.5458429590573
 31
0.0000000000000000
  0
LINE
  5
110
100
AcDbEntity
  8
MAIN0
  6
BYBLOCK
 62
0
100
AcDbLine
 10
394.5023149380585
 20
514.5458429590572
 30
0.0000000000000000
 11
460.5023149380585
 21
514.5458429590572
 31
0.0000000000000000
  0
INSERT
  5
111
100
AcDbEntity
  8
MAIN0
  6
BYBLOCK
 62
0
100
AcDbBlockReference
  2
_OPEN
 10
388.5023149380585
 20
514.5458429590572
 30
0.0000000000000000
 41
6.000000000000000
 42
6.000000000000000
 43
6.000000000000000
 50
180.0000000000000
  0
INSERT
  5
112
100
AcDbEntity
  8
MAIN0
  6
BYBLOCK
 62
0
100
AcDbBlockReference
  2
_OPEN
 10
466.5023149380585
 20
514.5458429590572
 30
0.0000000000000000
 41
6.000000000000000
 42
6.000000000000000
 43
6.000000000000000
 50
0.0000000000000000
  0
LINE
  5
113
100
AcDbEntity
  8
MAIN0
  6
BYBLOCK
 62
0
100
AcDbLine
 10
466.5023149380585
 20
467.6392587531159
 30
0.0000000000000000
 11
466.5023149380585
 21
520.5458429590572
 31
0.0000000000000000
  0
MTEXT
  5
114
100
AcDbEntity
  8
MAIN0
  6
BYBLOCK
 62
0
100
AcDbMText
 10
427.5023149380585
 20
519.6958428160060
 30
0.0000000000000000
 40
9.299999713897705
 41
0.0000000000000000
 71
     5
 72
     1
  1
\A1;78
 11
1.000000000000000
 21
0.0000000000000000
 31
0.0000000000000000
  7
STANDARD
  0
ENDBLK
  5
115
100
AcDbEntity
  8
MAIN0
  6
CONTINUOUS
 62
3
100
AcDbBlockEnd
  0
BLOCK
  5
117
100
AcDbEntity
  8
MAIN0
  6
CONTINUOUS
 62
3
100
AcDbBlockBegin
  2
*D11
 70
    65
 10
0.0
 20
0.0
 30
0.0
  0
LINE
  5
118
100
AcDbEntity
  8
MAIN0
  6
BYBLOCK
 62
0
100
AcDbLine
 10
466.5023149380585
 20
467.6392587531159
 30
0.0000000000000000
 11
466.5023149380585
 21
520.5458429590572
 31
0.0000000000000000
  0
LINE
  5
119
100
AcDbEntity
  8
MAIN0
  6
BYBLOCK
 62
0
100
AcDbLine
 10
472.5023149380585
 20
514.5458429590572
 30
0.0000000000000000
 11
534.5023149380585
 21
514.5458429590572
 31
0.0000000000000000
  0
INSERT
  5
11A
100
AcDbEntity
  8
MAIN0
  6
BYBLOCK
 62
0
100
AcDbBlockReference
  2
_OPEN
 10
466.5023149380585
 20
514.5458429590572
 30
0.0000000000000000
 41
6.000000000000000
 42
6.000000000000000
 43
6.000000000000000
 50
180.0000000000000
  0
INSERT
  5
11B
100
AcDbEntity
  8
MAIN0
  6
BYBLOCK
 62
0
100
AcDbBlockReference
  2
_OPEN
 10
540.5023149380585
 20
514.5458429590572
 30
0.0000000000000000
 41
6.000000000000000
 42
6.000000000000000
 43
6.000000000000000
 50
0.0000000000000000
  0
LINE
  5
11C
100
AcDbEntity
  8
MAIN0
  6
BYBLOCK
 62
0
100
AcDbLine
 10
540.5023149380585
 20
467.6392587531157
 30
0.0000000000000000
 11
540.5023149380585
 21
520.5458429590572
 31
0.0000000000000000
  0
MTEXT
  5
11D
100
AcDbEntity
  8
MAIN0
  6
BYBLOCK
 62
0
100
AcDbMText
 10
517.5983318236921
 20
520.6958428160060
 30
0.0000000000000000
 40
9.299999713897705
 41
0.0000000000000000
 71
     5
 72
     1
  1
\A1;205
 11
1.000000000000000
 21
0.0000000000000000
 31
0.0000000000000000
  7
STANDARD
  0
ENDBLK
  5
11E
100
AcDbEntity
  8
MAIN0
  6
CONTINUOUS
 62
3
100
AcDbBlockEnd
  0
BLOCK
  5
120
100
AcDbEntity
  8
MAIN0
  6
CONTINUOUS
 62
1
100
AcDbBlockBegin
  2
*D12
 70
    65
 10
0.0
 20
0.0
 30
0.0
  0
LINE
  5
121
100
AcDbEntity
  8
MAIN0
  6
BYBLOCK
 62
0
100
AcDbLine
 10
540.5023149380585
 20
467.6392587531157
 30
0.0000000000000000
 11
540.5023149380585
 21
520.5458429590572
 31
0.0000000000000000
  0
LINE
  5
122
100
AcDbEntity
  8
MAIN0
  6
BYBLOCK
 62
0
100
AcDbLine
 10
546.5023149380585
 20
514.5458429590572
 30
0.0000000000000000
 11
608.5023149380585
 21
514.5458429590572
 31
0.0000000000000000
  0
INSERT
  5
123
100
AcDbEntity
  8
MAIN0
  6
BYBLOCK
 62
0
100
AcDbBlockReference
  2
_OPEN
 10
540.5023149380585
 20
514.5458429590572
 30
0.0000000000000000
 41
6.000000000000000
 42
6.000000000000000
 43
6.000000000000000
 50
180.0000000000000
  0
INSERT
  5
124
100
AcDbEntity
  8
MAIN0
  6
BYBLOCK
 62
0
100
AcDbBlockReference
  2
_OPEN
 10
614.5023149380585
 20
514.5458429590572
 30
0.0000000000000000
 41
6.000000000000000
 42
6.000000000000000
 43
6.000000000000000
 50
0.0000000000000000
  0
LINE
  5
125
100
AcDbEntity
  8
MAIN0
  6
BYBLOCK
 62
0
100
AcDbLine
 10
614.5023149380585
 20
467.6392587531161
 30
0.0000000000000000
 11
614.5023149380585
 21
520.5458429590572
 31
0.0000000000000000
  0
MTEXT
  5
126
100
AcDbEntity
  8
MAIN0
  6
BYBLOCK
 62
0
100
AcDbMText
 10
577.5023149380585
 20
519.6958428160060
 30
0.0000000000000000
 40
9.299999713897705
 41
0.0000000000000000
 71
     5
 72
     1
  1
\A1;74
 11
1.000000000000000
 21
0.0000000000000000
 31
0.0000000000000000
  7
STANDARD
  0
ENDBLK
  5
127
100
AcDbEntity
  8
MAIN0
  6
CONTINUOUS
 62
1
100
AcDbBlockEnd
  0
BLOCK
  5
13D
100
AcDbEntity
  8
MAIN0
  6
CONTINUOUS
 62
3
100
AcDbBlockBegin
  2
*D13
 70
    65
 10
0.0
 20
0.0
 30
0.0
  0
LINE
  5
13E
100
AcDbEntity
  8
MAIN0
  6
BYBLOCK
 62
0
100
AcDbLine
 10
393.5023149380588
 20
367.2452976224615
 30
0.0000000000000000
 11
456.5023149371599
 21
367.2452976224615
 31
0.0000000000000000
  0
INSERT
  5
13F
100
AcDbEntity
  8
MAIN0
  6
BYBLOCK
 62
0
100
AcDbBlockReference
  2
_OPEN
 10
387.5023149380588
 20
367.2452976224615
 30
0.0000000000000000
 41
6.000000000000000
 42
6.000000000000000
 43
6.000000000000000
 50
180.0000000000000
  0
INSERT
  5
140
100
AcDbEntity
  8
MAIN0
  6
BYBLOCK
 62
0
100
AcDbBlockReference
  2
_OPEN
 10
462.5023149371599
 20
367.2452976224615
 30
0.0000000000000000
 41
6.000000000000000
 42
6.000000000000000
 43
6.000000000000000
 50
0.0000000000000000
  0
LINE
  5
141
100
AcDbEntity
  8
MAIN0
  6
BYBLOCK
 62
0
100
AcDbLine
 10
462.5023149371599
 20
388.6211229027674
 30
0.0000000000000000
 11
462.5023149371599
 21
361.2452976224615
 31
0.0000000000000000
  0
MTEXT
  5
142
100
AcDbEntity
  8
MAIN0
  6
BYBLOCK
 62
0
100
AcDbMText
 10
425.0023149376093
 20
372.3952974794104
 30
0.0000000000000000
 40
9.299999713897705
 41
0.0000000000000000
 71
     5
 72
     1
  1
\A1;75
 11
1.000000000000000
 21
0.0000000000000000
 31
0.0000000000000000
  7
STANDARD
  0
ENDBLK
  5
143
100
AcDbEntity
  8
MAIN0
  6
CONTINUOUS
 62
3
100
AcDbBlockEnd
  0
BLOCK
  5
145
100
AcDbEntity
  8
MAIN0
  6
CONTINUOUS
 62
3
100
AcDbBlockBegin
  2
*D14
 70
    65
 10
0.0
 20
0.0
 30
0.0
  0
LINE
  5
146
100
AcDbEntity
  8
MAIN0
  6
BYBLOCK
 62
0
100
AcDbLine
 10
462.5023149371599
 20
388.6211229027674
 30
0.0000000000000000
 11
462.5023149371599
 21
361.2452976224615
 31
0.0000000000000000
  0
LINE
  5
147
100
AcDbEntity
  8
MAIN0
  6
BYBLOCK
 62
0
100
AcDbLine
 10
468.5023149371599
 20
367.2452976224615
 30
0.0000000000000000
 11
671.5023149368109
 21
367.2452976224615
 31
0.0000000000000000
  0
INSERT
  5
148
100
AcDbEntity
  8
MAIN0
  6
BYBLOCK
 62
0
100
AcDbBlockReference
  2
_OPEN
 10
462.5023149371599
 20
367.2452976224615
 30
0.0000000000000000
 41
6.000000000000000
 42
6.000000000000000
 43
6.000000000000000
 50
180.0000000000000
  0
INSERT
  5
149
100
AcDbEntity
  8
MAIN0
  6
BYBLOCK
 62
0
100
AcDbBlockReference
  2
_OPEN
 10
677.5023149368109
 20
367.2452976224615
 30
0.0000000000000000
 41
6.000000000000000
 42
6.000000000000000
 43
6.000000000000000
 50
0.0000000000000000
  0
LINE
  5
14A
100
AcDbEntity
  8
MAIN0
  6
BYBLOCK
 62
0
100
AcDbLine
 10
677.5023149368109
 20
389.4118778640025
 30
0.0000000000000000
 11
677.5023149368109
 21
361.2452976224615
 31
0.0000000000000000
  0
MTEXT
  5
14B
100
AcDbEntity
  8
MAIN0
  6
BYBLOCK
 62
0
100
AcDbMText
 10
570.0023149369854
 20
372.3952974794104
 30
0.0000000000000000
 40
9.299999713897705
 41
0.0000000000000000
 71
     5
 72
     1
  1
\A1;215
 11
1.000000000000000
 21
0.0000000000000000
 31
0.0000000000000000
  7
STANDARD
  0
ENDBLK
  5
14C
100
AcDbEntity
  8
MAIN0
  6
CONTINUOUS
 62
3
100
AcDbBlockEnd
  0
BLOCK
  5
150
100
AcDbEntity
  8
MAIN0
  6
CONTINUOUS
 62
3
100
AcDbBlockBegin
  2
*D15
 70
    65
 10
0.0
 20
0.0
 30
0.0
  0
LINE
  5
151
100
AcDbEntity
  8
MAIN0
  6
BYBLOCK
 62
0
100
AcDbLine
 10
1129.585048047215
 20
397.1807106374378
 30
0.0000000000000000
 11
1129.585048047215
 21
457.9513945324902
 31
0.0000000000000000
  0
LINE
  5
152
100
AcDbEntity
  8
MAIN0
  6
BYBLOCK
 62
0
100
AcDbLine
 10
1129.585048047215
 20
451.9513945324902
 30
0.0000000000000000
 11
1143.585048047215
 21
451.9513945324902
 31
0.0000000000000000
  0
INSERT
  5
153
100
AcDbEntity
  8
MAIN0
  6
BYBLOCK
 62
0
100
AcDbBlockReference
  2
_OPEN
 10
1129.585048047215
 20
451.9513945324902
 30
0.0000000000000000
 41
6.000000000000000
 42
6.000000000000000
 43
6.000000000000000
 50
0.0000000000000000
  0
INSERT
  5
154
100
AcDbEntity
  8
MAIN0
  6
BYBLOCK
 62
0
100
AcDbBlockReference
  2
_OPEN
 10
1143.585048047215
 20
451.9513945324902
 30
0.0000000000000000
 41
6.000000000000000
 42
6.000000000000000
 43
6.000000000000000
 50
180.0000000000000
  0
LINE
  5
155
100
AcDbEntity
  8
MAIN0
  6
BYBLOCK
 62
0
100
AcDbLine
 10
1123.585048047215
 20
451.9513945324902
 30
0.0000000000000000
 11
1120.585048047215
 21
451.9513945324902
 31
0.0000000000000000
  0
LINE
  5
156
100
AcDbEntity
  8
MAIN0
  6
BYBLOCK
 62
0
100
AcDbLine
 10
1149.585048047215
 20
451.9513945324902
 30
0.0000000000000000
 11
1152.585048047215
 21
451.9513945324902
 31
0.0000000000000000
  0
LINE
  5
157
100
AcDbEntity
  8
MAIN0
  6
BYBLOCK
 62
0
100
AcDbLine
 10
1143.585048047215
 20
397.1807106374587
 30
0.0000000000000000
 11
1143.585048047215
 21
457.9513945324902
 31
0.0000000000000000
  0
MTEXT
  5
158
100
AcDbEntity
  8
MAIN0
  6
BYBLOCK
 62
0
100
AcDbMText
 10
1136.585048047215
 20
457.1013943894391
 30
0.0000000000000000
 40
9.299999713897705
 41
0.0000000000000000
 71
     5
 72
     1
  1
\A1;14
 11
1.000000000000000
 21
0.0000000000000000
 31
0.0000000000000000
  7
STANDARD
  0
ENDBLK
  5
159
100
AcDbEntity
  8
MAIN0
  6
CONTINUOUS
 62
3
100
AcDbBlockEnd
  0
BLOCK
  5
165
100
AcDbEntity
  8
MAIN0
  6
CONTINUOUS
 62
1
100
AcDbBlockBegin
  2
*D16
 70
    65
 10
0.0
 20
0.0
 30
0.0
  0
LINE
  5
166
100
AcDbEntity
  8
MAIN0
  6
BYBLOCK
 62
0
100
AcDbLine
 10
1073.585048047215
 20
323.3392586815917
 30
0.0000000000000000
 11
1073.585048047215
 21
270.4196472231847
 31
0.0000000000000000
  0
LINE
  5
167
100
AcDbEntity
  8
MAIN0
  6
BYBLOCK
 62
0
100
AcDbLine
 10
1073.585048047215
 20
276.4196472231847
 30
0.0000000000000000
 11
1050.585048047214
 21
276.4196472231847
 31
0.0000000000000000
  0
INSERT
  5
168
100
AcDbEntity
  8
MAIN0
  6
BYBLOCK
 62
0
100
AcDbBlockReference
  2
_OPEN
 10
1073.585048047215
 20
276.4196472231847
 30
0.0000000000000000
 41
6.000000000000000
 42
6.000000000000000
 43
6.000000000000000
 50
180.0000000000000
  0
INSERT
  5
169
100
AcDbEntity
  8
MAIN0
  6
BYBLOCK
 62
0
100
AcDbBlockReference
  2
_OPEN
 10
1050.585048047214
 20
276.4196472231847
 30
0.0000000000000000
 41
6.000000000000000
 42
6.000000000000000
 43
6.000000000000000
 50
360.0000000000000
  0
LINE
  5
16A
100
AcDbEntity
  8
MAIN0
  6
BYBLOCK
 62
0
100
AcDbLine
 10
1079.585048047215
 20
276.4196472231847
 30
0.0000000000000000
 11
1116.134510213789
 21
276.4196472231847
 31
0.0000000000000000
  0
LINE
  5
16B
100
AcDbEntity
  8
MAIN0
  6
BYBLOCK
 62
0
100
AcDbLine
 10
1044.585048047214
 20
276.4196472231847
 30
0.0000000000000000
 11
1041.585048047214
 21
276.4196472231847
 31
0.0000000000000000
  0
MTEXT
  5
16C
100
AcDbEntity
  8
MAIN0
  6
BYBLOCK
 62
0
100
AcDbMText
 10
1099.784510785994
 20
282.5696470801335
 30
0.0000000000000000
 40
9.299999713897705
 41
0.0000000000000000
 71
     5
 72
     1
  1
\A1;15～31
 11
1.000000000000000
 21
0.0000000000000000
 31
0.0000000000000000
  7
KNJYOKO
  0
ENDBLK
  5
16D
100
AcDbEntity
  8
MAIN0
  6
CONTINUOUS
 62
1
100
AcDbBlockEnd
  0
BLOCK
  5
172
100
AcDbEntity
  8
MAIN0
  6
CONTINUOUS
 62
3
100
AcDbBlockBegin
  2
*D17
 70
    65
 10
0.0
 20
0.0
 30
0.0
  0
LINE
  5
173
100
AcDbEntity
  8
MAIN0
  6
BYBLOCK
 62
0
100
AcDbLine
 10
936.0226895659737
 20
623.5668311018519
 30
0.0000000000000000
 11
878.9968633083809
 21
623.5668311018519
 31
0.0000000000000000
  0
LINE
  5
174
100
AcDbEntity
  8
MAIN0
  6
BYBLOCK
 62
0
100
AcDbLine
 10
884.9968633083809
 20
617.5668311018519
 30
0.0000000000000000
 11
884.9968633083809
 21
449.5668311029884
 31
0.0000000000000000
  0
INSERT
  5
175
100
AcDbEntity
  8
MAIN0
  6
BYBLOCK
 62
0
100
AcDbBlockReference
  2
_OPEN
 10
884.9968633083809
 20
623.5668311018519
 30
0.0000000000000000
 41
6.000000000000000
 42
6.000000000000000
 43
6.000000000000000
 50
90.00000000000000
  0
INSERT
  5
176
100
AcDbEntity
  8
MAIN0
  6
BYBLOCK
 62
0
100
AcDbBlockReference
  2
_OPEN
 10
884.9968633083809
 20
443.5668311029884
 30
0.0000000000000000
 41
6.000000000000000
 42
6.000000000000000
 43
6.000000000000000
 50
270.0000000000000
  0
LINE
  5
177
100
AcDbEntity
  8
MAIN0
  6
BYBLOCK
 62
0
100
AcDbLine
 10
897.8777894897685
 20
443.5668311029884
 30
0.0000000000000000
 11
878.9968633083809
 21
443.5668311029884
 31
0.0000000000000000
  0
MTEXT
  5
178
100
AcDbEntity
  8
MAIN0
  6
BYBLOCK
 62
0
100
AcDbMText
 10
879.8468634514320
 20
533.5668311024201
 30
0.0000000000000000
 40
9.299999713897705
 41
0.0000000000000000
 71
     5
 72
     1
  1
\A1;180
 11
6.123233995736766e-017
 21
1.000000000000000
 31
0.0000000000000000
  7
STANDARD
  0
ENDBLK
  5
179
100
AcDbEntity
  8
MAIN0
  6
CONTINUOUS
 62
3
100
AcDbBlockEnd
  0
BLOCK
  5
17B
100
AcDbEntity
  8
MAIN0
  6
CONTINUOUS
 62
3
100
AcDbBlockBegin
  2
*D18
 70
    65
 10
0.0
 20
0.0
 30
0.0
  0
LINE
  5
17C
100
AcDbEntity
  8
MAIN0
  6
BYBLOCK
 62
0
100
AcDbLine
 10
466.5023149380585
 20
467.6392587531159
 30
0.0000000000000000
 11
466.5023149380585
 21
498.6514664285336
 31
0.0000000000000000
  0
LINE
  5
17D
100
AcDbEntity
  8
MAIN0
  6
BYBLOCK
 62
0
100
AcDbLine
 10
460.5023149380585
 20
492.6514664285336
 30
0.0000000000000000
 11
433.5023149380587
 21
492.6514664285336
 31
0.0000000000000000
  0
INSERT
  5
17E
100
AcDbEntity
  8
MAIN0
  6
BYBLOCK
 62
0
100
AcDbBlockReference
  2
_OPEN
 10
466.5023149380585
 20
492.6514664285336
 30
0.0000000000000000
 41
6.000000000000000
 42
6.000000000000000
 43
6.000000000000000
 50
360.0000000000000
  0
INSERT
  5
17F
100
AcDbEntity
  8
MAIN0
  6
BYBLOCK
 62
0
100
AcDbBlockReference
  2
_OPEN
 10
427.5023149380587
 20
492.6514664285336
 30
0.0000000000000000
 41
6.000000000000000
 42
6.000000000000000
 43
6.000000000000000
 50
180.0000000000000
  0
LINE
  5
180
100
AcDbEntity
  8
MAIN0
  6
BYBLOCK
 62
0
100
AcDbLine
 10
427.5023149380587
 20
465.4712992720508
 30
0.0000000000000000
 11
427.5023149380587
 21
498.6514664285336
 31
0.0000000000000000
  0
MTEXT
  5
181
100
AcDbEntity
  8
MAIN0
  6
BYBLOCK
 62
0
100
AcDbMText
 10
447.0023149380586
 20
497.8014662854824
 30
0.0000000000000000
 40
9.299999713897705
 41
0.0000000000000000
 71
     5
 72
     1
  1
\A1;39
 11
1.000000000000000
 21
0.0000000000000000
 31
0.0000000000000000
  7
STANDARD
  0
ENDBLK
  5
182
100
AcDbEntity
  8
MAIN0
  6
CONTINUOUS
 62
3
100
AcDbBlockEnd
  0
BLOCK
  5
184
100
AcDbEntity
  8
MAIN0
  6
CONTINUOUS
 62
3
100
AcDbBlockBegin
  2
*D19
 70
    65
 10
0.0
 20
0.0
 30
0.0
  0
LINE
  5
185
100
AcDbEntity
  8
MAIN0
  6
BYBLOCK
 62
0
100
AcDbLine
 10
468.9023149738213
 20
465.2392587173545
 30
0.0000000000000000
 11
501.9809061002134
 21
465.2392587173545
 31
0.0000000000000000
  0
LINE
  5
186
100
AcDbEntity
  8
MAIN0
  6
BYBLOCK
 62
0
100
AcDbLine
 10
495.9809061002134
 20
465.2392587173545
 30
0.0000000000000000
 11
495.9809061002134
 21
456.7392587173546
 31
0.0000000000000000
  0
INSERT
  5
187
100
AcDbEntity
  8
MAIN0
  6
BYBLOCK
 62
0
100
AcDbBlockReference
  2
_OPEN
 10
495.9809061002134
 20
465.2392587173545
 30
0.0000000000000000
 41
6.000000000000000
 42
6.000000000000000
 43
6.000000000000000
 50
270.0000000000000
  0
INSERT
  5
188
100
AcDbEntity
  8
MAIN0
  6
BYBLOCK
 62
0
100
AcDbBlockReference
  2
_DOT
 10
495.9809061002134
 20
455.7392587173546
 30
0.0000000000000000
 41
3.000000000000000
 42
3.000000000000000
 43
3.000000000000000
 50
270.0000000000000
  0
LINE
  5
189
100
AcDbEntity
  8
MAIN0
  6
BYBLOCK
 62
0
100
AcDbLine
 10
495.9809061002134
 20
471.2392587173545
 30
0.0000000000000000
 11
495.9809061002134
 21
489.2536856413950
 31
0.0000000000000000
  0
LINE
  5
18A
100
AcDbEntity
  8
MAIN0
  6
BYBLOCK
 62
0
100
AcDbLine
 10
437.5838580229236
 20
455.7392587173546
 30
0.0000000000000000
 11
501.9809061002134
 21
455.7392587173546
 31
0.0000000000000000
  0
MTEXT
  5
18B
100
AcDbEntity
  8
MAIN0
  6
BYBLOCK
 62
0
100
AcDbMText
 10
489.8309062432645
 20
481.4536859274973
 30
0.0000000000000000
 40
9.299999713897705
 41
0.0000000000000000
 71
     5
 72
     1
  1
\A1;9.5
 11
6.123233995736766e-017
 21
1.000000000000000
 31
0.0000000000000000
  7
STANDARD
  0
ENDBLK
  5
18C
100
AcDbEntity
  8
MAIN0
  6
CONTINUOUS
 62
3
100
AcDbBlockEnd
  0
BLOCK
  5
18E
100
AcDbEntity
  8
MAIN0
  6
CONTINUOUS
 62
3
100
AcDbBlockBegin
  2
*D20
 70
    65
 10
0.0
 20
0.0
 30
0.0
  0
LINE
  5
18F
100
AcDbEntity
  8
MAIN0
  6
BYBLOCK
 62
0
100
AcDbLine
 10
437.5838580229236
 20
455.7392587173546
 30
0.0000000000000000
 11
501.9809061002134
 21
455.7392587173546
 31
0.0000000000000000
  0
LINE
  5
190
100
AcDbEntity
  8
MAIN0
  6
BYBLOCK
 62
0
100
AcDbLine
 10
495.9809061002134
 20
454.7392587173546
 30
0.0000000000000000
 11
495.9809061002134
 21
435.7392587173546
 31
0.0000000000000000
  0
INSERT
  5
191
100
AcDbEntity
  8
MAIN0
  6
BYBLOCK
 62
0
100
AcDbBlockReference
  2
_DOT
 10
495.9809061002134
 20
455.7392587173546
 30
0.0000000000000000
 41
3.000000000000000
 42
3.000000000000000
 43
3.000000000000000
 50
90.00000000000000
  0
INSERT
  5
192
100
AcDbEntity
  8
MAIN0
  6
BYBLOCK
 62
0
100
AcDbBlockReference
  2
_OPEN
 10
495.9809061002134
 20
435.7392587173546
 30
0.0000000000000000
 41
6.000000000000000
 42
6.000000000000000
 43
6.000000000000000
 50
90.00000000000000
  0
LINE
  5
193
100
AcDbEntity
  8
MAIN0
  6
BYBLOCK
 62
0
100
AcDbLine
 10
495.9809061002134
 20
429.7392587173546
 30
0.0000000000000000
 11
495.9809061002134
 21
426.7392587173546
 31
0.0000000000000000
  0
LINE
  5
194
100
AcDbEntity
  8
MAIN0
  6
BYBLOCK
 62
0
100
AcDbLine
 10
437.8630961970210
 20
435.7392587173546
 30
0.0000000000000000
 11
501.9809061002134
 21
435.7392587173546
 31
0.0000000000000000
  0
MTEXT
  5
195
100
AcDbEntity
  8
MAIN0
  6
BYBLOCK
 62
0
100
AcDbMText
 10
490.8309062432645
 20
445.7392587173546
 30
0.0000000000000000
 40
9.299999713897705
 41
0.0000000000000000
 71
     5
 72
     1
  1
\A1;20
 11
6.123233995736766e-017
 21
1.000000000000000
 31
0.0000000000000000
  7
STANDARD
  0
ENDBLK
  5
196
100
AcDbEntity
  8
MAIN0
  6
CONTINUOUS
 62
3
100
AcDbBlockEnd
  0
BLOCK
  5
1A2
100
AcDbEntity
  8
MAIN0
  6
CONTINUOUS
 62
3
100
AcDbBlockBegin
  2
*D21
 70
    65
 10
0.0
 20
0.0
 30
0.0
  0
LINE
  5
1A3
100
AcDbEntity
  8
MAIN0
  6
BYBLOCK
 62
0
100
AcDbLine
 10
1001.885048011452
 20
325.7392587173545
 30
0.0000000000000000
 11
982.5844690718102
 21
325.7392587173545
 31
0.0000000000000000
  0
LINE
  5
1A4
100
AcDbEntity
  8
MAIN0
  6
BYBLOCK
 62
0
100
AcDbLine
 10
988.5844690718102
 20
331.7392587173545
 30
0.0000000000000000
 11
988.5844690718102
 21
349.7392587173544
 31
0.0000000000000000
  0
INSERT
  5
1A5
100
AcDbEntity
  8
MAIN0
  6
BYBLOCK
 62
0
100
AcDbBlockReference
  2
_OPEN
 10
988.5844690718102
 20
325.7392587173545
 30
0.0000000000000000
 41
6.000000000000000
 42
6.000000000000000
 43
6.000000000000000
 50
270.0000000000000
  0
INSERT
  5
1A6
100
AcDbEntity
  8
MAIN0
  6
BYBLOCK
 62
0
100
AcDbBlockReference
  2
_OPEN
 10
988.5844690718102
 20
355.7392587173544
 30
0.0000000000000000
 41
6.000000000000000
 42
6.000000000000000
 43
6.000000000000000
 50
90.00000000000000
  0
LINE
  5
1A7
100
AcDbEntity
  8
MAIN0
  6
BYBLOCK
 62
0
100
AcDbLine
 10
1000.185048011452
 20
355.7392587173544
 30
0.0000000000000000
 11
982.5844690718102
 21
355.7392587173544
 31
0.0000000000000000
  0
MTEXT
  5
1A8
100
AcDbEntity
  8
MAIN0
  6
BYBLOCK
 62
0
100
AcDbMText
 10
983.4344692148613
 20
340.7392587173545
 30
0.0000000000000000
 40
9.299999713897705
 41
0.0000000000000000
 71
     5
 72
     1
  1
\A1;30
 11
6.123233995736766e-017
 21
1.000000000000000
 31
0.0000000000000000
  7
STANDARD
  0
ENDBLK
  5
1A9
100
AcDbEntity
  8
MAIN0
  6
CONTINUOUS
 62
3
100
AcDbBlockEnd
  0
BLOCK
  5
1AB
100
AcDbEntity
  8
MAIN0
  6
CONTINUOUS
 62
3
100
AcDbBlockBegin
  2
*D22
 70
    65
 10
0.0
 20
0.0
 30
0.0
  0
LINE
  5
1AC
100
AcDbEntity
  8
MAIN0
  6
BYBLOCK
 62
0
100
AcDbLine
 10
1000.185048011452
 20
355.7392587173544
 30
0.0000000000000000
 11
982.5844690718102
 21
355.7392587173544
 31
0.0000000000000000
  0
LINE
  5
1AD
100
AcDbEntity
  8
MAIN0
  6
BYBLOCK
 62
0
100
AcDbLine
 10
988.5844690718102
 20
355.7392587173544
 30
0.0000000000000000
 11
988.5844690718102
 21
360.7392587173544
 31
0.0000000000000000
  0
INSERT
  5
1AE
100
AcDbEntity
  8
MAIN0
  6
BYBLOCK
 62
0
100
AcDbBlockReference
  2
_OPEN
 10
988.5844690718102
 20
355.7392587173544
 30
0.0000000000000000
 41
6.000000000000000
 42
6.000000000000000
 43
6.000000000000000
 50
90.00000000000000
  0
INSERT
  5
1AF
100
AcDbEntity
  8
MAIN0
  6
BYBLOCK
 62
0
100
AcDbBlockReference
  2
_OPEN
 10
988.5844690718102
 20
360.7392587173544
 30
0.0000000000000000
 41
6.000000000000000
 42
6.000000000000000
 43
6.000000000000000
 50
270.0000000000000
  0
LINE
  5
1B0
100
AcDbEntity
  8
MAIN0
  6
BYBLOCK
 62
0
100
AcDbLine
 10
988.5844690718102
 20
349.7392587173544
 30
0.0000000000000000
 11
988.5844690718102
 21
346.7392587173544
 31
0.0000000000000000
  0
LINE
  5
1B1
100
AcDbEntity
  8
MAIN0
  6
BYBLOCK
 62
0
100
AcDbLine
 10
988.5844690718102
 20
366.7392587173544
 30
0.0000000000000000
 11
988.5844690718102
 21
378.7530537947483
 31
0.0000000000000000
  0
LINE
  5
1B2
100
AcDbEntity
  8
MAIN0
  6
BYBLOCK
 62
0
100
AcDbLine
 10
1030.685048011452
 20
360.7392587173544
 30
0.0000000000000000
 11
982.5844690718102
 21
360.7392587173544
 31
0.0000000000000000
  0
MTEXT
  5
1B3
100
AcDbEntity
  8
MAIN0
  6
BYBLOCK
 62
0
100
AcDbMText
 10
982.4344692148613
 20
375.7530537947483
 30
0.0000000000000000
 40
9.299999713897705
 41
0.0000000000000000
 71
     5
 72
     1
  1
\A1;5
 11
6.123233995736766e-017
 21
1.000000000000000
 31
0.0000000000000000
  7
STANDARD
  0
ENDBLK
  5
1B4
100
AcDbEntity
  8
MAIN0
  6
CONTINUOUS
 62
3
100
AcDbBlockEnd
  0
BLOCK
  5
1B6
100
AcDbEntity
  8
MAIN0
  6
CONTINUOUS
 62
3
100
AcDbBlockBegin
  2
*D23
 70
    65
 10
0.0
 20
0.0
 30
0.0
  0
LINE
  5
1B7
100
AcDbEntity
  8
MAIN0
  6
BYBLOCK
 62
0
100
AcDbLine
 10
612.1023149022958
 20
446.9392587173544
 30
0.0000000000000000
 11
580.5761638823733
 21
446.9392587173544
 31
0.0000000000000000
  0
LINE
  5
1B8
100
AcDbEntity
  8
MAIN0
  6
BYBLOCK
 62
0
100
AcDbLine
 10
586.5761638823733
 20
446.9392587173544
 30
0.0000000000000000
 11
586.5761638823733
 21
425.7392587173545
 31
0.0000000000000000
  0
INSERT
  5
1B9
100
AcDbEntity
  8
MAIN0
  6
BYBLOCK
 62
0
100
AcDbBlockReference
  2
_OPEN
 10
586.5761638823733
 20
446.9392587173544
 30
0.0000000000000000
 41
6.000000000000000
 42
6.000000000000000
 43
6.000000000000000
 50
270.0000000000000
  0
INSERT
  5
1BA
100
AcDbEntity
  8
MAIN0
  6
BYBLOCK
 62
0
100
AcDbBlockReference
  2
_OPEN
 10
586.5761638823733
 20
425.7392587173545
 30
0.0000000000000000
 41
6.000000000000000
 42
6.000000000000000
 43
6.000000000000000
 50
90.00000000000000
  0
LINE
  5
1BB
100
AcDbEntity
  8
MAIN0
  6
BYBLOCK
 62
0
100
AcDbLine
 10
586.5761638823733
 20
452.9392587173544
 30
0.0000000000000000
 11
586.5761638823733
 21
455.9392587173544
 31
0.0000000000000000
  0
LINE
  5
1BC
100
AcDbEntity
  8
MAIN0
  6
BYBLOCK
 62
0
100
AcDbLine
 10
586.5761638823733
 20
419.7392587173545
 30
0.0000000000000000
 11
586.5761638823733
 21
416.7392587173545
 31
0.0000000000000000
  0
MTEXT
  5
1BD
100
AcDbEntity
  8
MAIN0
  6
BYBLOCK
 62
0
100
AcDbMText
 10
581.4261640254244
 20
436.3392587173544
 30
0.0000000000000000
 40
9.299999713897705
 41
0.0000000000000000
 71
     5
 72
     1
  1
\A1;21
 11
6.123233995736766e-017
 21
1.000000000000000
 31
0.0000000000000000
  7
STANDARD
  0
ENDBLK
  5
1BE
100
AcDbEntity
  8
MAIN0
  6
CONTINUOUS
 62
3
100
AcDbBlockEnd
  0
BLOCK
  5
1C0
100
AcDbEntity
  8
MAIN0
  6
CONTINUOUS
 62
3
100
AcDbBlockBegin
  2
*D24
 70
    65
 10
0.0
 20
0.0
 30
0.0
  0
LINE
  5
1C1
100
AcDbEntity
  8
MAIN0
  6
BYBLOCK
 62
0
100
AcDbLine
 10
1069.085048047215
 20
448.1392587531171
 30
0.0000000000000000
 11
1069.085048047215
 21
523.1290205643535
 31
0.0000000000000000
  0
LINE
  5
1C2
100
AcDbEntity
  8
MAIN0
  6
BYBLOCK
 62
0
100
AcDbLine
 10
1075.085048047215
 20
517.1290205643535
 30
0.0000000000000000
 11
1198.085048047215
 21
517.1290205643535
 31
0.0000000000000000
  0
INSERT
  5
1C3
100
AcDbEntity
  8
MAIN0
  6
BYBLOCK
 62
0
100
AcDbBlockReference
  2
_OPEN
 10
1069.085048047215
 20
517.1290205643535
 30
0.0000000000000000
 41
6.000000000000000
 42
6.000000000000000
 43
6.000000000000000
 50
180.0000000000000
  0
INSERT
  5
1C4
100
AcDbEntity
  8
MAIN0
  6
BYBLOCK
 62
0
100
AcDbBlockReference
  2
_OPEN
 10
1204.085048047215
 20
517.1290205643535
 30
0.0000000000000000
 41
6.000000000000000
 42
6.000000000000000
 43
6.000000000000000
 50
0.0000000000000000
  0
LINE
  5
1C5
100
AcDbEntity
  8
MAIN0
  6
BYBLOCK
 62
0
100
AcDbLine
 10
1204.085048047215
 20
448.1392587531172
 30
0.0000000000000000
 11
1204.085048047215
 21
523.1290205643535
 31
0.0000000000000000
  0
MTEXT
  5
1C6
100
AcDbEntity
  8
MAIN0
  6
BYBLOCK
 62
0
100
AcDbMText
 10
1136.585048047215
 20
522.2790204213023
 30
0.0000000000000000
 40
9.299999713897705
 41
0.0000000000000000
 71
     5
 72
     1
  1
\A1;135
 11
1.000000000000000
 21
0.0000000000000000
 31
0.0000000000000000
  7
STANDARD
  0
ENDBLK
  5
1C7
100
AcDbEntity
  8
MAIN0
  6
CONTINUOUS
 62
3
100
AcDbBlockEnd
  0
BLOCK
  5
1C9
100
AcDbEntity
  8
MAIN0
  6
CONTINUOUS
 62
3
100
AcDbBlockBegin
  2
*D25
 70
    65
 10
0.0
 20
0.0
 30
0.0
  0
LINE
  5
1CA
100
AcDbEntity
  8
MAIN0
  6
BYBLOCK
 62
0
100
AcDbLine
 10
568.5334469223730
 20
325.7392587173545
 30
0.0000000000000000
 11
568.5334469223730
 21
320.7392587173542
 31
0.0000000000000000
  0
INSERT
  5
1CB
100
AcDbEntity
  8
MAIN0
  6
BYBLOCK
 62
0
100
AcDbBlockReference
  2
_OPEN
 10
568.5334469223730
 20
325.7392587173545
 30
0.0000000000000000
 41
6.000000000000000
 42
6.000000000000000
 43
6.000000000000000
 50
270.0000000000000
  0
INSERT
  5
1CC
100
AcDbEntity
  8
MAIN0
  6
BYBLOCK
 62
0
100
AcDbBlockReference
  2
_OPEN
 10
568.5334469223730
 20
320.7392587173542
 30
0.0000000000000000
 41
6.000000000000000
 42
6.000000000000000
 43
6.000000000000000
 50
90.00000000000000
  0
LINE
  5
1CD
100
AcDbEntity
  8
MAIN0
  6
BYBLOCK
 62
0
100
AcDbLine
 10
568.5334469223730
 20
331.7392587173545
 30
0.0000000000000000
 11
568.5334469223730
 21
334.7392587173545
 31
0.0000000000000000
  0
LINE
  5
1CE
100
AcDbEntity
  8
MAIN0
  6
BYBLOCK
 62
0
100
AcDbLine
 10
568.5334469223730
 20
314.7392587173542
 30
0.0000000000000000
 11
568.5334469223730
 21
308.2919596964646
 31
0.0000000000000000
  0
LINE
  5
1CF
100
AcDbEntity
  8
MAIN0
  6
BYBLOCK
 62
0
100
AcDbLine
 10
597.6023149022961
 20
320.7392587173542
 30
0.0000000000000000
 11
562.5334469223730
 21
320.7392587173542
 31
0.0000000000000000
  0
MTEXT
  5
1D0
100
AcDbEntity
  8
MAIN0
  6
BYBLOCK
 62
0
100
AcDbMText
 10
562.3834470654241
 20
311.2919596964647
 30
0.0000000000000000
 40
9.299999713897705
 41
0.0000000000000000
 71
     5
 72
     1
  1
\A1;5
 11
6.123233995736766e-017
 21
1.000000000000000
 31
0.0000000000000000
  7
STANDARD
  0
ENDBLK
  5
1D1
100
AcDbEntity
  8
MAIN0
  6
CONTINUOUS
 62
3
100
AcDbBlockEnd
  0
BLOCK
  5
1DD
100
AcDbEntity
  8
MAIN0
  6
CONTINUOUS
 62
3
100
AcDbBlockBegin
  2
*D26
 70
    65
 10
0.0
 20
0.0
 30
0.0
  0
LINE
  5
1DE
100
AcDbEntity
  8
MAIN0
  6
BYBLOCK
 62
0
100
AcDbLine
 10
540.5023149380581
 20
626.6243878662307
 30
0.0000000000000000
 11
540.5023149380581
 21
584.9425284920619
 31
0.0000000000000000
  0
LINE
  5
1DF
100
AcDbEntity
  8
MAIN0
  6
BYBLOCK
 62
0
100
AcDbLine
 10
546.5023149380581
 20
590.9425284920619
 30
0.0000000000000000
 11
571.5023149380579
 21
590.9425284920619
 31
0.0000000000000000
  0
INSERT
  5
1E0
100
AcDbEntity
  8
MAIN0
  6
BYBLOCK
 62
0
100
AcDbBlockReference
  2
_OPEN
 10
540.5023149380581
 20
590.9425284920619
 30
0.0000000000000000
 41
6.000000000000000
 42
6.000000000000000
 43
6.000000000000000
 50
180.0000000000000
  0
INSERT
  5
1E1
100
AcDbEntity
  8
MAIN0
  6
BYBLOCK
 62
0
100
AcDbBlockReference
  2
_OPEN
 10
577.5023149380579
 20
590.9425284920619
 30
0.0000000000000000
 41
6.000000000000000
 42
6.000000000000000
 43
6.000000000000000
 50
0.0000000000000000
  0
LINE
  5
1E2
100
AcDbEntity
  8
MAIN0
  6
BYBLOCK
 62
0
100
AcDbLine
 10
577.5023149380579
 20
681.1768693444774
 30
0.0000000000000000
 11
577.5023149380579
 21
584.9425284920619
 31
0.0000000000000000
  0
MTEXT
  5
1E3
100
AcDbEntity
  8
MAIN0
  6
BYBLOCK
 62
0
100
AcDbMText
 10
559.0023149380580
 20
596.0925283490108
 30
0.0000000000000000
 40
9.299999713897705
 41
0.0000000000000000
 71
     5
 72
     1
  1
\A1;37
 11
1.000000000000000
 21
0.0000000000000000
 31
0.0000000000000000
  7
STANDARD
  0
ENDBLK
  5
1E4
100
AcDbEntity
  8
MAIN0
  6
CONTINUOUS
 62
3
100
AcDbBlockEnd
  0
BLOCK
  5
1EA
100
AcDbEntity
  8
MAIN0
  6
CONTINUOUS
 62
3
100
AcDbBlockBegin
  2
*D27
 70
    65
 10
0.0
 20
0.0
 30
0.0
  0
LINE
  5
1EB
100
AcDbEntity
  8
MAIN0
  6
BYBLOCK
 62
0
100
AcDbLine
 10
390.8676495165668
 20
716.2743879019945
 30
0.0000000000000000
 11
339.6656028436039
 21
716.2743879019945
 31
0.0000000000000000
  0
LINE
  5
1EC
100
AcDbEntity
  8
MAIN0
  6
BYBLOCK
 62
0
100
AcDbLine
 10
345.6656028436039
 20
710.2743879019945
 30
0.0000000000000000
 11
345.6656028436039
 21
672.2743879019945
 31
0.0000000000000000
  0
INSERT
  5
1ED
100
AcDbEntity
  8
MAIN0
  6
BYBLOCK
 62
0
100
AcDbBlockReference
  2
_OPEN
 10
345.6656028436039
 20
716.2743879019945
 30
0.0000000000000000
 41
6.000000000000000
 42
6.000000000000000
 43
6.000000000000000
 50
90.00000000000000
  0
INSERT
  5
1EE
100
AcDbEntity
  8
MAIN0
  6
BYBLOCK
 62
0
100
AcDbBlockReference
  2
_OPEN
 10
345.6656028436039
 20
666.2743879019945
 30
0.0000000000000000
 41
6.000000000000000
 42
6.000000000000000
 43
6.000000000000000
 50
270.0000000000000
  0
LINE
  5
1EF
100
AcDbEntity
  8
MAIN0
  6
BYBLOCK
 62
0
100
AcDbLine
 10
390.8676495165668
 20
666.2743879019945
 30
0.0000000000000000
 11
339.6656028436039
 21
666.2743879019945
 31
0.0000000000000000
  0
MTEXT
  5
1F0
100
AcDbEntity
  8
MAIN0
  6
BYBLOCK
 62
0
100
AcDbMText
 10
340.5156029866550
 20
691.2743879019945
 30
0.0000000000000000
 40
9.299999713897705
 41
0.0000000000000000
 71
     5
 72
     1
  1
\A1;50
 11
6.123233995736766e-017
 21
1.000000000000000
 31
0.0000000000000000
  7
STANDARD
  0
ENDBLK
  5
1F1
100
AcDbEntity
  8
MAIN0
  6
CONTINUOUS
 62
3
100
AcDbBlockEnd
  0
BLOCK
  5
1F7
100
AcDbEntity
  8
MAIN0
  6
CONTINUOUS
 62
3
100
AcDbBlockBegin
  2
*D28
 70
    65
 10
0.0
 20
0.0
 30
0.0
  0
LINE
  5
1F8
100
AcDbEntity
  8
MAIN0
  6
BYBLOCK
 62
0
100
AcDbLine
 10
401.5023149380578
 20
654.7671019187189
 30
0.0000000000000000
 11
401.5023149380578
 21
604.1882978884905
 31
0.0000000000000000
  0
LINE
  5
1F9
100
AcDbEntity
  8
MAIN0
  6
BYBLOCK
 62
0
100
AcDbLine
 10
407.5023149380578
 20
610.1882978884905
 30
0.0000000000000000
 11
450.5023149380578
 21
610.1882978884905
 31
0.0000000000000000
  0
INSERT
  5
1FA
100
AcDbEntity
  8
MAIN0
  6
BYBLOCK
 62
0
100
AcDbBlockReference
  2
_OPEN
 10
401.5023149380578
 20
610.1882978884905
 30
0.0000000000000000
 41
6.000000000000000
 42
6.000000000000000
 43
6.000000000000000
 50
180.0000000000000
  0
INSERT
  5
1FB
100
AcDbEntity
  8
MAIN0
  6
BYBLOCK
 62
0
100
AcDbBlockReference
  2
_OPEN
 10
456.5023149380578
 20
610.1882978884905
 30
0.0000000000000000
 41
6.000000000000000
 42
6.000000000000000
 43
6.000000000000000
 50
0.0000000000000000
  0
LINE
  5
1FC
100
AcDbEntity
  8
MAIN0
  6
BYBLOCK
 62
0
100
AcDbLine
 10
456.5023149380578
 20
654.7671019187188
 30
0.0000000000000000
 11
456.5023149380578
 21
604.1882978884905
 31
0.0000000000000000
  0
MTEXT
  5
1FD
100
AcDbEntity
  8
MAIN0
  6
BYBLOCK
 62
0
100
AcDbMText
 10
439.3781671946408
 20
616.3382977454394
 30
0.0000000000000000
 40
9.299999713897705
 41
0.0000000000000000
 71
     5
 72
     1
  1
\A1;55
 11
1.000000000000000
 21
0.0000000000000000
 31
0.0000000000000000
  7
STANDARD
  0
ENDBLK
  5
1FE
100
AcDbEntity
  8
MAIN0
  6
CONTINUOUS
 62
3
100
AcDbBlockEnd
  0
BLOCK
  5
200
100
AcDbEntity
  8
MAIN0
  6
CONTINUOUS
 62
3
100
AcDbBlockBegin
  2
*D29
 70
    65
 10
0.0
 20
0.0
 30
0.0
  0
LINE
  5
201
100
AcDbEntity
  8
MAIN0
  6
BYBLOCK
 62
0
100
AcDbLine
 10
456.5023149380578
 20
654.7671019187188
 30
0.0000000000000000
 11
456.5023149380578
 21
604.1882978884905
 31
0.0000000000000000
  0
LINE
  5
202
100
AcDbEntity
  8
MAIN0
  6
BYBLOCK
 62
0
100
AcDbLine
 10
456.5023149380578
 20
610.1882978884905
 30
0.0000000000000000
 11
466.5023149380580
 21
610.1882978884905
 31
0.0000000000000000
  0
INSERT
  5
203
100
AcDbEntity
  8
MAIN0
  6
BYBLOCK
 62
0
100
AcDbBlockReference
  2
_OPEN
 10
456.5023149380578
 20
610.1882978884905
 30
0.0000000000000000
 41
6.000000000000000
 42
6.000000000000000
 43
6.000000000000000
 50
0.0000000000000000
  0
INSERT
  5
204
100
AcDbEntity
  8
MAIN0
  6
BYBLOCK
 62
0
100
AcDbBlockReference
  2
_OPEN
 10
466.5023149380580
 20
610.1882978884905
 30
0.0000000000000000
 41
6.000000000000000
 42
6.000000000000000
 43
6.000000000000000
 50
180.0000000000000
  0
LINE
  5
205
100
AcDbEntity
  8
MAIN0
  6
BYBLOCK
 62
0
100
AcDbLine
 10
450.5023149380578
 20
610.1882978884905
 30
0.0000000000000000
 11
447.5023149380578
 21
610.1882978884905
 31
0.0000000000000000
  0
LINE
  5
206
100
AcDbEntity
  8
MAIN0
  6
BYBLOCK
 62
0
100
AcDbLine
 10
472.5023149380580
 20
610.1882978884905
 30
0.0000000000000000
 11
483.3349309049247
 21
610.1882978884905
 31
0.0000000000000000
  0
LINE
  5
207
100
AcDbEntity
  8
MAIN0
  6
BYBLOCK
 62
0
100
AcDbLine
 10
466.5023149380580
 20
626.6243878662306
 30
0.0000000000000000
 11
466.5023149380580
 21
604.1882978884905
 31
0.0000000000000000
  0
MTEXT
  5
208
100
AcDbEntity
  8
MAIN0
  6
BYBLOCK
 62
0
100
AcDbMText
 10
477.1849310479758
 20
616.3382977454394
 30
0.0000000000000000
 40
9.299999713897705
 41
0.0000000000000000
 71
     5
 72
     1
  1
\A1;10
 11
1.000000000000000
 21
0.0000000000000000
 31
0.0000000000000000
  7
STANDARD
  0
ENDBLK
  5
209
100
AcDbEntity
  8
MAIN0
  6
CONTINUOUS
 62
3
100
AcDbBlockEnd
  0
BLOCK
  5
20B
100
AcDbEntity
  8
MAIN0
  6
CONTINUOUS
 62
3
100
AcDbBlockBegin
  2
*D30
 70
    65
 10
0.0
 20
0.0
 30
0.0
  0
LINE
  5
20C
100
AcDbEntity
  8
MAIN0
  6
BYBLOCK
 62
0
100
AcDbLine
 10
610.5838580229229
 20
731.2743879019945
 30
0.0000000000000000
 11
650.9264814552996
 21
731.2743879019945
 31
0.0000000000000000
  0
LINE
  5
20D
100
AcDbEntity
  8
MAIN0
  6
BYBLOCK
 62
0
100
AcDbLine
 10
644.9264814552996
 20
725.2743879019945
 30
0.0000000000000000
 11
644.9264814552996
 21
657.2743879019945
 31
0.0000000000000000
  0
INSERT
  5
20E
100
AcDbEntity
  8
MAIN0
  6
BYBLOCK
 62
0
100
AcDbBlockReference
  2
_OPEN
 10
644.9264814552996
 20
731.2743879019945
 30
0.0000000000000000
 41
6.000000000000000
 42
6.000000000000000
 43
6.000000000000000
 50
90.00000000000000
  0
INSERT
  5
20F
100
AcDbEntity
  8
MAIN0
  6
BYBLOCK
 62
0
100
AcDbBlockReference
  2
_OPEN
 10
644.9264814552996
 20
651.2743879019945
 30
0.0000000000000000
 41
6.000000000000000
 42
6.000000000000000
 43
6.000000000000000
 50
270.0000000000000
  0
LINE
  5
210
100
AcDbEntity
  8
MAIN0
  6
BYBLOCK
 62
0
100
AcDbLine
 10
610.5838580229229
 20
651.2743879019945
 30
0.0000000000000000
 11
650.9264814552996
 21
651.2743879019945
 31
0.0000000000000000
  0
MTEXT
  5
211
100
AcDbEntity
  8
MAIN0
  6
BYBLOCK
 62
0
100
AcDbMText
 10
639.7764815983508
 20
691.2743879019945
 30
0.0000000000000000
 40
9.299999713897705
 41
0.0000000000000000
 71
     5
 72
     1
  1
\A1;80
 11
6.123233995736766e-017
 21
1.000000000000000
 31
0.0000000000000000
  7
STANDARD
  0
ENDBLK
  5
212
100
AcDbEntity
  8
MAIN0
  6
CONTINUOUS
 62
3
100
AcDbBlockEnd
  0
BLOCK
  5
216
100
AcDbEntity
  8
MAIN0
  6
CONTINUOUS
 62
3
100
AcDbBlockBegin
  2
*D31
 70
    65
 10
0.0
 20
0.0
 30
0.0
  0
LINE
  5
217
100
AcDbEntity
  8
MAIN0
  6
BYBLOCK
 62
0
100
AcDbLine
 10
600.5023149380579
 20
639.2057299077374
 30
0.0000000000000000
 11
600.5023149380579
 21
604.1882978884905
 31
0.0000000000000000
  0
LINE
  5
218
100
AcDbEntity
  8
MAIN0
  6
BYBLOCK
 62
0
100
AcDbLine
 10
594.5023149380579
 20
610.1882978884905
 30
0.0000000000000000
 11
556.5023149380579
 21
610.1882978884905
 31
0.0000000000000000
  0
INSERT
  5
219
100
AcDbEntity
  8
MAIN0
  6
BYBLOCK
 62
0
100
AcDbBlockReference
  2
_OPEN
 10
600.5023149380579
 20
610.1882978884905
 30
0.0000000000000000
 41
6.000000000000000
 42
6.000000000000000
 43
6.000000000000000
 50
360.0000000000000
  0
INSERT
  5
21A
100
AcDbEntity
  8
MAIN0
  6
BYBLOCK
 62
0
100
AcDbBlockReference
  2
_OPEN
 10
550.5023149380579
 20
610.1882978884905
 30
0.0000000000000000
 41
6.000000000000000
 42
6.000000000000000
 43
6.000000000000000
 50
180.0000000000000
  0
LINE
  5
21B
100
AcDbEntity
  8
MAIN0
  6
BYBLOCK
 62
0
100
AcDbLine
 10
550.5023149380579
 20
639.2057299077374
 30
0.0000000000000000
 11
550.5023149380579
 21
604.1882978884905
 31
0.0000000000000000
  0
MTEXT
  5
21C
100
AcDbEntity
  8
MAIN0
  6
BYBLOCK
 62
0
100
AcDbMText
 10
569.3061743794559
 20
616.3382977454394
 30
0.0000000000000000
 40
9.299999713897705
 41
0.0000000000000000
 71
     5
 72
     1
  1
\A1;50
 11
1.000000000000000
 21
0.0000000000000000
 31
0.0000000000000000
  7
STANDARD
  0
ENDBLK
  5
21D
100
AcDbEntity
  8
MAIN0
  6
CONTINUOUS
 62
3
100
AcDbBlockEnd
  0
BLOCK
  5
21F
100
AcDbEntity
  8
MAIN0
  6
CONTINUOUS
 62
3
100
AcDbBlockBegin
  2
*D32
 70
    65
 10
0.0
 20
0.0
 30
0.0
  0
LINE
  5
220
100
AcDbEntity
  8
MAIN0
  6
BYBLOCK
 62
0
100
AcDbLine
 10
550.5023149380579
 20
639.2057299077374
 30
0.0000000000000000
 11
550.5023149380579
 21
604.1882978884905
 31
0.0000000000000000
  0
LINE
  5
221
100
AcDbEntity
  8
MAIN0
  6
BYBLOCK
 62
0
100
AcDbLine
 10
550.5023149380579
 20
610.1882978884905
 30
0.0000000000000000
 11
540.5023149380581
 21
610.1882978884905
 31
0.0000000000000000
  0
INSERT
  5
222
100
AcDbEntity
  8
MAIN0
  6
BYBLOCK
 62
0
100
AcDbBlockReference
  2
_OPEN
 10
550.5023149380579
 20
610.1882978884905
 30
0.0000000000000000
 41
6.000000000000000
 42
6.000000000000000
 43
6.000000000000000
 50
180.0000000000000
  0
INSERT
  5
223
100
AcDbEntity
  8
MAIN0
  6
BYBLOCK
 62
0
100
AcDbBlockReference
  2
_OPEN
 10
540.5023149380581
 20
610.1882978884905
 30
0.0000000000000000
 41
6.000000000000000
 42
6.000000000000000
 43
6.000000000000000
 50
360.0000000000000
  0
LINE
  5
224
100
AcDbEntity
  8
MAIN0
  6
BYBLOCK
 62
0
100
AcDbLine
 10
556.5023149380579
 20
610.1882978884905
 30
0.0000000000000000
 11
559.5023149380579
 21
610.1882978884905
 31
0.0000000000000000
  0
LINE
  5
225
100
AcDbEntity
  8
MAIN0
  6
BYBLOCK
 62
0
100
AcDbLine
 10
534.5023149380581
 20
610.1882978884905
 30
0.0000000000000000
 11
523.3419587783033
 21
610.1882978884905
 31
0.0000000000000000
  0
LINE
  5
226
100
AcDbEntity
  8
MAIN0
  6
BYBLOCK
 62
0
100
AcDbLine
 10
540.5023149380581
 20
626.6243878662307
 30
0.0000000000000000
 11
540.5023149380581
 21
604.1882978884905
 31
0.0000000000000000
  0
MTEXT
  5
227
100
AcDbEntity
  8
MAIN0
  6
BYBLOCK
 62
0
100
AcDbMText
 10
529.4919586352521
 20
616.3382977454394
 30
0.0000000000000000
 40
9.299999713897705
 41
0.0000000000000000
 71
     5
 72
     1
  1
\A1;10
 11
1.000000000000000
 21
0.0000000000000000
 31
0.0000000000000000
  7
STANDARD
  0
ENDBLK
  5
228
100
AcDbEntity
  8
MAIN0
  6
CONTINUOUS
 62
3
100
AcDbBlockEnd
  0
BLOCK
  5
263
100
AcDbEntity
  8
MAIN0
  6
CONTINUOUS
 62
3
100
AcDbBlockBegin
  2
*D33
 70
    65
 10
0.0
 20
0.0
 30
0.0
  0
LINE
  5
264
100
AcDbEntity
  8
MAIN0
  6
BYBLOCK
 62
0
100
AcDbLine
 10
907.5819401762363
 20
452.3668311387467
 30
0.0000000000000000
 11
907.5819401762363
 21
646.9276821358299
 31
0.0000000000000000
  0
LINE
  5
265
100
AcDbEntity
  8
MAIN0
  6
BYBLOCK
 62
0
100
AcDbLine
 10
907.5819401762363
 20
640.9276821358299
 30
0.0000000000000000
 11
922.5819401762360
 21
640.9276821358299
 31
0.0000000000000000
  0
INSERT
  5
266
100
AcDbEntity
  8
MAIN0
  6
BYBLOCK
 62
0
100
AcDbBlockReference
  2
_OPEN
 10
907.5819401762363
 20
640.9276821358299
 30
0.0000000000000000
 41
6.000000000000000
 42
6.000000000000000
 43
6.000000000000000
 50
0.0000000000000000
  0
INSERT
  5
267
100
AcDbEntity
  8
MAIN0
  6
BYBLOCK
 62
0
100
AcDbBlockReference
  2
_OPEN
 10
922.5819401762360
 20
640.9276821358299
 30
0.0000000000000000
 41
6.000000000000000
 42
6.000000000000000
 43
6.000000000000000
 50
180.0000000000000
  0
LINE
  5
268
100
AcDbEntity
  8
MAIN0
  6
BYBLOCK
 62
0
100
AcDbLine
 10
901.5819401762363
 20
640.9276821358299
 30
0.0000000000000000
 11
898.5819401762363
 21
640.9276821358299
 31
0.0000000000000000
  0
LINE
  5
269
100
AcDbEntity
  8
MAIN0
  6
BYBLOCK
 62
0
100
AcDbLine
 10
928.5819401762360
 20
640.9276821358299
 30
0.0000000000000000
 11
931.5819401762360
 21
640.9276821358299
 31
0.0000000000000000
  0
LINE
  5
26A
100
AcDbEntity
  8
MAIN0
  6
BYBLOCK
 62
0
100
AcDbLine
 10
922.5819401762371
 20
455.9668311387467
 30
0.0000000000000000
 11
922.5819401762361
 21
646.9276821358299
 31
0.0000000000000000
  0
MTEXT
  5
26B
100
AcDbEntity
  8
MAIN0
  6
BYBLOCK
 62
0
100
AcDbMText
 10
915.0819401762362
 20
646.0776819927787
 30
0.0000000000000000
 40
9.299999713897705
 41
0.0000000000000000
 71
     5
 72
     1
  1
\A1;15
 11
1.000000000000000
 21
0.0000000000000000
 31
0.0000000000000000
  7
STANDARD
  0
ENDBLK
  5
26C
100
AcDbEntity
  8
MAIN0
  6
CONTINUOUS
 62
3
100
AcDbBlockEnd
  0
BLOCK
  5
26E
100
AcDbEntity
  8
MAIN0
  6
CONTINUOUS
 62
3
100
AcDbBlockBegin
  2
*D34
 70
    65
 10
0.0
 20
0.0
 30
0.0
  0
LINE
  5
26F
100
AcDbEntity
  8
MAIN0
  6
BYBLOCK
 62
0
100
AcDbLine
 10
922.5819401762371
 20
455.9668311387467
 30
0.0000000000000000
 11
922.5819401762361
 21
646.9276821358299
 31
0.0000000000000000
  0
LINE
  5
270
100
AcDbEntity
  8
MAIN0
  6
BYBLOCK
 62
0
100
AcDbLine
 10
928.5819401762360
 20
640.9276821358299
 30
0.0000000000000000
 11
946.5819401762177
 21
640.9276821358299
 31
0.0000000000000000
  0
INSERT
  5
271
100
AcDbEntity
  8
MAIN0
  6
BYBLOCK
 62
0
100
AcDbBlockReference
  2
_OPEN
 10
922.5819401762360
 20
640.9276821358299
 30
0.0000000000000000
 41
6.000000000000000
 42
6.000000000000000
 43
6.000000000000000
 50
180.0000000000000
  0
INSERT
  5
272
100
AcDbEntity
  8
MAIN0
  6
BYBLOCK
 62
0
100
AcDbBlockReference
  2
_OPEN
 10
952.5819401762177
 20
640.9276821358299
 30
0.0000000000000000
 41
6.000000000000000
 42
6.000000000000000
 43
6.000000000000000
 50
0.0000000000000000
  0
LINE
  5
273
100
AcDbEntity
  8
MAIN0
  6
BYBLOCK
 62
0
100
AcDbLine
 10
952.5819401762177
 20
616.4668311387463
 30
0.0000000000000000
 11
952.5819401762177
 21
646.9276821358299
 31
0.0000000000000000
  0
MTEXT
  5
274
100
AcDbEntity
  8
MAIN0
  6
BYBLOCK
 62
0
100
AcDbMText
 10
937.5819401762269
 20
646.0776819927787
 30
0.0000000000000000
 40
9.299999713897705
 41
0.0000000000000000
 71
     5
 72
     1
  1
\A1;30
 11
1.000000000000000
 21
0.0000000000000000
 31
0.0000000000000000
  7
STANDARD
  0
ENDBLK
  5
275
100
AcDbEntity
  8
MAIN0
  6
CONTINUOUS
 62
3
100
AcDbBlockEnd
  0
BLOCK
  5
277
100
AcDbEntity
  8
MAIN0
  6
CONTINUOUS
 62
3
100
AcDbBlockBegin
  2
*D35
 70
    65
 10
0.0
 20
0.0
 30
0.0
  0
LINE
  5
278
100
AcDbEntity
  8
MAIN0
  6
BYBLOCK
 62
0
100
AcDbLine
 10
952.5819401762177
 20
616.4668311387463
 30
0.0000000000000000
 11
952.5819401762177
 21
646.9276821358299
 31
0.0000000000000000
  0
LINE
  5
279
100
AcDbEntity
  8
MAIN0
  6
BYBLOCK
 62
0
100
AcDbLine
 10
958.5819401762177
 20
640.9276821358299
 30
0.0000000000000000
 11
1018.581940176212
 21
640.9276821358299
 31
0.0000000000000000
  0
INSERT
  5
27A
100
AcDbEntity
  8
MAIN0
  6
BYBLOCK
 62
0
100
AcDbBlockReference
  2
_OPEN
 10
952.5819401762177
 20
640.9276821358299
 30
0.0000000000000000
 41
6.000000000000000
 42
6.000000000000000
 43
6.000000000000000
 50
180.0000000000000
  0
INSERT
  5
27B
100
AcDbEntity
  8
MAIN0
  6
BYBLOCK
 62
0
100
AcDbBlockReference
  2
_OPEN
 10
1024.581940176212
 20
640.9276821358299
 30
0.0000000000000000
 41
6.000000000000000
 42
6.000000000000000
 43
6.000000000000000
 50
0.0000000000000000
  0
LINE
  5
27C
100
AcDbEntity
  8
MAIN0
  6
BYBLOCK
 62
0
100
AcDbLine
 10
1024.581940176212
 20
625.9668311387468
 30
0.0000000000000000
 11
1024.581940176212
 21
646.9276821358299
 31
0.0000000000000000
  0
MTEXT
  5
27D
100
AcDbEntity
  8
MAIN0
  6
BYBLOCK
 62
0
100
AcDbMText
 10
988.5819401762149
 20
646.0776819927787
 30
0.0000000000000000
 40
9.299999713897705
 41
0.0000000000000000
 71
     5
 72
     1
  1
\A1;72
 11
1.000000000000000
 21
0.0000000000000000
 31
0.0000000000000000
  7
STANDARD
  0
ENDBLK
  5
27E
100
AcDbEntity
  8
MAIN0
  6
CONTINUOUS
 62
3
100
AcDbBlockEnd
  0
BLOCK
  5
280
100
AcDbEntity
  8
MAIN0
  6
CONTINUOUS
 62
3
100
AcDbBlockBegin
  2
*D36
 70
    65
 10
0.0
 20
0.0
 30
0.0
  0
LINE
  5
281
100
AcDbEntity
  8
MAIN0
  6
BYBLOCK
 62
0
100
AcDbLine
 10
907.5819401762357
 20
445.9668311387465
 30
0.0000000000000000
 11
907.5819401762357
 21
664.0466814164138
 31
0.0000000000000000
  0
LINE
  5
282
100
AcDbEntity
  8
MAIN0
  6
BYBLOCK
 62
0
100
AcDbLine
 10
913.5819401762357
 20
658.0466814164138
 30
0.0000000000000000
 11
1018.581940176212
 21
658.0466814164138
 31
0.0000000000000000
  0
INSERT
  5
283
100
AcDbEntity
  8
MAIN0
  6
BYBLOCK
 62
0
100
AcDbBlockReference
  2
_OPEN
 10
907.5819401762357
 20
658.0466814164138
 30
0.0000000000000000
 41
6.000000000000000
 42
6.000000000000000
 43
6.000000000000000
 50
180.0000000000000
  0
INSERT
  5
284
100
AcDbEntity
  8
MAIN0
  6
BYBLOCK
 62
0
100
AcDbBlockReference
  2
_OPEN
 10
1024.581940176212
 20
658.0466814164138
 30
0.0000000000000000
 41
6.000000000000000
 42
6.000000000000000
 43
6.000000000000000
 50
0.0000000000000000
  0
LINE
  5
285
100
AcDbEntity
  8
MAIN0
  6
BYBLOCK
 62
0
100
AcDbLine
 10
1024.581940176212
 20
625.9668311387468
 30
0.0000000000000000
 11
1024.581940176212
 21
664.0466814164138
 31
0.0000000000000000
  0
MTEXT
  5
286
100
AcDbEntity
  8
MAIN0
  6
BYBLOCK
 62
0
100
AcDbMText
 10
966.0819401762237
 20
663.1966812733626
 30
0.0000000000000000
 40
9.299999713897705
 41
0.0000000000000000
 71
     5
 72
     1
  1
\A1;117
 11
1.000000000000000
 21
0.0000000000000000
 31
0.0000000000000000
  7
STANDARD
  0
ENDBLK
  5
287
100
AcDbEntity
  8
MAIN0
  6
CONTINUOUS
 62
3
100
AcDbBlockEnd
  0
BLOCK
  5
289
100
AcDbEntity
  8
MAIN0
  6
CONTINUOUS
 62
3
100
AcDbBlockBegin
  2
*D37
 70
    65
 10
0.0
 20
0.0
 30
0.0
  0
LINE
  5
28A
100
AcDbEntity
  8
MAIN0
  6
BYBLOCK
 62
0
100
AcDbLine
 10
427.5023149380581
 20
679.1661220443452
 30
0.0000000000000000
 11
427.5023149380581
 21
585.4292282976900
 31
0.0000000000000000
  0
LINE
  5
28B
100
AcDbEntity
  8
MAIN0
  6
BYBLOCK
 62
0
100
AcDbLine
 10
433.5023149380581
 20
591.4292282976900
 30
0.0000000000000000
 11
460.5023149380580
 21
591.4292282976900
 31
0.0000000000000000
  0
INSERT
  5
28C
100
AcDbEntity
  8
MAIN0
  6
BYBLOCK
 62
0
100
AcDbBlockReference
  2
_OPEN
 10
427.5023149380581
 20
591.4292282976900
 30
0.0000000000000000
 41
6.000000000000000
 42
6.000000000000000
 43
6.000000000000000
 50
180.0000000000000
  0
INSERT
  5
28D
100
AcDbEntity
  8
MAIN0
  6
BYBLOCK
 62
0
100
AcDbBlockReference
  2
_OPEN
 10
466.5023149380580
 20
591.4292282976900
 30
0.0000000000000000
 41
6.000000000000000
 42
6.000000000000000
 43
6.000000000000000
 50
0.0000000000000000
  0
LINE
  5
28E
100
AcDbEntity
  8
MAIN0
  6
BYBLOCK
 62
0
100
AcDbLine
 10
466.5023149380580
 20
626.6243878662306
 30
0.0000000000000000
 11
466.5023149380580
 21
585.4292282976900
 31
0.0000000000000000
  0
MTEXT
  5
28F
100
AcDbEntity
  8
MAIN0
  6
BYBLOCK
 62
0
100
AcDbMText
 10
447.0023149380580
 20
596.5792281546388
 30
0.0000000000000000
 40
9.299999713897705
 41
0.0000000000000000
 71
     5
 72
     1
  1
\A1;39
 11
1.000000000000000
 21
0.0000000000000000
 31
0.0000000000000000
  7
STANDARD
  0
ENDBLK
  5
290
100
AcDbEntity
  8
MAIN0
  6
CONTINUOUS
 62
3
100
AcDbBlockEnd
  0
BLOCK
  5
293
100
AcDbEntity
  8
MAIN0
  6
CONTINUOUS
 62
3
100
AcDbBlockBegin
  2
*D38
 70
    65
 10
0.0
 20
0.0
 30
0.0
  0
LINE
  5
294
100
AcDbEntity
  8
MAIN0
  6
BYBLOCK
 62
0
100
AcDbLine
 10
387.5023149380588
 20
323.3392586815918
 30
0.0000000000000000
 11
387.5023149380588
 21
210.6709547363821
 31
0.0000000000000000
  0
LINE
  5
295
100
AcDbEntity
  8
MAIN0
  6
BYBLOCK
 62
0
100
AcDbLine
 10
393.5023149380588
 20
216.6709547363821
 30
0.0000000000000000
 11
603.0023149380588
 21
216.6709547363821
 31
0.0000000000000000
  0
INSERT
  5
296
100
AcDbEntity
  8
MAIN0
  6
BYBLOCK
 62
0
100
AcDbBlockReference
  2
_OPEN
 10
387.5023149380588
 20
216.6709547363821
 30
0.0000000000000000
 41
6.000000000000000
 42
6.000000000000000
 43
6.000000000000000
 50
180.0000000000000
  0
INSERT
  5
297
100
AcDbEntity
  8
MAIN0
  6
BYBLOCK
 62
0
100
AcDbBlockReference
  2
_OPEN
 10
609.0023149380588
 20
216.6709547363821
 30
0.0000000000000000
 41
6.000000000000000
 42
6.000000000000000
 43
6.000000000000000
 50
0.0000000000000000
  0
LINE
  5
298
100
AcDbEntity
  8
MAIN0
  6
BYBLOCK
 62
0
100
AcDbLine
 10
609.0023149380588
 20
311.9919186601932
 30
0.0000000000000000
 11
609.0023149380588
 21
210.6709547363821
 31
0.0000000000000000
  0
MTEXT
  5
299
100
AcDbEntity
  8
MAIN0
  6
BYBLOCK
 62
0
100
AcDbMText
 10
498.2523149380588
 20
221.8209545933310
 30
0.0000000000000000
 40
9.299999713897705
 41
0.0000000000000000
 71
     5
 72
     1
  1
\A1;221.5
 11
1.000000000000000
 21
0.0000000000000000
 31
0.0000000000000000
  7
STANDARD
  0
ENDBLK
  5
29A
100
AcDbEntity
  8
MAIN0
  6
CONTINUOUS
 62
3
100
AcDbBlockEnd
  0
BLOCK
  5
29C
100
AcDbEntity
  8
MAIN0
  6
CONTINUOUS
 62
3
100
AcDbBlockBegin
  2
*D39
 70
    65
 10
0.0
 20
0.0
 30
0.0
  0
LINE
  5
29D
100
AcDbEntity
  8
MAIN0
  6
BYBLOCK
 62
0
100
AcDbLine
 10
609.0023149380588
 20
311.9919186601932
 30
0.0000000000000000
 11
609.0023149380588
 21
210.6709547363821
 31
0.0000000000000000
  0
LINE
  5
29E
100
AcDbEntity
  8
MAIN0
  6
BYBLOCK
 62
0
100
AcDbLine
 10
615.0023149380588
 20
216.6709547363821
 30
0.0000000000000000
 11
833.0023149380587
 21
216.6709547363821
 31
0.0000000000000000
  0
INSERT
  5
29F
100
AcDbEntity
  8
MAIN0
  6
BYBLOCK
 62
0
100
AcDbBlockReference
  2
_OPEN
 10
609.0023149380588
 20
216.6709547363821
 30
0.0000000000000000
 41
6.000000000000000
 42
6.000000000000000
 43
6.000000000000000
 50
180.0000000000000
  0
INSERT
  5
2A0
100
AcDbEntity
  8
MAIN0
  6
BYBLOCK
 62
0
100
AcDbBlockReference
  2
_OPEN
 10
839.0023149380587
 20
216.6709547363821
 30
0.0000000000000000
 41
6.000000000000000
 42
6.000000000000000
 43
6.000000000000000
 50
0.0000000000000000
  0
LINE
  5
2A1
100
AcDbEntity
  8
MAIN0
  6
BYBLOCK
 62
0
100
AcDbLine
 10
839.0023149380587
 20
363.3392586815917
 30
0.0000000000000000
 11
839.0023149380587
 21
210.6709547363821
 31
0.0000000000000000
  0
MTEXT
  5
2A2
100
AcDbEntity
  8
MAIN0
  6
BYBLOCK
 62
0
100
AcDbMText
 10
724.0023149380588
 20
221.8209545933310
 30
0.0000000000000000
 40
9.299999713897705
 41
0.0000000000000000
 71
     5
 72
     1
  1
\A1;230
 11
1.000000000000000
 21
0.0000000000000000
 31
0.0000000000000000
  7
STANDARD
  0
ENDBLK
  5
2A3
100
AcDbEntity
  8
MAIN0
  6
CONTINUOUS
 62
3
100
AcDbBlockEnd
  0
BLOCK
  5
2A5
100
AcDbEntity
  8
MAIN0
  6
CONTINUOUS
 62
3
100
AcDbBlockBegin
  2
*D40
 70
    65
 10
0.0
 20
0.0
 30
0.0
  0
LINE
  5
2A6
100
AcDbEntity
  8
MAIN0
  6
BYBLOCK
 62
0
100
AcDbLine
 10
466.5023149380587
 20
423.3392586815903
 30
0.0000000000000000
 11
466.5023149380587
 21
269.7942185944739
 31
0.0000000000000000
  0
LINE
  5
2A7
100
AcDbEntity
  8
MAIN0
  6
BYBLOCK
 62
0
100
AcDbLine
 10
472.5023149380587
 20
275.7942185944739
 30
0.0000000000000000
 11
603.0023149380588
 21
275.7942185944739
 31
0.0000000000000000
  0
INSERT
  5
2A8
100
AcDbEntity
  8
MAIN0
  6
BYBLOCK
 62
0
100
AcDbBlockReference
  2
_OPEN
 10
466.5023149380587
 20
275.7942185944739
 30
0.0000000000000000
 41
6.000000000000000
 42
6.000000000000000
 43
6.000000000000000
 50
180.0000000000000
  0
INSERT
  5
2A9
100
AcDbEntity
  8
MAIN0
  6
BYBLOCK
 62
0
100
AcDbBlockReference
  2
_OPEN
 10
609.0023149380588
 20
275.7942185944739
 30
0.0000000000000000
 41
6.000000000000000
 42
6.000000000000000
 43
6.000000000000000
 50
0.0000000000000000
  0
LINE
  5
2AA
100
AcDbEntity
  8
MAIN0
  6
BYBLOCK
 62
0
100
AcDbLine
 10
609.0023149380588
 20
311.9919186601932
 30
0.0000000000000000
 11
609.0023149380588
 21
269.7942185944739
 31
0.0000000000000000
  0
MTEXT
  5
2AB
100
AcDbEntity
  8
MAIN0
  6
BYBLOCK
 62
0
100
AcDbMText
 10
537.7523149380587
 20
280.9442184514228
 30
0.0000000000000000
 40
9.299999713897705
 41
0.0000000000000000
 71
     5
 72
     1
  1
\A1;142.5
 11
1.000000000000000
 21
0.0000000000000000
 31
0.0000000000000000
  7
STANDARD
  0
ENDBLK
  5
2AC
100
AcDbEntity
  8
MAIN0
  6
CONTINUOUS
 62
3
100
AcDbBlockEnd
  0
BLOCK
  5
2AE
100
AcDbEntity
  8
MAIN0
  6
CONTINUOUS
 62
3
100
AcDbBlockBegin
  2
*D41
 70
    65
 10
0.0
 20
0.0
 30
0.0
  0
LINE
  5
2AF
100
AcDbEntity
  8
MAIN0
  6
BYBLOCK
 62
0
100
AcDbLine
 10
609.0023149380588
 20
311.9919186601932
 30
0.0000000000000000
 11
609.0023149380588
 21
269.7942185944739
 31
0.0000000000000000
  0
LINE
  5
2B0
100
AcDbEntity
  8
MAIN0
  6
BYBLOCK
 62
0
100
AcDbLine
 10
615.0023149380588
 20
275.7942185944739
 30
0.0000000000000000
 11
746.5023149380586
 21
275.7942185944739
 31
0.0000000000000000
  0
INSERT
  5
2B1
100
AcDbEntity
  8
MAIN0
  6
BYBLOCK
 62
0
100
AcDbBlockReference
  2
_OPEN
 10
609.0023149380588
 20
275.7942185944739
 30
0.0000000000000000
 41
6.000000000000000
 42
6.000000000000000
 43
6.000000000000000
 50
180.0000000000000
  0
INSERT
  5
2B2
100
AcDbEntity
  8
MAIN0
  6
BYBLOCK
 62
0
100
AcDbBlockReference
  2
_OPEN
 10
752.5023149380586
 20
275.7942185944739
 30
0.0000000000000000
 41
6.000000000000000
 42
6.000000000000000
 43
6.000000000000000
 50
0.0000000000000000
  0
LINE
  5
2B3
100
AcDbEntity
  8
MAIN0
  6
BYBLOCK
 62
0
100
AcDbLine
 10
752.5023149380586
 20
323.3392586815917
 30
0.0000000000000000
 11
752.5023149380586
 21
269.7942185944739
 31
0.0000000000000000
  0
MTEXT
  5
2B4
100
AcDbEntity
  8
MAIN0
  6
BYBLOCK
 62
0
100
AcDbMText
 10
680.7523149380587
 20
280.9442184514228
 30
0.0000000000000000
 40
9.299999713897705
 41
0.0000000000000000
 71
     5
 72
     1
  1
\A1;143.5
 11
1.000000000000000
 21
0.0000000000000000
 31
0.0000000000000000
  7
STANDARD
  0
ENDBLK
  5
2B5
100
AcDbEntity
  8
MAIN0
  6
CONTINUOUS
 62
3
100
AcDbBlockEnd
  0
BLOCK
  5
2B7
100
AcDbEntity
  8
MAIN0
  6
CONTINUOUS
 62
3
100
AcDbBlockBegin
  2
*D42
 70
    65
 10
0.0
 20
0.0
 30
0.0
  0
LINE
  5
2B8
100
AcDbEntity
  8
MAIN0
  6
BYBLOCK
 62
0
100
AcDbLine
 10
654.2238320880265
 20
331.7392587173545
 30
0.0000000000000000
 11
654.2238320880265
 21
392.7392587170818
 31
0.0000000000000000
  0
INSERT
  5
2B9
100
AcDbEntity
  8
MAIN0
  6
BYBLOCK
 62
0
100
AcDbBlockReference
  2
_OPEN
 10
654.2238320880265
 20
325.7392587173545
 30
0.0000000000000000
 41
6.000000000000000
 42
6.000000000000000
 43
6.000000000000000
 50
270.0000000000000
  0
INSERT
  5
2BA
100
AcDbEntity
  8
MAIN0
  6
BYBLOCK
 62
0
100
AcDbBlockReference
  2
_OPEN
 10
654.2238320880265
 20
398.7392587170818
 30
0.0000000000000000
 41
6.000000000000000
 42
6.000000000000000
 43
6.000000000000000
 50
90.00000000000000
  0
LINE
  5
2BB
100
AcDbEntity
  8
MAIN0
  6
BYBLOCK
 62
0
100
AcDbLine
 10
666.9877264292443
 20
398.7392587170818
 30
0.0000000000000000
 11
648.2238320880265
 21
398.7392587170818
 31
0.0000000000000000
  0
MTEXT
  5
2BC
100
AcDbEntity
  8
MAIN0
  6
BYBLOCK
 62
0
100
AcDbMText
 10
648.0738322310776
 20
357.2884482487865
 30
0.0000000000000000
 40
9.299999713897705
 41
0.0000000000000000
 71
     5
 72
     1
  1
\A1;73
 11
6.123233995736766e-017
 21
1.000000000000000
 31
0.0000000000000000
  7
STANDARD
  0
ENDBLK
  5
2BD
100
AcDbEntity
  8
MAIN0
  6
CONTINUOUS
 62
3
100
AcDbBlockEnd
  0
BLOCK
  5
2BF
100
AcDbEntity
  8
MAIN0
  6
CONTINUOUS
 62
3
100
AcDbBlockBegin
  2
*D43
 70
    65
 10
0.0
 20
0.0
 30
0.0
  0
LINE
  5
2C0
100
AcDbEntity
  8
MAIN0
  6
BYBLOCK
 62
0
100
AcDbLine
 10
666.9877264292443
 20
398.7392587170818
 30
0.0000000000000000
 11
648.2238320880265
 21
398.7392587170818
 31
0.0000000000000000
  0
LINE
  5
2C1
100
AcDbEntity
  8
MAIN0
  6
BYBLOCK
 62
0
100
AcDbLine
 10
654.2238320880265
 20
404.7392587170818
 30
0.0000000000000000
 11
654.2238320880265
 21
419.7392587173545
 31
0.0000000000000000
  0
INSERT
  5
2C2
100
AcDbEntity
  8
MAIN0
  6
BYBLOCK
 62
0
100
AcDbBlockReference
  2
_OPEN
 10
654.2238320880265
 20
398.7392587170818
 30
0.0000000000000000
 41
6.000000000000000
 42
6.000000000000000
 43
6.000000000000000
 50
270.0000000000000
  0
INSERT
  5
2C3
100
AcDbEntity
  8
MAIN0
  6
BYBLOCK
 62
0
100
AcDbBlockReference
  2
_OPEN
 10
654.2238320880265
 20
425.7392587173545
 30
0.0000000000000000
 41
6.000000000000000
 42
6.000000000000000
 43
6.000000000000000
 50
90.00000000000000
  0
LINE
  5
2C4
100
AcDbEntity
  8
MAIN0
  6
BYBLOCK
 62
0
100
AcDbLine
 10
654.2238320880265
 20
425.7392587173545
 30
0.0000000000000000
 11
654.2238320880265
 21
441.7368283925076
 31
0.0000000000000000
  0
LINE
  5
2C5
100
AcDbEntity
  8
MAIN0
  6
BYBLOCK
 62
0
100
AcDbLine
 10
616.9023149738214
 20
425.7392587173545
 30
0.0000000000000000
 11
660.2238320880265
 21
425.7392587173545
 31
0.0000000000000000
  0
MTEXT
  5
2C6
100
AcDbEntity
  8
MAIN0
  6
BYBLOCK
 62
0
100
AcDbMText
 10
648.0738322310776
 20
435.5868285355588
 30
0.0000000000000000
 40
9.299999713897705
 41
0.0000000000000000
 71
     5
 72
     1
  1
\A1;27
 11
6.123233995736766e-017
 21
1.000000000000000
 31
0.0000000000000000
  7
STANDARD
  0
ENDBLK
  5
2C7
100
AcDbEntity
  8
MAIN0
  6
CONTINUOUS
 62
3
100
AcDbBlockEnd
  0
BLOCK
  5
2C9
100
AcDbEntity
  8
MAIN0
  6
CONTINUOUS
 62
3
100
AcDbBlockBegin
  2
*D44
 70
    65
 10
0.0
 20
0.0
 30
0.0
  0
LINE
  5
2CA
100
AcDbEntity
  8
MAIN0
  6
BYBLOCK
 62
0
100
AcDbLine
 10
1002.585048047215
 20
353.3392586815916
 30
0.0000000000000000
 11
1002.585048047215
 21
252.6297256012429
 31
0.0000000000000000
  0
LINE
  5
2CB
100
AcDbEntity
  8
MAIN0
  6
BYBLOCK
 62
0
100
AcDbLine
 10
1008.585048047215
 20
258.6297256012429
 30
0.0000000000000000
 11
1067.585048047215
 21
258.6297256012429
 31
0.0000000000000000
  0
INSERT
  5
2CC
100
AcDbEntity
  8
MAIN0
  6
BYBLOCK
 62
0
100
AcDbBlockReference
  2
_OPEN
 10
1002.585048047215
 20
258.6297256012429
 30
0.0000000000000000
 41
6.000000000000000
 42
6.000000000000000
 43
6.000000000000000
 50
180.0000000000000
  0
INSERT
  5
2CD
100
AcDbEntity
  8
MAIN0
  6
BYBLOCK
 62
0
100
AcDbBlockReference
  2
_OPEN
 10
1073.585048047215
 20
258.6297256012429
 30
0.0000000000000000
 41
6.000000000000000
 42
6.000000000000000
 43
6.000000000000000
 50
0.0000000000000000
  0
LINE
  5
2CE
100
AcDbEntity
  8
MAIN0
  6
BYBLOCK
 62
0
100
AcDbLine
 10
1073.585048047215
 20
323.3392586815917
 30
0.0000000000000000
 11
1073.585048047215
 21
252.6297256012429
 31
0.0000000000000000
  0
MTEXT
  5
2CF
100
AcDbEntity
  8
MAIN0
  6
BYBLOCK
 62
0
100
AcDbMText
 10
1038.085048047215
 20
263.7797254581917
 30
0.0000000000000000
 40
9.299999713897705
 41
0.0000000000000000
 71
     5
 72
     1
  1
\A1;71
 11
1.000000000000000
 21
0.0000000000000000
 31
0.0000000000000000
  7
STANDARD
  0
ENDBLK
  5
2D0
100
AcDbEntity
  8
MAIN0
  6
CONTINUOUS
 62
3
100
AcDbBlockEnd
  0
BLOCK
  5
2D2
100
AcDbEntity
  8
MAIN0
  6
CONTINUOUS
 62
3
100
AcDbBlockBegin
  2
*D45
 70
    65
 10
0.0
 20
0.0
 30
0.0
  0
LINE
  5
2D3
100
AcDbEntity
  8
MAIN0
  6
BYBLOCK
 62
0
100
AcDbLine
 10
1073.585048047215
 20
323.3392586815917
 30
0.0000000000000000
 11
1073.585048047215
 21
252.6297256012429
 31
0.0000000000000000
  0
LINE
  5
2D4
100
AcDbEntity
  8
MAIN0
  6
BYBLOCK
 62
0
100
AcDbLine
 10
1079.585048047215
 20
258.6297256012429
 30
0.0000000000000000
 11
1193.585048047215
 21
258.6297256012429
 31
0.0000000000000000
  0
INSERT
  5
2D5
100
AcDbEntity
  8
MAIN0
  6
BYBLOCK
 62
0
100
AcDbBlockReference
  2
_OPEN
 10
1073.585048047215
 20
258.6297256012429
 30
0.0000000000000000
 41
6.000000000000000
 42
6.000000000000000
 43
6.000000000000000
 50
180.0000000000000
  0
INSERT
  5
2D6
100
AcDbEntity
  8
MAIN0
  6
BYBLOCK
 62
0
100
AcDbBlockReference
  2
_OPEN
 10
1199.585048047215
 20
258.6297256012429
 30
0.0000000000000000
 41
6.000000000000000
 42
6.000000000000000
 43
6.000000000000000
 50
0.0000000000000000
  0
LINE
  5
2D7
100
AcDbEntity
  8
MAIN0
  6
BYBLOCK
 62
0
100
AcDbLine
 10
1199.585048047215
 20
323.3392586815917
 30
0.0000000000000000
 11
1199.585048047215
 21
252.6297256012429
 31
0.0000000000000000
  0
MTEXT
  5
2D8
100
AcDbEntity
  8
MAIN0
  6
BYBLOCK
 62
0
100
AcDbMText
 10
1136.585048047215
 20
263.7797254581917
 30
0.0000000000000000
 40
9.299999713897705
 41
0.0000000000000000
 71
     5
 72
     1
  1
\A1;126
 11
1.000000000000000
 21
0.0000000000000000
 31
0.0000000000000000
  7
STANDARD
  0
ENDBLK
  5
2D9
100
AcDbEntity
  8
MAIN0
  6
CONTINUOUS
 62
3
100
AcDbBlockEnd
  0
BLOCK
  5
2DB
100
AcDbEntity
  8
MAIN0
  6
CONTINUOUS
 62
3
100
AcDbBlockBegin
  2
D46
 70
    64
 10
0.0
 20
0.0
 30
0.0
  0
LINE
  5
2DC
100
AcDbEntity
  8
MAIN0
  6
BYBLOCK
 62
0
100
AcDbLine
 10
20.75376864100849
 20
-74.12958065234335
 30
0.0000000000000000
 11
-134.0000000000000
 21
-74.12958065234335
 31
0.0000000000000000
  0
LINE
  5
2DD
100
AcDbEntity
  8
MAIN0
  6
BYBLOCK
 62
0
100
AcDbLine
 10
-128.0000000000000
 20
-75.92958072386892
 30
0.0000000000000000
 11
-134.0000000000000
 21
-74.12958065234335
 31
0.0000000000000000
  0
LINE
  5
2DE
100
AcDbEntity
  8
MAIN0
  6
BYBLOCK
 62
0
100
AcDbLine
 10
-134.0000000000000
 20
-74.12958065234335
 30
0.0000000000000000
 11
-128.0000000000000
 21
-72.32958058081778
 31
0.0000000000000000
  0
LINE
  5
2DF
100
AcDbEntity
  8
MAIN0
  6
BYBLOCK
 62
0
100
AcDbLine
 10
-134.0000000000000
 20
40.12305973841683
 30
0.0000000000000000
 11
-134.0000000000000
 21
-80.12958065234335
 31
0.0000000000000000
  0
MTEXT
  5
2E0
100
AcDbEntity
  8
MAIN0
  6
BYBLOCK
 62
0
100
AcDbMText
 10
13.00376863728320
 20
-68.97958079539450
 30
0.0000000000000000
 40
9.299999713897705
 41
0.0000000000000000
 71
     5
 72
     1
  1
\A1;（268）
 11
1.000000000000000
 21
0.0000000000000000
 31
0.0000000000000000
  7
KNJYOKO
  0
ENDBLK
  5
2E1
100
AcDbEntity
  8
MAIN0
  6
CONTINUOUS
 62
3
100
AcDbBlockEnd
  0
BLOCK
  5
2EB
100
AcDbEntity
  8
MAIN0
  6
CONTINUOUS
 62
3
100
AcDbBlockBegin
  2
*D47
 70
    65
 10
0.0
 20
0.0
 30
0.0
  0
LINE
  5
2EC
100
AcDbEntity
  8
MAIN0
  6
BYBLOCK
 62
0
100
AcDbLine
 10
908.5751552790281
 20
358.1392587531507
 30
0.0000000000000000
 11
908.5751552790281
 21
402.6439580023313
 31
0.0000000000000000
  0
LINE
  5
2ED
100
AcDbEntity
  8
MAIN0
  6
BYBLOCK
 62
0
100
AcDbLine
 10
914.5751552790281
 20
396.6439580023313
 30
0.0000000000000000
 11
947.5751552790276
 21
396.6439580023313
 31
0.0000000000000000
  0
INSERT
  5
2EE
100
AcDbEntity
  8
MAIN0
  6
BYBLOCK
 62
0
100
AcDbBlockReference
  2
_OPEN
 10
908.5751552790281
 20
396.6439580023313
 30
0.0000000000000000
 41
6.000000000000000
 42
6.000000000000000
 43
6.000000000000000
 50
180.0000000000000
  0
INSERT
  5
2EF
100
AcDbEntity
  8
MAIN0
  6
BYBLOCK
 62
0
100
AcDbBlockReference
  2
_OPEN
 10
953.5751552790276
 20
396.6439580023313
 30
0.0000000000000000
 41
6.000000000000000
 42
6.000000000000000
 43
6.000000000000000
 50
0.0000000000000000
  0
LINE
  5
2F0
100
AcDbEntity
  8
MAIN0
  6
BYBLOCK
 62
0
100
AcDbLine
 10
953.5751552790276
 20
358.1392587531368
 30
0.0000000000000000
 11
953.5751552790276
 21
402.6439580023313
 31
0.0000000000000000
  0
MTEXT
  5
2F1
100
AcDbEntity
  8
MAIN0
  6
BYBLOCK
 62
0
100
AcDbMText
 10
931.0751552790279
 20
401.7939578592802
 30
0.0000000000000000
 40
9.299999713897705
 41
0.0000000000000000
 71
     5
 72
     1
  1
\A1;45
 11
1.000000000000000
 21
0.0000000000000000
 31
0.0000000000000000
  7
STANDARD
  0
ENDBLK
  5
2F2
100
AcDbEntity
  8
MAIN0
  6
CONTINUOUS
 62
3
100
AcDbBlockEnd
  0
BLOCK
  5
2F4
100
AcDbEntity
  8
MAIN0
  6
CONTINUOUS
 62
3
100
AcDbBlockBegin
  2
*D48
 70
    65
 10
0.0
 20
0.0
 30
0.0
  0
LINE
  5
2F5
100
AcDbEntity
  8
MAIN0
  6
BYBLOCK
 62
0
100
AcDbLine
 10
1067.985048082938
 20
218.0192920401815
 30
0.0000000000000000
 11
1097.448727186993
 21
218.0192920401910
 31
0.0000000000000000
  0
LINE
  5
2F6
100
AcDbEntity
  8
MAIN0
  6
BYBLOCK
 62
0
100
AcDbLine
 10
1091.448727186993
 20
218.0192920401890
 30
0.0000000000000000
 11
1091.448727186993
 21
200.5192920401892
 31
0.0000000000000000
  0
INSERT
  5
2F7
100
AcDbEntity
  8
MAIN0
  6
BYBLOCK
 62
0
100
AcDbBlockReference
  2
_OPEN
 10
1091.448727186993
 20
218.0192920401890
 30
0.0000000000000000
 41
6.000000000000000
 42
6.000000000000000
 43
6.000000000000000
 50
270.0000000000000
  0
INSERT
  5
2F8
100
AcDbEntity
  8
MAIN0
  6
BYBLOCK
 62
0
100
AcDbBlockReference
  2
_OPEN
 10
1091.448727186993
 20
200.5192920401892
 30
0.0000000000000000
 41
6.000000000000000
 42
6.000000000000000
 43
6.000000000000000
 50
90.00000000000000
  0
LINE
  5
2F9
100
AcDbEntity
  8
MAIN0
  6
BYBLOCK
 62
0
100
AcDbLine
 10
1091.448727186993
 20
224.0192920401890
 30
0.0000000000000000
 11
1091.448727186993
 21
227.0192920401890
 31
0.0000000000000000
  0
LINE
  5
2FA
100
AcDbEntity
  8
MAIN0
  6
BYBLOCK
 62
0
100
AcDbLine
 10
1091.448727186993
 20
194.5192920401892
 30
0.0000000000000000
 11
1091.448727186993
 21
168.4250486397539
 31
0.0000000000000000
  0
LINE
  5
2FB
100
AcDbEntity
  8
MAIN0
  6
BYBLOCK
 62
0
100
AcDbLine
 10
1067.985048082950
 20
200.5192920401816
 30
0.0000000000000000
 11
1097.448727186993
 21
200.5192920401911
 31
0.0000000000000000
  0
MTEXT
  5
2FC
100
AcDbEntity
  8
MAIN0
  6
BYBLOCK
 62
0
100
AcDbMText
 10
1085.298727330044
 20
179.3750489258561
 30
0.0000000000000000
 40
9.299999713897705
 41
0.0000000000000000
 71
     5
 72
     1
  1
\A1;17.5
 11
6.123233995736766e-017
 21
1.000000000000000
 31
0.0000000000000000
  7
STANDARD
  0
ENDBLK
  5
2FD
100
AcDbEntity
  8
MAIN0
  6
CONTINUOUS
 62
3
100
AcDbBlockEnd
  0
BLOCK
  5
2FF
100
AcDbEntity
  8
MAIN0
  6
CONTINUOUS
 62
3
100
AcDbBlockBegin
  2
*D49
 70
    65
 10
0.0
 20
0.0
 30
0.0
  0
LINE
  5
300
100
AcDbEntity
  8
MAIN0
  6
BYBLOCK
 62
0
100
AcDbLine
 10
1067.985048082934
 20
223.5192920401811
 30
0.0000000000000000
 11
1120.375382935473
 21
223.5192920401900
 31
0.0000000000000000
  0
LINE
  5
301
100
AcDbEntity
  8
MAIN0
  6
BYBLOCK
 62
0
100
AcDbLine
 10
1114.375382935473
 20
223.5192920401889
 30
0.0000000000000000
 11
1114.375382935473
 21
195.0192920401892
 31
0.0000000000000000
  0
INSERT
  5
302
100
AcDbEntity
  8
MAIN0
  6
BYBLOCK
 62
0
100
AcDbBlockReference
  2
_OPEN
 10
1114.375382935473
 20
223.5192920401889
 30
0.0000000000000000
 41
6.000000000000000
 42
6.000000000000000
 43
6.000000000000000
 50
270.0000000000000
  0
INSERT
  5
303
100
AcDbEntity
  8
MAIN0
  6
BYBLOCK
 62
0
100
AcDbBlockReference
  2
_OPEN
 10
1114.375382935473
 20
195.0192920401892
 30
0.0000000000000000
 41
6.000000000000000
 42
6.000000000000000
 43
6.000000000000000
 50
90.00000000000000
  0
LINE
  5
304
100
AcDbEntity
  8
MAIN0
  6
BYBLOCK
 62
0
100
AcDbLine
 10
1114.375382935473
 20
229.5192920401889
 30
0.0000000000000000
 11
1114.375382935473
 21
232.5192920401889
 31
0.0000000000000000
  0
LINE
  5
305
100
AcDbEntity
  8
MAIN0
  6
BYBLOCK
 62
0
100
AcDbLine
 10
1114.375382935473
 20
189.0192920401892
 30
0.0000000000000000
 11
1114.375382935473
 21
186.0192920401892
 31
0.0000000000000000
  0
LINE
  5
306
100
AcDbEntity
  8
MAIN0
  6
BYBLOCK
 62
0
100
AcDbLine
 10
1067.985048082954
 20
195.0192920401813
 30
0.0000000000000000
 11
1120.375382935473
 21
195.0192920401902
 31
0.0000000000000000
  0
MTEXT
  5
307
100
AcDbEntity
  8
MAIN0
  6
BYBLOCK
 62
0
100
AcDbMText
 10
1109.225383078524
 20
209.2692920401890
 30
0.0000000000000000
 40
9.299999713897705
 41
0.0000000000000000
 71
     5
 72
     1
  1
\A1;28.5
 11
6.123233995736766e-017
 21
1.000000000000000
 31
0.0000000000000000
  7
STANDARD
  0
ENDBLK
  5
308
100
AcDbEntity
  8
MAIN0
  6
CONTINUOUS
 62
3
100
AcDbBlockEnd
  0
BLOCK
  5
30A
100
AcDbEntity
  8
MAIN0
  6
CONTINUOUS
 62
3
100
AcDbBlockBegin
  2
*D50
 70
    65
 10
0.0
 20
0.0
 30
0.0
  0
LINE
  5
30B
100
AcDbEntity
  8
MAIN0
  6
BYBLOCK
 62
0
100
AcDbLine
 10
1035.585048047191
 20
192.6192920044263
 30
0.0000000000000000
 11
1035.585048047191
 21
164.1472302800502
 31
0.0000000000000000
  0
LINE
  5
30C
100
AcDbEntity
  8
MAIN0
  6
BYBLOCK
 62
0
100
AcDbLine
 10
1041.585048047191
 20
170.1472302800502
 30
0.0000000000000000
 11
1059.585048047191
 21
170.1472302800502
 31
0.0000000000000000
  0
INSERT
  5
30D
100
AcDbEntity
  8
MAIN0
  6
BYBLOCK
 62
0
100
AcDbBlockReference
  2
_OPEN
 10
1035.585048047191
 20
170.1472302800502
 30
0.0000000000000000
 41
6.000000000000000
 42
6.000000000000000
 43
6.000000000000000
 50
180.0000000000000
  0
INSERT
  5
30E
100
AcDbEntity
  8
MAIN0
  6
BYBLOCK
 62
0
100
AcDbBlockReference
  2
_OPEN
 10
1065.585048047191
 20
170.1472302800502
 30
0.0000000000000000
 41
6.000000000000000
 42
6.000000000000000
 43
6.000000000000000
 50
0.0000000000000000
  0
LINE
  5
30F
100
AcDbEntity
  8
MAIN0
  6
BYBLOCK
 62
0
100
AcDbLine
 10
1065.585048047191
 20
192.6192920044181
 30
0.0000000000000000
 11
1065.585048047191
 21
164.1472302800502
 31
0.0000000000000000
  0
MTEXT
  5
310
100
AcDbEntity
  8
MAIN0
  6
BYBLOCK
 62
0
100
AcDbMText
 10
1050.585048047191
 20
175.2972301369991
 30
0.0000000000000000
 40
9.299999713897705
 41
0.0000000000000000
 71
     5
 72
     1
  1
\A1;30
 11
1.000000000000000
 21
0.0000000000000000
 31
0.0000000000000000
  7
STANDARD
  0
ENDBLK
  5
311
100
AcDbEntity
  8
MAIN0
  6
CONTINUOUS
 62
3
100
AcDbBlockEnd
  0
BLOCK
  5
313
100
AcDbEntity
  8
MAIN0
  6
CONTINUOUS
 62
3
100
AcDbBlockBegin
  2
*D51
 70
    65
 10
0.0
 20
0.0
 30
0.0
  0
LINE
  5
314
100
AcDbEntity
  8
MAIN0
  6
BYBLOCK
 62
0
100
AcDbLine
 10
385.1023149022959
 20
325.7392587173545
 30
0.0000000000000000
 11
339.6656028436039
 21
325.7392587173545
 31
0.0000000000000000
  0
LINE
  5
315
100
AcDbEntity
  8
MAIN0
  6
BYBLOCK
 62
0
100
AcDbLine
 10
345.6656028436039
 20
331.7392587173545
 30
0.0000000000000000
 11
345.6656028436039
 21
419.7392587173545
 31
0.0000000000000000
  0
INSERT
  5
316
100
AcDbEntity
  8
MAIN0
  6
BYBLOCK
 62
0
100
AcDbBlockReference
  2
_OPEN
 10
345.6656028436039
 20
325.7392587173545
 30
0.0000000000000000
 41
6.000000000000000
 42
6.000000000000000
 43
6.000000000000000
 50
270.0000000000000
  0
INSERT
  5
317
100
AcDbEntity
  8
MAIN0
  6
BYBLOCK
 62
0
100
AcDbBlockReference
  2
_OPEN
 10
345.6656028436039
 20
425.7392587173545
 30
0.0000000000000000
 41
6.000000000000000
 42
6.000000000000000
 43
6.000000000000000
 50
90.00000000000000
  0
LINE
  5
318
100
AcDbEntity
  8
MAIN0
  6
BYBLOCK
 62
0
100
AcDbLine
 10
385.1023149022958
 20
425.7392587173545
 30
0.0000000000000000
 11
339.6656028436039
 21
425.7392587173545
 31
0.0000000000000000
  0
MTEXT
  5
319
100
AcDbEntity
  8
MAIN0
  6
BYBLOCK
 62
0
100
AcDbMText
 10
340.5156029866550
 20
375.7392587173545
 30
0.0000000000000000
 40
9.299999713897705
 41
0.0000000000000000
 71
     5
 72
     1
  1
\A1;100
 11
6.123233995736766e-017
 21
1.000000000000000
 31
0.0000000000000000
  7
STANDARD
  0
ENDBLK
  5
31A
100
AcDbEntity
  8
MAIN0
  6
CONTINUOUS
 62
3
100
AcDbBlockEnd
  0
BLOCK
  5
31C
100
AcDbEntity
  8
MAIN0
  6
CONTINUOUS
 62
3
100
AcDbBlockBegin
  2
*D52
 70
    65
 10
0.0
 20
0.0
 30
0.0
  0
LINE
  5
31D
100
AcDbEntity
  8
MAIN0
  6
BYBLOCK
 62
0
100
AcDbLine
 10
385.1023149022958
 20
425.7392587173545
 30
0.0000000000000000
 11
339.6656028436039
 21
425.7392587173545
 31
0.0000000000000000
  0
LINE
  5
31E
100
AcDbEntity
  8
MAIN0
  6
BYBLOCK
 62
0
100
AcDbLine
 10
345.6656028436039
 20
431.7392587173545
 30
0.0000000000000000
 11
345.6656028436039
 21
459.2392587173545
 31
0.0000000000000000
  0
INSERT
  5
31F
100
AcDbEntity
  8
MAIN0
  6
BYBLOCK
 62
0
100
AcDbBlockReference
  2
_OPEN
 10
345.6656028436039
 20
425.7392587173545
 30
0.0000000000000000
 41
6.000000000000000
 42
6.000000000000000
 43
6.000000000000000
 50
270.0000000000000
  0
INSERT
  5
320
100
AcDbEntity
  8
MAIN0
  6
BYBLOCK
 62
0
100
AcDbBlockReference
  2
_OPEN
 10
345.6656028436039
 20
465.2392587173545
 30
0.0000000000000000
 41
6.000000000000000
 42
6.000000000000000
 43
6.000000000000000
 50
90.00000000000000
  0
LINE
  5
321
100
AcDbEntity
  8
MAIN0
  6
BYBLOCK
 62
0
100
AcDbLine
 10
386.1023149022957
 20
465.2392587173545
 30
0.0000000000000000
 11
339.6656028436039
 21
465.2392587173545
 31
0.0000000000000000
  0
MTEXT
  5
322
100
AcDbEntity
  8
MAIN0
  6
BYBLOCK
 62
0
100
AcDbMText
 10
340.5156029866550
 20
445.4892587173545
 30
0.0000000000000000
 40
9.299999713897705
 41
0.0000000000000000
 71
     5
 72
     1
  1
\A1;39.5
 11
6.123233995736766e-017
 21
1.000000000000000
 31
0.0000000000000000
  7
STANDARD
  0
ENDBLK
  5
323
100
AcDbEntity
  8
MAIN0
  6
CONTINUOUS
 62
3
100
AcDbBlockEnd
  0
BLOCK
  5
325
100
AcDbEntity
  8
MAIN0
  6
CONTINUOUS
 62
3
100
AcDbBlockBegin
  2
*D53
 70
    65
 10
0.0
 20
0.0
 30
0.0
  0
LINE
  5
326
100
AcDbEntity
  8
MAIN0
  6
BYBLOCK
 62
0
100
AcDbLine
 10
385.1023149022959
 20
325.7392587173545
 30
0.0000000000000000
 11
310.0706274767673
 21
325.7392587173545
 31
0.0000000000000000
  0
LINE
  5
327
100
AcDbEntity
  8
MAIN0
  6
BYBLOCK
 62
0
100
AcDbLine
 10
316.0706274767673
 20
331.7392587173545
 30
0.0000000000000000
 11
316.0706274767673
 21
459.2392587173545
 31
0.0000000000000000
  0
INSERT
  5
328
100
AcDbEntity
  8
MAIN0
  6
BYBLOCK
 62
0
100
AcDbBlockReference
  2
_OPEN
 10
316.0706274767673
 20
325.7392587173545
 30
0.0000000000000000
 41
6.000000000000000
 42
6.000000000000000
 43
6.000000000000000
 50
270.0000000000000
  0
INSERT
  5
329
100
AcDbEntity
  8
MAIN0
  6
BYBLOCK
 62
0
100
AcDbBlockReference
  2
_OPEN
 10
316.0706274767673
 20
465.2392587173545
 30
0.0000000000000000
 41
6.000000000000000
 42
6.000000000000000
 43
6.000000000000000
 50
90.00000000000000
  0
LINE
  5
32A
100
AcDbEntity
  8
MAIN0
  6
BYBLOCK
 62
0
100
AcDbLine
 10
386.1023149022957
 20
465.2392587173545
 30
0.0000000000000000
 11
310.0706274767673
 21
465.2392587173545
 31
0.0000000000000000
  0
MTEXT
  5
32B
100
AcDbEntity
  8
MAIN0
  6
BYBLOCK
 62
0
100
AcDbMText
 10
310.9206276198185
 20
395.4892587173545
 30
0.0000000000000000
 40
9.299999713897705
 41
0.0000000000000000
 71
     5
 72
     1
  1
\A1;139.5
 11
6.123233995736766e-017
 21
1.000000000000000
 31
0.0000000000000000
  7
STANDARD
  0
ENDBLK
  5
32C
100
AcDbEntity
  8
MAIN0
  6
CONTINUOUS
 62
3
100
AcDbBlockEnd
  0
BLOCK
  5
32E
100
AcDbEntity
  8
MAIN0
  6
CONTINUOUS
 62
3
100
AcDbBlockBegin
  2
*D54
 70
    65
 10
0.0
 20
0.0
 30
0.0
  0
LINE
  5
32F
100
AcDbEntity
  8
MAIN0
  6
BYBLOCK
 62
0
100
AcDbLine
 10
754.9023149738215
 20
325.7392587173545
 30
0.0000000000000000
 11
889.9907412110829
 21
325.7392587173545
 31
0.0000000000000000
  0
LINE
  5
330
100
AcDbEntity
  8
MAIN0
  6
BYBLOCK
 62
0
100
AcDbLine
 10
883.9907412110829
 20
331.7392587173545
 30
0.0000000000000000
 11
883.9907412110829
 21
384.7392587164563
 31
0.0000000000000000
  0
INSERT
  5
331
100
AcDbEntity
  8
MAIN0
  6
BYBLOCK
 62
0
100
AcDbBlockReference
  2
_OPEN
 10
883.9907412110829
 20
325.7392587173545
 30
0.0000000000000000
 41
6.000000000000000
 42
6.000000000000000
 43
6.000000000000000
 50
270.0000000000000
  0
INSERT
  5
332
100
AcDbEntity
  8
MAIN0
  6
BYBLOCK
 62
0
100
AcDbBlockReference
  2
_OPEN
 10
883.9907412110829
 20
390.7392587164563
 30
0.0000000000000000
 41
6.000000000000000
 42
6.000000000000000
 43
6.000000000000000
 50
90.00000000000000
  0
LINE
  5
333
100
AcDbEntity
  8
MAIN0
  6
BYBLOCK
 62
0
100
AcDbLine
 10
871.0053896717727
 20
390.7392587166317
 30
0.0000000000000000
 11
889.9907412110829
 21
390.7392587163753
 31
0.0000000000000000
  0
MTEXT
  5
334
100
AcDbEntity
  8
MAIN0
  6
BYBLOCK
 62
0
100
AcDbMText
 10
878.8407413541340
 20
358.2392587169054
 30
0.0000000000000000
 40
9.299999713897705
 41
0.0000000000000000
 71
     5
 72
     1
  1
\A1;65
 11
6.123233995736766e-017
 21
1.000000000000000
 31
0.0000000000000000
  7
STANDARD
  0
ENDBLK
  5
335
100
AcDbEntity
  8
MAIN0
  6
CONTINUOUS
 62
3
100
AcDbBlockEnd
  0
ENDSEC
  0
SECTION
  2
ENTITIES
  0
LINE
  5
46
100
AcDbEntity
  8
MAIN0
  6
CONTINUOUS
 62
3
100
AcDbLine
 10
791.5023149380580
 20
628.2743879019944
 30
0.0000000000000000
 11
791.5023149380579
 21
754.2743879019944
 31
0.0000000000000000
  0
LINE
  5
47
100
AcDbEntity
  8
MAIN0
  6
CONTINUOUS
 62
3
100
AcDbLine
 10
816.5023149380579
 20
730.2743879019945
 30
0.0000000000000000
 11
809.5023149380579
 21
730.2743879019945
 31
0.0000000000000000
  0
LINE
  5
48
100
AcDbEntity
  8
MAIN0
  6
CONTINUOUS
 62
3
100
AcDbLine
 10
839.0023149380579
 20
716.2743879019945
 30
0.0000000000000000
 11
816.5023149380579
 21
716.2743879019945
 31
0.0000000000000000
  0
LINE
  5
49
100
AcDbEntity
  8
MAIN0
  6
CONTINUOUS
 62
3
100
AcDbLine
 10
839.0023149380579
 20
666.2743879019945
 30
0.0000000000000000
 11
816.5023149380580
 21
666.2743879019945
 31
0.0000000000000000
  0
LINE
  5
4A
100
AcDbEntity
  8
MAIN0
  6
CONTINUOUS
 62
3
100
AcDbLine
 10
839.0023149380579
 20
666.2743879019945
 30
0.0000000000000000
 11
839.0023149380579
 21
716.2743879019945
 31
0.0000000000000000
  0
LINE
  5
4B
100
AcDbEntity
  8
MAIN0
  6
CONTINUOUS
 62
3
100
AcDbLine
 10
816.5023149380580
 20
652.2743879019945
 30
0.0000000000000000
 11
816.5023149380579
 21
730.2743879019944
 31
0.0000000000000000
  0
LINE
  5
4C
100
AcDbEntity
  8
MAIN0
  6
CONTINUOUS
 62
3
100
AcDbLine
 10
387.5023149380579
 20
754.2743879019945
 30
0.0000000000000000
 11
387.5023149380581
 21
628.2743879019945
 31
0.0000000000000000
  0
LINE
  5
4D
100
AcDbEntity
  8
MAIN0
  6
CONTINUOUS
 62
3
100
AcDbLine
 10
388.5023149380580
 20
753.5243879019944
 30
0.0000000000000000
 11
388.5023149380582
 21
629.0243879019945
 31
0.0000000000000000
  0
LINE
  5
4E
100
AcDbEntity
  8
MAIN0
  6
CONTINUOUS
 62
3
100
AcDbLine
 10
540.5023149380579
 20
753.5243879019944
 30
0.0000000000000000
 11
540.5023149380581
 21
629.0243879019945
 31
0.0000000000000000
  0
LINE
  5
4F
100
AcDbEntity
  8
MAIN0
  6
CONTINUOUS
 62
3
100
AcDbLine
 10
614.5023149380579
 20
758.7743879019944
 30
0.0000000000000000
 11
614.5023149380581
 21
623.7743879019945
 31
0.0000000000000000
  0
LINE
  5
50
100
AcDbEntity
  8
MAIN0
  6
CONTINUOUS
 62
3
100
AcDbLine
 10
129.7102513719096
 20
422.2392587173544
 30
0.0000000000000000
 11
191.7102513719096
 21
422.2392587173544
 31
0.0000000000000000
  0
LINE
  5
51
100
AcDbEntity
  8
MAIN0
  6
CONTINUOUS
 62
3
100
AcDbLine
 10
190.7102513719096
 20
422.2392587173544
 30
0.0000000000000000
 11
190.7102513719096
 21
405.7392587173545
 31
0.0000000000000000
  0
LINE
  5
52
100
AcDbEntity
  8
MAIN0
  6
CONTINUOUS
 62
3
100
AcDbLine
 10
130.7102513719096
 20
422.2392587173544
 30
0.0000000000000000
 11
130.7102513719096
 21
405.7392587173545
 31
0.0000000000000000
  0
LINE
  5
53
100
AcDbEntity
  8
MAIN0
  6
CONTINUOUS
 62
3
100
AcDbLine
 10
196.4070031316046
 20
405.7392587173546
 30
0.0000000000000000
 11
196.4070031316046
 21
390.7392587173545
 31
0.0000000000000000
  0
LINE
  5
54
100
AcDbEntity
  8
MAIN0
  6
CONTINUOUS
 62
3
100
AcDbLine
 10
125.2102513719096
 20
405.7392587173545
 30
0.0000000000000000
 11
125.2102513719096
 21
390.7392587173545
 31
0.0000000000000000
  0
LINE
  5
55
100
AcDbEntity
  8
MAIN0
  6
CONTINUOUS
 62
3
100
AcDbLine
 10
125.2102513719096
 20
405.7392587173545
 30
0.0000000000000000
 11
130.7102513719097
 21
405.7392587173545
 31
0.0000000000000000
  0
LINE
  5
56
100
AcDbEntity
  8
MAIN0
  6
CONTINUOUS
 62
3
100
AcDbLine
 10
190.7102513719096
 20
405.7392587173545
 30
0.0000000000000000
 11
196.4070031316045
 21
405.7392587173545
 31
0.0000000000000000
  0
LINE
  5
57
100
AcDbEntity
  8
MAIN0
  6
CONTINUOUS
 62
3
100
AcDbLine
 10
190.2102513719096
 20
376.7392587173545
 30
0.0000000000000000
 11
190.2102513719096
 21
390.7392587173545
 31
0.0000000000000000
  0
LINE
  5
58
100
AcDbEntity
  8
MAIN0
  6
CONTINUOUS
 62
3
100
AcDbLine
 10
131.2102513719096
 20
376.7392587173544
 30
0.0000000000000000
 11
131.2102513719096
 21
390.7392587173545
 31
0.0000000000000000
  0
LINE
  5
59
100
AcDbEntity
  8
MAIN0
  6
CONTINUOUS
 62
3
100
AcDbLine
 10
149.6955327461479
 20
360.7392587173545
 30
0.0000000000000000
 11
171.7249699976719
 21
360.7392587173545
 31
0.0000000000000000
  0
LINE
  5
5A
100
AcDbEntity
  8
MAIN0
  6
CONTINUOUS
 62
3
100
AcDbLine
 10
175.9676106847911
 20
362.4966180302352
 30
0.0000000000000000
 11
190.2102513719096
 21
376.7392587173537
 31
0.0000000000000000
  0
LINE
  5
5B
100
AcDbEntity
  8
MAIN0
  6
CONTINUOUS
 62
3
100
AcDbLine
 10
131.2102513719096
 20
376.7392587173544
 30
0.0000000000000000
 11
145.4528920590287
 21
362.4966180302353
 31
0.0000000000000000
  0
ARC
  5
5C
100
AcDbEntity
  8
MAIN0
  6
CONTINUOUS
 62
3
100
AcDbCircle
 10
184.2102513719096
 20
376.7392587173545
 30
0.0000000000000000
 40
6.000000000000000
100
AcDbArc
 50
269.9999999999959
 51
359.9999999999934
  0
ARC
  5
5D
100
AcDbEntity
  8
MAIN0
  6
CONTINUOUS
 62
3
100
AcDbCircle
 10
137.2102513719096
 20
376.7392587173544
 30
0.0000000000000000
 40
6.000000000000000
100
AcDbArc
 50
179.9999999999964
 51
270.0000000005678
  0
ARC
  5
5E
100
AcDbEntity
  8
MAIN0
  6
CONTINUOUS
 62
3
100
AcDbCircle
 10
171.7249699976719
 20
366.7392587173546
 30
0.0000000000000000
 40
6.000000000000000
100
AcDbArc
 50
270.0000000005678
 51
314.9999999999934
  0
ARC
  5
5F
100
AcDbEntity
  8
MAIN0
  6
CONTINUOUS
 62
3
100
AcDbCircle
 10
149.6955327461479
 20
366.7392587173545
 30
0.0000000000000000
 40
6.000000000000000
100
AcDbArc
 50
224.9999999999964
 51
270.0000000005678
  0
LINE
  5
60
100
AcDbEntity
  8
MAIN0
  6
CONTINUOUS
 62
3
100
AcDbLine
 10
131.2102513719096
 20
390.7392587173545
 30
0.0000000000000000
 11
125.2102513719096
 21
390.7392587173545
 31
0.0000000000000000
  0
LINE
  5
61
100
AcDbEntity
  8
MAIN0
  6
CONTINUOUS
 62
3
100
AcDbLine
 10
196.4070031316046
 20
390.7392587173545
 30
0.0000000000000000
 11
190.2102513719096
 21
390.7392587173545
 31
0.0000000000000000
  0
LINE
  5
62
100
AcDbEntity
  8
MAIN0
  6
CONTINUOUS
 62
3
100
AcDbLine
 10
141.2102513719097
 20
366.7392587173545
 30
0.0000000000000000
 11
180.2102513719106
 21
366.7392587173545
 31
0.0000000000000000
  0
LINE
  5
63
100
AcDbEntity
  8
MAIN0
  6
CONTINUOUS
 62
3
100
AcDbLine
 10
222.9602513719097
 20
465.2392587173545
 30
0.0000000000000000
 11
222.9602513719096
 21
425.7392587173545
 31
0.0000000000000000
  0
LINE
  5
64
100
AcDbEntity
  8
MAIN0
  6
CONTINUOUS
 62
3
100
AcDbLine
 10
98.46025137190972
 20
465.2392587173545
 30
0.0000000000000000
 11
98.46025137190966
 21
425.7392587173545
 31
0.0000000000000000
  0
LINE
  5
65
100
AcDbEntity
  8
MAIN0
  6
CONTINUOUS
 62
3
100
AcDbLine
 10
223.7102513719096
 20
425.7392587173545
 30
0.0000000000000000
 11
97.71025137190966
 21
425.7392587173545
 31
0.0000000000000000
  0
LINE
  5
66
100
AcDbEntity
  8
MAIN0
  6
CONTINUOUS
 62
3
100
AcDbLine
 10
222.9602513719097
 20
465.2392587173545
 30
0.0000000000000000
 11
98.46025137190971
 21
465.2392587173545
 31
0.0000000000000000
  0
LINE
  5
67
100
AcDbEntity
  8
MAIN0
  6
CONTINUOUS
 62
3
100
AcDbLine
 10
216.7102513719096
 20
346.7392587173544
 30
0.0000000000000000
 11
216.7102513719096
 21
386.7392587173544
 31
0.0000000000000000
  0
LINE
  5
68
100
AcDbEntity
  8
MAIN0
  6
CONTINUOUS
 62
3
100
AcDbLine
 10
104.7102513719096
 20
346.7392587173545
 30
0.0000000000000000
 11
104.7102513719096
 21
386.7392587173545
 31
0.0000000000000000
  0
LINE
  5
69
100
AcDbEntity
  8
MAIN0
  6
CONTINUOUS
 62
3
100
AcDbLine
 10
97.71025137190959
 20
325.7392587173545
 30
0.0000000000000000
 11
97.71025137190962
 21
346.7392587173545
 31
0.0000000000000000
  0
LINE
  5
6A
100
AcDbEntity
  8
MAIN0
  6
CONTINUOUS
 62
3
100
AcDbLine
 10
97.71025137190964
 20
386.7392587173545
 30
0.0000000000000000
 11
97.71025137190966
 21
425.7392587173546
 31
0.0000000000000000
  0
LINE
  5
6B
100
AcDbEntity
  8
MAIN0
  6
CONTINUOUS
 62
3
100
AcDbLine
 10
223.7102513719095
 20
346.7392587173545
 30
0.0000000000000000
 11
223.7102513719095
 21
325.7392587173545
 31
0.0000000000000000
  0
LINE
  5
6C
100
AcDbEntity
  8
MAIN0
  6
CONTINUOUS
 62
3
100
AcDbLine
 10
223.7102513719096
 20
425.7392587173544
 30
0.0000000000000000
 11
223.7102513719096
 21
386.7392587173544
 31
0.0000000000000000
  0
LINE
  5
6D
100
AcDbEntity
  8
MAIN0
  6
CONTINUOUS
 62
3
100
AcDbLine
 10
104.7102513719096
 20
386.7392587173545
 30
0.0000000000000000
 11
97.71025137190966
 21
386.7392587173545
 31
0.0000000000000000
  0
LINE
  5
6E
100
AcDbEntity
  8
MAIN0
  6
CONTINUOUS
 62
3
100
AcDbLine
 10
223.7102513719095
 20
386.7392587173545
 30
0.0000000000000000
 11
216.7102513719096
 21
386.7392587173545
 31
0.0000000000000000
  0
LINE
  5
6F
100
AcDbEntity
  8
MAIN0
  6
CONTINUOUS
 62
3
100
AcDbLine
 10
104.7102513719096
 20
346.7392587173545
 30
0.0000000000000000
 11
97.71025137190964
 21
346.7392587173545
 31
0.0000000000000000
  0
LINE
  5
70
100
AcDbEntity
  8
MAIN0
  6
CONTINUOUS
 62
3
100
AcDbLine
 10
223.7102513719095
 20
346.7392587173545
 30
0.0000000000000000
 11
216.7102513719096
 21
346.7392587173545
 31
0.0000000000000000
  0
LINE
  5
71
100
AcDbEntity
  8
MAIN0
  6
CONTINUOUS
 62
3
100
AcDbLine
 10
169.7102513719096
 20
325.7392587173545
 30
0.0000000000000000
 11
169.7102513719096
 21
330.7392587173544
 31
0.0000000000000000
  0
LINE
  5
72
100
AcDbEntity
  8
MAIN0
  6
CONTINUOUS
 62
3
100
AcDbLine
 10
151.7102513719096
 20
325.7392587173545
 30
0.0000000000000000
 11
151.7102513719096
 21
330.7392587173546
 31
0.0000000000000000
  0
LINE
  5
73
100
AcDbEntity
  8
MAIN0
  6
CONTINUOUS
 62
3
100
AcDbLine
 10
151.7102513719096
 20
325.7392587173545
 30
0.0000000000000000
 11
97.71025137190964
 21
325.7392587173545
 31
0.0000000000000000
  0
LINE
  5
74
100
AcDbEntity
  8
MAIN0
  6
CONTINUOUS
 62
3
100
AcDbLine
 10
223.7102513719096
 20
325.7392587173545
 30
0.0000000000000000
 11
169.7102513719096
 21
325.7392587173545
 31
0.0000000000000000
  0
LINE
  5
75
100
AcDbEntity
  8
MAIN0
  6
CONTINUOUS
 62
3
100
AcDbLine
 10
169.7102513719096
 20
330.7392587173545
 30
0.0000000000000000
 11
151.7102513719093
 21
330.7392587173545
 31
0.0000000000000000
  0
LINE
  5
76
100
AcDbEntity
  8
MAIN0
  6
CONTINUOUS
 62
3
100
AcDbLine
 10
123.2102513719096
 20
320.7392587173535
 30
0.0000000000000000
 11
123.2102513719096
 21
325.7392587173544
 31
0.0000000000000000
  0
LINE
  5
77
100
AcDbEntity
  8
MAIN0
  6
CONTINUOUS
 62
3
100
AcDbLine
 10
198.2102513719095
 20
320.7392587173537
 30
0.0000000000000000
 11
198.2102513719095
 21
325.7392587173544
 31
0.0000000000000000
  0
LINE
  5
78
100
AcDbEntity
  8
MAIN0
  6
CONTINUOUS
 62
3
100
AcDbLine
 10
223.2102513719095
 20
320.7392587173537
 30
0.0000000000000000
 11
198.2102513719095
 21
320.7392587173537
 31
0.0000000000000000
  0
LINE
  5
79
100
AcDbEntity
  8
MAIN0
  6
CONTINUOUS
 62
3
100
AcDbLine
 10
123.2102513719096
 20
320.7392587173535
 30
0.0000000000000000
 11
98.21025137190964
 21
320.7392587173535
 31
0.0000000000000000
  0
LINE
  5
7A
100
AcDbEntity
  8
MAIN0
  6
CONTINUOUS
 62
3
100
AcDbLine
 10
223.2102513719095
 20
320.7392587173536
 30
0.0000000000000000
 11
198.2102513719095
 21
320.7392587173536
 31
0.0000000000000000
  0
LINE
  5
7B
100
AcDbEntity
  8
MAIN0
  6
CONTINUOUS
 62
3
100
AcDbLine
 10
223.2102513719095
 20
325.7392587173545
 30
0.0000000000000000
 11
223.2102513719096
 21
320.7392587173537
 31
0.0000000000000000
  0
LINE
  5
7C
100
AcDbEntity
  8
MAIN0
  6
CONTINUOUS
 62
3
100
AcDbLine
 10
98.21025137190958
 20
325.7392587173545
 30
0.0000000000000000
 11
98.21025137190955
 21
320.7392587173535
 31
0.0000000000000000
  0
DIMENSION
  5
85
100
AcDbEntity
  8
MAIN0
  6
CONTINUOUS
 62
3
100
AcDbDimension
  2
*D0
 10
387.5023149380585
 20
187.1079267509617
 30
0.0000000000000000
 11
602.6351206927893
 21
188.6079267509617
 31
0.0000000000000000
 70
160
  3
MAIN001
100
AcDbAlignedDimension
 13
839.0023149380587
 23
365.7392587173545
 33
0.0000000000000000
 14
387.5023149380588
 24
325.7392587173546
 34
0.0000000000000000
100
AcDbRotatedDimension
1001
ACAD
1000
DSTYLE
1002
{
1070
   173
1070
     1
1070
     6
1000
_OPEN
1070
     7
1000
_OPEN
1070
    41
1040
6.000000
1002
}
  0
DIMENSION
  5
8E
100
AcDbEntity
  8
MAIN0
  6
CONTINUOUS
 62
3
100
AcDbDimension
  2
*D1
 10
98.46025137190972
 20
515.2109045104899
 30
0.0000000000000000
 11
160.7102513719097
 21
515.7109045104899
 31
0.0000000000000000
 70
32
  3
MAIN001
100
AcDbAlignedDimension
 13
222.9602513719097
 23
465.2392587173545
 33
0.0000000000000000
 14
98.46025137190972
 24
465.2392587173545
 34
0.0000000000000000
100
AcDbRotatedDimension
1001
ACAD
1000
DSTYLE
1002
{
1070
   173
1070
     1
1070
     6
1000
_OPEN
1070
     7
1000
_OPEN
1070
    41
1040
6.000000
1002
}
  0
DIMENSION
  5
99
100
AcDbEntity
  8
MAIN0
  6
CONTINUOUS
 62
3
100
AcDbDimension
  2
*D2
 10
265.2865731092063
 20
325.7392587173545
 30
0.0000000000000000
 11
264.7865731092063
 21
336.2392587173545
 31
0.0000000000000000
 70
32
  3
MAIN001
100
AcDbAlignedDimension
 13
223.7102513719095
 23
346.7392587173545
 33
0.0000000000000000
 14
223.7102513719096
 24
325.7392587173545
 34
0.0000000000000000
 50
90.00000000000000
100
AcDbRotatedDimension
1001
ACAD
1000
DSTYLE
1002
{
1070
   173
1070
     1
1070
     6
1000
_OPEN
1070
     7
1000
_OPEN
1070
    41
1040
6.000000
1070
   287
1070
     0
1002
}
  0
DIMENSION
  5
A2
100
AcDbEntity
  8
MAIN0
  6
CONTINUOUS
 62
3
100
AcDbDimension
  2
*D3
 10
265.2865731092063
 20
346.7392587173545
 30
0.0000000000000000
 11
264.7865731092063
 21
366.7392587173545
 31
0.0000000000000000
 70
32
  3
MAIN001
100
AcDbAlignedDimension
 13
223.7102513719095
 23
386.7392587173545
 33
0.0000000000000000
 14
223.7102513719095
 24
346.7392587173545
 34
0.0000000000000000
 50
90.00000000000000
100
AcDbRotatedDimension
1001
ACAD
1000
DSTYLE
1002
{
1070
   173
1070
     1
1070
     6
1000
_OPEN
1070
     7
1000
_OPEN
1070
    41
1040
6.000000
1002
}
  0
DIMENSION
  5
AB
100
AcDbEntity
  8
MAIN0
  6
CONTINUOUS
 62
3
100
AcDbDimension
  2
*D4
 10
265.2865731092063
 20
386.7392587173545
 30
0.0000000000000000
 11
264.7865731092063
 21
406.2392587173545
 31
0.0000000000000000
 70
32
  3
MAIN001
100
AcDbAlignedDimension
 13
223.7102513719096
 23
425.7392587173545
 33
0.0000000000000000
 14
223.7102513719095
 24
386.7392587173545
 34
0.0000000000000000
 50
90.00000000000000
100
AcDbRotatedDimension
1001
ACAD
1000
DSTYLE
1002
{
1070
   173
1070
     1
1070
     6
1000
_OPEN
1070
     7
1000
_OPEN
1070
    41
1040
6.000000
1002
}
  0
DIMENSION
  5
B5
100
AcDbEntity
  8
MAIN0
  6
CONTINUOUS
 62
3
100
AcDbDimension
  2
*D5
 10
223.7102513719095
 20
363.2376184183115
 30
0.0000000000000000
 11
235.3906756514132
 21
364.7376184183115
 31
0.0000000000000000
 70
160
  3
MAIN001
100
AcDbAlignedDimension
 13
216.7102513719096
 23
346.7392587173544
 33
0.0000000000000000
 14
223.7102513719095
 24
346.7392587173545
 34
0.0000000000000000
100
AcDbRotatedDimension
1001
ACAD
1000
DSTYLE
1002
{
1070
   173
1070
     1
1070
     6
1000
_OPEN
1070
     7
1000
_OPEN
1070
    41
1040
6.000000
1070
   287
1070
     0
1002
}
  0
MTEXT
  5
B6
100
AcDbEntity
  8
MAIN0
  6
CONTINUOUS
 62
3
100
AcDbMText
 10
482.3632734605160
 20
525.0204534256301
 30
0.0000000000000000
 40
9.299999713897705
 41
0.0000000000000000
 71
     1
 72
     1
  1
{\H0.90x;{MAX}}
 11
1.000000000000000
 21
0.0000000000000000
 31
0.0000000000000000
  7
STANDARD
  0
DIMENSION
  5
BF
100
AcDbEntity
  8
MAIN0
  6
CONTINUOUS
 62
3
100
AcDbDimension
  2
*D6
 10
387.5023149380586
 20
245.6122781438624
 30
0.0000000000000000
 11
570.0023149380586
 21
246.1122781438624
 31
0.0000000000000000
 70
32
  3
MAIN001
100
AcDbAlignedDimension
 13
752.5023149380586
 23
325.7392587173545
 33
0.0000000000000000
 14
387.5023149380588
 24
325.7392587173546
 34
0.0000000000000000
100
AcDbRotatedDimension
1001
ACAD
1000
DSTYLE
1002
{
1070
   173
1070
     1
1070
     6
1000
_OPEN
1070
     7
1000
_OPEN
1070
    41
1040
6.000000
1002
}
  0
DIMENSION
  5
C8
100
AcDbEntity
  8
MAIN0
  6
CONTINUOUS
 62
3
100
AcDbDimension
  2
*D7
 10
752.5023149380585
 20
245.6122781438624
 30
0.0000000000000000
 11
795.7523149380586
 21
246.1122781438624
 31
0.0000000000000000
 70
32
  3
MAIN001
100
AcDbAlignedDimension
 13
839.0023149380587
 23
365.7392587173545
 33
0.0000000000000000
 14
752.5023149380586
 24
325.7392587173545
 34
0.0000000000000000
100
AcDbRotatedDimension
1001
ACAD
1000
DSTYLE
1002
{
1070
   173
1070
     1
1070
     6
1000
_OPEN
1070
     7
1000
_OPEN
1070
    41
1040
6.000000
1002
}
  0
DIMENSION
  5
D3
100
AcDbEntity
  8
MAIN0
  6
CONTINUOUS
 62
3
100
AcDbDimension
  2
*D8
 10
600.0023149380588
 20
294.9394721069998
 30
0.0000000000000000
 11
632.0763077499335
 21
296.4394721069998
 31
0.0000000000000000
 70
160
  3
MAIN001
100
AcDbAlignedDimension
 13
618.0023149380588
 23
320.7392587173546
 33
0.0000000000000000
 14
600.0023149380588
 24
320.7392587173544
 34
0.0000000000000000
100
AcDbRotatedDimension
1001
ACAD
1000
DSTYLE
1002
{
1070
   173
1070
     1
1070
     6
1000
_OPEN
1070
     7
1000
_OPEN
1070
    41
1040
6.000000
1070
   287
1070
     0
1002
}
  0
LINE
  5
D4
100
AcDbEntity
  8
MAIN0
  6
CONTINUOUS
 62
3
100
AcDbLine
 10
807.5023149377375
 20
728.2743879019944
 30
0.0000000000000000
 11
809.5023149377380
 21
730.2743879019943
 31
0.0000000000000000
  0
LINE
  5
D5
100
AcDbEntity
  8
MAIN0
  6
CONTINUOUS
 62
3
100
AcDbLine
 10
791.5023149380579
 20
728.2743879019945
 30
0.0000000000000000
 11
807.5023149377378
 21
728.2743879019945
 31
0.0000000000000000
  0
LINE
  5
D6
100
AcDbEntity
  8
MAIN0
  6
CONTINUOUS
 62
3
100
AcDbLine
 10
807.5023149377380
 20
654.2743879019947
 30
0.0000000000000000
 11
809.5023149377383
 21
652.2743879019947
 31
0.0000000000000000
  0
LINE
  5
D7
100
AcDbEntity
  8
MAIN0
  6
CONTINUOUS
 62
3
100
AcDbLine
 10
816.5023149380579
 20
652.2743879019945
 30
0.0000000000000000
 11
809.5023149380579
 21
652.2743879019945
 31
0.0000000000000000
  0
LINE
  5
D8
100
AcDbEntity
  8
MAIN0
  6
CONTINUOUS
 62
3
100
AcDbLine
 10
791.5023149380579
 20
654.2743879019945
 30
0.0000000000000000
 11
807.5023149377378
 21
654.2743879019945
 31
0.0000000000000000
  0
LINE
  5
D9
100
AcDbEntity
  8
MAIN0
  6
CONTINUOUS
 62
3
100
AcDbLine
 10
779.1649842134551
 20
635.2743879019945
 30
0.0000000000000000
 11
791.5023149380580
 21
635.2743879019945
 31
0.0000000000000000
  0
LINE
  5
DA
100
AcDbEntity
  8
MAIN0
  6
CONTINUOUS
 62
3
100
AcDbLine
 10
791.5023149380579
 20
747.2743879019945
 30
0.0000000000000000
 11
779.1649842130460
 21
747.2743879019945
 31
0.0000000000000000
  0
LINE
  5
DB
100
AcDbEntity
  8
MAIN0
  6
CENTER
 62
3
100
AcDbLine
 10
160.7102513719094
 20
312.0800226166937
 30
0.0000000000000000
 11
160.7102513719097
 21
480.5438621556547
 31
0.0000000000000000
  0
LINE
  5
DC
100
AcDbEntity
  8
MAIN0
  6
CONTINUOUS
 62
3
100
AcDbLine
 10
228.2102513719096
 20
409.9392587173545
 30
0.0000000000000000
 11
227.0102513719096
 21
409.9392587173545
 31
0.0000000000000000
  0
LINE
  5
DD
100
AcDbEntity
  8
MAIN0
  6
CONTINUOUS
 62
3
100
AcDbLine
 10
228.2102513719096
 20
445.7392587173545
 30
0.0000000000000000
 11
228.2102513719096
 21
409.9392587173545
 31
0.0000000000000000
  0
LINE
  5
DE
100
AcDbEntity
  8
MAIN0
  6
CONTINUOUS
 62
3
100
AcDbLine
 10
227.0102513719096
 20
426.9392587173545
 30
0.0000000000000000
 11
227.0102513719096
 21
409.9392587173545
 31
0.0000000000000000
  0
LINE
  5
DF
100
AcDbEntity
  8
MAIN0
  6
CONTINUOUS
 62
3
100
AcDbLine
 10
226.7102513719096
 20
426.9392587173545
 30
0.0000000000000000
 11
226.7102513719096
 21
411.1392587173544
 31
0.0000000000000000
  0
ARC
  5
E0
100
AcDbEntity
  8
MAIN0
  6
CONTINUOUS
 62
3
100
AcDbCircle
 10
227.0102513719096
 20
445.7392587173545
 30
0.0000000000000000
 40
1.200000000000000
100
AcDbArc
 50
0.0000000000000000
 51
90.00000000000000
  0
ARC
  5
E1
100
AcDbEntity
  8
MAIN0
  6
CONTINUOUS
 62
3
100
AcDbCircle
 10
225.5102513719096
 20
411.1392587173544
 30
0.0000000000000000
 40
1.200000000000000
100
AcDbArc
 50
270.0000000000000
 51
360.0000000000000
  0
LINE
  5
E2
100
AcDbEntity
  8
MAIN0
  6
CONTINUOUS
 62
3
100
AcDbLine
 10
225.5102513719096
 20
409.9392587173545
 30
0.0000000000000000
 11
224.0102513719096
 21
409.9392587173545
 31
0.0000000000000000
  0
LINE
  5
E3
100
AcDbEntity
  8
MAIN0
  6
CONTINUOUS
 62
3
100
AcDbLine
 10
225.5102513719096
 20
411.1392587173544
 30
0.0000000000000000
 11
223.7102513719096
 21
411.1392587173544
 31
0.0000000000000000
  0
LINE
  5
E4
100
AcDbEntity
  8
MAIN0
  6
CONTINUOUS
 62
3
100
AcDbLine
 10
225.5102513719096
 20
426.9392587173545
 30
0.0000000000000000
 11
225.5102513719096
 21
411.1392587173544
 31
0.0000000000000000
  0
LINE
  5
E5
100
AcDbEntity
  8
MAIN0
  6
CONTINUOUS
 62
3
100
AcDbLine
 10
225.2102513719096
 20
425.7392587173545
 30
0.0000000000000000
 11
225.2102513719096
 21
413.1392587173544
 31
0.0000000000000000
  0
LINE
  5
E6
100
AcDbEntity
  8
MAIN0
  6
CONTINUOUS
 62
3
100
AcDbLine
 10
97.41025137190968
 20
425.7392587173545
 30
0.0000000000000000
 11
224.0102513719098
 21
425.7392587173545
 31
0.0000000000000000
  0
LINE
  5
E7
100
AcDbEntity
  8
MAIN0
  6
CONTINUOUS
 62
3
100
AcDbLine
 10
224.0102513719096
 20
425.7392587173545
 30
0.0000000000000000
 11
224.0102513719096
 21
413.1392587173544
 31
0.0000000000000000
  0
ARC
  5
E8
100
AcDbEntity
  8
MAIN0
  6
CONTINUOUS
 62
3
100
AcDbCircle
 10
224.0102513719096
 20
413.1392587173544
 30
0.0000000000000000
 40
1.200000000000000
100
AcDbArc
 50
270.0000000000000
 51
360.0000000000000
  0
LINE
  5
E9
100
AcDbEntity
  8
MAIN0
  6
CONTINUOUS
 62
3
100
AcDbLine
 10
225.5102513719096
 20
409.9392587173542
 30
0.0000000000000000
 11
223.7102513719096
 21
409.9392587173542
 31
0.0000000000000000
  0
LINE
  5
EA
100
AcDbEntity
  8
MAIN0
  6
CONTINUOUS
 62
3
100
AcDbLine
 10
228.2102513719096
 20
409.9392587173542
 30
0.0000000000000000
 11
227.0102513719096
 21
409.9392587173542
 31
0.0000000000000000
  0
ARC
  5
EB
100
AcDbEntity
  8
MAIN0
  6
CONTINUOUS
 62
3
100
AcDbCircle
 10
224.0102513719097
 20
425.7392587173545
 30
0.0000000000000000
 40
1.200000000000000
100
AcDbArc
 50
0.0000000000000000
 51
90.00000000000000
  0
LINE
  5
EC
100
AcDbEntity
  8
MAIN0
  6
CONTINUOUS
 62
3
100
AcDbLine
 10
93.21025137190975
 20
445.7392587173547
 30
0.0000000000000000
 11
93.21025137190962
 21
409.9392587173547
 31
0.0000000000000000
  0
ARC
  5
ED
100
AcDbEntity
  8
MAIN0
  6
CONTINUOUS
 62
3
100
AcDbCircle
 10
94.41025137190979
 20
445.7392587173547
 30
0.0000000000000000
 40
1.200000000000000
100
AcDbArc
 50
89.99999999999980
 51
179.9999999999998
  0
LINE
  5
EE
100
AcDbEntity
  8
MAIN0
  6
CONTINUOUS
 62
3
100
AcDbLine
 10
93.21025137190962
 20
409.9392587173545
 30
0.0000000000000000
 11
94.41025137190967
 21
409.9392587173545
 31
0.0000000000000000
  0
LINE
  5
EF
100
AcDbEntity
  8
MAIN0
  6
CONTINUOUS
 62
3
100
AcDbLine
 10
94.41025137190971
 20
426.9392587173544
 30
0.0000000000000000
 11
94.41025137190965
 21
409.9392587173546
 31
0.0000000000000000
  0
LINE
  5
F0
100
AcDbEntity
  8
MAIN0
  6
CONTINUOUS
 62
3
100
AcDbLine
 10
94.71025137190968
 20
426.9392587173547
 30
0.0000000000000000
 11
94.71025137190962
 21
411.1392587173547
 31
0.0000000000000000
  0
ARC
  5
F1
100
AcDbEntity
  8
MAIN0
  6
CONTINUOUS
 62
3
100
AcDbCircle
 10
95.91025137190967
 20
411.1392587173547
 30
0.0000000000000000
 40
1.200000000000000
100
AcDbArc
 50
179.9999999999998
 51
269.9999999999998
  0
LINE
  5
F2
100
AcDbEntity
  8
MAIN0
  6
CONTINUOUS
 62
3
100
AcDbLine
 10
95.91025137190967
 20
409.9392587173545
 30
0.0000000000000000
 11
97.71025137190968
 21
409.9392587173545
 31
0.0000000000000000
  0
LINE
  5
F3
100
AcDbEntity
  8
MAIN0
  6
CONTINUOUS
 62
3
100
AcDbLine
 10
95.91025137190968
 20
411.1392587173547
 30
0.0000000000000000
 11
97.71025137190966
 21
411.1392587173547
 31
0.0000000000000000
  0
LINE
  5
F4
100
AcDbEntity
  8
MAIN0
  6
CONTINUOUS
 62
3
100
AcDbLine
 10
95.91025137190972
 20
426.9392587173547
 30
0.0000000000000000
 11
95.91025137190968
 21
411.1392587173547
 31
0.0000000000000000
  0
ARC
  5
F5
100
AcDbEntity
  8
MAIN0
  6
CONTINUOUS
 62
3
100
AcDbCircle
 10
97.41025137190968
 20
413.1392587173547
 30
0.0000000000000000
 40
1.200000000000000
100
AcDbArc
 50
179.9999999999998
 51
269.9999999999998
  0
LINE
  5
F6
100
AcDbEntity
  8
MAIN0
  6
CONTINUOUS
 62
3
100
AcDbLine
 10
96.21025137190968
 20
425.7392587173547
 30
0.0000000000000000
 11
96.21025137190964
 21
413.1392587173547
 31
0.0000000000000000
  0
LINE
  5
F7
100
AcDbEntity
  8
MAIN0
  6
CONTINUOUS
 62
3
100
AcDbLine
 10
97.41025137190972
 20
425.7392587173547
 30
0.0000000000000000
 11
97.41025137190968
 21
413.1392587173547
 31
0.0000000000000000
  0
ARC
  5
F8
100
AcDbEntity
  8
MAIN0
  6
CONTINUOUS
 62
3
100
AcDbCircle
 10
97.41025137190967
 20
425.7392587173547
 30
0.0000000000000000
 40
1.200000000000000
100
AcDbArc
 50
89.99999999999980
 51
179.9999999999998
  0
LINE
  5
F9
100
AcDbEntity
  8
MAIN0
  6
CONTINUOUS
 62
3
100
AcDbLine
 10
98.46025137190969
 20
446.9392587173545
 30
0.0000000000000000
 11
94.41025137190968
 21
446.9392587173545
 31
0.0000000000000000
  0
LINE
  5
FA
100
AcDbEntity
  8
MAIN0
  6
CONTINUOUS
 62
3
100
AcDbLine
 10
227.0102513719096
 20
446.9392587173545
 30
0.0000000000000000
 11
222.9602513719097
 21
446.9392587173545
 31
0.0000000000000000
  0
LINE
  5
FB
100
AcDbEntity
  8
MAIN0
  6
CONTINUOUS
 62
3
100
AcDbLine
 10
95.91025137190974
 20
426.9392587173543
 30
0.0000000000000000
 11
98.46025137190966
 21
426.9392587173543
 31
0.0000000000000000
  0
LINE
  5
FC
100
AcDbEntity
  8
MAIN0
  6
CONTINUOUS
 62
3
100
AcDbLine
 10
222.9602513719096
 20
426.9392587173543
 30
0.0000000000000000
 11
225.5102513719096
 21
426.9392587173543
 31
0.0000000000000000
  0
LINE
  5
FD
100
AcDbEntity
  8
MAIN0
  6
CENTER
 62
3
100
AcDbLine
 10
83.53549829217076
 20
390.7392587152053
 30
0.0000000000000000
 11
232.6487352628693
 21
390.7392587154524
 31
0.0000000000000000
  0
LINE
  5
FE
100
AcDbEntity
  8
MAIN0
  6
CONTINUOUS
 62
3
100
AcDbLine
 10
466.5023149380577
 20
753.5243879019943
 30
0.0000000000000000
 11
466.5023149380580
 21
629.0243879019946
 31
0.0000000000000000
  0
LINE
  5
FF
100
AcDbEntity
  8
MAIN0
  6
CONTINUOUS
 62
3
100
AcDbLine
 10
388.5023149380581
 20
629.0243879019945
 30
0.0000000000000000
 11
466.5023149380580
 21
629.0243879019945
 31
0.0000000000000000
  0
LINE
  5
100
100
AcDbEntity
  8
MAIN0
  6
CONTINUOUS
 62
3
100
AcDbLine
 10
540.5023149380581
 20
629.0243879019945
 30
0.0000000000000000
 11
614.5023149380581
 21
629.0243879019945
 31
0.0000000000000000
  0
LINE
  5
101
100
AcDbEntity
  8
MAIN0
  6
CONTINUOUS
 62
3
100
AcDbLine
 10
388.5023149380580
 20
753.5243879019944
 30
0.0000000000000000
 11
466.5023149380577
 21
753.5243879019944
 31
0.0000000000000000
  0
LINE
  5
102
100
AcDbEntity
  8
MAIN0
  6
CONTINUOUS
 62
3
100
AcDbLine
 10
540.5023149380579
 20
753.5243879019944
 30
0.0000000000000000
 11
614.5023149380579
 21
753.5243879019944
 31
0.0000000000000000
  0
DIMENSION
  5
10D
100
AcDbEntity
  8
MAIN0
  6
CONTINUOUS
 62
3
100
AcDbDimension
  2
*D9
 10
387.5023149380586
 20
514.5458429590572
 30
0.0000000000000000
 11
376.3600837826226
 21
516.0458429590572
 31
0.0000000000000000
 70
160
  3
MAIN001
100
AcDbAlignedDimension
 13
388.5023149380585
 23
465.2392587173524
 33
0.0000000000000000
 14
387.5023149380586
 24
425.7392587173546
 34
0.0000000000000000
100
AcDbRotatedDimension
1001
ACAD
1000
DSTYLE
1002
{
1070
   173
1070
     1
1070
     6
1000
_OPEN
1070
     7
1000
_OPEN
1070
    41
1040
6.000000
1070
   287
1070
     0
1002
}
  0
DIMENSION
  5
116
100
AcDbEntity
  8
MAIN0
  6
CONTINUOUS
 62
3
100
AcDbDimension
  2
*D10
 10
388.5023149380585
 20
514.5458429590572
 30
0.0000000000000000
 11
427.5023149380585
 21
515.0458429590572
 31
0.0000000000000000
 70
32
  3
MAIN001
100
AcDbAlignedDimension
 13
466.5023149380585
 23
465.2392587173531
 33
0.0000000000000000
 14
388.5023149380585
 24
465.2392587173524
 34
0.0000000000000000
100
AcDbRotatedDimension
1001
ACAD
1000
DSTYLE
1002
{
1070
   173
1070
     1
1070
     6
1000
_OPEN
1070
     7
1000
_OPEN
1070
    41
1040
6.000000
1002
}
  0
DIMENSION
  5
11F
100
AcDbEntity
  8
MAIN0
  6
CONTINUOUS
 62
3
100
AcDbDimension
  2
*D11
 10
466.5023149380585
 20
514.5458429590572
 30
0.0000000000000000
 11
517.5983318236921
 21
516.0458429590572
 31
0.0000000000000000
 70
160
  1
\A1;205
  3
MAIN001
100
AcDbAlignedDimension
 13
540.5023149380585
 23
465.2392587173529
 33
0.0000000000000000
 14
466.5023149380585
 24
465.2392587173531
 34
0.0000000000000000
100
AcDbRotatedDimension
1001
ACAD
1000
DSTYLE
1002
{
1070
   173
1070
     1
1070
     6
1000
_OPEN
1070
     7
1000
_OPEN
1070
    41
1040
6.000000
1002
}
  0
DIMENSION
  5
128
100
AcDbEntity
  8
MAIN0
  6
CONTINUOUS
 62
1
100
AcDbDimension
  2
*D12
 10
540.5023149380585
 20
514.5458429590572
 30
0.0000000000000000
 11
577.5023149380585
 21
515.0458429590572
 31
0.0000000000000000
 70
32
  3
MAIN001
100
AcDbAlignedDimension
 13
614.5023149380585
 23
465.2392587173533
 33
0.0000000000000000
 14
540.5023149380585
 24
465.2392587173529
 34
0.0000000000000000
100
AcDbRotatedDimension
1001
ACAD
1000
DSTYLE
1002
{
1070
   173
1070
     1
1070
     6
1000
_OPEN
1070
     7
1000
_OPEN
1070
    41
1040
6.000000
1002
}
  0
LINE
  5
129
100
AcDbEntity
  8
MAIN0
  6
CONTINUOUS
 62
3
100
AcDbLine
 10
466.5023149380578
 20
722.2743879019945
 30
0.0000000000000000
 11
540.5023149380579
 21
722.2743879019945
 31
0.0000000000000000
  0
LINE
  5
12A
100
AcDbEntity
  8
MAIN0
  6
CONTINUOUS
 62
3
100
AcDbLine
 10
466.5023149380579
 20
660.2743879019945
 30
0.0000000000000000
 11
540.5023149380580
 21
660.2743879019945
 31
0.0000000000000000
  0
LINE
  5
12B
100
AcDbEntity
  8
MAIN0
  6
CONTINUOUS
 62
3
100
AcDbLine
 10
614.5023149380579
 20
758.7743879019945
 30
0.0000000000000000
 11
688.5023149380579
 21
758.7743879019945
 31
0.0000000000000000
  0
LINE
  5
12C
100
AcDbEntity
  8
MAIN0
  6
CONTINUOUS
 62
3
100
AcDbLine
 10
688.5023149380579
 20
757.2743879019945
 30
0.0000000000000000
 11
734.1589429950902
 21
757.2743879019945
 31
0.0000000000000000
  0
LINE
  5
12D
100
AcDbEntity
  8
MAIN0
  6
CONTINUOUS
 62
3
100
AcDbLine
 10
734.1589429950850
 20
755.7743879019945
 30
0.0000000000000000
 11
779.1649842130149
 21
755.7743879019945
 31
0.0000000000000000
  0
LINE
  5
12E
100
AcDbEntity
  8
MAIN0
  6
CONTINUOUS
 62
3
100
AcDbLine
 10
614.5023149380579
 20
754.2743879019945
 30
0.0000000000000000
 11
387.5023149380579
 21
754.2743879019944
 31
0.0000000000000000
  0
LINE
  5
12F
100
AcDbEntity
  8
MAIN0
  6
CONTINUOUS
 62
3
100
AcDbLine
 10
791.5023149380579
 20
754.2743879019945
 30
0.0000000000000000
 11
779.1649842130204
 21
754.2743879019945
 31
0.0000000000000000
  0
LINE
  5
130
100
AcDbEntity
  8
MAIN0
  6
CONTINUOUS
 62
3
100
AcDbLine
 10
387.5023149380581
 20
628.2743879019945
 30
0.0000000000000000
 11
614.5023149380581
 21
628.2743879019945
 31
0.0000000000000000
  0
LINE
  5
131
100
AcDbEntity
  8
MAIN0
  6
CONTINUOUS
 62
3
100
AcDbLine
 10
779.1649842134807
 20
628.2743879019945
 30
0.0000000000000000
 11
791.5023149380580
 21
628.2743879019945
 31
0.0000000000000000
  0
LINE
  5
132
100
AcDbEntity
  8
MAIN0
  6
CONTINUOUS
 62
3
100
AcDbLine
 10
614.5023149380579
 20
623.7743879019945
 30
0.0000000000000000
 11
688.5023149380581
 21
623.7743879019945
 31
0.0000000000000000
  0
LINE
  5
133
100
AcDbEntity
  8
MAIN0
  6
CONTINUOUS
 62
3
100
AcDbLine
 10
688.5023149380580
 20
625.2743879019945
 30
0.0000000000000000
 11
734.1589429950902
 21
625.2743879019945
 31
0.0000000000000000
  0
LINE
  5
134
100
AcDbEntity
  8
MAIN0
  6
CONTINUOUS
 62
3
100
AcDbLine
 10
734.1589429950850
 20
626.7743879019945
 30
0.0000000000000000
 11
779.1649842130149
 21
626.7743879019945
 31
0.0000000000000000
  0
LINE
  5
135
100
AcDbEntity
  8
MAIN0
  6
CONTINUOUS
 62
3
100
AcDbLine
 10
734.1589429950902
 20
757.2743879019945
 30
0.0000000000000000
 11
734.1589429946306
 21
625.2743879019945
 31
0.0000000000000000
  0
LINE
  5
136
100
AcDbEntity
  8
MAIN0
  6
CONTINUOUS
 62
3
100
AcDbLine
 10
779.1649842130149
 20
755.7743879019946
 30
0.0000000000000000
 11
779.1649842134862
 21
626.7743879019946
 31
0.0000000000000000
  0
LINE
  5
137
100
AcDbEntity
  8
MAIN0
  6
CENTER
 62
3
100
AcDbLine
 10
482.5023149367764
 20
701.9748983126056
 30
0.0000000000000000
 11
482.5023149367271
 21
679.1776406584245
 31
0.0000000000000000
  0
CIRCLE
  5
138
100
AcDbEntity
  8
MAIN0
  6
CONTINUOUS
 62
3
100
AcDbCircle
 10
482.5023149367532
 20
691.2743879019945
 30
0.0000000000000000
 40
3.000000000000000
  0
LINE
  5
139
100
AcDbEntity
  8
MAIN0
  6
CONTINUOUS
 62
3
100
AcDbLine
 10
94.41025137190972
 20
426.9392587173545
 30
0.0000000000000000
 11
98.46025137190966
 21
426.9392587173545
 31
0.0000000000000000
  0
LINE
  5
13A
100
AcDbEntity
  8
MAIN0
  6
CONTINUOUS
 62
3
100
AcDbLine
 10
222.9602513719096
 20
426.9392587173545
 30
0.0000000000000000
 11
227.0102513719096
 21
426.9392587173545
 31
0.0000000000000000
  0
LINE
  5
13B
100
AcDbEntity
  8
MAIN0
  6
CONTINUOUS
 62
3
100
AcDbLine
 10
191.7102513719096
 20
422.2392587173543
 30
0.0000000000000000
 11
191.7102513719096
 21
425.7392587173545
 31
0.0000000000000000
  0
LINE
  5
13C
100
AcDbEntity
  8
MAIN0
  6
CONTINUOUS
 62
3
100
AcDbLine
 10
129.7102513719096
 20
422.2392587173544
 30
0.0000000000000000
 11
129.7102513719096
 21
425.7392587173545
 31
0.0000000000000000
  0
DIMENSION
  5
144
100
AcDbEntity
  8
MAIN0
  6
CONTINUOUS
 62
3
100
AcDbDimension
  2
*D13
 10
387.5023149380588
 20
367.2452976224615
 30
0.0000000000000000
 11
425.0023149376093
 21
367.7452976224615
 31
0.0000000000000000
 70
32
  3
MAIN001
100
AcDbAlignedDimension
 13
462.5023149371599
 23
391.0211229385301
 33
0.0000000000000000
 14
387.5023149380588
 24
325.7392587173546
 34
0.0000000000000000
100
AcDbRotatedDimension
1001
ACAD
1000
DSTYLE
1002
{
1070
   173
1070
     1
1070
     6
1000
_OPEN
1070
     7
1000
_OPEN
1070
    41
1040
6.000000
1002
}
  0
DIMENSION
  5
14D
100
AcDbEntity
  8
MAIN0
  6
CONTINUOUS
 62
3
100
AcDbDimension
  2
*D14
 10
462.5023149371599
 20
367.2452976224615
 30
0.0000000000000000
 11
570.0023149369854
 21
367.7452976224615
 31
0.0000000000000000
 70
32
  3
MAIN001
100
AcDbAlignedDimension
 13
677.5023149368109
 23
391.8118778997653
 33
0.0000000000000000
 14
462.5023149371599
 24
391.0211229385301
 34
0.0000000000000000
100
AcDbRotatedDimension
1001
ACAD
1000
DSTYLE
1002
{
1070
   173
1070
     1
1070
     6
1000
_OPEN
1070
     7
1000
_OPEN
1070
    41
1040
6.000000
1002
}
  0
MTEXT
  5
14E
100
AcDbEntity
  8
MAIN0
  6
CONTINUOUS
 62
3
100
AcDbMText
 10
725.3213712816462
 20
499.5835180168671
 30
0.0000000000000000
 40
9.299999713897705
 41
0.0000000000000000
 71
     1
 72
     1
  1
{\H0.93x;{２x２ーＭ１０}}
 11
1.000000000000000
 21
0.0000000000000000
 31
0.0000000000000000
  7
KNJYOKO
  0
LEADER
  5
14F
100
AcDbEntity
  8
MAIN0
  6
CONTINUOUS
 62
3
100
AcDbLeader
  3
MAIN001
 73
     3
 74
     0
 75
     0
 76
     3
 10
679.7752104539144
 20
403.1927905712882
 30
0.0000000000000000
 10
723.0774901719244
 20
488.0396657253812
 30
0.0000000000000000
 10
795.3455876357432
 20
488.0396657253812
 30
0.0000000000000000
1001
ACAD
1000
DSTYLE
1002
{
1070
   173
1070
     1
1070
     6
1000
_OPEN
1070
     7
1000
_OPEN
1002
}
  0
DIMENSION
  5
15A
100
AcDbEntity
  8
MAIN0
  6
CONTINUOUS
 62
3
100
AcDbDimension
  2
*D15
 10
1129.585048047215
 20
451.9513945324902
 30
0.0000000000000000
 11
1136.585048047215
 21
452.4513945324902
 31
0.0000000000000000
 70
32
  3
MAIN001
100
AcDbAlignedDimension
 13
1143.585048047215
 23
394.7807106016959
 33
0.0000000000000000
 14
1129.585048047215
 24
394.7807106016750
 34
0.0000000000000000
100
AcDbRotatedDimension
1001
ACAD
1000
DSTYLE
1002
{
1070
   173
1070
     1
1070
     6
1000
_OPEN
1070
     7
1000
_OPEN
1070
    41
1040
6.000000
1070
   287
1070
     0
1002
}
  0
LINE
  5
15B
100
AcDbEntity
  8
MAIN0
  6
CONTINUOUS
 62
3
100
AcDbLine
 10
1079.585048047215
 20
355.7392587173544
 30
0.0000000000000000
 11
1002.585048047215
 21
355.7392587173544
 31
0.0000000000000000
  0
LINE
  5
15C
100
AcDbEntity
  8
MAIN0
  6
CONTINUOUS
 62
3
100
AcDbLine
 10
1073.585048047215
 20
335.7392587173545
 30
0.0000000000000000
 11
1026.082915631744
 21
335.7392587173545
 31
0.0000000000000000
  0
LINE
  5
15D
100
AcDbEntity
  8
MAIN0
  6
CONTINUOUS
 62
3
100
AcDbLine
 10
1002.585048047215
 20
355.7392587173545
 30
0.0000000000000000
 11
1004.285048047215
 21
325.7392587173546
 31
0.0000000000000000
  0
LINE
  5
15E
100
AcDbEntity
  8
MAIN0
  6
CONTINUOUS
 62
3
100
AcDbLine
 10
1019.285048037577
 20
325.7392587173541
 30
0.0000000000000000
 11
1020.174069113674
 21
330.7811477833772
 31
0.0000000000000000
  0
ARC
  5
15F
100
AcDbEntity
  8
MAIN0
  6
CONTINUOUS
 62
3
100
AcDbCircle
 10
1026.082915631744
 20
329.7392587173546
 30
0.0000000000000000
 40
6.000000000000000
100
AcDbArc
 50
90.00000000000000
 51
169.9999999997949
  0
LINE
  5
160
100
AcDbEntity
  8
MAIN0
  6
CONTINUOUS
 62
3
100
AcDbLine
 10
1019.285048037577
 20
325.7392587173545
 30
0.0000000000000000
 11
1004.285048047215
 21
325.7392587173545
 31
0.0000000000000000
  0
LINE
  5
161
100
AcDbEntity
  8
MAIN0
  6
CENTER
 62
3
100
AcDbLine
 10
1050.585048047214
 20
186.4209911396081
 30
0.0000000000000000
 11
1050.585048047215
 21
381.6895202508752
 31
0.0000000000000000
  0
LINE
  5
162
100
AcDbEntity
  8
MAIN0
  6
CONTINUOUS
 62
3
100
AcDbLine
 10
1068.085048047215
 20
360.7392587173544
 30
0.0000000000000000
 11
1033.085048047215
 21
360.7392587173544
 31
0.0000000000000000
  0
LINE
  5
163
100
AcDbEntity
  8
MAIN0
  6
CONTINUOUS
 62
3
100
AcDbLine
 10
1068.085048047215
 20
355.7392587173544
 30
0.0000000000000000
 11
1068.085048047215
 21
360.7392587173544
 31
0.0000000000000000
  0
LINE
  5
164
100
AcDbEntity
  8
MAIN0
  6
CONTINUOUS
 62
3
100
AcDbLine
 10
1033.085048047215
 20
355.7392587173544
 30
0.0000000000000000
 11
1033.085048047215
 21
360.7392587173544
 31
0.0000000000000000
  0
DIMENSION
  5
16E
100
AcDbEntity
  8
MAIN0
  6
CONTINUOUS
 62
1
100
AcDbDimension
  2
*D16
 10
1073.585048047215
 20
276.4196472231847
 30
0.0000000000000000
 11
1099.784510785994
 21
277.9196472231847
 31
0.0000000000000000
 70
160
  1
\A1;15～31
  3
MAIN001
100
AcDbAlignedDimension
 13
1050.585048047214
 23
186.4209911396142
 33
0.0000000000000000
 14
1073.585048047215
 24
325.7392587173545
 34
0.0000000000000000
100
AcDbRotatedDimension
1001
ACAD
1000
DSTYLE
1002
{
1070
   173
1070
     1
1070
     6
1000
_OPEN
1070
     7
1000
_OPEN
1070
    41
1040
6.000000
1070
   287
1070
     0
1070
   340
1005
16F
1002
}
  0
LINE
  5
170
100
AcDbEntity
  8
MAIN0
  6
CENTER
 62
3
100
AcDbLine
 10
868.6053896360095
 20
443.5668311030089
 30
0.0000000000000000
 11
907.5819401762357
 21
443.5668311029837
 31
0.0000000000000000
  0
LINE
  5
171
100
AcDbEntity
  8
MAIN0
  6
CENTER
 62
3
100
AcDbLine
 10
922.0819401762356
 20
443.5668311029745
 30
0.0000000000000000
 11
958.3453120652983
 21
443.5668311029512
 31
0.0000000000000000
  0
DIMENSION
  5
17A
100
AcDbEntity
  8
MAIN0
  6
CONTINUOUS
 62
3
100
AcDbDimension
  2
*D17
 10
884.9968633083809
 20
623.5668311018519
 30
0.0000000000000000
 11
884.4968633083809
 21
533.5668311024201
 31
0.0000000000000000
 70
32
  3
MAIN001
100
AcDbAlignedDimension
 13
900.2777895255313
 23
443.5668311029884
 33
0.0000000000000000
 14
938.4226896017365
 24
623.5668311018519
 34
0.0000000000000000
 50
90.00000000000000
100
AcDbRotatedDimension
1001
ACAD
1000
DSTYLE
1002
{
1070
   173
1070
     1
1070
     6
1000
_OPEN
1070
     7
1000
_OPEN
1070
    41
1040
6.000000
1002
}
  0
DIMENSION
  5
183
100
AcDbEntity
  8
MAIN0
  6
CONTINUOUS
 62
3
100
AcDbDimension
  2
*D18
 10
466.5023149380585
 20
492.6514664285336
 30
0.0000000000000000
 11
447.0023149380586
 21
493.1514664285336
 31
0.0000000000000000
 70
32
  3
MAIN001
100
AcDbAlignedDimension
 13
427.5023149380587
 23
463.0712992362880
 33
0.0000000000000000
 14
466.5023149380585
 24
465.2392587173531
 34
0.0000000000000000
100
AcDbRotatedDimension
1001
ACAD
1000
DSTYLE
1002
{
1070
   173
1070
     1
1070
     6
1000
_OPEN
1070
     7
1000
_OPEN
1070
    41
1040
6.000000
1002
}
  0
DIMENSION
  5
18D
100
AcDbEntity
  8
MAIN0
  6
CONTINUOUS
 62
3
100
AcDbDimension
  2
*D19
 10
495.9809061002134
 20
465.2392587173545
 30
0.0000000000000000
 11
494.4809061002134
 21
481.4536859274973
 31
0.0000000000000000
 70
160
  3
MAIN001
100
AcDbAlignedDimension
 13
435.1838579871608
 23
455.7392587173546
 33
0.0000000000000000
 14
466.5023149380585
 24
465.2392587173545
 34
0.0000000000000000
 50
90.00000000000000
100
AcDbRotatedDimension
1001
ACAD
1000
DSTYLE
1002
{
1070
   173
1070
     1
1070
     6
1000
_DOT
1070
     7
1000
_OPEN
1070
    41
1040
6.000000
1070
   287
1070
     0
1002
}
  0
DIMENSION
  5
197
100
AcDbEntity
  8
MAIN0
  6
CONTINUOUS
 62
3
100
AcDbDimension
  2
*D20
 10
495.9809061002134
 20
455.7392587173546
 30
0.0000000000000000
 11
495.4809061002134
 21
445.7392587173546
 31
0.0000000000000000
 70
32
  3
MAIN001
100
AcDbAlignedDimension
 13
435.4630961612583
 23
435.7392587173546
 33
0.0000000000000000
 14
435.1838579871608
 24
455.7392587173546
 34
0.0000000000000000
 50
90.00000000000000
100
AcDbRotatedDimension
1001
ACAD
1000
DSTYLE
1002
{
1070
   173
1070
     1
1070
     6
1000
_OPEN
1070
     7
1000
_DOT
1070
    41
1040
6.000000
1070
   287
1070
     0
1002
}
  0
LINE
  5
198
100
AcDbEntity
  8
MAIN0
  6
CONTINUOUS
 62
3
100
AcDbLine
 10
809.5023149380579
 20
709.2743879019945
 30
0.0000000000000000
 11
816.5023149380579
 21
709.2743879019945
 31
0.0000000000000000
  0
LINE
  5
199
100
AcDbEntity
  8
MAIN0
  6
CONTINUOUS
 62
3
100
AcDbLine
 10
791.5023149380579
 20
704.2743879019945
 30
0.0000000000000000
 11
807.5023149375002
 21
704.2743879019945
 31
0.0000000000000000
  0
LINE
  5
19A
100
AcDbEntity
  8
MAIN0
  6
CONTINUOUS
 62
3
100
AcDbLine
 10
809.5023149380579
 20
709.2743879019945
 30
0.0000000000000000
 11
807.5023149375002
 21
704.2743879019945
 31
0.0000000000000000
  0
LINE
  5
19B
100
AcDbEntity
  8
MAIN0
  6
CONTINUOUS
 62
3
100
AcDbLine
 10
809.5023149380579
 20
673.2743879019945
 30
0.0000000000000000
 11
807.5023149375002
 21
678.2743879019945
 31
0.0000000000000000
  0
LINE
  5
19C
100
AcDbEntity
  8
MAIN0
  6
CONTINUOUS
 62
3
100
AcDbLine
 10
809.5023149380579
 20
673.2743879019945
 30
0.0000000000000000
 11
816.5023149380579
 21
673.2743879019945
 31
0.0000000000000000
  0
LINE
  5
19D
100
AcDbEntity
  8
MAIN0
  6
CONTINUOUS
 62
3
100
AcDbLine
 10
791.5023149380579
 20
678.2743879019945
 30
0.0000000000000000
 11
807.5023149375002
 21
678.2743879019945
 31
0.0000000000000000
  0
LINE
  5
19E
100
AcDbEntity
  8
MAIN0
  6
CONTINUOUS
 62
3
100
AcDbLine
 10
809.5023149380580
 20
652.2743879019946
 30
0.0000000000000000
 11
809.5023149380580
 21
673.2743879019945
 31
0.0000000000000000
  0
LINE
  5
19F
100
AcDbEntity
  8
MAIN0
  6
CONTINUOUS
 62
3
100
AcDbLine
 10
809.5023149380579
 20
709.2743879019945
 30
0.0000000000000000
 11
809.5023149380579
 21
730.2743879019945
 31
0.0000000000000000
  0
LINE
  5
1A0
100
AcDbEntity
  8
MAIN0
  6
CONTINUOUS
 62
3
100
AcDbLine
 10
807.5023149373628
 20
678.2743879019945
 30
0.0000000000000000
 11
807.5023149372360
 21
654.2743879019945
 31
0.0000000000000000
  0
LINE
  5
1A1
100
AcDbEntity
  8
MAIN0
  6
CONTINUOUS
 62
3
100
AcDbLine
 10
807.5023149376270
 20
728.2743879019946
 30
0.0000000000000000
 11
807.5023149375002
 21
704.2743879019945
 31
0.0000000000000000
  0
DIMENSION
  5
1AA
100
AcDbEntity
  8
MAIN0
  6
CONTINUOUS
 62
3
100
AcDbDimension
  2
*D21
 10
988.5844690718102
 20
325.7392587173545
 30
0.0000000000000000
 11
988.0844690718102
 21
340.7392587173545
 31
0.0000000000000000
 70
32
  3
MAIN001
100
AcDbAlignedDimension
 13
1002.585048047215
 23
355.7392587173544
 33
0.0000000000000000
 14
1004.285048047215
 24
325.7392587173545
 34
0.0000000000000000
 50
90.00000000000000
100
AcDbRotatedDimension
1001
ACAD
1000
DSTYLE
1002
{
1070
   173
1070
     1
1070
     6
1000
_OPEN
1070
     7
1000
_OPEN
1070
    41
1040
6.000000
1002
}
  0
DIMENSION
  5
1B5
100
AcDbEntity
  8
MAIN0
  6
CONTINUOUS
 62
3
100
AcDbDimension
  2
*D22
 10
988.5844690718102
 20
355.7392587173544
 30
0.0000000000000000
 11
987.0844690718102
 21
375.7530537947483
 31
0.0000000000000000
 70
160
  3
MAIN001
100
AcDbAlignedDimension
 13
1033.085048047215
 23
360.7392587173544
 33
0.0000000000000000
 14
1002.585048047215
 24
355.7392587173544
 34
0.0000000000000000
 50
90.00000000000000
100
AcDbRotatedDimension
1001
ACAD
1000
DSTYLE
1002
{
1070
   173
1070
     1
1070
     6
1000
_OPEN
1070
     7
1000
_OPEN
1070
    41
1040
6.000000
1070
   287
1070
     0
1002
}
  0
DIMENSION
  5
1BF
100
AcDbEntity
  8
MAIN0
  6
CONTINUOUS
 62
3
100
AcDbDimension
  2
*D23
 10
586.5761638823733
 20
446.9392587173544
 30
0.0000000000000000
 11
586.0761638823733
 21
436.3392587173544
 31
0.0000000000000000
 70
32
  3
MAIN001
100
AcDbAlignedDimension
 13
614.5023149380586
 23
425.7392587173545
 33
0.0000000000000000
 14
614.5023149380586
 24
446.9392587173544
 34
0.0000000000000000
 50
90.00000000000000
100
AcDbRotatedDimension
1001
ACAD
1000
DSTYLE
1002
{
1070
   173
1070
     1
1070
     6
1000
_OPEN
1070
     7
1000
_OPEN
1070
    41
1040
6.000000
1070
   287
1070
     0
1002
}
  0
DIMENSION
  5
1C8
100
AcDbEntity
  8
MAIN0
  6
CONTINUOUS
 62
3
100
AcDbDimension
  2
*D24
 10
1069.085048047215
 20
517.1290205643535
 30
0.0000000000000000
 11
1136.585048047215
 21
517.6290205643535
 31
0.0000000000000000
 70
32
  3
MAIN001
100
AcDbAlignedDimension
 13
1204.085048047215
 23
445.7392587173544
 33
0.0000000000000000
 14
1069.085048047215
 24
445.7392587173544
 34
0.0000000000000000
100
AcDbRotatedDimension
1001
ACAD
1000
DSTYLE
1002
{
1070
   173
1070
     1
1070
     6
1000
_OPEN
1070
     7
1000
_OPEN
1070
    41
1040
6.000000
1002
}
  0
DIMENSION
  5
1D2
100
AcDbEntity
  8
MAIN0
  6
CONTINUOUS
 62
3
100
AcDbDimension
  2
*D25
 10
568.5334469223730
 20
325.7392587173545
 30
0.0000000000000000
 11
567.0334469223730
 21
311.2919596964647
 31
0.0000000000000000
 70
160
  3
MAIN001
100
AcDbAlignedDimension
 13
600.0023149380589
 23
320.7392587173542
 33
0.0000000000000000
 14
600.0023149380588
 24
325.7392587173545
 34
0.0000000000000000
 50
90.00000000000000
100
AcDbRotatedDimension
1001
ACAD
1000
DSTYLE
1002
{
1070
   173
1070
     1
1070
     6
1000
_OPEN
1070
     7
1000
_OPEN
1070
    41
1040
6.000000
1070
   287
1070
     0
1002
}
  0
LINE
  5
1D3
100
AcDbEntity
  8
MAIN0
  6
CENTER
 62
3
100
AcDbLine
 10
577.5023149380579
 20
699.7030694009932
 30
0.0000000000000000
 11
577.5023149380579
 21
683.5768693802402
 31
0.0000000000000000
  0
CIRCLE
  5
1D4
100
AcDbEntity
  8
MAIN0
  6
CONTINUOUS
 62
3
100
AcDbCircle
 10
577.5023149380579
 20
691.2743879019945
 30
0.0000000000000000
 40
5.000000000000000
  0
CIRCLE
  5
1D5
100
AcDbEntity
  8
MAIN0
  6
CONTINUOUS
 62
3
100
AcDbCircle
 10
577.5023149380579
 20
691.2743879019945
 30
0.0000000000000000
 40
4.250000000000000
  0
CIRCLE
  5
1D6
100
AcDbEntity
  8
MAIN0
  6
CONTINUOUS
 62
3
100
AcDbCircle
 10
427.5023149380580
 20
691.2743879019945
 30
0.0000000000000000
 40
5.000000000000000
  0
CIRCLE
  5
1D7
100
AcDbEntity
  8
MAIN0
  6
CONTINUOUS
 62
3
100
AcDbCircle
 10
427.5023149380580
 20
691.2743879019945
 30
0.0000000000000000
 40
4.250000000000000
  0
LINE
  5
1D8
100
AcDbEntity
  8
MAIN0
  6
CENTER
 62
3
100
AcDbLine
 10
427.5023149380581
 20
698.7082083837902
 30
0.0000000000000000
 11
427.5023149380581
 21
681.5661220801080
 31
0.0000000000000000
  0
LEADER
  5
1D9
100
AcDbEntity
  8
MAIN0
  6
CONTINUOUS
 62
3
100
AcDbLeader
  3
MAIN001
 73
     0
 75
     1
 40
9.299999713897705
 41
86.69900243186953
 76
     3
 10
426.4185860224400
 20
696.1555283053689
 30
0.0000000000000000
 10
403.2484100402156
 20
800.5145432861896
 30
0.0000000000000000
 10
397.4694102075854
 20
800.5145432861896
 30
0.0000000000000000
340
1DA
213
0.0000000000000000
223
-1.500000000000000
233
0.0000000000000000
1001
ACAD
1000
DSTYLE
1002
{
1070
   147
1040
0.0
1070
    77
1070
     1
1070
   173
1070
     1
1070
     6
1000
_OPEN
1070
     7
1000
_OPEN
1002
}
  0
MTEXT
  5
1DA
102
{ACAD_REACTORS
330
1D9
102
}
100
AcDbEntity
  8
MAIN0
  6
CONTINUOUS
 62
3
100
AcDbMText
 10
310.7704077757159
 20
811.3145430000873
 30
0.0000000000000000
 40
9.299999713897705
 41
0.0000000000000000
 71
     1
 72
     1
  1
{\H0.93x;{ M10\P（吊りボルト用）\P（EYE BOLT）\P}
 11
1.000000000000000
 21
0.0000000000000000
 31
0.0000000000000000
  7
KNJYOKO
  0
LEADER
  5
1DB
100
AcDbEntity
  8
MAIN0
  6
CONTINUOUS
 62
3
100
AcDbLeader
  3
MAIN001
 73
     0
 75
     1
 40
9.299999713897705
 41
86.69900243186953
 76
     3
 10
576.3805099285411
 20
696.1469184068371
 30
0.0000000000000000
 10
552.3519021434602
 20
800.5145432867813
 30
0.0000000000000000
 10
546.5729023108301
 20
800.5145432867813
 30
0.0000000000000000
340
1DC
213
0.0000000000000000
223
-1.500000000000000
233
0.0000000000000000
1001
ACAD
1000
DSTYLE
1002
{
1070
   147
1040
0.0
1070
    77
1070
     1
1070
   173
1070
     1
1070
     6
1000
_OPEN
1070
     7
1000
_OPEN
1002
}
  0
MTEXT
  5
1DC
102
{ACAD_REACTORS
330
1DB
102
}
100
AcDbEntity
  8
MAIN0
  6
CONTINUOUS
 62
3
100
AcDbMText
 10
459.8738998789605
 20
811.3145430006790
 30
0.0000000000000000
 40
9.299999713897705
 41
0.0000000000000000
 71
     1
 72
     1
  1
{\H0.93x;{ M10\P（吊りボルト用）\P（EYE BOLT）\P}
 11
1.000000000000000
 21
0.0000000000000000
 31
0.0000000000000000
  7
KNJYOKO
  0
DIMENSION
  5
1E5
100
AcDbEntity
  8
MAIN0
  6
CONTINUOUS
 62
3
100
AcDbDimension
  2
*D26
 10
540.5023149380581
 20
590.9425284920619
 30
0.0000000000000000
 11
559.0023149380580
 21
591.4425284920619
 31
0.0000000000000000
 70
32
  3
MAIN001
100
AcDbAlignedDimension
 13
577.5023149380579
 23
683.5768693802402
 33
0.0000000000000000
 14
540.5023149380581
 24
629.0243879019935
 34
0.0000000000000000
100
AcDbRotatedDimension
1001
ACAD
1000
DSTYLE
1002
{
1070
   173
1070
     1
1070
     6
1000
_OPEN
1070
     7
1000
_OPEN
1070
    41
1040
6.000000
1002
}
  0
MTEXT
  5
1E6
100
AcDbEntity
  8
MAIN0
  6
CONTINUOUS
 62
3
100
AcDbMText
 10
844.9812508673396
 20
193.4949875090833
 30
0.0000000000000000
 40
9.299999713897705
 41
0.0000000000000000
 71
     1
 72
     1
  1
{\H0.94x;{(押さえ金具４セット付属)}}
 11
1.000000000000000
 21
0.0000000000000000
 31
0.0000000000000000
  7
KNJYOKO
  0
MTEXT
  5
1E7
100
AcDbEntity
  8
MAIN0
  6
CONTINUOUS
 62
3
100
AcDbMText
 10
846.0812047023049
 20
177.2183238583668
 30
0.0000000000000000
 40
9.000000000000000
 41
0.0000000000000000
 71
     1
 72
     1
  1
{\H0.63x;{(CLAMPING PARTS  ACCESSARY 4 PAIR)}}
 11
1.000000000000000
 21
0.0000000000000000
 31
0.0000000000000000
  7
STANDARD
  0
LEADER
  5
1E8
100
AcDbEntity
  8
MAIN0
  6
CONTINUOUS
 62
3
100
AcDbLeader
  3
MAIN001
 73
     0
 75
     1
 40
9.000000000000000
 41
78.29899792575839
 76
     3
 10
1044.396300535935
 20
368.0917561496147
 30
0.0000000000000000
 10
980.4723453292517
 20
255.3227339079783
 30
0.0000000000000000
 10
975.4313453292516
 20
255.3227339079783
 30
0.0000000000000000
340
1E9
213
0.0000000000000000
223
-1.500000000000000
233
0.0000000000000000
1001
ACAD
1000
DSTYLE
1002
{
1070
   147
1040
0.0
1070
    77
1070
     1
1070
   173
1070
     1
1070
     6
1000
_DOT
1070
     7
1000
_DOT
1002
}
  0
MTEXT
  5
1E9
102
{ACAD_REACTORS
330
1E8
102
}
100
AcDbEntity
  8
MAIN0
  6
CONTINUOUS
 62
3
100
AcDbMText
 10
897.1323474034932
 20
265.8227339079783
 30
0.0000000000000000
 40
9.000000000000000
 41
0.0000000000000000
 71
     1
 72
     1
  1
{\H0.61x;{六角穴付ボルト\PM16×65\PHEX,SOCKET HEAD\PCAP SCREW}}
 11
1.000000000000000
 21
0.0000000000000000
 31
0.0000000000000000
  7
KNJYOKO
  0
DIMENSION
  5
1F2
100
AcDbEntity
  8
MAIN0
  6
CONTINUOUS
 62
3
100
AcDbDimension
  2
*D27
 10
345.6656028436039
 20
716.2743879019945
 30
0.0000000000000000
 11
345.1656028436039
 21
691.2743879019945
 31
0.0000000000000000
 70
32
  3
MAIN001
100
AcDbAlignedDimension
 13
393.2676495523295
 23
666.2743879019945
 33
0.0000000000000000
 14
393.2676495523295
 24
716.2743879019945
 34
0.0000000000000000
 50
90.00000000000000
100
AcDbRotatedDimension
1001
ACAD
1000
DSTYLE
1002
{
1070
   173
1070
     1
1070
     6
1000
_OPEN
1070
     7
1000
_OPEN
1070
    41
1040
6.000000
1002
}
  0
LEADER
  5
1F3
100
AcDbEntity
  8
MAIN0
  6
CONTINUOUS
 62
3
100
AcDbLeader
  3
MAIN001
 73
     0
 75
     1
 40
9.299999713897705
 41
113.7890028824806
 76
     3
 10
397.3208717242341
 20
663.5329407203826
 30
0.0000000000000000
 10
350.1735674078024
 20
609.5371758107843
 30
0.0000000000000000
 10
344.3945675751722
 20
609.5371758107843
 30
0.0000000000000000
340
1F4
213
0.0000000000000000
223
-1.500000000000000
233
0.0000000000000000
1001
ACAD
1000
DSTYLE
1002
{
1070
   147
1040
0.0
1070
    77
1070
     1
1070
   173
1070
     1
1070
     6
1000
_OPEN
1070
     7
1000
_OPEN
1002
}
  0
MTEXT
  5
1F4
102
{ACAD_REACTORS
330
1F3
102
}
100
AcDbEntity
  8
MAIN0
  6
CONTINUOUS
 62
3
100
AcDbMText
 10
230.6055646926916
 20
620.3371755246820
 30
0.0000000000000000
 40
9.299999713897705
 41
0.0000000000000000
 71
     1
 72
     1
  1
{\H0.94x;{2×5-M10　深さ20\P　　　　　　　DEPTH}}
 11
1.000000000000000
 21
0.0000000000000000
 31
0.0000000000000000
  7
KNJYOKO
  0
LEADER
  5
1F5
100
AcDbEntity
  8
MAIN0
  6
CONTINUOUS
 62
3
100
AcDbLeader
  3
MAIN001
 73
     0
 75
     1
 40
9.299999713897705
 41
113.7890028824806
 76
     3
 10
425.7895700203168
 20
459.3540207906796
 30
0.0000000000000000
 10
384.1003718454067
 20
551.6104382616322
 30
0.0000000000000000
 10
378.3213720127765
 20
551.6104382616322
 30
0.0000000000000000
340
1F6
213
0.0000000000000000
223
-1.500000000000000
233
0.0000000000000000
1001
ACAD
1000
DSTYLE
1002
{
1070
   147
1040
0.0
1070
    77
1070
     1
1070
   173
1070
     1
1070
     6
1000
_OPEN
1070
     7
1000
_OPEN
1002
}
  0
MTEXT
  5
1F6
102
{ACAD_REACTORS
330
1F5
102
}
100
AcDbEntity
  8
MAIN0
  6
CONTINUOUS
 62
3
100
AcDbMText
 10
264.5323691302959
 20
562.4104379755299
 30
0.0000000000000000
 40
9.299999713897705
 41
0.0000000000000000
 71
     1
 72
     1
  1
{\H0.94x;{2×2-M10　深さ20\P　　　　　　　DEPTH}}
 11
1.000000000000000
 21
0.0000000000000000
 31
0.0000000000000000
  7
KNJYOKO
  0
DIMENSION
  5
1FF
100
AcDbEntity
  8
MAIN0
  6
CONTINUOUS
 62
3
100
AcDbDimension
  2
*D28
 10
401.5023149380578
 20
610.1882978884905
 30
0.0000000000000000
 11
439.3781671946408
 21
611.6882978884905
 31
0.0000000000000000
 70
160
  3
MAIN001
100
AcDbAlignedDimension
 13
456.5023149380578
 23
657.1671019544816
 33
0.0000000000000000
 14
401.5023149380578
 24
657.1671019544817
 34
0.0000000000000000
100
AcDbRotatedDimension
1001
ACAD
1000
DSTYLE
1002
{
1070
   173
1070
     1
1070
     6
1000
_OPEN
1070
     7
1000
_OPEN
1070
    41
1040
6.000000
1002
}
  0
DIMENSION
  5
20A
100
AcDbEntity
  8
MAIN0
  6
CONTINUOUS
 62
3
100
AcDbDimension
  2
*D29
 10
456.5023149380578
 20
610.1882978884905
 30
0.0000000000000000
 11
477.1849310479758
 21
611.6882978884905
 31
0.0000000000000000
 70
160
  3
MAIN001
100
AcDbAlignedDimension
 13
466.5023149380580
 23
629.0243879019934
 33
0.0000000000000000
 14
456.5023149380578
 24
657.1671019544816
 34
0.0000000000000000
100
AcDbRotatedDimension
1001
ACAD
1000
DSTYLE
1002
{
1070
   173
1070
     1
1070
     6
1000
_OPEN
1070
     7
1000
_OPEN
1070
    41
1040
6.000000
1070
   287
1070
     0
1002
}
  0
DIMENSION
  5
213
100
AcDbEntity
  8
MAIN0
  6
CONTINUOUS
 62
3
100
AcDbDimension
  2
*D30
 10
644.9264814552996
 20
731.2743879019945
 30
0.0000000000000000
 11
644.4264814552996
 21
691.2743879019945
 31
0.0000000000000000
 70
32
  3
MAIN001
100
AcDbAlignedDimension
 13
608.1838579871601
 23
651.2743879019945
 33
0.0000000000000000
 14
608.1838579871601
 24
731.2743879019945
 34
0.0000000000000000
 50
90.00000000000000
100
AcDbRotatedDimension
1001
ACAD
1000
DSTYLE
1002
{
1070
   173
1070
     1
1070
     6
1000
_OPEN
1070
     7
1000
_OPEN
1070
    41
1040
6.000000
1002
}
  0
LINE
  5
214
100
AcDbEntity
  8
MAIN0
  6
CENTER
 62
3
100
AcDbLine
 10
379.7151187611420
 20
691.2743879019945
 30
0.0000000000000000
 11
629.6264817414019
 21
691.2743879019945
 31
0.0000000000000000
  0
LINE
  5
215
100
AcDbEntity
  8
MAIN0
  6
CENTER
 62
3
100
AcDbLine
 10
647.9264814552996
 20
691.2743879019945
 30
0.0000000000000000
 11
849.3185624181515
 21
691.2743879019945
 31
0.0000000000000000
  0
DIMENSION
  5
21E
100
AcDbEntity
  8
MAIN0
  6
CONTINUOUS
 62
3
100
AcDbDimension
  2
*D31
 10
600.5023149380579
 20
610.1882978884905
 30
0.0000000000000000
 11
569.3061743794559
 21
611.6882978884905
 31
0.0000000000000000
 70
160
  3
MAIN001
100
AcDbAlignedDimension
 13
550.5023149380579
 23
641.6057299435001
 33
0.0000000000000000
 14
600.5023149380579
 24
641.6057299435001
 34
0.0000000000000000
100
AcDbRotatedDimension
1001
ACAD
1000
DSTYLE
1002
{
1070
   173
1070
     1
1070
     6
1000
_OPEN
1070
     7
1000
_OPEN
1070
    41
1040
6.000000
1002
}
  0
DIMENSION
  5
229
100
AcDbEntity
  8
MAIN0
  6
CONTINUOUS
 62
3
100
AcDbDimension
  2
*D32
 10
550.5023149380579
 20
610.1882978884905
 30
0.0000000000000000
 11
529.4919586352521
 21
611.6882978884905
 31
0.0000000000000000
 70
160
  3
MAIN001
100
AcDbAlignedDimension
 13
540.5023149380581
 23
629.0243879019935
 33
0.0000000000000000
 14
550.5023149380579
 24
641.6057299435001
 34
0.0000000000000000
100
AcDbRotatedDimension
1001
ACAD
1000
DSTYLE
1002
{
1070
   173
1070
     1
1070
     6
1000
_OPEN
1070
     7
1000
_OPEN
1070
    41
1040
6.000000
1070
   287
1070
     0
1002
}
  0
ELLIPSE
  5
22A
100
AcDbEntity
  8
MAIN0
  6
CONTINUOUS
 62
3
100
AcDbEllipse
 10
915.5819401762313
 20
447.0668311029895
 30
0.0000000000000000
 11
-2.050000000000000
 21
0.0000000000000000
 31
0.0000000000000000
210
0.0000000000000000
220
0.0000000000000000
230
1.000000000000000
 40
0.8536585365853660
 41
0.0000000000000000
 42
6.283185307179586
  0
LINE
  5
22B
100
AcDbEntity
  8
MAIN0
  6
CONTINUOUS
 62
3
100
AcDbLine
 10
944.5819401762161
 20
628.0668311029835
 30
0.0000000000000000
 11
944.5819401762336
 21
461.6541325324652
 31
0.0000000000000000
  0
LINE
  5
22C
100
AcDbEntity
  8
MAIN0
  6
CONTINUOUS
 62
3
100
AcDbLine
 10
952.5819401762176
 20
614.0668311029834
 30
0.0000000000000000
 11
952.5819401762367
 21
432.0668311029842
 31
0.0000000000000000
  0
LINE
  5
22D
100
AcDbEntity
  8
MAIN0
  6
CONTINUOUS
 62
3
100
AcDbLine
 10
958.5819401762162
 20
628.0668311029840
 30
0.0000000000000000
 11
958.5819401762171
 21
619.0668311029840
 31
0.0000000000000000
  0
LINE
  5
22E
100
AcDbEntity
  8
MAIN0
  6
CONTINUOUS
 62
3
100
AcDbLine
 10
956.0819401762162
 20
630.5668311029839
 30
0.0000000000000000
 11
947.0819401762162
 21
630.5668311029839
 31
0.0000000000000000
  0
LINE
  5
22F
100
AcDbEntity
  8
MAIN0
  6
CONTINUOUS
 62
3
100
AcDbLine
 10
956.0819401762171
 20
616.5668311029839
 30
0.0000000000000000
 11
955.0819401762178
 21
616.5668311029839
 31
0.0000000000000000
  0
LINE
  5
230
100
AcDbEntity
  8
MAIN0
  6
CONTINUOUS
 62
3
100
AcDbLine
 10
922.5819401762366
 20
436.5668311029838
 30
0.0000000000000000
 11
908.1819401762365
 21
436.5668311029838
 31
0.0000000000000000
  0
LINE
  5
231
100
AcDbEntity
  8
MAIN0
  6
CONTINUOUS
 62
3
100
AcDbLine
 10
931.5819401762368
 20
433.5668311029838
 30
0.0000000000000000
 11
922.5819401762368
 21
433.5668311029838
 31
0.0000000000000000
  0
LINE
  5
232
100
AcDbEntity
  8
MAIN0
  6
CONTINUOUS
 62
3
100
AcDbLine
 10
922.5819401762354
 20
443.5668311029838
 30
0.0000000000000000
 11
922.5819401762365
 21
433.5668311029838
 31
0.0000000000000000
  0
LINE
  5
233
100
AcDbEntity
  8
MAIN0
  6
CONTINUOUS
 62
3
100
AcDbLine
 10
907.5819401762353
 20
443.5668311029839
 30
0.0000000000000000
 11
907.5819401762360
 21
437.1668311029841
 31
0.0000000000000000
  0
LINE
  5
234
100
AcDbEntity
  8
MAIN0
  6
CONTINUOUS
 62
3
100
AcDbLine
 10
950.0819401762370
 20
429.5668311029838
 30
0.0000000000000000
 11
946.5101434065049
 21
429.5668311029838
 31
0.0000000000000000
  0
LINE
  5
235
100
AcDbEntity
  8
MAIN0
  6
CONTINUOUS
 62
3
100
AcDbLine
 10
931.5819401762354
 20
443.5668311029837
 30
0.0000000000000000
 11
931.5819401762365
 21
433.5668311029837
 31
0.0000000000000000
  0
LINE
  5
236
100
AcDbEntity
  8
MAIN0
  6
CONTINUOUS
 62
3
100
AcDbLine
 10
907.5819401762362
 20
437.1668311029839
 30
0.0000000000000000
 11
908.1819401762364
 21
436.5668311029838
 31
0.0000000000000000
  0
LINE
  5
237
100
AcDbEntity
  8
MAIN0
  6
CONTINUOUS
 62
3
100
AcDbLine
 10
931.5819401762366
 20
433.5668311029803
 30
0.0000000000000000
 11
946.1922270377170
 21
429.6520165372615
 31
0.0000000000000000
  0
LINE
  5
238
100
AcDbEntity
  8
MAIN0
  6
CONTINUOUS
 62
3
100
AcDbLine
 10
907.5819401762359
 20
443.5668311029837
 30
0.0000000000000000
 11
922.5819401762359
 21
443.5668311029838
 31
0.0000000000000000
  0
LINE
  5
239
100
AcDbEntity
  8
MAIN0
  6
CONTINUOUS
 62
3
100
AcDbLine
 10
922.5819401762365
 20
450.5668311029839
 30
0.0000000000000000
 11
908.1819401762364
 21
450.5668311029838
 31
0.0000000000000000
  0
LINE
  5
23A
100
AcDbEntity
  8
MAIN0
  6
CONTINUOUS
 62
3
100
AcDbLine
 10
931.5819401762367
 20
453.5668311029839
 30
0.0000000000000000
 11
922.5819401762367
 21
453.5668311029839
 31
0.0000000000000000
  0
LINE
  5
23B
100
AcDbEntity
  8
MAIN0
  6
CONTINUOUS
 62
3
100
AcDbLine
 10
922.5819401762359
 20
443.5668311029838
 30
0.0000000000000000
 11
922.5819401762369
 21
453.5668311029838
 31
0.0000000000000000
  0
LINE
  5
23C
100
AcDbEntity
  8
MAIN0
  6
CONTINUOUS
 62
3
100
AcDbLine
 10
907.5819401762357
 20
443.5668311029838
 30
0.0000000000000000
 11
907.5819401762363
 21
449.9668311029839
 31
0.0000000000000000
  0
LINE
  5
23D
100
AcDbEntity
  8
MAIN0
  6
CONTINUOUS
 62
3
100
AcDbLine
 10
931.5819401762359
 20
443.5668311029838
 30
0.0000000000000000
 11
931.5819401762369
 21
453.5668311029838
 31
0.0000000000000000
  0
LINE
  5
23E
100
AcDbEntity
  8
MAIN0
  6
CONTINUOUS
 62
3
100
AcDbLine
 10
907.5819401762365
 20
449.9668311029836
 30
0.0000000000000000
 11
908.1819401762365
 21
450.5668311029837
 31
0.0000000000000000
  0
LINE
  5
23F
100
AcDbEntity
  8
MAIN0
  6
CONTINUOUS
 62
3
100
AcDbLine
 10
931.5819401762370
 20
453.5668311029881
 30
0.0000000000000000
 11
940.1348544468484
 21
455.8585775747299
 31
0.0000000000000000
  0
ARC
  5
240
100
AcDbEntity
  8
MAIN0
  6
CONTINUOUS
 62
3
100
AcDbCircle
 10
938.5819401762338
 20
461.6541325324642
 30
0.0000000000000000
 40
6.000000000000000
100
AcDbArc
 50
284.9999999999930
 51
360.0000000000001
  0
ARC
  5
241
100
AcDbEntity
  8
MAIN0
  6
CONTINUOUS
 62
3
100
AcDbCircle
 10
950.0819401762370
 20
432.0668311029839
 30
0.0000000000000000
 40
2.500000000000000
100
AcDbArc
 50
270.0000000000001
 51
360.0000000000001
  0
ARC
  5
242
100
AcDbEntity
  8
MAIN0
  6
CONTINUOUS
 62
3
100
AcDbCircle
 10
946.8392746504732
 20
432.0668311029839
 30
0.0000000000000000
 40
2.500000000000000
100
AcDbArc
 50
255.0000000000070
 51
270.0000000000001
  0
ARC
  5
243
100
AcDbEntity
  8
MAIN0
  6
CONTINUOUS
 62
3
100
AcDbCircle
 10
947.0819401762163
 20
628.0668311029838
 30
0.0000000000000000
 40
2.500000000000000
100
AcDbArc
 50
90.00000000000007
 51
180.0000000000001
  0
ARC
  5
244
100
AcDbEntity
  8
MAIN0
  6
CONTINUOUS
 62
3
100
AcDbCircle
 10
955.0819401762177
 20
614.0668311029838
 30
0.0000000000000000
 40
2.500000000000000
100
AcDbArc
 50
90.00000000000007
 51
180.0000000000001
  0
ARC
  5
245
100
AcDbEntity
  8
MAIN0
  6
CONTINUOUS
 62
3
100
AcDbCircle
 10
947.0819401762163
 20
628.0668311029838
 30
0.0000000000000000
 40
2.500000000000000
100
AcDbArc
 50
90.00000000000007
 51
180.0000000000001
  0
ARC
  5
246
100
AcDbEntity
  8
MAIN0
  6
CONTINUOUS
 62
3
100
AcDbCircle
 10
955.0819401762179
 20
614.0668311029838
 30
0.0000000000000000
 40
2.500000000000000
100
AcDbArc
 50
90.00000000000007
 51
180.0000000000001
  0
ARC
  5
247
100
AcDbEntity
  8
MAIN0
  6
CONTINUOUS
 62
3
100
AcDbCircle
 10
956.0819401762163
 20
628.0668311029838
 30
0.0000000000000000
 40
2.500000000000000
100
AcDbArc
 50
7.633331235512440e-014
 51
90.00000000000007
  0
ARC
  5
248
100
AcDbEntity
  8
MAIN0
  6
CONTINUOUS
 62
3
100
AcDbCircle
 10
956.0819401762172
 20
619.0668311029838
 30
0.0000000000000000
 40
2.500000000000000
100
AcDbArc
 50
270.0000000000001
 51
360.0000000000001
  0
LINE
  5
249
100
AcDbEntity
  8
MAIN1
  6
CONTINUOUS
 62
7
100
AcDbLine
 10
959.0819401762168
 20
616.5668311029838
 30
0.0000000000000000
 11
959.0819401762168
 21
618.6678516174175
 31
0.0000000000000000
  0
LINE
  5
24A
100
AcDbEntity
  8
MAIN1
  6
CONTINUOUS
 62
7
100
AcDbLine
 10
958.5819401762168
 20
617.0668311029838
 30
0.0000000000000000
 11
958.5819401762168
 21
630.0668311029838
 31
0.0000000000000000
  0
LINE
  5
24B
100
AcDbEntity
  8
MAIN1
  6
CONTINUOUS
 62
7
100
AcDbLine
 10
959.0819401762168
 20
616.5668311029838
 30
0.0000000000000000
 11
966.0819401762168
 21
616.5668311029838
 31
0.0000000000000000
  0
LINE
  5
24C
100
AcDbEntity
  8
MAIN1
  6
CONTINUOUS
 62
7
100
AcDbLine
 10
959.0819401762169
 20
630.5668311029839
 30
0.0000000000000000
 11
966.0819401762169
 21
630.5668311029840
 31
0.0000000000000000
  0
LINE
  5
24D
100
AcDbEntity
  8
MAIN1
  6
CONTINUOUS
 62
7
100
AcDbLine
 10
958.5819401762167
 20
617.0668311029835
 30
0.0000000000000000
 11
959.0819401762167
 21
616.5668311029838
 31
0.0000000000000000
  0
LINE
  5
24E
100
AcDbEntity
  8
MAIN1
  6
CONTINUOUS
 62
7
100
AcDbLine
 10
966.0819401762171
 20
616.5668311029841
 30
0.0000000000000000
 11
966.5819401762170
 21
617.0668311029840
 31
0.0000000000000000
  0
LINE
  5
24F
100
AcDbEntity
  8
MAIN1
  6
CONTINUOUS
 62
7
100
AcDbLine
 10
966.0819401762166
 20
630.5668311029837
 30
0.0000000000000000
 11
966.5819401762165
 21
630.0668311029838
 31
0.0000000000000000
  0
LINE
  5
250
100
AcDbEntity
  8
MAIN1
  6
CONTINUOUS
 62
7
100
AcDbLine
 10
959.0819401762169
 20
630.5668311029838
 30
0.0000000000000000
 11
958.5819401762170
 21
630.0668311029839
 31
0.0000000000000000
  0
LINE
  5
251
100
AcDbEntity
  8
MAIN1
  6
CONTINUOUS
 62
7
100
AcDbLine
 10
958.5819401762168
 20
628.4658105885501
 30
0.0000000000000000
 11
964.5819401762168
 21
628.4658105885501
 31
0.0000000000000000
  0
LINE
  5
252
100
AcDbEntity
  8
MAIN1
  6
CONTINUOUS
 62
7
100
AcDbLine
 10
958.5819401762168
 20
618.6678516174175
 30
0.0000000000000000
 11
964.5819401762168
 21
618.6678516174175
 31
0.0000000000000000
  0
LINE
  5
253
100
AcDbEntity
  8
MAIN1
  6
CONTINUOUS
 62
7
100
AcDbLine
 10
959.0819401762168
 20
628.4658105885501
 30
0.0000000000000000
 11
959.0819401762168
 21
630.5668311029838
 31
0.0000000000000000
  0
LINE
  5
254
100
AcDbEntity
  8
MAIN1
  6
CONTINUOUS
 62
7
100
AcDbLine
 10
966.0819401762168
 20
616.5668311029838
 30
0.0000000000000000
 11
966.0819401762168
 21
630.5668311029838
 31
0.0000000000000000
  0
LINE
  5
255
100
AcDbEntity
  8
MAIN1
  6
CONTINUOUS
 62
7
100
AcDbLine
 10
966.5819401762168
 20
630.0532527583332
 30
0.0000000000000000
 11
966.5819401762168
 21
617.0804094476343
 31
0.0000000000000000
  0
LINE
  5
256
100
AcDbEntity
  8
MAIN1
  6
CONTINUOUS
 62
7
100
AcDbLine
 10
1020.906833338394
 20
614.5668311029835
 30
0.0000000000000000
 11
984.5819401762168
 21
614.5668311029835
 31
0.0000000000000000
  0
LINE
  5
257
100
AcDbEntity
  8
MAIN1
  6
CONTINUOUS
 62
7
100
AcDbLine
 10
1020.906833338394
 20
632.5668311029840
 30
0.0000000000000000
 11
984.5819401762168
 21
632.5668311029840
 31
0.0000000000000000
  0
LINE
  5
258
100
AcDbEntity
  8
MAIN1
  6
CONTINUOUS
 62
7
100
AcDbLine
 10
968.0931881448209
 20
615.4828728825058
 30
0.0000000000000000
 11
984.5819401762169
 21
614.5668311029837
 31
0.0000000000000000
  0
LINE
  5
259
100
AcDbEntity
  8
MAIN1
  6
CONTINUOUS
 62
7
100
AcDbLine
 10
984.5819401762169
 20
632.5668311029840
 30
0.0000000000000000
 11
968.0931881448208
 21
631.6507893234617
 31
0.0000000000000000
  0
ARC
  5
25A
100
AcDbEntity
  8
MAIN1
  6
CONTINUOUS
 62
7
100
AcDbCircle
 10
994.5819401762168
 20
623.5668311029838
 30
0.0000000000000000
 40
30.00000000000000
100
AcDbArc
 50
347.1604115930955
 51
372.8395884069045
  0
ARC
  5
25B
100
AcDbEntity
  8
MAIN1
  6
CONTINUOUS
 62
7
100
AcDbCircle
 10
1020.906833338394
 20
617.5668311029835
 30
0.0000000000000000
 40
3.000000000000000
100
AcDbArc
 50
270.0000000000000
 51
347.1604115930957
  0
ARC
  5
25C
100
AcDbEntity
  8
MAIN1
  6
CONTINUOUS
 62
7
100
AcDbCircle
 10
1020.906833338394
 20
629.5668311029840
 30
0.0000000000000000
 40
3.000000000000000
100
AcDbArc
 50
12.83958840690469
 51
89.99999999999946
  0
ARC
  5
25D
100
AcDbEntity
  8
MAIN1
  6
CONTINUOUS
 62
7
100
AcDbCircle
 10
968.1819401762169
 20
617.0804094476343
 30
0.0000000000000000
 40
1.600000000000000
100
AcDbArc
 50
180.0000000000000
 51
266.8201698801350
  0
ARC
  5
25E
100
AcDbEntity
  8
MAIN1
  6
CONTINUOUS
 62
7
100
AcDbCircle
 10
968.1819401762169
 20
630.0532527583332
 30
0.0000000000000000
 40
1.600000000000000
100
AcDbArc
 50
93.17983011986493
 51
179.9999999999999
  0
LINE
  5
25F
100
AcDbEntity
  8
MAIN1
  6
CONTINUOUS
 62
7
100
AcDbLine
 10
964.5819401762168
 20
618.6678516174175
 30
0.0000000000000000
 11
964.5819401762168
 21
628.4658105885501
 31
0.0000000000000000
  0
LINE
  5
260
100
AcDbEntity
  8
MAIN3
  6
CONTINUOUS
 62
3
100
AcDbLine
 10
958.5819401762169
 20
618.6678516174178
 30
0.0000000000000000
 11
964.5819401762169
 21
628.4658105885505
 31
0.0000000000000000
  0
LINE
  5
261
100
AcDbEntity
  8
MAIN3
  6
CONTINUOUS
 62
3
100
AcDbLine
 10
958.5819401762174
 20
628.4658105885507
 30
0.0000000000000000
 11
964.5819401762174
 21
618.6678516174179
 31
0.0000000000000000
  0
LINE
  5
262
100
AcDbEntity
  8
MAIN1
  6
CONTINUOUS
 62
7
100
AcDbLine
 10
984.5819401762168
 20
632.5668311029840
 30
0.0000000000000000
 11
984.5819401762168
 21
614.5668311029835
 31
0.0000000000000000
  0
DIMENSION
  5
26D
100
AcDbEntity
  8
MAIN0
  6
CONTINUOUS
 62
3
100
AcDbDimension
  2
*D33
 10
907.5819401762363
 20
640.9276821358299
 30
0.0000000000000000
 11
915.0819401762362
 21
641.4276821358299
 31
0.0000000000000000
 70
32
  3
MAIN001
100
AcDbAlignedDimension
 13
922.5819401762371
 23
453.5668311029839
 33
0.0000000000000000
 14
907.5819401762363
 24
449.9668311029839
 34
0.0000000000000000
100
AcDbRotatedDimension
1001
ACAD
1000
DSTYLE
1002
{
1070
   173
1070
     1
1070
     6
1000
_OPEN
1070
     7
1000
_OPEN
1070
    41
1040
6.000000
1070
   287
1070
     0
1002
}
  0
DIMENSION
  5
276
100
AcDbEntity
  8
MAIN0
  6
CONTINUOUS
 62
3
100
AcDbDimension
  2
*D34
 10
922.5819401762360
 20
640.9276821358299
 30
0.0000000000000000
 11
937.5819401762269
 21
641.4276821358299
 31
0.0000000000000000
 70
32
  3
MAIN001
100
AcDbAlignedDimension
 13
952.5819401762177
 23
614.0668311029835
 33
0.0000000000000000
 14
922.5819401762371
 24
453.5668311029839
 34
0.0000000000000000
100
AcDbRotatedDimension
1001
ACAD
1000
DSTYLE
1002
{
1070
   173
1070
     1
1070
     6
1000
_OPEN
1070
     7
1000
_OPEN
1070
    41
1040
6.000000
1002
}
  0
DIMENSION
  5
27F
100
AcDbEntity
  8
MAIN0
  6
CONTINUOUS
 62
3
100
AcDbDimension
  2
*D35
 10
952.5819401762177
 20
640.9276821358299
 30
0.0000000000000000
 11
988.5819401762149
 21
641.4276821358299
 31
0.0000000000000000
 70
32
  3
MAIN001
100
AcDbAlignedDimension
 13
1024.581940176212
 23
623.5668311029840
 33
0.0000000000000000
 14
952.5819401762177
 24
614.0668311029835
 34
0.0000000000000000
100
AcDbRotatedDimension
1001
ACAD
1000
DSTYLE
1002
{
1070
   173
1070
     1
1070
     6
1000
_OPEN
1070
     7
1000
_OPEN
1070
    41
1040
6.000000
1002
}
  0
DIMENSION
  5
288
100
AcDbEntity
  8
MAIN0
  6
CONTINUOUS
 62
3
100
AcDbDimension
  2
*D36
 10
907.5819401762357
 20
658.0466814164138
 30
0.0000000000000000
 11
966.0819401762237
 21
658.5466814164138
 31
0.0000000000000000
 70
32
  3
MAIN001
100
AcDbAlignedDimension
 13
1024.581940176212
 23
623.5668311029840
 33
0.0000000000000000
 14
907.5819401762357
 24
443.5668311029837
 34
0.0000000000000000
100
AcDbRotatedDimension
1001
ACAD
1000
DSTYLE
1002
{
1070
   173
1070
     1
1070
     6
1000
_OPEN
1070
     7
1000
_OPEN
1070
    41
1040
6.000000
1002
}
  0
DIMENSION
  5
291
100
AcDbEntity
  8
MAIN0
  6
CONTINUOUS
 62
3
100
AcDbDimension
  2
*D37
 10
427.5023149380581
 20
591.4292282976900
 30
0.0000000000000000
 11
447.0023149380580
 21
591.9292282976900
 31
0.0000000000000000
 70
32
  3
MAIN001
100
AcDbAlignedDimension
 13
466.5023149380580
 23
629.0243879019934
 33
0.0000000000000000
 14
427.5023149380581
 24
681.5661220801080
 34
0.0000000000000000
100
AcDbRotatedDimension
1001
ACAD
1000
DSTYLE
1002
{
1070
   173
1070
     1
1070
     6
1000
_OPEN
1070
     7
1000
_OPEN
1070
    41
1040
6.000000
1002
}
  0
LINE
  5
292
100
AcDbEntity
  8
MAIN0
  6
CENTER
 62
3
100
AcDbLine
 10
609.0023149380588
 20
334.4624417441553
 30
0.0000000000000000
 11
609.0023149380588
 21
314.3919186959560
 31
0.0000000000000000
  0
DIMENSION
  5
29B
100
AcDbEntity
  8
MAIN0
  6
CONTINUOUS
 62
3
100
AcDbDimension
  2
*D38
 10
387.5023149380588
 20
216.6709547363821
 30
0.0000000000000000
 11
498.2523149380588
 21
217.1709547363821
 31
0.0000000000000000
 70
32
  3
MAIN001
100
AcDbAlignedDimension
 13
609.0023149380588
 23
314.3919186959560
 33
0.0000000000000000
 14
387.5023149380588
 24
325.7392587173546
 34
0.0000000000000000
100
AcDbRotatedDimension
1001
ACAD
1000
DSTYLE
1002
{
1070
   173
1070
     1
1070
     6
1000
_OPEN
1070
     7
1000
_OPEN
1070
    41
1040
6.000000
1002
}
  0
DIMENSION
  5
2A4
100
AcDbEntity
  8
MAIN0
  6
CONTINUOUS
 62
3
100
AcDbDimension
  2
*D39
 10
609.0023149380588
 20
216.6709547363821
 30
0.0000000000000000
 11
724.0023149380588
 21
217.1709547363821
 31
0.0000000000000000
 70
32
  3
MAIN001
100
AcDbAlignedDimension
 13
839.0023149380587
 23
365.7392587173545
 33
0.0000000000000000
 14
609.0023149380588
 24
314.3919186959560
 34
0.0000000000000000
100
AcDbRotatedDimension
1001
ACAD
1000
DSTYLE
1002
{
1070
   173
1070
     1
1070
     6
1000
_OPEN
1070
     7
1000
_OPEN
1070
    41
1040
6.000000
1002
}
  0
DIMENSION
  5
2AD
100
AcDbEntity
  8
MAIN0
  6
CONTINUOUS
 62
3
100
AcDbDimension
  2
*D40
 10
466.5023149380587
 20
275.7942185944739
 30
0.0000000000000000
 11
537.7523149380587
 21
276.2942185944739
 31
0.0000000000000000
 70
32
  3
MAIN001
100
AcDbAlignedDimension
 13
609.0023149380588
 23
314.3919186959560
 33
0.0000000000000000
 14
466.5023149380587
 24
425.7392587173531
 34
0.0000000000000000
100
AcDbRotatedDimension
1001
ACAD
1000
DSTYLE
1002
{
1070
   173
1070
     1
1070
     6
1000
_OPEN
1070
     7
1000
_OPEN
1070
    41
1040
6.000000
1002
}
  0
DIMENSION
  5
2B6
100
AcDbEntity
  8
MAIN0
  6
CONTINUOUS
 62
3
100
AcDbDimension
  2
*D41
 10
609.0023149380588
 20
275.7942185944739
 30
0.0000000000000000
 11
680.7523149380587
 21
276.2942185944739
 31
0.0000000000000000
 70
32
  3
MAIN001
100
AcDbAlignedDimension
 13
752.5023149380586
 23
325.7392587173545
 33
0.0000000000000000
 14
609.0023149380588
 24
314.3919186959560
 34
0.0000000000000000
100
AcDbRotatedDimension
1001
ACAD
1000
DSTYLE
1002
{
1070
   173
1070
     1
1070
     6
1000
_OPEN
1070
     7
1000
_OPEN
1070
    41
1040
6.000000
1002
}
  0
DIMENSION
  5
2BE
100
AcDbEntity
  8
MAIN0
  6
CONTINUOUS
 62
3
100
AcDbDimension
  2
*D42
 10
654.2238320880265
 20
325.7392587173545
 30
0.0000000000000000
 11
652.7238320880265
 21
357.2884482487865
 31
0.0000000000000000
 70
160
  3
MAIN001
100
AcDbAlignedDimension
 13
669.3877264650071
 23
398.7392587170818
 33
0.0000000000000000
 14
618.0023149380588
 24
325.7392587173545
 34
0.0000000000000000
 50
90.00000000000000
100
AcDbRotatedDimension
1001
ACAD
1000
DSTYLE
1002
{
1070
   173
1070
     1
1070
     6
1000
_OPEN
1070
     7
1000
_OPEN
1070
    41
1040
6.000000
1002
}
  0
DIMENSION
  5
2C8
100
AcDbEntity
  8
MAIN0
  6
CONTINUOUS
 62
3
100
AcDbDimension
  2
*D43
 10
654.2238320880265
 20
398.7392587170818
 30
0.0000000000000000
 11
652.7238320880265
 21
435.5868285355588
 31
0.0000000000000000
 70
160
  3
MAIN001
100
AcDbAlignedDimension
 13
614.5023149380586
 23
425.7392587173545
 33
0.0000000000000000
 14
669.3877264650071
 24
398.7392587170818
 34
0.0000000000000000
 50
90.00000000000000
100
AcDbRotatedDimension
1001
ACAD
1000
DSTYLE
1002
{
1070
   173
1070
     1
1070
     6
1000
_OPEN
1070
     7
1000
_OPEN
1070
    41
1040
6.000000
1002
}
  0
DIMENSION
  5
2D1
100
AcDbEntity
  8
MAIN0
  6
CONTINUOUS
 62
3
100
AcDbDimension
  2
*D44
 10
1002.585048047215
 20
258.6297256012429
 30
0.0000000000000000
 11
1038.085048047215
 21
259.1297256012429
 31
0.0000000000000000
 70
32
  3
MAIN001
100
AcDbAlignedDimension
 13
1073.585048047215
 23
325.7392587173545
 33
0.0000000000000000
 14
1002.585048047215
 24
355.7392587173544
 34
0.0000000000000000
100
AcDbRotatedDimension
1001
ACAD
1000
DSTYLE
1002
{
1070
   173
1070
     1
1070
     6
1000
_OPEN
1070
     7
1000
_OPEN
1070
    41
1040
6.000000
1002
}
  0
DIMENSION
  5
2DA
100
AcDbEntity
  8
MAIN0
  6
CONTINUOUS
 62
3
100
AcDbDimension
  2
*D45
 10
1073.585048047215
 20
258.6297256012429
 30
0.0000000000000000
 11
1136.585048047215
 21
259.1297256012429
 31
0.0000000000000000
 70
32
  3
MAIN001
100
AcDbAlignedDimension
 13
1199.585048047215
 23
325.7392587173545
 33
0.0000000000000000
 14
1073.585048047215
 24
325.7392587173545
 34
0.0000000000000000
100
AcDbRotatedDimension
1001
ACAD
1000
DSTYLE
1002
{
1070
   173
1070
     1
1070
     6
1000
_OPEN
1070
     7
1000
_OPEN
1070
    41
1040
6.000000
1002
}
  0
INSERT
  5
2E2
100
AcDbEntity
  8
MAIN0
  6
CONTINUOUS
 62
3
100
AcDbBlockReference
  2
D46
 10
1136.585048047215
 20
313.2161989431747
 30
0.0000000000000000
 50
0.0000000000000000
  0
LINE
  5
2E3
100
AcDbEntity
  8
MAIN0
  6
CENTER
 62
3
100
AcDbLine
 10
868.6053896360099
 20
390.7392587166641
 30
0.0000000000000000
 11
868.6053896360099
 21
443.5668311030090
 31
0.0000000000000000
  0
LINE
  5
2E4
100
AcDbEntity
  8
MAIN0
  6
CONTINUOUS
 62
3
100
AcDbLine
 10
688.5023149380584
 20
446.9392587173544
 30
0.0000000000000000
 11
688.5023149380585
 21
409.9392587173543
 31
0.0000000000000000
  0
LINE
  5
2E5
100
AcDbEntity
  8
MAIN0
  6
CONTINUOUS
 62
3
100
AcDbLine
 10
688.5023149380579
 20
758.7743879019945
 30
0.0000000000000000
 11
688.5023149380581
 21
623.7743879019945
 31
0.0000000000000000
  0
LINE
  5
2E6
100
AcDbEntity
  8
MAIN0
  6
CENTER
 62
3
100
AcDbLine
 10
931.0751552790360
 20
381.6895202509116
 30
0.0000000000000000
 11
931.0751552790077
 21
288.7284418702312
 31
0.0000000000000000
  0
LINE
  5
2E7
100
AcDbEntity
  8
MAIN0
  6
CONTINUOUS
 62
3
100
AcDbLine
 10
908.5751552790289
 20
355.7392587173879
 30
0.0000000000000000
 11
910.2472864265607
 21
325.7392587175067
 31
0.0000000000000000
  0
LINE
  5
2E8
100
AcDbEntity
  8
MAIN0
  6
CONTINUOUS
 62
3
100
AcDbLine
 10
953.5751552790275
 20
355.7392587173742
 30
0.0000000000000000
 11
951.9030241314774
 21
325.7392587174940
 31
0.0000000000000000
  0
LINE
  5
2E9
100
AcDbEntity
  8
MAIN0
  6
CONTINUOUS
 62
3
100
AcDbLine
 10
908.5751552790281
 20
355.7392587173881
 30
0.0000000000000000
 11
953.5751552790281
 21
355.7392587173743
 31
0.0000000000000000
  0
LINE
  5
2EA
100
AcDbEntity
  8
MAIN0
  6
CONTINUOUS
 62
3
100
AcDbLine
 10
910.2472864265607
 20
325.7392587175066
 30
0.0000000000000000
 11
951.9030241314774
 21
325.7392587174939
 31
0.0000000000000000
  0
DIMENSION
  5
2F3
100
AcDbEntity
  8
MAIN0
  6
CONTINUOUS
 62
3
100
AcDbDimension
  2
*D47
 10
908.5751552790281
 20
396.6439580023313
 30
0.0000000000000000
 11
931.0751552790279
 21
397.1439580023313
 31
0.0000000000000000
 70
32
  3
MAIN001
100
AcDbAlignedDimension
 13
953.5751552790276
 23
355.7392587173740
 33
0.0000000000000000
 14
908.5751552790281
 24
355.7392587173879
 34
0.0000000000000000
100
AcDbRotatedDimension
1001
ACAD
1000
DSTYLE
1002
{
1070
   173
1070
     1
1070
     6
1000
_OPEN
1070
     7
1000
_OPEN
1070
    41
1040
6.000000
1002
}
  0
DIMENSION
  5
2FE
100
AcDbEntity
  8
MAIN0
  6
CONTINUOUS
 62
3
100
AcDbDimension
  2
*D48
 10
1091.448727186993
 20
218.0192920401890
 30
0.0000000000000000
 11
1089.948727186993
 21
179.3750489258561
 31
0.0000000000000000
 70
160
  3
MAIN001
100
AcDbAlignedDimension
 13
1065.585048047187
 23
200.5192920401808
 33
0.0000000000000000
 14
1065.585048047175
 24
218.0192920401807
 34
0.0000000000000000
 50
90.00000000000000
100
AcDbRotatedDimension
1001
ACAD
1000
DSTYLE
1002
{
1070
   173
1070
     1
1070
     6
1000
_OPEN
1070
     7
1000
_OPEN
1070
    41
1040
6.000000
1070
   287
1070
     0
1002
}
  0
DIMENSION
  5
309
100
AcDbEntity
  8
MAIN0
  6
CONTINUOUS
 62
3
100
AcDbDimension
  2
*D49
 10
1114.375382935473
 20
223.5192920401889
 30
0.0000000000000000
 11
1113.875382935473
 21
209.2692920401890
 31
0.0000000000000000
 70
32
  3
MAIN001
100
AcDbAlignedDimension
 13
1065.585048047191
 23
195.0192920401808
 33
0.0000000000000000
 14
1065.585048047171
 24
223.5192920401806
 34
0.0000000000000000
 50
90.00000000000000
100
AcDbRotatedDimension
1001
ACAD
1000
DSTYLE
1002
{
1070
   173
1070
     1
1070
     6
1000
_OPEN
1070
     7
1000
_OPEN
1070
    41
1040
6.000000
1070
   287
1070
     0
1002
}
  0
DIMENSION
  5
312
100
AcDbEntity
  8
MAIN0
  6
CONTINUOUS
 62
3
100
AcDbDimension
  2
*D50
 10
1035.585048047191
 20
170.1472302800502
 30
0.0000000000000000
 11
1050.585048047191
 21
170.6472302800502
 31
0.0000000000000000
 70
32
  3
MAIN001
100
AcDbAlignedDimension
 13
1065.585048047191
 23
195.0192920401809
 33
0.0000000000000000
 14
1035.585048047191
 24
195.0192920401891
 34
0.0000000000000000
100
AcDbRotatedDimension
1001
ACAD
1000
DSTYLE
1002
{
1070
   173
1070
     1
1070
     6
1000
_OPEN
1070
     7
1000
_OPEN
1070
    41
1040
6.000000
1002
}
  0
DIMENSION
  5
31B
100
AcDbEntity
  8
MAIN0
  6
CONTINUOUS
 62
3
100
AcDbDimension
  2
*D51
 10
345.6656028436039
 20
325.7392587173545
 30
0.0000000000000000
 11
345.1656028436039
 21
375.7392587173545
 31
0.0000000000000000
 70
32
  3
MAIN001
100
AcDbAlignedDimension
 13
387.5023149380586
 23
425.7392587173545
 33
0.0000000000000000
 14
387.5023149380587
 24
325.7392587173545
 34
0.0000000000000000
 50
90.00000000000000
100
AcDbRotatedDimension
1001
ACAD
1000
DSTYLE
1002
{
1070
   173
1070
     1
1070
     6
1000
_OPEN
1070
     7
1000
_OPEN
1070
    41
1040
6.000000
1002
}
  0
DIMENSION
  5
324
100
AcDbEntity
  8
MAIN0
  6
CONTINUOUS
 62
3
100
AcDbDimension
  2
*D52
 10
345.6656028436039
 20
425.7392587173545
 30
0.0000000000000000
 11
345.1656028436039
 21
445.4892587173545
 31
0.0000000000000000
 70
32
  3
MAIN001
100
AcDbAlignedDimension
 13
388.5023149380585
 23
465.2392587173545
 33
0.0000000000000000
 14
387.5023149380586
 24
425.7392587173545
 34
0.0000000000000000
 50
90.00000000000000
100
AcDbRotatedDimension
1001
ACAD
1000
DSTYLE
1002
{
1070
   173
1070
     1
1070
     6
1000
_OPEN
1070
     7
1000
_OPEN
1070
    41
1040
6.000000
1002
}
  0
DIMENSION
  5
32D
100
AcDbEntity
  8
MAIN0
  6
CONTINUOUS
 62
3
100
AcDbDimension
  2
*D53
 10
316.0706274767673
 20
325.7392587173545
 30
0.0000000000000000
 11
315.5706274767673
 21
395.4892587173545
 31
0.0000000000000000
 70
32
  3
MAIN001
100
AcDbAlignedDimension
 13
388.5023149380585
 23
465.2392587173545
 33
0.0000000000000000
 14
387.5023149380587
 24
325.7392587173545
 34
0.0000000000000000
 50
90.00000000000000
100
AcDbRotatedDimension
1001
ACAD
1000
DSTYLE
1002
{
1070
   173
1070
     1
1070
     6
1000
_OPEN
1070
     7
1000
_OPEN
1070
    41
1040
6.000000
1002
}
  0
DIMENSION
  5
336
100
AcDbEntity
  8
MAIN0
  6
CONTINUOUS
 62
3
100
AcDbDimension
  2
*D54
 10
883.9907412110829
 20
325.7392587173545
 30
0.0000000000000000
 11
883.4907412110829
 21
358.2392587169054
 31
0.0000000000000000
 70
32
  3
MAIN001
100
AcDbAlignedDimension
 13
868.6053896360099
 23
390.7392587166641
 33
0.0000000000000000
 14
752.5023149380587
 24
325.7392587173545
 34
0.0000000000000000
 50
90.00000000000000
100
AcDbRotatedDimension
1001
ACAD
1000
DSTYLE
1002
{
1070
   173
1070
     1
1070
     6
1000
_OPEN
1070
     7
1000
_OPEN
1070
    41
1040
6.000000
1002
}
  0
LINE
  5
337
100
AcDbEntity
  8
MAIN0
  6
CONTINUOUS
 62
3
100
AcDbLine
 10
1079.585048047215
 20
346.7392587173545
 30
0.0000000000000000
 11
1079.585048047215
 21
355.7392587173545
 31
0.0000000000000000
  0
LINE
  5
338
100
AcDbEntity
  8
MAIN0
  6
CONTINUOUS
 62
3
100
AcDbLine
 10
1062.585048047215
 20
360.7392587173544
 30
0.0000000000000000
 11
1062.585048047215
 21
375.1392587173544
 31
0.0000000000000000
  0
LINE
  5
339
100
AcDbEntity
  8
MAIN0
  6
CONTINUOUS
 62
3
100
AcDbLine
 10
1062.585048047215
 20
375.1392587173544
 30
0.0000000000000000
 11
1059.813766755104
 21
376.7392587173545
 31
0.0000000000000000
  0
LINE
  5
33A
100
AcDbEntity
  8
MAIN0
  6
CONTINUOUS
 62
3
100
AcDbLine
 10
1059.813766755104
 20
376.7392587173544
 30
0.0000000000000000
 11
1041.356329339325
 21
376.7392587173544
 31
0.0000000000000000
  0
LINE
  5
33B
100
AcDbEntity
  8
MAIN0
  6
CONTINUOUS
 62
3
100
AcDbLine
 10
1041.356329339325
 20
376.7392587173544
 30
0.0000000000000000
 11
1038.585048047215
 21
375.1392587173543
 31
0.0000000000000000
  0
LINE
  5
33C
100
AcDbEntity
  8
MAIN0
  6
CONTINUOUS
 62
3
100
AcDbLine
 10
1038.585048047215
 20
375.1392587173544
 30
0.0000000000000000
 11
1038.585048047215
 21
360.7392587173544
 31
0.0000000000000000
  0
LINE
  5
33D
100
AcDbEntity
  8
MAIN0
  6
CONTINUOUS
 62
3
100
AcDbLine
 10
1062.585048047215
 20
375.1392587173544
 30
0.0000000000000000
 11
1038.585048047215
 21
375.1392587173544
 31
0.0000000000000000
  0
LINE
  5
33E
100
AcDbEntity
  8
MAIN0
  6
CONTINUOUS
 62
3
100
AcDbLine
 10
1058.585048047215
 20
335.7392587173545
 30
0.0000000000000000
 11
1058.585048047215
 21
314.7392587173544
 31
0.0000000000000000
  0
LINE
  5
33F
100
AcDbEntity
  8
MAIN0
  6
CONTINUOUS
 62
3
100
AcDbLine
 10
1042.585048047215
 20
314.7392587173544
 30
0.0000000000000000
 11
1042.585048047215
 21
335.7392587173545
 31
0.0000000000000000
  0
LINE
  5
340
100
AcDbEntity
  8
MAIN0
  6
CONTINUOUS
 62
3
100
AcDbLine
 10
1057.502516047215
 20
335.7392587173545
 30
0.0000000000000000
 11
1057.502516047215
 21
314.7392587173544
 31
0.0000000000000000
  0
LINE
  5
341
100
AcDbEntity
  8
MAIN0
  6
CONTINUOUS
 62
3
100
AcDbLine
 10
1043.667580047214
 20
335.7392587173545
 30
0.0000000000000000
 11
1043.667580047214
 21
314.7392587173544
 31
0.0000000000000000
  0
LINE
  5
342
100
AcDbEntity
  8
MAIN0
  6
CENTER
 62
3
100
AcDbLine
 10
938.4226896017365
 20
623.5668311018519
 30
0.0000000000000000
 11
1030.614130749057
 21
623.5668311018519
 31
0.0000000000000000
  0
LINE
  5
343
100
AcDbEntity
  8
MAIN0
  6
CONTINUOUS
 62
3
100
AcDbLine
 10
791.5023149380587
 20
346.6455350038146
 30
0.0000000000000000
 11
791.5023149380585
 21
425.7392587173545
 31
0.0000000000000000
  0
LINE
  5
344
100
AcDbEntity
  8
MAIN0
  6
CONTINUOUS
 62
3
100
AcDbLine
 10
752.5023149380584
 20
411.9392587173545
 30
0.0000000000000000
 11
752.5023149380586
 21
325.7392587173545
 31
0.0000000000000000
  0
LINE
  5
345
100
AcDbEntity
  8
MAIN0
  6
CONTINUOUS
 62
3
100
AcDbLine
 10
839.0023149380586
 20
415.7392587173545
 30
0.0000000000000000
 11
816.5023149380586
 21
415.7392587173545
 31
0.0000000000000000
  0
LINE
  5
346
100
AcDbEntity
  8
MAIN0
  6
CONTINUOUS
 62
3
100
AcDbLine
 10
839.0023149380586
 20
365.7392587173545
 30
0.0000000000000000
 11
816.5023149380587
 21
365.7392587173545
 31
0.0000000000000000
  0
LINE
  5
347
100
AcDbEntity
  8
MAIN0
  6
CONTINUOUS
 62
3
100
AcDbLine
 10
839.0023149380587
 20
365.7392587173545
 30
0.0000000000000000
 11
839.0023149380585
 21
415.7392587173544
 31
0.0000000000000000
  0
LINE
  5
348
100
AcDbEntity
  8
MAIN0
  6
CONTINUOUS
 62
3
100
AcDbLine
 10
816.5023149380587
 20
358.7392587165198
 30
0.0000000000000000
 11
816.5023149380586
 21
425.2392587165777
 31
0.0000000000000000
  0
LINE
  5
349
100
AcDbEntity
  8
MAIN0
  6
CONTINUOUS
 62
3
100
AcDbLine
 10
388.5023149380585
 20
465.2392587173545
 30
0.0000000000000000
 11
388.5023149380587
 21
425.7392587173546
 31
0.0000000000000000
  0
LINE
  5
34A
100
AcDbEntity
  8
MAIN0
  6
CONTINUOUS
 62
3
100
AcDbLine
 10
540.5023149380585
 20
465.2392587173545
 30
0.0000000000000000
 11
540.5023149380586
 21
425.7392587173545
 31
0.0000000000000000
  0
LINE
  5
34B
100
AcDbEntity
  8
MAIN0
  6
CONTINUOUS
 62
3
100
AcDbLine
 10
752.5023149380586
 20
386.7392587173545
 30
0.0000000000000000
 11
387.5023149380586
 21
386.7392587173545
 31
0.0000000000000000
  0
LINE
  5
34C
100
AcDbEntity
  8
MAIN0
  6
CONTINUOUS
 62
3
100
AcDbLine
 10
752.5023149380587
 20
346.7392587173545
 30
0.0000000000000000
 11
387.5023149380587
 21
346.7392587173545
 31
0.0000000000000000
  0
LINE
  5
34D
100
AcDbEntity
  8
MAIN0
  6
CONTINUOUS
 62
3
100
AcDbLine
 10
618.0023149380588
 20
320.7392587173546
 30
0.0000000000000000
 11
618.0023149380588
 21
330.7392587173543
 31
0.0000000000000000
  0
LINE
  5
34E
100
AcDbEntity
  8
MAIN0
  6
CONTINUOUS
 62
3
100
AcDbLine
 10
600.0023149380588
 20
330.7392587173544
 30
0.0000000000000000
 11
600.0023149380588
 21
320.7392587173544
 31
0.0000000000000000
  0
LINE
  5
34F
100
AcDbEntity
  8
MAIN0
  6
CONTINUOUS
 62
3
100
AcDbLine
 10
618.0023149380588
 20
330.7392587173545
 30
0.0000000000000000
 11
600.0023149380588
 21
330.7392587173545
 31
0.0000000000000000
  0
LINE
  5
350
100
AcDbEntity
  8
MAIN0
  6
CONTINUOUS
 62
3
100
AcDbLine
 10
387.5023149380585
 20
425.7392587173545
 30
0.0000000000000000
 11
387.5023149380588
 21
325.7392587173546
 31
0.0000000000000000
  0
LINE
  5
351
100
AcDbEntity
  8
MAIN0
  6
CONTINUOUS
 62
3
100
AcDbLine
 10
618.0023149380587
 20
320.7392587173542
 30
0.0000000000000000
 11
600.0023149380589
 21
320.7392587173542
 31
0.0000000000000000
  0
LINE
  5
352
100
AcDbEntity
  8
MAIN0
  6
CONTINUOUS
 62
3
100
AcDbLine
 10
415.5023149380587
 20
425.7392587173545
 30
0.0000000000000000
 11
415.5023149380587
 21
416.7392587173545
 31
0.0000000000000000
  0
LINE
  5
353
100
AcDbEntity
  8
MAIN0
  6
CONTINUOUS
 62
3
100
AcDbLine
 10
439.5023149380587
 20
425.7392587173544
 30
0.0000000000000000
 11
439.5023149380587
 21
416.7392587173544
 31
0.0000000000000000
  0
LINE
  5
354
100
AcDbEntity
  8
MAIN0
  6
CONTINUOUS
 62
3
100
AcDbLine
 10
415.5023149380587
 20
416.7392587173545
 30
0.0000000000000000
 11
439.5023149380588
 21
416.7392587173545
 31
0.0000000000000000
  0
LINE
  5
355
100
AcDbEntity
  8
MAIN0
  6
CONTINUOUS
 62
3
100
AcDbLine
 10
415.5023149380587
 20
417.7392587173545
 30
0.0000000000000000
 11
439.5023149380588
 21
417.7392587173545
 31
0.0000000000000000
  0
LINE
  5
356
100
AcDbEntity
  8
MAIN0
  6
CONTINUOUS
 62
3
100
AcDbLine
 10
415.5023149380587
 20
425.7392587173545
 30
0.0000000000000000
 11
387.5023149380586
 21
425.7392587173545
 31
0.0000000000000000
  0
LINE
  5
357
100
AcDbEntity
  8
MAIN0
  6
CONTINUOUS
 62
3
100
AcDbLine
 10
614.5023149380586
 20
409.9392587173543
 30
0.0000000000000000
 11
614.5023149380585
 21
465.2392587173545
 31
0.0000000000000000
  0
LINE
  5
358
100
AcDbEntity
  8
MAIN0
  6
CONTINUOUS
 62
3
100
AcDbLine
 10
466.5023149380585
 20
465.2392587173545
 30
0.0000000000000000
 11
388.5023149380585
 21
465.2392587173545
 31
0.0000000000000000
  0
LINE
  5
359
100
AcDbEntity
  8
MAIN0
  6
CONTINUOUS
 62
3
100
AcDbLine
 10
614.5023149380585
 20
465.2392587173545
 30
0.0000000000000000
 11
540.5023149380585
 21
465.2392587173545
 31
0.0000000000000000
  0
LINE
  5
35A
100
AcDbEntity
  8
MAIN0
  6
CONTINUOUS
 62
3
100
AcDbLine
 10
809.5023149380587
 20
358.7392587165081
 30
0.0000000000000000
 11
809.5023149380586
 21
425.2392587165660
 31
0.0000000000000000
  0
LINE
  5
35B
100
AcDbEntity
  8
MAIN0
  6
CONTINUOUS
 62
3
100
AcDbLine
 10
791.5023149380589
 20
425.2392587165363
 30
0.0000000000000000
 11
816.5023149380586
 21
425.2392587165777
 31
0.0000000000000000
  0
LINE
  5
35C
100
AcDbEntity
  8
MAIN0
  6
CONTINUOUS
 62
3
100
AcDbLine
 10
597.5023149380586
 20
408.2392587173545
 30
0.0000000000000000
 11
752.5023149380585
 21
408.2392587173545
 31
0.0000000000000000
  0
LINE
  5
35D
100
AcDbEntity
  8
MAIN0
  6
CONTINUOUS
 62
3
100
AcDbLine
 10
779.1649842142260
 20
414.2392587173545
 30
0.0000000000000000
 11
791.5023149380585
 21
414.2392587173545
 31
0.0000000000000000
  0
LINE
  5
35E
100
AcDbEntity
  8
MAIN0
  6
CONTINUOUS
 62
3
100
AcDbLine
 10
734.1589429940096
 20
436.9392587173544
 30
0.0000000000000000
 11
688.5023149380584
 21
436.9392587173544
 31
0.0000000000000000
  0
LINE
  5
35F
100
AcDbEntity
  8
MAIN0
  6
CONTINUOUS
 62
3
100
AcDbLine
 10
734.1589429939749
 20
426.9392587173544
 30
0.0000000000000000
 11
779.1649842141796
 21
426.9392587173544
 31
0.0000000000000000
  0
LINE
  5
360
100
AcDbEntity
  8
MAIN0
  6
CONTINUOUS
 62
3
100
AcDbLine
 10
734.1589429939156
 20
409.9392587173543
 30
0.0000000000000000
 11
614.5023149380586
 21
409.9392587173543
 31
0.0000000000000000
  0
LINE
  5
361
100
AcDbEntity
  8
MAIN0
  6
CONTINUOUS
 62
3
100
AcDbLine
 10
688.5023149380584
 20
446.9392587173544
 30
0.0000000000000000
 11
614.5023149380586
 21
446.9392587173544
 31
0.0000000000000000
  0
LINE
  5
362
100
AcDbEntity
  8
MAIN0
  6
CONTINUOUS
 62
3
100
AcDbLine
 10
597.5023149380585
 20
414.2392587173545
 30
0.0000000000000000
 11
597.5023149380585
 21
408.2392587173545
 31
0.0000000000000000
  0
LINE
  5
363
100
AcDbEntity
  8
MAIN0
  6
CONTINUOUS
 62
3
100
AcDbLine
 10
597.5023149380586
 20
414.2392587173545
 30
0.0000000000000000
 11
614.5023149380586
 21
414.2392587173545
 31
0.0000000000000000
  0
LINE
  5
364
100
AcDbEntity
  8
MAIN0
  6
CONTINUOUS
 62
3
100
AcDbLine
 10
614.5023149380586
 20
425.7392587173545
 30
0.0000000000000000
 11
439.5023149380587
 21
425.7392587173545
 31
0.0000000000000000
  0
LINE
  5
365
100
AcDbEntity
  8
MAIN0
  6
CONTINUOUS
 62
3
100
AcDbLine
 10
791.5023149380585
 20
425.7392587173545
 30
0.0000000000000000
 11
779.1649842141841
 21
425.7392587173545
 31
0.0000000000000000
  0
LINE
  5
366
100
AcDbEntity
  8
MAIN0
  6
CONTINUOUS
 62
3
100
AcDbLine
 10
734.1589429939749
 20
411.9392587173544
 30
0.0000000000000000
 11
779.1649842141796
 21
411.9392587173544
 31
0.0000000000000000
  0
LINE
  5
367
100
AcDbEntity
  8
MAIN0
  6
CONTINUOUS
 62
3
100
AcDbLine
 10
807.5023149380587
 20
358.7392587165048
 30
0.0000000000000000
 11
807.5023149380586
 21
425.2392587165660
 31
0.0000000000000000
  0
LINE
  5
368
100
AcDbEntity
  8
MAIN0
  6
CENTER
 62
3
100
AcDbLine
 10
743.2078477832272
 20
390.7392587164563
 30
0.0000000000000000
 11
868.6053896360099
 21
390.7392587166641
 31
0.0000000000000000
  0
LINE
  5
369
100
AcDbEntity
  8
MAIN0
  6
CONTINUOUS
 62
3
100
AcDbLine
 10
466.5023149380585
 20
465.2392587173545
 30
0.0000000000000000
 11
466.5023149380587
 21
425.7392587173545
 31
0.0000000000000000
  0
LINE
  5
36A
100
AcDbEntity
  8
MAIN0
  6
CONTINUOUS
 62
3
100
AcDbLine
 10
734.1589429940096
 20
436.9392587173543
 30
0.0000000000000000
 11
734.1589429939156
 21
409.9392587173543
 31
0.0000000000000000
  0
LINE
  5
36B
100
AcDbEntity
  8
MAIN0
  6
CONTINUOUS
 62
3
100
AcDbLine
 10
779.1649842141796
 20
426.9392587173543
 30
0.0000000000000000
 11
779.1649842142344
 21
411.9392587173543
 31
0.0000000000000000
  0
LINE
  5
36C
100
AcDbEntity
  8
MAIN0
  6
CONTINUOUS
 62
3
100
AcDbLine
 10
752.5023149380585
 20
346.7392587164717
 30
0.0000000000000000
 11
791.5023149380587
 21
346.7392587165363
 31
0.0000000000000000
  0
LINE
  5
36D
100
AcDbEntity
  8
MAIN0
  6
CONTINUOUS
 62
3
100
AcDbLine
 10
752.5023149380586
 20
410.2392587173545
 30
0.0000000000000000
 11
791.5023149380585
 21
410.2392587173545
 31
0.0000000000000000
  0
LINE
  5
36E
100
AcDbEntity
  8
MAIN0
  6
CONTINUOUS
 62
3
100
AcDbLine
 10
779.1649842142260
 20
418.7392587173545
 30
0.0000000000000000
 11
791.5023149380585
 21
418.7392587173545
 31
0.0000000000000000
  0
LINE
  5
36F
100
AcDbEntity
  8
MAIN0
  6
CONTINUOUS
 62
3
100
AcDbLine
 10
752.5023149380586
 20
367.3259624619033
 30
0.0000000000000000
 11
791.5023149380586
 21
367.3259624618116
 31
0.0000000000000000
  0
LINE
  5
370
100
AcDbEntity
  8
MAIN0
  6
CENTER
 62
3
100
AcDbLine
 10
677.5023149367671
 20
405.7819257867295
 30
0.0000000000000000
 11
677.5023149368109
 21
391.8118778997653
 31
0.0000000000000000
  0
LINE
  5
371
100
AcDbEntity
  8
MAIN0
  6
CENTER
 62
3
100
AcDbLine
 10
462.5023149371249
 20
406.5726706929867
 30
0.0000000000000000
 11
462.5023149371599
 21
391.0211229385301
 31
0.0000000000000000
  0
LINE
  5
372
100
AcDbEntity
  8
MAIN0
  6
CENTER
 62
3
100
AcDbLine
 10
454.0382373188879
 20
398.7392587165366
 30
0.0000000000000000
 11
470.1169609129263
 21
398.7392587165773
 31
0.0000000000000000
  0
LINE
  5
373
100
AcDbEntity
  8
MAIN0
  6
CENTER
 62
3
100
AcDbLine
 10
669.3877264650071
 20
398.7392587170818
 30
0.0000000000000000
 11
684.9392641644681
 21
398.7392587171212
 31
0.0000000000000000
  0
LINE
  5
374
100
AcDbEntity
  8
MAIN0
  6
CONTINUOUS
 62
3
100
AcDbLine
 10
791.5023149380587
 20
358.7392587164783
 30
0.0000000000000000
 11
816.5023149380588
 21
358.7392587165197
 31
0.0000000000000000
  0
LINE
  5
375
100
AcDbEntity
  8
MAIN0
  6
CENTER
 62
3
100
AcDbLine
 10
419.2676495523303
 20
455.7392587173546
 30
0.0000000000000000
 11
435.1838579871608
 21
455.7392587173546
 31
0.0000000000000000
  0
LINE
  5
376
100
AcDbEntity
  8
MAIN0
  6
CENTER
 62
3
100
AcDbLine
 10
420.3845756191025
 20
435.7392587173546
 30
0.0000000000000000
 11
435.4630961612583
 21
435.7392587173546
 31
0.0000000000000000
  0
LINE
  5
377
100
AcDbEntity
  8
MAIN0
  6
CENTER
 62
3
100
AcDbLine
 10
427.5023149380587
 20
463.0712992362880
 30
0.0000000000000000
 11
427.5023149380588
 21
428.7257867330620
 31
0.0000000000000000
  0
LINE
  5
378
100
AcDbEntity
  8
MAIN0
  6
CONTINUOUS
 62
3
100
AcDbLine
 10
752.5023149380587
 20
325.7392587173545
 30
0.0000000000000000
 11
618.0023149380588
 21
325.7392587173545
 31
0.0000000000000000
  0
LINE
  5
379
100
AcDbEntity
  8
MAIN0
  6
CONTINUOUS
 62
3
100
AcDbLine
 10
387.5023149380587
 20
325.7392587173545
 30
0.0000000000000000
 11
600.0023149380588
 21
325.7392587173545
 31
0.0000000000000000
  0
LINE
  5
37A
100
AcDbEntity
  8
MAIN0
  6
CONTINUOUS
 62
3
100
AcDbLine
 10
1073.285048047215
 20
425.7392587173545
 30
0.0000000000000000
 11
1199.885048047215
 21
425.7392587173545
 31
0.0000000000000000
  0
LINE
  5
37B
100
AcDbEntity
  8
MAIN0
  6
CONTINUOUS
 62
3
100
AcDbLine
 10
1074.335048047215
 20
465.2392587173545
 30
0.0000000000000000
 11
1198.835048047215
 21
465.2392587173545
 31
0.0000000000000000
  0
LINE
  5
37C
100
AcDbEntity
  8
MAIN0
  6
CONTINUOUS
 62
3
100
AcDbLine
 10
1198.835048047215
 20
465.2392587173545
 30
0.0000000000000000
 11
1198.835048047215
 21
446.9392587173544
 31
0.0000000000000000
  0
LINE
  5
37D
100
AcDbEntity
  8
MAIN0
  6
CONTINUOUS
 62
3
100
AcDbLine
 10
1074.335048047215
 20
465.2392587173545
 30
0.0000000000000000
 11
1074.335048047215
 21
446.9392587173544
 31
0.0000000000000000
  0
LINE
  5
37E
100
AcDbEntity
  8
MAIN0
  6
CONTINUOUS
 62
3
100
AcDbLine
 10
1192.585048047215
 20
346.7392587173545
 30
0.0000000000000000
 11
1192.585048047215
 21
386.7392587173545
 31
0.0000000000000000
  0
LINE
  5
37F
100
AcDbEntity
  8
MAIN0
  6
CONTINUOUS
 62
3
100
AcDbLine
 10
1080.585048047215
 20
346.7392587173545
 30
0.0000000000000000
 11
1080.585048047215
 21
386.7392587173545
 31
0.0000000000000000
  0
LINE
  5
380
100
AcDbEntity
  8
MAIN0
  6
CONTINUOUS
 62
3
100
AcDbLine
 10
1073.585048047215
 20
346.7392587173545
 30
0.0000000000000000
 11
1080.585048047215
 21
346.7392587173545
 31
0.0000000000000000
  0
LINE
  5
381
100
AcDbEntity
  8
MAIN0
  6
CONTINUOUS
 62
3
100
AcDbLine
 10
1073.585048047215
 20
386.7392587173545
 30
0.0000000000000000
 11
1080.585048047215
 21
386.7392587173545
 31
0.0000000000000000
  0
LINE
  5
382
100
AcDbEntity
  8
MAIN0
  6
CONTINUOUS
 62
3
100
AcDbLine
 10
1192.585048047214
 20
386.7392587173545
 30
0.0000000000000000
 11
1199.585048047215
 21
386.7392587173545
 31
0.0000000000000000
  0
LINE
  5
383
100
AcDbEntity
  8
MAIN0
  6
CONTINUOUS
 62
3
100
AcDbLine
 10
1199.585048047215
 20
346.7392587173545
 30
0.0000000000000000
 11
1199.585048047215
 21
325.7392587173545
 31
0.0000000000000000
  0
LINE
  5
384
100
AcDbEntity
  8
MAIN0
  6
CONTINUOUS
 62
3
100
AcDbLine
 10
1073.585048047215
 20
325.7392587173545
 30
0.0000000000000000
 11
1073.585048047215
 21
346.7392587173545
 31
0.0000000000000000
  0
CIRCLE
  5
385
100
AcDbEntity
  8
MAIN0
  6
CONTINUOUS
 62
3
100
AcDbCircle
 10
1136.585048047215
 20
390.7392587173545
 30
0.0000000000000000
 40
25.00000000000000
  0
CIRCLE
  5
386
100
AcDbEntity
  8
MAIN0
  6
CONTINUOUS
 62
3
100
AcDbCircle
 10
1136.585048047215
 20
390.7392587173545
 30
0.0000000000000000
 40
21.00000000000000
  0
CIRCLE
  5
387
100
AcDbEntity
  8
MAIN0
  6
CONTINUOUS
 62
3
100
AcDbCircle
 10
1136.585048047215
 20
390.7392587173545
 30
0.0000000000000000
 40
12.00000000000000
  0
LINE
  5
388
100
AcDbEntity
  8
MAIN0
  6
CONTINUOUS
 62
3
100
AcDbLine
 10
1143.585048047215
 20
386.6978068330341
 30
0.0000000000000000
 11
1143.585048047215
 21
394.7807106016959
 31
0.0000000000000000
  0
LINE
  5
389
100
AcDbEntity
  8
MAIN0
  6
CONTINUOUS
 62
3
100
AcDbLine
 10
1129.585048047215
 20
386.6978068330132
 30
0.0000000000000000
 11
1129.585048047215
 21
394.7807106016750
 31
0.0000000000000000
  0
LINE
  5
38A
100
AcDbEntity
  8
MAIN0
  6
CONTINUOUS
 62
3
100
AcDbLine
 10
1129.585048047215
 20
394.7807106016749
 30
0.0000000000000000
 11
1136.585048047215
 21
398.8221624860162
 31
0.0000000000000000
  0
LINE
  5
38B
100
AcDbEntity
  8
MAIN0
  6
CONTINUOUS
 62
3
100
AcDbLine
 10
1136.585048047215
 20
382.6563549486928
 30
0.0000000000000000
 11
1143.585048047215
 21
386.6978068330342
 31
0.0000000000000000
  0
LINE
  5
38C
100
AcDbEntity
  8
MAIN0
  6
CONTINUOUS
 62
3
100
AcDbLine
 10
1136.585048047215
 20
398.8221624860162
 30
0.0000000000000000
 11
1143.585048047215
 21
394.7807106016960
 31
0.0000000000000000
  0
LINE
  5
38D
100
AcDbEntity
  8
MAIN0
  6
CONTINUOUS
 62
3
100
AcDbLine
 10
1129.585048047214
 20
386.6978068330132
 30
0.0000000000000000
 11
1136.585048047214
 21
382.6563549486928
 31
0.0000000000000000
  0
CIRCLE
  5
38E
100
AcDbEntity
  8
MAIN0
  6
CONTINUOUS
 62
3
100
AcDbCircle
 10
1095.881854069311
 20
414.2392587172938
 30
0.0000000000000000
 40
8.000000000000000
  0
LINE
  5
38F
100
AcDbEntity
  8
MAIN0
  6
CONTINUOUS
 62
3
100
AcDbLine
 10
1091.881854069311
 20
411.9298576405353
 30
0.0000000000000000
 11
1095.881854069311
 21
409.6204565637768
 31
0.0000000000000000
  0
LINE
  5
390
100
AcDbEntity
  8
MAIN0
  6
CONTINUOUS
 62
3
100
AcDbLine
 10
1095.881854069311
 20
409.6204565637768
 30
0.0000000000000000
 11
1099.881854069311
 21
411.9298576405352
 31
0.0000000000000000
  0
LINE
  5
391
100
AcDbEntity
  8
MAIN0
  6
CONTINUOUS
 62
3
100
AcDbLine
 10
1099.881854069311
 20
411.9298576405352
 30
0.0000000000000000
 11
1099.881854069311
 21
416.5486597940522
 31
0.0000000000000000
  0
LINE
  5
392
100
AcDbEntity
  8
MAIN0
  6
CONTINUOUS
 62
3
100
AcDbLine
 10
1099.881854069311
 20
416.5486597940522
 30
0.0000000000000000
 11
1095.881854069311
 21
418.8580608708106
 31
0.0000000000000000
  0
LINE
  5
393
100
AcDbEntity
  8
MAIN0
  6
CONTINUOUS
 62
3
100
AcDbLine
 10
1095.881854069311
 20
418.8580608708107
 30
0.0000000000000000
 11
1091.881854069311
 21
416.5486597940524
 31
0.0000000000000000
  0
LINE
  5
394
100
AcDbEntity
  8
MAIN0
  6
CONTINUOUS
 62
3
100
AcDbLine
 10
1091.881854069311
 20
416.5486597940523
 30
0.0000000000000000
 11
1091.881854069311
 21
411.9298576405353
 31
0.0000000000000000
  0
CIRCLE
  5
395
100
AcDbEntity
  8
MAIN0
  6
CONTINUOUS
 62
3
100
AcDbCircle
 10
1095.881854069381
 20
367.2392587172938
 30
0.0000000000000000
 40
8.000000000000000
  0
LINE
  5
396
100
AcDbEntity
  8
MAIN0
  6
CONTINUOUS
 62
3
100
AcDbLine
 10
1095.881854069381
 20
362.6204565637768
 30
0.0000000000000000
 11
1099.881854069381
 21
364.9298576405355
 31
0.0000000000000000
  0
LINE
  5
397
100
AcDbEntity
  8
MAIN0
  6
CONTINUOUS
 62
3
100
AcDbLine
 10
1099.881854069381
 20
364.9298576405353
 30
0.0000000000000000
 11
1099.881854069381
 21
369.5486597940522
 31
0.0000000000000000
  0
LINE
  5
398
100
AcDbEntity
  8
MAIN0
  6
CONTINUOUS
 62
3
100
AcDbLine
 10
1099.881854069381
 20
369.5486597940522
 30
0.0000000000000000
 11
1095.881854069381
 21
371.8580608708108
 31
0.0000000000000000
  0
LINE
  5
399
100
AcDbEntity
  8
MAIN0
  6
CONTINUOUS
 62
3
100
AcDbLine
 10
1095.881854069381
 20
371.8580608708110
 30
0.0000000000000000
 11
1091.881854069381
 21
369.5486597940522
 31
0.0000000000000000
  0
LINE
  5
39A
100
AcDbEntity
  8
MAIN0
  6
CONTINUOUS
 62
3
100
AcDbLine
 10
1091.881854069381
 20
369.5486597940522
 30
0.0000000000000000
 11
1091.881854069381
 21
364.9298576405353
 31
0.0000000000000000
  0
LINE
  5
39B
100
AcDbEntity
  8
MAIN0
  6
CONTINUOUS
 62
3
100
AcDbLine
 10
1091.881854069381
 20
364.9298576405354
 30
0.0000000000000000
 11
1095.881854069381
 21
362.6204565637768
 31
0.0000000000000000
  0
CIRCLE
  5
39C
100
AcDbEntity
  8
MAIN0
  6
CONTINUOUS
 62
3
100
AcDbCircle
 10
1177.288242025118
 20
367.2392587174153
 30
0.0000000000000000
 40
8.000000000000000
  0
LINE
  5
39D
100
AcDbEntity
  8
MAIN0
  6
CONTINUOUS
 62
3
100
AcDbLine
 10
1181.288242025118
 20
369.5486597941737
 30
0.0000000000000000
 11
1177.288242025118
 21
371.8580608709323
 31
0.0000000000000000
  0
LINE
  5
39E
100
AcDbEntity
  8
MAIN0
  6
CONTINUOUS
 62
3
100
AcDbLine
 10
1177.288242025118
 20
371.8580608709322
 30
0.0000000000000000
 11
1173.288242025119
 21
369.5486597941738
 31
0.0000000000000000
  0
LINE
  5
39F
100
AcDbEntity
  8
MAIN0
  6
CONTINUOUS
 62
3
100
AcDbLine
 10
1173.288242025119
 20
369.5486597941738
 30
0.0000000000000000
 11
1173.288242025118
 21
364.9298576406567
 31
0.0000000000000000
  0
LINE
  5
3A0
100
AcDbEntity
  8
MAIN0
  6
CONTINUOUS
 62
3
100
AcDbLine
 10
1173.288242025118
 20
364.9298576406568
 30
0.0000000000000000
 11
1177.288242025118
 21
362.6204565638982
 31
0.0000000000000000
  0
LINE
  5
3A1
100
AcDbEntity
  8
MAIN0
  6
CONTINUOUS
 62
3
100
AcDbLine
 10
1177.288242025119
 20
362.6204565638983
 30
0.0000000000000000
 11
1181.288242025118
 21
364.9298576406567
 31
0.0000000000000000
  0
LINE
  5
3A2
100
AcDbEntity
  8
MAIN0
  6
CONTINUOUS
 62
3
100
AcDbLine
 10
1181.288242025118
 20
364.9298576406567
 30
0.0000000000000000
 11
1181.288242025118
 21
369.5486597941738
 31
0.0000000000000000
  0
CIRCLE
  5
3A3
100
AcDbEntity
  8
MAIN0
  6
CONTINUOUS
 62
3
100
AcDbCircle
 10
1177.288242025118
 20
367.2392587174153
 30
0.0000000000000000
 40
8.000000000000000
  0
LINE
  5
3A4
100
AcDbEntity
  8
MAIN0
  6
CONTINUOUS
 62
3
100
AcDbLine
 10
1181.288242025118
 20
369.5486597941737
 30
0.0000000000000000
 11
1177.288242025118
 21
371.8580608709323
 31
0.0000000000000000
  0
LINE
  5
3A5
100
AcDbEntity
  8
MAIN0
  6
CONTINUOUS
 62
3
100
AcDbLine
 10
1177.288242025118
 20
371.8580608709322
 30
0.0000000000000000
 11
1173.288242025119
 21
369.5486597941738
 31
0.0000000000000000
  0
LINE
  5
3A6
100
AcDbEntity
  8
MAIN0
  6
CONTINUOUS
 62
3
100
AcDbLine
 10
1173.288242025119
 20
369.5486597941738
 30
0.0000000000000000
 11
1173.288242025118
 21
364.9298576406567
 31
0.0000000000000000
  0
LINE
  5
3A7
100
AcDbEntity
  8
MAIN0
  6
CONTINUOUS
 62
3
100
AcDbLine
 10
1173.288242025118
 20
364.9298576406568
 30
0.0000000000000000
 11
1177.288242025118
 21
362.6204565638982
 31
0.0000000000000000
  0
LINE
  5
3A8
100
AcDbEntity
  8
MAIN0
  6
CONTINUOUS
 62
3
100
AcDbLine
 10
1177.288242025119
 20
362.6204565638983
 30
0.0000000000000000
 11
1181.288242025118
 21
364.9298576406567
 31
0.0000000000000000
  0
LINE
  5
3A9
100
AcDbEntity
  8
MAIN0
  6
CONTINUOUS
 62
3
100
AcDbLine
 10
1181.288242025118
 20
364.9298576406567
 30
0.0000000000000000
 11
1181.288242025118
 21
369.5486597941738
 31
0.0000000000000000
  0
LINE
  5
3AA
100
AcDbEntity
  8
MAIN0
  6
CONTINUOUS
 62
3
100
AcDbLine
 10
1127.585048047214
 20
330.7392587173545
 30
0.0000000000000000
 11
1145.585048047215
 21
330.7392587173545
 31
0.0000000000000000
  0
LINE
  5
3AB
100
AcDbEntity
  8
MAIN0
  6
CONTINUOUS
 62
3
100
AcDbLine
 10
1145.585048047215
 20
325.7392587173545
 30
0.0000000000000000
 11
1145.585048047215
 21
330.7392587173545
 31
0.0000000000000000
  0
LINE
  5
3AC
100
AcDbEntity
  8
MAIN0
  6
CONTINUOUS
 62
3
100
AcDbLine
 10
1127.585048047215
 20
325.7392587173545
 30
0.0000000000000000
 11
1127.585048047215
 21
330.7392587173544
 31
0.0000000000000000
  0
LINE
  5
3AD
100
AcDbEntity
  8
MAIN0
  6
CONTINUOUS
 62
3
100
AcDbLine
 10
1199.585048047215
 20
325.7392587173545
 30
0.0000000000000000
 11
1145.585048047215
 21
325.7392587173545
 31
0.0000000000000000
  0
LINE
  5
3AE
100
AcDbEntity
  8
MAIN0
  6
CONTINUOUS
 62
3
100
AcDbLine
 10
1199.085048047218
 20
325.7392587173545
 30
0.0000000000000000
 11
1199.085048047218
 21
320.7392587173580
 31
0.0000000000000000
  0
LINE
  5
3AF
100
AcDbEntity
  8
MAIN0
  6
CONTINUOUS
 62
3
100
AcDbLine
 10
1074.085048047214
 20
325.7392587173545
 30
0.0000000000000000
 11
1074.085048047214
 21
320.7392587173529
 31
0.0000000000000000
  0
LINE
  5
3B0
100
AcDbEntity
  8
MAIN0
  6
CONTINUOUS
 62
3
100
AcDbLine
 10
1174.085048047218
 20
325.7392587173545
 30
0.0000000000000000
 11
1174.085048047218
 21
320.7392587173545
 31
0.0000000000000000
  0
LINE
  5
3B1
100
AcDbEntity
  8
MAIN0
  6
CONTINUOUS
 62
3
100
AcDbLine
 10
1099.085048047214
 20
325.7392587173545
 30
0.0000000000000000
 11
1099.085048047214
 21
320.7392587173545
 31
0.0000000000000000
  0
LINE
  5
3B2
100
AcDbEntity
  8
MAIN0
  6
CONTINUOUS
 62
3
100
AcDbLine
 10
1099.085048047214
 20
320.7392587173545
 30
0.0000000000000000
 11
1074.085048047214
 21
320.7392587173545
 31
0.0000000000000000
  0
LINE
  5
3B3
100
AcDbEntity
  8
MAIN0
  6
CONTINUOUS
 62
3
100
AcDbLine
 10
1199.085048047218
 20
320.7392587173545
 30
0.0000000000000000
 11
1174.085048047218
 21
320.7392587173545
 31
0.0000000000000000
  0
LINE
  5
3B4
100
AcDbEntity
  8
MAIN0
  6
CONTINUOUS
 62
3
100
AcDbLine
 10
1139.585048047215
 20
402.3582087559768
 30
0.0000000000000000
 11
1139.585048047215
 21
411.5238684081811
 31
0.0000000000000000
  0
LINE
  5
3B5
100
AcDbEntity
  8
MAIN0
  6
CONTINUOUS
 62
3
100
AcDbLine
 10
1133.585048047215
 20
402.3582087559769
 30
0.0000000000000000
 11
1133.585048047215
 21
411.5238684081811
 31
0.0000000000000000
  0
LINE
  5
3B6
100
AcDbEntity
  8
MAIN0
  6
CONTINUOUS
 62
3
100
AcDbLine
 10
1138.585048047215
 20
365.8193871286002
 30
0.0000000000000000
 11
1138.585048047215
 21
369.8347137569876
 31
0.0000000000000000
  0
LINE
  5
3B7
100
AcDbEntity
  8
MAIN0
  6
CONTINUOUS
 62
3
100
AcDbLine
 10
1134.585048047215
 20
365.8193871286002
 30
0.0000000000000000
 11
1134.585048047215
 21
369.8347137569876
 31
0.0000000000000000
  0
LINE
  5
3B8
100
AcDbEntity
  8
MAIN0
  6
CENTER
 62
3
100
AcDbLine
 10
1169.085048047573
 20
396.7294566270826
 30
0.0000000000000000
 11
1169.085048047516
 21
384.6517606109466
 31
0.0000000000000000
  0
LINE
  5
3B9
100
AcDbEntity
  8
MAIN0
  6
CENTER
 62
3
100
AcDbLine
 10
1104.085048047555
 20
397.0240338478160
 30
0.0000000000000000
 11
1104.085048047498
 21
384.1607973278021
 31
0.0000000000000000
  0
LINE
  5
3BA
100
AcDbEntity
  8
MAIN0
  6
CENTER
 62
3
100
AcDbLine
 10
1064.627236005419
 20
390.7392587167653
 30
0.0000000000000000
 11
1208.772931925166
 21
390.7392587170043
 31
0.0000000000000000
  0
LINE
  5
3BB
100
AcDbEntity
  8
MAIN0
  6
CONTINUOUS
 62
3
100
AcDbLine
 10
1077.585048047215
 20
408.2392587173545
 30
0.0000000000000000
 11
1077.585048047215
 21
414.2392587173545
 31
0.0000000000000000
  0
LINE
  5
3BC
100
AcDbEntity
  8
MAIN0
  6
CONTINUOUS
 62
3
100
AcDbLine
 10
1195.585048047215
 20
414.2392587173545
 30
0.0000000000000000
 11
1195.585048047215
 21
408.2392587173545
 31
0.0000000000000000
  0
LINE
  5
3BD
100
AcDbEntity
  8
MAIN0
  6
CONTINUOUS
 62
3
100
AcDbLine
 10
1195.585048047215
 20
414.2392587173545
 30
0.0000000000000000
 11
1199.585048047214
 21
414.2392587173545
 31
0.0000000000000000
  0
LINE
  5
3BE
100
AcDbEntity
  8
MAIN0
  6
CONTINUOUS
 62
3
100
AcDbLine
 10
1195.585048047215
 20
408.2392587173545
 30
0.0000000000000000
 11
1199.585048047214
 21
408.2392587173545
 31
0.0000000000000000
  0
LINE
  5
3BF
100
AcDbEntity
  8
MAIN0
  6
CONTINUOUS
 62
3
100
AcDbLine
 10
1199.585048047215
 20
409.9392587173544
 30
0.0000000000000000
 11
1199.585048047215
 21
386.7392587173545
 31
0.0000000000000000
  0
LINE
  5
3C0
100
AcDbEntity
  8
MAIN0
  6
CONTINUOUS
 62
3
100
AcDbLine
 10
1199.585048047215
 20
419.7392587103441
 30
0.0000000000000000
 11
1199.585048047215
 21
414.2392587173545
 31
0.0000000000000000
  0
LINE
  5
3C1
100
AcDbEntity
  8
MAIN0
  6
CONTINUOUS
 62
3
100
AcDbLine
 10
1073.585048047215
 20
386.7392587173545
 30
0.0000000000000000
 11
1073.585048047215
 21
409.9392587173543
 31
0.0000000000000000
  0
LINE
  5
3C2
100
AcDbEntity
  8
MAIN0
  6
CONTINUOUS
 62
3
100
AcDbLine
 10
1073.585048047215
 20
414.2392587173545
 30
0.0000000000000000
 11
1073.585048047215
 21
419.7392587103441
 31
0.0000000000000000
  0
LINE
  5
3C3
100
AcDbEntity
  8
MAIN0
  6
CONTINUOUS
 62
3
100
AcDbLine
 10
1204.085048047215
 20
445.7392587173544
 30
0.0000000000000000
 11
1204.085048047215
 21
409.9392587173544
 31
0.0000000000000000
  0
LINE
  5
3C4
100
AcDbEntity
  8
MAIN0
  6
CONTINUOUS
 62
3
100
AcDbLine
 10
1069.085048047215
 20
445.7392587173544
 30
0.0000000000000000
 11
1069.085048047215
 21
409.9392587173543
 31
0.0000000000000000
  0
ARC
  5
3C5
100
AcDbEntity
  8
MAIN0
  6
CONTINUOUS
 62
3
100
AcDbCircle
 10
1202.885048047215
 20
445.7392587173544
 30
0.0000000000000000
 40
1.200000000000000
100
AcDbArc
 50
0.0000000000000000
 51
90.00000000000000
  0
LINE
  5
3C6
100
AcDbEntity
  8
MAIN0
  6
CONTINUOUS
 62
3
100
AcDbLine
 10
1202.885048047215
 20
446.9392587173544
 30
0.0000000000000000
 11
1070.285048047215
 21
446.9392587173544
 31
0.0000000000000000
  0
LINE
  5
3C7
100
AcDbEntity
  8
MAIN0
  6
CONTINUOUS
 62
3
100
AcDbLine
 10
1202.885048047215
 20
436.9392587173544
 30
0.0000000000000000
 11
1070.285048047215
 21
436.9392587173544
 31
0.0000000000000000
  0
LINE
  5
3C8
100
AcDbEntity
  8
MAIN0
  6
CONTINUOUS
 62
3
100
AcDbLine
 10
1071.785048047215
 20
426.9392587173544
 30
0.0000000000000000
 11
1201.385048047215
 21
426.9392587173544
 31
0.0000000000000000
  0
ARC
  5
3C9
100
AcDbEntity
  8
MAIN0
  6
CONTINUOUS
 62
3
100
AcDbCircle
 10
1070.285048047215
 20
445.7392587173544
 30
0.0000000000000000
 40
1.200000000000000
100
AcDbArc
 50
90.00000000000000
 51
180.0000000000000
  0
LINE
  5
3CA
100
AcDbEntity
  8
MAIN0
  6
CONTINUOUS
 62
3
100
AcDbLine
 10
1073.585048047215
 20
408.2392587173545
 30
0.0000000000000000
 11
1077.585048047215
 21
408.2392587173545
 31
0.0000000000000000
  0
LINE
  5
3CB
100
AcDbEntity
  8
MAIN0
  6
CONTINUOUS
 62
3
100
AcDbLine
 10
1073.585048047215
 20
414.2392587173545
 30
0.0000000000000000
 11
1077.585048047215
 21
414.2392587173545
 31
0.0000000000000000
  0
LINE
  5
3CC
100
AcDbEntity
  8
MAIN0
  6
CONTINUOUS
 62
3
100
AcDbLine
 10
1202.885048047215
 20
436.9392587173544
 30
0.0000000000000000
 11
1202.885048047215
 21
409.9392587173544
 31
0.0000000000000000
  0
LINE
  5
3CD
100
AcDbEntity
  8
MAIN0
  6
CONTINUOUS
 62
3
100
AcDbLine
 10
1070.285048047215
 20
436.9392587173544
 30
0.0000000000000000
 11
1070.285048047215
 21
409.9392587173543
 31
0.0000000000000000
  0
LINE
  5
3CE
100
AcDbEntity
  8
MAIN0
  6
CONTINUOUS
 62
3
100
AcDbLine
 10
1202.585048047215
 20
435.7392587173544
 30
0.0000000000000000
 11
1202.585048047215
 21
411.1392587173544
 31
0.0000000000000000
  0
LINE
  5
3CF
100
AcDbEntity
  8
MAIN0
  6
CONTINUOUS
 62
3
100
AcDbLine
 10
1070.585048047215
 20
435.7392587173544
 30
0.0000000000000000
 11
1070.585048047215
 21
411.1392587173543
 31
0.0000000000000000
  0
ARC
  5
3D0
100
AcDbEntity
  8
MAIN0
  6
CONTINUOUS
 62
3
100
AcDbCircle
 10
1201.385048047215
 20
435.7392587173544
 30
0.0000000000000000
 40
1.200000000000000
100
AcDbArc
 50
0.0000000000000000
 51
90.00000000000000
  0
ARC
  5
3D1
100
AcDbEntity
  8
MAIN0
  6
CONTINUOUS
 62
3
100
AcDbCircle
 10
1071.785048047215
 20
435.7392587173544
 30
0.0000000000000000
 40
1.200000000000000
100
AcDbArc
 50
90.00000000000000
 51
180.0000000000000
  0
ARC
  5
3D2
100
AcDbEntity
  8
MAIN0
  6
CONTINUOUS
 62
3
100
AcDbCircle
 10
1201.385048047215
 20
411.1392587173544
 30
0.0000000000000000
 40
1.200000000000000
100
AcDbArc
 50
270.0000000000000
 51
360.0000000000000
  0
ARC
  5
3D3
100
AcDbEntity
  8
MAIN0
  6
CONTINUOUS
 62
3
100
AcDbCircle
 10
1071.785048047215
 20
411.1392587173543
 30
0.0000000000000000
 40
1.200000000000000
100
AcDbArc
 50
180.0000000000000
 51
270.0000000000000
  0
LINE
  5
3D4
100
AcDbEntity
  8
MAIN0
  6
CONTINUOUS
 62
3
100
AcDbLine
 10
1201.385048047215
 20
409.9392587173544
 30
0.0000000000000000
 11
1196.585048047215
 21
409.9392587173544
 31
0.0000000000000000
  0
LINE
  5
3D5
100
AcDbEntity
  8
MAIN0
  6
CONTINUOUS
 62
3
100
AcDbLine
 10
1204.085048047215
 20
409.9392587173544
 30
0.0000000000000000
 11
1202.885048047215
 21
409.9392587173544
 31
0.0000000000000000
  0
LINE
  5
3D6
100
AcDbEntity
  8
MAIN0
  6
CONTINUOUS
 62
3
100
AcDbLine
 10
1070.285048047215
 20
409.9392587173543
 30
0.0000000000000000
 11
1069.085048047215
 21
409.9392587173543
 31
0.0000000000000000
  0
LINE
  5
3D7
100
AcDbEntity
  8
MAIN0
  6
CONTINUOUS
 62
3
100
AcDbLine
 10
1076.585048047215
 20
409.9392587173543
 30
0.0000000000000000
 11
1071.785048047215
 21
409.9392587173543
 31
0.0000000000000000
  0
LINE
  5
3D8
100
AcDbEntity
  8
MAIN0
  6
CONTINUOUS
 62
3
100
AcDbLine
 10
1201.385048047215
 20
426.9392587173544
 30
0.0000000000000000
 11
1201.385048047215
 21
411.1392587173544
 31
0.0000000000000000
  0
LINE
  5
3D9
100
AcDbEntity
  8
MAIN0
  6
CONTINUOUS
 62
3
100
AcDbLine
 10
1201.385048047215
 20
411.1392587173544
 30
0.0000000000000000
 11
1196.585048047215
 21
411.1392587173544
 31
0.0000000000000000
  0
LINE
  5
3DA
100
AcDbEntity
  8
MAIN0
  6
CONTINUOUS
 62
3
100
AcDbLine
 10
1196.585048047215
 20
411.9392587173544
 30
0.0000000000000000
 11
1199.885048047215
 21
411.9392587173544
 31
0.0000000000000000
  0
LINE
  5
3DB
100
AcDbEntity
  8
MAIN0
  6
CONTINUOUS
 62
3
100
AcDbLine
 10
1201.085048047215
 20
425.7392587173544
 30
0.0000000000000000
 11
1201.085048047215
 21
413.1392587173544
 31
0.0000000000000000
  0
LINE
  5
3DC
100
AcDbEntity
  8
MAIN0
  6
CONTINUOUS
 62
3
100
AcDbLine
 10
1199.885048047215
 20
425.7392587173545
 30
0.0000000000000000
 11
1199.885048047215
 21
413.1392587173544
 31
0.0000000000000000
  0
LINE
  5
3DD
100
AcDbEntity
  8
MAIN0
  6
CONTINUOUS
 62
3
100
AcDbLine
 10
1196.585048047215
 20
413.1392587173544
 30
0.0000000000000000
 11
1199.885048047215
 21
413.1392587173544
 31
0.0000000000000000
  0
ARC
  5
3DE
100
AcDbEntity
  8
MAIN0
  6
CONTINUOUS
 62
3
100
AcDbCircle
 10
1199.885048047215
 20
413.1392587173544
 30
0.0000000000000000
 40
1.200000000000000
100
AcDbArc
 50
270.0000000000000
 51
360.0000000000000
  0
ARC
  5
3DF
100
AcDbEntity
  8
MAIN0
  6
CONTINUOUS
 62
3
100
AcDbCircle
 10
1199.885048047215
 20
425.7392587173544
 30
0.0000000000000000
 40
1.200000000000000
100
AcDbArc
 50
0.0000000000000000
 51
90.00000000000000
  0
LINE
  5
3E0
100
AcDbEntity
  8
MAIN0
  6
CONTINUOUS
 62
3
100
AcDbLine
 10
1196.585048047215
 20
411.1392587173544
 30
0.0000000000000000
 11
1196.585048047215
 21
409.9392587173544
 31
0.0000000000000000
  0
LINE
  5
3E1
100
AcDbEntity
  8
MAIN0
  6
CONTINUOUS
 62
3
100
AcDbLine
 10
1196.585048047215
 20
413.1392587173544
 30
0.0000000000000000
 11
1196.585048047215
 21
411.9392587173544
 31
0.0000000000000000
  0
LINE
  5
3E2
100
AcDbEntity
  8
MAIN0
  6
CONTINUOUS
 62
3
100
AcDbLine
 10
1071.785048047215
 20
426.9392587173544
 30
0.0000000000000000
 11
1071.785048047215
 21
411.1392587173544
 31
0.0000000000000000
  0
LINE
  5
3E3
100
AcDbEntity
  8
MAIN0
  6
CONTINUOUS
 62
3
100
AcDbLine
 10
1073.285048047215
 20
425.7392587173545
 30
0.0000000000000000
 11
1073.285048047215
 21
413.1392587173544
 31
0.0000000000000000
  0
LINE
  5
3E4
100
AcDbEntity
  8
MAIN0
  6
CONTINUOUS
 62
3
100
AcDbLine
 10
1072.085048047215
 20
425.7392587173544
 30
0.0000000000000000
 11
1072.085048047215
 21
413.1392587173544
 31
0.0000000000000000
  0
ARC
  5
3E5
100
AcDbEntity
  8
MAIN0
  6
CONTINUOUS
 62
3
100
AcDbCircle
 10
1073.285048047215
 20
425.7392587173544
 30
0.0000000000000000
 40
1.200000000000000
100
AcDbArc
 50
90.00000000000000
 51
180.0000000000000
  0
LINE
  5
3E6
100
AcDbEntity
  8
MAIN0
  6
CONTINUOUS
 62
3
100
AcDbLine
 10
1076.585048047215
 20
413.1392587173544
 30
0.0000000000000000
 11
1073.285048047215
 21
413.1392587173544
 31
0.0000000000000000
  0
LINE
  5
3E7
100
AcDbEntity
  8
MAIN0
  6
CONTINUOUS
 62
3
100
AcDbLine
 10
1076.585048047215
 20
411.9392587173544
 30
0.0000000000000000
 11
1073.285048047215
 21
411.9392587173544
 31
0.0000000000000000
  0
LINE
  5
3E8
100
AcDbEntity
  8
MAIN0
  6
CONTINUOUS
 62
3
100
AcDbLine
 10
1076.585048047215
 20
413.1392587173544
 30
0.0000000000000000
 11
1076.585048047215
 21
411.9392587173544
 31
0.0000000000000000
  0
ARC
  5
3E9
100
AcDbEntity
  8
MAIN0
  6
CONTINUOUS
 62
3
100
AcDbCircle
 10
1073.285048047215
 20
413.1392587173544
 30
0.0000000000000000
 40
1.200000000000000
100
AcDbArc
 50
180.0000000000000
 51
270.0000000000000
  0
LINE
  5
3EA
100
AcDbEntity
  8
MAIN0
  6
CONTINUOUS
 62
3
100
AcDbLine
 10
1076.585048047215
 20
411.1392587173544
 30
0.0000000000000000
 11
1076.585048047215
 21
409.9392587173544
 31
0.0000000000000000
  0
LINE
  5
3EB
100
AcDbEntity
  8
MAIN0
  6
CONTINUOUS
 62
3
100
AcDbLine
 10
1071.785048047215
 20
411.1392587173544
 30
0.0000000000000000
 11
1076.585048047215
 21
411.1392587173544
 31
0.0000000000000000
  0
LINE
  5
3EC
100
AcDbEntity
  8
MAIN0
  6
CONTINUOUS
 62
3
100
AcDbLine
 10
1191.585048047215
 20
407.2392587173545
 30
0.0000000000000000
 11
1191.585048047215
 21
368.9447639991812
 31
0.0000000000000000
  0
LINE
  5
3ED
100
AcDbEntity
  8
MAIN0
  6
CONTINUOUS
 62
3
100
AcDbLine
 10
1081.585048047215
 20
407.2392587173545
 30
0.0000000000000000
 11
1081.585048047215
 21
368.9447639991813
 31
0.0000000000000000
  0
ARC
  5
3EE
100
AcDbEntity
  8
MAIN0
  6
CONTINUOUS
 62
3
100
AcDbCircle
 10
1136.585048047215
 20
390.7392587168846
 30
0.0000000000000000
 40
60.00000000000000
100
AcDbArc
 50
312.8334280661621
 51
334.1580672368328
  0
ARC
  5
3EF
100
AcDbEntity
  8
MAIN0
  6
CONTINUOUS
 62
3
100
AcDbCircle
 10
1136.585048047215
 20
390.7392587168846
 30
0.0000000000000000
 40
60.00000000000000
100
AcDbArc
 50
205.8419327631671
 51
227.1665719340277
  0
ARC
  5
3F0
100
AcDbEntity
  8
MAIN0
  6
CONTINUOUS
 62
3
100
AcDbCircle
 10
1195.585048047215
 20
407.2392587173545
 30
0.0000000000000000
 40
4.000000000000000
100
AcDbArc
 50
90.00000000000000
 51
180.0000000000000
  0
ARC
  5
3F1
100
AcDbEntity
  8
MAIN0
  6
CONTINUOUS
 62
3
100
AcDbCircle
 10
1181.585048047215
 20
368.9447639991812
 30
0.0000000000000000
 40
10.00000000000000
100
AcDbArc
 50
334.1580672368328
 51
360.0000000000000
  0
ARC
  5
3F2
100
AcDbEntity
  8
MAIN0
  6
CONTINUOUS
 62
3
100
AcDbCircle
 10
1091.585048047215
 20
368.9447639991813
 30
0.0000000000000000
 40
10.00000000000000
100
AcDbArc
 50
180.0000000000000
 51
205.8419327631672
  0
ARC
  5
3F3
100
AcDbEntity
  8
MAIN0
  6
CONTINUOUS
 62
3
100
AcDbCircle
 10
1077.585048047215
 20
407.2392587173545
 30
0.0000000000000000
 40
4.000000000000000
100
AcDbArc
 50
0.0000000000000000
 51
90.00000000000000
  0
LINE
  5
3F4
100
AcDbEntity
  8
MAIN0
  6
CONTINUOUS
 62
3
100
AcDbLine
 10
1095.792891937965
 20
346.7392587173545
 30
0.0000000000000000
 11
1177.377204156464
 21
346.7392587173545
 31
0.0000000000000000
  0
LINE
  5
3F5
100
AcDbEntity
  8
MAIN0
  6
CONTINUOUS
 62
3
100
AcDbLine
 10
1192.585048047215
 20
346.7392587173545
 30
0.0000000000000000
 11
1199.585048047215
 21
346.7392587173545
 31
0.0000000000000000
  0
LINE
  5
3F6
100
AcDbEntity
  8
MAIN0
  6
CONTINUOUS
 62
3
100
AcDbLine
 10
1192.585048058176
 20
425.7392587173547
 30
0.0000000000000000
 11
1199.585048047215
 21
418.7392587281383
 31
0.0000000000000000
  0
LINE
  5
3F7
100
AcDbEntity
  8
MAIN0
  6
CONTINUOUS
 62
3
100
AcDbLine
 10
1193.585048040089
 20
425.7392587173545
 30
0.0000000000000000
 11
1199.885048047215
 21
419.4392587103498
 31
0.0000000000000000
  0
LINE
  5
3F8
100
AcDbEntity
  8
MAIN0
  6
CONTINUOUS
 62
3
100
AcDbLine
 10
1079.585048054340
 20
425.7392587173546
 30
0.0000000000000000
 11
1073.285048047214
 21
419.4392587103499
 31
0.0000000000000000
  0
LINE
  5
3F9
100
AcDbEntity
  8
MAIN0
  6
CONTINUOUS
 62
3
100
AcDbLine
 10
1080.585048036254
 20
425.7392587173546
 30
0.0000000000000000
 11
1073.585048047215
 21
418.7392587281382
 31
0.0000000000000000
  0
ARC
  5
3FA
100
AcDbEntity
  8
MAIN0
  6
CONTINUOUS
 62
3
100
AcDbCircle
 10
1136.585048047215
 20
390.7392587168846
 30
0.0000000000000000
 40
39.00000000000000
100
AcDbArc
 50
117.7957724961231
 51
235.1361620457912
  0
ARC
  5
3FB
100
AcDbEntity
  8
MAIN0
  6
CONTINUOUS
 62
3
100
AcDbCircle
 10
1136.585048047215
 20
390.7392587168846
 30
0.0000000000000000
 40
39.00000000000000
100
AcDbArc
 50
304.8638379543986
 51
422.2042275040665
  0
LINE
  5
3FC
100
AcDbEntity
  8
MAIN0
  6
CONTINUOUS
 62
3
100
AcDbLine
 10
1114.291551237659
 20
358.7392587168476
 30
0.0000000000000000
 11
1158.878544856876
 21
358.7392587169215
 31
0.0000000000000000
  0
LINE
  5
3FD
100
AcDbEntity
  8
MAIN0
  6
CONTINUOUS
 62
3
100
AcDbLine
 10
1128.433204630846
 20
325.7392587173545
 30
0.0000000000000000
 11
1073.585048047215
 21
325.7392587173545
 31
0.0000000000000000
  0
LINE
  5
3FE
100
AcDbEntity
  8
MAIN0
  6
CONTINUOUS
 62
3
100
AcDbLine
 10
1118.398514567684
 20
425.2392587168544
 30
0.0000000000000000
 11
1136.585048047215
 21
425.2392587168846
 31
0.0000000000000000
  0
LINE
  5
3FF
100
AcDbEntity
  8
MAIN0
  6
CONTINUOUS
 62
3
100
AcDbLine
 10
1136.585048047215
 20
425.2392587168845
 30
0.0000000000000000
 11
1149.954790004279
 21
425.2392587169067
 31
0.0000000000000000
  0
LINE
  5
400
100
AcDbEntity
  8
MAIN0
  6
CONTINUOUS
 62
3
100
AcDbLine
 10
1149.954790004279
 20
425.2392587169067
 30
0.0000000000000000
 11
1154.771581526631
 21
425.2392587169146
 31
0.0000000000000000
  0
LINE
  5
401
100
AcDbEntity
  8
MAIN0
  6
CENTER
 62
3
100
AcDbLine
 10
1136.585048047215
 20
313.2161989431747
 30
0.0000000000000000
 11
1136.585048047215
 21
448.9513945324903
 31
0.0000000000000000
  0
LINE
  5
402
100
AcDbEntity
  8
MAIN0
  6
CENTER
 62
3
100
AcDbLine
 10
1136.585048047215
 20
467.2513942463880
 30
0.0000000000000000
 11
1136.585048047215
 21
479.4055237298683
 31
0.0000000000000000
  0
CIRCLE
  5
403
100
AcDbEntity
  8
MAIN0
  6
CONTINUOUS
 62
3
100
AcDbCircle
 10
456.5023149380579
 20
716.2743879019945
 30
0.0000000000000000
 40
5.000000000000000
  0
CIRCLE
  5
404
100
AcDbEntity
  8
MAIN0
  6
CONTINUOUS
 62
3
100
AcDbCircle
 10
456.5023149380579
 20
716.2743879019945
 30
0.0000000000000000
 40
4.188101000000000
  0
LINE
  5
405
100
AcDbEntity
  8
MAIN0
  6
CONTINUOUS
 62
3
100
AcDbLine
 10
456.5023149380577
 20
719.1611392479424
 30
0.0000000000000000
 11
454.0023149380578
 21
717.7177635749684
 31
0.0000000000000000
  0
LINE
  5
406
100
AcDbEntity
  8
MAIN0
  6
CONTINUOUS
 62
3
100
AcDbLine
 10
454.0023149380579
 20
717.7177635749686
 30
0.0000000000000000
 11
454.0023149380579
 21
714.8310122290204
 31
0.0000000000000000
  0
LINE
  5
407
100
AcDbEntity
  8
MAIN0
  6
CONTINUOUS
 62
3
100
AcDbLine
 10
454.0023149380579
 20
714.8310122290203
 30
0.0000000000000000
 11
456.5023149380579
 21
713.3876365560462
 31
0.0000000000000000
  0
LINE
  5
408
100
AcDbEntity
  8
MAIN0
  6
CONTINUOUS
 62
3
100
AcDbLine
 10
456.5023149380578
 20
713.3876365560464
 30
0.0000000000000000
 11
459.0023149380577
 21
714.8310122290203
 31
0.0000000000000000
  0
LINE
  5
409
100
AcDbEntity
  8
MAIN0
  6
CONTINUOUS
 62
3
100
AcDbLine
 10
459.0023149380579
 20
714.8310122290204
 30
0.0000000000000000
 11
459.0023149380579
 21
717.7177635749686
 31
0.0000000000000000
  0
LINE
  5
40A
100
AcDbEntity
  8
MAIN0
  6
CONTINUOUS
 62
3
100
AcDbLine
 10
459.0023149380579
 20
717.7177635749684
 30
0.0000000000000000
 11
456.5023149380579
 21
719.1611392479425
 31
0.0000000000000000
  0
LINE
  5
40B
100
AcDbEntity
  8
MAIN0
  6
CENTER
 62
3
100
AcDbLine
 10
456.5023149380578
 20
657.1671019544816
 30
0.0000000000000000
 11
456.5023149380579
 21
675.2383849731945
 31
0.0000000000000000
  0
LINE
  5
40C
100
AcDbEntity
  8
MAIN0
  6
CENTER
 62
3
100
AcDbLine
 10
448.2676495523295
 20
666.2743879019945
 30
0.0000000000000000
 11
464.1838579871600
 21
666.2743879019945
 31
0.0000000000000000
  0
CIRCLE
  5
40D
100
AcDbEntity
  8
MAIN0
  6
CONTINUOUS
 62
3
100
AcDbCircle
 10
456.5023149380579
 20
666.2743879019945
 30
0.0000000000000000
 40
5.000000000000000
  0
CIRCLE
  5
40E
100
AcDbEntity
  8
MAIN0
  6
CONTINUOUS
 62
3
100
AcDbCircle
 10
456.5023149380579
 20
666.2743879019945
 30
0.0000000000000000
 40
4.188101000000000
  0
LINE
  5
40F
100
AcDbEntity
  8
MAIN0
  6
CONTINUOUS
 62
3
100
AcDbLine
 10
456.5023149380579
 20
663.3876365560464
 30
0.0000000000000000
 11
454.0023149380579
 21
664.8310122290204
 31
0.0000000000000000
  0
LINE
  5
410
100
AcDbEntity
  8
MAIN0
  6
CONTINUOUS
 62
3
100
AcDbLine
 10
454.0023149380579
 20
664.8310122290204
 30
0.0000000000000000
 11
454.0023149380579
 21
667.7177635749686
 31
0.0000000000000000
  0
LINE
  5
411
100
AcDbEntity
  8
MAIN0
  6
CONTINUOUS
 62
3
100
AcDbLine
 10
454.0023149380577
 20
667.7177635749683
 30
0.0000000000000000
 11
456.5023149380577
 21
669.1611392479424
 31
0.0000000000000000
  0
LINE
  5
412
100
AcDbEntity
  8
MAIN0
  6
CONTINUOUS
 62
3
100
AcDbLine
 10
456.5023149380579
 20
669.1611392479426
 30
0.0000000000000000
 11
459.0023149380579
 21
667.7177635749686
 31
0.0000000000000000
  0
LINE
  5
413
100
AcDbEntity
  8
MAIN0
  6
CONTINUOUS
 62
3
100
AcDbLine
 10
459.0023149380579
 20
667.7177635749686
 30
0.0000000000000000
 11
459.0023149380579
 21
664.8310122290204
 31
0.0000000000000000
  0
LINE
  5
414
100
AcDbEntity
  8
MAIN0
  6
CONTINUOUS
 62
3
100
AcDbLine
 10
459.0023149380578
 20
664.8310122290203
 30
0.0000000000000000
 11
456.5023149380578
 21
663.3876365560462
 31
0.0000000000000000
  0
LINE
  5
415
100
AcDbEntity
  8
MAIN0
  6
CENTER
 62
3
100
AcDbLine
 10
401.5023149380578
 20
657.1671019544817
 30
0.0000000000000000
 11
401.5023149380579
 21
675.2383849731945
 31
0.0000000000000000
  0
LINE
  5
416
100
AcDbEntity
  8
MAIN0
  6
CENTER
 62
3
100
AcDbLine
 10
393.2676495523295
 20
666.2743879019945
 30
0.0000000000000000
 11
409.1838579871600
 21
666.2743879019945
 31
0.0000000000000000
  0
CIRCLE
  5
417
100
AcDbEntity
  8
MAIN0
  6
CONTINUOUS
 62
3
100
AcDbCircle
 10
401.5023149380579
 20
666.2743879019945
 30
0.0000000000000000
 40
5.000000000000000
  0
CIRCLE
  5
418
100
AcDbEntity
  8
MAIN0
  6
CONTINUOUS
 62
3
100
AcDbCircle
 10
401.5023149380579
 20
666.2743879019945
 30
0.0000000000000000
 40
4.188101000000000
  0
LINE
  5
419
100
AcDbEntity
  8
MAIN0
  6
CONTINUOUS
 62
3
100
AcDbLine
 10
401.5023149380578
 20
663.3876365560461
 30
0.0000000000000000
 11
399.0023149380579
 21
664.8310122290202
 31
0.0000000000000000
  0
LINE
  5
41A
100
AcDbEntity
  8
MAIN0
  6
CONTINUOUS
 62
3
100
AcDbLine
 10
399.0023149380579
 20
664.8310122290204
 30
0.0000000000000000
 11
399.0023149380579
 21
667.7177635749686
 31
0.0000000000000000
  0
LINE
  5
41B
100
AcDbEntity
  8
MAIN0
  6
CONTINUOUS
 62
3
100
AcDbLine
 10
399.0023149380578
 20
667.7177635749684
 30
0.0000000000000000
 11
401.5023149380578
 21
669.1611392479425
 31
0.0000000000000000
  0
LINE
  5
41C
100
AcDbEntity
  8
MAIN0
  6
CONTINUOUS
 62
3
100
AcDbLine
 10
401.5023149380578
 20
669.1611392479424
 30
0.0000000000000000
 11
404.0023149380578
 21
667.7177635749683
 31
0.0000000000000000
  0
LINE
  5
41D
100
AcDbEntity
  8
MAIN0
  6
CONTINUOUS
 62
3
100
AcDbLine
 10
404.0023149380579
 20
667.7177635749686
 30
0.0000000000000000
 11
404.0023149380579
 21
664.8310122290204
 31
0.0000000000000000
  0
LINE
  5
41E
100
AcDbEntity
  8
MAIN0
  6
CONTINUOUS
 62
3
100
AcDbLine
 10
404.0023149380578
 20
664.8310122290203
 30
0.0000000000000000
 11
401.5023149380578
 21
663.3876365560462
 31
0.0000000000000000
  0
CIRCLE
  5
41F
100
AcDbEntity
  8
MAIN0
  6
CONTINUOUS
 62
3
100
AcDbCircle
 10
550.5023149380579
 20
731.2743879019945
 30
0.0000000000000000
 40
5.000000000000000
  0
CIRCLE
  5
420
100
AcDbEntity
  8
MAIN0
  6
CONTINUOUS
 62
3
100
AcDbCircle
 10
550.5023149380579
 20
731.2743879019945
 30
0.0000000000000000
 40
4.188101000000000
  0
LINE
  5
421
100
AcDbEntity
  8
MAIN0
  6
CONTINUOUS
 62
3
100
AcDbLine
 10
550.5023149380578
 20
734.1611392479425
 30
0.0000000000000000
 11
548.0023149380578
 21
732.7177635749684
 31
0.0000000000000000
  0
LINE
  5
422
100
AcDbEntity
  8
MAIN0
  6
CONTINUOUS
 62
3
100
AcDbLine
 10
548.0023149380579
 20
732.7177635749686
 30
0.0000000000000000
 11
548.0023149380579
 21
729.8310122290204
 31
0.0000000000000000
  0
LINE
  5
423
100
AcDbEntity
  8
MAIN0
  6
CONTINUOUS
 62
3
100
AcDbLine
 10
548.0023149380579
 20
729.8310122290203
 30
0.0000000000000000
 11
550.5023149380579
 21
728.3876365560462
 31
0.0000000000000000
  0
LINE
  5
424
100
AcDbEntity
  8
MAIN0
  6
CONTINUOUS
 62
3
100
AcDbLine
 10
550.5023149380578
 20
728.3876365560461
 30
0.0000000000000000
 11
553.0023149380578
 21
729.8310122290202
 31
0.0000000000000000
  0
LINE
  5
425
100
AcDbEntity
  8
MAIN0
  6
CONTINUOUS
 62
3
100
AcDbLine
 10
553.0023149380579
 20
729.8310122290204
 30
0.0000000000000000
 11
553.0023149380579
 21
732.7177635749686
 31
0.0000000000000000
  0
LINE
  5
426
100
AcDbEntity
  8
MAIN0
  6
CONTINUOUS
 62
3
100
AcDbLine
 10
553.0023149380578
 20
732.7177635749684
 30
0.0000000000000000
 11
550.5023149380579
 21
734.1611392479425
 31
0.0000000000000000
  0
LINE
  5
427
100
AcDbEntity
  8
MAIN0
  6
CENTER
 62
3
100
AcDbLine
 10
550.5023149380579
 20
641.6057299435001
 30
0.0000000000000000
 11
550.5023149380579
 21
661.6849036499223
 31
0.0000000000000000
  0
LINE
  5
428
100
AcDbEntity
  8
MAIN0
  6
CENTER
 62
3
100
AcDbLine
 10
542.2676495523297
 20
651.2743879019945
 30
0.0000000000000000
 11
558.1838579871601
 21
651.2743879019945
 31
0.0000000000000000
  0
CIRCLE
  5
429
100
AcDbEntity
  8
MAIN0
  6
CONTINUOUS
 62
3
100
AcDbCircle
 10
550.5023149380579
 20
651.2743879019945
 30
0.0000000000000000
 40
5.000000000000000
  0
CIRCLE
  5
42A
100
AcDbEntity
  8
MAIN0
  6
CONTINUOUS
 62
3
100
AcDbCircle
 10
550.5023149380579
 20
651.2743879019945
 30
0.0000000000000000
 40
4.188101000000000
  0
LINE
  5
42B
100
AcDbEntity
  8
MAIN0
  6
CONTINUOUS
 62
3
100
AcDbLine
 10
550.5023149380579
 20
648.3876365560462
 30
0.0000000000000000
 11
548.0023149380579
 21
649.8310122290203
 31
0.0000000000000000
  0
LINE
  5
42C
100
AcDbEntity
  8
MAIN0
  6
CONTINUOUS
 62
3
100
AcDbLine
 10
548.0023149380579
 20
649.8310122290204
 30
0.0000000000000000
 11
548.0023149380579
 21
652.7177635749686
 31
0.0000000000000000
  0
LINE
  5
42D
100
AcDbEntity
  8
MAIN0
  6
CONTINUOUS
 62
3
100
AcDbLine
 10
548.0023149380578
 20
652.7177635749684
 30
0.0000000000000000
 11
550.5023149380578
 21
654.1611392479425
 31
0.0000000000000000
  0
LINE
  5
42E
100
AcDbEntity
  8
MAIN0
  6
CONTINUOUS
 62
3
100
AcDbLine
 10
550.5023149380579
 20
654.1611392479425
 30
0.0000000000000000
 11
553.0023149380579
 21
652.7177635749684
 31
0.0000000000000000
  0
LINE
  5
42F
100
AcDbEntity
  8
MAIN0
  6
CONTINUOUS
 62
3
100
AcDbLine
 10
553.0023149380579
 20
652.7177635749686
 30
0.0000000000000000
 11
553.0023149380579
 21
649.8310122290204
 31
0.0000000000000000
  0
LINE
  5
430
100
AcDbEntity
  8
MAIN0
  6
CONTINUOUS
 62
3
100
AcDbLine
 10
553.0023149380577
 20
649.8310122290203
 30
0.0000000000000000
 11
550.5023149380578
 21
648.3876365560462
 31
0.0000000000000000
  0
LINE
  5
431
100
AcDbEntity
  8
MAIN0
  6
CENTER
 62
3
100
AcDbLine
 10
600.5023149380579
 20
641.6057299435001
 30
0.0000000000000000
 11
600.5023149380579
 21
661.6849036499224
 31
0.0000000000000000
  0
LINE
  5
432
100
AcDbEntity
  8
MAIN0
  6
CENTER
 62
3
100
AcDbLine
 10
592.2676495523297
 20
651.2743879019945
 30
0.0000000000000000
 11
608.1838579871601
 21
651.2743879019945
 31
0.0000000000000000
  0
CIRCLE
  5
433
100
AcDbEntity
  8
MAIN0
  6
CONTINUOUS
 62
3
100
AcDbCircle
 10
600.5023149380579
 20
651.2743879019945
 30
0.0000000000000000
 40
5.000000000000000
  0
CIRCLE
  5
434
100
AcDbEntity
  8
MAIN0
  6
CONTINUOUS
 62
3
100
AcDbCircle
 10
600.5023149380579
 20
651.2743879019945
 30
0.0000000000000000
 40
4.188101000000000
  0
LINE
  5
435
100
AcDbEntity
  8
MAIN0
  6
CONTINUOUS
 62
3
100
AcDbLine
 10
600.5023149380579
 20
648.3876365560462
 30
0.0000000000000000
 11
598.0023149380579
 21
649.8310122290203
 31
0.0000000000000000
  0
LINE
  5
436
100
AcDbEntity
  8
MAIN0
  6
CONTINUOUS
 62
3
100
AcDbLine
 10
598.0023149380579
 20
649.8310122290204
 30
0.0000000000000000
 11
598.0023149380579
 21
652.7177635749686
 31
0.0000000000000000
  0
LINE
  5
437
100
AcDbEntity
  8
MAIN0
  6
CONTINUOUS
 62
3
100
AcDbLine
 10
598.0023149380577
 20
652.7177635749684
 30
0.0000000000000000
 11
600.5023149380577
 21
654.1611392479425
 31
0.0000000000000000
  0
LINE
  5
438
100
AcDbEntity
  8
MAIN0
  6
CONTINUOUS
 62
3
100
AcDbLine
 10
600.5023149380579
 20
654.1611392479426
 30
0.0000000000000000
 11
603.0023149380579
 21
652.7177635749686
 31
0.0000000000000000
  0
LINE
  5
439
100
AcDbEntity
  8
MAIN0
  6
CONTINUOUS
 62
3
100
AcDbLine
 10
603.0023149380579
 20
652.7177635749686
 30
0.0000000000000000
 11
603.0023149380579
 21
649.8310122290204
 31
0.0000000000000000
  0
LINE
  5
43A
100
AcDbEntity
  8
MAIN0
  6
CONTINUOUS
 62
3
100
AcDbLine
 10
603.0023149380578
 20
649.8310122290203
 30
0.0000000000000000
 11
600.5023149380578
 21
648.3876365560464
 31
0.0000000000000000
  0
CIRCLE
  5
43B
100
AcDbEntity
  8
MAIN0
  6
HIDDEN
 62
3
100
AcDbCircle
 10
405.0023149386257
 20
735.2743879024129
 30
0.0000000000000000
 40
9.000000000000000
  0
CIRCLE
  5
43C
100
AcDbEntity
  8
MAIN0
  6
CONTINUOUS
 62
3
100
AcDbCircle
 10
405.0023149386403
 20
735.2743879023954
 30
0.0000000000000000
 40
10.00000000000000
  0
LINE
  5
43D
100
AcDbEntity
  8
MAIN0
  6
HIDDEN
 62
3
100
AcDbLine
 10
400.0023149386256
 20
732.3876365564647
 30
0.0000000000000000
 11
405.0023149386255
 21
729.5008852105167
 31
0.0000000000000000
  0
LINE
  5
43E
100
AcDbEntity
  8
MAIN0
  6
HIDDEN
 62
3
100
AcDbLine
 10
400.0023149386257
 20
738.1611392483610
 30
0.0000000000000000
 11
400.0023149386257
 21
732.3876365564649
 31
0.0000000000000000
  0
LINE
  5
43F
100
AcDbEntity
  8
MAIN0
  6
HIDDEN
 62
3
100
AcDbLine
 10
405.0023149386254
 20
741.0478905943089
 30
0.0000000000000000
 11
400.0023149386254
 21
738.1611392483608
 31
0.0000000000000000
  0
LINE
  5
440
100
AcDbEntity
  8
MAIN0
  6
HIDDEN
 62
3
100
AcDbLine
 10
410.0023149386256
 20
738.1611392483609
 30
0.0000000000000000
 11
405.0023149386256
 21
741.0478905943090
 31
0.0000000000000000
  0
LINE
  5
441
100
AcDbEntity
  8
MAIN0
  6
HIDDEN
 62
3
100
AcDbLine
 10
410.0023149386257
 20
732.3876365564649
 30
0.0000000000000000
 11
410.0023149386257
 21
738.1611392483610
 31
0.0000000000000000
  0
LINE
  5
442
100
AcDbEntity
  8
MAIN0
  6
HIDDEN
 62
3
100
AcDbLine
 10
405.0023149386254
 20
729.5008852105166
 30
0.0000000000000000
 11
410.0023149386256
 21
732.3876365564647
 31
0.0000000000000000
  0
LINE
  5
443
100
AcDbEntity
  8
MAIN0
  6
CENTER
 62
3
100
AcDbLine
 10
418.0023149386259
 20
735.2743879024129
 30
0.0000000000000000
 11
392.0023149386259
 21
735.2743879024129
 31
0.0000000000000000
  0
LINE
  5
444
100
AcDbEntity
  8
MAIN0
  6
CENTER
 62
3
100
AcDbLine
 10
405.0023149386259
 20
748.2743879024129
 30
0.0000000000000000
 11
405.0023149386259
 21
722.2743879024129
 31
0.0000000000000000
  0
CIRCLE
  5
445
100
AcDbEntity
  8
MAIN0
  6
HIDDEN
 62
3
100
AcDbCircle
 10
450.0023149386738
 20
735.2743879024129
 30
0.0000000000000000
 40
9.000000000000000
  0
CIRCLE
  5
446
100
AcDbEntity
  8
MAIN0
  6
CONTINUOUS
 62
3
100
AcDbCircle
 10
450.0023149386884
 20
735.2743879023954
 30
0.0000000000000000
 40
10.00000000000000
  0
LINE
  5
447
100
AcDbEntity
  8
MAIN0
  6
HIDDEN
 62
3
100
AcDbLine
 10
445.0023149386736
 20
732.3876365564648
 30
0.0000000000000000
 11
450.0023149386736
 21
729.5008852105167
 31
0.0000000000000000
  0
LINE
  5
448
100
AcDbEntity
  8
MAIN0
  6
HIDDEN
 62
3
100
AcDbLine
 10
445.0023149386738
 20
738.1611392483610
 30
0.0000000000000000
 11
445.0023149386738
 21
732.3876365564649
 31
0.0000000000000000
  0
LINE
  5
449
100
AcDbEntity
  8
MAIN0
  6
HIDDEN
 62
3
100
AcDbLine
 10
450.0023149386735
 20
741.0478905943089
 30
0.0000000000000000
 11
445.0023149386736
 21
738.1611392483608
 31
0.0000000000000000
  0
LINE
  5
44A
100
AcDbEntity
  8
MAIN0
  6
HIDDEN
 62
3
100
AcDbLine
 10
455.0023149386736
 20
738.1611392483610
 30
0.0000000000000000
 11
450.0023149386736
 21
741.0478905943091
 31
0.0000000000000000
  0
LINE
  5
44B
100
AcDbEntity
  8
MAIN0
  6
HIDDEN
 62
3
100
AcDbLine
 10
455.0023149386738
 20
732.3876365564649
 30
0.0000000000000000
 11
455.0023149386738
 21
738.1611392483610
 31
0.0000000000000000
  0
LINE
  5
44C
100
AcDbEntity
  8
MAIN0
  6
HIDDEN
 62
3
100
AcDbLine
 10
450.0023149386735
 20
729.5008852105165
 30
0.0000000000000000
 11
455.0023149386735
 21
732.3876365564646
 31
0.0000000000000000
  0
LINE
  5
44D
100
AcDbEntity
  8
MAIN0
  6
CENTER
 62
3
100
AcDbLine
 10
463.0023149386740
 20
735.2743879024129
 30
0.0000000000000000
 11
437.0023149386740
 21
735.2743879024129
 31
0.0000000000000000
  0
LINE
  5
44E
100
AcDbEntity
  8
MAIN0
  6
CENTER
 62
3
100
AcDbLine
 10
450.0023149386740
 20
748.2743879024129
 30
0.0000000000000000
 11
450.0023149386740
 21
722.2743879024129
 31
0.0000000000000000
  0
CIRCLE
  5
44F
100
AcDbEntity
  8
MAIN0
  6
HIDDEN
 62
3
100
AcDbCircle
 10
405.0023149388582
 20
647.2743879016850
 30
0.0000000000000000
 40
9.000000000000000
  0
CIRCLE
  5
450
100
AcDbEntity
  8
MAIN0
  6
CONTINUOUS
 62
3
100
AcDbCircle
 10
405.0023149388728
 20
647.2743879016675
 30
0.0000000000000000
 40
10.00000000000000
  0
LINE
  5
451
100
AcDbEntity
  8
MAIN0
  6
HIDDEN
 62
3
100
AcDbLine
 10
400.0023149388580
 20
644.3876365557369
 30
0.0000000000000000
 11
405.0023149388580
 21
641.5008852097889
 31
0.0000000000000000
  0
LINE
  5
452
100
AcDbEntity
  8
MAIN0
  6
HIDDEN
 62
3
100
AcDbLine
 10
400.0023149388582
 20
650.1611392476332
 30
0.0000000000000000
 11
400.0023149388582
 21
644.3876365557371
 31
0.0000000000000000
  0
LINE
  5
453
100
AcDbEntity
  8
MAIN0
  6
HIDDEN
 62
3
100
AcDbLine
 10
405.0023149388579
 20
653.0478905935811
 30
0.0000000000000000
 11
400.0023149388580
 21
650.1611392476330
 31
0.0000000000000000
  0
LINE
  5
454
100
AcDbEntity
  8
MAIN0
  6
HIDDEN
 62
3
100
AcDbLine
 10
410.0023149388580
 20
650.1611392476331
 30
0.0000000000000000
 11
405.0023149388580
 21
653.0478905935812
 31
0.0000000000000000
  0
LINE
  5
455
100
AcDbEntity
  8
MAIN0
  6
HIDDEN
 62
3
100
AcDbLine
 10
410.0023149388582
 20
644.3876365557371
 30
0.0000000000000000
 11
410.0023149388582
 21
650.1611392476332
 31
0.0000000000000000
  0
LINE
  5
456
100
AcDbEntity
  8
MAIN0
  6
HIDDEN
 62
3
100
AcDbLine
 10
405.0023149388579
 20
641.5008852097888
 30
0.0000000000000000
 11
410.0023149388579
 21
644.3876365557369
 31
0.0000000000000000
  0
LINE
  5
457
100
AcDbEntity
  8
MAIN0
  6
CENTER
 62
3
100
AcDbLine
 10
418.0023149388584
 20
647.2743879016850
 30
0.0000000000000000
 11
392.0023149388584
 21
647.2743879016850
 31
0.0000000000000000
  0
LINE
  5
458
100
AcDbEntity
  8
MAIN0
  6
CENTER
 62
3
100
AcDbLine
 10
405.0023149388584
 20
660.2743879016850
 30
0.0000000000000000
 11
405.0023149388584
 21
634.2743879016850
 31
0.0000000000000000
  0
CIRCLE
  5
459
100
AcDbEntity
  8
MAIN0
  6
HIDDEN
 62
3
100
AcDbCircle
 10
450.0023149389263
 20
647.2743879018610
 30
0.0000000000000000
 40
9.000000000000000
  0
CIRCLE
  5
45A
100
AcDbEntity
  8
MAIN0
  6
CONTINUOUS
 62
3
100
AcDbCircle
 10
450.0023149389410
 20
647.2743879018435
 30
0.0000000000000000
 40
10.00000000000000
  0
LINE
  5
45B
100
AcDbEntity
  8
MAIN0
  6
HIDDEN
 62
3
100
AcDbLine
 10
445.0023149389262
 20
644.3876365559130
 30
0.0000000000000000
 11
450.0023149389261
 21
641.5008852099649
 31
0.0000000000000000
  0
LINE
  5
45C
100
AcDbEntity
  8
MAIN0
  6
HIDDEN
 62
3
100
AcDbLine
 10
445.0023149389263
 20
650.1611392478092
 30
0.0000000000000000
 11
445.0023149389263
 21
644.3876365559131
 31
0.0000000000000000
  0
LINE
  5
45D
100
AcDbEntity
  8
MAIN0
  6
HIDDEN
 62
3
100
AcDbLine
 10
450.0023149389260
 20
653.0478905937571
 30
0.0000000000000000
 11
445.0023149389261
 21
650.1611392478089
 31
0.0000000000000000
  0
LINE
  5
45E
100
AcDbEntity
  8
MAIN0
  6
HIDDEN
 62
3
100
AcDbLine
 10
455.0023149389262
 20
650.1611392478091
 30
0.0000000000000000
 11
450.0023149389261
 21
653.0478905937572
 31
0.0000000000000000
  0
LINE
  5
45F
100
AcDbEntity
  8
MAIN0
  6
HIDDEN
 62
3
100
AcDbLine
 10
455.0023149389263
 20
644.3876365559131
 30
0.0000000000000000
 11
455.0023149389263
 21
650.1611392478092
 31
0.0000000000000000
  0
LINE
  5
460
100
AcDbEntity
  8
MAIN0
  6
HIDDEN
 62
3
100
AcDbLine
 10
450.0023149389261
 20
641.5008852099647
 30
0.0000000000000000
 11
455.0023149389261
 21
644.3876365559129
 31
0.0000000000000000
  0
LINE
  5
461
100
AcDbEntity
  8
MAIN0
  6
CENTER
 62
3
100
AcDbLine
 10
463.0023149389265
 20
647.2743879018610
 30
0.0000000000000000
 11
437.0023149389265
 21
647.2743879018610
 31
0.0000000000000000
  0
LINE
  5
462
100
AcDbEntity
  8
MAIN0
  6
CENTER
 62
3
100
AcDbLine
 10
450.0023149389265
 20
660.2743879018610
 30
0.0000000000000000
 11
450.0023149389265
 21
634.2743879018610
 31
0.0000000000000000
  0
CIRCLE
  5
463
100
AcDbEntity
  8
MAIN0
  6
HIDDEN
 62
3
100
AcDbCircle
 10
556.5023149367150
 20
673.7743879031514
 30
0.0000000000000000
 40
9.000000000000000
  0
CIRCLE
  5
464
100
AcDbEntity
  8
MAIN0
  6
CONTINUOUS
 62
3
100
AcDbCircle
 10
556.5023149367297
 20
673.7743879031339
 30
0.0000000000000000
 40
10.00000000000000
  0
LINE
  5
465
100
AcDbEntity
  8
MAIN0
  6
HIDDEN
 62
3
100
AcDbLine
 10
551.5023149367149
 20
670.8876365572032
 30
0.0000000000000000
 11
556.5023149367148
 21
668.0008852112551
 31
0.0000000000000000
  0
LINE
  5
466
100
AcDbEntity
  8
MAIN0
  6
HIDDEN
 62
3
100
AcDbLine
 10
551.5023149367150
 20
676.6611392490995
 30
0.0000000000000000
 11
551.5023149367150
 21
670.8876365572035
 31
0.0000000000000000
  0
LINE
  5
467
100
AcDbEntity
  8
MAIN0
  6
HIDDEN
 62
3
100
AcDbLine
 10
556.5023149367148
 20
679.5478905950474
 30
0.0000000000000000
 11
551.5023149367148
 21
676.6611392490993
 31
0.0000000000000000
  0
LINE
  5
468
100
AcDbEntity
  8
MAIN0
  6
HIDDEN
 62
3
100
AcDbLine
 10
561.5023149367148
 20
676.6611392490994
 30
0.0000000000000000
 11
556.5023149367148
 21
679.5478905950475
 31
0.0000000000000000
  0
LINE
  5
469
100
AcDbEntity
  8
MAIN0
  6
HIDDEN
 62
3
100
AcDbLine
 10
561.5023149367150
 20
670.8876365572035
 30
0.0000000000000000
 11
561.5023149367150
 21
676.6611392490995
 31
0.0000000000000000
  0
LINE
  5
46A
100
AcDbEntity
  8
MAIN0
  6
HIDDEN
 62
3
100
AcDbLine
 10
556.5023149367148
 20
668.0008852112551
 30
0.0000000000000000
 11
561.5023149367148
 21
670.8876365572032
 31
0.0000000000000000
  0
LINE
  5
46B
100
AcDbEntity
  8
MAIN0
  6
CENTER
 62
3
100
AcDbLine
 10
569.5023149367153
 20
673.7743879031514
 30
0.0000000000000000
 11
543.5023149367153
 21
673.7743879031514
 31
0.0000000000000000
  0
LINE
  5
46C
100
AcDbEntity
  8
MAIN0
  6
CENTER
 62
3
100
AcDbLine
 10
556.5023149367153
 20
686.7743879031514
 30
0.0000000000000000
 11
556.5023149367153
 21
660.7743879031514
 31
0.0000000000000000
  0
CIRCLE
  5
46D
100
AcDbEntity
  8
MAIN0
  6
HIDDEN
 62
3
100
AcDbCircle
 10
598.5023149366323
 20
673.7743879029807
 30
0.0000000000000000
 40
9.000000000000000
  0
CIRCLE
  5
46E
100
AcDbEntity
  8
MAIN0
  6
CONTINUOUS
 62
3
100
AcDbCircle
 10
598.5023149366469
 20
673.7743879029632
 30
0.0000000000000000
 40
10.00000000000000
  0
LINE
  5
46F
100
AcDbEntity
  8
MAIN0
  6
HIDDEN
 62
3
100
AcDbLine
 10
593.5023149366322
 20
670.8876365570327
 30
0.0000000000000000
 11
598.5023149366321
 21
668.0008852110846
 31
0.0000000000000000
  0
LINE
  5
470
100
AcDbEntity
  8
MAIN0
  6
HIDDEN
 62
3
100
AcDbLine
 10
593.5023149366323
 20
676.6611392489289
 30
0.0000000000000000
 11
593.5023149366323
 21
670.8876365570328
 31
0.0000000000000000
  0
LINE
  5
471
100
AcDbEntity
  8
MAIN0
  6
HIDDEN
 62
3
100
AcDbLine
 10
598.5023149366321
 20
679.5478905948767
 30
0.0000000000000000
 11
593.5023149366321
 21
676.6611392489286
 31
0.0000000000000000
  0
LINE
  5
472
100
AcDbEntity
  8
MAIN0
  6
HIDDEN
 62
3
100
AcDbLine
 10
603.5023149366321
 20
676.6611392489288
 30
0.0000000000000000
 11
598.5023149366321
 21
679.5478905948769
 31
0.0000000000000000
  0
LINE
  5
473
100
AcDbEntity
  8
MAIN0
  6
HIDDEN
 62
3
100
AcDbLine
 10
603.5023149366323
 20
670.8876365570328
 30
0.0000000000000000
 11
603.5023149366323
 21
676.6611392489289
 31
0.0000000000000000
  0
LINE
  5
474
100
AcDbEntity
  8
MAIN0
  6
HIDDEN
 62
3
100
AcDbLine
 10
598.5023149366319
 20
668.0008852110843
 30
0.0000000000000000
 11
603.5023149366319
 21
670.8876365570325
 31
0.0000000000000000
  0
LINE
  5
475
100
AcDbEntity
  8
MAIN0
  6
CENTER
 62
3
100
AcDbLine
 10
611.5023149366325
 20
673.7743879029807
 30
0.0000000000000000
 11
585.5023149366325
 21
673.7743879029807
 31
0.0000000000000000
  0
LINE
  5
476
100
AcDbEntity
  8
MAIN0
  6
CENTER
 62
3
100
AcDbLine
 10
598.5023149366325
 20
686.7743879029807
 30
0.0000000000000000
 11
598.5023149366325
 21
660.7743879029807
 31
0.0000000000000000
  0
CIRCLE
  5
477
100
AcDbEntity
  8
MAIN0
  6
HIDDEN
 62
3
100
AcDbCircle
 10
598.5023149367130
 20
708.7743879030310
 30
0.0000000000000000
 40
9.000000000000000
  0
CIRCLE
  5
478
100
AcDbEntity
  8
MAIN0
  6
CONTINUOUS
 62
3
100
AcDbCircle
 10
598.5023149367277
 20
708.7743879030135
 30
0.0000000000000000
 40
10.00000000000000
  0
LINE
  5
479
100
AcDbEntity
  8
MAIN0
  6
HIDDEN
 62
3
100
AcDbLine
 10
593.5023149367129
 20
705.8876365570828
 30
0.0000000000000000
 11
598.5023149367128
 21
703.0008852111348
 31
0.0000000000000000
  0
LINE
  5
47A
100
AcDbEntity
  8
MAIN0
  6
HIDDEN
 62
3
100
AcDbLine
 10
593.5023149367130
 20
711.6611392489791
 30
0.0000000000000000
 11
593.5023149367130
 21
705.8876365570831
 31
0.0000000000000000
  0
LINE
  5
47B
100
AcDbEntity
  8
MAIN0
  6
HIDDEN
 62
3
100
AcDbLine
 10
598.5023149367127
 20
714.5478905949269
 30
0.0000000000000000
 11
593.5023149367128
 21
711.6611392489789
 31
0.0000000000000000
  0
LINE
  5
47C
100
AcDbEntity
  8
MAIN0
  6
HIDDEN
 62
3
100
AcDbLine
 10
603.5023149367128
 20
711.6611392489789
 30
0.0000000000000000
 11
598.5023149367128
 21
714.5478905949270
 31
0.0000000000000000
  0
LINE
  5
47D
100
AcDbEntity
  8
MAIN0
  6
HIDDEN
 62
3
100
AcDbLine
 10
603.5023149367130
 20
705.8876365570831
 30
0.0000000000000000
 11
603.5023149367130
 21
711.6611392489791
 31
0.0000000000000000
  0
LINE
  5
47E
100
AcDbEntity
  8
MAIN0
  6
HIDDEN
 62
3
100
AcDbLine
 10
598.5023149367128
 20
703.0008852111346
 30
0.0000000000000000
 11
603.5023149367128
 21
705.8876365570828
 31
0.0000000000000000
  0
LINE
  5
47F
100
AcDbEntity
  8
MAIN0
  6
CENTER
 62
3
100
AcDbLine
 10
611.5023149367132
 20
708.7743879030310
 30
0.0000000000000000
 11
585.5023149367132
 21
708.7743879030310
 31
0.0000000000000000
  0
LINE
  5
480
100
AcDbEntity
  8
MAIN0
  6
CENTER
 62
3
100
AcDbLine
 10
598.5023149367132
 20
721.7743879030310
 30
0.0000000000000000
 11
598.5023149367132
 21
695.7743879030310
 31
0.0000000000000000
  0
CIRCLE
  5
481
100
AcDbEntity
  8
MAIN0
  6
HIDDEN
 62
3
100
AcDbCircle
 10
556.5023149367909
 20
708.7743879032100
 30
0.0000000000000000
 40
9.000000000000000
  0
CIRCLE
  5
482
100
AcDbEntity
  8
MAIN0
  6
CONTINUOUS
 62
3
100
AcDbCircle
 10
556.5023149368055
 20
708.7743879031925
 30
0.0000000000000000
 40
10.00000000000000
  0
LINE
  5
483
100
AcDbEntity
  8
MAIN0
  6
HIDDEN
 62
3
100
AcDbLine
 10
551.5023149367908
 20
705.8876365572619
 30
0.0000000000000000
 11
556.5023149367906
 21
703.0008852113139
 31
0.0000000000000000
  0
LINE
  5
484
100
AcDbEntity
  8
MAIN0
  6
HIDDEN
 62
3
100
AcDbLine
 10
551.5023149367909
 20
711.6611392491582
 30
0.0000000000000000
 11
551.5023149367909
 21
705.8876365572621
 31
0.0000000000000000
  0
LINE
  5
485
100
AcDbEntity
  8
MAIN0
  6
HIDDEN
 62
3
100
AcDbLine
 10
556.5023149367905
 20
714.5478905951061
 30
0.0000000000000000
 11
551.5023149367908
 21
711.6611392491579
 31
0.0000000000000000
  0
LINE
  5
486
100
AcDbEntity
  8
MAIN0
  6
HIDDEN
 62
3
100
AcDbLine
 10
561.5023149367906
 20
711.6611392491581
 30
0.0000000000000000
 11
556.5023149367906
 21
714.5478905951062
 31
0.0000000000000000
  0
LINE
  5
487
100
AcDbEntity
  8
MAIN0
  6
HIDDEN
 62
3
100
AcDbLine
 10
561.5023149367909
 20
705.8876365572621
 30
0.0000000000000000
 11
561.5023149367909
 21
711.6611392491582
 31
0.0000000000000000
  0
LINE
  5
488
100
AcDbEntity
  8
MAIN0
  6
HIDDEN
 62
3
100
AcDbLine
 10
556.5023149367908
 20
703.0008852113137
 30
0.0000000000000000
 11
561.5023149367908
 21
705.8876365572619
 31
0.0000000000000000
  0
LINE
  5
489
100
AcDbEntity
  8
MAIN0
  6
CENTER
 62
3
100
AcDbLine
 10
569.5023149367911
 20
708.7743879032100
 30
0.0000000000000000
 11
543.5023149367911
 21
708.7743879032100
 31
0.0000000000000000
  0
LINE
  5
48A
100
AcDbEntity
  8
MAIN0
  6
CENTER
 62
3
100
AcDbLine
 10
556.5023149367911
 20
721.7743879032100
 30
0.0000000000000000
 11
556.5023149367911
 21
695.7743879032100
 31
0.0000000000000000
  0
LINE
  5
48B
100
AcDbEntity
  8
MAIN0
  6
CONTINUOUS
 62
3
100
AcDbLine
 10
943.0751552790272
 20
360.7392587173883
 30
0.0000000000000000
 11
943.0751552790272
 21
375.1392587173884
 31
0.0000000000000000
  0
LINE
  5
48C
100
AcDbEntity
  8
MAIN0
  6
CONTINUOUS
 62
3
100
AcDbLine
 10
943.0751552790275
 20
375.1392587173884
 30
0.0000000000000000
 11
940.3038739869176
 21
376.7392587173883
 31
0.0000000000000000
  0
LINE
  5
48D
100
AcDbEntity
  8
MAIN0
  6
CONTINUOUS
 62
3
100
AcDbLine
 10
940.3038739869172
 20
376.7392587173883
 30
0.0000000000000000
 11
921.8464365711376
 21
376.7392587173883
 31
0.0000000000000000
  0
LINE
  5
48E
100
AcDbEntity
  8
MAIN0
  6
CONTINUOUS
 62
3
100
AcDbLine
 10
921.8464365711378
 20
376.7392587173886
 30
0.0000000000000000
 11
919.0751552790274
 21
375.1392587173885
 31
0.0000000000000000
  0
LINE
  5
48F
100
AcDbEntity
  8
MAIN0
  6
CONTINUOUS
 62
3
100
AcDbLine
 10
919.0751552790272
 20
375.1392587173884
 30
0.0000000000000000
 11
919.0751552790272
 21
360.7392587173883
 31
0.0000000000000000
  0
LINE
  5
490
100
AcDbEntity
  8
MAIN0
  6
CONTINUOUS
 62
3
100
AcDbLine
 10
943.0751552790272
 20
375.1392587173884
 30
0.0000000000000000
 11
919.0751552790272
 21
375.1392587173884
 31
0.0000000000000000
  0
LINE
  5
491
100
AcDbEntity
  8
MAIN0
  6
CONTINUOUS
 62
3
100
AcDbLine
 10
948.5751552790272
 20
360.7392587173883
 30
0.0000000000000000
 11
913.5751552790272
 21
360.7392587173883
 31
0.0000000000000000
  0
LINE
  5
492
100
AcDbEntity
  8
MAIN0
  6
CONTINUOUS
 62
3
100
AcDbLine
 10
948.5751552790272
 20
355.7392587173883
 30
0.0000000000000000
 11
948.5751552790272
 21
360.7392587173883
 31
0.0000000000000000
  0
LINE
  5
493
100
AcDbEntity
  8
MAIN0
  6
CONTINUOUS
 62
3
100
AcDbLine
 10
913.5751552790272
 20
355.7392587173883
 30
0.0000000000000000
 11
913.5751552790272
 21
360.7392587173883
 31
0.0000000000000000
  0
LINE
  5
494
100
AcDbEntity
  8
MAIN0
  6
CONTINUOUS
 62
3
100
AcDbLine
 10
916.8251552790098
 20
295.7392587175034
 30
0.0000000000000000
 11
916.8251552790023
 21
306.7392587175034
 31
0.0000000000000000
  0
LINE
  5
495
100
AcDbEntity
  8
MAIN0
  6
CONTINUOUS
 62
3
100
AcDbLine
 10
945.3251552790098
 20
295.7392587175153
 30
0.0000000000000000
 11
945.3251552790023
 21
306.7392587175153
 31
0.0000000000000000
  0
LINE
  5
496
100
AcDbEntity
  8
MAIN0
  6
CONTINUOUS
 62
3
100
AcDbLine
 10
916.8251552790105
 20
295.7392587175034
 30
0.0000000000000000
 11
945.3251552790105
 21
295.7392587175153
 31
0.0000000000000000
  0
LINE
  5
497
100
AcDbEntity
  8
MAIN0
  6
CONTINUOUS
 62
3
100
AcDbLine
 10
922.3251552789967
 20
314.7392587175057
 30
0.0000000000000000
 11
939.8251552789967
 21
314.7392587175129
 31
0.0000000000000000
  0
LINE
  5
498
100
AcDbEntity
  8
MAIN0
  6
CONTINUOUS
 62
3
100
AcDbLine
 10
916.8251552790023
 20
306.7392587175035
 30
0.0000000000000000
 11
922.3251552790023
 21
306.7392587175057
 31
0.0000000000000000
  0
LINE
  5
499
100
AcDbEntity
  8
MAIN0
  6
CONTINUOUS
 62
3
100
AcDbLine
 10
939.8251552790024
 20
306.7392587175130
 30
0.0000000000000000
 11
945.3251552790024
 21
306.7392587175153
 31
0.0000000000000000
  0
LINE
  5
49A
100
AcDbEntity
  8
MAIN0
  6
CONTINUOUS
 62
3
100
AcDbLine
 10
922.3251552790023
 20
306.7392587175056
 30
0.0000000000000000
 11
922.3251552789968
 21
314.7392587175056
 31
0.0000000000000000
  0
LINE
  5
49B
100
AcDbEntity
  8
MAIN0
  6
CONTINUOUS
 62
3
100
AcDbLine
 10
939.8251552790023
 20
306.7392587175129
 30
0.0000000000000000
 11
939.8251552789968
 21
314.7392587175129
 31
0.0000000000000000
  0
LINE
  5
49C
100
AcDbEntity
  8
MAIN0
  6
CONTINUOUS
 62
3
100
AcDbLine
 10
924.1576872790099
 20
325.7392587175124
 30
0.0000000000000000
 11
924.1576872790099
 21
314.7392587175154
 31
0.0000000000000000
  0
LINE
  5
49D
100
AcDbEntity
  8
MAIN0
  6
CONTINUOUS
 62
3
100
AcDbLine
 10
923.0751552790100
 20
314.7392587175154
 30
0.0000000000000000
 11
923.0751552790100
 21
325.7392587175120
 31
0.0000000000000000
  0
LINE
  5
49E
100
AcDbEntity
  8
MAIN0
  6
CONTINUOUS
 62
3
100
AcDbLine
 10
937.9926232790101
 20
325.7392587175182
 30
0.0000000000000000
 11
937.9926232790101
 21
314.7392587175154
 31
0.0000000000000000
  0
LINE
  5
49F
100
AcDbEntity
  8
MAIN0
  6
CONTINUOUS
 62
3
100
AcDbLine
 10
939.0751552790100
 20
325.7392587175187
 30
0.0000000000000000
 11
939.0751552790100
 21
314.7392587175154
 31
0.0000000000000000
  0
LINE
  5
4A0
100
AcDbEntity
  8
MAIN0
  6
CONTINUOUS
 62
3
100
AcDbLine
 10
1035.585048047202
 20
314.7392587173482
 30
0.0000000000000000
 11
1065.585048047202
 21
314.7392587173607
 31
0.0000000000000000
  0
LINE
  5
4A1
100
AcDbEntity
  8
MAIN0
  6
CONTINUOUS
 62
3
100
AcDbLine
 10
1035.585048047215
 20
295.7392587173483
 30
0.0000000000000000
 11
1035.585048047202
 21
314.7392587173483
 31
0.0000000000000000
  0
LINE
  5
4A2
100
AcDbEntity
  8
MAIN0
  6
CONTINUOUS
 62
3
100
AcDbLine
 10
1035.585048047208
 20
306.7392587173483
 30
0.0000000000000000
 11
1065.585048047208
 21
306.7392587173608
 31
0.0000000000000000
  0
LINE
  5
4A3
100
AcDbEntity
  8
MAIN0
  6
CONTINUOUS
 62
3
100
AcDbLine
 10
1035.585048047215
 20
295.7392587173482
 30
0.0000000000000000
 11
1065.585048047215
 21
295.7392587173607
 31
0.0000000000000000
  0
LINE
  5
4A4
100
AcDbEntity
  8
MAIN0
  6
CONTINUOUS
 62
3
100
AcDbLine
 10
1065.585048047215
 20
295.7392587173606
 30
0.0000000000000000
 11
1065.585048047202
 21
314.7392587173606
 31
0.0000000000000000
  0
LINE
  5
4A5
100
AcDbEntity
  8
MAIN0
  6
CONTINUOUS
 62
3
100
AcDbLine
 10
1035.585048047171
 20
223.5192920401889
 30
0.0000000000000000
 11
1065.585048047171
 21
223.5192920401806
 31
0.0000000000000000
  0
LINE
  5
4A6
100
AcDbEntity
  8
MAIN0
  6
HIDDEN
 62
3
100
AcDbLine
 10
1035.585048047175
 20
218.0192920401890
 30
0.0000000000000000
 11
1065.585048047175
 21
218.0192920401807
 31
0.0000000000000000
  0
LINE
  5
4A7
100
AcDbEntity
  8
MAIN0
  6
CONTINUOUS
 62
3
100
AcDbLine
 10
1035.585048047191
 20
195.0192920401891
 30
0.0000000000000000
 11
1035.585048047172
 21
223.5192920401891
 31
0.0000000000000000
  0
LINE
  5
4A8
100
AcDbEntity
  8
MAIN0
  6
CENTER
 62
3
100
AcDbLine
 10
1032.322430024892
 20
209.2692920401900
 30
0.0000000000000000
 11
1069.140527388530
 21
209.2692920401798
 31
0.0000000000000000
  0
LINE
  5
4A9
100
AcDbEntity
  8
MAIN0
  6
HIDDEN
 62
3
100
AcDbLine
 10
1035.585048047188
 20
200.5192920401892
 30
0.0000000000000000
 11
1065.585048047187
 21
200.5192920401808
 31
0.0000000000000000
  0
LINE
  5
4AA
100
AcDbEntity
  8
MAIN0
  6
CONTINUOUS
 62
3
100
AcDbLine
 10
1035.585048047191
 20
195.0192920401892
 30
0.0000000000000000
 11
1065.585048047191
 21
195.0192920401808
 31
0.0000000000000000
  0
LINE
  5
4AB
100
AcDbEntity
  8
MAIN0
  6
CONTINUOUS
 62
3
100
AcDbLine
 10
1065.585048047191
 20
195.0192920401809
 30
0.0000000000000000
 11
1065.585048047171
 21
223.5192920401809
 31
0.0000000000000000
  0
CIRCLE
  5
4AC
100
AcDbEntity
  8
MAIN0
  6
CONTINUOUS
 62
3
100
AcDbCircle
 10
427.5023149380587
 20
455.7392587173546
 30
0.0000000000000000
 40
4.000000000000000
  0
CIRCLE
  5
4AD
100
AcDbEntity
  8
MAIN0
  6
CONTINUOUS
 62
3
100
AcDbCircle
 10
427.5023149380587
 20
455.7392587173546
 30
0.0000000000000000
 40
3.400000000000000
  0
CIRCLE
  5
4AE
100
AcDbEntity
  8
MAIN0
  6
CONTINUOUS
 62
3
100
AcDbCircle
 10
427.5023149380587
 20
435.7392587173546
 30
0.0000000000000000
 40
4.000000000000000
  0
CIRCLE
  5
4AF
100
AcDbEntity
  8
MAIN0
  6
CONTINUOUS
 62
3
100
AcDbCircle
 10
427.5023149380587
 20
435.7392587173546
 30
0.0000000000000000
 40
3.400000000000000
  0
CIRCLE
  5
4B0
100
AcDbEntity
  8
MAIN0
  6
CONTINUOUS
 62
3
100
AcDbCircle
 10
677.5023149380587
 20
398.7392587173545
 30
0.0000000000000000
 40
5.000000000000000
  0
CIRCLE
  5
4B1
100
AcDbEntity
  8
MAIN0
  6
CONTINUOUS
 62
3
100
AcDbCircle
 10
677.5023149380587
 20
398.7392587173545
 30
0.0000000000000000
 40
4.250000000000000
  0
CIRCLE
  5
4B2
100
AcDbEntity
  8
MAIN0
  6
CONTINUOUS
 62
3
100
AcDbCircle
 10
462.5023149380586
 20
398.7392587173544
 30
0.0000000000000000
 40
5.000000000000000
  0
CIRCLE
  5
4B3
100
AcDbEntity
  8
MAIN0
  6
CONTINUOUS
 62
3
100
AcDbCircle
 10
462.5023149380586
 20
398.7392587173544
 30
0.0000000000000000
 40
4.250000000000000
  0
CIRCLE
  5
4B4
100
AcDbEntity
  8
MAIN0
  6
CONTINUOUS
 62
3
100
AcDbCircle
 10
1177.288242025048
 20
414.2392587174153
 30
0.0000000000000000
 40
8.000000000000000
  0
LINE
  5
4B5
100
AcDbEntity
  8
MAIN0
  6
CONTINUOUS
 62
3
100
AcDbLine
 10
1177.288242025048
 20
418.8580608709324
 30
0.0000000000000000
 11
1173.288242025048
 21
416.5486597941739
 31
0.0000000000000000
  0
LINE
  5
4B6
100
AcDbEntity
  8
MAIN0
  6
CONTINUOUS
 62
3
100
AcDbLine
 10
1173.288242025048
 20
416.5486597941737
 30
0.0000000000000000
 11
1173.288242025048
 21
411.9298576406569
 31
0.0000000000000000
  0
LINE
  5
4B7
100
AcDbEntity
  8
MAIN0
  6
CONTINUOUS
 62
3
100
AcDbLine
 10
1173.288242025048
 20
411.9298576406569
 30
0.0000000000000000
 11
1177.288242025048
 21
409.6204565638984
 31
0.0000000000000000
  0
LINE
  5
4B8
100
AcDbEntity
  8
MAIN0
  6
CONTINUOUS
 62
3
100
AcDbLine
 10
1177.288242025048
 20
409.6204565638984
 30
0.0000000000000000
 11
1181.288242025048
 21
411.9298576406569
 31
0.0000000000000000
  0
LINE
  5
4B9
100
AcDbEntity
  8
MAIN0
  6
CONTINUOUS
 62
3
100
AcDbLine
 10
1181.288242025048
 20
411.9298576406569
 30
0.0000000000000000
 11
1181.288242025048
 21
416.5486597941737
 31
0.0000000000000000
  0
LINE
  5
4BA
100
AcDbEntity
  8
MAIN0
  6
CONTINUOUS
 62
3
100
AcDbLine
 10
1181.288242025048
 20
416.5486597941738
 30
0.0000000000000000
 11
1177.288242025048
 21
418.8580608709323
 31
0.0000000000000000
  0
CIRCLE
  5
4BB
100
AcDbEntity
  8
MAIN0
  6
CONTINUOUS
 62
3
100
AcDbCircle
 10
1169.085048047215
 20
390.7392587173545
 30
0.0000000000000000
 40
4.250000000000000
  0
LINE
  5
4BC
100
AcDbEntity
  8
MAIN0
  6
CONTINUOUS
 62
3
100
AcDbLine
 10
1169.085048047215
 20
393.0486597941131
 30
0.0000000000000000
 11
1167.085048047215
 21
391.8939592557338
 31
0.0000000000000000
  0
LINE
  5
4BD
100
AcDbEntity
  8
MAIN0
  6
CONTINUOUS
 62
3
100
AcDbLine
 10
1167.085048047215
 20
391.8939592557338
 30
0.0000000000000000
 11
1167.085048047215
 21
389.5845581789753
 31
0.0000000000000000
  0
LINE
  5
4BE
100
AcDbEntity
  8
MAIN0
  6
CONTINUOUS
 62
3
100
AcDbLine
 10
1167.085048047215
 20
389.5845581789753
 30
0.0000000000000000
 11
1169.085048047215
 21
388.4298576405961
 31
0.0000000000000000
  0
LINE
  5
4BF
100
AcDbEntity
  8
MAIN0
  6
CONTINUOUS
 62
3
100
AcDbLine
 10
1169.085048047215
 20
388.4298576405961
 30
0.0000000000000000
 11
1171.085048047215
 21
389.5845581789754
 31
0.0000000000000000
  0
LINE
  5
4C0
100
AcDbEntity
  8
MAIN0
  6
CONTINUOUS
 62
3
100
AcDbLine
 10
1171.085048047215
 20
389.5845581789753
 30
0.0000000000000000
 11
1171.085048047215
 21
391.8939592557338
 31
0.0000000000000000
  0
LINE
  5
4C1
100
AcDbEntity
  8
MAIN0
  6
CONTINUOUS
 62
3
100
AcDbLine
 10
1171.085048047215
 20
391.8939592557338
 30
0.0000000000000000
 11
1169.085048047215
 21
393.0486597941130
 31
0.0000000000000000
  0
CIRCLE
  5
4C2
100
AcDbEntity
  8
MAIN0
  6
CONTINUOUS
 62
3
100
AcDbCircle
 10
1104.085048047215
 20
390.7392587173545
 30
0.0000000000000000
 40
4.250000000000000
  0
LINE
  5
4C3
100
AcDbEntity
  8
MAIN0
  6
CONTINUOUS
 62
3
100
AcDbLine
 10
1104.085048047215
 20
393.0486597941131
 30
0.0000000000000000
 11
1102.085048047215
 21
391.8939592557339
 31
0.0000000000000000
  0
LINE
  5
4C4
100
AcDbEntity
  8
MAIN0
  6
CONTINUOUS
 62
3
100
AcDbLine
 10
1102.085048047215
 20
391.8939592557338
 30
0.0000000000000000
 11
1102.085048047215
 21
389.5845581789753
 31
0.0000000000000000
  0
LINE
  5
4C5
100
AcDbEntity
  8
MAIN0
  6
CONTINUOUS
 62
3
100
AcDbLine
 10
1102.085048047215
 20
389.5845581789754
 30
0.0000000000000000
 11
1104.085048047215
 21
388.4298576405960
 31
0.0000000000000000
  0
LINE
  5
4C6
100
AcDbEntity
  8
MAIN0
  6
CONTINUOUS
 62
3
100
AcDbLine
 10
1104.085048047215
 20
388.4298576405962
 30
0.0000000000000000
 11
1106.085048047215
 21
389.5845581789754
 31
0.0000000000000000
  0
LINE
  5
4C7
100
AcDbEntity
  8
MAIN0
  6
CONTINUOUS
 62
3
100
AcDbLine
 10
1106.085048047215
 20
389.5845581789753
 30
0.0000000000000000
 11
1106.085048047215
 21
391.8939592557338
 31
0.0000000000000000
  0
LINE
  5
4C8
100
AcDbEntity
  8
MAIN0
  6
CONTINUOUS
 62
3
100
AcDbLine
 10
1106.085048047215
 20
391.8939592557337
 30
0.0000000000000000
 11
1104.085048047215
 21
393.0486597941131
 31
0.0000000000000000
  0
LINE
  5
4C9
100
AcDbEntity
  8
MAIN0
  6
CENTER
 62
3
100
AcDbLine
 10
456.5023149380579
 20
725.3816738495074
 30
0.0000000000000000
 11
456.5023149380579
 21
707.3103908307945
 31
0.0000000000000000
  0
LINE
  5
4CA
100
AcDbEntity
  8
MAIN0
  6
CENTER
 62
3
100
AcDbLine
 10
448.2676495523295
 20
716.2743879019945
 30
0.0000000000000000
 11
464.1838579871600
 21
716.2743879019945
 31
0.0000000000000000
  0
LINE
  5
4CB
100
AcDbEntity
  8
MAIN0
  6
CENTER
 62
3
100
AcDbLine
 10
401.5023149380579
 20
725.3816738495073
 30
0.0000000000000000
 11
401.5023149380579
 21
707.3103908307945
 31
0.0000000000000000
  0
LINE
  5
4CC
100
AcDbEntity
  8
MAIN0
  6
CENTER
 62
3
100
AcDbLine
 10
393.2676495523295
 20
716.2743879019945
 30
0.0000000000000000
 11
409.1838579871600
 21
716.2743879019945
 31
0.0000000000000000
  0
CIRCLE
  5
4CD
100
AcDbEntity
  8
MAIN0
  6
CONTINUOUS
 62
3
100
AcDbCircle
 10
401.5023149380579
 20
716.2743879019945
 30
0.0000000000000000
 40
5.000000000000000
  0
CIRCLE
  5
4CE
100
AcDbEntity
  8
MAIN0
  6
CONTINUOUS
 62
3
100
AcDbCircle
 10
401.5023149380579
 20
716.2743879019945
 30
0.0000000000000000
 40
4.188101000000000
  0
LINE
  5
4CF
100
AcDbEntity
  8
MAIN0
  6
CONTINUOUS
 62
3
100
AcDbLine
 10
401.5023149380578
 20
719.1611392479425
 30
0.0000000000000000
 11
399.0023149380578
 21
717.7177635749686
 31
0.0000000000000000
  0
LINE
  5
4D0
100
AcDbEntity
  8
MAIN0
  6
CONTINUOUS
 62
3
100
AcDbLine
 10
399.0023149380579
 20
717.7177635749686
 30
0.0000000000000000
 11
399.0023149380579
 21
714.8310122290204
 31
0.0000000000000000
  0
LINE
  5
4D1
100
AcDbEntity
  8
MAIN0
  6
CONTINUOUS
 62
3
100
AcDbLine
 10
399.0023149380578
 20
714.8310122290203
 30
0.0000000000000000
 11
401.5023149380577
 21
713.3876365560462
 31
0.0000000000000000
  0
LINE
  5
4D2
100
AcDbEntity
  8
MAIN0
  6
CONTINUOUS
 62
3
100
AcDbLine
 10
401.5023149380577
 20
713.3876365560464
 30
0.0000000000000000
 11
404.0023149380578
 21
714.8310122290204
 31
0.0000000000000000
  0
LINE
  5
4D3
100
AcDbEntity
  8
MAIN0
  6
CONTINUOUS
 62
3
100
AcDbLine
 10
404.0023149380579
 20
714.8310122290204
 30
0.0000000000000000
 11
404.0023149380579
 21
717.7177635749686
 31
0.0000000000000000
  0
LINE
  5
4D4
100
AcDbEntity
  8
MAIN0
  6
CONTINUOUS
 62
3
100
AcDbLine
 10
404.0023149380577
 20
717.7177635749684
 30
0.0000000000000000
 11
401.5023149380577
 21
719.1611392479425
 31
0.0000000000000000
  0
LINE
  5
4D5
100
AcDbEntity
  8
MAIN0
  6
CENTER
 62
3
100
AcDbLine
 10
550.5023149380579
 20
740.9430458604888
 30
0.0000000000000000
 11
550.5023149380579
 21
720.8638721540667
 31
0.0000000000000000
  0
LINE
  5
4D6
100
AcDbEntity
  8
MAIN0
  6
CENTER
 62
3
100
AcDbLine
 10
542.2676495523297
 20
731.2743879019945
 30
0.0000000000000000
 11
558.1838579871601
 21
731.2743879019945
 31
0.0000000000000000
  0
LINE
  5
4D7
100
AcDbEntity
  8
MAIN0
  6
CENTER
 62
3
100
AcDbLine
 10
600.5023149380579
 20
740.9430458604888
 30
0.0000000000000000
 11
600.5023149380579
 21
720.8638721540666
 31
0.0000000000000000
  0
LINE
  5
4D8
100
AcDbEntity
  8
MAIN0
  6
CENTER
 62
3
100
AcDbLine
 10
592.2676495523297
 20
731.2743879019945
 30
0.0000000000000000
 11
608.1838579871601
 21
731.2743879019945
 31
0.0000000000000000
  0
CIRCLE
  5
4D9
100
AcDbEntity
  8
MAIN0
  6
CONTINUOUS
 62
3
100
AcDbCircle
 10
600.5023149380579
 20
731.2743879019945
 30
0.0000000000000000
 40
5.000000000000000
  0
CIRCLE
  5
4DA
100
AcDbEntity
  8
MAIN0
  6
CONTINUOUS
 62
3
100
AcDbCircle
 10
600.5023149380579
 20
731.2743879019945
 30
0.0000000000000000
 40
4.188101000000000
  0
LINE
  5
4DB
100
AcDbEntity
  8
MAIN0
  6
CONTINUOUS
 62
3
100
AcDbLine
 10
600.5023149380579
 20
734.1611392479424
 30
0.0000000000000000
 11
598.0023149380579
 21
732.7177635749683
 31
0.0000000000000000
  0
LINE
  5
4DC
100
AcDbEntity
  8
MAIN0
  6
CONTINUOUS
 62
3
100
AcDbLine
 10
598.0023149380579
 20
732.7177635749686
 30
0.0000000000000000
 11
598.0023149380579
 21
729.8310122290204
 31
0.0000000000000000
  0
LINE
  5
4DD
100
AcDbEntity
  8
MAIN0
  6
CONTINUOUS
 62
3
100
AcDbLine
 10
598.0023149380579
 20
729.8310122290203
 30
0.0000000000000000
 11
600.5023149380579
 21
728.3876365560462
 31
0.0000000000000000
  0
LINE
  5
4DE
100
AcDbEntity
  8
MAIN0
  6
CONTINUOUS
 62
3
100
AcDbLine
 10
600.5023149380579
 20
728.3876365560461
 30
0.0000000000000000
 11
603.0023149380579
 21
729.8310122290202
 31
0.0000000000000000
  0
LINE
  5
4DF
100
AcDbEntity
  8
MAIN0
  6
CONTINUOUS
 62
3
100
AcDbLine
 10
603.0023149380579
 20
729.8310122290204
 30
0.0000000000000000
 11
603.0023149380579
 21
732.7177635749686
 31
0.0000000000000000
  0
LINE
  5
4E0
100
AcDbEntity
  8
MAIN0
  6
CONTINUOUS
 62
3
100
AcDbLine
 10
603.0023149380578
 20
732.7177635749684
 30
0.0000000000000000
 11
600.5023149380579
 21
734.1611392479425
 31
0.0000000000000000
  0
CIRCLE
  5
4E1
100
AcDbEntity
  8
MAIN0
  6
CONTINUOUS
 62
3
100
AcDbCircle
 10
1050.585048047181
 20
209.2692920401851
 30
0.0000000000000000
 40
8.000000000000000
  0
CIRCLE
  5
4E2
100
AcDbEntity
  8
MAIN0
  6
CONTINUOUS
 62
3
100
AcDbCircle
 10
1050.585048047181
 20
209.2692920401851
 30
0.0000000000000000
 40
7.000000000000000
  0
LINE
  5
4E3
100
AcDbEntity
  8
WAKU0
  6
CONTINUOUS
 62
3
100
AcDbLine
 10
240.0000000000000
 20
51.00000000000000
 30
0.0000000000000000
 11
410.0000000000000
 21
51.00000000000000
 31
0.0000000000000000
  0
LINE
  5
4E4
100
AcDbEntity
  8
WAKU0
  6
CONTINUOUS
 62
3
100
AcDbLine
 10
240.0000000000000
 20
51.00000000000000
 30
0.0000000000000000
 11
240.0000000000000
 21
12.00000000000000
 31
0.0000000000000000
  0
LINE
  5
4E5
100
AcDbEntity
  8
WAKU0
  6
CONTINUOUS
 62
3
100
AcDbLine
 10
312.0000000000000
 20
51.00000000000000
 30
0.0000000000000000
 11
312.0000000000000
 21
12.00000000000000
 31
0.0000000000000000
  0
LINE
  5
4E6
100
AcDbEntity
  8
WAKU0
  6
CONTINUOUS
 62
3
100
AcDbLine
 10
332.0000000000000
 20
51.00000000000000
 30
0.0000000000000000
 11
332.0000000000000
 21
12.00000000000000
 31
0.0000000000000000
  0
LINE
  5
4E7
100
AcDbEntity
  8
WAKU0
  6
CONTINUOUS
 62
3
100
AcDbLine
 10
344.0000000000000
 20
51.00000000000000
 30
0.0000000000000000
 11
344.0000000000000
 21
12.00000000000000
 31
0.0000000000000000
  0
LINE
  5
4E8
100
AcDbEntity
  8
WAKU0
  6
CONTINUOUS
 62
3
100
AcDbLine
 10
344.0000000000000
 20
37.00000000000000
 30
0.0000000000000000
 11
410.0000000000000
 21
37.00000000000000
 31
0.0000000000000000
  0
LINE
  5
4E9
100
AcDbEntity
  8
WAKU0
  6
CONTINUOUS
 62
3
100
AcDbLine
 10
332.0000000000000
 20
23.00000000000000
 30
0.0000000000000000
 11
410.0000000000000
 21
23.00000000000000
 31
0.0000000000000000
  0
LINE
  5
4EA
100
AcDbEntity
  8
WAKU0
  6
CONTINUOUS
 62
3
100
AcDbLine
 10
375.0000000000000
 20
51.00000000000000
 30
0.0000000000000000
 11
375.0000000000000
 21
44.00000000000000
 31
0.0000000000000000
  0
LINE
  5
4EB
100
AcDbEntity
  8
WAKU0
  6
CONTINUOUS
 62
3
100
AcDbLine
 10
387.0000000000000
 20
51.00000000000000
 30
0.0000000000000000
 11
387.0000000000000
 21
44.00000000000000
 31
0.0000000000000000
  0
LINE
  5
4EC
100
AcDbEntity
  8
WAKU0
  6
CONTINUOUS
 62
3
100
AcDbLine
 10
312.0000000000000
 20
31.50000000000000
 30
0.0000000000000000
 11
332.0000000000000
 21
31.50000000000000
 31
0.0000000000000000
  0
LINE
  5
4ED
100
AcDbEntity
  8
WAKU0
  6
CONTINUOUS
 62
3
100
AcDbLine
 10
332.0000000000000
 20
44.00000000000000
 30
0.0000000000000000
 11
410.0000000000000
 21
44.00000000000000
 31
0.0000000000000000
  0
LINE
  5
4EE
100
AcDbEntity
  8
WAKU0
  6
CONTINUOUS
 62
3
100
AcDbLine
 10
240.0000000000000
 20
37.00000000000000
 30
0.0000000000000000
 11
312.0000000000000
 21
37.00000000000000
 31
0.0000000000000000
  0
LINE
  5
4EF
100
AcDbEntity
  8
WAKU0
  6
CONTINUOUS
 62
3
100
AcDbLine
 10
240.0000000000000
 20
23.00000000000000
 30
0.0000000000000000
 11
312.0000000000000
 21
23.00000000000000
 31
0.0000000000000000
  0
LINE
  5
4F0
100
AcDbEntity
  8
WAKU0
  6
CONTINUOUS
 62
3
100
AcDbLine
 10
288.0000000000000
 20
37.00000000000000
 30
0.0000000000000000
 11
288.0000000000000
 21
12.00000000000000
 31
0.0000000000000000
  0
LINE
  5
4F1
100
AcDbEntity
  8
WAKU0
  6
CONTINUOUS
 62
3
100
AcDbLine
 10
264.0000000000000
 20
37.00000000000000
 30
0.0000000000000000
 11
264.0000000000000
 21
23.00000000000000
 31
0.0000000000000000
  0
LINE
  5
4F2
100
AcDbEntity
  8
WAKU0
  6
CONTINUOUS
 62
3
100
AcDbLine
 10
300.0000000000000
 20
26.00000000000000
 30
0.0000000000000000
 11
300.0000000000000
 21
23.00000000000000
 31
0.0000000000000000
  0
LINE
  5
4F3
100
AcDbEntity
  8
WAKU0
  6
CONTINUOUS
 62
3
100
AcDbLine
 10
276.0000000000000
 20
26.00000000000000
 30
0.0000000000000000
 11
276.0000000000000
 21
23.00000000000000
 31
0.0000000000000000
  0
LINE
  5
4F4
100
AcDbEntity
  8
WAKU0
  6
CONTINUOUS
 62
3
100
AcDbLine
 10
252.0000000000000
 20
26.00000000000000
 30
0.0000000000000000
 11
252.0000000000000
 21
23.00000000000000
 31
0.0000000000000000
  0
LINE
  5
4F5
100
AcDbEntity
  8
WAKU0
  6
CONTINUOUS
 62
3
100
AcDbLine
 10
258.0000000000000
 20
51.00000000000000
 30
0.0000000000000000
 11
258.0000000000000
 21
37.00000000000000
 31
0.0000000000000000
  0
LINE
  5
4F6
100
AcDbEntity
  8
WAKU0
  6
CONTINUOUS
 62
3
100
AcDbLine
 10
240.0000000000000
 20
45.00000000000000
 30
0.0000000000000000
 11
312.0000000000000
 21
45.00000000000000
 31
0.0000000000000000
  0
LINE
  5
4F7
100
AcDbEntity
  8
WAKU0
  6
HIDDEN
 62
3
100
AcDbLine
 10
360.5000000000000
 20
23.00000000000000
 30
0.0000000000000000
 11
360.5000000000000
 21
12.00000000000000
 31
0.0000000000000000
  0
LINE
  5
4F8
100
AcDbEntity
  8
WAKU0
  6
HIDDEN
 62
3
100
AcDbLine
 10
372.9000000000000
 20
23.00000000000000
 30
0.0000000000000000
 11
372.9000000000000
 21
12.00000000000000
 31
0.0000000000000000
  0
MTEXT
  5
4F9
100
AcDbEntity
  8
WAKU0
  6
CONTINUOUS
 62
3
100
AcDbMText
 10
344.4820000243485
 20
49.04999995231628
 30
0.0000000000000000
 40
3.099999904632568
 41
0.0000000000000000
 71
     1
 72
     1
  1
{\H0.93x;{VQX125N-15}}
 11
1.000000000000000
 21
0.0000000000000000
 31
0.0000000000000000
  7
STANDARD
  0
MTEXT
  5
4FA
100
AcDbEntity
  8
WAKU0
  6
CONTINUOUS
 62
3
100
AcDbMText
 10
360.3350002765656
 20
43.50000000000000
 30
0.0000000000000000
 40
3.000000000000000
 41
0.0000000000000000
 71
     1
 72
     1
  1
{\H0.94x;{パワーバイス\PＰＯＷＥＲ　ＶＩＳＥ}}
 11
1.000000000000000
 21
0.0000000000000000
 31
0.0000000000000000
  7
KNJYOKO
  0
MTEXT
  5
4FB
100
AcDbEntity
  8
WAKU0
  6
CONTINUOUS
 62
3
100
AcDbMText
 10
344.7999988347292
 20
34.83333333333333
 30
0.0000000000000000
 40
4.000000000000000
 41
0.0000000000000000
 71
     1
 72
     1
  1
{\H0.59x;{ＶＱＸ１２５Ｎ－１５　ガイケイ\PＶＱＸ１２５Ｎ－１５　ＯＵＴＳＩＤＥ　ＶＩＥＷ}}
 11
1.000000000000000
 21
0.0000000000000000
 31
0.0000000000000000
  7
KNJYOKO
  0
MTEXT
  5
4FC
100
AcDbEntity
  8
WAKU0
  6
CONTINUOUS
 62
3
100
AcDbMText
 10
318.0049998760223
 20
39.29999995231628
 30
0.0000000000000000
 40
3.099999904632568
 41
0.0000000000000000
 71
     1
 72
     1
  1
{\H0.90x;{1:3}}
 11
1.000000000000000
 21
0.0000000000000000
 31
0.0000000000000000
  7
STANDARD
  0
MTEXT
  5
4FD
100
AcDbEntity
  8
WAKU0
  6
CONTINUOUS
 62
3
100
AcDbMText
 10
374.4000001549721
 20
20.15000009536743
 30
0.0000000000000000
 40
5.300000190734863
 41
0.0000000000000000
 71
     1
 72
     1
  1
{\H0.90x;{6966}}
 11
1.000000000000000
 21
0.0000000000000000
 31
0.0000000000000000
  7
STANDARD
  0
MTEXT
  5
4FE
100
AcDbEntity
  8
WAKU0
  6
CONTINUOUS
 62
3
100
AcDbMText
 10
362.3000000834465
 20
20.15000009536743
 30
0.0000000000000000
 40
5.300000190734863
 41
0.0000000000000000
 71
     1
 72
     1
  1
{\H0.87x;{39}}
 11
1.000000000000000
 21
0.0000000000000000
 31
0.0000000000000000
  7
STANDARD
  0
MTEXT
  5
4FF
100
AcDbEntity
  8
WAKU0
  6
CONTINUOUS
 62
3
100
AcDbMText
 10
345.5000001192093
 20
20.15000009536743
 30
0.0000000000000000
 40
5.300000190734863
 41
0.0000000000000000
 71
     1
 72
     1
  1
{\H0.89x;{61M}}
 11
1.000000000000000
 21
0.0000000000000000
 31
0.0000000000000000
  7
STANDARD
  0
MTEXT
  5
500
100
AcDbEntity
  8
WAKU0
  6
CONTINUOUS
 62
3
100
AcDbMText
 10
400.0000000476837
 20
20.15000009536743
 30
0.0000000000000000
 40
5.300000190734863
 41
0.0000000000000000
 71
     1
 72
     1
  1
{\H0.81x;{0}}
 11
1.000000000000000
 21
0.0000000000000000
 31
0.0000000000000000
  7
STANDARD
  0
MTEXT
  5
501
100
AcDbEntity
  8
WAKU0
  6
CONTINUOUS
 62
3
100
AcDbMText
 10
400.0000000819564
 20
44.84999990463257
 30
0.0000000000000000
 40
5.300000190734863
 41
0.0000000000000000
 71
     7
 72
     1
  1
{\H0.81x;{ }}
 11
1.000000000000000
 21
0.0000000000000000
 31
0.0000000000000000
  7
STANDARD
  0
MTEXT
  5
502
100
AcDbEntity
  8
WAKU0
  6
CONTINUOUS
 62
3
100
AcDbMText
 10
289.3850002884865
 20
33.00000000000000
 30
0.0000000000000000
 40
3.000000000000000
 41
0.0000000000000000
 71
     7
 72
     1
  1
{\H0.93x;{DRAWN BY}}
 11
1.000000000000000
 21
0.0000000000000000
 31
0.0000000000000000
  7
STANDARD
  0
MTEXT
  5
503
100
AcDbEntity
  8
WAKU0
  6
CONTINUOUS
 62
3
100
AcDbMText
 10
269.2149997949600
 20
32.95000004768372
 30
0.0000000000000000
 40
3.099999904632568
 41
0.0000000000000000
 71
     7
 72
     1
  1
{\H0.92x;{CHIEF}}
 11
1.000000000000000
 21
0.0000000000000000
 31
0.0000000000000000
  7
STANDARD
  0
MTEXT
  5
504
100
AcDbEntity
  8
WAKU0
  6
CONTINUOUS
 62
3
100
AcDbMText
 10
242.4249997138977
 20
32.95000004768372
 30
0.0000000000000000
 40
3.099999904632568
 41
0.0000000000000000
 71
     7
 72
     1
  1
{\H0.92x;{MANAGER}}
 11
1.000000000000000
 21
0.0000000000000000
 31
0.0000000000000000
  7
STANDARD
  0
MTEXT
  5
505
100
AcDbEntity
  8
WAKU0
  6
CONTINUOUS
 62
3
100
AcDbMText
 10
244.6599994301796
 20
18.13333336512248
 30
0.0000000000000000
 40
3.099999904632568
 41
0.0000000000000000
 71
     7
 72
     1
  1
{\H0.93x;{KITAGAWA IRON\PWORKS CO.,LTD.}}
 11
1.000000000000000
 21
0.0000000000000000
 31
0.0000000000000000
  7
STANDARD
  0
MTEXT
  5
506
100
AcDbEntity
  8
WAKU0
  6
CONTINUOUS
 62
3
100
AcDbMText
 10
241.0850002169609
 20
46.50000000000000
 30
0.0000000000000000
 40
3.000000000000000
 41
0.0000000000000000
 71
     7
 72
     1
  1
{\H0.92x;{CAREER}}
 11
1.000000000000000
 21
0.0000000000000000
 31
0.0000000000000000
  7
STANDARD
  0
MTEXT
  5
507
100
AcDbEntity
  8
WAKU0
  6
CONTINUOUS
 62
3
100
AcDbMText
 10
294.6099998354912
 20
18.95000004768372
 30
0.0000000000000000
 40
3.099999904632568
 41
0.0000000000000000
 71
     7
 72
     1
  1
{\H0.91x;{DATE}}
 11
1.000000000000000
 21
0.0000000000000000
 31
0.0000000000000000
  7
STANDARD
  0
MTEXT
  5
508
100
AcDbEntity
  8
WAKU0
  6
CONTINUOUS
 62
3
100
AcDbMText
 10
313.9000002145767
 20
26.50000000000000
 30
0.0000000000000000
 40
3.000000000000000
 41
0.0000000000000000
 71
     7
 72
     1
  1
{\H0.63x;{3RD ANGLE}}
 11
1.000000000000000
 21
0.0000000000000000
 31
0.0000000000000000
  7
STANDARD
  0
MTEXT
  5
509
100
AcDbEntity
  8
WAKU0
  6
CONTINUOUS
 62
3
100
AcDbMText
 10
315.2149997949600
 20
45.95000004768372
 30
0.0000000000000000
 40
3.099999904632568
 41
0.0000000000000000
 71
     7
 72
     1
  1
{\H0.92x;{SCALE}}
 11
1.000000000000000
 21
0.0000000000000000
 31
0.0000000000000000
  7
STANDARD
  0
MTEXT
  5
50A
100
AcDbEntity
  8
WAKU0
  6
CONTINUOUS
 62
3
100
AcDbMText
 10
405.7000000476837
 20
46.00000000000000
 30
0.0000000000000000
 40
3.000000000000000
 41
0.0000000000000000
 71
     7
 72
     1
  1
{\H0.63x;{kg}}
 11
1.000000000000000
 21
0.0000000000000000
 31
0.0000000000000000
  7
STANDARD
  0
MTEXT
  5
50B
100
AcDbEntity
  8
WAKU0
  6
CONTINUOUS
 62
3
100
AcDbMText
 10
375.6000001430512
 20
46.00000000000000
 30
0.0000000000000000
 40
3.000000000000000
 41
0.0000000000000000
 71
     7
 72
     1
  1
{\H0.63x;{WEIGHT}}
 11
1.000000000000000
 21
0.0000000000000000
 31
0.0000000000000000
  7
STANDARD
  0
MTEXT
  5
50C
100
AcDbEntity
  8
WAKU0
  6
CONTINUOUS
 62
3
100
AcDbMText
 10
334.0049998760223
 20
18.13333336512248
 30
0.0000000000000000
 40
3.099999904632568
 41
0.0000000000000000
 71
     7
 72
     1
  1
{\H0.90x;{DRW\PNO.}}
 11
1.000000000000000
 21
0.0000000000000000
 31
0.0000000000000000
  7
STANDARD
  0
MTEXT
  5
50D
100
AcDbEntity
  8
WAKU0
  6
CONTINUOUS
 62
3
100
AcDbMText
 10
332.6099998354912
 20
31.95000004768372
 30
0.0000000000000000
 40
3.099999904632568
 41
0.0000000000000000
 71
     7
 72
     1
  1
{\H0.91x;{NAME}}
 11
1.000000000000000
 21
0.0000000000000000
 31
0.0000000000000000
  7
STANDARD
  0
MTEXT
  5
50E
100
AcDbEntity
  8
WAKU0
  6
CONTINUOUS
 62
3
100
AcDbMText
 10
332.6099998354912
 20
45.95000004768372
 30
0.0000000000000000
 40
3.099999904632568
 41
0.0000000000000000
 71
     7
 72
     1
  1
{\H0.91x;{TYPE}}
 11
1.000000000000000
 21
0.0000000000000000
 31
0.0000000000000000
  7
STANDARD
  0
LINE
  5
50F
100
AcDbEntity
  8
WAKU0
  6
HIDDEN
 62
3
100
AcDbLine
 10
407.1599564743885
 20
13.84999990463257
 30
0.0000000000000000
 11
396.9400436209789
 21
13.84999990463257
 31
0.0000000000000000
  0
LINE
  5
510
100
AcDbEntity
  8
WAKU0
  6
HIDDEN
 62
3
100
AcDbLine
 10
407.1599564743885
 20
13.84999990463250
 30
0.0000000000000000
 11
402.0500000476852
 21
22.70070406014901
 31
0.0000000000000000
  0
LINE
  5
511
100
AcDbEntity
  8
WAKU0
  6
HIDDEN
 62
3
100
AcDbLine
 10
402.0500000476852
 20
22.70070406014902
 30
0.0000000000000000
 11
396.9400436209789
 21
13.84999990463248
 31
0.0000000000000000
  0
LINE
  5
512
100
AcDbEntity
  8
WAKU0
  6
CONTINUOUS
 62
3
100
AcDbLine
 10
330.4713877753800
 20
15.78041421262812
 30
0.0000000000000000
 11
330.4713877753800
 21
21.78041421262815
 31
0.0000000000000000
  0
LINE
  5
513
100
AcDbEntity
  8
WAKU0
  6
CONTINUOUS
 62
3
100
AcDbLine
 10
323.9336941228225
 20
17.28041421262811
 30
0.0000000000000000
 11
323.9336941228225
 21
20.28041421262824
 31
0.0000000000000000
  0
LINE
  5
514
100
AcDbEntity
  8
WAKU0
  6
CENTER
 62
12
100
AcDbLine
 10
313.4321805514995
 20
18.78041421262813
 30
0.0000000000000000
 11
331.2765788964694
 21
18.78041421262813
 31
0.0000000000000000
  0
LINE
  5
515
100
AcDbEntity
  8
WAKU0
  6
CENTER
 62
12
100
AcDbLine
 10
317.4474565857986
 20
14.55921662918448
 30
0.0000000000000000
 11
317.4474565857986
 21
22.89865102149943
 31
0.0000000000000000
  0
LINE
  5
516
100
AcDbEntity
  8
WAKU0
  6
CONTINUOUS
 62
3
100
AcDbLine
 10
323.9336941228225
 20
20.28041421262797
 30
0.0000000000000000
 11
330.4713877753800
 21
21.78041421262795
 31
0.0000000000000000
  0
LINE
  5
517
100
AcDbEntity
  8
WAKU0
  6
CONTINUOUS
 62
3
100
AcDbLine
 10
323.9336941228225
 20
17.28041421262811
 30
0.0000000000000000
 11
330.4713877753799
 21
15.78041421262812
 31
0.0000000000000000
  0
CIRCLE
  5
518
100
AcDbEntity
  8
WAKU0
  6
CONTINUOUS
 62
3
100
AcDbCircle
 10
317.4474565857986
 20
18.78041421262813
 30
0.0000000000000000
 40
1.499999999999972
  0
CIRCLE
  5
519
100
AcDbEntity
  8
WAKU0
  6
CONTINUOUS
 62
3
100
AcDbCircle
 10
317.4474565857986
 20
18.78041421262813
 30
0.0000000000000000
 40
2.999999999999979
  0
LINE
  5
51A
100
AcDbEntity
  8
A0
  6
CONTINUOUS
 62
3
100
AcDbLine
 10
152.9751153758756
 20
138.0077828946514
 30
0.0000000000000000
 11
152.9751153758756
 21
23.50778515962335
 31
0.0000000000000000
  0
LINE
  5
51B
100
AcDbEntity
  8
A0
  6
CONTINUOUS
 62
3
100
AcDbLine
 10
19.97511585266564
 20
125.2577831333848
 30
0.0000000000000000
 11
152.9751153758757
 21
125.2577831334439
 31
0.0000000000000000
  0
LINE
  5
51C
100
AcDbEntity
  8
A0
  6
CONTINUOUS
 62
3
100
AcDbLine
 10
19.97511585266459
 20
138.0077828945335
 30
0.0000000000000000
 11
152.9751153758757
 21
138.0077828946515
 31
0.0000000000000000
  0
MTEXT
  5
51D
100
AcDbEntity
  8
A0
  6
CONTINUOUS
 62
3
100
AcDbMText
 10
36.85011466059623
 20
135.5077828949960
 30
0.0000000000000000
 40
7.749999761581421
 41
0.0000000000000000
 71
     1
 72
     1
  1
{\H0.71x;{仕様　　SPECIFICATIONS}}
 11
1.000000000000000
 21
0.0000000000000000
 31
0.0000000000000000
  7
KNJYOKO
  0
MTEXT
  5
51E
100
AcDbEntity
  8
A0
  6
CONTINUOUS
 62
3
100
AcDbMText
 10
108.9751144221703
 20
118.8827832523319
 30
0.0000000000000000
 40
7.749999761581421
 41
0.0000000000000000
 71
     1
 72
     1
  1
{\H0.70x;{０～２０５mm}}
 11
1.000000000000000
 21
0.0000000000000000
 31
0.0000000000000000
  7
KNJYOKO
  0
MTEXT
  5
51F
100
AcDbEntity
  8
A0
  6
CONTINUOUS
 62
3
100
AcDbMText
 10
21.22511585268174
 20
113.7577833715412
 30
0.0000000000000000
 40
7.749999761581421
 41
0.0000000000000000
 71
     1
 72
     1
  1
{\H0.71x;{CLAMPING RANGE}}
 11
1.000000000000000
 21
0.0000000000000000
 31
0.0000000000000000
  7
STANDARD
  0
LINE
  5
520
100
AcDbEntity
  8
A0
  6
CONTINUOUS
 62
3
100
AcDbLine
 10
19.97511585266708
 20
104.7577836097891
 30
0.0000000000000000
 11
152.9751153758756
 21
104.7577836099070
 31
0.0000000000000000
  0
LINE
  5
521
100
AcDbEntity
  8
A0
  6
CONTINUOUS
 62
3
100
AcDbLine
 10
107.7251144221680
 20
125.2577831334217
 30
0.0000000000000000
 11
107.7251144221680
 21
104.7577836098625
 31
0.0000000000000000
  0
MTEXT
  5
522
100
AcDbEntity
  8
A0
  6
CONTINUOUS
 62
3
100
AcDbMText
 10
21.22511585268174
 20
93.25778384837835
 30
0.0000000000000000
 40
7.749999761581421
 41
0.0000000000000000
 71
     1
 72
     1
  1
{\H0.71x;{TIGHTENING TORQUE}}
 11
1.000000000000000
 21
0.0000000000000000
 31
0.0000000000000000
  7
STANDARD
  0
LINE
  5
523
100
AcDbEntity
  8
A0
  6
CONTINUOUS
 62
3
100
AcDbLine
 10
152.9751153758756
 20
84.25778408711821
 30
0.0000000000000000
 11
19.97511585266874
 21
84.25778408705909
 31
0.0000000000000000
  0
LINE
  5
524
100
AcDbEntity
  8
A0
  6
CONTINUOUS
 62
3
100
AcDbLine
 10
107.7251144221680
 20
84.25778408709604
 30
0.0000000000000000
 11
107.7251144221680
 21
23.50778515958334
 31
0.0000000000000000
  0
LINE
  5
525
100
AcDbEntity
  8
A0
  6
CONTINUOUS
 62
3
100
AcDbLine
 10
107.7251144221679
 20
63.75778456393335
 30
0.0000000000000000
 11
152.9751153758756
 21
63.75778456395336
 31
0.0000000000000000
  0
MTEXT
  5
526
100
AcDbEntity
  8
A0
  6
CONTINUOUS
 62
3
100
AcDbMText
 10
113.9751148990074
 20
62.50778456325585
 30
0.0000000000000000
 40
7.749999761581421
 41
0.0000000000000000
 71
     1
 72
     1
  1
{\H0.67x;{2}}
 11
1.000000000000000
 21
0.0000000000000000
 31
0.0000000000000000
  7
STANDARD
  0
LINE
  5
527
100
AcDbEntity
  8
A0
  6
CONTINUOUS
 62
3
100
AcDbLine
 10
152.9751153758756
 20
43.25778480237395
 30
0.0000000000000000
 11
19.97511585267116
 21
43.25778480231483
 31
0.0000000000000000
  0
MTEXT
  5
528
100
AcDbEntity
  8
A0
  6
CONTINUOUS
 62
3
100
AcDbMText
 10
113.9751148990074
 20
52.25778456363409
 30
0.0000000000000000
 40
7.749999761581421
 41
0.0000000000000000
 71
     1
 72
     1
  1
{\H0.67x;{3}}
 11
1.000000000000000
 21
0.0000000000000000
 31
0.0000000000000000
  7
STANDARD
  0
LINE
  5
529
100
AcDbEntity
  8
A0
  6
CONTINUOUS
 62
3
100
AcDbLine
 10
107.7251144221679
 20
74.00778432511842
 30
0.0000000000000000
 11
152.9751153758756
 21
74.00778432515855
 31
0.0000000000000000
  0
LINE
  5
52A
100
AcDbEntity
  8
A0
  6
CONTINUOUS
 62
3
100
AcDbLine
 10
124.8739092920495
 20
84.25778408710366
 30
0.0000000000000000
 11
124.8739092920495
 21
43.25778480236167
 31
0.0000000000000000
  0
MTEXT
  5
52B
100
AcDbEntity
  8
A0
  6
CONTINUOUS
 62
3
100
AcDbMText
 10
128.6961685441701
 20
72.75778432483637
 30
0.0000000000000000
 40
7.749999761581421
 41
0.0000000000000000
 71
     1
 72
     1
  1
{\H0.70x;{16KN}}
 11
1.000000000000000
 21
0.0000000000000000
 31
0.0000000000000000
  7
STANDARD
  0
MTEXT
  5
52C
100
AcDbEntity
  8
A0
  6
CONTINUOUS
 62
3
100
AcDbMText
 10
128.6961685441701
 20
62.50778456325494
 30
0.0000000000000000
 40
7.749999761581421
 41
0.0000000000000000
 71
     1
 72
     1
  1
{\H0.70x;{28KN}}
 11
1.000000000000000
 21
0.0000000000000000
 31
0.0000000000000000
  7
STANDARD
  0
MTEXT
  5
52D
100
AcDbEntity
  8
A0
  6
CONTINUOUS
 62
3
100
AcDbMText
 10
128.6961685441701
 20
52.25778456363318
 30
0.0000000000000000
 40
7.749999761581421
 41
0.0000000000000000
 71
     1
 72
     1
  1
{\H0.70x;{40KN}}
 11
1.000000000000000
 21
0.0000000000000000
 31
0.0000000000000000
  7
STANDARD
  0
MTEXT
  5
52E
100
AcDbEntity
  8
A0
  6
CONTINUOUS
 62
3
100
AcDbMText
 10
113.9751148990074
 20
72.75778432483727
 30
0.0000000000000000
 40
7.749999761581421
 41
0.0000000000000000
 71
     1
 72
     1
  1
{\H0.67x;{1}}
 11
1.000000000000000
 21
0.0000000000000000
 31
0.0000000000000000
  7
STANDARD
  0
MTEXT
  5
52F
100
AcDbEntity
  8
A0
  6
CONTINUOUS
 62
3
100
AcDbMText
 10
119.3539280693417
 20
36.88278492125173
 30
0.0000000000000000
 40
7.749999761581421
 41
0.0000000000000000
 71
     1
 72
     1
  1
{\H0.70x;{35kg}}
 11
1.000000000000000
 21
0.0000000000000000
 31
0.0000000000000000
  7
STANDARD
  0
MTEXT
  5
530
100
AcDbEntity
  8
A0
  6
CONTINUOUS
 62
3
100
AcDbMText
 10
21.22511585268174
 20
31.75778504047125
 30
0.0000000000000000
 40
6.999999880790710
 41
0.0000000000000000
 71
     1
 72
     1
  1
{\H0.67x;{MASS OF POWER VISE}}
 11
1.000000000000000
 21
0.0000000000000000
 31
0.0000000000000000
  7
STANDARD
  0
MTEXT
  5
531
100
AcDbEntity
  8
A0
  6
CONTINUOUS
 62
3
100
AcDbMText
 10
21.22511585268174
 20
42.00778480205267
 30
0.0000000000000000
 40
7.749999761581421
 41
0.0000000000000000
 71
     1
 72
     1
  1
{\H0.70x;{製品質量}}
 11
1.000000000000000
 21
0.0000000000000000
 31
0.0000000000000000
  7
KNJYOKO
  0
MTEXT
  5
532
100
AcDbEntity
  8
A0
  6
CONTINUOUS
 62
3
100
AcDbMText
 10
21.22511585268174
 20
72.75778432521551
 30
0.0000000000000000
 40
7.749999761581421
 41
0.0000000000000000
 71
     1
 72
     1
  1
{\H0.71x;{CLAMP RANGE}}
 11
1.000000000000000
 21
0.0000000000000000
 31
0.0000000000000000
  7
STANDARD
  0
MTEXT
  5
533
100
AcDbEntity
  8
A0
  6
CONTINUOUS
 62
3
100
AcDbMText
 10
21.22511585268174
 20
83.00778408679693
 30
0.0000000000000000
 40
7.749999761581421
 41
0.0000000000000000
 71
     1
 72
     1
  1
{\H0.70x;{締付けレンジ}}
 11
1.000000000000000
 21
0.0000000000000000
 31
0.0000000000000000
  7
KNJYOKO
  0
LINE
  5
534
100
AcDbEntity
  8
A0
  6
CONTINUOUS
 62
3
100
AcDbLine
 10
19.97511585266461
 20
138.0077828945331
 30
0.0000000000000000
 11
19.97511585267278
 21
23.50778515950972
 31
0.0000000000000000
  0
LINE
  5
535
100
AcDbEntity
  8
A0
  6
CONTINUOUS
 62
3
100
AcDbLine
 10
152.9751153758756
 20
23.50778515962801
 30
0.0000000000000000
 11
19.97511585267272
 21
23.50778515951006
 31
0.0000000000000000
  0
MTEXT
  5
536
100
AcDbEntity
  8
A0
  6
CONTINUOUS
 62
3
100
AcDbMText
 10
21.22511585268174
 20
103.5077836099598
 30
0.0000000000000000
 40
7.749999761581421
 41
0.0000000000000000
 71
     1
 72
     1
  1
{\H0.70x;{締付トルク}}
 11
1.000000000000000
 21
0.0000000000000000
 31
0.0000000000000000
  7
KNJYOKO
  0
MTEXT
  5
537
100
AcDbEntity
  8
A0
  6
CONTINUOUS
 62
3
100
AcDbMText
 10
21.22511585268174
 20
124.0077831331226
 30
0.0000000000000000
 40
7.749999761581421
 41
0.0000000000000000
 71
     1
 72
     1
  1
{\H0.70x;{口金の開き}}
 11
1.000000000000000
 21
0.0000000000000000
 31
0.0000000000000000
  7
KNJYOKO
  0
LINE
  5
538
100
AcDbEntity
  8
A0
  6
CONTINUOUS
 62
3
100
AcDbLine
 10
107.7251144221680
 20
53.50778456393335
 30
0.0000000000000000
 11
152.9751153758756
 21
53.50778456395336
 31
0.0000000000000000
  0
MTEXT
  5
539
100
AcDbEntity
  8
A0
  6
CONTINUOUS
 62
3
100
AcDbMText
 10
128.6961685441701
 20
83.00778408679602
 30
0.0000000000000000
 40
7.749999761581421
 41
0.0000000000000000
 71
     1
 72
     1
  1
{\H0.70x;{ 8KN}}
 11
1.000000000000000
 21
0.0000000000000000
 31
0.0000000000000000
  7
STANDARD
  0
MTEXT
  5
53A
100
AcDbEntity
  8
A0
  6
CONTINUOUS
 62
3
100
AcDbMText
 10
113.9751148990074
 20
83.00778408679693
 30
0.0000000000000000
 40
7.749999761581421
 41
0.0000000000000000
 71
     1
 72
     1
  1
{\H0.67x;{0}}
 11
1.000000000000000
 21
0.0000000000000000
 31
0.0000000000000000
  7
STANDARD
  0
ENDSEC
  0
SECTION
  2
OBJECTS
  0
DICTIONARY
  5
598
100
AcDbDictionary
  3
ACAD_GROUP
350
599
  3
ACAD_MLINESTYLE
350
59A
  0
DICTIONARY
  5
599
102
{ACAD_REACTORS
330
598
102
}
100
AcDbDictionary
  0
DICTIONARY
  5
59A
102
{ACAD_REACTORS
330
598
102
}
100
AcDbDictionary
  3
STANDARD
350
59B
  0
MLINESTYLE
  5
59B
102
{ACAD_REACTORS
330
59A
102
}
100
AcDbMlineStyle
  2
STANDARD
 70
     0
  3

 62
   256
 51
90.00
 52
90.00
 71
     2
 49
0.50
 62
   256
  6
BYLAYER
 49
-0.50
 62
   256
  6
BYLAYER
  0
ENDSEC
  0
EOF
