  0
SECTION
  2
HEADER
  9
$ACADVER
  1
AC1027
  9
$DWGCODEPAGE
  3
ANSI_932
  9
$LTSCALE
 40
20.0
  9
$FILLMODE
 70
     1
  9
$CLAYER
  8
0
  9
$PDMODE
 70
     0
  9
$SPLFRAME
 70
     0
  9
$SPLINETYPE
 70
     6
  9
$SPLINESEGS
 70
     8
  9
$DIMASZ
 40
2.000000
  9
$DIMEXE
 40
2.000000
  9
$DIMEXO
 40
0.800000
  9
$DIMTAD
 70
     1
  9
$DIMTIH
 70
     0
  9
$DIMTOH
 70
     0
  9
$DIMTVP
 40
0.500000
  9
$DIMTXT
 40
3.100000
  9
$EXTMIN
 10
0.000000
 20
0.000000
 30
0.000000
  9
$EXTMAX
 10
210.000000
 20
297.000000
 30
0.000000
  9
$MEASUREMENT
 70
  1
  9
$LIMMIN
 10
0.000000
 20
0.000000
  9
$LIMMAX
 10
210.000000
 20
297.000000
  9
$HANDSEED
  5
19E
  9
$LWDISPLAY
290
     0
  9
$DIMBLK
  1
_OPEN
  9
$DIMDEC
 70
     3
  9
$DIMADEC
 70
     4
  9
$DIMAUNIT
 70
     1
  9
$DIMZIN
 70
     8
  9
$DIMAZIN
 70
     2
  9
$DIMTOFL
 70
     1
  0
ENDSEC
  0
SECTION
  2
CLASSES
  0
ENDSEC
  0
SECTION
  2
TABLES
  0
TABLE
  2
VPORT
  5
15D
100
AcDbSymbolTable
 70
     1
  0
VPORT
  5
15E
100
AcDbSymbolTableRecord
100
AcDbViewportTableRecord
  2
*ACTIVE
 70
     0
 12
105.000000
 22
144.663539
 40
304.672923
 41
0.689264
  0
ENDTAB
  0
TABLE
  2
LTYPE
  5
15F
100
AcDbSymbolTable
 70
     3
  0
LTYPE
  5
160
100
AcDbSymbolTableRecord
100
AcDbLinetypeTableRecord
  2
BYBLOCK
 70
     0
  3

 72
    65
 73
     0
 40
0.0
  0
LTYPE
  5
161
100
AcDbSymbolTableRecord
100
AcDbLinetypeTableRecord
  2
BYLAYER
 70
     0
  3

 72
    65
 73
     0
 40
0.0
  0
LTYPE
  5
162
100
AcDbSymbolTableRecord
100
AcDbLinetypeTableRecord
  2
CONTINUOUS
 70
     0
  3
Solid line (NEC CAE2D for Win R14.2 : 2022.07.22)
 72
    65
 73
     0
 40
0.0
  0
LTYPE
  5
163
100
AcDbSymbolTableRecord
100
AcDbLinetypeTableRecord
  2
HIDDEN
 70
     0
  3
__ __ __ __ __ __ __ __ __ __ __ __ __ __
 72
    65
 73
     2
 40
0.375
 49
0.25
 74
     0
 49
-0.125
 74
     0
  0
LTYPE
  5
164
100
AcDbSymbolTableRecord
100
AcDbLinetypeTableRecord
  2
CENTER
 70
     0
  3
____ _ ____ _ ____ _ ____ _ ____ _ ____
 72
    65
 73
     4
 40
2.0
 49
1.25
 74
     0
 49
-0.25
 74
     0
 49
0.25
 74
     0
 49
-0.25
 74
     0
  0
ENDTAB
  0
TABLE
  2
LAYER
  5
165
100
AcDbSymbolTable
 70
    14
  0
LAYER
  5
166
100
AcDbSymbolTableRecord
100
AcDbLayerTableRecord
  2
0
 70
     0
 62
     7
  6
CONTINUOUS
370
    -3
390

  0
LAYER
  5
167
100
AcDbSymbolTableRecord
100
AcDbLayerTableRecord
  2
MAIN0
 70
     0
 62
     7
  6
CONTINUOUS
370
    -3
390

  0
LAYER
  5
168
100
AcDbSymbolTableRecord
100
AcDbLayerTableRecord
  2
MAIN1
 70
     0
 62
     7
  6
CONTINUOUS
370
    -3
390

  0
LAYER
  5
169
100
AcDbSymbolTableRecord
100
AcDbLayerTableRecord
  2
MAIN2
 70
     0
 62
     7
  6
CONTINUOUS
370
    -3
390

  0
LAYER
  5
16A
100
AcDbSymbolTableRecord
100
AcDbLayerTableRecord
  2
MAIN3
 70
     0
 62
     7
  6
CONTINUOUS
370
    -3
390

  0
LAYER
  5
16B
100
AcDbSymbolTableRecord
100
AcDbLayerTableRecord
  2
MAIN4
 70
     0
 62
     7
  6
CONTINUOUS
370
    -3
390

  0
LAYER
  5
16C
100
AcDbSymbolTableRecord
100
AcDbLayerTableRecord
  2
MAIN5
 70
     0
 62
     7
  6
CONTINUOUS
370
    -3
390

  0
LAYER
  5
16D
100
AcDbSymbolTableRecord
100
AcDbLayerTableRecord
  2
MAIN6
 70
     0
 62
     7
  6
CONTINUOUS
370
    -3
390

  0
LAYER
  5
16E
100
AcDbSymbolTableRecord
100
AcDbLayerTableRecord
  2
MAIN7
 70
     0
 62
     7
  6
CONTINUOUS
370
    -3
390

  0
LAYER
  5
16F
100
AcDbSymbolTableRecord
100
AcDbLayerTableRecord
  2
MAIN8
 70
     0
 62
     7
  6
CONTINUOUS
370
    -3
390

  0
LAYER
  5
170
100
AcDbSymbolTableRecord
100
AcDbLayerTableRecord
  2
MAIN10
 70
     0
 62
     7
  6
CONTINUOUS
370
    -3
390

  0
LAYER
  5
171
100
AcDbSymbolTableRecord
100
AcDbLayerTableRecord
  2
MAIN1023
 70
     0
 62
    16
  6
CONTINUOUS
370
    -3
390

  0
LAYER
  5
172
100
AcDbSymbolTableRecord
100
AcDbLayerTableRecord
  2
WAKU0
 70
     0
 62
     7
  6
CONTINUOUS
370
    -3
390

  0
LAYER
  5
173
100
AcDbSymbolTableRecord
100
AcDbLayerTableRecord
  2
WAKU1023
 70
     0
 62
    16
  6
CONTINUOUS
370
    -3
390

  0
ENDTAB
  0
TABLE
  2
STYLE
  5
174
100
AcDbSymbolTable
 70
     4
  0
STYLE
  5
175
100
AcDbSymbolTableRecord
100
AcDbTextStyleTableRecord
  2
STANDARD
 70
    64
 40
0.0
 41
1.0
 50
0.0
 71
     0
 42
3.100000381469727
  3
TXT
  4

  0
STYLE
  5
176
100
AcDbSymbolTableRecord
100
AcDbTextStyleTableRecord
  2
ANKTATE
 70
    68
 40
0.0
 41
1.0
 50
0.0
 71
     0
 42
3.100000381469727
  3
TXT
  4

  0
STYLE
  5
177
100
AcDbSymbolTableRecord
100
AcDbTextStyleTableRecord
  2
KNJYOKO
 70
    64
 40
0.0
 41
1.0
 50
0.0
 71
     0
 42
3.100000381469727
  3
TXT
  4
BIGFONT
  0
STYLE
  5
178
100
AcDbSymbolTableRecord
100
AcDbTextStyleTableRecord
  2
KNJTATE
 70
    68
 40
0.0
 41
1.0
 50
0.0
 71
     0
 42
3.100000381469727
  3
TXT
  4
BIGFONT
  0
ENDTAB
  0
TABLE
  2
VIEW
  5
179
100
AcDbSymbolTable
 70
     0
  0
ENDTAB
  0
TABLE
  2
UCS
  5
17A
100
AcDbSymbolTable
 70
     0
  0
ENDTAB
  0
TABLE
  2
APPID
  5
17B
100
AcDbSymbolTable
 70
     1
  0
APPID
  5
17C
100
AcDbSymbolTableRecord
100
AcDbRegAppTableRecord
  2
ACAD
 70
     0
  0
ENDTAB
  0
TABLE
  2
DIMSTYLE
  5
17D
100
AcDbSymbolTable
 70
     3
100
AcDbDimStyleTable
  0
DIMSTYLE
105
17E
100
AcDbSymbolTableRecord
100
AcDbDimStyleTableRecord
  2
STANDARD
 70
     0
 41
2.000000
 44
2.000000
 42
0.800000
145
0.661290
140
3.100000
144
1.000000
146
0.903226
340
175
  0
DIMSTYLE
105
17F
100
AcDbSymbolTableRecord
100
AcDbDimStyleTableRecord
  2
MAIN001
 70
     0
 41
2.000000
 44
2.000000
 42
0.800000
145
0.661290
140
3.100000
144
1.000000
146
0.903226
 77
     1
 73
     0
 74
     0
271
     3
179
     4
275
     1
 78
     8
 79
     2
172
     1
340
175
  0
DIMSTYLE
105
180
100
AcDbSymbolTableRecord
100
AcDbDimStyleTableRecord
  2
WAKU002
 70
     0
 41
2.000000
 44
2.000000
 42
0.800000
145
0.661290
140
3.100000
144
1.000000
146
0.903226
 77
     1
 73
     0
 74
     0
271
     3
179
     4
275
     1
 78
     8
 79
     2
172
     1
340
175
  0
ENDTAB
  0
TABLE
  2
BLOCK_RECORD
  5
181
100
AcDbSymbolTable
 70
    23
  0
BLOCK_RECORD
  5
182
100
AcDbSymbolTableRecord
100
AcDbBlockTableRecord
  2
*MODEL_SPACE
  0
BLOCK_RECORD
  5
183
100
AcDbSymbolTableRecord
100
AcDbBlockTableRecord
  2
*PAPER_SPACE
  0
BLOCK_RECORD
  5
184
100
AcDbSymbolTableRecord
100
AcDbBlockTableRecord
  2
*PAPER_SPACE0
  0
BLOCK_RECORD
  5
1
100
AcDbSymbolTableRecord
100
AcDbBlockTableRecord
  2
_NONE
  0
BLOCK_RECORD
  5
4
100
AcDbSymbolTableRecord
100
AcDbBlockTableRecord
  2
_CLOSED
  0
BLOCK_RECORD
  5
B
100
AcDbSymbolTableRecord
100
AcDbBlockTableRecord
  2
_DOT
  0
BLOCK_RECORD
  5
13
100
AcDbSymbolTableRecord
100
AcDbBlockTableRecord
  2
_OPEN
  0
BLOCK_RECORD
  5
19
100
AcDbSymbolTableRecord
100
AcDbBlockTableRecord
  2
_ORIGIN
  0
BLOCK_RECORD
  5
1E
100
AcDbSymbolTableRecord
100
AcDbBlockTableRecord
  2
_OPEN30
  0
BLOCK_RECORD
  5
24
100
AcDbSymbolTableRecord
100
AcDbBlockTableRecord
  2
_BOXFILLED
  0
BLOCK_RECORD
  5
29
100
AcDbSymbolTableRecord
100
AcDbBlockTableRecord
  2
_BOXBLANK
  0
BLOCK_RECORD
  5
31
100
AcDbSymbolTableRecord
100
AcDbBlockTableRecord
  2
_OBLIQUE
  0
BLOCK_RECORD
  5
35
100
AcDbSymbolTableRecord
100
AcDbBlockTableRecord
  2
_OPEN90
  0
BLOCK_RECORD
  5
3B
100
AcDbSymbolTableRecord
100
AcDbBlockTableRecord
  2
_CLOSEDBLANK
  0
BLOCK_RECORD
  5
41
100
AcDbSymbolTableRecord
100
AcDbBlockTableRecord
  2
_DOTBLANK
  0
BLOCK_RECORD
  5
185
100
AcDbSymbolTableRecord
100
AcDbBlockTableRecord
  2
*D0
  0
BLOCK_RECORD
  5
186
100
AcDbSymbolTableRecord
100
AcDbBlockTableRecord
  2
*D1
  0
BLOCK_RECORD
  5
187
100
AcDbSymbolTableRecord
100
AcDbBlockTableRecord
  2
*D2
  0
BLOCK_RECORD
  5
188
100
AcDbSymbolTableRecord
100
AcDbBlockTableRecord
  2
*D3
  0
BLOCK_RECORD
  5
189
100
AcDbSymbolTableRecord
100
AcDbBlockTableRecord
  2
*D4
  0
BLOCK_RECORD
  5
18A
100
AcDbSymbolTableRecord
100
AcDbBlockTableRecord
  2
*D5
  0
BLOCK_RECORD
  5
18B
100
AcDbSymbolTableRecord
100
AcDbBlockTableRecord
  2
*D6
  0
BLOCK_RECORD
  5
18C
100
AcDbSymbolTableRecord
100
AcDbBlockTableRecord
  2
*D7
  0
BLOCK_RECORD
  5
18D
100
AcDbSymbolTableRecord
100
AcDbBlockTableRecord
  2
*D8
  0
BLOCK_RECORD
  5
18E
100
AcDbSymbolTableRecord
100
AcDbBlockTableRecord
  2
*D9
  0
BLOCK_RECORD
  5
18F
100
AcDbSymbolTableRecord
100
AcDbBlockTableRecord
  2
M0
  0
ENDTAB
  0
ENDSEC
  0
SECTION
  2
BLOCKS
  0
BLOCK
  5
190
100
AcDbEntity
  8
0
100
AcDbBlockBegin
  2
*MODEL_SPACE
 70
     0
 10
0.0
 20
0.0
 30
0.0
  3
*MODEL_SPACE
  1

  0
ENDBLK
  5
191
100
AcDbEntity
  8
0
100
AcDbBlockEnd
  0
BLOCK
  5
192
100
AcDbEntity
  8
0
100
AcDbBlockBegin
  2
*PAPER_SPACE
 70
     0
 10
0.0
 20
0.0
 30
0.0
  3
*PAPER_SPACE
  1

  0
ENDBLK
  5
193
100
AcDbEntity
  8
0
100
AcDbBlockEnd
  0
BLOCK
  5
194
100
AcDbEntity
  8
0
100
AcDbBlockBegin
  2
*PAPER_SPACE0
 70
     0
 10
0.0
 20
0.0
 30
0.0
  3
*PAPER_SPACE0
  1

  0
ENDBLK
  5
195
100
AcDbEntity
  8
0
100
AcDbBlockEnd
  0
BLOCK
  5
2
330
1
100
AcDbEntity
  8
0
100
AcDbBlockBegin
  2
_NONE
 70
     0
 10
0.0
 20
0.0
 30
0.0
  3
_NONE
  1

  0
ENDBLK
  5
3
330
1
100
AcDbEntity
  8
0
100
AcDbBlockEnd
  0
BLOCK
  5
5
330
4
100
AcDbEntity
  8
0
100
AcDbBlockBegin
  2
_CLOSED
 70
     0
 10
0.0
 20
0.0
 30
0.0
  3
_CLOSED
  1

  0
LINE
  5
6
330
4
100
AcDbEntity
  8
0
  6
BYBLOCK
 62
     0
370
    -2
100
AcDbLine
 10
-1.0
 20
0.166667
 30
0.0
 11
0.0
 21
0.0
 31
0.0
  0
LINE
  5
7
330
4
100
AcDbEntity
  8
0
  6
BYBLOCK
 62
     0
370
    -2
100
AcDbLine
 10
0.0
 20
0.0
 30
0.0
 11
-1.0
 21
-0.166667
 31
0.0
  0
LINE
  5
8
330
4
100
AcDbEntity
  8
0
  6
BYBLOCK
 62
     0
370
    -2
100
AcDbLine
 10
-1.0
 20
0.166667
 30
0.0
 11
-1.0
 21
-0.166667
 31
0.0
  0
LINE
  5
9
330
4
100
AcDbEntity
  8
0
  6
BYBLOCK
 62
     0
370
    -2
100
AcDbLine
 10
0.0
 20
0.0
 30
0.0
 11
-1.0
 21
0.0
 31
0.0
  0
ENDBLK
  5
A
330
4
100
AcDbEntity
  8
0
100
AcDbBlockEnd
  0
BLOCK
  5
C
330
B
100
AcDbEntity
  8
0
100
AcDbBlockBegin
  2
_DOT
 70
     0
 10
0.0
 20
0.0
 30
0.0
  3
_DOT
  1

  0
POLYLINE
  5
D
330
B
100
AcDbEntity
  8
0
  6
BYBLOCK
 62
     0
370
    -2
100
AcDb2dPolyline
 66
     1
 10
0.0
 20
0.0
 30
0.0
 70
     1
 40
0.5
 41
0.5
  0
VERTEX
  5
E
330
B
100
AcDbEntity
  8
0
  6
BYBLOCK
 62
     0
370
    -2
100
AcDbVertex
100
AcDb2dVertex
 10
-0.25
 20
0.0
 30
0.0
 42
1.0
  0
VERTEX
  5
F
330
B
100
AcDbEntity
  8
0
  6
BYBLOCK
 62
     0
370
    -2
100
AcDbVertex
100
AcDb2dVertex
 10
0.25
 20
0.0
 30
0.0
 42
1.0
  0
SEQEND
  5
10
330
B
100
AcDbEntity
  8
0
  6
BYBLOCK
 62
     0
370
    -2
  0
LINE
  5
11
330
B
100
AcDbEntity
  8
0
  6
BYBLOCK
 62
     0
370
    -2
100
AcDbLine
 10
-0.5
 20
0.0
 30
0.0
 11
-1.0
 21
0.0
 31
0.0
  0
ENDBLK
  5
12
330
B
100
AcDbEntity
  8
0
100
AcDbBlockEnd
  0
BLOCK
  5
14
330
13
100
AcDbEntity
  8
0
100
AcDbBlockBegin
  2
_OPEN
 70
     0
 10
0.0
 20
0.0
 30
0.0
  3
_OPEN
  1

  0
LINE
  5
15
330
13
100
AcDbEntity
  8
0
  6
BYBLOCK
 62
     0
370
    -2
100
AcDbLine
 10
-1.0
 20
0.166667
 30
0.0
 11
0.0
 21
0.0
 31
0.0
  0
LINE
  5
16
330
13
100
AcDbEntity
  8
0
  6
BYBLOCK
 62
     0
370
    -2
100
AcDbLine
 10
0.0
 20
0.0
 30
0.0
 11
-1.0
 21
-0.166667
 31
0.0
  0
LINE
  5
17
330
13
100
AcDbEntity
  8
0
  6
BYBLOCK
 62
     0
370
    -2
100
AcDbLine
 10
0.0
 20
0.0
 30
0.0
 11
-1.0
 21
0.0
 31
0.0
  0
ENDBLK
  5
18
330
13
100
AcDbEntity
  8
0
100
AcDbBlockEnd
  0
BLOCK
  5
1A
330
19
100
AcDbEntity
  8
0
100
AcDbBlockBegin
  2
_ORIGIN
 70
     0
 10
0.0
 20
0.0
 30
0.0
  3
_ORIGIN
  1

  0
CIRCLE
  5
1B
330
19
100
AcDbEntity
  8
0
  6
BYBLOCK
 62
     0
370
    -2
100
AcDbCircle
 10
0.0
 20
0.0
 30
0.0
 40
0.5
  0
LINE
  5
1C
330
19
100
AcDbEntity
  8
0
  6
BYBLOCK
 62
     0
370
    -2
100
AcDbLine
 10
0.0
 20
0.0
 30
0.0
 11
-1.0
 21
0.0
 31
0.0
  0
ENDBLK
  5
1D
330
19
100
AcDbEntity
  8
0
100
AcDbBlockEnd
  0
BLOCK
  5
1F
330
1E
100
AcDbEntity
  8
0
100
AcDbBlockBegin
  2
_OPEN30
 70
     0
 10
0.0
 20
0.0
 30
0.0
  3
_OPEN30
  1

  0
LINE
  5
20
330
1E
100
AcDbEntity
  8
0
  6
BYBLOCK
 62
     0
370
    -2
100
AcDbLine
 10
-1.0
 20
0.267949
 30
0.0
 11
0.0
 21
0.0
 31
0.0
  0
LINE
  5
21
330
1E
100
AcDbEntity
  8
0
  6
BYBLOCK
 62
     0
370
    -2
100
AcDbLine
 10
0.0
 20
0.0
 30
0.0
 11
-1.0
 21
-0.267949
 31
0.0
  0
LINE
  5
22
330
1E
100
AcDbEntity
  8
0
  6
BYBLOCK
 62
     0
370
    -2
100
AcDbLine
 10
0.0
 20
0.0
 30
0.0
 11
-1.0
 21
0.0
 31
0.0
  0
ENDBLK
  5
23
330
1E
100
AcDbEntity
  8
0
100
AcDbBlockEnd
  0
BLOCK
  5
25
330
24
100
AcDbEntity
  8
0
100
AcDbBlockBegin
  2
_BOXFILLED
 70
     0
 10
0.0
 20
0.0
 30
0.0
  3
_BOXFILLED
  1

  0
SOLID
  5
26
330
24
100
AcDbEntity
  8
0
  6
BYBLOCK
 62
     0
370
    -2
100
AcDbTrace
 10
-0.5
 20
0.5
 30
0.0
 11
0.5
 21
0.5
 31
0.0
 12
-0.5
 22
-0.5
 32
0.0
 13
0.5
 23
-0.5
 33
0.0
  0
LINE
  5
27
330
24
100
AcDbEntity
  8
0
  6
BYBLOCK
 62
     0
370
    -2
100
AcDbLine
 10
-0.5
 20
0.0
 30
0.0
 11
-1.0
 21
0.0
 31
0.0
  0
ENDBLK
  5
28
330
24
100
AcDbEntity
  8
0
100
AcDbBlockEnd
  0
BLOCK
  5
2A
330
29
100
AcDbEntity
  8
0
100
AcDbBlockBegin
  2
_BOXBLANK
 70
     0
 10
0.0
 20
0.0
 30
0.0
  3
_BOXBLANK
  1

  0
LINE
  5
2B
330
29
100
AcDbEntity
  8
0
  6
BYBLOCK
 62
     0
370
    -2
100
AcDbLine
 10
-0.5
 20
-0.5
 30
0.0
 11
0.5
 21
-0.5
 31
0.0
  0
LINE
  5
2C
330
29
100
AcDbEntity
  8
0
  6
BYBLOCK
 62
     0
370
    -2
100
AcDbLine
 10
0.5
 20
-0.5
 30
0.0
 11
0.5
 21
0.5
 31
0.0
  0
LINE
  5
2D
330
29
100
AcDbEntity
  8
0
  6
BYBLOCK
 62
     0
370
    -2
100
AcDbLine
 10
0.5
 20
0.5
 30
0.0
 11
-0.5
 21
0.5
 31
0.0
  0
LINE
  5
2E
330
29
100
AcDbEntity
  8
0
  6
BYBLOCK
 62
     0
370
    -2
100
AcDbLine
 10
-0.5
 20
0.5
 30
0.0
 11
-0.5
 21
-0.5
 31
0.0
  0
LINE
  5
2F
330
29
100
AcDbEntity
  8
0
  6
BYBLOCK
 62
     0
370
    -2
100
AcDbLine
 10
-0.5
 20
0.0
 30
0.0
 11
-1.0
 21
0.0
 31
0.0
  0
ENDBLK
  5
30
330
29
100
AcDbEntity
  8
0
100
AcDbBlockEnd
  0
BLOCK
  5
32
330
31
100
AcDbEntity
  8
0
100
AcDbBlockBegin
  2
_OBLIQUE
 70
     0
 10
0.0
 20
0.0
 30
0.0
  3
_OBLIQUE
  1

  0
LINE
  5
33
330
31
100
AcDbEntity
  8
0
  6
BYBLOCK
 62
     0
370
    -2
100
AcDbLine
 10
-0.5
 20
-0.5
 30
0.0
 11
0.5
 21
0.5
 31
0.0
  0
ENDBLK
  5
34
330
31
100
AcDbEntity
  8
0
100
AcDbBlockEnd
  0
BLOCK
  5
36
330
35
100
AcDbEntity
  8
0
100
AcDbBlockBegin
  2
_OPEN90
 70
     0
 10
0.0
 20
0.0
 30
0.0
  3
_OPEN90
  1

  0
LINE
  5
37
330
35
100
AcDbEntity
  8
0
  6
BYBLOCK
 62
     0
370
    -2
100
AcDbLine
 10
-0.5
 20
0.5
 30
0.0
 11
0.0
 21
0.0
 31
0.0
  0
LINE
  5
38
330
35
100
AcDbEntity
  8
0
  6
BYBLOCK
 62
     0
370
    -2
100
AcDbLine
 10
0.0
 20
0.0
 30
0.0
 11
-0.5
 21
-0.5
 31
0.0
  0
LINE
  5
39
330
35
100
AcDbEntity
  8
0
  6
BYBLOCK
 62
     0
370
    -2
100
AcDbLine
 10
0.0
 20
0.0
 30
0.0
 11
-1.0
 21
0.0
 31
0.0
  0
ENDBLK
  5
3A
330
35
100
AcDbEntity
  8
0
100
AcDbBlockEnd
  0
BLOCK
  5
3C
330
3B
100
AcDbEntity
  8
0
100
AcDbBlockBegin
  2
_CLOSEDBLANK
 70
     0
 10
0.0
 20
0.0
 30
0.0
  3
_CLOSEDBLANK
  1

  0
LINE
  5
3D
330
3B
100
AcDbEntity
  8
0
  6
BYBLOCK
 62
     0
370
    -2
100
AcDbLine
 10
-1.0
 20
0.1666666666666666
 30
0.0
 11
0.0
 21
0.0
 31
0.0
  0
LINE
  5
3E
330
3B
100
AcDbEntity
  8
0
  6
BYBLOCK
 62
     0
370
    -2
100
AcDbLine
 10
0.0
 20
0.0
 30
0.0
 11
-1.0
 21
-0.1666666666666666
 31
0.0
  0
LINE
  5
3F
330
3B
100
AcDbEntity
  8
0
  6
BYBLOCK
 62
     0
370
    -2
100
AcDbLine
 10
-1.0
 20
0.1666666666666666
 30
0.0
 11
-1.0
 21
-0.1666666666666666
 31
0.0
  0
ENDBLK
  5
40
330
3B
100
AcDbEntity
  8
0
100
AcDbBlockEnd
  0
BLOCK
  5
42
330
41
100
AcDbEntity
  8
0
100
AcDbBlockBegin
  2
_DOTBLANK
 70
     0
 10
0.0
 20
0.0
 30
0.0
  3
_DOTBLANK
  1

  0
CIRCLE
  5
43
330
41
100
AcDbEntity
  8
0
  6
BYBLOCK
 62
     0
370
    -2
100
AcDbCircle
 10
0.0
 20
0.0
 30
0.0
 40
0.5
  0
LINE
  5
44
330
41
100
AcDbEntity
  8
0
  6
BYBLOCK
 62
     0
370
    -2
100
AcDbLine
 10
-0.5
 20
0.0
 30
0.0
 11
-1.0
 21
0.0
 31
0.0
  0
ENDBLK
  5
45
330
41
100
AcDbEntity
  8
0
100
AcDbBlockEnd
  0
BLOCK
  5
46
100
AcDbEntity
  8
MAIN0
  6
CONTINUOUS
 62
3
100
AcDbBlockBegin
  2
*D0
 70
    65
 10
0.0
 20
0.0
 30
0.0
  0
LINE
  5
47
100
AcDbEntity
  8
MAIN0
  6
BYBLOCK
 62
0
370
    -2
100
AcDbLine
 10
125.5932273828213
 20
117.1964871736312
 30
0.0000000000000000
 11
147.2418385817074
 21
117.1964871736312
 31
0.0000000000000000
  0
LINE
  5
48
100
AcDbEntity
  8
MAIN0
  6
BYBLOCK
 62
0
370
    -2
100
AcDbLine
 10
145.2418385817074
 20
117.1964871736312
 30
0.0000000000000000
 11
145.2418385817074
 21
123.1964871736312
 31
0.0000000000000000
  0
INSERT
  5
49
100
AcDbEntity
  8
MAIN0
  6
BYBLOCK
 62
0
100
AcDbBlockReference
  2
_OPEN
 10
145.2418385817074
 20
117.1964871736312
 30
0.0000000000000000
 41
2.000000000000000
 42
2.000000000000000
 43
2.000000000000000
 50
90.00000000000000
  0
INSERT
  5
4A
100
AcDbEntity
  8
MAIN0
  6
BYBLOCK
 62
0
100
AcDbBlockReference
  2
_OPEN
 10
145.2418385817074
 20
123.1964871736312
 30
0.0000000000000000
 41
2.000000000000000
 42
2.000000000000000
 43
2.000000000000000
 50
270.0000000000000
  0
LINE
  5
4B
100
AcDbEntity
  8
MAIN0
  6
BYBLOCK
 62
0
370
    -2
100
AcDbLine
 10
145.2418385817074
 20
115.1964871736312
 30
0.0000000000000000
 11
145.2418385817074
 21
114.1964871736312
 31
0.0000000000000000
  0
LINE
  5
4C
100
AcDbEntity
  8
MAIN0
  6
BYBLOCK
 62
0
370
    -2
100
AcDbLine
 10
145.2418385817074
 20
125.1964871736312
 30
0.0000000000000000
 11
145.2418385817074
 21
126.1964871736312
 31
0.0000000000000000
  0
LINE
  5
4D
100
AcDbEntity
  8
MAIN0
  6
BYBLOCK
 62
0
370
    -2
100
AcDbLine
 10
125.5932273828214
 20
123.1964871736312
 30
0.0000000000000000
 11
147.2418385817074
 21
123.1964871736312
 31
0.0000000000000000
  0
MTEXT
  5
4E
100
AcDbEntity
  8
MAIN0
  6
BYBLOCK
 62
0
100
AcDbMText
 10
143.1918386293912
 20
120.1964871736312
 30
0.0000000000000000
 40
3.099999904632568
 41
0.0000000000000000
 44
0.7741935722041460
 71
     5
 72
     1
  1
\A1;6
 11
6.123233995736766e-017
 21
1.000000000000000
 31
0.0000000000000000
  7
STANDARD
  0
ENDBLK
  5
4F
100
AcDbEntity
  8
MAIN0
  6
CONTINUOUS
 62
3
100
AcDbBlockEnd
  0
BLOCK
  5
51
100
AcDbEntity
  8
MAIN0
  6
CONTINUOUS
 62
3
100
AcDbBlockBegin
  2
*D1
 70
    65
 10
0.0
 20
0.0
 30
0.0
  0
LINE
  5
52
100
AcDbEntity
  8
MAIN0
  6
BYBLOCK
 62
0
370
    -2
100
AcDbLine
 10
125.5932273824964
 20
174.5052928843007
 30
0.0000000000000000
 11
135.4482938881104
 21
174.5052928843007
 31
0.0000000000000000
  0
LINE
  5
53
100
AcDbEntity
  8
MAIN0
  6
BYBLOCK
 62
0
370
    -2
100
AcDbLine
 10
133.4482938881104
 20
174.5052928843007
 30
0.0000000000000000
 11
133.4482938881104
 21
179.5052928843007
 31
0.0000000000000000
  0
INSERT
  5
54
100
AcDbEntity
  8
MAIN0
  6
BYBLOCK
 62
0
100
AcDbBlockReference
  2
_OPEN
 10
133.4482938881104
 20
174.5052928843007
 30
0.0000000000000000
 41
2.000000000000000
 42
2.000000000000000
 43
2.000000000000000
 50
90.00000000000000
  0
INSERT
  5
55
100
AcDbEntity
  8
MAIN0
  6
BYBLOCK
 62
0
100
AcDbBlockReference
  2
_OPEN
 10
133.4482938881104
 20
179.5052928843007
 30
0.0000000000000000
 41
2.000000000000000
 42
2.000000000000000
 43
2.000000000000000
 50
270.0000000000000
  0
LINE
  5
56
100
AcDbEntity
  8
MAIN0
  6
BYBLOCK
 62
0
370
    -2
100
AcDbLine
 10
133.4482938881104
 20
172.5052928843007
 30
0.0000000000000000
 11
133.4482938881104
 21
171.5052928843007
 31
0.0000000000000000
  0
LINE
  5
57
100
AcDbEntity
  8
MAIN0
  6
BYBLOCK
 62
0
370
    -2
100
AcDbLine
 10
133.4482938881104
 20
181.5052928843007
 30
0.0000000000000000
 11
133.4482938881104
 21
182.5052928843007
 31
0.0000000000000000
  0
LINE
  5
58
100
AcDbEntity
  8
MAIN0
  6
BYBLOCK
 62
0
370
    -2
100
AcDbLine
 10
117.2932273824964
 20
179.5052928843007
 30
0.0000000000000000
 11
135.4482938881104
 21
179.5052928843007
 31
0.0000000000000000
  0
MTEXT
  5
59
100
AcDbEntity
  8
MAIN0
  6
BYBLOCK
 62
0
100
AcDbMText
 10
131.3982939357941
 20
177.1462259987998
 30
0.0000000000000000
 40
3.099999904632568
 41
0.0000000000000000
 44
0.7741935722041460
 71
     5
 72
     1
  1
\A1;5
 11
6.123233995736766e-017
 21
1.000000000000000
 31
0.0000000000000000
  7
STANDARD
  0
ENDBLK
  5
5A
100
AcDbEntity
  8
MAIN0
  6
CONTINUOUS
 62
3
100
AcDbBlockEnd
  0
BLOCK
  5
5C
100
AcDbEntity
  8
MAIN0
  6
CONTINUOUS
 62
3
100
AcDbBlockBegin
  2
*D2
 70
    65
 10
0.0
 20
0.0
 30
0.0
  0
LINE
  5
5D
100
AcDbEntity
  8
MAIN0
  6
BYBLOCK
 62
0
370
    -2
100
AcDbLine
 10
109.9932273705754
 20
179.5052928843006
 30
0.0000000000000000
 11
110.3922738073036
 21
180.1403219712996
 31
0.0000000000000000
  0
INSERT
  5
5E
100
AcDbEntity
  8
MAIN0
  6
BYBLOCK
 62
0
100
AcDbBlockReference
  2
_OPEN
 10
111.4563976385786
 20
181.8337328699631
 30
0.0000000000000000
 41
2.000000000000000
 42
2.000000000000000
 43
2.000000000000000
 50
57.85512369352853
  0
LINE
  5
5F
100
AcDbEntity
  8
MAIN0
  6
BYBLOCK
 62
0
370
    -2
100
AcDbLine
 10
111.4563976385786
 20
181.8337328699631
 30
0.0000000000000000
 11
122.0036527703153
 21
198.6182801812170
 31
0.0000000000000000
  0
MTEXT
  5
60
100
AcDbEntity
  8
MAIN0
  6
BYBLOCK
 62
0
100
AcDbMText
 10
118.5919118978152
 20
197.0418853830051
 30
0.0000000000000000
 40
3.099999904632568
 41
0.0000000000000000
 44
0.7741935722041460
 71
     5
 72
     1
  1
\A1;(R)
 11
0.5320619156375086
 21
0.8467054493317878
 31
0.0000000000000000
  7
STANDARD
  0
ENDBLK
  5
61
100
AcDbEntity
  8
MAIN0
  6
CONTINUOUS
 62
3
100
AcDbBlockEnd
  0
BLOCK
  5
63
100
AcDbEntity
  8
MAIN0
  6
CONTINUOUS
 62
3
100
AcDbBlockBegin
  2
*D3
 70
    65
 10
0.0
 20
0.0
 30
0.0
  0
LINE
  5
64
100
AcDbEntity
  8
MAIN0
  6
BYBLOCK
 62
0
370
    -2
100
AcDbLine
 10
109.9932273705754
 20
179.5052928843007
 30
0.0000000000000000
 11
108.6448494385748
 21
181.6104952385872
 31
0.0000000000000000
  0
INSERT
  5
65
100
AcDbEntity
  8
MAIN0
  6
BYBLOCK
 62
0
100
AcDbBlockReference
  2
_OPEN
 10
107.5661470929742
 20
183.2946571220165
 30
0.0000000000000000
 41
2.000000000000000
 42
2.000000000000000
 43
2.000000000000000
 50
122.6394812841783
  0
LINE
  5
66
100
AcDbEntity
  8
MAIN0
  6
BYBLOCK
 62
0
370
    -2
100
AcDbLine
 10
107.5661470929742
 20
183.2946571220165
 30
0.0000000000000000
 11
98.63810383301153
 21
197.2338779027644
 31
0.0000000000000000
  0
MTEXT
  5
67
100
AcDbEntity
  8
MAIN0
  6
BYBLOCK
 62
0
100
AcDbMText
 10
102.0633254621637
 20
195.6869935260981
 30
0.0000000000000000
 40
3.099999904632568
 41
0.0000000000000000
 44
0.7741935722041460
 71
     5
 72
     1
  1
\A1;(R)
 11
0.5393511728002658
 21
-0.8420809417146180
 31
0.0000000000000000
  7
STANDARD
  0
ENDBLK
  5
68
100
AcDbEntity
  8
MAIN0
  6
CONTINUOUS
 62
3
100
AcDbBlockEnd
  0
BLOCK
  5
6A
100
AcDbEntity
  8
MAIN0
  6
CONTINUOUS
 62
3
100
AcDbBlockBegin
  2
*D4
 70
    65
 10
0.0
 20
0.0
 30
0.0
  0
LINE
  5
6B
100
AcDbEntity
  8
MAIN0
  6
BYBLOCK
 62
0
370
    -2
100
AcDbLine
 10
105.4932273705754
 20
174.1052928723798
 30
0.0000000000000000
 11
105.4932273705754
 21
156.2018003079841
 31
0.0000000000000000
  0
LINE
  5
6C
100
AcDbEntity
  8
MAIN0
  6
BYBLOCK
 62
0
370
    -2
100
AcDbLine
 10
107.4932273705754
 20
158.2018003079841
 30
0.0000000000000000
 11
112.4932273705754
 21
158.2018003079841
 31
0.0000000000000000
  0
INSERT
  5
6D
100
AcDbEntity
  8
MAIN0
  6
BYBLOCK
 62
0
100
AcDbBlockReference
  2
_OPEN
 10
105.4932273705754
 20
158.2018003079841
 30
0.0000000000000000
 41
2.000000000000000
 42
2.000000000000000
 43
2.000000000000000
 50
180.0000000000000
  0
INSERT
  5
6E
100
AcDbEntity
  8
MAIN0
  6
BYBLOCK
 62
0
100
AcDbBlockReference
  2
_OPEN
 10
114.4932273705754
 20
158.2018003079841
 30
0.0000000000000000
 41
2.000000000000000
 42
2.000000000000000
 43
2.000000000000000
 50
0.0000000000000000
  0
LINE
  5
6F
100
AcDbEntity
  8
MAIN0
  6
BYBLOCK
 62
0
370
    -2
100
AcDbLine
 10
114.4932273705754
 20
174.1052928723798
 30
0.0000000000000000
 11
114.4932273705754
 21
156.2018003079841
 31
0.0000000000000000
  0
MTEXT
  5
70
100
AcDbEntity
  8
MAIN0
  6
BYBLOCK
 62
0
100
AcDbMText
 10
109.9932273705754
 20
160.2518002603004
 30
0.0000000000000000
 40
3.099999904632568
 41
0.0000000000000000
 44
0.7741935722041460
 71
     5
 72
     1
  1
\A1;9
 11
1.000000000000000
 21
0.0000000000000000
 31
0.0000000000000000
  7
STANDARD
  0
ENDBLK
  5
71
100
AcDbEntity
  8
MAIN0
  6
CONTINUOUS
 62
3
100
AcDbBlockEnd
  0
BLOCK
  5
73
100
AcDbEntity
  8
MAIN0
  6
CONTINUOUS
 62
3
100
AcDbBlockBegin
  2
*D5
 70
    65
 10
0.0
 20
0.0
 30
0.0
  0
LINE
  5
74
100
AcDbEntity
  8
MAIN0
  6
BYBLOCK
 62
0
370
    -2
100
AcDbLine
 10
65.99322737057554
 20
186.8052928962216
 30
0.0000000000000000
 11
65.99322737057554
 21
206.2414586825984
 31
0.0000000000000000
  0
LINE
  5
75
100
AcDbEntity
  8
MAIN0
  6
BYBLOCK
 62
0
370
    -2
100
AcDbLine
 10
67.99322737057554
 20
204.2414586825984
 30
0.0000000000000000
 11
107.9932273705754
 21
204.2414586825984
 31
0.0000000000000000
  0
INSERT
  5
76
100
AcDbEntity
  8
MAIN0
  6
BYBLOCK
 62
0
100
AcDbBlockReference
  2
_OPEN
 10
65.99322737057554
 20
204.2414586825984
 30
0.0000000000000000
 41
2.000000000000000
 42
2.000000000000000
 43
2.000000000000000
 50
180.0000000000000
  0
INSERT
  5
77
100
AcDbEntity
  8
MAIN0
  6
BYBLOCK
 62
0
100
AcDbBlockReference
  2
_OPEN
 10
109.9932273705754
 20
204.2414586825984
 30
0.0000000000000000
 41
2.000000000000000
 42
2.000000000000000
 43
2.000000000000000
 50
0.0000000000000000
  0
LINE
  5
78
100
AcDbEntity
  8
MAIN0
  6
BYBLOCK
 62
0
370
    -2
100
AcDbLine
 10
109.9932273705754
 20
186.8052928962216
 30
0.0000000000000000
 11
109.9932273705754
 21
206.2414586825984
 31
0.0000000000000000
  0
MTEXT
  5
79
100
AcDbEntity
  8
MAIN0
  6
BYBLOCK
 62
0
100
AcDbMText
 10
87.99322737057548
 20
206.2914586349147
 30
0.0000000000000000
 40
3.099999904632568
 41
0.0000000000000000
 44
0.7741935722041460
 71
     5
 72
     1
  1
\A1;44
 11
1.000000000000000
 21
0.0000000000000000
 31
0.0000000000000000
  7
STANDARD
  0
ENDBLK
  5
7A
100
AcDbEntity
  8
MAIN0
  6
CONTINUOUS
 62
3
100
AcDbBlockEnd
  0
BLOCK
  5
7C
100
AcDbEntity
  8
MAIN0
  6
CONTINUOUS
 62
3
100
AcDbBlockBegin
  2
*D6
 70
    65
 10
0.0
 20
0.0
 30
0.0
  0
LINE
  5
7D
100
AcDbEntity
  8
MAIN0
  6
BYBLOCK
 62
0
370
    -2
100
AcDbLine
 10
115.2932273828215
 20
119.1964871736312
 30
0.0000000000000000
 11
135.4482938881104
 21
119.1964871736312
 31
0.0000000000000000
  0
LINE
  5
7E
100
AcDbEntity
  8
MAIN0
  6
BYBLOCK
 62
0
370
    -2
100
AcDbLine
 10
133.4482938881104
 20
119.1964871736312
 30
0.0000000000000000
 11
133.4482938881104
 21
123.1964871736312
 31
0.0000000000000000
  0
INSERT
  5
7F
100
AcDbEntity
  8
MAIN0
  6
BYBLOCK
 62
0
100
AcDbBlockReference
  2
_OPEN
 10
133.4482938881104
 20
119.1964871736312
 30
0.0000000000000000
 41
2.000000000000000
 42
2.000000000000000
 43
2.000000000000000
 50
90.00000000000000
  0
INSERT
  5
80
100
AcDbEntity
  8
MAIN0
  6
BYBLOCK
 62
0
100
AcDbBlockReference
  2
_OPEN
 10
133.4482938881104
 20
123.1964871736312
 30
0.0000000000000000
 41
2.000000000000000
 42
2.000000000000000
 43
2.000000000000000
 50
270.0000000000000
  0
LINE
  5
81
100
AcDbEntity
  8
MAIN0
  6
BYBLOCK
 62
0
370
    -2
100
AcDbLine
 10
133.4482938881104
 20
117.1964871736312
 30
0.0000000000000000
 11
133.4482938881104
 21
116.1964871736312
 31
0.0000000000000000
  0
LINE
  5
82
100
AcDbEntity
  8
MAIN0
  6
BYBLOCK
 62
0
370
    -2
100
AcDbLine
 10
133.4482938881104
 20
125.1964871736312
 30
0.0000000000000000
 11
133.4482938881104
 21
126.1964871736312
 31
0.0000000000000000
  0
LINE
  5
83
100
AcDbEntity
  8
MAIN0
  6
BYBLOCK
 62
0
370
    -2
100
AcDbLine
 10
125.5932273828214
 20
123.1964871736312
 30
0.0000000000000000
 11
135.4482938881104
 21
123.1964871736312
 31
0.0000000000000000
  0
MTEXT
  5
84
100
AcDbEntity
  8
MAIN0
  6
BYBLOCK
 62
0
100
AcDbMText
 10
131.3982939357941
 20
121.1964871736312
 30
0.0000000000000000
 40
3.099999904632568
 41
0.0000000000000000
 44
0.7741935722041460
 71
     5
 72
     1
  1
\A1;4
 11
6.123233995736766e-017
 21
1.000000000000000
 31
0.0000000000000000
  7
STANDARD
  0
ENDBLK
  5
85
100
AcDbEntity
  8
MAIN0
  6
CONTINUOUS
 62
3
100
AcDbBlockEnd
  0
BLOCK
  5
88
100
AcDbEntity
  8
MAIN0
  6
CONTINUOUS
 62
3
100
AcDbBlockBegin
  2
*D7
 70
    65
 10
0.0
 20
0.0
 30
0.0
  0
LINE
  5
89
100
AcDbEntity
  8
MAIN0
  6
BYBLOCK
 62
0
370
    -2
100
AcDbLine
 10
50.79322737057561
 20
190.9052928962216
 30
0.0000000000000000
 11
50.79322737057561
 21
214.7110296230058
 31
0.0000000000000000
  0
LINE
  5
8A
100
AcDbEntity
  8
MAIN0
  6
BYBLOCK
 62
0
370
    -2
100
AcDbLine
 10
52.79322737057561
 20
212.7110296230058
 30
0.0000000000000000
 11
123.1932273705755
 21
212.7110296230058
 31
0.0000000000000000
  0
INSERT
  5
8B
100
AcDbEntity
  8
MAIN0
  6
BYBLOCK
 62
0
100
AcDbBlockReference
  2
_OPEN
 10
50.79322737057561
 20
212.7110296230058
 30
0.0000000000000000
 41
2.000000000000000
 42
2.000000000000000
 43
2.000000000000000
 50
180.0000000000000
  0
INSERT
  5
8C
100
AcDbEntity
  8
MAIN0
  6
BYBLOCK
 62
0
100
AcDbBlockReference
  2
_OPEN
 10
125.1932273705755
 20
212.7110296230058
 30
0.0000000000000000
 41
2.000000000000000
 42
2.000000000000000
 43
2.000000000000000
 50
0.0000000000000000
  0
LINE
  5
8D
100
AcDbEntity
  8
MAIN0
  6
BYBLOCK
 62
0
370
    -2
100
AcDbLine
 10
125.1932273705755
 20
190.9052928962216
 30
0.0000000000000000
 11
125.1932273705755
 21
214.7110296230058
 31
0.0000000000000000
  0
MTEXT
  5
8E
100
AcDbEntity
  8
MAIN0
  6
BYBLOCK
 62
0
100
AcDbMText
 10
87.99322737057554
 20
214.7610295753221
 30
0.0000000000000000
 40
3.099999904632568
 41
0.0000000000000000
 44
0.7741935722041460
 71
     5
 72
     1
  1
\A1;74.4
 11
1.000000000000000
 21
0.0000000000000000
 31
0.0000000000000000
  7
STANDARD
  0
ENDBLK
  5
8F
100
AcDbEntity
  8
MAIN0
  6
CONTINUOUS
 62
3
100
AcDbBlockEnd
  0
BLOCK
  5
91
100
AcDbEntity
  8
MAIN0
  6
CONTINUOUS
 62
3
100
AcDbBlockBegin
  2
*D8
 70
    65
 10
0.0
 20
0.0
 30
0.0
  0
LINE
  5
92
100
AcDbEntity
  8
MAIN0
  6
BYBLOCK
 62
0
370
    -2
100
AcDbLine
 10
125.7932273824964
 20
174.5052928843007
 30
0.0000000000000000
 11
147.2418385817074
 21
174.5052928843007
 31
0.0000000000000000
  0
LINE
  5
93
100
AcDbEntity
  8
MAIN0
  6
BYBLOCK
 62
0
370
    -2
100
AcDbLine
 10
145.2418385817074
 20
176.5052928843007
 30
0.0000000000000000
 11
145.2418385817074
 21
188.5052928843007
 31
0.0000000000000000
  0
INSERT
  5
94
100
AcDbEntity
  8
MAIN0
  6
BYBLOCK
 62
0
100
AcDbBlockReference
  2
_OPEN
 10
145.2418385817074
 20
174.5052928843007
 30
0.0000000000000000
 41
2.000000000000000
 42
2.000000000000000
 43
2.000000000000000
 50
270.0000000000000
  0
INSERT
  5
95
100
AcDbEntity
  8
MAIN0
  6
BYBLOCK
 62
0
100
AcDbBlockReference
  2
_OPEN
 10
145.2418385817074
 20
190.5052928843007
 30
0.0000000000000000
 41
2.000000000000000
 42
2.000000000000000
 43
2.000000000000000
 50
90.00000000000000
  0
LINE
  5
96
100
AcDbEntity
  8
MAIN0
  6
BYBLOCK
 62
0
370
    -2
100
AcDbLine
 10
125.5932273824965
 20
190.5052928843007
 30
0.0000000000000000
 11
147.2418385817074
 21
190.5052928843007
 31
0.0000000000000000
  0
MTEXT
  5
97
100
AcDbEntity
  8
MAIN0
  6
BYBLOCK
 62
0
100
AcDbMText
 10
143.1918386293912
 20
182.5052928843007
 30
0.0000000000000000
 40
3.099999904632568
 41
0.0000000000000000
 44
0.7741935722041460
 71
     5
 72
     1
  1
\A1;16
 11
6.123233995736766e-017
 21
1.000000000000000
 31
0.0000000000000000
  7
STANDARD
  0
ENDBLK
  5
98
100
AcDbEntity
  8
MAIN0
  6
CONTINUOUS
 62
3
100
AcDbBlockEnd
  0
BLOCK
  5
9A
100
AcDbEntity
  8
MAIN0
  6
CONTINUOUS
 62
3
100
AcDbBlockBegin
  2
*D9
 70
    65
 10
0.0
 20
0.0
 30
0.0
  0
LINE
  5
9B
100
AcDbEntity
  8
MAIN0
  6
BYBLOCK
 62
0
370
    -2
100
AcDbLine
 10
107.2432273705754
 20
174.1052928723798
 30
0.0000000000000000
 11
107.2432273705754
 21
163.4135241215141
 31
0.0000000000000000
  0
LINE
  5
9C
100
AcDbEntity
  8
MAIN0
  6
BYBLOCK
 62
0
370
    -2
100
AcDbLine
 10
107.2432273705754
 20
165.4135241215141
 30
0.0000000000000000
 11
112.7432273705754
 21
165.4135241215141
 31
0.0000000000000000
  0
INSERT
  5
9D
100
AcDbEntity
  8
MAIN0
  6
BYBLOCK
 62
0
100
AcDbBlockReference
  2
_OPEN
 10
107.2432273705754
 20
165.4135241215141
 30
0.0000000000000000
 41
2.000000000000000
 42
2.000000000000000
 43
2.000000000000000
 50
0.0000000000000000
  0
INSERT
  5
9E
100
AcDbEntity
  8
MAIN0
  6
BYBLOCK
 62
0
100
AcDbBlockReference
  2
_OPEN
 10
112.7432273705754
 20
165.4135241215141
 30
0.0000000000000000
 41
2.000000000000000
 42
2.000000000000000
 43
2.000000000000000
 50
180.0000000000000
  0
LINE
  5
9F
100
AcDbEntity
  8
MAIN0
  6
BYBLOCK
 62
0
370
    -2
100
AcDbLine
 10
105.2432273705754
 20
165.4135241215141
 30
0.0000000000000000
 11
104.2432273705754
 21
165.4135241215141
 31
0.0000000000000000
  0
LINE
  5
A0
100
AcDbEntity
  8
MAIN0
  6
BYBLOCK
 62
0
370
    -2
100
AcDbLine
 10
114.7432273705754
 20
165.4135241215141
 30
0.0000000000000000
 11
115.7432273705754
 21
165.4135241215141
 31
0.0000000000000000
  0
LINE
  5
A1
100
AcDbEntity
  8
MAIN0
  6
BYBLOCK
 62
0
370
    -2
100
AcDbLine
 10
112.7432273705754
 20
174.1052928723798
 30
0.0000000000000000
 11
112.7432273705754
 21
163.4135241215141
 31
0.0000000000000000
  0
MTEXT
  5
A2
100
AcDbEntity
  8
MAIN0
  6
BYBLOCK
 62
0
100
AcDbMText
 10
109.9932273705754
 20
167.4635240738304
 30
0.0000000000000000
 40
3.099999904632568
 41
0.0000000000000000
 44
0.7741935722041460
 71
     5
 72
     1
  1
\A1;5.5
 11
1.000000000000000
 21
0.0000000000000000
 31
0.0000000000000000
  7
STANDARD
  0
ENDBLK
  5
A3
100
AcDbEntity
  8
MAIN0
  6
CONTINUOUS
 62
3
100
AcDbBlockEnd
  0
BLOCK
  5
11B
100
AcDbEntity
  8
WAKU0
  6
BYBLOCK
 62
2
100
AcDbBlockBegin
  2
M0
 70
    64
 10
0.0
 20
0.0
 30
0.0
  0
LINE
  5
11C
100
AcDbEntity
  8
WAKU0
  6
BYBLOCK
 62
0
370
    -2
100
AcDbLine
 10
20.00000000000003
 20
12.00000000000001
 30
0.0000000000000000
 11
200.0000000000000
 21
12.00000000000000
 31
0.0000000000000000
  0
LINE
  5
11D
100
AcDbEntity
  8
WAKU0
  6
BYBLOCK
 62
0
370
    -2
100
AcDbLine
 10
20.00000000000011
 20
286.9999999999964
 30
0.0000000000000000
 11
200.0000000000000
 21
286.9999999999964
 31
0.0000000000000000
  0
LINE
  5
11E
100
AcDbEntity
  8
WAKU0
  6
BYBLOCK
 62
0
370
    -2
100
AcDbLine
 10
20.00000000000003
 20
12.00000000000001
 30
0.0000000000000000
 11
20.00000000000011
 21
286.9999999999964
 31
0.0000000000000000
  0
LINE
  5
11F
100
AcDbEntity
  8
WAKU0
  6
BYBLOCK
 62
0
370
    -2
100
AcDbLine
 10
200.0000000000000
 20
12.00000000000000
 30
0.0000000000000000
 11
200.0000000000000
 21
286.9999999999964
 31
0.0000000000000000
  0
LINE
  5
120
100
AcDbEntity
  8
WAKU0
  6
BYBLOCK
 62
0
370
    -2
100
AcDbLine
 10
5.684341886080802e-014
 20
148.5000000000000
 30
0.0000000000000000
 11
20.00000000000011
 21
148.4999999999999
 31
0.0000000000000000
  0
LINE
  5
121
100
AcDbEntity
  8
WAKU0
  6
BYBLOCK
 62
0
370
    -2
100
AcDbLine
 10
200.0000000000000
 20
148.4999999999999
 30
0.0000000000000000
 11
210.0000000000000
 21
148.4999999999998
 31
0.0000000000000000
  0
LINE
  5
122
100
AcDbEntity
  8
WAKU0
  6
BYBLOCK
 62
0
370
    -2
100
AcDbLine
 10
105.0000000000000
 20
-1.776356839400251e-015
 30
0.0000000000000000
 11
105.0000000000000
 21
12.00000000000002
 31
0.0000000000000000
  0
LINE
  5
123
100
AcDbEntity
  8
WAKU0
  6
BYBLOCK
 62
0
370
    -2
100
AcDbLine
 10
105.0000000000002
 20
286.9999999999966
 30
0.0000000000000000
 11
105.0000000000002
 21
296.9999999999966
 31
0.0000000000000000
  0
LINE
  5
124
100
AcDbEntity
  8
WAKU0
  6
BYBLOCK
 62
0
370
    -2
100
AcDbLine
 10
15.00000000000009
 20
198.4999999999999
 30
0.0000000000000000
 11
15.00000000000006
 21
98.49999999999994
 31
0.0000000000000000
  0
LINE
  5
125
100
AcDbEntity
  8
WAKU0
  6
BYBLOCK
 62
0
370
    -2
100
AcDbLine
 10
15.00000000000006
 20
158.5000000000000
 30
0.0000000000000000
 11
18.00000000000006
 21
158.5000000000000
 31
0.0000000000000000
  0
LINE
  5
126
100
AcDbEntity
  8
WAKU0
  6
BYBLOCK
 62
0
370
    -2
100
AcDbLine
 10
15.00000000000009
 20
168.5000000000000
 30
0.0000000000000000
 11
18.00000000000009
 21
168.5000000000000
 31
0.0000000000000000
  0
LINE
  5
127
100
AcDbEntity
  8
WAKU0
  6
BYBLOCK
 62
0
370
    -2
100
AcDbLine
 10
15.00000000000009
 20
178.5000000000000
 30
0.0000000000000000
 11
18.00000000000009
 21
178.5000000000000
 31
0.0000000000000000
  0
LINE
  5
128
100
AcDbEntity
  8
WAKU0
  6
BYBLOCK
 62
0
370
    -2
100
AcDbLine
 10
15.00000000000006
 20
188.5000000000000
 30
0.0000000000000000
 11
18.00000000000006
 21
188.5000000000000
 31
0.0000000000000000
  0
LINE
  5
129
100
AcDbEntity
  8
WAKU0
  6
BYBLOCK
 62
0
370
    -2
100
AcDbLine
 10
15.00000000000006
 20
198.5000000000000
 30
0.0000000000000000
 11
20.00000000000006
 21
198.5000000000000
 31
0.0000000000000000
  0
LINE
  5
12A
100
AcDbEntity
  8
WAKU0
  6
BYBLOCK
 62
0
370
    -2
100
AcDbLine
 10
15.00000000000006
 20
138.4999999999999
 30
0.0000000000000000
 11
18.00000000000006
 21
138.4999999999999
 31
0.0000000000000000
  0
LINE
  5
12B
100
AcDbEntity
  8
WAKU0
  6
BYBLOCK
 62
0
370
    -2
100
AcDbLine
 10
15.00000000000009
 20
128.4999999999999
 30
0.0000000000000000
 11
18.00000000000009
 21
128.4999999999999
 31
0.0000000000000000
  0
LINE
  5
12C
100
AcDbEntity
  8
WAKU0
  6
BYBLOCK
 62
0
370
    -2
100
AcDbLine
 10
15.00000000000006
 20
118.4999999999999
 30
0.0000000000000000
 11
18.00000000000006
 21
118.4999999999999
 31
0.0000000000000000
  0
LINE
  5
12D
100
AcDbEntity
  8
WAKU0
  6
BYBLOCK
 62
0
370
    -2
100
AcDbLine
 10
15.00000000000006
 20
108.4999999999999
 30
0.0000000000000000
 11
18.00000000000006
 21
108.4999999999999
 31
0.0000000000000000
  0
LINE
  5
12E
100
AcDbEntity
  8
WAKU0
  6
BYBLOCK
 62
0
370
    -2
100
AcDbLine
 10
15.00000000000006
 20
98.49999999999994
 30
0.0000000000000000
 11
20.00000000000000
 21
98.49999999999994
 31
0.0000000000000000
  0
LINE
  5
12F
100
AcDbEntity
  8
WAKU0
  6
BYBLOCK
 62
0
370
    -2
100
AcDbLine
 10
55.00000000000014
 20
290.9999999999967
 30
0.0000000000000000
 11
55.00000000000014
 21
286.9999999999967
 31
0.0000000000000000
  0
LINE
  5
130
100
AcDbEntity
  8
WAKU0
  6
BYBLOCK
 62
0
370
    -2
100
AcDbLine
 10
155.0000000000001
 20
290.9999999999964
 30
0.0000000000000000
 11
155.0000000000001
 21
286.9999999999964
 31
0.0000000000000000
  0
LINE
  5
131
100
AcDbEntity
  8
WAKU0
  6
BYBLOCK
 62
0
370
    -2
100
AcDbLine
 10
155.0000000000001
 20
12.00000000000005
 30
0.0000000000000000
 11
155.0000000000001
 21
8.000000000000043
 31
0.0000000000000000
  0
LINE
  5
132
100
AcDbEntity
  8
WAKU0
  6
BYBLOCK
 62
0
370
    -2
100
AcDbLine
 10
55.00000000000003
 20
12.00000000000005
 30
0.0000000000000000
 11
55.00000000000003
 21
8.000000000000036
 31
0.0000000000000000
  0
LINE
  5
133
100
AcDbEntity
  8
WAKU0
  6
BYBLOCK
 62
0
370
    -2
100
AcDbLine
 10
200.0000000000000
 20
48.49999999999989
 30
0.0000000000000000
 11
204.0000000000000
 21
48.49999999999989
 31
0.0000000000000000
  0
LINE
  5
134
100
AcDbEntity
  8
WAKU0
  6
BYBLOCK
 62
0
370
    -2
100
AcDbLine
 10
200.0000000000000
 20
98.49999999999994
 30
0.0000000000000000
 11
204.0000000000000
 21
98.49999999999994
 31
0.0000000000000000
  0
LINE
  5
135
100
AcDbEntity
  8
WAKU0
  6
BYBLOCK
 62
0
370
    -2
100
AcDbLine
 10
200.0000000000000
 20
198.5000000000000
 30
0.0000000000000000
 11
204.0000000000000
 21
198.5000000000000
 31
0.0000000000000000
  0
LINE
  5
136
100
AcDbEntity
  8
WAKU0
  6
BYBLOCK
 62
0
370
    -2
100
AcDbLine
 10
200.0000000000000
 20
248.4999999999999
 30
0.0000000000000000
 11
204.0000000000000
 21
248.4999999999999
 31
0.0000000000000000
  0
LINE
  5
137
100
AcDbEntity
  8
WAKU0
  6
BYBLOCK
 62
0
370
    -2
100
AcDbLine
 10
16.00000000000003
 20
48.64719414747356
 30
0.0000000000000000
 11
20.00000000000003
 21
48.64719414747356
 31
0.0000000000000000
  0
LINE
  5
138
100
AcDbEntity
  8
WAKU0
  6
BYBLOCK
 62
0
370
    -2
100
AcDbLine
 10
20.00000000000009
 20
248.5751737895411
 30
0.0000000000000000
 11
16.00000000000011
 21
248.5751737895411
 31
0.0000000000000000
  0
LINE
  5
139
100
AcDbEntity
  8
WAKU0
  6
BYBLOCK
 62
0
370
    -2
100
AcDbLine
 10
208.0000000000001
 20
1.999999997774465
 30
0.0000000000000000
 11
208.0000000000001
 21
6.999999999999984
 31
0.0000000000000000
  0
LINE
  5
13A
100
AcDbEntity
  8
WAKU0
  6
BYBLOCK
 62
0
370
    -2
100
AcDbLine
 10
208.0000000000001
 20
289.9999999999964
 30
0.0000000000000000
 11
208.0000000000001
 21
294.9999999999964
 31
0.0000000000000000
  0
LINE
  5
13B
100
AcDbEntity
  8
WAKU0
  6
BYBLOCK
 62
0
370
    -2
100
AcDbLine
 10
2.000000000000028
 20
2.000000000000025
 30
0.0000000000000000
 11
2.000000000000028
 21
7.000000000000007
 31
0.0000000000000000
  0
LINE
  5
13C
100
AcDbEntity
  8
WAKU0
  6
BYBLOCK
 62
0
370
    -2
100
AcDbLine
 10
2.000000000000142
 20
289.9999999999965
 30
0.0000000000000000
 11
2.000000000000142
 21
294.9999999999965
 31
0.0000000000000000
  0
LINE
  5
13D
100
AcDbEntity
  8
WAKU0
  6
BYBLOCK
 62
0
370
    -2
100
AcDbLine
 10
2.000000000000028
 20
2.000000000000027
 30
0.0000000000000000
 11
7.000000000000028
 21
2.000000000000025
 31
0.0000000000000000
  0
LINE
  5
13E
100
AcDbEntity
  8
WAKU0
  6
BYBLOCK
 62
0
370
    -2
100
AcDbLine
 10
203.0000000000000
 20
2.000000000000002
 30
0.0000000000000000
 11
208.0000000000001
 21
2.000000000000002
 31
0.0000000000000000
  0
LINE
  5
13F
100
AcDbEntity
  8
WAKU0
  6
BYBLOCK
 62
0
370
    -2
100
AcDbLine
 10
2.000000000000114
 20
294.9999999999986
 30
0.0000000000000000
 11
7.000000000000114
 21
294.9999999999986
 31
0.0000000000000000
  0
LINE
  5
140
100
AcDbEntity
  8
WAKU0
  6
BYBLOCK
 62
0
370
    -2
100
AcDbLine
 10
203.0000000000001
 20
294.9999999999964
 30
0.0000000000000000
 11
208.0000000000001
 21
294.9999999999965
 31
0.0000000000000000
  0
MTEXT
  5
141
100
AcDbEntity
  8
WAKU0
  6
BYBLOCK
 62
0
370
    -2
100
AcDbMText
 10
38.00000000000011
 20
292.6000003814661
 30
0.0000000000000000
 40
3.100000381469727
 41
0.0000000000000000
 44
0.6719999870792528
 71
     1
 72
     1
  1
{\H0.81x;1}
 11
1.000000000000000
 21
0.0000000000000000
 31
0.0000000000000000
  7
STANDARD
  0
MTEXT
  5
142
100
AcDbEntity
  8
WAKU0
  6
BYBLOCK
 62
0
370
    -2
100
AcDbMText
 10
78.00000000000011
 20
292.6000003814661
 30
0.0000000000000000
 40
3.100000381469727
 41
0.0000000000000000
 44
0.6719999870792528
 71
     1
 72
     1
  1
{\H0.81x;2}
 11
1.000000000000000
 21
0.0000000000000000
 31
0.0000000000000000
  7
STANDARD
  0
MTEXT
  5
143
100
AcDbEntity
  8
WAKU0
  6
BYBLOCK
 62
0
370
    -2
100
AcDbMText
 10
132.0000000000002
 20
292.6000003814661
 30
0.0000000000000000
 40
3.100000381469727
 41
0.0000000000000000
 44
0.6719999870792528
 71
     1
 72
     1
  1
{\H0.81x;3}
 11
1.000000000000000
 21
0.0000000000000000
 31
0.0000000000000000
  7
STANDARD
  0
MTEXT
  5
144
100
AcDbEntity
  8
WAKU0
  6
BYBLOCK
 62
0
370
    -2
100
AcDbMText
 10
177.0000000000002
 20
292.6000003814661
 30
0.0000000000000000
 40
3.100000381469727
 41
0.0000000000000000
 44
0.6719999870792528
 71
     1
 72
     1
  1
{\H0.81x;4}
 11
1.000000000000000
 21
0.0000000000000000
 31
0.0000000000000000
  7
STANDARD
  0
MTEXT
  5
145
100
AcDbEntity
  8
WAKU0
  6
BYBLOCK
 62
0
370
    -2
100
AcDbMText
 10
38.00000000000003
 20
11.10000038146978
 30
0.0000000000000000
 40
3.100000381469727
 41
0.0000000000000000
 44
0.6719999870792528
 71
     1
 72
     1
  1
{\H0.81x;1}
 11
1.000000000000000
 21
0.0000000000000000
 31
0.0000000000000000
  7
STANDARD
  0
MTEXT
  5
146
100
AcDbEntity
  8
WAKU0
  6
BYBLOCK
 62
0
370
    -2
100
AcDbMText
 10
78.00000000000006
 20
11.10000038146978
 30
0.0000000000000000
 40
3.100000381469727
 41
0.0000000000000000
 44
0.6719999870792528
 71
     1
 72
     1
  1
{\H0.81x;2}
 11
1.000000000000000
 21
0.0000000000000000
 31
0.0000000000000000
  7
STANDARD
  0
MTEXT
  5
147
100
AcDbEntity
  8
WAKU0
  6
BYBLOCK
 62
0
370
    -2
100
AcDbMText
 10
132.0000000000002
 20
11.10000038146978
 30
0.0000000000000000
 40
3.100000381469727
 41
0.0000000000000000
 44
0.6719999870792528
 71
     1
 72
     1
  1
{\H0.81x;3}
 11
1.000000000000000
 21
0.0000000000000000
 31
0.0000000000000000
  7
STANDARD
  0
MTEXT
  5
148
100
AcDbEntity
  8
WAKU0
  6
BYBLOCK
 62
0
370
    -2
100
AcDbMText
 10
177.0000000000002
 20
11.10000038146978
 30
0.0000000000000000
 40
3.100000381469727
 41
0.0000000000000000
 44
0.6719999870792528
 71
     1
 72
     1
  1
{\H0.81x;4}
 11
1.000000000000000
 21
0.0000000000000000
 31
0.0000000000000000
  7
STANDARD
  0
MTEXT
  5
149
100
AcDbEntity
  8
WAKU0
  6
BYBLOCK
 62
0
370
    -2
100
AcDbMText
 10
17.00000000000020
 20
270.1848127115200
 30
0.0000000000000000
 40
3.100000381469727
 41
0.0000000000000000
 44
0.6719999870792528
 71
     1
 72
     1
  1
{\H0.81x;A}
 11
1.000000000000000
 21
0.0000000000000000
 31
0.0000000000000000
  7
STANDARD
  0
MTEXT
  5
14A
100
AcDbEntity
  8
WAKU0
  6
BYBLOCK
 62
0
370
    -2
100
AcDbMText
 10
17.00000000000017
 20
223.6733871632249
 30
0.0000000000000000
 40
3.100000381469727
 41
0.0000000000000000
 44
0.6719999870792528
 71
     1
 72
     1
  1
{\H0.81x;B}
 11
1.000000000000000
 21
0.0000000000000000
 31
0.0000000000000000
  7
STANDARD
  0
MTEXT
  5
14B
100
AcDbEntity
  8
WAKU0
  6
BYBLOCK
 62
0
370
    -2
100
AcDbMText
 10
17.00000000000006
 20
74.64696205106282
 30
0.0000000000000000
 40
3.100000381469727
 41
0.0000000000000000
 44
0.6719999870792528
 71
     1
 72
     1
  1
{\H0.81x;E}
 11
1.000000000000000
 21
0.0000000000000000
 31
0.0000000000000000
  7
STANDARD
  0
MTEXT
  5
14C
100
AcDbEntity
  8
WAKU0
  6
BYBLOCK
 62
0
370
    -2
100
AcDbMText
 10
17.00000000000003
 20
30.86450673573875
 30
0.0000000000000000
 40
3.100000381469727
 41
0.0000000000000000
 44
0.6719999870792528
 71
     1
 72
     1
  1
{\H0.81x;F}
 11
1.000000000000000
 21
0.0000000000000000
 31
0.0000000000000000
  7
STANDARD
  0
MTEXT
  5
14D
100
AcDbEntity
  8
WAKU0
  6
BYBLOCK
 62
0
370
    -2
100
AcDbMText
 10
202.0000000000001
 20
270.1848127115199
 30
0.0000000000000000
 40
3.100000381469727
 41
0.0000000000000000
 44
0.6719999870792528
 71
     1
 72
     1
  1
{\H0.81x;A}
 11
1.000000000000000
 21
0.0000000000000000
 31
0.0000000000000000
  7
STANDARD
  0
MTEXT
  5
14E
100
AcDbEntity
  8
WAKU0
  6
BYBLOCK
 62
0
370
    -2
100
AcDbMText
 10
202.0000000000001
 20
223.6733871632249
 30
0.0000000000000000
 40
3.100000381469727
 41
0.0000000000000000
 44
0.6719999870792528
 71
     1
 72
     1
  1
{\H0.81x;B}
 11
1.000000000000000
 21
0.0000000000000000
 31
0.0000000000000000
  7
STANDARD
  0
MTEXT
  5
14F
100
AcDbEntity
  8
WAKU0
  6
BYBLOCK
 62
0
370
    -2
100
AcDbMText
 10
201.9999999999999
 20
74.64696205106270
 30
0.0000000000000000
 40
3.100000381469727
 41
0.0000000000000000
 44
0.6719999870792528
 71
     1
 72
     1
  1
{\H0.81x;E}
 11
1.000000000000000
 21
0.0000000000000000
 31
0.0000000000000000
  7
STANDARD
  0
MTEXT
  5
150
100
AcDbEntity
  8
WAKU0
  6
BYBLOCK
 62
0
370
    -2
100
AcDbMText
 10
201.9999999999999
 20
30.86450673573869
 30
0.0000000000000000
 40
3.100000381469727
 41
0.0000000000000000
 44
0.6719999870792528
 71
     1
 72
     1
  1
{\H0.81x;F}
 11
1.000000000000000
 21
0.0000000000000000
 31
0.0000000000000000
  7
STANDARD
  0
MTEXT
  5
151
100
AcDbEntity
  8
WAKU0
  6
BYBLOCK
 62
0
370
    -2
100
AcDbMText
 10
202.0000000000001
 20
174.5516074369648
 30
0.0000000000000000
 40
3.100000381469727
 41
0.0000000000000000
 44
0.6719999870792528
 71
     1
 72
     1
  1
{\H0.81x;C}
 11
1.000000000000000
 21
0.0000000000000000
 31
0.0000000000000000
  7
STANDARD
  0
MTEXT
  5
152
100
AcDbEntity
  8
WAKU0
  6
BYBLOCK
 62
0
370
    -2
100
AcDbMText
 10
202.0000000000001
 20
124.9552421319181
 30
0.0000000000000000
 40
3.100000381469727
 41
0.0000000000000000
 44
0.6719999870792528
 71
     1
 72
     1
  1
{\H0.81x;D}
 11
1.000000000000000
 21
0.0000000000000000
 31
0.0000000000000000
  7
STANDARD
  0
ENDBLK
  5
153
100
AcDbEntity
  8
WAKU0
  6
BYBLOCK
 62
2
100
AcDbBlockEnd
  0
ENDSEC
  0
SECTION
  2
ENTITIES
  0
DIMENSION
  5
50
100
AcDbEntity
  8
MAIN0
  6
CONTINUOUS
 62
3
100
AcDbDimension
  2
*D0
 10
145.2418385817074
 20
117.1964871736312
 30
0.0000000000000000
 11
144.7418385817074
 21
120.1964871736312
 31
0.0000000000000000
 70
32
 71
5
 42
6.000000
  3
MAIN001
100
AcDbAlignedDimension
 13
124.7932273709005
 23
123.1964871736312
 33
0.0000000000000000
 14
124.7932273709004
 24
117.1964871736312
 34
0.0000000000000000
 50
90.00000000000000
100
AcDbRotatedDimension
1001
ACAD
1000
DSTYLE
1002
{
1070
   173
1070
     1
1070
     6
1000
_OPEN
1070
     7
1000
_OPEN
1070
    41
1040
2.000000
1070
   289
1070
     0
1002
}
  0
DIMENSION
  5
5B
100
AcDbEntity
  8
MAIN0
  6
CONTINUOUS
 62
3
100
AcDbDimension
  2
*D1
 10
133.4482938881104
 20
174.5052928843007
 30
0.0000000000000000
 11
132.9482938881104
 21
177.1462259987998
 31
0.0000000000000000
 70
160
 71
5
 42
5.000000
  3
MAIN001
100
AcDbAlignedDimension
 13
116.4932273705754
 23
179.5052928843007
 33
0.0000000000000000
 14
124.7932273705754
 24
174.5052928843007
 34
0.0000000000000000
 50
90.00000000000000
100
AcDbRotatedDimension
1001
ACAD
1000
DSTYLE
1002
{
1070
   173
1070
     1
1070
     6
1000
_OPEN
1070
     7
1000
_OPEN
1070
    41
1040
2.000000
1070
   289
1070
     0
1002
}
  0
DIMENSION
  5
62
100
AcDbEntity
  8
MAIN0
  6
CONTINUOUS
 62
3
100
AcDbDimension
  2
*D2
 10
109.9932273705754
 20
179.5052928843006
 30
0.0000000000000000
 11
119.9043053039054
 21
196.2171894391376
 31
0.0000000000000000
 70
164
 71
5
  1
\A1;(R)
 42
2.750000
  3
MAIN001
100
AcDbRadialDimension
 15
111.4563976385786
 25
181.8337328699631
 35
0.0000000000000000
1001
ACAD
1000
DSTYLE
1002
{
1070
   173
1070
     1
1070
     6
1000
_OPEN
1070
     7
1000
_OPEN
1070
    41
1040
2.000000
1002
}
  0
DIMENSION
  5
69
100
AcDbEntity
  8
MAIN0
  6
CONTINUOUS
 62
3
100
AcDbDimension
  2
*D3
 10
109.9932273705754
 20
179.5052928843007
 30
0.0000000000000000
 11
100.7581000426596
 21
194.8509992339760
 31
0.0000000000000000
 70
164
 71
5
  1
\A1;(R)
 42
4.500000
  3
MAIN001
100
AcDbRadialDimension
 15
107.5661470929742
 25
183.2946571220165
 35
0.0000000000000000
1001
ACAD
1000
DSTYLE
1002
{
1070
   173
1070
     1
1070
     6
1000
_OPEN
1070
     7
1000
_OPEN
1070
    41
1040
2.000000
1002
}
  0
DIMENSION
  5
72
100
AcDbEntity
  8
MAIN0
  6
CONTINUOUS
 62
3
100
AcDbDimension
  2
*D4
 10
105.4932273705754
 20
158.2018003079841
 30
0.0000000000000000
 11
109.9932273705754
 21
158.7018003079841
 31
0.0000000000000000
 70
32
 71
5
 42
9.000000
  3
MAIN001
100
AcDbAlignedDimension
 13
114.4932273705754
 23
174.9052928843007
 33
0.0000000000000000
 14
105.4932273705754
 24
174.9052928843007
 34
0.0000000000000000
100
AcDbRotatedDimension
1001
ACAD
1000
DSTYLE
1002
{
1070
   173
1070
     1
1070
     6
1000
_OPEN
1070
     7
1000
_OPEN
1070
    41
1040
2.000000
1002
}
  0
DIMENSION
  5
7B
100
AcDbEntity
  8
MAIN0
  6
CONTINUOUS
 62
3
100
AcDbDimension
  2
*D5
 10
65.99322737057554
 20
204.2414586825984
 30
0.0000000000000000
 11
87.99322737057548
 21
204.7414586825984
 31
0.0000000000000000
 70
32
 71
5
 42
44.000000
  3
MAIN001
100
AcDbAlignedDimension
 13
109.9932273705754
 23
186.0052928843007
 33
0.0000000000000000
 14
65.99322737057554
 24
186.0052928843007
 34
0.0000000000000000
100
AcDbRotatedDimension
1001
ACAD
1000
DSTYLE
1002
{
1070
   173
1070
     1
1070
     6
1000
_OPEN
1070
     7
1000
_OPEN
1070
    41
1040
2.000000
1002
}
  0
DIMENSION
  5
86
100
AcDbEntity
  8
MAIN0
  6
CONTINUOUS
 62
3
100
AcDbDimension
  2
*D6
 10
133.4482938881104
 20
119.1964871736312
 30
0.0000000000000000
 11
132.9482938881104
 21
121.1964871736312
 31
0.0000000000000000
 70
32
 71
5
 42
4.000000
  3
MAIN001
100
AcDbAlignedDimension
 13
124.7932273709005
 23
123.1964871736312
 33
0.0000000000000000
 14
114.4932273709006
 24
119.1964871736312
 34
0.0000000000000000
 50
90.00000000000000
100
AcDbRotatedDimension
1001
ACAD
1000
DSTYLE
1002
{
1070
   173
1070
     1
1070
     6
1000
_OPEN
1070
     7
1000
_OPEN
1070
    41
1040
2.000000
1070
   289
1070
     0
1002
}
  0
MTEXT
  5
87
100
AcDbEntity
  8
MAIN0
  6
CONTINUOUS
 62
3
100
AcDbMText
 10
143.8993744271689
 20
-2.672922674437920
 30
0.0000000000000000
 40
5.000000000000000
 41
0.0000000000000000
 44
0.6719999885559082
 71
     1
 72
     1
  1
{\H0.93x;{DHP-61M492220}}
 11
1.000000000000000
 21
0.0000000000000000
 31
0.0000000000000000
  7
STANDARD
  0
DIMENSION
  5
90
100
AcDbEntity
  8
MAIN0
  6
CONTINUOUS
 62
3
100
AcDbDimension
  2
*D7
 10
50.79322737057561
 20
212.7110296230058
 30
0.0000000000000000
 11
87.99322737057554
 21
213.2110296230058
 31
0.0000000000000000
 70
32
 71
5
 42
74.400000
  3
MAIN001
100
AcDbAlignedDimension
 13
125.1932273705755
 23
190.1052928843007
 33
0.0000000000000000
 14
50.79322737057561
 24
190.1052928843006
 34
0.0000000000000000
100
AcDbRotatedDimension
1001
ACAD
1000
DSTYLE
1002
{
1070
   173
1070
     1
1070
     6
1000
_OPEN
1070
     7
1000
_OPEN
1070
    41
1040
2.000000
1002
}
  0
DIMENSION
  5
99
100
AcDbEntity
  8
MAIN0
  6
CONTINUOUS
 62
3
100
AcDbDimension
  2
*D8
 10
145.2418385817074
 20
174.5052928843007
 30
0.0000000000000000
 11
144.7418385817074
 21
182.5052928843007
 31
0.0000000000000000
 70
32
 71
5
 42
16.000000
  3
MAIN001
100
AcDbAlignedDimension
 13
124.7932273705756
 23
190.5052928843007
 33
0.0000000000000000
 14
124.9932273705754
 24
174.5052928843007
 34
0.0000000000000000
 50
90.00000000000000
100
AcDbRotatedDimension
1001
ACAD
1000
DSTYLE
1002
{
1070
   173
1070
     1
1070
     6
1000
_OPEN
1070
     7
1000
_OPEN
1070
    41
1040
2.000000
1002
}
  0
DIMENSION
  5
A4
100
AcDbEntity
  8
MAIN0
  6
CONTINUOUS
 62
3
100
AcDbDimension
  2
*D9
 10
107.2432273705754
 20
165.4135241215141
 30
0.0000000000000000
 11
109.9932273705754
 21
165.9135241215141
 31
0.0000000000000000
 70
32
 71
5
 42
5.500000
  3
MAIN001
100
AcDbAlignedDimension
 13
112.7432273705754
 23
174.9052928843007
 33
0.0000000000000000
 14
107.2432273705754
 24
174.9052928843007
 34
0.0000000000000000
100
AcDbRotatedDimension
1001
ACAD
1000
DSTYLE
1002
{
1070
   173
1070
     1
1070
     6
1000
_OPEN
1070
     7
1000
_OPEN
1070
    41
1040
2.000000
1070
   289
1070
     0
1002
}
  0
LINE
  5
A5
100
AcDbEntity
  8
MAIN1
  6
CONTINUOUS
 62
7
100
AcDbLine
 10
51.19322737090056
 20
117.1964871736312
 30
0.0000000000000000
 11
124.7932273709004
 21
117.1964871736312
 31
0.0000000000000000
  0
LINE
  5
A6
100
AcDbEntity
  8
MAIN1
  6
CONTINUOUS
 62
7
100
AcDbLine
 10
125.1932273709004
 20
117.5964871736312
 30
0.0000000000000000
 11
125.1932273709004
 21
122.7964871736312
 31
0.0000000000000000
  0
LINE
  5
A7
100
AcDbEntity
  8
MAIN1
  6
CONTINUOUS
 62
7
100
AcDbLine
 10
112.7432273709005
 20
118.7964871736312
 30
0.0000000000000000
 11
112.7432273709005
 21
117.5964871736312
 31
0.0000000000000000
  0
LINE
  5
A8
100
AcDbEntity
  8
MAIN1
  6
CONTINUOUS
 62
7
100
AcDbLine
 10
50.79322737090058
 20
117.5964871736312
 30
0.0000000000000000
 11
50.79322737090058
 21
122.7964871736312
 31
0.0000000000000000
  0
LINE
  5
A9
100
AcDbEntity
  8
MAIN1
  6
CONTINUOUS
 62
7
100
AcDbLine
 10
68.74322737090051
 20
117.5964871736312
 30
0.0000000000000000
 11
68.74322737090051
 21
118.7964871736312
 31
0.0000000000000000
  0
LINE
  5
AA
100
AcDbEntity
  8
MAIN1
  6
CONTINUOUS
 62
7
100
AcDbLine
 10
63.24322737090051
 20
118.7964871736312
 30
0.0000000000000000
 11
63.24322737090051
 21
117.5964871736312
 31
0.0000000000000000
  0
LINE
  5
AB
100
AcDbEntity
  8
MAIN1
  6
CONTINUOUS
 62
7
100
AcDbLine
 10
107.2432273709005
 20
117.5964871736312
 30
0.0000000000000000
 11
107.2432273709005
 21
118.7964871736312
 31
0.0000000000000000
  0
LINE
  5
AC
100
AcDbEntity
  8
MAIN1
  6
CONTINUOUS
 62
7
100
AcDbLine
 10
107.0432273709006
 20
119.1964871736312
 30
0.0000000000000000
 11
105.4932273709005
 21
119.1964871736312
 31
0.0000000000000000
  0
LINE
  5
AD
100
AcDbEntity
  8
MAIN1
  6
CONTINUOUS
 62
7
100
AcDbLine
 10
61.49322737090051
 20
122.7964871736312
 30
0.0000000000000000
 11
61.49322737090051
 21
119.1964871736312
 31
0.0000000000000000
  0
LINE
  5
AE
100
AcDbEntity
  8
MAIN1
  6
CONTINUOUS
 62
7
100
AcDbLine
 10
114.4932273709005
 20
122.7964871736312
 30
0.0000000000000000
 11
114.4932273709005
 21
119.1964871736312
 31
0.0000000000000000
  0
LINE
  5
AF
100
AcDbEntity
  8
MAIN1
  6
CONTINUOUS
 62
7
100
AcDbLine
 10
70.49322737090051
 20
119.1964871736312
 30
0.0000000000000000
 11
70.49322737090051
 21
122.7964871736312
 31
0.0000000000000000
  0
LINE
  5
B0
100
AcDbEntity
  8
MAIN1
  6
CONTINUOUS
 62
7
100
AcDbLine
 10
105.4932273709005
 20
119.1964871736312
 30
0.0000000000000000
 11
105.4932273709005
 21
122.7964871736312
 31
0.0000000000000000
  0
LINE
  5
B1
100
AcDbEntity
  8
MAIN1
  6
CONTINUOUS
 62
7
100
AcDbLine
 10
124.7932273709005
 20
123.1964871736312
 30
0.0000000000000000
 11
87.99322737088755
 21
123.1964871736312
 31
0.0000000000000000
  0
LINE
  5
B2
100
AcDbEntity
  8
MAIN1
  6
CONTINUOUS
 62
7
100
AcDbLine
 10
51.19322737090056
 20
123.1964871736312
 30
0.0000000000000000
 11
87.99322737088710
 21
123.1964871736312
 31
0.0000000000000000
  0
LINE
  5
B3
100
AcDbEntity
  8
MAIN1
  6
CONTINUOUS
 62
7
100
AcDbLine
 10
61.49322737090051
 20
119.1964871736312
 30
0.0000000000000000
 11
70.49322737090051
 21
119.1964871736312
 31
0.0000000000000000
  0
LINE
  5
B4
100
AcDbEntity
  8
MAIN1
  6
CONTINUOUS
 62
7
100
AcDbLine
 10
114.4932273709006
 20
119.1964871736312
 30
0.0000000000000000
 11
105.4932273709005
 21
119.1964871736312
 31
0.0000000000000000
  0
LINE
  5
B5
100
AcDbEntity
  8
MAIN1
  6
CENTER
 62
3
100
AcDbLine
 10
87.99322737091775
 20
112.0858520490996
 30
0.0000000000000000
 11
87.99322737086847
 21
130.0435148274225
 31
0.0000000000000000
  0
LINE
  5
B6
100
AcDbEntity
  8
MAIN0
  6
CENTER
 62
3
100
AcDbLine
 10
65.99322737091777
 20
112.0858520490393
 30
0.0000000000000000
 11
65.99322737087377
 21
128.1225410335157
 31
0.0000000000000000
  0
LINE
  5
B7
100
AcDbEntity
  8
MAIN0
  6
CENTER
 62
3
100
AcDbLine
 10
109.9932273709178
 20
112.0858520491600
 30
0.0000000000000000
 11
109.9932273708738
 21
128.1225410336364
 31
0.0000000000000000
  0
LINE
  5
B8
100
AcDbEntity
  8
MAIN1
  6
CONTINUOUS
 62
7
100
AcDbLine
 10
124.7932273709004
 20
117.1964871736311
 30
0.0000000000000000
 11
125.1932273709004
 21
117.5964871736312
 31
0.0000000000000000
  0
LINE
  5
B9
100
AcDbEntity
  8
MAIN1
  6
CONTINUOUS
 62
7
100
AcDbLine
 10
125.1932273709004
 20
122.7964871736312
 30
0.0000000000000000
 11
124.7932273709005
 21
123.1964871736312
 31
0.0000000000000000
  0
LINE
  5
BA
100
AcDbEntity
  8
MAIN1
  6
CONTINUOUS
 62
7
100
AcDbLine
 10
50.79322737090057
 20
117.5964871736312
 30
0.0000000000000000
 11
51.19322737090057
 21
117.1964871736312
 31
0.0000000000000000
  0
LINE
  5
BB
100
AcDbEntity
  8
MAIN1
  6
CONTINUOUS
 62
7
100
AcDbLine
 10
50.79322737090058
 20
122.7964871736312
 30
0.0000000000000000
 11
51.19322737090054
 21
123.1964871736312
 31
0.0000000000000000
  0
LINE
  5
BC
100
AcDbEntity
  8
MAIN1
  6
CONTINUOUS
 62
7
100
AcDbLine
 10
114.4932273709005
 20
122.7964871736311
 30
0.0000000000000000
 11
114.8932273709005
 21
123.1964871736311
 31
0.0000000000000000
  0
LINE
  5
BD
100
AcDbEntity
  8
MAIN1
  6
CONTINUOUS
 62
7
100
AcDbLine
 10
105.4932273709005
 20
122.7964871736312
 30
0.0000000000000000
 11
105.0932273709005
 21
123.1964871736312
 31
0.0000000000000000
  0
LINE
  5
BE
100
AcDbEntity
  8
MAIN1
  6
CONTINUOUS
 62
7
100
AcDbLine
 10
70.49322737090051
 20
122.7964871736311
 30
0.0000000000000000
 11
70.89322737090049
 21
123.1964871736311
 31
0.0000000000000000
  0
LINE
  5
BF
100
AcDbEntity
  8
MAIN1
  6
CONTINUOUS
 62
7
100
AcDbLine
 10
61.49322737090053
 20
122.7964871736312
 30
0.0000000000000000
 11
61.09322737090052
 21
123.1964871736312
 31
0.0000000000000000
  0
LINE
  5
C0
100
AcDbEntity
  8
MAIN1
  6
CONTINUOUS
 62
7
100
AcDbLine
 10
63.24322737090051
 20
118.7964871736312
 30
0.0000000000000000
 11
62.84322737090051
 21
119.1964871736312
 31
0.0000000000000000
  0
LINE
  5
C1
100
AcDbEntity
  8
MAIN1
  6
CONTINUOUS
 62
7
100
AcDbLine
 10
68.74322737090050
 20
118.7964871736312
 30
0.0000000000000000
 11
69.14322737090049
 21
119.1964871736311
 31
0.0000000000000000
  0
LINE
  5
C2
100
AcDbEntity
  8
MAIN1
  6
CONTINUOUS
 62
7
100
AcDbLine
 10
107.2432273709005
 20
118.7964871736312
 30
0.0000000000000000
 11
106.8432273709005
 21
119.1964871736312
 31
0.0000000000000000
  0
LINE
  5
C3
100
AcDbEntity
  8
MAIN1
  6
CONTINUOUS
 62
7
100
AcDbLine
 10
112.7432273709005
 20
118.7964871736311
 30
0.0000000000000000
 11
113.1432273709005
 21
119.1964871736312
 31
0.0000000000000000
  0
LINE
  5
C4
100
AcDbEntity
  8
MAIN1
  6
CONTINUOUS
 62
7
100
AcDbLine
 10
107.2432273709005
 20
117.5964871736312
 30
0.0000000000000000
 11
106.8432273709005
 21
117.1964871736311
 31
0.0000000000000000
  0
LINE
  5
C5
100
AcDbEntity
  8
MAIN1
  6
CONTINUOUS
 62
7
100
AcDbLine
 10
112.7432273709005
 20
117.5964871736312
 30
0.0000000000000000
 11
113.1432273709005
 21
117.1964871736312
 31
0.0000000000000000
  0
LINE
  5
C6
100
AcDbEntity
  8
MAIN1
  6
CONTINUOUS
 62
7
100
AcDbLine
 10
68.74322737090049
 20
117.5964871736312
 30
0.0000000000000000
 11
69.14322737090049
 21
117.1964871736311
 31
0.0000000000000000
  0
LINE
  5
C7
100
AcDbEntity
  8
MAIN1
  6
CONTINUOUS
 62
7
100
AcDbLine
 10
63.24322737090052
 20
117.5964871736312
 30
0.0000000000000000
 11
62.84322737090051
 21
117.1964871736312
 31
0.0000000000000000
  0
LINE
  5
C8
100
AcDbEntity
  8
MAIN1
  6
CONTINUOUS
 62
7
100
AcDbLine
 10
50.79322737057561
 20
174.9052928843007
 30
0.0000000000000000
 11
50.79322737057561
 21
190.1052928843006
 31
0.0000000000000000
  0
LINE
  5
C9
100
AcDbEntity
  8
MAIN1
  6
CONTINUOUS
 62
7
100
AcDbLine
 10
51.19322737057553
 20
190.5052928843007
 30
0.0000000000000000
 11
124.7932273705756
 21
190.5052928843007
 31
0.0000000000000000
  0
LINE
  5
CA
100
AcDbEntity
  8
MAIN1
  6
CONTINUOUS
 62
7
100
AcDbLine
 10
125.1932273705755
 20
174.9052928843007
 30
0.0000000000000000
 11
125.1932273705755
 21
190.1052928843007
 31
0.0000000000000000
  0
ARC
  5
CB
100
AcDbEntity
  8
MAIN1
  6
CONTINUOUS
 62
7
100
AcDbCircle
 10
109.9932273705754
 20
179.5052928843007
 30
0.0000000000000000
 40
4.500000000000000
100
AcDbArc
 50
0.0000000000000000
 51
180.0000000000000
  0
LINE
  5
CC
100
AcDbEntity
  8
MAIN1
  6
CONTINUOUS
 62
7
100
AcDbLine
 10
61.49322737057554
 20
179.5052928843007
 30
0.0000000000000000
 11
61.49322737057554
 21
174.9052928843007
 31
0.0000000000000000
  0
LINE
  5
CD
100
AcDbEntity
  8
MAIN1
  6
CONTINUOUS
 62
7
100
AcDbLine
 10
70.49322737057554
 20
174.9052928843007
 30
0.0000000000000000
 11
70.49322737057554
 21
179.5052928843007
 31
0.0000000000000000
  0
ARC
  5
CE
100
AcDbEntity
  8
MAIN1
  6
CONTINUOUS
 62
7
100
AcDbCircle
 10
65.99322737057554
 20
179.5052928843007
 30
0.0000000000000000
 40
4.500000000000000
100
AcDbArc
 50
0.0000000000000000
 51
180.0000000000000
  0
LINE
  5
CF
100
AcDbEntity
  8
MAIN1
  6
CONTINUOUS
 62
7
100
AcDbLine
 10
105.4932273705754
 20
174.9052928843007
 30
0.0000000000000000
 11
105.4932273705754
 21
179.5052928843007
 31
0.0000000000000000
  0
LINE
  5
D0
100
AcDbEntity
  8
MAIN1
  6
CONTINUOUS
 62
7
100
AcDbLine
 10
114.4932273705754
 20
179.5052928843007
 30
0.0000000000000000
 11
114.4932273705754
 21
174.9052928843007
 31
0.0000000000000000
  0
ARC
  5
D1
100
AcDbEntity
  8
MAIN1
  6
CONTINUOUS
 62
7
100
AcDbCircle
 10
65.99322737057554
 20
179.5052928843007
 30
0.0000000000000000
 40
2.750000000000000
100
AcDbArc
 50
0.0000000000000000
 51
180.0000000000000
  0
LINE
  5
D2
100
AcDbEntity
  8
MAIN1
  6
CONTINUOUS
 62
7
100
AcDbLine
 10
107.2432273705754
 20
174.9052928843007
 30
0.0000000000000000
 11
107.2432273705754
 21
179.5052928843007
 31
0.0000000000000000
  0
LINE
  5
D3
100
AcDbEntity
  8
MAIN1
  6
CONTINUOUS
 62
7
100
AcDbLine
 10
63.24322737057554
 20
179.5052928843007
 30
0.0000000000000000
 11
63.24322737057554
 21
174.9052928843007
 31
0.0000000000000000
  0
ARC
  5
D4
100
AcDbEntity
  8
MAIN1
  6
CONTINUOUS
 62
7
100
AcDbCircle
 10
109.9932273705754
 20
179.5052928843007
 30
0.0000000000000000
 40
2.750000000000057
100
AcDbArc
 50
0.0000000000000000
 51
180.0000000000000
  0
LINE
  5
D5
100
AcDbEntity
  8
MAIN1
  6
CONTINUOUS
 62
7
100
AcDbLine
 10
68.74322737057554
 20
174.9052928843007
 30
0.0000000000000000
 11
68.74322737057554
 21
179.5052928843007
 31
0.0000000000000000
  0
LINE
  5
D6
100
AcDbEntity
  8
MAIN1
  6
CONTINUOUS
 62
7
100
AcDbLine
 10
112.7432273705754
 20
179.5052928843007
 30
0.0000000000000000
 11
112.7432273705754
 21
174.9052928843007
 31
0.0000000000000000
  0
LINE
  5
D7
100
AcDbEntity
  8
MAIN1
  6
CENTER
 62
3
100
AcDbLine
 10
87.99322737082203
 20
166.9825229963635
 30
0.0000000000000000
 11
87.99322737073244
 21
195.5542621576968
 31
0.0000000000000000
  0
LINE
  5
D8
100
AcDbEntity
  8
MAIN1
  6
CENTER
 62
3
100
AcDbLine
 10
72.49322737057554
 20
179.5052928843007
 30
0.0000000000000000
 11
59.49322737057554
 21
179.5052928843007
 31
0.0000000000000000
  0
LINE
  5
D9
100
AcDbEntity
  8
MAIN1
  6
CENTER
 62
3
100
AcDbLine
 10
65.99322737057554
 20
186.0052928843007
 30
0.0000000000000000
 11
65.99322737057554
 21
169.9298340791810
 31
0.0000000000000000
  0
LINE
  5
DA
100
AcDbEntity
  8
MAIN1
  6
CENTER
 62
3
100
AcDbLine
 10
116.4932273705754
 20
179.5052928843007
 30
0.0000000000000000
 11
103.4932273705754
 21
179.5052928843007
 31
0.0000000000000000
  0
LINE
  5
DB
100
AcDbEntity
  8
MAIN1
  6
CENTER
 62
3
100
AcDbLine
 10
109.9932273705754
 20
186.0052928843007
 30
0.0000000000000000
 11
109.9932273705754
 21
171.4584001900250
 31
0.0000000000000000
  0
LINE
  5
DC
100
AcDbEntity
  8
MAIN1
  6
CONTINUOUS
 62
7
100
AcDbLine
 10
125.1932273705755
 20
190.1052928843006
 30
0.0000000000000000
 11
124.7932273705755
 21
190.5052928843006
 31
0.0000000000000000
  0
LINE
  5
DD
100
AcDbEntity
  8
MAIN1
  6
CONTINUOUS
 62
7
100
AcDbLine
 10
51.19322737057553
 20
190.5052928843006
 30
0.0000000000000000
 11
50.79322737057555
 21
190.1052928843006
 31
0.0000000000000000
  0
LINE
  5
DE
100
AcDbEntity
  8
MAIN1
  6
CONTINUOUS
 62
7
100
AcDbLine
 10
50.79322737057559
 20
174.9052928843007
 30
0.0000000000000000
 11
51.19322737057559
 21
174.5052928843006
 31
0.0000000000000000
  0
LINE
  5
DF
100
AcDbEntity
  8
MAIN1
  6
CONTINUOUS
 62
7
100
AcDbLine
 10
124.7932273705754
 20
174.5052928843007
 30
0.0000000000000000
 11
125.1932273705754
 21
174.9052928843007
 31
0.0000000000000000
  0
LINE
  5
E0
100
AcDbEntity
  8
MAIN1
  6
CONTINUOUS
 62
7
100
AcDbLine
 10
105.4932273705754
 20
174.9052928843007
 30
0.0000000000000000
 11
105.0932273705754
 21
174.5052928843006
 31
0.0000000000000000
  0
LINE
  5
E1
100
AcDbEntity
  8
MAIN1
  6
CONTINUOUS
 62
7
100
AcDbLine
 10
114.4932273705754
 20
174.9052928843006
 30
0.0000000000000000
 11
114.8932273705753
 21
174.5052928843006
 31
0.0000000000000000
  0
LINE
  5
E2
100
AcDbEntity
  8
MAIN1
  6
CONTINUOUS
 62
7
100
AcDbLine
 10
112.7432273705754
 20
174.9052928843006
 30
0.0000000000000000
 11
113.1432273705753
 21
174.5052928843006
 31
0.0000000000000000
  0
LINE
  5
E3
100
AcDbEntity
  8
MAIN1
  6
CONTINUOUS
 62
7
100
AcDbLine
 10
107.2432273705754
 20
174.9052928843007
 30
0.0000000000000000
 11
106.8432273705755
 21
174.5052928843007
 31
0.0000000000000000
  0
LINE
  5
E4
100
AcDbEntity
  8
MAIN1
  6
CONTINUOUS
 62
7
100
AcDbLine
 10
70.49322737057550
 20
174.9052928843007
 30
0.0000000000000000
 11
70.89322737057546
 21
174.5052928843006
 31
0.0000000000000000
  0
LINE
  5
E5
100
AcDbEntity
  8
MAIN1
  6
CONTINUOUS
 62
7
100
AcDbLine
 10
68.74322737057553
 20
174.9052928843006
 30
0.0000000000000000
 11
69.14322737057549
 21
174.5052928843006
 31
0.0000000000000000
  0
LINE
  5
E6
100
AcDbEntity
  8
MAIN1
  6
CONTINUOUS
 62
7
100
AcDbLine
 10
63.24322737057556
 20
174.9052928843006
 30
0.0000000000000000
 11
62.84322737057560
 21
174.5052928843006
 31
0.0000000000000000
  0
LINE
  5
E7
100
AcDbEntity
  8
MAIN1
  6
CONTINUOUS
 62
7
100
AcDbLine
 10
61.49322737057559
 20
174.9052928843007
 30
0.0000000000000000
 11
61.09322737057558
 21
174.5052928843006
 31
0.0000000000000000
  0
LINE
  5
E8
100
AcDbEntity
  8
MAIN1
  6
CONTINUOUS
 62
7
100
AcDbLine
 10
51.19322737057559
 20
174.5052928843007
 30
0.0000000000000000
 11
62.84322737057551
 21
174.5052928843007
 31
0.0000000000000000
  0
LINE
  5
E9
100
AcDbEntity
  8
MAIN1
  6
CONTINUOUS
 62
7
100
AcDbLine
 10
69.14322737057546
 20
174.5052928843007
 30
0.0000000000000000
 11
106.8432273705754
 21
174.5052928843007
 31
0.0000000000000000
  0
LINE
  5
EA
100
AcDbEntity
  8
MAIN1
  6
CONTINUOUS
 62
7
100
AcDbLine
 10
113.1432273705753
 20
174.5052928843007
 30
0.0000000000000000
 11
124.7932273705754
 21
174.5052928843007
 31
0.0000000000000000
  0
LINE
  5
EB
100
AcDbEntity
  8
WAKU0
  6
CONTINUOUS
 62
3
100
AcDbLine
 10
30.00000000000000
 20
51.00000000000000
 30
0.0000000000000000
 11
200.0000000000000
 21
51.00000000000000
 31
0.0000000000000000
  0
LINE
  5
EC
100
AcDbEntity
  8
WAKU0
  6
CONTINUOUS
 62
3
100
AcDbLine
 10
30.00000000000000
 20
51.00000000000000
 30
0.0000000000000000
 11
30.00000000000000
 21
12.00000000000000
 31
0.0000000000000000
  0
LINE
  5
ED
100
AcDbEntity
  8
WAKU0
  6
CONTINUOUS
 62
3
100
AcDbLine
 10
102.0000000000000
 20
51.00000000000000
 30
0.0000000000000000
 11
102.0000000000000
 21
12.00000000000000
 31
0.0000000000000000
  0
LINE
  5
EE
100
AcDbEntity
  8
WAKU0
  6
CONTINUOUS
 62
3
100
AcDbLine
 10
122.0000000000000
 20
51.00000000000000
 30
0.0000000000000000
 11
122.0000000000000
 21
12.00000000000000
 31
0.0000000000000000
  0
LINE
  5
EF
100
AcDbEntity
  8
WAKU0
  6
CONTINUOUS
 62
3
100
AcDbLine
 10
134.0000000000000
 20
51.00000000000000
 30
0.0000000000000000
 11
134.0000000000000
 21
12.00000000000000
 31
0.0000000000000000
  0
LINE
  5
F0
100
AcDbEntity
  8
WAKU0
  6
CONTINUOUS
 62
3
100
AcDbLine
 10
134.0000000000000
 20
37.00000000000000
 30
0.0000000000000000
 11
200.0000000000000
 21
37.00000000000000
 31
0.0000000000000000
  0
LINE
  5
F1
100
AcDbEntity
  8
WAKU0
  6
CONTINUOUS
 62
3
100
AcDbLine
 10
122.0000000000000
 20
23.00000000000000
 30
0.0000000000000000
 11
200.0000000000000
 21
23.00000000000000
 31
0.0000000000000000
  0
LINE
  5
F2
100
AcDbEntity
  8
WAKU0
  6
CONTINUOUS
 62
3
100
AcDbLine
 10
165.0000000000000
 20
51.00000000000000
 30
0.0000000000000000
 11
165.0000000000000
 21
44.00000000000000
 31
0.0000000000000000
  0
LINE
  5
F3
100
AcDbEntity
  8
WAKU0
  6
CONTINUOUS
 62
3
100
AcDbLine
 10
177.0000000000000
 20
51.00000000000000
 30
0.0000000000000000
 11
177.0000000000000
 21
44.00000000000000
 31
0.0000000000000000
  0
LINE
  5
F4
100
AcDbEntity
  8
WAKU0
  6
CONTINUOUS
 62
3
100
AcDbLine
 10
102.0000000000000
 20
31.50000000000000
 30
0.0000000000000000
 11
122.0000000000000
 21
31.50000000000000
 31
0.0000000000000000
  0
LINE
  5
F5
100
AcDbEntity
  8
WAKU0
  6
CONTINUOUS
 62
3
100
AcDbLine
 10
122.0000000000000
 20
44.00000000000000
 30
0.0000000000000000
 11
200.0000000000000
 21
44.00000000000000
 31
0.0000000000000000
  0
LINE
  5
F6
100
AcDbEntity
  8
WAKU0
  6
CONTINUOUS
 62
3
100
AcDbLine
 10
30.00000000000000
 20
37.00000000000000
 30
0.0000000000000000
 11
102.0000000000000
 21
37.00000000000000
 31
0.0000000000000000
  0
LINE
  5
F7
100
AcDbEntity
  8
WAKU0
  6
CONTINUOUS
 62
3
100
AcDbLine
 10
30.00000000000000
 20
23.00000000000000
 30
0.0000000000000000
 11
102.0000000000000
 21
23.00000000000000
 31
0.0000000000000000
  0
LINE
  5
F8
100
AcDbEntity
  8
WAKU0
  6
CONTINUOUS
 62
3
100
AcDbLine
 10
78.00000000000000
 20
37.00000000000000
 30
0.0000000000000000
 11
78.00000000000000
 21
12.00000000000000
 31
0.0000000000000000
  0
LINE
  5
F9
100
AcDbEntity
  8
WAKU0
  6
CONTINUOUS
 62
3
100
AcDbLine
 10
54.00000000000000
 20
37.00000000000000
 30
0.0000000000000000
 11
54.00000000000000
 21
23.00000000000000
 31
0.0000000000000000
  0
LINE
  5
FA
100
AcDbEntity
  8
WAKU0
  6
CONTINUOUS
 62
3
100
AcDbLine
 10
90.00000000000000
 20
26.00000000000000
 30
0.0000000000000000
 11
90.00000000000000
 21
23.00000000000000
 31
0.0000000000000000
  0
LINE
  5
FB
100
AcDbEntity
  8
WAKU0
  6
CONTINUOUS
 62
3
100
AcDbLine
 10
66.00000000000000
 20
26.00000000000000
 30
0.0000000000000000
 11
66.00000000000000
 21
23.00000000000000
 31
0.0000000000000000
  0
LINE
  5
FC
100
AcDbEntity
  8
WAKU0
  6
CONTINUOUS
 62
3
100
AcDbLine
 10
42.00000000000000
 20
26.00000000000000
 30
0.0000000000000000
 11
42.00000000000000
 21
23.00000000000000
 31
0.0000000000000000
  0
LINE
  5
FD
100
AcDbEntity
  8
WAKU0
  6
CONTINUOUS
 62
3
100
AcDbLine
 10
48.00000000000000
 20
51.00000000000000
 30
0.0000000000000000
 11
48.00000000000000
 21
37.00000000000000
 31
0.0000000000000000
  0
LINE
  5
FE
100
AcDbEntity
  8
WAKU0
  6
CONTINUOUS
 62
3
100
AcDbLine
 10
30.00000000000000
 20
45.00000000000000
 30
0.0000000000000000
 11
102.0000000000000
 21
45.00000000000000
 31
0.0000000000000000
  0
LINE
  5
FF
100
AcDbEntity
  8
WAKU0
  6
HIDDEN
 62
3
100
AcDbLine
 10
150.5000000000000
 20
23.00000000000000
 30
0.0000000000000000
 11
150.5000000000000
 21
12.00000000000000
 31
0.0000000000000000
  0
LINE
  5
100
100
AcDbEntity
  8
WAKU0
  6
HIDDEN
 62
3
100
AcDbLine
 10
162.9000000000000
 20
23.00000000000000
 30
0.0000000000000000
 11
162.9000000000000
 21
12.00000000000000
 31
0.0000000000000000
  0
MTEXT
  5
101
100
AcDbEntity
  8
WAKU0
  6
CONTINUOUS
 62
3
100
AcDbMText
 10
108.0049998760223
 20
39.29999995231628
 30
0.0000000000000000
 40
3.099999904632568
 41
0.0000000000000000
 44
1.412903306188993
 71
     1
 72
     1
  1
{\H0.90x;{1:1}}
 11
1.000000000000000
 21
0.0000000000000000
 31
0.0000000000000000
  7
STANDARD
  0
MTEXT
  5
102
100
AcDbEntity
  8
WAKU0
  6
CONTINUOUS
 62
3
100
AcDbMText
 10
142.8300002813339
 20
34.23333326975504
 30
0.0000000000000000
 40
3.099999904632568
 41
0.0000000000000000
 44
1.038709733984847
 71
     1
 72
     1
  1
{\H0.94x;{パラレルプレート\PＰＡＲＡＬＬＥＬ　ＰＬＡＴＥ}}
 11
1.000000000000000
 21
0.0000000000000000
 31
0.0000000000000000
  7
KNJYOKO
  0
MTEXT
  5
103
100
AcDbEntity
  8
WAKU0
  6
CONTINUOUS
 62
3
100
AcDbMText
 10
143.5950012207031
 20
43.50000000000000
 30
0.0000000000000000
 40
3.000000000000000
 41
0.0000000000000000
 44
0.6000000000000000
 71
     1
 72
     1
  1
{\H0.94x;{センタリングバイス\PＣＥＮＴＥＲＩＮＧ　ＶＩＳＥ}}
 11
1.000000000000000
 21
0.0000000000000000
 31
0.0000000000000000
  7
KNJYOKO
  0
MTEXT
  5
104
100
AcDbEntity
  8
WAKU0
  6
CONTINUOUS
 62
3
100
AcDbMText
 10
139.9249997138977
 20
49.04999995231628
 30
0.0000000000000000
 40
3.099999904632568
 41
0.0000000000000000
 44
0.8806452252986423
 71
     1
 72
     1
  1
{\H0.92x;{V75V13C}}
 11
1.000000000000000
 21
0.0000000000000000
 31
0.0000000000000000
  7
STANDARD
  0
MTEXT
  5
105
100
AcDbEntity
  8
WAKU0
  6
CONTINUOUS
 62
3
100
AcDbMText
 10
190.0000000819564
 20
44.84999990463257
 30
0.0000000000000000
 40
5.300000190734863
 41
0.0000000000000000
 44
0.6396226292871933
 71
     7
 72
     1
  1
{\H0.81x;{ }}
 11
1.000000000000000
 21
0.0000000000000000
 31
0.0000000000000000
  7
STANDARD
  0
MTEXT
  5
106
100
AcDbEntity
  8
WAKU0
  6
CONTINUOUS
 62
3
100
AcDbMText
 10
79.38500028848648
 20
33.00000000000000
 30
0.0000000000000000
 40
3.000000000000000
 41
0.0000000000000000
 44
0.7000000000000000
 71
     7
 72
     1
  1
{\H0.93x;{DRAWN BY}}
 11
1.000000000000000
 21
0.0000000000000000
 31
0.0000000000000000
  7
STANDARD
  0
MTEXT
  5
107
100
AcDbEntity
  8
WAKU0
  6
CONTINUOUS
 62
3
100
AcDbMText
 10
59.21499979496002
 20
32.95000004768372
 30
0.0000000000000000
 40
3.099999904632568
 41
0.0000000000000000
 44
0.6870967861020730
 71
     7
 72
     1
  1
{\H0.92x;{CHIEF}}
 11
1.000000000000000
 21
0.0000000000000000
 31
0.0000000000000000
  7
STANDARD
  0
MTEXT
  5
108
100
AcDbEntity
  8
WAKU0
  6
CONTINUOUS
 62
3
100
AcDbMText
 10
32.42499971389771
 20
32.95000004768372
 30
0.0000000000000000
 40
3.099999904632568
 41
0.0000000000000000
 44
0.6870967861020730
 71
     7
 72
     1
  1
{\H0.92x;{MANAGER}}
 11
1.000000000000000
 21
0.0000000000000000
 31
0.0000000000000000
  7
STANDARD
  0
MTEXT
  5
109
100
AcDbEntity
  8
WAKU0
  6
CONTINUOUS
 62
3
100
AcDbMText
 10
31.08500021696091
 20
46.50000000000000
 30
0.0000000000000000
 40
3.000000000000000
 41
0.0000000000000000
 44
0.8000000000000000
 71
     7
 72
     1
  1
{\H0.92x;{CAREER}}
 11
1.000000000000000
 21
0.0000000000000000
 31
0.0000000000000000
  7
STANDARD
  0
MTEXT
  5
10A
100
AcDbEntity
  8
WAKU0
  6
CONTINUOUS
 62
3
100
AcDbMText
 10
84.60999983549118
 20
18.95000004768372
 30
0.0000000000000000
 40
3.099999904632568
 41
0.0000000000000000
 44
0.6870967861020730
 71
     7
 72
     1
  1
{\H0.91x;{DATE}}
 11
1.000000000000000
 21
0.0000000000000000
 31
0.0000000000000000
  7
STANDARD
  0
MTEXT
  5
10B
100
AcDbEntity
  8
WAKU0
  6
CONTINUOUS
 62
3
100
AcDbMText
 10
103.9000002145767
 20
26.50000000000000
 30
0.0000000000000000
 40
3.000000000000000
 41
0.0000000000000000
 44
0.9000000000000000
 71
     7
 72
     1
  1
{\H0.63x;{3RD ANGLE}}
 11
1.000000000000000
 21
0.0000000000000000
 31
0.0000000000000000
  7
STANDARD
  0
MTEXT
  5
10C
100
AcDbEntity
  8
WAKU0
  6
CONTINUOUS
 62
3
100
AcDbMText
 10
105.2149997949600
 20
45.95000004768372
 30
0.0000000000000000
 40
3.099999904632568
 41
0.0000000000000000
 44
0.8806452252986423
 71
     7
 72
     1
  1
{\H0.92x;{SCALE}}
 11
1.000000000000000
 21
0.0000000000000000
 31
0.0000000000000000
  7
STANDARD
  0
MTEXT
  5
10D
100
AcDbEntity
  8
WAKU0
  6
CONTINUOUS
 62
3
100
AcDbMText
 10
195.7000000476837
 20
46.00000000000000
 30
0.0000000000000000
 40
3.000000000000000
 41
0.0000000000000000
 44
0.9000000000000000
 71
     7
 72
     1
  1
{\H0.63x;{kg}}
 11
1.000000000000000
 21
0.0000000000000000
 31
0.0000000000000000
  7
STANDARD
  0
MTEXT
  5
10E
100
AcDbEntity
  8
WAKU0
  6
CONTINUOUS
 62
3
100
AcDbMText
 10
165.6000001430512
 20
46.00000000000000
 30
0.0000000000000000
 40
3.000000000000000
 41
0.0000000000000000
 44
0.9000000000000000
 71
     7
 72
     1
  1
{\H0.63x;{WEIGHT}}
 11
1.000000000000000
 21
0.0000000000000000
 31
0.0000000000000000
  7
STANDARD
  0
MTEXT
  5
10F
100
AcDbEntity
  8
WAKU0
  6
CONTINUOUS
 62
3
100
AcDbMText
 10
124.0049998760223
 20
18.13333336512248
 30
0.0000000000000000
 40
3.099999904632568
 41
0.0000000000000000
 44
0.8451613409338102
 71
     7
 72
     1
  1
{\H0.90x;{DRW\PNO.}}
 11
1.000000000000000
 21
0.0000000000000000
 31
0.0000000000000000
  7
STANDARD
  0
MTEXT
  5
110
100
AcDbEntity
  8
WAKU0
  6
CONTINUOUS
 62
3
100
AcDbMText
 10
122.6099998354912
 20
31.95000004768372
 30
0.0000000000000000
 40
3.099999904632568
 41
0.0000000000000000
 44
2.235483976655898
 71
     7
 72
     1
  1
{\H0.91x;{NAME}}
 11
1.000000000000000
 21
0.0000000000000000
 31
0.0000000000000000
  7
STANDARD
  0
MTEXT
  5
111
100
AcDbEntity
  8
WAKU0
  6
CONTINUOUS
 62
3
100
AcDbMText
 10
122.6099998354912
 20
45.95000004768372
 30
0.0000000000000000
 40
3.099999904632568
 41
0.0000000000000000
 44
0.8806452252986423
 71
     7
 72
     1
  1
{\H0.91x;{TYPE}}
 11
1.000000000000000
 21
0.0000000000000000
 31
0.0000000000000000
  7
STANDARD
  0
LINE
  5
112
100
AcDbEntity
  8
WAKU0
  6
HIDDEN
 62
3
100
AcDbLine
 10
197.1599564743885
 20
13.84999990463257
 30
0.0000000000000000
 11
186.9400436209789
 21
13.84999990463257
 31
0.0000000000000000
  0
LINE
  5
113
100
AcDbEntity
  8
WAKU0
  6
HIDDEN
 62
3
100
AcDbLine
 10
197.1599564743885
 20
13.84999990463250
 30
0.0000000000000000
 11
192.0500000476851
 21
22.70070406014901
 31
0.0000000000000000
  0
LINE
  5
114
100
AcDbEntity
  8
WAKU0
  6
HIDDEN
 62
3
100
AcDbLine
 10
192.0500000476852
 20
22.70070406014902
 30
0.0000000000000000
 11
186.9400436209789
 21
13.84999990463248
 31
0.0000000000000000
  0
POINT
  5
115
100
AcDbEntity
  8
WAKU0
  6
CONTINUOUS
 62
3
100
AcDbPoint
 10
60.00000000000000
 20
51.00000000000000
 30
0.0000000000000000
  0
MTEXT
  5
116
100
AcDbEntity
  8
WAKU0
  6
CONTINUOUS
 62
3
100
AcDbMText
 10
37.00000096148727
 20
20.63471521698214
 30
0.0000000000000000
 40
3.140094041824341
 41
0.0000000000000000
 44
0.6677420288008611
 71
     1
 72
     1
  1
{\H0.83x;{Ｋｉｔａｇａｗａ\PＣｏｒｐｏｒａｔｉｏｎ}}
 11
1.000000000000000
 21
0.0000000000000000
 31
0.0000000000000000
  7
KNJYOKO
  0
MTEXT
  5
117
100
AcDbEntity
  8
WAKU0
  6
CONTINUOUS
 62
3
100
AcDbMText
 10
135.7330486402047
 20
19.72085521802144
 30
0.0000000000000000
 40
5.000000000000000
 41
0.0000000000000000
 44
0.6719999885559082
 71
     1
 72
     1
  1
{\H0.90x;{61M}}
 11
1.000000000000000
 21
0.0000000000000000
 31
0.0000000000000000
  7
STANDARD
  0
MTEXT
  5
118
100
AcDbEntity
  8
WAKU0
  6
CONTINUOUS
 62
3
100
AcDbMText
 10
152.3983904975509
 20
19.67930641460801
 30
0.0000000000000000
 40
5.000000000000000
 41
0.0000000000000000
 44
0.6719999885559082
 71
     1
 72
     1
  1
{\H0.88x;{49}}
 11
1.000000000000000
 21
0.0000000000000000
 31
0.0000000000000000
  7
STANDARD
  0
MTEXT
  5
119
100
AcDbEntity
  8
WAKU0
  6
CONTINUOUS
 62
3
100
AcDbMText
 10
165.8315308038934
 20
19.65823576738259
 30
0.0000000000000000
 40
5.000000000000000
 41
0.0000000000000000
 44
0.6719999885559082
 71
     1
 72
     1
  1
{\H0.91x;{2220}}
 11
1.000000000000000
 21
0.0000000000000000
 31
0.0000000000000000
  7
STANDARD
  0
MTEXT
  5
11A
100
AcDbEntity
  8
WAKU0
  6
CONTINUOUS
 62
3
100
AcDbMText
 10
189.9610199422258
 20
19.76601386456117
 30
0.0000000000000000
 40
5.000000000000000
 41
0.0000000000000000
 44
0.6719999885559082
 71
     1
 72
     1
  1
{\H0.82x;{1}}
 11
1.000000000000000
 21
0.0000000000000000
 31
0.0000000000000000
  7
STANDARD
  0
INSERT
  5
154
100
AcDbEntity
  8
WAKU0
  6
CONTINUOUS
 62
2
100
AcDbBlockReference
  2
M0
 10
0.0000000000000000
 20
0.0000000000000000
 30
0.0000000000000000
 50
0.0000000000000000
  0
LINE
  5
155
100
AcDbEntity
  8
WAKU0
  6
CONTINUOUS
 62
3
100
AcDbLine
 10
120.4713877753800
 20
15.78041421262812
 30
0.0000000000000000
 11
120.4713877753800
 21
21.78041421262815
 31
0.0000000000000000
  0
LINE
  5
156
100
AcDbEntity
  8
WAKU0
  6
CONTINUOUS
 62
3
100
AcDbLine
 10
113.9336941228225
 20
17.28041421262811
 30
0.0000000000000000
 11
113.9336941228225
 21
20.28041421262824
 31
0.0000000000000000
  0
LINE
  5
157
100
AcDbEntity
  8
WAKU0
  6
CENTER
 62
12
100
AcDbLine
 10
103.4321805514995
 20
18.78041421262813
 30
0.0000000000000000
 11
121.2765788964694
 21
18.78041421262813
 31
0.0000000000000000
  0
LINE
  5
158
100
AcDbEntity
  8
WAKU0
  6
CENTER
 62
12
100
AcDbLine
 10
107.4474565857986
 20
14.55921662918448
 30
0.0000000000000000
 11
107.4474565857986
 21
22.89865102149943
 31
0.0000000000000000
  0
LINE
  5
159
100
AcDbEntity
  8
WAKU0
  6
CONTINUOUS
 62
3
100
AcDbLine
 10
113.9336941228225
 20
20.28041421262797
 30
0.0000000000000000
 11
120.4713877753800
 21
21.78041421262795
 31
0.0000000000000000
  0
LINE
  5
15A
100
AcDbEntity
  8
WAKU0
  6
CONTINUOUS
 62
3
100
AcDbLine
 10
113.9336941228225
 20
17.28041421262811
 30
0.0000000000000000
 11
120.4713877753799
 21
15.78041421262812
 31
0.0000000000000000
  0
CIRCLE
  5
15B
100
AcDbEntity
  8
WAKU0
  6
CONTINUOUS
 62
3
100
AcDbCircle
 10
107.4474565857986
 20
18.78041421262813
 30
0.0000000000000000
 40
1.499999999999972
  0
CIRCLE
  5
15C
100
AcDbEntity
  8
WAKU0
  6
CONTINUOUS
 62
3
100
AcDbCircle
 10
107.4474565857986
 20
18.78041421262813
 30
0.0000000000000000
 40
2.999999999999979
  0
ENDSEC
  0
SECTION
  2
OBJECTS
  0
DICTIONARY
  5
196
100
AcDbDictionary
  3
ACAD_GROUP
350
197
  3
ACAD_LAYOUT
350
198
  3
ACAD_MLINESTYLE
350
199
  0
DICTIONARY
  5
197
102
{ACAD_REACTORS
330
196
102
}
330
196
100
AcDbDictionary
  0
DICTIONARY
  5
198
102
{ACAD_REACTORS
330
196
102
}
330
196
100
AcDbDictionary
  3
Model
350
19A
  3
ﾚｲｱｳﾄ1
350
19B
  3
ﾚｲｱｳﾄ2
350
19C
  0
DICTIONARY
  5
199
102
{ACAD_REACTORS
330
196
102
}
330
196
100
AcDbDictionary
  3
STANDARD
350
19D
  0
LAYOUT
  5
19A
102
{ACAD_REACTORS
330
198
102
}
330
198
100
AcDbPlotSettings
 70
11952
  4
A4
 44
210.000000
 45
297.000000
 73
  0
 72
  1
100
AcDbLayout
  1
Model
 71
0
330
182
  0
LAYOUT
  5
19B
102
{ACAD_REACTORS
330
198
102
}
330
198
100
AcDbPlotSettings
100
AcDbLayout
  1
ﾚｲｱｳﾄ1
 71
1
330
183
  0
LAYOUT
  5
19C
102
{ACAD_REACTORS
330
198
102
}
330
198
100
AcDbPlotSettings
100
AcDbLayout
  1
ﾚｲｱｳﾄ2
 71
2
330
184
  0
MLINESTYLE
  5
19D
102
{ACAD_REACTORS
330
199
102
}
330
199
100
AcDbMlineStyle
  2
STANDARD
 70
     0
  3

 62
   256
 51
90.00
 52
90.00
 71
     2
 49
0.50
 62
   256
  6
BYLAYER
 49
-0.50
 62
   256
  6
BYLAYER
  0
ENDSEC
  0
EOF
