  0
SECTION
  2
HEADER
  9
$ACADVER
  1
AC1027
  9
$DWGCODEPAGE
  3
ANSI_932
  9
$LTSCALE
 40
20.0
  9
$FILLMODE
 70
     1
  9
$CLAYER
  8
0
  9
$PDMODE
 70
     0
  9
$SPLFRAME
 70
     0
  9
$SPLINETYPE
 70
     6
  9
$SPLINESEGS
 70
     8
  9
$DIMASZ
 40
2.000000
  9
$DIMEXE
 40
2.000000
  9
$DIMEXO
 40
0.800000
  9
$DIMTAD
 70
     1
  9
$DIMTIH
 70
     0
  9
$DIMTOH
 70
     0
  9
$DIMTVP
 40
0.500000
  9
$DIMTXT
 40
3.100000
  9
$EXTMIN
 10
0.000000
 20
0.000000
 30
0.000000
  9
$EXTMAX
 10
297.000000
 20
420.000000
 30
0.000000
  9
$MEASUREMENT
 70
  1
  9
$LIMMIN
 10
0.000000
 20
0.000000
  9
$LIMMAX
 10
297.000000
 20
420.000000
  9
$HANDSEED
  5
4B8
  9
$LWDISPLAY
290
     0
  9
$DIMBLK
  1
_OPEN
  9
$DIMDEC
 70
     3
  9
$DIMADEC
 70
     4
  9
$DIMAUNIT
 70
     1
  9
$DIMZIN
 70
     8
  9
$DIMAZIN
 70
     2
  9
$DIMTOFL
 70
     1
  9
$CMLSTYLE
  2
STANDARD
  0
ENDSEC
  0
SECTION
  2
CLASSES
  0
CLASS
  1
MLEADERSTYLE
  2
AcDbMLeaderStyle
  3
ACDB_MLEADERSTYLE_CLASS
 90
     4095
 91
        2
280
     0
281
     0
  0
CLASS
  1
MULTILEADER
  2
AcDbMLeader
  3
ACDB_MLEADER_CLASS
 90
     1025
 91
        2
280
     0
281
     1
  0
ENDSEC
  0
SECTION
  2
TABLES
  0
TABLE
  2
VPORT
  5
46F
100
AcDbSymbolTable
 70
     1
  0
VPORT
  5
470
100
AcDbSymbolTableRecord
100
AcDbViewportTableRecord
  2
*ACTIVE
 70
     0
 12
210.201025
 22
145.147839
 40
303.704322
 41
1.384248
  0
ENDTAB
  0
TABLE
  2
LTYPE
  5
471
100
AcDbSymbolTable
 70
     3
  0
LTYPE
  5
472
100
AcDbSymbolTableRecord
100
AcDbLinetypeTableRecord
  2
BYBLOCK
 70
     0
  3

 72
    65
 73
     0
 40
0.0
  0
LTYPE
  5
473
100
AcDbSymbolTableRecord
100
AcDbLinetypeTableRecord
  2
BYLAYER
 70
     0
  3

 72
    65
 73
     0
 40
0.0
  0
LTYPE
  5
130
100
AcDbSymbolTableRecord
100
AcDbLinetypeTableRecord
  2
CONTINUOUS
 70
     0
  3
Solid line (NEC CAE2D for Win R14.2 : 2022.07.20)
 72
    65
 73
     0
 40
0.0
  0
LTYPE
  5
474
100
AcDbSymbolTableRecord
100
AcDbLinetypeTableRecord
  2
HIDDEN
 70
     0
  3
__ __ __ __ __ __ __ __ __ __ __ __ __ __
 72
    65
 73
     2
 40
0.375
 49
0.25
 74
     0
 49
-0.125
 74
     0
  0
LTYPE
  5
475
100
AcDbSymbolTableRecord
100
AcDbLinetypeTableRecord
  2
CENTER
 70
     0
  3
____ _ ____ _ ____ _ ____ _ ____ _ ____
 72
    65
 73
     4
 40
2.0
 49
1.25
 74
     0
 49
-0.25
 74
     0
 49
0.25
 74
     0
 49
-0.25
 74
     0
  0
ENDTAB
  0
TABLE
  2
LAYER
  5
476
100
AcDbSymbolTable
 70
    14
  0
LAYER
  5
477
100
AcDbSymbolTableRecord
100
AcDbLayerTableRecord
  2
0
 70
     0
 62
     7
  6
CONTINUOUS
370
    -3
390

  0
LAYER
  5
478
100
AcDbSymbolTableRecord
100
AcDbLayerTableRecord
  2
MAIN0
 70
     0
 62
     7
  6
CONTINUOUS
370
    -3
390

  0
LAYER
  5
479
100
AcDbSymbolTableRecord
100
AcDbLayerTableRecord
  2
MAIN1
 70
     0
 62
     7
  6
CONTINUOUS
370
    -3
390

  0
LAYER
  5
47A
100
AcDbSymbolTableRecord
100
AcDbLayerTableRecord
  2
MAIN2
 70
     0
 62
     7
  6
CONTINUOUS
370
    -3
390

  0
LAYER
  5
47B
100
AcDbSymbolTableRecord
100
AcDbLayerTableRecord
  2
MAIN3
 70
     0
 62
     7
  6
CONTINUOUS
370
    -3
390

  0
LAYER
  5
47C
100
AcDbSymbolTableRecord
100
AcDbLayerTableRecord
  2
MAIN4
 70
     0
 62
     7
  6
CONTINUOUS
370
    -3
390

  0
LAYER
  5
47D
100
AcDbSymbolTableRecord
100
AcDbLayerTableRecord
  2
MAIN5
 70
     0
 62
     7
  6
CONTINUOUS
370
    -3
390

  0
LAYER
  5
47E
100
AcDbSymbolTableRecord
100
AcDbLayerTableRecord
  2
MAIN6
 70
     0
 62
     7
  6
CONTINUOUS
370
    -3
390

  0
LAYER
  5
47F
100
AcDbSymbolTableRecord
100
AcDbLayerTableRecord
  2
MAIN7
 70
     0
 62
     7
  6
CONTINUOUS
370
    -3
390

  0
LAYER
  5
480
100
AcDbSymbolTableRecord
100
AcDbLayerTableRecord
  2
MAIN8
 70
     0
 62
     7
  6
CONTINUOUS
370
    -3
390

  0
LAYER
  5
481
100
AcDbSymbolTableRecord
100
AcDbLayerTableRecord
  2
MAIN10
 70
     0
 62
     7
  6
CONTINUOUS
370
    -3
390

  0
LAYER
  5
482
100
AcDbSymbolTableRecord
100
AcDbLayerTableRecord
  2
MAIN1023
 70
     0
 62
    16
  6
CONTINUOUS
370
    -3
390

  0
LAYER
  5
483
100
AcDbSymbolTableRecord
100
AcDbLayerTableRecord
  2
WAKU0
 70
     0
 62
     7
  6
CONTINUOUS
370
    -3
390

  0
LAYER
  5
484
100
AcDbSymbolTableRecord
100
AcDbLayerTableRecord
  2
WAKU1023
 70
     0
 62
    16
  6
CONTINUOUS
370
    -3
390

  0
ENDTAB
  0
TABLE
  2
STYLE
  5
485
100
AcDbSymbolTable
 70
     4
  0
STYLE
  5
486
100
AcDbSymbolTableRecord
100
AcDbTextStyleTableRecord
  2
STANDARD
 70
    64
 40
0.0
 41
1.0
 50
0.0
 71
     0
 42
3.100000381469727
  3
TXT
  4

  0
STYLE
  5
487
100
AcDbSymbolTableRecord
100
AcDbTextStyleTableRecord
  2
ANKTATE
 70
    68
 40
0.0
 41
1.0
 50
0.0
 71
     0
 42
3.100000381469727
  3
TXT
  4

  0
STYLE
  5
131
100
AcDbSymbolTableRecord
100
AcDbTextStyleTableRecord
  2
KNJYOKO
 70
    64
 40
0.0
 41
1.0
 50
0.0
 71
     0
 42
3.100000381469727
  3
TXT
  4
BIGFONT
  0
STYLE
  5
488
100
AcDbSymbolTableRecord
100
AcDbTextStyleTableRecord
  2
KNJTATE
 70
    68
 40
0.0
 41
1.0
 50
0.0
 71
     0
 42
3.100000381469727
  3
TXT
  4
BIGFONT
  0
ENDTAB
  0
TABLE
  2
VIEW
  5
489
100
AcDbSymbolTable
 70
     0
  0
ENDTAB
  0
TABLE
  2
UCS
  5
48A
100
AcDbSymbolTable
 70
     0
  0
ENDTAB
  0
TABLE
  2
APPID
  5
48B
100
AcDbSymbolTable
 70
     1
  0
APPID
  5
48C
100
AcDbSymbolTableRecord
100
AcDbRegAppTableRecord
  2
ACAD
 70
     0
  0
ENDTAB
  0
TABLE
  2
DIMSTYLE
  5
48D
100
AcDbSymbolTable
 70
     3
100
AcDbDimStyleTable
  0
DIMSTYLE
105
48E
100
AcDbSymbolTableRecord
100
AcDbDimStyleTableRecord
  2
STANDARD
 70
     0
 41
2.000000
 44
2.000000
 42
0.800000
145
0.661290
140
3.100000
144
1.000000
146
0.903226
340
486
  0
DIMSTYLE
105
48F
100
AcDbSymbolTableRecord
100
AcDbDimStyleTableRecord
  2
MAIN001
 70
     0
 41
2.000000
 44
2.000000
 42
0.800000
145
0.661290
140
3.100000
144
1.000000
146
0.903226
 77
     1
 73
     0
 74
     0
271
     3
179
     4
275
     1
 78
     8
 79
     2
172
     1
340
486
  0
DIMSTYLE
105
490
100
AcDbSymbolTableRecord
100
AcDbDimStyleTableRecord
  2
WAKU002
 70
     0
 41
2.000000
 44
2.000000
 42
0.800000
145
0.661290
140
3.100000
144
1.000000
146
0.903226
 77
     1
 73
     0
 74
     0
271
     3
179
     4
275
     1
 78
     8
 79
     2
172
     1
340
486
  0
ENDTAB
  0
TABLE
  2
BLOCK_RECORD
  5
491
100
AcDbSymbolTable
 70
    32
  0
BLOCK_RECORD
  5
492
100
AcDbSymbolTableRecord
100
AcDbBlockTableRecord
  2
*MODEL_SPACE
  0
BLOCK_RECORD
  5
493
100
AcDbSymbolTableRecord
100
AcDbBlockTableRecord
  2
*PAPER_SPACE
  0
BLOCK_RECORD
  5
494
100
AcDbSymbolTableRecord
100
AcDbBlockTableRecord
  2
*PAPER_SPACE0
  0
BLOCK_RECORD
  5
1
100
AcDbSymbolTableRecord
100
AcDbBlockTableRecord
  2
_NONE
  0
BLOCK_RECORD
  5
4
100
AcDbSymbolTableRecord
100
AcDbBlockTableRecord
  2
_CLOSED
  0
BLOCK_RECORD
  5
B
100
AcDbSymbolTableRecord
100
AcDbBlockTableRecord
  2
_DOT
  0
BLOCK_RECORD
  5
13
100
AcDbSymbolTableRecord
100
AcDbBlockTableRecord
  2
_OPEN
  0
BLOCK_RECORD
  5
19
100
AcDbSymbolTableRecord
100
AcDbBlockTableRecord
  2
_ORIGIN
  0
BLOCK_RECORD
  5
1E
100
AcDbSymbolTableRecord
100
AcDbBlockTableRecord
  2
_OPEN30
  0
BLOCK_RECORD
  5
24
100
AcDbSymbolTableRecord
100
AcDbBlockTableRecord
  2
_BOXFILLED
  0
BLOCK_RECORD
  5
29
100
AcDbSymbolTableRecord
100
AcDbBlockTableRecord
  2
_BOXBLANK
  0
BLOCK_RECORD
  5
31
100
AcDbSymbolTableRecord
100
AcDbBlockTableRecord
  2
_OBLIQUE
  0
BLOCK_RECORD
  5
35
100
AcDbSymbolTableRecord
100
AcDbBlockTableRecord
  2
_OPEN90
  0
BLOCK_RECORD
  5
3B
100
AcDbSymbolTableRecord
100
AcDbBlockTableRecord
  2
_CLOSEDBLANK
  0
BLOCK_RECORD
  5
41
100
AcDbSymbolTableRecord
100
AcDbBlockTableRecord
  2
_DOTBLANK
  0
BLOCK_RECORD
  5
495
100
AcDbSymbolTableRecord
100
AcDbBlockTableRecord
  2
*D0
  0
BLOCK_RECORD
  5
496
100
AcDbSymbolTableRecord
100
AcDbBlockTableRecord
  2
*D1
  0
BLOCK_RECORD
  5
497
100
AcDbSymbolTableRecord
100
AcDbBlockTableRecord
  2
*D2
  0
BLOCK_RECORD
  5
498
100
AcDbSymbolTableRecord
100
AcDbBlockTableRecord
  2
*D3
  0
BLOCK_RECORD
  5
499
100
AcDbSymbolTableRecord
100
AcDbBlockTableRecord
  2
*D4
  0
BLOCK_RECORD
  5
49A
100
AcDbSymbolTableRecord
100
AcDbBlockTableRecord
  2
*D5
  0
BLOCK_RECORD
  5
49B
100
AcDbSymbolTableRecord
100
AcDbBlockTableRecord
  2
*D6
  0
BLOCK_RECORD
  5
49C
100
AcDbSymbolTableRecord
100
AcDbBlockTableRecord
  2
*D7
  0
BLOCK_RECORD
  5
49D
100
AcDbSymbolTableRecord
100
AcDbBlockTableRecord
  2
*D8
  0
BLOCK_RECORD
  5
49E
100
AcDbSymbolTableRecord
100
AcDbBlockTableRecord
  2
*D9
  0
BLOCK_RECORD
  5
49F
100
AcDbSymbolTableRecord
100
AcDbBlockTableRecord
  2
*D10
  0
BLOCK_RECORD
  5
4A0
100
AcDbSymbolTableRecord
100
AcDbBlockTableRecord
  2
*D11
  0
BLOCK_RECORD
  5
4A1
100
AcDbSymbolTableRecord
100
AcDbBlockTableRecord
  2
*D12
  0
BLOCK_RECORD
  5
4A2
100
AcDbSymbolTableRecord
100
AcDbBlockTableRecord
  2
*D13
  0
BLOCK_RECORD
  5
4A3
100
AcDbSymbolTableRecord
100
AcDbBlockTableRecord
  2
*D14
  0
BLOCK_RECORD
  5
4A4
100
AcDbSymbolTableRecord
100
AcDbBlockTableRecord
  2
*D15
  0
BLOCK_RECORD
  5
4A5
100
AcDbSymbolTableRecord
100
AcDbBlockTableRecord
  2
*D16
  0
BLOCK_RECORD
  5
4A6
100
AcDbSymbolTableRecord
100
AcDbBlockTableRecord
  2
*D17
  0
BLOCK_RECORD
  5
4A7
100
AcDbSymbolTableRecord
100
AcDbBlockTableRecord
  2
*D18
  0
BLOCK_RECORD
  5
4A8
100
AcDbSymbolTableRecord
100
AcDbBlockTableRecord
  2
M0
  0
ENDTAB
  0
ENDSEC
  0
SECTION
  2
BLOCKS
  0
BLOCK
  5
4A9
100
AcDbEntity
  8
0
100
AcDbBlockBegin
  2
*MODEL_SPACE
 70
     0
 10
0.0
 20
0.0
 30
0.0
  3
*MODEL_SPACE
  1

  0
ENDBLK
  5
4AA
100
AcDbEntity
  8
0
100
AcDbBlockEnd
  0
BLOCK
  5
4AB
100
AcDbEntity
  8
0
100
AcDbBlockBegin
  2
*PAPER_SPACE
 70
     0
 10
0.0
 20
0.0
 30
0.0
  3
*PAPER_SPACE
  1

  0
ENDBLK
  5
4AC
100
AcDbEntity
  8
0
100
AcDbBlockEnd
  0
BLOCK
  5
4AD
100
AcDbEntity
  8
0
100
AcDbBlockBegin
  2
*PAPER_SPACE0
 70
     0
 10
0.0
 20
0.0
 30
0.0
  3
*PAPER_SPACE0
  1

  0
ENDBLK
  5
4AE
100
AcDbEntity
  8
0
100
AcDbBlockEnd
  0
BLOCK
  5
2
330
1
100
AcDbEntity
  8
0
100
AcDbBlockBegin
  2
_NONE
 70
     0
 10
0.0
 20
0.0
 30
0.0
  3
_NONE
  1

  0
ENDBLK
  5
3
330
1
100
AcDbEntity
  8
0
100
AcDbBlockEnd
  0
BLOCK
  5
5
330
4
100
AcDbEntity
  8
0
100
AcDbBlockBegin
  2
_CLOSED
 70
     0
 10
0.0
 20
0.0
 30
0.0
  3
_CLOSED
  1

  0
LINE
  5
6
330
4
100
AcDbEntity
  8
0
  6
BYBLOCK
 62
     0
370
    -2
100
AcDbLine
 10
-1.0
 20
0.166667
 30
0.0
 11
0.0
 21
0.0
 31
0.0
  0
LINE
  5
7
330
4
100
AcDbEntity
  8
0
  6
BYBLOCK
 62
     0
370
    -2
100
AcDbLine
 10
0.0
 20
0.0
 30
0.0
 11
-1.0
 21
-0.166667
 31
0.0
  0
LINE
  5
8
330
4
100
AcDbEntity
  8
0
  6
BYBLOCK
 62
     0
370
    -2
100
AcDbLine
 10
-1.0
 20
0.166667
 30
0.0
 11
-1.0
 21
-0.166667
 31
0.0
  0
LINE
  5
9
330
4
100
AcDbEntity
  8
0
  6
BYBLOCK
 62
     0
370
    -2
100
AcDbLine
 10
0.0
 20
0.0
 30
0.0
 11
-1.0
 21
0.0
 31
0.0
  0
ENDBLK
  5
A
330
4
100
AcDbEntity
  8
0
100
AcDbBlockEnd
  0
BLOCK
  5
C
330
B
100
AcDbEntity
  8
0
100
AcDbBlockBegin
  2
_DOT
 70
     0
 10
0.0
 20
0.0
 30
0.0
  3
_DOT
  1

  0
POLYLINE
  5
D
330
B
100
AcDbEntity
  8
0
  6
BYBLOCK
 62
     0
370
    -2
100
AcDb2dPolyline
 66
     1
 10
0.0
 20
0.0
 30
0.0
 70
     1
 40
0.5
 41
0.5
  0
VERTEX
  5
E
330
B
100
AcDbEntity
  8
0
  6
BYBLOCK
 62
     0
370
    -2
100
AcDbVertex
100
AcDb2dVertex
 10
-0.25
 20
0.0
 30
0.0
 42
1.0
  0
VERTEX
  5
F
330
B
100
AcDbEntity
  8
0
  6
BYBLOCK
 62
     0
370
    -2
100
AcDbVertex
100
AcDb2dVertex
 10
0.25
 20
0.0
 30
0.0
 42
1.0
  0
SEQEND
  5
10
330
B
100
AcDbEntity
  8
0
  6
BYBLOCK
 62
     0
370
    -2
  0
LINE
  5
11
330
B
100
AcDbEntity
  8
0
  6
BYBLOCK
 62
     0
370
    -2
100
AcDbLine
 10
-0.5
 20
0.0
 30
0.0
 11
-1.0
 21
0.0
 31
0.0
  0
ENDBLK
  5
12
330
B
100
AcDbEntity
  8
0
100
AcDbBlockEnd
  0
BLOCK
  5
14
330
13
100
AcDbEntity
  8
0
100
AcDbBlockBegin
  2
_OPEN
 70
     0
 10
0.0
 20
0.0
 30
0.0
  3
_OPEN
  1

  0
LINE
  5
15
330
13
100
AcDbEntity
  8
0
  6
BYBLOCK
 62
     0
370
    -2
100
AcDbLine
 10
-1.0
 20
0.166667
 30
0.0
 11
0.0
 21
0.0
 31
0.0
  0
LINE
  5
16
330
13
100
AcDbEntity
  8
0
  6
BYBLOCK
 62
     0
370
    -2
100
AcDbLine
 10
0.0
 20
0.0
 30
0.0
 11
-1.0
 21
-0.166667
 31
0.0
  0
LINE
  5
17
330
13
100
AcDbEntity
  8
0
  6
BYBLOCK
 62
     0
370
    -2
100
AcDbLine
 10
0.0
 20
0.0
 30
0.0
 11
-1.0
 21
0.0
 31
0.0
  0
ENDBLK
  5
18
330
13
100
AcDbEntity
  8
0
100
AcDbBlockEnd
  0
BLOCK
  5
1A
330
19
100
AcDbEntity
  8
0
100
AcDbBlockBegin
  2
_ORIGIN
 70
     0
 10
0.0
 20
0.0
 30
0.0
  3
_ORIGIN
  1

  0
CIRCLE
  5
1B
330
19
100
AcDbEntity
  8
0
  6
BYBLOCK
 62
     0
370
    -2
100
AcDbCircle
 10
0.0
 20
0.0
 30
0.0
 40
0.5
  0
LINE
  5
1C
330
19
100
AcDbEntity
  8
0
  6
BYBLOCK
 62
     0
370
    -2
100
AcDbLine
 10
0.0
 20
0.0
 30
0.0
 11
-1.0
 21
0.0
 31
0.0
  0
ENDBLK
  5
1D
330
19
100
AcDbEntity
  8
0
100
AcDbBlockEnd
  0
BLOCK
  5
1F
330
1E
100
AcDbEntity
  8
0
100
AcDbBlockBegin
  2
_OPEN30
 70
     0
 10
0.0
 20
0.0
 30
0.0
  3
_OPEN30
  1

  0
LINE
  5
20
330
1E
100
AcDbEntity
  8
0
  6
BYBLOCK
 62
     0
370
    -2
100
AcDbLine
 10
-1.0
 20
0.267949
 30
0.0
 11
0.0
 21
0.0
 31
0.0
  0
LINE
  5
21
330
1E
100
AcDbEntity
  8
0
  6
BYBLOCK
 62
     0
370
    -2
100
AcDbLine
 10
0.0
 20
0.0
 30
0.0
 11
-1.0
 21
-0.267949
 31
0.0
  0
LINE
  5
22
330
1E
100
AcDbEntity
  8
0
  6
BYBLOCK
 62
     0
370
    -2
100
AcDbLine
 10
0.0
 20
0.0
 30
0.0
 11
-1.0
 21
0.0
 31
0.0
  0
ENDBLK
  5
23
330
1E
100
AcDbEntity
  8
0
100
AcDbBlockEnd
  0
BLOCK
  5
25
330
24
100
AcDbEntity
  8
0
100
AcDbBlockBegin
  2
_BOXFILLED
 70
     0
 10
0.0
 20
0.0
 30
0.0
  3
_BOXFILLED
  1

  0
SOLID
  5
26
330
24
100
AcDbEntity
  8
0
  6
BYBLOCK
 62
     0
370
    -2
100
AcDbTrace
 10
-0.5
 20
0.5
 30
0.0
 11
0.5
 21
0.5
 31
0.0
 12
-0.5
 22
-0.5
 32
0.0
 13
0.5
 23
-0.5
 33
0.0
  0
LINE
  5
27
330
24
100
AcDbEntity
  8
0
  6
BYBLOCK
 62
     0
370
    -2
100
AcDbLine
 10
-0.5
 20
0.0
 30
0.0
 11
-1.0
 21
0.0
 31
0.0
  0
ENDBLK
  5
28
330
24
100
AcDbEntity
  8
0
100
AcDbBlockEnd
  0
BLOCK
  5
2A
330
29
100
AcDbEntity
  8
0
100
AcDbBlockBegin
  2
_BOXBLANK
 70
     0
 10
0.0
 20
0.0
 30
0.0
  3
_BOXBLANK
  1

  0
LINE
  5
2B
330
29
100
AcDbEntity
  8
0
  6
BYBLOCK
 62
     0
370
    -2
100
AcDbLine
 10
-0.5
 20
-0.5
 30
0.0
 11
0.5
 21
-0.5
 31
0.0
  0
LINE
  5
2C
330
29
100
AcDbEntity
  8
0
  6
BYBLOCK
 62
     0
370
    -2
100
AcDbLine
 10
0.5
 20
-0.5
 30
0.0
 11
0.5
 21
0.5
 31
0.0
  0
LINE
  5
2D
330
29
100
AcDbEntity
  8
0
  6
BYBLOCK
 62
     0
370
    -2
100
AcDbLine
 10
0.5
 20
0.5
 30
0.0
 11
-0.5
 21
0.5
 31
0.0
  0
LINE
  5
2E
330
29
100
AcDbEntity
  8
0
  6
BYBLOCK
 62
     0
370
    -2
100
AcDbLine
 10
-0.5
 20
0.5
 30
0.0
 11
-0.5
 21
-0.5
 31
0.0
  0
LINE
  5
2F
330
29
100
AcDbEntity
  8
0
  6
BYBLOCK
 62
     0
370
    -2
100
AcDbLine
 10
-0.5
 20
0.0
 30
0.0
 11
-1.0
 21
0.0
 31
0.0
  0
ENDBLK
  5
30
330
29
100
AcDbEntity
  8
0
100
AcDbBlockEnd
  0
BLOCK
  5
32
330
31
100
AcDbEntity
  8
0
100
AcDbBlockBegin
  2
_OBLIQUE
 70
     0
 10
0.0
 20
0.0
 30
0.0
  3
_OBLIQUE
  1

  0
LINE
  5
33
330
31
100
AcDbEntity
  8
0
  6
BYBLOCK
 62
     0
370
    -2
100
AcDbLine
 10
-0.5
 20
-0.5
 30
0.0
 11
0.5
 21
0.5
 31
0.0
  0
ENDBLK
  5
34
330
31
100
AcDbEntity
  8
0
100
AcDbBlockEnd
  0
BLOCK
  5
36
330
35
100
AcDbEntity
  8
0
100
AcDbBlockBegin
  2
_OPEN90
 70
     0
 10
0.0
 20
0.0
 30
0.0
  3
_OPEN90
  1

  0
LINE
  5
37
330
35
100
AcDbEntity
  8
0
  6
BYBLOCK
 62
     0
370
    -2
100
AcDbLine
 10
-0.5
 20
0.5
 30
0.0
 11
0.0
 21
0.0
 31
0.0
  0
LINE
  5
38
330
35
100
AcDbEntity
  8
0
  6
BYBLOCK
 62
     0
370
    -2
100
AcDbLine
 10
0.0
 20
0.0
 30
0.0
 11
-0.5
 21
-0.5
 31
0.0
  0
LINE
  5
39
330
35
100
AcDbEntity
  8
0
  6
BYBLOCK
 62
     0
370
    -2
100
AcDbLine
 10
0.0
 20
0.0
 30
0.0
 11
-1.0
 21
0.0
 31
0.0
  0
ENDBLK
  5
3A
330
35
100
AcDbEntity
  8
0
100
AcDbBlockEnd
  0
BLOCK
  5
3C
330
3B
100
AcDbEntity
  8
0
100
AcDbBlockBegin
  2
_CLOSEDBLANK
 70
     0
 10
0.0
 20
0.0
 30
0.0
  3
_CLOSEDBLANK
  1

  0
LINE
  5
3D
330
3B
100
AcDbEntity
  8
0
  6
BYBLOCK
 62
     0
370
    -2
100
AcDbLine
 10
-1.0
 20
0.1666666666666666
 30
0.0
 11
0.0
 21
0.0
 31
0.0
  0
LINE
  5
3E
330
3B
100
AcDbEntity
  8
0
  6
BYBLOCK
 62
     0
370
    -2
100
AcDbLine
 10
0.0
 20
0.0
 30
0.0
 11
-1.0
 21
-0.1666666666666666
 31
0.0
  0
LINE
  5
3F
330
3B
100
AcDbEntity
  8
0
  6
BYBLOCK
 62
     0
370
    -2
100
AcDbLine
 10
-1.0
 20
0.1666666666666666
 30
0.0
 11
-1.0
 21
-0.1666666666666666
 31
0.0
  0
ENDBLK
  5
40
330
3B
100
AcDbEntity
  8
0
100
AcDbBlockEnd
  0
BLOCK
  5
42
330
41
100
AcDbEntity
  8
0
100
AcDbBlockBegin
  2
_DOTBLANK
 70
     0
 10
0.0
 20
0.0
 30
0.0
  3
_DOTBLANK
  1

  0
CIRCLE
  5
43
330
41
100
AcDbEntity
  8
0
  6
BYBLOCK
 62
     0
370
    -2
100
AcDbCircle
 10
0.0
 20
0.0
 30
0.0
 40
0.5
  0
LINE
  5
44
330
41
100
AcDbEntity
  8
0
  6
BYBLOCK
 62
     0
370
    -2
100
AcDbLine
 10
-0.5
 20
0.0
 30
0.0
 11
-1.0
 21
0.0
 31
0.0
  0
ENDBLK
  5
45
330
41
100
AcDbEntity
  8
0
100
AcDbBlockEnd
  0
BLOCK
  5
4D
100
AcDbEntity
  8
MAIN0
  6
CONTINUOUS
 62
3
100
AcDbBlockBegin
  2
*D0
 70
    65
 10
0.0
 20
0.0
 30
0.0
  0
LINE
  5
4E
100
AcDbEntity
  8
MAIN0
  6
BYBLOCK
 62
0
370
    -2
100
AcDbLine
 10
216.9531462097641
 20
106.8725883327094
 30
0.0000000000000000
 11
216.9531462097641
 21
122.2316345583430
 31
0.0000000000000000
  0
LINE
  5
4F
100
AcDbEntity
  8
MAIN0
  6
BYBLOCK
 62
0
370
    -2
100
AcDbLine
 10
218.9531462097641
 20
120.2316345583430
 30
0.0000000000000000
 11
231.5531469697642
 21
120.2316345583430
 31
0.0000000000000000
  0
INSERT
  5
50
100
AcDbEntity
  8
MAIN0
  6
BYBLOCK
 62
0
100
AcDbBlockReference
  2
_OPEN
 10
216.9531462097641
 20
120.2316345583430
 30
0.0000000000000000
 41
2.000000000000000
 42
2.000000000000000
 43
2.000000000000000
 50
180.0000000000000
  0
INSERT
  5
51
100
AcDbEntity
  8
MAIN0
  6
BYBLOCK
 62
0
100
AcDbBlockReference
  2
_OPEN
 10
233.5531469697642
 20
120.2316345583430
 30
0.0000000000000000
 41
2.000000000000000
 42
2.000000000000000
 43
2.000000000000000
 50
0.0000000000000000
  0
LINE
  5
52
100
AcDbEntity
  8
MAIN0
  6
BYBLOCK
 62
0
370
    -2
100
AcDbLine
 10
233.5531469697642
 20
105.5261540565898
 30
0.0000000000000000
 11
233.5531469697642
 21
122.2316345583430
 31
0.0000000000000000
  0
MTEXT
  5
53
100
AcDbEntity
  8
MAIN0
  6
BYBLOCK
 62
0
100
AcDbMText
 10
225.2076077455314
 20
122.2816345106593
 30
0.0000000000000000
 40
3.099999904632568
 41
0.0000000000000000
 44
0.7741935722041460
 71
     5
 72
     1
  1
\A1;\U+220516.6
 11
1.000000000000000
 21
0.0000000000000000
 31
0.0000000000000000
  7
STANDARD
  0
ENDBLK
  5
54
100
AcDbEntity
  8
MAIN0
  6
CONTINUOUS
 62
3
100
AcDbBlockEnd
  0
BLOCK
  5
56
100
AcDbEntity
  8
MAIN0
  6
CONTINUOUS
 62
3
100
AcDbBlockBegin
  2
*D1
 70
    65
 10
0.0
 20
0.0
 30
0.0
  0
LINE
  5
57
100
AcDbEntity
  8
MAIN0
  6
BYBLOCK
 62
0
370
    -2
100
AcDbLine
 10
220.2531457701641
 20
90.72615384234791
 30
0.0000000000000000
 11
220.2531457701641
 21
75.74114861056796
 31
0.0000000000000000
  0
LINE
  5
58
100
AcDbEntity
  8
MAIN0
  6
BYBLOCK
 62
0
370
    -2
100
AcDbLine
 10
222.2531457701641
 20
77.74114861056796
 30
0.0000000000000000
 11
228.2531464779641
 21
77.74114861056796
 31
0.0000000000000000
  0
INSERT
  5
59
100
AcDbEntity
  8
MAIN0
  6
BYBLOCK
 62
0
100
AcDbBlockReference
  2
_OPEN
 10
220.2531457701641
 20
77.74114861056796
 30
0.0000000000000000
 41
2.000000000000000
 42
2.000000000000000
 43
2.000000000000000
 50
180.0000000000000
  0
INSERT
  5
5A
100
AcDbEntity
  8
MAIN0
  6
BYBLOCK
 62
0
100
AcDbBlockReference
  2
_OPEN
 10
230.2531464779641
 20
77.74114861056796
 30
0.0000000000000000
 41
2.000000000000000
 42
2.000000000000000
 43
2.000000000000000
 50
0.0000000000000000
  0
LINE
  5
5B
100
AcDbEntity
  8
MAIN0
  6
BYBLOCK
 62
0
370
    -2
100
AcDbLine
 10
230.2531464779641
 20
77.74114861056796
 30
0.0000000000000000
 11
242.9352048123147
 21
77.74114861056796
 31
0.0000000000000000
  0
LINE
  5
5C
100
AcDbEntity
  8
MAIN0
  6
BYBLOCK
 62
0
370
    -2
100
AcDbLine
 10
230.2531464779641
 20
90.72615384234791
 30
0.0000000000000000
 11
230.2531464779641
 21
75.74114861056796
 31
0.0000000000000000
  0
MTEXT
  5
5D
100
AcDbEntity
  8
MAIN0
  6
BYBLOCK
 62
0
100
AcDbMText
 10
237.4352050147129
 20
79.79114856288425
 30
0.0000000000000000
 40
3.099999904632568
 41
0.0000000000000000
 44
0.7741935722041460
 71
     5
 72
     1
  1
\A1;2-\U+220510
 11
1.000000000000000
 21
0.0000000000000000
 31
0.0000000000000000
  7
STANDARD
  0
ENDBLK
  5
5E
100
AcDbEntity
  8
MAIN0
  6
CONTINUOUS
 62
3
100
AcDbBlockEnd
  0
BLOCK
  5
60
100
AcDbEntity
  8
MAIN0
  6
CONTINUOUS
 62
3
100
AcDbBlockBegin
  2
*D2
 70
    65
 10
0.0
 20
0.0
 30
0.0
  0
LINE
  5
61
100
AcDbEntity
  8
MAIN0
  6
BYBLOCK
 62
0
370
    -2
100
AcDbLine
 10
205.6531461054642
 20
110.7261537689897
 30
0.0000000000000000
 11
205.6531461054642
 21
134.5736541393708
 31
0.0000000000000000
  0
LINE
  5
62
100
AcDbEntity
  8
MAIN0
  6
BYBLOCK
 62
0
370
    -2
100
AcDbLine
 10
207.6531461054642
 20
132.3850662353943
 30
0.0000000000000000
 11
242.2531452113640
 21
132.3850662353943
 31
0.0000000000000000
  0
INSERT
  5
63
100
AcDbEntity
  8
MAIN0
  6
BYBLOCK
 62
0
100
AcDbBlockReference
  2
_OPEN
 10
205.6531461054642
 20
132.3850662353943
 30
0.0000000000000000
 41
2.000000000000000
 42
2.000000000000000
 43
2.000000000000000
 50
180.0000000000000
  0
INSERT
  5
64
100
AcDbEntity
  8
MAIN0
  6
BYBLOCK
 62
0
100
AcDbBlockReference
  2
_OPEN
 10
244.2531452113640
 20
132.3850662353943
 30
0.0000000000000000
 41
2.000000000000000
 42
2.000000000000000
 43
2.000000000000000
 50
0.0000000000000000
  0
LINE
  5
65
100
AcDbEntity
  8
MAIN0
  6
BYBLOCK
 62
0
370
    -2
100
AcDbLine
 10
244.2531452113640
 20
96.42615377388333
 30
0.0000000000000000
 11
244.2531452113640
 21
134.3850662353943
 31
0.0000000000000000
  0
MTEXT
  5
66
100
AcDbEntity
  8
MAIN0
  6
BYBLOCK
 62
0
100
AcDbMText
 10
224.9531456584141
 20
134.4350661877106
 30
0.0000000000000000
 40
3.099999904632568
 41
0.0000000000000000
 44
0.7741935722041460
 71
     5
 72
     1
  1
\A1;38.6
 11
1.000000000000000
 21
0.0000000000000000
 31
0.0000000000000000
  7
STANDARD
  0
ENDBLK
  5
67
100
AcDbEntity
  8
MAIN0
  6
CONTINUOUS
 62
3
100
AcDbBlockEnd
  0
BLOCK
  5
69
100
AcDbEntity
  8
MAIN0
  6
CONTINUOUS
 62
3
100
AcDbBlockBegin
  2
*D3
 70
    65
 10
0.0
 20
0.0
 30
0.0
  0
LINE
  5
6A
100
AcDbEntity
  8
MAIN0
  6
BYBLOCK
 62
0
370
    -2
100
AcDbLine
 10
207.5531460935432
 20
114.1261539090689
 30
0.0000000000000000
 11
178.4881855948744
 21
114.1261539090689
 31
0.0000000000000000
  0
LINE
  5
6B
100
AcDbEntity
  8
MAIN0
  6
BYBLOCK
 62
0
370
    -2
100
AcDbLine
 10
180.4881855948744
 20
112.1261539090689
 30
0.0000000000000000
 11
180.4881855948744
 21
93.12615386436886
 31
0.0000000000000000
  0
INSERT
  5
6C
100
AcDbEntity
  8
MAIN0
  6
BYBLOCK
 62
0
100
AcDbBlockReference
  2
_OPEN
 10
180.4881855948744
 20
114.1261539090689
 30
0.0000000000000000
 41
2.000000000000000
 42
2.000000000000000
 43
2.000000000000000
 50
90.00000000000000
  0
INSERT
  5
6D
100
AcDbEntity
  8
MAIN0
  6
BYBLOCK
 62
0
100
AcDbBlockReference
  2
_OPEN
 10
180.4881855948744
 20
91.12615386436886
 30
0.0000000000000000
 41
2.000000000000000
 42
2.000000000000000
 43
2.000000000000000
 50
270.0000000000000
  0
LINE
  5
6E
100
AcDbEntity
  8
MAIN0
  6
BYBLOCK
 62
0
370
    -2
100
AcDbLine
 10
205.0531460884433
 20
91.12615386436886
 30
0.0000000000000000
 11
178.4881855948744
 21
91.12615386436886
 31
0.0000000000000000
  0
MTEXT
  5
6F
100
AcDbEntity
  8
MAIN0
  6
BYBLOCK
 62
0
100
AcDbMText
 10
178.4381856425581
 20
101.3639959559378
 30
0.0000000000000000
 40
3.099999904632568
 41
0.0000000000000000
 44
0.7741935722041460
 71
     5
 72
     1
  1
\A1;23
 11
6.123233995736766e-017
 21
1.000000000000000
 31
0.0000000000000000
  7
STANDARD
  0
ENDBLK
  5
70
100
AcDbEntity
  8
MAIN0
  6
CONTINUOUS
 62
3
100
AcDbBlockEnd
  0
BLOCK
  5
75
100
AcDbEntity
  8
MAIN0
  6
CONTINUOUS
 62
3
100
AcDbBlockBegin
  2
*D4
 70
    65
 10
0.0
 20
0.0
 30
0.0
  0
LINE
  5
76
100
AcDbEntity
  8
MAIN0
  6
BYBLOCK
 62
0
370
    -2
100
AcDbLine
 10
234.7531462842642
 20
105.9261543083898
 30
0.0000000000000000
 11
234.7531462842642
 21
115.4997148408684
 31
0.0000000000000000
  0
LINE
  5
77
100
AcDbEntity
  8
MAIN0
  6
BYBLOCK
 62
0
370
    -2
100
AcDbLine
 10
234.7531462842642
 20
113.4997148408684
 30
0.0000000000000000
 11
244.2531452113640
 21
113.4997148408684
 31
0.0000000000000000
  0
INSERT
  5
78
100
AcDbEntity
  8
MAIN0
  6
BYBLOCK
 62
0
100
AcDbBlockReference
  2
_OPEN
 10
234.7531462842642
 20
113.4997148408684
 30
0.0000000000000000
 41
2.000000000000000
 42
2.000000000000000
 43
2.000000000000000
 50
0.0000000000000000
  0
INSERT
  5
79
100
AcDbEntity
  8
MAIN0
  6
BYBLOCK
 62
0
100
AcDbBlockReference
  2
_OPEN
 10
244.2531452113640
 20
113.4997148408684
 30
0.0000000000000000
 41
2.000000000000000
 42
2.000000000000000
 43
2.000000000000000
 50
180.0000000000000
  0
LINE
  5
7A
100
AcDbEntity
  8
MAIN0
  6
BYBLOCK
 62
0
370
    -2
100
AcDbLine
 10
232.7531462842642
 20
113.4997148408684
 30
0.0000000000000000
 11
231.7531462842642
 21
113.4997148408684
 31
0.0000000000000000
  0
LINE
  5
7B
100
AcDbEntity
  8
MAIN0
  6
BYBLOCK
 62
0
370
    -2
100
AcDbLine
 10
246.2531452113640
 20
113.4997148408684
 30
0.0000000000000000
 11
247.2531452113640
 21
113.4997148408684
 31
0.0000000000000000
  0
LINE
  5
7C
100
AcDbEntity
  8
MAIN0
  6
BYBLOCK
 62
0
370
    -2
100
AcDbLine
 10
244.2531452113640
 20
96.42615377388333
 30
0.0000000000000000
 11
244.2531452113640
 21
115.4997148408684
 31
0.0000000000000000
  0
MTEXT
  5
7D
100
AcDbEntity
  8
MAIN0
  6
BYBLOCK
 62
0
100
AcDbMText
 10
239.5031457478141
 20
115.5497147931847
 30
0.0000000000000000
 40
3.099999904632568
 41
0.0000000000000000
 44
0.7741935722041460
 71
     5
 72
     1
  1
\A1;9.5
 11
1.000000000000000
 21
0.0000000000000000
 31
0.0000000000000000
  7
STANDARD
  0
ENDBLK
  5
7E
100
AcDbEntity
  8
MAIN0
  6
CONTINUOUS
 62
3
100
AcDbBlockEnd
  0
BLOCK
  5
80
100
AcDbEntity
  8
MAIN0
  6
CONTINUOUS
 62
3
100
AcDbBlockBegin
  2
*D5
 70
    65
 10
0.0
 20
0.0
 30
0.0
  0
LINE
  5
81
100
AcDbEntity
  8
MAIN0
  6
BYBLOCK
 62
0
370
    -2
100
AcDbLine
 10
244.2531452113640
 20
198.2926096284917
 30
0.0000000000000000
 11
244.2531452113640
 21
187.9694161416142
 31
0.0000000000000000
  0
ARC
  5
82
100
AcDbEntity
  8
MAIN0
  6
BYBLOCK
 62
0
370
    -2
100
AcDbCircle
 10
244.2531452113640
 20
199.0926096404126
 30
0.0000000000000000
 40
9.123193498798448
100
AcDbArc
 50
239.9999986050954
 51
269.9999999999999
  0
INSERT
  5
83
100
AcDbEntity
  8
MAIN0
  6
BYBLOCK
 62
0
100
AcDbBlockReference
  2
_OPEN
 10
239.6915482696116
 20
191.1916924178673
 30
0.0000000000000000
 41
2.000000000000000
 42
2.000000000000000
 43
2.000000000000000
 50
329.9999986050954
  0
INSERT
  5
84
100
AcDbEntity
  8
MAIN0
  6
BYBLOCK
 62
0
100
AcDbBlockReference
  2
_OPEN
 10
244.2531452113640
 20
189.9694161416142
 30
0.0000000000000000
 41
2.000000000000000
 42
2.000000000000000
 43
2.000000000000000
 50
180.0000000000000
  0
ARC
  5
85
100
AcDbEntity
  8
MAIN0
  6
BYBLOCK
 62
0
370
    -2
100
AcDbCircle
 10
244.2531452113640
 20
199.0926096404126
 30
0.0000000000000000
 40
9.123193498798448
100
AcDbArc
 50
221.1593000534440
 51
227.4395329039945
  0
ARC
  5
86
100
AcDbEntity
  8
MAIN0
  6
BYBLOCK
 62
0
370
    -2
100
AcDbCircle
 10
244.2531452113640
 20
199.0926096404126
 30
0.0000000000000000
 40
9.123193498798448
100
AcDbArc
 50
282.5604657011008
 51
333.0544778995476
  0
MTEXT
  5
87
100
AcDbEntity
  8
MAIN0
  6
BYBLOCK
 62
0
100
AcDbMText
 10
249.2734650200804
 20
194.1099942665145
 30
0.0000000000000000
 40
3.099999904632568
 41
0.0000000000000000
 44
0.7741935722041460
 71
     5
 72
     1
  1
\A1;30\U+00B0
 11
0.7044364530893074
 21
0.7097670628868009
 31
0.0000000000000000
  7
STANDARD
  0
ENDBLK
  5
88
100
AcDbEntity
  8
MAIN0
  6
CONTINUOUS
 62
3
100
AcDbBlockEnd
  0
BLOCK
  5
8A
100
AcDbEntity
  8
MAIN0
  6
CONTINUOUS
 62
3
100
AcDbBlockBegin
  2
*D6
 70
    65
 10
0.0
 20
0.0
 30
0.0
  0
LINE
  5
8B
100
AcDbEntity
  8
MAIN0
  6
BYBLOCK
 62
0
370
    -2
100
AcDbLine
 10
217.8531463617432
 20
264.5926132132688
 30
0.0000000000000000
 11
186.4626433138484
 21
264.5926132132688
 31
0.0000000000000000
  0
LINE
  5
8C
100
AcDbEntity
  8
MAIN0
  6
BYBLOCK
 62
0
370
    -2
100
AcDbLine
 10
188.4626433138484
 20
262.5926132132688
 30
0.0000000000000000
 11
188.4626433138484
 21
191.5926102329688
 31
0.0000000000000000
  0
INSERT
  5
8D
100
AcDbEntity
  8
MAIN0
  6
BYBLOCK
 62
0
100
AcDbBlockReference
  2
_OPEN
 10
188.4626433138484
 20
264.5926132132688
 30
0.0000000000000000
 41
2.000000000000000
 42
2.000000000000000
 43
2.000000000000000
 50
90.00000000000000
  0
INSERT
  5
8E
100
AcDbEntity
  8
MAIN0
  6
BYBLOCK
 62
0
100
AcDbBlockReference
  2
_OPEN
 10
188.4626433138484
 20
189.5926102329688
 30
0.0000000000000000
 41
2.000000000000000
 42
2.000000000000000
 43
2.000000000000000
 50
270.0000000000000
  0
LINE
  5
8F
100
AcDbEntity
  8
MAIN0
  6
BYBLOCK
 62
0
370
    -2
100
AcDbLine
 10
215.4531457820432
 20
189.5926102329688
 30
0.0000000000000000
 11
186.4626433138484
 21
189.5926102329688
 31
0.0000000000000000
  0
MTEXT
  5
90
100
AcDbEntity
  8
MAIN0
  6
BYBLOCK
 62
0
100
AcDbMText
 10
186.4126433615321
 20
227.0926117231188
 30
0.0000000000000000
 40
3.099999904632568
 41
0.0000000000000000
 44
0.7741935722041460
 71
     5
 72
     1
  1
\A1;75
 11
6.123233995736766e-017
 21
1.000000000000000
 31
0.0000000000000000
  7
STANDARD
  0
ENDBLK
  5
91
100
AcDbEntity
  8
MAIN0
  6
CONTINUOUS
 62
3
100
AcDbBlockEnd
  0
BLOCK
  5
AF
100
AcDbEntity
  8
MAIN0
  6
CONTINUOUS
 62
3
100
AcDbBlockBegin
  2
*D7
 70
    65
 10
0.0
 20
0.0
 30
0.0
  0
LINE
  5
B0
100
AcDbEntity
  8
MAIN0
  6
BYBLOCK
 62
0
370
    -2
100
AcDbLine
 10
199.1956984818229
 20
99.12615386436883
 30
0.0000000000000000
 11
194.2516513657367
 21
99.12615386436883
 31
0.0000000000000000
  0
LINE
  5
B1
100
AcDbEntity
  8
MAIN0
  6
BYBLOCK
 62
0
370
    -2
100
AcDbLine
 10
196.2516513657367
 20
97.12615386436883
 30
0.0000000000000000
 11
196.2516513657367
 21
93.12615386436886
 31
0.0000000000000000
  0
INSERT
  5
B2
100
AcDbEntity
  8
MAIN0
  6
BYBLOCK
 62
0
100
AcDbBlockReference
  2
_OPEN
 10
196.2516513657367
 20
99.12615386436883
 30
0.0000000000000000
 41
2.000000000000000
 42
2.000000000000000
 43
2.000000000000000
 50
90.00000000000000
  0
INSERT
  5
B3
100
AcDbEntity
  8
MAIN0
  6
BYBLOCK
 62
0
100
AcDbBlockReference
  2
_OPEN
 10
196.2516513657367
 20
91.12615386436886
 30
0.0000000000000000
 41
2.000000000000000
 42
2.000000000000000
 43
2.000000000000000
 50
270.0000000000000
  0
LINE
  5
B4
100
AcDbEntity
  8
MAIN0
  6
BYBLOCK
 62
0
370
    -2
100
AcDbLine
 10
205.0531460884433
 20
91.12615386436886
 30
0.0000000000000000
 11
194.2516513657367
 21
91.12615386436886
 31
0.0000000000000000
  0
MTEXT
  5
B5
100
AcDbEntity
  8
MAIN0
  6
BYBLOCK
 62
0
100
AcDbMText
 10
194.2016514134204
 20
95.47388738297708
 30
0.0000000000000000
 40
3.099999904632568
 41
0.0000000000000000
 44
0.7741935722041460
 71
     5
 72
     1
  1
\A1;8
 11
6.123233995736766e-017
 21
1.000000000000000
 31
0.0000000000000000
  7
STANDARD
  0
ENDBLK
  5
B6
100
AcDbEntity
  8
MAIN0
  6
CONTINUOUS
 62
3
100
AcDbBlockEnd
  0
BLOCK
  5
B8
100
AcDbEntity
  8
MAIN0
  6
CONTINUOUS
 62
3
100
AcDbBlockBegin
  2
*D8
 70
    65
 10
0.0
 20
0.0
 30
0.0
  0
LINE
  5
B9
100
AcDbEntity
  8
MAIN0
  6
BYBLOCK
 62
0
370
    -2
100
AcDbLine
 10
205.6531461054642
 20
90.52615384734793
 30
0.0000000000000000
 11
205.6531461054642
 21
75.74114861056796
 31
0.0000000000000000
  0
LINE
  5
BA
100
AcDbEntity
  8
MAIN0
  6
BYBLOCK
 62
0
370
    -2
100
AcDbLine
 10
207.6531461054642
 20
77.74114861056796
 30
0.0000000000000000
 11
210.6531461054642
 21
77.74114861056796
 31
0.0000000000000000
  0
INSERT
  5
BB
100
AcDbEntity
  8
MAIN0
  6
BYBLOCK
 62
0
100
AcDbBlockReference
  2
_OPEN
 10
205.6531461054642
 20
77.74114861056796
 30
0.0000000000000000
 41
2.000000000000000
 42
2.000000000000000
 43
2.000000000000000
 50
180.0000000000000
  0
INSERT
  5
BC
100
AcDbEntity
  8
MAIN0
  6
BYBLOCK
 62
0
100
AcDbBlockReference
  2
_OPEN
 10
212.6531461054642
 20
77.74114861056796
 30
0.0000000000000000
 41
2.000000000000000
 42
2.000000000000000
 43
2.000000000000000
 50
0.0000000000000000
  0
LINE
  5
BD
100
AcDbEntity
  8
MAIN0
  6
BYBLOCK
 62
0
370
    -2
100
AcDbLine
 10
212.6531461054642
 20
92.92615385244793
 30
0.0000000000000000
 11
212.6531461054642
 21
75.74114861056796
 31
0.0000000000000000
  0
MTEXT
  5
BE
100
AcDbEntity
  8
MAIN0
  6
BYBLOCK
 62
0
100
AcDbMText
 10
208.9783747309319
 20
79.79114856288425
 30
0.0000000000000000
 40
3.099999904632568
 41
0.0000000000000000
 44
0.7741935722041460
 71
     5
 72
     1
  1
\A1;7
 11
1.000000000000000
 21
0.0000000000000000
 31
0.0000000000000000
  7
STANDARD
  0
ENDBLK
  5
BF
100
AcDbEntity
  8
MAIN0
  6
CONTINUOUS
 62
3
100
AcDbBlockEnd
  0
BLOCK
  5
C1
100
AcDbEntity
  8
MAIN0
  6
CONTINUOUS
 62
3
100
AcDbBlockBegin
  2
*D9
 70
    65
 10
0.0
 20
0.0
 30
0.0
  0
LINE
  5
C2
100
AcDbEntity
  8
MAIN0
  6
BYBLOCK
 62
0
370
    -2
100
AcDbLine
 10
205.0531460884433
 20
110.1261534173688
 30
0.0000000000000000
 11
186.4626433138484
 21
110.1261534173688
 31
0.0000000000000000
  0
LINE
  5
C3
100
AcDbEntity
  8
MAIN0
  6
BYBLOCK
 62
0
370
    -2
100
AcDbLine
 10
188.4626433138484
 20
108.1261534173688
 30
0.0000000000000000
 11
188.4626433138484
 21
93.12615386436886
 31
0.0000000000000000
  0
INSERT
  5
C4
100
AcDbEntity
  8
MAIN0
  6
BYBLOCK
 62
0
100
AcDbBlockReference
  2
_OPEN
 10
188.4626433138484
 20
110.1261534173688
 30
0.0000000000000000
 41
2.000000000000000
 42
2.000000000000000
 43
2.000000000000000
 50
90.00000000000000
  0
INSERT
  5
C5
100
AcDbEntity
  8
MAIN0
  6
BYBLOCK
 62
0
100
AcDbBlockReference
  2
_OPEN
 10
188.4626433138484
 20
91.12615386436886
 30
0.0000000000000000
 41
2.000000000000000
 42
2.000000000000000
 43
2.000000000000000
 50
270.0000000000000
  0
LINE
  5
C6
100
AcDbEntity
  8
MAIN0
  6
BYBLOCK
 62
0
370
    -2
100
AcDbLine
 10
205.0531460884433
 20
91.12615386436886
 30
0.0000000000000000
 11
186.4626433138484
 21
91.12615386436886
 31
0.0000000000000000
  0
MTEXT
  5
C7
100
AcDbEntity
  8
MAIN0
  6
BYBLOCK
 62
0
100
AcDbMText
 10
186.4126433615321
 20
100.6261536408689
 30
0.0000000000000000
 40
3.099999904632568
 41
0.0000000000000000
 44
0.7741935722041460
 71
     5
 72
     1
  1
\A1;19
 11
6.123233995736766e-017
 21
1.000000000000000
 31
0.0000000000000000
  7
STANDARD
  0
ENDBLK
  5
C8
100
AcDbEntity
  8
MAIN0
  6
CONTINUOUS
 62
3
100
AcDbBlockEnd
  0
BLOCK
  5
D2
100
AcDbEntity
  8
MAIN0
  6
CONTINUOUS
 62
3
100
AcDbBlockBegin
  2
*D10
 70
    65
 10
0.0
 20
0.0
 30
0.0
  0
LINE
  5
D3
100
AcDbEntity
  8
MAIN0
  6
BYBLOCK
 62
0
370
    -2
100
AcDbLine
 10
245.0531452232849
 20
255.0926138059251
 30
0.0000000000000000
 11
260.2985363130835
 21
255.0926138059251
 31
0.0000000000000000
  0
LINE
  5
D4
100
AcDbEntity
  8
MAIN0
  6
BYBLOCK
 62
0
370
    -2
100
AcDbLine
 10
258.2985363130835
 20
253.0926138059251
 30
0.0000000000000000
 11
258.2985363130835
 21
201.0926096404126
 31
0.0000000000000000
  0
INSERT
  5
D5
100
AcDbEntity
  8
MAIN0
  6
BYBLOCK
 62
0
100
AcDbBlockReference
  2
_OPEN
 10
258.2985363130835
 20
255.0926138059251
 30
0.0000000000000000
 41
2.000000000000000
 42
2.000000000000000
 43
2.000000000000000
 50
90.00000000000000
  0
INSERT
  5
D6
100
AcDbEntity
  8
MAIN0
  6
BYBLOCK
 62
0
100
AcDbBlockReference
  2
_OPEN
 10
258.2985363130835
 20
199.0926096404126
 30
0.0000000000000000
 41
2.000000000000000
 42
2.000000000000000
 43
2.000000000000000
 50
270.0000000000000
  0
LINE
  5
D7
100
AcDbEntity
  8
MAIN0
  6
BYBLOCK
 62
0
370
    -2
100
AcDbLine
 10
245.0531452232850
 20
199.0926096404126
 30
0.0000000000000000
 11
260.2985363130835
 21
199.0926096404126
 31
0.0000000000000000
  0
MTEXT
  5
D8
100
AcDbEntity
  8
MAIN0
  6
BYBLOCK
 62
0
100
AcDbMText
 10
256.2485363607672
 20
227.0926117231688
 30
0.0000000000000000
 40
3.099999904632568
 41
0.0000000000000000
 44
0.7741935722041460
 71
     5
 72
     1
  1
\A1;56
 11
6.123233995736766e-017
 21
1.000000000000000
 31
0.0000000000000000
  7
STANDARD
  0
ENDBLK
  5
D9
100
AcDbEntity
  8
MAIN0
  6
CONTINUOUS
 62
3
100
AcDbBlockEnd
  0
BLOCK
  5
DB
100
AcDbEntity
  8
MAIN0
  6
CONTINUOUS
 62
3
100
AcDbBlockBegin
  2
*D11
 70
    65
 10
0.0
 20
0.0
 30
0.0
  0
LINE
  5
DC
100
AcDbEntity
  8
MAIN0
  6
BYBLOCK
 62
0
370
    -2
100
AcDbLine
 10
244.8188307042545
 20
95.06046838809573
 30
0.0000000000000000
 11
248.1526656531941
 21
91.72663414061674
 31
0.0000000000000000
  0
LINE
  5
DD
100
AcDbEntity
  8
MAIN0
  6
BYBLOCK
 62
0
370
    -2
100
AcDbLine
 10
235.5531426899163
 20
105.1261542964689
 30
0.0000000000000000
 11
253.7029278052723
 21
105.1261542964689
 31
0.0000000000000000
  0
ARC
  5
DE
100
AcDbEntity
  8
MAIN0
  6
BYBLOCK
 62
0
370
    -2
100
AcDbCircle
 10
234.7531426779954
 20
105.1261542964689
 30
0.0000000000000000
 40
16.94978512727690
100
AcDbArc
 50
321.7606556858363
 51
353.2393503418663
  0
INSERT
  5
DF
100
AcDbEntity
  8
MAIN0
  6
BYBLOCK
 62
0
100
AcDbBlockReference
  2
_OPEN
 10
246.7384519420411
 20
93.14084755420996
 30
0.0000000000000000
 41
2.000000000000000
 42
2.000000000000000
 43
2.000000000000000
 50
225.0000060277025
  0
INSERT
  5
E0
100
AcDbEntity
  8
MAIN0
  6
BYBLOCK
 62
0
100
AcDbBlockReference
  2
_OPEN
 10
251.7029278052723
 20
105.1261542964689
 30
0.0000000000000000
 41
2.000000000000000
 42
2.000000000000000
 43
2.000000000000000
 50
90.00000000000000
  0
MTEXT
  5
E1
100
AcDbEntity
  8
MAIN0
  6
BYBLOCK
 62
0
100
AcDbMText
 10
248.7769814998097
 20
100.0927118402814
 30
0.0000000000000000
 40
3.099999904632568
 41
0.0000000000000000
 44
0.7741935722041460
 71
     5
 72
     1
  1
\A1;45\U+00B0
 11
0.3378198005596911
 21
0.9412108065411332
 31
0.0000000000000000
  7
STANDARD
  0
ENDBLK
  5
E2
100
AcDbEntity
  8
MAIN0
  6
CONTINUOUS
 62
3
100
AcDbBlockEnd
  0
BLOCK
  5
E7
100
AcDbEntity
  8
MAIN0
  6
CONTINUOUS
 62
3
100
AcDbBlockBegin
  2
*D12
 70
    65
 10
0.0
 20
0.0
 30
0.0
  0
LINE
  5
E8
100
AcDbEntity
  8
MAIN0
  6
BYBLOCK
 62
0
370
    -2
100
AcDbLine
 10
237.6470418609247
 20
210.0926117231689
 30
0.0000000000000000
 11
253.7029278052723
 21
210.0926117231689
 31
0.0000000000000000
  0
LINE
  5
E9
100
AcDbEntity
  8
MAIN0
  6
BYBLOCK
 62
0
370
    -2
100
AcDbLine
 10
251.7029278052723
 20
212.0926117231689
 30
0.0000000000000000
 11
251.7029278052723
 21
242.0926117231689
 31
0.0000000000000000
  0
INSERT
  5
EA
100
AcDbEntity
  8
MAIN0
  6
BYBLOCK
 62
0
100
AcDbBlockReference
  2
_OPEN
 10
251.7029278052723
 20
210.0926117231689
 30
0.0000000000000000
 41
2.000000000000000
 42
2.000000000000000
 43
2.000000000000000
 50
270.0000000000000
  0
INSERT
  5
EB
100
AcDbEntity
  8
MAIN0
  6
BYBLOCK
 62
0
100
AcDbBlockReference
  2
_OPEN
 10
251.7029278052723
 20
244.0926117231689
 30
0.0000000000000000
 41
2.000000000000000
 42
2.000000000000000
 43
2.000000000000000
 50
90.00000000000000
  0
LINE
  5
EC
100
AcDbEntity
  8
MAIN0
  6
BYBLOCK
 62
0
370
    -2
100
AcDbLine
 10
239.3984199499640
 20
244.0926117231689
 30
0.0000000000000000
 11
253.7029278052723
 21
244.0926117231689
 31
0.0000000000000000
  0
MTEXT
  5
ED
100
AcDbEntity
  8
MAIN0
  6
BYBLOCK
 62
0
100
AcDbMText
 10
249.6529278529560
 20
226.9272308160756
 30
0.0000000000000000
 40
3.099999904632568
 41
0.0000000000000000
 44
0.7741935722041460
 71
     5
 72
     1
  1
\A1;34
 11
6.123233995736766e-017
 21
1.000000000000000
 31
0.0000000000000000
  7
STANDARD
  0
ENDBLK
  5
EE
100
AcDbEntity
  8
MAIN0
  6
CONTINUOUS
 62
3
100
AcDbBlockEnd
  0
BLOCK
  5
F0
100
AcDbEntity
  8
MAIN0
  6
CONTINUOUS
 62
3
100
AcDbBlockBegin
  2
*D13
 70
    65
 10
0.0
 20
0.0
 30
0.0
  0
LINE
  5
F1
100
AcDbEntity
  8
MAIN0
  6
BYBLOCK
 62
0
370
    -2
100
AcDbLine
 10
205.6531461054642
 20
189.1926132668479
 30
0.0000000000000000
 11
205.6531461054642
 21
161.3365476968018
 31
0.0000000000000000
  0
LINE
  5
F2
100
AcDbEntity
  8
MAIN0
  6
BYBLOCK
 62
0
370
    -2
100
AcDbLine
 10
207.6531461054642
 20
163.3365476968018
 30
0.0000000000000000
 11
223.2531461054641
 21
163.3365476968018
 31
0.0000000000000000
  0
INSERT
  5
F3
100
AcDbEntity
  8
MAIN0
  6
BYBLOCK
 62
0
100
AcDbBlockReference
  2
_OPEN
 10
205.6531461054642
 20
163.3365476968018
 30
0.0000000000000000
 41
2.000000000000000
 42
2.000000000000000
 43
2.000000000000000
 50
180.0000000000000
  0
INSERT
  5
F4
100
AcDbEntity
  8
MAIN0
  6
BYBLOCK
 62
0
100
AcDbBlockReference
  2
_OPEN
 10
225.2531461054641
 20
163.3365476968018
 30
0.0000000000000000
 41
2.000000000000000
 42
2.000000000000000
 43
2.000000000000000
 50
0.0000000000000000
  0
MTEXT
  5
F5
100
AcDbEntity
  8
MAIN0
  6
BYBLOCK
 62
0
100
AcDbMText
 10
215.4531461054642
 20
165.3865476491181
 30
0.0000000000000000
 40
3.099999904632568
 41
0.0000000000000000
 44
0.7741935722041460
 71
     5
 72
     1
  1
\A1;19.6
 11
1.000000000000000
 21
0.0000000000000000
 31
0.0000000000000000
  7
STANDARD
  0
ENDBLK
  5
F6
100
AcDbEntity
  8
MAIN0
  6
CONTINUOUS
 62
3
100
AcDbBlockEnd
  0
BLOCK
  5
FE
100
AcDbEntity
  8
MAIN0
  6
CONTINUOUS
 62
3
100
AcDbBlockBegin
  2
*D14
 70
    65
 10
0.0
 20
0.0
 30
0.0
  0
LINE
  5
FF
100
AcDbEntity
  8
MAIN0
  6
BYBLOCK
 62
0
370
    -2
100
AcDbLine
 10
244.8531455629849
 20
91.12615386436886
 30
0.0000000000000000
 11
260.2985363130835
 21
91.12615386436886
 31
0.0000000000000000
  0
LINE
  5
100
100
AcDbEntity
  8
MAIN0
  6
BYBLOCK
 62
0
370
    -2
100
AcDbLine
 10
258.2985363130835
 20
93.12615386436886
 30
0.0000000000000000
 11
258.2985363130835
 21
103.1261542964689
 31
0.0000000000000000
  0
INSERT
  5
101
100
AcDbEntity
  8
MAIN0
  6
BYBLOCK
 62
0
100
AcDbBlockReference
  2
_OPEN
 10
258.2985363130835
 20
91.12615386436886
 30
0.0000000000000000
 41
2.000000000000000
 42
2.000000000000000
 43
2.000000000000000
 50
270.0000000000000
  0
INSERT
  5
102
100
AcDbEntity
  8
MAIN0
  6
BYBLOCK
 62
0
100
AcDbBlockReference
  2
_OPEN
 10
258.2985363130835
 20
105.1261542964689
 30
0.0000000000000000
 41
2.000000000000000
 42
2.000000000000000
 43
2.000000000000000
 50
90.00000000000000
  0
LINE
  5
103
100
AcDbEntity
  8
MAIN0
  6
BYBLOCK
 62
0
370
    -2
100
AcDbLine
 10
235.5531426899163
 20
105.1261542964689
 30
0.0000000000000000
 11
260.2985363130835
 21
105.1261542964689
 31
0.0000000000000000
  0
MTEXT
  5
104
100
AcDbEntity
  8
MAIN0
  6
BYBLOCK
 62
0
100
AcDbMText
 10
256.2485363607672
 20
98.12615408041886
 30
0.0000000000000000
 40
3.099999904632568
 41
0.0000000000000000
 44
0.7741935722041460
 71
     5
 72
     1
  1
\A1;14
 11
6.123233995736766e-017
 21
1.000000000000000
 31
0.0000000000000000
  7
STANDARD
  0
ENDBLK
  5
105
100
AcDbEntity
  8
MAIN0
  6
CONTINUOUS
 62
3
100
AcDbBlockEnd
  0
BLOCK
  5
10B
100
AcDbEntity
  8
MAIN0
  6
CONTINUOUS
 62
3
100
AcDbBlockBegin
  2
*D15
 70
    65
 10
0.0
 20
0.0
 30
0.0
  0
LINE
  5
10C
100
AcDbEntity
  8
MAIN0
  6
BYBLOCK
 62
0
370
    -2
100
AcDbLine
 10
205.6531461054642
 20
110.7261537689897
 30
0.0000000000000000
 11
205.6531461054642
 21
128.3886562461211
 31
0.0000000000000000
  0
LINE
  5
10D
100
AcDbEntity
  8
MAIN0
  6
BYBLOCK
 62
0
370
    -2
100
AcDbLine
 10
207.6531461054642
 20
126.3886562461211
 30
0.0000000000000000
 11
214.6531460458641
 21
126.3886562461211
 31
0.0000000000000000
  0
INSERT
  5
10E
100
AcDbEntity
  8
MAIN0
  6
BYBLOCK
 62
0
100
AcDbBlockReference
  2
_OPEN
 10
205.6531461054642
 20
126.3886562461211
 30
0.0000000000000000
 41
2.000000000000000
 42
2.000000000000000
 43
2.000000000000000
 50
180.0000000000000
  0
INSERT
  5
10F
100
AcDbEntity
  8
MAIN0
  6
BYBLOCK
 62
0
100
AcDbBlockReference
  2
_OPEN
 10
216.6531460458641
 20
126.3886562461211
 30
0.0000000000000000
 41
2.000000000000000
 42
2.000000000000000
 43
2.000000000000000
 50
0.0000000000000000
  0
LINE
  5
110
100
AcDbEntity
  8
MAIN0
  6
BYBLOCK
 62
0
370
    -2
100
AcDbLine
 10
216.6531460458641
 20
110.7261534292898
 30
0.0000000000000000
 11
216.6531460458641
 21
128.3886562461211
 31
0.0000000000000000
  0
MTEXT
  5
111
100
AcDbEntity
  8
MAIN0
  6
BYBLOCK
 62
0
100
AcDbMText
 10
211.1531460756641
 20
128.4386561984374
 30
0.0000000000000000
 40
3.099999904632568
 41
0.0000000000000000
 44
0.7741935722041460
 71
     5
 72
     1
  1
\A1;11
 11
1.000000000000000
 21
0.0000000000000000
 31
0.0000000000000000
  7
STANDARD
  0
ENDBLK
  5
112
100
AcDbEntity
  8
MAIN0
  6
CONTINUOUS
 62
3
100
AcDbBlockEnd
  0
BLOCK
  5
114
100
AcDbEntity
  8
MAIN0
  6
CONTINUOUS
 62
3
100
AcDbBlockBegin
  2
*D16
 70
    65
 10
0.0
 20
0.0
 30
0.0
  0
LINE
  5
115
100
AcDbEntity
  8
MAIN0
  6
BYBLOCK
 62
0
370
    -2
100
AcDbLine
 10
214.1531461054893
 20
188.7926102210479
 30
0.0000000000000000
 11
214.1531461054893
 21
175.3314817872640
 31
0.0000000000000000
  0
LINE
  5
116
100
AcDbEntity
  8
MAIN0
  6
BYBLOCK
 62
0
370
    -2
100
AcDbLine
 10
214.1531461054893
 20
177.3314817872640
 30
0.0000000000000000
 11
225.2531461054641
 21
177.3314817872640
 31
0.0000000000000000
  0
INSERT
  5
117
100
AcDbEntity
  8
MAIN0
  6
BYBLOCK
 62
0
100
AcDbBlockReference
  2
_OPEN
 10
214.1531461054893
 20
177.3314817872640
 30
0.0000000000000000
 41
2.000000000000000
 42
2.000000000000000
 43
2.000000000000000
 50
0.0000000000000000
  0
INSERT
  5
118
100
AcDbEntity
  8
MAIN0
  6
BYBLOCK
 62
0
100
AcDbBlockReference
  2
_OPEN
 10
225.2531461054641
 20
177.3314817872640
 30
0.0000000000000000
 41
2.000000000000000
 42
2.000000000000000
 43
2.000000000000000
 50
180.0000000000000
  0
LINE
  5
119
100
AcDbEntity
  8
MAIN0
  6
BYBLOCK
 62
0
370
    -2
100
AcDbLine
 10
212.1531461054893
 20
177.3314817872640
 30
0.0000000000000000
 11
211.1531461054893
 21
177.3314817872640
 31
0.0000000000000000
  0
LINE
  5
11A
100
AcDbEntity
  8
MAIN0
  6
BYBLOCK
 62
0
370
    -2
100
AcDbLine
 10
227.2531461054641
 20
177.3314817872640
 30
0.0000000000000000
 11
228.2531461054641
 21
177.3314817872640
 31
0.0000000000000000
  0
MTEXT
  5
11B
100
AcDbEntity
  8
MAIN0
  6
BYBLOCK
 62
0
100
AcDbMText
 10
219.5961503889459
 20
179.3814817395803
 30
0.0000000000000000
 40
3.099999904632568
 41
0.0000000000000000
 44
0.7741935722041460
 71
     5
 72
     1
  1
\A1;11.1
 11
1.000000000000000
 21
0.0000000000000000
 31
0.0000000000000000
  7
STANDARD
  0
ENDBLK
  5
11C
100
AcDbEntity
  8
MAIN0
  6
CONTINUOUS
 62
3
100
AcDbBlockEnd
  0
BLOCK
  5
11E
100
AcDbEntity
  8
MAIN0
  6
CONTINUOUS
 62
3
100
AcDbBlockBegin
  2
*D17
 70
    65
 10
0.0
 20
0.0
 30
0.0
  0
LINE
  5
11F
100
AcDbEntity
  8
MAIN0
  6
BYBLOCK
 62
0
370
    -2
100
AcDbLine
 10
208.1531461054642
 20
188.7926102210479
 30
0.0000000000000000
 11
208.1531461054642
 21
168.3392298133919
 31
0.0000000000000000
  0
LINE
  5
120
100
AcDbEntity
  8
MAIN0
  6
BYBLOCK
 62
0
370
    -2
100
AcDbLine
 10
210.1531461054642
 20
170.3392298133919
 30
0.0000000000000000
 11
223.2531461054641
 21
170.3392298133919
 31
0.0000000000000000
  0
INSERT
  5
121
100
AcDbEntity
  8
MAIN0
  6
BYBLOCK
 62
0
100
AcDbBlockReference
  2
_OPEN
 10
208.1531461054642
 20
170.3392298133919
 30
0.0000000000000000
 41
2.000000000000000
 42
2.000000000000000
 43
2.000000000000000
 50
180.0000000000000
  0
INSERT
  5
122
100
AcDbEntity
  8
MAIN0
  6
BYBLOCK
 62
0
100
AcDbBlockReference
  2
_OPEN
 10
225.2531461054641
 20
170.3392298133919
 30
0.0000000000000000
 41
2.000000000000000
 42
2.000000000000000
 43
2.000000000000000
 50
0.0000000000000000
  0
MTEXT
  5
123
100
AcDbEntity
  8
MAIN0
  6
BYBLOCK
 62
0
100
AcDbMText
 10
216.7031461054642
 20
172.3892297657082
 30
0.0000000000000000
 40
3.099999904632568
 41
0.0000000000000000
 44
0.7741935722041460
 71
     5
 72
     1
  1
\A1;17.1
 11
1.000000000000000
 21
0.0000000000000000
 31
0.0000000000000000
  7
STANDARD
  0
ENDBLK
  5
124
100
AcDbEntity
  8
MAIN0
  6
CONTINUOUS
 62
3
100
AcDbBlockEnd
  0
BLOCK
  5
126
100
AcDbEntity
  8
MAIN0
  6
CONTINUOUS
 62
3
100
AcDbBlockBegin
  2
*D18
 70
    65
 10
0.0
 20
0.0
 30
0.0
  0
LINE
  5
127
100
AcDbEntity
  8
MAIN0
  6
BYBLOCK
 62
0
370
    -2
100
AcDbLine
 10
229.2520973549835
 20
103.1261542964689
 30
0.0000000000000000
 11
229.2520973549835
 21
99.12615391646884
 31
0.0000000000000000
  0
INSERT
  5
128
100
AcDbEntity
  8
MAIN0
  6
BYBLOCK
 62
0
100
AcDbBlockReference
  2
_OPEN
 10
229.2520973549835
 20
105.1261542964689
 30
0.0000000000000000
 41
2.000000000000000
 42
2.000000000000000
 43
2.000000000000000
 50
90.00000000000000
  0
INSERT
  5
129
100
AcDbEntity
  8
MAIN0
  6
BYBLOCK
 62
0
100
AcDbBlockReference
  2
_OPEN
 10
229.2520973549835
 20
97.12615391646884
 30
0.0000000000000000
 41
2.000000000000000
 42
2.000000000000000
 43
2.000000000000000
 50
270.0000000000000
  0
MTEXT
  5
12A
100
AcDbEntity
  8
MAIN0
  6
BYBLOCK
 62
0
100
AcDbMText
 10
227.2020974026672
 20
101.1261541064689
 30
0.0000000000000000
 40
3.099999904632568
 41
0.0000000000000000
 44
0.7741935722041460
 71
     5
 72
     1
  1
\A1;8
 11
6.123233995736766e-017
 21
1.000000000000000
 31
0.0000000000000000
  7
STANDARD
  0
ENDBLK
  5
12B
100
AcDbEntity
  8
MAIN0
  6
CONTINUOUS
 62
3
100
AcDbBlockEnd
  0
BLOCK
  5
429
100
AcDbEntity
  8
WAKU0
  6
BYBLOCK
 62
2
100
AcDbBlockBegin
  2
M0
 70
    64
 10
0.0
 20
0.0
 30
0.0
  0
LINE
  5
42A
100
AcDbEntity
  8
WAKU0
  6
BYBLOCK
 62
0
370
    -2
100
AcDbLine
 10
20.00000000000364
 20
12.00000000000010
 30
0.0000000000000000
 11
410.0000000000001
 21
12.00000000000000
 31
0.0000000000000000
  0
LINE
  5
42B
100
AcDbEntity
  8
WAKU0
  6
BYBLOCK
 62
0
370
    -2
100
AcDbLine
 10
20.00000000000370
 20
286.9999999999964
 30
0.0000000000000000
 11
410.0000000000000
 21
286.9999999999964
 31
0.0000000000000000
  0
LINE
  5
42C
100
AcDbEntity
  8
WAKU0
  6
BYBLOCK
 62
0
370
    -2
100
AcDbLine
 10
20.00000000000364
 20
12.00000000000010
 30
0.0000000000000000
 11
20.00000000000370
 21
286.9999999999964
 31
0.0000000000000000
  0
LINE
  5
42D
100
AcDbEntity
  8
WAKU0
  6
BYBLOCK
 62
0
370
    -2
100
AcDbLine
 10
210.0000000000001
 20
-3.552713678800501e-015
 30
0.0000000000000000
 11
210.0000000000001
 21
12.00000000000013
 31
0.0000000000000000
  0
LINE
  5
42E
100
AcDbEntity
  8
WAKU0
  6
BYBLOCK
 62
0
370
    -2
100
AcDbLine
 10
210.0000000000001
 20
286.9999999999964
 30
0.0000000000000000
 11
210.0000000000002
 21
296.9999999999964
 31
0.0000000000000000
  0
LINE
  5
42F
100
AcDbEntity
  8
WAKU0
  6
BYBLOCK
 62
0
370
    -2
100
AcDbLine
 10
3.637978807091713e-012
 20
148.4999999999999
 30
0.0000000000000000
 11
20.00000000000364
 21
148.4999999999999
 31
0.0000000000000000
  0
LINE
  5
430
100
AcDbEntity
  8
WAKU0
  6
BYBLOCK
 62
0
370
    -2
100
AcDbLine
 10
410.0000000000000
 20
148.5000000000000
 30
0.0000000000000000
 11
420.0000000000001
 21
148.5000000000000
 31
0.0000000000000000
  0
LINE
  5
431
100
AcDbEntity
  8
WAKU0
  6
BYBLOCK
 62
0
370
    -2
100
AcDbLine
 10
160.0000000000002
 20
6.999999999999995
 30
0.0000000000000000
 11
260.0000000000000
 21
6.999999999999996
 31
0.0000000000000000
  0
LINE
  5
432
100
AcDbEntity
  8
WAKU0
  6
BYBLOCK
 62
0
370
    -2
100
AcDbLine
 10
160.0000000000002
 20
7.000000000000007
 30
0.0000000000000000
 11
160.0000000000002
 21
12.00000000000016
 31
0.0000000000000000
  0
LINE
  5
433
100
AcDbEntity
  8
WAKU0
  6
BYBLOCK
 62
0
370
    -2
100
AcDbLine
 10
170.0000000000002
 20
10.00000000000003
 30
0.0000000000000000
 11
170.0000000000002
 21
7.000000000000025
 31
0.0000000000000000
  0
LINE
  5
434
100
AcDbEntity
  8
WAKU0
  6
BYBLOCK
 62
0
370
    -2
100
AcDbLine
 10
260.0000000000001
 20
7.000000000000007
 30
0.0000000000000000
 11
260.0000000000001
 21
12.00000000000011
 31
0.0000000000000000
  0
LINE
  5
435
100
AcDbEntity
  8
WAKU0
  6
BYBLOCK
 62
0
370
    -2
100
AcDbLine
 10
180.0000000000002
 20
10.00000000000003
 30
0.0000000000000000
 11
180.0000000000002
 21
7.000000000000025
 31
0.0000000000000000
  0
LINE
  5
436
100
AcDbEntity
  8
WAKU0
  6
BYBLOCK
 62
0
370
    -2
100
AcDbLine
 10
190.0000000000002
 20
10.00000000000003
 30
0.0000000000000000
 11
190.0000000000002
 21
7.000000000000025
 31
0.0000000000000000
  0
LINE
  5
437
100
AcDbEntity
  8
WAKU0
  6
BYBLOCK
 62
0
370
    -2
100
AcDbLine
 10
200.0000000000002
 20
10.00000000000003
 30
0.0000000000000000
 11
200.0000000000002
 21
7.000000000000025
 31
0.0000000000000000
  0
LINE
  5
438
100
AcDbEntity
  8
WAKU0
  6
BYBLOCK
 62
0
370
    -2
100
AcDbLine
 10
220.0000000000002
 20
10.00000000000003
 30
0.0000000000000000
 11
220.0000000000002
 21
7.000000000000025
 31
0.0000000000000000
  0
LINE
  5
439
100
AcDbEntity
  8
WAKU0
  6
BYBLOCK
 62
0
370
    -2
100
AcDbLine
 10
230.0000000000002
 20
10.00000000000003
 30
0.0000000000000000
 11
230.0000000000002
 21
7.000000000000025
 31
0.0000000000000000
  0
LINE
  5
43A
100
AcDbEntity
  8
WAKU0
  6
BYBLOCK
 62
0
370
    -2
100
AcDbLine
 10
240.0000000000002
 20
10.00000000000003
 30
0.0000000000000000
 11
240.0000000000002
 21
7.000000000000025
 31
0.0000000000000000
  0
LINE
  5
43B
100
AcDbEntity
  8
WAKU0
  6
BYBLOCK
 62
0
370
    -2
100
AcDbLine
 10
250.0000000000002
 20
10.00000000000003
 30
0.0000000000000000
 11
250.0000000000002
 21
7.000000000000025
 31
0.0000000000000000
  0
LINE
  5
43C
100
AcDbEntity
  8
WAKU0
  6
BYBLOCK
 62
0
370
    -2
100
AcDbLine
 10
80.00000000000364
 20
286.9999999999964
 30
0.0000000000000000
 11
80.00000000000364
 21
290.9999999999964
 31
0.0000000000000000
  0
LINE
  5
43D
100
AcDbEntity
  8
WAKU0
  6
BYBLOCK
 62
0
370
    -2
100
AcDbLine
 10
145.0000000000036
 20
286.9999999999964
 30
0.0000000000000000
 11
145.0000000000036
 21
290.9999999999964
 31
0.0000000000000000
  0
LINE
  5
43E
100
AcDbEntity
  8
WAKU0
  6
BYBLOCK
 62
0
370
    -2
100
AcDbLine
 10
275.0000000000000
 20
286.9999999999964
 30
0.0000000000000000
 11
275.0000000000000
 21
290.9999999999964
 31
0.0000000000000000
  0
LINE
  5
43F
100
AcDbEntity
  8
WAKU0
  6
BYBLOCK
 62
0
370
    -2
100
AcDbLine
 10
339.9999999999999
 20
286.9999999999964
 30
0.0000000000000000
 11
339.9999999999999
 21
290.9999999999964
 31
0.0000000000000000
  0
LINE
  5
440
100
AcDbEntity
  8
WAKU0
  6
BYBLOCK
 62
0
370
    -2
100
AcDbLine
 10
274.9824199069989
 20
7.999999999999996
 30
0.0000000000000000
 11
274.9824199069989
 21
12.00000000000015
 31
0.0000000000000000
  0
LINE
  5
441
100
AcDbEntity
  8
WAKU0
  6
BYBLOCK
 62
0
370
    -2
100
AcDbLine
 10
340.0873184256148
 20
7.999999999999996
 30
0.0000000000000000
 11
340.0873184256148
 21
12.00000000000010
 31
0.0000000000000000
  0
LINE
  5
442
100
AcDbEntity
  8
WAKU0
  6
BYBLOCK
 62
0
370
    -2
100
AcDbLine
 10
145.0000000000036
 20
7.999999999999996
 30
0.0000000000000000
 11
145.0000000000036
 21
12.00000000000015
 31
0.0000000000000000
  0
LINE
  5
443
100
AcDbEntity
  8
WAKU0
  6
BYBLOCK
 62
0
370
    -2
100
AcDbLine
 10
80.00000000000364
 20
7.999999999999996
 30
0.0000000000000000
 11
80.00000000000364
 21
12.00000000000015
 31
0.0000000000000000
  0
LINE
  5
444
100
AcDbEntity
  8
WAKU0
  6
BYBLOCK
 62
0
370
    -2
100
AcDbLine
 10
16.00000000000381
 20
218.4999999999999
 30
0.0000000000000000
 11
20.00000000000381
 21
218.4999999999999
 31
0.0000000000000000
  0
LINE
  5
445
100
AcDbEntity
  8
WAKU0
  6
BYBLOCK
 62
0
370
    -2
100
AcDbLine
 10
410.0000000000000
 20
218.5000000000000
 30
0.0000000000000000
 11
413.9999999999999
 21
218.5000000000000
 31
0.0000000000000000
  0
LINE
  5
446
100
AcDbEntity
  8
WAKU0
  6
BYBLOCK
 62
0
370
    -2
100
AcDbLine
 10
16.00000000000370
 20
78.49999999999994
 30
0.0000000000000000
 11
20.00000000000370
 21
78.49999999999993
 31
0.0000000000000000
  0
LINE
  5
447
100
AcDbEntity
  8
WAKU0
  6
BYBLOCK
 62
0
370
    -2
100
AcDbLine
 10
410.0000000000000
 20
78.49999999999994
 30
0.0000000000000000
 11
413.9999999999999
 21
78.49999999999994
 31
0.0000000000000000
  0
LINE
  5
448
100
AcDbEntity
  8
WAKU0
  6
BYBLOCK
 62
0
370
    -2
100
AcDbLine
 10
418.0000000000001
 20
1.999999999999998
 30
0.0000000000000000
 11
418.0000000000001
 21
7.999999999999987
 31
0.0000000000000000
  0
LINE
  5
449
100
AcDbEntity
  8
WAKU0
  6
BYBLOCK
 62
0
370
    -2
100
AcDbLine
 10
417.9999999999999
 20
288.9999999999963
 30
0.0000000000000000
 11
418.0000000000000
 21
294.9999999999963
 31
0.0000000000000000
  0
LINE
  5
44A
100
AcDbEntity
  8
WAKU0
  6
BYBLOCK
 62
0
370
    -2
100
AcDbLine
 10
2.000000000003638
 20
2.000000000000037
 30
0.0000000000000000
 11
2.000000000003638
 21
8.000000000000050
 31
0.0000000000000000
  0
LINE
  5
44B
100
AcDbEntity
  8
WAKU0
  6
BYBLOCK
 62
0
370
    -2
100
AcDbLine
 10
2.000000000003638
 20
288.9999999999964
 30
0.0000000000000000
 11
2.000000000003638
 21
294.9999999999964
 31
0.0000000000000000
  0
LINE
  5
44C
100
AcDbEntity
  8
WAKU0
  6
BYBLOCK
 62
0
370
    -2
100
AcDbLine
 10
2.000000000002672
 20
294.9999999999966
 30
0.0000000000000000
 11
8.000000000002672
 21
294.9999999999965
 31
0.0000000000000000
  0
LINE
  5
44D
100
AcDbEntity
  8
WAKU0
  6
BYBLOCK
 62
0
370
    -2
100
AcDbLine
 10
411.9999999999999
 20
294.9999999999963
 30
0.0000000000000000
 11
418.0000000000000
 21
294.9999999999964
 31
0.0000000000000000
  0
LINE
  5
44E
100
AcDbEntity
  8
WAKU0
  6
BYBLOCK
 62
0
370
    -2
100
AcDbLine
 10
2.000000000003638
 20
2.000000000000037
 30
0.0000000000000000
 11
8.000000000003638
 21
2.000000000000036
 31
0.0000000000000000
  0
LINE
  5
44F
100
AcDbEntity
  8
WAKU0
  6
BYBLOCK
 62
0
370
    -2
100
AcDbLine
 10
412.0000000000001
 20
1.999999999999998
 30
0.0000000000000000
 11
418.0000000000001
 21
1.999999999999998
 31
0.0000000000000000
  0
LINE
  5
450
100
AcDbEntity
  8
WAKU0
  6
BYBLOCK
 62
0
370
    -2
100
AcDbLine
 10
420.2411645794610
 20
53.79556398365287
 30
0.0000000000000000
 11
420.2411645794610
 21
46.79556398365287
 31
0.0000000000000000
  0
LINE
  5
451
100
AcDbEntity
  8
WAKU0
  6
BYBLOCK
 62
0
370
    -2
100
AcDbLine
 10
410.0000000000001
 20
12.00000000000011
 30
0.0000000000000000
 11
410.0000000000001
 21
286.9999999999964
 31
0.0000000000000000
  0
MTEXT
  5
452
100
AcDbEntity
  8
WAKU0
  6
BYBLOCK
 62
0
370
    -2
100
AcDbMText
 10
52.00000000000364
 20
292.1000003814661
 30
0.0000000000000000
 40
3.100000381469727
 41
0.0000000000000000
 44
0.6719999870792528
 71
     1
 72
     1
  1
{\H0.81x;1}
 11
1.000000000000000
 21
0.0000000000000000
 31
0.0000000000000000
  7
STANDARD
  0
MTEXT
  5
453
100
AcDbEntity
  8
WAKU0
  6
BYBLOCK
 62
0
370
    -2
100
AcDbMText
 10
112.0000000000036
 20
292.1000003814661
 30
0.0000000000000000
 40
3.100000381469727
 41
0.0000000000000000
 44
0.6719999870792528
 71
     1
 72
     1
  1
{\H0.81x;2}
 11
1.000000000000000
 21
0.0000000000000000
 31
0.0000000000000000
  7
STANDARD
  0
MTEXT
  5
454
100
AcDbEntity
  8
WAKU0
  6
BYBLOCK
 62
0
370
    -2
100
AcDbMText
 10
177.0000000000002
 20
292.1000003814661
 30
0.0000000000000000
 40
3.100000381469727
 41
0.0000000000000000
 44
0.6719999870792528
 71
     1
 72
     1
  1
{\H0.81x;3}
 11
1.000000000000000
 21
0.0000000000000000
 31
0.0000000000000000
  7
STANDARD
  0
MTEXT
  5
455
100
AcDbEntity
  8
WAKU0
  6
BYBLOCK
 62
0
370
    -2
100
AcDbMText
 10
242.0000000000002
 20
292.1000003814661
 30
0.0000000000000000
 40
3.100000381469727
 41
0.0000000000000000
 44
0.6719999870792528
 71
     1
 72
     1
  1
{\H0.81x;4}
 11
1.000000000000000
 21
0.0000000000000000
 31
0.0000000000000000
  7
STANDARD
  0
MTEXT
  5
456
100
AcDbEntity
  8
WAKU0
  6
BYBLOCK
 62
0
370
    -2
100
AcDbMText
 10
307.0000000000002
 20
292.1000003814661
 30
0.0000000000000000
 40
3.100000381469727
 41
0.0000000000000000
 44
0.6719999870792528
 71
     1
 72
     1
  1
{\H0.81x;5}
 11
1.000000000000000
 21
0.0000000000000000
 31
0.0000000000000000
  7
STANDARD
  0
MTEXT
  5
457
100
AcDbEntity
  8
WAKU0
  6
BYBLOCK
 62
0
370
    -2
100
AcDbMText
 10
377.0000000000001
 20
292.1000003814661
 30
0.0000000000000000
 40
3.100000381469727
 41
0.0000000000000000
 44
0.6719999870792528
 71
     1
 72
     1
  1
{\H0.81x;6}
 11
1.000000000000000
 21
0.0000000000000000
 31
0.0000000000000000
  7
STANDARD
  0
MTEXT
  5
458
100
AcDbEntity
  8
WAKU0
  6
BYBLOCK
 62
0
370
    -2
100
AcDbMText
 10
52.00000000000364
 20
11.10000038146984
 30
0.0000000000000000
 40
3.100000381469727
 41
0.0000000000000000
 44
0.6719999870792528
 71
     1
 72
     1
  1
{\H0.81x;1}
 11
1.000000000000000
 21
0.0000000000000000
 31
0.0000000000000000
  7
STANDARD
  0
MTEXT
  5
459
100
AcDbEntity
  8
WAKU0
  6
BYBLOCK
 62
0
370
    -2
100
AcDbMText
 10
112.0000000000036
 20
11.10000038146984
 30
0.0000000000000000
 40
3.100000381469727
 41
0.0000000000000000
 44
0.6719999870792528
 71
     1
 72
     1
  1
{\H0.81x;2}
 11
1.000000000000000
 21
0.0000000000000000
 31
0.0000000000000000
  7
STANDARD
  0
MTEXT
  5
45A
100
AcDbEntity
  8
WAKU0
  6
BYBLOCK
 62
0
370
    -2
100
AcDbMText
 10
307.0000000000001
 20
11.10000038146984
 30
0.0000000000000000
 40
3.100000381469727
 41
0.0000000000000000
 44
0.6719999870792528
 71
     1
 72
     1
  1
{\H0.81x;5}
 11
1.000000000000000
 21
0.0000000000000000
 31
0.0000000000000000
  7
STANDARD
  0
MTEXT
  5
45B
100
AcDbEntity
  8
WAKU0
  6
BYBLOCK
 62
0
370
    -2
100
AcDbMText
 10
377.0000000000001
 20
11.10000038146984
 30
0.0000000000000000
 40
3.100000381469727
 41
0.0000000000000000
 44
0.6719999870792528
 71
     1
 72
     1
  1
{\H0.81x;6}
 11
1.000000000000000
 21
0.0000000000000000
 31
0.0000000000000000
  7
STANDARD
  0
MTEXT
  5
45C
100
AcDbEntity
  8
WAKU0
  6
BYBLOCK
 62
0
370
    -2
100
AcDbMText
 10
17.00000000000364
 20
255.1000003814696
 30
0.0000000000000000
 40
3.100000381469727
 41
0.0000000000000000
 44
0.6719999870792528
 71
     1
 72
     1
  1
{\H0.81x;A}
 11
1.000000000000000
 21
0.0000000000000000
 31
0.0000000000000000
  7
STANDARD
  0
MTEXT
  5
45D
100
AcDbEntity
  8
WAKU0
  6
BYBLOCK
 62
0
370
    -2
100
AcDbMText
 10
17.00000000000364
 20
187.1000003814696
 30
0.0000000000000000
 40
3.100000381469727
 41
0.0000000000000000
 44
0.6719999870792528
 71
     1
 72
     1
  1
{\H0.81x;B}
 11
1.000000000000000
 21
0.0000000000000000
 31
0.0000000000000000
  7
STANDARD
  0
MTEXT
  5
45E
100
AcDbEntity
  8
WAKU0
  6
BYBLOCK
 62
0
370
    -2
100
AcDbMText
 10
17.00000000000364
 20
117.1000003814696
 30
0.0000000000000000
 40
3.100000381469727
 41
0.0000000000000000
 44
0.6719999870792528
 71
     1
 72
     1
  1
{\H0.81x;C}
 11
1.000000000000000
 21
0.0000000000000000
 31
0.0000000000000000
  7
STANDARD
  0
MTEXT
  5
45F
100
AcDbEntity
  8
WAKU0
  6
BYBLOCK
 62
0
370
    -2
100
AcDbMText
 10
17.00000000000364
 20
49.10000038146950
 30
0.0000000000000000
 40
3.100000381469727
 41
0.0000000000000000
 44
0.6719999870792528
 71
     1
 72
     1
  1
{\H0.81x;D}
 11
1.000000000000000
 21
0.0000000000000000
 31
0.0000000000000000
  7
STANDARD
  0
MTEXT
  5
460
100
AcDbEntity
  8
WAKU0
  6
BYBLOCK
 62
0
370
    -2
100
AcDbMText
 10
412.0000000000000
 20
255.1000003814694
 30
0.0000000000000000
 40
3.100000381469727
 41
0.0000000000000000
 44
0.6719999870792528
 71
     1
 72
     1
  1
{\H0.81x;A}
 11
1.000000000000000
 21
0.0000000000000000
 31
0.0000000000000000
  7
STANDARD
  0
MTEXT
  5
461
100
AcDbEntity
  8
WAKU0
  6
BYBLOCK
 62
0
370
    -2
100
AcDbMText
 10
412.0000000000000
 20
187.1000003814694
 30
0.0000000000000000
 40
3.100000381469727
 41
0.0000000000000000
 44
0.6719999870792528
 71
     1
 72
     1
  1
{\H0.81x;B}
 11
1.000000000000000
 21
0.0000000000000000
 31
0.0000000000000000
  7
STANDARD
  0
MTEXT
  5
462
100
AcDbEntity
  8
WAKU0
  6
BYBLOCK
 62
0
370
    -2
100
AcDbMText
 10
412.0000000000000
 20
117.1000003814694
 30
0.0000000000000000
 40
3.100000381469727
 41
0.0000000000000000
 44
0.6719999870792528
 71
     1
 72
     1
  1
{\H0.81x;C}
 11
1.000000000000000
 21
0.0000000000000000
 31
0.0000000000000000
  7
STANDARD
  0
MTEXT
  5
463
100
AcDbEntity
  8
WAKU0
  6
BYBLOCK
 62
0
370
    -2
100
AcDbMText
 10
412.0000000000000
 20
49.10000038146939
 30
0.0000000000000000
 40
3.100000381469727
 41
0.0000000000000000
 44
0.6719999870792528
 71
     1
 72
     1
  1
{\H0.81x;D}
 11
1.000000000000000
 21
0.0000000000000000
 31
0.0000000000000000
  7
STANDARD
  0
ENDBLK
  5
464
100
AcDbEntity
  8
WAKU0
  6
BYBLOCK
 62
2
100
AcDbBlockEnd
  0
ENDSEC
  0
SECTION
  2
ENTITIES
  0
LINE
  5
46
100
AcDbEntity
  8
MAIN1
  6
CENTER
 62
3
100
AcDbLine
 10
212.6531461054642
 20
104.5261538643688
 30
0.0000000000000000
 11
212.6531461054642
 21
93.72615386436885
 31
0.0000000000000000
  0
LINE
  5
47
100
AcDbEntity
  8
MAIN1
  6
CENTER
 62
3
100
AcDbLine
 10
236.8470418490037
 20
210.0926117231689
 30
0.0000000000000000
 11
214.9227893127091
 21
210.0926117231689
 31
0.0000000000000000
  0
LINE
  5
48
100
AcDbEntity
  8
MAIN1
  6
CENTER
 62
3
100
AcDbLine
 10
238.5984199380430
 20
244.0926117231689
 30
0.0000000000000000
 11
215.6678784541824
 21
244.0926117231689
 31
0.0000000000000000
  0
LINE
  5
49
100
AcDbEntity
  8
MAIN1
  6
CENTER
 62
3
100
AcDbLine
 10
196.9357361216918
 20
227.0926117231370
 30
0.0000000000000000
 11
247.3276328535154
 21
227.0926117231370
 31
0.0000000000000000
  0
LINE
  5
4A
100
AcDbEntity
  8
MAIN0
  6
CENTER
 62
3
100
AcDbLine
 10
339.4822163692640
 20
123.8776958543839
 30
0.0000000000000000
 11
339.4822163692640
 21
80.14102705476091
 31
0.0000000000000000
  0
LINE
  5
4B
100
AcDbEntity
  8
MAIN1
  6
CENTER
 62
3
100
AcDbLine
 10
218.0531461054641
 20
99.12615386436883
 30
0.0000000000000000
 11
199.9956984937438
 21
99.12615386436883
 31
0.0000000000000000
  0
LINE
  5
4C
100
AcDbEntity
  8
MAIN1
  6
CENTER
 62
3
100
AcDbLine
 10
225.2531461054641
 20
106.3061144401355
 30
0.0000000000000000
 11
225.2531461054641
 21
87.36820169960900
 31
0.0000000000000000
  0
DIMENSION
  5
55
100
AcDbEntity
  8
MAIN0
  6
CONTINUOUS
 62
3
100
AcDbDimension
  2
*D0
 10
216.9531462097641
 20
120.2316345583430
 30
0.0000000000000000
 11
225.2076077455314
 21
120.7316345583430
 31
0.0000000000000000
 70
160
 71
5
  1
\A1;\U+220516.6
 42
16.600001
  3
MAIN001
100
AcDbAlignedDimension
 13
233.5531469697642
 23
104.7261540446689
 33
0.0000000000000000
 14
216.9531462097641
 24
106.0725883207885
 34
0.0000000000000000
100
AcDbRotatedDimension
1001
ACAD
1000
DSTYLE
1002
{
1070
   173
1070
     1
1070
     6
1000
_OPEN
1070
     7
1000
_OPEN
1070
    41
1040
2.000000
1002
}
  0
DIMENSION
  5
5F
100
AcDbEntity
  8
MAIN0
  6
CONTINUOUS
 62
3
100
AcDbDimension
  2
*D1
 10
220.2531457701641
 20
77.74114861056796
 30
0.0000000000000000
 11
237.4352050147129
 21
78.24114861056796
 31
0.0000000000000000
 70
160
 71
5
  1
\A1;2-\U+220510
 42
10.000001
  3
MAIN001
100
AcDbAlignedDimension
 13
230.2531464779641
 23
91.52615385426884
 33
0.0000000000000000
 14
220.2531457701641
 24
91.52615385426884
 34
0.0000000000000000
100
AcDbRotatedDimension
1001
ACAD
1000
DSTYLE
1002
{
1070
   173
1070
     1
1070
     6
1000
_OPEN
1070
     7
1000
_OPEN
1070
    41
1040
2.000000
1002
}
  0
DIMENSION
  5
68
100
AcDbEntity
  8
MAIN0
  6
CONTINUOUS
 62
3
100
AcDbDimension
  2
*D2
 10
205.6531461054642
 20
132.3850662353943
 30
0.0000000000000000
 11
224.9531456584141
 21
132.8850662353943
 31
0.0000000000000000
 70
32
 71
5
 42
38.599999
  3
MAIN001
100
AcDbAlignedDimension
 13
244.2531452113640
 23
95.62615376196240
 33
0.0000000000000000
 14
205.6531461054642
 24
109.9261537570687
 34
0.0000000000000000
100
AcDbRotatedDimension
1001
ACAD
1000
DSTYLE
1002
{
1070
   173
1070
     1
1070
     6
1000
_OPEN
1070
     7
1000
_OPEN
1070
    41
1040
2.000000
1002
}
  0
DIMENSION
  5
71
100
AcDbEntity
  8
MAIN0
  6
CONTINUOUS
 62
3
100
AcDbDimension
  2
*D3
 10
180.4881855948744
 20
114.1261539090689
 30
0.0000000000000000
 11
179.9881855948744
 21
101.3639959559378
 31
0.0000000000000000
 70
160
 71
5
 42
23.000000
  3
MAIN001
100
AcDbAlignedDimension
 13
205.8531461003642
 23
91.12615386436886
 33
0.0000000000000000
 14
208.3531461054641
 24
114.1261539090689
 34
0.0000000000000000
 50
90.00000000000000
100
AcDbRotatedDimension
1001
ACAD
1000
DSTYLE
1002
{
1070
   173
1070
     1
1070
     6
1000
_OPEN
1070
     7
1000
_OPEN
1070
    41
1040
2.000000
1002
}
  0
LINE
  5
72
100
AcDbEntity
  8
MAIN1
  6
CENTER
 62
3
100
AcDbLine
 10
322.4822148865595
 20
108.5149626499268
 30
0.0000000000000000
 11
322.4822148865595
 21
87.81949046730480
 31
0.0000000000000000
  0
LINE
  5
73
100
AcDbEntity
  8
MAIN1
  6
CENTER
 62
3
100
AcDbLine
 10
356.4822148716583
 20
109.2258778981844
 30
0.0000000000000000
 11
356.4822148716583
 21
87.81949046730480
 31
0.0000000000000000
  0
POINT
  5
74
100
AcDbEntity
  8
MAIN0
  6
CONTINUOUS
 62
3
100
AcDbPoint
 10
234.7531462842642
 20
105.1261542964689
 30
0.0000000000000000
  0
DIMENSION
  5
7F
100
AcDbEntity
  8
MAIN0
  6
CONTINUOUS
 62
3
100
AcDbDimension
  2
*D4
 10
234.7531462842642
 20
113.4997148408684
 30
0.0000000000000000
 11
239.5031457478141
 21
113.9997148408684
 31
0.0000000000000000
 70
32
 71
5
 42
9.499999
  3
MAIN001
100
AcDbAlignedDimension
 13
244.2531452113640
 23
95.62615376196240
 33
0.0000000000000000
 14
234.7531462842642
 24
105.1261542964689
 34
0.0000000000000000
100
AcDbRotatedDimension
1001
ACAD
1000
DSTYLE
1002
{
1070
   173
1070
     1
1070
     6
1000
_OPEN
1070
     7
1000
_OPEN
1070
    41
1040
2.000000
1070
   289
1070
     0
1002
}
  0
DIMENSION
  5
89
100
AcDbEntity
  8
MAIN0
  6
CONTINUOUS
 62
3
100
AcDbDimension
  2
*D5
 10
244.2531452113640
 20
199.0926096404126
 30
0.0000000000000000
 11
250.3736039337106
 21
193.0181177978162
 31
0.0000000000000000
 70
162
 71
5
 42
0.523599
  3
MAIN001
100
AcDb2LineAngularDimension
 13
239.6915482696116
 23
191.1916924178672
 33
0.0000000000000000
 14
244.2531452113640
 24
199.0926096404126
 34
0.0000000000000000
 15
244.2531452113640
 25
200.0926096404126
 35
0.0000000000000000
 16
241.8918888744484
 26
190.2802814504339
 36
0.0000000000000000
1001
ACAD
1000
DSTYLE
1002
{
1070
   173
1070
     1
1070
     6
1000
_OPEN
1070
     7
1000
_OPEN
1070
    41
1040
2.000000
1002
}
  0
DIMENSION
  5
92
100
AcDbEntity
  8
MAIN0
  6
CONTINUOUS
 62
3
100
AcDbDimension
  2
*D6
 10
188.4626433138484
 20
264.5926132132688
 30
0.0000000000000000
 11
187.9626433138484
 21
227.0926117231188
 31
0.0000000000000000
 70
32
 71
5
 42
75.000003
  3
MAIN001
100
AcDbAlignedDimension
 13
216.2531457939641
 23
189.5926102329688
 33
0.0000000000000000
 14
218.6531463736641
 24
264.5926132132688
 34
0.0000000000000000
 50
90.00000000000000
100
AcDbRotatedDimension
1001
ACAD
1000
DSTYLE
1002
{
1070
   173
1070
     1
1070
     6
1000
_OPEN
1070
     7
1000
_OPEN
1070
    41
1040
2.000000
1002
}
  0
LINE
  5
93
100
AcDbEntity
  8
MAIN1
  6
HIDDEN
 62
7
100
AcDbLine
 10
212.6531464854642
 20
196.5926113803689
 30
0.0000000000000000
 11
215.6531460458642
 21
196.5926113803689
 31
0.0000000000000000
  0
LINE
  5
94
100
AcDbEntity
  8
MAIN1
  6
HIDDEN
 62
7
100
AcDbLine
 10
209.6531459936642
 20
196.5926113803689
 30
0.0000000000000000
 11
212.6531464854642
 21
196.5926113803689
 31
0.0000000000000000
  0
LINE
  5
95
100
AcDbEntity
  8
MAIN1
  6
HIDDEN
 62
7
100
AcDbLine
 10
212.6531464854642
 20
201.5926121999687
 30
0.0000000000000000
 11
215.1531459638642
 21
201.5926121999687
 31
0.0000000000000000
  0
LINE
  5
96
100
AcDbEntity
  8
MAIN1
  6
HIDDEN
 62
7
100
AcDbLine
 10
210.1531460756642
 20
201.5926121999687
 30
0.0000000000000000
 11
212.6531464854642
 21
201.5926121999687
 31
0.0000000000000000
  0
LINE
  5
97
100
AcDbEntity
  8
MAIN1
  6
HIDDEN
 62
7
100
AcDbLine
 10
215.9531469961591
 20
189.5926102329689
 30
0.0000000000000000
 11
215.1531459638642
 21
190.3926168532675
 31
0.0000000000000000
  0
LINE
  5
98
100
AcDbEntity
  8
MAIN1
  6
HIDDEN
 62
7
100
AcDbLine
 10
210.1531460756641
 20
190.3926174353965
 30
0.0000000000000000
 11
209.3531453926454
 21
189.5926102329688
 31
0.0000000000000000
  0
LINE
  5
99
100
AcDbEntity
  8
MAIN1
  6
HIDDEN
 62
7
100
AcDbLine
 10
215.6531460458642
 20
189.9926132787689
 30
0.0000000000000000
 11
215.6531460458642
 21
196.5926113803689
 31
0.0000000000000000
  0
LINE
  5
9A
100
AcDbEntity
  8
MAIN1
  6
HIDDEN
 62
7
100
AcDbLine
 10
209.6531459936642
 20
196.5926113803689
 30
0.0000000000000000
 11
209.6531459936642
 21
189.8926132787687
 31
0.0000000000000000
  0
LINE
  5
9B
100
AcDbEntity
  8
MAIN1
  6
HIDDEN
 62
7
100
AcDbLine
 10
215.1531459638643
 20
201.5926121999687
 30
0.0000000000000000
 11
212.6531464854642
 21
203.0947628696687
 31
0.0000000000000000
  0
LINE
  5
9C
100
AcDbEntity
  8
MAIN1
  6
HIDDEN
 62
7
100
AcDbLine
 10
212.6531464854643
 20
203.0947628696688
 30
0.0000000000000000
 11
210.1531460756643
 21
201.5926121999688
 31
0.0000000000000000
  0
LINE
  5
9D
100
AcDbEntity
  8
MAIN1
  6
HIDDEN
 62
7
100
AcDbLine
 10
215.1531459638642
 20
190.3926168532674
 30
0.0000000000000000
 11
215.1531459638642
 21
201.5926121999687
 31
0.0000000000000000
  0
LINE
  5
9E
100
AcDbEntity
  8
MAIN1
  6
HIDDEN
 62
7
100
AcDbLine
 10
210.1531460756642
 20
201.5926121999687
 30
0.0000000000000000
 11
210.1531460756642
 21
190.3926174353965
 31
0.0000000000000000
  0
LINE
  5
9F
100
AcDbEntity
  8
MAIN0
  6
HIDDEN
 62
3
100
AcDbLine
 10
215.1531459638642
 20
190.3926168532675
 30
0.0000000000000000
 11
210.1531460756642
 21
190.3926168532675
 31
0.0000000000000000
  0
LINE
  5
A0
100
AcDbEntity
  8
MAIN1
  6
HIDDEN
 62
7
100
AcDbLine
 10
212.6531464854642
 20
257.5926120658687
 30
0.0000000000000000
 11
215.6531460458642
 21
257.5926120658687
 31
0.0000000000000000
  0
LINE
  5
A1
100
AcDbEntity
  8
MAIN1
  6
HIDDEN
 62
7
100
AcDbLine
 10
209.6531459936642
 20
257.5926120658687
 30
0.0000000000000000
 11
212.6531464854642
 21
257.5926120658687
 31
0.0000000000000000
  0
LINE
  5
A2
100
AcDbEntity
  8
MAIN1
  6
HIDDEN
 62
7
100
AcDbLine
 10
212.6531464854642
 20
252.5926112462689
 30
0.0000000000000000
 11
215.1531459638642
 21
252.5926112462689
 31
0.0000000000000000
  0
LINE
  5
A3
100
AcDbEntity
  8
MAIN1
  6
HIDDEN
 62
7
100
AcDbLine
 10
210.1531460756642
 20
252.5926112462689
 30
0.0000000000000000
 11
212.6531464854642
 21
252.5926112462689
 31
0.0000000000000000
  0
LINE
  5
A4
100
AcDbEntity
  8
MAIN1
  6
HIDDEN
 62
7
100
AcDbLine
 10
209.6531459936642
 20
264.1926101674687
 30
0.0000000000000000
 11
209.6531459936642
 21
257.5926120658687
 31
0.0000000000000000
  0
LINE
  5
A5
100
AcDbEntity
  8
MAIN1
  6
HIDDEN
 62
7
100
AcDbLine
 10
215.6531460458642
 20
257.5926120658687
 30
0.0000000000000000
 11
215.6531460458642
 21
264.1926101674687
 31
0.0000000000000000
  0
LINE
  5
A6
100
AcDbEntity
  8
MAIN1
  6
HIDDEN
 62
7
100
AcDbLine
 10
210.1531460756642
 20
263.7926030305412
 30
0.0000000000000000
 11
210.1531460756642
 21
252.5926112462689
 31
0.0000000000000000
  0
LINE
  5
A7
100
AcDbEntity
  8
MAIN1
  6
HIDDEN
 62
7
100
AcDbLine
 10
215.1531459638642
 20
252.5926112462689
 30
0.0000000000000000
 11
215.1531459638642
 21
263.7926036126702
 31
0.0000000000000000
  0
LINE
  5
A8
100
AcDbEntity
  8
MAIN1
  6
HIDDEN
 62
7
100
AcDbLine
 10
210.1531460756643
 20
252.5926112462691
 30
0.0000000000000000
 11
212.6531464854643
 21
251.0904605765691
 31
0.0000000000000000
  0
LINE
  5
A9
100
AcDbEntity
  8
MAIN1
  6
HIDDEN
 62
7
100
AcDbLine
 10
212.6531464854643
 20
251.0904605765687
 30
0.0000000000000000
 11
215.1531459638643
 21
252.5926112462688
 31
0.0000000000000000
  0
LINE
  5
AA
100
AcDbEntity
  8
MAIN1
  6
HIDDEN
 62
7
100
AcDbLine
 10
215.9531469961591
 20
264.5926102329688
 30
0.0000000000000000
 11
215.1531459638642
 21
263.7926036126702
 31
0.0000000000000000
  0
LINE
  5
AB
100
AcDbEntity
  8
MAIN1
  6
HIDDEN
 62
7
100
AcDbLine
 10
210.1531460756641
 20
263.7926030305410
 30
0.0000000000000000
 11
209.3531453926454
 21
264.5926102329688
 31
0.0000000000000000
  0
LINE
  5
AC
100
AcDbEntity
  8
MAIN0
  6
HIDDEN
 62
3
100
AcDbLine
 10
215.1531459638642
 20
263.7926036126702
 30
0.0000000000000000
 11
210.1531460756642
 21
263.7926036126702
 31
0.0000000000000000
  0
LINE
  5
AD
100
AcDbEntity
  8
MAIN0
  6
CENTER
 62
3
100
AcDbLine
 10
212.6531461054642
 20
186.3883727118886
 30
0.0000000000000000
 11
212.6531461054642
 21
205.7774056712551
 31
0.0000000000000000
  0
LINE
  5
AE
100
AcDbEntity
  8
MAIN0
  6
CENTER
 62
3
100
AcDbLine
 10
212.6531461054642
 20
248.4733300818739
 30
0.0000000000000000
 11
212.6531461054642
 21
269.1366428562094
 31
0.0000000000000000
  0
DIMENSION
  5
B7
100
AcDbEntity
  8
MAIN0
  6
CONTINUOUS
 62
3
100
AcDbDimension
  2
*D7
 10
196.2516513657367
 20
99.12615386436883
 30
0.0000000000000000
 11
195.7516513657367
 21
95.47388738297708
 31
0.0000000000000000
 70
160
 71
5
 42
8.000000
  3
MAIN001
100
AcDbAlignedDimension
 13
205.8531461003642
 23
91.12615386436886
 33
0.0000000000000000
 14
199.9956984937438
 24
99.12615386436883
 34
0.0000000000000000
 50
90.00000000000000
100
AcDbRotatedDimension
1001
ACAD
1000
DSTYLE
1002
{
1070
   173
1070
     1
1070
     6
1000
_OPEN
1070
     7
1000
_OPEN
1070
    41
1040
2.000000
1002
}
  0
DIMENSION
  5
C0
100
AcDbEntity
  8
MAIN0
  6
CONTINUOUS
 62
3
100
AcDbDimension
  2
*D8
 10
205.6531461054642
 20
77.74114861056796
 30
0.0000000000000000
 11
208.9783747309319
 21
78.24114861056796
 31
0.0000000000000000
 70
160
 71
5
 42
7.000000
  3
MAIN001
100
AcDbAlignedDimension
 13
212.6531461054642
 23
93.72615386436885
 33
0.0000000000000000
 14
205.6531461054642
 24
91.32615385926886
 34
0.0000000000000000
100
AcDbRotatedDimension
1001
ACAD
1000
DSTYLE
1002
{
1070
   173
1070
     1
1070
     6
1000
_OPEN
1070
     7
1000
_OPEN
1070
    41
1040
2.000000
1002
}
  0
DIMENSION
  5
C9
100
AcDbEntity
  8
MAIN0
  6
CONTINUOUS
 62
3
100
AcDbDimension
  2
*D9
 10
188.4626433138484
 20
110.1261534173688
 30
0.0000000000000000
 11
187.9626433138484
 21
100.6261536408689
 31
0.0000000000000000
 70
32
 71
5
 42
19.000000
  3
MAIN001
100
AcDbAlignedDimension
 13
205.8531461003642
 23
91.12615386436886
 33
0.0000000000000000
 14
205.8531461003642
 24
110.1261534173688
 34
0.0000000000000000
 50
90.00000000000000
100
AcDbRotatedDimension
1001
ACAD
1000
DSTYLE
1002
{
1070
   173
1070
     1
1070
     6
1000
_OPEN
1070
     7
1000
_OPEN
1070
    41
1040
2.000000
1002
}
  0
LEADER
  5
CA
100
AcDbEntity
  8
MAIN0
  6
CONTINUOUS
 62
3
100
AcDbLeader
  3
MAIN001
 73
     0
 75
     1
 40
3.099999904632568
 41
30.27900080585479
 76
     3
 10
210.3347981202807
 20
101.0301661068703
 30
0.0000000000000000
 10
191.1424504657297
 20
125.2562330449225
 30
0.0000000000000000
 10
189.2154505215197
 20
125.2562330449225
 30
0.0000000000000000
340
CB
213
0.0000000000000000
223
-0.5000000000000000
233
0.0000000000000000
1001
ACAD
1000
DSTYLE
1002
{
1070
   147
1040
0.0
1070
    77
1070
     1
1070
   341
1005
13
1070
    41
1040
2.000000
1002
}
  0
MTEXT
  5
CB
102
{ACAD_REACTORS
330
CA
102
}
100
AcDbEntity
  8
MAIN0
  6
CONTINUOUS
 62
3
100
AcDbMText
 10
158.9364497156649
 20
128.8562329495551
 30
0.0000000000000000
 40
3.099999904632568
 41
0.0000000000000000
 44
0.6677419652551825
 71
     1
 72
     1
  1
{\H0.93x;{2-M6 ねじ深さ7}}
 11
1.000000000000000
 21
0.0000000000000000
 31
0.0000000000000000
  7
KNJYOKO
  0
LINE
  5
CC
100
AcDbEntity
  8
MAIN1
  6
CENTER
 62
3
100
AcDbLine
 10
225.2531461054641
 20
186.3138572228038
 30
0.0000000000000000
 11
225.2531461054641
 21
158.0060412911491
 31
0.0000000000000000
  0
LINE
  5
CD
100
AcDbEntity
  8
MAIN1
  6
CENTER
 62
3
100
AcDbLine
 10
225.2531461054641
 20
255.3039709134229
 30
0.0000000000000000
 11
225.2531461054641
 21
186.3138572228038
 31
0.0000000000000000
  0
LINE
  5
CE
100
AcDbEntity
  8
MAIN1
  6
CENTER
 62
3
100
AcDbLine
 10
207.7531461054641
 20
264.5926117231688
 30
0.0000000000000000
 11
203.7531461054641
 21
264.5926117231688
 31
0.0000000000000000
  0
LINE
  5
CF
100
AcDbEntity
  8
MAIN1
  6
CENTER
 62
3
100
AcDbLine
 10
207.7531461054641
 20
189.5926117231689
 30
0.0000000000000000
 11
203.7531461054641
 21
189.5926117231689
 31
0.0000000000000000
  0
POINT
  5
D0
100
AcDbEntity
  8
MAIN0
  6
CONTINUOUS
 62
3
100
AcDbPoint
 10
244.2531452113640
 20
255.0926138059251
 30
0.0000000000000000
  0
POINT
  5
D1
100
AcDbEntity
  8
MAIN0
  6
CONTINUOUS
 62
3
100
AcDbPoint
 10
244.2531452113640
 20
199.0926096404126
 30
0.0000000000000000
  0
DIMENSION
  5
DA
100
AcDbEntity
  8
MAIN0
  6
CONTINUOUS
 62
3
100
AcDbDimension
  2
*D10
 10
258.2985363130835
 20
255.0926138059251
 30
0.0000000000000000
 11
257.7985363130835
 21
227.0926117231688
 31
0.0000000000000000
 70
32
 71
5
 42
56.000004
  3
MAIN001
100
AcDbAlignedDimension
 13
244.2531452113640
 23
199.0926096404126
 33
0.0000000000000000
 14
244.2531452113640
 24
255.0926138059251
 34
0.0000000000000000
 50
90.00000000000000
100
AcDbRotatedDimension
1001
ACAD
1000
DSTYLE
1002
{
1070
   173
1070
     1
1070
     6
1000
_OPEN
1070
     7
1000
_OPEN
1070
    41
1040
2.000000
1002
}
  0
DIMENSION
  5
E3
100
AcDbEntity
  8
MAIN0
  6
CONTINUOUS
 62
3
100
AcDbDimension
  2
*D11
 10
234.7531426779954
 20
105.1261542964689
 30
0.0000000000000000
 11
250.2358582050680
 21
99.56909116552239
 31
0.0000000000000000
 70
162
 71
5
 42
0.785398
  3
MAIN001
100
AcDb2LineAngularDimension
 13
244.2531452113640
 23
95.62615376196237
 33
0.0000000000000000
 14
243.5460383557875
 24
96.33326046875898
 34
0.0000000000000000
 15
233.7531426779954
 25
105.1261542964689
 35
0.0000000000000000
 16
250.4127025787460
 26
98.63975316983010
 36
0.0000000000000000
1001
ACAD
1000
DSTYLE
1002
{
1070
   173
1070
     1
1070
     6
1000
_OPEN
1070
     7
1000
_OPEN
1070
    41
1040
2.000000
1002
}
  0
LINE
  5
E4
100
AcDbEntity
  8
MAIN0
  6
CONTINUOUS
 62
3
100
AcDbLine
 10
222.6531461054878
 20
189.5926102329688
 30
0.0000000000000000
 11
222.6531461054914
 21
202.2103531635845
 31
0.0000000000000000
  0
LINE
  5
E5
100
AcDbEntity
  8
MAIN0
  6
CONTINUOUS
 62
3
100
AcDbLine
 10
222.6531461054959
 20
217.9748702827548
 30
0.0000000000000000
 11
222.6531461055011
 21
236.2103531635812
 31
0.0000000000000000
  0
LINE
  5
E6
100
AcDbEntity
  8
MAIN0
  6
CONTINUOUS
 62
3
100
AcDbLine
 10
222.6531461055056
 20
251.9748702827580
 30
0.0000000000000000
 11
222.6531461055092
 21
264.5926132134860
 31
0.0000000000000000
  0
DIMENSION
  5
EF
100
AcDbEntity
  8
MAIN0
  6
CONTINUOUS
 62
3
100
AcDbDimension
  2
*D12
 10
251.7029278052723
 20
210.0926117231689
 30
0.0000000000000000
 11
251.2029278052723
 21
226.9272308160756
 31
0.0000000000000000
 70
160
 71
5
 42
34.000000
  3
MAIN001
100
AcDbAlignedDimension
 13
238.5984199380430
 23
244.0926117231689
 33
0.0000000000000000
 14
236.8470418490037
 24
210.0926117231689
 34
0.0000000000000000
 50
90.00000000000000
100
AcDbRotatedDimension
1001
ACAD
1000
DSTYLE
1002
{
1070
   173
1070
     1
1070
     6
1000
_OPEN
1070
     7
1000
_OPEN
1070
    41
1040
2.000000
1002
}
  0
DIMENSION
  5
F7
100
AcDbEntity
  8
MAIN0
  6
CONTINUOUS
 62
3
100
AcDbDimension
  2
*D13
 10
205.6531461054642
 20
163.3365476968018
 30
0.0000000000000000
 11
215.4531461054642
 21
163.8365476968018
 31
0.0000000000000000
 70
32
 71
5
 42
19.600000
  3
MAIN001
100
AcDbAlignedDimension
 13
225.2531461054641
 23
158.0060412911491
 33
0.0000000000000000
 14
205.6531461054642
 24
189.9926132787689
 34
0.0000000000000000
100
AcDbRotatedDimension
1001
ACAD
1000
DSTYLE
1002
{
1070
   173
1070
     1
1070
     6
1000
_OPEN
1070
     7
1000
_OPEN
1070
    41
1040
2.000000
1002
}
  0
LINE
  5
F8
100
AcDbEntity
  8
MAIN0
  6
CONTINUOUS
 62
3
100
AcDbLine
 10
218.0191714496485
 20
248.1619618775568
 30
0.0000000000000000
 11
218.0191714496485
 21
264.5926132132688
 31
0.0000000000000000
  0
LINE
  5
F9
100
AcDbEntity
  8
MAIN0
  6
CONTINUOUS
 62
3
100
AcDbLine
 10
208.1531461054642
 20
113.9261539090688
 30
0.0000000000000000
 11
208.1531461054642
 21
110.1261538643689
 31
0.0000000000000000
  0
LINE
  5
FA
100
AcDbEntity
  8
MAIN0
  6
CONTINUOUS
 62
3
100
AcDbLine
 10
214.1531461054642
 20
110.1261538643689
 30
0.0000000000000000
 11
214.1531461054642
 21
113.9261539090688
 31
0.0000000000000000
  0
ARC
  5
FB
100
AcDbEntity
  8
MAIN1
  6
CONTINUOUS
 62
7
100
AcDbCircle
 10
218.6531461054642
 20
107.1261538643689
 30
0.0000000000000000
 40
2.000000000000000
100
AcDbArc
 50
180.0000000000000
 51
270.0000000000000
  0
LINE
  5
FC
100
AcDbEntity
  8
MAIN0
  6
CONTINUOUS
 62
3
100
AcDbLine
 10
214.1531461054641
 20
113.9261539090688
 30
0.0000000000000000
 11
213.9531461054641
 21
114.1261539090689
 31
0.0000000000000000
  0
LINE
  5
FD
100
AcDbEntity
  8
MAIN0
  6
CONTINUOUS
 62
3
100
AcDbLine
 10
208.3531461054641
 20
114.1261539090688
 30
0.0000000000000000
 11
208.1531461054641
 21
113.9261539090688
 31
0.0000000000000000
  0
DIMENSION
  5
106
100
AcDbEntity
  8
MAIN0
  6
CONTINUOUS
 62
3
100
AcDbDimension
  2
*D14
 10
258.2985363130835
 20
91.12615386436886
 30
0.0000000000000000
 11
257.7985363130835
 21
98.12615408041886
 31
0.0000000000000000
 70
32
 71
5
 42
14.000000
  3
MAIN001
100
AcDbAlignedDimension
 13
234.7531426779954
 23
105.1261542964689
 33
0.0000000000000000
 14
244.0531455510640
 24
91.12615386436886
 34
0.0000000000000000
 50
90.00000000000000
100
AcDbRotatedDimension
1001
ACAD
1000
DSTYLE
1002
{
1070
   173
1070
     1
1070
     6
1000
_OPEN
1070
     7
1000
_OPEN
1070
    41
1040
2.000000
1002
}
  0
LINE
  5
107
100
AcDbEntity
  8
MAIN0
  6
CONTINUOUS
 62
3
100
AcDbLine
 10
208.1531461054642
 20
189.5926102329688
 30
0.0000000000000000
 11
208.1531461054642
 21
264.5926117231688
 31
0.0000000000000000
  0
LINE
  5
108
100
AcDbEntity
  8
MAIN0
  6
CONTINUOUS
 62
3
100
AcDbLine
 10
214.1531461054893
 20
189.5926102329688
 30
0.0000000000000000
 11
214.1531461055092
 21
264.5926132132531
 31
0.0000000000000000
  0
LINE
  5
109
100
AcDbEntity
  8
MAIN1
  6
CONTINUOUS
 62
7
100
AcDbLine
 10
302.3822163692639
 20
110.1261534173688
 30
0.0000000000000000
 11
301.9822163692639
 21
109.7261534173688
 31
0.0000000000000000
  0
LINE
  5
10A
100
AcDbEntity
  8
MAIN1
  6
CONTINUOUS
 62
7
100
AcDbLine
 10
376.5822193495640
 20
110.1261534173688
 30
0.0000000000000000
 11
376.9822193495639
 21
109.7261534173688
 31
0.0000000000000000
  0
DIMENSION
  5
113
100
AcDbEntity
  8
MAIN0
  6
CONTINUOUS
 62
3
100
AcDbDimension
  2
*D15
 10
205.6531461054642
 20
126.3886562461211
 30
0.0000000000000000
 11
211.1531460756641
 21
126.8886562461211
 31
0.0000000000000000
 70
32
 71
5
 42
11.000000
  3
MAIN001
100
AcDbAlignedDimension
 13
216.6531460458641
 23
109.9261534173689
 33
0.0000000000000000
 14
205.6531461054642
 24
109.9261537570687
 34
0.0000000000000000
100
AcDbRotatedDimension
1001
ACAD
1000
DSTYLE
1002
{
1070
   173
1070
     1
1070
     6
1000
_OPEN
1070
     7
1000
_OPEN
1070
    41
1040
2.000000
1002
}
  0
DIMENSION
  5
11D
100
AcDbEntity
  8
MAIN0
  6
CONTINUOUS
 62
3
100
AcDbDimension
  2
*D16
 10
214.1531461054893
 20
177.3314817872640
 30
0.0000000000000000
 11
219.5961503889459
 21
177.8314817872640
 31
0.0000000000000000
 70
160
 71
5
 42
11.100000
  3
MAIN001
100
AcDbAlignedDimension
 13
225.2531461054641
 23
186.3138572228038
 33
0.0000000000000000
 14
214.1531461054893
 24
189.5926102329688
 34
0.0000000000000000
100
AcDbRotatedDimension
1001
ACAD
1000
DSTYLE
1002
{
1070
   173
1070
     1
1070
     6
1000
_OPEN
1070
     7
1000
_OPEN
1070
    41
1040
2.000000
1070
   289
1070
     0
1002
}
  0
DIMENSION
  5
125
100
AcDbEntity
  8
MAIN0
  6
CONTINUOUS
 62
3
100
AcDbDimension
  2
*D17
 10
208.1531461054642
 20
170.3392298133919
 30
0.0000000000000000
 11
216.7031461054642
 21
170.8392298133919
 31
0.0000000000000000
 70
32
 71
5
 42
17.100000
  3
MAIN001
100
AcDbAlignedDimension
 13
225.2531461054641
 23
158.0060412911491
 33
0.0000000000000000
 14
208.1531461054642
 24
189.5926102329688
 34
0.0000000000000000
100
AcDbRotatedDimension
1001
ACAD
1000
DSTYLE
1002
{
1070
   173
1070
     1
1070
     6
1000
_OPEN
1070
     7
1000
_OPEN
1070
    41
1040
2.000000
1002
}
  0
DIMENSION
  5
12C
100
AcDbEntity
  8
MAIN0
  6
CONTINUOUS
 62
3
100
AcDbDimension
  2
*D18
 10
229.2520973549835
 20
105.1261542964689
 30
0.0000000000000000
 11
228.7520973549835
 21
101.1261541064689
 31
0.0000000000000000
 70
32
 71
5
 42
8.000000
  3
MAIN001
100
AcDbAlignedDimension
 13
233.5531469697642
 23
97.12615391646884
 33
0.0000000000000000
 14
234.7531426779954
 24
105.1261542964689
 34
0.0000000000000000
 50
90.00000000000000
100
AcDbRotatedDimension
1001
ACAD
1000
DSTYLE
1002
{
1070
   173
1070
     1
1070
     6
1000
_OPEN
1070
     7
1000
_OPEN
1070
    41
1040
2.000000
1002
}
  0
MTEXT
  5
12D
100
AcDbEntity
  8
MAIN0
  6
CONTINUOUS
 62
3
100
AcDbMText
 10
362.5020484937180
 20
-1.704321763830222
 30
0.0000000000000000
 40
5.000000000000000
 41
0.0000000000000000
 44
0.6719999885559082
 71
     1
 72
     1
  1
{\H0.93x;{DHP-61M856841}}
 11
1.000000000000000
 21
0.0000000000000000
 31
0.0000000000000000
  7
STANDARD
  0
MTEXT
  5
12E
100
AcDbEntity
  8
MAIN0
  6
CONTINUOUS
 62
3
100
AcDbMText
 10
159.1420944156452
 20
124.6725044785811
 30
0.0000000000000000
 40
3.099999904632568
 41
0.0000000000000000
 44
0.6677419652551825
 71
     1
 72
     1
  1
{\H0.92x;{DEPTH 7}}
 11
1.000000000000000
 21
0.0000000000000000
 31
0.0000000000000000
  7
STANDARD
  0
MULTILEADER
  5
132
100
AcDbEntity
  8
MAIN0
  6
CONTINUOUS
 62
3
100
AcDbMLeader
270
     2
300
CONTEXT_DATA{
 10
111.9288027796807
 20
212.3043736501253
 30
0.0000000000000000
 41
3.099999904632568
140
1.000000000000000
145
0.01000000000000000
174
     6
175
     6
290
     1
304
{\H0.91x;{把握部}}
 11
0.0000000000000000
 21
0.0000000000000000
 31
1.000000000000000
340
131
 12
111.9288027796807
 22
215.9043735547579
 32
0.0000000000000000
 13
1.000000000000000
 23
0.0000000000000000
 33
0.0000000000000000
 42
0.0000000000000000
 43
0.0000000000000000
 44
0.0000000000000000
 45
1.000000000000000
170
     1
 90
-1023410173
171
     1
172
     1
 91
-1073741824
141
0.0000000000000000
 92
     0
291
     0
292
     0
173
     0
293
     0
142
0.0000000000000000
143
0.0000000000000000
294
     0
295
     0
296
     0
110
95.57016452823294
120
95.57016452823294
130
0.0000000000000000
111
1.000000000000000
121
0.0000000000000000
131
0.0000000000000000
112
6.123233995736766e-017
122
1.000000000000000
132
0.0000000000000000
302
LEADER{
290
1
 10
110.0028028354706
 20
212.3043736501253
 30
0.0000000000000000
 11
1.000000000000000
 21
0.0000000000000000
 31
0.0000000000000000
 90
0
 40
1.925999944210052
304
LEADER_LINE{
 10
95.57016452823294
 20
204.6132950221390
 30
0.0000000000000000
 91
0
305
}
271
0
303
}
301
}
340
12F
170
     1
 91
-1023410173
341
130
171
    -1
290
     1
291
     1
 41
0.0000000000000000
342
B
 42
1.000000000000000
172
     2
174
     1
  0
MULTILEADER
  5
133
100
AcDbEntity
  8
MAIN0
  6
CONTINUOUS
 62
3
100
AcDbMLeader
270
     2
300
CONTEXT_DATA{
 10
0.0000000000000000
 20
0.0000000000000000
 30
0.0000000000000000
 41
0.0000000000000000
140
1.000000000000000
145
0.0000000000000000
174
     0
175
     0
290
     0
302
LEADER{
290
1
 10
110.0028028354706
 20
212.3043736501253
 30
0.0000000000000000
 11
1.000000000000000
 21
0.0000000000000000
 31
0.0000000000000000
 90
0
 40
0.0000000000000000
304
LEADER_LINE{
 10
88.80247336435724
 20
250.1377171278946
 30
0.0000000000000000
 91
0
305
}
271
0
303
}
301
}
340
12F
170
     1
 91
-1023410173
341
130
171
    -1
290
     1
291
     0
 41
0.0000000000000000
342
B
 42
1.000000000000000
172
     0
174
     1
  0
MTEXT
  5
134
100
AcDbEntity
  8
MAIN0
  6
CONTINUOUS
 62
3
100
AcDbMText
 10
111.8762319825336
 20
211.4542774104769
 30
0.0000000000000000
 40
3.099999904632568
 41
0.0000000000000000
 44
0.7741935722041460
 71
     1
 72
     1
  1
{\H0.71x;{CLAMPING AREA}}
 11
1.000000000000000
 21
0.0000000000000000
 31
0.0000000000000000
  7
STANDARD
  0
CIRCLE
  5
135
100
AcDbEntity
  8
MAIN1
  6
CONTINUOUS
 62
7
100
AcDbCircle
 10
212.6531461054642
 20
99.12615386436883
 30
0.0000000000000000
 40
2.999999999999943
  0
LINE
  5
136
100
AcDbEntity
  8
MAIN1
  6
CONTINUOUS
 62
7
100
AcDbLine
 10
238.7683185481642
 20
101.1109814216689
 30
0.0000000000000000
 11
238.7683185481642
 21
91.12615386436886
 31
0.0000000000000000
  0
LINE
  5
137
100
AcDbEntity
  8
MAIN1
  6
CONTINUOUS
 62
7
100
AcDbLine
 10
213.9531461054642
 20
114.1261539090689
 30
0.0000000000000000
 11
208.3531461054641
 21
114.1261539090689
 31
0.0000000000000000
  0
LINE
  5
138
100
AcDbEntity
  8
MAIN1
  6
CONTINUOUS
 62
7
100
AcDbLine
 10
216.6531460458641
 20
107.1261538643689
 30
0.0000000000000000
 11
216.6531460458641
 21
109.9261534173689
 31
0.0000000000000000
  0
LINE
  5
139
100
AcDbEntity
  8
MAIN1
  6
CONTINUOUS
 62
7
100
AcDbLine
 10
244.0531455510640
 20
91.12615386436893
 30
0.0000000000000000
 11
244.2531452113641
 21
91.32615385926910
 31
0.0000000000000000
  0
LINE
  5
13A
100
AcDbEntity
  8
MAIN1
  6
CONTINUOUS
 62
7
100
AcDbLine
 10
205.8531461003642
 20
91.12615386436886
 30
0.0000000000000000
 11
244.0531455510640
 21
91.12615386436886
 31
0.0000000000000000
  0
LINE
  5
13B
100
AcDbEntity
  8
MAIN1
  6
CONTINUOUS
 62
7
100
AcDbLine
 10
205.8531461003642
 20
110.1261534173688
 30
0.0000000000000000
 11
205.6531461054642
 21
109.9261537570687
 31
0.0000000000000000
  0
LINE
  5
13C
100
AcDbEntity
  8
MAIN1
  6
CONTINUOUS
 62
7
100
AcDbLine
 10
208.1531461054642
 20
110.1261534173688
 30
0.0000000000000000
 11
205.8531461003642
 21
110.1261534173688
 31
0.0000000000000000
  0
LINE
  5
13D
100
AcDbEntity
  8
MAIN1
  6
CONTINUOUS
 62
7
100
AcDbLine
 10
205.6531461054642
 20
91.32615385926889
 30
0.0000000000000000
 11
205.8531461003641
 21
91.12615386436895
 31
0.0000000000000000
  0
LINE
  5
13E
100
AcDbEntity
  8
MAIN1
  6
CONTINUOUS
 62
7
100
AcDbLine
 10
205.6531461054642
 20
109.9261537570687
 30
0.0000000000000000
 11
205.6531461054642
 21
91.32615385926886
 31
0.0000000000000000
  0
LINE
  5
13F
100
AcDbEntity
  8
MAIN1
  6
CONTINUOUS
 62
7
100
AcDbLine
 10
244.2531452113640
 20
95.62615376196240
 30
0.0000000000000000
 11
244.2531452113640
 21
91.32615385926886
 31
0.0000000000000000
  0
LINE
  5
140
100
AcDbEntity
  8
MAIN1
  6
CONTINUOUS
 62
7
100
AcDbLine
 10
244.2531452113640
 20
95.62615376196239
 30
0.0000000000000000
 11
234.7531426779954
 21
105.1261542964689
 31
0.0000000000000000
  0
LINE
  5
141
100
AcDbEntity
  8
MAIN1
  6
CONTINUOUS
 62
7
100
AcDbLine
 10
234.7531426779954
 20
105.1261542964689
 30
0.0000000000000000
 11
218.6531461054642
 21
105.1261542964689
 31
0.0000000000000000
  0
LINE
  5
142
100
AcDbEntity
  8
MAIN1
  6
CONTINUOUS
 62
7
100
AcDbLine
 10
216.4531463855641
 20
110.1261534173688
 30
0.0000000000000000
 11
214.1531461054642
 21
110.1261534173688
 31
0.0000000000000000
  0
LINE
  5
143
100
AcDbEntity
  8
MAIN1
  6
CONTINUOUS
 62
7
100
AcDbLine
 10
208.6531461314641
 20
114.1261539090689
 30
0.0000000000000000
 11
208.7263599602640
 21
114.1261539090689
 31
0.0000000000000000
  0
LINE
  5
144
100
AcDbEntity
  8
MAIN1
  6
CONTINUOUS
 62
7
100
AcDbLine
 10
213.5799324238641
 20
114.1261539090689
 30
0.0000000000000000
 11
213.6531464854640
 21
114.1261539090689
 31
0.0000000000000000
  0
CIRCLE
  5
145
100
AcDbEntity
  8
MAIN1
  6
CONTINUOUS
 62
7
100
AcDbCircle
 10
212.6531461054642
 20
99.12615386436883
 30
0.0000000000000000
 40
2.499999999999943
  0
LINE
  5
146
100
AcDbEntity
  8
MAIN1
  6
CONTINUOUS
 62
7
100
AcDbLine
 10
208.9531460875641
 20
264.5926132132688
 30
0.0000000000000000
 11
213.3531460636640
 21
264.5926132132688
 31
0.0000000000000000
  0
LINE
  5
147
100
AcDbEntity
  8
MAIN1
  6
CONTINUOUS
 62
7
100
AcDbLine
 10
208.9531460875641
 20
189.5926102329688
 30
0.0000000000000000
 11
213.3531460636640
 21
189.5926102329688
 31
0.0000000000000000
  0
LINE
  5
148
100
AcDbEntity
  8
MAIN1
  6
CONTINUOUS
 62
7
100
AcDbLine
 10
208.2874606927641
 20
264.5926132132688
 30
0.0000000000000000
 11
208.9531460875641
 21
264.5926132132688
 31
0.0000000000000000
  0
LINE
  5
149
100
AcDbEntity
  8
MAIN1
  6
CONTINUOUS
 62
7
100
AcDbLine
 10
208.2874606927641
 20
189.5926102329688
 30
0.0000000000000000
 11
208.9531460875641
 21
189.5926102329688
 31
0.0000000000000000
  0
LINE
  5
14A
100
AcDbEntity
  8
MAIN1
  6
CONTINUOUS
 62
7
100
AcDbLine
 10
213.3531460636640
 20
189.5926102329688
 30
0.0000000000000000
 11
214.0188312256641
 21
189.5926102329688
 31
0.0000000000000000
  0
LINE
  5
14B
100
AcDbEntity
  8
MAIN1
  6
CONTINUOUS
 62
7
100
AcDbLine
 10
216.5531462156640
 20
264.2926118601690
 30
0.0000000000000000
 11
216.2531457939640
 21
264.5926132132689
 31
0.0000000000000000
  0
LINE
  5
14C
100
AcDbEntity
  8
MAIN1
  6
CONTINUOUS
 62
7
100
AcDbLine
 10
214.0188312256641
 20
264.5926132132688
 30
0.0000000000000000
 11
216.2531457939642
 21
264.5926132132688
 31
0.0000000000000000
  0
LINE
  5
14D
100
AcDbEntity
  8
MAIN1
  6
CONTINUOUS
 62
7
100
AcDbLine
 10
216.6531460458641
 20
264.1926101674688
 30
0.0000000000000000
 11
216.6531460458641
 21
189.9926132787689
 31
0.0000000000000000
  0
LINE
  5
14E
100
AcDbEntity
  8
MAIN1
  6
CONTINUOUS
 62
7
100
AcDbLine
 10
216.6531460458640
 20
264.1926101674687
 30
0.0000000000000000
 11
216.5531462156640
 21
264.2926118601688
 31
0.0000000000000000
  0
LINE
  5
14F
100
AcDbEntity
  8
MAIN1
  6
CONTINUOUS
 62
7
100
AcDbLine
 10
205.7531461028640
 20
264.2926118601688
 30
0.0000000000000000
 11
206.0531460953640
 21
264.5926132132688
 31
0.0000000000000000
  0
LINE
  5
150
100
AcDbEntity
  8
MAIN1
  6
CONTINUOUS
 62
7
100
AcDbLine
 10
206.0531460953641
 20
264.5926132132688
 30
0.0000000000000000
 11
208.2874606927641
 21
264.5926132132688
 31
0.0000000000000000
  0
LINE
  5
151
100
AcDbEntity
  8
MAIN1
  6
CONTINUOUS
 62
7
100
AcDbLine
 10
205.6531461054642
 20
264.1926101674688
 30
0.0000000000000000
 11
205.6531461054642
 21
189.9926132787689
 31
0.0000000000000000
  0
LINE
  5
152
100
AcDbEntity
  8
MAIN1
  6
CONTINUOUS
 62
7
100
AcDbLine
 10
205.7531461028640
 20
264.2926118601686
 30
0.0000000000000000
 11
205.6531461054640
 21
264.1926101674686
 31
0.0000000000000000
  0
LINE
  5
153
100
AcDbEntity
  8
MAIN1
  6
CONTINUOUS
 62
7
100
AcDbLine
 10
216.6531468218813
 20
189.9926125027540
 30
0.0000000000000000
 11
216.2531457939641
 21
189.5926102329687
 31
0.0000000000000000
  0
LINE
  5
154
100
AcDbEntity
  8
MAIN1
  6
CONTINUOUS
 62
7
100
AcDbLine
 10
214.0188312256641
 20
189.5926102329688
 30
0.0000000000000000
 11
216.2531457939642
 21
189.5926102329688
 31
0.0000000000000000
  0
LINE
  5
155
100
AcDbEntity
  8
MAIN1
  6
CONTINUOUS
 62
7
100
AcDbLine
 10
205.6531461054641
 20
189.9926120370023
 30
0.0000000000000000
 11
206.0531460953641
 21
189.5926102329688
 31
0.0000000000000000
  0
LINE
  5
156
100
AcDbEntity
  8
MAIN1
  6
CONTINUOUS
 62
7
100
AcDbLine
 10
206.0531460953641
 20
189.5926102329688
 30
0.0000000000000000
 11
208.2874606927641
 21
189.5926102329688
 31
0.0000000000000000
  0
LINE
  5
157
100
AcDbEntity
  8
MAIN1
  6
CONTINUOUS
 62
7
100
AcDbLine
 10
216.2531457939642
 20
264.5926132132688
 30
0.0000000000000000
 11
218.6531463736641
 21
264.5926132132688
 31
0.0000000000000000
  0
LINE
  5
158
100
AcDbEntity
  8
MAIN1
  6
CONTINUOUS
 62
7
100
AcDbLine
 10
234.7531462842642
 20
264.5926132132688
 30
0.0000000000000000
 11
234.7531462842642
 21
189.5926102329688
 31
0.0000000000000000
  0
CIRCLE
  5
159
100
AcDbEntity
  8
MAIN1
  6
CONTINUOUS
 62
7
100
AcDbCircle
 10
225.2531461054641
 20
244.0926117231689
 30
0.0000000000000000
 40
8.300000000000001
  0
CIRCLE
  5
15A
100
AcDbEntity
  8
MAIN1
  6
CONTINUOUS
 62
7
100
AcDbCircle
 10
225.2531461054641
 20
210.0926117231689
 30
0.0000000000000000
 40
8.300000000000001
  0
LINE
  5
15B
100
AcDbEntity
  8
MAIN1
  6
CONTINUOUS
 62
7
100
AcDbLine
 10
244.2531452113640
 20
255.0926138059251
 30
0.0000000000000000
 11
238.7683185481640
 21
264.5926117231688
 31
0.0000000000000000
  0
LINE
  5
15C
100
AcDbEntity
  8
MAIN1
  6
CONTINUOUS
 62
7
100
AcDbLine
 10
244.2531452113640
 20
255.0926138059251
 30
0.0000000000000000
 11
244.2531452113640
 21
199.0926096404126
 31
0.0000000000000000
  0
LINE
  5
15D
100
AcDbEntity
  8
MAIN1
  6
CONTINUOUS
 62
7
100
AcDbLine
 10
244.2531452113640
 20
199.0926096404126
 30
0.0000000000000000
 11
238.7683185481640
 21
189.5926117231689
 31
0.0000000000000000
  0
LINE
  5
15E
100
AcDbEntity
  8
MAIN1
  6
CONTINUOUS
 62
7
100
AcDbLine
 10
218.6531463736641
 20
264.5926132132688
 30
0.0000000000000000
 11
238.7683176878543
 21
264.5926132132688
 31
0.0000000000000000
  0
LINE
  5
15F
100
AcDbEntity
  8
MAIN1
  6
CONTINUOUS
 62
7
100
AcDbLine
 10
216.2531457939641
 20
189.5926102329688
 30
0.0000000000000000
 11
238.7683176877965
 21
189.5926102329688
 31
0.0000000000000000
  0
CIRCLE
  5
160
100
AcDbEntity
  8
MAIN1
  6
CONTINUOUS
 62
7
100
AcDbCircle
 10
225.2531461054641
 20
244.0926117231689
 30
0.0000000000000000
 40
4.999999999999943
  0
CIRCLE
  5
161
100
AcDbEntity
  8
MAIN1
  6
CONTINUOUS
 62
7
100
AcDbCircle
 10
225.2531461054641
 20
210.0926117231689
 30
0.0000000000000000
 40
5.000000000000000
  0
LINE
  5
162
100
AcDbEntity
  8
MAIN1
  6
CONTINUOUS
 62
7
100
AcDbLine
 10
216.4531460458641
 20
110.1261534173688
 30
0.0000000000000000
 11
216.6531460458641
 21
109.9261534173688
 31
0.0000000000000000
  0
LINE
  5
163
100
AcDbEntity
  8
MAIN1
  6
CONTINUOUS
 62
7
100
AcDbLine
 10
376.9822193495641
 20
91.32615385926897
 30
0.0000000000000000
 11
376.7822196892643
 21
91.12615386436912
 31
0.0000000000000000
  0
LINE
  5
164
100
AcDbEntity
  8
MAIN1
  6
CONTINUOUS
 62
7
100
AcDbLine
 10
376.7822196892641
 20
91.12615386436886
 30
0.0000000000000000
 11
339.4822163692641
 21
91.12615386436886
 31
0.0000000000000000
  0
LINE
  5
165
100
AcDbEntity
  8
MAIN1
  6
CONTINUOUS
 62
7
100
AcDbLine
 10
301.9822163692640
 20
101.2656815949689
 30
0.0000000000000000
 11
301.9822163692640
 21
104.7261540446689
 31
0.0000000000000000
  0
LINE
  5
166
100
AcDbEntity
  8
MAIN1
  6
CONTINUOUS
 62
7
100
AcDbLine
 10
301.9822163692642
 20
104.7261540446689
 30
0.0000000000000000
 11
302.3822194150642
 21
105.1261542964689
 31
0.0000000000000000
  0
LINE
  5
167
100
AcDbEntity
  8
MAIN1
  6
CONTINUOUS
 62
7
100
AcDbLine
 10
376.9822193495643
 20
104.7261540446689
 30
0.0000000000000000
 11
376.5822163037643
 21
105.1261542964690
 31
0.0000000000000000
  0
LINE
  5
168
100
AcDbEntity
  8
MAIN1
  6
CONTINUOUS
 62
7
100
AcDbLine
 10
376.9822193495640
 20
101.2656815949689
 30
0.0000000000000000
 11
376.9822193495640
 21
104.7261540446689
 31
0.0000000000000000
  0
LINE
  5
169
100
AcDbEntity
  8
MAIN1
  6
CONTINUOUS
 62
7
100
AcDbLine
 10
376.9822193495640
 20
101.2656815949689
 30
0.0000000000000000
 11
376.9822193495640
 21
91.32615385926886
 31
0.0000000000000000
  0
LINE
  5
16A
100
AcDbEntity
  8
MAIN1
  6
CONTINUOUS
 62
7
100
AcDbLine
 10
302.1822160295641
 20
91.12615386436886
 30
0.0000000000000000
 11
339.4822163692641
 21
91.12615386436886
 31
0.0000000000000000
  0
LINE
  5
16B
100
AcDbEntity
  8
MAIN1
  6
CONTINUOUS
 62
7
100
AcDbLine
 10
301.9822163692642
 20
91.32615385926876
 30
0.0000000000000000
 11
302.1822160295642
 21
91.12615386436877
 31
0.0000000000000000
  0
LINE
  5
16C
100
AcDbEntity
  8
MAIN1
  6
CONTINUOUS
 62
7
100
AcDbLine
 10
301.9822163692640
 20
101.2656815949689
 30
0.0000000000000000
 11
301.9822163692640
 21
91.32615385926886
 31
0.0000000000000000
  0
LINE
  5
16D
100
AcDbEntity
  8
MAIN1
  6
CONTINUOUS
 62
7
100
AcDbLine
 10
376.9822193495640
 20
113.7261539090688
 30
0.0000000000000000
 11
376.9822193495640
 21
104.7261540446689
 31
0.0000000000000000
  0
LINE
  5
16E
100
AcDbEntity
  8
MAIN1
  6
CONTINUOUS
 62
7
100
AcDbLine
 10
301.9822163692640
 20
113.7261539090689
 30
0.0000000000000000
 11
301.9822163692640
 21
104.7261540446689
 31
0.0000000000000000
  0
LINE
  5
16F
100
AcDbEntity
  8
MAIN1
  6
CONTINUOUS
 62
7
100
AcDbLine
 10
302.3822163692640
 20
114.1261539090689
 30
0.0000000000000000
 11
376.5822193495638
 21
114.1261539090689
 31
0.0000000000000000
  0
LINE
  5
170
100
AcDbEntity
  8
MAIN1
  6
CONTINUOUS
 62
7
100
AcDbLine
 10
302.3822163692639
 20
114.1261539090688
 30
0.0000000000000000
 11
301.9822163692641
 21
113.7261539090689
 31
0.0000000000000000
  0
LINE
  5
171
100
AcDbEntity
  8
MAIN1
  6
CONTINUOUS
 62
7
100
AcDbLine
 10
376.5822193495638
 20
114.1261539090688
 30
0.0000000000000000
 11
376.9822193495637
 21
113.7261539090688
 31
0.0000000000000000
  0
LINE
  5
172
100
AcDbEntity
  8
MAIN1
  6
HIDDEN
 62
7
100
AcDbLine
 10
216.9531462097641
 20
97.12615391646884
 30
0.0000000000000000
 11
216.9531462097641
 21
106.0725883207885
 31
0.0000000000000000
  0
LINE
  5
173
100
AcDbEntity
  8
MAIN1
  6
HIDDEN
 62
7
100
AcDbLine
 10
233.5531469697642
 20
97.12615391646884
 30
0.0000000000000000
 11
216.9531462097641
 21
97.12615391646884
 31
0.0000000000000000
  0
LINE
  5
174
100
AcDbEntity
  8
MAIN1
  6
HIDDEN
 62
7
100
AcDbLine
 10
220.2531457701641
 20
91.52615385426884
 30
0.0000000000000000
 11
220.2531457701641
 21
96.72615391646883
 31
0.0000000000000000
  0
LINE
  5
175
100
AcDbEntity
  8
MAIN1
  6
HIDDEN
 62
7
100
AcDbLine
 10
230.2531464779641
 20
96.72615391646883
 30
0.0000000000000000
 11
230.2531464779641
 21
91.52615385426884
 31
0.0000000000000000
  0
LINE
  5
176
100
AcDbEntity
  8
MAIN1
  6
HIDDEN
 62
7
100
AcDbLine
 10
233.5531469697642
 20
104.7261540446689
 30
0.0000000000000000
 11
233.5531469697642
 21
97.12615391646884
 31
0.0000000000000000
  0
LINE
  5
177
100
AcDbEntity
  8
MAIN1
  6
HIDDEN
 62
7
100
AcDbLine
 10
219.8531464496641
 20
91.12615386436880
 30
0.0000000000000000
 11
220.2531457701641
 21
91.52615385426887
 31
0.0000000000000000
  0
LINE
  5
178
100
AcDbEntity
  8
MAIN1
  6
HIDDEN
 62
7
100
AcDbLine
 10
230.2531464779641
 20
91.52615385426901
 30
0.0000000000000000
 11
230.6531457984642
 21
91.12615386436889
 31
0.0000000000000000
  0
LINE
  5
179
100
AcDbEntity
  8
MAIN1
  6
HIDDEN
 62
7
100
AcDbLine
 10
233.9531462902641
 20
105.1261542964688
 30
0.0000000000000000
 11
233.5531469697642
 21
104.7261540446688
 31
0.0000000000000000
  0
LINE
  5
17A
100
AcDbEntity
  8
MAIN1
  6
HIDDEN
 62
7
100
AcDbLine
 10
220.2531457701641
 20
96.72615391646880
 30
0.0000000000000000
 11
219.8531457701641
 21
97.12615391646882
 31
0.0000000000000000
  0
LINE
  5
17B
100
AcDbEntity
  8
MAIN1
  6
HIDDEN
 62
7
100
AcDbLine
 10
230.2531464779640
 20
96.72615391646880
 30
0.0000000000000000
 11
230.6531464779640
 21
97.12615391646878
 31
0.0000000000000000
  0
LINE
  5
17C
100
AcDbEntity
  8
MAIN1
  6
CONTINUOUS
 62
7
100
AcDbLine
 10
376.5822163037643
 20
105.1261538643688
 30
0.0000000000000000
 11
302.3822194150641
 21
105.1261538643688
 31
0.0000000000000000
  0
LINE
  5
17D
100
AcDbEntity
  8
MAIN1
  6
CONTINUOUS
 62
7
100
AcDbLine
 10
376.5822193495640
 20
110.1261534173688
 30
0.0000000000000000
 11
302.3822163692640
 21
110.1261534173688
 31
0.0000000000000000
  0
LINE
  5
17E
100
AcDbEntity
  8
MAIN1
  6
CONTINUOUS
 62
7
100
AcDbLine
 10
81.06773243441594
 20
208.6920088694637
 30
0.0000000000000000
 11
57.93461215251592
 21
222.0464749504637
 31
0.0000000000000000
  0
LINE
  5
17F
100
AcDbEntity
  8
MAIN1
  6
CONTINUOUS
 62
7
100
AcDbLine
 10
57.93461215251615
 20
222.0464749504637
 30
0.0000000000000000
 11
57.93461215251615
 21
237.0708258891636
 31
0.0000000000000000
  0
LINE
  5
180
100
AcDbEntity
  8
MAIN1
  6
CONTINUOUS
 62
7
100
AcDbLine
 10
57.93461215251636
 20
237.0708258891638
 30
0.0000000000000000
 11
59.70237910541624
 21
236.0503157493639
 31
0.0000000000000000
  0
LINE
  5
181
100
AcDbEntity
  8
MAIN1
  6
CONTINUOUS
 62
7
100
AcDbLine
 10
59.70237910541619
 20
236.0503157493637
 30
0.0000000000000000
 11
59.70237910541619
 21
239.3164789968637
 31
0.0000000000000000
  0
LINE
  5
182
100
AcDbEntity
  8
MAIN1
  6
CONTINUOUS
 62
7
100
AcDbLine
 10
59.70237910541633
 20
239.3164789968635
 30
0.0000000000000000
 11
63.37933436761630
 21
237.1938179061635
 31
0.0000000000000000
  0
LINE
  5
183
100
AcDbEntity
  8
MAIN1
  6
CONTINUOUS
 62
7
100
AcDbLine
 10
63.37933436761615
 20
237.1938179061638
 30
0.0000000000000000
 11
63.37933436761615
 21
233.9276546586636
 31
0.0000000000000000
  0
LINE
  5
184
100
AcDbEntity
  8
MAIN1
  6
CONTINUOUS
 62
7
100
AcDbLine
 10
63.37933436761633
 20
233.9276546586638
 30
0.0000000000000000
 11
65.14710132061643
 21
232.9071445188637
 31
0.0000000000000000
  0
LINE
  5
185
100
AcDbEntity
  8
MAIN1
  6
CONTINUOUS
 62
7
100
AcDbLine
 10
65.14710132061623
 20
232.9071445188637
 30
0.0000000000000000
 11
65.14710132061623
 21
230.7841384079637
 31
0.0000000000000000
  0
ARC
  5
186
100
AcDbEntity
  8
MAIN1
  6
CONTINUOUS
 62
7
100
AcDbCircle
 10
68.83161996381614
 20
230.9518044533637
 30
0.0000000000000000
 40
3.688331538172955
100
AcDbArc
 50
182.6054784857000
 51
237.3945216600000
  0
LINE
  5
187
100
AcDbEntity
  8
MAIN1
  6
CONTINUOUS
 62
7
100
AcDbLine
 10
66.84415759541622
 20
227.8447507252635
 30
0.0000000000000000
 11
78.51141948501615
 21
221.1093838026636
 31
0.0000000000000000
  0
LINE
  5
188
100
AcDbEntity
  8
MAIN1
  6
CONTINUOUS
 62
7
100
AcDbLine
 10
81.06773243441614
 20
216.6817199072637
 30
0.0000000000000000
 11
78.51141948501621
 21
221.1093838026637
 31
0.0000000000000000
  0
LINE
  5
189
100
AcDbEntity
  8
MAIN1
  6
CONTINUOUS
 62
7
100
AcDbLine
 10
81.06773243441626
 20
216.6817199072636
 30
0.0000000000000000
 11
81.06773243441626
 21
208.6920088694637
 31
0.0000000000000000
  0
LINE
  5
18A
100
AcDbEntity
  8
MAIN1
  6
CONTINUOUS
 62
7
100
AcDbLine
 10
60.19735385231624
 20
227.1092403042638
 30
0.0000000000000000
 11
60.22848713241623
 21
227.5366074596637
 31
0.0000000000000000
  0
LINE
  5
18B
100
AcDbEntity
  8
MAIN1
  6
CONTINUOUS
 62
7
100
AcDbLine
 10
60.22848713241621
 20
227.5366074596639
 30
0.0000000000000000
 11
60.32108063731619
 21
227.9169603101638
 31
0.0000000000000000
  0
LINE
  5
18C
100
AcDbEntity
  8
MAIN1
  6
CONTINUOUS
 62
7
100
AcDbLine
 10
60.32108063731619
 20
227.9169603101639
 30
0.0000000000000000
 11
60.47273624371621
 21
228.2404479166639
 31
0.0000000000000000
  0
LINE
  5
18D
100
AcDbEntity
  8
MAIN1
  6
CONTINUOUS
 62
7
100
AcDbLine
 10
60.47273624371628
 20
228.2404479166636
 30
0.0000000000000000
 11
60.67952615111629
 21
228.4986921199637
 31
0.0000000000000000
  0
LINE
  5
18E
100
AcDbEntity
  8
MAIN1
  6
CONTINUOUS
 62
7
100
AcDbLine
 10
60.67952615111621
 20
228.4986921199636
 30
0.0000000000000000
 11
60.93609460961618
 21
228.6850045310635
 31
0.0000000000000000
  0
LINE
  5
18F
100
AcDbEntity
  8
MAIN1
  6
CONTINUOUS
 62
7
100
AcDbLine
 10
60.93609460961610
 20
228.6850045310637
 30
0.0000000000000000
 11
61.23579663081593
 21
228.7945597561636
 31
0.0000000000000000
  0
LINE
  5
190
100
AcDbEntity
  8
MAIN1
  6
CONTINUOUS
 62
7
100
AcDbLine
 10
61.23579663081635
 20
228.7945597561638
 30
0.0000000000000000
 11
61.57087008981654
 21
228.8245203726638
 31
0.0000000000000000
  0
LINE
  5
191
100
AcDbEntity
  8
MAIN1
  6
CONTINUOUS
 62
7
100
AcDbLine
 10
61.57087008981615
 20
228.8245203726637
 30
0.0000000000000000
 11
61.93263676001622
 21
228.7741104161637
 31
0.0000000000000000
  0
LINE
  5
192
100
AcDbEntity
  8
MAIN1
  6
CONTINUOUS
 62
7
100
AcDbLine
 10
61.93263676001642
 20
228.7741104161639
 30
0.0000000000000000
 11
62.31172707471631
 21
228.6446354782639
 31
0.0000000000000000
  0
LINE
  5
193
100
AcDbEntity
  8
MAIN1
  6
CONTINUOUS
 62
7
100
AcDbLine
 10
62.31172707471612
 20
228.6446354782638
 30
0.0000000000000000
 11
62.69832279391613
 21
228.4394488915638
 31
0.0000000000000000
  0
LINE
  5
194
100
AcDbEntity
  8
MAIN1
  6
CONTINUOUS
 62
7
100
AcDbLine
 10
62.69832279391620
 20
228.4394488915634
 30
0.0000000000000000
 11
63.08241129151617
 21
228.1638648811634
 31
0.0000000000000000
  0
LINE
  5
195
100
AcDbEntity
  8
MAIN1
  6
CONTINUOUS
 62
7
100
AcDbLine
 10
63.08241129151626
 20
228.1638648811641
 30
0.0000000000000000
 11
63.45404487721626
 21
227.8250209280641
 31
0.0000000000000000
  0
LINE
  5
196
100
AcDbEntity
  8
MAIN1
  6
CONTINUOUS
 62
7
100
AcDbLine
 10
63.45404487721624
 20
227.8250209280637
 30
0.0000000000000000
 11
63.80359843631626
 21
227.4316929125637
 31
0.0000000000000000
  0
LINE
  5
197
100
AcDbEntity
  8
MAIN1
  6
CONTINUOUS
 62
7
100
AcDbLine
 10
63.80359843631637
 20
227.4316929125637
 30
0.0000000000000000
 11
64.12201871531639
 21
226.9940678237637
 31
0.0000000000000000
  0
LINE
  5
198
100
AcDbEntity
  8
MAIN1
  6
CONTINUOUS
 62
7
100
AcDbLine
 10
64.12201871531644
 20
226.9940678237639
 30
0.0000000000000000
 11
64.40105879611645
 21
226.5234799216638
 31
0.0000000000000000
  0
LINE
  5
199
100
AcDbEntity
  8
MAIN1
  6
CONTINUOUS
 62
7
100
AcDbLine
 10
64.40105879611625
 20
226.5234799216638
 30
0.0000000000000000
 11
64.63349168731628
 21
226.0321171855638
 31
0.0000000000000000
  0
LINE
  5
19A
100
AcDbEntity
  8
MAIN1
  6
CONTINUOUS
 62
7
100
AcDbLine
 10
64.63349168731614
 20
226.0321171855636
 30
0.0000000000000000
 11
64.81329749901616
 21
225.5327056523637
 31
0.0000000000000000
  0
LINE
  5
19B
100
AcDbEntity
  8
MAIN1
  6
CONTINUOUS
 62
7
100
AcDbLine
 10
64.81329749901641
 20
225.5327056523636
 30
0.0000000000000000
 11
64.93581935531641
 21
225.0381798183636
 31
0.0000000000000000
  0
LINE
  5
19C
100
AcDbEntity
  8
MAIN1
  6
CONTINUOUS
 62
7
100
AcDbLine
 10
64.93581935531626
 20
225.0381798183638
 30
0.0000000000000000
 11
64.99788400431626
 21
224.5613476429637
 31
0.0000000000000000
  0
LINE
  5
19D
100
AcDbEntity
  8
MAIN1
  6
CONTINUOUS
 62
7
100
AcDbLine
 10
64.99788400431612
 20
224.5613476429637
 30
0.0000000000000000
 11
64.99788400431612
 21
224.1145588289637
 31
0.0000000000000000
  0
LINE
  5
19E
100
AcDbEntity
  8
MAIN1
  6
CONTINUOUS
 62
7
100
AcDbLine
 10
64.99788400431629
 20
224.1145588289636
 30
0.0000000000000000
 11
64.93581935531628
 21
223.7093849720636
 31
0.0000000000000000
  0
LINE
  5
19F
100
AcDbEntity
  8
MAIN1
  6
CONTINUOUS
 62
7
100
AcDbLine
 10
64.93581935531614
 20
223.7093849720638
 30
0.0000000000000000
 11
64.81329749901607
 21
223.3563198621636
 31
0.0000000000000000
  0
LINE
  5
1A0
100
AcDbEntity
  8
MAIN1
  6
CONTINUOUS
 62
7
100
AcDbLine
 10
64.81329749901634
 20
223.3563198621638
 30
0.0000000000000000
 11
64.63349168731625
 21
223.0645077003637
 31
0.0000000000000000
  0
LINE
  5
1A1
100
AcDbEntity
  8
MAIN1
  6
CONTINUOUS
 62
7
100
AcDbLine
 10
64.63349168731588
 20
223.0645077003637
 30
0.0000000000000000
 11
64.40105879611608
 21
222.8415062682639
 31
0.0000000000000000
  0
LINE
  5
1A2
100
AcDbEntity
  8
MAIN1
  6
CONTINUOUS
 62
7
100
AcDbLine
 10
64.40105879611616
 20
222.8415062682636
 30
0.0000000000000000
 11
64.12201871531610
 21
222.6930911857636
 31
0.0000000000000000
  0
LINE
  5
1A3
100
AcDbEntity
  8
MAIN1
  6
CONTINUOUS
 62
7
100
AcDbLine
 10
64.12201871531616
 20
222.6930911857637
 30
0.0000000000000000
 11
63.80359843631623
 21
222.6231063255637
 31
0.0000000000000000
  0
LINE
  5
1A4
100
AcDbEntity
  8
MAIN1
  6
CONTINUOUS
 62
7
100
AcDbLine
 10
63.80359843631619
 20
222.6231063255637
 30
0.0000000000000000
 11
63.45404487721615
 21
222.6333642589637
 31
0.0000000000000000
  0
LINE
  5
1A5
100
AcDbEntity
  8
MAIN1
  6
CONTINUOUS
 62
7
100
AcDbLine
 10
63.45404487721621
 20
222.6333642589636
 30
0.0000000000000000
 11
63.08241129151625
 21
222.7235993105636
 31
0.0000000000000000
  0
LINE
  5
1A6
100
AcDbEntity
  8
MAIN1
  6
CONTINUOUS
 62
7
100
AcDbLine
 10
63.08241129151610
 20
222.7235993105636
 30
0.0000000000000000
 11
62.69832279391605
 21
222.8914744401636
 31
0.0000000000000000
  0
LINE
  5
1A7
100
AcDbEntity
  8
MAIN1
  6
CONTINUOUS
 62
7
100
AcDbLine
 10
62.69832279391629
 20
222.8914744401637
 30
0.0000000000000000
 11
62.31172707471624
 21
223.1326417700637
 31
0.0000000000000000
  0
LINE
  5
1A8
100
AcDbEntity
  8
MAIN1
  6
CONTINUOUS
 62
7
100
AcDbLine
 10
62.31172707471634
 20
223.1326417700640
 30
0.0000000000000000
 11
61.93263676001643
 21
223.4408551930639
 31
0.0000000000000000
  0
LINE
  5
1A9
100
AcDbEntity
  8
MAIN1
  6
CONTINUOUS
 62
7
100
AcDbLine
 10
61.93263676001627
 20
223.4408551930636
 30
0.0000000000000000
 11
61.57087008981616
 21
223.8081321432637
 31
0.0000000000000000
  0
LINE
  5
1AA
100
AcDbEntity
  8
MAIN1
  6
CONTINUOUS
 62
7
100
AcDbLine
 10
61.57087008981605
 20
223.8081321432636
 30
0.0000000000000000
 11
61.23579663081609
 21
224.2249603408635
 31
0.0000000000000000
  0
LINE
  5
1AB
100
AcDbEntity
  8
MAIN1
  6
CONTINUOUS
 62
7
100
AcDbLine
 10
61.23579663081619
 20
224.2249603408637
 30
0.0000000000000000
 11
60.93609460961618
 21
224.6805441541637
 31
0.0000000000000000
  0
LINE
  5
1AC
100
AcDbEntity
  8
MAIN1
  6
CONTINUOUS
 62
7
100
AcDbLine
 10
60.93609460961641
 20
224.6805441541638
 30
0.0000000000000000
 11
60.67952615111640
 21
225.1630842020638
 31
0.0000000000000000
  0
LINE
  5
1AD
100
AcDbEntity
  8
MAIN1
  6
CONTINUOUS
 62
7
100
AcDbLine
 10
60.67952615111623
 20
225.1630842020637
 30
0.0000000000000000
 11
60.47273624371625
 21
225.6600829504637
 31
0.0000000000000000
  0
LINE
  5
1AE
100
AcDbEntity
  8
MAIN1
  6
CONTINUOUS
 62
7
100
AcDbLine
 10
60.47273624371627
 20
225.6600829504636
 30
0.0000000000000000
 11
60.32108063731626
 21
226.1586683930636
 31
0.0000000000000000
  0
LINE
  5
1AF
100
AcDbEntity
  8
MAIN1
  6
CONTINUOUS
 62
7
100
AcDbLine
 10
60.32108063731648
 20
226.1586683930637
 30
0.0000000000000000
 11
60.22848713241648
 21
226.6459274286637
 31
0.0000000000000000
  0
LINE
  5
1B0
100
AcDbEntity
  8
MAIN1
  6
CONTINUOUS
 62
7
100
AcDbLine
 10
60.22848713241611
 20
226.6459274286638
 30
0.0000000000000000
 11
60.19735385231612
 21
227.1092403042638
 31
0.0000000000000000
  0
LINE
  5
1B1
100
AcDbEntity
  8
MAIN1
  6
CONTINUOUS
 62
7
100
AcDbLine
 10
131.2615853615163
 20
236.7015711679639
 30
0.0000000000000000
 11
134.1007410234163
 21
247.2970241006638
 31
0.0000000000000000
  0
LINE
  5
1B2
100
AcDbEntity
  8
MAIN1
  6
CONTINUOUS
 62
7
100
AcDbLine
 10
131.2615853615160
 20
236.7015711679635
 30
0.0000000000000000
 11
91.66360561511596
 21
213.8421440368635
 31
0.0000000000000000
  0
LINE
  5
1B3
100
AcDbEntity
  8
MAIN1
  6
CONTINUOUS
 62
7
100
AcDbLine
 10
91.66360561511621
 20
213.8421440368637
 30
0.0000000000000000
 11
81.06773243441626
 21
216.6817199072637
 31
0.0000000000000000
  0
LINE
  5
1B4
100
AcDbEntity
  8
MAIN1
  6
CONTINUOUS
 62
7
100
AcDbLine
 10
78.51141948501618
 20
221.1093838026637
 30
0.0000000000000000
 11
78.51141948501618
 21
221.7625633721636
 31
0.0000000000000000
  0
LINE
  5
1B5
100
AcDbEntity
  8
MAIN1
  6
CONTINUOUS
 62
7
100
AcDbLine
 10
130.9787426490164
 20
252.0513043207638
 30
0.0000000000000000
 11
78.51141948501609
 21
221.7625633721636
 31
0.0000000000000000
  0
LINE
  5
1B6
100
AcDbEntity
  8
MAIN1
  6
CONTINUOUS
 62
7
100
AcDbLine
 10
131.5444280740163
 20
251.7246879960637
 30
0.0000000000000000
 11
130.9787426490162
 21
252.0513043207638
 31
0.0000000000000000
  0
LINE
  5
1B7
100
AcDbEntity
  8
MAIN1
  6
CONTINUOUS
 62
7
100
AcDbLine
 10
134.1007410234163
 20
247.2970241006638
 30
0.0000000000000000
 11
131.5444280740163
 21
251.7246879960638
 31
0.0000000000000000
  0
LINE
  5
1B8
100
AcDbEntity
  8
MAIN1
  6
CONTINUOUS
 62
7
100
AcDbLine
 10
91.66360561511641
 20
210.3310185457637
 30
0.0000000000000000
 11
81.06773243441629
 21
208.6920088694637
 31
0.0000000000000000
  0
LINE
  5
1B9
100
AcDbEntity
  8
MAIN1
  6
CONTINUOUS
 62
7
100
AcDbLine
 10
91.66360561511624
 20
213.8421440368637
 30
0.0000000000000000
 11
91.66360561511624
 21
210.3310185457638
 31
0.0000000000000000
  0
LINE
  5
1BA
100
AcDbEntity
  8
MAIN1
  6
CONTINUOUS
 62
7
100
AcDbLine
 10
67.12700030791621
 20
228.3346486723638
 30
0.0000000000000000
 11
66.84415759541622
 21
227.8447507252638
 31
0.0000000000000000
  0
LINE
  5
1BB
100
AcDbEntity
  8
MAIN1
  6
CONTINUOUS
 62
7
100
AcDbLine
 10
78.51141948501621
 20
221.7625633721637
 30
0.0000000000000000
 11
67.12700030791612
 21
228.3346486723637
 31
0.0000000000000000
  0
LINE
  5
1BC
100
AcDbEntity
  8
MAIN1
  6
CONTINUOUS
 62
7
100
AcDbLine
 10
130.9787426490162
 20
252.0513043207638
 30
0.0000000000000000
 11
119.5943234719163
 21
258.6233896209637
 31
0.0000000000000000
  0
LINE
  5
1BD
100
AcDbEntity
  8
MAIN1
  6
CONTINUOUS
 62
7
100
AcDbLine
 10
67.12700030791632
 20
228.3346486723638
 30
0.0000000000000000
 11
77.33172984501630
 21
234.2257136392638
 31
0.0000000000000000
  0
LINE
  5
1BE
100
AcDbEntity
  8
MAIN1
  6
CONTINUOUS
 62
7
100
AcDbLine
 10
77.33172984501616
 20
234.2257136392636
 30
0.0000000000000000
 11
77.30958814631615
 21
233.7171572542636
 31
0.0000000000000000
  0
LINE
  5
1BF
100
AcDbEntity
  8
MAIN1
  6
CONTINUOUS
 62
7
100
AcDbLine
 10
77.30958814631632
 20
233.7171572542636
 30
0.0000000000000000
 11
77.37667564351631
 21
233.2099166205636
 31
0.0000000000000000
  0
LINE
  5
1C0
100
AcDbEntity
  8
MAIN1
  6
CONTINUOUS
 62
7
100
AcDbLine
 10
77.37667564351636
 20
233.2099166205637
 30
0.0000000000000000
 11
77.53230404741638
 21
232.7091958111637
 31
0.0000000000000000
  0
LINE
  5
1C1
100
AcDbEntity
  8
MAIN1
  6
CONTINUOUS
 62
7
100
AcDbLine
 10
77.53230404741646
 20
232.7091958111638
 30
0.0000000000000000
 11
77.77487667671645
 21
232.2201320086638
 31
0.0000000000000000
  0
LINE
  5
1C2
100
AcDbEntity
  8
MAIN1
  6
CONTINUOUS
 62
7
100
AcDbLine
 10
77.77487667671625
 20
232.2201320086636
 30
0.0000000000000000
 11
78.10190483961623
 21
231.7477427997636
 31
0.0000000000000000
  0
LINE
  5
1C3
100
AcDbEntity
  8
MAIN1
  6
CONTINUOUS
 62
7
100
AcDbLine
 10
78.10190483961617
 20
231.7477427997636
 30
0.0000000000000000
 11
78.51003336601619
 21
231.2968746967636
 31
0.0000000000000000
  0
LINE
  5
1C4
100
AcDbEntity
  8
MAIN1
  6
CONTINUOUS
 62
7
100
AcDbLine
 10
78.51003336601616
 20
231.2968746967639
 30
0.0000000000000000
 11
78.99507503091618
 21
230.8721534147639
 31
0.0000000000000000
  0
LINE
  5
1C5
100
AcDbEntity
  8
MAIN1
  6
CONTINUOUS
 62
7
100
AcDbLine
 10
78.99507503091607
 20
230.8721534147636
 30
0.0000000000000000
 11
79.55205351301606
 21
230.4779364133635
 31
0.0000000000000000
  0
LINE
  5
1C6
100
AcDbEntity
  8
MAIN1
  6
CONTINUOUS
 62
7
100
AcDbLine
 10
79.55205351301635
 20
230.4779364133637
 30
0.0000000000000000
 11
80.17525445011634
 21
230.1182681914637
 31
0.0000000000000000
  0
LINE
  5
1C7
100
AcDbEntity
  8
MAIN1
  6
CONTINUOUS
 62
7
100
AcDbLine
 10
80.17525445011620
 20
230.1182681914637
 30
0.0000000000000000
 11
80.85828406551622
 21
229.7968387919637
 31
0.0000000000000000
  0
LINE
  5
1C8
100
AcDbEntity
  8
MAIN1
  6
CONTINUOUS
 62
7
100
AcDbLine
 10
80.85828406551624
 20
229.7968387919637
 30
0.0000000000000000
 11
81.59413476591615
 21
229.5169459438637
 31
0.0000000000000000
  0
LINE
  5
1C9
100
AcDbEntity
  8
MAIN1
  6
CONTINUOUS
 62
7
100
AcDbLine
 10
81.59413476591635
 20
229.5169459438636
 30
0.0000000000000000
 11
82.37525703601614
 21
229.2814612287637
 31
0.0000000000000000
  0
LINE
  5
1CA
100
AcDbEntity
  8
MAIN1
  6
CONTINUOUS
 62
7
100
AcDbLine
 10
82.37525703601597
 20
229.2814612287638
 30
0.0000000000000000
 11
83.19363689351604
 21
229.0928006196638
 31
0.0000000000000000
  0
LINE
  5
1CB
100
AcDbEntity
  8
MAIN1
  6
CONTINUOUS
 62
7
100
AcDbLine
 10
83.19363689351644
 20
229.0928006196636
 30
0.0000000000000000
 11
84.04087810911636
 21
228.9528996941636
 31
0.0000000000000000
  0
LINE
  5
1CC
100
AcDbEntity
  8
MAIN1
  6
CONTINUOUS
 62
7
100
AcDbLine
 10
84.04087810911614
 20
228.9528996941638
 30
0.0000000000000000
 11
84.90828834831623
 21
228.8631937762638
 31
0.0000000000000000
  0
LINE
  5
1CD
100
AcDbEntity
  8
MAIN1
  6
CONTINUOUS
 62
7
100
AcDbLine
 10
84.90828834831638
 20
228.8631937762637
 30
0.0000000000000000
 11
85.78696835091640
 21
228.8246032105637
 31
0.0000000000000000
  0
LINE
  5
1CE
100
AcDbEntity
  8
MAIN1
  6
CONTINUOUS
 62
7
100
AcDbLine
 10
85.78696835091631
 20
228.8246032105636
 30
0.0000000000000000
 11
86.66790323371620
 21
228.8375239198636
 31
0.0000000000000000
  0
LINE
  5
1CF
100
AcDbEntity
  8
MAIN1
  6
CONTINUOUS
 62
7
100
AcDbLine
 10
86.66790323371623
 20
228.8375239198637
 30
0.0000000000000000
 11
87.54205497961621
 21
228.9018233431636
 31
0.0000000000000000
  0
LINE
  5
1D0
100
AcDbEntity
  8
MAIN1
  6
CONTINUOUS
 62
7
100
AcDbLine
 10
87.54205497961650
 20
228.9018233431638
 30
0.0000000000000000
 11
88.40045516331645
 21
229.0168417956638
 31
0.0000000000000000
  0
LINE
  5
1D1
100
AcDbEntity
  8
MAIN1
  6
CONTINUOUS
 62
7
100
AcDbLine
 10
88.40045516331603
 20
229.0168417956638
 30
0.0000000000000000
 11
89.23429696411600
 21
229.1813992370638
 31
0.0000000000000000
  0
LINE
  5
1D2
100
AcDbEntity
  8
MAIN1
  6
CONTINUOUS
 62
7
100
AcDbLine
 10
89.23429696411617
 20
229.1813992370636
 30
0.0000000000000000
 11
90.03502551961623
 21
229.3938073779636
 31
0.0000000000000000
  0
LINE
  5
1D3
100
AcDbEntity
  8
MAIN1
  6
CONTINUOUS
 62
7
100
AcDbLine
 10
90.03502551961640
 20
229.3938073779637
 30
0.0000000000000000
 11
90.79442569541627
 21
229.6518870010637
 31
0.0000000000000000
  0
LINE
  5
1D4
100
AcDbEntity
  8
MAIN1
  6
CONTINUOUS
 62
7
100
AcDbLine
 10
90.79442569541629
 20
229.6518870010636
 30
0.0000000000000000
 11
91.50470636871614
 21
229.9529903193635
 31
0.0000000000000000
  0
LINE
  5
1D5
100
AcDbEntity
  8
MAIN1
  6
CONTINUOUS
 62
7
100
AcDbLine
 10
91.50470636871634
 20
229.9529903193636
 30
0.0000000000000000
 11
92.15858036191636
 21
230.2940281407637
 31
0.0000000000000000
  0
LINE
  5
1D6
100
AcDbEntity
  8
MAIN1
  6
CONTINUOUS
 62
7
100
AcDbLine
 10
92.15858036191636
 20
230.2940281407637
 30
0.0000000000000000
 11
92.74933920581651
 21
230.6715015622638
 31
0.0000000000000000
  0
LINE
  5
1D7
100
AcDbEntity
  8
MAIN1
  6
CONTINUOUS
 62
7
100
AcDbLine
 10
92.74933920581634
 20
230.6715015622637
 30
0.0000000000000000
 11
93.27092196591619
 21
231.0815378670635
 31
0.0000000000000000
  0
LINE
  5
1D8
100
AcDbEntity
  8
MAIN1
  6
CONTINUOUS
 62
7
100
AcDbLine
 10
93.27092196591647
 20
231.0815378670637
 30
0.0000000000000000
 11
93.71797742501627
 21
231.5199302571635
 31
0.0000000000000000
  0
LINE
  5
1D9
100
AcDbEntity
  8
MAIN1
  6
CONTINUOUS
 62
7
100
AcDbLine
 10
93.71797742501639
 20
231.5199302571638
 30
0.0000000000000000
 11
94.08591898421642
 21
231.9821810129639
 31
0.0000000000000000
  0
LINE
  5
1DA
100
AcDbEntity
  8
MAIN1
  6
CONTINUOUS
 62
7
100
AcDbLine
 10
94.08591898421625
 20
231.9821810129638
 30
0.0000000000000000
 11
94.37097171951626
 21
232.4635476383638
 31
0.0000000000000000
  0
LINE
  5
1DB
100
AcDbEntity
  8
MAIN1
  6
CONTINUOUS
 62
7
100
AcDbLine
 10
94.37097171951629
 20
232.4635476383635
 30
0.0000000000000000
 11
94.57021111111627
 21
232.9590915164634
 31
0.0000000000000000
  0
LINE
  5
1DC
100
AcDbEntity
  8
MAIN1
  6
CONTINUOUS
 62
7
100
AcDbLine
 10
94.57021111111629
 20
232.9590915164636
 30
0.0000000000000000
 11
94.68159304751629
 21
233.4637285778636
 31
0.0000000000000000
  0
LINE
  5
1DD
100
AcDbEntity
  8
MAIN1
  6
CONTINUOUS
 62
7
100
AcDbLine
 10
94.68159304751620
 20
233.4637285778637
 30
0.0000000000000000
 11
94.70397479761621
 21
233.9722814608637
 31
0.0000000000000000
  0
LINE
  5
1DE
100
AcDbEntity
  8
MAIN1
  6
CONTINUOUS
 62
7
100
AcDbLine
 10
94.70397479761638
 20
233.9722814608637
 30
0.0000000000000000
 11
94.63712673401636
 21
234.4795326291637
 31
0.0000000000000000
  0
LINE
  5
1DF
100
AcDbEntity
  8
MAIN1
  6
CONTINUOUS
 62
7
100
AcDbLine
 10
94.63712673401642
 20
234.4795326291638
 30
0.0000000000000000
 11
94.48173468941644
 21
234.9802779016637
 31
0.0000000000000000
  0
LINE
  5
1E0
100
AcDbEntity
  8
MAIN1
  6
CONTINUOUS
 62
7
100
AcDbLine
 10
94.48173468941641
 20
234.9802779016637
 30
0.0000000000000000
 11
94.23939292021640
 21
235.4693798445637
 31
0.0000000000000000
  0
LINE
  5
1E1
100
AcDbEntity
  8
MAIN1
  6
CONTINUOUS
 62
7
100
AcDbLine
 10
94.23939292021640
 20
235.4693798445637
 30
0.0000000000000000
 11
93.91258774981642
 21
235.9418204801637
 31
0.0000000000000000
  0
LINE
  5
1E2
100
AcDbEntity
  8
MAIN1
  6
CONTINUOUS
 62
7
100
AcDbLine
 10
93.91258774981617
 20
235.9418204801637
 30
0.0000000000000000
 11
93.50467206031630
 21
236.3927527682636
 31
0.0000000000000000
  0
LINE
  5
1E3
100
AcDbEntity
  8
MAIN1
  6
CONTINUOUS
 62
7
100
AcDbLine
 10
93.50467206031604
 20
236.3927527682637
 30
0.0000000000000000
 11
93.01983089321615
 21
236.8175503355636
 31
0.0000000000000000
  0
LINE
  5
1E4
100
AcDbEntity
  8
MAIN1
  6
CONTINUOUS
 62
7
100
AcDbLine
 10
93.01983089321638
 20
236.8175503355639
 30
0.0000000000000000
 11
92.46303851261641
 21
237.2118549394638
 31
0.0000000000000000
  0
LINE
  5
1E5
100
AcDbEntity
  8
MAIN1
  6
CONTINUOUS
 62
7
100
AcDbLine
 10
92.46303851261638
 20
237.2118549394638
 30
0.0000000000000000
 11
91.84000737171627
 21
237.5716211826639
 31
0.0000000000000000
  0
LINE
  5
1E6
100
AcDbEntity
  8
MAIN1
  6
CONTINUOUS
 62
7
100
AcDbLine
 10
91.84000737171616
 20
237.5716211826636
 30
0.0000000000000000
 11
91.15712950481631
 21
237.8931580162635
 31
0.0000000000000000
  0
LINE
  5
1E7
100
AcDbEntity
  8
MAIN1
  6
CONTINUOUS
 62
7
100
AcDbLine
 10
91.15712950481611
 20
237.8931580162637
 30
0.0000000000000000
 11
90.42141094871616
 21
238.1731666092637
 31
0.0000000000000000
  0
LINE
  5
1E8
100
AcDbEntity
  8
MAIN1
  6
CONTINUOUS
 62
7
100
AcDbLine
 10
90.42141094871627
 20
238.1731666092638
 30
0.0000000000000000
 11
89.64039986271627
 21
238.4087741925638
 31
0.0000000000000000
  0
LINE
  5
1E9
100
AcDbEntity
  8
MAIN1
  6
CONTINUOUS
 62
7
100
AcDbLine
 10
89.64039986271658
 20
238.4087741925638
 30
0.0000000000000000
 11
88.82210908841645
 21
238.5975635324638
 31
0.0000000000000000
  0
LINE
  5
1EA
100
AcDbEntity
  8
MAIN1
  6
CONTINUOUS
 62
7
100
AcDbLine
 10
88.82210908841626
 20
238.5975635324638
 30
0.0000000000000000
 11
87.97493394121645
 21
238.7375977306637
 31
0.0000000000000000
  0
LINE
  5
1EB
100
AcDbEntity
  8
MAIN1
  6
CONTINUOUS
 62
7
100
AcDbLine
 10
87.97493394121597
 20
238.7375977306638
 30
0.0000000000000000
 11
87.10756607781602
 21
238.8274400958638
 31
0.0000000000000000
  0
LINE
  5
1EC
100
AcDbEntity
  8
MAIN1
  6
CONTINUOUS
 62
7
100
AcDbLine
 10
87.10756607781627
 20
238.8274400958637
 30
0.0000000000000000
 11
86.22890432361626
 21
238.8661688836637
 31
0.0000000000000000
  0
LINE
  5
1ED
100
AcDbEntity
  8
MAIN1
  6
CONTINUOUS
 62
7
100
AcDbLine
 10
86.22890432361635
 20
238.8661688836638
 30
0.0000000000000000
 11
85.34796337451630
 21
238.8533867530638
 31
0.0000000000000000
  0
LINE
  5
1EE
100
AcDbEntity
  8
MAIN1
  6
CONTINUOUS
 62
7
100
AcDbLine
 10
101.3733604053163
 20
248.1046515402638
 30
0.0000000000000000
 11
85.34796337451616
 21
238.8533867530637
 31
0.0000000000000000
  0
LINE
  5
1EF
100
AcDbEntity
  8
MAIN1
  6
CONTINUOUS
 62
7
100
AcDbLine
 10
109.3895939348162
 20
252.7323246540637
 30
0.0000000000000000
 11
110.2705348839163
 21
252.7451067846637
 31
0.0000000000000000
  0
LINE
  5
1F0
100
AcDbEntity
  8
MAIN1
  6
CONTINUOUS
 62
7
100
AcDbLine
 10
110.2705348839162
 20
252.7451067846637
 30
0.0000000000000000
 11
111.1491966381162
 21
252.7063779968637
 31
0.0000000000000000
  0
LINE
  5
1F1
100
AcDbEntity
  8
MAIN1
  6
CONTINUOUS
 62
7
100
AcDbLine
 10
111.1491966381161
 20
252.7063779968636
 30
0.0000000000000000
 11
112.0165645015160
 21
252.6165356316637
 31
0.0000000000000000
  0
LINE
  5
1F2
100
AcDbEntity
  8
MAIN1
  6
CONTINUOUS
 62
7
100
AcDbLine
 10
112.0165645015162
 20
252.6165356316637
 30
0.0000000000000000
 11
112.8637396487165
 21
252.4765014334637
 31
0.0000000000000000
  0
LINE
  5
1F3
100
AcDbEntity
  8
MAIN1
  6
CONTINUOUS
 62
7
100
AcDbLine
 10
112.8637396487166
 20
252.4765014334637
 30
0.0000000000000000
 11
113.6820304230164
 21
252.2877120935637
 31
0.0000000000000000
  0
LINE
  5
1F4
100
AcDbEntity
  8
MAIN1
  6
CONTINUOUS
 62
7
100
AcDbLine
 10
113.6820304230161
 20
252.2877120935637
 30
0.0000000000000000
 11
114.4630415090161
 21
252.0521045102637
 31
0.0000000000000000
  0
LINE
  5
1F5
100
AcDbEntity
  8
MAIN1
  6
CONTINUOUS
 62
7
100
AcDbLine
 10
114.4630415090162
 20
252.0521045102637
 30
0.0000000000000000
 11
115.1987600652162
 21
251.7720959172636
 31
0.0000000000000000
  0
LINE
  5
1F6
100
AcDbEntity
  8
MAIN1
  6
CONTINUOUS
 62
7
100
AcDbLine
 10
115.1987600652163
 20
251.7720959172633
 30
0.0000000000000000
 11
115.8816379320163
 21
251.4505590836633
 31
0.0000000000000000
  0
LINE
  5
1F7
100
AcDbEntity
  8
MAIN1
  6
CONTINUOUS
 62
7
100
AcDbLine
 10
115.8816379320162
 20
251.4505590836638
 30
0.0000000000000000
 11
116.5046690729162
 21
251.0907928404638
 31
0.0000000000000000
  0
LINE
  5
1F8
100
AcDbEntity
  8
MAIN1
  6
CONTINUOUS
 62
7
100
AcDbLine
 10
116.5046690729163
 20
251.0907928404637
 30
0.0000000000000000
 11
117.0614614535163
 21
250.6964882365637
 31
0.0000000000000000
  0
LINE
  5
1F9
100
AcDbEntity
  8
MAIN1
  6
CONTINUOUS
 62
7
100
AcDbLine
 10
117.0614614535160
 20
250.6964882365635
 30
0.0000000000000000
 11
117.5463026206161
 21
250.2716906692635
 31
0.0000000000000000
  0
LINE
  5
1FA
100
AcDbEntity
  8
MAIN1
  6
CONTINUOUS
 62
7
100
AcDbLine
 10
117.5463026206162
 20
250.2716906692636
 30
0.0000000000000000
 11
117.9542183101162
 21
249.8207583811635
 31
0.0000000000000000
  0
LINE
  5
1FB
100
AcDbEntity
  8
MAIN1
  6
CONTINUOUS
 62
7
100
AcDbLine
 10
117.9542183101161
 20
249.8207583811635
 30
0.0000000000000000
 11
118.2810234805161
 21
249.3483177455635
 31
0.0000000000000000
  0
LINE
  5
1FC
100
AcDbEntity
  8
MAIN1
  6
CONTINUOUS
 62
7
100
AcDbLine
 10
118.2810234805161
 20
249.3483177455636
 30
0.0000000000000000
 11
118.5233652498160
 21
248.8592158026637
 31
0.0000000000000000
  0
LINE
  5
1FD
100
AcDbEntity
  8
MAIN1
  6
CONTINUOUS
 62
7
100
AcDbLine
 10
118.5233652498162
 20
248.8592158026636
 30
0.0000000000000000
 11
118.6787572943161
 21
248.3584705301637
 31
0.0000000000000000
  0
LINE
  5
1FE
100
AcDbEntity
  8
MAIN1
  6
CONTINUOUS
 62
7
100
AcDbLine
 10
118.6787572943161
 20
248.3584705301635
 30
0.0000000000000000
 11
118.7456053579161
 21
247.8512193618635
 31
0.0000000000000000
  0
LINE
  5
1FF
100
AcDbEntity
  8
MAIN1
  6
CONTINUOUS
 62
7
100
AcDbLine
 10
118.7456053579162
 20
247.8512193618638
 30
0.0000000000000000
 11
118.7232236079162
 21
247.3426664788638
 31
0.0000000000000000
  0
LINE
  5
200
100
AcDbEntity
  8
MAIN1
  6
CONTINUOUS
 62
7
100
AcDbLine
 10
118.7232236079164
 20
247.3426664788640
 30
0.0000000000000000
 11
118.6118416714164
 21
246.8380294174640
 31
0.0000000000000000
  0
LINE
  5
201
100
AcDbEntity
  8
MAIN1
  6
CONTINUOUS
 62
7
100
AcDbLine
 10
118.6118416714163
 20
246.8380294174637
 30
0.0000000000000000
 11
118.4126022798163
 21
246.3424855393637
 31
0.0000000000000000
  0
LINE
  5
202
100
AcDbEntity
  8
MAIN1
  6
CONTINUOUS
 62
7
100
AcDbLine
 10
118.4126022798162
 20
246.3424855393635
 30
0.0000000000000000
 11
118.1275495445163
 21
245.8611189139637
 31
0.0000000000000000
  0
LINE
  5
203
100
AcDbEntity
  8
MAIN1
  6
CONTINUOUS
 62
7
100
AcDbLine
 10
118.1275495445163
 20
245.8611189139639
 30
0.0000000000000000
 11
117.7596079854163
 21
245.3988681581638
 31
0.0000000000000000
  0
LINE
  5
204
100
AcDbEntity
  8
MAIN1
  6
CONTINUOUS
 62
7
100
AcDbLine
 10
117.7596079854163
 20
245.3988681581635
 30
0.0000000000000000
 11
117.3125525263165
 21
244.9604757680637
 31
0.0000000000000000
  0
LINE
  5
205
100
AcDbEntity
  8
MAIN1
  6
CONTINUOUS
 62
7
100
AcDbLine
 10
117.3125525263161
 20
244.9604757680636
 30
0.0000000000000000
 11
116.7909697661162
 21
244.5504394631637
 31
0.0000000000000000
  0
LINE
  5
206
100
AcDbEntity
  8
MAIN1
  6
CONTINUOUS
 62
7
100
AcDbLine
 10
116.7909697661162
 20
244.5504394631638
 30
0.0000000000000000
 11
116.2002109222163
 21
244.1729660417639
 31
0.0000000000000000
  0
LINE
  5
207
100
AcDbEntity
  8
MAIN1
  6
CONTINUOUS
 62
7
100
AcDbLine
 10
116.2002109222161
 20
244.1729660417635
 30
0.0000000000000000
 11
115.5463369291161
 21
243.8319282203635
 31
0.0000000000000000
  0
LINE
  5
208
100
AcDbEntity
  8
MAIN1
  6
CONTINUOUS
 62
7
100
AcDbLine
 10
115.5463369291162
 20
243.8319282203636
 30
0.0000000000000000
 11
114.8360562558162
 21
243.5308249020636
 31
0.0000000000000000
  0
LINE
  5
209
100
AcDbEntity
  8
MAIN1
  6
CONTINUOUS
 62
7
100
AcDbLine
 10
114.8360562558164
 20
243.5308249020636
 30
0.0000000000000000
 11
114.0766560799162
 21
243.2727452788636
 31
0.0000000000000000
  0
LINE
  5
20A
100
AcDbEntity
  8
MAIN1
  6
CONTINUOUS
 62
7
100
AcDbLine
 10
114.0766560799164
 20
243.2727452788638
 30
0.0000000000000000
 11
113.2759275244164
 21
243.0603371380638
 31
0.0000000000000000
  0
LINE
  5
20B
100
AcDbEntity
  8
MAIN1
  6
CONTINUOUS
 62
7
100
AcDbLine
 10
113.2759275244161
 20
243.0603371380637
 30
0.0000000000000000
 11
112.4420857237160
 21
242.8957796966637
 31
0.0000000000000000
  0
LINE
  5
20C
100
AcDbEntity
  8
MAIN1
  6
CONTINUOUS
 62
7
100
AcDbLine
 10
112.4420857237161
 20
242.8957796966637
 30
0.0000000000000000
 11
111.5836855399162
 21
242.7807612441637
 31
0.0000000000000000
  0
LINE
  5
20D
100
AcDbEntity
  8
MAIN1
  6
CONTINUOUS
 62
7
100
AcDbLine
 10
111.5836855399162
 20
242.7807612441637
 30
0.0000000000000000
 11
110.7095337941163
 21
242.7164618208637
 31
0.0000000000000000
  0
LINE
  5
20E
100
AcDbEntity
  8
MAIN1
  6
CONTINUOUS
 62
7
100
AcDbLine
 10
110.7095337941163
 20
242.7164618208636
 30
0.0000000000000000
 11
109.8285989112163
 21
242.7035411115636
 31
0.0000000000000000
  0
LINE
  5
20F
100
AcDbEntity
  8
MAIN1
  6
CONTINUOUS
 62
7
100
AcDbLine
 10
109.8285989112163
 20
242.7035411115637
 30
0.0000000000000000
 11
108.9499189086165
 21
242.7421316772636
 31
0.0000000000000000
  0
LINE
  5
210
100
AcDbEntity
  8
MAIN1
  6
CONTINUOUS
 62
7
100
AcDbLine
 10
108.9499189086161
 20
242.7421316772638
 30
0.0000000000000000
 11
108.0825086694162
 21
242.8318375951638
 31
0.0000000000000000
  0
LINE
  5
211
100
AcDbEntity
  8
MAIN1
  6
CONTINUOUS
 62
7
100
AcDbLine
 10
108.0825086694163
 20
242.8318375951637
 30
0.0000000000000000
 11
107.2352674538164
 21
242.9717385206637
 31
0.0000000000000000
  0
LINE
  5
212
100
AcDbEntity
  8
MAIN1
  6
CONTINUOUS
 62
7
100
AcDbLine
 10
107.2352674538161
 20
242.9717385206638
 30
0.0000000000000000
 11
106.4168875963162
 21
243.1603991297638
 31
0.0000000000000000
  0
LINE
  5
213
100
AcDbEntity
  8
MAIN1
  6
CONTINUOUS
 62
7
100
AcDbLine
 10
106.4168875963163
 20
243.1603991297637
 30
0.0000000000000000
 11
105.6357653262165
 21
243.3958838448636
 31
0.0000000000000000
  0
LINE
  5
214
100
AcDbEntity
  8
MAIN1
  6
CONTINUOUS
 62
7
100
AcDbLine
 10
105.6357653262165
 20
243.3958838448638
 30
0.0000000000000000
 11
104.8999146259166
 21
243.6757766929637
 31
0.0000000000000000
  0
LINE
  5
215
100
AcDbEntity
  8
MAIN1
  6
CONTINUOUS
 62
7
100
AcDbLine
 10
104.8999146259162
 20
243.6757766929638
 30
0.0000000000000000
 11
104.2168850105162
 21
243.9972060924638
 31
0.0000000000000000
  0
LINE
  5
216
100
AcDbEntity
  8
MAIN1
  6
CONTINUOUS
 62
7
100
AcDbLine
 10
104.2168850105164
 20
243.9972060924640
 30
0.0000000000000000
 11
103.5936840734164
 21
244.3568743143640
 31
0.0000000000000000
  0
LINE
  5
217
100
AcDbEntity
  8
MAIN1
  6
CONTINUOUS
 62
7
100
AcDbLine
 10
103.5936840734163
 20
244.3568743143638
 30
0.0000000000000000
 11
103.0367055912164
 21
244.7510913157637
 31
0.0000000000000000
  0
LINE
  5
218
100
AcDbEntity
  8
MAIN1
  6
CONTINUOUS
 62
7
100
AcDbLine
 10
103.0367055912159
 20
244.7510913157637
 30
0.0000000000000000
 11
102.5516639263159
 21
245.1758125977637
 31
0.0000000000000000
  0
LINE
  5
219
100
AcDbEntity
  8
MAIN1
  6
CONTINUOUS
 62
7
100
AcDbLine
 10
102.5516639263163
 20
245.1758125977638
 30
0.0000000000000000
 11
102.1435353999163
 21
245.6266807007638
 31
0.0000000000000000
  0
LINE
  5
21A
100
AcDbEntity
  8
MAIN1
  6
CONTINUOUS
 62
7
100
AcDbLine
 10
102.1435353999162
 20
245.6266807007637
 30
0.0000000000000000
 11
101.8165072371163
 21
246.0990699096637
 31
0.0000000000000000
  0
LINE
  5
21B
100
AcDbEntity
  8
MAIN1
  6
CONTINUOUS
 62
7
100
AcDbLine
 10
101.8165072371160
 20
246.0990699096637
 30
0.0000000000000000
 11
101.5739346077160
 21
246.5881337120636
 31
0.0000000000000000
  0
LINE
  5
21C
100
AcDbEntity
  8
MAIN1
  6
CONTINUOUS
 62
7
100
AcDbLine
 10
101.5739346077164
 20
246.5881337120637
 30
0.0000000000000000
 11
101.4183062038164
 21
247.0888545214637
 31
0.0000000000000000
  0
LINE
  5
21D
100
AcDbEntity
  8
MAIN1
  6
CONTINUOUS
 62
7
100
AcDbLine
 10
101.4183062038162
 20
247.0888545214636
 30
0.0000000000000000
 11
101.3512187066162
 21
247.5960951552636
 31
0.0000000000000000
  0
LINE
  5
21E
100
AcDbEntity
  8
MAIN1
  6
CONTINUOUS
 62
7
100
AcDbLine
 10
101.3512187066162
 20
247.5960951552637
 30
0.0000000000000000
 11
101.3733604053162
 21
248.1046515402636
 31
0.0000000000000000
  0
LINE
  5
21F
100
AcDbEntity
  8
MAIN1
  6
CONTINUOUS
 62
7
100
AcDbLine
 10
119.5943234719161
 20
258.6233896209635
 30
0.0000000000000000
 11
109.3895939348161
 21
252.7323246540636
 31
0.0000000000000000
  0
LINE
  5
220
100
AcDbEntity
  8
MAIN1
  6
CONTINUOUS
 62
7
100
AcDbLine
 10
81.12750413251590
 20
208.6574768626637
 30
0.0000000000000000
 11
91.56007799701595
 21
210.2712267840637
 31
0.0000000000000000
  0
LINE
  5
221
100
AcDbEntity
  8
MAIN1
  6
CONTINUOUS
 62
7
100
AcDbLine
 10
81.06773243441617
 20
208.6920088694639
 30
0.0000000000000000
 11
81.12750413251629
 21
208.6574768626638
 31
0.0000000000000000
  0
LINE
  5
222
100
AcDbEntity
  8
MAIN1
  6
CONTINUOUS
 62
7
100
AcDbLine
 10
91.56007799701621
 20
210.2712267840637
 30
0.0000000000000000
 11
91.66360561511610
 21
210.3310185457636
 31
0.0000000000000000
  0
LINE
  5
223
100
AcDbEntity
  8
MAIN1
  6
CONTINUOUS
 62
7
100
AcDbLine
 10
131.2615853615162
 20
236.7015711679637
 30
0.0000000000000000
 11
131.2615853615162
 21
233.1904456768637
 31
0.0000000000000000
  0
LINE
  5
224
100
AcDbEntity
  8
MAIN1
  6
CONTINUOUS
 62
7
100
AcDbLine
 10
131.2615853615161
 20
233.1904456768636
 30
0.0000000000000000
 11
91.66360561511607
 21
210.3310185457636
 31
0.0000000000000000
  0
LINE
  5
225
100
AcDbEntity
  8
MAIN1
  6
CONTINUOUS
 62
7
100
AcDbLine
 10
57.93461215251627
 20
222.0464484104639
 30
0.0000000000000000
 11
81.12750413251624
 21
208.6574768626640
 31
0.0000000000000000
  0
LINE
  5
226
100
AcDbEntity
  8
MAIN1
  6
CONTINUOUS
 62
7
100
AcDbLine
 10
63.80359843631612
 20
237.4387801497637
 30
0.0000000000000000
 11
63.37933436761627
 21
237.1938179061638
 31
0.0000000000000000
  0
LINE
  5
227
100
AcDbEntity
  8
MAIN1
  6
CONTINUOUS
 62
7
100
AcDbLine
 10
63.94501979251621
 20
237.3571260685638
 30
0.0000000000000000
 11
63.80359843631614
 21
237.4387801497638
 31
0.0000000000000000
  0
LINE
  5
228
100
AcDbEntity
  8
MAIN1
  6
CONTINUOUS
 62
7
100
AcDbLine
 10
63.94501979251619
 20
234.2542709833638
 30
0.0000000000000000
 11
63.94501979251619
 21
237.3571260685637
 31
0.0000000000000000
  0
LINE
  5
229
100
AcDbEntity
  8
MAIN1
  6
CONTINUOUS
 62
7
100
AcDbLine
 10
63.94501979251638
 20
234.2542709833637
 30
0.0000000000000000
 11
63.37933436761632
 21
233.9276546586637
 31
0.0000000000000000
  0
LINE
  5
22A
100
AcDbEntity
  8
MAIN1
  6
CONTINUOUS
 62
7
100
AcDbLine
 10
59.70237910541619
 20
239.8063636740637
 30
0.0000000000000000
 11
59.70237910541619
 21
239.3164789968637
 31
0.0000000000000000
  0
LINE
  5
22B
100
AcDbEntity
  8
MAIN1
  6
CONTINUOUS
 62
7
100
AcDbLine
 10
59.84380046171636
 20
239.8880177551638
 30
0.0000000000000000
 11
59.70237910541629
 21
239.8063636740637
 31
0.0000000000000000
  0
LINE
  5
22C
100
AcDbEntity
  8
MAIN1
  6
CONTINUOUS
 62
7
100
AcDbLine
 10
63.80359843631634
 20
237.6020750420638
 30
0.0000000000000000
 11
59.84380046171633
 21
239.8880177551638
 31
0.0000000000000000
  0
LINE
  5
22D
100
AcDbEntity
  8
MAIN1
  6
CONTINUOUS
 62
7
100
AcDbLine
 10
63.80359843631619
 20
237.4387801497637
 30
0.0000000000000000
 11
63.80359843631619
 21
237.6020750420637
 31
0.0000000000000000
  0
LINE
  5
22E
100
AcDbEntity
  8
MAIN1
  6
CONTINUOUS
 62
7
100
AcDbLine
 10
116.4123429566161
 20
267.6458670171635
 30
0.0000000000000000
 11
63.94501979251616
 21
237.3571260685635
 31
0.0000000000000000
  0
LINE
  5
22F
100
AcDbEntity
  8
MAIN1
  6
CONTINUOUS
 62
7
100
AcDbLine
 10
116.2709216003164
 20
267.8908159907637
 30
0.0000000000000000
 11
63.80359843631647
 21
237.6020750420638
 31
0.0000000000000000
  0
LINE
  5
230
100
AcDbEntity
  8
MAIN1
  6
CONTINUOUS
 62
7
100
AcDbLine
 10
116.4123429566163
 20
267.8091619095638
 30
0.0000000000000000
 11
116.2709216003162
 21
267.8908159907639
 31
0.0000000000000000
  0
LINE
  5
231
100
AcDbEntity
  8
MAIN1
  6
CONTINUOUS
 62
7
100
AcDbLine
 10
116.4123429566162
 20
267.6458670171637
 30
0.0000000000000000
 11
116.4123429566162
 21
267.8091619095637
 31
0.0000000000000000
  0
LINE
  5
232
100
AcDbEntity
  8
MAIN1
  6
CONTINUOUS
 62
7
100
AcDbLine
 10
116.4123429566162
 20
264.5430119319638
 30
0.0000000000000000
 11
116.4123429566162
 21
267.6458670171637
 31
0.0000000000000000
  0
LINE
  5
233
100
AcDbEntity
  8
MAIN1
  6
CONTINUOUS
 62
7
100
AcDbLine
 10
116.4123429566163
 20
264.5430119319638
 30
0.0000000000000000
 11
63.94501979251633
 21
234.2542709833638
 31
0.0000000000000000
  0
LINE
  5
234
100
AcDbEntity
  8
MAIN1
  6
CONTINUOUS
 62
7
100
AcDbLine
 10
112.3111236257165
 20
270.1767587038638
 30
0.0000000000000000
 11
59.84380046171648
 21
239.8880177551638
 31
0.0000000000000000
  0
LINE
  5
235
100
AcDbEntity
  8
MAIN1
  6
CONTINUOUS
 62
7
100
AcDbLine
 10
116.2709216003161
 20
267.8908159907635
 30
0.0000000000000000
 11
112.3111236257161
 21
270.1767587038635
 31
0.0000000000000000
  0
LINE
  5
236
100
AcDbEntity
  8
MAIN1
  6
CONTINUOUS
 62
7
100
AcDbLine
 10
91.87573764941618
 20
230.7011705961636
 30
0.0000000000000000
 11
92.33135497761614
 21
230.4159320172636
 31
0.0000000000000000
  0
ARC
  5
237
100
AcDbEntity
  8
MAIN1
  6
CONTINUOUS
 62
7
100
AcDbCircle
 10
86.03426995161613
 20
219.6436330301638
 30
0.0000000000000000
 40
12.50567398773697
100
AcDbArc
 50
62.15343555140000
 51
120.5266589632000
  0
LINE
  5
238
100
AcDbEntity
  8
MAIN1
  6
CONTINUOUS
 62
7
100
AcDbLine
 10
77.73058140911638
 20
233.8816117875637
 30
0.0000000000000000
 11
77.82240124271635
 21
234.3570563705636
 31
0.0000000000000000
  0
LINE
  5
239
100
AcDbEntity
  8
MAIN1
  6
CONTINUOUS
 62
7
100
AcDbLine
 10
77.82240124271621
 20
234.3570563705636
 30
0.0000000000000000
 11
77.98009526151620
 21
234.8863401280635
 31
0.0000000000000000
  0
LINE
  5
23A
100
AcDbEntity
  8
MAIN1
  6
CONTINUOUS
 62
7
100
AcDbLine
 10
77.98009526151620
 20
234.8863401280634
 30
0.0000000000000000
 11
78.11703221031624
 21
235.2498092166635
 31
0.0000000000000000
  0
LINE
  5
23B
100
AcDbEntity
  8
MAIN1
  6
CONTINUOUS
 62
7
100
AcDbLine
 10
78.11703221031604
 20
235.2498092166636
 30
0.0000000000000000
 11
78.27960399791610
 21
235.6204005411638
 31
0.0000000000000000
  0
LINE
  5
23C
100
AcDbEntity
  8
MAIN1
  6
CONTINUOUS
 62
7
100
AcDbLine
 10
78.27960399791630
 20
235.6204005411639
 30
0.0000000000000000
 11
78.46957094041628
 21
235.9975885099638
 31
0.0000000000000000
  0
LINE
  5
23D
100
AcDbEntity
  8
MAIN1
  6
CONTINUOUS
 62
7
100
AcDbLine
 10
78.46957094041619
 20
235.9975885099638
 30
0.0000000000000000
 11
78.68908108571614
 21
236.3786775006637
 31
0.0000000000000000
  0
LINE
  5
23E
100
AcDbEntity
  8
MAIN1
  6
CONTINUOUS
 62
7
100
AcDbLine
 10
78.68908108571623
 20
236.3786775006638
 30
0.0000000000000000
 11
78.92777605561611
 21
236.7402769170637
 31
0.0000000000000000
  0
LINE
  5
23F
100
AcDbEntity
  8
MAIN1
  6
CONTINUOUS
 62
7
100
AcDbLine
 10
78.92777605561605
 20
236.7402769170638
 30
0.0000000000000000
 11
79.18808964701606
 21
237.0812118674638
 31
0.0000000000000000
  0
LINE
  5
240
100
AcDbEntity
  8
MAIN1
  6
CONTINUOUS
 62
7
100
AcDbLine
 10
79.18808964701631
 20
237.0812118674637
 30
0.0000000000000000
 11
79.63494081731631
 21
237.5502344804636
 31
0.0000000000000000
  0
LINE
  5
241
100
AcDbEntity
  8
MAIN1
  6
CONTINUOUS
 62
7
100
AcDbLine
 10
79.63494081731639
 20
237.5502344804637
 30
0.0000000000000000
 11
80.14440292121631
 21
237.9216634366636
 31
0.0000000000000000
  0
LINE
  5
242
100
AcDbEntity
  8
MAIN1
  6
CONTINUOUS
 62
7
100
AcDbLine
 10
80.14440292121620
 20
237.9216634366637
 30
0.0000000000000000
 11
80.50627452991631
 21
238.0945099827638
 31
0.0000000000000000
  0
LINE
  5
243
100
AcDbEntity
  8
MAIN1
  6
CONTINUOUS
 62
7
100
AcDbLine
 10
80.50627452991625
 20
238.0945099827637
 30
0.0000000000000000
 11
80.88500793381630
 21
238.2126935912637
 31
0.0000000000000000
  0
LINE
  5
244
100
AcDbEntity
  8
MAIN1
  6
CONTINUOUS
 62
7
100
AcDbLine
 10
80.88500793381638
 20
238.2126935912637
 30
0.0000000000000000
 11
81.28373225821628
 21
238.2868589979637
 31
0.0000000000000000
  0
LINE
  5
245
100
AcDbEntity
  8
MAIN1
  6
CONTINUOUS
 62
7
100
AcDbLine
 10
81.28373225821633
 20
238.2868589979637
 30
0.0000000000000000
 11
81.89714571521631
 21
238.3367145410637
 31
0.0000000000000000
  0
LINE
  5
246
100
AcDbEntity
  8
MAIN1
  6
CONTINUOUS
 62
7
100
AcDbLine
 10
81.89714571521628
 20
238.3367145410638
 30
0.0000000000000000
 11
82.53506808141646
 21
238.3421406859638
 31
0.0000000000000000
  0
LINE
  5
247
100
AcDbEntity
  8
MAIN1
  6
CONTINUOUS
 62
7
100
AcDbLine
 10
82.53506808141611
 20
238.3421406859636
 30
0.0000000000000000
 11
83.20301825211615
 21
238.3246152189637
 31
0.0000000000000000
  0
LINE
  5
248
100
AcDbEntity
  8
MAIN1
  6
CONTINUOUS
 62
7
100
AcDbLine
 10
83.20301825211624
 20
238.3246152189638
 30
0.0000000000000000
 11
83.90541516381626
 21
238.3001345571638
 31
0.0000000000000000
  0
LINE
  5
249
100
AcDbEntity
  8
MAIN1
  6
CONTINUOUS
 62
7
100
AcDbLine
 10
83.90541516381620
 20
238.3001345571638
 30
0.0000000000000000
 11
84.63086639171635
 21
238.2846677626638
 31
0.0000000000000000
  0
LINE
  5
24A
100
AcDbEntity
  8
MAIN1
  6
CONTINUOUS
 62
7
100
AcDbLine
 10
84.63086639171650
 20
238.2846677626637
 30
0.0000000000000000
 11
85.37825247751633
 21
238.2965183213637
 31
0.0000000000000000
  0
LINE
  5
24B
100
AcDbEntity
  8
MAIN1
  6
CONTINUOUS
 62
7
100
AcDbLine
 10
85.37825247751633
 20
238.2965183213636
 30
0.0000000000000000
 11
86.23657901351635
 21
238.3084378466636
 31
0.0000000000000000
  0
LINE
  5
24C
100
AcDbEntity
  8
MAIN1
  6
CONTINUOUS
 62
7
100
AcDbLine
 10
86.23657901351598
 20
238.3084378466637
 30
0.0000000000000000
 11
87.09244630101603
 21
238.2691061789637
 31
0.0000000000000000
  0
LINE
  5
24D
100
AcDbEntity
  8
MAIN1
  6
CONTINUOUS
 62
7
100
AcDbLine
 10
87.09244630101620
 20
238.2691061789637
 30
0.0000000000000000
 11
87.93669621511614
 21
238.1789441829637
 31
0.0000000000000000
  0
LINE
  5
24E
100
AcDbEntity
  8
MAIN1
  6
CONTINUOUS
 62
7
100
AcDbLine
 10
87.93669621511634
 20
238.1789441829639
 30
0.0000000000000000
 11
88.76029494181631
 21
238.0389166283638
 31
0.0000000000000000
  0
LINE
  5
24F
100
AcDbEntity
  8
MAIN1
  6
CONTINUOUS
 62
7
100
AcDbLine
 10
88.76029494181614
 20
238.0389166283636
 30
0.0000000000000000
 11
89.55442964251637
 21
237.8505218664636
 31
0.0000000000000000
  0
LINE
  5
250
100
AcDbEntity
  8
MAIN1
  6
CONTINUOUS
 62
7
100
AcDbLine
 10
89.55442964251651
 20
237.8505218664639
 30
0.0000000000000000
 11
90.31060275621638
 21
237.6157757969640
 31
0.0000000000000000
  0
LINE
  5
251
100
AcDbEntity
  8
MAIN1
  6
CONTINUOUS
 62
7
100
AcDbLine
 10
90.31060275621624
 20
237.6157757969636
 30
0.0000000000000000
 11
91.02072292571617
 21
237.3371902975636
 31
0.0000000000000000
  0
LINE
  5
252
100
AcDbEntity
  8
MAIN1
  6
CONTINUOUS
 62
7
100
AcDbLine
 10
91.02072292571631
 20
237.3371902975636
 30
0.0000000000000000
 11
91.67719157901618
 21
237.0177463452637
 31
0.0000000000000000
  0
LINE
  5
253
100
AcDbEntity
  8
MAIN1
  6
CONTINUOUS
 62
7
100
AcDbLine
 10
91.67719157901610
 20
237.0177463452637
 30
0.0000000000000000
 11
92.27298423711611
 21
236.6608621191637
 31
0.0000000000000000
  0
LINE
  5
254
100
AcDbEntity
  8
MAIN1
  6
CONTINUOUS
 62
7
100
AcDbLine
 10
92.27298423711636
 20
236.6608621191636
 30
0.0000000000000000
 11
92.80172567851631
 21
236.2703564242636
 31
0.0000000000000000
  0
LINE
  5
255
100
AcDbEntity
  8
MAIN1
  6
CONTINUOUS
 62
7
100
AcDbLine
 10
92.80172567851628
 20
236.2703564242637
 30
0.0000000000000000
 11
93.25775815661629
 21
235.8504078287637
 31
0.0000000000000000
  0
LINE
  5
256
100
AcDbEntity
  8
MAIN1
  6
CONTINUOUS
 62
7
100
AcDbLine
 10
93.25775815661604
 20
235.8504078287636
 30
0.0000000000000000
 11
93.63620194011600
 21
235.4055099520636
 31
0.0000000000000000
  0
LINE
  5
257
100
AcDbEntity
  8
MAIN1
  6
CONTINUOUS
 62
7
100
AcDbLine
 10
93.63620194011634
 20
235.4055099520637
 30
0.0000000000000000
 11
93.93300752821634
 21
234.9404233804637
 31
0.0000000000000000
  0
LINE
  5
258
100
AcDbEntity
  8
MAIN1
  6
CONTINUOUS
 62
7
100
AcDbLine
 10
93.93300752821631
 20
234.9404233804637
 30
0.0000000000000000
 11
94.14499898131629
 21
234.4601247279638
 31
0.0000000000000000
  0
LINE
  5
259
100
AcDbEntity
  8
MAIN1
  6
CONTINUOUS
 62
7
100
AcDbLine
 10
94.14499898131624
 20
234.4601247279638
 30
0.0000000000000000
 11
94.26990790561624
 21
233.9697533834637
 31
0.0000000000000000
  0
LINE
  5
25A
100
AcDbEntity
  8
MAIN1
  6
CONTINUOUS
 62
7
100
AcDbLine
 10
94.26990790561629
 20
233.9697533834637
 30
0.0000000000000000
 11
94.30639772511628
 21
233.4745565180637
 31
0.0000000000000000
  0
LINE
  5
25B
100
AcDbEntity
  8
MAIN1
  6
CONTINUOUS
 62
7
100
AcDbLine
 10
94.30639772511617
 20
233.4745565180638
 30
0.0000000000000000
 11
94.25407798421617
 21
232.9798329376638
 31
0.0000000000000000
  0
LINE
  5
25C
100
AcDbEntity
  8
MAIN1
  6
CONTINUOUS
 62
7
100
AcDbLine
 10
94.25407798421620
 20
232.9798329376638
 30
0.0000000000000000
 11
94.11350852521622
 21
232.4908763841639
 31
0.0000000000000000
  0
LINE
  5
25D
100
AcDbEntity
  8
MAIN1
  6
CONTINUOUS
 62
7
100
AcDbLine
 10
94.11350852521616
 20
232.4908763841637
 30
0.0000000000000000
 11
93.88619349781621
 21
232.0129188894638
 31
0.0000000000000000
  0
LINE
  5
25E
100
AcDbEntity
  8
MAIN1
  6
CONTINUOUS
 62
7
100
AcDbLine
 10
93.88619349781610
 20
232.0129188894637
 30
0.0000000000000000
 11
93.57456526451605
 21
231.5510747913637
 31
0.0000000000000000
  0
LINE
  5
25F
100
AcDbEntity
  8
MAIN1
  6
CONTINUOUS
 62
7
100
AcDbLine
 10
93.57456526451634
 20
231.5510747913635
 30
0.0000000000000000
 11
93.18195837301641
 21
231.1102860080636
 31
0.0000000000000000
  0
LINE
  5
260
100
AcDbEntity
  8
MAIN1
  6
CONTINUOUS
 62
7
100
AcDbLine
 10
93.18195837301647
 20
231.1102860080641
 30
0.0000000000000000
 11
92.71257387511639
 21
230.6952691568640
 31
0.0000000000000000
  0
LINE
  5
261
100
AcDbEntity
  8
MAIN1
  6
CONTINUOUS
 62
7
100
AcDbLine
 10
92.71257387511653
 20
230.6952691568638
 30
0.0000000000000000
 11
92.17143437431631
 21
230.3104650855636
 31
0.0000000000000000
  0
LINE
  5
262
100
AcDbEntity
  8
MAIN1
  6
CONTINUOUS
 62
7
100
AcDbLine
 10
92.17143437431631
 20
230.3104650855637
 30
0.0000000000000000
 11
92.01480552141632
 21
230.2129246731637
 31
0.0000000000000000
  0
ARC
  5
263
100
AcDbEntity
  8
MAIN1
  6
CONTINUOUS
 62
7
100
AcDbCircle
 10
81.70240634231618
 20
233.8016790167637
 30
0.0000000000000000
 40
3.972629173159571
100
AcDbArc
 50
178.8470810420000
 51
244.6046474761000
  0
LINE
  5
264
100
AcDbEntity
  8
MAIN1
  6
CONTINUOUS
 62
7
100
AcDbLine
 10
77.73058140911633
 20
233.8816117875636
 30
0.0000000000000000
 11
77.33172984501624
 21
234.2257136392637
 31
0.0000000000000000
  0
LINE
  5
265
100
AcDbEntity
  8
MAIN1
  6
CONTINUOUS
 62
7
100
AcDbLine
 10
85.34796337451616
 20
238.8533867530637
 30
0.0000000000000000
 11
85.37825247751616
 21
238.2965183213636
 31
0.0000000000000000
  0
LINE
  5
266
100
AcDbEntity
  8
MAIN1
  6
CONTINUOUS
 62
7
100
AcDbLine
 10
65.57136538931627
 20
233.1521067624637
 30
0.0000000000000000
 11
65.14710132061603
 21
232.9071445188636
 31
0.0000000000000000
  0
LINE
  5
267
100
AcDbEntity
  8
MAIN1
  6
CONTINUOUS
 62
7
100
AcDbLine
 10
65.71278674551621
 20
233.0704526812638
 30
0.0000000000000000
 11
65.57136538931616
 21
233.1521067624639
 31
0.0000000000000000
  0
LINE
  5
268
100
AcDbEntity
  8
MAIN1
  6
CONTINUOUS
 62
7
100
AcDbLine
 10
65.71278674551627
 20
230.7841384079637
 30
0.0000000000000000
 11
65.71278674551627
 21
233.0704526812638
 31
0.0000000000000000
  0
LINE
  5
269
100
AcDbEntity
  8
MAIN1
  6
CONTINUOUS
 62
7
100
AcDbLine
 10
65.71278674551627
 20
230.7841384079637
 30
0.0000000000000000
 11
65.14710132061623
 21
230.7841384079637
 31
0.0000000000000000
  0
LINE
  5
26A
100
AcDbEntity
  8
MAIN1
  6
CONTINUOUS
 62
7
100
AcDbLine
 10
65.57136538931650
 20
233.3154016547637
 30
0.0000000000000000
 11
63.94501979251643
 21
234.2542709833637
 31
0.0000000000000000
  0
LINE
  5
26B
100
AcDbEntity
  8
MAIN1
  6
CONTINUOUS
 62
7
100
AcDbLine
 10
65.57136538931627
 20
233.1521067624638
 30
0.0000000000000000
 11
65.57136538931627
 21
233.3154016547637
 31
0.0000000000000000
  0
LINE
  5
26C
100
AcDbEntity
  8
MAIN1
  6
CONTINUOUS
 62
7
100
AcDbLine
 10
118.1801099096161
 20
263.3591936298637
 30
0.0000000000000000
 11
65.71278674551610
 21
233.0704526812637
 31
0.0000000000000000
  0
LINE
  5
26D
100
AcDbEntity
  8
MAIN1
  6
CONTINUOUS
 62
7
100
AcDbLine
 10
118.0386885533163
 20
263.6041426033637
 30
0.0000000000000000
 11
65.57136538931633
 21
233.3154016547637
 31
0.0000000000000000
  0
LINE
  5
26E
100
AcDbEntity
  8
MAIN1
  6
CONTINUOUS
 62
7
100
AcDbLine
 10
118.1801099096165
 20
263.5224885222638
 30
0.0000000000000000
 11
118.0386885533164
 21
263.6041426033638
 31
0.0000000000000000
  0
LINE
  5
26F
100
AcDbEntity
  8
MAIN1
  6
CONTINUOUS
 62
7
100
AcDbLine
 10
118.1801099096163
 20
263.3591936298637
 30
0.0000000000000000
 11
118.1801099096163
 21
263.5224885222638
 31
0.0000000000000000
  0
LINE
  5
270
100
AcDbEntity
  8
MAIN1
  6
CONTINUOUS
 62
7
100
AcDbLine
 10
118.1801099096163
 20
261.0728793565637
 30
0.0000000000000000
 11
118.1801099096163
 21
263.3591936298637
 31
0.0000000000000000
  0
LINE
  5
271
100
AcDbEntity
  8
MAIN1
  6
CONTINUOUS
 62
7
100
AcDbLine
 10
118.1801099096161
 20
261.0728793565636
 30
0.0000000000000000
 11
65.71278674551613
 21
230.7841384079636
 31
0.0000000000000000
  0
LINE
  5
272
100
AcDbEntity
  8
MAIN1
  6
CONTINUOUS
 62
7
100
AcDbLine
 10
118.0386885533166
 20
263.6041426033638
 30
0.0000000000000000
 11
116.4123429566163
 21
264.5430119319640
 31
0.0000000000000000
  0
LINE
  5
273
100
AcDbEntity
  8
MAIN1
  6
CONTINUOUS
 62
7
100
AcDbLine
 10
131.0822702671163
 20
233.0869027361638
 30
0.0000000000000000
 11
131.2615853615163
 21
233.1904456768638
 31
0.0000000000000000
  0
LINE
  5
274
100
AcDbEntity
  8
MAIN1
  6
CONTINUOUS
 62
7
100
AcDbLine
 10
131.0822702671160
 20
233.0869027361636
 30
0.0000000000000000
 11
91.56007799701601
 21
210.2712267840636
 31
0.0000000000000000
  0
ARC
  5
275
100
AcDbEntity
  8
MAIN1
  6
CONTINUOUS
 62
7
100
AcDbCircle
 10
68.78321894821625
 20
230.9238601124637
 30
0.0000000000000000
 40
3.073609615144055
100
AcDbArc
 50
182.6054784857000
 51
237.3945216600000
  0
LINE
  5
276
100
AcDbEntity
  8
MAIN1
  6
CONTINUOUS
 62
7
100
AcDbLine
 10
85.34796337451630
 20
238.8533867530638
 30
0.0000000000000000
 11
84.62189325551626
 21
238.7991249876638
 31
0.0000000000000000
  0
LINE
  5
277
100
AcDbEntity
  8
MAIN1
  6
CONTINUOUS
 62
7
100
AcDbLine
 10
84.62189325551611
 20
238.7991249876637
 30
0.0000000000000000
 11
83.91125917481628
 21
238.7639809585637
 31
0.0000000000000000
  0
LINE
  5
278
100
AcDbEntity
  8
MAIN1
  6
CONTINUOUS
 62
7
100
AcDbLine
 10
83.91125917481622
 20
238.7639809585638
 30
0.0000000000000000
 11
83.21736872611626
 21
238.7329536930638
 31
0.0000000000000000
  0
LINE
  5
279
100
AcDbEntity
  8
MAIN1
  6
CONTINUOUS
 62
7
100
AcDbLine
 10
83.21736872611623
 20
238.7329536930637
 30
0.0000000000000000
 11
82.55172231641620
 21
238.6937770304637
 31
0.0000000000000000
  0
LINE
  5
27A
100
AcDbEntity
  8
MAIN1
  6
CONTINUOUS
 62
7
100
AcDbLine
 10
82.55172231641629
 20
238.6937770304638
 30
0.0000000000000000
 11
81.69134494801619
 21
238.6035670095637
 31
0.0000000000000000
  0
LINE
  5
27B
100
AcDbEntity
  8
MAIN1
  6
CONTINUOUS
 62
7
100
AcDbLine
 10
81.69134494801617
 20
238.6035670095636
 30
0.0000000000000000
 11
80.87930028141616
 21
238.4288378241636
 31
0.0000000000000000
  0
LINE
  5
27C
100
AcDbEntity
  8
MAIN1
  6
CONTINUOUS
 62
7
100
AcDbLine
 10
80.87930028141631
 20
238.4288378241639
 30
0.0000000000000000
 11
80.10936682301627
 21
238.1003822963638
 31
0.0000000000000000
  0
LINE
  5
27D
100
AcDbEntity
  8
MAIN1
  6
CONTINUOUS
 62
7
100
AcDbLine
 10
80.10936682301627
 20
238.1003822963637
 30
0.0000000000000000
 11
79.40657509651612
 21
237.5808912537636
 31
0.0000000000000000
  0
LINE
  5
27E
100
AcDbEntity
  8
MAIN1
  6
CONTINUOUS
 62
7
100
AcDbLine
 10
79.40657509651598
 20
237.5808912537638
 30
0.0000000000000000
 11
78.80566682071591
 21
236.9410370006637
 31
0.0000000000000000
  0
LINE
  5
27F
100
AcDbEntity
  8
MAIN1
  6
CONTINUOUS
 62
7
100
AcDbLine
 10
78.80566682071628
 20
236.9410370006638
 30
0.0000000000000000
 11
78.29048962811629
 21
236.2358785344638
 31
0.0000000000000000
  0
LINE
  5
280
100
AcDbEntity
  8
MAIN1
  6
CONTINUOUS
 62
7
100
AcDbLine
 10
78.29048962811643
 20
236.2358785344639
 30
0.0000000000000000
 11
77.97014821661631
 21
235.7068594191637
 31
0.0000000000000000
  0
LINE
  5
281
100
AcDbEntity
  8
MAIN1
  6
CONTINUOUS
 62
7
100
AcDbLine
 10
77.97014821661628
 20
235.7068594191637
 30
0.0000000000000000
 11
77.70110298191625
 21
235.1848088280636
 31
0.0000000000000000
  0
LINE
  5
282
100
AcDbEntity
  8
MAIN1
  6
CONTINUOUS
 62
7
100
AcDbLine
 10
77.70110298191608
 20
235.1848088280638
 30
0.0000000000000000
 11
77.48566118631601
 21
234.6819191971636
 31
0.0000000000000000
  0
LINE
  5
283
100
AcDbEntity
  8
MAIN1
  6
CONTINUOUS
 62
7
100
AcDbLine
 10
77.48566118631612
 20
234.6819191971637
 30
0.0000000000000000
 11
77.33172984501616
 21
234.2257136392638
 31
0.0000000000000000
  0
ARC
  5
284
100
AcDbEntity
  8
MAIN1
  6
CONTINUOUS
 62
7
100
AcDbCircle
 10
121.2505421123162
 20
261.2126010610637
 30
0.0000000000000000
 40
3.073609615144287
100
AcDbArc
 50
182.6054784857000
 51
237.3945216600000
  0
LINE
  5
285
100
AcDbEntity
  8
MAIN1
  6
CONTINUOUS
 62
7
100
AcDbLine
 10
101.3733604053163
 20
248.1046515402639
 30
0.0000000000000000
 11
101.5260847902163
 21
248.5577070433639
 31
0.0000000000000000
  0
LINE
  5
286
100
AcDbEntity
  8
MAIN1
  6
CONTINUOUS
 62
7
100
AcDbLine
 10
101.5260847902160
 20
248.5577070433638
 30
0.0000000000000000
 11
101.7389323505160
 21
249.0556776180636
 31
0.0000000000000000
  0
LINE
  5
287
100
AcDbEntity
  8
MAIN1
  6
CONTINUOUS
 62
7
100
AcDbLine
 10
101.7389323505163
 20
249.0556776180636
 30
0.0000000000000000
 11
102.0092536331162
 21
249.5812779367633
 31
0.0000000000000000
  0
LINE
  5
288
100
AcDbEntity
  8
MAIN1
  6
CONTINUOUS
 62
7
100
AcDbLine
 10
102.0092536331163
 20
249.5812779367637
 30
0.0000000000000000
 11
102.3299587364163
 21
250.1115098824637
 31
0.0000000000000000
  0
LINE
  5
289
100
AcDbEntity
  8
MAIN1
  6
CONTINUOUS
 62
7
100
AcDbLine
 10
102.3299587364160
 20
250.1115098824637
 30
0.0000000000000000
 11
102.8421301838158
 21
250.8136554271635
 31
0.0000000000000000
  0
LINE
  5
28A
100
AcDbEntity
  8
MAIN1
  6
CONTINUOUS
 62
7
100
AcDbLine
 10
102.8421301838165
 20
250.8136554271640
 30
0.0000000000000000
 11
103.4415387597164
 21
251.4537408548639
 31
0.0000000000000000
  0
LINE
  5
28B
100
AcDbEntity
  8
MAIN1
  6
CONTINUOUS
 62
7
100
AcDbLine
 10
103.4415387597161
 20
251.4537408548637
 30
0.0000000000000000
 11
104.1370897729161
 21
251.9712915047637
 31
0.0000000000000000
  0
LINE
  5
28C
100
AcDbEntity
  8
MAIN1
  6
CONTINUOUS
 62
7
100
AcDbLine
 10
104.1370897729163
 20
251.9712915047639
 30
0.0000000000000000
 11
104.9127757066162
 21
252.3053074479638
 31
0.0000000000000000
  0
LINE
  5
28D
100
AcDbEntity
  8
MAIN1
  6
CONTINUOUS
 62
7
100
AcDbLine
 10
104.9127757066162
 20
252.3053074479639
 30
0.0000000000000000
 11
105.7252078159164
 21
252.4813572322639
 31
0.0000000000000000
  0
LINE
  5
28E
100
AcDbEntity
  8
MAIN1
  6
CONTINUOUS
 62
7
100
AcDbLine
 10
105.7252078159162
 20
252.4813572322638
 30
0.0000000000000000
 11
106.5892711663162
 21
252.5724173834638
 31
0.0000000000000000
  0
LINE
  5
28F
100
AcDbEntity
  8
MAIN1
  6
CONTINUOUS
 62
7
100
AcDbLine
 10
106.5892711663164
 20
252.5724173834637
 30
0.0000000000000000
 11
107.2532074738164
 21
252.6116097005637
 31
0.0000000000000000
  0
LINE
  5
290
100
AcDbEntity
  8
MAIN1
  6
CONTINUOUS
 62
7
100
AcDbLine
 10
107.2532074738161
 20
252.6116097005636
 30
0.0000000000000000
 11
107.9418755920163
 21
252.6424352598636
 31
0.0000000000000000
  0
LINE
  5
291
100
AcDbEntity
  8
MAIN1
  6
CONTINUOUS
 62
7
100
AcDbLine
 10
107.9418755920164
 20
252.6424352598637
 30
0.0000000000000000
 11
108.6587980373164
 21
252.6777880483637
 31
0.0000000000000000
  0
LINE
  5
292
100
AcDbEntity
  8
MAIN1
  6
CONTINUOUS
 62
7
100
AcDbLine
 10
108.6587980373163
 20
252.6777880483639
 30
0.0000000000000000
 11
109.3895939348163
 21
252.7323246540638
 31
0.0000000000000000
  0
LINE
  5
293
100
AcDbEntity
  8
MAIN1
  6
CONTINUOUS
 62
7
100
AcDbLine
 10
57.93461215251615
 20
237.5607105662637
 30
0.0000000000000000
 11
57.93461215251615
 21
237.0708258891636
 31
0.0000000000000000
  0
LINE
  5
294
100
AcDbEntity
  8
MAIN1
  6
CONTINUOUS
 62
7
100
AcDbLine
 10
58.07603350871624
 20
237.6423646474637
 30
0.0000000000000000
 11
57.93461215251639
 21
237.5607105662638
 31
0.0000000000000000
  0
LINE
  5
295
100
AcDbEntity
  8
MAIN1
  6
CONTINUOUS
 62
7
100
AcDbLine
 10
59.70237910541643
 20
236.7034953188638
 30
0.0000000000000000
 11
58.07603350871637
 21
237.6423646474638
 31
0.0000000000000000
  0
ARC
  5
296
100
AcDbEntity
  8
MAIN1
  6
CONTINUOUS
 62
7
100
AcDbCircle
 10
62.04174762681624
 20
227.3210494212638
 30
0.0000000000000000
 40
1.296131993778439
100
AcDbArc
 50
56.99678677280001
 51
189.4052474569000
  0
LINE
  5
297
100
AcDbEntity
  8
MAIN1
  6
CONTINUOUS
 62
7
100
AcDbLine
 10
65.00125332191658
 20
224.5044023466638
 30
0.0000000000000000
 11
64.97345234171655
 21
224.2532481073637
 31
0.0000000000000000
  0
LINE
  5
298
100
AcDbEntity
  8
MAIN1
  6
CONTINUOUS
 62
7
100
AcDbLine
 10
64.97345234171615
 20
224.2532481073637
 30
0.0000000000000000
 11
64.87774869391615
 21
223.8960489026637
 31
0.0000000000000000
  0
LINE
  5
299
100
AcDbEntity
  8
MAIN1
  6
CONTINUOUS
 62
7
100
AcDbLine
 10
64.87774869391618
 20
223.8960489026635
 30
0.0000000000000000
 11
64.72147692791620
 21
223.5992716716636
 31
0.0000000000000000
  0
LINE
  5
29A
100
AcDbEntity
  8
MAIN1
  6
CONTINUOUS
 62
7
100
AcDbLine
 10
64.72147692791631
 20
223.5992716716635
 30
0.0000000000000000
 11
64.50938528201621
 21
223.3719338403634
 31
0.0000000000000000
  0
LINE
  5
29B
100
AcDbEntity
  8
MAIN1
  6
CONTINUOUS
 62
7
100
AcDbLine
 10
64.50938528201624
 20
223.3719338403637
 30
0.0000000000000000
 11
64.24791805381619
 21
223.2209429538637
 31
0.0000000000000000
  0
LINE
  5
29C
100
AcDbEntity
  8
MAIN1
  6
CONTINUOUS
 62
7
100
AcDbLine
 10
64.24791805381621
 20
223.2209429538638
 30
0.0000000000000000
 11
63.94501979251619
 21
223.1508867936638
 31
0.0000000000000000
  0
LINE
  5
29D
100
AcDbEntity
  8
MAIN1
  6
CONTINUOUS
 62
7
100
AcDbLine
 10
63.94501979251606
 20
223.1508867936636
 30
0.0000000000000000
 11
63.60989390871613
 21
223.1638939808636
 31
0.0000000000000000
  0
LINE
  5
29E
100
AcDbEntity
  8
MAIN1
  6
CONTINUOUS
 62
7
100
AcDbLine
 10
63.60989390871644
 20
223.1638939808636
 30
0.0000000000000000
 11
63.25272303271640
 21
223.2595692986636
 31
0.0000000000000000
  0
LINE
  5
29F
100
AcDbEntity
  8
MAIN1
  6
CONTINUOUS
 62
7
100
AcDbLine
 10
63.25272303271620
 20
223.2595692986636
 30
0.0000000000000000
 11
62.88435962081633
 21
223.4350057008635
 31
0.0000000000000000
  0
LINE
  5
2A0
100
AcDbEntity
  8
MAIN1
  6
CONTINUOUS
 62
7
100
AcDbLine
 10
62.88435962081621
 20
223.4350057008638
 30
0.0000000000000000
 11
62.51599620891619
 21
223.6848726411638
 31
0.0000000000000000
  0
LINE
  5
2A1
100
AcDbEntity
  8
MAIN1
  6
CONTINUOUS
 62
7
100
AcDbLine
 10
62.51599620891636
 20
223.6848726411642
 30
0.0000000000000000
 11
62.15882533281636
 21
224.0015780391641
 31
0.0000000000000000
  0
LINE
  5
2A2
100
AcDbEntity
  8
MAIN1
  6
CONTINUOUS
 62
7
100
AcDbLine
 10
62.15882533281634
 20
224.0015780391638
 30
0.0000000000000000
 11
61.82369944901632
 21
224.3754989614638
 31
0.0000000000000000
  0
LINE
  5
2A3
100
AcDbEntity
  8
MAIN1
  6
CONTINUOUS
 62
7
100
AcDbLine
 10
61.82369944901611
 20
224.3754989614637
 30
0.0000000000000000
 11
61.52080118771611
 21
224.7952740100637
 31
0.0000000000000000
  0
LINE
  5
2A4
100
AcDbEntity
  8
MAIN1
  6
CONTINUOUS
 62
7
100
AcDbLine
 10
61.52080118771620
 20
224.7952740100637
 30
0.0000000000000000
 11
61.25933395951616
 21
225.2481485325637
 31
0.0000000000000000
  0
LINE
  5
2A5
100
AcDbEntity
  8
MAIN1
  6
CONTINUOUS
 62
7
100
AcDbLine
 10
61.25933395951609
 20
225.2481485325636
 30
0.0000000000000000
 11
61.04724231371606
 21
225.7203621657636
 31
0.0000000000000000
  0
LINE
  5
2A6
100
AcDbEntity
  8
MAIN1
  6
CONTINUOUS
 62
7
100
AcDbLine
 10
61.04724231371613
 20
225.7203621657638
 30
0.0000000000000000
 11
60.89097054761617
 21
226.1975669373637
 31
0.0000000000000000
  0
LINE
  5
2A7
100
AcDbEntity
  8
MAIN1
  6
CONTINUOUS
 62
7
100
AcDbLine
 10
60.89097054761636
 20
226.1975669373639
 30
0.0000000000000000
 11
60.79526689981636
 21
226.6652632217638
 31
0.0000000000000000
  0
LINE
  5
2A8
100
AcDbEntity
  8
MAIN1
  6
CONTINUOUS
 62
7
100
AcDbLine
 10
60.79526689981606
 20
226.6652632217637
 30
0.0000000000000000
 11
60.76303927721605
 21
227.1092403042638
 31
0.0000000000000000
  0
LINE
  5
2A9
100
AcDbEntity
  8
MAIN1
  6
CONTINUOUS
 62
7
100
AcDbLine
 10
89.82512798401626
 20
229.5173788339637
 30
0.0000000000000000
 11
90.03010510461624
 21
229.3923246823637
 31
0.0000000000000000
  0
ARC
  5
2AA
100
AcDbEntity
  8
MAIN1
  6
CONTINUOUS
 62
7
100
AcDbCircle
 10
86.01892672121630
 20
222.2646585619636
 30
0.0000000000000000
 40
8.190794796395300
100
AcDbArc
 50
62.30967422570000
 51
119.5175928366000
  0
LINE
  5
2AB
100
AcDbEntity
  8
MAIN1
  6
CONTINUOUS
 62
7
100
AcDbLine
 10
59.70237910541609
 20
238.5812339760635
 30
0.0000000000000000
 11
58.07603350871622
 21
237.6423646474636
 31
0.0000000000000000
  0
ARC
  5
2AC
100
AcDbEntity
  8
MAIN1
  6
CONTINUOUS
 62
7
100
AcDbCircle
 10
86.00675136561631
 20
222.0534802860638
 30
0.0000000000000000
 40
7.832888417193132
100
AcDbArc
 50
65.55948025310001
 51
114.4405197469000
  0
ARC
  5
2AD
100
AcDbEntity
  8
MAIN1
  6
CONTINUOUS
 62
7
100
AcDbCircle
 10
110.0483819259162
 20
233.7099539895637
 30
0.0000000000000000
 40
12.33049293687883
100
AcDbArc
 50
59.14121868120000
 51
120.8587813188000
  0
LINE
  5
2AE
100
AcDbEntity
  8
MAIN1
  6
CONTINUOUS
 62
7
100
AcDbLine
 10
109.4198830379163
 20
252.1754562223636
 30
0.0000000000000000
 11
108.6676527469165
 21
252.1636410401636
 31
0.0000000000000000
  0
LINE
  5
2AF
100
AcDbEntity
  8
MAIN1
  6
CONTINUOUS
 62
7
100
AcDbLine
 10
108.6676527469162
 20
252.1636410401638
 30
0.0000000000000000
 11
107.9358498463162
 21
252.1794291561638
 31
0.0000000000000000
  0
LINE
  5
2B0
100
AcDbEntity
  8
MAIN1
  6
CONTINUOUS
 62
7
100
AcDbLine
 10
107.9358498463160
 20
252.1794291561636
 30
0.0000000000000000
 11
107.4711097923159
 21
252.1955575044636
 31
0.0000000000000000
  0
LINE
  5
2B1
100
AcDbEntity
  8
MAIN1
  6
CONTINUOUS
 62
7
100
AcDbLine
 10
107.4711097923161
 20
252.1955575044637
 30
0.0000000000000000
 11
107.0183334844161
 21
252.2109159346637
 31
0.0000000000000000
  0
LINE
  5
2B2
100
AcDbEntity
  8
MAIN1
  6
CONTINUOUS
 62
7
100
AcDbLine
 10
107.0183334844163
 20
252.2109159346638
 30
0.0000000000000000
 11
106.5726213992163
 21
252.2211342118637
 31
0.0000000000000000
  0
LINE
  5
2B3
100
AcDbEntity
  8
MAIN1
  6
CONTINUOUS
 62
7
100
AcDbLine
 10
106.5726213992164
 20
252.2211342118636
 30
0.0000000000000000
 11
106.1315334892164
 21
252.2208680627637
 31
0.0000000000000000
  0
LINE
  5
2B4
100
AcDbEntity
  8
MAIN1
  6
CONTINUOUS
 62
7
100
AcDbLine
 10
106.1315334892164
 20
252.2208680627638
 30
0.0000000000000000
 11
105.7150104255163
 21
252.2042181595638
 31
0.0000000000000000
  0
LINE
  5
2B5
100
AcDbEntity
  8
MAIN1
  6
CONTINUOUS
 62
7
100
AcDbLine
 10
105.7150104255161
 20
252.2042181595637
 30
0.0000000000000000
 11
105.3159562934162
 21
252.1645082254637
 31
0.0000000000000000
  0
LINE
  5
2B6
100
AcDbEntity
  8
MAIN1
  6
CONTINUOUS
 62
7
100
AcDbLine
 10
105.3159562934165
 20
252.1645082254639
 30
0.0000000000000000
 11
104.7295446153163
 21
252.0370408926639
 31
0.0000000000000000
  0
LINE
  5
2B7
100
AcDbEntity
  8
MAIN1
  6
CONTINUOUS
 62
7
100
AcDbLine
 10
104.7295446153161
 20
252.0370408926636
 30
0.0000000000000000
 11
104.1727653015161
 21
251.7929417803636
 31
0.0000000000000000
  0
LINE
  5
2B8
100
AcDbEntity
  8
MAIN1
  6
CONTINUOUS
 62
7
100
AcDbLine
 10
104.1727653015160
 20
251.7929417803635
 30
0.0000000000000000
 11
103.8326957545160
 21
251.5605663226635
 31
0.0000000000000000
  0
LINE
  5
2B9
100
AcDbEntity
  8
MAIN1
  6
CONTINUOUS
 62
7
100
AcDbLine
 10
103.8326957545162
 20
251.5605663226638
 30
0.0000000000000000
 11
103.5170922968163
 21
251.2779177928639
 31
0.0000000000000000
  0
LINE
  5
2BA
100
AcDbEntity
  8
MAIN1
  6
CONTINUOUS
 62
7
100
AcDbLine
 10
103.5170922968165
 20
251.2779177928638
 30
0.0000000000000000
 11
103.2232013047164
 21
250.9522448882636
 31
0.0000000000000000
  0
LINE
  5
2BB
100
AcDbEntity
  8
MAIN1
  6
CONTINUOUS
 62
7
100
AcDbLine
 10
103.2232013047163
 20
250.9522448882637
 30
0.0000000000000000
 11
102.8372002336162
 21
250.4251507049636
 31
0.0000000000000000
  0
LINE
  5
2BC
100
AcDbEntity
  8
MAIN1
  6
CONTINUOUS
 62
7
100
AcDbLine
 10
102.8372002336163
 20
250.4251507049638
 30
0.0000000000000000
 11
102.5093226229162
 21
249.8730323907637
 31
0.0000000000000000
  0
LINE
  5
2BD
100
AcDbEntity
  8
MAIN1
  6
CONTINUOUS
 62
7
100
AcDbLine
 10
102.5093226229162
 20
249.8730323907635
 30
0.0000000000000000
 11
102.2362707754163
 21
249.3122780215636
 31
0.0000000000000000
  0
LINE
  5
2BE
100
AcDbEntity
  8
MAIN1
  6
CONTINUOUS
 62
7
100
AcDbLine
 10
102.2362707754164
 20
249.3122780215637
 30
0.0000000000000000
 11
102.0187875297164
 21
248.7567618484638
 31
0.0000000000000000
  0
LINE
  5
2BF
100
AcDbEntity
  8
MAIN1
  6
CONTINUOUS
 62
7
100
AcDbLine
 10
102.0187875297160
 20
248.7567618484638
 30
0.0000000000000000
 11
101.8632160425161
 21
248.2326914664639
 31
0.0000000000000000
  0
LINE
  5
2C0
100
AcDbEntity
  8
MAIN1
  6
CONTINUOUS
 62
7
100
AcDbLine
 10
101.8632160425161
 20
248.2326914664637
 30
0.0000000000000000
 11
101.7722119695161
 21
247.7605496884638
 31
0.0000000000000000
  0
ARC
  5
2C1
100
AcDbEntity
  8
MAIN1
  6
CONTINUOUS
 62
7
100
AcDbCircle
 10
105.8041407421163
 20
247.7177752972637
 30
0.0000000000000000
 40
4.032155661191442
100
AcDbArc
 50
179.3921767250000
 51
244.0595517913000
  0
LINE
  5
2C2
100
AcDbEntity
  8
MAIN1
  6
CONTINUOUS
 62
7
100
AcDbLine
 10
116.0564360821161
 20
244.0918625743637
 30
0.0000000000000000
 11
116.2130649346162
 21
244.1894029865637
 31
0.0000000000000000
  0
LINE
  5
2C3
100
AcDbEntity
  8
MAIN1
  6
CONTINUOUS
 62
7
100
AcDbLine
 10
116.2130649346161
 20
244.1894029865636
 30
0.0000000000000000
 11
116.7542044355161
 21
244.5742070578636
 31
0.0000000000000000
  0
LINE
  5
2C4
100
AcDbEntity
  8
MAIN1
  6
CONTINUOUS
 62
7
100
AcDbLine
 10
116.7542044355160
 20
244.5742070578636
 30
0.0000000000000000
 11
117.2235889333160
 21
244.9892239089636
 31
0.0000000000000000
  0
LINE
  5
2C5
100
AcDbEntity
  8
MAIN1
  6
CONTINUOUS
 62
7
100
AcDbLine
 10
117.2235889333164
 20
244.9892239089636
 30
0.0000000000000000
 11
117.6161958249162
 21
245.4300126923635
 31
0.0000000000000000
  0
LINE
  5
2C6
100
AcDbEntity
  8
MAIN1
  6
CONTINUOUS
 62
7
100
AcDbLine
 10
117.6161958249163
 20
245.4300126923639
 30
0.0000000000000000
 11
117.9278240581163
 21
245.8918567903638
 31
0.0000000000000000
  0
LINE
  5
2C7
100
AcDbEntity
  8
MAIN1
  6
CONTINUOUS
 62
7
100
AcDbLine
 10
117.9278240581162
 20
245.8918567903637
 30
0.0000000000000000
 11
118.1551390855161
 21
246.3698142850637
 31
0.0000000000000000
  0
LINE
  5
2C8
100
AcDbEntity
  8
MAIN1
  6
CONTINUOUS
 62
7
100
AcDbLine
 10
118.1551390855161
 20
246.3698142850636
 30
0.0000000000000000
 11
118.2957085446162
 21
246.8587708386637
 31
0.0000000000000000
  0
LINE
  5
2C9
100
AcDbEntity
  8
MAIN1
  6
CONTINUOUS
 62
7
100
AcDbLine
 10
118.2957085446162
 20
246.8587708386637
 30
0.0000000000000000
 11
118.3480282855162
 21
247.3534944190637
 31
0.0000000000000000
  0
LINE
  5
2CA
100
AcDbEntity
  8
MAIN1
  6
CONTINUOUS
 62
7
100
AcDbLine
 10
118.3480282855163
 20
247.3534944190638
 30
0.0000000000000000
 11
118.3115384659163
 21
247.8486912844637
 31
0.0000000000000000
  0
LINE
  5
2CB
100
AcDbEntity
  8
MAIN1
  6
CONTINUOUS
 62
7
100
AcDbLine
 10
118.3115384659161
 20
247.8486912844637
 30
0.0000000000000000
 11
118.1866295417161
 21
248.3390626289637
 31
0.0000000000000000
  0
LINE
  5
2CC
100
AcDbEntity
  8
MAIN1
  6
CONTINUOUS
 62
7
100
AcDbLine
 10
118.1866295417162
 20
248.3390626289636
 30
0.0000000000000000
 11
117.9746380885162
 21
248.8193612814636
 31
0.0000000000000000
  0
LINE
  5
2CD
100
AcDbEntity
  8
MAIN1
  6
CONTINUOUS
 62
7
100
AcDbLine
 10
117.9746380885163
 20
248.8193612814638
 30
0.0000000000000000
 11
117.6778325005163
 21
249.2844478529638
 31
0.0000000000000000
  0
LINE
  5
2CE
100
AcDbEntity
  8
MAIN1
  6
CONTINUOUS
 62
7
100
AcDbLine
 10
117.6778325005160
 20
249.2844478529636
 30
0.0000000000000000
 11
117.2993887169160
 21
249.7293457297637
 31
0.0000000000000000
  0
LINE
  5
2CF
100
AcDbEntity
  8
MAIN1
  6
CONTINUOUS
 62
7
100
AcDbLine
 10
117.2993887169161
 20
249.7293457297635
 30
0.0000000000000000
 11
116.8433562388161
 21
250.1492943251635
 31
0.0000000000000000
  0
LINE
  5
2D0
100
AcDbEntity
  8
MAIN1
  6
CONTINUOUS
 62
7
100
AcDbLine
 10
116.8433562388164
 20
250.1492943251638
 30
0.0000000000000000
 11
116.3146147975164
 21
250.5398000201638
 31
0.0000000000000000
  0
LINE
  5
2D1
100
AcDbEntity
  8
MAIN1
  6
CONTINUOUS
 62
7
100
AcDbLine
 10
116.3146147975160
 20
250.5398000201636
 30
0.0000000000000000
 11
115.7188221393161
 21
250.8966842462636
 31
0.0000000000000000
  0
LINE
  5
2D2
100
AcDbEntity
  8
MAIN1
  6
CONTINUOUS
 62
7
100
AcDbLine
 10
115.7188221393163
 20
250.8966842462639
 30
0.0000000000000000
 11
115.0623534860164
 21
251.2161281985638
 31
0.0000000000000000
  0
LINE
  5
2D3
100
AcDbEntity
  8
MAIN1
  6
CONTINUOUS
 62
7
100
AcDbLine
 10
115.0623534860165
 20
251.2161281985637
 30
0.0000000000000000
 11
114.3522333165165
 21
251.4947136979637
 31
0.0000000000000000
  0
LINE
  5
2D4
100
AcDbEntity
  8
MAIN1
  6
CONTINUOUS
 62
7
100
AcDbLine
 10
114.3522333165161
 20
251.4947136979637
 30
0.0000000000000000
 11
113.5960602029159
 21
251.7294597673638
 31
0.0000000000000000
  0
LINE
  5
2D5
100
AcDbEntity
  8
MAIN1
  6
CONTINUOUS
 62
7
100
AcDbLine
 10
113.5960602029163
 20
251.7294597673639
 30
0.0000000000000000
 11
112.8019255021164
 21
251.9178545293638
 31
0.0000000000000000
  0
LINE
  5
2D6
100
AcDbEntity
  8
MAIN1
  6
CONTINUOUS
 62
7
100
AcDbLine
 10
112.8019255021162
 20
251.9178545293636
 30
0.0000000000000000
 11
111.9783267755161
 21
252.0578820839636
 31
0.0000000000000000
  0
LINE
  5
2D7
100
AcDbEntity
  8
MAIN1
  6
CONTINUOUS
 62
7
100
AcDbLine
 10
111.9783267755163
 20
252.0578820839638
 30
0.0000000000000000
 11
111.1340768613162
 21
252.1480440799638
 31
0.0000000000000000
  0
LINE
  5
2D8
100
AcDbEntity
  8
MAIN1
  6
CONTINUOUS
 62
7
100
AcDbLine
 10
111.1340768613162
 20
252.1480440799636
 30
0.0000000000000000
 11
110.2782095738162
 21
252.1873757476637
 31
0.0000000000000000
  0
LINE
  5
2D9
100
AcDbEntity
  8
MAIN1
  6
CONTINUOUS
 62
7
100
AcDbLine
 10
110.2782095738164
 20
252.1873757476637
 30
0.0000000000000000
 11
109.4198830379162
 21
252.1754562223636
 31
0.0000000000000000
  0
LINE
  5
2DA
100
AcDbEntity
  8
MAIN1
  6
CONTINUOUS
 62
7
100
AcDbLine
 10
109.4198830379163
 20
252.1754562223637
 30
0.0000000000000000
 11
109.3895939348163
 21
252.7323246540637
 31
0.0000000000000000
  0
LINE
  5
2DB
100
AcDbEntity
  8
MAIN1
  6
CONTINUOUS
 62
7
100
AcDbLine
 10
101.3733604053163
 20
248.1046515402637
 30
0.0000000000000000
 11
101.7722119695163
 21
247.7605496884637
 31
0.0000000000000000
  0
ARC
  5
2DC
100
AcDbEntity
  8
MAIN1
  6
CONTINUOUS
 62
7
100
AcDbCircle
 10
110.0483819259162
 20
236.2645362588637
 30
0.0000000000000000
 40
8.079702289997455
100
AcDbArc
 50
60.13499491830000
 51
119.8650050817000
  0
LINE
  5
2DD
100
AcDbEntity
  8
MAIN1
  6
CONTINUOUS
 62
7
100
AcDbLine
 10
134.1007410234163
 20
247.2970241006638
 30
0.0000000000000000
 11
134.1007410234163
 21
239.3073130628637
 31
0.0000000000000000
  0
LINE
  5
2DE
100
AcDbEntity
  8
MAIN1
  6
CONTINUOUS
 62
7
100
AcDbLine
 10
131.2615853615164
 20
233.1904456768639
 30
0.0000000000000000
 11
134.1007410234163
 21
239.3073130628638
 31
0.0000000000000000
  0
ARC
  5
2DF
100
AcDbEntity
  8
MAIN1
  6
CONTINUOUS
 62
7
100
AcDbCircle
 10
110.0483819259162
 20
235.9415762116637
 30
0.0000000000000000
 40
7.824551948913136
100
AcDbArc
 50
65.53173419670000
 51
114.4682658033000
  0
ARC
  5
2E0
100
AcDbEntity
  8
MAIN1
  6
CONTINUOUS
 62
7
100
AcDbCircle
 10
121.8646285528162
 20
261.5671086467637
 30
0.0000000000000000
 40
3.688331538173026
100
AcDbArc
 50
182.6054784857000
 51
237.3945216600000
  0
LINE
  5
2E1
100
AcDbEntity
  8
MAIN1
  6
CONTINUOUS
 62
7
100
AcDbLine
 10
95.11168515386453
 20
188.7672173648579
 30
0.0000000000000000
 11
94.82884244136457
 21
188.6039092024580
 31
0.0000000000000000
  0
LINE
  5
2E2
100
AcDbEntity
  8
MAIN1
  6
CONTINUOUS
 62
7
100
AcDbLine
 10
94.54599972886442
 20
188.7672173648582
 30
0.0000000000000000
 11
94.82884244136457
 21
188.6039092024581
 31
0.0000000000000000
  0
LINE
  5
2E3
100
AcDbEntity
  8
MAIN1
  6
CONTINUOUS
 62
7
100
AcDbLine
 10
94.54599972886467
 20
203.9548764658581
 30
0.0000000000000000
 11
94.54599972886467
 21
188.7672173648582
 31
0.0000000000000000
  0
LINE
  5
2E4
100
AcDbEntity
  8
MAIN1
  6
CONTINUOUS
 62
7
100
AcDbLine
 10
94.68742108516452
 20
204.0365305470581
 30
0.0000000000000000
 11
94.54599972886481
 21
203.9548764658582
 31
0.0000000000000000
  0
LINE
  5
2E5
100
AcDbEntity
  8
MAIN1
  6
CONTINUOUS
 62
7
100
AcDbLine
 10
94.68742108516460
 20
204.0365305470583
 30
0.0000000000000000
 11
95.11168515386464
 21
203.7915683035582
 31
0.0000000000000000
  0
LINE
  5
2E6
100
AcDbEntity
  8
MAIN1
  6
CONTINUOUS
 62
7
100
AcDbLine
 10
95.11168515386453
 20
188.7672173648582
 30
0.0000000000000000
 11
95.11168515386453
 21
203.7915683035582
 31
0.0000000000000000
  0
LINE
  5
2E7
100
AcDbEntity
  8
MAIN1
  6
CONTINUOUS
 62
7
100
AcDbLine
 10
42.07867656486474
 20
158.1518866314583
 30
0.0000000000000000
 11
94.82884244136454
 21
188.6039092024582
 31
0.0000000000000000
  0
LINE
  5
2E8
100
AcDbEntity
  8
MAIN1
  6
CONTINUOUS
 62
7
100
AcDbLine
 10
42.07867656486474
 20
158.4784764161582
 30
0.0000000000000000
 11
42.07867656486474
 21
158.1518866314582
 31
0.0000000000000000
  0
LINE
  5
2E9
100
AcDbEntity
  8
MAIN1
  6
CONTINUOUS
 62
7
100
AcDbLine
 10
42.07867656486476
 20
158.4784764161582
 30
0.0000000000000000
 11
94.54599972886473
 21
188.7672173648582
 31
0.0000000000000000
  0
LINE
  5
2EA
100
AcDbEntity
  8
MAIN1
  6
CONTINUOUS
 62
7
100
AcDbLine
 10
118.2448054357648
 20
175.4127512838583
 30
0.0000000000000000
 11
95.11168515386473
 21
188.7672173648583
 31
0.0000000000000000
  0
LINE
  5
2EB
100
AcDbEntity
  8
MAIN1
  6
CONTINUOUS
 62
7
100
AcDbLine
 10
118.2448054357645
 20
175.4127512838583
 30
0.0000000000000000
 11
118.0217344214644
 21
175.2149376546583
 31
0.0000000000000000
  0
LINE
  5
2EC
100
AcDbEntity
  8
MAIN1
  6
CONTINUOUS
 62
7
100
AcDbLine
 10
94.82884244136440
 20
188.6039092024580
 30
0.0000000000000000
 11
118.0217344214645
 21
175.2149376546579
 31
0.0000000000000000
  0
LINE
  5
2ED
100
AcDbEntity
  8
MAIN1
  6
CONTINUOUS
 62
7
100
AcDbLine
 10
90.37406971986468
 20
170.1939062808584
 30
0.0000000000000000
 11
90.89370170336480
 21
169.9301236982583
 31
0.0000000000000000
  0
LINE
  5
2EE
100
AcDbEntity
  8
MAIN1
  6
CONTINUOUS
 62
7
100
AcDbLine
 10
90.89370170336443
 20
169.9301236982582
 30
0.0000000000000000
 11
91.46749898256459
 21
169.7068669946581
 31
0.0000000000000000
  0
LINE
  5
2EF
100
AcDbEntity
  8
MAIN1
  6
CONTINUOUS
 62
7
100
AcDbLine
 10
91.46749898256473
 20
169.7068669946581
 30
0.0000000000000000
 11
92.08603982196473
 21
169.5278020390581
 31
0.0000000000000000
  0
LINE
  5
2F0
100
AcDbEntity
  8
MAIN1
  6
CONTINUOUS
 62
7
100
AcDbLine
 10
92.08603982196470
 20
169.5278020390582
 30
0.0000000000000000
 11
92.73916779806484
 21
169.3958690728582
 31
0.0000000000000000
  0
LINE
  5
2F1
100
AcDbEntity
  8
MAIN1
  6
CONTINUOUS
 62
7
100
AcDbLine
 10
92.73916779806461
 20
169.3958690728581
 30
0.0000000000000000
 11
93.41615856776471
 21
169.3132344319581
 31
0.0000000000000000
  0
LINE
  5
2F2
100
AcDbEntity
  8
MAIN1
  6
CONTINUOUS
 62
7
100
AcDbLine
 10
93.41615856776468
 20
169.3132344319581
 30
0.0000000000000000
 11
94.10589596106470
 21
169.2812549746581
 31
0.0000000000000000
  0
LINE
  5
2F3
100
AcDbEntity
  8
MAIN1
  6
CONTINUOUS
 62
7
100
AcDbLine
 10
94.10589596106456
 20
169.2812549746581
 30
0.0000000000000000
 11
94.79705450926434
 21
169.3004558029581
 31
0.0000000000000000
  0
LINE
  5
2F4
100
AcDbEntity
  8
MAIN1
  6
CONTINUOUS
 62
7
100
AcDbLine
 10
94.79705450926448
 20
169.3004558029582
 30
0.0000000000000000
 11
95.47828540796456
 21
169.3705216395582
 31
0.0000000000000000
  0
LINE
  5
2F5
100
AcDbEntity
  8
MAIN1
  6
CONTINUOUS
 62
7
100
AcDbLine
 10
95.47828540796456
 20
169.3705216395582
 30
0.0000000000000000
 11
96.13840286466467
 21
169.4903020055582
 31
0.0000000000000000
  0
LINE
  5
2F6
100
AcDbEntity
  8
MAIN1
  6
CONTINUOUS
 62
7
100
AcDbLine
 10
96.13840286466439
 20
169.4903020055581
 30
0.0000000000000000
 11
96.76656776906444
 21
169.6578301106581
 31
0.0000000000000000
  0
LINE
  5
2F7
100
AcDbEntity
  8
MAIN1
  6
CONTINUOUS
 62
7
100
AcDbLine
 10
96.76656776906449
 20
169.6578301106582
 30
0.0000000000000000
 11
97.35246567066469
 21
169.8703551478582
 31
0.0000000000000000
  0
LINE
  5
2F8
100
AcDbEntity
  8
MAIN1
  6
CONTINUOUS
 62
7
100
AcDbLine
 10
97.35246567066466
 20
169.8703551478580
 30
0.0000000000000000
 11
97.88647614226466
 21
170.1243874620581
 31
0.0000000000000000
  0
LINE
  5
2F9
100
AcDbEntity
  8
MAIN1
  6
CONTINUOUS
 62
7
100
AcDbLine
 10
97.88647614226466
 20
170.1243874620581
 30
0.0000000000000000
 11
98.35983074656468
 21
170.4157558495581
 31
0.0000000000000000
  0
LINE
  5
2FA
100
AcDbEntity
  8
MAIN1
  6
CONTINUOUS
 62
7
100
AcDbLine
 10
98.35983074656465
 20
170.4157558495582
 30
0.0000000000000000
 11
98.76475701416476
 21
170.7396760496582
 31
0.0000000000000000
  0
LINE
  5
2FB
100
AcDbEntity
  8
MAIN1
  6
CONTINUOUS
 62
7
100
AcDbLine
 10
98.76475701416473
 20
170.7396760496582
 30
0.0000000000000000
 11
99.09460606676470
 21
171.0908293014582
 31
0.0000000000000000
  0
LINE
  5
2FC
100
AcDbEntity
  8
MAIN1
  6
CONTINUOUS
 62
7
100
AcDbLine
 10
99.09460606676464
 20
171.0908293014582
 30
0.0000000000000000
 11
99.34396179226454
 21
171.4634496783581
 31
0.0000000000000000
  0
LINE
  5
2FD
100
AcDbEntity
  8
MAIN1
  6
CONTINUOUS
 62
7
100
AcDbLine
 10
99.34396179226476
 20
171.4634496783580
 30
0.0000000000000000
 11
99.50872977636482
 21
171.8514187640581
 31
0.0000000000000000
  0
LINE
  5
2FE
100
AcDbEntity
  8
MAIN1
  6
CONTINUOUS
 62
7
100
AcDbLine
 10
99.50872977636465
 20
171.8514187640580
 30
0.0000000000000000
 11
99.58620453336465
 21
172.2483661169582
 31
0.0000000000000000
  0
LINE
  5
2FF
100
AcDbEntity
  8
MAIN1
  6
CONTINUOUS
 62
7
100
AcDbLine
 10
99.58620453336474
 20
172.2483661169582
 30
0.0000000000000000
 11
99.57511392996477
 21
172.6477738723581
 31
0.0000000000000000
  0
LINE
  5
300
100
AcDbEntity
  8
MAIN1
  6
CONTINUOUS
 62
7
100
AcDbLine
 10
99.57511392996474
 20
172.6477738723580
 30
0.0000000000000000
 11
99.47564007346472
 21
173.0430837660581
 31
0.0000000000000000
  0
LINE
  5
301
100
AcDbEntity
  8
MAIN1
  6
CONTINUOUS
 62
7
100
AcDbLine
 10
99.47564007346466
 20
173.0430837660582
 30
0.0000000000000000
 11
99.28941632196467
 21
173.4278048204582
 31
0.0000000000000000
  0
LINE
  5
302
100
AcDbEntity
  8
MAIN1
  6
CONTINUOUS
 62
7
100
AcDbLine
 10
99.28941632196481
 20
173.4278048204582
 30
0.0000000000000000
 11
99.01950046426478
 21
173.7956199266582
 31
0.0000000000000000
  0
LINE
  5
303
100
AcDbEntity
  8
MAIN1
  6
CONTINUOUS
 62
7
100
AcDbLine
 10
99.01950046426452
 20
173.7956199266580
 30
0.0000000000000000
 11
98.67032451116455
 21
174.1404895705580
 31
0.0000000000000000
  0
LINE
  5
304
100
AcDbEntity
  8
MAIN1
  6
CONTINUOUS
 62
7
100
AcDbLine
 10
98.67032451116438
 20
174.1404895705581
 30
0.0000000000000000
 11
98.24762192236435
 21
174.4567510022581
 31
0.0000000000000000
  0
LINE
  5
305
100
AcDbEntity
  8
MAIN1
  6
CONTINUOUS
 62
7
100
AcDbLine
 10
98.24762192236449
 20
174.4567510022583
 30
0.0000000000000000
 11
97.75833346246455
 21
174.7392112177583
 31
0.0000000000000000
  0
LINE
  5
306
100
AcDbEntity
  8
MAIN1
  6
CONTINUOUS
 62
7
100
AcDbLine
 10
97.75833346246466
 20
174.7392112177581
 30
0.0000000000000000
 11
97.21049323466457
 21
174.9832322281582
 31
0.0000000000000000
  0
LINE
  5
307
100
AcDbEntity
  8
MAIN1
  6
CONTINUOUS
 62
7
100
AcDbLine
 10
97.21049323466468
 20
174.9832322281582
 30
0.0000000000000000
 11
96.61309676026482
 21
175.1848072152582
 31
0.0000000000000000
  0
LINE
  5
308
100
AcDbEntity
  8
MAIN1
  6
CONTINUOUS
 62
7
100
AcDbLine
 10
96.61309676026460
 20
175.1848072152580
 30
0.0000000000000000
 11
95.97595327286462
 21
175.3406263231580
 31
0.0000000000000000
  0
LINE
  5
309
100
AcDbEntity
  8
MAIN1
  6
CONTINUOUS
 62
7
100
AcDbLine
 10
95.97595327286456
 20
175.3406263231582
 30
0.0000000000000000
 11
95.30952465086455
 21
175.4481310066582
 31
0.0000000000000000
  0
LINE
  5
30A
100
AcDbEntity
  8
MAIN1
  6
CONTINUOUS
 62
7
100
AcDbLine
 10
95.30952465086477
 20
175.4481310066581
 30
0.0000000000000000
 11
94.62475363386477
 21
175.5055560416581
 31
0.0000000000000000
  0
LINE
  5
30B
100
AcDbEntity
  8
MAIN1
  6
CONTINUOUS
 62
7
100
AcDbLine
 10
94.62475363386466
 20
175.5055560416582
 30
0.0000000000000000
 11
93.93288414306448
 21
175.5119585107582
 31
0.0000000000000000
  0
LINE
  5
30C
100
AcDbEntity
  8
MAIN1
  6
CONTINUOUS
 62
7
100
AcDbLine
 10
93.93288414306474
 20
175.5119585107581
 30
0.0000000000000000
 11
93.24527665626459
 21
175.4672332854581
 31
0.0000000000000000
  0
LINE
  5
30D
100
AcDbEntity
  8
MAIN1
  6
CONTINUOUS
 62
7
100
AcDbLine
 10
93.24527665626451
 20
175.4672332854582
 30
0.0000000000000000
 11
92.57322166956445
 21
175.3721147529581
 31
0.0000000000000000
  0
LINE
  5
30E
100
AcDbEntity
  8
MAIN1
  6
CONTINUOUS
 62
7
100
AcDbLine
 10
92.57322166956456
 20
175.3721147529581
 30
0.0000000000000000
 11
91.92775430706476
 21
175.2281647566582
 31
0.0000000000000000
  0
LINE
  5
30F
100
AcDbEntity
  8
MAIN1
  6
CONTINUOUS
 62
7
100
AcDbLine
 10
91.92775430706467
 20
175.2281647566582
 30
0.0000000000000000
 11
91.31947312516456
 21
175.0377469517582
 31
0.0000000000000000
  0
LINE
  5
310
100
AcDbEntity
  8
MAIN1
  6
CONTINUOUS
 62
7
100
AcDbLine
 10
91.31947312516459
 20
175.0377469517582
 30
0.0000000000000000
 11
90.75836608396457
 21
174.8039879931581
 31
0.0000000000000000
  0
LINE
  5
311
100
AcDbEntity
  8
MAIN1
  6
CONTINUOUS
 62
7
100
AcDbLine
 10
90.75836608396477
 20
174.8039879931581
 30
0.0000000000000000
 11
90.25364654556469
 21
174.5307261966581
 31
0.0000000000000000
  0
LINE
  5
312
100
AcDbEntity
  8
MAIN1
  6
CONTINUOUS
 62
7
100
AcDbLine
 10
90.25364654556469
 20
174.5307261966582
 30
0.0000000000000000
 11
89.81360199086458
 21
174.2224485133581
 31
0.0000000000000000
  0
LINE
  5
313
100
AcDbEntity
  8
MAIN1
  6
CONTINUOUS
 62
7
100
AcDbLine
 10
89.81360199086478
 20
174.2224485133582
 30
0.0000000000000000
 11
89.44545793936482
 21
173.8842168541582
 31
0.0000000000000000
  0
LINE
  5
314
100
AcDbEntity
  8
MAIN1
  6
CONTINUOUS
 62
7
100
AcDbLine
 10
89.44545793936453
 20
173.8842168541582
 30
0.0000000000000000
 11
89.15525930606452
 21
173.5215849736583
 31
0.0000000000000000
  0
LINE
  5
315
100
AcDbEntity
  8
MAIN1
  6
CONTINUOUS
 62
7
100
AcDbLine
 10
89.15525930606481
 20
173.5215849736581
 30
0.0000000000000000
 11
88.94777114466481
 21
173.1405072773581
 31
0.0000000000000000
  0
LINE
  5
316
100
AcDbEntity
  8
MAIN1
  6
CONTINUOUS
 62
7
100
AcDbLine
 10
88.94777114466470
 20
173.1405072773581
 30
0.0000000000000000
 11
88.82640040486467
 21
172.7472410504580
 31
0.0000000000000000
  0
LINE
  5
317
100
AcDbEntity
  8
MAIN1
  6
CONTINUOUS
 62
7
100
AcDbLine
 10
88.82640040486447
 20
172.7472410504580
 30
0.0000000000000000
 11
88.79313999096448
 21
172.3482437135581
 31
0.0000000000000000
  0
LINE
  5
318
100
AcDbEntity
  8
MAIN1
  6
CONTINUOUS
 62
7
100
AcDbLine
 10
88.79313999096473
 20
172.3482437135582
 30
0.0000000000000000
 11
88.84853603806474
 21
171.9500667917581
 31
0.0000000000000000
  0
LINE
  5
319
100
AcDbEntity
  8
MAIN1
  6
CONTINUOUS
 62
7
100
AcDbLine
 10
88.84853603806451
 20
171.9500667917581
 30
0.0000000000000000
 11
88.99167894446455
 21
171.5592483392580
 31
0.0000000000000000
  0
LINE
  5
31A
100
AcDbEntity
  8
MAIN1
  6
CONTINUOUS
 62
7
100
AcDbLine
 10
88.99167894446475
 20
171.5592483392583
 30
0.0000000000000000
 11
89.22021830776478
 21
171.1822055841582
 31
0.0000000000000000
  0
LINE
  5
31B
100
AcDbEntity
  8
MAIN1
  6
CONTINUOUS
 62
7
100
AcDbLine
 10
89.22021830776458
 20
171.1822055841582
 30
0.0000000000000000
 11
89.53040151776463
 21
170.8251295581582
 31
0.0000000000000000
  0
LINE
  5
31C
100
AcDbEntity
  8
MAIN1
  6
CONTINUOUS
 62
7
100
AcDbLine
 10
89.53040151776472
 20
170.8251295581584
 30
0.0000000000000000
 11
89.91713537496477
 21
170.4938834396583
 31
0.0000000000000000
  0
LINE
  5
31D
100
AcDbEntity
  8
MAIN1
  6
CONTINUOUS
 62
7
100
AcDbLine
 10
89.91713537496466
 20
170.4938834396583
 30
0.0000000000000000
 11
90.37406971986474
 21
170.1939062808582
 31
0.0000000000000000
  0
LINE
  5
31E
100
AcDbEntity
  8
MAIN1
  6
CONTINUOUS
 62
7
100
AcDbLine
 10
118.0217344214646
 20
175.2149376546581
 30
0.0000000000000000
 11
115.2263346794646
 21
169.1923409572580
 31
0.0000000000000000
  0
LINE
  5
31F
100
AcDbEntity
  8
MAIN1
  6
CONTINUOUS
 62
7
100
AcDbLine
 10
75.70414240936455
 20
146.3766650050581
 30
0.0000000000000000
 11
115.2263346794646
 21
169.1923409572582
 31
0.0000000000000000
  0
LINE
  5
320
100
AcDbEntity
  8
MAIN1
  6
CONTINUOUS
 62
7
100
AcDbLine
 10
65.27156854486439
 20
144.7629150836582
 30
0.0000000000000000
 11
75.70414240936444
 21
146.3766650050582
 31
0.0000000000000000
  0
LINE
  5
321
100
AcDbEntity
  8
MAIN1
  6
CONTINUOUS
 62
7
100
AcDbLine
 10
42.07867656486442
 20
158.1518866314582
 30
0.0000000000000000
 11
65.27156854486458
 21
144.7629150836581
 31
0.0000000000000000
  0
LINE
  5
322
100
AcDbEntity
  8
MAIN1
  6
CONTINUOUS
 62
7
100
AcDbLine
 10
73.96919239636472
 20
160.7235721836582
 30
0.0000000000000000
 11
74.42612674126463
 21
160.4235950248583
 31
0.0000000000000000
  0
LINE
  5
323
100
AcDbEntity
  8
MAIN1
  6
CONTINUOUS
 62
7
100
AcDbLine
 10
74.42612674126463
 20
160.4235950248581
 30
0.0000000000000000
 11
74.81286059846451
 21
160.0923489063582
 31
0.0000000000000000
  0
LINE
  5
324
100
AcDbEntity
  8
MAIN1
  6
CONTINUOUS
 62
7
100
AcDbLine
 10
74.81286059846460
 20
160.0923489063582
 30
0.0000000000000000
 11
75.12304380846464
 21
159.7352728803582
 31
0.0000000000000000
  0
LINE
  5
325
100
AcDbEntity
  8
MAIN1
  6
CONTINUOUS
 62
7
100
AcDbLine
 10
75.12304380846479
 20
159.7352728803582
 30
0.0000000000000000
 11
75.35158317176476
 21
159.3582301252583
 31
0.0000000000000000
  0
LINE
  5
326
100
AcDbEntity
  8
MAIN1
  6
CONTINUOUS
 62
7
100
AcDbLine
 10
75.35158317176473
 20
159.3582301252581
 30
0.0000000000000000
 11
75.49472607826473
 21
158.9674116727582
 31
0.0000000000000000
  0
LINE
  5
327
100
AcDbEntity
  8
MAIN1
  6
CONTINUOUS
 62
7
100
AcDbLine
 10
75.49472607826459
 20
158.9674116727581
 30
0.0000000000000000
 11
75.55012212526458
 21
158.5692347510582
 31
0.0000000000000000
  0
LINE
  5
328
100
AcDbEntity
  8
MAIN1
  6
CONTINUOUS
 62
7
100
AcDbLine
 10
75.55012212526464
 20
158.5692347510582
 30
0.0000000000000000
 11
75.51686171136461
 21
158.1702374140582
 31
0.0000000000000000
  0
LINE
  5
329
100
AcDbEntity
  8
MAIN1
  6
CONTINUOUS
 62
7
100
AcDbLine
 10
75.51686171136458
 20
158.1702374140580
 30
0.0000000000000000
 11
75.39549097156458
 21
157.7769711871580
 31
0.0000000000000000
  0
LINE
  5
32A
100
AcDbEntity
  8
MAIN1
  6
CONTINUOUS
 62
7
100
AcDbLine
 10
75.39549097156456
 20
157.7769711871583
 30
0.0000000000000000
 11
75.18800281016459
 21
157.3958934908583
 31
0.0000000000000000
  0
LINE
  5
32B
100
AcDbEntity
  8
MAIN1
  6
CONTINUOUS
 62
7
100
AcDbLine
 10
75.18800281016488
 20
157.3958934908582
 30
0.0000000000000000
 11
74.89780417686472
 21
157.0332616103580
 31
0.0000000000000000
  0
LINE
  5
32C
100
AcDbEntity
  8
MAIN1
  6
CONTINUOUS
 62
7
100
AcDbLine
 10
74.89780417686475
 20
157.0332616103584
 30
0.0000000000000000
 11
74.52966012536470
 21
156.6950299512584
 31
0.0000000000000000
  0
LINE
  5
32D
100
AcDbEntity
  8
MAIN1
  6
CONTINUOUS
 62
7
100
AcDbLine
 10
74.52966012536467
 20
156.6950299512581
 30
0.0000000000000000
 11
74.08961557066462
 21
156.3867522678581
 31
0.0000000000000000
  0
LINE
  5
32E
100
AcDbEntity
  8
MAIN1
  6
CONTINUOUS
 62
7
100
AcDbLine
 10
74.08961557066459
 20
156.3867522678581
 30
0.0000000000000000
 11
73.58489603236458
 21
156.1134904713581
 31
0.0000000000000000
  0
LINE
  5
32F
100
AcDbEntity
  8
MAIN1
  6
CONTINUOUS
 62
7
100
AcDbLine
 10
73.58489603236470
 20
156.1134904713583
 30
0.0000000000000000
 11
73.02378899116468
 21
155.8797315127582
 31
0.0000000000000000
  0
LINE
  5
330
100
AcDbEntity
  8
MAIN1
  6
CONTINUOUS
 62
7
100
AcDbLine
 10
73.02378899116471
 20
155.8797315127581
 30
0.0000000000000000
 11
72.41550780916478
 21
155.6893137078581
 31
0.0000000000000000
  0
LINE
  5
331
100
AcDbEntity
  8
MAIN1
  6
CONTINUOUS
 62
7
100
AcDbLine
 10
72.41550780916455
 20
155.6893137078581
 30
0.0000000000000000
 11
71.77004044676454
 21
155.5453637116580
 31
0.0000000000000000
  0
LINE
  5
332
100
AcDbEntity
  8
MAIN1
  6
CONTINUOUS
 62
7
100
AcDbLine
 10
71.77004044676465
 20
155.5453637116582
 30
0.0000000000000000
 11
71.09798545996483
 21
155.4502451790583
 31
0.0000000000000000
  0
LINE
  5
333
100
AcDbEntity
  8
MAIN1
  6
CONTINUOUS
 62
7
100
AcDbLine
 10
71.09798545996466
 20
155.4502451790582
 30
0.0000000000000000
 11
70.41037797316452
 21
155.4055199537582
 31
0.0000000000000000
  0
LINE
  5
334
100
AcDbEntity
  8
MAIN1
  6
CONTINUOUS
 62
7
100
AcDbLine
 10
70.41037797316466
 20
155.4055199537581
 30
0.0000000000000000
 11
69.71850848236468
 21
155.4119224228581
 31
0.0000000000000000
  0
LINE
  5
335
100
AcDbEntity
  8
MAIN1
  6
CONTINUOUS
 62
7
100
AcDbLine
 10
69.71850848236457
 20
155.4119224228581
 30
0.0000000000000000
 11
69.03373746536454
 21
155.4693474578581
 31
0.0000000000000000
  0
LINE
  5
336
100
AcDbEntity
  8
MAIN1
  6
CONTINUOUS
 62
7
100
AcDbLine
 10
69.03373746536445
 20
155.4693474578583
 30
0.0000000000000000
 11
68.36730884336447
 21
155.5768521413582
 31
0.0000000000000000
  0
LINE
  5
337
100
AcDbEntity
  8
MAIN1
  6
CONTINUOUS
 62
7
100
AcDbLine
 10
68.36730884336427
 20
155.5768521413581
 30
0.0000000000000000
 11
67.73016535596437
 21
155.7326712493580
 31
0.0000000000000000
  0
LINE
  5
338
100
AcDbEntity
  8
MAIN1
  6
CONTINUOUS
 62
7
100
AcDbLine
 10
67.73016535596486
 20
155.7326712493583
 30
0.0000000000000000
 11
67.13276888156489
 21
155.9342462363583
 31
0.0000000000000000
  0
LINE
  5
339
100
AcDbEntity
  8
MAIN1
  6
CONTINUOUS
 62
7
100
AcDbLine
 10
67.13276888156472
 20
155.9342462363584
 30
0.0000000000000000
 11
66.58492865376482
 21
156.1782672467583
 31
0.0000000000000000
  0
LINE
  5
33A
100
AcDbEntity
  8
MAIN1
  6
CONTINUOUS
 62
7
100
AcDbLine
 10
66.58492865376468
 20
156.1782672467583
 30
0.0000000000000000
 11
66.09564019396478
 21
156.4607274622582
 31
0.0000000000000000
  0
LINE
  5
33B
100
AcDbEntity
  8
MAIN1
  6
CONTINUOUS
 62
7
100
AcDbLine
 10
66.09564019396464
 20
156.4607274622580
 30
0.0000000000000000
 11
65.67293760506462
 21
156.7769888939580
 31
0.0000000000000000
  0
LINE
  5
33C
100
AcDbEntity
  8
MAIN1
  6
CONTINUOUS
 62
7
100
AcDbLine
 10
65.67293760506479
 20
156.7769888939583
 30
0.0000000000000000
 11
65.32376165206483
 21
157.1218585379583
 31
0.0000000000000000
  0
LINE
  5
33D
100
AcDbEntity
  8
MAIN1
  6
CONTINUOUS
 62
7
100
AcDbLine
 10
65.32376165206472
 20
157.1218585379582
 30
0.0000000000000000
 11
65.05384579426472
 21
157.4896736440581
 31
0.0000000000000000
  0
LINE
  5
33E
100
AcDbEntity
  8
MAIN1
  6
CONTINUOUS
 62
7
100
AcDbLine
 10
65.05384579426470
 20
157.4896736440581
 30
0.0000000000000000
 11
64.86762204276471
 21
157.8743946984581
 31
0.0000000000000000
  0
LINE
  5
33F
100
AcDbEntity
  8
MAIN1
  6
CONTINUOUS
 62
7
100
AcDbLine
 10
64.86762204276457
 20
157.8743946984582
 30
0.0000000000000000
 11
64.76814818626455
 21
158.2697045921582
 31
0.0000000000000000
  0
LINE
  5
340
100
AcDbEntity
  8
MAIN1
  6
CONTINUOUS
 62
7
100
AcDbLine
 10
64.76814818626465
 20
158.2697045921582
 30
0.0000000000000000
 11
64.75705758286466
 21
158.6691123476582
 31
0.0000000000000000
  0
LINE
  5
341
100
AcDbEntity
  8
MAIN1
  6
CONTINUOUS
 62
7
100
AcDbLine
 10
64.75705758286490
 20
158.6691123476581
 30
0.0000000000000000
 11
64.83453233996491
 21
159.0660597004581
 31
0.0000000000000000
  0
LINE
  5
342
100
AcDbEntity
  8
MAIN1
  6
CONTINUOUS
 62
7
100
AcDbLine
 10
64.83453233996480
 20
159.0660597004583
 30
0.0000000000000000
 11
64.99930032406473
 21
159.4540287861582
 31
0.0000000000000000
  0
LINE
  5
343
100
AcDbEntity
  8
MAIN1
  6
CONTINUOUS
 62
7
100
AcDbLine
 10
64.99930032406465
 20
159.4540287861581
 30
0.0000000000000000
 11
65.24865604946461
 21
159.8266491630580
 31
0.0000000000000000
  0
LINE
  5
344
100
AcDbEntity
  8
MAIN1
  6
CONTINUOUS
 62
7
100
AcDbLine
 10
65.24865604946464
 20
159.8266491630581
 30
0.0000000000000000
 11
65.57850510216474
 21
160.1778024148582
 31
0.0000000000000000
  0
LINE
  5
345
100
AcDbEntity
  8
MAIN1
  6
CONTINUOUS
 62
7
100
AcDbLine
 10
65.57850510216468
 20
160.1778024148582
 30
0.0000000000000000
 11
65.98343136966470
 21
160.5017226149581
 31
0.0000000000000000
  0
LINE
  5
346
100
AcDbEntity
  8
MAIN1
  6
CONTINUOUS
 62
7
100
AcDbLine
 10
65.98343136966466
 20
160.5017226149581
 30
0.0000000000000000
 11
66.45678597396469
 21
160.7930910024582
 31
0.0000000000000000
  0
LINE
  5
347
100
AcDbEntity
  8
MAIN1
  6
CONTINUOUS
 62
7
100
AcDbLine
 10
66.45678597396480
 20
160.7930910024581
 30
0.0000000000000000
 11
66.99079644556480
 21
161.0471233166581
 31
0.0000000000000000
  0
LINE
  5
348
100
AcDbEntity
  8
MAIN1
  6
CONTINUOUS
 62
7
100
AcDbLine
 10
66.99079644556440
 20
161.0471233166581
 30
0.0000000000000000
 11
67.57669434716442
 21
161.2596483538581
 31
0.0000000000000000
  0
LINE
  5
349
100
AcDbEntity
  8
MAIN1
  6
CONTINUOUS
 62
7
100
AcDbLine
 10
67.57669434716479
 20
161.2596483538582
 30
0.0000000000000000
 11
68.20485925156484
 21
161.4271764589583
 31
0.0000000000000000
  0
LINE
  5
34A
100
AcDbEntity
  8
MAIN1
  6
CONTINUOUS
 62
7
100
AcDbLine
 10
68.20485925156470
 20
161.4271764589581
 30
0.0000000000000000
 11
68.86497670826458
 21
161.5469568249581
 31
0.0000000000000000
  0
LINE
  5
34B
100
AcDbEntity
  8
MAIN1
  6
CONTINUOUS
 62
7
100
AcDbLine
 10
68.86497670826464
 20
161.5469568249581
 30
0.0000000000000000
 11
69.54620760696449
 21
161.6170226616581
 31
0.0000000000000000
  0
LINE
  5
34C
100
AcDbEntity
  8
MAIN1
  6
CONTINUOUS
 62
7
100
AcDbLine
 10
69.54620760696480
 20
161.6170226616581
 30
0.0000000000000000
 11
70.23736615516464
 21
161.6362234898581
 31
0.0000000000000000
  0
LINE
  5
34D
100
AcDbEntity
  8
MAIN1
  6
CONTINUOUS
 62
7
100
AcDbLine
 10
70.23736615516469
 20
161.6362234898580
 30
0.0000000000000000
 11
70.92710354856462
 21
161.6042440325580
 31
0.0000000000000000
  0
LINE
  5
34E
100
AcDbEntity
  8
MAIN1
  6
CONTINUOUS
 62
7
100
AcDbLine
 10
70.92710354856450
 20
161.6042440325581
 30
0.0000000000000000
 11
71.60409431816450
 21
161.5216093916581
 31
0.0000000000000000
  0
LINE
  5
34F
100
AcDbEntity
  8
MAIN1
  6
CONTINUOUS
 62
7
100
AcDbLine
 10
71.60409431816453
 20
161.5216093916583
 30
0.0000000000000000
 11
72.25722229436465
 21
161.3896764254582
 31
0.0000000000000000
  0
LINE
  5
350
100
AcDbEntity
  8
MAIN1
  6
CONTINUOUS
 62
7
100
AcDbLine
 10
72.25722229436491
 20
161.3896764254582
 30
0.0000000000000000
 11
72.87576313376488
 21
161.2106114698582
 31
0.0000000000000000
  0
LINE
  5
351
100
AcDbEntity
  8
MAIN1
  6
CONTINUOUS
 62
7
100
AcDbLine
 10
72.87576313376488
 20
161.2106114698582
 30
0.0000000000000000
 11
73.44956041286483
 21
160.9873547662582
 31
0.0000000000000000
  0
LINE
  5
352
100
AcDbEntity
  8
MAIN1
  6
CONTINUOUS
 62
7
100
AcDbLine
 10
73.44956041286477
 20
160.9873547662581
 30
0.0000000000000000
 11
73.96919239636489
 21
160.7235721836580
 31
0.0000000000000000
  0
LINE
  5
353
100
AcDbEntity
  8
MAIN1
  6
CONTINUOUS
 62
7
100
AcDbLine
 10
95.11168515386456
 20
203.7915683035583
 30
0.0000000000000000
 11
96.87945210676463
 21
202.7710581637583
 31
0.0000000000000000
  0
LINE
  5
354
100
AcDbEntity
  8
MAIN1
  6
CONTINUOUS
 62
7
100
AcDbLine
 10
96.87945210676458
 20
202.7710581637582
 30
0.0000000000000000
 11
96.87945210676458
 21
206.0372214112582
 31
0.0000000000000000
  0
LINE
  5
355
100
AcDbEntity
  8
MAIN1
  6
CONTINUOUS
 62
7
100
AcDbLine
 10
96.87945210676460
 20
206.0372214112582
 30
0.0000000000000000
 11
100.5564073689646
 21
203.9145603205582
 31
0.0000000000000000
  0
LINE
  5
356
100
AcDbEntity
  8
MAIN1
  6
CONTINUOUS
 62
7
100
AcDbLine
 10
100.5564073689648
 20
203.9145603205582
 30
0.0000000000000000
 11
100.5564073689648
 21
200.6483970729581
 31
0.0000000000000000
  0
LINE
  5
357
100
AcDbEntity
  8
MAIN1
  6
CONTINUOUS
 62
7
100
AcDbLine
 10
100.5564073689647
 20
200.6483970729582
 30
0.0000000000000000
 11
102.3241743219645
 21
199.6278869332583
 31
0.0000000000000000
  0
LINE
  5
358
100
AcDbEntity
  8
MAIN1
  6
CONTINUOUS
 62
7
100
AcDbLine
 10
102.3241743219646
 20
199.6278869332582
 30
0.0000000000000000
 11
102.3241743219646
 21
197.5048808223581
 31
0.0000000000000000
  0
ARC
  5
359
100
AcDbEntity
  8
MAIN1
  6
CONTINUOUS
 62
7
100
AcDbCircle
 10
106.0086929652646
 20
197.6725468677581
 30
0.0000000000000000
 40
3.688331538173026
100
AcDbArc
 50
182.6054784857000
 51
237.3945216600000
  0
LINE
  5
35A
100
AcDbEntity
  8
MAIN1
  6
CONTINUOUS
 62
7
100
AcDbLine
 10
104.0212305967648
 20
194.5654931395580
 30
0.0000000000000000
 11
115.6884924863647
 21
187.8301262170581
 31
0.0000000000000000
  0
LINE
  5
35B
100
AcDbEntity
  8
MAIN1
  6
CONTINUOUS
 62
7
100
AcDbLine
 10
118.2448054357648
 20
183.4024623216583
 30
0.0000000000000000
 11
115.6884924863648
 21
187.8301262170583
 31
0.0000000000000000
  0
LINE
  5
35C
100
AcDbEntity
  8
MAIN1
  6
CONTINUOUS
 62
7
100
AcDbLine
 10
118.2448054357647
 20
183.4024623216582
 30
0.0000000000000000
 11
118.2448054357647
 21
175.4127512838581
 31
0.0000000000000000
  0
LINE
  5
35D
100
AcDbEntity
  8
MAIN1
  6
CONTINUOUS
 62
7
100
AcDbLine
 10
97.37442685366483
 20
193.8299827186582
 30
0.0000000000000000
 11
97.40556013376485
 21
194.2573498740582
 31
0.0000000000000000
  0
LINE
  5
35E
100
AcDbEntity
  8
MAIN1
  6
CONTINUOUS
 62
7
100
AcDbLine
 10
97.40556013376465
 20
194.2573498740583
 30
0.0000000000000000
 11
97.49815363866463
 21
194.6377027245582
 31
0.0000000000000000
  0
LINE
  5
35F
100
AcDbEntity
  8
MAIN1
  6
CONTINUOUS
 62
7
100
AcDbLine
 10
97.49815363866449
 20
194.6377027245581
 30
0.0000000000000000
 11
97.64980924506440
 21
194.9611903310579
 31
0.0000000000000000
  0
LINE
  5
360
100
AcDbEntity
  8
MAIN1
  6
CONTINUOUS
 62
7
100
AcDbLine
 10
97.64980924506469
 20
194.9611903310581
 30
0.0000000000000000
 11
97.85659915246458
 21
195.2194345343579
 31
0.0000000000000000
  0
LINE
  5
361
100
AcDbEntity
  8
MAIN1
  6
CONTINUOUS
 62
7
100
AcDbLine
 10
97.85659915246475
 20
195.2194345343582
 30
0.0000000000000000
 11
98.11316761096475
 21
195.4057469454582
 31
0.0000000000000000
  0
LINE
  5
362
100
AcDbEntity
  8
MAIN1
  6
CONTINUOUS
 62
7
100
AcDbLine
 10
98.11316761096455
 20
195.4057469454582
 30
0.0000000000000000
 11
98.41286963216436
 21
195.5153021705581
 31
0.0000000000000000
  0
LINE
  5
363
100
AcDbEntity
  8
MAIN1
  6
CONTINUOUS
 62
7
100
AcDbLine
 10
98.41286963216484
 20
195.5153021705582
 30
0.0000000000000000
 11
98.74794309116479
 21
195.5452627870582
 31
0.0000000000000000
  0
LINE
  5
364
100
AcDbEntity
  8
MAIN1
  6
CONTINUOUS
 62
7
100
AcDbLine
 10
98.74794309116467
 20
195.5452627870582
 30
0.0000000000000000
 11
99.10970976136474
 21
195.4948528305581
 31
0.0000000000000000
  0
LINE
  5
365
100
AcDbEntity
  8
MAIN1
  6
CONTINUOUS
 62
7
100
AcDbLine
 10
99.10970976136463
 20
195.4948528305583
 30
0.0000000000000000
 11
99.48880007606471
 21
195.3653778925583
 31
0.0000000000000000
  0
LINE
  5
366
100
AcDbEntity
  8
MAIN1
  6
CONTINUOUS
 62
7
100
AcDbLine
 10
99.48880007606473
 20
195.3653778925583
 30
0.0000000000000000
 11
99.87539579526458
 21
195.1601913059584
 31
0.0000000000000000
  0
LINE
  5
367
100
AcDbEntity
  8
MAIN1
  6
CONTINUOUS
 62
7
100
AcDbLine
 10
99.87539579526469
 20
195.1601913059583
 30
0.0000000000000000
 11
100.2594842928649
 21
194.8846072955582
 31
0.0000000000000000
  0
LINE
  5
368
100
AcDbEntity
  8
MAIN1
  6
CONTINUOUS
 62
7
100
AcDbLine
 10
100.2594842928646
 20
194.8846072955580
 30
0.0000000000000000
 11
100.6311178785646
 21
194.5457633424580
 31
0.0000000000000000
  0
LINE
  5
369
100
AcDbEntity
  8
MAIN1
  6
CONTINUOUS
 62
7
100
AcDbLine
 10
100.6311178785646
 20
194.5457633424581
 30
0.0000000000000000
 11
100.9806714376646
 21
194.1524353269581
 31
0.0000000000000000
  0
LINE
  5
36A
100
AcDbEntity
  8
MAIN1
  6
CONTINUOUS
 62
7
100
AcDbLine
 10
100.9806714376646
 20
194.1524353269582
 30
0.0000000000000000
 11
101.2990917166646
 21
193.7148102381582
 31
0.0000000000000000
  0
LINE
  5
36B
100
AcDbEntity
  8
MAIN1
  6
CONTINUOUS
 62
7
100
AcDbLine
 10
101.2990917166646
 20
193.7148102381581
 30
0.0000000000000000
 11
101.5781317974646
 21
193.2442223360581
 31
0.0000000000000000
  0
LINE
  5
36C
100
AcDbEntity
  8
MAIN1
  6
CONTINUOUS
 62
7
100
AcDbLine
 10
101.5781317974646
 20
193.2442223360582
 30
0.0000000000000000
 11
101.8105646886646
 21
192.7528595999581
 31
0.0000000000000000
  0
LINE
  5
36D
100
AcDbEntity
  8
MAIN1
  6
CONTINUOUS
 62
7
100
AcDbLine
 10
101.8105646886647
 20
192.7528595999583
 30
0.0000000000000000
 11
101.9903705004647
 21
192.2534480667582
 31
0.0000000000000000
  0
LINE
  5
36E
100
AcDbEntity
  8
MAIN1
  6
CONTINUOUS
 62
7
100
AcDbLine
 10
101.9903705004647
 20
192.2534480667582
 30
0.0000000000000000
 11
102.1128923566647
 21
191.7589222327581
 31
0.0000000000000000
  0
LINE
  5
36F
100
AcDbEntity
  8
MAIN1
  6
CONTINUOUS
 62
7
100
AcDbLine
 10
102.1128923566645
 20
191.7589222327582
 30
0.0000000000000000
 11
102.1749570057645
 21
191.2820900573582
 31
0.0000000000000000
  0
LINE
  5
370
100
AcDbEntity
  8
MAIN1
  6
CONTINUOUS
 62
7
100
AcDbLine
 10
102.1749570057646
 20
191.2820900573581
 30
0.0000000000000000
 11
102.1749570057646
 21
190.8353012433581
 31
0.0000000000000000
  0
LINE
  5
371
100
AcDbEntity
  8
MAIN1
  6
CONTINUOUS
 62
7
100
AcDbLine
 10
102.1749570057647
 20
190.8353012433581
 30
0.0000000000000000
 11
102.1128923566646
 21
190.4301273863580
 31
0.0000000000000000
  0
LINE
  5
372
100
AcDbEntity
  8
MAIN1
  6
CONTINUOUS
 62
7
100
AcDbLine
 10
102.1128923566647
 20
190.4301273863582
 30
0.0000000000000000
 11
101.9903705004647
 21
190.0770622765582
 31
0.0000000000000000
  0
LINE
  5
373
100
AcDbEntity
  8
MAIN1
  6
CONTINUOUS
 62
7
100
AcDbLine
 10
101.9903705004647
 20
190.0770622765581
 30
0.0000000000000000
 11
101.8105646886646
 21
189.7852501147579
 31
0.0000000000000000
  0
LINE
  5
374
100
AcDbEntity
  8
MAIN1
  6
CONTINUOUS
 62
7
100
AcDbLine
 10
101.8105646886646
 20
189.7852501147581
 30
0.0000000000000000
 11
101.5781317974646
 21
189.5622486825581
 31
0.0000000000000000
  0
LINE
  5
375
100
AcDbEntity
  8
MAIN1
  6
CONTINUOUS
 62
7
100
AcDbLine
 10
101.5781317974649
 20
189.5622486825582
 30
0.0000000000000000
 11
101.2990917166647
 21
189.4138336001581
 31
0.0000000000000000
  0
LINE
  5
376
100
AcDbEntity
  8
MAIN1
  6
CONTINUOUS
 62
7
100
AcDbLine
 10
101.2990917166648
 20
189.4138336001582
 30
0.0000000000000000
 11
100.9806714376646
 21
189.3438487399581
 31
0.0000000000000000
  0
LINE
  5
377
100
AcDbEntity
  8
MAIN1
  6
CONTINUOUS
 62
7
100
AcDbLine
 10
100.9806714376645
 20
189.3438487399581
 30
0.0000000000000000
 11
100.6311178785647
 21
189.3541066732581
 31
0.0000000000000000
  0
LINE
  5
378
100
AcDbEntity
  8
MAIN1
  6
CONTINUOUS
 62
7
100
AcDbLine
 10
100.6311178785646
 20
189.3541066732582
 30
0.0000000000000000
 11
100.2594842928646
 21
189.4443417249582
 31
0.0000000000000000
  0
LINE
  5
379
100
AcDbEntity
  8
MAIN1
  6
CONTINUOUS
 62
7
100
AcDbLine
 10
100.2594842928648
 20
189.4443417249581
 30
0.0000000000000000
 11
99.87539579526472
 21
189.6122168545581
 31
0.0000000000000000
  0
LINE
  5
37A
100
AcDbEntity
  8
MAIN1
  6
CONTINUOUS
 62
7
100
AcDbLine
 10
99.87539579526475
 20
189.6122168545579
 30
0.0000000000000000
 11
99.48880007606468
 21
189.8533841844580
 31
0.0000000000000000
  0
LINE
  5
37B
100
AcDbEntity
  8
MAIN1
  6
CONTINUOUS
 62
7
100
AcDbLine
 10
99.48880007606459
 20
189.8533841844582
 30
0.0000000000000000
 11
99.10970976136463
 21
190.1615976073582
 31
0.0000000000000000
  0
LINE
  5
37C
100
AcDbEntity
  8
MAIN1
  6
CONTINUOUS
 62
7
100
AcDbLine
 10
99.10970976136466
 20
190.1615976073580
 30
0.0000000000000000
 11
98.74794309116462
 21
190.5288745576580
 31
0.0000000000000000
  0
LINE
  5
37D
100
AcDbEntity
  8
MAIN1
  6
CONTINUOUS
 62
7
100
AcDbLine
 10
98.74794309116476
 20
190.5288745576583
 30
0.0000000000000000
 11
98.41286963216479
 21
190.9457027551583
 31
0.0000000000000000
  0
LINE
  5
37E
100
AcDbEntity
  8
MAIN1
  6
CONTINUOUS
 62
7
100
AcDbLine
 10
98.41286963216479
 20
190.9457027551580
 30
0.0000000000000000
 11
98.11316761096475
 21
191.4012865685581
 31
0.0000000000000000
  0
LINE
  5
37F
100
AcDbEntity
  8
MAIN1
  6
CONTINUOUS
 62
7
100
AcDbLine
 10
98.11316761096472
 20
191.4012865685582
 30
0.0000000000000000
 11
97.85659915246470
 21
191.8838266163582
 31
0.0000000000000000
  0
LINE
  5
380
100
AcDbEntity
  8
MAIN1
  6
CONTINUOUS
 62
7
100
AcDbLine
 10
97.85659915246484
 20
191.8838266163583
 30
0.0000000000000000
 11
97.64980924506483
 21
192.3808253648583
 31
0.0000000000000000
  0
LINE
  5
381
100
AcDbEntity
  8
MAIN1
  6
CONTINUOUS
 62
7
100
AcDbLine
 10
97.64980924506483
 20
192.3808253648582
 30
0.0000000000000000
 11
97.49815363866483
 21
192.8794108073581
 31
0.0000000000000000
  0
LINE
  5
382
100
AcDbEntity
  8
MAIN1
  6
CONTINUOUS
 62
7
100
AcDbLine
 10
97.49815363866460
 20
192.8794108073582
 30
0.0000000000000000
 11
97.40556013376460
 21
193.3666698430582
 31
0.0000000000000000
  0
LINE
  5
383
100
AcDbEntity
  8
MAIN1
  6
CONTINUOUS
 62
7
100
AcDbLine
 10
97.40556013376479
 20
193.3666698430582
 30
0.0000000000000000
 11
97.37442685366477
 21
193.8299827186581
 31
0.0000000000000000
  0
LINE
  5
384
100
AcDbEntity
  8
MAIN1
  6
CONTINUOUS
 62
7
100
AcDbLine
 10
42.07867656486474
 20
173.6661355172581
 30
0.0000000000000000
 11
42.07867656486474
 21
158.4784764161582
 31
0.0000000000000000
  0
LINE
  5
385
100
AcDbEntity
  8
MAIN1
  6
CONTINUOUS
 62
7
100
AcDbLine
 10
42.07867656486473
 20
173.6661355172581
 30
0.0000000000000000
 11
94.54599972886470
 21
203.9548764658581
 31
0.0000000000000000
  0
LINE
  5
386
100
AcDbEntity
  8
MAIN1
  6
CONTINUOUS
 62
7
100
AcDbLine
 10
97.37885349596456
 20
193.6590330956583
 30
0.0000000000000000
 11
97.40665447626455
 21
193.9101873352582
 31
0.0000000000000000
  0
LINE
  5
387
100
AcDbEntity
  8
MAIN1
  6
CONTINUOUS
 62
7
100
AcDbLine
 10
97.40665447626455
 20
193.9101873352582
 30
0.0000000000000000
 11
97.50235812406447
 21
194.2673865400580
 31
0.0000000000000000
  0
LINE
  5
388
100
AcDbEntity
  8
MAIN1
  6
CONTINUOUS
 62
7
100
AcDbLine
 10
97.50235812406461
 20
194.2673865400581
 30
0.0000000000000000
 11
97.65862989006467
 21
194.5641637710582
 31
0.0000000000000000
  0
LINE
  5
389
100
AcDbEntity
  8
MAIN1
  6
CONTINUOUS
 62
7
100
AcDbLine
 10
97.65862989006450
 20
194.5641637710580
 30
0.0000000000000000
 11
97.87072153596455
 21
194.7915016022580
 31
0.0000000000000000
  0
LINE
  5
38A
100
AcDbEntity
  8
MAIN1
  6
CONTINUOUS
 62
7
100
AcDbLine
 10
97.87072153596461
 20
194.7915016022583
 30
0.0000000000000000
 11
98.13218876416465
 21
194.9424924888583
 31
0.0000000000000000
  0
LINE
  5
38B
100
AcDbEntity
  8
MAIN1
  6
CONTINUOUS
 62
7
100
AcDbLine
 10
98.13218876416468
 20
194.9424924888581
 30
0.0000000000000000
 11
98.43508702546427
 21
195.0125486489581
 31
0.0000000000000000
  0
LINE
  5
38C
100
AcDbEntity
  8
MAIN1
  6
CONTINUOUS
 62
7
100
AcDbLine
 10
98.43508702546464
 20
195.0125486489582
 30
0.0000000000000000
 11
98.77021290926459
 21
194.9995414617582
 31
0.0000000000000000
  0
LINE
  5
38D
100
AcDbEntity
  8
MAIN1
  6
CONTINUOUS
 62
7
100
AcDbLine
 10
98.77021290926450
 20
194.9995414617580
 30
0.0000000000000000
 11
99.12738378526473
 21
194.9038661440580
 31
0.0000000000000000
  0
LINE
  5
38E
100
AcDbEntity
  8
MAIN1
  6
CONTINUOUS
 62
7
100
AcDbLine
 10
99.12738378526464
 20
194.9038661440583
 30
0.0000000000000000
 11
99.49574719716472
 21
194.7284297418582
 31
0.0000000000000000
  0
LINE
  5
38F
100
AcDbEntity
  8
MAIN1
  6
CONTINUOUS
 62
7
100
AcDbLine
 10
99.49574719716469
 20
194.7284297418581
 30
0.0000000000000000
 11
99.86411060906471
 21
194.4785628014581
 31
0.0000000000000000
  0
LINE
  5
390
100
AcDbEntity
  8
MAIN1
  6
CONTINUOUS
 62
7
100
AcDbLine
 10
99.86411060906448
 20
194.4785628014581
 30
0.0000000000000000
 11
100.2212814851646
 21
194.1618574035580
 31
0.0000000000000000
  0
LINE
  5
391
100
AcDbEntity
  8
MAIN1
  6
CONTINUOUS
 62
7
100
AcDbLine
 10
100.2212814851646
 20
194.1618574035581
 30
0.0000000000000000
 11
100.5564073689646
 21
193.7879364812581
 31
0.0000000000000000
  0
LINE
  5
392
100
AcDbEntity
  8
MAIN1
  6
CONTINUOUS
 62
7
100
AcDbLine
 10
100.5564073689646
 20
193.7879364812582
 30
0.0000000000000000
 11
100.8593056301646
 21
193.3681614326582
 31
0.0000000000000000
  0
LINE
  5
393
100
AcDbEntity
  8
MAIN1
  6
CONTINUOUS
 62
7
100
AcDbLine
 10
100.8593056301646
 20
193.3681614326582
 30
0.0000000000000000
 11
101.1207728584646
 21
192.9152869101582
 31
0.0000000000000000
  0
LINE
  5
394
100
AcDbEntity
  8
MAIN1
  6
CONTINUOUS
 62
7
100
AcDbLine
 10
101.1207728584644
 20
192.9152869101579
 30
0.0000000000000000
 11
101.3328645042644
 21
192.4430732769580
 31
0.0000000000000000
  0
LINE
  5
395
100
AcDbEntity
  8
MAIN1
  6
CONTINUOUS
 62
7
100
AcDbLine
 10
101.3328645042647
 20
192.4430732769582
 30
0.0000000000000000
 11
101.4891362703648
 21
191.9658685053582
 31
0.0000000000000000
  0
LINE
  5
396
100
AcDbEntity
  8
MAIN1
  6
CONTINUOUS
 62
7
100
AcDbLine
 10
101.4891362703646
 20
191.9658685053583
 30
0.0000000000000000
 11
101.5848399181646
 21
191.4981722208582
 31
0.0000000000000000
  0
LINE
  5
397
100
AcDbEntity
  8
MAIN1
  6
CONTINUOUS
 62
7
100
AcDbLine
 10
101.5848399181646
 20
191.4981722208582
 30
0.0000000000000000
 11
101.6170675407646
 21
191.0541951384581
 31
0.0000000000000000
  0
LINE
  5
398
100
AcDbEntity
  8
MAIN1
  6
CONTINUOUS
 62
7
100
AcDbLine
 10
101.6170675407646
 20
191.0541951384583
 30
0.0000000000000000
 11
101.5848399181646
 21
190.6474272770583
 31
0.0000000000000000
  0
LINE
  5
399
100
AcDbEntity
  8
MAIN1
  6
CONTINUOUS
 62
7
100
AcDbLine
 10
101.5848399181649
 20
190.6474272770581
 30
0.0000000000000000
 11
101.4891362703649
 21
190.2902280722582
 31
0.0000000000000000
  0
LINE
  5
39A
100
AcDbEntity
  8
MAIN1
  6
CONTINUOUS
 62
7
100
AcDbLine
 10
101.4891362703647
 20
190.2902280722583
 30
0.0000000000000000
 11
101.3328645042647
 21
189.9934508412584
 31
0.0000000000000000
  0
LINE
  5
39B
100
AcDbEntity
  8
MAIN1
  6
CONTINUOUS
 62
7
100
AcDbLine
 10
101.3328645042647
 20
189.9934508412581
 30
0.0000000000000000
 11
101.1207728584646
 21
189.7661130100581
 31
0.0000000000000000
  0
LINE
  5
39C
100
AcDbEntity
  8
MAIN1
  6
CONTINUOUS
 62
7
100
AcDbLine
 10
101.1207728584647
 20
189.7661130100582
 30
0.0000000000000000
 11
100.8593056301646
 21
189.6151221234581
 31
0.0000000000000000
  0
LINE
  5
39D
100
AcDbEntity
  8
MAIN1
  6
CONTINUOUS
 62
7
100
AcDbLine
 10
100.8593056301644
 20
189.6151221234581
 30
0.0000000000000000
 11
100.5564073689645
 21
189.5450659633581
 31
0.0000000000000000
  0
LINE
  5
39E
100
AcDbEntity
  8
MAIN1
  6
CONTINUOUS
 62
7
100
AcDbLine
 10
100.5564073689646
 20
189.5450659633583
 30
0.0000000000000000
 11
100.2212814851644
 21
189.5580731505582
 31
0.0000000000000000
  0
LINE
  5
39F
100
AcDbEntity
  8
MAIN1
  6
CONTINUOUS
 62
7
100
AcDbLine
 10
100.2212814851646
 20
189.5580731505582
 30
0.0000000000000000
 11
99.86411060906480
 21
189.6537484682581
 31
0.0000000000000000
  0
LINE
  5
3A0
100
AcDbEntity
  8
MAIN1
  6
CONTINUOUS
 62
7
100
AcDbLine
 10
99.86411060906468
 20
189.6537484682580
 30
0.0000000000000000
 11
99.63237415176459
 21
189.7553978570581
 31
0.0000000000000000
  0
LINE
  5
3A1
100
AcDbEntity
  8
MAIN1
  6
CONTINUOUS
 62
7
100
AcDbLine
 10
96.31376668186474
 20
203.0976744884580
 30
0.0000000000000000
 11
94.68742108516466
 21
204.0365438170581
 31
0.0000000000000000
  0
LINE
  5
3A2
100
AcDbEntity
  8
MAIN1
  6
CONTINUOUS
 62
7
100
AcDbLine
 10
96.31376668186454
 20
203.0976744884582
 30
0.0000000000000000
 11
96.87945210676460
 21
202.7710581637581
 31
0.0000000000000000
  0
LINE
  5
3A3
100
AcDbEntity
  8
MAIN1
  6
CONTINUOUS
 62
7
100
AcDbLine
 10
42.22009792106463
 20
173.7478028684581
 30
0.0000000000000000
 11
94.68742108516460
 21
204.0365438170581
 31
0.0000000000000000
  0
LINE
  5
3A4
100
AcDbEntity
  8
MAIN1
  6
CONTINUOUS
 62
7
100
AcDbLine
 10
42.22009792106470
 20
173.7478028684581
 30
0.0000000000000000
 11
42.07867656486443
 21
173.6661487872580
 31
0.0000000000000000
  0
LINE
  5
3A5
100
AcDbEntity
  8
MAIN1
  6
CONTINUOUS
 62
7
100
AcDbLine
 10
96.31376668186454
 20
206.2005295736582
 30
0.0000000000000000
 11
96.31376668186454
 21
203.0976744884582
 31
0.0000000000000000
  0
LINE
  5
3A6
100
AcDbEntity
  8
MAIN1
  6
CONTINUOUS
 62
7
100
AcDbLine
 10
96.45518803806462
 20
206.2821836548581
 30
0.0000000000000000
 11
96.31376668186476
 21
206.2005295736582
 31
0.0000000000000000
  0
LINE
  5
3A7
100
AcDbEntity
  8
MAIN1
  6
CONTINUOUS
 62
7
100
AcDbLine
 10
96.45518803806462
 20
206.2821836548581
 30
0.0000000000000000
 11
96.87945210676466
 21
206.0372214112581
 31
0.0000000000000000
  0
LINE
  5
3A8
100
AcDbEntity
  8
MAIN1
  6
CONTINUOUS
 62
7
100
AcDbLine
 10
43.84644351786461
 20
175.9117886250582
 30
0.0000000000000000
 11
43.84644351786461
 21
174.6866721970581
 31
0.0000000000000000
  0
LINE
  5
3A9
100
AcDbEntity
  8
MAIN1
  6
CONTINUOUS
 62
7
100
AcDbLine
 10
43.84644351786464
 20
175.9117886250582
 30
0.0000000000000000
 11
96.31376668186462
 21
206.2005295736582
 31
0.0000000000000000
  0
LINE
  5
3AA
100
AcDbEntity
  8
MAIN1
  6
CONTINUOUS
 62
7
100
AcDbLine
 10
100.4149860127647
 20
203.9962542117581
 30
0.0000000000000000
 11
96.45518803806468
 21
206.2821969248581
 31
0.0000000000000000
  0
LINE
  5
3AB
100
AcDbEntity
  8
MAIN1
  6
CONTINUOUS
 62
7
100
AcDbLine
 10
100.5564073689646
 20
203.9146001305583
 30
0.0000000000000000
 11
100.4149860127647
 21
203.9962542117582
 31
0.0000000000000000
  0
LINE
  5
3AC
100
AcDbEntity
  8
MAIN1
  6
CONTINUOUS
 62
7
100
AcDbLine
 10
43.98786487406458
 20
175.9934559762581
 30
0.0000000000000000
 11
96.45518803806453
 21
206.2821969248580
 31
0.0000000000000000
  0
LINE
  5
3AD
100
AcDbEntity
  8
MAIN1
  6
CONTINUOUS
 62
7
100
AcDbLine
 10
43.98786487406442
 20
175.9934559762579
 30
0.0000000000000000
 11
43.84644351786455
 21
175.9118018950580
 31
0.0000000000000000
  0
LINE
  5
3AE
100
AcDbEntity
  8
MAIN1
  6
CONTINUOUS
 62
7
100
AcDbLine
 10
115.1228070614646
 20
188.1567425418583
 30
0.0000000000000000
 11
104.0087401120647
 21
194.5727568229583
 31
0.0000000000000000
  0
LINE
  5
3AF
100
AcDbEntity
  8
MAIN1
  6
CONTINUOUS
 62
7
100
AcDbLine
 10
115.6884924863647
 20
187.8301262170582
 30
0.0000000000000000
 11
115.1228070614646
 21
188.1567425418583
 31
0.0000000000000000
  0
LINE
  5
3B0
100
AcDbEntity
  8
MAIN1
  6
CONTINUOUS
 62
7
100
AcDbLine
 10
102.1827529656645
 20
199.7095808244581
 30
0.0000000000000000
 11
100.5564073689644
 21
200.6484501530582
 31
0.0000000000000000
  0
LINE
  5
3B1
100
AcDbEntity
  8
MAIN1
  6
CONTINUOUS
 62
7
100
AcDbLine
 10
102.3241743219647
 20
199.6279267432580
 30
0.0000000000000000
 11
102.1827529656646
 21
199.7095808244581
 31
0.0000000000000000
  0
LINE
  5
3B2
100
AcDbEntity
  8
MAIN1
  6
CONTINUOUS
 62
7
100
AcDbLine
 10
90.65691243236481
 20
170.6838042279580
 30
0.0000000000000000
 11
91.15969882546466
 21
170.4299738766580
 31
0.0000000000000000
  0
LINE
  5
3B3
100
AcDbEntity
  8
MAIN1
  6
CONTINUOUS
 62
7
100
AcDbLine
 10
91.15969882546477
 20
170.4299738766581
 30
0.0000000000000000
 11
91.71660466976471
 21
170.2170951892582
 31
0.0000000000000000
  0
LINE
  5
3B4
100
AcDbEntity
  8
MAIN1
  6
CONTINUOUS
 62
7
100
AcDbLine
 10
91.71660466976482
 20
170.2170951892581
 30
0.0000000000000000
 11
92.31769196726478
 21
170.0489669909581
 31
0.0000000000000000
  0
LINE
  5
3B5
100
AcDbEntity
  8
MAIN1
  6
CONTINUOUS
 62
7
100
AcDbLine
 10
92.31769196726469
 20
170.0489669909583
 30
0.0000000000000000
 11
92.95223430106449
 21
169.9285895333583
 31
0.0000000000000000
  0
LINE
  5
3B6
100
AcDbEntity
  8
MAIN1
  6
CONTINUOUS
 62
7
100
AcDbLine
 10
92.95223430106438
 20
169.9285895333581
 30
0.0000000000000000
 11
93.60890824786449
 21
169.8581109551581
 31
0.0000000000000000
  0
LINE
  5
3B7
100
AcDbEntity
  8
MAIN1
  6
CONTINUOUS
 62
7
100
AcDbLine
 10
93.60890824786466
 20
169.8581109551583
 30
0.0000000000000000
 11
94.27599544586457
 21
169.8387889482583
 31
0.0000000000000000
  0
LINE
  5
3B8
100
AcDbEntity
  8
MAIN1
  6
CONTINUOUS
 62
7
100
AcDbLine
 10
94.27599544586485
 20
169.8387889482581
 30
0.0000000000000000
 11
94.94159170796485
 21
169.8709683141581
 31
0.0000000000000000
  0
LINE
  5
3B9
100
AcDbEntity
  8
MAIN1
  6
CONTINUOUS
 62
7
100
AcDbLine
 10
94.94159170796462
 20
169.8709683141581
 30
0.0000000000000000
 11
95.59381945326462
 21
169.9540748115581
 31
0.0000000000000000
  0
LINE
  5
3BA
100
AcDbEntity
  8
MAIN1
  6
CONTINUOUS
 62
7
100
AcDbLine
 10
95.59381945326459
 20
169.9540748115581
 30
0.0000000000000000
 11
96.22103966206456
 21
170.0866254028581
 31
0.0000000000000000
  0
LINE
  5
3BB
100
AcDbEntity
  8
MAIN1
  6
CONTINUOUS
 62
7
100
AcDbLine
 10
96.22103966206458
 20
170.0866254028581
 30
0.0000000000000000
 11
96.81205957496474
 21
170.2662547197581
 31
0.0000000000000000
  0
LINE
  5
3BC
100
AcDbEntity
  8
MAIN1
  6
CONTINUOUS
 62
7
100
AcDbLine
 10
96.81205957496474
 20
170.2662547197581
 30
0.0000000000000000
 11
97.35633242766463
 21
170.4897572727581
 31
0.0000000000000000
  0
LINE
  5
3BD
100
AcDbEntity
  8
MAIN1
  6
CONTINUOUS
 62
7
100
AcDbLine
 10
97.35633242766465
 20
170.4897572727583
 30
0.0000000000000000
 11
97.84414565806461
 21
170.7531446534582
 31
0.0000000000000000
  0
LINE
  5
3BE
100
AcDbEntity
  8
MAIN1
  6
CONTINUOUS
 62
7
100
AcDbLine
 10
97.84414565806452
 20
170.7531446534580
 30
0.0000000000000000
 11
98.26679422756456
 21
171.0517167078581
 31
0.0000000000000000
  0
LINE
  5
3BF
100
AcDbEntity
  8
MAIN1
  6
CONTINUOUS
 62
7
100
AcDbLine
 10
98.26679422756459
 20
171.0517167078580
 30
0.0000000000000000
 11
98.61673596256455
 21
171.3801454105580
 31
0.0000000000000000
  0
LINE
  5
3C0
100
AcDbEntity
  8
MAIN1
  6
CONTINUOUS
 62
7
100
AcDbLine
 10
98.61673596256475
 20
171.3801454105581
 30
0.0000000000000000
 11
98.88772614436482
 21
171.7325699436582
 31
0.0000000000000000
  0
LINE
  5
3C1
100
AcDbEntity
  8
MAIN1
  6
CONTINUOUS
 62
7
100
AcDbLine
 10
98.88772614436468
 20
171.7325699436582
 30
0.0000000000000000
 11
99.07492894676466
 21
172.1027012829581
 31
0.0000000000000000
  0
LINE
  5
3C2
100
AcDbEntity
  8
MAIN1
  6
CONTINUOUS
 62
7
100
AcDbLine
 10
99.07492894676463
 20
172.1027012829580
 30
0.0000000000000000
 11
99.17500373136460
 21
172.4839344259580
 31
0.0000000000000000
  0
LINE
  5
3C3
100
AcDbEntity
  8
MAIN1
  6
CONTINUOUS
 62
7
100
AcDbLine
 10
99.17500373136474
 20
172.4839344259581
 30
0.0000000000000000
 11
99.18616466116475
 21
172.8694662580581
 31
0.0000000000000000
  0
LINE
  5
3C4
100
AcDbEntity
  8
MAIN1
  6
CONTINUOUS
 62
7
100
AcDbLine
 10
99.18616466116484
 20
172.8694662580581
 30
0.0000000000000000
 11
99.10821256936481
 21
173.2524169547582
 31
0.0000000000000000
  0
LINE
  5
3C5
100
AcDbEntity
  8
MAIN1
  6
CONTINUOUS
 62
7
100
AcDbLine
 10
99.10821256936461
 20
173.2524169547583
 30
0.0000000000000000
 11
98.94253851256462
 21
173.6259527517582
 31
0.0000000000000000
  0
LINE
  5
3C6
100
AcDbEntity
  8
MAIN1
  6
CONTINUOUS
 62
7
100
AcDbLine
 10
98.94253851256448
 20
173.6259527517580
 30
0.0000000000000000
 11
98.69209894846449
 21
173.9834078939580
 31
0.0000000000000000
  0
LINE
  5
3C7
100
AcDbEntity
  8
MAIN1
  6
CONTINUOUS
 62
7
100
AcDbLine
 10
98.69209894846469
 20
173.9834078939580
 30
0.0000000000000000
 11
98.36136297686457
 21
174.3184035856581
 31
0.0000000000000000
  0
LINE
  5
3C8
100
AcDbEntity
  8
MAIN1
  6
CONTINUOUS
 62
7
100
AcDbLine
 10
98.36136297686468
 20
174.3184035856581
 30
0.0000000000000000
 11
97.95623258916467
 21
174.6249618210581
 31
0.0000000000000000
  0
LINE
  5
3C9
100
AcDbEntity
  8
MAIN1
  6
CONTINUOUS
 62
7
100
AcDbLine
 10
97.95623258916461
 20
174.6249618210582
 30
0.0000000000000000
 11
97.86455309596465
 21
174.6838324716582
 31
0.0000000000000000
  0
ARC
  5
3CA
100
AcDbEntity
  8
MAIN1
  6
CONTINUOUS
 62
7
100
AcDbCircle
 10
91.41268549646475
 20
172.7119541897581
 30
0.0000000000000000
 40
2.164390258709354
100
AcDbArc
 50
114.3484640516000
 51
249.5625130599000
  0
ARC
  5
3CB
100
AcDbEntity
  8
MAIN1
  6
CONTINUOUS
 62
7
100
AcDbCircle
 10
94.19244633826475
 20
181.8405037121581
 30
0.0000000000000000
 40
7.770932107764362
100
AcDbArc
 50
244.3370705078000
 51
295.6629294922000
  0
LINE
  5
3CC
100
AcDbEntity
  8
MAIN1
  6
CONTINUOUS
 62
7
100
AcDbLine
 10
115.4056497738644
 20
169.2958838978583
 30
0.0000000000000000
 11
118.2448054357643
 21
175.4127512838582
 31
0.0000000000000000
  0
LINE
  5
3CD
100
AcDbEntity
  8
MAIN1
  6
CONTINUOUS
 62
7
100
AcDbLine
 10
115.2263346794647
 20
169.1923409572582
 30
0.0000000000000000
 11
115.4056497738647
 21
169.2958838978582
 31
0.0000000000000000
  0
ARC
  5
3CE
100
AcDbEntity
  8
MAIN1
  6
CONTINUOUS
 62
7
100
AcDbCircle
 10
94.19244633826475
 20
182.7139243711581
 30
0.0000000000000000
 40
8.545734547876524
100
AcDbArc
 50
246.9949149960999
 51
293.0050850038999
  0
LINE
  5
3CF
100
AcDbEntity
  8
MAIN1
  6
CONTINUOUS
 62
7
100
AcDbLine
 10
73.82292253536471
 20
160.8048945707581
 30
0.0000000000000000
 11
74.12604439066473
 21
160.5966544795581
 31
0.0000000000000000
  0
LINE
  5
3D0
100
AcDbEntity
  8
MAIN1
  6
CONTINUOUS
 62
7
100
AcDbLine
 10
74.12604439066459
 20
160.5966544795583
 30
0.0000000000000000
 11
74.49480104866461
 21
160.2751595788582
 31
0.0000000000000000
  0
LINE
  5
3D1
100
AcDbEntity
  8
MAIN1
  6
CONTINUOUS
 62
7
100
AcDbLine
 10
74.49480104866478
 20
160.2751595788582
 30
0.0000000000000000
 11
74.78603918666477
 21
159.9281592680582
 31
0.0000000000000000
  0
LINE
  5
3D2
100
AcDbEntity
  8
MAIN1
  6
CONTINUOUS
 62
7
100
AcDbLine
 10
74.78603918666445
 20
159.9281592680581
 30
0.0000000000000000
 11
74.99456165306449
 21
159.5618457760581
 31
0.0000000000000000
  0
LINE
  5
3D3
100
AcDbEntity
  8
MAIN1
  6
CONTINUOUS
 62
7
100
AcDbLine
 10
74.99456165306469
 20
159.5618457760582
 30
0.0000000000000000
 11
75.11664735956472
 21
159.1827559756581
 31
0.0000000000000000
  0
LINE
  5
3D4
100
AcDbEntity
  8
MAIN1
  6
CONTINUOUS
 62
7
100
AcDbLine
 10
75.11664735956458
 20
159.1827559756582
 30
0.0000000000000000
 11
75.15011768386458
 21
158.7976547333582
 31
0.0000000000000000
  0
LINE
  5
3D5
100
AcDbEntity
  8
MAIN1
  6
CONTINUOUS
 62
7
100
AcDbLine
 10
75.15011768386472
 20
158.7976547333581
 30
0.0000000000000000
 11
75.09437534726473
 21
158.4134141900582
 31
0.0000000000000000
  0
LINE
  5
3D6
100
AcDbEntity
  8
MAIN1
  6
CONTINUOUS
 62
7
100
AcDbLine
 10
75.09437534726467
 20
158.4134141900578
 30
0.0000000000000000
 11
74.95041507296469
 21
158.0368911272579
 31
0.0000000000000000
  0
LINE
  5
3D7
100
AcDbEntity
  8
MAIN1
  6
CONTINUOUS
 62
7
100
AcDbLine
 10
74.95041507296460
 20
158.0368911272581
 30
0.0000000000000000
 11
74.72080583556448
 21
157.6748046078579
 31
0.0000000000000000
  0
LINE
  5
3D8
100
AcDbEntity
  8
MAIN1
  6
CONTINUOUS
 62
7
100
AcDbLine
 10
74.72080583556468
 20
157.6748046078584
 30
0.0000000000000000
 11
74.40964501736463
 21
157.3336160745584
 31
0.0000000000000000
  0
LINE
  5
3D9
100
AcDbEntity
  8
MAIN1
  6
CONTINUOUS
 62
7
100
AcDbLine
 10
74.40964501736451
 20
157.3336160745581
 30
0.0000000000000000
 11
74.02248529046437
 21
157.0194140447580
 31
0.0000000000000000
  0
LINE
  5
3DA
100
AcDbEntity
  8
MAIN1
  6
CONTINUOUS
 62
7
100
AcDbLine
 10
74.02248529046455
 20
157.0194140447582
 30
0.0000000000000000
 11
73.56623552936460
 21
156.7378054610582
 31
0.0000000000000000
  0
LINE
  5
3DB
100
AcDbEntity
  8
MAIN1
  6
CONTINUOUS
 62
7
100
AcDbLine
 10
73.56623552936466
 20
156.7378054610582
 30
0.0000000000000000
 11
73.04903752186465
 21
156.4938156352582
 31
0.0000000000000000
  0
LINE
  5
3DC
100
AcDbEntity
  8
MAIN1
  6
CONTINUOUS
 62
7
100
AcDbLine
 10
73.04903752186456
 20
156.4938156352581
 30
0.0000000000000000
 11
72.48012067876459
 21
156.2917985717582
 31
0.0000000000000000
  0
LINE
  5
3DD
100
AcDbEntity
  8
MAIN1
  6
CONTINUOUS
 62
7
100
AcDbLine
 10
72.48012067876471
 20
156.2917985717581
 30
0.0000000000000000
 11
71.86963733446427
 21
156.1353592697580
 31
0.0000000000000000
  0
LINE
  5
3DE
100
AcDbEntity
  8
MAIN1
  6
CONTINUOUS
 62
7
100
AcDbLine
 10
71.86963733446481
 20
156.1353592697581
 30
0.0000000000000000
 11
71.22848157876484
 21
156.0272893922582
 31
0.0000000000000000
  0
LINE
  5
3DF
100
AcDbEntity
  8
MAIN1
  6
CONTINUOUS
 62
7
100
AcDbLine
 10
71.22848157876479
 20
156.0272893922582
 30
0.0000000000000000
 11
70.56809485136472
 21
155.9695174487582
 31
0.0000000000000000
  0
LINE
  5
3E0
100
AcDbEntity
  8
MAIN1
  6
CONTINUOUS
 62
7
100
AcDbLine
 10
70.56809485136455
 20
155.9695174487582
 30
0.0000000000000000
 11
69.90026176906451
 21
155.9630743810582
 31
0.0000000000000000
  0
LINE
  5
3E1
100
AcDbEntity
  8
MAIN1
  6
CONTINUOUS
 62
7
100
AcDbLine
 10
69.90026176906471
 20
155.9630743810582
 30
0.0000000000000000
 11
69.23689982886472
 21
156.0080751658582
 31
0.0000000000000000
  0
LINE
  5
3E2
100
AcDbEntity
  8
MAIN1
  6
CONTINUOUS
 62
7
100
AcDbLine
 10
69.23689982886475
 20
156.0080751658582
 30
0.0000000000000000
 11
68.58984674046459
 21
156.1037167630582
 31
0.0000000000000000
  0
LINE
  5
3E3
100
AcDbEntity
  8
MAIN1
  6
CONTINUOUS
 62
7
100
AcDbLine
 10
68.58984674046491
 20
156.1037167630582
 30
0.0000000000000000
 11
67.97064918156488
 21
156.2482924460581
 31
0.0000000000000000
  0
LINE
  5
3E4
100
AcDbEntity
  8
MAIN1
  6
CONTINUOUS
 62
7
100
AcDbLine
 10
67.97064918156497
 20
156.2482924460582
 30
0.0000000000000000
 11
67.39035674716496
 21
156.4392222583582
 31
0.0000000000000000
  0
LINE
  5
3E5
100
AcDbEntity
  8
MAIN1
  6
CONTINUOUS
 62
7
100
AcDbLine
 10
67.39035674716493
 20
156.4392222583579
 30
0.0000000000000000
 11
66.85932476966482
 21
156.6730990529580
 31
0.0000000000000000
  0
LINE
  5
3E6
100
AcDbEntity
  8
MAIN1
  6
CONTINUOUS
 62
7
100
AcDbLine
 10
66.85932476966471
 20
156.6730990529581
 30
0.0000000000000000
 11
66.38702952706473
 21
156.9457492929581
 31
0.0000000000000000
  0
LINE
  5
3E7
100
AcDbEntity
  8
MAIN1
  6
CONTINUOUS
 62
7
100
AcDbLine
 10
66.38702952706464
 20
156.9457492929582
 30
0.0000000000000000
 11
65.98189913936463
 21
157.2523075283582
 31
0.0000000000000000
  0
LINE
  5
3E8
100
AcDbEntity
  8
MAIN1
  6
CONTINUOUS
 62
7
100
AcDbLine
 10
65.98189913936480
 20
157.2523075283583
 30
0.0000000000000000
 11
65.65116316776482
 21
157.5873032201583
 31
0.0000000000000000
  0
LINE
  5
3E9
100
AcDbEntity
  8
MAIN1
  6
CONTINUOUS
 62
7
100
AcDbLine
 10
65.65116316776471
 20
157.5873032201583
 30
0.0000000000000000
 11
65.40072360366476
 21
157.9447583622582
 31
0.0000000000000000
  0
LINE
  5
3EA
100
AcDbEntity
  8
MAIN1
  6
CONTINUOUS
 62
7
100
AcDbLine
 10
65.40072360366457
 20
157.9447583622581
 30
0.0000000000000000
 11
65.23504954696462
 21
158.3182941592581
 31
0.0000000000000000
  0
LINE
  5
3EB
100
AcDbEntity
  8
MAIN1
  6
CONTINUOUS
 62
7
100
AcDbLine
 10
65.23504954696458
 20
158.3182941592582
 30
0.0000000000000000
 11
65.15709745506459
 21
158.7012448559582
 31
0.0000000000000000
  0
LINE
  5
3EC
100
AcDbEntity
  8
MAIN1
  6
CONTINUOUS
 62
7
100
AcDbLine
 10
65.15709745506484
 20
158.7012448559582
 30
0.0000000000000000
 11
65.16825838496484
 21
159.0867766881583
 31
0.0000000000000000
  0
LINE
  5
3ED
100
AcDbEntity
  8
MAIN1
  6
CONTINUOUS
 62
7
100
AcDbLine
 10
65.16825838496462
 20
159.0867766881582
 30
0.0000000000000000
 11
65.26833316956464
 21
159.4680098310583
 31
0.0000000000000000
  0
LINE
  5
3EE
100
AcDbEntity
  8
MAIN1
  6
CONTINUOUS
 62
7
100
AcDbLine
 10
65.26833316956478
 20
159.4680098310582
 30
0.0000000000000000
 11
65.45553597196465
 21
159.8381411703579
 31
0.0000000000000000
  0
LINE
  5
3EF
100
AcDbEntity
  8
MAIN1
  6
CONTINUOUS
 62
7
100
AcDbLine
 10
65.45553597196481
 20
159.8381411703583
 30
0.0000000000000000
 11
65.72652615376477
 21
160.1905657034583
 31
0.0000000000000000
  0
LINE
  5
3F0
100
AcDbEntity
  8
MAIN1
  6
CONTINUOUS
 62
7
100
AcDbLine
 10
65.72652615376461
 20
160.1905657034580
 30
0.0000000000000000
 11
66.07646788866470
 21
160.5189944061580
 31
0.0000000000000000
  0
LINE
  5
3F1
100
AcDbEntity
  8
MAIN1
  6
CONTINUOUS
 62
7
100
AcDbLine
 10
66.07646788866461
 20
160.5189944061582
 30
0.0000000000000000
 11
66.47870902056459
 21
160.8048945707581
 31
0.0000000000000000
  0
ARC
  5
3F2
100
AcDbEntity
  8
MAIN1
  6
CONTINUOUS
 62
7
100
AcDbCircle
 10
70.15081577796468
 20
167.9585119994581
 30
0.0000000000000000
 40
7.768179644484184
100
AcDbArc
 50
244.3273159014000
 51
295.6726840986000
  0
ARC
  5
3F3
100
AcDbEntity
  8
MAIN1
  6
CONTINUOUS
 62
7
100
AcDbCircle
 10
70.15081577796468
 20
168.8258461436582
 30
0.0000000000000000
 40
8.537321897334840
100
AcDbArc
 50
246.9709414930000
 51
293.0290585070000
  0
LINE
  5
3F4
100
AcDbEntity
  8
MAIN1
  6
CONTINUOUS
 62
7
100
AcDbLine
 10
311.4822163692640
 20
95.62615386436886
 30
0.0000000000000000
 11
311.4822163692640
 21
91.12615386436886
 31
0.0000000000000000
  0
LINE
  5
3F5
100
AcDbEntity
  8
MAIN1
  6
CONTINUOUS
 62
7
100
AcDbLine
 10
367.4822163692640
 20
95.62615386436886
 30
0.0000000000000000
 11
311.4822163692640
 21
95.62615386436886
 31
0.0000000000000000
  0
LINE
  5
3F6
100
AcDbEntity
  8
MAIN1
  6
CONTINUOUS
 62
7
100
AcDbLine
 10
311.4822163692642
 20
95.62615386436875
 30
0.0000000000000000
 11
301.9822163692643
 21
101.1109814216687
 31
0.0000000000000000
  0
LINE
  5
3F7
100
AcDbEntity
  8
MAIN1
  6
CONTINUOUS
 62
7
100
AcDbLine
 10
367.4822163692640
 20
95.62615386436886
 30
0.0000000000000000
 11
367.4822163692640
 21
91.12615386436886
 31
0.0000000000000000
  0
LINE
  5
3F8
100
AcDbEntity
  8
MAIN1
  6
CONTINUOUS
 62
7
100
AcDbLine
 10
367.4822163692642
 20
95.62615386436904
 30
0.0000000000000000
 11
376.9822163692642
 21
101.1109814216690
 31
0.0000000000000000
  0
LINE
  5
3F9
100
AcDbEntity
  8
WAKU0
  6
CONTINUOUS
 62
3
100
AcDbLine
 10
240.0000000000000
 20
51.00000000000000
 30
0.0000000000000000
 11
410.0000000000000
 21
51.00000000000000
 31
0.0000000000000000
  0
LINE
  5
3FA
100
AcDbEntity
  8
WAKU0
  6
CONTINUOUS
 62
3
100
AcDbLine
 10
240.0000000000000
 20
51.00000000000000
 30
0.0000000000000000
 11
240.0000000000000
 21
12.00000000000000
 31
0.0000000000000000
  0
LINE
  5
3FB
100
AcDbEntity
  8
WAKU0
  6
CONTINUOUS
 62
3
100
AcDbLine
 10
312.0000000000000
 20
51.00000000000000
 30
0.0000000000000000
 11
312.0000000000000
 21
12.00000000000000
 31
0.0000000000000000
  0
LINE
  5
3FC
100
AcDbEntity
  8
WAKU0
  6
CONTINUOUS
 62
3
100
AcDbLine
 10
332.0000000000000
 20
51.00000000000000
 30
0.0000000000000000
 11
332.0000000000000
 21
12.00000000000000
 31
0.0000000000000000
  0
LINE
  5
3FD
100
AcDbEntity
  8
WAKU0
  6
CONTINUOUS
 62
3
100
AcDbLine
 10
344.0000000000000
 20
51.00000000000000
 30
0.0000000000000000
 11
344.0000000000000
 21
12.00000000000000
 31
0.0000000000000000
  0
LINE
  5
3FE
100
AcDbEntity
  8
WAKU0
  6
CONTINUOUS
 62
3
100
AcDbLine
 10
344.0000000000000
 20
37.00000000000000
 30
0.0000000000000000
 11
410.0000000000000
 21
37.00000000000000
 31
0.0000000000000000
  0
LINE
  5
3FF
100
AcDbEntity
  8
WAKU0
  6
CONTINUOUS
 62
3
100
AcDbLine
 10
332.0000000000000
 20
23.00000000000000
 30
0.0000000000000000
 11
410.0000000000000
 21
23.00000000000000
 31
0.0000000000000000
  0
LINE
  5
400
100
AcDbEntity
  8
WAKU0
  6
CONTINUOUS
 62
3
100
AcDbLine
 10
375.0000000000000
 20
51.00000000000000
 30
0.0000000000000000
 11
375.0000000000000
 21
44.00000000000000
 31
0.0000000000000000
  0
LINE
  5
401
100
AcDbEntity
  8
WAKU0
  6
CONTINUOUS
 62
3
100
AcDbLine
 10
387.0000000000000
 20
51.00000000000000
 30
0.0000000000000000
 11
387.0000000000000
 21
44.00000000000000
 31
0.0000000000000000
  0
LINE
  5
402
100
AcDbEntity
  8
WAKU0
  6
CONTINUOUS
 62
3
100
AcDbLine
 10
312.0000000000000
 20
31.50000000000000
 30
0.0000000000000000
 11
332.0000000000000
 21
31.50000000000000
 31
0.0000000000000000
  0
LINE
  5
403
100
AcDbEntity
  8
WAKU0
  6
CONTINUOUS
 62
3
100
AcDbLine
 10
332.0000000000000
 20
44.00000000000000
 30
0.0000000000000000
 11
410.0000000000000
 21
44.00000000000000
 31
0.0000000000000000
  0
LINE
  5
404
100
AcDbEntity
  8
WAKU0
  6
CONTINUOUS
 62
3
100
AcDbLine
 10
240.0000000000000
 20
37.00000000000000
 30
0.0000000000000000
 11
312.0000000000000
 21
37.00000000000000
 31
0.0000000000000000
  0
LINE
  5
405
100
AcDbEntity
  8
WAKU0
  6
CONTINUOUS
 62
3
100
AcDbLine
 10
240.0000000000000
 20
23.00000000000000
 30
0.0000000000000000
 11
312.0000000000000
 21
23.00000000000000
 31
0.0000000000000000
  0
LINE
  5
406
100
AcDbEntity
  8
WAKU0
  6
CONTINUOUS
 62
3
100
AcDbLine
 10
288.0000000000000
 20
37.00000000000000
 30
0.0000000000000000
 11
288.0000000000000
 21
12.00000000000000
 31
0.0000000000000000
  0
LINE
  5
407
100
AcDbEntity
  8
WAKU0
  6
CONTINUOUS
 62
3
100
AcDbLine
 10
264.0000000000000
 20
37.00000000000000
 30
0.0000000000000000
 11
264.0000000000000
 21
23.00000000000000
 31
0.0000000000000000
  0
LINE
  5
408
100
AcDbEntity
  8
WAKU0
  6
CONTINUOUS
 62
3
100
AcDbLine
 10
300.0000000000000
 20
26.00000000000000
 30
0.0000000000000000
 11
300.0000000000000
 21
23.00000000000000
 31
0.0000000000000000
  0
LINE
  5
409
100
AcDbEntity
  8
WAKU0
  6
CONTINUOUS
 62
3
100
AcDbLine
 10
276.0000000000000
 20
26.00000000000000
 30
0.0000000000000000
 11
276.0000000000000
 21
23.00000000000000
 31
0.0000000000000000
  0
LINE
  5
40A
100
AcDbEntity
  8
WAKU0
  6
CONTINUOUS
 62
3
100
AcDbLine
 10
252.0000000000000
 20
26.00000000000000
 30
0.0000000000000000
 11
252.0000000000000
 21
23.00000000000000
 31
0.0000000000000000
  0
LINE
  5
40B
100
AcDbEntity
  8
WAKU0
  6
CONTINUOUS
 62
3
100
AcDbLine
 10
258.0000000000000
 20
51.00000000000000
 30
0.0000000000000000
 11
258.0000000000000
 21
37.00000000000000
 31
0.0000000000000000
  0
LINE
  5
40C
100
AcDbEntity
  8
WAKU0
  6
CONTINUOUS
 62
3
100
AcDbLine
 10
240.0000000000000
 20
45.00000000000000
 30
0.0000000000000000
 11
312.0000000000000
 21
45.00000000000000
 31
0.0000000000000000
  0
LINE
  5
40D
100
AcDbEntity
  8
WAKU0
  6
HIDDEN
 62
3
100
AcDbLine
 10
360.5000000000000
 20
23.00000000000000
 30
0.0000000000000000
 11
360.5000000000000
 21
12.00000000000000
 31
0.0000000000000000
  0
LINE
  5
40E
100
AcDbEntity
  8
WAKU0
  6
HIDDEN
 62
3
100
AcDbLine
 10
372.9000000000000
 20
23.00000000000000
 30
0.0000000000000000
 11
372.9000000000000
 21
12.00000000000000
 31
0.0000000000000000
  0
MTEXT
  5
40F
100
AcDbEntity
  8
WAKU0
  6
CONTINUOUS
 62
3
100
AcDbMText
 10
356.3100002408028
 20
34.23333326975504
 30
0.0000000000000000
 40
3.099999904632568
 41
0.0000000000000000
 44
1.038709733984847
 71
     1
 72
     1
  1
{\H0.94x;{ハードジョー　フラット\PＨＡＲＤＪＡＷ　ＦＬＡＴ}}
 11
1.000000000000000
 21
0.0000000000000000
 31
0.0000000000000000
  7
KNJYOKO
  0
MTEXT
  5
410
100
AcDbEntity
  8
WAKU0
  6
CONTINUOUS
 62
3
100
AcDbMText
 10
353.5950012207031
 20
43.50000000000000
 30
0.0000000000000000
 40
3.000000000000000
 41
0.0000000000000000
 44
0.6000000000000000
 71
     1
 72
     1
  1
{\H0.94x;{センタリングバイス\PＣＥＮＴＥＲＩＮＧ　ＶＩＳＥ}}
 11
1.000000000000000
 21
0.0000000000000000
 31
0.0000000000000000
  7
KNJYOKO
  0
MTEXT
  5
411
100
AcDbEntity
  8
WAKU0
  6
CONTINUOUS
 62
3
100
AcDbMText
 10
349.9249997138977
 20
49.04999995231628
 30
0.0000000000000000
 40
3.099999904632568
 41
0.0000000000000000
 44
0.8806452252986423
 71
     1
 72
     1
  1
{\H0.92x;{V75V13C}}
 11
1.000000000000000
 21
0.0000000000000000
 31
0.0000000000000000
  7
STANDARD
  0
MTEXT
  5
412
100
AcDbEntity
  8
WAKU0
  6
CONTINUOUS
 62
3
100
AcDbMText
 10
318.0049998760223
 20
39.29999995231628
 30
0.0000000000000000
 40
3.099999904632568
 41
0.0000000000000000
 44
1.412903306188993
 71
     1
 72
     1
  1
{\H0.90x;{1:1}}
 11
1.000000000000000
 21
0.0000000000000000
 31
0.0000000000000000
  7
STANDARD
  0
MTEXT
  5
413
100
AcDbEntity
  8
WAKU0
  6
CONTINUOUS
 62
3
100
AcDbMText
 10
400.0000000819564
 20
44.84999990463257
 30
0.0000000000000000
 40
5.300000190734863
 41
0.0000000000000000
 44
0.6396226292871933
 71
     7
 72
     1
  1
{\H0.81x;{ }}
 11
1.000000000000000
 21
0.0000000000000000
 31
0.0000000000000000
  7
STANDARD
  0
MTEXT
  5
414
100
AcDbEntity
  8
WAKU0
  6
CONTINUOUS
 62
3
100
AcDbMText
 10
289.3850002884865
 20
33.00000000000000
 30
0.0000000000000000
 40
3.000000000000000
 41
0.0000000000000000
 44
0.7000000000000000
 71
     7
 72
     1
  1
{\H0.93x;{DRAWN BY}}
 11
1.000000000000000
 21
0.0000000000000000
 31
0.0000000000000000
  7
STANDARD
  0
MTEXT
  5
415
100
AcDbEntity
  8
WAKU0
  6
CONTINUOUS
 62
3
100
AcDbMText
 10
269.2149997949600
 20
32.95000004768372
 30
0.0000000000000000
 40
3.099999904632568
 41
0.0000000000000000
 44
0.6870967861020730
 71
     7
 72
     1
  1
{\H0.92x;{CHIEF}}
 11
1.000000000000000
 21
0.0000000000000000
 31
0.0000000000000000
  7
STANDARD
  0
MTEXT
  5
416
100
AcDbEntity
  8
WAKU0
  6
CONTINUOUS
 62
3
100
AcDbMText
 10
242.4249997138977
 20
32.95000004768372
 30
0.0000000000000000
 40
3.099999904632568
 41
0.0000000000000000
 44
0.6870967861020730
 71
     7
 72
     1
  1
{\H0.92x;{MANAGER}}
 11
1.000000000000000
 21
0.0000000000000000
 31
0.0000000000000000
  7
STANDARD
  0
MTEXT
  5
417
100
AcDbEntity
  8
WAKU0
  6
CONTINUOUS
 62
3
100
AcDbMText
 10
241.0850002169609
 20
46.50000000000000
 30
0.0000000000000000
 40
3.000000000000000
 41
0.0000000000000000
 44
0.8000000000000000
 71
     7
 72
     1
  1
{\H0.92x;{CAREER}}
 11
1.000000000000000
 21
0.0000000000000000
 31
0.0000000000000000
  7
STANDARD
  0
MTEXT
  5
418
100
AcDbEntity
  8
WAKU0
  6
CONTINUOUS
 62
3
100
AcDbMText
 10
294.6099998354912
 20
18.95000004768372
 30
0.0000000000000000
 40
3.099999904632568
 41
0.0000000000000000
 44
0.6870967861020730
 71
     7
 72
     1
  1
{\H0.91x;{DATE}}
 11
1.000000000000000
 21
0.0000000000000000
 31
0.0000000000000000
  7
STANDARD
  0
MTEXT
  5
419
100
AcDbEntity
  8
WAKU0
  6
CONTINUOUS
 62
3
100
AcDbMText
 10
313.9000002145767
 20
26.50000000000000
 30
0.0000000000000000
 40
3.000000000000000
 41
0.0000000000000000
 44
0.9000000000000000
 71
     7
 72
     1
  1
{\H0.63x;{3RD ANGLE}}
 11
1.000000000000000
 21
0.0000000000000000
 31
0.0000000000000000
  7
STANDARD
  0
MTEXT
  5
41A
100
AcDbEntity
  8
WAKU0
  6
CONTINUOUS
 62
3
100
AcDbMText
 10
315.2149997949600
 20
45.95000004768372
 30
0.0000000000000000
 40
3.099999904632568
 41
0.0000000000000000
 44
0.8806452252986423
 71
     7
 72
     1
  1
{\H0.92x;{SCALE}}
 11
1.000000000000000
 21
0.0000000000000000
 31
0.0000000000000000
  7
STANDARD
  0
MTEXT
  5
41B
100
AcDbEntity
  8
WAKU0
  6
CONTINUOUS
 62
3
100
AcDbMText
 10
405.7000000476837
 20
46.00000000000000
 30
0.0000000000000000
 40
3.000000000000000
 41
0.0000000000000000
 44
0.9000000000000000
 71
     7
 72
     1
  1
{\H0.63x;{kg}}
 11
1.000000000000000
 21
0.0000000000000000
 31
0.0000000000000000
  7
STANDARD
  0
MTEXT
  5
41C
100
AcDbEntity
  8
WAKU0
  6
CONTINUOUS
 62
3
100
AcDbMText
 10
375.6000001430512
 20
46.00000000000000
 30
0.0000000000000000
 40
3.000000000000000
 41
0.0000000000000000
 44
0.9000000000000000
 71
     7
 72
     1
  1
{\H0.63x;{WEIGHT}}
 11
1.000000000000000
 21
0.0000000000000000
 31
0.0000000000000000
  7
STANDARD
  0
MTEXT
  5
41D
100
AcDbEntity
  8
WAKU0
  6
CONTINUOUS
 62
3
100
AcDbMText
 10
334.0049998760223
 20
18.13333336512248
 30
0.0000000000000000
 40
3.099999904632568
 41
0.0000000000000000
 44
0.8451613409338102
 71
     7
 72
     1
  1
{\H0.90x;{DRW\PNO.}}
 11
1.000000000000000
 21
0.0000000000000000
 31
0.0000000000000000
  7
STANDARD
  0
MTEXT
  5
41E
100
AcDbEntity
  8
WAKU0
  6
CONTINUOUS
 62
3
100
AcDbMText
 10
332.6099998354912
 20
31.95000004768372
 30
0.0000000000000000
 40
3.099999904632568
 41
0.0000000000000000
 44
2.235483976655898
 71
     7
 72
     1
  1
{\H0.91x;{NAME}}
 11
1.000000000000000
 21
0.0000000000000000
 31
0.0000000000000000
  7
STANDARD
  0
MTEXT
  5
41F
100
AcDbEntity
  8
WAKU0
  6
CONTINUOUS
 62
3
100
AcDbMText
 10
332.6099998354912
 20
45.95000004768372
 30
0.0000000000000000
 40
3.099999904632568
 41
0.0000000000000000
 44
0.8806452252986423
 71
     7
 72
     1
  1
{\H0.91x;{TYPE}}
 11
1.000000000000000
 21
0.0000000000000000
 31
0.0000000000000000
  7
STANDARD
  0
LINE
  5
420
100
AcDbEntity
  8
WAKU0
  6
HIDDEN
 62
3
100
AcDbLine
 10
407.1599564743885
 20
13.84999990463257
 30
0.0000000000000000
 11
396.9400436209789
 21
13.84999990463257
 31
0.0000000000000000
  0
LINE
  5
421
100
AcDbEntity
  8
WAKU0
  6
HIDDEN
 62
3
100
AcDbLine
 10
407.1599564743885
 20
13.84999990463250
 30
0.0000000000000000
 11
402.0500000476852
 21
22.70070406014901
 31
0.0000000000000000
  0
LINE
  5
422
100
AcDbEntity
  8
WAKU0
  6
HIDDEN
 62
3
100
AcDbLine
 10
402.0500000476852
 20
22.70070406014902
 30
0.0000000000000000
 11
396.9400436209789
 21
13.84999990463248
 31
0.0000000000000000
  0
POINT
  5
423
100
AcDbEntity
  8
WAKU0
  6
CONTINUOUS
 62
3
100
AcDbPoint
 10
270.0000000000000
 20
51.00000000000000
 30
0.0000000000000000
  0
MTEXT
  5
424
100
AcDbEntity
  8
WAKU0
  6
CONTINUOUS
 62
3
100
AcDbMText
 10
247.0000009614873
 20
20.63471521698214
 30
0.0000000000000000
 40
3.140094041824341
 41
0.0000000000000000
 44
0.6677420288008611
 71
     1
 72
     1
  1
{\H0.83x;{Ｋｉｔａｇａｗａ\PＣｏｒｐｏｒａｔｉｏｎ}}
 11
1.000000000000000
 21
0.0000000000000000
 31
0.0000000000000000
  7
KNJYOKO
  0
MTEXT
  5
425
100
AcDbEntity
  8
WAKU0
  6
CONTINUOUS
 62
3
100
AcDbMText
 10
345.8007585188481
 20
19.67581068511193
 30
0.0000000000000000
 40
5.000000000000000
 41
0.0000000000000000
 44
0.6719999885559082
 71
     1
 72
     1
  1
{\H0.90x;{61M}}
 11
1.000000000000000
 21
0.0000000000000000
 31
0.0000000000000000
  7
STANDARD
  0
MTEXT
  5
426
100
AcDbEntity
  8
WAKU0
  6
CONTINUOUS
 62
3
100
AcDbMText
 10
399.9463124814263
 20
19.76730878004181
 30
0.0000000000000000
 40
5.000000000000000
 41
0.0000000000000000
 44
0.6719999885559082
 71
     1
 72
     1
  1
{\H0.82x;{1}}
 11
1.000000000000000
 21
0.0000000000000000
 31
0.0000000000000000
  7
STANDARD
  0
MTEXT
  5
427
100
AcDbEntity
  8
WAKU0
  6
CONTINUOUS
 62
3
100
AcDbMText
 10
362.6664914417560
 20
19.69764505559336
 30
0.0000000000000000
 40
5.000000000000000
 41
0.0000000000000000
 44
0.6719999885559082
 71
     1
 72
     1
  1
{\H0.88x;{85}}
 11
1.000000000000000
 21
0.0000000000000000
 31
0.0000000000000000
  7
STANDARD
  0
MTEXT
  5
428
100
AcDbEntity
  8
WAKU0
  6
CONTINUOUS
 62
3
100
AcDbMText
 10
375.5859130166996
 20
19.68554996813888
 30
0.0000000000000000
 40
5.000000000000000
 41
0.0000000000000000
 44
0.6719999885559082
 71
     1
 72
     1
  1
{\H0.91x;{6841}}
 11
1.000000000000000
 21
0.0000000000000000
 31
0.0000000000000000
  7
STANDARD
  0
INSERT
  5
465
100
AcDbEntity
  8
WAKU0
  6
CONTINUOUS
 62
2
100
AcDbBlockReference
  2
M0
 10
0.0000000000000000
 20
0.0000000000000000
 30
0.0000000000000000
 50
0.0000000000000000
  0
LINE
  5
466
100
AcDbEntity
  8
WAKU0
  6
CONTINUOUS
 62
3
100
AcDbLine
 10
336.0000000000000
 20
282.0000000000000
 30
0.0000000000000000
 11
336.0000000000000
 21
287.0000000000000
 31
0.0000000000000000
  0
LINE
  5
467
100
AcDbEntity
  8
WAKU0
  6
CONTINUOUS
 62
3
100
AcDbLine
 10
330.4713877753800
 20
15.78041421262812
 30
0.0000000000000000
 11
330.4713877753800
 21
21.78041421262815
 31
0.0000000000000000
  0
LINE
  5
468
100
AcDbEntity
  8
WAKU0
  6
CONTINUOUS
 62
3
100
AcDbLine
 10
323.9336941228225
 20
17.28041421262811
 30
0.0000000000000000
 11
323.9336941228225
 21
20.28041421262824
 31
0.0000000000000000
  0
LINE
  5
469
100
AcDbEntity
  8
WAKU0
  6
CENTER
 62
12
100
AcDbLine
 10
313.4321805514995
 20
18.78041421262813
 30
0.0000000000000000
 11
331.2765788964694
 21
18.78041421262813
 31
0.0000000000000000
  0
LINE
  5
46A
100
AcDbEntity
  8
WAKU0
  6
CENTER
 62
12
100
AcDbLine
 10
317.4474565857986
 20
14.55921662918448
 30
0.0000000000000000
 11
317.4474565857986
 21
22.89865102149943
 31
0.0000000000000000
  0
LINE
  5
46B
100
AcDbEntity
  8
WAKU0
  6
CONTINUOUS
 62
3
100
AcDbLine
 10
323.9336941228225
 20
20.28041421262797
 30
0.0000000000000000
 11
330.4713877753800
 21
21.78041421262795
 31
0.0000000000000000
  0
LINE
  5
46C
100
AcDbEntity
  8
WAKU0
  6
CONTINUOUS
 62
3
100
AcDbLine
 10
323.9336941228225
 20
17.28041421262811
 30
0.0000000000000000
 11
330.4713877753799
 21
15.78041421262812
 31
0.0000000000000000
  0
CIRCLE
  5
46D
100
AcDbEntity
  8
WAKU0
  6
CONTINUOUS
 62
3
100
AcDbCircle
 10
317.4474565857986
 20
18.78041421262813
 30
0.0000000000000000
 40
1.499999999999972
  0
CIRCLE
  5
46E
100
AcDbEntity
  8
WAKU0
  6
CONTINUOUS
 62
3
100
AcDbCircle
 10
317.4474565857986
 20
18.78041421262813
 30
0.0000000000000000
 40
2.999999999999979
  0
ENDSEC
  0
SECTION
  2
OBJECTS
  0
DICTIONARY
  5
4AF
100
AcDbDictionary
  3
ACAD_GROUP
350
4B0
  3
ACAD_LAYOUT
350
4B1
  3
ACAD_MLEADERSTYLE
350
4B2
  3
ACAD_MLINESTYLE
350
4B3
  0
DICTIONARY
  5
4B0
102
{ACAD_REACTORS
330
4AF
102
}
330
4AF
100
AcDbDictionary
  0
DICTIONARY
  5
4B1
102
{ACAD_REACTORS
330
4AF
102
}
330
4AF
100
AcDbDictionary
  3
Model
350
4B4
  3
ﾚｲｱｳﾄ1
350
4B5
  3
ﾚｲｱｳﾄ2
350
4B6
  0
DICTIONARY
  5
4B2
102
{ACAD_REACTORS
330
4AF
102
}
330
4AF
100
AcDbDictionary
  3
STANDARD
350
12F
  0
DICTIONARY
  5
4B3
102
{ACAD_REACTORS
330
4AF
102
}
330
4AF
100
AcDbDictionary
  3
STANDARD
350
4B7
  0
LAYOUT
  5
4B4
102
{ACAD_REACTORS
330
4B1
102
}
330
4B1
100
AcDbPlotSettings
 70
11952
  4
A3
 44
297.000000
 45
420.000000
 73
  1
 72
  1
100
AcDbLayout
  1
Model
 71
0
330
492
  0
LAYOUT
  5
4B5
102
{ACAD_REACTORS
330
4B1
102
}
330
4B1
100
AcDbPlotSettings
100
AcDbLayout
  1
ﾚｲｱｳﾄ1
 71
1
330
493
  0
LAYOUT
  5
4B6
102
{ACAD_REACTORS
330
4B1
102
}
330
4B1
100
AcDbPlotSettings
100
AcDbLayout
  1
ﾚｲｱｳﾄ2
 71
2
330
494
  0
MLEADERSTYLE
  5
12F
102
{ACAD_REACTORS
330
4B2
102
}
330
4B2
100
AcDbMLeaderStyle
170
     2
171
     1
172
     0
340
472
 92
    -2
290
     1
 42
2.00
291
     1
 43
8.00
  3
STANDARD
 44
2.00
342
131
174
     6
175
     6
 45
3.10
  0
MLINESTYLE
  5
4B7
102
{ACAD_REACTORS
330
4B3
102
}
330
4B3
100
AcDbMlineStyle
  2
STANDARD
 70
     0
  3

 62
   256
 51
90.00
 52
90.00
 71
     2
 49
0.50
 62
   256
  6
BYLAYER
 49
-0.50
 62
   256
  6
BYLAYER
  0
ENDSEC
  0
EOF
