  0
SECTION
  2
HEADER
  9
$ACADVER
  1
AC1014
  9
$DWGCODEPAGE
  3
ANSI_932
  9
$LTSCALE
 40
20.0
  9
$FILLMODE
 70
     1
  9
$CLAYER
  8
0
  9
$PDMODE
 70
     0
  9
$SPLFRAME
 70
     0
  9
$SPLINETYPE
 70
     6
  9
$SPLINESEGS
 70
     8
  9
$DIMASZ
 40
2.000000
  9
$DIMEXE
 40
2.000000
  9
$DIMEXO
 40
0.800000
  9
$DIMTAD
 70
     1
  9
$DIMTIH
 70
     0
  9
$DIMTOH
 70
     0
  9
$DIMTVP
 40
0.500000
  9
$DIMTXT
 40
3.100000
  9
$EXTMIN
 10
0.000000
 20
0.000000
 30
0.000000
  9
$EXTMAX
 10
420.000000
 20
594.000000
 30
0.000000
  9
$MEASUREMENT
 70
  1
  9
$LIMMIN
 10
0.000000
 20
0.000000
  9
$LIMMAX
 10
420.000000
 20
594.000000
  9
$HANDLING
 70
     1
  9
$HANDSEED
  5
49F
  9
$DIMBLK
  1
_OPEN
  9
$DIMDEC
 70
     3
  9
$DIMAUNIT
 70
     1
  9
$DIMZIN
 70
     8
  9
$DIMTOFL
 70
     1
  0
ENDSEC
  0
SECTION
  2
CLASSES
  0
ENDSEC
  0
SECTION
  2
TABLES
  0
TABLE
  2
VPORT
  5
44A
100
AcDbSymbolTable
 70
     1
  0
VPORT
  5
44B
100
AcDbSymbolTableRecord
100
AcDbViewportTableRecord
  2
*ACTIVE
 70
     0
 12
563.133764
 22
405.077916
 40
810.155833
 41
1.390186
  0
ENDTAB
  0
TABLE
  2
LTYPE
  5
44C
100
AcDbSymbolTable
 70
     3
  0
LTYPE
  5
44D
100
AcDbSymbolTableRecord
100
AcDbLinetypeTableRecord
  2
BYBLOCK
 70
     0
  3

 72
    65
 73
     0
 40
0.0
  0
LTYPE
  5
44E
100
AcDbSymbolTableRecord
100
AcDbLinetypeTableRecord
  2
BYLAYER
 70
     0
  3

 72
    65
 73
     0
 40
0.0
  0
LTYPE
  5
44F
100
AcDbSymbolTableRecord
100
AcDbLinetypeTableRecord
  2
CONTINUOUS
 70
     0
  3
Solid line (NEC CAE2D for Win R12.1 : 2014.02.18)
 72
    65
 73
     0
 40
0.0
  0
LTYPE
  5
450
100
AcDbSymbolTableRecord
100
AcDbLinetypeTableRecord
  2
HIDDEN
 70
     0
  3
__ __ __ __ __ __ __ __ __ __ __ __ __ __
 72
    65
 73
     2
 40
0.375
 49
0.25
 74
     0
 49
-0.125
 74
     0
  0
LTYPE
  5
451
100
AcDbSymbolTableRecord
100
AcDbLinetypeTableRecord
  2
CENTER
 70
     0
  3
____ _ ____ _ ____ _ ____ _ ____ _ ____
 72
    65
 73
     4
 40
2.0
 49
1.25
 74
     0
 49
-0.25
 74
     0
 49
0.25
 74
     0
 49
-0.25
 74
     0
  0
ENDTAB
  0
TABLE
  2
LAYER
  5
452
100
AcDbSymbolTable
 70
    14
  0
LAYER
  5
453
100
AcDbSymbolTableRecord
100
AcDbLayerTableRecord
  2
0
 70
     0
 62
     7
  6
CONTINUOUS
  0
LAYER
  5
454
100
AcDbSymbolTableRecord
100
AcDbLayerTableRecord
  2
MAIN0
 70
     0
 62
     7
  6
CONTINUOUS
  0
LAYER
  5
455
100
AcDbSymbolTableRecord
100
AcDbLayerTableRecord
  2
MAIN1
 70
     0
 62
     7
  6
CONTINUOUS
  0
LAYER
  5
456
100
AcDbSymbolTableRecord
100
AcDbLayerTableRecord
  2
MAIN2
 70
     0
 62
     7
  6
CONTINUOUS
  0
LAYER
  5
457
100
AcDbSymbolTableRecord
100
AcDbLayerTableRecord
  2
MAIN3
 70
     0
 62
     7
  6
CONTINUOUS
  0
LAYER
  5
458
100
AcDbSymbolTableRecord
100
AcDbLayerTableRecord
  2
MAIN4
 70
     0
 62
     7
  6
CONTINUOUS
  0
LAYER
  5
459
100
AcDbSymbolTableRecord
100
AcDbLayerTableRecord
  2
MAIN5
 70
     0
 62
     7
  6
CONTINUOUS
  0
LAYER
  5
45A
100
AcDbSymbolTableRecord
100
AcDbLayerTableRecord
  2
MAIN6
 70
     0
 62
     7
  6
CONTINUOUS
  0
LAYER
  5
45B
100
AcDbSymbolTableRecord
100
AcDbLayerTableRecord
  2
MAIN7
 70
     0
 62
     7
  6
CONTINUOUS
  0
LAYER
  5
45C
100
AcDbSymbolTableRecord
100
AcDbLayerTableRecord
  2
MAIN8
 70
     0
 62
     7
  6
CONTINUOUS
  0
LAYER
  5
45D
100
AcDbSymbolTableRecord
100
AcDbLayerTableRecord
  2
MAIN10
 70
     0
 62
     7
  6
CONTINUOUS
  0
LAYER
  5
45E
100
AcDbSymbolTableRecord
100
AcDbLayerTableRecord
  2
MAIN1023
 70
     0
 62
    16
  6
CONTINUOUS
  0
LAYER
  5
45F
100
AcDbSymbolTableRecord
100
AcDbLayerTableRecord
  2
WAKU0
 70
     0
 62
     7
  6
CONTINUOUS
  0
LAYER
  5
460
100
AcDbSymbolTableRecord
100
AcDbLayerTableRecord
  2
WAKU1023
 70
     0
 62
    16
  6
CONTINUOUS
  0
ENDTAB
  0
TABLE
  2
STYLE
  5
461
100
AcDbSymbolTable
 70
     4
  0
STYLE
  5
462
100
AcDbSymbolTableRecord
100
AcDbTextStyleTableRecord
  2
STANDARD
 70
    64
 40
0.0
 41
1.0
 50
0.0
 71
     0
 42
3.099999904632568
  3
TXT
  4

  0
STYLE
  5
463
100
AcDbSymbolTableRecord
100
AcDbTextStyleTableRecord
  2
ANKTATE
 70
    68
 40
0.0
 41
1.0
 50
0.0
 71
     0
 42
3.099999904632568
  3
TXT
  4

  0
STYLE
  5
E5
100
AcDbSymbolTableRecord
100
AcDbTextStyleTableRecord
  2
KNJYOKO
 70
    64
 40
0.0
 41
1.0
 50
0.0
 71
     0
 42
3.099999904632568
  3
TXT
  4
BIGFONT
  0
STYLE
  5
464
100
AcDbSymbolTableRecord
100
AcDbTextStyleTableRecord
  2
KNJTATE
 70
    68
 40
0.0
 41
1.0
 50
0.0
 71
     0
 42
3.099999904632568
  3
TXT
  4
BIGFONT
  0
ENDTAB
  0
TABLE
  2
VIEW
  5
465
100
AcDbSymbolTable
 70
     0
  0
ENDTAB
  0
TABLE
  2
UCS
  5
466
100
AcDbSymbolTable
 70
     0
  0
ENDTAB
  0
TABLE
  2
APPID
  5
467
100
AcDbSymbolTable
 70
     1
  0
APPID
  5
468
100
AcDbSymbolTableRecord
100
AcDbRegAppTableRecord
  2
ACAD
 70
     0
  0
ENDTAB
  0
TABLE
  2
DIMSTYLE
  5
469
100
AcDbSymbolTable
 70
     1
  0
DIMSTYLE
105
46A
100
AcDbSymbolTableRecord
100
AcDbDimStyleTableRecord
  2
STANDARD
 70
     0
 41
2.000000
 44
2.000000
 42
0.800000
145
0.661290
140
3.100000
144
1.000000
146
0.903226
340
462
  0
DIMSTYLE
105
46B
100
AcDbSymbolTableRecord
100
AcDbDimStyleTableRecord
  2
MAIN001
 70
     0
 41
4.000000
 44
4.000000
 42
1.600000
145
0.580645
140
6.200000
144
1.000000
146
0.903226
 77
     1
 73
     0
 74
     0
271
     3
275
     1
 78
     8
172
     1
340
462
  0
DIMSTYLE
105
46C
100
AcDbSymbolTableRecord
100
AcDbDimStyleTableRecord
  2
WAKU002
 70
     0
 41
2.000000
 44
2.000000
 42
0.800000
145
0.661290
140
3.100000
144
1.000000
146
0.903226
 77
     1
 73
     0
 74
     0
271
     3
275
     1
 78
     8
172
     1
340
462
  0
ENDTAB
  0
TABLE
  2
BLOCK_RECORD
  5
46D
100
AcDbSymbolTable
 70
    51
  0
BLOCK_RECORD
  5
46E
100
AcDbSymbolTableRecord
100
AcDbBlockTableRecord
  2
*MODEL_SPACE
  0
BLOCK_RECORD
  5
46F
100
AcDbSymbolTableRecord
100
AcDbBlockTableRecord
  2
*PAPER_SPACE
  0
BLOCK_RECORD
  5
1
100
AcDbSymbolTableRecord
100
AcDbBlockTableRecord
  2
_NONE
  0
BLOCK_RECORD
  5
4
100
AcDbSymbolTableRecord
100
AcDbBlockTableRecord
  2
_CLOSED
  0
BLOCK_RECORD
  5
B
100
AcDbSymbolTableRecord
100
AcDbBlockTableRecord
  2
_DOT
  0
BLOCK_RECORD
  5
13
100
AcDbSymbolTableRecord
100
AcDbBlockTableRecord
  2
_OPEN
  0
BLOCK_RECORD
  5
19
100
AcDbSymbolTableRecord
100
AcDbBlockTableRecord
  2
_ORIGIN
  0
BLOCK_RECORD
  5
1E
100
AcDbSymbolTableRecord
100
AcDbBlockTableRecord
  2
_OPEN30
  0
BLOCK_RECORD
  5
24
100
AcDbSymbolTableRecord
100
AcDbBlockTableRecord
  2
_BOXFILLED
  0
BLOCK_RECORD
  5
29
100
AcDbSymbolTableRecord
100
AcDbBlockTableRecord
  2
_BOXBLANK
  0
BLOCK_RECORD
  5
31
100
AcDbSymbolTableRecord
100
AcDbBlockTableRecord
  2
_OBLIQUE
  0
BLOCK_RECORD
  5
35
100
AcDbSymbolTableRecord
100
AcDbBlockTableRecord
  2
_OPEN90
  0
BLOCK_RECORD
  5
3B
100
AcDbSymbolTableRecord
100
AcDbBlockTableRecord
  2
_CLOSEDBLANK
  0
BLOCK_RECORD
  5
41
100
AcDbSymbolTableRecord
100
AcDbBlockTableRecord
  2
_DOTBLANK
  0
BLOCK_RECORD
  5
470
100
AcDbSymbolTableRecord
100
AcDbBlockTableRecord
  2
*D0
  0
BLOCK_RECORD
  5
471
100
AcDbSymbolTableRecord
100
AcDbBlockTableRecord
  2
*D1
  0
BLOCK_RECORD
  5
472
100
AcDbSymbolTableRecord
100
AcDbBlockTableRecord
  2
*D2
  0
BLOCK_RECORD
  5
473
100
AcDbSymbolTableRecord
100
AcDbBlockTableRecord
  2
*D3
  0
BLOCK_RECORD
  5
474
100
AcDbSymbolTableRecord
100
AcDbBlockTableRecord
  2
*D4
  0
BLOCK_RECORD
  5
475
100
AcDbSymbolTableRecord
100
AcDbBlockTableRecord
  2
*D5
  0
BLOCK_RECORD
  5
476
100
AcDbSymbolTableRecord
100
AcDbBlockTableRecord
  2
*D6
  0
BLOCK_RECORD
  5
477
100
AcDbSymbolTableRecord
100
AcDbBlockTableRecord
  2
*D7
  0
BLOCK_RECORD
  5
478
100
AcDbSymbolTableRecord
100
AcDbBlockTableRecord
  2
*D8
  0
BLOCK_RECORD
  5
479
100
AcDbSymbolTableRecord
100
AcDbBlockTableRecord
  2
*D9
  0
BLOCK_RECORD
  5
47A
100
AcDbSymbolTableRecord
100
AcDbBlockTableRecord
  2
*D10
  0
BLOCK_RECORD
  5
47B
100
AcDbSymbolTableRecord
100
AcDbBlockTableRecord
  2
*D11
  0
BLOCK_RECORD
  5
47C
100
AcDbSymbolTableRecord
100
AcDbBlockTableRecord
  2
*D12
  0
BLOCK_RECORD
  5
47D
100
AcDbSymbolTableRecord
100
AcDbBlockTableRecord
  2
*D13
  0
BLOCK_RECORD
  5
47E
100
AcDbSymbolTableRecord
100
AcDbBlockTableRecord
  2
*D14
  0
BLOCK_RECORD
  5
47F
100
AcDbSymbolTableRecord
100
AcDbBlockTableRecord
  2
*D15
  0
BLOCK_RECORD
  5
480
100
AcDbSymbolTableRecord
100
AcDbBlockTableRecord
  2
*D16
  0
BLOCK_RECORD
  5
481
100
AcDbSymbolTableRecord
100
AcDbBlockTableRecord
  2
*D17
  0
BLOCK_RECORD
  5
482
100
AcDbSymbolTableRecord
100
AcDbBlockTableRecord
  2
*D18
  0
BLOCK_RECORD
  5
483
100
AcDbSymbolTableRecord
100
AcDbBlockTableRecord
  2
*D19
  0
BLOCK_RECORD
  5
484
100
AcDbSymbolTableRecord
100
AcDbBlockTableRecord
  2
*D20
  0
BLOCK_RECORD
  5
485
100
AcDbSymbolTableRecord
100
AcDbBlockTableRecord
  2
*D21
  0
BLOCK_RECORD
  5
486
100
AcDbSymbolTableRecord
100
AcDbBlockTableRecord
  2
*D22
  0
BLOCK_RECORD
  5
487
100
AcDbSymbolTableRecord
100
AcDbBlockTableRecord
  2
*D23
  0
BLOCK_RECORD
  5
488
100
AcDbSymbolTableRecord
100
AcDbBlockTableRecord
  2
*D24
  0
BLOCK_RECORD
  5
489
100
AcDbSymbolTableRecord
100
AcDbBlockTableRecord
  2
*D25
  0
BLOCK_RECORD
  5
48A
100
AcDbSymbolTableRecord
100
AcDbBlockTableRecord
  2
*D26
  0
BLOCK_RECORD
  5
48B
100
AcDbSymbolTableRecord
100
AcDbBlockTableRecord
  2
*D27
  0
BLOCK_RECORD
  5
48C
100
AcDbSymbolTableRecord
100
AcDbBlockTableRecord
  2
*D28
  0
BLOCK_RECORD
  5
48D
100
AcDbSymbolTableRecord
100
AcDbBlockTableRecord
  2
*D29
  0
BLOCK_RECORD
  5
48E
100
AcDbSymbolTableRecord
100
AcDbBlockTableRecord
  2
*D30
  0
BLOCK_RECORD
  5
48F
100
AcDbSymbolTableRecord
100
AcDbBlockTableRecord
  2
*D31
  0
BLOCK_RECORD
  5
490
100
AcDbSymbolTableRecord
100
AcDbBlockTableRecord
  2
*D32
  0
BLOCK_RECORD
  5
491
100
AcDbSymbolTableRecord
100
AcDbBlockTableRecord
  2
D33
  0
BLOCK_RECORD
  5
492
100
AcDbSymbolTableRecord
100
AcDbBlockTableRecord
  2
*D34
  0
BLOCK_RECORD
  5
493
100
AcDbSymbolTableRecord
100
AcDbBlockTableRecord
  2
*D35
  0
BLOCK_RECORD
  5
494
100
AcDbSymbolTableRecord
100
AcDbBlockTableRecord
  2
M0
  0
BLOCK_RECORD
  5
495
100
AcDbSymbolTableRecord
100
AcDbBlockTableRecord
  2
M1
  0
BLOCK_RECORD
  5
496
100
AcDbSymbolTableRecord
100
AcDbBlockTableRecord
  2
M2
  0
ENDTAB
  0
ENDSEC
  0
SECTION
  2
BLOCKS
  0
BLOCK
  5
497
100
AcDbEntity
  8
0
100
AcDbBlockBegin
  2
*MODEL_SPACE
 70
     0
 10
0.0
 20
0.0
 30
0.0
  3
*MODEL_SPACE
  1

  0
ENDBLK
  5
498
100
AcDbEntity
  8
0
100
AcDbBlockEnd
  0
BLOCK
  5
499
100
AcDbEntity
  8
0
100
AcDbBlockBegin
  2
*PAPER_SPACE
 70
     0
 10
0.0
 20
0.0
 30
0.0
  3
*PAPER_SPACE
  1

  0
ENDBLK
  5
49A
100
AcDbEntity
  8
0
100
AcDbBlockEnd
  0
BLOCK
  5
2
100
AcDbEntity
  8
0
100
AcDbBlockBegin
  2
_NONE
 70
     0
 10
0.0
 20
0.0
 30
0.0
  3
_NONE
  1

  0
ENDBLK
  5
3
100
AcDbEntity
  8
0
100
AcDbBlockEnd
  0
BLOCK
  5
5
100
AcDbEntity
  8
0
100
AcDbBlockBegin
  2
_CLOSED
 70
     0
 10
0.0
 20
0.0
 30
0.0
  3
_CLOSED
  1

  0
LINE
  5
6
100
AcDbEntity
  8
0
  6
BYBLOCK
 62
     0
100
AcDbLine
 10
-1.0
 20
0.166667
 30
0.0
 11
0.0
 21
0.0
 31
0.0
  0
LINE
  5
7
100
AcDbEntity
  8
0
  6
BYBLOCK
 62
     0
100
AcDbLine
 10
0.0
 20
0.0
 30
0.0
 11
-1.0
 21
-0.166667
 31
0.0
  0
LINE
  5
8
100
AcDbEntity
  8
0
  6
BYBLOCK
 62
     0
100
AcDbLine
 10
-1.0
 20
0.166667
 30
0.0
 11
-1.0
 21
-0.166667
 31
0.0
  0
LINE
  5
9
100
AcDbEntity
  8
0
  6
BYBLOCK
 62
     0
100
AcDbLine
 10
0.0
 20
0.0
 30
0.0
 11
-1.0
 21
0.0
 31
0.0
  0
ENDBLK
  5
A
100
AcDbEntity
  8
0
100
AcDbBlockEnd
  0
BLOCK
  5
C
100
AcDbEntity
  8
0
100
AcDbBlockBegin
  2
_DOT
 70
     0
 10
0.0
 20
0.0
 30
0.0
  3
_DOT
  1

  0
POLYLINE
  5
D
100
AcDbEntity
  8
0
  6
BYBLOCK
 62
     0
100
AcDb2dPolyline
 66
     1
 10
0.0
 20
0.0
 30
0.0
 70
     1
 40
0.5
 41
0.5
  0
VERTEX
  5
E
100
AcDbEntity
  8
0
  6
BYBLOCK
 62
     0
100
AcDbVertex
100
AcDb2dVertex
 10
-0.25
 20
0.0
 30
0.0
 42
1.0
  0
VERTEX
  5
F
100
AcDbEntity
  8
0
  6
BYBLOCK
 62
     0
100
AcDbVertex
100
AcDb2dVertex
 10
0.25
 20
0.0
 30
0.0
 42
1.0
  0
SEQEND
  5
10
100
AcDbEntity
  8
0
  6
BYBLOCK
 62
     0
  0
LINE
  5
11
100
AcDbEntity
  8
0
  6
BYBLOCK
 62
     0
100
AcDbLine
 10
-0.5
 20
0.0
 30
0.0
 11
-1.0
 21
0.0
 31
0.0
  0
ENDBLK
  5
12
100
AcDbEntity
  8
0
100
AcDbBlockEnd
  0
BLOCK
  5
14
100
AcDbEntity
  8
0
100
AcDbBlockBegin
  2
_OPEN
 70
     0
 10
0.0
 20
0.0
 30
0.0
  3
_OPEN
  1

  0
LINE
  5
15
100
AcDbEntity
  8
0
  6
BYBLOCK
 62
     0
100
AcDbLine
 10
-1.0
 20
0.166667
 30
0.0
 11
0.0
 21
0.0
 31
0.0
  0
LINE
  5
16
100
AcDbEntity
  8
0
  6
BYBLOCK
 62
     0
100
AcDbLine
 10
0.0
 20
0.0
 30
0.0
 11
-1.0
 21
-0.166667
 31
0.0
  0
LINE
  5
17
100
AcDbEntity
  8
0
  6
BYBLOCK
 62
     0
100
AcDbLine
 10
0.0
 20
0.0
 30
0.0
 11
-1.0
 21
0.0
 31
0.0
  0
ENDBLK
  5
18
100
AcDbEntity
  8
0
100
AcDbBlockEnd
  0
BLOCK
  5
1A
100
AcDbEntity
  8
0
100
AcDbBlockBegin
  2
_ORIGIN
 70
     0
 10
0.0
 20
0.0
 30
0.0
  3
_ORIGIN
  1

  0
CIRCLE
  5
1B
100
AcDbEntity
  8
0
  6
BYBLOCK
 62
     0
100
AcDbCircle
 10
0.0
 20
0.0
 30
0.0
 40
0.5
  0
LINE
  5
1C
100
AcDbEntity
  8
0
  6
BYBLOCK
 62
     0
100
AcDbLine
 10
0.0
 20
0.0
 30
0.0
 11
-1.0
 21
0.0
 31
0.0
  0
ENDBLK
  5
1D
100
AcDbEntity
  8
0
100
AcDbBlockEnd
  0
BLOCK
  5
1F
100
AcDbEntity
  8
0
100
AcDbBlockBegin
  2
_OPEN30
 70
     0
 10
0.0
 20
0.0
 30
0.0
  3
_OPEN30
  1

  0
LINE
  5
20
100
AcDbEntity
  8
0
  6
BYBLOCK
 62
     0
100
AcDbLine
 10
-1.0
 20
0.267949
 30
0.0
 11
0.0
 21
0.0
 31
0.0
  0
LINE
  5
21
100
AcDbEntity
  8
0
  6
BYBLOCK
 62
     0
100
AcDbLine
 10
0.0
 20
0.0
 30
0.0
 11
-1.0
 21
-0.267949
 31
0.0
  0
LINE
  5
22
100
AcDbEntity
  8
0
  6
BYBLOCK
 62
     0
100
AcDbLine
 10
0.0
 20
0.0
 30
0.0
 11
-1.0
 21
0.0
 31
0.0
  0
ENDBLK
  5
23
100
AcDbEntity
  8
0
100
AcDbBlockEnd
  0
BLOCK
  5
25
100
AcDbEntity
  8
0
100
AcDbBlockBegin
  2
_BOXFILLED
 70
     0
 10
0.0
 20
0.0
 30
0.0
  3
_BOXFILLED
  1

  0
SOLID
  5
26
100
AcDbEntity
  8
0
  6
BYBLOCK
 62
     0
100
AcDbTrace
 10
-0.5
 20
0.5
 30
0.0
 11
0.5
 21
0.5
 31
0.0
 12
-0.5
 22
-0.5
 32
0.0
 13
0.5
 23
-0.5
 33
0.0
  0
LINE
  5
27
100
AcDbEntity
  8
0
  6
BYBLOCK
 62
     0
100
AcDbLine
 10
-0.5
 20
0.0
 30
0.0
 11
-1.0
 21
0.0
 31
0.0
  0
ENDBLK
  5
28
100
AcDbEntity
  8
0
100
AcDbBlockEnd
  0
BLOCK
  5
2A
100
AcDbEntity
  8
0
100
AcDbBlockBegin
  2
_BOXBLANK
 70
     0
 10
0.0
 20
0.0
 30
0.0
  3
_BOXBLANK
  1

  0
LINE
  5
2B
100
AcDbEntity
  8
0
  6
BYBLOCK
 62
     0
100
AcDbLine
 10
-0.5
 20
-0.5
 30
0.0
 11
0.5
 21
-0.5
 31
0.0
  0
LINE
  5
2C
100
AcDbEntity
  8
0
  6
BYBLOCK
 62
     0
100
AcDbLine
 10
0.5
 20
-0.5
 30
0.0
 11
0.5
 21
0.5
 31
0.0
  0
LINE
  5
2D
100
AcDbEntity
  8
0
  6
BYBLOCK
 62
     0
100
AcDbLine
 10
0.5
 20
0.5
 30
0.0
 11
-0.5
 21
0.5
 31
0.0
  0
LINE
  5
2E
100
AcDbEntity
  8
0
  6
BYBLOCK
 62
     0
100
AcDbLine
 10
-0.5
 20
0.5
 30
0.0
 11
-0.5
 21
-0.5
 31
0.0
  0
LINE
  5
2F
100
AcDbEntity
  8
0
  6
BYBLOCK
 62
     0
100
AcDbLine
 10
-0.5
 20
0.0
 30
0.0
 11
-1.0
 21
0.0
 31
0.0
  0
ENDBLK
  5
30
100
AcDbEntity
  8
0
100
AcDbBlockEnd
  0
BLOCK
  5
32
100
AcDbEntity
  8
0
100
AcDbBlockBegin
  2
_OBLIQUE
 70
     0
 10
0.0
 20
0.0
 30
0.0
  3
_OBLIQUE
  1

  0
LINE
  5
33
100
AcDbEntity
  8
0
  6
BYBLOCK
 62
     0
100
AcDbLine
 10
-0.5
 20
-0.5
 30
0.0
 11
0.5
 21
0.5
 31
0.0
  0
ENDBLK
  5
34
100
AcDbEntity
  8
0
100
AcDbBlockEnd
  0
BLOCK
  5
36
100
AcDbEntity
  8
0
100
AcDbBlockBegin
  2
_OPEN90
 70
     0
 10
0.0
 20
0.0
 30
0.0
  3
_OPEN90
  1

  0
LINE
  5
37
100
AcDbEntity
  8
0
  6
BYBLOCK
 62
     0
100
AcDbLine
 10
-0.5
 20
0.5
 30
0.0
 11
0.0
 21
0.0
 31
0.0
  0
LINE
  5
38
100
AcDbEntity
  8
0
  6
BYBLOCK
 62
     0
100
AcDbLine
 10
0.0
 20
0.0
 30
0.0
 11
-0.5
 21
-0.5
 31
0.0
  0
LINE
  5
39
100
AcDbEntity
  8
0
  6
BYBLOCK
 62
     0
100
AcDbLine
 10
0.0
 20
0.0
 30
0.0
 11
-1.0
 21
0.0
 31
0.0
  0
ENDBLK
  5
3A
100
AcDbEntity
  8
0
100
AcDbBlockEnd
  0
BLOCK
  5
3C
100
AcDbEntity
  8
0
100
AcDbBlockBegin
  2
_CLOSEDBLANK
 70
     0
 10
0.0
 20
0.0
 30
0.0
  3
_CLOSEDBLANK
  1

  0
LINE
  5
3D
100
AcDbEntity
  8
0
  6
BYBLOCK
 62
     0
100
AcDbLine
 10
-1.0
 20
0.1666666666666666
 30
0.0
 11
0.0
 21
0.0
 31
0.0
  0
LINE
  5
3E
100
AcDbEntity
  8
0
  6
BYBLOCK
 62
     0
100
AcDbLine
 10
0.0
 20
0.0
 30
0.0
 11
-1.0
 21
-0.1666666666666666
 31
0.0
  0
LINE
  5
3F
100
AcDbEntity
  8
0
  6
BYBLOCK
 62
     0
100
AcDbLine
 10
-1.0
 20
0.1666666666666666
 30
0.0
 11
-1.0
 21
-0.1666666666666666
 31
0.0
  0
ENDBLK
  5
40
100
AcDbEntity
  8
0
100
AcDbBlockEnd
  0
BLOCK
  5
42
100
AcDbEntity
  8
0
100
AcDbBlockBegin
  2
_DOTBLANK
 70
     0
 10
0.0
 20
0.0
 30
0.0
  3
_DOTBLANK
  1

  0
CIRCLE
  5
43
100
AcDbEntity
  8
0
  6
BYBLOCK
 62
     0
100
AcDbCircle
 10
0.0
 20
0.0
 30
0.0
 40
0.5
  0
LINE
  5
44
100
AcDbEntity
  8
0
  6
BYBLOCK
 62
     0
100
AcDbLine
 10
-0.5
 20
0.0
 30
0.0
 11
-1.0
 21
0.0
 31
0.0
  0
ENDBLK
  5
45
100
AcDbEntity
  8
0
100
AcDbBlockEnd
  0
BLOCK
  5
DC
100
AcDbEntity
  8
MAIN10
  6
CONTINUOUS
 62
3
100
AcDbBlockBegin
  2
*D0
 70
    65
 10
0.0
 20
0.0
 30
0.0
  0
LINE
  5
DD
100
AcDbEntity
  8
MAIN10
  6
BYBLOCK
 62
0
100
AcDbLine
 10
282.6955260251104
 20
686.0576083797940
 30
0.0000000000000000
 11
134.2955260489522
 21
686.0576083797940
 31
0.0000000000000000
  0
LINE
  5
DE
100
AcDbEntity
  8
MAIN10
  6
BYBLOCK
 62
0
100
AcDbLine
 10
138.2955260489522
 20
682.0576083797940
 30
0.0000000000000000
 11
138.2955260489522
 21
390.0576083797942
 31
0.0000000000000000
  0
INSERT
  5
DF
100
AcDbEntity
  8
MAIN10
  6
BYBLOCK
 62
0
100
AcDbBlockReference
  2
_OPEN
 10
138.2955260489522
 20
686.0576083797940
 30
0.0000000000000000
 41
4.000000000000000
 42
4.000000000000000
 43
4.000000000000000
 50
90.00000000000000
  0
INSERT
  5
E0
100
AcDbEntity
  8
MAIN10
  6
BYBLOCK
 62
0
100
AcDbBlockReference
  2
_OPEN
 10
138.2955260489522
 20
386.0576083797942
 30
0.0000000000000000
 41
4.000000000000000
 42
4.000000000000000
 43
4.000000000000000
 50
270.0000000000000
  0
LINE
  5
E1
100
AcDbEntity
  8
MAIN10
  6
BYBLOCK
 62
0
100
AcDbLine
 10
282.6955260251103
 20
386.0576083797942
 30
0.0000000000000000
 11
134.2955260489522
 21
386.0576083797942
 31
0.0000000000000000
  0
MTEXT
  5
E2
100
AcDbEntity
  8
MAIN10
  6
BYBLOCK
 62
0
100
AcDbMText
 10
134.6955261443196
 20
536.0576083611677
 30
0.0000000000000000
 40
6.199999809265137
 41
0.0000000000000000
 71
     5
 72
     1
  1
\A1;\U+2205300H6\H0.903226x;\S＋0.032^ 　0;
 11
6.123233995736766e-017
 21
1.000000000000000
 31
0.0000000000000000
  7
KNJYOKO
  0
ENDBLK
  5
E3
100
AcDbEntity
  8
MAIN10
  6
CONTINUOUS
 62
3
100
AcDbBlockEnd
  0
BLOCK
  5
E6
100
AcDbEntity
  8
MAIN10
  6
CONTINUOUS
 62
3
100
AcDbBlockBegin
  2
*D1
 70
    65
 10
0.0
 20
0.0
 30
0.0
  0
LINE
  5
E7
100
AcDbEntity
  8
MAIN10
  6
BYBLOCK
 62
0
100
AcDbLine
 10
286.2955260489522
 20
626.0576083797942
 30
0.0000000000000000
 11
237.2955260489522
 21
626.0576083797942
 31
0.0000000000000000
  0
INSERT
  5
E8
100
AcDbEntity
  8
MAIN10
  6
BYBLOCK
 62
0
100
AcDbBlockReference
  2
_OPEN
 10
290.2955260489522
 20
626.0576083797942
 30
0.0000000000000000
 41
4.000000000000000
 42
4.000000000000000
 43
4.000000000000000
 50
360.0000000000000
  0
INSERT
  5
E9
100
AcDbEntity
  8
MAIN10
  6
BYBLOCK
 62
0
100
AcDbBlockReference
  2
_OPEN
 10
233.2955260489522
 20
626.0576083797942
 30
0.0000000000000000
 41
4.000000000000000
 42
4.000000000000000
 43
4.000000000000000
 50
180.0000000000000
  0
LINE
  5
EA
100
AcDbEntity
  8
MAIN10
  6
BYBLOCK
 62
0
100
AcDbLine
 10
233.2955260489522
 20
563.1576084036360
 30
0.0000000000000000
 11
233.2955260489522
 21
630.0576083797942
 31
0.0000000000000000
  0
MTEXT
  5
EB
100
AcDbEntity
  8
MAIN10
  6
BYBLOCK
 62
0
100
AcDbMText
 10
261.7955260489522
 20
629.6576082844267
 30
0.0000000000000000
 40
6.199999809265137
 41
0.0000000000000000
 71
     5
 72
     1
  1
\A1;MIN 57
 11
1.000000000000000
 21
0.0000000000000000
 31
0.0000000000000000
  7
STANDARD
  0
ENDBLK
  5
EC
100
AcDbEntity
  8
MAIN10
  6
CONTINUOUS
 62
3
100
AcDbBlockEnd
  0
BLOCK
  5
EE
100
AcDbEntity
  8
MAIN10
  6
CONTINUOUS
 62
3
100
AcDbBlockBegin
  2
*D2
 70
    65
 10
0.0
 20
0.0
 30
0.0
  0
LINE
  5
EF
100
AcDbEntity
  8
MAIN10
  6
BYBLOCK
 62
0
100
AcDbLine
 10
233.2955260489522
 20
563.1576084036360
 30
0.0000000000000000
 11
233.2955260489522
 21
630.0576083797942
 31
0.0000000000000000
  0
LINE
  5
F0
100
AcDbEntity
  8
MAIN10
  6
BYBLOCK
 62
0
100
AcDbLine
 10
229.2955260489522
 20
626.0576083797942
 30
0.0000000000000000
 11
182.2955260489522
 21
626.0576083797942
 31
0.0000000000000000
  0
INSERT
  5
F1
100
AcDbEntity
  8
MAIN10
  6
BYBLOCK
 62
0
100
AcDbBlockReference
  2
_OPEN
 10
233.2955260489522
 20
626.0576083797942
 30
0.0000000000000000
 41
4.000000000000000
 42
4.000000000000000
 43
4.000000000000000
 50
360.0000000000000
  0
INSERT
  5
F2
100
AcDbEntity
  8
MAIN10
  6
BYBLOCK
 62
0
100
AcDbBlockReference
  2
_OPEN
 10
178.2955260489522
 20
626.0576083797942
 30
0.0000000000000000
 41
4.000000000000000
 42
4.000000000000000
 43
4.000000000000000
 50
180.0000000000000
  0
LINE
  5
F3
100
AcDbEntity
  8
MAIN10
  6
BYBLOCK
 62
0
100
AcDbLine
 10
178.2955260489522
 20
550.6576084036361
 30
0.0000000000000000
 11
178.2955260489522
 21
630.0576083797942
 31
0.0000000000000000
  0
MTEXT
  5
F4
100
AcDbEntity
  8
MAIN10
  6
BYBLOCK
 62
0
100
AcDbMText
 10
205.7955260489522
 20
629.6576082844267
 30
0.0000000000000000
 40
6.199999809265137
 41
0.0000000000000000
 71
     5
 72
     1
  1
\A1;55
 11
1.000000000000000
 21
0.0000000000000000
 31
0.0000000000000000
  7
STANDARD
  0
ENDBLK
  5
F5
100
AcDbEntity
  8
MAIN10
  6
CONTINUOUS
 62
3
100
AcDbBlockEnd
  0
BLOCK
  5
F7
100
AcDbEntity
  8
MAIN10
  6
CONTINUOUS
 62
3
100
AcDbBlockBegin
  2
*D3
 70
    65
 10
0.0
 20
0.0
 30
0.0
  0
LINE
  5
F8
100
AcDbEntity
  8
MAIN10
  6
BYBLOCK
 62
0
100
AcDbLine
 10
268.2955260489522
 20
566.6576084036358
 30
0.0000000000000000
 11
268.2955260489522
 21
600.0576083797942
 31
0.0000000000000000
  0
LINE
  5
F9
100
AcDbEntity
  8
MAIN10
  6
BYBLOCK
 62
0
100
AcDbLine
 10
264.2955260489522
 20
596.0576083797942
 30
0.0000000000000000
 11
237.2955260489522
 21
596.0576083797942
 31
0.0000000000000000
  0
INSERT
  5
FA
100
AcDbEntity
  8
MAIN10
  6
BYBLOCK
 62
0
100
AcDbBlockReference
  2
_OPEN
 10
268.2955260489522
 20
596.0576083797942
 30
0.0000000000000000
 41
4.000000000000000
 42
4.000000000000000
 43
4.000000000000000
 50
360.0000000000000
  0
INSERT
  5
FB
100
AcDbEntity
  8
MAIN10
  6
BYBLOCK
 62
0
100
AcDbBlockReference
  2
_OPEN
 10
233.2955260489522
 20
596.0576083797942
 30
0.0000000000000000
 41
4.000000000000000
 42
4.000000000000000
 43
4.000000000000000
 50
180.0000000000000
  0
LINE
  5
FC
100
AcDbEntity
  8
MAIN10
  6
BYBLOCK
 62
0
100
AcDbLine
 10
233.2955260489522
 20
563.1576084036360
 30
0.0000000000000000
 11
233.2955260489522
 21
600.0576083797942
 31
0.0000000000000000
  0
MTEXT
  5
FD
100
AcDbEntity
  8
MAIN10
  6
BYBLOCK
 62
0
100
AcDbMText
 10
250.7955260489522
 20
599.6576082844267
 30
0.0000000000000000
 40
6.199999809265137
 41
0.0000000000000000
 71
     5
 72
     1
  1
\A1;35
 11
1.000000000000000
 21
0.0000000000000000
 31
0.0000000000000000
  7
STANDARD
  0
ENDBLK
  5
FE
100
AcDbEntity
  8
MAIN10
  6
CONTINUOUS
 62
3
100
AcDbBlockEnd
  0
BLOCK
  5
100
100
AcDbEntity
  8
MAIN10
  6
CONTINUOUS
 62
3
100
AcDbBlockBegin
  2
*D4
 70
    65
 10
0.0
 20
0.0
 30
0.0
  0
LINE
  5
101
100
AcDbEntity
  8
MAIN10
  6
BYBLOCK
 62
0
100
AcDbLine
 10
258.2955260489522
 20
559.5576083797942
 30
0.0000000000000000
 11
258.2955260489522
 21
512.5576083797944
 31
0.0000000000000000
  0
INSERT
  5
102
100
AcDbEntity
  8
MAIN10
  6
BYBLOCK
 62
0
100
AcDbBlockReference
  2
_OPEN
 10
258.2955260489522
 20
563.5576083797942
 30
0.0000000000000000
 41
4.000000000000000
 42
4.000000000000000
 43
4.000000000000000
 50
90.00000000000000
  0
INSERT
  5
103
100
AcDbEntity
  8
MAIN10
  6
BYBLOCK
 62
0
100
AcDbBlockReference
  2
_OPEN
 10
258.2955260489522
 20
508.5576083797944
 30
0.0000000000000000
 41
4.000000000000000
 42
4.000000000000000
 43
4.000000000000000
 50
270.0000000000000
  0
MTEXT
  5
104
100
AcDbEntity
  8
MAIN10
  6
BYBLOCK
 62
0
100
AcDbMText
 10
254.6955261443196
 20
536.0576083797943
 30
0.0000000000000000
 40
6.199999809265137
 41
0.0000000000000000
 71
     5
 72
     1
  1
\A1;\U+220555
 11
6.123233995736766e-017
 21
1.000000000000000
 31
0.0000000000000000
  7
STANDARD
  0
ENDBLK
  5
105
100
AcDbEntity
  8
MAIN10
  6
CONTINUOUS
 62
3
100
AcDbBlockEnd
  0
BLOCK
  5
107
100
AcDbEntity
  8
MAIN10
  6
CONTINUOUS
 62
3
100
AcDbBlockBegin
  2
*D5
 70
    65
 10
0.0
 20
0.0
 30
0.0
  0
LINE
  5
108
100
AcDbEntity
  8
MAIN10
  6
BYBLOCK
 62
0
100
AcDbLine
 10
288.2955260489522
 20
562.0576083797939
 30
0.0000000000000000
 11
288.2955260489522
 21
510.0576083797942
 31
0.0000000000000000
  0
INSERT
  5
109
100
AcDbEntity
  8
MAIN10
  6
BYBLOCK
 62
0
100
AcDbBlockReference
  2
_OPEN
 10
288.2955260489522
 20
566.0576083797939
 30
0.0000000000000000
 41
4.000000000000000
 42
4.000000000000000
 43
4.000000000000000
 50
90.00000000000000
  0
INSERT
  5
10A
100
AcDbEntity
  8
MAIN10
  6
BYBLOCK
 62
0
100
AcDbBlockReference
  2
_OPEN
 10
288.2955260489522
 20
506.0576083797942
 30
0.0000000000000000
 41
4.000000000000000
 42
4.000000000000000
 43
4.000000000000000
 50
270.0000000000000
  0
MTEXT
  5
10B
100
AcDbEntity
  8
MAIN10
  6
BYBLOCK
 62
0
100
AcDbMText
 10
284.6955261443196
 20
536.0576083797940
 30
0.0000000000000000
 40
6.199999809265137
 41
0.0000000000000000
 71
     5
 72
     1
  1
\A1;\U+220560
 11
6.123233995736766e-017
 21
1.000000000000000
 31
0.0000000000000000
  7
STANDARD
  0
ENDBLK
  5
10C
100
AcDbEntity
  8
MAIN10
  6
CONTINUOUS
 62
3
100
AcDbBlockEnd
  0
BLOCK
  5
10E
100
AcDbEntity
  8
MAIN10
  6
CONTINUOUS
 62
3
100
AcDbBlockBegin
  2
*D6
 70
    65
 10
0.0
 20
0.0
 30
0.0
  0
LINE
  5
10F
100
AcDbEntity
  8
MAIN10
  6
BYBLOCK
 62
0
100
AcDbLine
 10
313.2955260489522
 20
571.0576083797940
 30
0.0000000000000000
 11
313.2955260489522
 21
501.0576083797942
 31
0.0000000000000000
  0
INSERT
  5
110
100
AcDbEntity
  8
MAIN10
  6
BYBLOCK
 62
0
100
AcDbBlockReference
  2
_OPEN
 10
313.2955260489522
 20
575.0576083797940
 30
0.0000000000000000
 41
4.000000000000000
 42
4.000000000000000
 43
4.000000000000000
 50
90.00000000000000
  0
INSERT
  5
111
100
AcDbEntity
  8
MAIN10
  6
BYBLOCK
 62
0
100
AcDbBlockReference
  2
_OPEN
 10
313.2955260489522
 20
497.0576083797942
 30
0.0000000000000000
 41
4.000000000000000
 42
4.000000000000000
 43
4.000000000000000
 50
270.0000000000000
  0
MTEXT
  5
112
100
AcDbEntity
  8
MAIN10
  6
BYBLOCK
 62
0
100
AcDbMText
 10
309.6955261443196
 20
536.0576083797942
 30
0.0000000000000000
 40
6.199999809265137
 41
0.0000000000000000
 71
     5
 72
     1
  1
\A1;\U+220578
 11
6.123233995736766e-017
 21
1.000000000000000
 31
0.0000000000000000
  7
STANDARD
  0
ENDBLK
  5
113
100
AcDbEntity
  8
MAIN10
  6
CONTINUOUS
 62
3
100
AcDbBlockEnd
  0
BLOCK
  5
11A
100
AcDbEntity
  8
MAIN10
  6
CONTINUOUS
 62
3
100
AcDbBlockBegin
  2
*D7
 70
    65
 10
0.0
 20
0.0
 30
0.0
  0
LINE
  5
11B
100
AcDbEntity
  8
MAIN10
  6
BYBLOCK
 62
0
100
AcDbLine
 10
294.2955260489522
 20
476.0576083797942
 30
0.0000000000000000
 11
321.2955260489522
 21
476.0576083797942
 31
0.0000000000000000
  0
INSERT
  5
11C
100
AcDbEntity
  8
MAIN10
  6
BYBLOCK
 62
0
100
AcDbBlockReference
  2
_OPEN
 10
290.2955260489522
 20
476.0576083797942
 30
0.0000000000000000
 41
4.000000000000000
 42
4.000000000000000
 43
4.000000000000000
 50
180.0000000000000
  0
INSERT
  5
11D
100
AcDbEntity
  8
MAIN10
  6
BYBLOCK
 62
0
100
AcDbBlockReference
  2
_OPEN
 10
325.2955260489522
 20
476.0576083797942
 30
0.0000000000000000
 41
4.000000000000000
 42
4.000000000000000
 43
4.000000000000000
 50
0.0000000000000000
  0
MTEXT
  5
11E
100
AcDbEntity
  8
MAIN10
  6
BYBLOCK
 62
0
100
AcDbMText
 10
307.7955260489522
 20
479.6576082844267
 30
0.0000000000000000
 40
6.199999809265137
 41
0.0000000000000000
 71
     5
 72
     1
  1
\A1;35
 11
1.000000000000000
 21
0.0000000000000000
 31
0.0000000000000000
  7
STANDARD
  0
ENDBLK
  5
11F
100
AcDbEntity
  8
MAIN10
  6
CONTINUOUS
 62
3
100
AcDbBlockEnd
  0
BLOCK
  5
123
100
AcDbEntity
  8
MAIN10
  6
CONTINUOUS
 62
3
100
AcDbBlockBegin
  2
*D8
 70
    65
 10
0.0
 20
0.0
 30
0.0
  0
LINE
  5
124
100
AcDbEntity
  8
MAIN10
  6
BYBLOCK
 62
0
100
AcDbLine
 10
260.2955260489522
 20
406.9576083559526
 30
0.0000000000000000
 11
260.2955260489522
 21
392.0576083797942
 31
0.0000000000000000
  0
LINE
  5
125
100
AcDbEntity
  8
MAIN10
  6
BYBLOCK
 62
0
100
AcDbLine
 10
264.2955260489522
 20
396.0576083797942
 30
0.0000000000000000
 11
286.2955260489522
 21
396.0576083797942
 31
0.0000000000000000
  0
INSERT
  5
126
100
AcDbEntity
  8
MAIN10
  6
BYBLOCK
 62
0
100
AcDbBlockReference
  2
_OPEN
 10
260.2955260489522
 20
396.0576083797942
 30
0.0000000000000000
 41
4.000000000000000
 42
4.000000000000000
 43
4.000000000000000
 50
180.0000000000000
  0
INSERT
  5
127
100
AcDbEntity
  8
MAIN10
  6
BYBLOCK
 62
0
100
AcDbBlockReference
  2
_OPEN
 10
290.2955260489522
 20
396.0576083797942
 30
0.0000000000000000
 41
4.000000000000000
 42
4.000000000000000
 43
4.000000000000000
 50
0.0000000000000000
  0
MTEXT
  5
128
100
AcDbEntity
  8
MAIN10
  6
BYBLOCK
 62
0
100
AcDbMText
 10
275.2955260489522
 20
399.6576082844267
 30
0.0000000000000000
 40
6.199999809265137
 41
0.0000000000000000
 71
     5
 72
     1
  1
\A1;30
 11
1.000000000000000
 21
0.0000000000000000
 31
0.0000000000000000
  7
STANDARD
  0
ENDBLK
  5
129
100
AcDbEntity
  8
MAIN10
  6
CONTINUOUS
 62
3
100
AcDbBlockEnd
  0
BLOCK
  5
12B
100
AcDbEntity
  8
MAIN10
  6
CONTINUOUS
 62
3
100
AcDbBlockBegin
  2
*D9
 70
    65
 10
0.0
 20
0.0
 30
0.0
  0
LINE
  5
12C
100
AcDbEntity
  8
MAIN10
  6
BYBLOCK
 62
0
100
AcDbLine
 10
284.2955260489522
 20
356.0576083797942
 30
0.0000000000000000
 11
290.2955260489522
 21
356.0576083797942
 31
0.0000000000000000
  0
INSERT
  5
12D
100
AcDbEntity
  8
MAIN10
  6
BYBLOCK
 62
0
100
AcDbBlockReference
  2
_OPEN
 10
284.2955260489522
 20
356.0576083797942
 30
0.0000000000000000
 41
4.000000000000000
 42
4.000000000000000
 43
4.000000000000000
 50
0.0000000000000000
  0
INSERT
  5
12E
100
AcDbEntity
  8
MAIN10
  6
BYBLOCK
 62
0
100
AcDbBlockReference
  2
_OPEN
 10
290.2955260489522
 20
356.0576083797942
 30
0.0000000000000000
 41
4.000000000000000
 42
4.000000000000000
 43
4.000000000000000
 50
180.0000000000000
  0
LINE
  5
12F
100
AcDbEntity
  8
MAIN10
  6
BYBLOCK
 62
0
100
AcDbLine
 10
280.2955260489522
 20
356.0576083797942
 30
0.0000000000000000
 11
278.2955260489522
 21
356.0576083797942
 31
0.0000000000000000
  0
LINE
  5
130
100
AcDbEntity
  8
MAIN10
  6
BYBLOCK
 62
0
100
AcDbLine
 10
294.2955260489522
 20
356.0576083797942
 30
0.0000000000000000
 11
297.0054007828553
 21
356.0576083797942
 31
0.0000000000000000
  0
LINE
  5
131
100
AcDbEntity
  8
MAIN10
  6
BYBLOCK
 62
0
100
AcDbLine
 10
290.2955260489522
 20
384.4576083559524
 30
0.0000000000000000
 11
290.2955260489522
 21
352.0576083797942
 31
0.0000000000000000
  0
MTEXT
  5
132
100
AcDbEntity
  8
MAIN10
  6
BYBLOCK
 62
0
100
AcDbMText
 10
295.0054007828553
 20
360.1576082844267
 30
0.0000000000000000
 40
6.199999809265137
 41
0.0000000000000000
 71
     5
 72
     1
  1
\A1;6
 11
1.000000000000000
 21
0.0000000000000000
 31
0.0000000000000000
  7
STANDARD
  0
ENDBLK
  5
133
100
AcDbEntity
  8
MAIN10
  6
CONTINUOUS
 62
3
100
AcDbBlockEnd
  0
BLOCK
  5
135
100
AcDbEntity
  8
MAIN10
  6
CONTINUOUS
 62
3
100
AcDbBlockBegin
  2
*D10
 70
    65
 10
0.0
 20
0.0
 30
0.0
  0
LINE
  5
136
100
AcDbEntity
  8
MAIN10
  6
BYBLOCK
 62
0
100
AcDbLine
 10
393.3955260727939
 20
434.5576083797944
 30
0.0000000000000000
 11
432.2955260489522
 21
434.5576083797944
 31
0.0000000000000000
  0
LINE
  5
137
100
AcDbEntity
  8
MAIN10
  6
BYBLOCK
 62
0
100
AcDbLine
 10
428.2955260489522
 20
430.5576083797944
 30
0.0000000000000000
 11
428.2955260489522
 21
406.5576083797947
 31
0.0000000000000000
  0
INSERT
  5
138
100
AcDbEntity
  8
MAIN10
  6
BYBLOCK
 62
0
100
AcDbBlockReference
  2
_OPEN
 10
428.2955260489522
 20
434.5576083797944
 30
0.0000000000000000
 41
4.000000000000000
 42
4.000000000000000
 43
4.000000000000000
 50
90.00000000000000
  0
INSERT
  5
139
100
AcDbEntity
  8
MAIN10
  6
BYBLOCK
 62
0
100
AcDbBlockReference
  2
_OPEN
 10
428.2955260489522
 20
402.5576083797947
 30
0.0000000000000000
 41
4.000000000000000
 42
4.000000000000000
 43
4.000000000000000
 50
270.0000000000000
  0
LINE
  5
13A
100
AcDbEntity
  8
MAIN10
  6
BYBLOCK
 62
0
100
AcDbLine
 10
399.8955260727939
 20
402.5576083797947
 30
0.0000000000000000
 11
432.2955260489522
 21
402.5576083797947
 31
0.0000000000000000
  0
MTEXT
  5
13B
100
AcDbEntity
  8
MAIN10
  6
BYBLOCK
 62
0
100
AcDbMText
 10
424.6955261443196
 20
418.5576083797945
 30
0.0000000000000000
 40
6.199999809265137
 41
0.0000000000000000
 71
     5
 72
     1
  1
\A1;\U+220532
 11
6.123233995736766e-017
 21
1.000000000000000
 31
0.0000000000000000
  7
STANDARD
  0
ENDBLK
  5
13C
100
AcDbEntity
  8
MAIN10
  6
CONTINUOUS
 62
3
100
AcDbBlockEnd
  0
BLOCK
  5
13E
100
AcDbEntity
  8
MAIN10
  6
CONTINUOUS
 62
3
100
AcDbBlockBegin
  2
*D11
 70
    65
 10
0.0
 20
0.0
 30
0.0
  0
LINE
  5
13F
100
AcDbEntity
  8
MAIN10
  6
BYBLOCK
 62
0
100
AcDbLine
 10
375.2955260489522
 20
400.9576083559529
 30
0.0000000000000000
 11
375.2955260489522
 21
382.0576083797942
 31
0.0000000000000000
  0
LINE
  5
140
100
AcDbEntity
  8
MAIN10
  6
BYBLOCK
 62
0
100
AcDbLine
 10
379.2955260489522
 20
386.0576083797942
 30
0.0000000000000000
 11
394.2955260489521
 21
386.0576083797942
 31
0.0000000000000000
  0
INSERT
  5
141
100
AcDbEntity
  8
MAIN10
  6
BYBLOCK
 62
0
100
AcDbBlockReference
  2
_OPEN
 10
375.2955260489522
 20
386.0576083797942
 30
0.0000000000000000
 41
4.000000000000000
 42
4.000000000000000
 43
4.000000000000000
 50
180.0000000000000
  0
INSERT
  5
142
100
AcDbEntity
  8
MAIN10
  6
BYBLOCK
 62
0
100
AcDbBlockReference
  2
_OPEN
 10
398.2955260489521
 20
386.0576083797942
 30
0.0000000000000000
 41
4.000000000000000
 42
4.000000000000000
 43
4.000000000000000
 50
0.0000000000000000
  0
MTEXT
  5
143
100
AcDbEntity
  8
MAIN10
  6
BYBLOCK
 62
0
100
AcDbMText
 10
386.7955260489522
 20
389.6576082844267
 30
0.0000000000000000
 40
6.199999809265137
 41
0.0000000000000000
 71
     5
 72
     1
  1
\A1;23
 11
1.000000000000000
 21
0.0000000000000000
 31
0.0000000000000000
  7
STANDARD
  0
ENDBLK
  5
144
100
AcDbEntity
  8
MAIN10
  6
CONTINUOUS
 62
3
100
AcDbBlockEnd
  0
BLOCK
  5
146
100
AcDbEntity
  8
MAIN10
  6
CONTINUOUS
 62
3
100
AcDbBlockBegin
  2
*D12
 70
    65
 10
0.0
 20
0.0
 30
0.0
  0
LINE
  5
147
100
AcDbEntity
  8
MAIN10
  6
BYBLOCK
 62
0
100
AcDbLine
 10
343.2955260489522
 20
305.0723477334399
 30
0.0000000000000000
 11
343.2955260489522
 21
282.0576083797942
 31
0.0000000000000000
  0
LINE
  5
148
100
AcDbEntity
  8
MAIN10
  6
BYBLOCK
 62
0
100
AcDbLine
 10
347.2955260489522
 20
286.0576083797942
 30
0.0000000000000000
 11
394.2955260489521
 21
286.0576083797942
 31
0.0000000000000000
  0
INSERT
  5
149
100
AcDbEntity
  8
MAIN10
  6
BYBLOCK
 62
0
100
AcDbBlockReference
  2
_OPEN
 10
343.2955260489522
 20
286.0576083797942
 30
0.0000000000000000
 41
4.000000000000000
 42
4.000000000000000
 43
4.000000000000000
 50
180.0000000000000
  0
INSERT
  5
14A
100
AcDbEntity
  8
MAIN10
  6
BYBLOCK
 62
0
100
AcDbBlockReference
  2
_OPEN
 10
398.2955260489521
 20
286.0576083797942
 30
0.0000000000000000
 41
4.000000000000000
 42
4.000000000000000
 43
4.000000000000000
 50
0.0000000000000000
  0
LINE
  5
14B
100
AcDbEntity
  8
MAIN10
  6
BYBLOCK
 62
0
100
AcDbLine
 10
398.2955260489521
 20
312.5444753019680
 30
0.0000000000000000
 11
398.2955260489521
 21
282.0576083797942
 31
0.0000000000000000
  0
MTEXT
  5
14C
100
AcDbEntity
  8
MAIN10
  6
BYBLOCK
 62
0
100
AcDbMText
 10
370.7955260489522
 20
289.6576082844267
 30
0.0000000000000000
 40
6.199999809265137
 41
0.0000000000000000
 71
     5
 72
     1
  1
\A1;55
 11
1.000000000000000
 21
0.0000000000000000
 31
0.0000000000000000
  7
STANDARD
  0
ENDBLK
  5
14D
100
AcDbEntity
  8
MAIN10
  6
CONTINUOUS
 62
3
100
AcDbBlockEnd
  0
BLOCK
  5
14F
100
AcDbEntity
  8
MAIN10
  6
CONTINUOUS
 62
3
100
AcDbBlockBegin
  2
*D13
 70
    65
 10
0.0
 20
0.0
 30
0.0
  0
LINE
  5
150
100
AcDbEntity
  8
MAIN10
  6
BYBLOCK
 62
0
100
AcDbLine
 10
398.2955260489521
 20
312.5444753019680
 30
0.0000000000000000
 11
398.2955260489521
 21
262.0576083797942
 31
0.0000000000000000
  0
LINE
  5
151
100
AcDbEntity
  8
MAIN10
  6
BYBLOCK
 62
0
100
AcDbLine
 10
394.2955260489521
 20
266.0576083797942
 30
0.0000000000000000
 11
288.2955260489522
 21
266.0576083797942
 31
0.0000000000000000
  0
INSERT
  5
152
100
AcDbEntity
  8
MAIN10
  6
BYBLOCK
 62
0
100
AcDbBlockReference
  2
_OPEN
 10
398.2955260489521
 20
266.0576083797942
 30
0.0000000000000000
 41
4.000000000000000
 42
4.000000000000000
 43
4.000000000000000
 50
360.0000000000000
  0
INSERT
  5
153
100
AcDbEntity
  8
MAIN10
  6
BYBLOCK
 62
0
100
AcDbBlockReference
  2
_OPEN
 10
284.2955260489522
 20
266.0576083797942
 30
0.0000000000000000
 41
4.000000000000000
 42
4.000000000000000
 43
4.000000000000000
 50
180.0000000000000
  0
LINE
  5
154
100
AcDbEntity
  8
MAIN10
  6
BYBLOCK
 62
0
100
AcDbLine
 10
284.2955260489522
 20
312.4576083559523
 30
0.0000000000000000
 11
284.2955260489522
 21
262.0576083797942
 31
0.0000000000000000
  0
MTEXT
  5
155
100
AcDbEntity
  8
MAIN10
  6
BYBLOCK
 62
0
100
AcDbMText
 10
341.2955260489522
 20
269.6576082844267
 30
0.0000000000000000
 40
6.199999809265137
 41
0.0000000000000000
 71
     5
 72
     1
  1
\A1;114
 11
1.000000000000000
 21
0.0000000000000000
 31
0.0000000000000000
  7
STANDARD
  0
ENDBLK
  5
156
100
AcDbEntity
  8
MAIN10
  6
CONTINUOUS
 62
3
100
AcDbBlockEnd
  0
BLOCK
  5
15A
100
AcDbEntity
  8
MAIN10
  6
CONTINUOUS
 62
3
100
AcDbBlockBegin
  2
*D14
 70
    65
 10
0.0
 20
0.0
 30
0.0
  0
LINE
  5
15B
100
AcDbEntity
  8
MAIN10
  6
BYBLOCK
 62
0
100
AcDbLine
 10
399.8955260727939
 20
184.4425665943791
 30
0.0000000000000000
 11
462.2955260489522
 21
184.4425665943791
 31
0.0000000000000000
  0
LINE
  5
15C
100
AcDbEntity
  8
MAIN10
  6
BYBLOCK
 62
0
100
AcDbLine
 10
458.2955260489522
 20
180.4425665943791
 30
0.0000000000000000
 11
458.2955260489522
 21
126.4425665943791
 31
0.0000000000000000
  0
INSERT
  5
15D
100
AcDbEntity
  8
MAIN10
  6
BYBLOCK
 62
0
100
AcDbBlockReference
  2
_OPEN
 10
458.2955260489522
 20
184.4425665943791
 30
0.0000000000000000
 41
4.000000000000000
 42
4.000000000000000
 43
4.000000000000000
 50
90.00000000000000
  0
INSERT
  5
15E
100
AcDbEntity
  8
MAIN10
  6
BYBLOCK
 62
0
100
AcDbBlockReference
  2
_OPEN
 10
458.2955260489522
 20
122.4425665943791
 30
0.0000000000000000
 41
4.000000000000000
 42
4.000000000000000
 43
4.000000000000000
 50
270.0000000000000
  0
LINE
  5
15F
100
AcDbEntity
  8
MAIN10
  6
BYBLOCK
 62
0
100
AcDbLine
 10
399.8955260727940
 20
122.4425665943791
 30
0.0000000000000000
 11
462.2955260489522
 21
122.4425665943791
 31
0.0000000000000000
  0
MTEXT
  5
160
100
AcDbEntity
  8
MAIN10
  6
BYBLOCK
 62
0
100
AcDbMText
 10
454.6955261443196
 20
153.4425665943791
 30
0.0000000000000000
 40
6.199999809265137
 41
0.0000000000000000
 71
     5
 72
     1
  1
\A1;62
 11
6.123233995736766e-017
 21
1.000000000000000
 31
0.0000000000000000
  7
STANDARD
  0
ENDBLK
  5
161
100
AcDbEntity
  8
MAIN10
  6
CONTINUOUS
 62
3
100
AcDbBlockEnd
  0
BLOCK
  5
163
100
AcDbEntity
  8
MAIN10
  6
CONTINUOUS
 62
3
100
AcDbBlockBegin
  2
*D15
 70
    65
 10
0.0
 20
0.0
 30
0.0
  0
LINE
  5
164
100
AcDbEntity
  8
MAIN10
  6
BYBLOCK
 62
0
100
AcDbLine
 10
405.1455260727938
 20
166.1925665943791
 30
0.0000000000000000
 11
432.2955260489522
 21
166.1925665943791
 31
0.0000000000000000
  0
LINE
  5
165
100
AcDbEntity
  8
MAIN10
  6
BYBLOCK
 62
0
100
AcDbLine
 10
428.2955260489522
 20
162.1925665943791
 30
0.0000000000000000
 11
428.2955260489522
 21
144.6925665943791
 31
0.0000000000000000
  0
INSERT
  5
166
100
AcDbEntity
  8
MAIN10
  6
BYBLOCK
 62
0
100
AcDbBlockReference
  2
_OPEN
 10
428.2955260489522
 20
166.1925665943791
 30
0.0000000000000000
 41
4.000000000000000
 42
4.000000000000000
 43
4.000000000000000
 50
90.00000000000000
  0
INSERT
  5
167
100
AcDbEntity
  8
MAIN10
  6
BYBLOCK
 62
0
100
AcDbBlockReference
  2
_OPEN
 10
428.2955260489522
 20
140.6925665943791
 30
0.0000000000000000
 41
4.000000000000000
 42
4.000000000000000
 43
4.000000000000000
 50
270.0000000000000
  0
LINE
  5
168
100
AcDbEntity
  8
MAIN10
  6
BYBLOCK
 62
0
100
AcDbLine
 10
405.1455260727938
 20
140.6925665943791
 30
0.0000000000000000
 11
432.2955260489522
 21
140.6925665943791
 31
0.0000000000000000
  0
MTEXT
  5
169
100
AcDbEntity
  8
MAIN10
  6
BYBLOCK
 62
0
100
AcDbMText
 10
424.6955261443196
 20
153.4425665943791
 30
0.0000000000000000
 40
6.199999809265137
 41
0.0000000000000000
 71
     5
 72
     1
  1
\A1;25.5
 11
6.123233995736766e-017
 21
1.000000000000000
 31
0.0000000000000000
  7
STANDARD
  0
ENDBLK
  5
16A
100
AcDbEntity
  8
MAIN10
  6
CONTINUOUS
 62
3
100
AcDbBlockEnd
  0
BLOCK
  5
16C
100
AcDbEntity
  8
MAIN10
  6
CONTINUOUS
 62
3
100
AcDbBlockBegin
  2
*D16
 70
    65
 10
0.0
 20
0.0
 30
0.0
  0
LINE
  5
16D
100
AcDbEntity
  8
MAIN10
  6
BYBLOCK
 62
0
100
AcDbLine
 10
403.5455260489520
 20
139.0925665705372
 30
0.0000000000000000
 11
403.5455260489520
 21
92.05760837979415
 31
0.0000000000000000
  0
LINE
  5
16E
100
AcDbEntity
  8
MAIN10
  6
BYBLOCK
 62
0
100
AcDbLine
 10
403.5455260489520
 20
96.05760837979415
 30
0.0000000000000000
 11
401.2955260489522
 21
96.05760837979415
 31
0.0000000000000000
  0
INSERT
  5
16F
100
AcDbEntity
  8
MAIN10
  6
BYBLOCK
 62
0
100
AcDbBlockReference
  2
_OPEN
 10
403.5455260489520
 20
96.05760837979415
 30
0.0000000000000000
 41
4.000000000000000
 42
4.000000000000000
 43
4.000000000000000
 50
180.0000000000000
  0
INSERT
  5
170
100
AcDbEntity
  8
MAIN10
  6
BYBLOCK
 62
0
100
AcDbBlockReference
  2
_DOT
 10
400.2955260489522
 20
96.05760837979415
 30
0.0000000000000000
 41
2.000000000000000
 42
2.000000000000000
 43
2.000000000000000
 50
180.0000000000000
  0
LINE
  5
171
100
AcDbEntity
  8
MAIN10
  6
BYBLOCK
 62
0
100
AcDbLine
 10
407.5455260489520
 20
96.05760837979415
 30
0.0000000000000000
 11
423.5765458259061
 21
96.05760837979415
 31
0.0000000000000000
  0
LINE
  5
172
100
AcDbEntity
  8
MAIN10
  6
BYBLOCK
 62
0
100
AcDbLine
 10
400.2955260489522
 20
126.5746173781058
 30
0.0000000000000000
 11
400.2955260489522
 21
92.05760837979415
 31
0.0000000000000000
  0
MTEXT
  5
173
100
AcDbEntity
  8
MAIN10
  6
BYBLOCK
 62
0
100
AcDbMText
 10
416.2765456351713
 20
100.1576082844267
 30
0.0000000000000000
 40
6.199999809265137
 41
0.0000000000000000
 71
     5
 72
     1
  1
\A1;3.25
 11
1.000000000000000
 21
0.0000000000000000
 31
0.0000000000000000
  7
STANDARD
  0
ENDBLK
  5
174
100
AcDbEntity
  8
MAIN10
  6
CONTINUOUS
 62
3
100
AcDbBlockEnd
  0
BLOCK
  5
176
100
AcDbEntity
  8
MAIN10
  6
CONTINUOUS
 62
3
100
AcDbBlockBegin
  2
*D17
 70
    65
 10
0.0
 20
0.0
 30
0.0
  0
LINE
  5
177
100
AcDbEntity
  8
MAIN10
  6
BYBLOCK
 62
0
100
AcDbLine
 10
400.2955260489522
 20
126.5746173781058
 30
0.0000000000000000
 11
400.2955260489522
 21
92.05760837979415
 31
0.0000000000000000
  0
LINE
  5
178
100
AcDbEntity
  8
MAIN10
  6
BYBLOCK
 62
0
100
AcDbLine
 10
399.2955260489522
 20
96.05760837979415
 30
0.0000000000000000
 11
398.2955260489521
 21
96.05760837979415
 31
0.0000000000000000
  0
INSERT
  5
179
100
AcDbEntity
  8
MAIN10
  6
BYBLOCK
 62
0
100
AcDbBlockReference
  2
_DOT
 10
400.2955260489522
 20
96.05760837979415
 30
0.0000000000000000
 41
2.000000000000000
 42
2.000000000000000
 43
2.000000000000000
 50
360.0000000000000
  0
INSERT
  5
17A
100
AcDbEntity
  8
MAIN10
  6
BYBLOCK
 62
0
100
AcDbBlockReference
  2
_OPEN
 10
398.2955260489521
 20
96.05760837979415
 30
0.0000000000000000
 41
4.000000000000000
 42
4.000000000000000
 43
4.000000000000000
 50
360.0000000000000
  0
LINE
  5
17B
100
AcDbEntity
  8
MAIN10
  6
BYBLOCK
 62
0
100
AcDbLine
 10
394.2955260489521
 20
96.05760837979415
 30
0.0000000000000000
 11
392.2922359053846
 21
96.05760837979415
 31
0.0000000000000000
  0
LINE
  5
17C
100
AcDbEntity
  8
MAIN10
  6
BYBLOCK
 62
0
100
AcDbLine
 10
398.2955260489521
 20
112.2801204448815
 30
0.0000000000000000
 11
398.2955260489521
 21
92.05760837979415
 31
0.0000000000000000
  0
MTEXT
  5
17D
100
AcDbEntity
  8
MAIN10
  6
BYBLOCK
 62
0
100
AcDbMText
 10
394.2922359053846
 20
100.1576082844267
 30
0.0000000000000000
 40
6.199999809265137
 41
0.0000000000000000
 71
     5
 72
     1
  1
\A1;2
 11
1.000000000000000
 21
0.0000000000000000
 31
0.0000000000000000
  7
STANDARD
  0
ENDBLK
  5
17E
100
AcDbEntity
  8
MAIN10
  6
CONTINUOUS
 62
3
100
AcDbBlockEnd
  0
BLOCK
  5
180
100
AcDbEntity
  8
MAIN10
  6
CONTINUOUS
 62
3
100
AcDbBlockBegin
  2
*D18
 70
    65
 10
0.0
 20
0.0
 30
0.0
  0
LINE
  5
181
100
AcDbEntity
  8
MAIN10
  6
BYBLOCK
 62
0
100
AcDbLine
 10
368.2955260489522
 20
545.5576083797942
 30
0.0000000000000000
 11
368.2955260489522
 21
526.5576083797942
 31
0.0000000000000000
  0
INSERT
  5
182
100
AcDbEntity
  8
MAIN10
  6
BYBLOCK
 62
0
100
AcDbBlockReference
  2
_OPEN
 10
368.2955260489522
 20
549.5576083797942
 30
0.0000000000000000
 41
4.000000000000000
 42
4.000000000000000
 43
4.000000000000000
 50
90.00000000000000
  0
INSERT
  5
183
100
AcDbEntity
  8
MAIN10
  6
BYBLOCK
 62
0
100
AcDbBlockReference
  2
_OPEN
 10
368.2955260489522
 20
522.5576083797942
 30
0.0000000000000000
 41
4.000000000000000
 42
4.000000000000000
 43
4.000000000000000
 50
270.0000000000000
  0
MTEXT
  5
184
100
AcDbEntity
  8
MAIN10
  6
BYBLOCK
 62
0
100
AcDbMText
 10
364.6955261443196
 20
536.0576083797942
 30
0.0000000000000000
 40
6.199999809265137
 41
0.0000000000000000
 71
     5
 72
     1
  1
\A1;\U+220527
 11
6.123233995736766e-017
 21
1.000000000000000
 31
0.0000000000000000
  7
STANDARD
  0
ENDBLK
  5
185
100
AcDbEntity
  8
MAIN10
  6
CONTINUOUS
 62
3
100
AcDbBlockEnd
  0
BLOCK
  5
189
100
AcDbEntity
  8
MAIN10
  6
CONTINUOUS
 62
3
100
AcDbBlockBegin
  2
*D19
 70
    65
 10
0.0
 20
0.0
 30
0.0
  0
LINE
  5
18A
100
AcDbEntity
  8
MAIN10
  6
BYBLOCK
 62
0
100
AcDbLine
 10
460.8955260727939
 20
761.3076083797942
 30
0.0000000000000000
 11
552.2955260489522
 21
761.3076083797942
 31
0.0000000000000000
  0
LINE
  5
18B
100
AcDbEntity
  8
MAIN10
  6
BYBLOCK
 62
0
100
AcDbLine
 10
548.2955260489522
 20
757.3076083797942
 30
0.0000000000000000
 11
548.2955260489522
 21
630.3076083797942
 31
0.0000000000000000
  0
INSERT
  5
18C
100
AcDbEntity
  8
MAIN10
  6
BYBLOCK
 62
0
100
AcDbBlockReference
  2
_OPEN
 10
548.2955260489522
 20
761.3076083797942
 30
0.0000000000000000
 41
4.000000000000000
 42
4.000000000000000
 43
4.000000000000000
 50
90.00000000000000
  0
INSERT
  5
18D
100
AcDbEntity
  8
MAIN10
  6
BYBLOCK
 62
0
100
AcDbBlockReference
  2
_OPEN
 10
548.2955260489522
 20
626.3076083797942
 30
0.0000000000000000
 41
4.000000000000000
 42
4.000000000000000
 43
4.000000000000000
 50
270.0000000000000
  0
LINE
  5
18E
100
AcDbEntity
  8
MAIN10
  6
BYBLOCK
 62
0
100
AcDbLine
 10
460.8955260727939
 20
626.3076083797942
 30
0.0000000000000000
 11
552.2955260489522
 21
626.3076083797942
 31
0.0000000000000000
  0
MTEXT
  5
18F
100
AcDbEntity
  8
MAIN10
  6
BYBLOCK
 62
0
100
AcDbMText
 10
544.6955261443196
 20
693.8076083797942
 30
0.0000000000000000
 40
6.199999809265137
 41
0.0000000000000000
 71
     5
 72
     1
  1
\A1;135
 11
6.123233995736766e-017
 21
1.000000000000000
 31
0.0000000000000000
  7
STANDARD
  0
ENDBLK
  5
190
100
AcDbEntity
  8
MAIN10
  6
CONTINUOUS
 62
3
100
AcDbBlockEnd
  0
BLOCK
  5
192
100
AcDbEntity
  8
MAIN10
  6
CONTINUOUS
 62
3
100
AcDbBlockBegin
  2
*D20
 70
    65
 10
0.0
 20
0.0
 30
0.0
  0
LINE
  5
193
100
AcDbEntity
  8
MAIN10
  6
BYBLOCK
 62
0
100
AcDbLine
 10
465.3562601119635
 20
735.3076083797942
 30
0.0000000000000000
 11
522.2955260489522
 21
735.3076083797942
 31
0.0000000000000000
  0
LINE
  5
194
100
AcDbEntity
  8
MAIN10
  6
BYBLOCK
 62
0
100
AcDbLine
 10
518.2955260489522
 20
731.3076083797942
 30
0.0000000000000000
 11
518.2955260489522
 21
696.3076083797942
 31
0.0000000000000000
  0
INSERT
  5
195
100
AcDbEntity
  8
MAIN10
  6
BYBLOCK
 62
0
100
AcDbBlockReference
  2
_OPEN
 10
518.2955260489522
 20
735.3076083797942
 30
0.0000000000000000
 41
4.000000000000000
 42
4.000000000000000
 43
4.000000000000000
 50
90.00000000000000
  0
INSERT
  5
196
100
AcDbEntity
  8
MAIN10
  6
BYBLOCK
 62
0
100
AcDbBlockReference
  2
_OPEN
 10
518.2955260489522
 20
692.3076083797942
 30
0.0000000000000000
 41
4.000000000000000
 42
4.000000000000000
 43
4.000000000000000
 50
270.0000000000000
  0
LINE
  5
197
100
AcDbEntity
  8
MAIN10
  6
BYBLOCK
 62
0
100
AcDbLine
 10
466.6062581757437
 20
692.3076083797942
 30
0.0000000000000000
 11
522.2955260489522
 21
692.3076083797942
 31
0.0000000000000000
  0
MTEXT
  5
198
100
AcDbEntity
  8
MAIN10
  6
BYBLOCK
 62
0
100
AcDbMText
 10
514.6955261443196
 20
713.8076083797942
 30
0.0000000000000000
 40
6.199999809265137
 41
0.0000000000000000
 71
     5
 72
     1
  1
\A1;43
 11
6.123233995736766e-017
 21
1.000000000000000
 31
0.0000000000000000
  7
STANDARD
  0
ENDBLK
  5
199
100
AcDbEntity
  8
MAIN10
  6
CONTINUOUS
 62
3
100
AcDbBlockEnd
  0
BLOCK
  5
19B
100
AcDbEntity
  8
MAIN10
  6
CONTINUOUS
 62
3
100
AcDbBlockBegin
  2
*D21
 70
    65
 10
0.0
 20
0.0
 30
0.0
  0
LINE
  5
19C
100
AcDbEntity
  8
MAIN10
  6
BYBLOCK
 62
0
100
AcDbLine
 10
466.6062581757437
 20
692.3076083797942
 30
0.0000000000000000
 11
522.2955260489522
 21
692.3076083797942
 31
0.0000000000000000
  0
LINE
  5
19D
100
AcDbEntity
  8
MAIN10
  6
BYBLOCK
 62
0
100
AcDbLine
 10
518.2955260489522
 20
688.3076083797942
 30
0.0000000000000000
 11
518.2955260489522
 21
630.3076083797942
 31
0.0000000000000000
  0
INSERT
  5
19E
100
AcDbEntity
  8
MAIN10
  6
BYBLOCK
 62
0
100
AcDbBlockReference
  2
_OPEN
 10
518.2955260489522
 20
692.3076083797942
 30
0.0000000000000000
 41
4.000000000000000
 42
4.000000000000000
 43
4.000000000000000
 50
90.00000000000000
  0
INSERT
  5
19F
100
AcDbEntity
  8
MAIN10
  6
BYBLOCK
 62
0
100
AcDbBlockReference
  2
_OPEN
 10
518.2955260489522
 20
626.3076083797942
 30
0.0000000000000000
 41
4.000000000000000
 42
4.000000000000000
 43
4.000000000000000
 50
270.0000000000000
  0
LINE
  5
1A0
100
AcDbEntity
  8
MAIN10
  6
BYBLOCK
 62
0
100
AcDbLine
 10
460.8955260727939
 20
626.3076083797942
 30
0.0000000000000000
 11
522.2955260489522
 21
626.3076083797942
 31
0.0000000000000000
  0
MTEXT
  5
1A1
100
AcDbEntity
  8
MAIN10
  6
BYBLOCK
 62
0
100
AcDbMText
 10
514.6955261443196
 20
659.3076083797942
 30
0.0000000000000000
 40
6.199999809265137
 41
0.0000000000000000
 71
     5
 72
     1
  1
\A1;66
 11
6.123233995736766e-017
 21
1.000000000000000
 31
0.0000000000000000
  7
STANDARD
  0
ENDBLK
  5
1A2
100
AcDbEntity
  8
MAIN10
  6
CONTINUOUS
 62
3
100
AcDbBlockEnd
  0
BLOCK
  5
1A4
100
AcDbEntity
  8
MAIN10
  6
CONTINUOUS
 62
3
100
AcDbBlockBegin
  2
*D22
 70
    65
 10
0.0
 20
0.0
 30
0.0
  0
LINE
  5
1A5
100
AcDbEntity
  8
MAIN10
  6
BYBLOCK
 62
0
100
AcDbLine
 10
466.6062581757437
 20
692.3076083797942
 30
0.0000000000000000
 11
492.2955260489522
 21
692.3076083797942
 31
0.0000000000000000
  0
LINE
  5
1A6
100
AcDbEntity
  8
MAIN10
  6
BYBLOCK
 62
0
100
AcDbLine
 10
488.2955260489522
 20
688.3076083797942
 30
0.0000000000000000
 11
488.2955260489522
 21
648.0576083797940
 31
0.0000000000000000
  0
INSERT
  5
1A7
100
AcDbEntity
  8
MAIN10
  6
BYBLOCK
 62
0
100
AcDbBlockReference
  2
_OPEN
 10
488.2955260489522
 20
692.3076083797942
 30
0.0000000000000000
 41
4.000000000000000
 42
4.000000000000000
 43
4.000000000000000
 50
90.00000000000000
  0
INSERT
  5
1A8
100
AcDbEntity
  8
MAIN10
  6
BYBLOCK
 62
0
100
AcDbBlockReference
  2
_OPEN
 10
488.2955260489522
 20
644.0576083797940
 30
0.0000000000000000
 41
4.000000000000000
 42
4.000000000000000
 43
4.000000000000000
 50
270.0000000000000
  0
LINE
  5
1A9
100
AcDbEntity
  8
MAIN10
  6
BYBLOCK
 62
0
100
AcDbLine
 10
400.8955260727941
 20
644.0576083797940
 30
0.0000000000000000
 11
492.2955260489522
 21
644.0576083797940
 31
0.0000000000000000
  0
MTEXT
  5
1AA
100
AcDbEntity
  8
MAIN10
  6
BYBLOCK
 62
0
100
AcDbMText
 10
484.6955261443196
 20
668.1826083797942
 30
0.0000000000000000
 40
6.199999809265137
 41
0.0000000000000000
 71
     5
 72
     1
  1
\A1;MAX 48.75
 11
6.123233995736766e-017
 21
1.000000000000000
 31
0.0000000000000000
  7
STANDARD
  0
ENDBLK
  5
1AB
100
AcDbEntity
  8
MAIN10
  6
CONTINUOUS
 62
3
100
AcDbBlockEnd
  0
BLOCK
  5
1AD
100
AcDbEntity
  8
MAIN10
  6
CONTINUOUS
 62
3
100
AcDbBlockBegin
  2
*D23
 70
    65
 10
0.0
 20
0.0
 30
0.0
  0
LINE
  5
1AE
100
AcDbEntity
  8
MAIN10
  6
BYBLOCK
 62
0
100
AcDbLine
 10
400.8955260727941
 20
644.0576083797940
 30
0.0000000000000000
 11
492.2955260489522
 21
644.0576083797940
 31
0.0000000000000000
  0
LINE
  5
1AF
100
AcDbEntity
  8
MAIN10
  6
BYBLOCK
 62
0
100
AcDbLine
 10
488.2955260489522
 20
640.0576083797940
 30
0.0000000000000000
 11
488.2955260489522
 21
540.0576083797942
 31
0.0000000000000000
  0
INSERT
  5
1B0
100
AcDbEntity
  8
MAIN10
  6
BYBLOCK
 62
0
100
AcDbBlockReference
  2
_OPEN
 10
488.2955260489522
 20
644.0576083797940
 30
0.0000000000000000
 41
4.000000000000000
 42
4.000000000000000
 43
4.000000000000000
 50
90.00000000000000
  0
INSERT
  5
1B1
100
AcDbEntity
  8
MAIN10
  6
BYBLOCK
 62
0
100
AcDbBlockReference
  2
_OPEN
 10
488.2955260489522
 20
536.0576083797942
 30
0.0000000000000000
 41
4.000000000000000
 42
4.000000000000000
 43
4.000000000000000
 50
270.0000000000000
  0
LINE
  5
1B2
100
AcDbEntity
  8
MAIN10
  6
BYBLOCK
 62
0
100
AcDbLine
 10
411.0589989953720
 20
536.0576083797942
 30
0.0000000000000000
 11
492.2955260489522
 21
536.0576083797942
 31
0.0000000000000000
  0
MTEXT
  5
1B3
100
AcDbEntity
  8
MAIN10
  6
BYBLOCK
 62
0
100
AcDbMText
 10
484.6955261443196
 20
590.0576083797940
 30
0.0000000000000000
 40
6.199999809265137
 41
0.0000000000000000
 71
     5
 72
     1
  1
\A1;MAX 108
 11
6.123233995736766e-017
 21
1.000000000000000
 31
0.0000000000000000
  7
STANDARD
  0
ENDBLK
  5
1B4
100
AcDbEntity
  8
MAIN10
  6
CONTINUOUS
 62
3
100
AcDbBlockEnd
  0
BLOCK
  5
1B6
100
AcDbEntity
  8
MAIN10
  6
CONTINUOUS
 62
3
100
AcDbBlockBegin
  2
*D24
 70
    65
 10
0.0
 20
0.0
 30
0.0
  0
LINE
  5
1B7
100
AcDbEntity
  8
MAIN10
  6
BYBLOCK
 62
0
100
AcDbLine
 10
398.2955260489521
 20
759.6576084036360
 30
0.0000000000000000
 11
398.2955260489521
 21
790.0576083797942
 31
0.0000000000000000
  0
LINE
  5
1B8
100
AcDbEntity
  8
MAIN10
  6
BYBLOCK
 62
0
100
AcDbLine
 10
402.2955260489521
 20
786.0576083797942
 30
0.0000000000000000
 11
455.2955260489521
 21
786.0576083797942
 31
0.0000000000000000
  0
INSERT
  5
1B9
100
AcDbEntity
  8
MAIN10
  6
BYBLOCK
 62
0
100
AcDbBlockReference
  2
_OPEN
 10
398.2955260489521
 20
786.0576083797942
 30
0.0000000000000000
 41
4.000000000000000
 42
4.000000000000000
 43
4.000000000000000
 50
180.0000000000000
  0
INSERT
  5
1BA
100
AcDbEntity
  8
MAIN10
  6
BYBLOCK
 62
0
100
AcDbBlockReference
  2
_OPEN
 10
459.2955260489521
 20
786.0576083797942
 30
0.0000000000000000
 41
4.000000000000000
 42
4.000000000000000
 43
4.000000000000000
 50
0.0000000000000000
  0
LINE
  5
1BB
100
AcDbEntity
  8
MAIN10
  6
BYBLOCK
 62
0
100
AcDbLine
 10
459.2955260489521
 20
762.9076084036358
 30
0.0000000000000000
 11
459.2955260489521
 21
790.0576083797942
 31
0.0000000000000000
  0
MTEXT
  5
1BC
100
AcDbEntity
  8
MAIN10
  6
BYBLOCK
 62
0
100
AcDbMText
 10
428.7955260489521
 20
789.6576082844267
 30
0.0000000000000000
 40
6.199999809265137
 41
0.0000000000000000
 71
     5
 72
     1
  1
\A1;61
 11
1.000000000000000
 21
0.0000000000000000
 31
0.0000000000000000
  7
STANDARD
  0
ENDBLK
  5
1BD
100
AcDbEntity
  8
MAIN10
  6
CONTINUOUS
 62
3
100
AcDbBlockEnd
  0
BLOCK
  5
1C7
100
AcDbEntity
  8
MAIN10
  6
CONTINUOUS
 62
3
100
AcDbBlockBegin
  2
*D25
 70
    65
 10
0.0
 20
0.0
 30
0.0
  0
LINE
  5
1C8
100
AcDbEntity
  8
MAIN10
  6
BYBLOCK
 62
0
100
AcDbLine
 10
855.3031467670886
 20
317.7384237469781
 30
0.0000000000000000
 11
869.7582891388134
 21
282.8406229871260
 31
0.0000000000000000
  0
LINE
  5
1C9
100
AcDbEntity
  8
MAIN10
  6
BYBLOCK
 62
0
100
AcDbLine
 10
885.8749994959145
 20
326.4749228124117
 30
0.0000000000000000
 11
901.9124245513283
 21
298.6972877937726
 31
0.0000000000000000
  0
ARC
  5
1CA
100
AcDbEntity
  8
MAIN10
  6
BYBLOCK
 62
0
100
AcDbCircle
 10
764.8723795645959
 20
536.0576083830407
 30
0.0000000000000000
 40
270.0800899740910
100
AcDbArc
 50
293.3485746508537
 51
299.1514253490706
  0
INSERT
  5
1CB
100
AcDbEntity
  8
MAIN10
  6
BYBLOCK
 62
0
100
AcDbBlockReference
  2
_OPEN
 10
868.2275554093529
 20
286.5361411171712
 30
0.0000000000000000
 41
4.000000000000000
 42
4.000000000000000
 43
4.000000000000000
 50
202.5000000000000
  0
INSERT
  5
1CC
100
AcDbEntity
  8
MAIN10
  6
BYBLOCK
 62
0
100
AcDbBlockReference
  2
_OPEN
 10
899.9124245513330
 20
302.1613894089130
 30
0.0000000000000000
 41
4.000000000000000
 42
4.000000000000000
 43
4.000000000000000
 50
29.99999999992446
  0
MTEXT
  5
1CD
100
AcDbEntity
  8
MAIN10
  6
BYBLOCK
 62
0
100
AcDbMText
 10
882.7335095707003
 20
297.0588794384901
 30
0.0000000000000000
 40
6.199999809265137
 41
0.0000000000000000
 71
     5
 72
     1
  1
\A1;7\U+00B030′
 11
0.8968727415329802
 21
0.4422886902184093
 31
0.0000000000000000
  7
KNJYOKO
  0
ENDBLK
  5
1CE
100
AcDbEntity
  8
MAIN10
  6
CONTINUOUS
 62
3
100
AcDbBlockEnd
  0
BLOCK
  5
1D0
100
AcDbEntity
  8
MAIN10
  6
CONTINUOUS
 62
3
100
AcDbBlockBegin
  2
*D26
 70
    65
 10
0.0
 20
0.0
 30
0.0
  0
LINE
  5
1D1
100
AcDbEntity
  8
MAIN10
  6
BYBLOCK
 62
0
100
AcDbLine
 10
885.8749994959145
 20
326.4749228124117
 30
0.0000000000000000
 11
901.9124245513283
 21
298.6972877937726
 31
0.0000000000000000
  0
LINE
  5
1D2
100
AcDbEntity
  8
MAIN10
  6
BYBLOCK
 62
0
100
AcDbLine
 10
972.7764007071208
 20
416.0241658083126
 30
0.0000000000000000
 11
1002.232700152454
 21
399.0175633938667
 31
0.0000000000000000
  0
ARC
  5
1D3
100
AcDbEntity
  8
MAIN10
  6
BYBLOCK
 62
0
100
AcDbCircle
 10
764.8723795645959
 20
536.0576083830407
 30
0.0000000000000000
 40
270.0800899740910
100
AcDbArc
 50
300.8485746507782
 51
329.1514253486324
  0
INSERT
  5
1D4
100
AcDbEntity
  8
MAIN10
  6
BYBLOCK
 62
0
100
AcDbBlockReference
  2
_OPEN
 10
899.9124245513330
 20
302.1613894089130
 30
0.0000000000000000
 41
4.000000000000000
 42
4.000000000000000
 43
4.000000000000000
 50
209.9999999999245
  0
INSERT
  5
1D5
100
AcDbEntity
  8
MAIN10
  6
BYBLOCK
 62
0
100
AcDbBlockReference
  2
_OPEN
 10
998.7685985373346
 20
401.0175633938977
 30
0.0000000000000000
 41
4.000000000000000
 42
4.000000000000000
 43
4.000000000000000
 50
59.99999999948619
  0
MTEXT
  5
1D6
100
AcDbEntity
  8
MAIN10
  6
BYBLOCK
 62
0
100
AcDbMText
 10
953.3022583029426
 20
347.6277296427555
 30
0.0000000000000000
 40
6.199999809265137
 41
0.0000000000000000
 71
     5
 72
     1
  1
\A1;30\U+00B0
 11
0.7071067811901846
 21
0.7071067811829106
 31
0.0000000000000000
  7
STANDARD
  0
ENDBLK
  5
1D7
100
AcDbEntity
  8
MAIN10
  6
CONTINUOUS
 62
3
100
AcDbBlockEnd
  0
BLOCK
  5
1D9
100
AcDbEntity
  8
MAIN10
  6
CONTINUOUS
 62
3
100
AcDbBlockBegin
  2
*D27
 70
    65
 10
0.0
 20
0.0
 30
0.0
  0
LINE
  5
1DA
100
AcDbEntity
  8
MAIN10
  6
BYBLOCK
 62
0
100
AcDbLine
 10
972.7764007071208
 20
416.0241658083126
 30
0.0000000000000000
 11
1002.232700152454
 21
399.0175633938667
 31
0.0000000000000000
  0
LINE
  5
1DB
100
AcDbEntity
  8
MAIN10
  6
BYBLOCK
 62
0
100
AcDbLine
 10
1009.228653771786
 20
536.0576083799842
 30
0.0000000000000000
 11
1038.952469538687
 21
536.0576083835160
 31
0.0000000000000000
  0
ARC
  5
1DC
100
AcDbEntity
  8
MAIN10
  6
BYBLOCK
 62
0
100
AcDbCircle
 10
764.8723795645959
 20
536.0576083830407
 30
0.0000000000000000
 40
270.0800899740910
100
AcDbArc
 50
330.8485746503400
 51
359.1514253491462
  0
INSERT
  5
1DD
100
AcDbEntity
  8
MAIN10
  6
BYBLOCK
 62
0
100
AcDbBlockReference
  2
_OPEN
 10
998.7685985373346
 20
401.0175633938977
 30
0.0000000000000000
 41
4.000000000000000
 42
4.000000000000000
 43
4.000000000000000
 50
239.9999999994861
  0
INSERT
  5
1DE
100
AcDbEntity
  8
MAIN10
  6
BYBLOCK
 62
0
100
AcDbBlockReference
  2
_OPEN
 10
1034.952469538687
 20
536.0576083830406
 30
0.0000000000000000
 41
4.000000000000000
 42
4.000000000000000
 43
4.000000000000000
 50
90.00000000000000
  0
MTEXT
  5
1DF
100
AcDbEntity
  8
MAIN10
  6
BYBLOCK
 62
0
100
AcDbMText
 10
1022.272380754214
 20
467.0874859312758
 30
0.0000000000000000
 40
6.199999809265137
 41
0.0000000000000000
 71
     5
 72
     1
  1
\A1;30\U+00B0
 11
0.2588190451068513
 21
0.9659258262879079
 31
0.0000000000000000
  7
STANDARD
  0
ENDBLK
  5
1E0
100
AcDbEntity
  8
MAIN10
  6
CONTINUOUS
 62
3
100
AcDbBlockEnd
  0
BLOCK
  5
1E2
100
AcDbEntity
  8
MAIN10
  6
CONTINUOUS
 62
3
100
AcDbBlockBegin
  2
*D28
 70
    65
 10
0.0
 20
0.0
 30
0.0
  0
LINE
  5
1E3
100
AcDbEntity
  8
MAIN10
  6
BYBLOCK
 62
0
100
AcDbLine
 10
1009.228653771786
 20
536.0576083799842
 30
0.0000000000000000
 11
1038.952469538687
 21
536.0576083835160
 31
0.0000000000000000
  0
LINE
  5
1E4
100
AcDbEntity
  8
MAIN10
  6
BYBLOCK
 62
0
100
AcDbLine
 10
903.0871582173501
 20
573.0921467014440
 30
0.0000000000000000
 11
1029.613416943949
 21
606.9947555452276
 31
0.0000000000000000
  0
ARC
  5
1E5
100
AcDbEntity
  8
MAIN10
  6
BYBLOCK
 62
0
100
AcDbCircle
 10
764.8723795645959
 20
536.0576083830407
 30
0.0000000000000000
 40
270.0800899740910
100
AcDbArc
 50
0.8485746508538080
 51
14.15142534773505
  0
INSERT
  5
1E6
100
AcDbEntity
  8
MAIN10
  6
BYBLOCK
 62
0
100
AcDbBlockReference
  2
_OPEN
 10
1034.952469538687
 20
536.0576083830407
 30
0.0000000000000000
 41
4.000000000000000
 42
4.000000000000000
 43
4.000000000000000
 50
270.0000000000000
  0
INSERT
  5
1E7
100
AcDbEntity
  8
MAIN10
  6
BYBLOCK
 62
0
100
AcDbBlockReference
  2
_OPEN
 10
1025.749713638767
 20
605.9594793649127
 30
0.0000000000000000
 41
4.000000000000000
 42
4.000000000000000
 43
4.000000000000000
 50
104.9999999985889
  0
MTEXT
  5
1E8
100
AcDbEntity
  8
MAIN10
  6
BYBLOCK
 62
0
100
AcDbMText
 10
1029.072695522819
 20
570.8402398390100
 30
0.0000000000000000
 40
6.199999809265137
 41
0.0000000000000000
 71
     5
 72
     1
  1
\A1;15\U+00B0
 11
-0.1305261922078424
 21
0.9914448613754178
 31
0.0000000000000000
  7
STANDARD
  0
ENDBLK
  5
1E9
100
AcDbEntity
  8
MAIN10
  6
CONTINUOUS
 62
3
100
AcDbBlockEnd
  0
BLOCK
  5
1EB
100
AcDbEntity
  8
MAIN10
  6
CONTINUOUS
 62
3
100
AcDbBlockBegin
  2
*D29
 70
    65
 10
0.0
 20
0.0
 30
0.0
  0
LINE
  5
1EC
100
AcDbEntity
  8
MAIN10
  6
BYBLOCK
 62
0
100
AcDbLine
 10
903.0871582173501
 20
573.0921467014440
 30
0.0000000000000000
 11
1029.613416943949
 21
606.9947555452276
 31
0.0000000000000000
  0
LINE
  5
1ED
100
AcDbEntity
  8
MAIN10
  6
BYBLOCK
 62
0
100
AcDbLine
 10
863.9706390512639
 20
635.1558678650669
 30
0.0000000000000000
 11
958.6762697780337
 21
729.8614985874006
 31
0.0000000000000000
  0
ARC
  5
1EE
100
AcDbEntity
  8
MAIN10
  6
BYBLOCK
 62
0
100
AcDbCircle
 10
764.8723795645959
 20
536.0576083830407
 30
0.0000000000000000
 40
270.0800899740910
100
AcDbArc
 50
15.84857464944266
 51
44.15142534780432
  0
INSERT
  5
1EF
100
AcDbEntity
  8
MAIN10
  6
BYBLOCK
 62
0
100
AcDbBlockReference
  2
_OPEN
 10
1025.749713638767
 20
605.9594793649127
 30
0.0000000000000000
 41
4.000000000000000
 42
4.000000000000000
 43
4.000000000000000
 50
284.9999999985889
  0
INSERT
  5
1F0
100
AcDbEntity
  8
MAIN10
  6
BYBLOCK
 62
0
100
AcDbBlockReference
  2
_OPEN
 10
955.8478426532213
 20
727.0330714627206
 30
0.0000000000000000
 41
4.000000000000000
 42
4.000000000000000
 43
4.000000000000000
 50
134.9999999986581
  0
MTEXT
  5
1F1
100
AcDbEntity
  8
MAIN10
  6
BYBLOCK
 62
0
100
AcDbMText
 10
995.6509071707133
 20
669.2976534122255
 30
0.0000000000000000
 40
6.199999809265137
 41
0.0000000000000000
 71
     5
 72
     1
  1
\A1;30\U+00B0
 11
-0.4999999999791938
 21
0.8660254037964511
 31
0.0000000000000000
  7
STANDARD
  0
ENDBLK
  5
1F2
100
AcDbEntity
  8
MAIN10
  6
CONTINUOUS
 62
3
100
AcDbBlockEnd
  0
BLOCK
  5
1F4
100
AcDbEntity
  8
MAIN10
  6
CONTINUOUS
 62
3
100
AcDbBlockBegin
  2
*D30
 70
    65
 10
0.0
 20
0.0
 30
0.0
  0
LINE
  5
1F5
100
AcDbEntity
  8
MAIN10
  6
BYBLOCK
 62
0
100
AcDbLine
 10
863.9706390512639
 20
635.1558678650669
 30
0.0000000000000000
 11
958.6762697780337
 21
729.8614985874006
 31
0.0000000000000000
  0
LINE
  5
1F6
100
AcDbEntity
  8
MAIN10
  6
BYBLOCK
 62
0
100
AcDbLine
 10
764.8723795659498
 20
765.7934429019282
 30
0.0000000000000000
 11
764.8723795662111
 21
810.1376983571317
 31
0.0000000000000000
  0
ARC
  5
1F7
100
AcDbEntity
  8
MAIN10
  6
BYBLOCK
 62
0
100
AcDbCircle
 10
764.8723795645959
 20
536.0576083830407
 30
0.0000000000000000
 40
270.0800899740910
100
AcDbArc
 50
45.84857464951193
 51
89.15142534880854
  0
INSERT
  5
1F8
100
AcDbEntity
  8
MAIN10
  6
BYBLOCK
 62
0
100
AcDbBlockReference
  2
_OPEN
 10
955.8478426532213
 20
727.0330714627206
 30
0.0000000000000000
 41
4.000000000000000
 42
4.000000000000000
 43
4.000000000000000
 50
314.9999999986582
  0
INSERT
  5
1F9
100
AcDbEntity
  8
MAIN10
  6
BYBLOCK
 62
0
100
AcDbBlockReference
  2
_OPEN
 10
764.8723795661875
 20
806.1376983571317
 30
0.0000000000000000
 41
4.000000000000000
 42
4.000000000000000
 43
4.000000000000000
 50
179.9999999996624
  0
MTEXT
  5
1FA
100
AcDbEntity
  8
MAIN10
  6
BYBLOCK
 62
0
100
AcDbMText
 10
869.6052157330780
 20
788.9050418763077
 30
0.0000000000000000
 40
6.199999809265137
 41
0.0000000000000000
 71
     5
 72
     1
  1
\A1;45\U+00B0
 11
0.9238795325056777
 21
-0.3826834323786315
 31
0.0000000000000000
  7
STANDARD
  0
ENDBLK
  5
1FB
100
AcDbEntity
  8
MAIN10
  6
CONTINUOUS
 62
3
100
AcDbBlockEnd
  0
BLOCK
  5
1FD
100
AcDbEntity
  8
MAIN10
  6
CONTINUOUS
 62
3
100
AcDbBlockBegin
  2
*D31
 70
    65
 10
0.0
 20
0.0
 30
0.0
  0
LINE
  5
1FE
100
AcDbEntity
  8
MAIN10
  6
BYBLOCK
 62
0
100
AcDbLine
 10
764.8723795659498
 20
765.7934429019282
 30
0.0000000000000000
 11
764.8723795662111
 21
810.1376983571317
 31
0.0000000000000000
  0
LINE
  5
1FF
100
AcDbEntity
  8
MAIN10
  6
BYBLOCK
 62
0
100
AcDbLine
 10
675.3067226754266
 20
752.2882319677303
 30
0.0000000000000000
 11
659.9864699903789
 21
789.2745937789557
 31
0.0000000000000000
  0
ARC
  5
200
100
AcDbEntity
  8
MAIN10
  6
BYBLOCK
 62
0
100
AcDbCircle
 10
764.8723795645959
 20
536.0576083830407
 30
0.0000000000000000
 40
270.0800899740910
100
AcDbArc
 50
90.84857465051616
 51
111.6514253491461
  0
INSERT
  5
201
100
AcDbEntity
  8
MAIN10
  6
BYBLOCK
 62
0
100
AcDbBlockReference
  2
_OPEN
 10
764.8723795661875
 20
806.1376983571317
 30
0.0000000000000000
 41
4.000000000000000
 42
4.000000000000000
 43
4.000000000000000
 50
359.9999999996624
  0
INSERT
  5
202
100
AcDbEntity
  8
MAIN10
  6
BYBLOCK
 62
0
100
AcDbBlockReference
  2
_OPEN
 10
661.5172037198391
 20
785.5790756489105
 30
0.0000000000000000
 41
4.000000000000000
 42
4.000000000000000
 43
4.000000000000000
 50
202.4999999999999
  0
MTEXT
  5
203
100
AcDbEntity
  8
MAIN10
  6
BYBLOCK
 62
0
100
AcDbMText
 10
711.4800427015440
 20
804.4790120756834
 30
0.0000000000000000
 40
6.199999809265137
 41
0.0000000000000000
 71
     5
 72
     1
  1
\A1;22\U+00B030′
 11
0.9807852804038055
 21
0.1950903220132373
 31
0.0000000000000000
  7
KNJYOKO
  0
ENDBLK
  5
204
100
AcDbEntity
  8
MAIN10
  6
CONTINUOUS
 62
3
100
AcDbBlockEnd
  0
BLOCK
  5
206
100
AcDbEntity
  8
MAIN10
  6
CONTINUOUS
 62
3
100
AcDbBlockBegin
  2
*D32
 70
    65
 10
0.0
 20
0.0
 30
0.0
  0
LINE
  5
207
100
AcDbEntity
  8
MAIN10
  6
BYBLOCK
 62
0
100
AcDbLine
 10
739.8723795659404
 20
762.9076084036358
 30
0.0000000000000000
 11
739.8723795659404
 21
780.0576083797942
 31
0.0000000000000000
  0
LINE
  5
208
100
AcDbEntity
  8
MAIN10
  6
BYBLOCK
 62
0
100
AcDbLine
 10
743.8723795659404
 20
776.0576083797942
 30
0.0000000000000000
 11
785.8723795659404
 21
776.0576083797942
 31
0.0000000000000000
  0
INSERT
  5
209
100
AcDbEntity
  8
MAIN10
  6
BYBLOCK
 62
0
100
AcDbBlockReference
  2
_OPEN
 10
739.8723795659404
 20
776.0576083797942
 30
0.0000000000000000
 41
4.000000000000000
 42
4.000000000000000
 43
4.000000000000000
 50
180.0000000000000
  0
INSERT
  5
20A
100
AcDbEntity
  8
MAIN10
  6
BYBLOCK
 62
0
100
AcDbBlockReference
  2
_OPEN
 10
789.8723795659404
 20
776.0576083797942
 30
0.0000000000000000
 41
4.000000000000000
 42
4.000000000000000
 43
4.000000000000000
 50
0.0000000000000000
  0
LINE
  5
20B
100
AcDbEntity
  8
MAIN10
  6
BYBLOCK
 62
0
100
AcDbLine
 10
789.8723795659404
 20
762.9076084036358
 30
0.0000000000000000
 11
789.8723795659404
 21
780.0576083797942
 31
0.0000000000000000
  0
MTEXT
  5
20C
100
AcDbEntity
  8
MAIN10
  6
BYBLOCK
 62
0
100
AcDbMText
 10
759.6181282825505
 20
780.1576082844267
 30
0.0000000000000000
 40
6.199999809265137
 41
0.0000000000000000
 71
     5
 72
     1
  1
\A1;50
 11
1.000000000000000
 21
0.0000000000000000
 31
0.0000000000000000
  7
STANDARD
  0
ENDBLK
  5
20D
100
AcDbEntity
  8
MAIN10
  6
CONTINUOUS
 62
3
100
AcDbBlockEnd
  0
BLOCK
  5
211
100
AcDbEntity
  8
MAIN10
  6
CONTINUOUS
 62
3
100
AcDbBlockBegin
  2
D33
 70
    64
 10
0.0
 20
0.0
 30
0.0
  0
LINE
  5
212
100
AcDbEntity
  8
MAIN10
  6
BYBLOCK
 62
0
100
AcDbLine
 10
-56.56153193300889
 20
4.161810142638870
 30
0.0000000000000000
 11
-56.56153193300889
 21
225.0000000000000
 31
0.0000000000000000
  0
LINE
  5
213
100
AcDbEntity
  8
MAIN10
  6
BYBLOCK
 62
0
100
AcDbLine
 10
-57.76153198069261
 20
221.0000000000000
 30
0.0000000000000000
 11
-56.56153193300889
 21
225.0000000000000
 31
0.0000000000000000
  0
LINE
  5
214
100
AcDbEntity
  8
MAIN10
  6
BYBLOCK
 62
0
100
AcDbLine
 10
-56.56153193300889
 20
225.0000000000000
 30
0.0000000000000000
 11
-55.36153188532518
 21
221.0000000000000
 31
0.0000000000000000
  0
LINE
  5
215
100
AcDbEntity
  8
MAIN10
  6
BYBLOCK
 62
0
100
AcDbLine
 10
120.8384680431494
 20
225.0000000000000
 30
0.0000000000000000
 11
-60.56153193300889
 21
225.0000000000000
 31
0.0000000000000000
  0
MTEXT
  5
216
100
AcDbEntity
  8
MAIN10
  6
BYBLOCK
 62
0
100
AcDbMText
 10
-60.66153183764146
 20
8.611808617642311
 30
0.0000000000000000
 40
6.199999809265137
 41
0.0000000000000000
 71
     5
 72
     1
  1
\A1;\U+2205450
 11
6.123233995736766e-017
 21
1.000000000000000
 31
0.0000000000000000
  7
STANDARD
  0
ENDBLK
  5
217
100
AcDbEntity
  8
MAIN10
  6
CONTINUOUS
 62
3
100
AcDbBlockEnd
  0
BLOCK
  5
219
100
AcDbEntity
  8
MAIN10
  6
CONTINUOUS
 62
3
100
AcDbBlockBegin
  2
*D34
 70
    65
 10
0.0
 20
0.0
 30
0.0
  0
LINE
  5
21A
100
AcDbEntity
  8
MAIN10
  6
BYBLOCK
 62
0
100
AcDbLine
 10
889.4412099138433
 20
517.1206998212304
 30
0.0000000000000000
 11
636.3489831752470
 21
555.5956886386298
 31
0.0000000000000000
  0
INSERT
  5
21B
100
AcDbEntity
  8
MAIN10
  6
BYBLOCK
 62
0
100
AcDbBlockReference
  2
_OPEN
 10
893.3957759566338
 20
516.5195281209584
 30
0.0000000000000000
 41
4.000000000000000
 42
4.000000000000000
 43
4.000000000000000
 50
351.3560976293501
  0
MTEXT
  5
21C
100
AcDbEntity
  8
MAIN10
  6
BYBLOCK
 62
0
100
AcDbMText
 10
839.1091599990830
 20
528.9192646040884
 30
0.0000000000000000
 40
6.199999809265137
 41
0.0000000000000000
 71
     5
 72
     1
  1
\A1;\U+2205260\H0.903226x;\U+00B10.2
 11
0.9886415106976413
 21
-0.1502929250679670
 31
0.0000000000000000
  7
STANDARD
  0
ENDBLK
  5
21D
100
AcDbEntity
  8
MAIN10
  6
CONTINUOUS
 62
3
100
AcDbBlockEnd
  0
BLOCK
  5
241
100
AcDbEntity
  8
MAIN10
  6
CONTINUOUS
 62
3
100
AcDbBlockBegin
  2
*D35
 70
    65
 10
0.0
 20
0.0
 30
0.0
  0
LINE
  5
242
100
AcDbEntity
  8
MAIN10
  6
BYBLOCK
 62
0
100
AcDbLine
 10
878.1667773389274
 20
542.8861831400326
 30
0.0000000000000000
 11
651.5779817929533
 21
529.2290336195556
 31
0.0000000000000000
  0
INSERT
  5
243
100
AcDbEntity
  8
MAIN10
  6
BYBLOCK
 62
0
100
AcDbBlockReference
  2
_OPEN
 10
882.1595314454644
 20
543.1268377571336
 30
0.0000000000000000
 41
4.000000000000000
 42
4.000000000000000
 43
4.000000000000000
 50
3.449206436880104
  0
INSERT
  5
244
100
AcDbEntity
  8
MAIN10
  6
BYBLOCK
 62
0
100
AcDbBlockReference
  2
_OPEN
 10
647.5852276864164
 20
528.9883790024547
 30
0.0000000000000000
 41
4.000000000000000
 42
4.000000000000000
 43
4.000000000000000
 50
183.4492064368801
  0
MTEXT
  5
245
100
AcDbEntity
  8
MAIN10
  6
BYBLOCK
 62
0
100
AcDbMText
 10
818.3508082968193
 20
543.3883454166675
 30
0.0000000000000000
 40
6.199999809265137
 41
0.0000000000000000
 71
     5
 72
     1
  1
\A1;\U+2205235
 11
0.9981885266342480
 21
0.06016365427522916
 31
0.0000000000000000
  7
STANDARD
  0
ENDBLK
  5
246
100
AcDbEntity
  8
MAIN10
  6
CONTINUOUS
 62
3
100
AcDbBlockEnd
  0
BLOCK
  5
380
100
AcDbEntity
  8
MAIN0
  6
BYBLOCK
 62
3
100
AcDbBlockBegin
  2
M0
 70
    64
 10
0.0
 20
0.0
 30
0.0
  0
MTEXT
  5
381
100
AcDbEntity
  8
MAIN0
  6
BYBLOCK
 62
0
100
AcDbMText
 10
108.5289405894486
 20
178.7684422263976
 30
0.0000000000000000
 40
6.200000762939453
 41
0.0000000000000000
 71
     1
 72
     1
  1
{\H0.95x;上記仕様は標準ソフトジョー付で許容最大入力時の場合\Pまた最大静的把握力、および許容最高回転速度については\Pソフトジョーの面上高さの１／２での実測値を示す}
 11
1.000000000000000
 21
0.0000000000000000
 31
0.0000000000000000
  7
KNJYOKO
  0
CIRCLE
  5
382
100
AcDbEntity
  8
MAIN0
  6
BYBLOCK
 62
0
100
AcDbCircle
 10
104.3222805603042
 20
175.5271768866881
 30
0.0000000000000000
 40
2.000000000000000
  0
ENDBLK
  5
383
100
AcDbEntity
  8
MAIN0
  6
BYBLOCK
 62
3
100
AcDbBlockEnd
  0
BLOCK
  5
385
100
AcDbEntity
  8
MAIN0
  6
BYBLOCK
 62
3
100
AcDbBlockBegin
  2
M1
 70
    64
 10
0.0
 20
0.0
 30
0.0
  0
LINE
  5
386
100
AcDbEntity
  8
MAIN0
  6
BYBLOCK
 62
0
100
AcDbLine
 10
100.8288814090520
 20
372.3574470286054
 30
0.0000000000000000
 11
254.8288814090519
 21
372.3574470286054
 31
0.0000000000000000
  0
LINE
  5
387
100
AcDbEntity
  8
MAIN0
  6
BYBLOCK
 62
0
100
AcDbLine
 10
100.8288814090520
 20
352.3574470286054
 30
0.0000000000000000
 11
254.8288814090519
 21
352.3574470286054
 31
0.0000000000000000
  0
LINE
  5
388
100
AcDbEntity
  8
MAIN0
  6
BYBLOCK
 62
0
100
AcDbLine
 10
100.8288814090520
 20
182.3574470286054
 30
0.0000000000000000
 11
100.8288814090520
 21
372.3574470286054
 31
0.0000000000000000
  0
LINE
  5
389
100
AcDbEntity
  8
MAIN0
  6
BYBLOCK
 62
0
100
AcDbLine
 10
100.8288814090520
 20
338.3574470286059
 30
0.0000000000000000
 11
254.8288814090515
 21
338.3574470286059
 31
0.0000000000000000
  0
LINE
  5
38A
100
AcDbEntity
  8
MAIN0
  6
BYBLOCK
 62
0
100
AcDbLine
 10
100.8288814090520
 20
324.3574470286059
 30
0.0000000000000000
 11
254.8288814090515
 21
324.3574470286059
 31
0.0000000000000000
  0
LINE
  5
38B
100
AcDbEntity
  8
MAIN0
  6
BYBLOCK
 62
0
100
AcDbLine
 10
100.8288814090520
 20
304.3574470286056
 30
0.0000000000000000
 11
254.8288814090515
 21
304.3574470286056
 31
0.0000000000000000
  0
LINE
  5
38C
100
AcDbEntity
  8
MAIN0
  6
BYBLOCK
 62
0
100
AcDbLine
 10
100.8288814090520
 20
284.3574470286055
 30
0.0000000000000000
 11
254.8288814090515
 21
284.3574470286055
 31
0.0000000000000000
  0
LINE
  5
38D
100
AcDbEntity
  8
MAIN0
  6
BYBLOCK
 62
0
100
AcDbLine
 10
100.8288814090520
 20
270.3574470286055
 30
0.0000000000000000
 11
254.8288814090515
 21
270.3574470286055
 31
0.0000000000000000
  0
LINE
  5
38E
100
AcDbEntity
  8
MAIN0
  6
BYBLOCK
 62
0
100
AcDbLine
 10
100.8288814090520
 20
256.3574470286055
 30
0.0000000000000000
 11
254.8288814090515
 21
256.3574470286055
 31
0.0000000000000000
  0
LINE
  5
38F
100
AcDbEntity
  8
MAIN0
  6
BYBLOCK
 62
0
100
AcDbLine
 10
100.8288814090520
 20
236.3574470286056
 30
0.0000000000000000
 11
254.8288814090515
 21
236.3574470286056
 31
0.0000000000000000
  0
LINE
  5
390
100
AcDbEntity
  8
MAIN0
  6
BYBLOCK
 62
0
100
AcDbLine
 10
100.8288814090520
 20
216.3574470286056
 30
0.0000000000000000
 11
254.8288814090515
 21
216.3574470286056
 31
0.0000000000000000
  0
LINE
  5
391
100
AcDbEntity
  8
MAIN0
  6
BYBLOCK
 62
0
100
AcDbLine
 10
100.8288814090520
 20
202.3574470286056
 30
0.0000000000000000
 11
254.8288814090515
 21
202.3574470286056
 31
0.0000000000000000
  0
LINE
  5
392
100
AcDbEntity
  8
MAIN0
  6
BYBLOCK
 62
0
100
AcDbLine
 10
100.8288814090518
 20
182.3574470286054
 30
0.0000000000000000
 11
254.8288814090518
 21
182.3574470286049
 31
0.0000000000000000
  0
LINE
  5
393
100
AcDbEntity
  8
MAIN0
  6
BYBLOCK
 62
0
100
AcDbLine
 10
194.8288814090515
 20
182.3574470286050
 30
0.0000000000000000
 11
194.8288814090515
 21
352.3574470286055
 31
0.0000000000000000
  0
LINE
  5
394
100
AcDbEntity
  8
MAIN0
  6
BYBLOCK
 62
0
100
AcDbLine
 10
254.8288814090515
 20
182.3574470286049
 30
0.0000000000000000
 11
254.8288814090515
 21
372.3574470286054
 31
0.0000000000000000
  0
MTEXT
  5
395
100
AcDbEntity
  8
MAIN0
  6
BYBLOCK
 62
0
100
AcDbMText
 10
106.9758983172820
 20
344.8840359486219
 30
0.0000000000000000
 40
4.799999237060547
 41
0.0000000000000000
 71
     1
 72
     1
  1
{\H0.93x;プランジャストロ－ク}
 11
1.000000000000000
 21
0.0000000000000000
 31
0.0000000000000000
  7
KNJYOKO
  0
MTEXT
  5
396
100
AcDbEntity
  8
MAIN0
  6
BYBLOCK
 62
0
100
AcDbMText
 10
106.9758983172821
 20
330.8840359486224
 30
0.0000000000000000
 40
4.799999237060547
 41
0.0000000000000000
 71
     1
 72
     1
  1
{\H0.94x;ジョーストローク(直径で)}
 11
1.000000000000000
 21
0.0000000000000000
 31
0.0000000000000000
  7
KNJYOKO
  0
MTEXT
  5
397
100
AcDbEntity
  8
MAIN0
  6
BYBLOCK
 62
0
100
AcDbMText
 10
106.9758983172821
 20
312.8840359486224
 30
0.0000000000000000
 40
4.799999237060547
 41
0.0000000000000000
 71
     1
 72
     1
  1
{\H0.93x;許容最大入力　}
 11
1.000000000000000
 21
0.0000000000000000
 31
0.0000000000000000
  7
KNJYOKO
  0
MTEXT
  5
398
100
AcDbEntity
  8
MAIN0
  6
BYBLOCK
 62
0
100
AcDbMText
 10
106.9758983172821
 20
296.8840359486222
 30
0.0000000000000000
 40
4.799999237060547
 41
0.0000000000000000
 71
     1
 72
     1
  1
{\H0.93x;最大静的把握力　　}
 11
1.000000000000000
 21
0.0000000000000000
 31
0.0000000000000000
  7
KNJYOKO
  0
MTEXT
  5
399
100
AcDbEntity
  8
MAIN0
  6
BYBLOCK
 62
0
100
AcDbMText
 10
106.9758983172820
 20
276.8840359486222
 30
0.0000000000000000
 40
4.799999237060547
 41
0.0000000000000000
 71
     1
 72
     1
  1
{\H0.93x;許容最高回転速度　}
 11
1.000000000000000
 21
0.0000000000000000
 31
0.0000000000000000
  7
KNJYOKO
  0
MTEXT
  5
39A
100
AcDbEntity
  8
MAIN0
  6
BYBLOCK
 62
0
100
AcDbMText
 10
106.9758983172820
 20
262.8840359486222
 30
0.0000000000000000
 40
4.799999237060547
 41
0.0000000000000000
 71
     1
 72
     1
  1
{\H0.89x;質量\P}
 11
1.000000000000000
 21
0.0000000000000000
 31
0.0000000000000000
  7
KNJYOKO
  0
MTEXT
  5
39B
100
AcDbEntity
  8
MAIN0
  6
BYBLOCK
 62
0
100
AcDbMText
 10
107.1239697006892
 20
250.9752692858463
 30
0.0000000000000000
 40
4.999998092651367
 41
0.0000000000000000
 71
     1
 72
     1
  1
{\H0.75x;MOMENT OF INERTIA\P慣性モーメント}
 11
1.000000000000000
 21
0.0000000000000000
 31
0.0000000000000000
  7
KNJYOKO
  0
MTEXT
  5
39C
100
AcDbEntity
  8
MAIN0
  6
BYBLOCK
 62
0
100
AcDbMText
 10
106.9758983172820
 20
222.8840359486221
 30
0.0000000000000000
 40
4.799999237060547
 41
0.0000000000000000
 71
     1
 72
     1
  1
{\H0.94x;最高回転時の動的把握力}
 11
1.000000000000000
 21
0.0000000000000000
 31
0.0000000000000000
  7
KNJYOKO
  0
MTEXT
  5
39D
100
AcDbEntity
  8
MAIN0
  6
BYBLOCK
 62
0
100
AcDbMText
 10
106.9758983172820
 20
208.8840359486221
 30
0.0000000000000000
 40
4.799999237060547
 41
0.0000000000000000
 71
     1
 72
     1
  1
{\H0.93x;使用シリンダ}
 11
1.000000000000000
 21
0.0000000000000000
 31
0.0000000000000000
  7
KNJYOKO
  0
MTEXT
  5
39E
100
AcDbEntity
  8
MAIN0
  6
BYBLOCK
 62
0
100
AcDbMText
 10
106.5960310283803
 20
191.1184270251767
 30
0.0000000000000000
 40
4.799999237060547
 41
0.0000000000000000
 71
     1
 72
     1
  1
{\H0.93x;許容最大油圧力}
 11
1.000000000000000
 21
0.0000000000000000
 31
0.0000000000000000
  7
KNJYOKO
  0
MTEXT
  5
39F
100
AcDbEntity
  8
MAIN0
  6
BYBLOCK
 62
0
100
AcDbMText
 10
224.8288814090516
 20
345.9574455027265
 30
0.0000000000000000
 40
5.599998474121094
 41
0.0000000000000000
 71
     1
 72
     1
  1
{\H0.58x;　　　　ｍｍ}
 11
1.000000000000000
 21
0.0000000000000000
 31
0.0000000000000000
  7
KNJYOKO
  0
MTEXT
  5
3A0
100
AcDbEntity
  8
MAIN0
  6
BYBLOCK
 62
0
100
AcDbMText
 10
224.8288814090516
 20
331.9574455027265
 30
0.0000000000000000
 40
5.599998474121094
 41
0.0000000000000000
 71
     1
 72
     1
  1
{\H0.58x;　　　　ｍｍ}
 11
1.000000000000000
 21
0.0000000000000000
 31
0.0000000000000000
  7
KNJYOKO
  0
MTEXT
  5
3A1
100
AcDbEntity
  8
MAIN0
  6
BYBLOCK
 62
0
100
AcDbMText
 10
224.8288814090516
 20
263.9574455027263
 30
0.0000000000000000
 40
5.599998474121094
 41
0.0000000000000000
 71
     1
 72
     1
  1
{\H0.58x;　　　　ｋｇ}
 11
1.000000000000000
 21
0.0000000000000000
 31
0.0000000000000000
  7
KNJYOKO
  0
MTEXT
  5
3A2
100
AcDbEntity
  8
MAIN0
  6
BYBLOCK
 62
0
100
AcDbMText
 10
224.8288814090516
 20
277.9574455027263
 30
0.0000000000000000
 40
5.599998474121094
 41
0.0000000000000000
 71
     1
 72
     1
  1
{\H0.58x;　　ｍｉｎ}
 11
1.000000000000000
 21
0.0000000000000000
 31
0.0000000000000000
  7
KNJYOKO
  0
MTEXT
  5
3A3
100
AcDbEntity
  8
MAIN0
  6
BYBLOCK
 62
0
100
AcDbMText
 10
154.5717628009901
 20
360.9886251188331
 30
0.0000000000000000
 40
6.200000762939453
 41
0.0000000000000000
 71
     1
 72
     1
  1
{\H0.93x;仕　　　様}
 11
1.000000000000000
 21
0.0000000000000000
 31
0.0000000000000000
  7
KNJYOKO
  0
MTEXT
  5
3A4
100
AcDbEntity
  8
MAIN0
  6
BYBLOCK
 62
0
100
AcDbMText
 10
222.8288814090516
 20
310.9574455027263
 30
0.0000000000000000
 40
5.599998474121094
 41
0.0000000000000000
 71
     1
 72
     1
  1
{\H0.60x;　　　ｋｇｆ)}
 11
1.000000000000000
 21
0.0000000000000000
 31
0.0000000000000000
  7
KNJYOKO
  0
MTEXT
  5
3A5
100
AcDbEntity
  8
MAIN0
  6
BYBLOCK
 62
0
100
AcDbMText
 10
198.8288814090516
 20
310.9574455027263
 30
0.0000000000000000
 40
5.599998474121094
 41
0.0000000000000000
 71
     1
 72
     1
  1
{\H0.60x;(}
 11
1.000000000000000
 21
0.0000000000000000
 31
0.0000000000000000
  7
STANDARD
  0
MTEXT
  5
3A6
100
AcDbEntity
  8
MAIN0
  6
BYBLOCK
 62
0
100
AcDbMText
 10
224.8288814090516
 20
318.9574455027265
 30
0.0000000000000000
 40
5.599998474121094
 41
0.0000000000000000
 71
     1
 72
     1
  1
{\H0.58x;　　　　ｋＮ}
 11
1.000000000000000
 21
0.0000000000000000
 31
0.0000000000000000
  7
KNJYOKO
  0
MTEXT
  5
3A7
100
AcDbEntity
  8
MAIN0
  6
BYBLOCK
 62
0
100
AcDbMText
 10
222.8288814090516
 20
290.9574455027263
 30
0.0000000000000000
 40
5.599998474121094
 41
0.0000000000000000
 71
     1
 72
     1
  1
{\H0.60x;　　　ｋｇｆ)}
 11
1.000000000000000
 21
0.0000000000000000
 31
0.0000000000000000
  7
KNJYOKO
  0
MTEXT
  5
3A8
100
AcDbEntity
  8
MAIN0
  6
BYBLOCK
 62
0
100
AcDbMText
 10
198.8288814090516
 20
290.9574455027263
 30
0.0000000000000000
 40
5.599998474121094
 41
0.0000000000000000
 71
     1
 72
     1
  1
{\H0.60x;(}
 11
1.000000000000000
 21
0.0000000000000000
 31
0.0000000000000000
  7
STANDARD
  0
MTEXT
  5
3A9
100
AcDbEntity
  8
MAIN0
  6
BYBLOCK
 62
0
100
AcDbMText
 10
224.3881656195721
 20
243.4990944748424
 30
0.0000000000000000
 40
5.599998474121094
 41
0.0000000000000000
 71
     7
 72
     1
  1
　　ｋｇ・ｍ
 11
1.000000000000000
 21
0.0000000000000000
 31
0.0000000000000000
  7
KNJYOKO
  0
MTEXT
  5
3AA
100
AcDbEntity
  8
MAIN0
  6
BYBLOCK
 62
0
100
AcDbMText
 10
248.3881656195721
 20
246.2990937119029
 30
0.0000000000000000
 40
2.799999237060547
 41
0.0000000000000000
 71
     7
 72
     1
  1
2
 11
1.000000000000000
 21
0.0000000000000000
 31
0.0000000000000000
  7
STANDARD
  0
MTEXT
  5
3AB
100
AcDbEntity
  8
MAIN0
  6
BYBLOCK
 62
0
100
AcDbMText
 10
222.8288814090516
 20
222.9574455027263
 30
0.0000000000000000
 40
5.599998474121094
 41
0.0000000000000000
 71
     1
 72
     1
  1
{\H0.60x;　　　ｋｇｆ)}
 11
1.000000000000000
 21
0.0000000000000000
 31
0.0000000000000000
  7
KNJYOKO
  0
MTEXT
  5
3AC
100
AcDbEntity
  8
MAIN0
  6
BYBLOCK
 62
0
100
AcDbMText
 10
198.8288814090516
 20
222.9574455027263
 30
0.0000000000000000
 40
5.599998474121094
 41
0.0000000000000000
 71
     1
 72
     1
  1
{\H0.60x;(}
 11
1.000000000000000
 21
0.0000000000000000
 31
0.0000000000000000
  7
STANDARD
  0
MTEXT
  5
3AD
100
AcDbEntity
  8
MAIN0
  6
BYBLOCK
 62
0
100
AcDbMText
 10
222.8288814090516
 20
188.9574455027259
 30
0.0000000000000000
 40
5.599998474121094
 41
0.0000000000000000
 71
     1
 72
     1
  1
{\H0.62x;ｋｇｆ／ｃｍ )}
 11
1.000000000000000
 21
0.0000000000000000
 31
0.0000000000000000
  7
KNJYOKO
  0
MTEXT
  5
3AE
100
AcDbEntity
  8
MAIN0
  6
BYBLOCK
 62
0
100
AcDbMText
 10
246.9354730757831
 20
189.7782550850499
 30
0.0000000000000000
 40
4.000000000000000
 41
0.0000000000000000
 71
     1
 72
     1
  1
{\H0.81x;2}
 11
1.000000000000000
 21
0.0000000000000000
 31
0.0000000000000000
  7
STANDARD
  0
MTEXT
  5
3AF
100
AcDbEntity
  8
MAIN0
  6
BYBLOCK
 62
0
100
AcDbMText
 10
198.8288814090516
 20
188.9574455027259
 30
0.0000000000000000
 40
5.599998474121094
 41
0.0000000000000000
 71
     1
 72
     1
  1
{\H0.60x;(}
 11
1.000000000000000
 21
0.0000000000000000
 31
0.0000000000000000
  7
STANDARD
  0
MTEXT
  5
3B0
100
AcDbEntity
  8
MAIN0
  6
BYBLOCK
 62
0
100
AcDbMText
 10
224.8288814090516
 20
196.9574455027259
 30
0.0000000000000000
 40
5.599998474121094
 41
0.0000000000000000
 71
     1
 72
     1
  1
{\H0.58x;　　　ＭＰａ}
 11
1.000000000000000
 21
0.0000000000000000
 31
0.0000000000000000
  7
KNJYOKO
  0
MTEXT
  5
3B1
100
AcDbEntity
  8
MAIN0
  6
BYBLOCK
 62
0
100
AcDbMText
 10
224.8288814090516
 20
298.9574455027263
 30
0.0000000000000000
 40
5.599998474121094
 41
0.0000000000000000
 71
     1
 72
     1
  1
{\H0.58x;　　　　ｋＮ}
 11
1.000000000000000
 21
0.0000000000000000
 31
0.0000000000000000
  7
KNJYOKO
  0
MTEXT
  5
3B2
100
AcDbEntity
  8
MAIN0
  6
BYBLOCK
 62
0
100
AcDbMText
 10
224.8288814090516
 20
230.9574455027263
 30
0.0000000000000000
 40
5.599998474121094
 41
0.0000000000000000
 71
     1
 72
     1
  1
{\H0.58x;　　　　ｋＮ}
 11
1.000000000000000
 21
0.0000000000000000
 31
0.0000000000000000
  7
KNJYOKO
  0
MTEXT
  5
3B3
100
AcDbEntity
  8
MAIN0
  6
BYBLOCK
 62
0
100
AcDbMText
 10
245.1382179056915
 20
279.2965346085158
 30
0.0000000000000000
 40
4.000000000000000
 41
0.0000000000000000
 71
     1
 72
     1
  1
{\H0.88x;-1}
 11
1.000000000000000
 21
0.0000000000000000
 31
0.0000000000000000
  7
STANDARD
  0
MTEXT
  5
3B4
100
AcDbEntity
  8
MAIN0
  6
BYBLOCK
 62
0
100
AcDbMText
 10
106.9758983172820
 20
351.0840348042128
 30
0.0000000000000000
 40
4.999998092651367
 41
0.0000000000000000
 71
     1
 72
     1
  1
{\H0.75x;PLUNGER STROKE}
 11
1.000000000000000
 21
0.0000000000000000
 31
0.0000000000000000
  7
STANDARD
  0
MTEXT
  5
3B5
100
AcDbEntity
  8
MAIN0
  6
BYBLOCK
 62
0
100
AcDbMText
 10
106.9758983172821
 20
337.0840348042132
 30
0.0000000000000000
 40
4.999998092651367
 41
0.0000000000000000
 71
     1
 72
     1
  1
{\H0.75x;JAW STROKE (IN DIA)}
 11
1.000000000000000
 21
0.0000000000000000
 31
0.0000000000000000
  7
STANDARD
  0
MTEXT
  5
3B6
100
AcDbEntity
  8
MAIN0
  6
BYBLOCK
 62
0
100
AcDbMText
 10
106.9758983172821
 20
319.0840367115619
 30
0.0000000000000000
 40
5.000000000000000
 41
0.0000000000000000
 71
     1
 72
     1
  1
{\H0.63x;MAX PERMISSIBLE INPUT FORCE}
 11
1.000000000000000
 21
0.0000000000000000
 31
0.0000000000000000
  7
STANDARD
  0
MTEXT
  5
3B7
100
AcDbEntity
  8
MAIN0
  6
BYBLOCK
 62
0
100
AcDbMText
 10
106.9758983172821
 20
303.0840367115616
 30
0.0000000000000000
 40
5.000000000000000
 41
0.0000000000000000
 71
     1
 72
     1
  1
{\H0.63x;MAX STATIC GRIPPING FORCE}
 11
1.000000000000000
 21
0.0000000000000000
 31
0.0000000000000000
  7
STANDARD
  0
MTEXT
  5
3B8
100
AcDbEntity
  8
MAIN0
  6
BYBLOCK
 62
0
100
AcDbMText
 10
106.9758983172820
 20
283.0840348042130
 30
0.0000000000000000
 40
4.999998092651367
 41
0.0000000000000000
 71
     1
 72
     1
  1
{\H0.75x;MAX PERMISSIBLE SPEED}
 11
1.000000000000000
 21
0.0000000000000000
 31
0.0000000000000000
  7
STANDARD
  0
MTEXT
  5
3B9
100
AcDbEntity
  8
MAIN0
  6
BYBLOCK
 62
0
100
AcDbMText
 10
106.9758983172820
 20
269.0840348042130
 30
0.0000000000000000
 40
4.999998092651367
 41
0.0000000000000000
 71
     1
 72
     1
  1
{\H0.73x;MASS}
 11
1.000000000000000
 21
0.0000000000000000
 31
0.0000000000000000
  7
STANDARD
  0
MTEXT
  5
3BA
100
AcDbEntity
  8
MAIN0
  6
BYBLOCK
 62
0
100
AcDbMText
 10
107.1239697006892
 20
216.1314478181589
 30
0.0000000000000000
 40
4.999998092651367
 41
0.0000000000000000
 71
     1
 72
     1
  1
{\H0.75x;OPERATING CYLINDER}
 11
1.000000000000000
 21
0.0000000000000000
 31
0.0000000000000000
  7
STANDARD
  0
MTEXT
  5
3BB
100
AcDbEntity
  8
MAIN0
  6
BYBLOCK
 62
0
100
AcDbMText
 10
106.3320616922258
 20
198.4455696555093
 30
0.0000000000000000
 40
5.000000000000000
 41
0.0000000000000000
 71
     1
 72
     1
  1
{\H0.63x;MAX PERMISSIBLE OIL PRESS}
 11
1.000000000000000
 21
0.0000000000000000
 31
0.0000000000000000
  7
STANDARD
  0
MTEXT
  5
3BC
100
AcDbEntity
  8
MAIN0
  6
BYBLOCK
 62
0
100
AcDbMText
 10
106.8600003645348
 20
234.0812940968639
 30
0.0000000000000000
 40
5.000000000000000
 41
0.0000000000000000
 71
     1
 72
     1
  1
{\H0.63x;DYNAMIC GRIPPING FORCE}
 11
1.000000000000000
 21
0.0000000000000000
 31
0.0000000000000000
  7
STANDARD
  0
MTEXT
  5
3BD
100
AcDbEntity
  8
MAIN0
  6
BYBLOCK
 62
0
100
AcDbMText
 10
88.48633250140642
 20
228.7137473122404
 30
0.0000000000000000
 40
4.999998092651367
 41
0.0000000000000000
 71
     1
 72
     1
  1
{\H0.75x;            AT MAX SPEED}
 11
1.000000000000000
 21
0.0000000000000000
 31
0.0000000000000000
  7
STANDARD
  0
MTEXT
  5
3BE
100
AcDbEntity
  8
MAIN0
  6
BYBLOCK
 62
0
100
AcDbMText
 10
134.9653766229432
 20
369.0776961337697
 30
0.0000000000000000
 40
6.200000762939453
 41
0.0000000000000000
 71
     1
 72
     1
  1
{\H0.94x;SPECIFICATIONS}
 11
1.000000000000000
 21
0.0000000000000000
 31
0.0000000000000000
  7
STANDARD
  0
ENDBLK
  5
3BF
100
AcDbEntity
  8
MAIN0
  6
BYBLOCK
 62
3
100
AcDbBlockEnd
  0
BLOCK
  5
3C1
100
AcDbEntity
  8
MAIN0
  6
BYBLOCK
 62
3
100
AcDbBlockBegin
  2
M2
 70
    64
 10
0.0
 20
0.0
 30
0.0
  0
MTEXT
  5
3C2
100
AcDbEntity
  8
MAIN0
  6
BYBLOCK
 62
0
100
AcDbMText
 10
54.40403637510404
 20
122.8514019211923
 30
0.0000000000000000
 40
6.199999809265137
 41
0.0000000000000000
 71
     1
 72
     1
  3
{\H0.93x;ABOVE SPECS : WITH STD SOFT BLANK TOP JAWS\P              AT MAX PERMISSBLE INPUT FORCE.\P              MAX. STATIC GRIPPING FORCE AND\P              MAX. PERMISSIBLE SPEED ARE\P              ACTUAL VALUE AT 1/2 HEIGHT\P              OF STD 
  1
SOFT BLANK TOP JAWS\P              FROM CHUCK SURFACE.}
 11
1.000000000000000
 21
0.0000000000000000
 31
0.0000000000000000
  7
STANDARD
  0
ENDBLK
  5
3C3
100
AcDbEntity
  8
MAIN0
  6
BYBLOCK
 62
3
100
AcDbBlockEnd
  0
ENDSEC
  0
SECTION
  2
ENTITIES
  0
LINE
  5
46
100
AcDbEntity
  8
MAIN0
  6
CENTER
 62
12
100
AcDbLine
 10
328.2754618066037
 20
153.4425665943791
 30
0.0000000000000000
 11
405.9780214047908
 21
153.4425665943791
 31
0.0000000000000000
  0
LINE
  5
47
100
AcDbEntity
  8
MAIN0
  6
CONTINUOUS
 62
3
100
AcDbLine
 10
400.2955260489521
 20
756.3076083797942
 30
0.0000000000000000
 11
403.5455260489521
 21
756.3076083797942
 31
0.0000000000000000
  0
LINE
  5
48
100
AcDbEntity
  8
MAIN0
  6
CONTINUOUS
 62
3
100
AcDbLine
 10
400.2955260489521
 20
714.3076083797942
 30
0.0000000000000000
 11
403.5455260489521
 21
714.3076083797942
 31
0.0000000000000000
  0
LINE
  5
49
100
AcDbEntity
  8
MAIN0
  6
CONTINUOUS
 62
3
100
AcDbLine
 10
403.5455260489521
 20
714.3076083797942
 30
0.0000000000000000
 11
403.5455260489521
 21
756.3076083797940
 31
0.0000000000000000
  0
LINE
  5
4A
100
AcDbEntity
  8
MAIN0
  6
CONTINUOUS
 62
3
100
AcDbLine
 10
375.2955260489522
 20
402.5576083797947
 30
0.0000000000000000
 11
375.2955260489522
 21
434.5576083797944
 31
0.0000000000000000
  0
LINE
  5
4B
100
AcDbEntity
  8
MAIN0
  6
CONTINUOUS
 62
3
100
AcDbLine
 10
856.6710723670849
 20
586.7482073030308
 30
0.0000000000000000
 11
858.6710723670861
 21
587.9029078414108
 31
0.0000000000000000
  0
LINE
  5
4C
100
AcDbEntity
  8
MAIN0
  6
CONTINUOUS
 62
3
100
AcDbLine
 10
856.6710723670868
 20
591.3670094565489
 30
0.0000000000000000
 11
854.6710723670856
 21
590.2123089181689
 31
0.0000000000000000
  0
LINE
  5
4D
100
AcDbEntity
  8
MAIN0
  6
CONTINUOUS
 62
3
100
AcDbLine
 10
858.6710723670855
 20
590.2123089181697
 30
0.0000000000000000
 11
858.6710723670855
 21
587.9029078414113
 31
0.0000000000000000
  0
LINE
  5
4E
100
AcDbEntity
  8
MAIN0
  6
CONTINUOUS
 62
3
100
AcDbLine
 10
854.6710723670855
 20
590.2123089181698
 30
0.0000000000000000
 11
854.6710723670855
 21
587.9029078414113
 31
0.0000000000000000
  0
LINE
  5
4F
100
AcDbEntity
  8
MAIN0
  6
CONTINUOUS
 62
3
100
AcDbLine
 10
858.6710723670852
 20
590.2123089181688
 30
0.0000000000000000
 11
856.6710723670840
 21
591.3670094565488
 31
0.0000000000000000
  0
LINE
  5
50
100
AcDbEntity
  8
MAIN0
  6
CONTINUOUS
 62
3
100
AcDbLine
 10
856.6710723670860
 20
586.7482073030310
 30
0.0000000000000000
 11
854.6710723670847
 21
587.9029078414110
 31
0.0000000000000000
  0
LINE
  5
51
100
AcDbEntity
  8
MAIN0
  6
CENTER
 62
12
100
AcDbLine
 10
836.1950383146983
 20
494.8794521518804
 30
0.0000000000000000
 11
971.3907600404253
 21
416.8241658202459
 31
0.0000000000000000
  0
LINE
  5
52
100
AcDbEntity
  8
MAIN0
  6
CONTINUOUS
 62
3
100
AcDbLine
 10
852.0281231746624
 20
471.0157844815424
 30
0.0000000000000000
 11
951.6210446098710
 21
413.5157844815429
 31
0.0000000000000000
  0
LINE
  5
53
100
AcDbEntity
  8
MAIN0
  6
CONTINUOUS
 62
3
100
AcDbLine
 10
864.7781231746623
 20
493.0994322780456
 30
0.0000000000000000
 11
964.3710446098726
 21
435.5994322780452
 31
0.0000000000000000
  0
LINE
  5
54
100
AcDbEntity
  8
MAIN0
  6
CONTINUOUS
 62
3
100
AcDbLine
 10
830.1938310311386
 20
462.5485341027494
 30
0.0000000000000000
 11
942.4960446098725
 21
397.7108208624762
 31
0.0000000000000000
  0
LINE
  5
55
100
AcDbEntity
  8
MAIN0
  6
CONTINUOUS
 62
3
100
AcDbLine
 10
861.1938310311386
 20
516.2421091373846
 30
0.0000000000000000
 11
973.4960446098725
 21
451.4043958971113
 31
0.0000000000000000
  0
LINE
  5
56
100
AcDbEntity
  8
MAIN0
  6
HIDDEN
 62
12
100
AcDbLine
 10
393.7955260489521
 20
433.3576083797942
 30
0.0000000000000000
 11
391.7955260489521
 21
433.3576083797942
 31
0.0000000000000000
  0
LINE
  5
57
100
AcDbEntity
  8
MAIN0
  6
CONTINUOUS
 62
3
100
AcDbLine
 10
764.8723795659421
 20
702.1225653797931
 30
0.0000000000000000
 11
756.3723795659420
 21
697.2150863797931
 31
0.0000000000000000
  0
LINE
  5
58
100
AcDbEntity
  8
MAIN0
  6
CONTINUOUS
 62
3
100
AcDbLine
 10
756.3723795659404
 20
697.2150863797939
 30
0.0000000000000000
 11
756.3723795659404
 21
687.4001223797939
 31
0.0000000000000000
  0
LINE
  5
59
100
AcDbEntity
  8
MAIN0
  6
CONTINUOUS
 62
3
100
AcDbLine
 10
756.3723795659428
 20
687.4001223797930
 30
0.0000000000000000
 11
764.8723795659429
 21
682.4926513797930
 31
0.0000000000000000
  0
LINE
  5
5A
100
AcDbEntity
  8
MAIN0
  6
CONTINUOUS
 62
3
100
AcDbLine
 10
764.8723795659424
 20
682.4926513797933
 30
0.0000000000000000
 11
773.3723795659412
 21
687.4001373797926
 31
0.0000000000000000
  0
LINE
  5
5B
100
AcDbEntity
  8
MAIN0
  6
CONTINUOUS
 62
3
100
AcDbLine
 10
773.3723795659404
 20
687.4001373797939
 30
0.0000000000000000
 11
773.3723795659404
 21
697.2150863797939
 31
0.0000000000000000
  0
LINE
  5
5C
100
AcDbEntity
  8
MAIN0
  6
CONTINUOUS
 62
3
100
AcDbLine
 10
773.3723795659431
 20
697.2150863797932
 30
0.0000000000000000
 11
764.8723795659431
 21
702.1225653797932
 31
0.0000000000000000
  0
LINE
  5
5D
100
AcDbEntity
  8
MAIN0
  6
CONTINUOUS
 62
3
100
AcDbLine
 10
942.4960446098727
 20
397.7108208624757
 30
0.0000000000000000
 11
973.4960446098726
 21
451.4043958971113
 31
0.0000000000000000
  0
LINE
  5
5E
100
AcDbEntity
  8
MAIN0
  6
CENTER
 62
12
100
AcDbLine
 10
947.4877516532198
 20
453.8567110780538
 30
0.0000000000000000
 11
926.9106607847645
 21
418.2161442219274
 31
0.0000000000000000
  0
LINE
  5
5F
100
AcDbEntity
  8
MAIN0
  6
CENTER
 62
12
100
AcDbLine
 10
910.2486592904888
 20
475.3567110780539
 30
0.0000000000000000
 11
889.6715684220334
 21
439.7161442219276
 31
0.0000000000000000
  0
LINE
  5
60
100
AcDbEntity
  8
MAIN0
  6
CONTINUOUS
 62
3
100
AcDbLine
 10
284.2955260489522
 20
371.0576083797942
 30
0.0000000000000000
 11
344.2955260489520
 21
371.0576083797942
 31
0.0000000000000000
  0
LINE
  5
61
100
AcDbEntity
  8
MAIN0
  6
CONTINUOUS
 62
3
100
AcDbLine
 10
284.2955260489522
 20
331.0576083797942
 30
0.0000000000000000
 11
344.2955260489515
 21
331.0576083797942
 31
0.0000000000000000
  0
LINE
  5
62
100
AcDbEntity
  8
MAIN0
  6
CONTINUOUS
 62
3
100
AcDbLine
 10
344.2955260489522
 20
331.0576083797942
 30
0.0000000000000000
 11
344.2955260489522
 21
371.0576083797942
 31
0.0000000000000000
  0
LINE
  5
63
100
AcDbEntity
  8
MAIN0
  6
CONTINUOUS
 62
3
100
AcDbLine
 10
344.2955260489519
 20
371.0576083797943
 30
0.0000000000000000
 11
355.8425314327444
 21
351.0576083797942
 31
0.0000000000000000
  0
LINE
  5
64
100
AcDbEntity
  8
MAIN0
  6
CONTINUOUS
 62
3
100
AcDbLine
 10
344.2955260489516
 20
331.0576083797945
 30
0.0000000000000000
 11
355.8425314327441
 21
351.0576083797943
 31
0.0000000000000000
  0
LINE
  5
65
100
AcDbEntity
  8
MAIN0
  6
CENTER
 62
12
100
AcDbLine
 10
275.3915498017090
 20
351.0576083797946
 30
0.0000000000000000
 11
363.8773351822537
 21
351.0576083797946
 31
0.0000000000000000
  0
LINE
  5
66
100
AcDbEntity
  8
MAIN0
  6
CONTINUOUS
 62
3
100
AcDbLine
 10
298.2955260489522
 20
566.3076083797939
 30
0.0000000000000000
 11
308.2955260489516
 21
566.3076083797939
 31
0.0000000000000000
  0
LINE
  5
67
100
AcDbEntity
  8
MAIN0
  6
CONTINUOUS
 62
3
100
AcDbLine
 10
298.2955260489522
 20
505.8076083797942
 30
0.0000000000000000
 11
308.2955260489522
 21
505.8076083797942
 31
0.0000000000000000
  0
LINE
  5
68
100
AcDbEntity
  8
MAIN0
  6
CONTINUOUS
 62
4
100
AcDbLine
 10
308.2955260489517
 20
566.3076083797942
 30
0.0000000000000000
 11
310.4605895584126
 21
565.0576083797943
 31
0.0000000000000000
  0
LINE
  5
69
100
AcDbEntity
  8
MAIN0
  6
CONTINUOUS
 62
4
100
AcDbLine
 10
310.4605895584132
 20
507.0576083797940
 30
0.0000000000000000
 11
308.2955260489521
 21
505.8076083797941
 31
0.0000000000000000
  0
LINE
  5
6A
100
AcDbEntity
  8
MAIN0
  6
CONTINUOUS
 62
3
100
AcDbLine
 10
299.2955260489522
 20
575.0576083797942
 30
0.0000000000000000
 11
298.2955260489523
 21
574.0576083797942
 31
0.0000000000000000
  0
LINE
  5
6B
100
AcDbEntity
  8
MAIN0
  6
CONTINUOUS
 62
3
100
AcDbLine
 10
299.2955260489522
 20
497.0576083797942
 30
0.0000000000000000
 11
298.2955260489522
 21
498.0576083797942
 31
0.0000000000000000
  0
LINE
  5
6C
100
AcDbEntity
  8
MAIN0
  6
CONTINUOUS
 62
3
100
AcDbLine
 10
298.2955260489522
 20
498.0576083797942
 30
0.0000000000000000
 11
298.2955260489522
 21
506.0576083797943
 31
0.0000000000000000
  0
LINE
  5
6D
100
AcDbEntity
  8
MAIN0
  6
CONTINUOUS
 62
3
100
AcDbLine
 10
298.2955260489522
 20
566.0576083797939
 30
0.0000000000000000
 11
298.2955260489522
 21
574.0576083797940
 31
0.0000000000000000
  0
LINE
  5
6E
100
AcDbEntity
  8
MAIN0
  6
CENTER
 62
12
100
AcDbLine
 10
854.6908532661804
 20
319.2166310210232
 30
0.0000000000000000
 11
833.7224164715541
 21
369.8389155123735
 31
0.0000000000000000
  0
LINE
  5
6F
100
AcDbEntity
  8
MAIN0
  6
CENTER
 62
12
100
AcDbLine
 10
697.4698381171498
 20
698.7817380838806
 30
0.0000000000000000
 11
675.9190161763345
 21
750.8100246936851
 31
0.0000000000000000
  0
LINE
  5
70
100
AcDbEntity
  8
MAIN0
  6
CONTINUOUS
 62
3
100
AcDbLine
 10
870.9031231746620
 20
503.7082434744049
 30
0.0000000000000000
 11
970.4960446098723
 21
446.2082434744047
 31
0.0000000000000000
  0
LINE
  5
71
100
AcDbEntity
  8
MAIN0
  6
CONTINUOUS
 62
3
100
AcDbLine
 10
845.9031231746621
 20
460.4069732851831
 30
0.0000000000000000
 11
945.4960446098723
 21
402.9069732851829
 31
0.0000000000000000
  0
LINE
  5
72
100
AcDbEntity
  8
MAIN0
  6
CONTINUOUS
 62
3
100
AcDbLine
 10
343.2955260489523
 20
439.0576081837126
 30
0.0000000000000000
 11
343.2955260489523
 21
462.8326083797948
 31
0.0000000000000000
  0
LINE
  5
73
100
AcDbEntity
  8
MAIN0
  6
CONTINUOUS
 62
3
100
AcDbLine
 10
326.2955260489522
 20
462.8326083797948
 30
0.0000000000000000
 11
343.2955260489523
 21
462.8326083797948
 31
0.0000000000000000
  0
LINE
  5
74
100
AcDbEntity
  8
MAIN0
  6
CONTINUOUS
 62
3
100
AcDbLine
 10
326.2955260489522
 20
462.8326083797948
 30
0.0000000000000000
 11
325.2955260489522
 21
463.8326083797948
 31
0.0000000000000000
  0
LINE
  5
75
100
AcDbEntity
  8
MAIN0
  6
CENTER
 62
12
100
AcDbLine
 10
664.5432243591321
 20
593.9826731460144
 30
0.0000000000000000
 11
681.0215016077864
 21
584.4689353407224
 31
0.0000000000000000
  0
LINE
  5
76
100
AcDbEntity
  8
MAIN0
  6
HIDDEN
 62
12
100
AcDbLine
 10
393.7955260489521
 20
424.5576083797942
 30
0.0000000000000000
 11
398.2955260489521
 21
424.5576083797942
 31
0.0000000000000000
  0
LINE
  5
77
100
AcDbEntity
  8
MAIN0
  6
HIDDEN
 62
12
100
AcDbLine
 10
393.7955260489521
 20
426.7576083797941
 30
0.0000000000000000
 11
391.7955260489521
 21
426.7576083797941
 31
0.0000000000000000
  0
LINE
  5
78
100
AcDbEntity
  8
MAIN0
  6
CONTINUOUS
 62
3
100
AcDbLine
 10
290.2955260489523
 20
437.5576083797942
 30
0.0000000000000000
 11
391.7955260489521
 21
437.5576083797942
 31
0.0000000000000000
  0
LINE
  5
79
100
AcDbEntity
  8
MAIN0
  6
CONTINUOUS
 62
3
100
AcDbLine
 10
287.2955260489523
 20
761.0576083797942
 30
0.0000000000000000
 11
395.2955260489521
 21
761.0576083797942
 31
0.0000000000000000
  0
LINE
  5
7A
100
AcDbEntity
  8
MAIN0
  6
CONTINUOUS
 62
3
100
AcDbLine
 10
842.9031231746621
 20
455.2108208624771
 30
0.0000000000000000
 11
852.0281231746621
 21
471.0157844815434
 31
0.0000000000000000
  0
LINE
  5
7B
100
AcDbEntity
  8
MAIN0
  6
CONTINUOUS
 62
3
100
AcDbLine
 10
864.7781231746623
 20
493.0994322780464
 30
0.0000000000000000
 11
873.9031231746623
 21
508.9043958971124
 31
0.0000000000000000
  0
LINE
  5
7C
100
AcDbEntity
  8
MAIN0
  6
CENTER
 62
12
100
AcDbLine
 10
693.5497208171875
 20
494.8794521518796
 30
0.0000000000000000
 11
558.3539990914612
 21
416.8241658202454
 31
0.0000000000000000
  0
LINE
  5
7D
100
AcDbEntity
  8
MAIN0
  6
CONTINUOUS
 62
3
100
AcDbLine
 10
677.7166359572245
 20
471.0157844815421
 30
0.0000000000000000
 11
578.1237145220148
 21
413.5157844815420
 31
0.0000000000000000
  0
LINE
  5
7E
100
AcDbEntity
  8
MAIN0
  6
CONTINUOUS
 62
3
100
AcDbLine
 10
664.9666359572246
 20
493.0994322780453
 30
0.0000000000000000
 11
565.3737145220148
 21
435.5994322780452
 31
0.0000000000000000
  0
LINE
  5
7F
100
AcDbEntity
  8
MAIN0
  6
CONTINUOUS
 62
3
100
AcDbLine
 10
587.2487145220147
 20
397.7108208624760
 30
0.0000000000000000
 11
699.5509281007458
 21
462.5485341027478
 31
0.0000000000000000
  0
LINE
  5
80
100
AcDbEntity
  8
MAIN0
  6
CONTINUOUS
 62
3
100
AcDbLine
 10
556.2487145220148
 20
451.4043958971113
 30
0.0000000000000000
 11
668.5509281007459
 21
516.2421091373830
 31
0.0000000000000000
  0
LINE
  5
81
100
AcDbEntity
  8
MAIN0
  6
CONTINUOUS
 62
3
100
AcDbLine
 10
587.2487145220140
 20
397.7108208624754
 30
0.0000000000000000
 11
556.2487145220141
 21
451.4043958971110
 31
0.0000000000000000
  0
LINE
  5
82
100
AcDbEntity
  8
MAIN0
  6
CENTER
 62
12
100
AcDbLine
 10
582.2570074786669
 20
453.8567110780534
 30
0.0000000000000000
 11
602.8340983471223
 21
418.2161442219271
 31
0.0000000000000000
  0
LINE
  5
83
100
AcDbEntity
  8
MAIN0
  6
CENTER
 62
12
100
AcDbLine
 10
619.4960998413976
 20
475.3567110780534
 30
0.0000000000000000
 11
640.0731907098531
 21
439.7161442219272
 31
0.0000000000000000
  0
LINE
  5
84
100
AcDbEntity
  8
MAIN0
  6
CONTINUOUS
 62
3
100
AcDbLine
 10
658.8416359572250
 20
503.7082434744046
 30
0.0000000000000000
 11
559.2487145220149
 21
446.2082434744046
 31
0.0000000000000000
  0
LINE
  5
85
100
AcDbEntity
  8
MAIN0
  6
CONTINUOUS
 62
3
100
AcDbLine
 10
683.8416359572246
 20
460.4069732851827
 30
0.0000000000000000
 11
584.2487145220146
 21
402.9069732851826
 31
0.0000000000000000
  0
LINE
  5
86
100
AcDbEntity
  8
MAIN0
  6
CONTINUOUS
 62
3
100
AcDbLine
 10
686.8416359572243
 20
455.2108208624766
 30
0.0000000000000000
 11
677.7166359572243
 21
471.0157844815428
 31
0.0000000000000000
  0
LINE
  5
87
100
AcDbEntity
  8
MAIN0
  6
CONTINUOUS
 62
3
100
AcDbLine
 10
664.9666359572243
 20
493.0994322780459
 30
0.0000000000000000
 11
655.8416359572243
 21
508.9043958971120
 31
0.0000000000000000
  0
LINE
  5
88
100
AcDbEntity
  8
MAIN0
  6
CONTINUOUS
 62
3
100
AcDbLine
 10
375.2955260489522
 20
434.5576083797944
 30
0.0000000000000000
 11
391.7955260489521
 21
434.5576083797944
 31
0.0000000000000000
  0
LINE
  5
89
100
AcDbEntity
  8
MAIN0
  6
CONTINUOUS
 62
3
100
AcDbLine
 10
391.7955260489521
 20
435.0576083797944
 30
0.0000000000000000
 11
398.2955260489521
 21
435.0576083797944
 31
0.0000000000000000
  0
LINE
  5
8A
100
AcDbEntity
  8
MAIN0
  6
CONTINUOUS
 62
3
100
AcDbLine
 10
675.0736867647993
 20
590.2123089181694
 30
0.0000000000000000
 11
673.0736867647993
 21
591.3670094565487
 31
0.0000000000000000
  0
LINE
  5
8B
100
AcDbEntity
  8
MAIN0
  6
CONTINUOUS
 62
3
100
AcDbLine
 10
671.0736867647994
 20
587.9029078414109
 30
0.0000000000000000
 11
673.0736867647994
 21
586.7482073030316
 31
0.0000000000000000
  0
LINE
  5
8C
100
AcDbEntity
  8
MAIN0
  6
CONTINUOUS
 62
3
100
AcDbLine
 10
671.0736867647970
 20
590.2123089181683
 30
0.0000000000000000
 11
673.0736867647983
 21
591.3670094565483
 31
0.0000000000000000
  0
LINE
  5
8D
100
AcDbEntity
  8
MAIN0
  6
CONTINUOUS
 62
3
100
AcDbLine
 10
673.0736867647973
 20
586.7482073030308
 30
0.0000000000000000
 11
675.0736867647986
 21
587.9029078414108
 31
0.0000000000000000
  0
LINE
  5
8E
100
AcDbEntity
  8
MAIN0
  6
CONTINUOUS
 62
3
100
AcDbLine
 10
671.0736867647989
 20
590.2123089181697
 30
0.0000000000000000
 11
671.0736867647989
 21
587.9029078414110
 31
0.0000000000000000
  0
LINE
  5
8F
100
AcDbEntity
  8
MAIN0
  6
CONTINUOUS
 62
3
100
AcDbLine
 10
675.0736867647977
 20
590.2123089181692
 30
0.0000000000000000
 11
675.0736867647977
 21
587.9029078414111
 31
0.0000000000000000
  0
LINE
  5
90
100
AcDbEntity
  8
MAIN0
  6
CONTINUOUS
 62
3
100
AcDbLine
 10
762.8723795659404
 20
431.2123089181808
 30
0.0000000000000000
 11
762.8723795659404
 21
428.9029078414223
 31
0.0000000000000000
  0
LINE
  5
91
100
AcDbEntity
  8
MAIN0
  6
CONTINUOUS
 62
3
100
AcDbLine
 10
766.8723795659404
 20
428.9029078414224
 30
0.0000000000000000
 11
766.8723795659404
 21
431.2123089181808
 31
0.0000000000000000
  0
LINE
  5
92
100
AcDbEntity
  8
MAIN0
  6
CONTINUOUS
 62
3
100
AcDbLine
 10
764.8723795659406
 20
427.7482073030446
 30
0.0000000000000000
 11
762.8723795659425
 21
428.9029078414228
 31
0.0000000000000000
  0
LINE
  5
93
100
AcDbEntity
  8
MAIN0
  6
CONTINUOUS
 62
3
100
AcDbLine
 10
766.8723795659406
 20
431.2123089181823
 30
0.0000000000000000
 11
764.8723795659425
 21
432.3670094565605
 31
0.0000000000000000
  0
LINE
  5
94
100
AcDbEntity
  8
MAIN0
  6
CONTINUOUS
 62
3
100
AcDbLine
 10
764.8723795659432
 20
427.7482073030433
 30
0.0000000000000000
 11
766.8723795659413
 21
428.9029078414214
 31
0.0000000000000000
  0
LINE
  5
95
100
AcDbEntity
  8
MAIN0
  6
CONTINUOUS
 62
3
100
AcDbLine
 10
762.8723795659404
 20
431.2123089181811
 30
0.0000000000000000
 11
764.8723795659416
 21
432.3670094565611
 31
0.0000000000000000
  0
LINE
  5
96
100
AcDbEntity
  8
MAIN0
  6
CONTINUOUS
 62
3
100
AcDbLine
 10
733.8723795659406
 20
644.0576083797939
 30
0.0000000000000000
 11
739.8723795659406
 21
644.0576083797938
 31
0.0000000000000000
  0
LINE
  5
97
100
AcDbEntity
  8
MAIN0
  6
CONTINUOUS
 62
3
100
AcDbLine
 10
789.8723795659403
 20
644.0576083797939
 30
0.0000000000000000
 11
795.8723795659403
 21
644.0576083797939
 31
0.0000000000000000
  0
LINE
  5
98
100
AcDbEntity
  8
MAIN0
  6
CENTER
 62
12
100
AcDbLine
 10
523.5282048768729
 20
536.0576083797942
 30
0.0000000000000000
 11
1007.628653747944
 21
536.0576083797942
 31
0.0000000000000000
  0
LINE
  5
99
100
AcDbEntity
  8
MAIN0
  6
CENTER
 62
12
100
AcDbLine
 10
694.7835897000903
 20
414.6602632911197
 30
0.0000000000000000
 11
704.2757910785813
 21
431.1012383543415
 31
0.0000000000000000
  0
LINE
  5
9A
100
AcDbEntity
  8
MAIN0
  6
CENTER
 62
12
100
AcDbLine
 10
704.2778716861219
 20
641.0103746872759
 30
0.0000000000000000
 11
695.0251312455541
 21
657.0365912395865
 31
0.0000000000000000
  0
LINE
  5
9B
100
AcDbEntity
  8
MAIN0
  6
CONTINUOUS
 62
3
100
AcDbLine
 10
733.8723795659405
 20
632.5576083797937
 30
0.0000000000000000
 11
739.8723795659405
 21
632.5576083797937
 31
0.0000000000000000
  0
LINE
  5
9C
100
AcDbEntity
  8
MAIN0
  6
CONTINUOUS
 62
3
100
AcDbLine
 10
789.8723795659403
 20
632.5576083797937
 30
0.0000000000000000
 11
795.8723795659403
 21
632.5576083797937
 31
0.0000000000000000
  0
LINE
  5
9D
100
AcDbEntity
  8
MAIN0
  6
CONTINUOUS
 62
3
100
AcDbLine
 10
733.8723795659405
 20
629.3821818992508
 30
0.0000000000000000
 11
739.8723795659405
 21
629.3821818992508
 31
0.0000000000000000
  0
LINE
  5
9E
100
AcDbEntity
  8
MAIN0
  6
CONTINUOUS
 62
3
100
AcDbLine
 10
789.8723795659403
 20
629.3821818992508
 30
0.0000000000000000
 11
795.8723795659403
 21
629.3821818992508
 31
0.0000000000000000
  0
LINE
  5
9F
100
AcDbEntity
  8
MAIN0
  6
CONTINUOUS
 62
3
100
AcDbLine
 10
830.1938310311416
 20
462.5485341027481
 30
0.0000000000000000
 11
861.1938310311416
 21
516.2421091373833
 31
0.0000000000000000
  0
LINE
  5
A0
100
AcDbEntity
  8
MAIN0
  6
CONTINUOUS
 62
3
100
AcDbLine
 10
832.9438310311411
 20
460.9608208624771
 30
0.0000000000000000
 11
863.9438310311410
 21
514.6543958971122
 31
0.0000000000000000
  0
LINE
  5
A1
100
AcDbEntity
  8
MAIN0
  6
CONTINUOUS
 62
3
100
AcDbLine
 10
668.5509281007455
 20
516.2421091373834
 30
0.0000000000000000
 11
699.5509281007455
 21
462.5485341027482
 31
0.0000000000000000
  0
LINE
  5
A2
100
AcDbEntity
  8
MAIN0
  6
CONTINUOUS
 62
3
100
AcDbLine
 10
665.8009281007456
 20
514.6543958971118
 30
0.0000000000000000
 11
696.8009281007455
 21
460.9608208624768
 31
0.0000000000000000
  0
LINE
  5
A3
100
AcDbEntity
  8
MAIN0
  6
CONTINUOUS
 62
3
100
AcDbLine
 10
398.2955260489521
 20
314.1444753258098
 30
0.0000000000000000
 11
398.2955260489521
 21
758.0576083797942
 31
0.0000000000000000
  0
LINE
  5
A4
100
AcDbEntity
  8
MAIN0
  6
CONTINUOUS
 62
3
100
AcDbLine
 10
311.2955260489524
 20
676.5576083797939
 30
0.0000000000000000
 11
316.2955260489523
 21
676.5576083797939
 31
0.0000000000000000
  0
LINE
  5
A5
100
AcDbEntity
  8
MAIN0
  6
CONTINUOUS
 62
3
100
AcDbLine
 10
311.2955260489524
 20
655.5576083797939
 30
0.0000000000000000
 11
316.2955260489522
 21
655.5576083797939
 31
0.0000000000000000
  0
LINE
  5
A6
100
AcDbEntity
  8
MAIN0
  6
CONTINUOUS
 62
3
100
AcDbLine
 10
316.2955260489523
 20
655.5576083797939
 30
0.0000000000000000
 11
316.2955260489523
 21
657.0576083797938
 31
0.0000000000000000
  0
LINE
  5
A7
100
AcDbEntity
  8
MAIN0
  6
CONTINUOUS
 62
3
100
AcDbLine
 10
316.2955260489523
 20
675.0576083797939
 30
0.0000000000000000
 11
316.2955260489523
 21
676.5576083797939
 31
0.0000000000000000
  0
CIRCLE
  5
A8
100
AcDbEntity
  8
MAIN0
  6
CONTINUOUS
 62
3
100
AcDbCircle
 10
764.8723795659404
 20
692.3076083797939
 30
0.0000000000000000
 40
15.00000000000000
  0
CIRCLE
  5
A9
100
AcDbEntity
  8
MAIN0
  6
CONTINUOUS
 62
12
100
AcDbCircle
 10
937.4279412699922
 20
436.4326083797940
 30
0.0000000000000000
 40
9.999999999999998
  0
CIRCLE
  5
AA
100
AcDbEntity
  8
MAIN0
  6
CONTINUOUS
 62
3
100
AcDbCircle
 10
937.4279412699922
 20
436.4326083797940
 30
0.0000000000000000
 40
8.749999999999996
  0
CIRCLE
  5
AB
100
AcDbEntity
  8
MAIN0
  6
CONTINUOUS
 62
12
100
AcDbCircle
 10
900.1888489072604
 20
457.9326083797940
 30
0.0000000000000000
 40
9.999999999999998
  0
CIRCLE
  5
AC
100
AcDbEntity
  8
MAIN0
  6
CONTINUOUS
 62
3
100
AcDbCircle
 10
900.1888489072604
 20
457.9326083797940
 30
0.0000000000000000
 40
8.749999999999996
  0
ARC
  5
AD
100
AcDbEntity
  8
MAIN0
  6
CONTINUOUS
 62
3
100
AcDbCircle
 10
900.1888489072604
 20
457.9326083797939
 30
0.0000000000000000
 40
21.00000000000000
100
AcDbArc
 50
112.6168015821349
 51
187.3831984178648
  0
ARC
  5
AE
100
AcDbEntity
  8
MAIN0
  6
CONTINUOUS
 62
3
100
AcDbCircle
 10
900.1888489072604
 20
457.9326083797939
 30
0.0000000000000000
 40
21.00000000000000
100
AcDbArc
 50
292.6168015821343
 51
367.3831984178639
  0
ARC
  5
AF
100
AcDbEntity
  8
MAIN0
  6
CONTINUOUS
 62
3
100
AcDbCircle
 10
937.4279412699922
 20
436.4326083797938
 30
0.0000000000000000
 40
21.00000000000000
100
AcDbArc
 50
112.6168015821357
 51
187.3831984178652
  0
ARC
  5
B0
100
AcDbEntity
  8
MAIN0
  6
CONTINUOUS
 62
3
100
AcDbCircle
 10
937.4279412699922
 20
436.4326083797938
 30
0.0000000000000000
 40
21.00000000000000
100
AcDbArc
 50
292.6168015821339
 51
367.3831984178637
  0
ARC
  5
B1
100
AcDbEntity
  8
MAIN0
  6
CENTER
 62
12
100
AcDbCircle
 10
326.7955260489522
 20
439.0576083797942
 30
0.0000000000000000
 40
1.500000000000000
100
AcDbArc
 50
179.9999999999998
 51
269.9999999999999
  0
CIRCLE
  5
B2
100
AcDbEntity
  8
MAIN0
  6
CONTINUOUS
 62
12
100
AcDbCircle
 10
592.3168178618947
 20
436.4326083797940
 30
0.0000000000000000
 40
9.999999999999998
  0
CIRCLE
  5
B3
100
AcDbEntity
  8
MAIN0
  6
CONTINUOUS
 62
3
100
AcDbCircle
 10
592.3168178618947
 20
436.4326083797940
 30
0.0000000000000000
 40
8.749999999999996
  0
CIRCLE
  5
B4
100
AcDbEntity
  8
MAIN0
  6
CONTINUOUS
 62
12
100
AcDbCircle
 10
629.5559102246255
 20
457.9326083797940
 30
0.0000000000000000
 40
9.999999999999998
  0
CIRCLE
  5
B5
100
AcDbEntity
  8
MAIN0
  6
CONTINUOUS
 62
3
100
AcDbCircle
 10
629.5559102246255
 20
457.9326083797940
 30
0.0000000000000000
 40
8.749999999999996
  0
ARC
  5
B6
100
AcDbEntity
  8
MAIN0
  6
CONTINUOUS
 62
3
100
AcDbCircle
 10
629.5559102246256
 20
457.9326083797939
 30
0.0000000000000000
 40
21.00000000000000
100
AcDbArc
 50
352.6168015821349
 51
427.3831984178643
  0
ARC
  5
B7
100
AcDbEntity
  8
MAIN0
  6
CONTINUOUS
 62
3
100
AcDbCircle
 10
629.5559102246256
 20
457.9326083797939
 30
0.0000000000000000
 40
21.00000000000000
100
AcDbArc
 50
172.6168015821357
 51
247.3831984178655
  0
ARC
  5
B8
100
AcDbEntity
  8
MAIN0
  6
CONTINUOUS
 62
3
100
AcDbCircle
 10
592.3168178618948
 20
436.4326083797938
 30
0.0000000000000000
 40
21.00000000000000
100
AcDbArc
 50
352.6168015821344
 51
427.3831984178639
  0
ARC
  5
B9
100
AcDbEntity
  8
MAIN0
  6
CONTINUOUS
 62
3
100
AcDbCircle
 10
592.3168178618948
 20
436.4326083797938
 30
0.0000000000000000
 40
21.00000000000000
100
AcDbArc
 50
172.6168015821361
 51
247.3831984178659
  0
CIRCLE
  5
BA
100
AcDbEntity
  8
MAIN0
  6
CONTINUOUS
 62
3
100
AcDbCircle
 10
673.0736867647989
 20
589.0576083797904
 30
0.0000000000000000
 40
5.499999999999996
  0
ARC
  5
BB
100
AcDbEntity
  8
MAIN0
  6
CENTER
 62
12
100
AcDbCircle
 10
764.8723795659404
 20
536.0576083797942
 30
0.0000000000000000
 40
105.9999999999931
100
AcDbArc
 50
144.8209021061846
 51
155.8163903486810
  0
ARC
  5
BC
100
AcDbEntity
  8
MAIN0
  6
CENTER
 62
12
100
AcDbCircle
 10
764.8723795659404
 20
536.0576083797942
 30
0.0000000000000000
 40
105.9999999999931
100
AcDbArc
 50
24.44402609993136
 51
34.95962363966094
  0
CIRCLE
  5
BD
100
AcDbEntity
  8
MAIN0
  6
CONTINUOUS
 62
3
100
AcDbCircle
 10
764.8723795659404
 20
430.0576083798010
 30
0.0000000000000000
 40
5.499999999999996
  0
ARC
  5
BE
100
AcDbEntity
  8
MAIN0
  6
CENTER
 62
12
100
AcDbCircle
 10
764.8723795659404
 20
536.0576083797942
 30
0.0000000000000000
 40
105.9999999999931
100
AcDbArc
 50
264.8209021061848
 51
275.8163903486813
  0
ARC
  5
BF
100
AcDbEntity
  8
MAIN0
  6
CONTINUOUS
 62
3
100
AcDbCircle
 10
764.8723795659404
 20
536.0576083797942
 30
0.0000000000000000
 40
136.5000000000000
100
AcDbArc
 50
103.1267628725689
 51
196.8732371274304
  0
ARC
  5
C0
100
AcDbEntity
  8
MAIN0
  6
CONTINUOUS
 62
3
100
AcDbCircle
 10
764.8723795659404
 20
536.0576083797942
 30
0.0000000000000000
 40
159.5000000000000
100
AcDbArc
 50
101.2071852004508
 51
198.7928147995489
  0
ARC
  5
C1
100
AcDbEntity
  8
MAIN0
  6
CONTINUOUS
 62
3
100
AcDbCircle
 10
764.8723795659404
 20
536.0576083797942
 30
0.0000000000000000
 40
136.5000000000000
100
AcDbArc
 50
223.1267628725695
 51
316.8732371274301
  0
ARC
  5
C2
100
AcDbEntity
  8
MAIN0
  6
CONTINUOUS
 62
3
100
AcDbCircle
 10
764.8723795659404
 20
536.0576083797942
 30
0.0000000000000000
 40
136.5000000000000
100
AcDbArc
 50
343.1267628725692
 51
436.8732371274303
  0
ARC
  5
C3
100
AcDbEntity
  8
MAIN0
  6
CONTINUOUS
 62
3
100
AcDbCircle
 10
764.8723795659404
 20
536.0576083797942
 30
0.0000000000000000
 40
159.5000000000000
100
AcDbArc
 50
341.2071852004507
 51
438.7928147995488
  0
ARC
  5
C4
100
AcDbEntity
  8
MAIN0
  6
CONTINUOUS
 62
3
100
AcDbCircle
 10
764.8723795659404
 20
536.0576083797942
 30
0.0000000000000000
 40
113.4999999999298
100
AcDbArc
 50
52.69196992234207
 51
74.14952849414989
  0
ARC
  5
C5
100
AcDbEntity
  8
MAIN0
  6
CONTINUOUS
 62
3
100
AcDbCircle
 10
764.8723795659404
 20
536.0576083797942
 30
0.0000000000000000
 40
113.4999999999298
100
AcDbArc
 50
345.8504715058494
 51
367.3080300776578
  0
ARC
  5
C6
100
AcDbEntity
  8
MAIN0
  6
CONTINUOUS
 62
3
100
AcDbCircle
 10
764.8723795659404
 20
536.0576083797942
 30
0.0000000000000000
 40
113.4999999999298
100
AcDbArc
 50
22.69196992234200
 51
37.30803007765803
  0
ARC
  5
C7
100
AcDbEntity
  8
MAIN0
  6
CONTINUOUS
 62
3
100
AcDbCircle
 10
764.8723795659404
 20
536.0576083797942
 30
0.0000000000000000
 40
113.4999999999298
100
AcDbArc
 50
292.6919699223419
 51
314.1495284941498
  0
ARC
  5
C8
100
AcDbEntity
  8
MAIN0
  6
CONTINUOUS
 62
3
100
AcDbCircle
 10
764.8723795659404
 20
536.0576083797942
 30
0.0000000000000000
 40
113.4999999999298
100
AcDbArc
 50
225.8504715058498
 51
247.3080300776579
  0
ARC
  5
C9
100
AcDbEntity
  8
MAIN0
  6
CONTINUOUS
 62
3
100
AcDbCircle
 10
764.8723795659404
 20
536.0576083797942
 30
0.0000000000000000
 40
113.4999999999298
100
AcDbArc
 50
262.6919699223417
 51
277.3080300776579
  0
ARC
  5
CA
100
AcDbEntity
  8
MAIN0
  6
CONTINUOUS
 62
3
100
AcDbCircle
 10
764.8723795659404
 20
536.0576083797942
 30
0.0000000000000000
 40
113.4999999999298
100
AcDbArc
 50
172.6919699223421
 51
194.1495284941502
  0
ARC
  5
CB
100
AcDbEntity
  8
MAIN0
  6
CONTINUOUS
 62
3
100
AcDbCircle
 10
764.8723795659404
 20
536.0576083797942
 30
0.0000000000000000
 40
113.4999999999298
100
AcDbArc
 50
105.8504715058495
 51
127.3080300776576
  0
ARC
  5
CC
100
AcDbEntity
  8
MAIN0
  6
CONTINUOUS
 62
3
100
AcDbCircle
 10
764.8723795659404
 20
536.0576083797942
 30
0.0000000000000000
 40
113.4999999999298
100
AcDbArc
 50
142.6919699223419
 51
157.3080300776578
  0
ARC
  5
CD
100
AcDbEntity
  8
MAIN0
  6
CONTINUOUS
 62
3
100
AcDbCircle
 10
878.3686641549081
 20
566.4688461793401
 30
0.0000000000000000
 40
16.50000000000000
100
AcDbArc
 50
122.9694975453160
 51
267.0305024546836
  0
ARC
  5
CE
100
AcDbEntity
  8
MAIN0
  6
CONTINUOUS
 62
3
100
AcDbCircle
 10
847.9574263553601
 20
619.1426551692134
 30
0.0000000000000000
 40
16.50000000000000
100
AcDbArc
 50
152.9694975453162
 51
297.0305024546835
  0
ARC
  5
CF
100
AcDbEntity
  8
MAIN0
  6
CONTINUOUS
 62
3
100
AcDbCircle
 10
681.7873327765243
 20
619.1426551692134
 30
0.0000000000000000
 40
16.50000000000000
100
AcDbArc
 50
242.9694975453162
 51
387.0305024546835
  0
ARC
  5
D0
100
AcDbEntity
  8
MAIN0
  6
CONTINUOUS
 62
3
100
AcDbCircle
 10
651.3760949769782
 20
566.4688461793403
 30
0.0000000000000000
 40
16.50000000000000
100
AcDbArc
 50
272.9694975453162
 51
417.0305024546834
  0
ARC
  5
D1
100
AcDbEntity
  8
MAIN0
  6
CONTINUOUS
 62
3
100
AcDbCircle
 10
734.4611417663961
 20
422.5613237908287
 30
0.0000000000000000
 40
16.50000000000000
100
AcDbArc
 50
2.969497545316306
 51
147.0305024546835
  0
ARC
  5
D2
100
AcDbEntity
  8
MAIN0
  6
CONTINUOUS
 62
3
100
AcDbCircle
 10
795.2836173654883
 20
422.5613237908286
 30
0.0000000000000000
 40
16.50000000000000
100
AcDbArc
 50
32.96949754531630
 51
177.0305024546833
  0
ARC
  5
D3
100
AcDbEntity
  8
MAIN0
  6
CENTER
 62
12
100
AcDbCircle
 10
764.8723795659404
 20
536.0576083797942
 30
0.0000000000000000
 40
130.0000000000000
100
AcDbArc
 50
350.3024984545831
 51
367.3011380914663
  0
ARC
  5
D4
100
AcDbEntity
  8
MAIN0
  6
CENTER
 62
12
100
AcDbCircle
 10
764.8723795659404
 20
536.0576083797942
 30
0.0000000000000000
 40
130.0000000000000
100
AcDbArc
 50
235.0059067916238
 51
244.1893694561379
  0
ARC
  5
D5
100
AcDbEntity
  8
MAIN0
  6
CENTER
 62
12
100
AcDbCircle
 10
764.8723795659404
 20
536.0576083797942
 30
0.0000000000000000
 40
130.0000000000000
100
AcDbArc
 50
116.0817823277501
 51
123.8941452235094
  0
MTEXT
  5
D6
100
AcDbEntity
  8
MAIN0
  6
CONTINUOUS
 62
4
100
AcDbMText
 10
431.5019268858614
 20
141.9227105348233
 30
0.0000000000000000
 40
6.199999809265137
 41
0.0000000000000000
 71
     1
 72
     1
  1
{\H0.70x;{Ｈ８／ｈ８}}
 11
6.123233995736766e-017
 21
1.000000000000000
 31
0.0000000000000000
  7
KNJYOKO
  0
MTEXT
  5
D7
100
AcDbEntity
  8
MAIN0
  6
CONTINUOUS
 62
4
100
AcDbMText
 10
294.8073543650648
 20
474.5633104936225
 30
0.0000000000000000
 40
6.199999809265137
 41
0.0000000000000000
 71
     1
 72
     1
  1
{\H0.70x;{ストロ―ク\PSTROKE}}
 11
1.000000000000000
 21
0.0000000000000000
 31
0.0000000000000000
  7
KNJYOKO
  0
MTEXT
  5
D8
100
AcDbEntity
  8
MAIN0
  6
CONTINUOUS
 62
4
100
AcDbMText
 10
490.2505784292163
 20
577.9304443958946
 30
0.0000000000000000
 40
6.199999809265137
 41
0.0000000000000000
 71
     1
 72
     1
  1
{\H0.70x;{MIN 100}}
 11
6.123233995736766e-017
 21
1.000000000000000
 31
0.0000000000000000
  7
STANDARD
  0
MTEXT
  5
D9
100
AcDbEntity
  8
MAIN0
  6
CONTINUOUS
 62
4
100
AcDbMText
 10
249.4330115108749
 20
624.8861320588724
 30
0.0000000000000000
 40
6.199999809265137
 41
0.0000000000000000
 71
     1
 72
     1
  1
{\H0.70x;{MAX 92 }}
 11
1.000000000000000
 21
0.0000000000000000
 31
0.0000000000000000
  7
STANDARD
  0
MTEXT
  5
DA
100
AcDbEntity
  8
MAIN0
  6
CONTINUOUS
 62
4
100
AcDbMText
 10
488.8545192276062
 20
649.1525410280535
 30
0.0000000000000000
 40
6.199999809265137
 41
0.0000000000000000
 71
     1
 72
     1
  1
{\H0.70x;{MIN 23.25}}
 11
6.123233995736766e-017
 21
1.000000000000000
 31
0.0000000000000000
  7
STANDARD
  0
SPLINE
  5
DB
100
AcDbEntity
  8
MAIN0
  6
CONTINUOUS
 62
4
100
AcDbSpline
210
0.0000000000000000
220
0.0000000000000000
230
1.000000000000000
 70
     8
 71
     3
 72
    22
 73
    18
 74
     0
 42
1.000000000000000e-007
 43
1.000000000000000e-007
 12
-0.9842736378943187
 22
0.1512409954929126
 32
0.0000000000000000
 13
-0.8040712943815720
 23
0.5997668050168841
 33
0.0000000000000000
 40
0.0000000000000000
 40
0.0000000000000000
 40
0.0000000000000000
 40
0.0000000000000000
 40
4.115651671815211
 40
17.35701701278867
 40
30.72884299786938
 40
46.70439961305783
 40
63.17216167396850
 40
80.51280256611744
 40
97.19826298283681
 40
110.5168694587940
 40
129.2067436846183
 40
147.2503248997691
 40
161.8626184784584
 40
178.2024880618470
 40
192.2470625931916
 40
201.0104729419429
 40
207.0108063676549
 40
207.0108063676549
 40
207.0108063676549
 40
207.0108063676549
 10
391.6657141015774
 20
562.7708546058250
 30
0.0000000000000000
 10
390.3154049538029
 20
562.9783396911407
 30
0.0000000000000000
 10
384.6207201944126
 20
563.8533705350740
 30
0.0000000000000000
 10
373.8033929087379
 20
564.1305885854335
 30
0.0000000000000000
 10
363.6152507472535
 20
575.7996320533135
 30
0.0000000000000000
 10
346.6287724027935
 20
574.5268502652675
 30
0.0000000000000000
 10
335.1593541570352
 20
588.9039100236848
 30
0.0000000000000000
 10
331.1139827213804
 20
605.4431640903046
 30
0.0000000000000000
 10
333.4229020412365
 20
621.4178855212667
 30
0.0000000000000000
 10
329.0299871778405
 20
637.1982022760751
 30
0.0000000000000000
 10
327.7456430740666
 20
654.0375705301212
 30
0.0000000000000000
 10
329.6196607861742
 20
670.7525714040753
 30
0.0000000000000000
 10
324.8827936774727
 20
688.3002411539943
 30
0.0000000000000000
 10
308.9611579391797
 20
692.6165925473944
 30
0.0000000000000000
 10
299.4028741518969
 20
701.6486478231427
 30
0.0000000000000000
 10
290.2323311734626
 20
705.0030756098855
 30
0.0000000000000000
 10
286.2752969845789
 20
707.9546767544515
 30
0.0000000000000000
 10
284.6670650298012
 20
709.1542770237099
 30
0.0000000000000000
  0
DIMENSION
  5
E4
100
AcDbEntity
  8
MAIN10
  6
CONTINUOUS
 62
3
100
AcDbDimension
  2
*D0
 10
138.2955260489522
 20
686.0576083797940
 30
0.0000000000000000
 11
137.7955260489522
 21
528.9826082427035
 31
0.0000000000000000
 70
32
  1
\A1;\U+2205300H6\H0.903226x;\S＋0.032^ 　0;
  3
MAIN001
100
AcDbAlignedDimension
 13
284.2955260489522
 23
386.0576083797942
 33
0.0000000000000000
 14
284.2955260489523
 24
686.0576083797940
 34
0.0000000000000000
 50
90.00000000000000
100
AcDbRotatedDimension
1001
ACAD
1000
DSTYLE
1002
{
1070
   173
1070
     1
1070
     6
1000
_OPEN
1070
     7
1000
_OPEN
1070
    41
1040
4.000000
1070
   272
1070
     3
1070
    47
1040
0.032000
1070
    48
1040
0.000000
1070
    71
1070
     1
1070
   340
1005
E5
1002
}
  0
DIMENSION
  5
ED
100
AcDbEntity
  8
MAIN10
  6
CONTINUOUS
 62
3
100
AcDbDimension
  2
*D1
 10
290.2955260489522
 20
626.0576083797942
 30
0.0000000000000000
 11
261.7955260489522
 21
626.5576083797942
 31
0.0000000000000000
 70
32
  1
\A1;MIN 57
  3
MAIN001
100
AcDbAlignedDimension
 13
233.2955260489522
 23
561.5576083797942
 33
0.0000000000000000
 14
290.2955260489522
 24
572.3037653637941
 34
0.0000000000000000
100
AcDbRotatedDimension
1001
ACAD
1000
DSTYLE
1002
{
1070
   173
1070
     1
1070
     6
1000
_OPEN
1070
     7
1000
_OPEN
1070
    41
1040
4.000000
1002
}
  0
DIMENSION
  5
F6
100
AcDbEntity
  8
MAIN10
  6
CONTINUOUS
 62
3
100
AcDbDimension
  2
*D2
 10
233.2955260489522
 20
626.0576083797942
 30
0.0000000000000000
 11
205.7955260489522
 21
626.5576083797942
 31
0.0000000000000000
 70
32
  3
MAIN001
100
AcDbAlignedDimension
 13
178.2955260489522
 23
549.0576083797943
 33
0.0000000000000000
 14
233.2955260489522
 24
561.5576083797942
 34
0.0000000000000000
100
AcDbRotatedDimension
1001
ACAD
1000
DSTYLE
1002
{
1070
   173
1070
     1
1070
     6
1000
_OPEN
1070
     7
1000
_OPEN
1070
    41
1040
4.000000
1002
}
  0
DIMENSION
  5
FF
100
AcDbEntity
  8
MAIN10
  6
CONTINUOUS
 62
3
100
AcDbDimension
  2
*D3
 10
268.2955260489522
 20
596.0576083797942
 30
0.0000000000000000
 11
250.7955260489522
 21
596.5576083797942
 31
0.0000000000000000
 70
32
  3
MAIN001
100
AcDbAlignedDimension
 13
233.2955260489522
 23
561.5576083797942
 33
0.0000000000000000
 14
268.2955260489522
 24
565.0576083797939
 34
0.0000000000000000
100
AcDbRotatedDimension
1001
ACAD
1000
DSTYLE
1002
{
1070
   173
1070
     1
1070
     6
1000
_OPEN
1070
     7
1000
_OPEN
1070
    41
1040
4.000000
1002
}
  0
DIMENSION
  5
106
100
AcDbEntity
  8
MAIN10
  6
CONTINUOUS
 62
3
100
AcDbDimension
  2
*D4
 10
258.2955260489522
 20
563.5576083797942
 30
0.0000000000000000
 11
257.7955260489522
 21
536.0576083797943
 31
0.0000000000000000
 70
32
  1
\A1;\U+220555
  3
MAIN001
100
AcDbAlignedDimension
 13
268.2955260489522
 23
508.5576083797944
 33
0.0000000000000000
 14
235.2955260489522
 24
563.5576083797942
 34
0.0000000000000000
 50
90.00000000000000
100
AcDbRotatedDimension
1001
ACAD
1000
DSTYLE
1002
{
1070
   173
1070
     1
1070
     6
1000
_OPEN
1070
     7
1000
_OPEN
1070
    41
1040
4.000000
1002
}
  0
DIMENSION
  5
10D
100
AcDbEntity
  8
MAIN10
  6
CONTINUOUS
 62
3
100
AcDbDimension
  2
*D5
 10
288.2955260489522
 20
566.0576083797939
 30
0.0000000000000000
 11
287.7955260489522
 21
536.0576083797940
 31
0.0000000000000000
 70
32
  1
\A1;\U+220560
  3
MAIN001
100
AcDbAlignedDimension
 13
269.2955260489522
 23
506.0576083797942
 33
0.0000000000000000
 14
269.2955260489522
 24
566.0576083797939
 34
0.0000000000000000
 50
90.00000000000000
100
AcDbRotatedDimension
1001
ACAD
1000
DSTYLE
1002
{
1070
   173
1070
     1
1070
     6
1000
_OPEN
1070
     7
1000
_OPEN
1070
    41
1040
4.000000
1002
}
  0
DIMENSION
  5
114
100
AcDbEntity
  8
MAIN10
  6
CONTINUOUS
 62
3
100
AcDbDimension
  2
*D6
 10
313.2955260489522
 20
575.0576083797940
 30
0.0000000000000000
 11
312.7955260489522
 21
536.0576083797942
 31
0.0000000000000000
 70
32
  1
\A1;\U+220578
  3
MAIN001
100
AcDbAlignedDimension
 13
299.2955260489522
 23
497.0576083797943
 33
0.0000000000000000
 14
299.2955260489522
 24
575.0576083797940
 34
0.0000000000000000
 50
90.00000000000000
100
AcDbRotatedDimension
1001
ACAD
1000
DSTYLE
1002
{
1070
   173
1070
     1
1070
     6
1000
_OPEN
1070
     7
1000
_OPEN
1070
    41
1040
4.000000
1002
}
  0
LINE
  5
115
100
AcDbEntity
  8
MAIN0
  6
CENTER
 62
12
100
AcDbLine
 10
290.2955260489522
 20
536.0576083797942
 30
0.0000000000000000
 11
303.0955262396871
 21
536.0576083797942
 31
0.0000000000000000
  0
LINE
  5
116
100
AcDbEntity
  8
MAIN0
  6
CENTER
 62
12
100
AcDbLine
 10
164.8570579819611
 20
536.0576083797942
 30
0.0000000000000000
 11
248.0955262396871
 21
536.0576083797942
 31
0.0000000000000000
  0
LINE
  5
117
100
AcDbEntity
  8
MAIN0
  6
CENTER
 62
12
100
AcDbLine
 10
260.2955260489522
 20
536.0576083797942
 30
0.0000000000000000
 11
280.4671476635986
 21
536.0576083797942
 31
0.0000000000000000
  0
LEADER
  5
118
100
AcDbEntity
  8
MAIN0
  6
CONTINUOUS
 62
3
100
AcDbLeader
  3
MAIN001
 73
     0
 75
     1
 40
6.199999809265137
 41
15.97900049591064
 76
     3
 10
221.9864837955225
 20
521.0576083797942
 30
0.0000000000000000
 10
198.2955260489522
 20
476.0576083797941
 30
0.0000000000000000
 10
194.4425261605321
 20
476.0576083797941
 30
0.0000000000000000
340
119
213
0.0000000000000000
223
-1.000000000000000
233
0.0000000000000000
1001
ACAD
1000
DSTYLE
1002
{
1070
   147
1040
0.0
1070
    77
1070
     1
1070
   173
1070
     1
1070
     6
1000
_OPEN
1070
     7
1000
_OPEN
1002
}
  0
MTEXT
  5
119
102
{ACAD_REACTORS
330
118
102
}
100
AcDbEntity
  8
MAIN0
  6
CONTINUOUS
 62
3
100
AcDbMText
 10
178.4635256646214
 20
483.2576081890592
 30
0.0000000000000000
 40
6.199999809265137
 41
0.0000000000000000
 71
     1
 72
     1
  1
{\H0.90x;{M30}}
 11
1.000000000000000
 21
0.0000000000000000
 31
0.0000000000000000
  7
STANDARD
  0
DIMENSION
  5
120
100
AcDbEntity
  8
MAIN10
  6
CONTINUOUS
 62
3
100
AcDbDimension
  2
*D7
 10
290.2955260489522
 20
476.0576083797942
 30
0.0000000000000000
 11
307.7955260489522
 21
476.5576083797942
 31
0.0000000000000000
 70
32
  3
MAIN001
100
AcDbAlignedDimension
 13
325.2955260489522
 23
463.8326083797948
 33
0.0000000000000000
 14
290.2955260489522
 24
427.5576083797945
 34
0.0000000000000000
100
AcDbRotatedDimension
1001
ACAD
1000
DSTYLE
1002
{
1070
   173
1070
     1
1070
     6
1000
_OPEN
1070
     7
1000
_OPEN
1070
    41
1040
4.000000
1002
}
  0
LEADER
  5
121
100
AcDbEntity
  8
MAIN0
  6
CONTINUOUS
 62
3
100
AcDbLeader
  3
MAIN001
 73
     0
 75
     1
 40
6.199999809265137
 41
27.13900082015991
 76
     3
 10
274.0551465595987
 20
428.5576056278704
 30
0.0000000000000000
 10
258.2955260489522
 20
446.0576083797942
 30
0.0000000000000000
 10
254.4425261605321
 20
446.0576083797942
 30
0.0000000000000000
340
122
213
0.0000000000000000
223
-1.000000000000000
233
0.0000000000000000
1001
ACAD
1000
DSTYLE
1002
{
1070
   147
1040
0.0
1070
    77
1070
     1
1070
   173
1070
     1
1070
     6
1000
_OPEN
1070
     7
1000
_OPEN
1002
}
  0
MTEXT
  5
122
102
{ACAD_REACTORS
330
121
102
}
100
AcDbEntity
  8
MAIN0
  6
CONTINUOUS
 62
3
100
AcDbMText
 10
227.3035253403722
 20
453.2576081890593
 30
0.0000000000000000
 40
6.199999809265137
 41
0.0000000000000000
 71
     1
 72
     1
  1
{\H0.92x;{6-M20}}
 11
1.000000000000000
 21
0.0000000000000000
 31
0.0000000000000000
  7
STANDARD
  0
DIMENSION
  5
12A
100
AcDbEntity
  8
MAIN10
  6
CONTINUOUS
 62
3
100
AcDbDimension
  2
*D8
 10
260.2955260489522
 20
396.0576083797942
 30
0.0000000000000000
 11
275.2955260489522
 21
396.5576083797942
 31
0.0000000000000000
 70
32
  3
MAIN001
100
AcDbAlignedDimension
 13
290.2955260489522
 23
409.5576083797945
 33
0.0000000000000000
 14
260.2955260489522
 24
408.5576083797945
 34
0.0000000000000000
100
AcDbRotatedDimension
1001
ACAD
1000
DSTYLE
1002
{
1070
   173
1070
     1
1070
     6
1000
_OPEN
1070
     7
1000
_OPEN
1070
    41
1040
4.000000
1002
}
  0
DIMENSION
  5
134
100
AcDbEntity
  8
MAIN10
  6
CONTINUOUS
 62
3
100
AcDbDimension
  2
*D9
 10
284.2955260489522
 20
356.0576083797942
 30
0.0000000000000000
 11
295.0054007828553
 21
357.0576083797942
 31
0.0000000000000000
 70
160
  3
MAIN001
100
AcDbAlignedDimension
 13
290.2955260489522
 23
386.0576083797943
 33
0.0000000000000000
 14
284.2955260489522
 24
408.5576100493597
 34
0.0000000000000000
100
AcDbRotatedDimension
1001
ACAD
1000
DSTYLE
1002
{
1070
   173
1070
     1
1070
     6
1000
_OPEN
1070
     7
1000
_OPEN
1070
    41
1040
4.000000
1070
   287
1070
     0
1002
}
  0
DIMENSION
  5
13D
100
AcDbEntity
  8
MAIN10
  6
CONTINUOUS
 62
3
100
AcDbDimension
  2
*D10
 10
428.2955260489522
 20
434.5576083797944
 30
0.0000000000000000
 11
427.7955260489522
 21
418.5576083797945
 31
0.0000000000000000
 70
32
  1
\A1;\U+220532
  3
MAIN001
100
AcDbAlignedDimension
 13
398.2955260489521
 23
402.5576083797947
 33
0.0000000000000000
 14
391.7955260489521
 24
434.5576083797944
 34
0.0000000000000000
 50
90.00000000000000
100
AcDbRotatedDimension
1001
ACAD
1000
DSTYLE
1002
{
1070
   173
1070
     1
1070
     6
1000
_OPEN
1070
     7
1000
_OPEN
1070
    41
1040
4.000000
1002
}
  0
DIMENSION
  5
145
100
AcDbEntity
  8
MAIN10
  6
CONTINUOUS
 62
3
100
AcDbDimension
  2
*D11
 10
375.2955260489522
 20
386.0576083797942
 30
0.0000000000000000
 11
386.7955260489522
 21
386.5576083797942
 31
0.0000000000000000
 70
32
  3
MAIN001
100
AcDbAlignedDimension
 13
398.2955260489521
 23
314.1444753258098
 33
0.0000000000000000
 14
375.2955260489522
 24
402.5576083797947
 34
0.0000000000000000
100
AcDbRotatedDimension
1001
ACAD
1000
DSTYLE
1002
{
1070
   173
1070
     1
1070
     6
1000
_OPEN
1070
     7
1000
_OPEN
1070
    41
1040
4.000000
1002
}
  0
DIMENSION
  5
14E
100
AcDbEntity
  8
MAIN10
  6
CONTINUOUS
 62
3
100
AcDbDimension
  2
*D12
 10
343.2955260489522
 20
286.0576083797942
 30
0.0000000000000000
 11
370.7955260489522
 21
286.5576083797942
 31
0.0000000000000000
 70
32
  3
MAIN001
100
AcDbAlignedDimension
 13
398.2955260489521
 23
314.1444753258098
 33
0.0000000000000000
 14
343.2955260489522
 24
306.6723477572817
 34
0.0000000000000000
100
AcDbRotatedDimension
1001
ACAD
1000
DSTYLE
1002
{
1070
   173
1070
     1
1070
     6
1000
_OPEN
1070
     7
1000
_OPEN
1070
    41
1040
4.000000
1002
}
  0
DIMENSION
  5
157
100
AcDbEntity
  8
MAIN10
  6
CONTINUOUS
 62
3
100
AcDbDimension
  2
*D13
 10
398.2955260489521
 20
266.0576083797942
 30
0.0000000000000000
 11
341.2955260489522
 21
266.5576083797942
 31
0.0000000000000000
 70
32
  3
MAIN001
100
AcDbAlignedDimension
 13
284.2955260489522
 23
314.0576083797942
 33
0.0000000000000000
 14
398.2955260489521
 24
314.1444753258098
 34
0.0000000000000000
100
AcDbRotatedDimension
1001
ACAD
1000
DSTYLE
1002
{
1070
   173
1070
     1
1070
     6
1000
_OPEN
1070
     7
1000
_OPEN
1070
    41
1040
4.000000
1002
}
  0
LEADER
  5
158
100
AcDbEntity
  8
MAIN0
  6
CONTINUOUS
 62
3
100
AcDbLeader
  3
MAIN001
 73
     0
 74
     0
 75
     1
 40
6.199999809265137
 41
54.40100003576276
 76
     3
 10
351.2955260489525
 20
328.4433718516510
 30
0.0000000000000000
 10
418.2955260489522
 20
286.0576083797942
 30
0.0000000000000000
 10
421.8665259436308
 20
286.0576083797942
 30
0.0000000000000000
340
159
213
0.0000000000000000
223
-1.000000000000000
233
0.0000000000000000
1001
ACAD
1000
DSTYLE
1002
{
1070
   147
1040
0.0
1070
    77
1070
     1
1070
   173
1070
     1
1070
     6
1000
_OPEN
1070
     7
1000
_OPEN
1002
}
  0
MTEXT
  5
159
102
{ACAD_REACTORS
330
158
102
}
100
AcDbEntity
  8
MAIN0
  6
CONTINUOUS
 62
3
100
AcDbMText
 10
421.8675259436308
 20
293.2576081890593
 30
0.0000000000000000
 40
6.199999809265137
 41
0.0000000000000000
 71
     1
 72
     1
  1
{\H0.71x;{2-M16 ねじ深30\P2-M16 DEPTH30}}
 11
1.000000000000000
 21
0.0000000000000000
 31
0.0000000000000000
  7
KNJYOKO
  0
DIMENSION
  5
162
100
AcDbEntity
  8
MAIN10
  6
CONTINUOUS
 62
3
100
AcDbDimension
  2
*D14
 10
458.2955260489522
 20
184.4425665943791
 30
0.0000000000000000
 11
457.7955260489522
 21
153.4425665943791
 31
0.0000000000000000
 70
32
  3
MAIN001
100
AcDbAlignedDimension
 13
398.2955260489521
 23
122.4425665943791
 33
0.0000000000000000
 14
398.2955260489521
 24
184.4425665943791
 34
0.0000000000000000
 50
90.00000000000000
100
AcDbRotatedDimension
1001
ACAD
1000
DSTYLE
1002
{
1070
   173
1070
     1
1070
     6
1000
_OPEN
1070
     7
1000
_OPEN
1070
    41
1040
4.000000
1002
}
  0
DIMENSION
  5
16B
100
AcDbEntity
  8
MAIN10
  6
CONTINUOUS
 62
3
100
AcDbDimension
  2
*D15
 10
428.2955260489522
 20
166.1925665943791
 30
0.0000000000000000
 11
427.7955260489522
 21
153.4425665943791
 31
0.0000000000000000
 70
32
  3
MAIN001
100
AcDbAlignedDimension
 13
403.5455260489520
 23
140.6925665943791
 33
0.0000000000000000
 14
403.5455260489520
 24
166.1925665943791
 34
0.0000000000000000
 50
90.00000000000000
100
AcDbRotatedDimension
1001
ACAD
1000
DSTYLE
1002
{
1070
   173
1070
     1
1070
     6
1000
_OPEN
1070
     7
1000
_OPEN
1070
    41
1040
4.000000
1002
}
  0
DIMENSION
  5
175
100
AcDbEntity
  8
MAIN10
  6
CONTINUOUS
 62
3
100
AcDbDimension
  2
*D16
 10
403.5455260489520
 20
96.05760837979415
 30
0.0000000000000000
 11
416.2765456351713
 21
97.05760837979415
 31
0.0000000000000000
 70
160
  3
MAIN001
100
AcDbAlignedDimension
 13
400.2955260489522
 23
128.1746174019477
 33
0.0000000000000000
 14
403.5455260489520
 24
140.6925665943791
 34
0.0000000000000000
100
AcDbRotatedDimension
1001
ACAD
1000
DSTYLE
1002
{
1070
   173
1070
     1
1070
     6
1000
_DOT
1070
     7
1000
_OPEN
1070
    41
1040
4.000000
1070
   287
1070
     0
1002
}
  0
DIMENSION
  5
17F
100
AcDbEntity
  8
MAIN10
  6
CONTINUOUS
 62
3
100
AcDbDimension
  2
*D17
 10
400.2955260489522
 20
96.05760837979415
 30
0.0000000000000000
 11
394.2922359053846
 21
97.05760837979415
 31
0.0000000000000000
 70
160
  3
MAIN001
100
AcDbAlignedDimension
 13
398.2955260489521
 23
113.8801204687234
 33
0.0000000000000000
 14
400.2955260489522
 24
128.1746174019477
 34
0.0000000000000000
100
AcDbRotatedDimension
1001
ACAD
1000
DSTYLE
1002
{
1070
   173
1070
     1
1070
     6
1000
_OPEN
1070
     7
1000
_DOT
1070
    41
1040
4.000000
1070
   287
1070
     0
1002
}
  0
DIMENSION
  5
186
100
AcDbEntity
  8
MAIN10
  6
CONTINUOUS
 62
3
100
AcDbDimension
  2
*D18
 10
368.2955260489522
 20
549.5576083797942
 30
0.0000000000000000
 11
367.7955260489522
 21
536.0576083797942
 31
0.0000000000000000
 70
32
  1
\A1;\U+220527
  3
MAIN001
100
AcDbAlignedDimension
 13
390.7955260489521
 23
522.5576083797942
 33
0.0000000000000000
 14
390.7955260489521
 24
549.5576083797942
 34
0.0000000000000000
 50
90.00000000000000
100
AcDbRotatedDimension
1001
ACAD
1000
DSTYLE
1002
{
1070
   173
1070
     1
1070
     6
1000
_OPEN
1070
     7
1000
_OPEN
1070
    41
1040
4.000000
1002
}
  0
LINE
  5
187
100
AcDbEntity
  8
MAIN0
  6
CENTER
 62
12
100
AcDbLine
 10
315.2955260489522
 20
536.0576083797942
 30
0.0000000000000000
 11
358.0955262396871
 21
536.0576083797942
 31
0.0000000000000000
  0
LINE
  5
188
100
AcDbEntity
  8
MAIN0
  6
CENTER
 62
12
100
AcDbLine
 10
370.2955260489522
 20
536.0576083797942
 30
0.0000000000000000
 11
409.4589989715302
 21
536.0576083797942
 31
0.0000000000000000
  0
DIMENSION
  5
191
100
AcDbEntity
  8
MAIN10
  6
CONTINUOUS
 62
3
100
AcDbDimension
  2
*D19
 10
548.2955260489522
 20
761.3076083797942
 30
0.0000000000000000
 11
547.7955260489522
 21
693.8076083797942
 31
0.0000000000000000
 70
32
  3
MAIN001
100
AcDbAlignedDimension
 13
459.2955260489521
 23
626.3076083797942
 33
0.0000000000000000
 14
459.2955260489521
 24
761.3076083797942
 34
0.0000000000000000
 50
90.00000000000000
100
AcDbRotatedDimension
1001
ACAD
1000
DSTYLE
1002
{
1070
   173
1070
     1
1070
     6
1000
_OPEN
1070
     7
1000
_OPEN
1070
    41
1040
4.000000
1002
}
  0
DIMENSION
  5
19A
100
AcDbEntity
  8
MAIN10
  6
CONTINUOUS
 62
3
100
AcDbDimension
  2
*D20
 10
518.2955260489522
 20
735.3076083797942
 30
0.0000000000000000
 11
517.7955260489522
 21
713.8076083797942
 31
0.0000000000000000
 70
32
  3
MAIN001
100
AcDbAlignedDimension
 13
465.0062581519018
 23
692.3076083797942
 33
0.0000000000000000
 14
463.7562600881217
 24
735.3076083797942
 34
0.0000000000000000
 50
90.00000000000000
100
AcDbRotatedDimension
1001
ACAD
1000
DSTYLE
1002
{
1070
   173
1070
     1
1070
     6
1000
_OPEN
1070
     7
1000
_OPEN
1070
    41
1040
4.000000
1002
}
  0
DIMENSION
  5
1A3
100
AcDbEntity
  8
MAIN10
  6
CONTINUOUS
 62
3
100
AcDbDimension
  2
*D21
 10
518.2955260489522
 20
692.3076083797942
 30
0.0000000000000000
 11
517.7955260489522
 21
659.3076083797942
 31
0.0000000000000000
 70
32
  3
MAIN001
100
AcDbAlignedDimension
 13
459.2955260489521
 23
626.3076083797942
 33
0.0000000000000000
 14
465.0062581519018
 24
692.3076083797942
 34
0.0000000000000000
 50
90.00000000000000
100
AcDbRotatedDimension
1001
ACAD
1000
DSTYLE
1002
{
1070
   173
1070
     1
1070
     6
1000
_OPEN
1070
     7
1000
_OPEN
1070
    41
1040
4.000000
1002
}
  0
DIMENSION
  5
1AC
100
AcDbEntity
  8
MAIN10
  6
CONTINUOUS
 62
3
100
AcDbDimension
  2
*D22
 10
488.2955260489522
 20
692.3076083797942
 30
0.0000000000000000
 11
487.7955260489522
 21
668.1826083797942
 31
0.0000000000000000
 70
32
  1
\A1;MAX 48.75
  3
MAIN001
100
AcDbAlignedDimension
 13
399.2955260489522
 23
644.0576083797940
 33
0.0000000000000000
 14
465.0062581519018
 24
692.3076083797942
 34
0.0000000000000000
 50
90.00000000000000
100
AcDbRotatedDimension
1001
ACAD
1000
DSTYLE
1002
{
1070
   173
1070
     1
1070
     6
1000
_OPEN
1070
     7
1000
_OPEN
1070
    41
1040
4.000000
1002
}
  0
DIMENSION
  5
1B5
100
AcDbEntity
  8
MAIN10
  6
CONTINUOUS
 62
3
100
AcDbDimension
  2
*D23
 10
488.2955260489522
 20
644.0576083797940
 30
0.0000000000000000
 11
487.7955260489522
 21
590.0576083797940
 31
0.0000000000000000
 70
32
  1
\A1;MAX 108
  3
MAIN001
100
AcDbAlignedDimension
 13
409.4589989715302
 23
536.0576083797942
 33
0.0000000000000000
 14
399.2955260489522
 24
644.0576083797940
 34
0.0000000000000000
 50
90.00000000000000
100
AcDbRotatedDimension
1001
ACAD
1000
DSTYLE
1002
{
1070
   173
1070
     1
1070
     6
1000
_OPEN
1070
     7
1000
_OPEN
1070
    41
1040
4.000000
1002
}
  0
DIMENSION
  5
1BE
100
AcDbEntity
  8
MAIN10
  6
CONTINUOUS
 62
3
100
AcDbDimension
  2
*D24
 10
398.2955260489521
 20
786.0576083797942
 30
0.0000000000000000
 11
428.7955260489521
 21
786.5576083797942
 31
0.0000000000000000
 70
32
  3
MAIN001
100
AcDbAlignedDimension
 13
459.2955260489521
 23
761.3076083797939
 33
0.0000000000000000
 14
398.2955260489521
 24
758.0576083797942
 34
0.0000000000000000
100
AcDbRotatedDimension
1001
ACAD
1000
DSTYLE
1002
{
1070
   173
1070
     1
1070
     6
1000
_OPEN
1070
     7
1000
_OPEN
1070
    41
1040
4.000000
1002
}
  0
LEADER
  5
1BF
100
AcDbEntity
  8
MAIN0
  6
CONTINUOUS
 62
3
100
AcDbLeader
  3
MAIN001
 73
     0
 74
     0
 75
     1
 40
6.199999809265137
 41
102.8510030040741
 76
     3
 10
400.2955260489521
 20
743.3328091078018
 30
0.0000000000000000
 10
488.2955260489522
 20
786.0576083797942
 30
0.0000000000000000
 10
492.1465259373723
 20
786.0576083797942
 30
0.0000000000000000
340
1C0
213
0.0000000000000000
223
-1.000000000000000
233
0.0000000000000000
1001
ACAD
1000
DSTYLE
1002
{
1070
   147
1040
0.0
1070
    77
1070
     1
1070
   173
1070
     1
1070
     6
1000
_OPEN
1070
     7
1000
_OPEN
1002
}
  0
MTEXT
  5
1C0
102
{ACAD_REACTORS
330
1BF
102
}
100
AcDbEntity
  8
MAIN0
  6
CONTINUOUS
 62
3
100
AcDbMText
 10
492.1475259373723
 20
793.2576081890593
 30
0.0000000000000000
 40
6.199999809265137
 41
0.0000000000000000
 71
     1
 72
     1
  1
{\H0.91x;{セレーションピッチ　１．５\PSERRATION PITCH 1.5}}
 11
1.000000000000000
 21
0.0000000000000000
 31
0.0000000000000000
  7
KNJYOKO
  0
LINE
  5
1C1
100
AcDbEntity
  8
MAIN0
  6
CENTER
 62
3
100
AcDbLine
 10
837.7360697442703
 20
409.8539949645028
 30
0.0000000000000000
 11
885.0749994839955
 21
327.8605634791155
 31
0.0000000000000000
  0
CIRCLE
  5
1C2
100
AcDbEntity
  8
MAIN0
  6
CONTINUOUS
 62
3
100
AcDbCircle
 10
857.3723795661265
 20
375.8429086797804
 30
0.0000000000000000
 40
30.00000000000000
  0
ARC
  5
1C3
100
AcDbEntity
  8
MAIN0
  6
CONTINUOUS
 62
3
100
AcDbCircle
 10
764.8723795659404
 20
536.0576083797942
 30
0.0000000000000000
 40
159.5000000000000
100
AcDbArc
 50
221.2071852004511
 51
294.7269431667301
  0
ARC
  5
1C4
100
AcDbEntity
  8
MAIN0
  6
CONTINUOUS
 62
3
100
AcDbCircle
 10
764.8723795659404
 20
536.0576083797942
 30
0.0000000000000000
 40
159.5000000000000
100
AcDbArc
 50
305.2730568334030
 51
318.7928147995486
  0
LINE
  5
1C5
100
AcDbEntity
  8
MAIN0
  6
CENTER
 62
3
100
AcDbLine
 10
866.5360536570674
 20
391.7148577896030
 30
0.0000000000000000
 11
873.7358438870167
 21
404.1852602716451
 31
0.0000000000000000
  0
ARC
  5
1C6
100
AcDbEntity
  8
MAIN0
  6
CENTER
 62
12
100
AcDbCircle
 10
764.8723795659404
 20
536.0576083797942
 30
0.0000000000000000
 40
185.0000000000000
100
AcDbArc
 50
284.9727860917053
 51
313.5051466121591
  0
DIMENSION
  5
1CF
100
AcDbEntity
  8
MAIN10
  6
CONTINUOUS
 62
3
100
AcDbDimension
  2
*D25
 10
885.0749994839954
 20
327.8605634791155
 30
0.0000000000000000
 11
884.1046044681975
 21
294.2785740252703
 31
0.0000000000000000
 70
162
  3
MAIN001
100
AcDb2LineAngularDimension
 13
854.6908532661805
 23
319.2166310210232
 33
0.0000000000000000
 14
854.3081698338154
 24
320.1405105535344
 34
0.0000000000000000
 15
884.5749994839965
 25
328.7265888829006
 35
0.0000000000000000
 16
884.3257488133068
 26
293.8301376545037
 36
0.0000000000000000
1001
ACAD
1000
DSTYLE
1002
{
1070
   173
1070
     1
1070
     6
1000
_OPEN
1070
     7
1000
_OPEN
1070
    41
1040
4.000000
1070
   340
1005
E5
1002
}
  0
DIMENSION
  5
1D8
100
AcDbEntity
  8
MAIN10
  6
CONTINUOUS
 62
3
100
AcDbDimension
  2
*D26
 10
971.3907600404253
 20
416.8241658202459
 30
0.0000000000000000
 11
955.4942892571747
 21
345.4356986885009
 31
0.0000000000000000
 70
162
  3
MAIN001
100
AcDb2LineAngularDimension
 13
885.0749994839954
 23
327.8605634791155
 33
0.0000000000000000
 14
884.5749994839965
 24
328.7265888829006
 34
0.0000000000000000
 15
970.5247346366454
 25
417.3241658202536
 35
0.0000000000000000
 16
955.8478426477662
 26
345.0821452979058
 36
0.0000000000000000
1001
ACAD
1000
DSTYLE
1002
{
1070
   173
1070
     1
1070
     6
1000
_OPEN
1070
     7
1000
_OPEN
1070
    41
1040
4.000000
1002
}
  0
DIMENSION
  5
1E1
100
AcDbEntity
  8
MAIN10
  6
CONTINUOUS
 62
3
100
AcDbDimension
  2
*D27
 10
1007.628653747944
 20
536.0576083797942
 30
0.0000000000000000
 11
1025.266750723588
 21
466.2851469161274
 31
0.0000000000000000
 70
162
  3
MAIN001
100
AcDb2LineAngularDimension
 13
971.3907600404253
 23
416.8241658202459
 33
0.0000000000000000
 14
970.5247346366454
 24
417.3241658202536
 34
0.0000000000000000
 15
1006.628653747944
 25
536.0576083798075
 35
0.0000000000000000
 16
1025.749713636732
 26
466.1557373935740
 36
0.0000000000000000
1001
ACAD
1000
DSTYLE
1002
{
1070
   173
1070
     1
1070
     6
1000
_OPEN
1070
     7
1000
_OPEN
1070
    41
1040
4.000000
1002
}
  0
DIMENSION
  5
1EA
100
AcDbEntity
  8
MAIN10
  6
CONTINUOUS
 62
3
100
AcDbDimension
  2
*D28
 10
901.5416768722480
 20
572.6780362231474
 30
0.0000000000000000
 11
1032.146174498531
 21
571.2448710224064
 31
0.0000000000000000
 70
162
  3
MAIN001
100
AcDb2LineAngularDimension
 13
1007.628653747944
 23
536.0576083797942
 33
0.0000000000000000
 14
1006.628653747944
 24
536.0576083798075
 34
0.0000000000000000
 15
900.5757510459525
 25
572.4192171780686
 35
0.0000000000000000
 16
1032.641896929219
 26
571.3101341185103
 36
0.0000000000000000
1001
ACAD
1000
DSTYLE
1002
{
1070
   173
1070
     1
1070
     6
1000
_OPEN
1070
     7
1000
_OPEN
1070
    41
1040
4.000000
1002
}
  0
DIMENSION
  5
1F3
100
AcDbEntity
  8
MAIN10
  6
CONTINUOUS
 62
3
100
AcDbDimension
  2
*D29
 10
862.8392681844802
 20
634.0244969983362
 30
0.0000000000000000
 11
998.3355858398917
 21
670.8476533644773
 31
0.0000000000000000
 70
162
  3
MAIN001
100
AcDb2LineAngularDimension
 13
901.5416768722480
 23
572.6780362231474
 33
0.0000000000000000
 14
900.5757510459525
 24
572.4192171780686
 34
0.0000000000000000
 15
862.1321614032770
 25
633.3173902171662
 35
0.0000000000000000
 16
998.7685985417899
 26
671.0976533644670
 36
0.0000000000000000
1001
ACAD
1000
DSTYLE
1002
{
1070
   173
1070
     1
1070
     6
1000
_OPEN
1070
     7
1000
_OPEN
1070
    41
1040
4.000000
1002
}
  0
DIMENSION
  5
1FC
100
AcDbEntity
  8
MAIN10
  6
CONTINUOUS
 62
3
100
AcDbDimension
  2
*D30
 10
764.8723795659404
 20
764.1934428780863
 30
0.0000000000000000
 11
868.4188971291999
 21
786.0410154136482
 31
0.0000000000000000
 70
162
  3
MAIN001
100
AcDb2LineAngularDimension
 13
862.8392681844802
 23
634.0244969983362
 33
0.0000000000000000
 14
862.1321614032770
 24
633.3173902171662
 34
0.0000000000000000
 15
764.8723795659346
 25
763.1934428780863
 35
0.0000000000000000
 16
868.2275554130105
 26
785.5790756473953
 36
0.0000000000000000
1001
ACAD
1000
DSTYLE
1002
{
1070
   173
1070
     1
1070
     6
1000
_OPEN
1070
     7
1000
_OPEN
1070
    41
1040
4.000000
1002
}
  0
DIMENSION
  5
205
100
AcDbEntity
  8
MAIN10
  6
CONTINUOUS
 62
3
100
AcDbDimension
  2
*D31
 10
675.9190161763347
 20
750.8100246936851
 30
0.0000000000000000
 11
712.0848226811797
 21
801.4385777999664
 31
0.0000000000000000
 70
162
  3
MAIN001
100
AcDb2LineAngularDimension
 13
764.8723795659404
 23
764.1934428780863
 33
0.0000000000000000
 14
764.8723795659346
 24
763.1934428780863
 34
0.0000000000000000
 15
676.3016996086997
 25
749.8861451611739
 35
0.0000000000000000
 16
712.1823678421864
 26
800.9481851597645
 36
0.0000000000000000
1001
ACAD
1000
DSTYLE
1002
{
1070
   173
1070
     1
1070
     6
1000
_OPEN
1070
     7
1000
_OPEN
1070
    41
1040
4.000000
1070
   340
1005
E5
1002
}
  0
DIMENSION
  5
20E
100
AcDbEntity
  8
MAIN10
  6
CONTINUOUS
 62
3
100
AcDbDimension
  2
*D32
 10
739.8723795659404
 20
776.0576083797942
 30
0.0000000000000000
 11
759.6181282825505
 21
777.0576083797942
 31
0.0000000000000000
 70
160
  3
MAIN001
100
AcDbAlignedDimension
 13
789.8723795659404
 23
761.3076083797939
 33
0.0000000000000000
 14
739.8723795659404
 24
761.3076083797939
 34
0.0000000000000000
100
AcDbRotatedDimension
1001
ACAD
1000
DSTYLE
1002
{
1070
   173
1070
     1
1070
     6
1000
_OPEN
1070
     7
1000
_OPEN
1070
    41
1040
4.000000
1002
}
  0
LEADER
  5
20F
100
AcDbEntity
  8
MAIN0
  6
CONTINUOUS
 62
3
100
AcDbLeader
  3
MAIN001
 73
     0
 74
     0
 75
     1
 40
6.199999809265137
 41
54.40100003576299
 76
     3
 10
899.5975717158988
 20
534.4228120175607
 30
0.0000000000000000
 10
1068.295526048952
 20
476.0576083797941
 30
0.0000000000000000
 10
1071.866525943631
 20
476.0576083797941
 30
0.0000000000000000
340
210
213
-0.001000000000203727
223
-1.000000000000000
233
0.0000000000000000
1001
ACAD
1000
DSTYLE
1002
{
1070
   147
1040
0.0
1070
    77
1070
     1
1070
   173
1070
     1
1070
     6
1000
_OPEN
1070
     7
1000
_OPEN
1002
}
  0
MTEXT
  5
210
102
{ACAD_REACTORS
330
20F
102
}
100
AcDbEntity
  8
MAIN0
  6
CONTINUOUS
 62
3
100
AcDbMText
 10
1071.867525943631
 20
483.2576081890592
 30
0.0000000000000000
 40
6.199999809265137
 41
0.0000000000000000
 71
     1
 72
     1
  1
{\H0.71x;{3-M10 ねじ深20\P3-M10 DEPTH20}}
 11
1.000000000000000
 21
0.0000000000000000
 31
0.0000000000000000
  7
KNJYOKO
  0
INSERT
  5
218
100
AcDbEntity
  8
MAIN10
  6
CONTINUOUS
 62
3
100
AcDbBlockReference
  2
D33
 10
164.8570579819611
 20
536.0576083797942
 30
0.0000000000000000
 50
0.0000000000000000
  0
DIMENSION
  5
21E
100
AcDbEntity
  8
MAIN10
  6
CONTINUOUS
 62
3
100
AcDbDimension
  2
*D34
 10
893.3957759566338
 20
516.5195281209584
 30
0.0000000000000000
 11
832.3653783586681
 21
526.8088360884957
 31
0.0000000000000000
 70
163
  3
MAIN001
100
AcDbDiametricDimension
 15
636.3489831752470
 25
555.5956886386298
 35
0.0000000000000000
1001
ACAD
1000
DSTYLE
1002
{
1070
   287
1070
     2
1070
   173
1070
     1
1070
     6
1000
_OPEN
1070
     7
1000
_NONE
1070
    41
1040
4.000000
1070
   272
1070
     1
1070
    47
1040
0.200000
1070
    48
1040
0.200000
1070
    71
1070
     1
1002
}
  0
LINE
  5
21F
100
AcDbEntity
  8
MAIN0
  6
HIDDEN
 62
3
100
AcDbLine
 10
880.8265169333213
 20
489.8960656479138
 30
0.0000000000000000
 11
966.9960446098727
 21
440.1460656479138
 31
0.0000000000000000
  0
LINE
  5
220
100
AcDbEntity
  8
MAIN0
  6
HIDDEN
 62
3
100
AcDbLine
 10
862.8265169333212
 20
458.7191511116741
 30
0.0000000000000000
 11
948.9960446098728
 21
408.9691511116738
 31
0.0000000000000000
  0
LINE
  5
221
100
AcDbEntity
  8
MAIN0
  6
HIDDEN
 62
3
100
AcDbLine
 10
872.3326403770195
 20
489.0842398991808
 30
0.0000000000000000
 11
964.5210446098729
 21
435.8592398991807
 31
0.0000000000000000
  0
LINE
  5
222
100
AcDbEntity
  8
MAIN0
  6
HIDDEN
 62
3
100
AcDbLine
 10
859.2826403770193
 20
466.4809768604071
 30
0.0000000000000000
 11
951.4710446098728
 21
413.2559768604068
 31
0.0000000000000000
  0
ARC
  5
223
100
AcDbEntity
  8
MAIN0
  6
HIDDEN
 62
3
100
AcDbCircle
 10
871.8265169333213
 20
474.3076083797940
 30
0.0000000000000000
 40
17.99999999999993
100
AcDbArc
 50
59.99999999999988
 51
104.9005279606895
  0
ARC
  5
224
100
AcDbEntity
  8
MAIN0
  6
HIDDEN
 62
3
100
AcDbCircle
 10
865.8076403770195
 20
477.7826083797940
 30
0.0000000000000000
 40
13.04999999999997
100
AcDbArc
 50
60.00000000000003
 51
72.30916270598567
  0
ARC
  5
225
100
AcDbEntity
  8
MAIN0
  6
CONTINUOUS
 62
3
100
AcDbCircle
 10
865.8076403770195
 20
477.7826083797940
 30
0.0000000000000000
 40
13.04999999999997
100
AcDbArc
 50
72.30916270598567
 51
227.6908372940221
  0
ARC
  5
226
100
AcDbEntity
  8
MAIN0
  6
HIDDEN
 62
3
100
AcDbCircle
 10
865.8076403770195
 20
477.7826083797940
 30
0.0000000000000000
 40
13.04999999999997
100
AcDbArc
 50
227.6908372940221
 51
239.9999999999998
  0
ARC
  5
227
100
AcDbEntity
  8
MAIN0
  6
CONTINUOUS
 62
3
100
AcDbCircle
 10
871.8265169333213
 20
474.3076083797940
 30
0.0000000000000000
 40
17.99999999999993
100
AcDbArc
 50
104.9005279606895
 51
195.0994720393119
  0
ARC
  5
228
100
AcDbEntity
  8
MAIN0
  6
HIDDEN
 62
3
100
AcDbCircle
 10
871.8265169333213
 20
474.3076083797940
 30
0.0000000000000000
 40
17.99999999999993
100
AcDbArc
 50
195.0994720393119
 51
239.9999999999999
  0
LINE
  5
229
100
AcDbEntity
  8
MAIN0
  6
HIDDEN
 62
3
100
AcDbLine
 10
648.9182421985595
 20
489.8960656479138
 30
0.0000000000000000
 11
562.7487145220081
 21
440.1460656479138
 31
0.0000000000000000
  0
LINE
  5
22A
100
AcDbEntity
  8
MAIN0
  6
HIDDEN
 62
3
100
AcDbLine
 10
657.4121187548612
 20
489.0842398991808
 30
0.0000000000000000
 11
565.2237145220080
 21
435.8592398991807
 31
0.0000000000000000
  0
LINE
  5
22B
100
AcDbEntity
  8
MAIN0
  6
HIDDEN
 62
3
100
AcDbLine
 10
670.4621187548613
 20
466.4809768604071
 30
0.0000000000000000
 11
578.2737145220079
 21
413.2559768604069
 31
0.0000000000000000
  0
LINE
  5
22C
100
AcDbEntity
  8
MAIN0
  6
HIDDEN
 62
3
100
AcDbLine
 10
666.9182421985595
 20
458.7191511116741
 30
0.0000000000000000
 11
580.7487145220077
 21
408.9691511116738
 31
0.0000000000000000
  0
ARC
  5
22D
100
AcDbEntity
  8
MAIN0
  6
HIDDEN
 62
3
100
AcDbCircle
 10
657.9182421985595
 20
474.3076083797940
 30
0.0000000000000000
 40
17.99999999999993
100
AcDbArc
 50
75.09947203931054
 51
120.0000000000001
  0
ARC
  5
22E
100
AcDbEntity
  8
MAIN0
  6
HIDDEN
 62
3
100
AcDbCircle
 10
663.9371187548612
 20
477.7826083797940
 30
0.0000000000000000
 40
13.04999999999997
100
AcDbArc
 50
107.6908372940143
 51
120.0000000000000
  0
ARC
  5
22F
100
AcDbEntity
  8
MAIN0
  6
CONTINUOUS
 62
3
100
AcDbCircle
 10
663.9371187548612
 20
477.7826083797940
 30
0.0000000000000000
 40
13.04999999999997
100
AcDbArc
 50
312.3091627059778
 51
467.6908372940144
  0
ARC
  5
230
100
AcDbEntity
  8
MAIN0
  6
CONTINUOUS
 62
3
100
AcDbCircle
 10
657.9182421985595
 20
474.3076083797940
 30
0.0000000000000000
 40
17.99999999999993
100
AcDbArc
 50
344.9005279606882
 51
435.0994720393106
  0
ARC
  5
231
100
AcDbEntity
  8
MAIN0
  6
HIDDEN
 62
3
100
AcDbCircle
 10
663.9371187548612
 20
477.7826083797940
 30
0.0000000000000000
 40
13.04999999999997
100
AcDbArc
 50
300.0000000000002
 51
312.3091627059778
  0
ARC
  5
232
100
AcDbEntity
  8
MAIN0
  6
HIDDEN
 62
3
100
AcDbCircle
 10
657.9182421985595
 20
474.3076083797940
 30
0.0000000000000000
 40
17.99999999999993
100
AcDbArc
 50
300.0000000000001
 51
344.9005279606882
  0
MTEXT
  5
233
100
AcDbEntity
  8
MAIN0
  6
CONTINUOUS
 62
3
100
AcDbMText
 10
198.8288814090515
 20
348.5574468378710
 30
0.0000000000000000
 40
6.199999809265137
 41
0.0000000000000000
 71
     1
 72
     1
  1
{\H0.88x;{35}}
 11
1.000000000000000
 21
0.0000000000000000
 31
0.0000000000000000
  7
STANDARD
  0
MTEXT
  5
234
100
AcDbEntity
  8
MAIN0
  6
CONTINUOUS
 62
3
100
AcDbMText
 10
198.8288814090515
 20
334.5574468378712
 30
0.0000000000000000
 40
6.199999809265137
 41
0.0000000000000000
 71
     1
 72
     1
  1
{\H0.88x;{16}}
 11
1.000000000000000
 21
0.0000000000000000
 31
0.0000000000000000
  7
STANDARD
  0
MTEXT
  5
235
100
AcDbEntity
  8
MAIN0
  6
CONTINUOUS
 62
3
100
AcDbMText
 10
198.8288814090515
 20
321.5574468378712
 30
0.0000000000000000
 40
6.199999809265137
 41
0.0000000000000000
 71
     1
 72
     1
  1
{\H0.88x;{82}}
 11
1.000000000000000
 21
0.0000000000000000
 31
0.0000000000000000
  7
STANDARD
  0
MTEXT
  5
236
100
AcDbEntity
  8
MAIN0
  6
CONTINUOUS
 62
3
100
AcDbMText
 10
204.8288814090515
 20
312.5574468378712
 30
0.0000000000000000
 40
6.199999809265137
 41
0.0000000000000000
 71
     1
 72
     1
  1
{\H0.91x;{8362}}
 11
1.000000000000000
 21
0.0000000000000000
 31
0.0000000000000000
  7
STANDARD
  0
MTEXT
  5
237
100
AcDbEntity
  8
MAIN0
  6
CONTINUOUS
 62
3
100
AcDbMText
 10
198.8288814090515
 20
301.5574468378710
 30
0.0000000000000000
 40
6.199999809265137
 41
0.0000000000000000
 71
     1
 72
     1
  1
{\H0.90x;{249}}
 11
1.000000000000000
 21
0.0000000000000000
 31
0.0000000000000000
  7
STANDARD
  0
MTEXT
  5
238
100
AcDbEntity
  8
MAIN0
  6
CONTINUOUS
 62
3
100
AcDbMText
 10
204.8288814090515
 20
292.5574468378710
 30
0.0000000000000000
 40
6.199999809265137
 41
0.0000000000000000
 71
     1
 72
     1
  1
{\H0.92x;{25391}}
 11
1.000000000000000
 21
0.0000000000000000
 31
0.0000000000000000
  7
STANDARD
  0
MTEXT
  5
239
100
AcDbEntity
  8
MAIN0
  6
CONTINUOUS
 62
3
100
AcDbMText
 10
198.8288814090515
 20
280.5574468378710
 30
0.0000000000000000
 40
6.199999809265137
 41
0.0000000000000000
 71
     1
 72
     1
  1
{\H0.91x;{2710}}
 11
1.000000000000000
 21
0.0000000000000000
 31
0.0000000000000000
  7
STANDARD
  0
MTEXT
  5
23A
100
AcDbEntity
  8
MAIN0
  6
CONTINUOUS
 62
3
100
AcDbMText
 10
198.8288814090515
 20
266.5574468378710
 30
0.0000000000000000
 40
6.199999809265137
 41
0.0000000000000000
 71
     1
 72
     1
  1
{\H0.90x;{126}}
 11
1.000000000000000
 21
0.0000000000000000
 31
0.0000000000000000
  7
STANDARD
  0
MTEXT
  5
23B
100
AcDbEntity
  8
MAIN0
  6
CONTINUOUS
 62
3
100
AcDbMText
 10
198.8288814090515
 20
251.5574468378710
 30
0.0000000000000000
 40
6.199999809265137
 41
0.0000000000000000
 71
     1
 72
     1
  1
{\H0.90x;{3.3}}
 11
1.000000000000000
 21
0.0000000000000000
 31
0.0000000000000000
  7
STANDARD
  0
MTEXT
  5
23C
100
AcDbEntity
  8
MAIN0
  6
CONTINUOUS
 62
3
100
AcDbMText
 10
198.8288814090515
 20
233.5574468378710
 30
0.0000000000000000
 40
6.199999809265137
 41
0.0000000000000000
 71
     1
 72
     1
  1
{\H0.88x;{83}}
 11
1.000000000000000
 21
0.0000000000000000
 31
0.0000000000000000
  7
STANDARD
  0
MTEXT
  5
23D
100
AcDbEntity
  8
MAIN0
  6
CONTINUOUS
 62
3
100
AcDbMText
 10
204.8288814090515
 20
224.5574468378710
 30
0.0000000000000000
 40
6.199999809265137
 41
0.0000000000000000
 71
     1
 72
     1
  1
{\H0.91x;{8464}}
 11
1.000000000000000
 21
0.0000000000000000
 31
0.0000000000000000
  7
STANDARD
  0
MTEXT
  5
23E
100
AcDbEntity
  8
MAIN0
  6
CONTINUOUS
 62
3
100
AcDbMText
 10
198.8288814090515
 20
212.5574468378710
 30
0.0000000000000000
 40
6.199999809265137
 41
0.0000000000000000
 71
     1
 72
     1
  1
{\H0.92x;{Y2035R}}
 11
1.000000000000000
 21
0.0000000000000000
 31
0.0000000000000000
  7
STANDARD
  0
MTEXT
  5
23F
100
AcDbEntity
  8
MAIN0
  6
CONTINUOUS
 62
3
100
AcDbMText
 10
198.8288814090515
 20
199.5574468378708
 30
0.0000000000000000
 40
6.199999809265137
 41
0.0000000000000000
 71
     1
 72
     1
  1
{\H0.90x;{3.2}}
 11
1.000000000000000
 21
0.0000000000000000
 31
0.0000000000000000
  7
STANDARD
  0
MTEXT
  5
240
100
AcDbEntity
  8
MAIN0
  6
CONTINUOUS
 62
3
100
AcDbMText
 10
204.8288814090515
 20
190.3574470286056
 30
0.0000000000000000
 40
6.000000000000000
 41
0.0000000000000000
 71
     1
 72
     1
  1
{\H0.63x;{32.6}}
 11
1.000000000000000
 21
0.0000000000000000
 31
0.0000000000000000
  7
STANDARD
  0
DIMENSION
  5
247
100
AcDbEntity
  8
MAIN10
  6
CONTINUOUS
 62
3
100
AcDbDimension
  2
*D35
 10
882.1595314454644
 20
543.1268377571336
 30
0.0000000000000000
 11
818.5373156193349
 21
540.2939610792959
 31
0.0000000000000000
 70
163
  3
MAIN001
100
AcDbDiametricDimension
 15
647.5852276864164
 25
528.9883790024547
 35
0.0000000000000000
1001
ACAD
1000
DSTYLE
1002
{
1070
   287
1070
     2
1070
   173
1070
     1
1070
     6
1000
_OPEN
1070
     7
1000
_OPEN
1070
    41
1040
4.000000
1002
}
  0
LINE
  5
248
100
AcDbEntity
  8
MAIN0
  6
CONTINUOUS
 62
3
100
AcDbLine
 10
764.8723795659432
 20
745.1225653797936
 30
0.0000000000000000
 11
756.3723795659430
 21
740.2150863797936
 31
0.0000000000000000
  0
LINE
  5
249
100
AcDbEntity
  8
MAIN0
  6
CONTINUOUS
 62
3
100
AcDbLine
 10
756.3723795659404
 20
740.2150863797939
 30
0.0000000000000000
 11
756.3723795659404
 21
730.4001223797939
 31
0.0000000000000000
  0
LINE
  5
24A
100
AcDbEntity
  8
MAIN0
  6
CONTINUOUS
 62
3
100
AcDbLine
 10
756.3723795659424
 20
730.4001223797920
 30
0.0000000000000000
 11
764.8723795659424
 21
725.4926513797921
 31
0.0000000000000000
  0
LINE
  5
24B
100
AcDbEntity
  8
MAIN0
  6
CONTINUOUS
 62
3
100
AcDbLine
 10
764.8723795659430
 20
725.4926513797936
 30
0.0000000000000000
 11
773.3723795659419
 21
730.4001373797929
 31
0.0000000000000000
  0
LINE
  5
24C
100
AcDbEntity
  8
MAIN0
  6
CONTINUOUS
 62
3
100
AcDbLine
 10
773.3723795659404
 20
730.4001373797939
 30
0.0000000000000000
 11
773.3723795659404
 21
740.2150863797939
 31
0.0000000000000000
  0
LINE
  5
24D
100
AcDbEntity
  8
MAIN0
  6
CONTINUOUS
 62
3
100
AcDbLine
 10
773.3723795659427
 20
740.2150863797923
 30
0.0000000000000000
 11
764.8723795659427
 21
745.1225653797924
 31
0.0000000000000000
  0
CIRCLE
  5
24E
100
AcDbEntity
  8
MAIN0
  6
CONTINUOUS
 62
3
100
AcDbCircle
 10
764.8723795659404
 20
735.3076083797939
 30
0.0000000000000000
 40
15.00000000000000
  0
LINE
  5
24F
100
AcDbEntity
  8
MAIN0
  6
CONTINUOUS
 62
3
100
AcDbLine
 10
356.3162519911157
 20
156.9425665943791
 30
0.0000000000000000
 11
352.2748001067884
 21
156.9425665943791
 31
0.0000000000000000
  0
LINE
  5
250
100
AcDbEntity
  8
MAIN0
  6
CONTINUOUS
 62
3
100
AcDbLine
 10
352.2748001067881
 20
149.9425665943791
 30
0.0000000000000000
 11
356.3162519911157
 21
149.9425665943791
 31
0.0000000000000000
  0
LINE
  5
251
100
AcDbEntity
  8
MAIN0
  6
CONTINUOUS
 62
3
100
AcDbLine
 10
358.3369779332776
 20
153.4425665943799
 30
0.0000000000000000
 11
356.3162519911154
 21
156.9425665943774
 31
0.0000000000000000
  0
LINE
  5
252
100
AcDbEntity
  8
MAIN0
  6
CONTINUOUS
 62
3
100
AcDbLine
 10
352.2748001067899
 20
156.9425665943802
 30
0.0000000000000000
 11
350.2540741646259
 21
153.4425665943795
 31
0.0000000000000000
  0
LINE
  5
253
100
AcDbEntity
  8
MAIN0
  6
CONTINUOUS
 62
3
100
AcDbLine
 10
350.2540741646227
 20
153.4425665943800
 30
0.0000000000000000
 11
352.2748001067868
 21
149.9425665943793
 31
0.0000000000000000
  0
LINE
  5
254
100
AcDbEntity
  8
MAIN0
  6
CONTINUOUS
 62
3
100
AcDbLine
 10
356.3162519911167
 20
149.9425665943791
 30
0.0000000000000000
 11
358.3369779332808
 21
153.4425665943798
 31
0.0000000000000000
  0
CIRCLE
  5
255
100
AcDbEntity
  8
MAIN0
  6
CONTINUOUS
 62
3
100
AcDbCircle
 10
354.2955260489520
 20
153.4425665943791
 30
0.0000000000000000
 40
2.154065922853398
  0
CIRCLE
  5
256
100
AcDbEntity
  8
MAIN0
  6
CONTINUOUS
 62
3
100
AcDbCircle
 10
354.2955260489520
 20
153.4425665943791
 30
0.0000000000000000
 40
3.299999999999997
  0
CIRCLE
  5
257
100
AcDbEntity
  8
MAIN0
  6
CONTINUOUS
 62
3
100
AcDbCircle
 10
354.2955260489520
 20
153.4425665943791
 30
0.0000000000000000
 40
0.9914283891267653
  0
LINE
  5
258
100
AcDbEntity
  8
MAIN0
  6
CONTINUOUS
 62
3
100
AcDbLine
 10
420.2955410489522
 20
750.3076083797942
 30
0.0000000000000000
 11
439.2955560489521
 21
750.3075933797942
 31
0.0000000000000000
  0
LINE
  5
259
100
AcDbEntity
  8
MAIN0
  6
CONTINUOUS
 62
3
100
AcDbLine
 10
439.2956020489521
 20
720.3076013797941
 30
0.0000000000000000
 11
420.2955110489521
 21
720.3076083797942
 31
0.0000000000000000
  0
LINE
  5
25A
100
AcDbEntity
  8
MAIN0
  6
CONTINUOUS
 62
3
100
AcDbLine
 10
439.2955330489521
 20
750.3075933797942
 30
0.0000000000000000
 11
439.2955180489520
 21
720.3076013797942
 31
0.0000000000000000
  0
LINE
  5
25B
100
AcDbEntity
  8
MAIN0
  6
CONTINUOUS
 62
3
100
AcDbLine
 10
440.2955720489521
 20
748.5755533797941
 30
0.0000000000000000
 11
439.2955330489521
 21
750.3075933797941
 31
0.0000000000000000
  0
LINE
  5
25C
100
AcDbEntity
  8
MAIN0
  6
CONTINUOUS
 62
3
100
AcDbLine
 10
440.2955560489521
 20
722.0398393797941
 30
0.0000000000000000
 11
439.2955180489522
 21
720.3076013797941
 31
0.0000000000000000
  0
LINE
  5
25D
100
AcDbEntity
  8
MAIN0
  6
CONTINUOUS
 62
3
100
AcDbLine
 10
440.2955260489522
 20
722.0397874146288
 30
0.0000000000000000
 11
440.2955260489522
 21
748.5756330505268
 31
0.0000000000000000
  0
LINE
  5
25E
100
AcDbEntity
  8
MAIN0
  6
CONTINUOUS
 62
3
100
AcDbLine
 10
411.2955260489521
 20
725.3076083797942
 30
0.0000000000000000
 11
411.2955260489521
 21
745.3076083797942
 31
0.0000000000000000
  0
LINE
  5
25F
100
AcDbEntity
  8
MAIN0
  6
CONTINUOUS
 62
3
100
AcDbLine
 10
403.5455260489521
 20
745.3075853797941
 30
0.0000000000000000
 11
420.2955260489520
 21
745.3075853797941
 31
0.0000000000000000
  0
LINE
  5
260
100
AcDbEntity
  8
MAIN0
  6
CONTINUOUS
 62
12
100
AcDbLine
 10
403.5455260489521
 20
744.3076083797942
 30
0.0000000000000000
 11
411.2955260489522
 21
744.3076083797942
 31
0.0000000000000000
  0
LINE
  5
261
100
AcDbEntity
  8
MAIN0
  6
CONTINUOUS
 62
12
100
AcDbLine
 10
403.5455260489521
 20
726.3076083797942
 30
0.0000000000000000
 11
411.2955260489521
 21
726.3076083797942
 31
0.0000000000000000
  0
LINE
  5
262
100
AcDbEntity
  8
MAIN0
  6
CONTINUOUS
 62
3
100
AcDbLine
 10
403.5455260489521
 20
725.3076163797941
 30
0.0000000000000000
 11
420.2955260489520
 21
725.3076163797941
 31
0.0000000000000000
  0
LINE
  5
263
100
AcDbEntity
  8
MAIN0
  6
CONTINUOUS
 62
3
100
AcDbLine
 10
420.2955410489521
 20
707.3076083797942
 30
0.0000000000000000
 11
439.2955560489521
 21
707.3075933797942
 31
0.0000000000000000
  0
LINE
  5
264
100
AcDbEntity
  8
MAIN0
  6
CONTINUOUS
 62
3
100
AcDbLine
 10
439.2956020489521
 20
677.3076013797941
 30
0.0000000000000000
 11
420.2955110489520
 21
677.3076083797942
 31
0.0000000000000000
  0
LINE
  5
265
100
AcDbEntity
  8
MAIN0
  6
CONTINUOUS
 62
3
100
AcDbLine
 10
439.2955330489521
 20
707.3075933797942
 30
0.0000000000000000
 11
439.2955180489521
 21
677.3076013797942
 31
0.0000000000000000
  0
LINE
  5
266
100
AcDbEntity
  8
MAIN0
  6
CONTINUOUS
 62
3
100
AcDbLine
 10
440.2955720489521
 20
705.5755533797941
 30
0.0000000000000000
 11
439.2955330489522
 21
707.3075933797941
 31
0.0000000000000000
  0
LINE
  5
267
100
AcDbEntity
  8
MAIN0
  6
CONTINUOUS
 62
3
100
AcDbLine
 10
440.2955560489522
 20
679.0398393797941
 30
0.0000000000000000
 11
439.2955180489522
 21
677.3076013797941
 31
0.0000000000000000
  0
LINE
  5
268
100
AcDbEntity
  8
MAIN0
  6
CONTINUOUS
 62
3
100
AcDbLine
 10
440.2955260489521
 20
679.0397874146288
 30
0.0000000000000000
 11
440.2955260489522
 21
705.5756330505268
 31
0.0000000000000000
  0
LINE
  5
269
100
AcDbEntity
  8
MAIN0
  6
CONTINUOUS
 62
3
100
AcDbLine
 10
411.2955260489521
 20
682.3076083797942
 30
0.0000000000000000
 11
411.2955260489521
 21
702.3076083797942
 31
0.0000000000000000
  0
LINE
  5
26A
100
AcDbEntity
  8
MAIN0
  6
CONTINUOUS
 62
3
100
AcDbLine
 10
403.5455260489521
 20
702.3075853797941
 30
0.0000000000000000
 11
420.2955260489520
 21
702.3075853797941
 31
0.0000000000000000
  0
LINE
  5
26B
100
AcDbEntity
  8
MAIN0
  6
CONTINUOUS
 62
12
100
AcDbLine
 10
403.5455260489521
 20
701.3076083797942
 30
0.0000000000000000
 11
411.2955260489522
 21
701.3076083797942
 31
0.0000000000000000
  0
LINE
  5
26C
100
AcDbEntity
  8
MAIN0
  6
CONTINUOUS
 62
12
100
AcDbLine
 10
403.5455260489521
 20
683.3076083797942
 30
0.0000000000000000
 11
411.2955260489521
 21
683.3076083797942
 31
0.0000000000000000
  0
LINE
  5
26D
100
AcDbEntity
  8
MAIN0
  6
CONTINUOUS
 62
3
100
AcDbLine
 10
403.5455260489521
 20
682.3076163797941
 30
0.0000000000000000
 11
420.2955260489520
 21
682.3076163797941
 31
0.0000000000000000
  0
LINE
  5
26E
100
AcDbEntity
  8
MAIN0
  6
CONTINUOUS
 62
3
100
AcDbLine
 10
284.2955260489522
 20
386.0576083797942
 30
0.0000000000000000
 11
290.2955260489520
 21
386.0576083797942
 31
0.0000000000000000
  0
LINE
  5
26F
100
AcDbEntity
  8
MAIN0
  6
CONTINUOUS
 62
3
100
AcDbLine
 10
284.2955260489523
 20
566.0576083797939
 30
0.0000000000000000
 11
284.2955260489523
 21
758.0576083797942
 31
0.0000000000000000
  0
LINE
  5
270
100
AcDbEntity
  8
MAIN0
  6
CENTER
 62
12
100
AcDbLine
 10
256.2579230971610
 20
418.5576083797944
 30
0.0000000000000000
 11
402.9104955588044
 21
418.5576083797944
 31
0.0000000000000000
  0
LINE
  5
271
100
AcDbEntity
  8
MAIN0
  6
CONTINUOUS
 62
3
100
AcDbLine
 10
290.2955260489523
 20
429.0576083797942
 30
0.0000000000000000
 11
375.2955260489522
 21
429.0576083797942
 31
0.0000000000000000
  0
LINE
  5
272
100
AcDbEntity
  8
MAIN0
  6
CONTINUOUS
 62
3
100
AcDbLine
 10
290.2955260489523
 20
408.0576083797942
 30
0.0000000000000000
 11
375.2955260489522
 21
408.0576083797942
 31
0.0000000000000000
  0
LINE
  5
273
100
AcDbEntity
  8
MAIN0
  6
CONTINUOUS
 62
3
100
AcDbLine
 10
375.2955260489522
 20
402.5576083797947
 30
0.0000000000000000
 11
398.2955260489521
 21
402.5576083797947
 31
0.0000000000000000
  0
LINE
  5
274
100
AcDbEntity
  8
MAIN0
  6
CENTER
 62
12
100
AcDbLine
 10
380.0188319133614
 20
430.0576083797942
 30
0.0000000000000000
 11
399.8517416755603
 21
430.0576083797942
 31
0.0000000000000000
  0
LINE
  5
275
100
AcDbEntity
  8
MAIN0
  6
CENTER
 62
12
100
AcDbLine
 10
286.7765754095990
 20
666.0576083797939
 30
0.0000000000000000
 11
337.5679007022725
 21
666.0576083797939
 31
0.0000000000000000
  0
LINE
  5
276
100
AcDbEntity
  8
MAIN0
  6
CONTINUOUS
 62
3
100
AcDbLine
 10
290.2955260489522
 20
655.0576083797940
 30
0.0000000000000000
 11
290.2955260489522
 21
686.0576083797940
 31
0.0000000000000000
  0
LINE
  5
277
100
AcDbEntity
  8
MAIN0
  6
CONTINUOUS
 62
3
100
AcDbLine
 10
290.2955260489522
 20
572.3037653637941
 30
0.0000000000000000
 11
290.2955260489522
 21
655.0576083797940
 31
0.0000000000000000
  0
LINE
  5
278
100
AcDbEntity
  8
MAIN0
  6
CONTINUOUS
 62
3
100
AcDbLine
 10
284.2955260489523
 20
686.0576083797940
 30
0.0000000000000000
 11
290.2955260489520
 21
686.0576083797940
 31
0.0000000000000000
  0
LINE
  5
279
100
AcDbEntity
  8
MAIN0
  6
CONTINUOUS
 62
3
100
AcDbLine
 10
290.2955260489523
 20
634.5576083797942
 30
0.0000000000000000
 11
330.3668447433071
 21
634.5576083797942
 31
0.0000000000000000
  0
LINE
  5
27A
100
AcDbEntity
  8
MAIN0
  6
CENTER
 62
12
100
AcDbLine
 10
343.2955260489522
 20
306.6723477572817
 30
0.0000000000000000
 11
343.2955260489522
 21
362.9679816981873
 31
0.0000000000000000
  0
LINE
  5
27B
100
AcDbEntity
  8
MAIN0
  6
CENTER
 62
12
100
AcDbLine
 10
764.8723795659404
 20
292.6687660331733
 30
0.0000000000000000
 11
764.8723795659404
 21
764.1934428780863
 31
0.0000000000000000
  0
LINE
  5
27C
100
AcDbEntity
  8
MAIN0
  6
CENTER
 62
12
100
AcDbLine
 10
830.4950946018198
 20
601.6803234156758
 30
0.0000000000000000
 11
862.8392681844802
 21
634.0244969983362
 31
0.0000000000000000
  0
LINE
  5
27D
100
AcDbEntity
  8
MAIN0
  6
CENTER
 62
12
100
AcDbLine
 10
854.2691122579082
 20
560.0113907105871
 30
0.0000000000000000
 11
901.5416768722479
 21
572.6780362231474
 31
0.0000000000000000
  0
LINE
  5
27E
100
AcDbEntity
  8
MAIN0
  6
CENTER
 62
12
100
AcDbLine
 10
629.8558119743587
 20
572.2351886307813
 30
0.0000000000000000
 11
674.2609235257785
 21
560.3368748507644
 31
0.0000000000000000
  0
LINE
  5
27F
100
AcDbEntity
  8
MAIN0
  6
CENTER
 62
12
100
AcDbLine
 10
666.4780787369734
 20
634.4519092087638
 30
0.0000000000000000
 11
698.4980129345619
 21
602.4319750111752
 31
0.0000000000000000
  0
LINE
  5
280
100
AcDbEntity
  8
MAIN0
  6
CENTER
 62
12
100
AcDbLine
 10
788.8128638050123
 20
446.7105048417861
 30
0.0000000000000000
 11
800.8092545428859
 21
401.9393651005931
 31
0.0000000000000000
  0
LINE
  5
281
100
AcDbEntity
  8
MAIN0
  6
CENTER
 62
12
100
AcDbLine
 10
729.0559785001558
 20
402.3889798580145
 30
0.0000000000000000
 11
740.7377671829756
 21
445.9860087455807
 31
0.0000000000000000
  0
LINE
  5
282
100
AcDbEntity
  8
MAIN0
  6
CONTINUOUS
 62
3
100
AcDbLine
 10
795.8723795659404
 20
629.3821818992508
 30
0.0000000000000000
 11
795.8723795659404
 21
758.9118208147399
 31
0.0000000000000000
  0
LINE
  5
283
100
AcDbEntity
  8
MAIN0
  6
CONTINUOUS
 62
3
100
AcDbLine
 10
733.8723795659405
 20
629.3821818992508
 30
0.0000000000000000
 11
733.8723795659405
 21
758.9118208147401
 31
0.0000000000000000
  0
LINE
  5
284
100
AcDbEntity
  8
MAIN0
  6
CONTINUOUS
 62
3
100
AcDbLine
 10
290.2955260489522
 20
428.5575853797945
 30
0.0000000000000000
 11
290.2955260489522
 21
429.0576083797942
 31
0.0000000000000000
  0
LINE
  5
285
100
AcDbEntity
  8
MAIN0
  6
CONTINUOUS
 62
3
100
AcDbLine
 10
287.2955260489521
 20
311.0576083797942
 30
0.0000000000000000
 11
395.2955260489522
 21
311.0576083797942
 31
0.0000000000000000
  0
LINE
  5
286
100
AcDbEntity
  8
MAIN0
  6
CONTINUOUS
 62
3
100
AcDbLine
 10
287.2955260489522
 20
761.0576083797942
 30
0.0000000000000000
 11
284.2955260489523
 21
758.0576083797942
 31
0.0000000000000000
  0
LINE
  5
287
100
AcDbEntity
  8
MAIN0
  6
CONTINUOUS
 62
3
100
AcDbLine
 10
287.2955260489521
 20
311.0576083797942
 30
0.0000000000000000
 11
284.2955260489522
 21
314.0576083797942
 31
0.0000000000000000
  0
LINE
  5
288
100
AcDbEntity
  8
MAIN0
  6
CONTINUOUS
 62
3
100
AcDbLine
 10
395.2955260489522
 20
311.0576083797942
 30
0.0000000000000000
 11
398.2955260489521
 21
314.0576083797942
 31
0.0000000000000000
  0
LINE
  5
289
100
AcDbEntity
  8
MAIN0
  6
CONTINUOUS
 62
3
100
AcDbLine
 10
395.2955260489522
 20
761.0576083797940
 30
0.0000000000000000
 11
398.2955260489522
 21
758.0576083797940
 31
0.0000000000000000
  0
LINE
  5
28A
100
AcDbEntity
  8
MAIN0
  6
CONTINUOUS
 62
3
100
AcDbLine
 10
290.2955260489522
 20
386.0576083797943
 30
0.0000000000000000
 11
290.2955260489522
 21
409.5576083797945
 31
0.0000000000000000
  0
LINE
  5
28B
100
AcDbEntity
  8
MAIN0
  6
CONTINUOUS
 62
3
100
AcDbLine
 10
290.2955260489522
 20
427.5576083797945
 30
0.0000000000000000
 11
290.2955260489522
 21
501.4277996050120
 31
0.0000000000000000
  0
LINE
  5
28C
100
AcDbEntity
  8
MAIN0
  6
CONTINUOUS
 62
3
100
AcDbLine
 10
284.2955260489522
 20
314.0576083797942
 30
0.0000000000000000
 11
284.2955260489522
 21
408.5576100493597
 31
0.0000000000000000
  0
LINE
  5
28D
100
AcDbEntity
  8
MAIN0
  6
CONTINUOUS
 62
3
100
AcDbLine
 10
284.2955260489522
 20
428.5576035797944
 30
0.0000000000000000
 11
284.2955260489522
 21
506.0576083797944
 31
0.0000000000000000
  0
ARC
  5
28E
100
AcDbEntity
  8
MAIN0
  6
CENTER
 62
12
100
AcDbCircle
 10
764.8723795659404
 20
536.0576083797942
 30
0.0000000000000000
 40
117.4999999999999
100
AcDbArc
 50
1.467444050977809
 51
57.44516633103071
  0
CIRCLE
  5
28F
100
AcDbEntity
  8
MAIN0
  6
CONTINUOUS
 62
3
100
AcDbCircle
 10
847.9574263553601
 20
619.1426551692135
 30
0.0000000000000000
 40
10.50000000000000
  0
CIRCLE
  5
290
100
AcDbEntity
  8
MAIN0
  6
CONTINUOUS
 62
3
100
AcDbCircle
 10
847.9574263553601
 20
619.1426551692135
 30
0.0000000000000000
 40
16.00000000000000
  0
CIRCLE
  5
291
100
AcDbEntity
  8
MAIN0
  6
CONTINUOUS
 62
3
100
AcDbCircle
 10
878.3686641549081
 20
566.4688461793401
 30
0.0000000000000000
 40
10.50000000000000
  0
CIRCLE
  5
292
100
AcDbEntity
  8
MAIN0
  6
CONTINUOUS
 62
3
100
AcDbCircle
 10
878.3686641549081
 20
566.4688461793401
 30
0.0000000000000000
 40
16.00000000000000
  0
ARC
  5
293
100
AcDbEntity
  8
MAIN0
  6
CENTER
 62
12
100
AcDbCircle
 10
764.8723795659404
 20
536.0576083797942
 30
0.0000000000000000
 40
117.4999999999999
100
AcDbArc
 50
122.1747943458312
 51
186.5515906385705
  0
CIRCLE
  5
294
100
AcDbEntity
  8
MAIN0
  6
CONTINUOUS
 62
3
100
AcDbCircle
 10
651.3760949769782
 20
566.4688461793401
 30
0.0000000000000000
 40
10.50000000000000
  0
CIRCLE
  5
295
100
AcDbEntity
  8
MAIN0
  6
CONTINUOUS
 62
3
100
AcDbCircle
 10
651.3760949769782
 20
566.4688461793401
 30
0.0000000000000000
 40
16.00000000000000
  0
CIRCLE
  5
296
100
AcDbEntity
  8
MAIN0
  6
CONTINUOUS
 62
3
100
AcDbCircle
 10
681.7873327765243
 20
619.1426551692134
 30
0.0000000000000000
 40
10.50000000000000
  0
CIRCLE
  5
297
100
AcDbEntity
  8
MAIN0
  6
CONTINUOUS
 62
3
100
AcDbCircle
 10
681.7873327765243
 20
619.1426551692134
 30
0.0000000000000000
 40
16.00000000000000
  0
ARC
  5
298
100
AcDbEntity
  8
MAIN0
  6
CENTER
 62
12
100
AcDbCircle
 10
764.8723795659404
 20
536.0576083797942
 30
0.0000000000000000
 40
117.4999999999999
100
AcDbArc
 50
232.2998991432759
 51
296.8753556657105
  0
CIRCLE
  5
299
100
AcDbEntity
  8
MAIN0
  6
CONTINUOUS
 62
3
100
AcDbCircle
 10
795.2836173654883
 20
422.5613237908287
 30
0.0000000000000000
 40
10.50000000000000
  0
CIRCLE
  5
29A
100
AcDbEntity
  8
MAIN0
  6
CONTINUOUS
 62
3
100
AcDbCircle
 10
795.2836173654883
 20
422.5613237908287
 30
0.0000000000000000
 40
16.00000000000000
  0
CIRCLE
  5
29B
100
AcDbEntity
  8
MAIN0
  6
CONTINUOUS
 62
3
100
AcDbCircle
 10
734.4611417663961
 20
422.5613237908287
 30
0.0000000000000000
 40
10.50000000000000
  0
CIRCLE
  5
29C
100
AcDbEntity
  8
MAIN0
  6
CONTINUOUS
 62
3
100
AcDbCircle
 10
734.4611417663961
 20
422.5613237908287
 30
0.0000000000000000
 40
16.00000000000000
  0
ARC
  5
29D
100
AcDbEntity
  8
MAIN0
  6
CONTINUOUS
 62
3
100
AcDbCircle
 10
764.8723795659404
 20
536.0576083797942
 30
0.0000000000000000
 40
225.0000000000000
100
AcDbArc
 50
96.37937020844258
 51
443.6206297915570
  0
LINE
  5
29E
100
AcDbEntity
  8
MAIN0
  6
CONTINUOUS
 62
3
100
AcDbLine
 10
391.7955260489521
 20
632.5576083797940
 30
0.0000000000000000
 11
392.7955260489518
 21
632.5576083797940
 31
0.0000000000000000
  0
LINE
  5
29F
100
AcDbEntity
  8
MAIN0
  6
CONTINUOUS
 62
3
100
AcDbLine
 10
392.7955260489521
 20
632.5576083797939
 30
0.0000000000000000
 11
398.2955260489521
 21
629.3821818992509
 31
0.0000000000000000
  0
LINE
  5
2A0
100
AcDbEntity
  8
MAIN0
  6
HIDDEN
 62
12
100
AcDbLine
 10
391.7955260489521
 20
422.5576083797942
 30
0.0000000000000000
 11
398.2955260489521
 21
422.5576083797942
 31
0.0000000000000000
  0
LINE
  5
2A1
100
AcDbEntity
  8
MAIN0
  6
HIDDEN
 62
12
100
AcDbLine
 10
393.7955260489521
 20
435.5576083797942
 30
0.0000000000000000
 11
398.2955260489521
 21
435.5576083797942
 31
0.0000000000000000
  0
LINE
  5
2A2
100
AcDbEntity
  8
MAIN0
  6
HIDDEN
 62
12
100
AcDbLine
 10
391.7955260489521
 20
422.5576083797942
 30
0.0000000000000000
 11
391.7955260489521
 21
427.0576083797942
 31
0.0000000000000000
  0
LINE
  5
2A3
100
AcDbEntity
  8
MAIN0
  6
CENTER
 62
12
100
AcDbLine
 10
846.9228974824484
 20
583.4294969860368
 30
0.0000000000000000
 11
865.7062809135080
 21
594.2740884662510
 31
0.0000000000000000
  0
LINE
  5
2A4
100
AcDbEntity
  8
MAIN0
  6
HIDDEN
 62
12
100
AcDbLine
 10
393.7955260489521
 20
424.5576083797942
 30
0.0000000000000000
 11
393.7955260489521
 21
435.5576083797943
 31
0.0000000000000000
  0
LINE
  5
2A5
100
AcDbEntity
  8
MAIN0
  6
CONTINUOUS
 62
3
100
AcDbLine
 10
391.7955260489521
 20
434.5576083797944
 30
0.0000000000000000
 11
391.7955260489521
 21
644.0576083797939
 31
0.0000000000000000
  0
LINE
  5
2A6
100
AcDbEntity
  8
MAIN0
  6
HIDDEN
 62
12
100
AcDbLine
 10
391.7955260489521
 20
433.0576083797940
 30
0.0000000000000000
 11
391.7955260489521
 21
434.5576083797945
 31
0.0000000000000000
  0
LINE
  5
2A7
100
AcDbEntity
  8
MAIN0
  6
HIDDEN
 62
12
100
AcDbLine
 10
391.7955260489521
 20
433.0576083797940
 30
0.0000000000000000
 11
391.7955260489521
 21
433.5575953535008
 31
0.0000000000000000
  0
CIRCLE
  5
2A8
100
AcDbEntity
  8
MAIN0
  6
CONTINUOUS
 62
3
100
AcDbCircle
 10
856.6710723670855
 20
589.0576083797910
 30
0.0000000000000000
 40
5.499999999999996
  0
LINE
  5
2A9
100
AcDbEntity
  8
MAIN0
  6
CONTINUOUS
 62
3
100
AcDbLine
 10
370.2955260489522
 20
122.4425665943791
 30
0.0000000000000000
 11
398.2955260489521
 21
122.4425665943791
 31
0.0000000000000000
  0
LINE
  5
2AA
100
AcDbEntity
  8
MAIN0
  6
CONTINUOUS
 62
3
100
AcDbLine
 10
370.2955260489522
 20
184.4425665943791
 30
0.0000000000000000
 11
398.2955260489521
 21
184.4425665943791
 31
0.0000000000000000
  0
LINE
  5
2AB
100
AcDbEntity
  8
MAIN0
  6
CONTINUOUS
 62
3
100
AcDbLine
 10
342.2955260489520
 20
105.9425665943791
 30
0.0000000000000000
 11
370.2955260489520
 21
105.9425665943791
 31
0.0000000000000000
  0
LINE
  5
2AC
100
AcDbEntity
  8
MAIN0
  6
CONTINUOUS
 62
3
100
AcDbLine
 10
342.2955260489522
 20
200.9425665943791
 30
0.0000000000000000
 11
370.2955260489522
 21
200.9425665943791
 31
0.0000000000000000
  0
LINE
  5
2AD
100
AcDbEntity
  8
MAIN0
  6
CONTINUOUS
 62
3
100
AcDbLine
 10
333.7955260489521
 20
179.4425665943792
 30
0.0000000000000000
 11
333.7955260489520
 21
127.4425665943792
 31
0.0000000000000000
  0
LINE
  5
2AE
100
AcDbEntity
  8
MAIN0
  6
CONTINUOUS
 62
3
100
AcDbLine
 10
333.7955260489520
 20
127.4425665943791
 30
0.0000000000000000
 11
342.2955260489521
 21
127.4425665943791
 31
0.0000000000000000
  0
LINE
  5
2AF
100
AcDbEntity
  8
MAIN0
  6
CONTINUOUS
 62
3
100
AcDbLine
 10
333.7955260489521
 20
179.4425665943791
 30
0.0000000000000000
 11
342.2955260489522
 21
179.4425665943791
 31
0.0000000000000000
  0
LINE
  5
2B0
100
AcDbEntity
  8
MAIN0
  6
CONTINUOUS
 62
3
100
AcDbLine
 10
370.2955260489522
 20
200.9425665943791
 30
0.0000000000000000
 11
370.2955260489522
 21
184.4425665943791
 31
0.0000000000000000
  0
LINE
  5
2B1
100
AcDbEntity
  8
MAIN0
  6
CONTINUOUS
 62
3
100
AcDbLine
 10
370.2955260489521
 20
122.4425665943791
 30
0.0000000000000000
 11
370.2955260489521
 21
105.9425665943791
 31
0.0000000000000000
  0
LINE
  5
2B2
100
AcDbEntity
  8
MAIN0
  6
CONTINUOUS
 62
3
100
AcDbLine
 10
342.2955260489521
 20
200.9425665943792
 30
0.0000000000000000
 11
342.2955260489521
 21
179.4425665943792
 31
0.0000000000000000
  0
LINE
  5
2B3
100
AcDbEntity
  8
MAIN0
  6
CONTINUOUS
 62
3
100
AcDbLine
 10
342.2955260489520
 20
127.4425665943792
 30
0.0000000000000000
 11
342.2955260489520
 21
105.9425665943792
 31
0.0000000000000000
  0
LINE
  5
2B4
100
AcDbEntity
  8
MAIN0
  6
CONTINUOUS
 62
3
100
AcDbLine
 10
398.2955260489521
 20
179.2464141716710
 30
0.0000000000000000
 11
398.2955260489521
 21
200.5958698406985
 31
0.0000000000000000
  0
LINE
  5
2B5
100
AcDbEntity
  8
MAIN0
  6
CONTINUOUS
 62
3
100
AcDbLine
 10
398.2955260489521
 20
113.8801204687234
 30
0.0000000000000000
 11
398.2955260489521
 21
127.6387190170872
 31
0.0000000000000000
  0
LINE
  5
2B6
100
AcDbEntity
  8
MAIN0
  6
CENTER
 62
12
100
AcDbLine
 10
354.2955260489518
 20
140.1925665943791
 30
0.0000000000000000
 11
354.2955260489518
 21
166.6925665943791
 31
0.0000000000000000
  0
LINE
  5
2B7
100
AcDbEntity
  8
MAIN0
  6
CONTINUOUS
 62
3
100
AcDbLine
 10
391.7955260489521
 20
644.0576083797940
 30
0.0000000000000000
 11
399.2955260489522
 21
644.0576083797940
 31
0.0000000000000000
  0
LINE
  5
2B8
100
AcDbEntity
  8
MAIN0
  6
CONTINUOUS
 62
3
100
AcDbLine
 10
398.2955260489521
 20
758.0576083797942
 30
0.0000000000000000
 11
399.2955260489521
 21
758.0576083797942
 31
0.0000000000000000
  0
LINE
  5
2B9
100
AcDbEntity
  8
MAIN0
  6
CONTINUOUS
 62
3
100
AcDbLine
 10
399.2955260489521
 20
644.0576083797942
 30
0.0000000000000000
 11
400.2955260489521
 21
644.6349586489838
 31
0.0000000000000000
  0
LINE
  5
2BA
100
AcDbEntity
  8
MAIN0
  6
CONTINUOUS
 62
12
100
AcDbLine
 10
399.2955260489521
 20
166.1925665943791
 30
0.0000000000000000
 11
399.2955260489521
 21
178.9784649792427
 31
0.0000000000000000
  0
LINE
  5
2BB
100
AcDbEntity
  8
MAIN0
  6
CONTINUOUS
 62
12
100
AcDbLine
 10
399.2955260489522
 20
127.9066682095154
 30
0.0000000000000000
 11
399.2955260489522
 21
140.6925665943791
 31
0.0000000000000000
  0
LINE
  5
2BC
100
AcDbEntity
  8
MAIN0
  6
CONTINUOUS
 62
3
100
AcDbLine
 10
399.2955260489521
 20
758.0576083797940
 30
0.0000000000000000
 11
400.2955260489522
 21
757.4802581106042
 31
0.0000000000000000
  0
LINE
  5
2BD
100
AcDbEntity
  8
MAIN0
  6
CONTINUOUS
 62
3
100
AcDbLine
 10
400.2955260489522
 20
128.1746174019477
 30
0.0000000000000000
 11
400.2955260489522
 21
140.6925665943791
 31
0.0000000000000000
  0
LINE
  5
2BE
100
AcDbEntity
  8
MAIN0
  6
CONTINUOUS
 62
3
100
AcDbLine
 10
400.2955260489522
 20
166.1925665943791
 30
0.0000000000000000
 11
400.2955260489522
 21
178.7105157868089
 31
0.0000000000000000
  0
LINE
  5
2BF
100
AcDbEntity
  8
MAIN0
  6
CONTINUOUS
 62
3
100
AcDbLine
 10
398.2955260489522
 20
179.2464141716709
 30
0.0000000000000000
 11
400.2955260489523
 21
178.7105157868087
 31
0.0000000000000000
  0
LINE
  5
2C0
100
AcDbEntity
  8
MAIN0
  6
CONTINUOUS
 62
3
100
AcDbLine
 10
398.2955260489516
 20
127.6387190170854
 30
0.0000000000000000
 11
400.2955260489518
 21
128.1746174019476
 31
0.0000000000000000
  0
CIRCLE
  5
2C1
100
AcDbEntity
  8
MAIN0
  6
CONTINUOUS
 62
3
100
AcDbCircle
 10
354.2955260489518
 20
153.4425665943791
 30
0.0000000000000000
 40
7.500000000000000
  0
LINE
  5
2C2
100
AcDbEntity
  8
MAIN0
  6
CONTINUOUS
 62
3
100
AcDbLine
 10
338.2955260489523
 20
549.5576083797942
 30
0.0000000000000000
 11
390.7955260489521
 21
549.5576083797942
 31
0.0000000000000000
  0
LINE
  5
2C3
100
AcDbEntity
  8
MAIN0
  6
CONTINUOUS
 62
3
100
AcDbLine
 10
338.2955260489523
 20
522.5576083797942
 30
0.0000000000000000
 11
390.7955260489521
 21
522.5576083797942
 31
0.0000000000000000
  0
LINE
  5
2C4
100
AcDbEntity
  8
MAIN0
  6
CONTINUOUS
 62
3
100
AcDbLine
 10
325.2955260489523
 20
622.2055570543861
 30
0.0000000000000000
 11
331.8299908008343
 21
620.6969569971453
 31
0.0000000000000000
  0
LINE
  5
2C5
100
AcDbEntity
  8
MAIN0
  6
CONTINUOUS
 62
3
100
AcDbLine
 10
325.2955260489522
 20
585.0576076708678
 30
0.0000000000000000
 11
325.2955260489522
 21
633.0576083797942
 31
0.0000000000000000
  0
LINE
  5
2C6
100
AcDbEntity
  8
MAIN0
  6
CONTINUOUS
 62
3
100
AcDbLine
 10
299.2955260489522
 20
575.0576083797940
 30
0.0000000000000000
 11
315.2955260489522
 21
575.0576083797940
 31
0.0000000000000000
  0
LINE
  5
2C7
100
AcDbEntity
  8
MAIN0
  6
CONTINUOUS
 62
3
100
AcDbLine
 10
299.2955260489522
 20
497.0576083797943
 30
0.0000000000000000
 11
315.2955260489523
 21
497.0576083797942
 31
0.0000000000000000
  0
LINE
  5
2C8
100
AcDbEntity
  8
MAIN0
  6
CONTINUOUS
 62
3
100
AcDbLine
 10
325.2955260489522
 20
601.6794748985182
 30
0.0000000000000000
 11
332.7399264748175
 21
599.9607996381843
 31
0.0000000000000000
  0
LINE
  5
2C9
100
AcDbEntity
  8
MAIN0
  6
CONTINUOUS
 62
3
100
AcDbLine
 10
325.2955260489523
 20
601.1663228446216
 30
0.0000000000000000
 11
332.9231012687084
 21
599.4053583509623
 31
0.0000000000000000
  0
LINE
  5
2CA
100
AcDbEntity
  8
MAIN0
  6
CONTINUOUS
 62
3
100
AcDbLine
 10
333.2955260489523
 20
566.5576083797939
 30
0.0000000000000000
 11
338.2955260489523
 21
566.5576083797939
 31
0.0000000000000000
  0
LINE
  5
2CB
100
AcDbEntity
  8
MAIN0
  6
CONTINUOUS
 62
3
100
AcDbLine
 10
333.2955260489522
 20
505.5576083797942
 30
0.0000000000000000
 11
338.2955260489523
 21
505.5576083797942
 31
0.0000000000000000
  0
LINE
  5
2CC
100
AcDbEntity
  8
MAIN0
  6
CONTINUOUS
 62
3
100
AcDbLine
 10
333.2955260489522
 20
565.0576083797939
 30
0.0000000000000000
 11
333.2955260489522
 21
566.5576083797939
 31
0.0000000000000000
  0
LINE
  5
2CD
100
AcDbEntity
  8
MAIN0
  6
CONTINUOUS
 62
3
100
AcDbLine
 10
333.2955260489522
 20
505.5576083797942
 30
0.0000000000000000
 11
333.2955260489522
 21
507.0576083797944
 31
0.0000000000000000
  0
LINE
  5
2CE
100
AcDbEntity
  8
MAIN0
  6
CENTER
 62
12
100
AcDbLine
 10
304.7955260489522
 20
494.9340742573018
 30
0.0000000000000000
 11
304.7955260489522
 21
508.2880163455204
 31
0.0000000000000000
  0
LINE
  5
2CF
100
AcDbEntity
  8
MAIN0
  6
CONTINUOUS
 62
3
100
AcDbLine
 10
390.7955260489521
 20
439.0576083797942
 30
0.0000000000000000
 11
390.7955260489521
 21
563.0246388091480
 31
0.0000000000000000
  0
LINE
  5
2D0
100
AcDbEntity
  8
MAIN0
  6
CENTER
 62
12
100
AcDbLine
 10
325.2955260489522
 20
439.0576083797942
 30
0.0000000000000000
 11
325.2955260489522
 21
464.3497721593727
 31
0.0000000000000000
  0
LINE
  5
2D1
100
AcDbEntity
  8
MAIN0
  6
CONTINUOUS
 62
3
100
AcDbLine
 10
325.2955260489522
 20
463.8326083797948
 30
0.0000000000000000
 11
325.2955260489522
 21
487.0576083797942
 31
0.0000000000000000
  0
ARC
  5
2D2
100
AcDbEntity
  8
MAIN0
  6
CONTINUOUS
 62
3
100
AcDbCircle
 10
315.2955260489522
 20
585.0576083797940
 30
0.0000000000000000
 40
9.999999999999998
100
AcDbArc
 50
269.9999999999999
 51
359.9999999999998
  0
ARC
  5
2D3
100
AcDbEntity
  8
MAIN0
  6
CONTINUOUS
 62
3
100
AcDbCircle
 10
315.2955260489522
 20
487.0576083797942
 30
0.0000000000000000
 40
9.999999999999998
100
AcDbArc
 50
0.0000000000000000
 51
89.99999999999970
  0
ARC
  5
2D4
100
AcDbEntity
  8
MAIN0
  6
CONTINUOUS
 62
3
100
AcDbCircle
 10
326.7955260489523
 20
633.0576083797942
 30
0.0000000000000000
 40
1.499999999999986
100
AcDbArc
 50
89.99999999999970
 51
179.9999999999998
  0
ARC
  5
2D5
100
AcDbEntity
  8
MAIN0
  6
CONTINUOUS
 62
3
100
AcDbCircle
 10
344.7955260489523
 20
439.0576083797942
 30
0.0000000000000000
 40
1.499999999999986
100
AcDbArc
 50
179.9999999999998
 51
269.9999999999999
  0
ARC
  5
2D6
100
AcDbEntity
  8
MAIN0
  6
CONTINUOUS
 62
3
100
AcDbCircle
 10
389.2955260489521
 20
439.0576083797942
 30
0.0000000000000000
 40
1.499999999999986
100
AcDbArc
 50
269.9999999999999
 51
359.9999999999998
  0
LINE
  5
2D7
100
AcDbEntity
  8
MAIN0
  6
CONTINUOUS
 62
3
100
AcDbLine
 10
403.5455260489520
 20
166.1925665943791
 30
0.0000000000000000
 11
403.5455260489520
 21
140.6925665943791
 31
0.0000000000000000
  0
LINE
  5
2D8
100
AcDbEntity
  8
MAIN0
  6
CONTINUOUS
 62
3
100
AcDbLine
 10
383.6955260489521
 20
140.6925665943791
 30
0.0000000000000000
 11
403.5455260489520
 21
140.6925665943791
 31
0.0000000000000000
  0
LINE
  5
2D9
100
AcDbEntity
  8
MAIN0
  6
CONTINUOUS
 62
3
100
AcDbLine
 10
383.6955259090744
 20
166.1925665943791
 30
0.0000000000000000
 11
403.5455260489520
 21
166.1925665943791
 31
0.0000000000000000
  0
LINE
  5
2DA
100
AcDbEntity
  8
MAIN0
  6
CONTINUOUS
 62
3
100
AcDbLine
 10
383.2955260489521
 20
166.5925665773912
 30
0.0000000000000000
 11
383.2955260489521
 21
169.9425665943791
 31
0.0000000000000000
  0
LINE
  5
2DB
100
AcDbEntity
  8
MAIN0
  6
CONTINUOUS
 62
3
100
AcDbLine
 10
383.2955260489520
 20
136.9425665943791
 30
0.0000000000000000
 11
383.2955260489520
 21
140.2925664487384
 31
0.0000000000000000
  0
LINE
  5
2DC
100
AcDbEntity
  8
MAIN0
  6
CENTER
 62
12
100
AcDbLine
 10
385.2037597144905
 20
692.3076083797942
 30
0.0000000000000000
 11
465.0062581519018
 21
692.3076083797942
 31
0.0000000000000000
  0
LINE
  5
2DD
100
AcDbEntity
  8
MAIN0
  6
CONTINUOUS
 62
3
100
AcDbLine
 10
400.2955260489521
 20
713.3076083797942
 30
0.0000000000000000
 11
403.5455260489521
 21
713.3076083797942
 31
0.0000000000000000
  0
LINE
  5
2DE
100
AcDbEntity
  8
MAIN0
  6
CONTINUOUS
 62
3
100
AcDbLine
 10
400.2955260489521
 20
671.3076083797942
 30
0.0000000000000000
 11
403.5455260489521
 21
671.3076083797942
 31
0.0000000000000000
  0
LINE
  5
2DF
100
AcDbEntity
  8
MAIN0
  6
CONTINUOUS
 62
3
100
AcDbLine
 10
403.5455260489521
 20
671.3076083797940
 30
0.0000000000000000
 11
403.5455260489521
 21
713.3076083797939
 31
0.0000000000000000
  0
LINE
  5
2E0
100
AcDbEntity
  8
MAIN0
  6
CONTINUOUS
 62
3
100
AcDbLine
 10
364.2955260489522
 20
140.9425665943791
 30
0.0000000000000000
 11
364.2955260489522
 21
165.9425665943791
 31
0.0000000000000000
  0
LINE
  5
2E1
100
AcDbEntity
  8
MAIN0
  6
CONTINUOUS
 62
3
100
AcDbLine
 10
369.2955260489523
 20
170.9425665943792
 30
0.0000000000000000
 11
382.2955260489521
 21
170.9425665943791
 31
0.0000000000000000
  0
LINE
  5
2E2
100
AcDbEntity
  8
MAIN0
  6
CONTINUOUS
 62
3
100
AcDbLine
 10
369.2955260489521
 20
135.9425665943792
 30
0.0000000000000000
 11
382.2955260489520
 21
135.9425665943791
 31
0.0000000000000000
  0
LINE
  5
2E3
100
AcDbEntity
  8
MAIN0
  6
CONTINUOUS
 62
3
100
AcDbLine
 10
382.2955260489515
 20
170.9425665943778
 30
0.0000000000000000
 11
383.2955260489517
 21
169.9425665943776
 31
0.0000000000000000
  0
LINE
  5
2E4
100
AcDbEntity
  8
MAIN0
  6
CONTINUOUS
 62
3
100
AcDbLine
 10
382.2955260489525
 20
135.9425665943796
 30
0.0000000000000000
 11
383.2955260489527
 21
136.9425665943797
 31
0.0000000000000000
  0
LINE
  5
2E5
100
AcDbEntity
  8
MAIN0
  6
CONTINUOUS
 62
3
100
AcDbLine
 10
369.2955260489522
 20
135.9425665943796
 30
0.0000000000000000
 11
364.2955260489513
 21
140.9425665943805
 31
0.0000000000000000
  0
LINE
  5
2E6
100
AcDbEntity
  8
MAIN0
  6
CONTINUOUS
 62
3
100
AcDbLine
 10
369.2955260489521
 20
170.9425665943803
 30
0.0000000000000000
 11
364.2955260489513
 21
165.9425665943794
 31
0.0000000000000000
  0
ARC
  5
2E7
100
AcDbEntity
  8
MAIN0
  6
CONTINUOUS
 62
3
100
AcDbCircle
 10
383.6955260489521
 20
166.5925665943805
 30
0.0000000000000000
 40
0.3999999999999999
100
AcDbArc
 50
179.9999999999998
 51
269.9999999999999
  0
ARC
  5
2E8
100
AcDbEntity
  8
MAIN0
  6
CONTINUOUS
 62
3
100
AcDbCircle
 10
383.6955260489521
 20
140.2925665943776
 30
0.0000000000000000
 40
0.3999999999999999
100
AcDbArc
 50
89.99999999999970
 51
179.9999999999998
  0
LINE
  5
2E9
100
AcDbEntity
  8
MAIN0
  6
CONTINUOUS
 62
3
100
AcDbLine
 10
338.2955260489523
 20
505.5576083797944
 30
0.0000000000000000
 11
338.2955260489523
 21
566.5576083797939
 31
0.0000000000000000
  0
LINE
  5
2EA
100
AcDbEntity
  8
MAIN0
  6
CONTINUOUS
 62
12
100
AcDbLine
 10
303.2955260489523
 20
565.0576083797939
 30
0.0000000000000000
 11
338.2955260489524
 21
565.0576083797939
 31
0.0000000000000000
  0
LINE
  5
2EB
100
AcDbEntity
  8
MAIN0
  6
CONTINUOUS
 62
12
100
AcDbLine
 10
303.2955260489522
 20
507.0576083797942
 30
0.0000000000000000
 11
338.2955260489524
 21
507.0576083797942
 31
0.0000000000000000
  0
LINE
  5
2EC
100
AcDbEntity
  8
MAIN0
  6
CONTINUOUS
 62
4
100
AcDbLine
 10
303.2955260489518
 20
565.0576083797942
 30
0.0000000000000000
 11
301.5634752413829
 21
566.0576083797942
 31
0.0000000000000000
  0
LINE
  5
2ED
100
AcDbEntity
  8
MAIN0
  6
CONTINUOUS
 62
4
100
AcDbLine
 10
303.2955260489518
 20
507.0576083797941
 30
0.0000000000000000
 11
301.5634752413829
 21
506.0576083797940
 31
0.0000000000000000
  0
LINE
  5
2EE
100
AcDbEntity
  8
MAIN0
  6
CONTINUOUS
 62
3
100
AcDbLine
 10
269.2955260489522
 20
506.0576083797942
 30
0.0000000000000000
 11
338.2955260489523
 21
506.0576083797942
 31
0.0000000000000000
  0
LINE
  5
2EF
100
AcDbEntity
  8
MAIN0
  6
CONTINUOUS
 62
3
100
AcDbLine
 10
269.2955260489522
 20
566.0576083797939
 30
0.0000000000000000
 11
338.2955260489524
 21
566.0576083797939
 31
0.0000000000000000
  0
LINE
  5
2F0
100
AcDbEntity
  8
MAIN0
  6
CONTINUOUS
 62
3
100
AcDbLine
 10
303.2955260489522
 20
512.5576083797944
 30
0.0000000000000000
 11
303.2955260489522
 21
559.5576083797942
 31
0.0000000000000000
  0
LINE
  5
2F1
100
AcDbEntity
  8
MAIN0
  6
CONTINUOUS
 62
3
100
AcDbLine
 10
303.2955260489522
 20
559.5576083797939
 30
0.0000000000000000
 11
338.2955260489523
 21
559.5576083797939
 31
0.0000000000000000
  0
LINE
  5
2F2
100
AcDbEntity
  8
MAIN0
  6
CONTINUOUS
 62
3
100
AcDbLine
 10
303.2955260489522
 20
512.5576083797942
 30
0.0000000000000000
 11
338.2955260489523
 21
512.5576083797942
 31
0.0000000000000000
  0
LINE
  5
2F3
100
AcDbEntity
  8
MAIN0
  6
CONTINUOUS
 62
3
100
AcDbLine
 10
268.2955260489522
 20
550.0576083797942
 30
0.0000000000000000
 11
268.2955260489522
 21
565.0576083797939
 31
0.0000000000000000
  0
LINE
  5
2F4
100
AcDbEntity
  8
MAIN0
  6
CONTINUOUS
 62
3
100
AcDbLine
 10
269.2955260489522
 20
566.0576083797942
 30
0.0000000000000000
 11
268.2955260489523
 21
565.0576083797942
 31
0.0000000000000000
  0
LINE
  5
2F5
100
AcDbEntity
  8
MAIN0
  6
CENTER
 62
12
100
AcDbLine
 10
287.6475602274398
 20
514.0576083797942
 30
0.0000000000000000
 11
263.1725911239760
 21
514.0576083797942
 31
0.0000000000000000
  0
LINE
  5
2F6
100
AcDbEntity
  8
MAIN0
  6
CONTINUOUS
 62
3
100
AcDbLine
 10
268.2955260489522
 20
516.5576083797942
 30
0.0000000000000000
 11
283.2955260489523
 21
516.5576083797942
 31
0.0000000000000000
  0
LINE
  5
2F7
100
AcDbEntity
  8
MAIN0
  6
CONTINUOUS
 62
3
100
AcDbLine
 10
268.2955260489522
 20
511.5576083797942
 30
0.0000000000000000
 11
283.2955260489523
 21
511.5576083797942
 31
0.0000000000000000
  0
LINE
  5
2F8
100
AcDbEntity
  8
MAIN0
  6
CONTINUOUS
 62
3
100
AcDbLine
 10
283.2955260489523
 20
516.5576083797940
 30
0.0000000000000000
 11
284.7389017219262
 21
514.0576083797942
 31
0.0000000000000000
  0
LINE
  5
2F9
100
AcDbEntity
  8
MAIN0
  6
CONTINUOUS
 62
3
100
AcDbLine
 10
283.2955260489520
 20
511.5576083797940
 30
0.0000000000000000
 11
284.7389017219261
 21
514.0576083797942
 31
0.0000000000000000
  0
LINE
  5
2FA
100
AcDbEntity
  8
MAIN0
  6
CONTINUOUS
 62
3
100
AcDbLine
 10
268.2955260489522
 20
507.0576083797943
 30
0.0000000000000000
 11
268.2955260489522
 21
511.5576083797943
 31
0.0000000000000000
  0
LINE
  5
2FB
100
AcDbEntity
  8
MAIN0
  6
CONTINUOUS
 62
3
100
AcDbLine
 10
268.2955260489522
 20
516.5576083797942
 30
0.0000000000000000
 11
268.2955260489522
 21
522.0576083797942
 31
0.0000000000000000
  0
LINE
  5
2FC
100
AcDbEntity
  8
MAIN0
  6
CONTINUOUS
 62
3
100
AcDbLine
 10
269.2955260489523
 20
506.0576083797942
 30
0.0000000000000000
 11
268.2955260489523
 21
507.0576083797942
 31
0.0000000000000000
  0
LINE
  5
2FD
100
AcDbEntity
  8
MAIN0
  6
CONTINUOUS
 62
3
100
AcDbLine
 10
235.2955260489522
 20
563.5576083797942
 30
0.0000000000000000
 11
268.2955260489522
 21
563.5576083797942
 31
0.0000000000000000
  0
LINE
  5
2FE
100
AcDbEntity
  8
MAIN0
  6
CONTINUOUS
 62
3
100
AcDbLine
 10
235.2955260489522
 20
508.5576083797944
 30
0.0000000000000000
 11
268.2955260489522
 21
508.5576083797944
 31
0.0000000000000000
  0
LINE
  5
2FF
100
AcDbEntity
  8
MAIN0
  6
CONTINUOUS
 62
3
100
AcDbLine
 10
233.2955260489522
 20
510.5576083797944
 30
0.0000000000000000
 11
233.2955260489522
 21
522.0576083797942
 31
0.0000000000000000
  0
LINE
  5
300
100
AcDbEntity
  8
MAIN0
  6
CONTINUOUS
 62
3
100
AcDbLine
 10
233.2955260489522
 20
550.0576083797942
 30
0.0000000000000000
 11
233.2955260489522
 21
561.5576083797942
 31
0.0000000000000000
  0
LINE
  5
301
100
AcDbEntity
  8
MAIN0
  6
CONTINUOUS
 62
3
100
AcDbLine
 10
235.2955260489522
 20
563.5576083797942
 30
0.0000000000000000
 11
233.2955260489522
 21
561.5576083797942
 31
0.0000000000000000
  0
LINE
  5
302
100
AcDbEntity
  8
MAIN0
  6
CONTINUOUS
 62
3
100
AcDbLine
 10
235.2955260489522
 20
508.5576083797942
 30
0.0000000000000000
 11
233.2955260489522
 21
510.5576083797942
 31
0.0000000000000000
  0
LINE
  5
303
100
AcDbEntity
  8
MAIN0
  6
CONTINUOUS
 62
3
100
AcDbLine
 10
266.8521503759781
 20
514.0576083797944
 30
0.0000000000000000
 11
268.2955260489520
 21
516.5576083797940
 31
0.0000000000000000
  0
LINE
  5
304
100
AcDbEntity
  8
MAIN0
  6
CONTINUOUS
 62
3
100
AcDbLine
 10
266.8521503759781
 20
514.0576083797943
 30
0.0000000000000000
 11
268.2955260489523
 21
511.5576083797942
 31
0.0000000000000000
  0
LINE
  5
305
100
AcDbEntity
  8
MAIN0
  6
CENTER
 62
12
100
AcDbLine
 10
248.2955260489522
 20
504.8223757554308
 30
0.0000000000000000
 11
248.2955260489522
 21
524.9748525124949
 31
0.0000000000000000
  0
LINE
  5
306
100
AcDbEntity
  8
MAIN0
  6
CONTINUOUS
 62
3
100
AcDbLine
 10
303.2955260489522
 20
558.5576083797942
 30
0.0000000000000000
 11
330.2955260489523
 21
558.5576083797942
 31
0.0000000000000000
  0
LINE
  5
307
100
AcDbEntity
  8
MAIN0
  6
CONTINUOUS
 62
3
100
AcDbLine
 10
303.2955260489522
 20
513.5576083797944
 30
0.0000000000000000
 11
330.2955260489523
 21
513.5576083797944
 31
0.0000000000000000
  0
LINE
  5
308
100
AcDbEntity
  8
MAIN0
  6
CONTINUOUS
 62
3
100
AcDbLine
 10
180.2955260489524
 20
551.0576083797942
 30
0.0000000000000000
 11
303.2955260489522
 21
551.0576083797942
 31
0.0000000000000000
  0
LINE
  5
309
100
AcDbEntity
  8
MAIN0
  6
CONTINUOUS
 62
3
100
AcDbLine
 10
180.2955260489524
 20
521.0576083797942
 30
0.0000000000000000
 11
303.2955260489522
 21
521.0576083797942
 31
0.0000000000000000
  0
LINE
  5
30A
100
AcDbEntity
  8
MAIN0
  6
CONTINUOUS
 62
3
100
AcDbLine
 10
178.2955260489522
 20
523.0576083797940
 30
0.0000000000000000
 11
178.2955260489522
 21
549.0576083797943
 31
0.0000000000000000
  0
LINE
  5
30B
100
AcDbEntity
  8
MAIN0
  6
CONTINUOUS
 62
3
100
AcDbLine
 10
278.2955260489522
 20
521.0576083797942
 30
0.0000000000000000
 11
278.2955260489522
 21
551.0576083797942
 31
0.0000000000000000
  0
LINE
  5
30C
100
AcDbEntity
  8
MAIN0
  6
CONTINUOUS
 62
12
100
AcDbLine
 10
179.2955260489523
 20
550.0576083797942
 30
0.0000000000000000
 11
278.2955260489522
 21
550.0576083797942
 31
0.0000000000000000
  0
LINE
  5
30D
100
AcDbEntity
  8
MAIN0
  6
CONTINUOUS
 62
12
100
AcDbLine
 10
179.2955260489523
 20
522.0576083797942
 30
0.0000000000000000
 11
278.2955260489522
 21
522.0576083797942
 31
0.0000000000000000
  0
LINE
  5
30E
100
AcDbEntity
  8
MAIN0
  6
CONTINUOUS
 62
3
100
AcDbLine
 10
333.2955260489522
 20
516.5576083797939
 30
0.0000000000000000
 11
333.2955260489522
 21
555.5576083797939
 31
0.0000000000000000
  0
LINE
  5
30F
100
AcDbEntity
  8
MAIN0
  6
CONTINUOUS
 62
3
100
AcDbLine
 10
180.2955260489522
 20
521.0576083797942
 30
0.0000000000000000
 11
180.2955260489522
 21
551.0576083797942
 31
0.0000000000000000
  0
LINE
  5
310
100
AcDbEntity
  8
MAIN0
  6
CONTINUOUS
 62
3
100
AcDbLine
 10
180.2955260489523
 20
521.0576083797940
 30
0.0000000000000000
 11
178.2955260489522
 21
523.0576083797940
 31
0.0000000000000000
  0
LINE
  5
311
100
AcDbEntity
  8
MAIN0
  6
CONTINUOUS
 62
3
100
AcDbLine
 10
178.2955260489524
 20
549.0576083797943
 30
0.0000000000000000
 11
180.2955260489524
 21
551.0576083797943
 31
0.0000000000000000
  0
LINE
  5
312
100
AcDbEntity
  8
MAIN0
  6
CONTINUOUS
 62
3
100
AcDbLine
 10
330.2955260489522
 20
513.5576083797937
 30
0.0000000000000000
 11
330.2955260489522
 21
558.5576083797942
 31
0.0000000000000000
  0
LINE
  5
313
100
AcDbEntity
  8
MAIN0
  6
CONTINUOUS
 62
3
100
AcDbLine
 10
330.2955260489523
 20
558.5576083797939
 30
0.0000000000000000
 11
333.2955260489523
 21
555.5576083797939
 31
0.0000000000000000
  0
LINE
  5
314
100
AcDbEntity
  8
MAIN0
  6
CONTINUOUS
 62
3
100
AcDbLine
 10
330.2955260489524
 20
513.5576083797940
 30
0.0000000000000000
 11
333.2955260489523
 21
516.5576083797939
 31
0.0000000000000000
  0
LINE
  5
315
100
AcDbEntity
  8
MAIN0
  6
CONTINUOUS
 62
3
100
AcDbLine
 10
400.2955260489521
 20
626.3076083797942
 30
0.0000000000000000
 11
459.2955260489521
 21
626.3076083797942
 31
0.0000000000000000
  0
LINE
  5
316
100
AcDbEntity
  8
MAIN0
  6
CENTER
 62
12
100
AcDbLine
 10
386.0363641071647
 20
735.3076083797942
 30
0.0000000000000000
 11
463.7562600881217
 21
735.3076083797942
 31
0.0000000000000000
  0
LINE
  5
317
100
AcDbEntity
  8
MAIN0
  6
CONTINUOUS
 62
3
100
AcDbLine
 10
400.2955260489524
 20
761.3076083797942
 30
0.0000000000000000
 11
459.2955260489521
 21
761.3076083797942
 31
0.0000000000000000
  0
LINE
  5
318
100
AcDbEntity
  8
MAIN0
  6
CONTINUOUS
 62
3
100
AcDbLine
 10
420.2955260489520
 20
708.3076083797942
 30
0.0000000000000000
 11
459.2955260489521
 21
708.3076083797942
 31
0.0000000000000000
  0
LINE
  5
319
100
AcDbEntity
  8
MAIN0
  6
CONTINUOUS
 62
3
100
AcDbLine
 10
420.2955260489520
 20
702.8076083797942
 30
0.0000000000000000
 11
404.2955260489522
 21
702.8076083797942
 31
0.0000000000000000
  0
LINE
  5
31A
100
AcDbEntity
  8
MAIN0
  6
CONTINUOUS
 62
3
100
AcDbLine
 10
420.2955260489520
 20
681.8076083797942
 30
0.0000000000000000
 11
404.2955260489522
 21
681.8076083797942
 31
0.0000000000000000
  0
LINE
  5
31B
100
AcDbEntity
  8
MAIN0
  6
CONTINUOUS
 62
3
100
AcDbLine
 10
420.2955260489520
 20
676.3076083797942
 30
0.0000000000000000
 11
459.2955260489521
 21
676.3076083797942
 31
0.0000000000000000
  0
LINE
  5
31C
100
AcDbEntity
  8
MAIN0
  6
CONTINUOUS
 62
3
100
AcDbLine
 10
420.2955260489520
 20
751.3076083797942
 30
0.0000000000000000
 11
459.2955260489521
 21
751.3076083797942
 31
0.0000000000000000
  0
LINE
  5
31D
100
AcDbEntity
  8
MAIN0
  6
CONTINUOUS
 62
3
100
AcDbLine
 10
404.2955260489522
 20
745.8076083797942
 30
0.0000000000000000
 11
420.2955260489520
 21
745.8076083797942
 31
0.0000000000000000
  0
LINE
  5
31E
100
AcDbEntity
  8
MAIN0
  6
CONTINUOUS
 62
3
100
AcDbLine
 10
404.2955260489522
 20
724.8076083797942
 30
0.0000000000000000
 11
420.2955260489520
 21
724.8076083797942
 31
0.0000000000000000
  0
LINE
  5
31F
100
AcDbEntity
  8
MAIN0
  6
CONTINUOUS
 62
3
100
AcDbLine
 10
420.2955260489520
 20
719.3076083797942
 30
0.0000000000000000
 11
459.2955260489521
 21
719.3076083797942
 31
0.0000000000000000
  0
LINE
  5
320
100
AcDbEntity
  8
MAIN0
  6
CONTINUOUS
 62
3
100
AcDbLine
 10
420.2955260489520
 20
676.3076083797942
 30
0.0000000000000000
 11
420.2955260489520
 21
708.3076083797942
 31
0.0000000000000000
  0
LINE
  5
321
100
AcDbEntity
  8
MAIN0
  6
CONTINUOUS
 62
3
100
AcDbLine
 10
420.2955260489520
 20
719.3076083797942
 30
0.0000000000000000
 11
420.2955260489520
 21
751.3076083797942
 31
0.0000000000000000
  0
LINE
  5
322
100
AcDbEntity
  8
MAIN0
  6
CONTINUOUS
 62
3
100
AcDbLine
 10
789.8723795659404
 20
626.3076083797939
 30
0.0000000000000000
 11
789.8723795659404
 21
761.3076083797939
 31
0.0000000000000000
  0
LINE
  5
323
100
AcDbEntity
  8
MAIN0
  6
CONTINUOUS
 62
3
100
AcDbLine
 10
739.8723795659404
 20
626.3076083797939
 30
0.0000000000000000
 11
739.8723795659404
 21
761.3076083797939
 31
0.0000000000000000
  0
LINE
  5
324
100
AcDbEntity
  8
MAIN0
  6
CENTER
 62
12
100
AcDbLine
 10
744.7527587994861
 20
735.3076083797939
 30
0.0000000000000000
 11
785.9069405363968
 21
735.3076083797939
 31
0.0000000000000000
  0
LINE
  5
325
100
AcDbEntity
  8
MAIN0
  6
CONTINUOUS
 62
3
100
AcDbLine
 10
789.8723795659403
 20
761.3076083797939
 30
0.0000000000000000
 11
739.8723795659403
 21
761.3076083797939
 31
0.0000000000000000
  0
LINE
  5
326
100
AcDbEntity
  8
MAIN0
  6
CENTER
 62
12
100
AcDbLine
 10
744.7527587994861
 20
692.3076083797939
 30
0.0000000000000000
 11
785.9069405363968
 21
692.3076083797939
 31
0.0000000000000000
  0
LINE
  5
327
100
AcDbEntity
  8
MAIN0
  6
CONTINUOUS
 62
3
100
AcDbLine
 10
789.8723795659404
 20
626.3076083797939
 30
0.0000000000000000
 11
739.8723795659404
 21
626.3076083797939
 31
0.0000000000000000
  0
LINE
  5
328
100
AcDbEntity
  8
MAIN0
  6
CONTINUOUS
 62
3
100
AcDbLine
 10
399.2955260489521
 20
760.7302581106043
 30
0.0000000000000000
 11
400.2955260489521
 21
761.3076083797939
 31
0.0000000000000000
  0
LINE
  5
329
100
AcDbEntity
  8
MAIN0
  6
CONTINUOUS
 62
3
100
AcDbLine
 10
399.2955260489522
 20
626.8849586489835
 30
0.0000000000000000
 11
400.2955260489522
 21
626.3076083797938
 31
0.0000000000000000
  0
LINE
  5
32A
100
AcDbEntity
  8
MAIN0
  6
CONTINUOUS
 62
3
100
AcDbLine
 10
459.2955260489521
 20
626.3076083797940
 30
0.0000000000000000
 11
459.2955260489521
 21
761.3076083797939
 31
0.0000000000000000
  0
LINE
  5
32B
100
AcDbEntity
  8
MAIN0
  6
CONTINUOUS
 62
3
100
AcDbLine
 10
404.2955260489521
 20
745.3075853797941
 30
0.0000000000000000
 11
404.2955260489521
 21
761.3076083797940
 31
0.0000000000000000
  0
LINE
  5
32C
100
AcDbEntity
  8
MAIN0
  6
CONTINUOUS
 62
3
100
AcDbLine
 10
404.2955260489521
 20
626.3076083797942
 30
0.0000000000000000
 11
404.2955260489521
 21
682.3076163797941
 31
0.0000000000000000
  0
LINE
  5
32D
100
AcDbEntity
  8
MAIN0
  6
CONTINUOUS
 62
3
100
AcDbLine
 10
404.2955260489521
 20
702.3075853797941
 30
0.0000000000000000
 11
404.2955260489521
 21
725.3076163797941
 31
0.0000000000000000
  0
CIRCLE
  5
32E
100
AcDbEntity
  8
MAIN0
  6
CONTINUOUS
 62
3
100
AcDbCircle
 10
764.8723795659404
 20
735.3076083797939
 30
0.0000000000000000
 40
16.00000000000000
  0
CIRCLE
  5
32F
100
AcDbEntity
  8
MAIN0
  6
CONTINUOUS
 62
3
100
AcDbCircle
 10
764.8723795659404
 20
692.3076083797939
 30
0.0000000000000000
 40
16.00000000000000
  0
LINE
  5
330
100
AcDbEntity
  8
MAIN0
  6
CONTINUOUS
 62
3
100
AcDbLine
 10
399.2955260489521
 20
758.0576083797942
 30
0.0000000000000000
 11
399.2955260489521
 21
760.7302581106042
 31
0.0000000000000000
  0
LINE
  5
331
100
AcDbEntity
  8
MAIN0
  6
CONTINUOUS
 62
12
100
AcDbLine
 10
400.2955260489521
 20
757.4802581106043
 30
0.0000000000000000
 11
400.2955260489521
 21
761.3076083797939
 31
0.0000000000000000
  0
LINE
  5
332
100
AcDbEntity
  8
MAIN0
  6
CONTINUOUS
 62
3
100
AcDbLine
 10
399.2955260489521
 20
626.8849586489835
 30
0.0000000000000000
 11
399.2955260489521
 21
644.0576083797940
 31
0.0000000000000000
  0
LINE
  5
333
100
AcDbEntity
  8
MAIN0
  6
CONTINUOUS
 62
12
100
AcDbLine
 10
399.2955260489521
 20
644.0576083797940
 30
0.0000000000000000
 11
399.2955260489521
 21
758.0576083797942
 31
0.0000000000000000
  0
LINE
  5
334
100
AcDbEntity
  8
MAIN0
  6
CONTINUOUS
 62
12
100
AcDbLine
 10
400.2955260489521
 20
626.3076083797940
 30
0.0000000000000000
 11
400.2955260489521
 21
644.6349586489838
 31
0.0000000000000000
  0
LINE
  5
335
100
AcDbEntity
  8
MAIN0
  6
CONTINUOUS
 62
3
100
AcDbLine
 10
400.2955260489521
 20
644.6349586489838
 30
0.0000000000000000
 11
400.2955260489521
 21
757.4802581106043
 31
0.0000000000000000
  0
LINE
  5
336
100
AcDbEntity
  8
MAIN0
  6
CONTINUOUS
 62
3
100
AcDbLine
 10
283.2955260489522
 20
511.5576083797944
 30
0.0000000000000000
 11
283.2955260489522
 21
516.5576083797942
 31
0.0000000000000000
  0
LINE
  5
337
100
AcDbEntity
  8
MAIN0
  6
CONTINUOUS
 62
3
100
AcDbLine
 10
283.2955260489521
 20
516.5576083797942
 30
0.0000000000000000
 11
281.9557800867964
 21
511.5576083797941
 31
0.0000000000000000
  0
LINE
  5
338
100
AcDbEntity
  8
MAIN0
  6
CONTINUOUS
 62
3
100
AcDbLine
 10
281.9557800867963
 20
511.5576083797941
 30
0.0000000000000000
 11
280.6160341246406
 21
516.5576083797942
 31
0.0000000000000000
  0
LINE
  5
339
100
AcDbEntity
  8
MAIN0
  6
CONTINUOUS
 62
3
100
AcDbLine
 10
279.2762881624846
 20
511.5576083797941
 30
0.0000000000000000
 11
277.9365422003290
 21
516.5576083797942
 31
0.0000000000000000
  0
LINE
  5
33A
100
AcDbEntity
  8
MAIN0
  6
CONTINUOUS
 62
3
100
AcDbLine
 10
277.9365422003289
 20
516.5576083797942
 30
0.0000000000000000
 11
276.5967962381732
 21
511.5576083797942
 31
0.0000000000000000
  0
LINE
  5
33B
100
AcDbEntity
  8
MAIN0
  6
CONTINUOUS
 62
3
100
AcDbLine
 10
275.2570502760174
 20
516.5576083797942
 30
0.0000000000000000
 11
276.5967962381731
 21
511.5576083797942
 31
0.0000000000000000
  0
LINE
  5
33C
100
AcDbEntity
  8
MAIN0
  6
CONTINUOUS
 62
3
100
AcDbLine
 10
275.2570502760172
 20
516.5576083797942
 30
0.0000000000000000
 11
273.9173043138616
 21
511.5576083797941
 31
0.0000000000000000
  0
LINE
  5
33D
100
AcDbEntity
  8
MAIN0
  6
CONTINUOUS
 62
3
100
AcDbLine
 10
273.9173043138615
 20
511.5576083797941
 30
0.0000000000000000
 11
272.5775583517059
 21
516.5576083797942
 31
0.0000000000000000
  0
LINE
  5
33E
100
AcDbEntity
  8
MAIN0
  6
CONTINUOUS
 62
3
100
AcDbLine
 10
272.5775583517057
 20
511.5576083797944
 30
0.0000000000000000
 11
272.5775583517057
 21
516.5576083797942
 31
0.0000000000000000
  0
LINE
  5
33F
100
AcDbEntity
  8
MAIN0
  6
CONTINUOUS
 62
3
100
AcDbLine
 10
279.2762881624849
 20
511.5576083797942
 30
0.0000000000000000
 11
280.6160341246405
 21
516.5576083797942
 31
0.0000000000000000
  0
CIRCLE
  5
340
100
AcDbEntity
  8
MAIN0
  6
CONTINUOUS
 62
3
100
AcDbCircle
 10
269.7389017219261
 20
514.0576083797944
 30
0.0000000000000000
 40
2.499999999999993
  0
LINE
  5
341
100
AcDbEntity
  8
MAIN0
  6
CONTINUOUS
 62
3
100
AcDbLine
 10
311.2955260489523
 20
676.0576003797939
 30
0.0000000000000000
 11
327.9534872607026
 21
676.0576003797939
 31
0.0000000000000000
  0
LINE
  5
342
100
AcDbEntity
  8
MAIN0
  6
CONTINUOUS
 62
3
100
AcDbLine
 10
311.2955260489523
 20
656.0576313797939
 30
0.0000000000000000
 11
328.6152097439764
 21
656.0576313797939
 31
0.0000000000000000
  0
LINE
  5
343
100
AcDbEntity
  8
MAIN0
  6
CONTINUOUS
 62
12
100
AcDbLine
 10
311.2955260489523
 20
675.0576083797939
 30
0.0000000000000000
 11
328.1870905215180
 21
675.0576083797939
 31
0.0000000000000000
  0
LINE
  5
344
100
AcDbEntity
  8
MAIN0
  6
CONTINUOUS
 62
12
100
AcDbLine
 10
311.2955260489523
 20
657.0576083797939
 30
0.0000000000000000
 11
328.4984435187310
 21
657.0576083797939
 31
0.0000000000000000
  0
LINE
  5
345
100
AcDbEntity
  8
MAIN0
  6
CONTINUOUS
 62
3
100
AcDbLine
 10
311.2955110489522
 20
651.0576083797939
 30
0.0000000000000000
 11
292.2954960489523
 21
651.0576233797939
 31
0.0000000000000000
  0
LINE
  5
346
100
AcDbEntity
  8
MAIN0
  6
CONTINUOUS
 62
3
100
AcDbLine
 10
292.2954500489523
 20
681.0576153797939
 30
0.0000000000000000
 11
311.2955410489523
 21
681.0576083797939
 31
0.0000000000000000
  0
LINE
  5
347
100
AcDbEntity
  8
MAIN0
  6
CONTINUOUS
 62
3
100
AcDbLine
 10
292.2955190489523
 20
651.0576233797939
 30
0.0000000000000000
 11
292.2955340489523
 21
681.0576153797939
 31
0.0000000000000000
  0
LINE
  5
348
100
AcDbEntity
  8
MAIN0
  6
CONTINUOUS
 62
3
100
AcDbLine
 10
291.2954800489524
 20
652.7896633797940
 30
0.0000000000000000
 11
292.2955190489524
 21
651.0576233797940
 31
0.0000000000000000
  0
LINE
  5
349
100
AcDbEntity
  8
MAIN0
  6
CONTINUOUS
 62
3
100
AcDbLine
 10
291.2954960489523
 20
679.3253773797939
 30
0.0000000000000000
 11
292.2955340489523
 21
681.0576153797938
 31
0.0000000000000000
  0
LINE
  5
34A
100
AcDbEntity
  8
MAIN0
  6
CONTINUOUS
 62
3
100
AcDbLine
 10
291.2955260489523
 20
679.3254293449593
 30
0.0000000000000000
 11
291.2955260489523
 21
652.7895837090612
 31
0.0000000000000000
  0
LINE
  5
34B
100
AcDbEntity
  8
MAIN0
  6
CONTINUOUS
 62
3
100
AcDbLine
 10
375.2955260489523
 20
408.5576163797944
 30
0.0000000000000000
 11
260.2955260489522
 21
408.5576083797945
 31
0.0000000000000000
  0
LINE
  5
34C
100
AcDbEntity
  8
MAIN0
  6
CONTINUOUS
 62
3
100
AcDbLine
 10
260.2955260489522
 20
408.5576083797945
 30
0.0000000000000000
 11
260.2955260489522
 21
428.5576083797945
 31
0.0000000000000000
  0
LINE
  5
34D
100
AcDbEntity
  8
MAIN0
  6
CONTINUOUS
 62
3
100
AcDbLine
 10
260.2955260489522
 20
428.5576083797945
 30
0.0000000000000000
 11
375.2955260489523
 21
428.5575853797944
 31
0.0000000000000000
  0
LINE
  5
34E
100
AcDbEntity
  8
MAIN0
  6
CONTINUOUS
 62
12
100
AcDbLine
 10
306.2955260489522
 20
409.5576083797945
 30
0.0000000000000000
 11
260.2955260489522
 21
409.5576083797945
 31
0.0000000000000000
  0
LINE
  5
34F
100
AcDbEntity
  8
MAIN0
  6
CONTINUOUS
 62
12
100
AcDbLine
 10
306.2955260489522
 20
427.5576083797945
 30
0.0000000000000000
 11
260.2955260489522
 21
427.5576083797945
 31
0.0000000000000000
  0
LINE
  5
350
100
AcDbEntity
  8
MAIN0
  6
CONTINUOUS
 62
3
100
AcDbLine
 10
375.2955410489523
 20
433.5576083797944
 30
0.0000000000000000
 11
394.2955560489522
 21
433.5575933797944
 31
0.0000000000000000
  0
LINE
  5
351
100
AcDbEntity
  8
MAIN0
  6
CONTINUOUS
 62
3
100
AcDbLine
 10
394.2956020489522
 20
403.5576013797944
 30
0.0000000000000000
 11
375.2955110489523
 21
403.5576083797944
 31
0.0000000000000000
  0
LINE
  5
352
100
AcDbEntity
  8
MAIN0
  6
CONTINUOUS
 62
3
100
AcDbLine
 10
394.2955330489522
 20
433.5575933797944
 30
0.0000000000000000
 11
394.2955180489522
 21
403.5576013797944
 31
0.0000000000000000
  0
LINE
  5
353
100
AcDbEntity
  8
MAIN0
  6
CONTINUOUS
 62
3
100
AcDbLine
 10
395.2955720489522
 20
431.8255533797945
 30
0.0000000000000000
 11
394.2955330489522
 21
433.5575933797945
 31
0.0000000000000000
  0
LINE
  5
354
100
AcDbEntity
  8
MAIN0
  6
CONTINUOUS
 62
3
100
AcDbLine
 10
395.2955560489522
 20
405.2898393797944
 30
0.0000000000000000
 11
394.2955180489522
 21
403.5576013797945
 31
0.0000000000000000
  0
LINE
  5
355
100
AcDbEntity
  8
MAIN0
  6
CONTINUOUS
 62
3
100
AcDbLine
 10
395.2955260489522
 20
405.2897874146290
 30
0.0000000000000000
 11
395.2955260489522
 21
431.8256330505271
 31
0.0000000000000000
  0
LINE
  5
356
100
AcDbEntity
  8
MAIN0
  6
CONTINUOUS
 62
3
100
AcDbLine
 10
306.2955260489522
 20
408.5576083797945
 30
0.0000000000000000
 11
306.2955260489522
 21
428.5576083797945
 31
0.0000000000000000
  0
CIRCLE
  5
357
100
AcDbEntity
  8
MAIN0
  6
HIDDEN
 62
12
100
AcDbCircle
 10
894.8723795659404
 20
536.0576083797942
 30
0.0000000000000000
 40
5.000000000000000
  0
CIRCLE
  5
358
100
AcDbEntity
  8
MAIN0
  6
HIDDEN
 62
12
100
AcDbCircle
 10
894.8723795659404
 20
536.0576083797942
 30
0.0000000000000000
 40
4.249999999999996
  0
CIRCLE
  5
359
100
AcDbEntity
  8
MAIN0
  6
HIDDEN
 62
12
100
AcDbCircle
 10
699.8723795659404
 20
648.6409108717712
 30
0.0000000000000000
 40
5.000000000000000
  0
CIRCLE
  5
35A
100
AcDbEntity
  8
MAIN0
  6
HIDDEN
 62
12
100
AcDbCircle
 10
699.8723795659404
 20
648.6409108717712
 30
0.0000000000000000
 40
4.249999999999996
  0
CIRCLE
  5
35B
100
AcDbEntity
  8
MAIN0
  6
HIDDEN
 62
12
100
AcDbCircle
 10
699.8723795659404
 20
423.4743058878172
 30
0.0000000000000000
 40
5.000000000000000
  0
CIRCLE
  5
35C
100
AcDbEntity
  8
MAIN0
  6
HIDDEN
 62
12
100
AcDbCircle
 10
699.8723795659404
 20
423.4743058878172
 30
0.0000000000000000
 40
4.249999999999996
  0
LINE
  5
35D
100
AcDbEntity
  8
MAIN0
  6
HIDDEN
 62
12
100
AcDbLine
 10
310.2955260489523
 20
671.0576083797937
 30
0.0000000000000000
 11
290.7455260489523
 21
671.0576083797937
 31
0.0000000000000000
  0
LINE
  5
35E
100
AcDbEntity
  8
MAIN0
  6
HIDDEN
 62
12
100
AcDbLine
 10
310.2955260489523
 20
661.0576083797937
 30
0.0000000000000000
 11
290.7455260489522
 21
661.0576083797937
 31
0.0000000000000000
  0
LINE
  5
35F
100
AcDbEntity
  8
MAIN0
  6
HIDDEN
 62
12
100
AcDbLine
 10
291.4955260489521
 20
670.3076083797937
 30
0.0000000000000000
 11
290.2955260489522
 21
671.5076083797939
 31
0.0000000000000000
  0
LINE
  5
360
100
AcDbEntity
  8
MAIN0
  6
HIDDEN
 62
12
100
AcDbLine
 10
291.4955260489522
 20
661.8076083797937
 30
0.0000000000000000
 11
290.2955260489522
 21
660.6076083797939
 31
0.0000000000000000
  0
LINE
  5
361
100
AcDbEntity
  8
MAIN0
  6
HIDDEN
 62
12
100
AcDbLine
 10
320.2955260489523
 20
670.3076083797937
 30
0.0000000000000000
 11
291.4955260489522
 21
670.3076083797937
 31
0.0000000000000000
  0
LINE
  5
362
100
AcDbEntity
  8
MAIN0
  6
HIDDEN
 62
12
100
AcDbLine
 10
320.2955260489522
 20
661.8076083797937
 30
0.0000000000000000
 11
291.4955260489523
 21
661.8076083797937
 31
0.0000000000000000
  0
LINE
  5
363
100
AcDbEntity
  8
MAIN0
  6
HIDDEN
 62
12
100
AcDbLine
 10
310.2955260489522
 20
671.0576083797937
 30
0.0000000000000000
 11
310.2955260489522
 21
661.0576083797937
 31
0.0000000000000000
  0
LINE
  5
364
100
AcDbEntity
  8
MAIN0
  6
HIDDEN
 62
12
100
AcDbLine
 10
320.2955260489523
 20
670.3076083797937
 30
0.0000000000000000
 11
320.2955260489522
 21
661.8076083797937
 31
0.0000000000000000
  0
LINE
  5
365
100
AcDbEntity
  8
MAIN0
  6
HIDDEN
 62
12
100
AcDbLine
 10
322.7492646930082
 20
666.0576083797936
 30
0.0000000000000000
 11
320.2955260489523
 21
670.3076083797937
 31
0.0000000000000000
  0
LINE
  5
366
100
AcDbEntity
  8
MAIN0
  6
HIDDEN
 62
12
100
AcDbLine
 10
322.7492646930081
 20
666.0576083797935
 30
0.0000000000000000
 11
320.2955260489522
 21
661.8076083797937
 31
0.0000000000000000
  0
LINE
  5
367
100
AcDbEntity
  8
MAIN0
  6
HIDDEN
 62
12
100
AcDbLine
 10
291.4955260489521
 20
670.3076083797937
 30
0.0000000000000000
 11
291.4955260489522
 21
661.8076083797937
 31
0.0000000000000000
  0
CIRCLE
  5
368
100
AcDbEntity
  8
MAIN0
  6
CONTINUOUS
 62
3
100
AcDbCircle
 10
869.8723795661276
 20
397.4935437743898
 30
0.0000000000000000
 40
3.500000000000000
  0
LINE
  5
369
100
AcDbEntity
  8
MAIN0
  6
CONTINUOUS
 62
3
100
AcDbLine
 10
871.3219484675600
 20
396.0439748729574
 30
0.0000000000000000
 11
868.4228106646951
 21
398.9431126758223
 31
0.0000000000000000
  0
LINE
  5
36A
100
AcDbEntity
  8
MAIN0
  6
CONTINUOUS
 62
3
100
AcDbLine
 10
871.3219484675600
 20
398.9431126758223
 30
0.0000000000000000
 11
868.4228106646951
 21
396.0439748729574
 31
0.0000000000000000
  0
ARC
  5
36B
100
AcDbEntity
  8
MAIN0
  6
CENTER
 62
3
100
AcDbCircle
 10
857.3723795661276
 20
375.8429086797789
 30
0.0000000000000000
 40
25.00000000000000
100
AcDbArc
 50
41.43210861790716
 51
75.04439677928738
  0
CIRCLE
  5
36C
100
AcDbEntity
  8
MAIN0
  6
CONTINUOUS
 62
3
100
AcDbCircle
 10
869.8723795661274
 20
354.1922735851678
 30
0.0000000000000000
 40
3.500000000000000
  0
LINE
  5
36D
100
AcDbEntity
  8
MAIN0
  6
CONTINUOUS
 62
3
100
AcDbLine
 10
870.4029586085875
 20
352.2121256412752
 30
0.0000000000000000
 11
869.3418005236672
 21
356.1724215290604
 31
0.0000000000000000
  0
LINE
  5
36E
100
AcDbEntity
  8
MAIN0
  6
CONTINUOUS
 62
3
100
AcDbLine
 10
867.8922316222347
 20
353.6616945427076
 30
0.0000000000000000
 11
871.8525275100199
 21
354.7228526276280
 31
0.0000000000000000
  0
ARC
  5
36F
100
AcDbEntity
  8
MAIN0
  6
CENTER
 62
3
100
AcDbCircle
 10
857.3723795661276
 20
375.8429086797789
 30
0.0000000000000000
 40
25.00000000000000
100
AcDbArc
 50
282.5213584915874
 51
314.6372296273848
  0
CIRCLE
  5
370
100
AcDbEntity
  8
MAIN0
  6
CONTINUOUS
 62
3
100
AcDbCircle
 10
832.3723795661275
 20
375.8429086797790
 30
0.0000000000000000
 40
3.500000000000000
  0
LINE
  5
371
100
AcDbEntity
  8
MAIN0
  6
CONTINUOUS
 62
3
100
AcDbLine
 10
832.9029586085877
 20
377.8230566236716
 30
0.0000000000000000
 11
831.8418005236674
 21
373.8627607358865
 31
0.0000000000000000
  0
LINE
  5
372
100
AcDbEntity
  8
MAIN0
  6
CONTINUOUS
 62
3
100
AcDbLine
 10
830.3922316222349
 20
376.3734877222393
 30
0.0000000000000000
 11
834.3525275100201
 21
375.3123296373188
 31
0.0000000000000000
  0
ARC
  5
373
100
AcDbEntity
  8
MAIN0
  6
CENTER
 62
3
100
AcDbCircle
 10
857.3723795661276
 20
375.8429086797789
 30
0.0000000000000000
 40
25.00000000000000
100
AcDbArc
 50
166.2308130713277
 51
195.9961176407642
  0
LINE
  5
374
100
AcDbEntity
  8
MAIN0
  6
CENTER
 62
3
100
AcDbLine
 10
839.0450313839758
 20
375.8429086799839
 30
0.0000000000000000
 11
824.6454509241362
 21
375.8429086799879
 31
0.0000000000000000
  0
LINE
  5
375
100
AcDbEntity
  8
MAIN0
  6
CONTINUOUS
 62
3
100
AcDbLine
 10
368.7940541863761
 20
135.4425665943791
 30
0.0000000000000000
 11
381.8955260489520
 21
135.4425665943791
 31
0.0000000000000000
  0
LINE
  5
376
100
AcDbEntity
  8
MAIN0
  6
CONTINUOUS
 62
3
100
AcDbLine
 10
368.7940541863753
 20
171.4425665943792
 30
0.0000000000000000
 11
381.8955260489520
 21
171.4425665943792
 31
0.0000000000000000
  0
LINE
  5
377
100
AcDbEntity
  8
MAIN0
  6
CONTINUOUS
 62
3
100
AcDbLine
 10
363.9712619802399
 20
140.0168306630914
 30
0.0000000000000000
 11
368.3697901176641
 21
135.6183025256671
 31
0.0000000000000000
  0
LINE
  5
378
100
AcDbEntity
  8
MAIN0
  6
CONTINUOUS
 62
3
100
AcDbLine
 10
363.7955260489519
 20
166.4440384569558
 30
0.0000000000000000
 11
363.7955260489519
 21
140.4410947318035
 31
0.0000000000000000
  0
LINE
  5
379
100
AcDbEntity
  8
MAIN0
  6
CONTINUOUS
 62
3
100
AcDbLine
 10
368.3697901176631
 20
171.2668306630911
 30
0.0000000000000000
 11
363.9712619802399
 21
166.8683025256678
 31
0.0000000000000000
  0
ARC
  5
37A
100
AcDbEntity
  8
MAIN0
  6
CONTINUOUS
 62
3
100
AcDbCircle
 10
381.8955260489520
 20
170.0425665943791
 30
0.0000000000000000
 40
1.399999999999992
100
AcDbArc
 50
359.9999999999997
 51
449.9999999999998
  0
ARC
  5
37B
100
AcDbEntity
  8
MAIN0
  6
CONTINUOUS
 62
3
100
AcDbCircle
 10
381.8955260489519
 20
136.8425665943793
 30
0.0000000000000000
 40
1.399999999999992
100
AcDbArc
 50
269.9999999999998
 51
359.9999999999999
  0
ARC
  5
37C
100
AcDbEntity
  8
MAIN0
  6
CONTINUOUS
 62
3
100
AcDbCircle
 10
368.7940541863761
 20
136.0425665943794
 30
0.0000000000000000
 40
0.6000000000000000
100
AcDbArc
 50
225.0000000000016
 51
269.9999999999998
  0
ARC
  5
37D
100
AcDbEntity
  8
MAIN0
  6
CONTINUOUS
 62
3
100
AcDbCircle
 10
364.3955260489518
 20
140.4410947318035
 30
0.0000000000000000
 40
0.6000000000000000
100
AcDbArc
 50
179.9999999999999
 51
225.0000000000038
  0
ARC
  5
37E
100
AcDbEntity
  8
MAIN0
  6
CONTINUOUS
 62
3
100
AcDbCircle
 10
364.3955260489518
 20
166.4440384569558
 30
0.0000000000000000
 40
0.6000000000000000
100
AcDbArc
 50
134.9999999999956
 51
179.9999999999999
  0
ARC
  5
37F
100
AcDbEntity
  8
MAIN0
  6
CONTINUOUS
 62
3
100
AcDbCircle
 10
368.7940541863752
 20
170.8425665943791
 30
0.0000000000000000
 40
0.6000000000000000
100
AcDbArc
 50
89.99999999999980
 51
134.9999999999980
  0
INSERT
  5
384
100
AcDbEntity
  8
MAIN0
  6
CONTINUOUS
 62
3
100
AcDbBlockReference
  2
M0
 10
0.0000000000000000
 20
0.0000000000000000
 30
0.0000000000000000
 50
0.0000000000000000
  0
INSERT
  5
3C0
100
AcDbEntity
  8
MAIN0
  6
CONTINUOUS
 62
3
100
AcDbBlockReference
  2
M1
 10
0.0000000000000000
 20
0.0000000000000000
 30
0.0000000000000000
 50
0.0000000000000000
  0
INSERT
  5
3C4
100
AcDbEntity
  8
MAIN0
  6
CONTINUOUS
 62
3
100
AcDbBlockReference
  2
M2
 10
0.0000000000000000
 20
0.0000000000000000
 30
0.0000000000000000
 50
0.0000000000000000
  0
LINE
  5
3C5
100
AcDbEntity
  8
MAIN0
  6
HIDDEN
 62
12
100
AcDbLine
 10
393.7955260489521
 20
427.0576083797942
 30
0.0000000000000000
 11
381.7955260489522
 21
427.0576083797942
 31
0.0000000000000000
  0
LINE
  5
3C6
100
AcDbEntity
  8
MAIN0
  6
HIDDEN
 62
12
100
AcDbLine
 10
393.7955260489521
 20
433.0576083797940
 30
0.0000000000000000
 11
381.7955260489522
 21
433.0576083797940
 31
0.0000000000000000
  0
LINE
  5
3C7
100
AcDbEntity
  8
MAIN0
  6
HIDDEN
 62
12
100
AcDbLine
 10
397.9955260489521
 20
428.0576083797938
 30
0.0000000000000000
 11
397.9955260489521
 21
432.0576083797946
 31
0.0000000000000000
  0
LINE
  5
3C8
100
AcDbEntity
  8
MAIN0
  6
HIDDEN
 62
12
100
AcDbLine
 10
381.7955260489521
 20
427.0576083797942
 30
0.0000000000000000
 11
381.7955260489521
 21
433.0576083797940
 31
0.0000000000000000
  0
LINE
  5
3C9
100
AcDbEntity
  8
MAIN0
  6
HIDDEN
 62
12
100
AcDbLine
 10
381.7955260489522
 20
428.0576083797942
 30
0.0000000000000000
 11
393.7955260489521
 21
428.0576083797942
 31
0.0000000000000000
  0
LINE
  5
3CA
100
AcDbEntity
  8
MAIN0
  6
HIDDEN
 62
12
100
AcDbLine
 10
381.7955260489522
 20
432.0576083797940
 30
0.0000000000000000
 11
393.7955260489521
 21
432.0576083797940
 31
0.0000000000000000
  0
ARC
  5
3CB
100
AcDbEntity
  8
MAIN0
  6
HIDDEN
 62
12
100
AcDbCircle
 10
393.0904665251426
 20
430.0576083797942
 30
0.0000000000000000
 40
5.297132142217585
100
AcDbArc
 50
277.6488890354127
 51
337.8172021529632
  0
ARC
  5
3CC
100
AcDbEntity
  8
MAIN0
  6
HIDDEN
 62
12
100
AcDbCircle
 10
393.0904665251426
 20
430.0576083797942
 30
0.0000000000000000
 40
5.297132142217585
100
AcDbArc
 50
22.18279784703669
 51
82.35111096458650
  0
LINE
  5
3CD
100
AcDbEntity
  8
MAIN0
  6
HIDDEN
 62
12
100
AcDbLine
 10
335.2955260489525
 20
341.0576083797942
 30
0.0000000000000000
 11
335.2955260489525
 21
311.6576083797943
 31
0.0000000000000000
  0
LINE
  5
3CE
100
AcDbEntity
  8
MAIN0
  6
HIDDEN
 62
12
100
AcDbLine
 10
351.2955260489525
 20
341.0576083797942
 30
0.0000000000000000
 11
351.2955260489525
 21
311.6576083797942
 31
0.0000000000000000
  0
LINE
  5
3CF
100
AcDbEntity
  8
MAIN0
  6
HIDDEN
 62
12
100
AcDbLine
 10
336.2955260489523
 20
312.6576083797940
 30
0.0000000000000000
 11
334.6955260489521
 21
311.0576083797942
 31
0.0000000000000000
  0
LINE
  5
3D0
100
AcDbEntity
  8
MAIN0
  6
HIDDEN
 62
12
100
AcDbLine
 10
350.2955260489523
 20
312.6576083797942
 30
0.0000000000000000
 11
351.8955260489521
 21
311.0576083797942
 31
0.0000000000000000
  0
LINE
  5
3D1
100
AcDbEntity
  8
MAIN0
  6
HIDDEN
 62
12
100
AcDbLine
 10
336.2955260489525
 20
348.0576083797943
 30
0.0000000000000000
 11
336.2955260489524
 21
312.6576083797940
 31
0.0000000000000000
  0
LINE
  5
3D2
100
AcDbEntity
  8
MAIN0
  6
HIDDEN
 62
12
100
AcDbLine
 10
350.2955260489525
 20
348.0576083797942
 30
0.0000000000000000
 11
350.2955260489524
 21
312.6576083797942
 31
0.0000000000000000
  0
LINE
  5
3D3
100
AcDbEntity
  8
MAIN0
  6
HIDDEN
 62
12
100
AcDbLine
 10
335.2955260489525
 20
341.0576083797942
 30
0.0000000000000000
 11
351.2955260489525
 21
341.0576083797942
 31
0.0000000000000000
  0
LINE
  5
3D4
100
AcDbEntity
  8
MAIN0
  6
HIDDEN
 62
12
100
AcDbLine
 10
336.2955260489524
 20
348.0576083797942
 30
0.0000000000000000
 11
350.2955260489524
 21
348.0576083797942
 31
0.0000000000000000
  0
LINE
  5
3D5
100
AcDbEntity
  8
MAIN0
  6
HIDDEN
 62
12
100
AcDbLine
 10
343.2955260489525
 20
352.0990602641216
 30
0.0000000000000000
 11
336.2955260489524
 21
348.0576083797943
 31
0.0000000000000000
  0
LINE
  5
3D6
100
AcDbEntity
  8
MAIN0
  6
HIDDEN
 62
12
100
AcDbLine
 10
343.2955260489524
 20
352.0990602641216
 30
0.0000000000000000
 11
350.2955260489523
 21
348.0576083797943
 31
0.0000000000000000
  0
LINE
  5
3D7
100
AcDbEntity
  8
MAIN0
  6
HIDDEN
 62
12
100
AcDbLine
 10
336.2955260489524
 20
312.6576083797940
 30
0.0000000000000000
 11
350.2955260489524
 21
312.6576083797942
 31
0.0000000000000000
  0
LINE
  5
3D8
100
AcDbEntity
  8
MAIN0
  6
HIDDEN
 62
12
100
AcDbLine
 10
832.1046126170413
 20
352.8396320811737
 30
0.0000000000000000
 11
843.3555055285754
 21
325.6775738253406
 31
0.0000000000000000
  0
LINE
  5
3D9
100
AcDbEntity
  8
MAIN0
  6
HIDDEN
 62
12
100
AcDbLine
 10
846.8866851372221
 20
358.9625669990157
 30
0.0000000000000000
 11
858.1375780487563
 21
331.8005087431825
 31
0.0000000000000000
  0
LINE
  5
3DA
100
AcDbEntity
  8
MAIN0
  6
HIDDEN
 62
12
100
AcDbLine
 10
843.1165199437965
 20
325.1006115853523
 30
0.0000000000000000
 11
843.8967016287238
 21
326.9841367902177
 31
0.0000000000000000
  0
LINE
  5
3DB
100
AcDbEntity
  8
MAIN0
  6
HIDDEN
 62
12
100
AcDbLine
 10
856.8310150838811
 20
332.3417048433292
 30
0.0000000000000000
 11
858.7145402887472
 21
331.5615231584019
 31
0.0000000000000000
  0
LINE
  5
3DC
100
AcDbEntity
  8
MAIN0
  6
HIDDEN
 62
12
100
AcDbLine
 10
830.3497081229972
 20
359.6894722411183
 30
0.0000000000000000
 11
843.8967016287218
 21
326.9841367902174
 31
0.0000000000000000
  0
LINE
  5
3DD
100
AcDbEntity
  8
MAIN0
  6
HIDDEN
 62
12
100
AcDbLine
 10
843.2840215781550
 20
365.0470402942290
 30
0.0000000000000000
 11
856.8310150838796
 21
332.3417048433280
 31
0.0000000000000000
  0
LINE
  5
3DE
100
AcDbEntity
  8
MAIN0
  6
HIDDEN
 62
12
100
AcDbLine
 10
832.1046126170414
 20
352.8396320811741
 30
0.0000000000000000
 11
846.8866851372220
 21
358.9625669990155
 31
0.0000000000000000
  0
LINE
  5
3DF
100
AcDbEntity
  8
MAIN0
  6
HIDDEN
 62
12
100
AcDbLine
 10
830.3497081230001
 20
359.6894722411188
 30
0.0000000000000000
 11
843.2840215781582
 21
365.0470402942300
 31
0.0000000000000000
  0
LINE
  5
3E0
100
AcDbEntity
  8
MAIN0
  6
HIDDEN
 62
12
100
AcDbLine
 10
835.2702681717456
 20
366.1020709452330
 30
0.0000000000000000
 11
830.3497081229991
 21
359.6894722411182
 31
0.0000000000000000
  0
LINE
  5
3E1
100
AcDbEntity
  8
MAIN0
  6
HIDDEN
 62
12
100
AcDbLine
 10
835.2702681717469
 20
366.1020709452317
 30
0.0000000000000000
 11
843.2840215781565
 21
365.0470402942283
 31
0.0000000000000000
  0
LINE
  5
3E2
100
AcDbEntity
  8
MAIN0
  6
HIDDEN
 62
12
100
AcDbLine
 10
843.8967016287224
 20
326.9841367902182
 30
0.0000000000000000
 11
856.8310150838804
 21
332.3417048433296
 31
0.0000000000000000
  0
LINE
  5
3E3
100
AcDbEntity
  8
MAIN0
  6
HIDDEN
 62
12
100
AcDbLine
 10
697.6401465148390
 20
719.2755846784146
 30
0.0000000000000000
 11
686.3892536033053
 21
746.4376429342465
 31
0.0000000000000000
  0
LINE
  5
3E4
100
AcDbEntity
  8
MAIN0
  6
HIDDEN
 62
12
100
AcDbLine
 10
682.8580739946583
 20
713.1526497605731
 30
0.0000000000000000
 11
671.6071810831246
 21
740.3147080164050
 31
0.0000000000000000
  0
LINE
  5
3E5
100
AcDbEntity
  8
MAIN0
  6
HIDDEN
 62
12
100
AcDbLine
 10
686.6282391880875
 20
747.0146051742361
 30
0.0000000000000000
 11
685.8480575031598
 21
745.1310799693700
 31
0.0000000000000000
  0
LINE
  5
3E6
100
AcDbEntity
  8
MAIN0
  6
HIDDEN
 62
12
100
AcDbLine
 10
672.9137440480018
 20
739.7735119162583
 30
0.0000000000000000
 11
671.0302188431367
 21
740.5536936011852
 31
0.0000000000000000
  0
LINE
  5
3E7
100
AcDbEntity
  8
MAIN0
  6
HIDDEN
 62
12
100
AcDbLine
 10
699.3950510088832
 20
712.4257445184705
 30
0.0000000000000000
 11
685.8480575031589
 21
745.1310799693703
 31
0.0000000000000000
  0
LINE
  5
3E8
100
AcDbEntity
  8
MAIN0
  6
HIDDEN
 62
12
100
AcDbLine
 10
686.4607375537253
 20
707.0681764653592
 30
0.0000000000000000
 11
672.9137440480010
 21
739.7735119162587
 31
0.0000000000000000
  0
LINE
  5
3E9
100
AcDbEntity
  8
MAIN0
  6
HIDDEN
 62
12
100
AcDbLine
 10
697.6401465148388
 20
719.2755846784146
 30
0.0000000000000000
 11
682.8580739946583
 21
713.1526497605732
 31
0.0000000000000000
  0
LINE
  5
3EA
100
AcDbEntity
  8
MAIN0
  6
HIDDEN
 62
12
100
AcDbLine
 10
699.3950510088833
 20
712.4257445184705
 30
0.0000000000000000
 11
686.4607375537254
 21
707.0681764653593
 31
0.0000000000000000
  0
LINE
  5
3EB
100
AcDbEntity
  8
MAIN0
  6
HIDDEN
 62
12
100
AcDbLine
 10
694.4744909601366
 20
706.0131458143540
 30
0.0000000000000000
 11
699.3950510088837
 21
712.4257445184700
 31
0.0000000000000000
  0
LINE
  5
3EC
100
AcDbEntity
  8
MAIN0
  6
HIDDEN
 62
12
100
AcDbLine
 10
694.4744909601367
 20
706.0131458143565
 30
0.0000000000000000
 11
686.4607375537235
 21
707.0681764653604
 31
0.0000000000000000
  0
LINE
  5
3ED
100
AcDbEntity
  8
MAIN0
  6
HIDDEN
 62
12
100
AcDbLine
 10
685.8480575031578
 20
745.1310799693697
 30
0.0000000000000000
 11
672.9137440479999
 21
739.7735119162583
 31
0.0000000000000000
  0
LINE
  5
3EE
100
AcDbEntity
  8
MAIN0
  6
CONTINUOUS
 62
3
100
AcDbLine
 10
301.7955260489522
 20
497.0576083797943
 30
0.0000000000000000
 11
301.7955260489522
 21
506.0576083797944
 31
0.0000000000000000
  0
LINE
  5
3EF
100
AcDbEntity
  8
MAIN0
  6
CONTINUOUS
 62
3
100
AcDbLine
 10
307.7955260489522
 20
497.0576083797943
 30
0.0000000000000000
 11
307.7955260489522
 21
506.0576083797944
 31
0.0000000000000000
  0
LINE
  5
3F0
100
AcDbEntity
  8
MAIN0
  6
CONTINUOUS
 62
4
100
AcDbLine
 10
302.3370260489522
 20
497.0576083797943
 30
0.0000000000000000
 11
302.3370260489522
 21
506.0576083797944
 31
0.0000000000000000
  0
LINE
  5
3F1
100
AcDbEntity
  8
MAIN0
  6
CONTINUOUS
 62
4
100
AcDbLine
 10
307.2540260489523
 20
497.0576083797943
 30
0.0000000000000000
 11
307.2540260489523
 21
506.0576083797944
 31
0.0000000000000000
  0
LINE
  5
3F2
100
AcDbEntity
  8
MAIN0
  6
CONTINUOUS
 62
3
100
AcDbLine
 10
303.2955260489523
 20
506.0576083797943
 30
0.0000000000000000
 11
306.2955260489521
 21
506.0576083797943
 31
0.0000000000000000
  0
LINE
  5
3F3
100
AcDbEntity
  8
MAIN0
  6
CONTINUOUS
 62
3
100
AcDbLine
 10
302.6615514527366
 20
498.0576083797942
 30
0.0000000000000000
 11
306.9295006451679
 21
498.0576083797942
 31
0.0000000000000000
  0
LINE
  5
3F4
100
AcDbEntity
  8
MAIN0
  6
CONTINUOUS
 62
3
100
AcDbLine
 10
301.7955260489523
 20
504.5576083797942
 30
0.0000000000000000
 11
307.7955260489522
 21
504.5576083797942
 31
0.0000000000000000
  0
LINE
  5
3F5
100
AcDbEntity
  8
MAIN0
  6
CONTINUOUS
 62
3
100
AcDbLine
 10
301.7955260489522
 20
498.5576083797942
 30
0.0000000000000000
 11
307.7955260489523
 21
498.5576083797942
 31
0.0000000000000000
  0
LINE
  5
3F6
100
AcDbEntity
  8
MAIN0
  6
CONTINUOUS
 62
3
100
AcDbLine
 10
301.7955260489523
 20
504.5576083797940
 30
0.0000000000000000
 11
303.2955260489524
 21
506.0576083797941
 31
0.0000000000000000
  0
LINE
  5
3F7
100
AcDbEntity
  8
MAIN0
  6
CONTINUOUS
 62
3
100
AcDbLine
 10
306.2955260489522
 20
506.0576083797941
 30
0.0000000000000000
 11
307.7955260489524
 21
504.5576083797939
 31
0.0000000000000000
  0
LINE
  5
3F8
100
AcDbEntity
  8
MAIN0
  6
CONTINUOUS
 62
3
100
AcDbLine
 10
302.6615514527367
 20
498.0576083797940
 30
0.0000000000000000
 11
301.7955260489522
 21
498.5576083797940
 31
0.0000000000000000
  0
LINE
  5
3F9
100
AcDbEntity
  8
MAIN0
  6
CONTINUOUS
 62
3
100
AcDbLine
 10
307.7955260489522
 20
498.5576083797940
 30
0.0000000000000000
 11
306.9295006451680
 21
498.0576083797942
 31
0.0000000000000000
  0
LINE
  5
3FA
100
AcDbEntity
  8
MAIN0
  6
CONTINUOUS
 62
3
100
AcDbLine
 10
244.2955260489522
 20
508.5576083797944
 30
0.0000000000000000
 11
244.2955260489522
 21
522.0576083797942
 31
0.0000000000000000
  0
LINE
  5
3FB
100
AcDbEntity
  8
MAIN0
  6
CONTINUOUS
 62
3
100
AcDbLine
 10
252.2955260489522
 20
508.5576083797944
 30
0.0000000000000000
 11
252.2955260489522
 21
522.0576083797942
 31
0.0000000000000000
  0
LINE
  5
3FC
100
AcDbEntity
  8
MAIN0
  6
CONTINUOUS
 62
12
100
AcDbLine
 10
244.9720260489522
 20
508.5576083797944
 30
0.0000000000000000
 11
244.9720260489522
 21
522.0576083797942
 31
0.0000000000000000
  0
LINE
  5
3FD
100
AcDbEntity
  8
MAIN0
  6
CONTINUOUS
 62
12
100
AcDbLine
 10
251.6190260489522
 20
508.5576083797944
 30
0.0000000000000000
 11
251.6190260489522
 21
522.0576083797942
 31
0.0000000000000000
  0
LINE
  5
3FE
100
AcDbEntity
  8
MAIN0
  6
CONTINUOUS
 62
3
100
AcDbLine
 10
245.7955260489523
 20
521.0576083797942
 30
0.0000000000000000
 11
250.7955260489521
 21
521.0576083797942
 31
0.0000000000000000
  0
LINE
  5
3FF
100
AcDbEntity
  8
MAIN0
  6
CONTINUOUS
 62
3
100
AcDbLine
 10
245.3347565334935
 20
509.0576083797943
 30
0.0000000000000000
 11
251.2562955644109
 21
509.0576083797943
 31
0.0000000000000000
  0
LINE
  5
400
100
AcDbEntity
  8
MAIN0
  6
CONTINUOUS
 62
3
100
AcDbLine
 10
252.2955260489522
 20
519.5576083797943
 30
0.0000000000000000
 11
244.2955260489523
 21
519.5576083797943
 31
0.0000000000000000
  0
LINE
  5
401
100
AcDbEntity
  8
MAIN0
  6
CONTINUOUS
 62
3
100
AcDbLine
 10
244.2955260489522
 20
509.6576083797941
 30
0.0000000000000000
 11
252.2955260489522
 21
509.6576083797941
 31
0.0000000000000000
  0
LINE
  5
402
100
AcDbEntity
  8
MAIN0
  6
CONTINUOUS
 62
3
100
AcDbLine
 10
244.2955260489523
 20
519.5576083797940
 30
0.0000000000000000
 11
245.7955260489523
 21
521.0576083797942
 31
0.0000000000000000
  0
LINE
  5
403
100
AcDbEntity
  8
MAIN0
  6
CONTINUOUS
 62
3
100
AcDbLine
 10
250.7955260489522
 20
521.0576083797942
 30
0.0000000000000000
 11
252.2955260489522
 21
519.5576083797940
 31
0.0000000000000000
  0
LINE
  5
404
100
AcDbEntity
  8
MAIN0
  6
CONTINUOUS
 62
3
100
AcDbLine
 10
245.3347565334935
 20
509.0576083797942
 30
0.0000000000000000
 11
244.2955260489522
 21
509.6576083797941
 31
0.0000000000000000
  0
LINE
  5
405
100
AcDbEntity
  8
MAIN0
  6
CONTINUOUS
 62
3
100
AcDbLine
 10
252.2955260489522
 20
509.6576083797941
 30
0.0000000000000000
 11
251.2562955644110
 21
509.0576083797941
 31
0.0000000000000000
  0
LINE
  5
406
100
AcDbEntity
  8
MAIN0
  6
CONTINUOUS
 62
3
100
AcDbLine
 10
291.4955260489523
 20
682.0576083797938
 30
0.0000000000000000
 11
311.2955260489523
 21
682.0576083797938
 31
0.0000000000000000
  0
LINE
  5
407
100
AcDbEntity
  8
MAIN0
  6
CONTINUOUS
 62
3
100
AcDbLine
 10
291.4955260489523
 20
650.0576083797938
 30
0.0000000000000000
 11
311.2955260489522
 21
650.0576083797938
 31
0.0000000000000000
  0
LINE
  5
408
100
AcDbEntity
  8
MAIN0
  6
CONTINUOUS
 62
3
100
AcDbLine
 10
311.2955260489523
 20
650.0576083797936
 30
0.0000000000000000
 11
311.2955260489523
 21
682.0576083797938
 31
0.0000000000000000
  0
LINE
  5
409
100
AcDbEntity
  8
MAIN0
  6
CONTINUOUS
 62
3
100
AcDbLine
 10
290.2955260489522
 20
683.2576083797937
 30
0.0000000000000000
 11
291.4955260489522
 21
682.0576083797937
 31
0.0000000000000000
  0
LINE
  5
40A
100
AcDbEntity
  8
MAIN0
  6
CONTINUOUS
 62
3
100
AcDbLine
 10
290.2955260489522
 20
648.8576083797938
 30
0.0000000000000000
 11
291.4955260489522
 21
650.0576083797937
 31
0.0000000000000000
  0
LINE
  5
40B
100
AcDbEntity
  8
MAIN0
  6
CONTINUOUS
 62
3
100
AcDbLine
 10
394.7955260489517
 20
166.1925665943791
 30
0.0000000000000000
 11
394.7955260489517
 21
166.4925665943791
 31
0.0000000000000000
  0
LINE
  5
40C
100
AcDbEntity
  8
MAIN0
  6
CONTINUOUS
 62
3
100
AcDbLine
 10
383.9955260489463
 20
166.4925665943792
 30
0.0000000000000000
 11
394.7955260489518
 21
166.4925665943792
 31
0.0000000000000000
  0
LINE
  5
40D
100
AcDbEntity
  8
MAIN0
  6
CONTINUOUS
 62
3
100
AcDbLine
 10
384.0955260489463
 20
140.3925665943793
 30
0.0000000000000000
 11
394.7955260489518
 21
140.3925665943793
 31
0.0000000000000000
  0
LINE
  5
40E
100
AcDbEntity
  8
MAIN0
  6
CONTINUOUS
 62
3
100
AcDbLine
 10
394.7955260489517
 20
140.6925665943792
 30
0.0000000000000000
 11
394.7955260489517
 21
140.3925665943792
 31
0.0000000000000000
  0
LINE
  5
40F
100
AcDbEntity
  8
MAIN0
  6
CONTINUOUS
 62
3
100
AcDbLine
 10
383.2955260489518
 20
139.6925665943848
 30
0.0000000000000000
 11
384.0955260489463
 21
140.4925665943791
 31
0.0000000000000000
  0
LINE
  5
410
100
AcDbEntity
  8
MAIN0
  6
CONTINUOUS
 62
3
100
AcDbLine
 10
383.2955260489518
 20
167.1925665943736
 30
0.0000000000000000
 11
384.0955260489462
 21
166.3925665943792
 31
0.0000000000000000
  0
LINE
  5
411
100
AcDbEntity
  8
MAIN0
  6
CONTINUOUS
 62
3
100
AcDbLine
 10
383.2955260489518
 20
170.0425665943791
 30
0.0000000000000000
 11
383.2955260489518
 21
167.1925665943735
 31
0.0000000000000000
  0
LINE
  5
412
100
AcDbEntity
  8
MAIN0
  6
CONTINUOUS
 62
3
100
AcDbLine
 10
383.2955260489517
 20
139.6925665943846
 30
0.0000000000000000
 11
383.2955260489517
 21
136.8425665943793
 31
0.0000000000000000
  0
LINE
  5
413
100
AcDbEntity
  8
WAKU0
  6
CONTINUOUS
 62
3
100
AcDbLine
 10
412.0000000000000
 20
51.00000000000000
 30
0.0000000000000000
 11
582.0000000000000
 21
51.00000000000000
 31
0.0000000000000000
  0
LINE
  5
414
100
AcDbEntity
  8
WAKU0
  6
CONTINUOUS
 62
3
100
AcDbLine
 10
412.0000000000000
 20
51.00000000000000
 30
0.0000000000000000
 11
412.0000000000000
 21
12.00000000000000
 31
0.0000000000000000
  0
LINE
  5
415
100
AcDbEntity
  8
WAKU0
  6
CONTINUOUS
 62
3
100
AcDbLine
 10
484.0000000000000
 20
51.00000000000000
 30
0.0000000000000000
 11
484.0000000000000
 21
12.00000000000000
 31
0.0000000000000000
  0
LINE
  5
416
100
AcDbEntity
  8
WAKU0
  6
CONTINUOUS
 62
3
100
AcDbLine
 10
504.0000000000000
 20
51.00000000000000
 30
0.0000000000000000
 11
504.0000000000000
 21
12.00000000000000
 31
0.0000000000000000
  0
LINE
  5
417
100
AcDbEntity
  8
WAKU0
  6
CONTINUOUS
 62
3
100
AcDbLine
 10
516.0000000000000
 20
51.00000000000000
 30
0.0000000000000000
 11
516.0000000000000
 21
12.00000000000000
 31
0.0000000000000000
  0
LINE
  5
418
100
AcDbEntity
  8
WAKU0
  6
CONTINUOUS
 62
3
100
AcDbLine
 10
516.0000000000000
 20
37.00000000000000
 30
0.0000000000000000
 11
582.0000000000000
 21
37.00000000000000
 31
0.0000000000000000
  0
LINE
  5
419
100
AcDbEntity
  8
WAKU0
  6
CONTINUOUS
 62
3
100
AcDbLine
 10
504.0000000000000
 20
23.00000000000000
 30
0.0000000000000000
 11
582.0000000000000
 21
23.00000000000000
 31
0.0000000000000000
  0
LINE
  5
41A
100
AcDbEntity
  8
WAKU0
  6
CONTINUOUS
 62
3
100
AcDbLine
 10
547.0000000000000
 20
51.00000000000000
 30
0.0000000000000000
 11
547.0000000000000
 21
44.00000000000000
 31
0.0000000000000000
  0
LINE
  5
41B
100
AcDbEntity
  8
WAKU0
  6
CONTINUOUS
 62
3
100
AcDbLine
 10
559.0000000000000
 20
51.00000000000000
 30
0.0000000000000000
 11
559.0000000000000
 21
44.00000000000000
 31
0.0000000000000000
  0
LINE
  5
41C
100
AcDbEntity
  8
WAKU0
  6
CONTINUOUS
 62
3
100
AcDbLine
 10
484.0000000000000
 20
31.50000000000000
 30
0.0000000000000000
 11
504.0000000000000
 21
31.50000000000000
 31
0.0000000000000000
  0
LINE
  5
41D
100
AcDbEntity
  8
WAKU0
  6
CONTINUOUS
 62
3
100
AcDbLine
 10
504.0000000000000
 20
44.00000000000000
 30
0.0000000000000000
 11
582.0000000000000
 21
44.00000000000000
 31
0.0000000000000000
  0
LINE
  5
41E
100
AcDbEntity
  8
WAKU0
  6
CONTINUOUS
 62
3
100
AcDbLine
 10
412.0000000000000
 20
37.00000000000000
 30
0.0000000000000000
 11
484.0000000000000
 21
37.00000000000000
 31
0.0000000000000000
  0
LINE
  5
41F
100
AcDbEntity
  8
WAKU0
  6
CONTINUOUS
 62
3
100
AcDbLine
 10
412.0000000000000
 20
23.00000000000000
 30
0.0000000000000000
 11
484.0000000000000
 21
23.00000000000000
 31
0.0000000000000000
  0
LINE
  5
420
100
AcDbEntity
  8
WAKU0
  6
CONTINUOUS
 62
3
100
AcDbLine
 10
460.0000000000000
 20
37.00000000000000
 30
0.0000000000000000
 11
460.0000000000000
 21
12.00000000000000
 31
0.0000000000000000
  0
LINE
  5
421
100
AcDbEntity
  8
WAKU0
  6
CONTINUOUS
 62
3
100
AcDbLine
 10
436.0000000000000
 20
37.00000000000000
 30
0.0000000000000000
 11
436.0000000000000
 21
23.00000000000000
 31
0.0000000000000000
  0
LINE
  5
422
100
AcDbEntity
  8
WAKU0
  6
CONTINUOUS
 62
3
100
AcDbLine
 10
472.0000000000000
 20
26.00000000000000
 30
0.0000000000000000
 11
472.0000000000000
 21
23.00000000000000
 31
0.0000000000000000
  0
LINE
  5
423
100
AcDbEntity
  8
WAKU0
  6
CONTINUOUS
 62
3
100
AcDbLine
 10
448.0000000000000
 20
26.00000000000000
 30
0.0000000000000000
 11
448.0000000000000
 21
23.00000000000000
 31
0.0000000000000000
  0
LINE
  5
424
100
AcDbEntity
  8
WAKU0
  6
CONTINUOUS
 62
3
100
AcDbLine
 10
424.0000000000000
 20
26.00000000000000
 30
0.0000000000000000
 11
424.0000000000000
 21
23.00000000000000
 31
0.0000000000000000
  0
LINE
  5
425
100
AcDbEntity
  8
WAKU0
  6
CONTINUOUS
 62
3
100
AcDbLine
 10
430.0000000000000
 20
51.00000000000000
 30
0.0000000000000000
 11
430.0000000000000
 21
37.00000000000000
 31
0.0000000000000000
  0
LINE
  5
426
100
AcDbEntity
  8
WAKU0
  6
CONTINUOUS
 62
3
100
AcDbLine
 10
412.0000000000000
 20
45.00000000000000
 30
0.0000000000000000
 11
484.0000000000000
 21
45.00000000000000
 31
0.0000000000000000
  0
LINE
  5
427
100
AcDbEntity
  8
WAKU0
  6
HIDDEN
 62
3
100
AcDbLine
 10
532.5000000000000
 20
23.00000000000000
 30
0.0000000000000000
 11
532.5000000000000
 21
12.00000000000000
 31
0.0000000000000000
  0
LINE
  5
428
100
AcDbEntity
  8
WAKU0
  6
HIDDEN
 62
3
100
AcDbLine
 10
544.9000000000000
 20
23.00000000000000
 30
0.0000000000000000
 11
544.9000000000000
 21
12.00000000000000
 31
0.0000000000000000
  0
MTEXT
  5
429
100
AcDbEntity
  8
WAKU0
  6
CONTINUOUS
 62
3
100
AcDbMText
 10
516.4820000243485
 20
49.04999995231628
 30
0.0000000000000000
 40
3.099999904632568
 41
0.0000000000000000
 71
     1
 72
     1
  1
{\H0.91x;{N-18}}
 11
1.000000000000000
 21
0.0000000000000000
 31
0.0000000000000000
  7
STANDARD
  0
MTEXT
  5
42A
100
AcDbEntity
  8
WAKU0
  6
CONTINUOUS
 62
3
100
AcDbMText
 10
516.4659999916852
 20
43.50000000000000
 30
0.0000000000000000
 40
3.000000000000000
 41
0.0000000000000000
 71
     1
 72
     1
  1
{\H0.94x;{パワーチャック　１８\PＰＯＷＥＲ　ＣＨＵＣＫ　１８}}
 11
1.000000000000000
 21
0.0000000000000000
 31
0.0000000000000000
  7
KNJYOKO
  0
MTEXT
  5
42B
100
AcDbEntity
  8
WAKU0
  6
CONTINUOUS
 62
3
100
AcDbMText
 10
516.4820000243485
 20
34.23333326975504
 30
0.0000000000000000
 40
3.099999904632568
 41
0.0000000000000000
 71
     1
 72
     1
  1
{\H0.94x;{Ｎ－１８　ガイケイ\PＮ－１８　ＯＵＴＳＩＤＥ　ＶＩＥＷ}}
 11
1.000000000000000
 21
0.0000000000000000
 31
0.0000000000000000
  7
KNJYOKO
  0
MTEXT
  5
42C
100
AcDbEntity
  8
WAKU0
  6
CONTINUOUS
 62
3
100
AcDbMText
 10
490.0049998760223
 20
39.29999995231628
 30
0.0000000000000000
 40
3.099999904632568
 41
0.0000000000000000
 71
     1
 72
     1
  1
{\H0.90x;{1:2}}
 11
1.000000000000000
 21
0.0000000000000000
 31
0.0000000000000000
  7
STANDARD
  0
MTEXT
  5
42D
100
AcDbEntity
  8
WAKU0
  6
CONTINUOUS
 62
3
100
AcDbMText
 10
546.4000001549721
 20
20.15000009536743
 30
0.0000000000000000
 40
5.300000190734863
 41
0.0000000000000000
 71
     1
 72
     1
  1
{\H0.90x;{6407}}
 11
1.000000000000000
 21
0.0000000000000000
 31
0.0000000000000000
  7
STANDARD
  0
MTEXT
  5
42E
100
AcDbEntity
  8
WAKU0
  6
CONTINUOUS
 62
3
100
AcDbMText
 10
534.3000000834466
 20
20.15000009536743
 30
0.0000000000000000
 40
5.300000190734863
 41
0.0000000000000000
 71
     1
 72
     1
  1
{\H0.87x;{21}}
 11
1.000000000000000
 21
0.0000000000000000
 31
0.0000000000000000
  7
STANDARD
  0
MTEXT
  5
42F
100
AcDbEntity
  8
WAKU0
  6
CONTINUOUS
 62
3
100
AcDbMText
 10
517.5000001192093
 20
20.15000009536743
 30
0.0000000000000000
 40
5.300000190734863
 41
0.0000000000000000
 71
     1
 72
     1
  1
{\H0.89x;{61P}}
 11
1.000000000000000
 21
0.0000000000000000
 31
0.0000000000000000
  7
STANDARD
  0
MTEXT
  5
430
100
AcDbEntity
  8
WAKU0
  6
CONTINUOUS
 62
3
100
AcDbMText
 10
572.0000000476837
 20
20.15000009536743
 30
0.0000000000000000
 40
5.300000190734863
 41
0.0000000000000000
 71
     1
 72
     1
  1
{\H0.81x;{7}}
 11
1.000000000000000
 21
0.0000000000000000
 31
0.0000000000000000
  7
STANDARD
  0
MTEXT
  5
431
100
AcDbEntity
  8
WAKU0
  6
CONTINUOUS
 62
3
100
AcDbMText
 10
572.0000000819564
 20
44.84999990463257
 30
0.0000000000000000
 40
5.300000190734863
 41
0.0000000000000000
 71
     7
 72
     1
  1
{\H0.81x;{ }}
 11
1.000000000000000
 21
0.0000000000000000
 31
0.0000000000000000
  7
STANDARD
  0
MTEXT
  5
432
100
AcDbEntity
  8
WAKU0
  6
CONTINUOUS
 62
3
100
AcDbMText
 10
461.3850002884865
 20
33.00000000000000
 30
0.0000000000000000
 40
3.000000000000000
 41
0.0000000000000000
 71
     7
 72
     1
  1
{\H0.93x;{DRAWN BY}}
 11
1.000000000000000
 21
0.0000000000000000
 31
0.0000000000000000
  7
STANDARD
  0
MTEXT
  5
433
100
AcDbEntity
  8
WAKU0
  6
CONTINUOUS
 62
3
100
AcDbMText
 10
441.2149997949600
 20
32.95000004768372
 30
0.0000000000000000
 40
3.099999904632568
 41
0.0000000000000000
 71
     7
 72
     1
  1
{\H0.92x;{CHIEF}}
 11
1.000000000000000
 21
0.0000000000000000
 31
0.0000000000000000
  7
STANDARD
  0
MTEXT
  5
434
100
AcDbEntity
  8
WAKU0
  6
CONTINUOUS
 62
3
100
AcDbMText
 10
414.4249997138977
 20
32.95000004768372
 30
0.0000000000000000
 40
3.099999904632568
 41
0.0000000000000000
 71
     7
 72
     1
  1
{\H0.92x;{MANAGER}}
 11
1.000000000000000
 21
0.0000000000000000
 31
0.0000000000000000
  7
STANDARD
  0
MTEXT
  5
435
100
AcDbEntity
  8
WAKU0
  6
CONTINUOUS
 62
3
100
AcDbMText
 10
416.6599994301796
 20
18.13333336512248
 30
0.0000000000000000
 40
3.099999904632568
 41
0.0000000000000000
 71
     7
 72
     1
  1
{\H0.93x;{KITAGAWA IRON\PWORKS CO.,LTD.}}
 11
1.000000000000000
 21
0.0000000000000000
 31
0.0000000000000000
  7
STANDARD
  0
MTEXT
  5
436
100
AcDbEntity
  8
WAKU0
  6
CONTINUOUS
 62
3
100
AcDbMText
 10
413.0850002169609
 20
46.50000000000000
 30
0.0000000000000000
 40
3.000000000000000
 41
0.0000000000000000
 71
     7
 72
     1
  1
{\H0.92x;{CAREER}}
 11
1.000000000000000
 21
0.0000000000000000
 31
0.0000000000000000
  7
STANDARD
  0
MTEXT
  5
437
100
AcDbEntity
  8
WAKU0
  6
CONTINUOUS
 62
3
100
AcDbMText
 10
466.6099998354912
 20
18.95000004768372
 30
0.0000000000000000
 40
3.099999904632568
 41
0.0000000000000000
 71
     7
 72
     1
  1
{\H0.91x;{DATE}}
 11
1.000000000000000
 21
0.0000000000000000
 31
0.0000000000000000
  7
STANDARD
  0
MTEXT
  5
438
100
AcDbEntity
  8
WAKU0
  6
CONTINUOUS
 62
3
100
AcDbMText
 10
485.9000002145767
 20
26.50000000000000
 30
0.0000000000000000
 40
3.000000000000000
 41
0.0000000000000000
 71
     7
 72
     1
  1
{\H0.63x;{3RD ANGLE}}
 11
1.000000000000000
 21
0.0000000000000000
 31
0.0000000000000000
  7
STANDARD
  0
MTEXT
  5
439
100
AcDbEntity
  8
WAKU0
  6
CONTINUOUS
 62
3
100
AcDbMText
 10
487.2149997949600
 20
45.95000004768372
 30
0.0000000000000000
 40
3.099999904632568
 41
0.0000000000000000
 71
     7
 72
     1
  1
{\H0.92x;{SCALE}}
 11
1.000000000000000
 21
0.0000000000000000
 31
0.0000000000000000
  7
STANDARD
  0
MTEXT
  5
43A
100
AcDbEntity
  8
WAKU0
  6
CONTINUOUS
 62
3
100
AcDbMText
 10
577.7000000476837
 20
46.00000000000000
 30
0.0000000000000000
 40
3.000000000000000
 41
0.0000000000000000
 71
     7
 72
     1
  1
{\H0.63x;{kg}}
 11
1.000000000000000
 21
0.0000000000000000
 31
0.0000000000000000
  7
STANDARD
  0
MTEXT
  5
43B
100
AcDbEntity
  8
WAKU0
  6
CONTINUOUS
 62
3
100
AcDbMText
 10
547.6000001430512
 20
46.00000000000000
 30
0.0000000000000000
 40
3.000000000000000
 41
0.0000000000000000
 71
     7
 72
     1
  1
{\H0.63x;{WEIGHT}}
 11
1.000000000000000
 21
0.0000000000000000
 31
0.0000000000000000
  7
STANDARD
  0
MTEXT
  5
43C
100
AcDbEntity
  8
WAKU0
  6
CONTINUOUS
 62
3
100
AcDbMText
 10
506.0049998760223
 20
18.13333336512248
 30
0.0000000000000000
 40
3.099999904632568
 41
0.0000000000000000
 71
     7
 72
     1
  1
{\H0.90x;{DRW\PNO.}}
 11
1.000000000000000
 21
0.0000000000000000
 31
0.0000000000000000
  7
STANDARD
  0
MTEXT
  5
43D
100
AcDbEntity
  8
WAKU0
  6
CONTINUOUS
 62
3
100
AcDbMText
 10
504.6099998354912
 20
31.95000004768372
 30
0.0000000000000000
 40
3.099999904632568
 41
0.0000000000000000
 71
     7
 72
     1
  1
{\H0.91x;{NAME}}
 11
1.000000000000000
 21
0.0000000000000000
 31
0.0000000000000000
  7
STANDARD
  0
MTEXT
  5
43E
100
AcDbEntity
  8
WAKU0
  6
CONTINUOUS
 62
3
100
AcDbMText
 10
504.6099998354912
 20
45.95000004768372
 30
0.0000000000000000
 40
3.099999904632568
 41
0.0000000000000000
 71
     7
 72
     1
  1
{\H0.91x;{TYPE}}
 11
1.000000000000000
 21
0.0000000000000000
 31
0.0000000000000000
  7
STANDARD
  0
LINE
  5
43F
100
AcDbEntity
  8
WAKU0
  6
HIDDEN
 62
3
100
AcDbLine
 10
579.1599564743885
 20
13.84999990463257
 30
0.0000000000000000
 11
568.9400436209789
 21
13.84999990463257
 31
0.0000000000000000
  0
LINE
  5
440
100
AcDbEntity
  8
WAKU0
  6
HIDDEN
 62
3
100
AcDbLine
 10
579.1599564743885
 20
13.84999990463250
 30
0.0000000000000000
 11
574.0500000476851
 21
22.70070406014901
 31
0.0000000000000000
  0
LINE
  5
441
100
AcDbEntity
  8
WAKU0
  6
HIDDEN
 62
3
100
AcDbLine
 10
574.0500000476851
 20
22.70070406014902
 30
0.0000000000000000
 11
568.9400436209789
 21
13.84999990463248
 31
0.0000000000000000
  0
LINE
  5
442
100
AcDbEntity
  8
WAKU0
  6
CONTINUOUS
 62
3
100
AcDbLine
 10
502.4713877753800
 20
15.78041421262812
 30
0.0000000000000000
 11
502.4713877753800
 21
21.78041421262815
 31
0.0000000000000000
  0
LINE
  5
443
100
AcDbEntity
  8
WAKU0
  6
CONTINUOUS
 62
3
100
AcDbLine
 10
495.9336941228225
 20
17.28041421262811
 30
0.0000000000000000
 11
495.9336941228225
 21
20.28041421262824
 31
0.0000000000000000
  0
LINE
  5
444
100
AcDbEntity
  8
WAKU0
  6
CENTER
 62
12
100
AcDbLine
 10
485.4321805514995
 20
18.78041421262813
 30
0.0000000000000000
 11
503.2765788964694
 21
18.78041421262813
 31
0.0000000000000000
  0
LINE
  5
445
100
AcDbEntity
  8
WAKU0
  6
CENTER
 62
12
100
AcDbLine
 10
489.4474565857986
 20
14.55921662918448
 30
0.0000000000000000
 11
489.4474565857986
 21
22.89865102149943
 31
0.0000000000000000
  0
LINE
  5
446
100
AcDbEntity
  8
WAKU0
  6
CONTINUOUS
 62
3
100
AcDbLine
 10
495.9336941228225
 20
20.28041421262797
 30
0.0000000000000000
 11
502.4713877753800
 21
21.78041421262795
 31
0.0000000000000000
  0
LINE
  5
447
100
AcDbEntity
  8
WAKU0
  6
CONTINUOUS
 62
3
100
AcDbLine
 10
495.9336941228225
 20
17.28041421262811
 30
0.0000000000000000
 11
502.4713877753799
 21
15.78041421262812
 31
0.0000000000000000
  0
CIRCLE
  5
448
100
AcDbEntity
  8
WAKU0
  6
CONTINUOUS
 62
3
100
AcDbCircle
 10
489.4474565857986
 20
18.78041421262813
 30
0.0000000000000000
 40
1.499999999999972
  0
CIRCLE
  5
449
100
AcDbEntity
  8
WAKU0
  6
CONTINUOUS
 62
3
100
AcDbCircle
 10
489.4474565857986
 20
18.78041421262813
 30
0.0000000000000000
 40
2.999999999999979
  0
ENDSEC
  0
SECTION
  2
OBJECTS
  0
DICTIONARY
  5
49B
100
AcDbDictionary
  3
ACAD_GROUP
350
49C
  3
ACAD_MLINESTYLE
350
49D
  0
DICTIONARY
  5
49C
102
{ACAD_REACTORS
330
49B
102
}
100
AcDbDictionary
  0
DICTIONARY
  5
49D
102
{ACAD_REACTORS
330
49B
102
}
100
AcDbDictionary
  3
STANDARD
350
49E
  0
MLINESTYLE
  5
49E
102
{ACAD_REACTORS
330
49D
102
}
100
AcDbMlineStyle
  2
STANDARD
 70
     0
  3

 62
   256
 51
90.00
 52
90.00
 71
     2
 49
0.50
 62
   256
  6
BYLAYER
 49
-0.50
 62
   256
  6
BYLAYER
  0
ENDSEC
  0
EOF
